  0
SECTION
  2
HEADER
  9
$ACADVER
  1
AC1015
  9
$ACADMAINTVER
 70
    18
  9
$DWGCODEPAGE
  3
ANSI_1252
  9
$INSBASE
 10
0.0
 20
0.0
 30
0.0
  9
$EXTMIN
 10
0.0
 20
0.0
 30
0.0
  9
$EXTMAX
 10
45.33333333333333
 20
29.33333333333333
 30
0.0
  9
$LIMMIN
 10
0.0
 20
0.0
  9
$LIMMAX
 10
45.33333333333333
 20
29.33333333333333
  9
$ORTHOMODE
 70
     0
  9
$REGENMODE
 70
     1
  9
$FILLMODE
 70
     1
  9
$QTEXTMODE
 70
     0
  9
$MIRRTEXT
 70
     0
  9
$LTSCALE
 40
2.666666666666666
  9
$ATTMODE
 70
     1
  9
$TEXTSIZE
 40
0.2
  9
$TRACEWID
 40
0.05
  9
$TEXTSTYLE
  7
Standard
  9
$CLAYER
  8
0
  9
$CELTYPE
  6
ByLayer
  9
$CECOLOR
 62
   256
  9
$CELTSCALE
 40
1.0
  9
$DISPSILH
 70
     0
  9
$DIMSCALE
 40
1.0
  9
$DIMASZ
 40
0.0708661417322835
  9
$DIMEXO
 40
0.0625
  9
$DIMDLI
 40
0.38
  9
$DIMRND
 40
0.0
  9
$DIMDLE
 40
0.0
  9
$DIMEXE
 40
0.18
  9
$DIMTP
 40
0.0
  9
$DIMTM
 40
0.0
  9
$DIMTXT
 40
0.0708661417322835
  9
$DIMCEN
 40
0.09
  9
$DIMTSZ
 40
0.0
  9
$DIMTOL
 70
     0
  9
$DIMLIM
 70
     0
  9
$DIMTIH
 70
     1
  9
$DIMTOH
 70
     1
  9
$DIMSE1
 70
     0
  9
$DIMSE2
 70
     0
  9
$DIMTAD
 70
     0
  9
$DIMZIN
 70
     0
  9
$DIMBLK
  1

  9
$DIMASO
 70
     1
  9
$DIMSHO
 70
     1
  9
$DIMPOST
  1

  9
$DIMAPOST
  1

  9
$DIMALT
 70
     0
  9
$DIMALTD
 70
     2
  9
$DIMALTF
 40
25.4
  9
$DIMLFAC
 40
1.0
  9
$DIMTOFL
 70
     0
  9
$DIMTVP
 40
0.0
  9
$DIMTIX
 70
     0
  9
$DIMSOXD
 70
     0
  9
$DIMSAH
 70
     0
  9
$DIMBLK1
  1

  9
$DIMBLK2
  1

  9
$DIMSTYLE
  2
Standard
  9
$DIMCLRD
 70
     0
  9
$DIMCLRE
 70
     0
  9
$DIMCLRT
 70
     0
  9
$DIMTFAC
 40
1.0
  9
$DIMGAP
 40
0.09
  9
$DIMJUST
 70
     0
  9
$DIMSD1
 70
     0
  9
$DIMSD2
 70
     0
  9
$DIMTOLJ
 70
     1
  9
$DIMTZIN
 70
     0
  9
$DIMALTZ
 70
     0
  9
$DIMALTTZ
 70
     0
  9
$DIMUPT
 70
     0
  9
$DIMDEC
 70
     4
  9
$DIMTDEC
 70
     4
  9
$DIMALTU
 70
     2
  9
$DIMALTTD
 70
     2
  9
$DIMTXSTY
  7
Standard
  9
$DIMAUNIT
 70
     0
  9
$DIMADEC
 70
     0
  9
$DIMALTRND
 40
0.0
  9
$DIMAZIN
 70
     0
  9
$DIMDSEP
 70
    46
  9
$DIMATFIT
 70
     3
  9
$DIMFRAC
 70
     0
  9
$DIMLDRBLK
  1

  9
$DIMLUNIT
 70
     2
  9
$DIMLWD
 70
    -2
  9
$DIMLWE
 70
    -2
  9
$DIMTMOVE
 70
     0
  9
$LUNITS
 70
     2
  9
$LUPREC
 70
     4
  9
$SKETCHINC
 40
0.1
  9
$FILLETRAD
 40
0.0
  9
$AUNITS
 70
     0
  9
$AUPREC
 70
     0
  9
$MENU
  1
.
  9
$ELEVATION
 40
0.0
  9
$PELEVATION
 40
0.0
  9
$THICKNESS
 40
0.0
  9
$LIMCHECK
 70
     0
  9
$CHAMFERA
 40
0.0
  9
$CHAMFERB
 40
0.0
  9
$CHAMFERC
 40
0.0
  9
$CHAMFERD
 40
0.0
  9
$SKPOLY
 70
     0
  9
$TDCREATE
 40
2455986.367101875
  9
$TDUCREATE
 40
2455986.617101875
  9
$TDUPDATE
 40
2455986.367101875
  9
$TDUUPDATE
 40
2455986.617101875
  9
$TDINDWG
 40
0.0000741551
  9
$TDUSRTIMER
 40
0.0000741551
  9
$USRTIMER
 70
     1
  9
$ANGBASE
 50
0.0
  9
$ANGDIR
 70
     0
  9
$PDMODE
 70
     0
  9
$PDSIZE
 40
0.0
  9
$PLINEWID
 40
0.0
  9
$SPLFRAME
 70
     0
  9
$SPLINETYPE
 70
     6
  9
$SPLINESEGS
 70
     8
  9
$HANDSEED
  5
7FF
  9
$SURFTAB1
 70
     6
  9
$SURFTAB2
 70
     6
  9
$SURFTYPE
 70
     6
  9
$SURFU
 70
     6
  9
$SURFV
 70
     6
  9
$UCSBASE
  2

  9
$UCSNAME
  2

  9
$UCSORG
 10
0.0
 20
0.0
 30
0.0
  9
$UCSXDIR
 10
1.0
 20
0.0
 30
0.0
  9
$UCSYDIR
 10
0.0
 20
1.0
 30
0.0
  9
$UCSORTHOREF
  2

  9
$UCSORTHOVIEW
 70
     0
  9
$UCSORGTOP
 10
0.0
 20
0.0
 30
0.0
  9
$UCSORGBOTTOM
 10
0.0
 20
0.0
 30
0.0
  9
$UCSORGLEFT
 10
0.0
 20
0.0
 30
0.0
  9
$UCSORGRIGHT
 10
0.0
 20
0.0
 30
0.0
  9
$UCSORGFRONT
 10
0.0
 20
0.0
 30
0.0
  9
$UCSORGBACK
 10
0.0
 20
0.0
 30
0.0
  9
$PUCSBASE
  2

  9
$PUCSNAME
  2

  9
$PUCSORG
 10
0.0
 20
0.0
 30
0.0
  9
$PUCSXDIR
 10
1.0
 20
0.0
 30
0.0
  9
$PUCSYDIR
 10
0.0
 20
1.0
 30
0.0
  9
$PUCSORTHOREF
  2

  9
$PUCSORTHOVIEW
 70
     0
  9
$PUCSORGTOP
 10
0.0
 20
0.0
 30
0.0
  9
$PUCSORGBOTTOM
 10
0.0
 20
0.0
 30
0.0
  9
$PUCSORGLEFT
 10
0.0
 20
0.0
 30
0.0
  9
$PUCSORGRIGHT
 10
0.0
 20
0.0
 30
0.0
  9
$PUCSORGFRONT
 10
0.0
 20
0.0
 30
0.0
  9
$PUCSORGBACK
 10
0.0
 20
0.0
 30
0.0
  9
$USERI1
 70
     0
  9
$USERI2
 70
     0
  9
$USERI3
 70
     0
  9
$USERI4
 70
     0
  9
$USERI5
 70
     0
  9
$USERR1
 40
0.0
  9
$USERR2
 40
0.0
  9
$USERR3
 40
0.0
  9
$USERR4
 40
0.0
  9
$USERR5
 40
0.0
  9
$WORLDVIEW
 70
     1
  9
$SHADEDGE
 70
     3
  9
$SHADEDIF
 70
    70
  9
$TILEMODE
 70
     1
  9
$MAXACTVP
 70
    64
  9
$PINSBASE
 10
0.0
 20
0.0
 30
0.0
  9
$PLIMCHECK
 70
     0
  9
$PEXTMIN
 10
0.0
 20
0.0
 30
0.0
  9
$PEXTMAX
 10
45.33333333333333
 20
29.33333333333333
 30
0.0
  9
$PLIMMIN
 10
0.0
 20
0.0
  9
$PLIMMAX
 10
45.33333333333333
 20
29.33333333333333
  9
$UNITMODE
 70
     0
  9
$VISRETAIN
 70
     1
  9
$PLINEGEN
 70
     0
  9
$PSLTSCALE
 70
     1
  9
$TREEDEPTH
 70
  3020
  9
$CMLSTYLE
  2
Standard
  9
$CMLJUST
 70
     0
  9
$CMLSCALE
 40
1.0
  9
$PROXYGRAPHICS
 70
     1
  9
$MEASUREMENT
 70
     0
  9
$CELWEIGHT
370
    -1
  9
$ENDCAPS
280
     0
  9
$JOINSTYLE
280
     0
  9
$LWDISPLAY
290
     0
  9
$INSUNITS
 70
     1
  9
$HYPERLINKBASE
  1

  9
$STYLESHEET
  1

  9
$XEDIT
290
     1
  9
$CEPSNTYPE
380
     0
  9
$PSTYLEMODE
290
     1
  9
$FINGERPRINTGUID
  2
{687CADE1-9217-425D-AAAD-D582ECD5F95C}
  9
$VERSIONGUID
  2
{F57F57D2-A872-4745-8036-DC8E7D9DDD07}
  9
$EXTNAMES
290
     1
  9
$PSVPSCALE
 40
0.0
  9
$OLESTARTUP
290
     0
  0
ENDSEC
  0
SECTION
  2
CLASSES
  0
CLASS
  1
ACDBDICTIONARYWDFLT
  2
AcDbDictionaryWithDefault
  3
ObjectDBX Classes
 90
        0
280
     0
281
     0
  0
CLASS
  1
MATERIAL
  2
AcDbMaterial
  3
ObjectDBX Classes
 90
     1153
280
     0
281
     0
  0
CLASS
  1
VISUALSTYLE
  2
AcDbVisualStyle
  3
ObjectDBX Classes
 90
     4095
280
     0
281
     0
  0
CLASS
  1
SCALE
  2
AcDbScale
  3
ObjectDBX Classes
 90
     1153
280
     0
281
     0
  0
CLASS
  1
TABLESTYLE
  2
AcDbTableStyle
  3
ObjectDBX Classes
 90
     4095
280
     0
281
     0
  0
CLASS
  1
MLEADERSTYLE
  2
AcDbMLeaderStyle
  3
ACDB_MLEADERSTYLE_CLASS
 90
     4095
280
     0
281
     0
  0
CLASS
  1
DICTIONARYVAR
  2
AcDbDictionaryVar
  3
ObjectDBX Classes
 90
        0
280
     0
281
     0
  0
CLASS
  1
CELLSTYLEMAP
  2
AcDbCellStyleMap
  3
ObjectDBX Classes
 90
     1152
280
     0
281
     0
  0
CLASS
  1
ACDBPLACEHOLDER
  2
AcDbPlaceHolder
  3
ObjectDBX Classes
 90
        0
280
     0
281
     0
  0
CLASS
  1
LAYOUT
  2
AcDbLayout
  3
ObjectDBX Classes
 90
        0
280
     0
281
     0
  0
ENDSEC
  0
SECTION
  2
TABLES
  0
TABLE
  2
VPORT
  5
8
330
0
100
AcDbSymbolTable
 70
     1
  0
VPORT
  5
57
330
8
100
AcDbSymbolTableRecord
100
AcDbViewportTableRecord
  2
*Active
 70
     0
 10
0.0
 20
0.0
 11
1.0
 21
1.0
 12
22.66666666666667
 22
14.66666666666666
 13
0.0
 23
0.0
 14
1.0
 24
1.0
 15
0.0
 25
0.0
 16
0.0
 26
0.0
 36
1.0
 17
0.0
 27
0.0
 37
0.0
 40
29.33333333333333
 41
1.545454545454545
 42
50.0
 43
0.0
 44
0.0
 50
0.0
 51
0.0
 71
     0
 72
   100
 73
     1
 74
     1
 75
     0
 76
     0
 77
     0
 78
     0
281
     0
 65
     1
110
0.0
120
0.0
130
0.0
111
1.0
121
0.0
131
0.0
112
0.0
122
1.0
132
0.0
 79
     0
146
0.0
  0
ENDTAB
  0
TABLE
  2
LTYPE
  5
5
330
0
100
AcDbSymbolTable
 70
    59
  0
LTYPE
  5
5B
330
5
100
AcDbSymbolTableRecord
100
AcDbLinetypeTableRecord
  2
ByBlock
 70
     0
  3

 72
    65
 73
     0
 40
0.0
  0
LTYPE
  5
5C
330
5
100
AcDbSymbolTableRecord
100
AcDbLinetypeTableRecord
  2
ByLayer
 70
     0
  3

 72
    65
 73
     0
 40
0.0
  0
LTYPE
  5
5D
330
5
100
AcDbSymbolTableRecord
100
AcDbLinetypeTableRecord
  2
Continuous
 70
     0
  3
Solid line
 72
    65
 73
     0
 40
0.0
  0
LTYPE
  5
7C
330
5
100
AcDbSymbolTableRecord
100
AcDbLinetypeTableRecord
  2
BY_STANDARD
 70
     0
  3
By Standard ____________    ____    ____   _
 72
    65
 73
     6
 40
1.240299999999999
 49
0.6614
 74
     0
 49
-0.0827
 74
     0
 49
0.1654
 74
     0
 49
-0.0827
 74
     0
 49
0.1654
 74
     0
 49
-0.0827
 74
     0
  0
LTYPE
  5
7D
330
5
100
AcDbSymbolTableRecord
100
AcDbLinetypeTableRecord
  2
CHAIN
 70
     0
  3
Chain ____ _ ____ _ ____ _ ____ _ ____ _ ____
 72
    65
 73
     4
 40
0.7087
 49
0.4724000000000001
 74
     0
 49
-0.0591
 74
     0
 49
0.1181
 74
     0
 49
-0.0591
 74
     0
  0
LTYPE
  5
7E
330
5
100
AcDbSymbolTableRecord
100
AcDbLinetypeTableRecord
  2
DASH_DOT
 70
     0
  3
Dash dot __ . __ . __ . __ . __ . __ . __ . __
 72
    65
 73
     4
 40
0.37
 49
0.24
 74
     0
 49
-0.06
 74
     0
 49
0.01
 74
     0
 49
-0.06
 74
     0
  0
LTYPE
  5
7F
330
5
100
AcDbSymbolTableRecord
100
AcDbLinetypeTableRecord
  2
DOUBLE_DASH_DOT
 70
     0
  3
Double-Dash Dot __ __ . __ __ . __ __ . __ _
 72
    65
 73
     6
 40
0.4398
 49
0.24
 74
     0
 49
-0.06
 74
     0
 49
0.0098
 74
     0
 49
-0.06
 74
     0
 49
0.01
 74
     0
 49
-0.06
 74
     0
  0
LTYPE
  5
80
330
5
100
AcDbSymbolTableRecord
100
AcDbLinetypeTableRecord
  2
DASH_TRIPLE_DOT
 70
     0
  3
Dash Triple-Dot _ . . . _ . . . _ . . . _
 72
    65
 73
     8
 40
0.51
 49
0.24
 74
     0
 49
-0.06
 74
     0
 49
0.01
 74
     0
 49
-0.06
 74
     0
 49
0.01
 74
     0
 49
-0.06
 74
     0
 49
0.01
 74
     0
 49
-0.06
 74
     0
  0
LTYPE
  5
81
330
5
100
AcDbSymbolTableRecord
100
AcDbLinetypeTableRecord
  2
DASHED
 70
     0
  3
Dashed __ __ __ __ __ __ __ __ __ __ __ __ __ _
 72
    65
 73
     2
 40
0.2067
 49
0.1654
 74
     0
 49
-0.0413
 74
     0
  0
LTYPE
  5
82
330
5
100
AcDbSymbolTableRecord
100
AcDbLinetypeTableRecord
  2
DASH_DOUBLE_DOT
 70
     0
  3
Dash Double-Dot __ . . __ . . __ . . __ . .
 72
    65
 73
     6
 40
0.4398
 49
0.24
 74
     0
 49
-0.06
 74
     0
 49
0.0098
 74
     0
 49
-0.06
 74
     0
 49
0.01
 74
     0
 49
-0.06
 74
     0
  0
LTYPE
  5
83
330
5
100
AcDbSymbolTableRecord
100
AcDbLinetypeTableRecord
  2
DASHED_SPACE
 70
     0
  3
Dashed Space __ __ __ __ __ __ __ __ __ __ __ _
 72
    65
 73
     2
 40
0.2067
 49
0.1654
 74
     0
 49
-0.0413
 74
     0
  0
LTYPE
  5
84
330
5
100
AcDbSymbolTableRecord
100
AcDbLinetypeTableRecord
  2
DOTTED
 70
     0
  3
Dotted . . . . . . . . . . . . . . . . . . . . 
 72
    65
 73
     2
 40
0.0482
 49
0.0069
 74
     0
 49
-0.0413
 74
     0
  0
LTYPE
  5
85
330
5
100
AcDbSymbolTableRecord
100
AcDbLinetypeTableRecord
  2
DOUBLE_DASH_CHAIN
 70
     0
  3
Double-Dash Chain ______  __  __  ______  __  _
 72
    65
 73
     6
 40
1.240299999999999
 49
0.6614
 74
     0
 49
-0.0827
 74
     0
 49
0.1654
 74
     0
 49
-0.0827
 74
     0
 49
0.1654
 74
     0
 49
-0.0827
 74
     0
  0
LTYPE
  5
87
330
5
100
AcDbSymbolTableRecord
100
AcDbLinetypeTableRecord
  2
DOUBLE_DASH_DOUBLE_DOT
 70
     0
  3
Double-Dash Double-dot _ _ . . _ _ . . _
 72
    65
 73
     8
 40
0.7400000000000001
 49
0.24
 74
     0
 49
-0.06
 74
     0
 49
0.24
 74
     0
 49
-0.06
 74
     0
 49
0.01
 74
     0
 49
-0.06
 74
     0
 49
0.01
 74
     0
 49
-0.06
 74
     0
  0
LTYPE
  5
88
330
5
100
AcDbSymbolTableRecord
100
AcDbLinetypeTableRecord
  2
DOUBLE_DASH_TRIPLE_DOT
 70
     0
  3
Double Dash Triple Dot __ __ . . . __ __ . .
 72
    65
 73
    10
 40
0.8100000000000001
 49
0.24
 74
     0
 49
-0.06
 74
     0
 49
0.24
 74
     0
 49
-0.06
 74
     0
 49
0.01
 74
     0
 49
-0.06
 74
     0
 49
0.01
 74
     0
 49
-0.06
 74
     0
 49
0.01
 74
     0
 49
-0.06
 74
     0
  0
LTYPE
  5
89
330
5
100
AcDbSymbolTableRecord
100
AcDbLinetypeTableRecord
  2
LONG_DASH_DOTTED
 70
     0
  3
Long Dash Dotted ____ . ____ . ____ . ____ . _
 72
    65
 73
     4
 40
0.3543
 49
0.2362
 74
     0
 49
-0.0295
 74
     0
 49
0.0591
 74
     0
 49
-0.0295
 74
     0
  0
LTYPE
  5
8A
330
5
100
AcDbSymbolTableRecord
100
AcDbLinetypeTableRecord
  2
LONG_DASH_DOUBLE_DOT
 70
     0
  3
Long Dash Double Dot ________  .  .  ________  
 72
    65
 73
     6
 40
0.6799999999999999
 49
0.48
 74
     0
 49
-0.06
 74
     0
 49
0.01
 74
     0
 49
-0.06
 74
     0
 49
0.01
 74
     0
 49
-0.06
 74
     0
  0
LTYPE
  5
8B
330
5
100
AcDbSymbolTableRecord
100
AcDbLinetypeTableRecord
  2
LONG_DASH_TRIPLE_DOT
 70
     0
  3
Long Dash Triple Dot ____ ... ____ ... ____
 72
    65
 73
     8
 40
0.3689
 49
0.2362
 74
     0
 49
-0.0295
 74
     0
 49
0.0049
 74
     0
 49
-0.0295
 74
     0
 49
0.0049
 74
     0
 49
-0.0295
 74
     0
 49
0.0049
 74
     0
 49
-0.0295
 74
     0
  0
LTYPE
  5
8C
330
5
100
AcDbSymbolTableRecord
100
AcDbLinetypeTableRecord
  2
BORDER
 70
     0
  3
Border __ __ . __ __ . __ __ . __ __ . __ __ .
 72
    65
 73
     6
 40
1.75
 49
0.5
 74
     0
 49
-0.25
 74
     0
 49
0.5
 74
     0
 49
-0.25
 74
     0
 49
0.0
 74
     0
 49
-0.25
 74
     0
  0
LTYPE
  5
8D
330
5
100
AcDbSymbolTableRecord
100
AcDbLinetypeTableRecord
  2
BORDER2
 70
     0
  3
Border (.5x) __.__.__.__.__.__.__.__.__.__.__.
 72
    65
 73
     6
 40
0.875
 49
0.25
 74
     0
 49
-0.125
 74
     0
 49
0.25
 74
     0
 49
-0.125
 74
     0
 49
0.0
 74
     0
 49
-0.125
 74
     0
  0
LTYPE
  5
8E
330
5
100
AcDbSymbolTableRecord
100
AcDbLinetypeTableRecord
  2
BORDERX2
 70
     0
  3
Border (2x) ____  ____  .  ____  ____  .  ___
 72
    65
 73
     6
 40
3.5
 49
1.0
 74
     0
 49
-0.5
 74
     0
 49
1.0
 74
     0
 49
-0.5
 74
     0
 49
0.0
 74
     0
 49
-0.5
 74
     0
  0
LTYPE
  5
8F
330
5
100
AcDbSymbolTableRecord
100
AcDbLinetypeTableRecord
  2
CENTER
 70
     0
  3
Center ____ _ ____ _ ____ _ ____ _ ____ _ ____
 72
    65
 73
     4
 40
2.0
 49
1.25
 74
     0
 49
-0.25
 74
     0
 49
0.25
 74
     0
 49
-0.25
 74
     0
  0
LTYPE
  5
90
330
5
100
AcDbSymbolTableRecord
100
AcDbLinetypeTableRecord
  2
CENTER2
 70
     0
  3
Center (.5x) ___ _ ___ _ ___ _ ___ _ ___ _ ___
 72
    65
 73
     4
 40
1.125
 49
0.75
 74
     0
 49
-0.125
 74
     0
 49
0.125
 74
     0
 49
-0.125
 74
     0
  0
LTYPE
  5
91
330
5
100
AcDbSymbolTableRecord
100
AcDbLinetypeTableRecord
  2
CENTERX2
 70
     0
  3
Center (2x) ________  __  ________  __  _____
 72
    65
 73
     4
 40
4.0
 49
2.5
 74
     0
 49
-0.5
 74
     0
 49
0.5
 74
     0
 49
-0.5
 74
     0
  0
LTYPE
  5
92
330
5
100
AcDbSymbolTableRecord
100
AcDbLinetypeTableRecord
  2
DASHDOT2
 70
     0
  3
Dash dot (.5x) _._._._._._._._._._._._._._._.
 72
    65
 73
     4
 40
0.5
 49
0.25
 74
     0
 49
-0.125
 74
     0
 49
0.0
 74
     0
 49
-0.125
 74
     0
  0
LTYPE
  5
93
330
5
100
AcDbSymbolTableRecord
100
AcDbLinetypeTableRecord
  2
DASHDOTX2
 70
     0
  3
Dash dot (2x) ____  .  ____  .  ____  .  ___
 72
    65
 73
     4
 40
2.0
 49
1.0
 74
     0
 49
-0.5
 74
     0
 49
0.0
 74
     0
 49
-0.5
 74
     0
  0
LTYPE
  5
95
330
5
100
AcDbSymbolTableRecord
100
AcDbLinetypeTableRecord
  2
DASHED2
 70
     0
  3
Dashed (.5x) _ _ _ _ _ _ _ _ _ _ _ _ _ _ _ _ _
 72
    65
 73
     2
 40
0.375
 49
0.25
 74
     0
 49
-0.125
 74
     0
  0
LTYPE
  5
96
330
5
100
AcDbSymbolTableRecord
100
AcDbLinetypeTableRecord
  2
DASHEDX2
 70
     0
  3
Dashed (2x) ____  ____  ____  ____  ____  ___
 72
    65
 73
     2
 40
1.5
 49
1.0
 74
     0
 49
-0.5
 74
     0
  0
LTYPE
  5
97
330
5
100
AcDbSymbolTableRecord
100
AcDbLinetypeTableRecord
  2
DIVIDE
 70
     0
  3
Divide ____ . . ____ . . ____ . . ____ . . ____
 72
    65
 73
     6
 40
1.25
 49
0.5
 74
     0
 49
-0.25
 74
     0
 49
0.0
 74
     0
 49
-0.25
 74
     0
 49
0.0
 74
     0
 49
-0.25
 74
     0
  0
LTYPE
  5
98
330
5
100
AcDbSymbolTableRecord
100
AcDbLinetypeTableRecord
  2
DIVIDE2
 70
     0
  3
Divide (.5x) __..__..__..__..__..__..__..__.._
 72
    65
 73
     6
 40
0.625
 49
0.25
 74
     0
 49
-0.125
 74
     0
 49
0.0
 74
     0
 49
-0.125
 74
     0
 49
0.0
 74
     0
 49
-0.125
 74
     0
  0
LTYPE
  5
99
330
5
100
AcDbSymbolTableRecord
100
AcDbLinetypeTableRecord
  2
DIVIDEX2
 70
     0
  3
Divide (2x) ________  .  .  ________  .  .  _
 72
    65
 73
     6
 40
2.5
 49
1.0
 74
     0
 49
-0.5
 74
     0
 49
0.0
 74
     0
 49
-0.5
 74
     0
 49
0.0
 74
     0
 49
-0.5
 74
     0
  0
LTYPE
  5
9A
330
5
100
AcDbSymbolTableRecord
100
AcDbLinetypeTableRecord
  2
DOT
 70
     0
  3
Dot . . . . . . . . . . . . . . . . . . . . . .
 72
    65
 73
     2
 40
0.25
 49
0.0
 74
     0
 49
-0.25
 74
     0
  0
LTYPE
  5
9B
330
5
100
AcDbSymbolTableRecord
100
AcDbLinetypeTableRecord
  2
DOT2
 70
     0
  3
Dot (.5x) .....................................
 72
    65
 73
     2
 40
0.125
 49
0.0
 74
     0
 49
-0.125
 74
     0
  0
LTYPE
  5
9C
330
5
100
AcDbSymbolTableRecord
100
AcDbLinetypeTableRecord
  2
DOTX2
 70
     0
  3
Dot (2x) .  .  .  .  .  .  .  .  .  .  .  .  . 
 72
    65
 73
     2
 40
0.5
 49
0.0
 74
     0
 49
-0.5
 74
     0
  0
LTYPE
  5
9D
330
5
100
AcDbSymbolTableRecord
100
AcDbLinetypeTableRecord
  2
HIDDEN
 70
     0
  3
Hidden __ __ __ __ __ __ __ __ __ __ __ __ __ _
 72
    65
 73
     2
 40
0.375
 49
0.25
 74
     0
 49
-0.125
 74
     0
  0
LTYPE
  5
9E
330
5
100
AcDbSymbolTableRecord
100
AcDbLinetypeTableRecord
  2
HIDDEN2
 70
     0
  3
Hidden (.5x) _ _ _ _ _ _ _ _ _ _ _ _ _ _ _ _ _
 72
    65
 73
     2
 40
0.1875
 49
0.125
 74
     0
 49
-0.0625
 74
     0
  0
LTYPE
  5
9F
330
5
100
AcDbSymbolTableRecord
100
AcDbLinetypeTableRecord
  2
HIDDENX2
 70
     0
  3
Hidden (2x) ____ ____ ____ ____ ____ ____ ____
 72
    65
 73
     2
 40
0.75
 49
0.5
 74
     0
 49
-0.25
 74
     0
  0
LTYPE
  5
A0
330
5
100
AcDbSymbolTableRecord
100
AcDbLinetypeTableRecord
  2
PHANTOM
 70
     0
  3
Phantom ______  __  __  ______  __  __  ______
 72
    65
 73
     6
 40
2.5
 49
1.25
 74
     0
 49
-0.25
 74
     0
 49
0.25
 74
     0
 49
-0.25
 74
     0
 49
0.25
 74
     0
 49
-0.25
 74
     0
  0
LTYPE
  5
A1
330
5
100
AcDbSymbolTableRecord
100
AcDbLinetypeTableRecord
  2
PHANTOM2
 70
     0
  3
Phantom (.5x) ___ _ _ ___ _ _ ___ _ _ ___ _ _
 72
    65
 73
     6
 40
1.25
 49
0.625
 74
     0
 49
-0.125
 74
     0
 49
0.125
 74
     0
 49
-0.125
 74
     0
 49
0.125
 74
     0
 49
-0.125
 74
     0
  0
LTYPE
  5
A2
330
5
100
AcDbSymbolTableRecord
100
AcDbLinetypeTableRecord
  2
PHANTOMX2
 70
     0
  3
Phantom (2x) ____________    ____    ____   _
 72
    65
 73
     6
 40
5.0
 49
2.5
 74
     0
 49
-0.5
 74
     0
 49
0.5
 74
     0
 49
-0.5
 74
     0
 49
0.5
 74
     0
 49
-0.5
 74
     0
  0
LTYPE
  5
A3
330
5
100
AcDbSymbolTableRecord
100
AcDbLinetypeTableRecord
  2
ACAD_ISO02W100
 70
     0
  3
ISO dash __ __ __ __ __ __ __ __ __ __ __ __ __
 72
    65
 73
     2
 40
0.59
 49
0.47
 74
     0
 49
-0.12
 74
     0
  0
LTYPE
  5
A4
330
5
100
AcDbSymbolTableRecord
100
AcDbLinetypeTableRecord
  2
ACAD_ISO03W100
 70
     0
  3
ISO dash space __    __    __    __    __    __
 72
    65
 73
     2
 40
1.179999999999999
 49
0.47
 74
     0
 49
-0.71
 74
     0
  0
LTYPE
  5
A5
330
5
100
AcDbSymbolTableRecord
100
AcDbLinetypeTableRecord
  2
ACAD_ISO04W100
 70
     0
  3
ISO long-dash dot ____ . ____ . ____ . ____ . _
 72
    65
 73
     4
 40
1.179999999999999
 49
0.9399999999999998
 74
     0
 49
-0.12
 74
     0
 49
0.0
 74
     0
 49
-0.12
 74
     0
  0
LTYPE
  5
A6
330
5
100
AcDbSymbolTableRecord
100
AcDbLinetypeTableRecord
  2
ACAD_ISO05W100
 70
     0
  3
ISO long-dash double-dot ____ .. ____ .. ____ .
 72
    65
 73
     6
 40
1.299999999999999
 49
0.9399999999999998
 74
     0
 49
-0.12
 74
     0
 49
0.0
 74
     0
 49
-0.12
 74
     0
 49
0.0
 74
     0
 49
-0.12
 74
     0
  0
LTYPE
  5
A7
330
5
100
AcDbSymbolTableRecord
100
AcDbLinetypeTableRecord
  2
ACAD_ISO06W100
 70
     0
  3
ISO long-dash triple-dot ____ ... ____ ... ____
 72
    65
 73
     8
 40
1.419999999999999
 49
0.9399999999999998
 74
     0
 49
-0.12
 74
     0
 49
0.0
 74
     0
 49
-0.12
 74
     0
 49
0.0
 74
     0
 49
-0.12
 74
     0
 49
0.0
 74
     0
 49
-0.12
 74
     0
  0
LTYPE
  5
A8
330
5
100
AcDbSymbolTableRecord
100
AcDbLinetypeTableRecord
  2
ACAD_ISO07W100
 70
     0
  3
ISO dot . . . . . . . . . . . . . . . . . . . .
 72
    65
 73
     2
 40
0.12
 49
0.0
 74
     0
 49
-0.12
 74
     0
  0
LTYPE
  5
A9
330
5
100
AcDbSymbolTableRecord
100
AcDbLinetypeTableRecord
  2
ACAD_ISO08W100
 70
     0
  3
ISO long-dash short-dash ____ __ ____ __ ____ _
 72
    65
 73
     4
 40
0.95
 49
0.47
 74
     0
 49
-0.12
 74
     0
 49
0.24
 74
     0
 49
-0.12
 74
     0
  0
LTYPE
  5
AA
330
5
100
AcDbSymbolTableRecord
100
AcDbLinetypeTableRecord
  2
ACAD_ISO09W100
 70
     0
  3
ISO long-dash double-short-dash ____ __ __ ____
 72
    65
 73
     6
 40
1.31
 49
0.47
 74
     0
 49
-0.12
 74
     0
 49
0.24
 74
     0
 49
-0.12
 74
     0
 49
0.24
 74
     0
 49
-0.12
 74
     0
  0
LTYPE
  5
AB
330
5
100
AcDbSymbolTableRecord
100
AcDbLinetypeTableRecord
  2
ACAD_ISO10W100
 70
     0
  3
ISO dash dot __ . __ . __ . __ . __ . __ . __ .
 72
    65
 73
     4
 40
0.71
 49
0.47
 74
     0
 49
-0.12
 74
     0
 49
0.0
 74
     0
 49
-0.12
 74
     0
  0
LTYPE
  5
AC
330
5
100
AcDbSymbolTableRecord
100
AcDbLinetypeTableRecord
  2
ACAD_ISO11W100
 70
     0
  3
ISO double-dash dot __ __ . __ __ . __ __ . __ 
 72
    65
 73
     6
 40
1.299999999999999
 49
0.47
 74
     0
 49
-0.12
 74
     0
 49
0.47
 74
     0
 49
-0.12
 74
     0
 49
0.0
 74
     0
 49
-0.12
 74
     0
  0
LTYPE
  5
AD
330
5
100
AcDbSymbolTableRecord
100
AcDbLinetypeTableRecord
  2
ACAD_ISO12W100
 70
     0
  3
ISO dash double-dot __ . . __ . . __ . . __ . .
 72
    65
 73
     6
 40
0.8299999999999998
 49
0.47
 74
     0
 49
-0.12
 74
     0
 49
0.0
 74
     0
 49
-0.12
 74
     0
 49
0.0
 74
     0
 49
-0.12
 74
     0
  0
LTYPE
  5
AE
330
5
100
AcDbSymbolTableRecord
100
AcDbLinetypeTableRecord
  2
ACAD_ISO13W100
 70
     0
  3
ISO double-dash double-dot __ __ . . __ __ . . 
 72
    65
 73
     8
 40
1.419999999999999
 49
0.47
 74
     0
 49
-0.12
 74
     0
 49
0.47
 74
     0
 49
-0.12
 74
     0
 49
0.0
 74
     0
 49
-0.12
 74
     0
 49
0.0
 74
     0
 49
-0.12
 74
     0
  0
LTYPE
  5
AF
330
5
100
AcDbSymbolTableRecord
100
AcDbLinetypeTableRecord
  2
ACAD_ISO14W100
 70
     0
  3
ISO dash triple-dot __ . . . __ . . . __ . . . 
 72
    65
 73
     8
 40
0.95
 49
0.47
 74
     0
 49
-0.12
 74
     0
 49
0.0
 74
     0
 49
-0.12
 74
     0
 49
0.0
 74
     0
 49
-0.12
 74
     0
 49
0.0
 74
     0
 49
-0.12
 74
     0
  0
LTYPE
  5
B0
330
5
100
AcDbSymbolTableRecord
100
AcDbLinetypeTableRecord
  2
ACAD_ISO15W100
 70
     0
  3
ISO double-dash triple-dot __ __ . . . __ __ . 
 72
    65
 73
    10
 40
1.539999999999999
 49
0.47
 74
     0
 49
-0.12
 74
     0
 49
0.47
 74
     0
 49
-0.12
 74
     0
 49
0.0
 74
     0
 49
-0.12
 74
     0
 49
0.0
 74
     0
 49
-0.12
 74
     0
 49
0.0
 74
     0
 49
-0.12
 74
     0
  0
LTYPE
  5
B3
330
5
100
AcDbSymbolTableRecord
100
AcDbLinetypeTableRecord
  2
FENCELINE1
 70
     0
  3
Fenceline circle ----0-----0----0-----0----0---
 72
    65
 73
     4
 40
1.45
 49
0.25
 74
     0
 49
-0.1
 74
     4
 75
   133
340
B2
 46
0.1
 50
0.0
 44
-0.1
 45
0.0
 49
-0.1
 74
     0
 49
1.0
 74
     0
  0
LTYPE
  5
B4
330
5
100
AcDbSymbolTableRecord
100
AcDbLinetypeTableRecord
  2
FENCELINE2
 70
     0
  3
Fenceline square ----[]-----[]----[]-----[]----
 72
    65
 73
     4
 40
1.45
 49
0.25
 74
     0
 49
-0.1
 74
     4
 75
   132
340
B2
 46
0.1
 50
0.0
 44
-0.1
 45
0.0
 49
-0.1
 74
     0
 49
1.0
 74
     0
  0
LTYPE
  5
B5
330
5
100
AcDbSymbolTableRecord
100
AcDbLinetypeTableRecord
  2
TRACKS
 70
     0
  3
Tracks -|-|-|-|-|-|-|-|-|-|-|-|-|-|-|-|-|-|-|-|
 72
    65
 73
     2
 40
0.3
 49
0.15
 74
     4
 75
   130
340
B2
 46
0.25
 50
0.0
 44
0.0
 45
0.0
 49
0.15
 74
     0
  0
LTYPE
  5
B6
330
5
100
AcDbSymbolTableRecord
100
AcDbLinetypeTableRecord
  2
BATTING
 70
     0
  3
Batting SSSSSSSSSSSSSSSSSSSSSSSSSSSSSSSSSSSSSSS
 72
    65
 73
     4
 40
0.4001000000000001
 49
0.0001
 74
     0
 49
-0.1
 74
     4
 75
   134
340
B2
 46
0.1
 50
0.0
 44
-0.1
 45
0.0
 49
-0.2
 74
     4
 75
   134
340
B2
 46
0.1
 50
180.0
 44
0.1
 45
0.0
 49
-0.1
 74
     0
  0
LTYPE
  5
B7
330
5
100
AcDbSymbolTableRecord
100
AcDbLinetypeTableRecord
  2
HOT_WATER_SUPPLY
 70
     0
  3
Hot water supply ---- HW ---- HW ---- HW ----
 72
    65
 73
     3
 40
0.9
 49
0.5
 74
     0
 49
-0.2
 74
     2
 75
     0
340
55
 46
0.1
 50
0.0
 44
-0.1
 45
-0.05
  9
HW
 49
-0.2
 74
     0
  0
LTYPE
  5
B8
330
5
100
AcDbSymbolTableRecord
100
AcDbLinetypeTableRecord
  2
GAS_LINE
 70
     0
  3
Gas line ----GAS----GAS----GAS----GAS----GAS---
 72
    65
 73
     3
 40
0.95
 49
0.5
 74
     0
 49
-0.2
 74
     2
 75
     0
340
55
 46
0.1
 50
0.0
 44
-0.1
 45
-0.05
  9
GAS
 49
-0.25
 74
     0
  0
LTYPE
  5
B9
330
5
100
AcDbSymbolTableRecord
100
AcDbLinetypeTableRecord
  2
ZIGZAG
 70
     0
  3
Zig zag /\/\/\/\/\/\/\/\/\/\/\/\/\/\/\/\/\/\/\/
 72
    65
 73
     4
 40
0.8001000000000001
 49
0.0001
 74
     0
 49
-0.2
 74
     4
 75
   131
340
B2
 46
0.2
 50
0.0
 44
-0.2
 45
0.0
 49
-0.4
 74
     4
 75
   131
340
B2
 46
0.2
 50
180.0
 44
0.2
 45
0.0
 49
-0.2
 74
     0
  0
ENDTAB
  0
TABLE
  2
LAYER
  5
2
330
0
100
AcDbSymbolTable
 70
    27
  0
LAYER
  5
54
330
2
100
AcDbSymbolTableRecord
100
AcDbLayerTableRecord
  2
0
 70
     0
 62
     7
  6
Continuous
370
     0
390
F
  0
LAYER
  5
C0
330
2
100
AcDbSymbolTableRecord
100
AcDbLayerTableRecord
  2
Center Mark (ANSI)
 70
     0
 62
     7
  6
Continuous
370
     5
390
F
  0
LAYER
  5
C1
330
2
100
AcDbSymbolTableRecord
100
AcDbLayerTableRecord
  2
Centerline (ANSI)
 70
     0
 62
     7
  6
Continuous
370
     5
390
F
  0
LAYER
  5
C3
330
2
100
AcDbSymbolTableRecord
100
AcDbLayerTableRecord
  2
Dimension (ANSI)
 70
     0
 62
     7
  6
Continuous
370
     5
390
F
  0
LAYER
  5
CC
330
2
100
AcDbSymbolTableRecord
100
AcDbLayerTableRecord
  2
Symbol (ANSI)
 70
     0
 62
     7
  6
Continuous
370
     5
390
F
  0
LAYER
  5
CF
330
2
100
AcDbSymbolTableRecord
100
AcDbLayerTableRecord
  2
Visible (ANSI)
 70
     0
 62
     7
  6
Continuous
370
     5
390
F
  0
LAYER
  5
135
330
2
100
AcDbSymbolTableRecord
100
AcDbLayerTableRecord
  2
Defpoints
 70
     0
 62
     7
  6
Continuous
290
     0
370
    -3
390
F
  0
ENDTAB
  0
TABLE
  2
STYLE
  5
3
330
0
100
AcDbSymbolTable
 70
    10
  0
STYLE
  5
55
330
3
100
AcDbSymbolTableRecord
100
AcDbTextStyleTableRecord
  2
Standard
 70
     0
 40
0.0
 41
1.0
 50
0.0
 71
     0
 42
0.2
  3
txt
  4

  0
STYLE
  5
5A
330
3
100
AcDbSymbolTableRecord
100
AcDbTextStyleTableRecord
  2
Annotative
 70
     0
 40
0.0
 41
1.0
 50
0.0
 71
     0
 42
0.2
  3
txt
  4

1001
AcadAnnotative
1000
AnnotativeData
1002
{
1070
     1
1070
     1
1002
}
  0
STYLE
  5
B2
330
3
100
AcDbSymbolTableRecord
100
AcDbTextStyleTableRecord
  2

 70
     1
 40
0.0
 41
1.0
 50
0.0
 71
     0
 42
0.2
  3
ltypeshp.shx
  4

  0
STYLE
  5
D4
330
3
100
AcDbSymbolTableRecord
100
AcDbTextStyleTableRecord
  2
ITALICC_120
 70
     0
 40
0.0
 41
1.0
 50
0.0
 71
     0
 42
0.2
  3
italicc.shx
  4

  0
STYLE
  5
D5
330
3
100
AcDbSymbolTableRecord
100
AcDbTextStyleTableRecord
  2
Label Text (ANSI)
 70
     0
 40
0.0
 41
1.0
 50
0.0
 71
     0
 42
0.2
  3
TAHOMA.TTF
  4

1001
ACAD
1000
Tahoma
1071
      256
  0
STYLE
  5
D6
330
3
100
AcDbSymbolTableRecord
100
AcDbTextStyleTableRecord
  2
Note Text (ANSI)
 70
     0
 40
0.0
 41
1.0
 50
0.0
 71
     0
 42
0.2
  3
RomanS.shx
  4

  0
STYLE
  5
D7
330
3
100
AcDbSymbolTableRecord
100
AcDbTextStyleTableRecord
  2
ROMANS
 70
     0
 40
0.0
 41
1.0
 50
0.0
 71
     0
 42
0.2
  3
romans.shx
  4

  0
STYLE
  5
D8
330
3
100
AcDbSymbolTableRecord
100
AcDbTextStyleTableRecord
  2
SANSSERIF_114
 70
     0
 40
0.0
 41
1.0
 50
0.0
 71
     0
 42
0.2
  3
TAHOMA.TTF
  4

1001
ACAD
1000
Tahoma
1071
      256
  0
STYLE
  5
D9
330
3
100
AcDbSymbolTableRecord
100
AcDbTextStyleTableRecord
  2
SANSSERIF_117
 70
     0
 40
0.0
 41
1.0
 50
0.0
 71
     0
 42
0.2
  3
TAHOMA.TTF
  4

1001
ACAD
1000
Tahoma
1071
      256
  0
STYLE
  5
110
330
3
100
AcDbSymbolTableRecord
100
AcDbTextStyleTableRecord
  2
Text Style168
 70
     0
 40
0.0
 41
1.0
 50
0.0
 71
     0
 42
0.2
  3
TAHOMA.TTF
  4

1001
ACAD
1000
Tahoma
1071
      256
  0
ENDTAB
  0
TABLE
  2
VIEW
  5
6
330
0
100
AcDbSymbolTable
 70
     0
  0
ENDTAB
  0
TABLE
  2
UCS
  5
7
330
0
100
AcDbSymbolTable
 70
     0
  0
ENDTAB
  0
TABLE
  2
APPID
  5
9
330
0
100
AcDbSymbolTable
 70
     4
  0
APPID
  5
56
330
9
100
AcDbSymbolTableRecord
100
AcDbRegAppTableRecord
  2
ACAD
 70
     0
  0
APPID
  5
5E
330
9
100
AcDbSymbolTableRecord
100
AcDbRegAppTableRecord
  2
AcadAnnotative
 70
     0
  0
APPID
  5
6D8
330
9
100
AcDbSymbolTableRecord
100
AcDbRegAppTableRecord
  2
ACAD_DSTYLE_DIMRADIAL_EXTENSION
 70
     0
  0
APPID
  5
7F4
330
9
100
AcDbSymbolTableRecord
100
AcDbRegAppTableRecord
  2
ACAD_MLEADERVER
 70
     0
  0
ENDTAB
  0
TABLE
  2
DIMSTYLE
  5
A
330
0
100
AcDbSymbolTable
 70
    15
100
AcDbDimStyleTable
 71
     2
340
E2
340
58
  0
DIMSTYLE
105
58
330
A
100
AcDbSymbolTableRecord
100
AcDbDimStyleTableRecord
  2
Standard
 70
     0
340
55
  0
DIMSTYLE
105
59
330
A
100
AcDbSymbolTableRecord
100
AcDbDimStyleTableRecord
  2
Annotative
 70
     0
340
55
1001
AcadAnnotative
1000
AnnotativeData
1002
{
1070
     1
1070
     1
1002
}
  0
DIMSTYLE
105
DA
330
A
100
AcDbSymbolTableRecord
100
AcDbDimStyleTableRecord
  2
Architectural (ANSI)
 70
     0
 40
2.666666666666666
 41
0.0984251946210861
 43
0.2362204724409449
 44
0.125
 45
0.00000001
 46
0.3937007874015748
 78
     3
 79
     3
140
0.1000000014901161
146
1.200000029802321
147
0.031496062992126
171
     1
176
   256
177
   256
178
   256
272
     2
274
     1
276
     2
277
     4
284
    12
285
     4
286
    12
340
D6
371
    -1
372
    -1
  0
DIMSTYLE
105
DB
330
A
100
AcDbSymbolTableRecord
100
AcDbDimStyleTableRecord
  2
Architectural (ANSI)$7
 70
     0
 40
2.666666666666666
 41
0.0984251946210861
 43
0.2362204724409449
 44
0.125
 45
0.00000001
 46
0.3937007874015748
 78
     3
 79
     3
140
0.1000000014901161
146
1.200000029802321
147
0.031496062992126
171
     1
176
   256
177
   256
178
   256
272
     2
274
     1
276
     2
277
     4
284
    12
285
     4
286
    12
340
D6
371
    -1
372
    -1
  0
DIMSTYLE
105
DC
330
A
100
AcDbSymbolTableRecord
100
AcDbDimStyleTableRecord
  2
Default - Fraction (ANSI)
 70
     0
 40
2.666666666666666
 41
0.0984251946210861
 43
0.2362204724409449
 44
0.125
 45
0.00000001
 46
0.3937007874015748
 79
     3
140
0.1000000014901161
146
1.200000029802321
147
0.031496062992126
171
     1
176
   256
177
   256
178
   256
272
     2
274
     1
276
     2
277
     5
284
    12
285
     4
286
    12
340
D6
371
    -1
372
    -1
  0
DIMSTYLE
105
DD
330
A
100
AcDbSymbolTableRecord
100
AcDbDimStyleTableRecord
  2
Default - Fraction (ANSI)$7
 70
     0
 40
2.666666666666666
 41
0.0984251946210861
 43
0.2362204724409449
 44
0.125
 45
0.00000001
 46
0.3937007874015748
 79
     3
140
0.1000000014901161
146
1.200000029802321
147
0.031496062992126
171
     1
176
   256
177
   256
178
   256
272
     2
274
     1
276
     2
277
     5
284
    12
285
     4
286
    12
340
D6
371
    -1
372
    -1
  0
DIMSTYLE
105
DE
330
A
100
AcDbSymbolTableRecord
100
AcDbDimStyleTableRecord
  2
Default - mm (ANSI)
 70
     0
 40
2.666666666666666
 41
0.0984251946210861
 42
0.063
 43
0.2362204724409449
 44
0.125
 45
0.00000001
 46
0.3937007874015748
 73
     0
 78
     4
 79
     1
140
0.1000000014901161
143
1.0
144
25.4
146
1.200000029802321
147
0.031496062992126
171
     1
176
   256
177
   256
178
   256
179
     1
271
     2
272
     2
274
     1
284
     4
285
     4
340
D6
371
    -1
372
    -1
  0
DIMSTYLE
105
DF
330
A
100
AcDbSymbolTableRecord
100
AcDbDimStyleTableRecord
  2
Default - mm (ANSI)$7
 70
     0
 40
2.666666666666666
 41
0.0984251946210861
 42
0.063
 43
0.2362204724409449
 44
0.125
 45
0.00000001
 46
0.3937007874015748
 73
     0
 78
     4
 79
     1
140
0.1000000014901161
143
1.0
144
25.4
146
1.200000029802321
147
0.031496062992126
171
     1
176
   256
177
   256
178
   256
179
     1
271
     2
272
     2
274
     1
284
     4
285
     4
340
D6
371
    -1
372
    -1
  0
DIMSTYLE
105
E0
330
A
100
AcDbSymbolTableRecord
100
AcDbDimStyleTableRecord
  2
Default - mm [in] (ANSI)
 70
     0
  4
 in
 40
2.666666666666666
 41
0.0984251946210861
 42
0.063
 43
0.25
 44
0.125
 45
0.00000001
 46
0.3937007874015748
 73
     0
 78
     4
 79
     1
140
0.1000000014901161
143
0.03937
144
25.4
146
1.200000029802321
147
0.031496062992126
170
     1
171
     3
176
   256
177
   256
178
   256
179
     1
271
     2
272
     2
274
     3
284
     4
285
     4
286
     4
340
D6
371
    -1
372
    -1
  0
DIMSTYLE
105
E1
330
A
100
AcDbSymbolTableRecord
100
AcDbDimStyleTableRecord
  2
Default - mm [in] (ANSI)$7
 70
     0
  4
 in
 40
2.666666666666666
 41
0.0984251946210861
 42
0.063
 43
0.25
 44
0.125
 45
0.00000001
 46
0.3937007874015748
 73
     0
 78
     4
 79
     1
140
0.1000000014901161
143
0.03937
144
25.4
146
1.200000029802321
147
0.031496062992126
170
     1
171
     3
176
   256
177
   256
178
   256
179
     1
271
     2
272
     2
274
     3
284
     4
285
     4
286
     4
340
D6
371
    -1
372
    -1
  0
DIMSTYLE
105
E2
102
{ACAD_REACTORS
330
133
330
24C
330
336
330
420
330
51E
330
63F
330
6F9
102
}
330
A
100
AcDbSymbolTableRecord
100
AcDbDimStyleTableRecord
  2
Default (ANSI)
 70
     0
 40
2.666666666666666
 41
0.0984251946210861
 43
0.2362204724409449
 44
0.125
 45
0.00000001
 46
0.3937007874015748
140
0.1000000014901161
147
0.031496062992126
176
   256
177
   256
178
   256
271
     2
272
     2
340
D7
371
    -1
372
    -1
  0
DIMSTYLE
105
E3
330
A
100
AcDbSymbolTableRecord
100
AcDbDimStyleTableRecord
  2
Default (ANSI)$7
 70
     0
 40
2.666666666666666
 41
0.0984251946210861
 43
0.2362204724409449
 44
0.125
 45
0.00000001
 46
0.3937007874015748
140
0.1000000014901161
147
0.031496062992126
176
   256
177
   256
178
   256
271
     2
272
     2
340
D7
371
    -1
372
    -1
  0
DIMSTYLE
105
E4
330
A
100
AcDbSymbolTableRecord
100
AcDbDimStyleTableRecord
  2
Alternate (ANSI)
 70
     0
 40
2.666666666666666
 41
0.0979999974370003
340
55
342
E5
  0
DIMSTYLE
105
F7
330
A
100
AcDbSymbolTableRecord
100
AcDbDimStyleTableRecord
  2
Datum (ANSI)
 70
     0
 40
2.666666666666666
 41
0.0979999974370003
340
55
342
E5
  0
DIMSTYLE
105
106
330
A
100
AcDbSymbolTableRecord
100
AcDbDimStyleTableRecord
  2
Large (ANSI)
 70
     0
 40
2.666666666666666
 41
0.1959999948740005
340
55
342
E5
  0
ENDTAB
  0
TABLE
  2
BLOCK_RECORD
  5
1
330
0
100
AcDbSymbolTable
 70
    11
  0
BLOCK_RECORD
  5
6C
330
1
100
AcDbSymbolTableRecord
100
AcDbBlockTableRecord
  2
*Model_Space
340
6F
  0
BLOCK_RECORD
  5
68
330
1
100
AcDbSymbolTableRecord
100
AcDbBlockTableRecord
  2
*Paper_Space
340
6B
  0
BLOCK_RECORD
  5
70
330
1
100
AcDbSymbolTableRecord
100
AcDbBlockTableRecord
  2
*Paper_Space0
340
73
  0
BLOCK_RECORD
  5
E5
330
1
100
AcDbSymbolTableRecord
100
AcDbBlockTableRecord
  2
_Closed
340
0
  0
BLOCK_RECORD
  5
EC
330
1
100
AcDbSymbolTableRecord
100
AcDbBlockTableRecord
  2
DatumFilled45
340
0
  0
BLOCK_RECORD
  5
F8
330
1
100
AcDbSymbolTableRecord
100
AcDbBlockTableRecord
  2
Filled-1
340
0
  0
BLOCK_RECORD
  5
136
330
1
100
AcDbSymbolTableRecord
100
AcDbBlockTableRecord
  2
*D4
340
0
  0
BLOCK_RECORD
  5
24D
330
1
100
AcDbSymbolTableRecord
100
AcDbBlockTableRecord
  2
*D5
340
0
  0
BLOCK_RECORD
  5
337
330
1
100
AcDbSymbolTableRecord
100
AcDbBlockTableRecord
  2
*D6
340
0
  0
BLOCK_RECORD
  5
421
330
1
100
AcDbSymbolTableRecord
100
AcDbBlockTableRecord
  2
*D7
340
0
  0
BLOCK_RECORD
  5
51F
330
1
100
AcDbSymbolTableRecord
100
AcDbBlockTableRecord
  2
*D8
340
0
  0
BLOCK_RECORD
  5
640
330
1
100
AcDbSymbolTableRecord
100
AcDbBlockTableRecord
  2
*D9
340
0
  0
BLOCK_RECORD
  5
6FA
330
1
100
AcDbSymbolTableRecord
100
AcDbBlockTableRecord
  2
*D10
340
0
  0
ENDTAB
  0
ENDSEC
  0
SECTION
  2
BLOCKS
  0
BLOCK
  5
6D
330
6C
100
AcDbEntity
  8
0
100
AcDbBlockBegin
  2
*Model_Space
 70
     0
 10
0.0
 20
0.0
 30
0.0
  3
*Model_Space
  1

  0
ENDBLK
  5
6E
330
6C
100
AcDbEntity
  8
0
100
AcDbBlockEnd
  0
BLOCK
  5
69
330
68
100
AcDbEntity
 67
     1
  8
0
100
AcDbBlockBegin
  2
*Paper_Space
 70
     0
 10
0.0
 20
0.0
 30
0.0
  3
*Paper_Space
  1

  0
ENDBLK
  5
6A
330
68
100
AcDbEntity
 67
     1
  8
0
100
AcDbBlockEnd
  0
BLOCK
  5
71
330
70
100
AcDbEntity
 67
     1
  8
0
100
AcDbBlockBegin
  2
*Paper_Space0
 70
     0
 10
0.0
 20
0.0
 30
0.0
  3
*Paper_Space0
  1

  0
ENDBLK
  5
72
330
70
100
AcDbEntity
 67
     1
  8
0
100
AcDbBlockEnd
  0
BLOCK
  5
EA
330
E5
100
AcDbEntity
  8
0
100
AcDbBlockBegin
  2
_Closed
 70
     0
 10
0.0
 20
0.0
 30
0.0
  3
_Closed
  1

  0
LINE
  5
E6
330
E5
100
AcDbEntity
  8
0
  6
ByBlock
 62
     0
370
    -2
100
AcDbLine
 10
-1.0
 20
0.1666666666666666
 30
0.0
 11
0.0
 21
0.0
 31
0.0
  0
LINE
  5
E7
330
E5
100
AcDbEntity
  8
0
  6
ByBlock
 62
     0
370
    -2
100
AcDbLine
 10
0.0
 20
0.0
 30
0.0
 11
-1.0
 21
-0.1666666666666666
 31
0.0
  0
LINE
  5
E8
330
E5
100
AcDbEntity
  8
0
  6
ByBlock
 62
     0
370
    -2
100
AcDbLine
 10
-1.0
 20
0.1666666666666666
 30
0.0
 11
-1.0
 21
-0.1666666666666666
 31
0.0
  0
LINE
  5
E9
330
E5
100
AcDbEntity
  8
0
  6
ByBlock
 62
     0
370
    -2
100
AcDbLine
 10
0.0
 20
0.0
 30
0.0
 11
-1.0
 21
0.0
 31
0.0
  0
ENDBLK
  5
EB
330
E5
100
AcDbEntity
  8
0
100
AcDbBlockEnd
  0
BLOCK
  5
ED
330
EC
100
AcDbEntity
  8
0
100
AcDbBlockBegin
  2
DatumFilled45
 70
     0
 10
0.0
 20
0.0
 30
0.0
  3
DatumFilled45
  1

  0
POLYLINE
  5
EF
330
EC
100
AcDbEntity
  8
0
 62
     0
100
AcDb2dPolyline
 66
     1
 10
0.0
 20
0.0
 30
0.0
 70
   128
  0
VERTEX
  5
F0
330
EF
100
AcDbEntity
  8
0
 62
     0
100
AcDbVertex
100
AcDb2dVertex
 10
0.0
 20
0.9999999999999998
 30
0.0
  0
VERTEX
  5
F1
330
EF
100
AcDbEntity
  8
0
 62
     0
100
AcDbVertex
100
AcDb2dVertex
 10
0.0
 20
-0.9999999999999998
 30
0.0
  0
VERTEX
  5
F3
330
EF
100
AcDbEntity
  8
0
 62
     0
100
AcDbVertex
100
AcDb2dVertex
 10
-0.9999999999999998
 20
0.0
 30
0.0
  0
VERTEX
  5
F4
330
EF
100
AcDbEntity
  8
0
 62
     0
100
AcDbVertex
100
AcDb2dVertex
 10
0.0
 20
0.9999999999999998
 30
0.0
  0
SEQEND
  5
F2
330
EF
100
AcDbEntity
  8
0
 62
     0
  0
SOLID
  5
F6
330
EC
100
AcDbEntity
  8
0
 62
     0
100
AcDbTrace
 10
0.0
 20
0.9999999999999998
 30
0.0
 11
0.0
 21
-0.9999999999999998
 31
0.0
 12
-0.9999999999999998
 22
0.0
 32
0.0
 13
0.0
 23
0.9999999999999998
 33
0.0
  0
ENDBLK
  5
EE
330
EC
100
AcDbEntity
  8
0
100
AcDbBlockEnd
  0
BLOCK
  5
F9
330
F8
100
AcDbEntity
  8
0
100
AcDbBlockBegin
  2
Filled-1
 70
     0
 10
0.0
 20
0.0
 30
0.0
  3
Filled-1
  1

  0
LINE
  5
FB
330
F8
100
AcDbEntity
  8
0
 62
     0
100
AcDbLine
 10
-0.9999999999999998
 20
0.0
 30
0.0
 11
0.0
 21
0.0
 31
0.0
  0
POLYLINE
  5
FC
330
F8
100
AcDbEntity
  8
0
 62
     0
100
AcDb2dPolyline
 66
     1
 10
0.0
 20
0.0
 30
0.0
 70
   128
  0
VERTEX
  5
FD
330
FC
100
AcDbEntity
  8
0
 62
     0
100
AcDbVertex
100
AcDb2dVertex
 10
-0.9999999999999998
 20
-0.0994897959183674
 30
0.0
  0
VERTEX
  5
FE
330
FC
100
AcDbEntity
  8
0
 62
     0
100
AcDbVertex
100
AcDb2dVertex
 10
0.0
 20
0.0
 30
0.0
  0
VERTEX
  5
100
330
FC
100
AcDbEntity
  8
0
 62
     0
100
AcDbVertex
100
AcDb2dVertex
 10
-0.9999999999999998
 20
0.0994897959183674
 30
0.0
  0
VERTEX
  5
101
330
FC
100
AcDbEntity
  8
0
 62
     0
100
AcDbVertex
100
AcDb2dVertex
 10
-0.9999999999999998
 20
-0.0994897959183674
 30
0.0
  0
SEQEND
  5
FF
330
FC
100
AcDbEntity
  8
0
 62
     0
  0
SOLID
  5
102
330
F8
100
AcDbEntity
  8
0
 62
     0
100
AcDbTrace
 10
-0.9999999999999998
 20
-0.0994897959183674
 30
0.0
 11
0.0
 21
0.0
 31
0.0
 12
-0.9999999999999998
 22
0.0994897959183674
 32
0.0
 13
-0.9999999999999998
 23
-0.0994897959183674
 33
0.0
  0
LINE
  5
103
330
F8
100
AcDbEntity
  8
0
 62
     0
100
AcDbLine
 10
-0.9999999999999998
 20
-0.0994897959183674
 30
0.0
 11
0.0
 21
0.0
 31
0.0
  0
LINE
  5
104
330
F8
100
AcDbEntity
  8
0
 62
     0
100
AcDbLine
 10
0.0
 20
0.0
 30
0.0
 11
-0.9999999999999998
 21
0.0994897959183674
 31
0.0
  0
LINE
  5
105
330
F8
100
AcDbEntity
  8
0
 62
     0
100
AcDbLine
 10
-0.9999999999999998
 20
0.0994897959183674
 30
0.0
 11
-0.9999999999999998
 21
-0.0994897959183674
 31
0.0
  0
ENDBLK
  5
FA
330
F8
100
AcDbEntity
  8
0
100
AcDbBlockEnd
  0
BLOCK
  5
137
330
136
100
AcDbEntity
  8
0
100
AcDbBlockBegin
  2
*D4
 70
     1
 10
0.0
 20
0.0
 30
0.0
  3
*D4
  1

  0
LINE
  5
241
330
136
100
AcDbEntity
  8
Dimension (ANSI)
100
AcDbLine
 10
17.14507562541028
 20
8.445260218642202
 30
0.0
 11
19.114416957854
 21
8.445260218642202
 31
0.0
  0
LINE
  5
242
330
136
100
AcDbEntity
  8
Dimension (ANSI)
100
AcDbLine
 10
16.27007562541028
 20
9.3202602186422
 30
0.0
 11
19.114416957854
 21
9.3202602186422
 31
0.0
  0
LINE
  5
243
330
136
100
AcDbEntity
  8
Dimension (ANSI)
100
AcDbLine
 10
18.78108362452066
 20
9.057793032985971
 30
0.0
 11
18.78108362452066
 21
8.707727404298431
 31
0.0
  0
LINE
  5
244
330
136
100
AcDbEntity
  8
Dimension (ANSI)
100
AcDbLine
 10
18.78108362452066
 20
8.445260218642202
 30
0.0
 11
18.78108362452066
 21
7.447914591913002
 31
0.0
  0
LINE
  5
245
330
136
100
AcDbEntity
  8
Dimension (ANSI)
100
AcDbLine
 10
18.78108362452066
 20
7.447914591913002
 30
0.0
 11
18.51861643886443
 21
7.447914591913002
 31
0.0
  0
SOLID
  5
246
330
136
100
AcDbEntity
  8
Dimension (ANSI)
100
AcDbTrace
 10
18.73733909357796
 20
9.057793032985971
 30
0.0
 11
18.82482815546337
 21
9.057793032985971
 31
0.0
 12
18.78108362452066
 22
9.3202602186422
 32
0.0
 13
18.78108362452066
 23
9.3202602186422
 33
0.0
  0
SOLID
  5
247
330
136
100
AcDbEntity
  8
Dimension (ANSI)
100
AcDbTrace
 10
18.73733909357796
 20
8.707727404298431
 30
0.0
 11
18.82482815546337
 21
8.707727404298431
 31
0.0
 12
18.78108362452066
 22
8.445260218642202
 32
0.0
 13
18.78108362452066
 23
8.445260218642202
 33
0.0
  0
MTEXT
  5
248
330
136
100
AcDbEntity
  8
Dimension (ANSI)
100
AcDbMText
 10
18.02827772514781
 20
7.447914591913005
 30
0.0
 40
0.2666666706403096
 41
0.0
 71
     5
 72
     1
  1
\A1;0.88{\PTYP.}
  7
ROMANS
 73
     1
 44
1.0
1001
ACAD
1000
MTEXTBEGIN
1070
    73
1070
     1
1070
    44
1040
1.0
1070
    74
1070
     0
1000
MTEXTEND
  0
POINT
  5
249
330
136
100
AcDbEntity
  8
Defpoints
 62
     0
100
AcDbPoint
 10
16.97840895874361
 20
8.445260218642202
 30
0.0
  0
POINT
  5
24A
330
136
100
AcDbEntity
  8
Defpoints
 62
     0
100
AcDbPoint
 10
16.10340895874361
 20
9.3202602186422
 30
0.0
  0
POINT
  5
24B
330
136
100
AcDbEntity
  8
Defpoints
 62
     0
100
AcDbPoint
 10
18.78108362452066
 20
9.3202602186422
 30
0.0
  0
ENDBLK
  5
138
330
136
100
AcDbEntity
  8
0
100
AcDbBlockEnd
  0
BLOCK
  5
24E
330
24D
100
AcDbEntity
  8
0
100
AcDbBlockBegin
  2
*D5
 70
     1
 10
0.0
 20
0.0
 30
0.0
  3
*D5
  1

  0
LINE
  5
32C
330
24D
100
AcDbEntity
  8
Dimension (ANSI)
100
AcDbLine
 10
17.14507562541028
 20
8.445260218642202
 30
0.0
 11
20.50544355467736
 21
8.4452602186422
 31
0.0
  0
LINE
  5
32D
330
24D
100
AcDbEntity
  8
Dimension (ANSI)
100
AcDbLine
 10
17.14507562541028
 20
21.44526021864221
 30
0.0
 11
20.50544355467736
 21
21.44526021864221
 31
0.0
  0
LINE
  5
32E
330
24D
100
AcDbEntity
  8
Dimension (ANSI)
100
AcDbLine
 10
20.17211022134403
 20
8.707727404298429
 30
0.0
 11
20.17211022134403
 21
14.72793738200971
 31
0.0
  0
LINE
  5
32F
330
24D
100
AcDbEntity
  8
Dimension (ANSI)
100
AcDbLine
 10
20.17211022134403
 20
21.18279303298598
 30
0.0
 11
20.17211022134403
 21
15.16258305527469
 31
0.0
  0
SOLID
  5
330
330
24D
100
AcDbEntity
  8
Dimension (ANSI)
100
AcDbTrace
 10
20.12836569040133
 20
8.707727404298429
 30
0.0
 11
20.21585475228674
 21
8.707727404298429
 31
0.0
 12
20.17211022134403
 22
8.4452602186422
 32
0.0
 13
20.17211022134403
 23
8.4452602186422
 33
0.0
  0
SOLID
  5
331
330
24D
100
AcDbEntity
  8
Dimension (ANSI)
100
AcDbTrace
 10
20.12836569040133
 20
21.18279303298598
 30
0.0
 11
20.21585475228674
 21
21.18279303298598
 31
0.0
 12
20.17211022134403
 22
21.44526021864221
 32
0.0
 13
20.17211022134403
 23
21.44526021864221
 33
0.0
  0
MTEXT
  5
332
330
24D
100
AcDbEntity
  8
Dimension (ANSI)
100
AcDbMText
 10
19.65782449939486
 20
15.07859355396236
 30
0.0
 40
0.2666666706403096
 41
0.0
 71
     1
 72
     1
  1
\A1;13.00
  7
ROMANS
 73
     1
 44
1.0
1001
ACAD
1000
MTEXTBEGIN
1070
    73
1070
     1
1070
    44
1040
1.0
1070
    74
1070
     0
1000
MTEXTEND
  0
POINT
  5
333
330
24D
100
AcDbEntity
  8
Defpoints
 62
     0
100
AcDbPoint
 10
16.97840895874361
 20
8.445260218642202
 30
0.0
  0
POINT
  5
334
330
24D
100
AcDbEntity
  8
Defpoints
 62
     0
100
AcDbPoint
 10
16.97840895874361
 20
21.44526021864221
 30
0.0
  0
POINT
  5
335
330
24D
100
AcDbEntity
  8
Defpoints
 62
     0
100
AcDbPoint
 10
20.17211022134403
 20
21.44526021864221
 30
0.0
  0
ENDBLK
  5
24F
330
24D
100
AcDbEntity
  8
0
100
AcDbBlockEnd
  0
BLOCK
  5
338
330
337
100
AcDbEntity
  8
0
100
AcDbBlockBegin
  2
*D6
 70
     1
 10
0.0
 20
0.0
 30
0.0
  3
*D6
  1

  0
LINE
  5
416
330
337
100
AcDbEntity
  8
Dimension (ANSI)
100
AcDbLine
 10
7.978408958743612
 20
21.61192688530887
 30
0.0
 11
7.978408958743612
 21
23.59420098392563
 31
0.0
  0
LINE
  5
417
330
337
100
AcDbEntity
  8
Dimension (ANSI)
100
AcDbLine
 10
16.97840895874361
 20
21.61192688530887
 30
0.0
 11
16.97840895874361
 21
23.59420098392563
 31
0.0
  0
LINE
  5
418
330
337
100
AcDbEntity
  8
Dimension (ANSI)
100
AcDbLine
 10
8.240876144399841
 20
23.2608676505923
 30
0.0
 11
11.98807024502699
 21
23.2608676505923
 31
0.0
  0
LINE
  5
419
330
337
100
AcDbEntity
  8
Dimension (ANSI)
100
AcDbLine
 10
16.71594177308738
 20
23.2608676505923
 30
0.0
 11
12.96874767246023
 21
23.2608676505923
 31
0.0
  0
SOLID
  5
41A
330
337
100
AcDbEntity
  8
Dimension (ANSI)
100
AcDbTrace
 10
8.240876144399841
 20
23.304612181535
 30
0.0
 11
8.240876144399841
 21
23.2171231196496
 31
0.0
 12
7.978408958743612
 22
23.2608676505923
 32
0.0
 13
7.978408958743612
 23
23.2608676505923
 33
0.0
  0
SOLID
  5
41B
330
337
100
AcDbEntity
  8
Dimension (ANSI)
100
AcDbTrace
 10
16.71594177308738
 20
23.304612181535
 30
0.0
 11
16.71594177308738
 21
23.2171231196496
 31
0.0
 12
16.97840895874361
 22
23.2608676505923
 32
0.0
 13
16.97840895874361
 23
23.2608676505923
 33
0.0
  0
MTEXT
  5
41C
330
337
100
AcDbEntity
  8
Dimension (ANSI)
100
AcDbMText
 10
12.07205974633933
 20
23.39420098591245
 30
0.0
 40
0.2666666706403096
 41
0.0
 71
     1
 72
     1
  1
\A1;9.00
  7
ROMANS
 73
     1
 44
1.0
1001
ACAD
1000
MTEXTBEGIN
1070
    73
1070
     1
1070
    44
1040
1.0
1070
    74
1070
     0
1000
MTEXTEND
  0
POINT
  5
41D
330
337
100
AcDbEntity
  8
Defpoints
 62
     0
100
AcDbPoint
 10
7.978408958743612
 20
21.44526021864221
 30
0.0
  0
POINT
  5
41E
330
337
100
AcDbEntity
  8
Defpoints
 62
     0
100
AcDbPoint
 10
16.97840895874361
 20
21.4452602186422
 30
0.0
  0
POINT
  5
41F
330
337
100
AcDbEntity
  8
Defpoints
 62
     0
100
AcDbPoint
 10
16.97840895874361
 20
23.2608676505923
 30
0.0
  0
ENDBLK
  5
339
330
337
100
AcDbEntity
  8
0
100
AcDbBlockEnd
  0
BLOCK
  5
422
330
421
100
AcDbEntity
  8
0
100
AcDbBlockBegin
  2
*D7
 70
     1
 10
0.0
 20
0.0
 30
0.0
  3
*D7
  1

  0
LINE
  5
514
330
421
100
AcDbEntity
  8
Dimension (ANSI)
100
AcDbLine
 10
16.10340895874361
 20
21.35176021864221
 30
0.0
 11
16.10340895874361
 21
22.58338357822226
 31
0.0
  0
LINE
  5
515
330
421
100
AcDbEntity
  8
Dimension (ANSI)
100
AcDbLine
 10
16.97840895874361
 20
21.61192688530887
 30
0.0
 11
16.97840895874361
 21
22.58338357822226
 31
0.0
  0
LINE
  5
516
330
421
100
AcDbEntity
  8
Dimension (ANSI)
100
AcDbLine
 10
16.36587614439984
 20
22.25005024488893
 30
0.0
 11
16.71594177308738
 21
22.25005024488893
 31
0.0
  0
LINE
  5
517
330
421
100
AcDbEntity
  8
Dimension (ANSI)
100
AcDbLine
 10
16.97840895874361
 20
22.25005024488893
 30
0.0
 11
17.76532708687344
 21
22.25005024488893
 31
0.0
  0
SOLID
  5
518
330
421
100
AcDbEntity
  8
Dimension (ANSI)
100
AcDbTrace
 10
16.36587614439984
 20
22.29379477583163
 30
0.0
 11
16.36587614439984
 21
22.20630571394622
 31
0.0
 12
16.10340895874361
 22
22.25005024488893
 32
0.0
 13
16.10340895874361
 23
22.25005024488893
 33
0.0
  0
SOLID
  5
519
330
421
100
AcDbEntity
  8
Dimension (ANSI)
100
AcDbTrace
 10
16.71594177308738
 20
22.29379477583163
 30
0.0
 11
16.71594177308738
 21
22.20630571394622
 31
0.0
 12
16.97840895874361
 22
22.25005024488893
 32
0.0
 13
16.97840895874361
 23
22.25005024488893
 33
0.0
  0
MTEXT
  5
51A
330
421
100
AcDbEntity
  8
Dimension (ANSI)
100
AcDbMText
 10
18.25566580059006
 20
22.25005024488893
 30
0.0
 40
0.2666666706403096
 41
0.0
 71
     5
 72
     1
  1
\A1;0.88{\PTYP.}
  7
ROMANS
 73
     1
 44
1.0
1001
ACAD
1000
MTEXTBEGIN
1070
    73
1070
     1
1070
    44
1040
1.0
1070
    74
1070
     0
1000
MTEXTEND
  0
POINT
  5
51B
330
421
100
AcDbEntity
  8
Defpoints
 62
     0
100
AcDbPoint
 10
16.10340895874361
 20
21.18509355197554
 30
0.0
  0
POINT
  5
51C
330
421
100
AcDbEntity
  8
Defpoints
 62
     0
100
AcDbPoint
 10
16.97840895874361
 20
21.4452602186422
 30
0.0
  0
POINT
  5
51D
330
421
100
AcDbEntity
  8
Defpoints
 62
     0
100
AcDbPoint
 10
16.97840895874361
 20
22.25005024488893
 30
0.0
  0
ENDBLK
  5
423
330
421
100
AcDbEntity
  8
0
100
AcDbBlockEnd
  0
BLOCK
  5
520
330
51F
100
AcDbEntity
  8
0
100
AcDbBlockBegin
  2
*D8
 70
     1
 10
0.0
 20
0.0
 30
0.0
  3
*D8
  1

  0
LINE
  5
634
330
51F
100
AcDbEntity
  8
Dimension (ANSI)
100
AcDbLine
 10
17.14507562541403
 20
27.16007266696763
 30
0.0
 11
20.13506343545564
 21
27.16007266696763
 31
0.0
  0
LINE
  5
635
330
51F
100
AcDbEntity
  8
Dimension (ANSI)
100
AcDbLine
 10
17.14507562541403
 20
27.25377266696763
 30
0.0
 11
20.13506343545564
 21
27.25377266696763
 31
0.0
  0
LINE
  5
636
330
51F
100
AcDbEntity
  8
Dimension (ANSI)
100
AcDbLine
 10
19.8017301021223
 20
27.51623985262386
 30
0.0
 11
19.8017301021223
 21
27.77870703828009
 31
0.0
  0
LINE
  5
637
330
51F
100
AcDbEntity
  8
Dimension (ANSI)
100
AcDbLine
 10
19.8017301021223
 20
26.8976054813114
 30
0.0
 11
19.8017301021223
 21
25.89734452465255
 31
0.0
  0
LINE
  5
638
330
51F
100
AcDbEntity
  8
Dimension (ANSI)
100
AcDbLine
 10
19.8017301021223
 20
25.89734452465255
 30
0.0
 11
19.53926291646607
 21
25.89734452465255
 31
0.0
  0
SOLID
  5
639
330
51F
100
AcDbEntity
  8
Dimension (ANSI)
100
AcDbTrace
 10
19.7579855711796
 20
27.51623985262386
 30
0.0
 11
19.845474633065
 21
27.51623985262386
 31
0.0
 12
19.8017301021223
 22
27.25377266696763
 32
0.0
 13
19.8017301021223
 23
27.25377266696763
 33
0.0
  0
SOLID
  5
63A
330
51F
100
AcDbEntity
  8
Dimension (ANSI)
100
AcDbTrace
 10
19.7579855711796
 20
26.8976054813114
 30
0.0
 11
19.845474633065
 21
26.8976054813114
 31
0.0
 12
19.8017301021223
 22
27.16007266696763
 32
0.0
 13
19.8017301021223
 23
27.16007266696763
 33
0.0
  0
MTEXT
  5
63B
330
51F
100
AcDbEntity
  8
Dimension (ANSI)
100
AcDbMText
 10
18.75686070633387
 20
25.89734452465255
 30
0.0
 40
0.2666666706403096
 41
0.0
 71
     5
 72
     1
  1
\A1;(0.094){\P12 GA.}
  7
ROMANS
 73
     1
 44
1.0
1001
ACAD
1000
MTEXTBEGIN
1070
    73
1070
     1
1070
    44
1040
1.0
1070
    74
1070
     0
1000
MTEXTEND
  0
POINT
  5
63C
330
51F
100
AcDbEntity
  8
Defpoints
 62
     0
100
AcDbPoint
 10
16.97840895874736
 20
27.16007266696763
 30
0.0
  0
POINT
  5
63D
330
51F
100
AcDbEntity
  8
Defpoints
 62
     0
100
AcDbPoint
 10
16.97840895874736
 20
27.25377266696763
 30
0.0
  0
POINT
  5
63E
330
51F
100
AcDbEntity
  8
Defpoints
 62
     0
100
AcDbPoint
 10
19.8017301021223
 20
27.25377266696763
 30
0.0
  0
ENDBLK
  5
521
330
51F
100
AcDbEntity
  8
0
100
AcDbBlockEnd
  0
BLOCK
  5
641
330
640
100
AcDbEntity
  8
0
100
AcDbBlockBegin
  2
*D9
 70
     1
 10
0.0
 20
0.0
 30
0.0
  3
*D9
  1

  0
LINE
  5
6F1
330
640
100
AcDbEntity
  8
Dimension (ANSI)
100
AcDbLine
 10
6.653484147766698
 20
7.499356095518272
 30
0.0
 11
7.032504835619114
 21
7.499356095518273
 31
0.0
  0
LINE
  5
6F2
330
640
100
AcDbEntity
  8
Dimension (ANSI)
100
AcDbLine
 10
7.032504835619114
 20
7.499356095518273
 30
0.0
 11
8.468766073023077
 21
8.935617332921783
 31
0.0
  0
MTEXT
  5
6F3
102
{ACAD_XDICTIONARY
360
7FB
102
}
330
640
100
AcDbEntity
  8
Dimension (ANSI)
100
AcDbMText
 10
5.877431144078322
 20
7.715229114608047
 30
0.0
 40
0.2666666706403096
 41
0.0
 71
     2
 72
     1
  1
\A1;\U+22050.56{\PTYP.\P(4 PL.)}
  7
ROMANS
 73
     1
 44
1.0
1001
ACAD
1000
MTEXTBEGIN
1070
    73
1070
     1
1070
    44
1040
1.0
1070
    74
1070
     0
1000
MTEXTEND
  0
SOLID
  5
6F4
330
640
100
AcDbEntity
  8
Dimension (ANSI)
100
AcDbTrace
 10
8.437834018553671
 20
8.9665493873912
 30
0.0
 11
8.499698127492484
 21
8.904685278452367
 31
0.0
 12
8.654358399839575
 22
9.121209659738223
 32
0.0
 13
8.654358399839575
 23
9.121209659738223
 33
0.0
  0
LINE
  5
6F5
330
640
100
AcDbEntity
  8
Dimension (ANSI)
100
AcDbLine
 10
8.613408958743621
 20
9.320260218642205
 30
0.0
 11
9.093408958743623
 21
9.320260218642204
 31
0.0
  0
LINE
  5
6F6
330
640
100
AcDbEntity
  8
Dimension (ANSI)
100
AcDbLine
 10
8.853408958743621
 20
9.080260218642203
 30
0.0
 11
8.853408958743623
 21
9.560260218642206
 31
0.0
  0
POINT
  5
6F7
330
640
100
AcDbEntity
  8
Defpoints
 62
     0
100
AcDbPoint
 10
8.654358399839575
 20
9.121209659738223
 30
0.0
  0
POINT
  5
6F8
330
640
100
AcDbEntity
  8
Defpoints
 62
     0
100
AcDbPoint
 10
9.052459517647665
 20
9.519310777546188
 30
0.0
  0
ENDBLK
  5
642
330
640
100
AcDbEntity
  8
0
100
AcDbBlockEnd
  0
BLOCK
  5
6FB
330
6FA
100
AcDbEntity
  8
0
100
AcDbBlockBegin
  2
*D10
 70
     1
 10
0.0
 20
0.0
 30
0.0
  3
*D10
  1

  0
LINE
  5
79A
330
6FA
100
AcDbEntity
  8
Dimension (ANSI)
100
AcDbLine
 10
6.220329713883431
 20
13.52236229527301
 30
0.0
 11
6.651306882111613
 21
13.52236229527301
 31
0.0
  0
LINE
  5
79B
330
6FA
100
AcDbEntity
  8
Dimension (ANSI)
100
AcDbLine
 10
6.651306882111613
 20
13.52236229527301
 30
0.0
 11
10.55821508084319
 21
9.615454096542546
 31
0.0
  0
MTEXT
  5
79C
102
{ACAD_XDICTIONARY
360
7FD
102
}
330
6FA
100
AcDbEntity
  8
Dimension (ANSI)
100
AcDbMText
 10
5.647451316397194
 20
13.65569563059316
 30
0.0
 40
0.2666666706403096
 41
0.0
 71
     2
 72
     1
  1
\A1;\U+22050.31
  7
ROMANS
 73
     1
 44
1.0
1001
ACAD
1000
MTEXTBEGIN
1070
    73
1070
     1
1070
    44
1040
1.0
1070
    74
1070
     0
1000
MTEXTEND
  0
SOLID
  5
79D
330
6FA
100
AcDbEntity
  8
Dimension (ANSI)
100
AcDbTrace
 10
10.5891471353126
 20
9.646386151011961
 30
0.0
 11
10.52728302637378
 21
9.58452204207313
 31
0.0
 12
10.74380740765969
 22
9.429861769726104
 32
0.0
 13
10.74380740765969
 23
9.429861769726104
 33
0.0
  0
LINE
  5
79E
330
6FA
100
AcDbEntity
  8
Dimension (ANSI)
100
AcDbLine
 10
10.61340895874361
 20
9.320260218642205
 30
0.0
 11
11.09340895874362
 21
9.320260218642204
 31
0.0
  0
LINE
  5
79F
330
6FA
100
AcDbEntity
  8
Dimension (ANSI)
100
AcDbLine
 10
10.85340895874361
 20
9.080260218642203
 30
0.0
 11
10.85340895874361
 21
9.560260218642202
 31
0.0
  0
POINT
  5
7A0
330
6FA
100
AcDbEntity
  8
Defpoints
 62
     0
100
AcDbPoint
 10
10.74380740765969
 20
9.429861769726104
 30
0.0
  0
POINT
  5
7A1
330
6FA
100
AcDbEntity
  8
Defpoints
 62
     0
100
AcDbPoint
 10
10.96301050982755
 20
9.210658667558305
 30
0.0
  0
ENDBLK
  5
6FC
330
6FA
100
AcDbEntity
  8
0
100
AcDbBlockEnd
  0
ENDSEC
  0
SECTION
  2
ENTITIES
  0
CIRCLE
  5
107
330
6C
100
AcDbEntity
  8
Visible (ANSI)
100
AcDbCircle
 10
10.85340895874361
 20
9.320260218642202
 30
0.0
 40
0.1549999999999999
  0
CIRCLE
  5
108
330
6C
100
AcDbEntity
  8
Visible (ANSI)
100
AcDbCircle
 10
16.10340895874361
 20
20.57026021864221
 30
0.0
 40
0.2814999999999999
  0
CIRCLE
  5
109
330
6C
100
AcDbEntity
  8
Visible (ANSI)
100
AcDbCircle
 10
16.10340895874361
 20
9.3202602186422
 30
0.0
 40
0.2814999999999999
  0
CIRCLE
  5
10A
330
6C
100
AcDbEntity
  8
Visible (ANSI)
100
AcDbCircle
 10
8.853408958743614
 20
9.320260218642202
 30
0.0
 40
0.2814999999999999
  0
CIRCLE
  5
10B
330
6C
100
AcDbEntity
  8
Visible (ANSI)
100
AcDbCircle
 10
8.853408958743612
 20
20.57026021864221
 30
0.0
 40
0.2814999999999999
  0
LINE
  5
10C
330
6C
100
AcDbEntity
  8
Visible (ANSI)
100
AcDbLine
 10
7.978408958743615
 20
8.445260218642202
 30
0.0
 11
7.978408958743612
 21
21.44526021864221
 31
0.0
  0
LINE
  5
10D
330
6C
100
AcDbEntity
  8
Visible (ANSI)
100
AcDbLine
 10
7.978408958743612
 20
21.44526021864221
 30
0.0
 11
16.97840895874361
 21
21.44526021864221
 31
0.0
  0
LINE
  5
10E
330
6C
100
AcDbEntity
  8
Visible (ANSI)
100
AcDbLine
 10
16.97840895874361
 20
21.44526021864221
 30
0.0
 11
16.97840895874361
 21
8.445260218642202
 31
0.0
  0
LINE
  5
10F
330
6C
100
AcDbEntity
  8
Visible (ANSI)
100
AcDbLine
 10
16.97840895874361
 20
8.445260218642202
 30
0.0
 11
7.978408958743616
 21
8.445260218642202
 31
0.0
  0
MTEXT
  5
111
330
6C
100
AcDbEntity
  8
Symbol (ANSI)
100
AcDbMText
 10
10.33112396048728
 20
6.00520417286736
 30
0.0
 40
0.3200000039548698
 41
0.0
 71
     7
 72
     1
  1
FRONT VIEW
  7
Text Style168
 73
     1
 44
1.0
1001
ACAD
1000
MTEXTBEGIN
1070
    73
1070
     1
1070
    44
1040
1.0
1070
    74
1070
     0
1000
MTEXTEND
  0
LINE
  5
113
330
6C
100
AcDbEntity
  8
Symbol (ANSI)
370
    30
100
AcDbLine
 10
10.29912387817158
 20
5.939946473200986
 30
0.0
 11
12.87183055626673
 21
5.939946473200986
 31
0.0
  0
LINE
  5
114
330
6C
100
AcDbEntity
  8
Visible (ANSI)
100
AcDbLine
 10
26.89959749591043
 20
21.44526021864221
 30
0.0
 11
26.80589749591043
 21
21.44526021864221
 31
0.0
  0
LINE
  5
115
330
6C
100
AcDbEntity
  8
Visible (ANSI)
100
AcDbLine
 10
26.80589749591043
 20
21.44526021864221
 30
0.0
 11
26.80589749591043
 21
8.445260218642202
 31
0.0
  0
LINE
  5
116
330
6C
100
AcDbEntity
  8
Visible (ANSI)
100
AcDbLine
 10
26.89959749591043
 20
8.445260218642202
 30
0.0
 11
26.80589749591043
 21
8.445260218642202
 31
0.0
  0
LINE
  5
117
330
6C
100
AcDbEntity
  8
Visible (ANSI)
100
AcDbLine
 10
26.89959749591043
 20
8.445260218642202
 30
0.0
 11
26.89959749591043
 21
21.44526021864221
 31
0.0
  0
MTEXT
  5
118
330
6C
100
AcDbEntity
  8
Symbol (ANSI)
100
AcDbMText
 10
26.03751807378426
 20
6.450305837869372
 30
0.0
 40
0.3200000039548698
 41
0.0
 71
     7
 72
     1
  1
SIDE VIEW
  7
Text Style168
 73
     1
 44
1.0
1001
ACAD
1000
MTEXTBEGIN
1070
    73
1070
     1
1070
    44
1040
1.0
1070
    74
1070
     0
1000
MTEXTEND
  0
LINE
  5
119
330
6C
100
AcDbEntity
  8
Symbol (ANSI)
370
    30
100
AcDbLine
 10
26.02113403163862
 20
6.384010861430152
 30
0.0
 11
28.18359755271994
 21
6.384010861430152
 31
0.0
  0
LINE
  5
11A
330
6C
100
AcDbEntity
  8
Visible (ANSI)
100
AcDbLine
 10
7.978408958747364
 20
27.25377266696763
 30
0.0
 11
7.978408958747364
 21
27.16007266696763
 31
0.0
  0
LINE
  5
11B
330
6C
100
AcDbEntity
  8
Visible (ANSI)
100
AcDbLine
 10
7.978408958747364
 20
27.16007266696763
 30
0.0
 11
16.97840895874736
 21
27.16007266696763
 31
0.0
  0
LINE
  5
11C
330
6C
100
AcDbEntity
  8
Visible (ANSI)
100
AcDbLine
 10
16.97840895874736
 20
27.25377266696763
 30
0.0
 11
16.97840895874736
 21
27.16007266696763
 31
0.0
  0
LINE
  5
11D
330
6C
100
AcDbEntity
  8
Visible (ANSI)
100
AcDbLine
 10
16.97840895874736
 20
27.25377266696763
 30
0.0
 11
7.978408958747364
 21
27.25377266696763
 31
0.0
  0
MTEXT
  5
11E
330
6C
100
AcDbEntity
  8
Symbol (ANSI)
100
AcDbMText
 10
11.63125889252129
 20
25.28423902002094
 30
0.0
 40
0.3200000039548698
 41
0.0
 71
     7
 72
     1
  1
TOP VIEW
  7
Text Style168
 73
     1
 44
1.0
1001
ACAD
1000
MTEXTBEGIN
1070
    73
1070
     1
1070
    44
1040
1.0
1070
    74
1070
     0
1000
MTEXTEND
  0
LINE
  5
11F
330
6C
100
AcDbEntity
  8
Symbol (ANSI)
370
    30
100
AcDbLine
 10
11.63151489317981
 20
25.21898132035456
 30
0.0
 11
13.6505748328271
 21
25.21898132035456
 31
0.0
  0
ELLIPSE
  5
120
330
6C
100
AcDbEntity
  8
Visible (ANSI)
100
AcDbEllipse
 10
36.43529877507255
 20
10.86830334492488
 30
0.0
 11
0.0773499927955914
 21
-0.1343204326024971
 31
0.0
210
0.0
220
0.0
230
1.0
 40
0.5780931159158115
 41
3.582359635621056
 42
5.842418325147536
  0
ELLIPSE
  5
121
330
6C
100
AcDbEntity
  8
Visible (ANSI)
100
AcDbEllipse
 10
36.36904286967538
 20
10.83014910654253
 30
0.0
 11
-0.0773499927955833
 21
0.1343204326025017
 31
0.0
210
0.0
220
0.0
230
1.0
 40
0.5780931159158115
 41
0.0
 42
6.283185307179586
  0
ELLIPSE
  5
122
330
6C
100
AcDbEntity
  8
Visible (ANSI)
100
AcDbEllipse
 10
40.08135347090531
 20
17.88977676361165
 30
0.0
 11
-0.140477567561011
 21
0.2439432372748659
 31
0.0
210
0.0
220
0.0
230
1.0
 40
0.5780931159158114
 41
0.0
 42
6.283185307179586
  0
ELLIPSE
  5
123
330
6C
100
AcDbEntity
  8
Visible (ANSI)
100
AcDbEllipse
 10
40.14760937630248
 20
17.927931001994
 30
0.0
 11
-0.1404775675610111
 21
0.2439432372748659
 31
0.0
210
0.0
220
0.0
230
1.0
 40
0.5780931159158114
 41
0.2371295998375738
 42
2.904463053752249
  0
ELLIPSE
  5
124
330
6C
100
AcDbEntity
  8
Visible (ANSI)
100
AcDbEllipse
 10
40.08135347090531
 20
8.692371609133097
 30
0.0
 11
-0.140477567561011
 21
0.2439432372748659
 31
0.0
210
0.0
220
0.0
230
1.0
 40
0.5780931159158114
 41
0.0
 42
6.283185307179586
  0
ELLIPSE
  5
125
330
6C
100
AcDbEntity
  8
Visible (ANSI)
100
AcDbEllipse
 10
40.14760937630248
 20
8.730525847515444
 30
0.0
 11
-0.1404775675610115
 21
0.2439432372748668
 31
0.0
210
0.0
220
0.0
230
1.0
 40
0.5780931159158113
 41
0.2371295998375673
 42
2.904463053752245
  0
ELLIPSE
  5
126
330
6C
100
AcDbEntity
  8
Visible (ANSI)
100
AcDbEllipse
 10
34.95482930730207
 20
11.64454053412708
 30
0.0
 11
-0.140477567561011
 21
0.2439432372748659
 31
0.0
210
0.0
220
0.0
230
1.0
 40
0.5780931159158114
 41
0.0
 42
6.283185307179586
  0
ELLIPSE
  5
127
330
6C
100
AcDbEntity
  8
Visible (ANSI)
100
AcDbEllipse
 10
35.02108521269923
 20
11.68269477250943
 30
0.0
 11
-0.1404775675610109
 21
0.2439432372748658
 31
0.0
210
0.0
220
0.0
230
1.0
 40
0.5780931159158114
 41
0.2371295998375741
 42
2.904463053752245
  0
ELLIPSE
  5
128
330
6C
100
AcDbEntity
  8
Visible (ANSI)
100
AcDbEllipse
 10
34.95482930730207
 20
20.84194568860564
 30
0.0
 11
-0.140477567561011
 21
0.2439432372748659
 31
0.0
210
0.0
220
0.0
230
1.0
 40
0.5780931159158114
 41
0.0
 42
6.283185307179586
  0
ELLIPSE
  5
129
330
6C
100
AcDbEntity
  8
Visible (ANSI)
100
AcDbEllipse
 10
35.02108521269923
 20
20.88009992698799
 30
0.0
 11
-0.1404775675610109
 21
0.2439432372748658
 31
0.0
210
0.0
220
0.0
230
1.0
 40
0.5780931159158112
 41
0.2371295998375742
 42
2.904463053752241
  0
LINE
  5
12A
330
6C
100
AcDbEntity
  8
Visible (ANSI)
100
AcDbLine
 10
34.33611087376375
 20
11.2854830494581
 30
0.0
 11
34.33611087376374
 21
21.9135956724111
 31
0.0
  0
LINE
  5
12B
330
6C
100
AcDbEntity
  8
Visible (ANSI)
100
AcDbLine
 10
34.40236677916092
 20
21.95174991079344
 30
0.0
 11
34.33611087376374
 21
21.9135956724111
 31
0.0
  0
LINE
  5
12C
330
6C
100
AcDbEntity
  8
Visible (ANSI)
100
AcDbLine
 10
34.33611087376374
 20
21.9135956724111
 30
0.0
 11
40.70007190444363
 21
18.24883424828063
 31
0.0
  0
LINE
  5
12D
330
6C
100
AcDbEntity
  8
Visible (ANSI)
100
AcDbLine
 10
40.7663278098408
 20
18.28698848666298
 30
0.0
 11
40.70007190444363
 21
18.24883424828063
 31
0.0
  0
LINE
  5
12E
330
6C
100
AcDbEntity
  8
Visible (ANSI)
100
AcDbLine
 10
40.7663278098408
 20
18.28698848666298
 30
0.0
 11
34.40236677916092
 21
21.95174991079344
 31
0.0
  0
LINE
  5
12F
330
6C
100
AcDbEntity
  8
Visible (ANSI)
100
AcDbLine
 10
40.70007190444363
 20
18.24883424828063
 30
0.0
 11
40.70007190444363
 21
7.620721625327635
 31
0.0
  0
LINE
  5
130
330
6C
100
AcDbEntity
  8
Visible (ANSI)
100
AcDbLine
 10
40.7663278098408
 20
7.658875863709983
 30
0.0
 11
40.70007190444363
 21
7.620721625327635
 31
0.0
  0
LINE
  5
131
330
6C
100
AcDbEntity
  8
Visible (ANSI)
100
AcDbLine
 10
40.7663278098408
 20
7.658875863709983
 30
0.0
 11
40.7663278098408
 21
18.28698848666298
 31
0.0
  0
LINE
  5
132
330
6C
100
AcDbEntity
  8
Visible (ANSI)
100
AcDbLine
 10
40.70007190444363
 20
7.620721625327635
 30
0.0
 11
34.33611087376375
 21
11.2854830494581
 31
0.0
  0
DIMENSION
  5
133
330
6C
100
AcDbEntity
  8
Dimension (ANSI)
100
AcDbDimension
  2
*D4
 10
18.78108362452066
 20
9.3202602186422
 30
0.0
 11
18.02827772514781
 21
7.447914591913005
 31
0.0
 70
   160
  1
<>{\PTYP.}
 71
     5
 42
0.8749999999999982
  3
Default (ANSI)
100
AcDbAlignedDimension
 13
16.97840895874361
 23
8.445260218642202
 33
0.0
 14
16.10340895874361
 24
9.3202602186422
 34
0.0
 50
90.0
100
AcDbRotatedDimension
1001
ACAD
1000
DSTYLE
1002
{
1070
   289
1070
     2
1070
   271
1070
     2
1070
   272
1070
     2
1070
    48
1040
0.0
1070
    47
1040
0.0
1002
}
  0
DIMENSION
  5
24C
330
6C
100
AcDbEntity
  8
Dimension (ANSI)
100
AcDbDimension
  2
*D5
 10
20.17211022134403
 20
21.44526021864221
 30
0.0
 11
20.17211022134403
 21
14.94526021864221
 31
0.0
 70
   160
  1
<>
 42
13.0
  3
Default (ANSI)
100
AcDbAlignedDimension
 13
16.97840895874361
 23
8.445260218642202
 33
0.0
 14
16.97840895874361
 24
21.44526021864221
 34
0.0
 50
90.0
100
AcDbRotatedDimension
1001
ACAD
1000
DSTYLE
1002
{
1070
   289
1070
     1
1070
   271
1070
     2
1070
   272
1070
     2
1070
    48
1040
0.0
1070
    47
1040
0.0
1002
}
  0
DIMENSION
  5
336
330
6C
100
AcDbEntity
  8
Dimension (ANSI)
100
AcDbDimension
  2
*D6
 10
16.97840895874361
 20
23.2608676505923
 30
0.0
 11
12.47840895874361
 21
23.2608676505923
 31
0.0
 70
   160
  1
<>
 42
9.000000000000001
  3
Default (ANSI)
100
AcDbAlignedDimension
 13
7.978408958743612
 23
21.44526021864221
 33
0.0
 14
16.97840895874361
 24
21.4452602186422
 34
0.0
 50
180.0
100
AcDbRotatedDimension
1001
ACAD
1000
DSTYLE
1002
{
1070
   289
1070
     1
1070
    73
1070
     0
1070
    74
1070
     0
1070
   271
1070
     2
1070
   272
1070
     2
1070
    48
1040
0.0
1070
    47
1040
0.0
1002
}
  0
DIMENSION
  5
420
330
6C
100
AcDbEntity
  8
Dimension (ANSI)
100
AcDbDimension
  2
*D7
 10
16.97840895874361
 20
22.25005024488893
 30
0.0
 11
18.25566580059006
 21
22.25005024488893
 31
0.0
 70
   160
  1
<>{\PTYP.}
 71
     5
 42
0.8750000000000035
  3
Default (ANSI)
100
AcDbAlignedDimension
 13
16.10340895874361
 23
21.18509355197554
 33
0.0
 14
16.97840895874361
 24
21.4452602186422
 34
0.0
 50
180.0
100
AcDbRotatedDimension
1001
ACAD
1000
DSTYLE
1002
{
1070
   289
1070
     2
1070
    73
1070
     0
1070
    74
1070
     0
1070
   271
1070
     2
1070
   272
1070
     2
1070
    48
1040
0.0
1070
    47
1040
0.0
1002
}
  0
DIMENSION
  5
51E
330
6C
100
AcDbEntity
  8
Dimension (ANSI)
100
AcDbDimension
  2
*D8
 10
19.8017301021223
 20
27.25377266696763
 30
0.0
 11
18.75686070633387
 21
25.89734452465255
 31
0.0
 70
   160
  1
(<>){\P12 GA.}
 71
     5
 42
0.0936999999999984
  3
Default (ANSI)
100
AcDbAlignedDimension
 13
16.97840895874736
 23
27.16007266696763
 33
0.0
 14
16.97840895874736
 24
27.25377266696763
 34
0.0
 50
90.0
100
AcDbRotatedDimension
1001
ACAD
1000
DSTYLE
1002
{
1070
   289
1070
     1
1070
   271
1070
     3
1070
   147
1040
0.031496062992126
1070
    72
1070
     0
1070
    71
1070
     0
1070
   272
1070
     3
1070
    48
1040
0.0
1070
    47
1040
0.0
1002
}
  0
DIMENSION
  5
63F
330
6C
100
AcDbEntity
  8
Dimension (ANSI)
100
AcDbDimension
  2
*D9
 10
9.052459517647665
 20
9.519310777546188
 30
0.0
 11
5.877431144078322
 21
7.499356095518272
 31
0.0
 70
   163
  1
<>{\PTYP.\P(4 PL.)}
 71
     2
 42
0.5629999999999999
  3
Default (ANSI)
100
AcDbDiametricDimension
 15
8.654358399839575
 25
9.121209659738223
 35
0.0
 40
0.0
1001
ACAD_DSTYLE_DIMRADIAL_EXTENSION
1070
   387
1070
     1
1070
   388
1040
0.0
1070
   390
1040
0.0
1001
ACAD
1000
DSTYLE
1002
{
1070
   145
1040
-0.3333333333333334
1070
   144
1040
0.9999999999999957
1070
   271
1070
     2
1070
   272
1070
     2
1070
    48
1040
0.0
1070
    47
1040
0.0
1002
}
  0
DIMENSION
  5
6F9
330
6C
100
AcDbEntity
  8
Dimension (ANSI)
100
AcDbDimension
  2
*D10
 10
10.96301050982755
 20
9.210658667558305
 30
0.0
 11
5.647451316397194
 21
13.52236229527301
 31
0.0
 70
   163
  1
<>
 71
     2
 42
0.31
  3
Default (ANSI)
100
AcDbDiametricDimension
 15
10.74380740765969
 25
9.429861769726104
 35
0.0
 40
0.0
1001
ACAD
1000
DSTYLE
1002
{
1070
   144
1040
1.000000000000001
1070
   271
1070
     2
1070
   272
1070
     2
1070
    48
1040
0.0
1070
    47
1040
0.0
1002
}
1001
ACAD_DSTYLE_DIMRADIAL_EXTENSION
1070
   387
1070
     1
1070
   388
1040
0.0
1070
   390
1040
0.0
  0
MTEXT
  5
7A2
102
{ACAD_XDICTIONARY
360
7BC
102
}
330
6C
100
AcDbEntity
  8
Symbol (ANSI)
100
AcDbMText
 10
22.16815045330898
 20
2.936345051147632
 30
0.0
 40
0.2666666751771461
 41
23.86739272599506
 71
     4
 72
     1
  1
{\fRomanS|b0|i0|c0|p2;\H1.9999x;PART#: ALNP1612\P(DATA SUBJECT TO CHANGE WITHOUT NOTICE)\P \P\H0.60004x;THIS DRAWING IS PROPERTY OF HUBBELL INC. WIEGMANN\PALL INFORMATION IS PROPRIETARY AND NOT TO BE DUPLICATED}
  7
Note Text (ANSI)
 73
     1
 44
1.003304481506347
1001
ACAD
1000
MTEXTBEGIN
1070
    73
1070
     1
1070
    44
1040
1.003304481506347
1070
    74
1070
     0
1000
MTEXTEND
  0
LINE
  5
7A4
330
6C
100
AcDbEntity
  8
Center Mark (ANSI)
  6
CHAIN
 48
0.256066620349884
100
AcDbLine
 10
9.468242292076944
 20
20.57026021864221
 30
0.0
 11
8.238575625410279
 21
20.57026021864221
 31
0.0
  0
LINE
  5
7A5
330
6C
100
AcDbEntity
  8
Center Mark (ANSI)
  6
CHAIN
 48
0.256066620349884
100
AcDbLine
 10
16.71824229207694
 20
20.57026021864221
 30
0.0
 11
15.48857562541028
 21
20.57026021864221
 31
0.0
  0
LINE
  5
7A6
330
6C
100
AcDbEntity
  8
Centerline (ANSI)
  6
CHAIN
 48
0.9524481296539306
100
AcDbLine
 10
8.238575625410279
 20
20.57026021864221
 30
0.0
 11
16.71824229207694
 21
20.57026021864221
 31
0.0
  0
LINE
  5
7A7
330
6C
100
AcDbEntity
  8
Center Mark (ANSI)
  6
CHAIN
 48
0.256066620349884
100
AcDbLine
 10
9.468242292076945
 20
9.320260218642202
 30
0.0
 11
8.23857562541028
 21
9.320260218642202
 31
0.0
  0
LINE
  5
7A8
330
6C
100
AcDbEntity
  8
Center Mark (ANSI)
  6
CHAIN
 48
0.256066620349884
100
AcDbLine
 10
16.71824229207694
 20
9.3202602186422
 30
0.0
 11
15.48857562541028
 21
9.3202602186422
 31
0.0
  0
LINE
  5
7A9
330
6C
100
AcDbEntity
  8
Centerline (ANSI)
  6
CHAIN
 48
0.9524481296539306
100
AcDbLine
 10
8.23857562541028
 20
9.320260218642202
 30
0.0
 11
16.71824229207694
 21
9.3202602186422
 31
0.0
  0
LINE
  5
7AA
330
6C
100
AcDbEntity
  8
Centerline (ANSI)
  6
CHAIN
 48
0.9524481296539306
100
AcDbLine
 10
8.853408958743612
 20
21.18509355197554
 30
0.0
 11
8.853408958743614
 21
8.705426885308868
 31
0.0
  0
LINE
  5
7AB
330
6C
100
AcDbEntity
  8
Centerline (ANSI)
  6
CHAIN
 48
0.9524481296539306
100
AcDbLine
 10
16.10340895874361
 20
21.18509355197554
 30
0.0
 11
16.10340895874361
 21
8.705426885308867
 31
0.0
  0
LINE
  5
7AC
330
6C
100
AcDbEntity
  8
Center Mark (ANSI)
  6
CHAIN
 48
0.2033611387014389
100
AcDbLine
 10
11.34174229207695
 20
9.320260218642202
 30
0.0
 11
10.36507562541028
 21
9.320260218642202
 31
0.0
  0
LINE
  5
7AD
330
6C
100
AcDbEntity
  8
Center Mark (ANSI)
  6
CHAIN
 48
0.2033611387014389
100
AcDbLine
 10
10.85340895874361
 20
9.808593551975533
 30
0.0
 11
10.85340895874361
 21
8.831926885308869
 31
0.0
  0
ENDSEC
  0
SECTION
  2
OBJECTS
  0
DICTIONARY
  5
C
330
0
100
AcDbDictionary
281
     1
  3
ACAD_CIP_PREVIOUS_PRODUCT_INFO
350
7AE
  3
ACAD_COLOR
350
63
  3
ACAD_GROUP
350
D
  3
ACAD_LAYOUT
350
62
  3
ACAD_MATERIAL
350
10
  3
ACAD_MLEADERSTYLE
350
66
  3
ACAD_MLINESTYLE
350
5F
  3
ACAD_PLOTSETTINGS
350
61
  3
ACAD_PLOTSTYLENAME
350
E
  3
ACAD_SCALELIST
350
42
  3
ACAD_TABLESTYLE
350
64
  3
ACAD_VISUALSTYLE
350
29
  3
ACDB_RECOMPOSE_DATA
350
7BE
  3
AcDbVariableDictionary
350
76
  3
DWGPROPS
350
7BF
  0
DICTIONARY
  5
7FB
330
6F3
100
AcDbDictionary
280
     1
281
     1
  3
ACAD_MTEXT_RT
360
7FC
  0
DICTIONARY
  5
7FD
330
79C
100
AcDbDictionary
280
     1
281
     1
  3
ACAD_MTEXT_RT
360
7FE
  0
DICTIONARY
  5
7BC
330
7A2
100
AcDbDictionary
280
     1
281
     1
  3
ACAD_MTEXT_2008_RT
360
7BD
  0
XRECORD
  5
7AE
102
{ACAD_REACTORS
330
C
102
}
330
C
100
AcDbXrecord
280
     1
300
INVNTOR
300
2012
300
85795PDSP_2012_0F
  0
DICTIONARY
  5
63
102
{ACAD_REACTORS
330
C
102
}
330
C
100
AcDbDictionary
281
     1
  0
DICTIONARY
  5
D
102
{ACAD_REACTORS
330
C
102
}
330
C
100
AcDbDictionary
281
     1
  0
DICTIONARY
  5
62
102
{ACAD_REACTORS
330
C
102
}
330
C
100
AcDbDictionary
281
     1
  3
Layout1
350
6B
  3
Layout2
350
73
  3
Model
350
6F
  0
DICTIONARY
  5
10
102
{ACAD_REACTORS
330
C
102
}
330
C
100
AcDbDictionary
281
     1
  3
ByBlock
350
19
  3
ByLayer
350
11
  3
Global
350
21
  0
DICTIONARY
  5
66
102
{ACAD_REACTORS
330
C
102
}
330
C
100
AcDbDictionary
281
     1
  3
Standard
350
67
  0
DICTIONARY
  5
5F
102
{ACAD_REACTORS
330
C
102
}
330
C
100
AcDbDictionary
281
     1
  3
Standard
350
60
  0
DICTIONARY
  5
61
102
{ACAD_REACTORS
330
C
102
}
330
C
100
AcDbDictionary
281
     1
  0
ACDBDICTIONARYWDFLT
  5
E
102
{ACAD_REACTORS
330
C
102
}
330
C
100
AcDbDictionary
281
     1
  3
Normal
350
F
100
AcDbDictionaryWithDefault
340
F
  0
DICTIONARY
  5
42
102
{ACAD_REACTORS
330
C
102
}
330
C
100
AcDbDictionary
281
     1
  3
A0
350
43
  3
A1
350
44
  3
A2
350
45
  3
A3
350
46
  3
A4
350
47
  3
A5
350
48
  3
A6
350
49
  3
A7
350
4A
  3
A8
350
4B
  3
A9
350
4C
  3
B0
350
4D
  3
B1
350
4E
  3
B2
350
4F
  3
B3
350
50
  3
B4
350
51
  3
B5
350
52
  3
B6
350
53
  0
DICTIONARY
  5
64
102
{ACAD_REACTORS
330
C
102
}
330
C
100
AcDbDictionary
281
     1
  3
Standard
350
65
  0
DICTIONARY
  5
29
102
{ACAD_REACTORS
330
C
102
}
330
C
100
AcDbDictionary
281
     1
  3
2dWireframe
350
2F
  3
Basic
350
2E
  3
Brighten
350
35
  3
ColorChange
350
39
  3
Conceptual
350
32
  3
Dim
350
34
  3
EdgeColorOff
350
41
  3
Facepattern
350
38
  3
Flat
350
2A
  3
FlatWithEdges
350
2B
  3
Gouraud
350
2C
  3
GouraudWithEdges
350
2D
  3
Hidden
350
31
  3
JitterOff
350
3F
  3
Linepattern
350
37
  3
OverhangOff
350
40
  3
Realistic
350
33
  3
Shaded
350
3E
  3
Shaded with edges
350
3D
  3
Shades of Gray
350
3A
  3
Sketchy
350
3B
  3
Thicken
350
36
  3
Wireframe
350
30
  3
X-Ray
350
3C
  0
XRECORD
  5
7BE
102
{ACAD_REACTORS
330
C
102
}
330
C
100
AcDbXrecord
280
     1
 90
        1
330
65
330
133
330
420
330
7A2
  0
DICTIONARY
  5
76
102
{ACAD_REACTORS
330
C
102
}
330
C
100
AcDbDictionary
281
     1
  3
CANNOSCALE
350
79
  3
CMLEADERSTYLE
350
78
  3
CTABLESTYLE
350
77
  3
DIMASSOC
350
7B6
  3
HIDETEXT
350
7B5
  3
INDEXCTL
350
7B4
  3
LAYEREVAL
350
7B1
  3
LAYERNOTIFY
350
7B2
  3
LIGHTINGUNITS
350
7B0
  3
MSLTSCALE
350
7AF
  3
SORTENTS
350
7B3
  3
XCLIPFRAME
350
7B7
  0
XRECORD
  5
7BF
102
{ACAD_REACTORS
330
C
102
}
330
C
100
AcDbXrecord
280
     1
  1
DWGPROPS COOKIE
  2

  3

  4
jfielder
  6

  7

  8

  9
-
300
Manager=
301
Company=
302
Category=
303
Part Number=HWDALNP1612-S
304
Description=
305
Project=
306
Designer=jfielder
307
Engineer=
308
Authority=
309
Cost Center=
 40
0.0000739699074074
 41
2455986.367101875
 42
2455986.367101875
  1

 90
       19
300
Vendor=
300
User Status=
300
Design Status=WorkInProgress
300
Checked by=
300
Engr Approved by=
300
Mfg Approved by=
300
DWG. NO=
300
NUMBER OF SHEETS=1
300
DRAWING #=
  0
XRECORD
  5
7FC
102
{ACAD_REACTORS
330
7FB
102
}
330
7FB
100
AcDbXrecord
280
     1
 40
35902.0
  1
\A1;\U+22050.56{\PTYP.\P(4 PL.)}
  0
XRECORD
  5
7FE
102
{ACAD_REACTORS
330
7FD
102
}
330
7FD
100
AcDbXrecord
280
     1
 40
6412.0
  1
\A1;\U+22050.31
  0
XRECORD
  5
7BD
102
{ACAD_REACTORS
330
7BC
102
}
330
7BC
100
AcDbXrecord
280
     1
 40
1558493.0
  1
\pxsm0.94;{\fRomanS|b0|i0;\H0.5333;PART#: ALNP1612\P(DATA SUBJECT TO CHANGE WITHOUT NOTICE)\P \P\fRomanS|b0|i0;\H0.3200;THIS DRAWING IS PROPERTY OF HUBBELL INC. WIEGMANN\PALL INFORMATION IS PROPRIETARY AND NOT TO BE DUPLICATED}
  0
LAYOUT
  5
6B
102
{ACAD_XDICTIONARY
360
7F5
102
}
102
{ACAD_REACTORS
330
62
102
}
330
62
100
AcDbPlotSettings
  1

  2

  4

  6

 40
0.0
 41
0.0
 42
0.0
 43
0.0
 44
0.0
 45
0.0
 46
0.0
 47
0.0
 48
0.0
 49
0.0
140
0.0
141
0.0
142
1.0
143
1.0
 70
   688
 72
     0
 73
     0
 74
     5
  7

 75
    16
147
1.0
148
0.0
149
0.0
100
AcDbLayout
  1
Layout1
 70
     1
 71
     1
 10
0.0
 20
0.0
 11
12.0
 21
9.0
 12
0.0
 22
0.0
 32
0.0
 14
0.0
 24
0.0
 34
0.0
 15
0.0
 25
0.0
 35
0.0
146
0.0
 13
0.0
 23
0.0
 33
0.0
 16
1.0
 26
0.0
 36
0.0
 17
0.0
 27
1.0
 37
0.0
 76
     0
330
68
  0
LAYOUT
  5
73
102
{ACAD_XDICTIONARY
360
7F9
102
}
102
{ACAD_REACTORS
330
62
102
}
330
62
100
AcDbPlotSettings
  1

  2

  4

  6

 40
0.0
 41
0.0
 42
0.0
 43
0.0
 44
0.0
 45
0.0
 46
0.0
 47
0.0
 48
0.0
 49
0.0
140
0.0
141
0.0
142
1.0
143
1.0
 70
   688
 72
     0
 73
     0
 74
     5
  7

 75
    16
147
1.0
148
0.0
149
0.0
100
AcDbLayout
  1
Layout2
 70
     1
 71
     2
 10
0.0
 20
0.0
 11
12.0
 21
9.0
 12
0.0
 22
0.0
 32
0.0
 14
0.0
 24
0.0
 34
0.0
 15
0.0
 25
0.0
 35
0.0
146
0.0
 13
0.0
 23
0.0
 33
0.0
 16
1.0
 26
0.0
 36
0.0
 17
0.0
 27
1.0
 37
0.0
 76
     0
330
70
  0
LAYOUT
  5
6F
102
{ACAD_XDICTIONARY
360
7F7
102
}
102
{ACAD_REACTORS
330
62
102
}
330
62
100
AcDbPlotSettings
  1

  2

  4

  6

 40
0.0
 41
0.0
 42
0.0
 43
0.0
 44
0.0
 45
0.0
 46
0.0
 47
0.0
 48
0.0
 49
0.0
140
0.0
141
0.0
142
1.0
143
1.0
 70
  1712
 72
     0
 73
     0
 74
     0
  7

 75
     0
147
1.0
148
0.0
149
0.0
100
AcDbLayout
  1
Model
 70
     1
 71
     0
 10
0.0
 20
0.0
 11
12.0
 21
9.0
 12
0.0
 22
0.0
 32
0.0
 14
0.0
 24
0.0
 34
0.0
 15
0.0
 25
0.0
 35
0.0
146
0.0
 13
0.0
 23
0.0
 33
0.0
 16
1.0
 26
0.0
 36
0.0
 17
0.0
 27
1.0
 37
0.0
 76
     0
330
6C
  0
MATERIAL
  5
19
102
{ACAD_XDICTIONARY
360
1A
102
}
102
{ACAD_REACTORS
330
10
102
}
330
10
100
AcDbMaterial
  1
ByBlock
 72
     0
 43
0.0208333333333333
 43
0.0
 43
0.0
 43
0.0
 43
0.0
 43
0.0208333333333333
 43
0.0
 43
0.0
 43
0.0
 43
0.0
 43
1.0
 43
0.0
 43
0.0
 43
0.0
 43
0.0
 43
1.0
 77
     0
 47
0.0208333333333333
 47
0.0
 47
0.0
 47
0.0
 47
0.0
 47
0.0208333333333333
 47
0.0
 47
0.0
 47
0.0
 47
0.0
 47
1.0
 47
0.0
 47
0.0
 47
0.0
 47
0.0
 47
1.0
171
     0
 49
0.0208333333333333
 49
0.0
 49
0.0
 49
0.0
 49
0.0
 49
0.0208333333333333
 49
0.0
 49
0.0
 49
0.0
 49
0.0
 49
1.0
 49
0.0
 49
0.0
 49
0.0
 49
0.0
 49
1.0
175
     0
142
0.0208333333333333
142
0.0
142
0.0
142
0.0
142
0.0
142
0.0208333333333333
142
0.0
142
0.0
142
0.0
142
0.0
142
1.0
142
0.0
142
0.0
142
0.0
142
0.0
142
1.0
179
     0
144
0.0208333333333333
144
0.0
144
0.0
144
0.0
144
0.0
144
0.0208333333333333
144
0.0
144
0.0
144
0.0
144
0.0
144
1.0
144
0.0
144
0.0
144
0.0
144
0.0
144
1.0
147
0.0208333333333333
147
0.0
147
0.0
147
0.0
147
0.0
147
0.0208333333333333
147
0.0
147
0.0
147
0.0
147
0.0
147
1.0
147
0.0
147
0.0
147
0.0
147
0.0
147
1.0
  0
MATERIAL
  5
11
102
{ACAD_XDICTIONARY
360
12
102
}
102
{ACAD_REACTORS
330
10
102
}
330
10
100
AcDbMaterial
  1
ByLayer
 72
     0
 43
0.0208333333333333
 43
0.0
 43
0.0
 43
0.0
 43
0.0
 43
0.0208333333333333
 43
0.0
 43
0.0
 43
0.0
 43
0.0
 43
1.0
 43
0.0
 43
0.0
 43
0.0
 43
0.0
 43
1.0
 77
     0
 47
0.0208333333333333
 47
0.0
 47
0.0
 47
0.0
 47
0.0
 47
0.0208333333333333
 47
0.0
 47
0.0
 47
0.0
 47
0.0
 47
1.0
 47
0.0
 47
0.0
 47
0.0
 47
0.0
 47
1.0
171
     0
 49
0.0208333333333333
 49
0.0
 49
0.0
 49
0.0
 49
0.0
 49
0.0208333333333333
 49
0.0
 49
0.0
 49
0.0
 49
0.0
 49
1.0
 49
0.0
 49
0.0
 49
0.0
 49
0.0
 49
1.0
175
     0
142
0.0208333333333333
142
0.0
142
0.0
142
0.0
142
0.0
142
0.0208333333333333
142
0.0
142
0.0
142
0.0
142
0.0
142
1.0
142
0.0
142
0.0
142
0.0
142
0.0
142
1.0
179
     0
144
0.0208333333333333
144
0.0
144
0.0
144
0.0
144
0.0
144
0.0208333333333333
144
0.0
144
0.0
144
0.0
144
0.0
144
1.0
144
0.0
144
0.0
144
0.0
144
0.0
144
1.0
147
0.0208333333333333
147
0.0
147
0.0
147
0.0
147
0.0
147
0.0208333333333333
147
0.0
147
0.0
147
0.0
147
0.0
147
1.0
147
0.0
147
0.0
147
0.0
147
0.0
147
1.0
  0
MATERIAL
  5
21
102
{ACAD_XDICTIONARY
360
22
102
}
102
{ACAD_REACTORS
330
10
102
}
330
10
100
AcDbMaterial
  1
Global
 72
     0
 43
0.0208333333333333
 43
0.0
 43
0.0
 43
0.0
 43
0.0
 43
0.0208333333333333
 43
0.0
 43
0.0
 43
0.0
 43
0.0
 43
1.0
 43
0.0
 43
0.0
 43
0.0
 43
0.0
 43
1.0
 77
     0
 47
0.0208333333333333
 47
0.0
 47
0.0
 47
0.0
 47
0.0
 47
0.0208333333333333
 47
0.0
 47
0.0
 47
0.0
 47
0.0
 47
1.0
 47
0.0
 47
0.0
 47
0.0
 47
0.0
 47
1.0
171
     0
 49
0.0208333333333333
 49
0.0
 49
0.0
 49
0.0
 49
0.0
 49
0.0208333333333333
 49
0.0
 49
0.0
 49
0.0
 49
0.0
 49
1.0
 49
0.0
 49
0.0
 49
0.0
 49
0.0
 49
1.0
175
     0
142
0.0208333333333333
142
0.0
142
0.0
142
0.0
142
0.0
142
0.0208333333333333
142
0.0
142
0.0
142
0.0
142
0.0
142
1.0
142
0.0
142
0.0
142
0.0
142
0.0
142
1.0
179
     0
144
0.0208333333333333
144
0.0
144
0.0
144
0.0
144
0.0
144
0.0208333333333333
144
0.0
144
0.0
144
0.0
144
0.0
144
1.0
144
0.0
144
0.0
144
0.0
144
0.0
144
1.0
147
0.0208333333333333
147
0.0
147
0.0
147
0.0
147
0.0
147
0.0208333333333333
147
0.0
147
0.0
147
0.0
147
0.0
147
1.0
147
0.0
147
0.0
147
0.0
147
0.0
147
1.0
  0
MLEADERSTYLE
  5
67
102
{ACAD_XDICTIONARY
360
7BA
102
}
102
{ACAD_REACTORS
330
66
102
}
330
66
100
AcDbMLeaderStyle
170
     2
171
     1
172
     0
 90
        2
 40
0.0
 41
0.0
173
     1
 91
-1056964608
340
5B
 92
       -2
290
     1
 42
0.09
291
     1
 43
0.36
  3
Standard
 44
0.18
300

342
55
174
     1
178
     6
175
     1
176
     0
 93
-1056964608
 45
0.18
292
     0
297
     0
 46
0.18
 94
-1056964608
 47
1.0
 49
1.0
140
1.0
293
     1
141
0.0
294
     1
177
     0
142
1.0
295
     0
296
     0
143
0.125
1001
ACAD_MLEADERVER
1070
     2
  0
MLINESTYLE
  5
60
102
{ACAD_REACTORS
330
5F
102
}
330
5F
100
AcDbMlineStyle
  2
STANDARD
 70
     0
  3

 62
   256
 51
90.0
 52
90.0
 71
     2
 49
0.5
 62
   256
  6
BYLAYER
 49
-0.5
 62
   256
  6
BYLAYER
  0
ACDBPLACEHOLDER
  5
F
102
{ACAD_REACTORS
330
E
102
}
330
E
  0
SCALE
  5
43
102
{ACAD_REACTORS
330
42
102
}
330
42
100
AcDbScale
 70
     0
300
1:1
140
1.0
141
1.0
290
     1
  0
SCALE
  5
44
102
{ACAD_REACTORS
330
42
102
}
330
42
100
AcDbScale
 70
     0
300
1/128" = 1'-0"
140
0.0078125
141
12.0
290
     0
  0
SCALE
  5
45
102
{ACAD_REACTORS
330
42
102
}
330
42
100
AcDbScale
 70
     0
300
1/64" = 1'-0"
140
0.015625
141
12.0
290
     0
  0
SCALE
  5
46
102
{ACAD_REACTORS
330
42
102
}
330
42
100
AcDbScale
 70
     0
300
1/32" = 1'-0"
140
0.03125
141
12.0
290
     0
  0
SCALE
  5
47
102
{ACAD_REACTORS
330
42
102
}
330
42
100
AcDbScale
 70
     0
300
1/16" = 1'-0"
140
0.0625
141
12.0
290
     0
  0
SCALE
  5
48
102
{ACAD_REACTORS
330
42
102
}
330
42
100
AcDbScale
 70
     0
300
3/32" = 1'-0"
140
0.09375
141
12.0
290
     0
  0
SCALE
  5
49
102
{ACAD_REACTORS
330
42
102
}
330
42
100
AcDbScale
 70
     0
300
1/8" = 1'-0"
140
0.125
141
12.0
290
     0
  0
SCALE
  5
4A
102
{ACAD_REACTORS
330
42
102
}
330
42
100
AcDbScale
 70
     0
300
3/16" = 1'-0"
140
0.1875
141
12.0
290
     0
  0
SCALE
  5
4B
102
{ACAD_REACTORS
330
42
102
}
330
42
100
AcDbScale
 70
     0
300
1/4" = 1'-0"
140
0.25
141
12.0
290
     0
  0
SCALE
  5
4C
102
{ACAD_REACTORS
330
42
102
}
330
42
100
AcDbScale
 70
     0
300
3/8" = 1'-0"
140
0.375
141
12.0
290
     0
  0
SCALE
  5
4D
102
{ACAD_REACTORS
330
42
102
}
330
42
100
AcDbScale
 70
     0
300
1/2" = 1'-0"
140
0.5
141
12.0
290
     0
  0
SCALE
  5
4E
102
{ACAD_REACTORS
330
42
102
}
330
42
100
AcDbScale
 70
     0
300
3/4" = 1'-0"
140
0.75
141
12.0
290
     0
  0
SCALE
  5
4F
102
{ACAD_REACTORS
330
42
102
}
330
42
100
AcDbScale
 70
     0
300
1" = 1'-0"
140
1.0
141
12.0
290
     0
  0
SCALE
  5
50
102
{ACAD_REACTORS
330
42
102
}
330
42
100
AcDbScale
 70
     0
300
1-1/2" = 1'-0"
140
1.5
141
12.0
290
     0
  0
SCALE
  5
51
102
{ACAD_REACTORS
330
42
102
}
330
42
100
AcDbScale
 70
     0
300
3" = 1'-0"
140
3.0
141
12.0
290
     0
  0
SCALE
  5
52
102
{ACAD_REACTORS
330
42
102
}
330
42
100
AcDbScale
 70
     0
300
6" = 1'-0"
140
6.0
141
12.0
290
     0
  0
SCALE
  5
53
102
{ACAD_REACTORS
330
42
102
}
330
42
100
AcDbScale
 70
     0
300
1'-0" = 1'-0"
140
12.0
141
12.0
290
     0
  0
TABLESTYLE
  5
65
102
{ACAD_XDICTIONARY
360
7B8
102
}
102
{ACAD_REACTORS
330
64
102
}
330
64
100
AcDbTableStyle
  3
Standard
 70
     0
 71
     0
 40
0.06
 41
0.06
280
     0
281
     0
  7
Standard
140
0.18
170
     2
 62
     0
 63
     7
283
     0
274
    -2
284
     1
 64
     0
275
    -2
285
     1
 65
     0
276
    -2
286
     1
 66
     0
277
    -2
287
     1
 67
     0
278
    -2
288
     1
 68
     0
279
    -2
289
     1
 69
     0
  7
Standard
140
0.25
170
     5
 62
     0
 63
     7
283
     0
274
    -2
284
     1
 64
     0
275
    -2
285
     1
 65
     0
276
    -2
286
     1
 66
     0
277
    -2
287
     1
 67
     0
278
    -2
288
     1
 68
     0
279
    -2
289
     1
 69
     0
  7
Standard
140
0.18
170
     5
 62
     0
 63
     7
283
     0
274
    -2
284
     1
 64
     0
275
    -2
285
     1
 65
     0
276
    -2
286
     1
 66
     0
277
    -2
287
     1
 67
     0
278
    -2
288
     1
 68
     0
279
    -2
289
     1
 69
     0
  0
VISUALSTYLE
  5
2F
102
{ACAD_XDICTIONARY
360
7CD
102
}
102
{ACAD_REACTORS
330
29
102
}
330
29
100
AcDbVisualStyle
  2
2dWireframe
 70
     4
 71
     0
 72
     2
 73
     0
 90
        0
 40
-0.6
 41
-30.0
 62
     5
 63
     7
 74
     1
 91
        4
 64
     7
 65
   257
 75
     1
175
     1
 42
1.0
 92
        0
 66
   257
 43
1.0
 76
     1
 77
     6
 78
     2
 67
     7
 79
     5
170
     0
171
     0
290
     0
174
     0
 93
        1
 44
0.0
173
     0
291
     0
 45
0.0
1001
ACAD
1000
AcDbSavedByObjectVersion
1070
     0
  0
VISUALSTYLE
  5
2E
102
{ACAD_XDICTIONARY
360
7CB
102
}
102
{ACAD_REACTORS
330
29
102
}
330
29
100
AcDbVisualStyle
  2
Basic
 70
     7
 71
     1
 72
     0
 73
     1
 90
        0
 40
-0.6
 41
-30.0
 62
     5
 63
     7
 74
     0
 91
        4
 64
     7
 65
   257
 75
     1
175
     1
 42
1.0
 92
        8
 66
     7
 43
1.0
 76
     1
 77
     6
 78
     2
 67
     7
 79
     5
170
     0
171
     0
290
     0
174
     0
 93
        1
 44
0.0
173
     0
291
     1
 45
0.0
1001
ACAD
1000
AcDbSavedByObjectVersion
1070
     0
  0
VISUALSTYLE
  5
35
102
{ACAD_XDICTIONARY
360
7D9
102
}
102
{ACAD_REACTORS
330
29
102
}
330
29
100
AcDbVisualStyle
  2
Brighten
 70
    12
 71
     2
 72
     2
 73
     0
 90
        0
 40
-0.6
 41
-30.0
 62
     5
 63
     7
 74
     1
 91
        4
 64
     7
 65
   257
 75
     1
175
     1
 42
1.0
 92
        8
 66
     7
 43
1.0
 76
     1
 77
     6
 78
     2
 67
     7
 79
     5
170
     0
171
     0
290
     0
174
     0
 93
        1
 44
50.0
173
     0
291
     1
 45
0.0
1001
ACAD
1000
AcDbSavedByObjectVersion
1070
     0
  0
VISUALSTYLE
  5
39
102
{ACAD_XDICTIONARY
360
7E1
102
}
102
{ACAD_REACTORS
330
29
102
}
330
29
100
AcDbVisualStyle
  2
ColorChange
 70
    16
 71
     2
 72
     2
 73
     3
 90
        0
 40
-0.6
 41
-30.0
 62
     5
 63
     8
 74
     1
 91
        4
 64
     7
 65
   257
 75
     1
175
     1
 42
1.0
 92
        8
 66
     8
 43
1.0
 76
     1
 77
     6
 78
     2
 67
     7
 79
     5
170
     0
171
     0
290
     0
174
     0
 93
        1
 44
0.0
173
     0
291
     1
 45
0.0
1001
ACAD
1000
AcDbSavedByObjectVersion
1070
     0
  0
VISUALSTYLE
  5
32
102
{ACAD_XDICTIONARY
360
7D3
102
}
102
{ACAD_REACTORS
330
29
102
}
330
29
100
AcDbVisualStyle
  2
Conceptual
 70
     9
 71
     3
 72
     2
 73
     0
 90
        0
 40
-0.6
 41
-30.0
 62
     5
 63
     7
 74
     2
 91
        2
 64
     7
 65
   257
 75
     1
175
     1
 42
179.0
 92
        8
 66
     7
 43
1.0
 76
     1
 77
     6
 78
     2
 67
     7
 79
     3
170
     0
171
     0
290
     0
174
     0
 93
        1
 44
0.0
173
     0
291
     0
 45
0.0
1001
ACAD
1000
AcDbSavedByObjectVersion
1070
     0
  0
VISUALSTYLE
  5
34
102
{ACAD_XDICTIONARY
360
7D7
102
}
102
{ACAD_REACTORS
330
29
102
}
330
29
100
AcDbVisualStyle
  2
Dim
 70
    11
 71
     2
 72
     2
 73
     0
 90
        0
 40
-0.6
 41
-30.0
 62
     5
 63
     7
 74
     1
 91
        4
 64
     7
 65
   257
 75
     1
175
     1
 42
1.0
 92
        8
 66
     7
 43
1.0
 76
     1
 77
     6
 78
     2
 67
     7
 79
     5
170
     0
171
     0
290
     0
174
     0
 93
        1
 44
-50.0
173
     0
291
     1
 45
0.0
1001
ACAD
1000
AcDbSavedByObjectVersion
1070
     0
  0
VISUALSTYLE
  5
41
102
{ACAD_XDICTIONARY
360
7F1
102
}
102
{ACAD_REACTORS
330
29
102
}
330
29
100
AcDbVisualStyle
  2
EdgeColorOff
 70
    22
 71
     2
 72
     2
 73
     0
 90
        0
 40
-0.6
 41
-30.0
 62
     5
 63
     7
 74
     1
 91
        4
 64
     7
 65
   257
 75
     1
175
     1
 42
1.0
 92
        8
 66
     7
 43
1.0
 76
     1
 77
     6
 78
     2
 67
     7
 79
     5
170
     0
171
     0
290
     0
174
     0
 93
        1
 44
0.0
173
     0
291
     1
 45
0.0
1001
ACAD
1000
AcDbSavedByObjectVersion
1070
     0
  0
VISUALSTYLE
  5
38
102
{ACAD_XDICTIONARY
360
7DF
102
}
102
{ACAD_REACTORS
330
29
102
}
330
29
100
AcDbVisualStyle
  2
Facepattern
 70
    15
 71
     2
 72
     2
 73
     0
 90
        0
 40
-0.6
 41
-30.0
 62
     5
 63
     7
 74
     1
 91
        4
 64
     7
 65
   257
 75
     1
175
     1
 42
1.0
 92
        8
 66
     7
 43
1.0
 76
     1
 77
     6
 78
     2
 67
     7
 79
     5
170
     0
171
     0
290
     0
174
     0
 93
        1
 44
0.0
173
     0
291
     1
 45
0.0
1001
ACAD
1000
AcDbSavedByObjectVersion
1070
     0
  0
VISUALSTYLE
  5
2A
102
{ACAD_XDICTIONARY
360
7C3
102
}
102
{ACAD_REACTORS
330
29
102
}
330
29
100
AcDbVisualStyle
  2
Flat
 70
     0
 71
     2
 72
     1
 73
     1
 90
        2
 40
-0.6
 41
30.0
 62
     5
 63
     7
 74
     0
 91
        0
 64
     7
 65
   257
 75
     1
175
     1
 42
1.0
 92
        8
 66
     7
 43
1.0
 76
     1
 77
     6
 78
     2
 67
     7
 79
     5
170
     0
171
     0
290
     0
174
     0
 93
       13
 44
0.0
173
     0
291
     1
 45
0.0
1001
ACAD
1000
AcDbSavedByObjectVersion
1070
     0
  0
VISUALSTYLE
  5
2B
102
{ACAD_XDICTIONARY
360
7C5
102
}
102
{ACAD_REACTORS
330
29
102
}
330
29
100
AcDbVisualStyle
  2
FlatWithEdges
 70
     1
 71
     2
 72
     1
 73
     1
 90
        2
 40
-0.6
 41
30.0
 62
     5
 63
     7
 74
     1
 91
        0
 64
     7
 65
   257
 75
     1
175
     1
 42
1.0
 92
        0
 66
   257
 43
1.0
 76
     1
 77
     6
 78
     2
 67
     7
 79
     5
170
     0
171
     0
290
     0
174
     0
 93
       13
 44
0.0
173
     0
291
     1
 45
0.0
1001
ACAD
1000
AcDbSavedByObjectVersion
1070
     0
  0
VISUALSTYLE
  5
2C
102
{ACAD_XDICTIONARY
360
7C7
102
}
102
{ACAD_REACTORS
330
29
102
}
330
29
100
AcDbVisualStyle
  2
Gouraud
 70
     2
 71
     2
 72
     2
 73
     1
 90
        2
 40
-0.6
 41
30.0
 62
     5
 63
     7
 74
     0
 91
        0
 64
     7
 65
   257
 75
     1
175
     1
 42
1.0
 92
        0
 66
     7
 43
1.0
 76
     1
 77
     6
 78
     2
 67
     7
 79
     5
170
     0
171
     0
290
     0
174
     0
 93
       13
 44
0.0
173
     0
291
     1
 45
0.0
1001
ACAD
1000
AcDbSavedByObjectVersion
1070
     0
  0
VISUALSTYLE
  5
2D
102
{ACAD_XDICTIONARY
360
7C9
102
}
102
{ACAD_REACTORS
330
29
102
}
330
29
100
AcDbVisualStyle
  2
GouraudWithEdges
 70
     3
 71
     2
 72
     2
 73
     1
 90
        2
 40
-0.6
 41
30.0
 62
     5
 63
     7
 74
     1
 91
        0
 64
     7
 65
   257
 75
     1
175
     1
 42
1.0
 92
        0
 66
   257
 43
1.0
 76
     1
 77
     6
 78
     2
 67
     7
 79
     5
170
     0
171
     0
290
     0
174
     0
 93
       13
 44
0.0
173
     0
291
     1
 45
0.0
1001
ACAD
1000
AcDbSavedByObjectVersion
1070
     0
  0
VISUALSTYLE
  5
31
102
{ACAD_XDICTIONARY
360
7D1
102
}
102
{ACAD_REACTORS
330
29
102
}
330
29
100
AcDbVisualStyle
  2
Hidden
 70
     6
 71
     1
 72
     2
 73
     2
 90
        0
 40
-0.6
 41
-30.0
 62
     5
 63
     7
 74
     2
 91
        2
 64
     7
 65
   257
 75
     2
175
     1
 42
40.0
 92
        0
 66
   257
 43
1.0
 76
     1
 77
     6
 78
     2
 67
     7
 79
     3
170
     0
171
     0
290
     0
174
     0
 93
        1
 44
0.0
173
     0
291
     0
 45
0.0
1001
ACAD
1000
AcDbSavedByObjectVersion
1070
     0
  0
VISUALSTYLE
  5
3F
102
{ACAD_XDICTIONARY
360
7ED
102
}
102
{ACAD_REACTORS
330
29
102
}
330
29
100
AcDbVisualStyle
  2
JitterOff
 70
    20
 71
     2
 72
     2
 73
     0
 90
        0
 40
-0.6
 41
-30.0
 62
     5
 63
     7
 74
     1
 91
        4
 64
     7
 65
   257
 75
     1
175
     1
 42
1.0
 92
       10
 66
     7
 43
1.0
 76
     1
 77
     6
 78
     2
 67
     7
 79
     5
170
     0
171
     0
290
     0
174
     0
 93
        1
 44
0.0
173
     0
291
     1
 45
0.0
1001
ACAD
1000
AcDbSavedByObjectVersion
1070
     0
  0
VISUALSTYLE
  5
37
102
{ACAD_XDICTIONARY
360
7DD
102
}
102
{ACAD_REACTORS
330
29
102
}
330
29
100
AcDbVisualStyle
  2
Linepattern
 70
    14
 71
     2
 72
     2
 73
     0
 90
        0
 40
-0.6
 41
-30.0
 62
     5
 63
     7
 74
     1
 91
        4
 64
     7
 65
   257
 75
     7
175
     7
 42
1.0
 92
        8
 66
     7
 43
1.0
 76
     1
 77
     6
 78
     2
 67
     7
 79
     5
170
     0
171
     0
290
     0
174
     0
 93
        1
 44
0.0
173
     0
291
     1
 45
0.0
1001
ACAD
1000
AcDbSavedByObjectVersion
1070
     0
  0
VISUALSTYLE
  5
40
102
{ACAD_XDICTIONARY
360
7EF
102
}
102
{ACAD_REACTORS
330
29
102
}
330
29
100
AcDbVisualStyle
  2
OverhangOff
 70
    21
 71
     2
 72
     2
 73
     0
 90
        0
 40
-0.6
 41
-30.0
 62
     5
 63
     7
 74
     1
 91
        4
 64
     7
 65
   257
 75
     1
175
     1
 42
1.0
 92
        9
 66
     7
 43
1.0
 76
     1
 77
     6
 78
     2
 67
     7
 79
     5
170
     0
171
     0
290
     0
174
     0
 93
        1
 44
0.0
173
     0
291
     1
 45
0.0
1001
ACAD
1000
AcDbSavedByObjectVersion
1070
     0
  0
VISUALSTYLE
  5
33
102
{ACAD_XDICTIONARY
360
7D5
102
}
102
{ACAD_REACTORS
330
29
102
}
330
29
100
AcDbVisualStyle
  2
Realistic
 70
     8
 71
     2
 72
     3
 73
     0
 90
        2
 40
-0.6
 41
30.0
 62
     5
 63
     7
 74
     0
 91
        0
 64
     7
 65
   257
 75
     1
175
     1
 42
1.0
 92
        8
 66
   257
 43
1.0
 76
     1
 77
     6
 78
     2
 67
     7
 79
     3
170
     0
171
     0
290
     0
174
     0
 93
       13
 44
0.0
173
     0
291
     0
 45
0.0
1001
ACAD
1000
AcDbSavedByObjectVersion
1070
     0
  0
VISUALSTYLE
  5
3E
102
{ACAD_XDICTIONARY
360
7EB
102
}
102
{ACAD_REACTORS
330
29
102
}
330
29
100
AcDbVisualStyle
  2
Shaded
 70
    27
 71
     2
 72
     2
 73
     1
 90
        2
 40
-0.6
 41
30.0
 62
     5
 63
     7
 74
     0
 91
        4
 64
     7
 65
   257
 75
     1
175
     1
 42
1.0
 92
        8
 66
   257
 43
1.0
 76
     1
 77
     6
 78
     2
 67
     8
 79
     3
170
     0
171
     0
290
     0
174
     0
 93
        5
 44
0.0
173
     0
291
     0
 45
0.0
1001
ACAD
1000
AcDbSavedByObjectVersion
1070
     0
  0
VISUALSTYLE
  5
3D
102
{ACAD_XDICTIONARY
360
7E9
102
}
102
{ACAD_REACTORS
330
29
102
}
330
29
100
AcDbVisualStyle
  2
Shaded with edges
 70
    26
 71
     2
 72
     2
 73
     1
 90
        2
 40
-0.6
 41
30.0
 62
     5
 63
     7
 74
     1
 91
       10
 64
     7
 65
   257
 75
     2
175
     1
 42
1.0
 92
        8
 66
   257
 43
1.0
 76
     1
 77
     6
 78
     2
 67
     7
 79
     3
170
     0
171
     0
290
     0
174
     0
 93
        5
 44
0.0
173
     0
291
     0
 45
0.0
1001
ACAD
1000
AcDbSavedByObjectVersion
1070
     0
  0
VISUALSTYLE
  5
3A
102
{ACAD_XDICTIONARY
360
7E3
102
}
102
{ACAD_REACTORS
330
29
102
}
330
29
100
AcDbVisualStyle
  2
Shades of Gray
 70
    23
 71
     2
 72
     2
 73
     3
 90
        0
 40
-0.6
 41
-30.0
 62
     5
 63
     7
 74
     2
 91
        2
 64
     7
 65
     7
 75
     1
175
     1
 42
40.0
 92
        8
 66
     7
 43
1.0
 76
     1
 77
     6
 78
     2
 67
     7
 79
     3
170
     0
171
     0
290
     0
174
     0
 93
        1
 44
0.0
173
     0
291
     0
 45
0.0
1001
ACAD
1000
AcDbSavedByObjectVersion
1070
     0
  0
VISUALSTYLE
  5
3B
102
{ACAD_XDICTIONARY
360
7E5
102
}
102
{ACAD_REACTORS
330
29
102
}
330
29
100
AcDbVisualStyle
  2
Sketchy
 70
    24
 71
     1
 72
     2
 73
     2
 90
        0
 40
-0.6
 41
-30.0
 62
     5
 63
     7
 74
     2
 91
        2
 64
     7
 65
     7
 75
     1
175
     1
 42
40.0
 92
       11
 66
     7
 43
1.0
 76
     1
 77
     6
 78
     2
 67
     7
 79
     6
170
     0
171
     0
290
     0
174
     0
 93
        1
 44
0.0
173
     0
291
     0
 45
0.0
1001
ACAD
1000
AcDbSavedByObjectVersion
1070
     0
  0
VISUALSTYLE
  5
36
102
{ACAD_XDICTIONARY
360
7DB
102
}
102
{ACAD_REACTORS
330
29
102
}
330
29
100
AcDbVisualStyle
  2
Thicken
 70
    13
 71
     2
 72
     2
 73
     0
 90
        0
 40
-0.6
 41
-30.0
 62
     5
 63
     7
 74
     1
 91
        4
 64
     7
 65
   257
 75
     1
175
     1
 42
1.0
 92
       12
 66
     7
 43
1.0
 76
     1
 77
     6
 78
     2
 67
     7
 79
     5
170
     0
171
     0
290
     0
174
     0
 93
        1
 44
0.0
173
     0
291
     1
 45
0.0
1001
ACAD
1000
AcDbSavedByObjectVersion
1070
     0
  0
VISUALSTYLE
  5
30
102
{ACAD_XDICTIONARY
360
7CF
102
}
102
{ACAD_REACTORS
330
29
102
}
330
29
100
AcDbVisualStyle
  2
Wireframe
 70
     5
 71
     0
 72
     2
 73
     0
 90
        0
 40
-0.6
 41
-30.0
 62
     5
 63
     7
 74
     1
 91
        4
 64
     7
 65
   257
 75
     1
175
     1
 42
1.0
 92
        0
 66
   257
 43
1.0
 76
     1
 77
     6
 78
     2
 67
     7
 79
     3
170
     0
171
     0
290
     0
174
     0
 93
        1
 44
0.0
173
     0
291
     0
 45
0.0
1001
ACAD
1000
AcDbSavedByObjectVersion
1070
     0
  0
VISUALSTYLE
  5
3C
102
{ACAD_XDICTIONARY
360
7E7
102
}
102
{ACAD_REACTORS
330
29
102
}
330
29
100
AcDbVisualStyle
  2
X-Ray
 70
    25
 71
     2
 72
     2
 73
     1
 90
        1
 40
0.5
 41
-30.0
 62
     5
 63
     7
 74
     1
 91
        0
 64
     7
 65
   257
 75
     1
175
     1
 42
1.0
 92
        8
 66
     7
 43
1.0
 76
     1
 77
     6
 78
     2
 67
     7
 79
     3
170
     0
171
     0
290
     0
174
     0
 93
       13
 44
0.0
173
     0
291
     0
 45
0.0
1001
ACAD
1000
AcDbSavedByObjectVersion
1070
     0
  0
DICTIONARYVAR
  5
79
102
{ACAD_REACTORS
330
76
102
}
330
76
100
DictionaryVariables
280
     0
  1
1:1
  0
DICTIONARYVAR
  5
78
102
{ACAD_REACTORS
330
76
102
}
330
76
100
DictionaryVariables
280
     0
  1
STANDARD
  0
DICTIONARYVAR
  5
77
102
{ACAD_REACTORS
330
76
102
}
330
76
100
DictionaryVariables
280
     0
  1
STANDARD
  0
DICTIONARYVAR
  5
7B6
102
{ACAD_REACTORS
330
76
102
}
330
76
100
DictionaryVariables
280
     0
  1
1
  0
DICTIONARYVAR
  5
7B5
102
{ACAD_REACTORS
330
76
102
}
330
76
100
DictionaryVariables
280
     0
  1
1
  0
DICTIONARYVAR
  5
7B4
102
{ACAD_REACTORS
330
76
102
}
330
76
100
DictionaryVariables
280
     0
  1
0
  0
DICTIONARYVAR
  5
7B1
102
{ACAD_REACTORS
330
76
102
}
330
76
100
DictionaryVariables
280
     0
  1
0
  0
DICTIONARYVAR
  5
7B2
102
{ACAD_REACTORS
330
76
102
}
330
76
100
DictionaryVariables
280
     0
  1
0
  0
DICTIONARYVAR
  5
7B0
102
{ACAD_REACTORS
330
76
102
}
330
76
100
DictionaryVariables
280
     0
  1
2
  0
DICTIONARYVAR
  5
7AF
102
{ACAD_REACTORS
330
76
102
}
330
76
100
DictionaryVariables
280
     0
  1
1
  0
DICTIONARYVAR
  5
7B3
102
{ACAD_REACTORS
330
76
102
}
330
76
100
DictionaryVariables
280
     0
  1
127
  0
DICTIONARYVAR
  5
7B7
102
{ACAD_REACTORS
330
76
102
}
330
76
100
DictionaryVariables
280
     0
  1
2
  0
DICTIONARY
  5
7F5
330
6B
100
AcDbDictionary
280
     1
281
     1
  3
ACAD_XREC_ROUNDTRIP
360
7F6
  0
DICTIONARY
  5
7F9
330
73
100
AcDbDictionary
280
     1
281
     1
  3
ACAD_XREC_ROUNDTRIP
360
7FA
  0
DICTIONARY
  5
7F7
330
6F
100
AcDbDictionary
280
     1
281
     1
  3
ACAD_XREC_ROUNDTRIP
360
7F8
  0
DICTIONARY
  5
1A
330
19
100
AcDbDictionary
280
     1
281
     1
  3
ACAD_XREC_ROUNDTRIP
360
7C1
  3
BUMPTILE
360
1C
  3
DIFFUSETILE
360
1B
  3
OPACITYTILE
360
1F
  3
REFLECTIONTILE
360
1E
  3
REFRACTIONTILE
360
20
  3
SPECULARTILE
360
1D
  0
DICTIONARY
  5
12
330
11
100
AcDbDictionary
280
     1
281
     1
  3
ACAD_XREC_ROUNDTRIP
360
7C0
  3
BUMPTILE
360
14
  3
DIFFUSETILE
360
13
  3
FBXASSET
360
F5
  3
OPACITYTILE
360
17
  3
REFLECTIONTILE
360
16
  3
REFRACTIONTILE
360
18
  3
SPECULARTILE
360
15
  0
DICTIONARY
  5
22
330
21
100
AcDbDictionary
280
     1
281
     1
  3
ACAD_XREC_ROUNDTRIP
360
7C2
  3
BUMPTILE
360
24
  3
DIFFUSETILE
360
23
  3
FBXASSET
360
BA
  3
OPACITYTILE
360
27
  3
REFLECTIONTILE
360
26
  3
REFRACTIONTILE
360
28
  3
SPECULARTILE
360
25
  0
DICTIONARY
  5
7BA
330
67
100
AcDbDictionary
280
     1
281
     1
  3
ACAD_XREC_ROUNDTRIP
360
7BB
  0
DICTIONARY
  5
7B8
330
65
100
AcDbDictionary
280
     1
281
     1
  3
ACAD_ROUNDTRIP_2008_TABLESTYLE_CELLSTYLEMAP
360
7B9
  3
ACAD_XREC_ROUNDTRIP
360
7F3
  0
DICTIONARY
  5
7CD
330
2F
100
AcDbDictionary
280
     1
281
     1
  3
ACAD_XREC_ROUNDTRIP
360
7CE
  0
DICTIONARY
  5
7CB
330
2E
100
AcDbDictionary
280
     1
281
     1
  3
ACAD_XREC_ROUNDTRIP
360
7CC
  0
DICTIONARY
  5
7D9
330
35
100
AcDbDictionary
280
     1
281
     1
  3
ACAD_XREC_ROUNDTRIP
360
7DA
  0
DICTIONARY
  5
7E1
330
39
100
AcDbDictionary
280
     1
281
     1
  3
ACAD_XREC_ROUNDTRIP
360
7E2
  0
DICTIONARY
  5
7D3
330
32
100
AcDbDictionary
280
     1
281
     1
  3
ACAD_XREC_ROUNDTRIP
360
7D4
  0
DICTIONARY
  5
7D7
330
34
100
AcDbDictionary
280
     1
281
     1
  3
ACAD_XREC_ROUNDTRIP
360
7D8
  0
DICTIONARY
  5
7F1
330
41
100
AcDbDictionary
280
     1
281
     1
  3
ACAD_XREC_ROUNDTRIP
360
7F2
  0
DICTIONARY
  5
7DF
330
38
100
AcDbDictionary
280
     1
281
     1
  3
ACAD_XREC_ROUNDTRIP
360
7E0
  0
DICTIONARY
  5
7C3
330
2A
100
AcDbDictionary
280
     1
281
     1
  3
ACAD_XREC_ROUNDTRIP
360
7C4
  0
DICTIONARY
  5
7C5
330
2B
100
AcDbDictionary
280
     1
281
     1
  3
ACAD_XREC_ROUNDTRIP
360
7C6
  0
DICTIONARY
  5
7C7
330
2C
100
AcDbDictionary
280
     1
281
     1
  3
ACAD_XREC_ROUNDTRIP
360
7C8
  0
DICTIONARY
  5
7C9
330
2D
100
AcDbDictionary
280
     1
281
     1
  3
ACAD_XREC_ROUNDTRIP
360
7CA
  0
DICTIONARY
  5
7D1
330
31
100
AcDbDictionary
280
     1
281
     1
  3
ACAD_XREC_ROUNDTRIP
360
7D2
  0
DICTIONARY
  5
7ED
330
3F
100
AcDbDictionary
280
     1
281
     1
  3
ACAD_XREC_ROUNDTRIP
360
7EE
  0
DICTIONARY
  5
7DD
330
37
100
AcDbDictionary
280
     1
281
     1
  3
ACAD_XREC_ROUNDTRIP
360
7DE
  0
DICTIONARY
  5
7EF
330
40
100
AcDbDictionary
280
     1
281
     1
  3
ACAD_XREC_ROUNDTRIP
360
7F0
  0
DICTIONARY
  5
7D5
330
33
100
AcDbDictionary
280
     1
281
     1
  3
ACAD_XREC_ROUNDTRIP
360
7D6
  0
DICTIONARY
  5
7EB
330
3E
100
AcDbDictionary
280
     1
281
     1
  3
ACAD_XREC_ROUNDTRIP
360
7EC
  0
DICTIONARY
  5
7E9
330
3D
100
AcDbDictionary
280
     1
281
     1
  3
ACAD_XREC_ROUNDTRIP
360
7EA
  0
DICTIONARY
  5
7E3
330
3A
100
AcDbDictionary
280
     1
281
     1
  3
ACAD_XREC_ROUNDTRIP
360
7E4
  0
DICTIONARY
  5
7E5
330
3B
100
AcDbDictionary
280
     1
281
     1
  3
ACAD_XREC_ROUNDTRIP
360
7E6
  0
DICTIONARY
  5
7DB
330
36
100
AcDbDictionary
280
     1
281
     1
  3
ACAD_XREC_ROUNDTRIP
360
7DC
  0
DICTIONARY
  5
7CF
330
30
100
AcDbDictionary
280
     1
281
     1
  3
ACAD_XREC_ROUNDTRIP
360
7D0
  0
DICTIONARY
  5
7E7
330
3C
100
AcDbDictionary
280
     1
281
     1
  3
ACAD_XREC_ROUNDTRIP
360
7E8
  0
XRECORD
  5
7F6
102
{ACAD_REACTORS
330
7F5
102
}
330
7F5
100
AcDbXrecord
280
     1
102
SHADEPLOT
 70
     0
102
SHADEPLOTRESLEVEL
 70
     2
102
SHADEPLOTCUSTOMDPI
 70
   300
  0
XRECORD
  5
7FA
102
{ACAD_REACTORS
330
7F9
102
}
330
7F9
100
AcDbXrecord
280
     1
102
SHADEPLOT
 70
     0
102
SHADEPLOTRESLEVEL
 70
     2
102
SHADEPLOTCUSTOMDPI
 70
   300
  0
XRECORD
  5
7F8
102
{ACAD_REACTORS
330
7F7
102
}
330
7F7
100
AcDbXrecord
280
     1
102
SHADEPLOT
 70
     0
102
SHADEPLOTRESLEVEL
 70
     2
102
SHADEPLOTCUSTOMDPI
 70
   300
  0
XRECORD
  5
7C1
102
{ACAD_REACTORS
330
1A
102
}
330
1A
100
AcDbXrecord
280
     1
102
MATERIAL
148
0.0
149
0.0
149
0.0
 93
        0
 94
      127
282
     0
 72
     0
 77
     0
171
     0
175
     0
179
     0
273
     0
  0
XRECORD
  5
1C
102
{ACAD_REACTORS
330
1A
102
}
330
1A
100
AcDbXrecord
280
     1
270
     1
271
     1
  0
XRECORD
  5
1B
102
{ACAD_REACTORS
330
1A
102
}
330
1A
100
AcDbXrecord
280
     1
270
     1
271
     1
  0
XRECORD
  5
1F
102
{ACAD_REACTORS
330
1A
102
}
330
1A
100
AcDbXrecord
280
     1
270
     1
271
     1
  0
XRECORD
  5
1E
102
{ACAD_REACTORS
330
1A
102
}
330
1A
100
AcDbXrecord
280
     1
270
     1
271
     1
  0
XRECORD
  5
20
102
{ACAD_REACTORS
330
1A
102
}
330
1A
100
AcDbXrecord
280
     1
270
     1
271
     1
  0
XRECORD
  5
1D
102
{ACAD_REACTORS
330
1A
102
}
330
1A
100
AcDbXrecord
280
     1
270
     1
271
     1
  0
XRECORD
  5
7C0
102
{ACAD_REACTORS
330
12
102
}
330
12
100
AcDbXrecord
280
     1
102
MATERIAL
148
0.0
149
0.0
149
0.0
 93
        0
 94
      127
282
     0
 72
     0
 77
     0
171
     0
175
     0
179
     0
273
     0
  0
XRECORD
  5
14
102
{ACAD_REACTORS
330
12
102
}
330
12
100
AcDbXrecord
280
     1
270
     1
271
     1
  0
XRECORD
  5
13
102
{ACAD_REACTORS
330
12
102
}
330
12
100
AcDbXrecord
280
     1
270
     1
271
     1
  0
XRECORD
  5
F5
102
{ACAD_REACTORS
330
12
102
}
330
12
100
AcDbXrecord
280
     1
 70
     1
 90
1959938040
 71
     1
  1
DBDF46C8-8654-4C63-8590-75B24B227406
311
504B03040A000008000015465C403DEE336E79000000790000001B0000006175746F6465736B2D64657369676E2D7061636B6167652E786D6C3C3F786D6C2076657273696F6E3D22312E302220656E636F64696E673D227574662D3822203F3E3C666F726D6174733E3C666F726D61743E687474703A2F2F736368656D612E
311
6175746F6465736B2E636F6D2F64657369676E2D7061636B6167652F323030393C2F666F726D61743E3C2F666F726D6174733E504B030414000608080015465C40D486FD9CA0000000F4000000130000005B436F6E74656E745F54797065735D2E786D6C7D8EC10E82300C865F65E91D8A1E8C310C0EEA1BF002731658846E
311
D98AC1B77784ABF1D8FE5FBFBF75BBCE937A534CCEB38643598122B6FEE978D0B0485F9C41B54DDD7D022595594E1A469170414C76A4D9A4D207E29CF43ECE46F218070CC6BECC4078ACAA135ACF422C856C0E68EA1BF5669944DDD7BCDE7B1F8E415D77AECB980613C2E4AC91FC167A2B244592486606FC29C8FD7F045B9A
311
EF7053A7E60B504B030414000608080015465C4078C110EFE90000007C01000008000000636F72652E786D6C8D90DD8AC32010855F45E6DE444D52D2622CF9619F605F40D4B6D24643D4651F7F4D9BC2EEDD8230C3F17C33C3E1E7EFF981BECC1AAC771DD08200324E796DDDB583142FB80574167CF53EFEB2017272361D6C
311
32087E5D7D5A764979178D8B59755E9B5D94219808483D72D341503733CB42A6981DE15E2C52DDE5D514F4DD653825ABD16B89D5799EBD58B38298D854F50D9DF0301E19AEC971C47DDD4F78EA9B811C06DA7CB091971B2C78B4F37BBF5A8D8C46836084324C1866ED27694F757E1526871321BCDCEC7FA0B4E87F42C9BA58
311
B1FDDC171640D07CC8F343F072CB22976750B96EB9891F504B030414000608080015465C4055019EA25F0000007C00000007000000636E782E786D6C4DCB3B0E80201045D1AD90E915ED2CF8AC45050C11660C8261F98AB1B07AC9C97D42D718D865D3E909258CFD00CCE24AC6E326A164D74DC0B4128928FF326038472BA1
311
3128B1252AC747C6BAB984FC68F0B87FE8960A5C09FE86CFB69FBA01504B030414000608080015465C406C31879564010000020300000C0000006662782F636F72652E786D6C8D52ED8E8230107C95A6FF4B4B45A3A6D4A0E49EE05EA042E588D092D2121FFF960FE37931C640A099D9D99D1D10875BDBA041BBBEB626C571
311
C430D2A6B0656DAA14077F215B8C0E52386BFD9F328C8C6A758A47184B51391BBA052AACF1DA78408D2DF502AABED71EA3A281438AFBE247B72A52C143457F8D3A555C55A5A338021AEAA4E8BD0303681E323EB1BC9C6F82CEB81421D4E5C2D6254CAB2FB57658E63C5F65EB3827C7D38E9384ED4E244BB29CE4D9FAC836C7
311
78FDC54F828E62297CDDDEDD154E2BAF4B2C398B39619CF0ED37DBEE13B857846DF68C093A963F8942577E280AB5F12BBED89D653D96311899887FDB42441EF56A003F540A3A8608AF29E1E7A0211008D9AB7373DFE30AD0A00B6F5D024C69C3831A5413344C6568BA049D59E83C3580CD5EF6E16FFABCEF011F50990AAC29
311
0FC773F0E374314F5DA2E8B42383BF21635DAB9A87B9D9E2E3F918F4525ED8C6BA4FD47459952E61D2F1EF95BF504B030414000608080015465C40D6AA15E27C0000009D0000000B0000006662782F636E782E786D6C4DCCD10A83201886E15B91FFDCA569CD400DA91B896521331D4EC72E7F151DECE883878F57F6DFCDA3
311
8F4D6F1783027A23806C78C4D9855541C90B16807A2D538CF9EF06284C9B55703068B9A6585E17CD76998ACFBB7A179E1772C25863EE04370325981BC1B1184D87693BD61DA90537AC854ACBEA2CED7B84F50F504B030414000608080015465C40A789A8FA2801000014020000310000006662782F34303333354137302D35
311
4331302D344138342D384441392D3136443239303238344133362F636F72652E786D6C8D515B6EC32010BC8AC557FA810D983824C2445673845EC00192A0C460F1A872FC42ED48ED5F24C4A2D999D911CB8FCFE9517D6B1F8CB33DC0350295B6D22963AF3D48F10219A88E827BE7E21F1AA8EC38E91E1418087EF52ECD2B24
311
9D8DDAC68C5AA7F40A8E21E8082AF9C88F1E0479D3D3588F296646B8D7F328EFE355D7B8CEEDCC133C449F0354CB9072034151DB6E871D82DB4F8C201D1885EC34EC21EE4E648F08A343DBF166110A9E9251ABDCA81CC75C8CF6EF9A14B1E0D14CAFF8D2EB316A05044198404420615F881D683E2D44DD0121DE14FA3F519A
311
D59BA2646C6CC91A77910520306F9686E0CAA5F3E315463F67E76355E66D82961F40A01A11C2DA1DDDF366A1E60FC89E1D5D3D43743E7FF0E67ECE6CBC5D8C3B2A78537694CBEF02732DFB143F504B030414000608080015465C40633E97F44C01000033030000300000006662782F34303333354137302D354331302D3441
311
38342D384441392D3136443239303238344133362F636E782E786D6CD593CD6EC23010845FC5F23DBF440821C7481CFA043DF4EAD80BB83876E49FAABC7DD76028170E3D568AAC68763CB3FA94B0DDF76CC817F8A09D1D6957B79480954E697B1C698A876A43C98E33EF5C7CB25162C50C23CD32E5ECE85D5A8AA4E0209289
311
A81A6DCF45F4105CF21202CAF926314E0A830160AB8422CC1328058A3C8CF876008FABA0385D483C0179DB7F10377D828C81353985B326777096CFD2F464A2441A11C248833CC12C6A91A25310CEB51251D45D7DEF7AB1D36F12C917EE95C96B92CB479A4FCACB463572640D0E390BD123BD628A97052817CB62B414112137
311
57E3CDC359D236AE87E2D508DEA3BB5BAF8601C3AE33CEA29EA138A407114151DEB75D5FB57DD56FDEDBCD76C06755B5EB6DDBB226DB399B9C33E512C680770B91CE46B091F28E3579FC0A5FF111A53DB276FEF2079008A0B4DEE83C32FE339FE6FA7D232E8F7F01FF01504B030414000608080015465C4016C17A759C0500
311
007B100000340000006662782F34303333354137302D354331302D344138342D384441392D3136443239303238344133362F6F626A656374732E786D6CAD575B739B3814FE2B0CFB0CF842D26487D089EDA6E3E9A6EDD4D3CE3E64C62340106DC46524913AFDF5FB090406D74EBD3B7D0124A4A373BEF39D8B82B7BB9C5BCF
311
5448561637F6D49DD8162DE23261457663D72A75AE6CEB6D1888B2548365B655909CDED87ADA0E834C947565A6129A929AAB83D9BBC5DF968C69416D2BE644CA1B5BC68F34272EA9559950F9E4264411374B77EED46D178EC56682548F07422B2268A1A029E60B48B15AA5A6E3E1C4F6C2C0D3FFC3403FCDAAF9E9555E63CF
311
F87C5648458AF8A7C30EC4CCA7FEEADDECE2DAB9F0FDB9E35FCEA6CEE26EB172A66FE693E5E572797DFBEE1A074B2520C96822686A87EF818D6071E0B5BFC2A066859ACFCC12E3204FD067A63D6587336B1A78ED9ADE3A63E431F5E3B22868DC6005341AFB8CE88456B448E0734625341B2034190FA71AC7C1EFB91E9B2387
311
D3E72130DC3110D4E9DEBD879A96D13F30419EC32021A966608BA531B4E5EA648F705496DCFC63D2CA89A282116E711609225EEC104BF592301889D14C163A1AB40576082FB4BFC7744118FD9AE7C7B44C6BCE358DEDB089822D62852AD968C67E50B1D77E880C7482AF341BAE8C41EAA5A27678DD52E4EA804D2D9056CA49
311
0697C34CBD733E3B3074A9E374BDB2C30F77D16EA363F7F8E195282B2A94A60FA8D539AE7B6B948C4ED3B33CA737D807AAEC41F902E43F22D4F7AAC06F82EDFC9D6F4E518214322D450EDF5813CB99E031B1A6CD537F0FBE02AFDF3CF6DE293CE16C0DD56FC0736CC3D0970338C3E019842FC5DC98B6890947DAB8670500D2
311
24B1788929E4E134DAD9E11A590E5919BB080FA73019EA3EE333F08C18248AE6A4C1BB00960769F18C040DD81A46428D96FC46C1BD9F7E4A67CDC166D929782F7E0B5D6F579B0F9B5AA424A6F726A6573465055328717BDE0C151A613EB2E889BE7C2F4502437FC67B33C43B374749A0AD31D7C0675D4ED783FDC9A30362EC
311
CB4A9D6E825F9C002374611DC8BF6732A69C9382967577EEABF50365A3855807BB66725F60F68505A469FF1CC4208A742C58A541ECAB559F34DD13D67D5D7F0423ED70F1F217791966AF689F7BE39297621BBD6CDBB47414EA6F636E1B0C3C2D05746F82A48B7F03FA3661695A4B24C123B87E5B2F87BED3690129A293DA46
311
8B0FFB115C4418D2767251AD0541252D8B2D43DD44DC1D3D60281F901A0634024F692C294FB78CF33ADFA68CA31A6D73529D80E3FFEB1FD579B525795917EA84EC91EAA80E63DD47EC95DF898A1FED70D3BC9D05726F42931364D0B5E4085623D7AE16AB3BFF7279E55C5D5EF88EBFBC9C3B5717D713E7CDC562E62F66B337
311
FEE4B2F353AB491874A56618D1F0124A5B500B66DCF7758DF83149C00EEF89920FEFDBF0ECDE5FD72E7AE1C0C31ED4CB7EE36DF28CBE8F26BF16B05F7954D03AAF38CD69A1888EA17BFDC1BF10F4192365DAF9754E327A86944FEF3707C660E68C7D9F75BCD3EF077BCDEC5207E45121EAB1CEA382307EB0316B9174AB2233
311
F8753EE9DF6DA1E9867A641C83CE54969C25C8838995D132A70AD9F08C2224722A41BD614F9F98BBC719BB9FDB0E519188D34E93478226994B8405A855C76A3C6FFD81A64EF7553736CAADFB8487C914B605CEDCD868D2158BA974231468DD0A35C2C1A561278FC69F141947AFDD6EEAC7FD2E8DCDA824F74BCEE99F8C5D6D
311
0A3706208D54E81BD010C13B8D3261D0E866FEC7FFC9F04E1D8B287C46B5EA6DD94FF4C634C720445BA3CC6D014DCC93397A87407DDDACA9DBAC192172D62DEB5512B4521D4544D6DC14B47E46A5DBD5670F1D8AB5FE6455BCCEE0CBF325398282CCB50E70B008AC30322BA240D5E59F0F9F45899B6C6EDD3150E06159E679
311
5998C1ADB9095B9B47DC6B9307A405AA2F24F2613699CE1E9A8B80B99B6C2322A94B12F98409F854B01EE291E3C1C8F6B6880AD4FEE8D779DA0907DC5CAF2C53D27C0835441966550D0B5A8E825A881E7D99D4B1325C50BD7A17F09AA55041A08B0FFF05504B030414000608000015465C4000000000000000000000000035
311
0000006662782F34303333354137302D354331302D344138342D384441392D3136443239303238344133362F76657274696365732E62696E504B030414000608080015465C40F270F1330600000004000000360000006662782F34303333354137302D354331302D344138342D384441392D3136443239303238344133362F
311
747269616E676C65732E62696E636660600000504B030414000608000015465C40000000000000000000000000370000006662782F34303333354137302D354331302D344138342D384441392D3136443239303238344133362F617474726962757465732E62696E504B030414000608080015465C40D5987DFC8F00000041
311
010000360000006662782F34303333354137302D354331302D344138342D384441392D3136443239303238344133362F6469726563746F72792E786D6C858F410EC2201045AF4266AF15DDB800BA74E7C21B903225242D6328188F2FA5C4183471359997F9FF81E89FF3C41E1816475E02DF1F80A11FC8386F25A438EECEC0
311
7A250251FC3803E6F58C12560C4AD840E95E91C151A72936F496F35732D860FE635F62C8F2DA16B505C545B74125BAA2FA9E05D7CC053D063734D5C7665FD55B6B8D15D5E9BFEAFD8490FFA45E504B030414000608080015465C40A7AFDA57FC000000A00100003B0000006662782F34303333354137302D354331302D3441
311
38342D384441392D3136443239303238344133362F7265736F75726365732F636F72652E786D6C8D50596AC33010BD8A997FD9B26C0727C80A5EE8097A01214F529158325A4A8F5F3976A1FD2B08CDF016E6F1F8F56B79669FE8BCB6A68332A790A15176D6E6DE410C37D2427615DC591B7EC9203372C10E361804BF3B1BD7
311
0352D6043421A1C6CE7880D27B0C90A9675A3AF0EA031799CB1892C23FF255AA87BC635EE6894E3AC17D702940B61FD97E100EBD8D4EA1E7C5CE0A1EA39E0F8D9ED34D7DD3E8404C6CAAFAA61CC9309E19A9E979247DDD4F64EA9B819E86B27963232F36B3E0412F3F199543197006C168C9086584B5EFB4BDD4E955849E2E
311
94F26293FF31C575FEA7296A132A76C4DD6D1E449982BC08C18BADAF345E65A6B9752BBE01504B010214000A000008000015465C403DEE336E79000000790000001B00000000000000000000000000000000006175746F6465736B2D64657369676E2D7061636B6167652E786D6C504B0102140014000608080015465C40D4
311
86FD9CA0000000F40000001300000000000000000000000000B20000005B436F6E74656E745F54797065735D2E786D6C504B0102140014000608080015465C4078C110EFE90000007C010000080000000000000000000000000083010000636F72652E786D6C504B0102140014000608080015465C4055019EA25F0000007C
311
000000070000000000000000000000000092020000636E782E786D6C504B0102140014000608080015465C406C31879564010000020300000C00000000000000000000000000160300006662782F636F72652E786D6C504B0102140014000608080015465C40D6AA15E27C0000009D0000000B000000000000000000000000
311
00A40400006662782F636E782E786D6C504B0102140014000608080015465C40A789A8FA28010000140200003100000000000000000000000000490500006662782F34303333354137302D354331302D344138342D384441392D3136443239303238344133362F636F72652E786D6C504B0102140014000608080015465C40
311
633E97F44C010000330300003000000000000000000000000000C00600006662782F34303333354137302D354331302D344138342D384441392D3136443239303238344133362F636E782E786D6C504B0102140014000608080015465C4016C17A759C0500007B10000034000000000000000000000000005A080000666278
311
2F34303333354137302D354331302D344138342D384441392D3136443239303238344133362F6F626A656374732E786D6C504B0102140014000608000015465C400000000000000000000000003500000000000000000000000000480E00006662782F34303333354137302D354331302D344138342D384441392D31364432
311
39303238344133362F76657274696365732E62696E504B0102140014000608080015465C40F270F133060000000400000036000000000000000000000000009B0E00006662782F34303333354137302D354331302D344138342D384441392D3136443239303238344133362F747269616E676C65732E62696E504B01021400
311
14000608000015465C400000000000000000000000003700000000000000000000000000F50E00006662782F34303333354137302D354331302D344138342D384441392D3136443239303238344133362F617474726962757465732E62696E504B0102140014000608080015465C40D5987DFC8F0000004101000036000000
311
000000000000000000004A0F00006662782F34303333354137302D354331302D344138342D384441392D3136443239303238344133362F6469726563746F72792E786D6C504B0102140014000608080015465C40A7AFDA57FC000000A00100003B000000000000000000000000002D1000006662782F34303333354137302D
311
354331302D344138342D384441392D3136443239303238344133362F7265736F75726365732F636F72652E786D6C504B0506000000000E000E0080040000821100000000
310
504B03040A000008000015465C403DEE336E79000000790000001B0000006175746F6465736B2D64657369676E2D7061636B6167652E786D6C3C3F786D6C2076657273696F6E3D22312E302220656E636F64696E673D227574662D3822203F3E3C666F726D6174733E3C666F726D61743E687474703A2F2F736368656D612E
310
6175746F6465736B2E636F6D2F64657369676E2D7061636B6167652F323030393C2F666F726D61743E3C2F666F726D6174733E504B030414000608080015465C40D486FD9CA0000000F4000000130000005B436F6E74656E745F54797065735D2E786D6C7D8EC10E82300C865F65E91D8A1E8C310C0EEA1BF002731658846E
310
D98AC1B77784ABF1D8FE5FBFBF75BBCE937A534CCEB38643598122B6FEE978D0B0485F9C41B54DDD7D022595594E1A469170414C76A4D9A4D207E29CF43ECE46F218070CC6BECC4078ACAA135ACF422C856C0E68EA1BF5669944DDD7BCDE7B1F8E415D77AECB980613C2E4AC91FC167A2B244592486606FC29C8FD7F045B9A
310
EF7053A7E60B504B030414000608080015465C4085A5D383EA0000007C01000008000000636F72652E786D6C8D90516EC3201044AF82F61F1B70689C0813B5B573825E0001715162B00C543D7E71E248ED5F25A45D0DF37657234EDFD30D7DD925BAE03BA0150164BD0EC6F9B1839C2EB8057492620921FDB201F26AB21DAC
310
3248312E21CF9BA4834FD6A7A2FA60EC26AA186D02A46FA5E920EA4F3BA94AE5541CF15ACD4A5FD5682BFAEC0A9CB333E8B1C49932CF5D9C5D403674E084F23DEE0FB4C5BBF3C0F12BEDF7F8D0F3F31B27BC19FA7751AFB014C94DCFFD7AB12A59039211CA306198B51FA43DEECA6B3079391222EAD5FE07CAB3F927949D4F
310
0DDBCE7D6011242D87DC3FA4A8D72C4AB90755EA9A9BFC01504B030414000608080015465C4055019EA25F0000007C00000007000000636E782E786D6C4DCB3B0E80201045D1AD90E915ED2CF8AC45050C11660C8261F98AB1B07AC9C97D42D718D865D3E909258CFD00CCE24AC6E326A164D74DC0B4128928FF326038472B
310
A13128B1252AC747C6BAB984FC68F0B87FE8960A5C09FE86CFB69FBA01504B030414000608080015465C4013C1FD7166010000020300000C0000006662782F636F72652E786D6C8D525B6E833010BC8AE57F6303A1A19171D496E404BD80030E45011B191BE5F85D1E114D15451108AC999DDDD901BEBFB60D1A94ED6BA333
310
1C060C23A50B53D6BACAB077679262B417DC1AE3FE9461A465AB323CC258F0CA1ADF2D5061B453DA01AA4DA91650F6BD7218150D1C32DC173FAA9581F40E2AFA4BD0C9E2222B158401D0502778EF2C1840F390F189C5F974E574C605F7BE2E17B62E615A7DAE95C5220E0F090B932DC9DFC3946C8E87847C84F996BCE7C9F1
310
3361497CC8BF381DC582BBBABDB92BAC924E9558442C8C088B48947EB374B7813B26EC6DC718A763F99DC877E58B225F6B17478BDD59D66311829189F8B72D44E4502F07F04305A76388F09A12BE0F1A0281909D3C35B73D2E000DAA70C66E80298D5FA941365EC15486A68BD39985CE5303D8EC619FE8499FE73DE0034A5D
310
8135E9E078F26E9CCEE7A94B149DB2647057A48D6D65B39A9B2DAECF75D04379611A635F51D36555BA8449C7BF57FC02504B030414000608080015465C400D8A29F07C0000009D0000000B0000006662782F636E782E786D6C4DCCD10A83201886E15B91FFDCA5A0E5400D29BC8F581632D3703A76F9ABD1C18E3E78F87865
310
FFD9027ABBFCF2292AA03702C8C5479A7D5C15D4B26001A8D732A754FE6E80E2B439052783966B4E75BF6876CB54433934F8F8BC908F03B51D19F160C91D333B1A6C786BB035BCA3A6654C08068D96CDAF74EC19D65F504B030414000608080015465C4045C385162A01000014020000310000006662782F35444331463730
310
442D434630392D344644412D413536412D4641353731413634343838342F636F72652E786D6C8D515B6EC32010BC8AC557FA818D9F71224C6425F2097A0182898B1283C5A3CAF1BBD48ED4FE45422C9A9D991DB1F4F49C1FC9B7B44E19DDA13C2528915A9851E9A943C1DF708B9213A3D618FF878612CD67D9A1082346276B
310
C2B241C2682FB507549B516E20774E7A9488073C3AE4C4979C79CA830786BBA70B17773EC9344FA10D3C469DB710205987C41BB1FA72CE873DB9E0F3400EB81A2E3DEEEBA6C7435FEFF3BEA9AAB6AD68B60A190D418D9B5C8D1047DD94B4EF9A4431A35ECDAFF8C24AEEE5885841F202930217ED27698F159C1293E64808CD
310
22FD9F282CE39BA2A0B42F8B2DEE2A7388E5345B1B8C8E265C1FAF30F2B918EB93386FE7A4F8408CA4A4280FFB9A8064A5C2078067536D9ECE1B0B1FBCBB5F815D022B1A3715A359DC1194DF05428DFB643F504B030414000608080015465C40059958E35301000033030000300000006662782F35444331463730442D4346
310
30392D344644412D413536412D4641353731413634343838342F636E782E786D6CBD93CD6AC33010845F45E8EEDF186382AC400F7D821E7A95A54DA246968C2497E6EDBB4A9434971C0AA56084991DCD2C1F36DB7DCD867C820FDAD99136654D0958E994B68791AE715F0C94EC38F3CEC5071B2556CC30D22453CE0EDEAD4B
310
9614ECC56A22AA46DB53163D04B77A0901E57493182785C100B0C58A22CC1328058ADC8DF8B6078FABA0389D493C02797D79276EFA001903AB520A6755EAE02C9DB9E9C14489342284910679845994628D4E4138954A445136E5ADEBC94E3F49245DB855AE5E93543ED274529E372A9123AB70C859881EE965533C2F40B958
310
16A3A58808B9BA18AF1ECE566D63DF65AF46F01EDD9BB61F060CBBCC388B7A86EC901E440445795B376D51B7453BBCD5C3B6C36753D4FDB6AE5995EC9C4DCE997C0963C0BB85486723D84879C3AA347E862FFB88D21E593B7FFE054804905BAF74EE197FC9A7E9375DF78F7CAACBF78DB83CFE05FC1B504B03041400060808
310
0015465C409EFC06075B070000941B0000340000006662782F35444331463730442D434630392D344644412D413536412D4641353731413634343838342F6F626A656374732E786D6CED595B739B3814FE2B0CFB6C6C7C49931D4227B19B8EA79B6E67BDEDEC4366181964A28D108C24D2787FFD1E5DC0404C82B7D9B73ED8
310
80908ECEF9CE5587E0FD53469D47CC05C9D9A5EB7B13D7C12CCE13C2D24BB794BBD1B9EBBC0F039EE7B231CD7518CAF0A5AB86DD3048795E167628C13B5452D919BDB9FECB113166D875628A84B874457C8F33E4A152E609160F5E8224F2D2DD93E77B66629B6CCA5171DF215A208E99044E619C0115C730E5B71F27EE380C
310
C6EA7D18A87F3B6B3668D6BC7FD6584BDDE6923021118B9FB1D421331BC4D2CC9FAF3E4C1717A3C57C3E1BCDCFA6FEE8FAE67A35F2DFCD26CBB3E5F2E2EAC305B0B7CD736A654A70815902FADBBBA11F8CD59B5A748BC031AEE39C311C6B20012A2D569720C102B66AC037693FFA4AA2C66B2D61E379AEDE5B161AC3B33695
310
BE59C38068D10541EC7695C4D5B5295FBEFD1B0417438C920B2C815B213968D7C2C3C12BDC70128CCD68186C0FBA20C2C990C49C20EA50B2E588835260AA9A1206668125A39C8303294749A035675EB76D0B3CF375D739C6E5AEA45479861B6AC78AC0FDB0149A33F20FE607EE9BC8004F206D49983CB75CCA7D81DDF02218
310
EBC1305097D9D4BE34403A3B8A52A111316F3B822E95EBAF576EF8E966FBB451E1E0F8E605CF0BCCA5323AA547CD1718B2BD2A94ECB6FE20CDA905208C01D5AE3C80F20720FF19A2C78115D01B274FF3A7B99D2B39626297F30C74E34C9CD104FE268EAFFFD57DE32E18D78BDBDAEBC313DC544175FEE378B665D05859FE1B
310
7086C123187CCE67F6D5264614ECF996300048198943731882D0BEDB3EB9E11A0227047A588568E883C8C0EE23DC06634BE6A095CABDACD73140D4EE311BA224804D5B24B0D1A3A78F903D38890F6A6A8AD807EFE24DCCF56AB5F9B429F90EC5F8D6FAF40AEF082312B2E671865A98B7247AC0FBEF394F40D0E7786F9A7867
310
762B01682BCC15F06905827A38ECDCDA20867569AEC24DF0CA0E2084CAD50DFAB744C49852C4705E56FBD6D14D196AEDF1B66670C3A9817836ED9830C78F445515E03487192D4621EFC79C140A4437FC6824AB83A6D723DDD7F567B0C87A7ECFAC3583D0CB10FD5307AD2338B42CBB42DA02510BBC3D84F338A7398FB6FBC8
310
443A176A0960A3ED2DDF5A4421D61B25292AE041DAEFAA90921A69A384EC76A580B87A84C56FEB65D31C26DECC5F38CDFF8E33CE21DA82EF226EFDAEB347443294E2688792BEED9ABBD5B48526D9439AE31D05B9C82391FB08C96892E0F414684E227EF1A6D4539A0B41181690AF8E82DF4463E2412031DAAC58565AED004D
310
44946189E8290828323DE0EAB4A36BDC184A87D779ACADF7258D3589FE4F16C111D492398B0894A290435E65DCF7161043DAE81A943BF882B555B4B518B4841222DE47DF3149EFE529A81BF23DB8C77024296594172806B31E40F699AF28A57678DFA2F841E58F282EE95B1988C07417114ACB2C821F6170F218E2DA75607A
310
1185067113FB24CEA02843B2E44336395B4C9EED636A866E086C6CB42314C27694A1A207F55640D4F58853836FA9F728755B664584B2BC64830CC59B75BDC992EFAA55911DC8AF2A15A16CAC085B82614098ACB36A15B3C1D475600537D2816A1F099415D49CC25E493C7EED4D9A72EF06DCFAE9DB6E9041E1D7A3BD66449D
310
5730581E5B8581F88E647CEF861B7D1D5D43FD9DE0E490EAAB5AB3590102622A92979C58157D5D4379636B3437BC4552DC7D3459B7BA7E5D7BD0FD08C6B0066A977AE15A019D612691AA4C6ED50DFD0341086ED130E36B95534FA1729524BA6A44F486F4A9B35546B436CD8857DC639667F0637784C5B44CF01D4AC443742B
310
69B4218A752BA597910AE31705FCFDE3A6030F8C0C10E98B2AF0F0F7CE5A3BBA54E5D25122F2BECCB60C1108822DD152A31BAF60A9D548A5E5FAAACE14507781815915CF7F9E2C9AED889F278BD41AC60F9D2CAEF7BFA17DB32FD248E7B1B2EB938E01757E5254DEE218A0DB0E35D53A8B98646EE5B7CE144150ACA2FCE06A
310
AC0A1A86601FC7FF396BF76541B35D87FFD3B2B6FFACE23829ABB426AB2ED591CA75DDCC61ABEBD5CDFC6C793E3A3F5BCC47F3E5D96C74BEB8988CDE2DAEA7F3EBE9F4DD7C7256A3A91D350CEA60A673173C9BA0560DAB278B017465454E4902A7F9C44931C47C0967FA01ED739E6101C9B3D9EC4E6C537EC0EA47D3E79468
310
4B71C5C93D8206311590D601A33296ED71E717684D4A38685FBAD034F21EE0CF5AA5EB40E6B974A15520498C85B78536936AE869E2907275EEB7C4001FC4529512CDA2FAB95EA5B06985FF7ACA903460E56AF530A0702BA0FBD5EA5068DE2C4FF1498257EC3848C2EDB69450AD19590E03B5307A9B83FA8D6C94B007BBF513
310
B8EECB62F99E9ED34264D02783178DC0501D49C453DDEF568C5996AE565FC6D06773D6BF3B052D53D0E5704A238EC1984B555081158155589A059260AACB5FEFBEF01C3EF1648EAE8AEE967996E5CC3E5CC1792C814F44CEE61E3EF82477503660D5561777D3893FBDD3ED6CDB618FB648604FD543305095114A848EB18145
310
3E6B4DD9C6E55829A1337DBD726CF8843680B1A067DD5DF379CB01EF511F5294AF680FAFE47CB1A33DD653C11A38F4A2C37F01504B030414000608000015465C40000000000000000000000000350000006662782F35444331463730442D434630392D344644412D413536412D4641353731413634343838342F7665727469
310
6365732E62696E504B030414000608080015465C40F270F1330600000004000000360000006662782F35444331463730442D434630392D344644412D413536412D4641353731413634343838342F747269616E676C65732E62696E636660600000504B030414000608000015465C4000000000000000000000000037000000
310
6662782F35444331463730442D434630392D344644412D413536412D4641353731413634343838342F617474726962757465732E62696E504B030414000608080015465C40D5987DFC8F00000041010000360000006662782F35444331463730442D434630392D344644412D413536412D4641353731413634343838342F64
310
69726563746F72792E786D6C858F410EC2201045AF4266AF15DDB800BA74E7C21B903225242D6328188F2FA5C4183471359997F9FF81E89FF3C41E1816475E02DF1F80A11FC8386F25A438EECEC07A250251FC3803E6F58C12560C4AD840E95E91C151A72936F496F35732D860FE635F62C8F2DA16B505C545B74125BAA2FA
310
9E05D7CC053D063734D5C7665FD55B6B8D15D5E9BFEAFD8490FFA45E504B030414000608080015465C40960EFD1BFC000000A00100003B0000006662782F35444331463730442D434630392D344644412D413536412D4641353731413634343838342F7265736F75726365732F636F72652E786D6C8D505B6E833010BC0ADA
310
7F830D714A22E3A82DE404BD806536C44AB0911F558F5F9350A9FDAB647957F3D08E469CBEE67BF1893E18673B60258502AD76A3B15307295E480BC5490AEF5CFC2583C2AA193B58619062F22E2D1BA49D8D686346AD1B7103550818A1D0F7BC7410F4156755AA14B322DCCA45E99B9AB06465A6B34E8A107D0E503C8FAC3F
310
488FC125AF3188EAC94A919219378D19F34D7331E841366CE094F13DE90FAC25BBF3C0C92BEB5FC8A1E7E7374E7933F4EFA25ACD524433FF64D41E55C411644D594D684DEAF683B6C75D7E0DA1FB23A5A25AE57F4C6919FF694AC6C6A6DEE23E6D0124CB411E8414D5DA571E8F32F35CBB95DF504B010214000A0000080000
310
15465C403DEE336E79000000790000001B00000000000000000000000000000000006175746F6465736B2D64657369676E2D7061636B6167652E786D6C504B0102140014000608080015465C40D486FD9CA0000000F40000001300000000000000000000000000B20000005B436F6E74656E745F54797065735D2E786D6C50
310
4B0102140014000608080015465C4085A5D383EA0000007C010000080000000000000000000000000083010000636F72652E786D6C504B0102140014000608080015465C4055019EA25F0000007C000000070000000000000000000000000093020000636E782E786D6C504B0102140014000608080015465C4013C1FD7166
310
010000020300000C00000000000000000000000000170300006662782F636F72652E786D6C504B0102140014000608080015465C400D8A29F07C0000009D0000000B00000000000000000000000000A70400006662782F636E782E786D6C504B0102140014000608080015465C4045C385162A010000140200003100000000
310
0000000000000000004C0500006662782F35444331463730442D434630392D344644412D413536412D4641353731413634343838342F636F72652E786D6C504B0102140014000608080015465C40059958E353010000330300003000000000000000000000000000C50600006662782F35444331463730442D434630392D34
310
4644412D413536412D4641353731413634343838342F636E782E786D6C504B0102140014000608080015465C409EFC06075B070000941B00003400000000000000000000000000660800006662782F35444331463730442D434630392D344644412D413536412D4641353731413634343838342F6F626A656374732E786D6C
310
504B0102140014000608000015465C400000000000000000000000003500000000000000000000000000131000006662782F35444331463730442D434630392D344644412D413536412D4641353731413634343838342F76657274696365732E62696E504B0102140014000608080015465C40F270F1330600000004000000
310
3600000000000000000000000000661000006662782F35444331463730442D434630392D344644412D413536412D4641353731413634343838342F747269616E676C65732E62696E504B0102140014000608000015465C400000000000000000000000003700000000000000000000000000C01000006662782F3544433146
310
3730442D434630392D344644412D413536412D4641353731413634343838342F617474726962757465732E62696E504B0102140014000608080015465C40D5987DFC8F000000410100003600000000000000000000000000151100006662782F35444331463730442D434630392D344644412D413536412D46413537314136
310
34343838342F6469726563746F72792E786D6C504B0102140014000608080015465C40960EFD1BFC000000A00100003B00000000000000000000000000F81100006662782F35444331463730442D434630392D344644412D413536412D4641353731413634343838342F7265736F75726365732F636F72652E786D6C504B05
310
06000000000E000E00800400004D1300000000
  0
XRECORD
  5
17
102
{ACAD_REACTORS
330
12
102
}
330
12
100
AcDbXrecord
280
     1
270
     1
271
     1
  0
XRECORD
  5
16
102
{ACAD_REACTORS
330
12
102
}
330
12
100
AcDbXrecord
280
     1
270
     1
271
     1
  0
XRECORD
  5
18
102
{ACAD_REACTORS
330
12
102
}
330
12
100
AcDbXrecord
280
     1
270
     1
271
     1
  0
XRECORD
  5
15
102
{ACAD_REACTORS
330
12
102
}
330
12
100
AcDbXrecord
280
     1
270
     1
271
     1
  0
XRECORD
  5
7C2
102
{ACAD_REACTORS
330
22
102
}
330
22
100
AcDbXrecord
280
     1
102
MATERIAL
148
0.0
149
0.0
149
0.0
 93
        0
 94
      127
282
     0
 72
     0
 77
     0
171
     0
175
     0
179
     0
273
     0
  0
XRECORD
  5
24
102
{ACAD_REACTORS
330
22
102
}
330
22
100
AcDbXrecord
280
     1
270
     1
271
     1
  0
XRECORD
  5
23
102
{ACAD_REACTORS
330
22
102
}
330
22
100
AcDbXrecord
280
     1
270
     1
271
     1
  0
XRECORD
  5
BA
102
{ACAD_REACTORS
330
22
102
}
330
22
100
AcDbXrecord
280
     1
 70
     1
 90
1959938040
 71
     1
  1
5E08C297-AD41-4270-B80D-89D4113CEE48
311
504B03040A000008000015465C403DEE336E79000000790000001B0000006175746F6465736B2D64657369676E2D7061636B6167652E786D6C3C3F786D6C2076657273696F6E3D22312E302220656E636F64696E673D227574662D3822203F3E3C666F726D6174733E3C666F726D61743E687474703A2F2F736368656D612E
311
6175746F6465736B2E636F6D2F64657369676E2D7061636B6167652F323030393C2F666F726D61743E3C2F666F726D6174733E504B030414000608080015465C40D486FD9CA0000000F4000000130000005B436F6E74656E745F54797065735D2E786D6C7D8EC10E82300C865F65E91D8A1E8C310C0EEA1BF002731658846E
311
D98AC1B77784ABF1D8FE5FBFBF75BBCE937A534CCEB38643598122B6FEE978D0B0485F9C41B54DDD7D022595594E1A469170414C76A4D9A4D207E29CF43ECE46F218070CC6BECC4078ACAA135ACF422C856C0E68EA1BF5669944DDD7BCDE7B1F8E415D77AECB980613C2E4AC91FC167A2B244592486606FC29C8FD7F045B9A
311
EF7053A7E60B504B030414000608080015465C40EFE3F08EE80000007C01000008000000636F72652E786D6C8D90618EC2201085AF42E63F2D60ABD4508CEE664FB01720809568A129603CFE52ADC9EEBF4D486678BC8F993C71788C3774B77374C1F7402B02C87A1D8CF3430F399D31077490620E21FDB201F26AB43D2C32
311
4831CC214FABA4834FD6A7A2FA60EC2AAA186D02A46FA5E921EA8B1D55A5722A8E78AD26A5AF6AB0157D7705CED919F41AE24CF9CF9D9D9D41B69F3BC67684E36E73A4B8397E7598F3AEC5BCE51FB43B359C6C4FA25E6029921BDFF3F56C55B20624239461C230E3DF84EF9B72CA75BB2744D48BFD0F9427F34F283B9F366C
311
5DF7854590B42CF27C90A25EB228E51954A94B6EF207504B030414000608080015465C4055019EA25F0000007C00000007000000636E782E786D6C4DCB3B0E80201045D1AD90E915ED2CF8AC45050C11660C8261F98AB1B07AC9C97D42D718D865D3E909258CFD00CCE24AC6E326A164D74DC0B4128928FF326038472BA131
311
28B1252AC747C6BAB984FC68F0B87FE8960A5C09FE86CFB69FBA01504B030414000608080015465C4029A9C89164010000020300000C0000006662782F636F72652E786D6C8D52ED8E8320107C15C27F05AD6D698334ED5DEE09EE05A8528F54C120983EFEAD1F8DD74BD33418849DDD9DD9517EB83535EA95EBB435394E62
311
8A9132852DB5A9721CFC2562181D0477D6FA3F691819D9A81C0F612C78E56C68E750618D57C643D4D852CD41D975CA6354D470C87157FCA846C63278C8E8AE712B8BABAC549CC400439EE09D7720004D24C38EC5E57CE3648A0B1E822E675497C0A62F5A392CD69FDB34DD5216ED56C724CA8E5FBB88B1DD3A626BF691EC4E
311
19A39B132743B1E05E3777758553D2AB128B94266944D32865DF94ED3378E0BAD953CAC990FE5014DAF2CDA2A08D5FA5B3DCA9ACC322012123F06F5AB0C8A34EF6A087084E0613E1353AFC68341802267B79AEEF735C21D4ABC25B970152DAB040BDAC8302568AC6C5C98442E7B1014CF6B44FFAA2CFEB1EF001A5A9409AF4
311
703C073FB0F38975B6A2552EEAFD0D19EB1A592FE22689CBBE103D2D2F6C6DDD3BD5641E95CC6692E1EF15BF504B030414000608080015465C40FE9D25D17E0000009D0000000B0000006662782F636E782E786D6C4DCCD10A83201886E15B91FFDC9573E9043562B9FB886521990EA76397BF1A1DECE883878F57B69FD5A3
311
B74D2F17830272AA01D9F088A30BB38292277C05D46A9962CC7F37406158AD829D41CB39C5F23C68B4D3507CDED4BBB01CC87B43C9D9502CBA3BC597A66358F05B8D1965BD68B8119C12A8B4AC7EA56DF7B0FE02504B030414000608080015465C402C8B70E02C01000014020000310000006662782F37444533313245332D
311
394146332D343541362D393743302D3633364439353745393733312F636F72652E786D6C8D515B6EC32010BC8AC557FA611B83E3478489A2263D412F400C495162B07854397E97DA91DABF488885656676D865FBC774CFBE95F3DA9A015505469932A395DA5C0714C325EF50B6E7CC591BFEC05066C4A40694D288B3ABB371
311
5E53A3354199005963A55A93C27B155036DEE130203F7EA94914220640F85B318BF126AEAAA80A78061C673E3830902D45D28E787B3CD18A9C68DE1F3E685E6F0F4DDEB7EF386F6873ECB7EDA96F69C5CA85C8598C5AAE742DC18EBE68E55E154964CE829E9EF647A744501271822B92639293EE1377BB1A165C9B1DC6AC4C
311
F07FA438CB1749519B40C96A77A179C4E137CB0367D2C6F3FD69463D66EB4296EA6DBC1ADF10C70526A4ED2B4A58B940A101A0D9D4ABA60FD6418337B733A0AB2D2B9370537356A61941F81D20C4344FFE03504B030414000608080015465C40622B13854B01000033030000300000006662782F37444533313245332D3941
311
46332D343541362D393743302D3633364439353745393733312F636E782E786D6CD593CB6EC32010457F05B1F7B356144598485DF40BBAE816C338A1C160F1A89ABFEF9090349B2CBAAC642173E7CE9DD191CDF6DF8B215FE0837676A45DDD5202563AA5ED61A429CED596923D67DEB9F860A3C48A05469A65CAD9C1BBB416
311
49C12C9289A81A6D4F45F4105CF21202CAB993182785C100B05542119609940245EE467C9BC1E32A284E67128F40DE5E3F889B3E41C6C09A9CC25993677096CF32E9C144893422849106798445D42245A7209C6A25A2A8BBFA36EBC94EBF492437DC4626AF491E3ED27C525E36AA91236BB0C859881EE915533CAF40B95857
311
A3A58808B9B918AF1ECE92B6713314AF46F01EDDDDE6651830EC52E32CEA058A437A101114E57DDBF555DB57FDF6BDDDEE067CF0BAD9B52D6BB29DB3C939539A3006BC5B897436828D9477ACC9E567F88A8F28ED91B5F3E73F80440065EA95CE3DE33FF3692EDF37E2F2F817F01F504B030414000608080015465C405D408C
311
759A0500007A100000340000006662782F37444533313245332D394146332D343541362D393743302D3633364439353745393733312F6F626A656374732E786D6CAD575D739B3814FD2B0CFB8C6D6CA77576089DC44E3A9E4EDA4C3DEDEC43663C0204D146204612A9B3BF7E8F406070EDD4BBD3174042BABAF7DC733F147C
311
D8E5DC79A15231515CB9FE68E23AB48845C28AECCAAD74EA2D5CE743184821746F99EB1424A757AE9976C32093A22AED54425352717D307B77F397A3625A50D7893951EACA55F113CDC988545A24543D8F12A2C9284B77237FD42C1C8ACD24299F0E849644D2424353CC1790E2344AF9C3E1C41D87C1D8FC0F03F3B4AB66A7
311
578D6B7B86E7B3426952C43F1D762066E6CF57B7D38B4BEF623E9F79F37753DFBBB9BB5979FEFBD964F96EB9BCBCBEBDC4C14A4B48B29A489ABAE1476023591C8C9B5F6150B142CFA6768975D058D217663CE58653C70FC6CD9ACE3A6BE431F563511434AEB1021AB57D5674424B5A24F039A30A9AF5109A0C87BEC1B1F77B
311
66C6F6C8FEF47908F477F404B5BAB7EFBEA622FA1B26A873182415350C6CB0B486365C9DEC118E84E0F61F534E4E34958C7087B34812F9EA86586A9684C1408C61B234D1602C704378A1F93DA40BC2E8D73C3FA6655A716E68EC8675146C112B54AB5A33F60F957BEDFBC84027F8CAB061610DD2AF2575C3CB86228B033635
311
403A2927195C0E33CDCED9F4C0D0A589D3F5CA0D3FDD45BB8D89DDE387975294546A431F50AB755CFB3628599DFCB33C6736B807AAEC41F90AE43F23D4F7AAC06F92EDE6BBB93D454B52A854C81CBE71268E37C163E2F8F5D37CF7BE8271B779E8BD5378C2D906AADF80E7D086BE2F7B7086C10B082FE4CC9AB6890947DAB8
311
670500322471B8C014F2701AEDDC708D2C87AC8C5D84873E4C86BA2FF80CC6560C12457D52EF5D00CB83B4784682066C3523A146437EABE0DE4F3FA5B3FA60BBEC14BC17BF85AED7ABCDA74D255312D37B1BD32B9AB2826994B83D6FFA0A0D301F58F44C5F7F0899C0D09FF1DEF4F1CEED510A681BCC0DF0599BD3CD607FF2
311
E08018FB3261D24DF08B13608429AC3DF9F74CC59473525051B5E7BE593F50361A884DB01B267705665F58409AE6CF410CA248C7929506C4AE5A75497374C2BA6FEBCF6024D6731111BE5F14ED536F2CB890DBE875DB64A5A3487F1F52DB42303652C0F63A46DAF0B7986F1396A695420E3C02EBF7F5B2EF3A931590215AA9
311
4DB0CC613E628B48CBD9562E8AB52428A4A2D832944D84DDD103FAF281A825402DF094C68AF274CB38AFF26DCA388AD13627E50938FEBFFE5195975B928BAAD027640F54477118EA3E20AFFA4174FCE4869BFAEDDD20F52634D9BB79B0D8949223580D5C7B713B592CA797EFBDEBD5DCF7E6D3F713EF663159798B4B8CFDD9
311
F2F676BE68FDD4080F83B6D2F4031A5E42650B2AC9ACFBBEAD113E3607B8E13DD1EAF163139DEDFBDB7A84563818630FCA65B7F13A7941DB47935F0BD8AF3C2A689D979CE6B4D0C484D0BDF9E05F09DA8C8132CDFC3A27193D43CA978F9B03633073C6BE0713EEF4C7C15E3BBB34017954887EAAF2A8208C1F6CCC1A244765
311
9159FC5A9F74EFA6CEB44333B28E4163AA046709D260E26454E45423199E5183644E15A8D76FE9137BF53863F74BD3206A1271DA6AF244D0237385B000B5AA580FE79D3FD0D399B6EACA45B51D3DE3613385EB8033572E7A74CD62AA4611EAB3E9846AE1E052BF9147DF4F8A8CA3D56E3675E36E97C1665091BB25E7B44FD6
311
AE26835B0390464AB40DE887E09D5A9930A875B3FFE3FF6478AB8E43343EA34A77B6EC273A63EA6310A28D51F6B2801EE6D91EBD43A0BE6D963FAAD70C1039EB92F526091AA99E2632AB2F0A463FABD2F5EA618C06C5597F714A5E65F0E5F9923C4941E6CA0438580456589925D1A0EAF2CFC707297091CD9D3B060A3C2E45
311
9E8BC20EAEED45D8D93CE15A9B3C222D50731F518FD3893F7DACEF01F66AB28D88A22392A8674CC0A79275100F1C0F4636974554A0E647B76E6C9C70C0CDF5CAB1256D0EA19628FDAC6A6041C7515007D163EE922656FA0BCA37AF02E37A29549068E2C37F01504B030414000608000015465C400000000000000000000000
311
00350000006662782F37444533313245332D394146332D343541362D393743302D3633364439353745393733312F76657274696365732E62696E504B030414000608080015465C40F270F1330600000004000000360000006662782F37444533313245332D394146332D343541362D393743302D3633364439353745393733
311
312F747269616E676C65732E62696E636660600000504B030414000608000015465C40000000000000000000000000370000006662782F37444533313245332D394146332D343541362D393743302D3633364439353745393733312F617474726962757465732E62696E504B030414000608080015465C40D5987DFC8F0000
311
0041010000360000006662782F37444533313245332D394146332D343541362D393743302D3633364439353745393733312F6469726563746F72792E786D6C858F410EC2201045AF4266AF15DDB800BA74E7C21B903225242D6328188F2FA5C4183471359997F9FF81E89FF3C41E1816475E02DF1F80A11FC8386F25A438EE
311
CEC07A250251FC3803E6F58C12560C4AD840E95E91C151A72936F496F35732D860FE635F62C8F2DA16B505C545B74125BAA2FA9E05D7CC053D063734D5C7665FD55B6B8D15D5E9BFEAFD8490FFA45E504B030414000608080015465C401F8264FEFB000000A00100003B0000006662782F37444533313245332D394146332D
311
343541362D393743302D3633364439353745393733312F7265736F75726365732F636F72652E786D6C8D50ED6E8320147D1573FFA348B5628334ED963DC15E80E0AD23AD60F858F6F8C3EA92EDDF12C285F3917B72C4F96B7E149FE883717680BAA450A0D56E34761A20C51BE1509CA5F0CEC55F3228AC9A718015062926EF
311
D2B243DAD9883666D4BA1177508580110AFDC88F0182FEC059952AC5AC08F77251FAAE262CEB32D3592745883E0728B625EB0DD26370C96B0CA2DA58295232E3AE3163DE696E063DC8F6B563ACA31DE90F979A3497B79E70DEB784B7FCA5EEAF0DA7C7ABA856B314D1CC3F19B547157104C968CD086584F177CA4F4D3EF97B
311
3C512AAA55FEC79496F19FA6646C3CB03DEE660B20EB1CE4494851AD7DE5F12C33CFB55BF90D504B010214000A000008000015465C403DEE336E79000000790000001B00000000000000000000000000000000006175746F6465736B2D64657369676E2D7061636B6167652E786D6C504B0102140014000608080015465C40
311
D486FD9CA0000000F40000001300000000000000000000000000B20000005B436F6E74656E745F54797065735D2E786D6C504B0102140014000608080015465C40EFE3F08EE80000007C010000080000000000000000000000000083010000636F72652E786D6C504B0102140014000608080015465C4055019EA25F000000
311
7C000000070000000000000000000000000091020000636E782E786D6C504B0102140014000608080015465C4029A9C89164010000020300000C00000000000000000000000000150300006662782F636F72652E786D6C504B0102140014000608080015465C40FE9D25D17E0000009D0000000B0000000000000000000000
311
0000A30400006662782F636E782E786D6C504B0102140014000608080015465C402C8B70E02C0100001402000031000000000000000000000000004A0500006662782F37444533313245332D394146332D343541362D393743302D3633364439353745393733312F636F72652E786D6C504B0102140014000608080015465C
311
40622B13854B010000330300003000000000000000000000000000C50600006662782F37444533313245332D394146332D343541362D393743302D3633364439353745393733312F636E782E786D6C504B0102140014000608080015465C405D408C759A0500007A10000034000000000000000000000000005E0800006662
311
782F37444533313245332D394146332D343541362D393743302D3633364439353745393733312F6F626A656374732E786D6C504B0102140014000608000015465C4000000000000000000000000035000000000000000000000000004A0E00006662782F37444533313245332D394146332D343541362D393743302D363336
311
4439353745393733312F76657274696365732E62696E504B0102140014000608080015465C40F270F133060000000400000036000000000000000000000000009D0E00006662782F37444533313245332D394146332D343541362D393743302D3633364439353745393733312F747269616E676C65732E62696E504B010214
311
0014000608000015465C400000000000000000000000003700000000000000000000000000F70E00006662782F37444533313245332D394146332D343541362D393743302D3633364439353745393733312F617474726962757465732E62696E504B0102140014000608080015465C40D5987DFC8F00000041010000360000
311
00000000000000000000004C0F00006662782F37444533313245332D394146332D343541362D393743302D3633364439353745393733312F6469726563746F72792E786D6C504B0102140014000608080015465C401F8264FEFB000000A00100003B000000000000000000000000002F1000006662782F3744453331324533
311
2D394146332D343541362D393743302D3633364439353745393733312F7265736F75726365732F636F72652E786D6C504B0506000000000E000E0080040000831100000000
310
504B03040A000008000015465C403DEE336E79000000790000001B0000006175746F6465736B2D64657369676E2D7061636B6167652E786D6C3C3F786D6C2076657273696F6E3D22312E302220656E636F64696E673D227574662D3822203F3E3C666F726D6174733E3C666F726D61743E687474703A2F2F736368656D612E
310
6175746F6465736B2E636F6D2F64657369676E2D7061636B6167652F323030393C2F666F726D61743E3C2F666F726D6174733E504B030414000608080015465C40D486FD9CA0000000F4000000130000005B436F6E74656E745F54797065735D2E786D6C7D8EC10E82300C865F65E91D8A1E8C310C0EEA1BF002731658846E
310
D98AC1B77784ABF1D8FE5FBFBF75BBCE937A534CCEB38643598122B6FEE978D0B0485F9C41B54DDD7D022595594E1A469170414C76A4D9A4D207E29CF43ECE46F218070CC6BECC4078ACAA135ACF422C856C0E68EA1BF5669944DDD7BCDE7B1F8E415D77AECB980613C2E4AC91FC167A2B244592486606FC29C8FD7F045B9A
310
EF7053A7E60B504B030414000608080015465C40B76C682CE70000007C01000008000000636F72652E786D6C8D90416EC3201045AF82668F0D185924C26451D727E8051010172506CB40D5E317278ED4EE2A21CDF0F98F197D79F95EEEE8CB6DC9C730006D0820174CB43ECC03947CC502D045C92DC6FCCB0628E8C50DB0CB
310
A0E4BCC5B21E928921BB90AB1AA27587A853721990B9D76680643EDDA21B5D7275A45BB36A73D3B36BE8ABAB7029DEA2E7106FEB7FFEEADD068ABFD1BE3F750C7723EF31E7DD88C5C8051E4537D1139908799F64BBC34A66BFBCE69BCDE9EC2C284628C38461263E8838F37AEAB53F1322DBDDFE072AABFD27547CC81D3BD6
310
7D620914AD8B3C1E946CF72C6A790455EB9E9BFA01504B030414000608080015465C4055019EA25F0000007C00000007000000636E782E786D6C4DCB3B0E80201045D1AD90E915ED2CF8AC45050C11660C8261F98AB1B07AC9C97D42D718D865D3E909258CFD00CCE24AC6E326A164D74DC0B4128928FF326038472BA13128
310
B1252AC747C6BAB984FC68F0B87FE8960A5C09FE86CFB69FBA01504B030414000608080015465C40F690A41963010000020300000C0000006662782F636F72652E786D6C8D525B6E833010BC8AE57F63F3102295713E4A73825EC00187A2808DFC40397E9747445345516464EC9DDD9DD9017EBC0D3D9A94759DD1258E2386
310
91D2B5693ADD9638F80B29303A0A6E8DF17FD230D27250259EC358F0D69A306EA1DA68AFB487A8368DDA82D239E531AA7B3894D8D53F6A90910C1E32DC351A657D95AD8AE20860C813DC790B02D04A32EF585CCE374ED7B8E02174CD86760DB075974E592CB2CF38CF0F6942D22ACB4996A51529AAAC2055919EE2033B31F6
310
75E2742E16DC77C35D5D6D95F4AAC122617142584292E29B151F193C70CD3F18E3744E7F280A63F36651E8B44F934DEE5AE6B08841C802FC9B162CF2C8C909F450C1E96C22BC16871F8D0643C0642FCFFD7D8E2B8426557B6333401A137668927D50C0CAD0B2385D51E8BC3480C99EF6495EF479DD033EA0D42D48931E8EE7
310
E06776BEB26E568CCA92C9DF90367690FD2E6E95B8EF3BD1D3F2DAF4C6BE534DB751E966269DFF5EF10B504B030414000608080015465C402724A85D7C0000009D0000000B0000006662782F636E782E786D6C4DCCD10A83201886E15B91FFDC95D150410D15761F511692E9703A76F9ABD1C18E3E78F878C5F0D9037ABBFC
310
F2294A20B716908B539A7D5C25D4B26006685022A754FE6E80E2B83B092783126B4EF579D1EC96B1867268F071BB901B4DACE6165BC238EEEF54634D39C59AD9AE258F9E74C640A344F32B1D7B86D517504B030414000608080015465C400C19FB2D2901000013020000310000006662782F39424131434139432D43313839
310
2D343537412D413739372D4138433230314634313242422F636F72652E786D6C8D515B6EC32010BC0AE22BFDC0360E71EC081339967A825EC0C1244189C1E251E5F85D6A476AFF22211666677607961F9FD3037D2BE7B5352DA659819132D28EDA5C5B1CC385D4181D0577D6863F348CCC30A91627180B7E7536CE2B24AD09
310
CA04408D1DD50A0EDEAB80917CC0A1C55EDED43464430CC0F0F76C1EE47DB8AA8C6690069EE03E383080962669C7A23975B4EF9A9EF4B46E08DBED3BD2ED9B3DE9EABE2CE827A3E5E9C4F34528788C7A5CE57A043BFAA2957BB748120B1EF4F4B22F9D1A821AB1804E25294A52D65F457D60B0E05A1D8A82E789FE4F14E7F1
310
4D51D4266CCBD5EE22F358509E2F09C1471BCF8F9719F59CAD0B28F5DB78253FB02832CAD8AE6415CF1726BC1F4A566C2DE98375F0BF9BFB19C8DBB56EC504CFD38820FCCE0F621AA7F801504B030414000608080015465C40048CDC925301000033030000300000006662782F39424131434139432D433138392D34353741
310
2D413739372D4138433230314634313242422F636E782E786D6CBD934D6AC3301085AF22B4F76F8C314156A08B9EA08B6E656992A8912523C9A5B97D478992669345A1148CB0DEBC79337CD86CF7351BF2093E686747DA94352560A553DA1E46BAC67D3150B2E3CC3B171F6C945831C348934C393B78B72E5952B017AB89A8
310
1A6D4F59F410DCEA2504945327314E0A8301608B15459827500A14B91BF16D0F1E5741713A937804F2FAF24EDCF401320656A514CEAA3483B374E6490F264AA411218C34C823CCA2146B740AC2A954228AB2296FB39EECF4934452C36DE4EA3549C3479A4ECAF3462572641516390BD123BD6C8AE7052817CB62B414112157
310
17E3D5C3D9AA6DECBBECD508DEA37BD3F6C38061971A6751CF901DD28388A0286FEBA62DEAB66887B77AD876F8E0B5DFD635AB929DB3C939939B3006BC5B887436828D9437AC4AE567F8B28F28ED91B5F3E75F80440079EA95CE3DE32FF934FDA6EBFE914F75F9BE1197C7BF807F03504B030414000608080015465C40677E
310
590457070000931B0000340000006662782F39424131434139432D433138392D343537412D413739372D4138433230314634313242422F6F626A656374732E786D6CED595B6FA33814FE2B887D0E09493AD3AE28A33669AB68D599D16467B40F9190030EF5D618649B5EF6D7EFF1050234B464A7FB360F0960ECE373BE73F5
310
21F8F49451E70173417276EEFADEC475308BF384B0F4DC2DE56E74EA3A9FC280E7B96C4C731D86327CEEAA61370C529E97851D4AF00E95547646AF2FFF72448C19769D982221CE5D11DFE10C79A8947982C5BD972089BC74F7E4F99E99D8269B7254DC7588168863268153186740C5314CF9EDC7893B0E83B17A1F06EADFCE
310
9A0D9A35EF9F35D652B7B9244C48C4E2172C75C8CC06B134F3E7CBABE9C9D9E8643E9F8DE61FA6FEE8F2FA7239F23FCE268B0F8BC5D9C5D519B0B7CD736A654A70815902FA7B76433F18AB37B5E81681435CC7396338D64002545AAC2E4182056CD5806FD27EF495448DD75AC2C6F35CBDB72C3486676D2A7DB38601D1A20B
310
82D8ED2A89AB6B53BE7CFB37082E861825175802B74272D0AE85878357B8E124189BD130D8EE7541849321893941D4A164CB1107A5C05435250CCC024B46390707528E92406BCEBC6EDB1678E6DBAE7388CB5D49A9F20C37D48E1581FB61293467E41FCCF7DC3791019E40DA9230796AB994CF0576C3B360AC07C3405D6653
310
FBD200E9EC284A8546C4BCED08BA50AEBF5ABAE11FD7DBA7B50A0787372F785E602E95D1293D6ABEC090ED55A164B7F507694E2D00610CA876E51E946F80FC67881E7B56406F9C3CCD9FE676AEE488895DCE33D08D33714613F89B38BEFE57F78DBB605C2F6E6BAF0F4F705305D5E9CFE3D996416365F96FC019060F60F039
310
9FD957EB1851B0E75BC2002065240ECD610842FB6EFBE4862B089C10E86115A2A10F2203BB0F701B8C2D99BD562AF7B25EC70051BBC76C889200366D91C0468F9E6E207B7012EFD5D414B10FDE937731D78BE5FA8F75C97728C6B7D6A7977847189190350F33D4C2BC25D13D7E7ECC790282BEC47BDDC43BB35B09405B61AE
310
804F2B10D4C37EE7D60631AC4B73156E823776002154AE6ED0BF2522C6942286F3B2DAB78E6ECA506B8FB735831B4E0DC4B369C784397E20AAAA00A7D9CF68310A793FE6A45020BAE18D91AC0E9A5E8F74DF579FC122EBF93DB3560C422F43F44F1DB40EE0D0B2EC0A690B442DF0761FCEE39CE63CDA3E4726D2B9504B001B
310
6D6FF9D1220AB1DE284951010FD27E578594D4481B2564B72B05C4D5032CFE582D9AE630F166FE89D3FCEF38E31CA22DF82EE2D6EF3A7B442443298E7628E9DBAEB95B4D5B68923DA439DE51908B3C10F91C21194D129C1E03CD51C4CFDE957A4A732108C302F2D541F09B684C3C0824469B15CB4AAB1DA08988322C113D06
310
0145A6075C9D76748D1B43E9F0368FB5F5BEA6B126D1FFC92238825A32671181521472C89B8CFBDE09C49036BA06E50EBE606D156D2D062DA184889FA3474CD23B790CEA867C0FEE311C494A19E5058AC1AC07907DE12B4AA91DDEB728BE57F9238A4BFA5E062230DD4584D2328BE047189C3C86B8761D985E45A141DCC43E
310
893328CA902CF9904D3E9C4C5EEC636A866E086C6CB42314C27694A1A207F55640D4F58853836FA9F728755B664584B2BC64830CC59B75BDC992EFAA55911DC8AF2A15A16CAC085B82614098ACB36A15B3C1D475600537D281EA3912282BA83985BD9178FCDA9B34E5DE0DB8F5D3F7DD2083C2AF477BCD883AAF60B03CB60A
310
03F188647CE7866B7D1D5D42FD9DE0649FEAAB5AB3590102622A92979C58157D5F4179636B3437BC45526C6E4CD6ADAEDF571E743F8231AC81DAA55EB85240679849A42A935B7543BF2108C12D1A667CA572EA31542E9244578D885E933E75B6CA88D6A619F18A3BCCF20C7E6C43584CCB046F5022EEA35B49A33551AC5B29
310
BD8C5418BF2AE0979B75071E181920D25755E0E1C7CE5A3BBA50E5D24122F2AECCB60C1108822DD152A31BAF60A9D548A5E5FAAACE14507781815915CF7F9D2C9AED885F278BD41AC6CF9D2C68BE45741F6D1AD93C56667DD429A04E4F8ACA7B9C0274D7A1A65A271193CBADF8D69722888955901F5C8C5531C310ECE3F83F
310
27EDBE2468B6EBF07F5CD2F65F141C472595D664D5A43A50B8AE9A29ECE46A72BA989E7D1C5D2CE7FE683EFD38195D9E4E96A3D33378F6678BABABF9698DA6F6D330A863994E5DF06C625A35AC9E2C06D094153925091CE61327C510F2251CE90774CF798605E4CE66AF3BB13DF901AB1F4C9B53A22DC515277708FAC35440
310
56078CCA58B6C79DDFA03329E19C7DEE42CFC8BB873F6B95AE0389E7DC854E81243116DE16BA4CAA9FA78943C6D5A9DF12037C104B5546348BEAE77A95C2A615FDEB2943B28095ABD5C280BAAD80E657AB41A179B33CC547095EB1E32009B7DB5242B16664D90FD4C2E86DF6EA37B251C2EEEDD64FE0BAAF8BE57B7A4E0B91
310
415F0C5E3502437524114F75BB5B316659BA587E1D439BCD597D710A5AA6A0CBE194461C833197AA9E022B02ABB0340B24C15417BF6FBEF21CBEF0648E2E8A368B3CCB72661F2EE03896C01722677D07DF7B920D540D5875D5C5663AF1A71BDDCDB60DF6688B04F6543904035515A144E8181B58E48BCE94ED5B8E95123AD3
310
574BC7864FE802180B7AD1DC355FB71CF01EF51D45F98AF6F04ACE571BDA633D15AC81432B3AFC17504B030414000608000015465C40000000000000000000000000350000006662782F39424131434139432D433138392D343537412D413739372D4138433230314634313242422F76657274696365732E62696E504B0304
310
14000608080015465C40F270F1330600000004000000360000006662782F39424131434139432D433138392D343537412D413739372D4138433230314634313242422F747269616E676C65732E62696E636660600000504B030414000608000015465C40000000000000000000000000370000006662782F39424131434139
310
432D433138392D343537412D413739372D4138433230314634313242422F617474726962757465732E62696E504B030414000608080015465C40D5987DFC8F00000041010000360000006662782F39424131434139432D433138392D343537412D413739372D4138433230314634313242422F6469726563746F72792E786D
310
6C858F410EC2201045AF4266AF15DDB800BA74E7C21B903225242D6328188F2FA5C4183471359997F9FF81E89FF3C41E1816475E02DF1F80A11FC8386F25A438EECEC07A250251FC3803E6F58C12560C4AD840E95E91C151A72936F496F35732D860FE635F62C8F2DA16B505C545B74125BAA2FA9E05D7CC053D063734D5C7
310
665FD55B6B8D15D5E9BFEAFD8490FFA45E504B030414000608080015465C40DF86351DF9000000A00100003B0000006662782F39424131434139432D433138392D343537412D413739372D4138433230314634313242422F7265736F75726365732F636F72652E786D6C8D504B6EC32010BD8A357B6CB091E544982CE2FA04
310
BD0082498A1283C5A7EAF18B63576A77951003EFA3797AE2F2B53CAB4F0CD17A3702AB2954E8B437D6DD47C8E94606A82E5204EFD32F19544E2D38C2068314F7E0F37A40DABB842E15D4798307A862C404957E96C708517FE0A26A955351C447BD2AFD5077AC595DE8A29322A6500254FB92ED061930FA1C3446D1ECAC1439
310
5B7368AC293BEDCD6200C9AFACEF4F1D23DDC47BC279379161E20399866E66273A53FA368B66334B91ECF293510754090DC896B296D096B4C33B1DCEBC9CF2EDCF948A6693FF31E5D5FCD394AD4B5D7BC4DD6D11242B415E8414CDD65719AF32CBDCBA95DF504B010214000A000008000015465C403DEE336E790000007900
310
00001B00000000000000000000000000000000006175746F6465736B2D64657369676E2D7061636B6167652E786D6C504B0102140014000608080015465C40D486FD9CA0000000F40000001300000000000000000000000000B20000005B436F6E74656E745F54797065735D2E786D6C504B0102140014000608080015465C
310
40B76C682CE70000007C010000080000000000000000000000000083010000636F72652E786D6C504B0102140014000608080015465C4055019EA25F0000007C000000070000000000000000000000000090020000636E782E786D6C504B0102140014000608080015465C40F690A41963010000020300000C000000000000
310
00000000000000140300006662782F636F72652E786D6C504B0102140014000608080015465C402724A85D7C0000009D0000000B00000000000000000000000000A10400006662782F636E782E786D6C504B0102140014000608080015465C400C19FB2D290100001302000031000000000000000000000000004605000066
310
62782F39424131434139432D433138392D343537412D413739372D4138433230314634313242422F636F72652E786D6C504B0102140014000608080015465C40048CDC9253010000330300003000000000000000000000000000BE0600006662782F39424131434139432D433138392D343537412D413739372D4138433230
310
314634313242422F636E782E786D6C504B0102140014000608080015465C40677E590457070000931B000034000000000000000000000000005F0800006662782F39424131434139432D433138392D343537412D413739372D4138433230314634313242422F6F626A656374732E786D6C504B010214001400060800001546
310
5C400000000000000000000000003500000000000000000000000000081000006662782F39424131434139432D433138392D343537412D413739372D4138433230314634313242422F76657274696365732E62696E504B0102140014000608080015465C40F270F13306000000040000003600000000000000000000000000
310
5B1000006662782F39424131434139432D433138392D343537412D413739372D4138433230314634313242422F747269616E676C65732E62696E504B0102140014000608000015465C400000000000000000000000003700000000000000000000000000B51000006662782F39424131434139432D433138392D343537412D
310
413739372D4138433230314634313242422F617474726962757465732E62696E504B0102140014000608080015465C40D5987DFC8F0000004101000036000000000000000000000000000A1100006662782F39424131434139432D433138392D343537412D413739372D4138433230314634313242422F6469726563746F72
310
792E786D6C504B0102140014000608080015465C40DF86351DF9000000A00100003B00000000000000000000000000ED1100006662782F39424131434139432D433138392D343537412D413739372D4138433230314634313242422F7265736F75726365732F636F72652E786D6C504B0506000000000E000E00800400003F
310
1300000000
  0
XRECORD
  5
27
102
{ACAD_REACTORS
330
22
102
}
330
22
100
AcDbXrecord
280
     1
270
     1
271
     1
  0
XRECORD
  5
26
102
{ACAD_REACTORS
330
22
102
}
330
22
100
AcDbXrecord
280
     1
270
     1
271
     1
  0
XRECORD
  5
28
102
{ACAD_REACTORS
330
22
102
}
330
22
100
AcDbXrecord
280
     1
270
     1
271
     1
  0
XRECORD
  5
25
102
{ACAD_REACTORS
330
22
102
}
330
22
100
AcDbXrecord
280
     1
270
     1
271
     1
  0
XRECORD
  5
7BB
102
{ACAD_REACTORS
330
7BA
102
}
330
7BA
100
AcDbXrecord
280
     1
102
ACAD_ROUNDTRIP_2012_MLEADER_STYLE
298
     1
  0
CELLSTYLEMAP
  5
7B9
102
{ACAD_REACTORS
330
7B8
102
}
330
7B8
100
AcDbCellStyleMap
 90
        3
300
CELLSTYLE
  1
TABLEFORMAT_BEGIN
 90
        5
170
     1
 91
        0
 92
    32768
 62
   257
 93
        1
300
CONTENTFORMAT
  1
CONTENTFORMAT_BEGIN
 90
        0
 91
        0
 92
      512
 93
        0
300

 40
0.0
140
1.0
 94
        5
 62
     0
340
55
144
0.25
309
CONTENTFORMAT_END
171
     0
 94
        0
309
TABLEFORMAT_END
  1
CELLSTYLE_BEGIN
 90
        1
 91
        1
300
_TITLE
309
CELLSTYLE_END
300
CELLSTYLE
  1
TABLEFORMAT_BEGIN
 90
        5
170
     1
 91
        0
 92
        0
 62
   257
 93
        1
300
CONTENTFORMAT
  1
CONTENTFORMAT_BEGIN
 90
        0
 91
        0
 92
      512
 93
        0
300

 40
0.0
140
1.0
 94
        5
 62
     0
340
55
144
0.18
309
CONTENTFORMAT_END
171
     0
 94
        0
309
TABLEFORMAT_END
  1
CELLSTYLE_BEGIN
 90
        2
 91
        1
300
_HEADER
309
CELLSTYLE_END
300
CELLSTYLE
  1
TABLEFORMAT_BEGIN
 90
        5
170
     1
 91
        0
 92
        0
 62
   257
 93
        1
300
CONTENTFORMAT
  1
CONTENTFORMAT_BEGIN
 90
        0
 91
        0
 92
      512
 93
        0
300

 40
0.0
140
1.0
 94
        2
 62
     0
340
55
144
0.18
309
CONTENTFORMAT_END
171
     0
 94
        0
309
TABLEFORMAT_END
  1
CELLSTYLE_BEGIN
 90
        3
 91
        2
300
_DATA
309
CELLSTYLE_END
  0
XRECORD
  5
7F3
102
{ACAD_REACTORS
330
7B8
102
}
330
7B8
100
AcDbXrecord
280
     1
102
ACAD_ROUNDTRIP_PRE2007_TABLESTYLE
 90
      512
 91
        0
  1

 92
      512
 93
        0
  2

 94
      512
 95
        0
  3

  0
XRECORD
  5
7CE
102
{ACAD_REACTORS
330
7CD
102
}
330
7CD
100
AcDbXrecord
280
     1
102
RTVSPropertyOp0
 70
     1
102
RTVSPropertyOp1
 70
     1
102
RTVSPropertyOp2
 70
     1
102
RTVSPropertyOp3
 70
     1
102
RTVSPropertyOp4
 70
     1
102
RTVSPropertyOp5
 70
     1
102
RTVSPropertyOp6
 70
     1
102
RTVSPropertyOp7
 70
     1
102
RTVSPropertyOp8
 70
     1
102
RTVSPropertyOp9
 70
     1
102
RTVSPropertyOp10
 70
     1
102
RTVSPropertyOp11
 70
     1
102
RTVSPropertyOp12
 70
     1
102
RTVSPropertyOp13
 70
     1
102
RTVSPropertyOp14
 70
     1
102
RTVSPropertyOp15
 70
     1
102
RTVSPropertyOp16
 70
     1
102
RTVSPropertyOp17
 70
     1
102
RTVSPropertyOp18
 70
     1
102
RTVSPropertyOp19
 70
     1
102
RTVSPropertyOp20
 70
     1
102
RTVSPropertyOp21
 70
     1
102
RTVSPropertyOp22
 70
     1
102
RTVSPropertyOp23
 70
     1
102
RTVSPropertyOp24
 70
     1
102
RTVSPropertyOp25
 70
     1
102
RTVSPropertyOp26
 70
     1
102
RTVSPropertyOp27
 70
     1
102
RTVSPropertyOp28
 70
     1
102
RTVSPropertyOp29
 70
     1
102
RTVSPropertyOp30
 70
     1
102
RTVSPropertyOp31
 70
     1
102
RTVSPropertyOp32
 70
     1
  0
XRECORD
  5
7CC
102
{ACAD_REACTORS
330
7CB
102
}
330
7CB
100
AcDbXrecord
280
     1
102
RTVSPropertyOp0
 70
     1
102
RTVSPropertyOp1
 70
     1
102
RTVSPropertyOp2
 70
     1
102
RTVSPropertyOp3
 70
     1
102
RTVSPropertyOp4
 70
     1
102
RTVSPropertyOp5
 70
     1
102
RTVSPropertyOp6
 70
     1
102
RTVSPropertyOp7
 70
     1
102
RTVSPropertyOp8
 70
     1
102
RTVSPropertyOp9
 70
     1
102
RTVSPropertyOp10
 70
     1
102
RTVSPropertyOp11
 70
     1
102
RTVSPropertyOp12
 70
     1
102
RTVSPropertyOp13
 70
     1
102
RTVSPropertyOp14
 70
     1
102
RTVSPropertyOp15
 70
     1
102
RTVSPropertyOp16
 70
     1
102
RTVSPropertyOp17
 70
     1
102
RTVSPropertyOp18
 70
     1
102
RTVSPropertyOp19
 70
     1
102
RTVSPropertyOp20
 70
     1
102
RTVSPropertyOp21
 70
     1
102
RTVSPropertyOp22
 70
     1
102
RTVSPropertyOp23
 70
     1
102
RTVSPropertyOp24
 70
     1
102
RTVSPropertyOp25
 70
     1
102
RTVSPropertyOp26
 70
     1
102
RTVSPropertyOp27
 70
     1
102
RTVSPropertyOp28
 70
     1
102
RTVSPropertyOp29
 70
     1
102
RTVSPropertyOp30
 70
     1
102
RTVSPropertyOp31
 70
     1
102
RTVSPropertyOp32
 70
     1
  0
XRECORD
  5
7DA
102
{ACAD_REACTORS
330
7D9
102
}
330
7D9
100
AcDbXrecord
280
     1
102
RTVSPropertyOp0
 70
     1
102
RTVSPropertyOp1
 70
     1
102
RTVSPropertyOp2
 70
     1
102
RTVSPropertyOp3
 70
     1
102
RTVSPropertyOp4
 70
     1
102
RTVSPropertyOp5
 70
     1
102
RTVSPropertyOp6
 70
     1
102
RTVSPropertyOp7
 70
     1
102
RTVSPropertyOp8
 70
     1
102
RTVSPropertyOp9
 70
     1
102
RTVSPropertyOp10
 70
     1
102
RTVSPropertyOp11
 70
     1
102
RTVSPropertyOp12
 70
     1
102
RTVSPropertyOp13
 70
     1
102
RTVSPropertyOp14
 70
     1
102
RTVSPropertyOp15
 70
     1
102
RTVSPropertyOp16
 70
     1
102
RTVSPropertyOp17
 70
     1
102
RTVSPropertyOp18
 70
     1
102
RTVSPropertyOp19
 70
     1
102
RTVSPropertyOp20
 70
     1
102
RTVSPropertyOp21
 70
     1
102
RTVSPropertyOp22
 70
     1
102
RTVSPropertyOp23
 70
     1
102
RTVSPropertyOp24
 70
     1
102
RTVSPropertyOp25
 70
     1
102
RTVSPropertyOp26
 70
     1
102
RTVSPropertyOp27
 70
     1
102
RTVSPropertyOp28
 70
     1
102
RTVSPropertyOp29
 70
     1
102
RTVSPropertyOp30
 70
     1
102
RTVSPropertyOp31
 70
     1
102
RTVSPropertyOp32
 70
     1
  0
XRECORD
  5
7E2
102
{ACAD_REACTORS
330
7E1
102
}
330
7E1
100
AcDbXrecord
280
     1
102
RTVSPropertyOp0
 70
     1
102
RTVSPropertyOp1
 70
     1
102
RTVSPropertyOp2
 70
     1
102
RTVSPropertyOp3
 70
     1
102
RTVSPropertyOp4
 70
     1
102
RTVSPropertyOp5
 70
     1
102
RTVSPropertyOp6
 70
     1
102
RTVSPropertyOp7
 70
     1
102
RTVSPropertyOp8
 70
     1
102
RTVSPropertyOp9
 70
     1
102
RTVSPropertyOp10
 70
     1
102
RTVSPropertyOp11
 70
     1
102
RTVSPropertyOp12
 70
     1
102
RTVSPropertyOp13
 70
     1
102
RTVSPropertyOp14
 70
     1
102
RTVSPropertyOp15
 70
     1
102
RTVSPropertyOp16
 70
     1
102
RTVSPropertyOp17
 70
     1
102
RTVSPropertyOp18
 70
     1
102
RTVSPropertyOp19
 70
     1
102
RTVSPropertyOp20
 70
     1
102
RTVSPropertyOp21
 70
     1
102
RTVSPropertyOp22
 70
     1
102
RTVSPropertyOp23
 70
     1
102
RTVSPropertyOp24
 70
     1
102
RTVSPropertyOp25
 70
     1
102
RTVSPropertyOp26
 70
     1
102
RTVSPropertyOp27
 70
     1
102
RTVSPropertyOp28
 70
     1
102
RTVSPropertyOp29
 70
     1
102
RTVSPropertyOp30
 70
     1
102
RTVSPropertyOp31
 70
     1
102
RTVSPropertyOp32
 70
     1
  0
XRECORD
  5
7D4
102
{ACAD_REACTORS
330
7D3
102
}
330
7D3
100
AcDbXrecord
280
     1
102
RTVSPropertyOp0
 70
     1
102
RTVSPropertyOp1
 70
     1
102
RTVSPropertyOp2
 70
     1
102
RTVSPropertyOp3
 70
     1
102
RTVSPropertyOp4
 70
     1
102
RTVSPropertyOp5
 70
     1
102
RTVSPropertyOp6
 70
     1
102
RTVSPropertyOp7
 70
     1
102
RTVSPropertyOp8
 70
     1
102
RTVSPropertyOp9
 70
     1
102
RTVSPropertyOp10
 70
     1
102
RTVSPropertyOp11
 70
     1
102
RTVSPropertyOp12
 70
     1
102
RTVSPropertyOp13
 70
     1
102
RTVSPropertyOp14
 70
     1
102
RTVSPropertyOp15
 70
     1
102
RTVSPropertyOp16
 70
     1
102
RTVSPropertyOp17
 70
     1
102
RTVSPropertyOp18
 70
     1
102
RTVSPropertyOp19
 70
     1
102
RTVSPropertyOp20
 70
     1
102
RTVSPropertyOp21
 70
     1
102
RTVSPropertyOp22
 70
     1
102
RTVSPropertyOp23
 70
     1
102
RTVSPropertyOp24
 70
     1
102
RTVSPropertyOp25
 70
     1
102
RTVSPropertyOp26
 70
     1
102
RTVSPropertyOp27
 70
     1
102
RTVSPropertyOp28
 70
     1
102
RTVSPropertyOp29
 70
     1
102
RTVSPropertyOp30
 70
     1
102
RTVSPropertyOp31
 70
     1
102
RTVSPropertyOp32
 70
     1
  0
XRECORD
  5
7D8
102
{ACAD_REACTORS
330
7D7
102
}
330
7D7
100
AcDbXrecord
280
     1
102
RTVSPropertyOp0
 70
     1
102
RTVSPropertyOp1
 70
     1
102
RTVSPropertyOp2
 70
     1
102
RTVSPropertyOp3
 70
     1
102
RTVSPropertyOp4
 70
     1
102
RTVSPropertyOp5
 70
     1
102
RTVSPropertyOp6
 70
     1
102
RTVSPropertyOp7
 70
     1
102
RTVSPropertyOp8
 70
     1
102
RTVSPropertyOp9
 70
     1
102
RTVSPropertyOp10
 70
     1
102
RTVSPropertyOp11
 70
     1
102
RTVSPropertyOp12
 70
     1
102
RTVSPropertyOp13
 70
     1
102
RTVSPropertyOp14
 70
     1
102
RTVSPropertyOp15
 70
     1
102
RTVSPropertyOp16
 70
     1
102
RTVSPropertyOp17
 70
     1
102
RTVSPropertyOp18
 70
     1
102
RTVSPropertyOp19
 70
     1
102
RTVSPropertyOp20
 70
     1
102
RTVSPropertyOp21
 70
     1
102
RTVSPropertyOp22
 70
     1
102
RTVSPropertyOp23
 70
     1
102
RTVSPropertyOp24
 70
     1
102
RTVSPropertyOp25
 70
     1
102
RTVSPropertyOp26
 70
     1
102
RTVSPropertyOp27
 70
     1
102
RTVSPropertyOp28
 70
     1
102
RTVSPropertyOp29
 70
     1
102
RTVSPropertyOp30
 70
     1
102
RTVSPropertyOp31
 70
     1
102
RTVSPropertyOp32
 70
     1
  0
XRECORD
  5
7F2
102
{ACAD_REACTORS
330
7F1
102
}
330
7F1
100
AcDbXrecord
280
     1
102
RTVSPropertyOp0
 70
     0
102
RTVSPropertyOp1
 70
     0
102
RTVSPropertyOp2
 70
     0
102
RTVSPropertyOp3
 70
     0
102
RTVSPropertyOp4
 70
     0
102
RTVSPropertyOp5
 70
     0
102
RTVSPropertyOp6
 70
     0
102
RTVSPropertyOp7
 70
     0
102
RTVSPropertyOp8
 70
     0
102
RTVSPropertyOp9
 70
     0
102
RTVSPropertyOp10
 70
     0
102
RTVSPropertyOp11
 70
     0
102
RTVSPropertyOp12
 70
     0
102
RTVSPropertyOp13
 70
     0
102
RTVSPropertyOp14
 70
     2
102
RTVSPropertyOp15
 70
     0
102
RTVSPropertyOp16
 70
     0
102
RTVSPropertyOp17
 70
     0
102
RTVSPropertyOp18
 70
     0
102
RTVSPropertyOp19
 70
     0
102
RTVSPropertyOp20
 70
     0
102
RTVSPropertyOp21
 70
     0
102
RTVSPropertyOp22
 70
     0
102
RTVSPropertyOp23
 70
     0
102
RTVSPropertyOp24
 70
     0
102
RTVSPropertyOp25
 70
     0
102
RTVSPropertyOp26
 70
     0
102
RTVSPropertyOp27
 70
     0
102
RTVSPropertyOp28
 70
     1
102
RTVSPropertyOp29
 70
     1
102
RTVSPropertyOp30
 70
     1
102
RTVSPropertyOp31
 70
     1
102
RTVSPropertyOp32
 70
     1
  0
XRECORD
  5
7E0
102
{ACAD_REACTORS
330
7DF
102
}
330
7DF
100
AcDbXrecord
280
     1
102
RTVSPropertyOp0
 70
     1
102
RTVSPropertyOp1
 70
     1
102
RTVSPropertyOp2
 70
     1
102
RTVSPropertyOp3
 70
     1
102
RTVSPropertyOp4
 70
     1
102
RTVSPropertyOp5
 70
     1
102
RTVSPropertyOp6
 70
     1
102
RTVSPropertyOp7
 70
     1
102
RTVSPropertyOp8
 70
     1
102
RTVSPropertyOp9
 70
     1
102
RTVSPropertyOp10
 70
     1
102
RTVSPropertyOp11
 70
     1
102
RTVSPropertyOp12
 70
     1
102
RTVSPropertyOp13
 70
     1
102
RTVSPropertyOp14
 70
     1
102
RTVSPropertyOp15
 70
     1
102
RTVSPropertyOp16
 70
     1
102
RTVSPropertyOp17
 70
     1
102
RTVSPropertyOp18
 70
     1
102
RTVSPropertyOp19
 70
     1
102
RTVSPropertyOp20
 70
     1
102
RTVSPropertyOp21
 70
     1
102
RTVSPropertyOp22
 70
     1
102
RTVSPropertyOp23
 70
     1
102
RTVSPropertyOp24
 70
     1
102
RTVSPropertyOp25
 70
     1
102
RTVSPropertyOp26
 70
     1
102
RTVSPropertyOp27
 70
     1
102
RTVSPropertyOp28
 70
     1
102
RTVSPropertyOp29
 70
     1
102
RTVSPropertyOp30
 70
     1
102
RTVSPropertyOp31
 70
     1
102
RTVSPropertyOp32
 70
     1
  0
XRECORD
  5
7C4
102
{ACAD_REACTORS
330
7C3
102
}
330
7C3
100
AcDbXrecord
280
     1
102
RTVSPropertyOp0
 70
     1
102
RTVSPropertyOp1
 70
     1
102
RTVSPropertyOp2
 70
     1
102
RTVSPropertyOp3
 70
     1
102
RTVSPropertyOp4
 70
     1
102
RTVSPropertyOp5
 70
     1
102
RTVSPropertyOp6
 70
     1
102
RTVSPropertyOp7
 70
     1
102
RTVSPropertyOp8
 70
     1
102
RTVSPropertyOp9
 70
     1
102
RTVSPropertyOp10
 70
     1
102
RTVSPropertyOp11
 70
     1
102
RTVSPropertyOp12
 70
     1
102
RTVSPropertyOp13
 70
     1
102
RTVSPropertyOp14
 70
     1
102
RTVSPropertyOp15
 70
     1
102
RTVSPropertyOp16
 70
     1
102
RTVSPropertyOp17
 70
     1
102
RTVSPropertyOp18
 70
     1
102
RTVSPropertyOp19
 70
     1
102
RTVSPropertyOp20
 70
     1
102
RTVSPropertyOp21
 70
     1
102
RTVSPropertyOp22
 70
     1
102
RTVSPropertyOp23
 70
     1
102
RTVSPropertyOp24
 70
     1
102
RTVSPropertyOp25
 70
     1
102
RTVSPropertyOp26
 70
     1
102
RTVSPropertyOp27
 70
     1
102
RTVSPropertyOp28
 70
     1
102
RTVSPropertyOp29
 70
     1
102
RTVSPropertyOp30
 70
     1
102
RTVSPropertyOp31
 70
     1
102
RTVSPropertyOp32
 70
     1
  0
XRECORD
  5
7C6
102
{ACAD_REACTORS
330
7C5
102
}
330
7C5
100
AcDbXrecord
280
     1
102
RTVSPropertyOp0
 70
     1
102
RTVSPropertyOp1
 70
     1
102
RTVSPropertyOp2
 70
     1
102
RTVSPropertyOp3
 70
     1
102
RTVSPropertyOp4
 70
     1
102
RTVSPropertyOp5
 70
     1
102
RTVSPropertyOp6
 70
     1
102
RTVSPropertyOp7
 70
     1
102
RTVSPropertyOp8
 70
     1
102
RTVSPropertyOp9
 70
     1
102
RTVSPropertyOp10
 70
     1
102
RTVSPropertyOp11
 70
     1
102
RTVSPropertyOp12
 70
     1
102
RTVSPropertyOp13
 70
     1
102
RTVSPropertyOp14
 70
     1
102
RTVSPropertyOp15
 70
     1
102
RTVSPropertyOp16
 70
     1
102
RTVSPropertyOp17
 70
     1
102
RTVSPropertyOp18
 70
     1
102
RTVSPropertyOp19
 70
     1
102
RTVSPropertyOp20
 70
     1
102
RTVSPropertyOp21
 70
     1
102
RTVSPropertyOp22
 70
     1
102
RTVSPropertyOp23
 70
     1
102
RTVSPropertyOp24
 70
     1
102
RTVSPropertyOp25
 70
     1
102
RTVSPropertyOp26
 70
     1
102
RTVSPropertyOp27
 70
     1
102
RTVSPropertyOp28
 70
     1
102
RTVSPropertyOp29
 70
     1
102
RTVSPropertyOp30
 70
     1
102
RTVSPropertyOp31
 70
     1
102
RTVSPropertyOp32
 70
     1
  0
XRECORD
  5
7C8
102
{ACAD_REACTORS
330
7C7
102
}
330
7C7
100
AcDbXrecord
280
     1
102
RTVSPropertyOp0
 70
     1
102
RTVSPropertyOp1
 70
     1
102
RTVSPropertyOp2
 70
     1
102
RTVSPropertyOp3
 70
     1
102
RTVSPropertyOp4
 70
     1
102
RTVSPropertyOp5
 70
     1
102
RTVSPropertyOp6
 70
     1
102
RTVSPropertyOp7
 70
     1
102
RTVSPropertyOp8
 70
     1
102
RTVSPropertyOp9
 70
     1
102
RTVSPropertyOp10
 70
     1
102
RTVSPropertyOp11
 70
     1
102
RTVSPropertyOp12
 70
     1
102
RTVSPropertyOp13
 70
     1
102
RTVSPropertyOp14
 70
     1
102
RTVSPropertyOp15
 70
     1
102
RTVSPropertyOp16
 70
     1
102
RTVSPropertyOp17
 70
     1
102
RTVSPropertyOp18
 70
     1
102
RTVSPropertyOp19
 70
     1
102
RTVSPropertyOp20
 70
     1
102
RTVSPropertyOp21
 70
     1
102
RTVSPropertyOp22
 70
     1
102
RTVSPropertyOp23
 70
     1
102
RTVSPropertyOp24
 70
     1
102
RTVSPropertyOp25
 70
     1
102
RTVSPropertyOp26
 70
     1
102
RTVSPropertyOp27
 70
     1
102
RTVSPropertyOp28
 70
     1
102
RTVSPropertyOp29
 70
     1
102
RTVSPropertyOp30
 70
     1
102
RTVSPropertyOp31
 70
     1
102
RTVSPropertyOp32
 70
     1
  0
XRECORD
  5
7CA
102
{ACAD_REACTORS
330
7C9
102
}
330
7C9
100
AcDbXrecord
280
     1
102
RTVSPropertyOp0
 70
     1
102
RTVSPropertyOp1
 70
     1
102
RTVSPropertyOp2
 70
     1
102
RTVSPropertyOp3
 70
     1
102
RTVSPropertyOp4
 70
     1
102
RTVSPropertyOp5
 70
     1
102
RTVSPropertyOp6
 70
     1
102
RTVSPropertyOp7
 70
     1
102
RTVSPropertyOp8
 70
     1
102
RTVSPropertyOp9
 70
     1
102
RTVSPropertyOp10
 70
     1
102
RTVSPropertyOp11
 70
     1
102
RTVSPropertyOp12
 70
     1
102
RTVSPropertyOp13
 70
     1
102
RTVSPropertyOp14
 70
     1
102
RTVSPropertyOp15
 70
     1
102
RTVSPropertyOp16
 70
     1
102
RTVSPropertyOp17
 70
     1
102
RTVSPropertyOp18
 70
     1
102
RTVSPropertyOp19
 70
     1
102
RTVSPropertyOp20
 70
     1
102
RTVSPropertyOp21
 70
     1
102
RTVSPropertyOp22
 70
     1
102
RTVSPropertyOp23
 70
     1
102
RTVSPropertyOp24
 70
     1
102
RTVSPropertyOp25
 70
     1
102
RTVSPropertyOp26
 70
     1
102
RTVSPropertyOp27
 70
     1
102
RTVSPropertyOp28
 70
     1
102
RTVSPropertyOp29
 70
     1
102
RTVSPropertyOp30
 70
     1
102
RTVSPropertyOp31
 70
     1
102
RTVSPropertyOp32
 70
     1
  0
XRECORD
  5
7D2
102
{ACAD_REACTORS
330
7D1
102
}
330
7D1
100
AcDbXrecord
280
     1
102
RTVSPropertyOp0
 70
     1
102
RTVSPropertyOp1
 70
     1
102
RTVSPropertyOp2
 70
     1
102
RTVSPropertyOp3
 70
     1
102
RTVSPropertyOp4
 70
     1
102
RTVSPropertyOp5
 70
     1
102
RTVSPropertyOp6
 70
     1
102
RTVSPropertyOp7
 70
     1
102
RTVSPropertyOp8
 70
     1
102
RTVSPropertyOp9
 70
     1
102
RTVSPropertyOp10
 70
     1
102
RTVSPropertyOp11
 70
     1
102
RTVSPropertyOp12
 70
     1
102
RTVSPropertyOp13
 70
     1
102
RTVSPropertyOp14
 70
     1
102
RTVSPropertyOp15
 70
     1
102
RTVSPropertyOp16
 70
     1
102
RTVSPropertyOp17
 70
     1
102
RTVSPropertyOp18
 70
     1
102
RTVSPropertyOp19
 70
     1
102
RTVSPropertyOp20
 70
     1
102
RTVSPropertyOp21
 70
     1
102
RTVSPropertyOp22
 70
     1
102
RTVSPropertyOp23
 70
     1
102
RTVSPropertyOp24
 70
     1
102
RTVSPropertyOp25
 70
     1
102
RTVSPropertyOp26
 70
     1
102
RTVSPropertyOp27
 70
     1
102
RTVSPropertyOp28
 70
     1
102
RTVSPropertyOp29
 70
     1
102
RTVSPropertyOp30
 70
     1
102
RTVSPropertyOp31
 70
     1
102
RTVSPropertyOp32
 70
     1
  0
XRECORD
  5
7EE
102
{ACAD_REACTORS
330
7ED
102
}
330
7ED
100
AcDbXrecord
280
     1
102
RTVSPropertyOp0
 70
     0
102
RTVSPropertyOp1
 70
     0
102
RTVSPropertyOp2
 70
     0
102
RTVSPropertyOp3
 70
     0
102
RTVSPropertyOp4
 70
     0
102
RTVSPropertyOp5
 70
     0
102
RTVSPropertyOp6
 70
     0
102
RTVSPropertyOp7
 70
     0
102
RTVSPropertyOp8
 70
     0
102
RTVSPropertyOp9
 70
     0
102
RTVSPropertyOp10
 70
     0
102
RTVSPropertyOp11
 70
     0
102
RTVSPropertyOp12
 70
     0
102
RTVSPropertyOp13
 70
     0
102
RTVSPropertyOp14
 70
     2
102
RTVSPropertyOp15
 70
     0
102
RTVSPropertyOp16
 70
     0
102
RTVSPropertyOp17
 70
     0
102
RTVSPropertyOp18
 70
     0
102
RTVSPropertyOp19
 70
     0
102
RTVSPropertyOp20
 70
     0
102
RTVSPropertyOp21
 70
     0
102
RTVSPropertyOp22
 70
     0
102
RTVSPropertyOp23
 70
     0
102
RTVSPropertyOp24
 70
     0
102
RTVSPropertyOp25
 70
     0
102
RTVSPropertyOp26
 70
     0
102
RTVSPropertyOp27
 70
     0
102
RTVSPropertyOp28
 70
     1
102
RTVSPropertyOp29
 70
     1
102
RTVSPropertyOp30
 70
     1
102
RTVSPropertyOp31
 70
     1
102
RTVSPropertyOp32
 70
     1
  0
XRECORD
  5
7DE
102
{ACAD_REACTORS
330
7DD
102
}
330
7DD
100
AcDbXrecord
280
     1
102
RTVSPropertyOp0
 70
     1
102
RTVSPropertyOp1
 70
     1
102
RTVSPropertyOp2
 70
     1
102
RTVSPropertyOp3
 70
     1
102
RTVSPropertyOp4
 70
     1
102
RTVSPropertyOp5
 70
     1
102
RTVSPropertyOp6
 70
     1
102
RTVSPropertyOp7
 70
     1
102
RTVSPropertyOp8
 70
     1
102
RTVSPropertyOp9
 70
     1
102
RTVSPropertyOp10
 70
     1
102
RTVSPropertyOp11
 70
     1
102
RTVSPropertyOp12
 70
     1
102
RTVSPropertyOp13
 70
     1
102
RTVSPropertyOp14
 70
     1
102
RTVSPropertyOp15
 70
     1
102
RTVSPropertyOp16
 70
     1
102
RTVSPropertyOp17
 70
     1
102
RTVSPropertyOp18
 70
     1
102
RTVSPropertyOp19
 70
     1
102
RTVSPropertyOp20
 70
     1
102
RTVSPropertyOp21
 70
     1
102
RTVSPropertyOp22
 70
     1
102
RTVSPropertyOp23
 70
     1
102
RTVSPropertyOp24
 70
     1
102
RTVSPropertyOp25
 70
     1
102
RTVSPropertyOp26
 70
     1
102
RTVSPropertyOp27
 70
     1
102
RTVSPropertyOp28
 70
     1
102
RTVSPropertyOp29
 70
     1
102
RTVSPropertyOp30
 70
     1
102
RTVSPropertyOp31
 70
     1
102
RTVSPropertyOp32
 70
     1
  0
XRECORD
  5
7F0
102
{ACAD_REACTORS
330
7EF
102
}
330
7EF
100
AcDbXrecord
280
     1
102
RTVSPropertyOp0
 70
     0
102
RTVSPropertyOp1
 70
     0
102
RTVSPropertyOp2
 70
     0
102
RTVSPropertyOp3
 70
     0
102
RTVSPropertyOp4
 70
     0
102
RTVSPropertyOp5
 70
     0
102
RTVSPropertyOp6
 70
     0
102
RTVSPropertyOp7
 70
     0
102
RTVSPropertyOp8
 70
     0
102
RTVSPropertyOp9
 70
     0
102
RTVSPropertyOp10
 70
     0
102
RTVSPropertyOp11
 70
     0
102
RTVSPropertyOp12
 70
     0
102
RTVSPropertyOp13
 70
     0
102
RTVSPropertyOp14
 70
     2
102
RTVSPropertyOp15
 70
     0
102
RTVSPropertyOp16
 70
     0
102
RTVSPropertyOp17
 70
     0
102
RTVSPropertyOp18
 70
     0
102
RTVSPropertyOp19
 70
     0
102
RTVSPropertyOp20
 70
     0
102
RTVSPropertyOp21
 70
     0
102
RTVSPropertyOp22
 70
     0
102
RTVSPropertyOp23
 70
     0
102
RTVSPropertyOp24
 70
     0
102
RTVSPropertyOp25
 70
     0
102
RTVSPropertyOp26
 70
     0
102
RTVSPropertyOp27
 70
     0
102
RTVSPropertyOp28
 70
     1
102
RTVSPropertyOp29
 70
     1
102
RTVSPropertyOp30
 70
     1
102
RTVSPropertyOp31
 70
     1
102
RTVSPropertyOp32
 70
     1
  0
XRECORD
  5
7D6
102
{ACAD_REACTORS
330
7D5
102
}
330
7D5
100
AcDbXrecord
280
     1
102
RTVSPropertyOp0
 70
     1
102
RTVSPropertyOp1
 70
     1
102
RTVSPropertyOp2
 70
     1
102
RTVSPropertyOp3
 70
     1
102
RTVSPropertyOp4
 70
     1
102
RTVSPropertyOp5
 70
     1
102
RTVSPropertyOp6
 70
     1
102
RTVSPropertyOp7
 70
     1
102
RTVSPropertyOp8
 70
     1
102
RTVSPropertyOp9
 70
     1
102
RTVSPropertyOp10
 70
     1
102
RTVSPropertyOp11
 70
     1
102
RTVSPropertyOp12
 70
     1
102
RTVSPropertyOp13
 70
     1
102
RTVSPropertyOp14
 70
     1
102
RTVSPropertyOp15
 70
     1
102
RTVSPropertyOp16
 70
     1
102
RTVSPropertyOp17
 70
     1
102
RTVSPropertyOp18
 70
     1
102
RTVSPropertyOp19
 70
     1
102
RTVSPropertyOp20
 70
     1
102
RTVSPropertyOp21
 70
     1
102
RTVSPropertyOp22
 70
     1
102
RTVSPropertyOp23
 70
     1
102
RTVSPropertyOp24
 70
     1
102
RTVSPropertyOp25
 70
     1
102
RTVSPropertyOp26
 70
     1
102
RTVSPropertyOp27
 70
     1
102
RTVSPropertyOp28
 70
     1
102
RTVSPropertyOp29
 70
     1
102
RTVSPropertyOp30
 70
     1
102
RTVSPropertyOp31
 70
     1
102
RTVSPropertyOp32
 70
     1
  0
XRECORD
  5
7EC
102
{ACAD_REACTORS
330
7EB
102
}
330
7EB
100
AcDbXrecord
280
     1
102
RTVSPropertyOp0
 70
     1
102
RTVSPropertyOp1
 70
     1
102
RTVSPropertyOp2
 70
     1
102
RTVSPropertyOp3
 70
     1
102
RTVSPropertyOp4
 70
     1
102
RTVSPropertyOp5
 70
     1
102
RTVSPropertyOp6
 70
     1
102
RTVSPropertyOp7
 70
     1
102
RTVSPropertyOp8
 70
     1
102
RTVSPropertyOp9
 70
     1
102
RTVSPropertyOp10
 70
     1
102
RTVSPropertyOp11
 70
     1
102
RTVSPropertyOp12
 70
     1
102
RTVSPropertyOp13
 70
     1
102
RTVSPropertyOp14
 70
     1
102
RTVSPropertyOp15
 70
     1
102
RTVSPropertyOp16
 70
     1
102
RTVSPropertyOp17
 70
     1
102
RTVSPropertyOp18
 70
     1
102
RTVSPropertyOp19
 70
     1
102
RTVSPropertyOp20
 70
     1
102
RTVSPropertyOp21
 70
     1
102
RTVSPropertyOp22
 70
     1
102
RTVSPropertyOp23
 70
     1
102
RTVSPropertyOp24
 70
     1
102
RTVSPropertyOp25
 70
     1
102
RTVSPropertyOp26
 70
     1
102
RTVSPropertyOp27
 70
     1
102
RTVSPropertyOp28
 70
     1
102
RTVSPropertyOp29
 70
     1
102
RTVSPropertyOp30
 70
     1
102
RTVSPropertyOp31
 70
     1
102
RTVSPropertyOp32
 70
     1
  0
XRECORD
  5
7EA
102
{ACAD_REACTORS
330
7E9
102
}
330
7E9
100
AcDbXrecord
280
     1
102
RTVSPropertyOp0
 70
     1
102
RTVSPropertyOp1
 70
     1
102
RTVSPropertyOp2
 70
     1
102
RTVSPropertyOp3
 70
     1
102
RTVSPropertyOp4
 70
     1
102
RTVSPropertyOp5
 70
     1
102
RTVSPropertyOp6
 70
     1
102
RTVSPropertyOp7
 70
     1
102
RTVSPropertyOp8
 70
     1
102
RTVSPropertyOp9
 70
     1
102
RTVSPropertyOp10
 70
     1
102
RTVSPropertyOp11
 70
     1
102
RTVSPropertyOp12
 70
     1
102
RTVSPropertyOp13
 70
     1
102
RTVSPropertyOp14
 70
     1
102
RTVSPropertyOp15
 70
     1
102
RTVSPropertyOp16
 70
     1
102
RTVSPropertyOp17
 70
     1
102
RTVSPropertyOp18
 70
     1
102
RTVSPropertyOp19
 70
     1
102
RTVSPropertyOp20
 70
     1
102
RTVSPropertyOp21
 70
     1
102
RTVSPropertyOp22
 70
     1
102
RTVSPropertyOp23
 70
     1
102
RTVSPropertyOp24
 70
     1
102
RTVSPropertyOp25
 70
     1
102
RTVSPropertyOp26
 70
     1
102
RTVSPropertyOp27
 70
     1
102
RTVSPropertyOp28
 70
     1
102
RTVSPropertyOp29
 70
     1
102
RTVSPropertyOp30
 70
     1
102
RTVSPropertyOp31
 70
     1
102
RTVSPropertyOp32
 70
     1
  0
XRECORD
  5
7E4
102
{ACAD_REACTORS
330
7E3
102
}
330
7E3
100
AcDbXrecord
280
     1
102
RTVSPropertyOp0
 70
     1
102
RTVSPropertyOp1
 70
     1
102
RTVSPropertyOp2
 70
     1
102
RTVSPropertyOp3
 70
     1
102
RTVSPropertyOp4
 70
     1
102
RTVSPropertyOp5
 70
     1
102
RTVSPropertyOp6
 70
     1
102
RTVSPropertyOp7
 70
     1
102
RTVSPropertyOp8
 70
     1
102
RTVSPropertyOp9
 70
     1
102
RTVSPropertyOp10
 70
     1
102
RTVSPropertyOp11
 70
     1
102
RTVSPropertyOp12
 70
     1
102
RTVSPropertyOp13
 70
     1
102
RTVSPropertyOp14
 70
     1
102
RTVSPropertyOp15
 70
     1
102
RTVSPropertyOp16
 70
     1
102
RTVSPropertyOp17
 70
     1
102
RTVSPropertyOp18
 70
     1
102
RTVSPropertyOp19
 70
     1
102
RTVSPropertyOp20
 70
     1
102
RTVSPropertyOp21
 70
     1
102
RTVSPropertyOp22
 70
     1
102
RTVSPropertyOp23
 70
     1
102
RTVSPropertyOp24
 70
     1
102
RTVSPropertyOp25
 70
     1
102
RTVSPropertyOp26
 70
     1
102
RTVSPropertyOp27
 70
     1
102
RTVSPropertyOp28
 70
     1
102
RTVSPropertyOp29
 70
     1
102
RTVSPropertyOp30
 70
     1
102
RTVSPropertyOp31
 70
     1
102
RTVSPropertyOp32
 70
     1
  0
XRECORD
  5
7E6
102
{ACAD_REACTORS
330
7E5
102
}
330
7E5
100
AcDbXrecord
280
     1
102
RTVSPropertyOp0
 70
     1
102
RTVSPropertyOp1
 70
     1
102
RTVSPropertyOp2
 70
     1
102
RTVSPropertyOp3
 70
     1
102
RTVSPropertyOp4
 70
     1
102
RTVSPropertyOp5
 70
     1
102
RTVSPropertyOp6
 70
     1
102
RTVSPropertyOp7
 70
     1
102
RTVSPropertyOp8
 70
     1
102
RTVSPropertyOp9
 70
     1
102
RTVSPropertyOp10
 70
     1
102
RTVSPropertyOp11
 70
     1
102
RTVSPropertyOp12
 70
     1
102
RTVSPropertyOp13
 70
     1
102
RTVSPropertyOp14
 70
     1
102
RTVSPropertyOp15
 70
     1
102
RTVSPropertyOp16
 70
     1
102
RTVSPropertyOp17
 70
     1
102
RTVSPropertyOp18
 70
     1
102
RTVSPropertyOp19
 70
     1
102
RTVSPropertyOp20
 70
     1
102
RTVSPropertyOp21
 70
     1
102
RTVSPropertyOp22
 70
     1
102
RTVSPropertyOp23
 70
     1
102
RTVSPropertyOp24
 70
     1
102
RTVSPropertyOp25
 70
     1
102
RTVSPropertyOp26
 70
     1
102
RTVSPropertyOp27
 70
     1
102
RTVSPropertyOp28
 70
     1
102
RTVSPropertyOp29
 70
     1
102
RTVSPropertyOp30
 70
     1
102
RTVSPropertyOp31
 70
     1
102
RTVSPropertyOp32
 70
     1
  0
XRECORD
  5
7DC
102
{ACAD_REACTORS
330
7DB
102
}
330
7DB
100
AcDbXrecord
280
     1
102
RTVSPropertyOp0
 70
     1
102
RTVSPropertyOp1
 70
     1
102
RTVSPropertyOp2
 70
     1
102
RTVSPropertyOp3
 70
     1
102
RTVSPropertyOp4
 70
     1
102
RTVSPropertyOp5
 70
     1
102
RTVSPropertyOp6
 70
     1
102
RTVSPropertyOp7
 70
     1
102
RTVSPropertyOp8
 70
     1
102
RTVSPropertyOp9
 70
     1
102
RTVSPropertyOp10
 70
     1
102
RTVSPropertyOp11
 70
     1
102
RTVSPropertyOp12
 70
     1
102
RTVSPropertyOp13
 70
     1
102
RTVSPropertyOp14
 70
     1
102
RTVSPropertyOp15
 70
     1
102
RTVSPropertyOp16
 70
     1
102
RTVSPropertyOp17
 70
     1
102
RTVSPropertyOp18
 70
     1
102
RTVSPropertyOp19
 70
     1
102
RTVSPropertyOp20
 70
     1
102
RTVSPropertyOp21
 70
     1
102
RTVSPropertyOp22
 70
     1
102
RTVSPropertyOp23
 70
     1
102
RTVSPropertyOp24
 70
     1
102
RTVSPropertyOp25
 70
     1
102
RTVSPropertyOp26
 70
     1
102
RTVSPropertyOp27
 70
     1
102
RTVSPropertyOp28
 70
     1
102
RTVSPropertyOp29
 70
     1
102
RTVSPropertyOp30
 70
     1
102
RTVSPropertyOp31
 70
     1
102
RTVSPropertyOp32
 70
     1
  0
XRECORD
  5
7D0
102
{ACAD_REACTORS
330
7CF
102
}
330
7CF
100
AcDbXrecord
280
     1
102
RTVSPropertyOp0
 70
     1
102
RTVSPropertyOp1
 70
     1
102
RTVSPropertyOp2
 70
     1
102
RTVSPropertyOp3
 70
     1
102
RTVSPropertyOp4
 70
     1
102
RTVSPropertyOp5
 70
     1
102
RTVSPropertyOp6
 70
     1
102
RTVSPropertyOp7
 70
     1
102
RTVSPropertyOp8
 70
     1
102
RTVSPropertyOp9
 70
     1
102
RTVSPropertyOp10
 70
     1
102
RTVSPropertyOp11
 70
     1
102
RTVSPropertyOp12
 70
     1
102
RTVSPropertyOp13
 70
     1
102
RTVSPropertyOp14
 70
     1
102
RTVSPropertyOp15
 70
     1
102
RTVSPropertyOp16
 70
     1
102
RTVSPropertyOp17
 70
     1
102
RTVSPropertyOp18
 70
     1
102
RTVSPropertyOp19
 70
     1
102
RTVSPropertyOp20
 70
     1
102
RTVSPropertyOp21
 70
     1
102
RTVSPropertyOp22
 70
     1
102
RTVSPropertyOp23
 70
     1
102
RTVSPropertyOp24
 70
     1
102
RTVSPropertyOp25
 70
     1
102
RTVSPropertyOp26
 70
     1
102
RTVSPropertyOp27
 70
     1
102
RTVSPropertyOp28
 70
     1
102
RTVSPropertyOp29
 70
     1
102
RTVSPropertyOp30
 70
     1
102
RTVSPropertyOp31
 70
     1
102
RTVSPropertyOp32
 70
     1
  0
XRECORD
  5
7E8
102
{ACAD_REACTORS
330
7E7
102
}
330
7E7
100
AcDbXrecord
280
     1
102
RTVSPropertyOp0
 70
     1
102
RTVSPropertyOp1
 70
     1
102
RTVSPropertyOp2
 70
     1
102
RTVSPropertyOp3
 70
     1
102
RTVSPropertyOp4
 70
     1
102
RTVSPropertyOp5
 70
     1
102
RTVSPropertyOp6
 70
     1
102
RTVSPropertyOp7
 70
     1
102
RTVSPropertyOp8
 70
     1
102
RTVSPropertyOp9
 70
     1
102
RTVSPropertyOp10
 70
     1
102
RTVSPropertyOp11
 70
     1
102
RTVSPropertyOp12
 70
     1
102
RTVSPropertyOp13
 70
     1
102
RTVSPropertyOp14
 70
     1
102
RTVSPropertyOp15
 70
     1
102
RTVSPropertyOp16
 70
     1
102
RTVSPropertyOp17
 70
     1
102
RTVSPropertyOp18
 70
     1
102
RTVSPropertyOp19
 70
     1
102
RTVSPropertyOp20
 70
     1
102
RTVSPropertyOp21
 70
     1
102
RTVSPropertyOp22
 70
     1
102
RTVSPropertyOp23
 70
     1
102
RTVSPropertyOp24
 70
     1
102
RTVSPropertyOp25
 70
     1
102
RTVSPropertyOp26
 70
     1
102
RTVSPropertyOp27
 70
     1
102
RTVSPropertyOp28
 70
     1
102
RTVSPropertyOp29
 70
     1
102
RTVSPropertyOp30
 70
     1
102
RTVSPropertyOp31
 70
     1
102
RTVSPropertyOp32
 70
     1
  0
ENDSEC
  0
EOF
