  0
SECTION
  2
HEADER
  9
$ACADVER
  1
AC1015
  9
$ACADMAINTVER
 70
    18
  9
$DWGCODEPAGE
  3
ANSI_1252
  9
$INSBASE
 10
0.0
 20
0.0
 30
0.0
  9
$EXTMIN
 10
0.0
 20
0.0
 30
0.0
  9
$EXTMAX
 10
97.14285714285715
 20
62.85714285714286
 30
0.0
  9
$LIMMIN
 10
0.0
 20
0.0
  9
$LIMMAX
 10
97.14285714285715
 20
62.85714285714286
  9
$ORTHOMODE
 70
     0
  9
$REGENMODE
 70
     1
  9
$FILLMODE
 70
     1
  9
$QTEXTMODE
 70
     0
  9
$MIRRTEXT
 70
     0
  9
$LTSCALE
 40
5.714285714285714
  9
$ATTMODE
 70
     1
  9
$TEXTSIZE
 40
0.2
  9
$TRACEWID
 40
0.05
  9
$TEXTSTYLE
  7
Standard
  9
$CLAYER
  8
0
  9
$CELTYPE
  6
ByLayer
  9
$CECOLOR
 62
   256
  9
$CELTSCALE
 40
1.0
  9
$DISPSILH
 70
     0
  9
$DIMSCALE
 40
1.0
  9
$DIMASZ
 40
0.0708661417322835
  9
$DIMEXO
 40
0.0625
  9
$DIMDLI
 40
0.38
  9
$DIMRND
 40
0.0
  9
$DIMDLE
 40
0.0
  9
$DIMEXE
 40
0.18
  9
$DIMTP
 40
0.0
  9
$DIMTM
 40
0.0
  9
$DIMTXT
 40
0.0708661417322835
  9
$DIMCEN
 40
0.09
  9
$DIMTSZ
 40
0.0
  9
$DIMTOL
 70
     0
  9
$DIMLIM
 70
     0
  9
$DIMTIH
 70
     1
  9
$DIMTOH
 70
     1
  9
$DIMSE1
 70
     0
  9
$DIMSE2
 70
     0
  9
$DIMTAD
 70
     0
  9
$DIMZIN
 70
     0
  9
$DIMBLK
  1

  9
$DIMASO
 70
     1
  9
$DIMSHO
 70
     1
  9
$DIMPOST
  1

  9
$DIMAPOST
  1

  9
$DIMALT
 70
     0
  9
$DIMALTD
 70
     2
  9
$DIMALTF
 40
25.4
  9
$DIMLFAC
 40
1.0
  9
$DIMTOFL
 70
     0
  9
$DIMTVP
 40
0.0
  9
$DIMTIX
 70
     0
  9
$DIMSOXD
 70
     0
  9
$DIMSAH
 70
     0
  9
$DIMBLK1
  1

  9
$DIMBLK2
  1

  9
$DIMSTYLE
  2
Standard
  9
$DIMCLRD
 70
     0
  9
$DIMCLRE
 70
     0
  9
$DIMCLRT
 70
     0
  9
$DIMTFAC
 40
1.0
  9
$DIMGAP
 40
0.09
  9
$DIMJUST
 70
     0
  9
$DIMSD1
 70
     0
  9
$DIMSD2
 70
     0
  9
$DIMTOLJ
 70
     1
  9
$DIMTZIN
 70
     0
  9
$DIMALTZ
 70
     0
  9
$DIMALTTZ
 70
     0
  9
$DIMUPT
 70
     0
  9
$DIMDEC
 70
     4
  9
$DIMTDEC
 70
     4
  9
$DIMALTU
 70
     2
  9
$DIMALTTD
 70
     2
  9
$DIMTXSTY
  7
Standard
  9
$DIMAUNIT
 70
     0
  9
$DIMADEC
 70
     0
  9
$DIMALTRND
 40
0.0
  9
$DIMAZIN
 70
     0
  9
$DIMDSEP
 70
    46
  9
$DIMATFIT
 70
     3
  9
$DIMFRAC
 70
     0
  9
$DIMLDRBLK
  1

  9
$DIMLUNIT
 70
     2
  9
$DIMLWD
 70
    -2
  9
$DIMLWE
 70
    -2
  9
$DIMTMOVE
 70
     0
  9
$LUNITS
 70
     2
  9
$LUPREC
 70
     4
  9
$SKETCHINC
 40
0.1
  9
$FILLETRAD
 40
0.0
  9
$AUNITS
 70
     0
  9
$AUPREC
 70
     0
  9
$MENU
  1
.
  9
$ELEVATION
 40
0.0
  9
$PELEVATION
 40
0.0
  9
$THICKNESS
 40
0.0
  9
$LIMCHECK
 70
     0
  9
$CHAMFERA
 40
0.0
  9
$CHAMFERB
 40
0.0
  9
$CHAMFERC
 40
0.0
  9
$CHAMFERD
 40
0.0
  9
$SKPOLY
 70
     0
  9
$TDCREATE
 40
2455986.396932477
  9
$TDUCREATE
 40
2455986.646932477
  9
$TDUPDATE
 40
2455986.396932477
  9
$TDUUPDATE
 40
2455986.646932477
  9
$TDINDWG
 40
0.0000356366
  9
$TDUSRTIMER
 40
0.0000356366
  9
$USRTIMER
 70
     1
  9
$ANGBASE
 50
0.0
  9
$ANGDIR
 70
     0
  9
$PDMODE
 70
     0
  9
$PDSIZE
 40
0.0
  9
$PLINEWID
 40
0.0
  9
$SPLFRAME
 70
     0
  9
$SPLINETYPE
 70
     6
  9
$SPLINESEGS
 70
     8
  9
$HANDSEED
  5
A49
  9
$SURFTAB1
 70
     6
  9
$SURFTAB2
 70
     6
  9
$SURFTYPE
 70
     6
  9
$SURFU
 70
     6
  9
$SURFV
 70
     6
  9
$UCSBASE
  2

  9
$UCSNAME
  2

  9
$UCSORG
 10
0.0
 20
0.0
 30
0.0
  9
$UCSXDIR
 10
1.0
 20
0.0
 30
0.0
  9
$UCSYDIR
 10
0.0
 20
1.0
 30
0.0
  9
$UCSORTHOREF
  2

  9
$UCSORTHOVIEW
 70
     0
  9
$UCSORGTOP
 10
0.0
 20
0.0
 30
0.0
  9
$UCSORGBOTTOM
 10
0.0
 20
0.0
 30
0.0
  9
$UCSORGLEFT
 10
0.0
 20
0.0
 30
0.0
  9
$UCSORGRIGHT
 10
0.0
 20
0.0
 30
0.0
  9
$UCSORGFRONT
 10
0.0
 20
0.0
 30
0.0
  9
$UCSORGBACK
 10
0.0
 20
0.0
 30
0.0
  9
$PUCSBASE
  2

  9
$PUCSNAME
  2

  9
$PUCSORG
 10
0.0
 20
0.0
 30
0.0
  9
$PUCSXDIR
 10
1.0
 20
0.0
 30
0.0
  9
$PUCSYDIR
 10
0.0
 20
1.0
 30
0.0
  9
$PUCSORTHOREF
  2

  9
$PUCSORTHOVIEW
 70
     0
  9
$PUCSORGTOP
 10
0.0
 20
0.0
 30
0.0
  9
$PUCSORGBOTTOM
 10
0.0
 20
0.0
 30
0.0
  9
$PUCSORGLEFT
 10
0.0
 20
0.0
 30
0.0
  9
$PUCSORGRIGHT
 10
0.0
 20
0.0
 30
0.0
  9
$PUCSORGFRONT
 10
0.0
 20
0.0
 30
0.0
  9
$PUCSORGBACK
 10
0.0
 20
0.0
 30
0.0
  9
$USERI1
 70
     0
  9
$USERI2
 70
     0
  9
$USERI3
 70
     0
  9
$USERI4
 70
     0
  9
$USERI5
 70
     0
  9
$USERR1
 40
0.0
  9
$USERR2
 40
0.0
  9
$USERR3
 40
0.0
  9
$USERR4
 40
0.0
  9
$USERR5
 40
0.0
  9
$WORLDVIEW
 70
     1
  9
$SHADEDGE
 70
     3
  9
$SHADEDIF
 70
    70
  9
$TILEMODE
 70
     1
  9
$MAXACTVP
 70
    64
  9
$PINSBASE
 10
0.0
 20
0.0
 30
0.0
  9
$PLIMCHECK
 70
     0
  9
$PEXTMIN
 10
0.0
 20
0.0
 30
0.0
  9
$PEXTMAX
 10
97.14285714285715
 20
62.85714285714286
 30
0.0
  9
$PLIMMIN
 10
0.0
 20
0.0
  9
$PLIMMAX
 10
97.14285714285715
 20
62.85714285714286
  9
$UNITMODE
 70
     0
  9
$VISRETAIN
 70
     1
  9
$PLINEGEN
 70
     0
  9
$PSLTSCALE
 70
     1
  9
$TREEDEPTH
 70
  3020
  9
$CMLSTYLE
  2
Standard
  9
$CMLJUST
 70
     0
  9
$CMLSCALE
 40
1.0
  9
$PROXYGRAPHICS
 70
     1
  9
$MEASUREMENT
 70
     0
  9
$CELWEIGHT
370
    -1
  9
$ENDCAPS
280
     0
  9
$JOINSTYLE
280
     0
  9
$LWDISPLAY
290
     0
  9
$INSUNITS
 70
     1
  9
$HYPERLINKBASE
  1

  9
$STYLESHEET
  1

  9
$XEDIT
290
     1
  9
$CEPSNTYPE
380
     0
  9
$PSTYLEMODE
290
     1
  9
$FINGERPRINTGUID
  2
{BDF9F09C-A1E3-4C1C-9F0F-A4A5B3729B8F}
  9
$VERSIONGUID
  2
{CA2F1332-6B49-487C-A351-711BCAE836EF}
  9
$EXTNAMES
290
     1
  9
$PSVPSCALE
 40
0.0
  9
$OLESTARTUP
290
     0
  0
ENDSEC
  0
SECTION
  2
CLASSES
  0
CLASS
  1
ACDBDICTIONARYWDFLT
  2
AcDbDictionaryWithDefault
  3
ObjectDBX Classes
 90
        0
280
     0
281
     0
  0
CLASS
  1
MATERIAL
  2
AcDbMaterial
  3
ObjectDBX Classes
 90
     1153
280
     0
281
     0
  0
CLASS
  1
VISUALSTYLE
  2
AcDbVisualStyle
  3
ObjectDBX Classes
 90
     4095
280
     0
281
     0
  0
CLASS
  1
SCALE
  2
AcDbScale
  3
ObjectDBX Classes
 90
     1153
280
     0
281
     0
  0
CLASS
  1
TABLESTYLE
  2
AcDbTableStyle
  3
ObjectDBX Classes
 90
     4095
280
     0
281
     0
  0
CLASS
  1
MLEADERSTYLE
  2
AcDbMLeaderStyle
  3
ACDB_MLEADERSTYLE_CLASS
 90
     4095
280
     0
281
     0
  0
CLASS
  1
DICTIONARYVAR
  2
AcDbDictionaryVar
  3
ObjectDBX Classes
 90
        0
280
     0
281
     0
  0
CLASS
  1
CELLSTYLEMAP
  2
AcDbCellStyleMap
  3
ObjectDBX Classes
 90
     1152
280
     0
281
     0
  0
CLASS
  1
ACDBPLACEHOLDER
  2
AcDbPlaceHolder
  3
ObjectDBX Classes
 90
        0
280
     0
281
     0
  0
CLASS
  1
LAYOUT
  2
AcDbLayout
  3
ObjectDBX Classes
 90
        0
280
     0
281
     0
  0
ENDSEC
  0
SECTION
  2
TABLES
  0
TABLE
  2
VPORT
  5
8
330
0
100
AcDbSymbolTable
 70
     1
  0
VPORT
  5
57
330
8
100
AcDbSymbolTableRecord
100
AcDbViewportTableRecord
  2
*Active
 70
     0
 10
0.0
 20
0.0
 11
1.0
 21
1.0
 12
48.57142857142857
 22
31.42857142857143
 13
0.0
 23
0.0
 14
1.0
 24
1.0
 15
0.0
 25
0.0
 16
0.0
 26
0.0
 36
1.0
 17
0.0
 27
0.0
 37
0.0
 40
62.85714285714286
 41
1.545454545454545
 42
50.0
 43
0.0
 44
0.0
 50
0.0
 51
0.0
 71
     0
 72
   100
 73
     1
 74
     1
 75
     0
 76
     0
 77
     0
 78
     0
281
     0
 65
     1
110
0.0
120
0.0
130
0.0
111
1.0
121
0.0
131
0.0
112
0.0
122
1.0
132
0.0
 79
     0
146
0.0
  0
ENDTAB
  0
TABLE
  2
LTYPE
  5
5
330
0
100
AcDbSymbolTable
 70
    59
  0
LTYPE
  5
5B
330
5
100
AcDbSymbolTableRecord
100
AcDbLinetypeTableRecord
  2
ByBlock
 70
     0
  3

 72
    65
 73
     0
 40
0.0
  0
LTYPE
  5
5C
330
5
100
AcDbSymbolTableRecord
100
AcDbLinetypeTableRecord
  2
ByLayer
 70
     0
  3

 72
    65
 73
     0
 40
0.0
  0
LTYPE
  5
5D
330
5
100
AcDbSymbolTableRecord
100
AcDbLinetypeTableRecord
  2
Continuous
 70
     0
  3
Solid line
 72
    65
 73
     0
 40
0.0
  0
LTYPE
  5
7C
330
5
100
AcDbSymbolTableRecord
100
AcDbLinetypeTableRecord
  2
BY_STANDARD
 70
     0
  3
By Standard ____________    ____    ____   _
 72
    65
 73
     6
 40
1.240299999999999
 49
0.6614
 74
     0
 49
-0.0827
 74
     0
 49
0.1654
 74
     0
 49
-0.0827
 74
     0
 49
0.1654
 74
     0
 49
-0.0827
 74
     0
  0
LTYPE
  5
7D
330
5
100
AcDbSymbolTableRecord
100
AcDbLinetypeTableRecord
  2
CHAIN
 70
     0
  3
Chain ____ _ ____ _ ____ _ ____ _ ____ _ ____
 72
    65
 73
     4
 40
0.7087
 49
0.4724000000000001
 74
     0
 49
-0.0591
 74
     0
 49
0.1181
 74
     0
 49
-0.0591
 74
     0
  0
LTYPE
  5
7E
330
5
100
AcDbSymbolTableRecord
100
AcDbLinetypeTableRecord
  2
DASH_DOT
 70
     0
  3
Dash dot __ . __ . __ . __ . __ . __ . __ . __
 72
    65
 73
     4
 40
0.37
 49
0.24
 74
     0
 49
-0.06
 74
     0
 49
0.01
 74
     0
 49
-0.06
 74
     0
  0
LTYPE
  5
7F
330
5
100
AcDbSymbolTableRecord
100
AcDbLinetypeTableRecord
  2
DOUBLE_DASH_DOT
 70
     0
  3
Double-Dash Dot __ __ . __ __ . __ __ . __ _
 72
    65
 73
     6
 40
0.4398
 49
0.24
 74
     0
 49
-0.06
 74
     0
 49
0.0098
 74
     0
 49
-0.06
 74
     0
 49
0.01
 74
     0
 49
-0.06
 74
     0
  0
LTYPE
  5
80
330
5
100
AcDbSymbolTableRecord
100
AcDbLinetypeTableRecord
  2
DASH_TRIPLE_DOT
 70
     0
  3
Dash Triple-Dot _ . . . _ . . . _ . . . _
 72
    65
 73
     8
 40
0.51
 49
0.24
 74
     0
 49
-0.06
 74
     0
 49
0.01
 74
     0
 49
-0.06
 74
     0
 49
0.01
 74
     0
 49
-0.06
 74
     0
 49
0.01
 74
     0
 49
-0.06
 74
     0
  0
LTYPE
  5
81
330
5
100
AcDbSymbolTableRecord
100
AcDbLinetypeTableRecord
  2
DASHED
 70
     0
  3
Dashed __ __ __ __ __ __ __ __ __ __ __ __ __ _
 72
    65
 73
     2
 40
0.2067
 49
0.1654
 74
     0
 49
-0.0413
 74
     0
  0
LTYPE
  5
82
330
5
100
AcDbSymbolTableRecord
100
AcDbLinetypeTableRecord
  2
DASH_DOUBLE_DOT
 70
     0
  3
Dash Double-Dot __ . . __ . . __ . . __ . .
 72
    65
 73
     6
 40
0.4398
 49
0.24
 74
     0
 49
-0.06
 74
     0
 49
0.0098
 74
     0
 49
-0.06
 74
     0
 49
0.01
 74
     0
 49
-0.06
 74
     0
  0
LTYPE
  5
83
330
5
100
AcDbSymbolTableRecord
100
AcDbLinetypeTableRecord
  2
DASHED_SPACE
 70
     0
  3
Dashed Space __ __ __ __ __ __ __ __ __ __ __ _
 72
    65
 73
     2
 40
0.2067
 49
0.1654
 74
     0
 49
-0.0413
 74
     0
  0
LTYPE
  5
84
330
5
100
AcDbSymbolTableRecord
100
AcDbLinetypeTableRecord
  2
DOTTED
 70
     0
  3
Dotted . . . . . . . . . . . . . . . . . . . . 
 72
    65
 73
     2
 40
0.0482
 49
0.0069
 74
     0
 49
-0.0413
 74
     0
  0
LTYPE
  5
85
330
5
100
AcDbSymbolTableRecord
100
AcDbLinetypeTableRecord
  2
DOUBLE_DASH_CHAIN
 70
     0
  3
Double-Dash Chain ______  __  __  ______  __  _
 72
    65
 73
     6
 40
1.240299999999999
 49
0.6614
 74
     0
 49
-0.0827
 74
     0
 49
0.1654
 74
     0
 49
-0.0827
 74
     0
 49
0.1654
 74
     0
 49
-0.0827
 74
     0
  0
LTYPE
  5
87
330
5
100
AcDbSymbolTableRecord
100
AcDbLinetypeTableRecord
  2
DOUBLE_DASH_DOUBLE_DOT
 70
     0
  3
Double-Dash Double-dot _ _ . . _ _ . . _
 72
    65
 73
     8
 40
0.7400000000000001
 49
0.24
 74
     0
 49
-0.06
 74
     0
 49
0.24
 74
     0
 49
-0.06
 74
     0
 49
0.01
 74
     0
 49
-0.06
 74
     0
 49
0.01
 74
     0
 49
-0.06
 74
     0
  0
LTYPE
  5
88
330
5
100
AcDbSymbolTableRecord
100
AcDbLinetypeTableRecord
  2
DOUBLE_DASH_TRIPLE_DOT
 70
     0
  3
Double Dash Triple Dot __ __ . . . __ __ . .
 72
    65
 73
    10
 40
0.8100000000000001
 49
0.24
 74
     0
 49
-0.06
 74
     0
 49
0.24
 74
     0
 49
-0.06
 74
     0
 49
0.01
 74
     0
 49
-0.06
 74
     0
 49
0.01
 74
     0
 49
-0.06
 74
     0
 49
0.01
 74
     0
 49
-0.06
 74
     0
  0
LTYPE
  5
89
330
5
100
AcDbSymbolTableRecord
100
AcDbLinetypeTableRecord
  2
LONG_DASH_DOTTED
 70
     0
  3
Long Dash Dotted ____ . ____ . ____ . ____ . _
 72
    65
 73
     4
 40
0.3543
 49
0.2362
 74
     0
 49
-0.0295
 74
     0
 49
0.0591
 74
     0
 49
-0.0295
 74
     0
  0
LTYPE
  5
8A
330
5
100
AcDbSymbolTableRecord
100
AcDbLinetypeTableRecord
  2
LONG_DASH_DOUBLE_DOT
 70
     0
  3
Long Dash Double Dot ________  .  .  ________  
 72
    65
 73
     6
 40
0.6799999999999999
 49
0.48
 74
     0
 49
-0.06
 74
     0
 49
0.01
 74
     0
 49
-0.06
 74
     0
 49
0.01
 74
     0
 49
-0.06
 74
     0
  0
LTYPE
  5
8B
330
5
100
AcDbSymbolTableRecord
100
AcDbLinetypeTableRecord
  2
LONG_DASH_TRIPLE_DOT
 70
     0
  3
Long Dash Triple Dot ____ ... ____ ... ____
 72
    65
 73
     8
 40
0.3689
 49
0.2362
 74
     0
 49
-0.0295
 74
     0
 49
0.0049
 74
     0
 49
-0.0295
 74
     0
 49
0.0049
 74
     0
 49
-0.0295
 74
     0
 49
0.0049
 74
     0
 49
-0.0295
 74
     0
  0
LTYPE
  5
8C
330
5
100
AcDbSymbolTableRecord
100
AcDbLinetypeTableRecord
  2
BORDER
 70
     0
  3
Border __ __ . __ __ . __ __ . __ __ . __ __ .
 72
    65
 73
     6
 40
1.75
 49
0.5
 74
     0
 49
-0.25
 74
     0
 49
0.5
 74
     0
 49
-0.25
 74
     0
 49
0.0
 74
     0
 49
-0.25
 74
     0
  0
LTYPE
  5
8D
330
5
100
AcDbSymbolTableRecord
100
AcDbLinetypeTableRecord
  2
BORDER2
 70
     0
  3
Border (.5x) __.__.__.__.__.__.__.__.__.__.__.
 72
    65
 73
     6
 40
0.875
 49
0.25
 74
     0
 49
-0.125
 74
     0
 49
0.25
 74
     0
 49
-0.125
 74
     0
 49
0.0
 74
     0
 49
-0.125
 74
     0
  0
LTYPE
  5
8E
330
5
100
AcDbSymbolTableRecord
100
AcDbLinetypeTableRecord
  2
BORDERX2
 70
     0
  3
Border (2x) ____  ____  .  ____  ____  .  ___
 72
    65
 73
     6
 40
3.5
 49
1.0
 74
     0
 49
-0.5
 74
     0
 49
1.0
 74
     0
 49
-0.5
 74
     0
 49
0.0
 74
     0
 49
-0.5
 74
     0
  0
LTYPE
  5
8F
330
5
100
AcDbSymbolTableRecord
100
AcDbLinetypeTableRecord
  2
CENTER
 70
     0
  3
Center ____ _ ____ _ ____ _ ____ _ ____ _ ____
 72
    65
 73
     4
 40
2.0
 49
1.25
 74
     0
 49
-0.25
 74
     0
 49
0.25
 74
     0
 49
-0.25
 74
     0
  0
LTYPE
  5
90
330
5
100
AcDbSymbolTableRecord
100
AcDbLinetypeTableRecord
  2
CENTER2
 70
     0
  3
Center (.5x) ___ _ ___ _ ___ _ ___ _ ___ _ ___
 72
    65
 73
     4
 40
1.125
 49
0.75
 74
     0
 49
-0.125
 74
     0
 49
0.125
 74
     0
 49
-0.125
 74
     0
  0
LTYPE
  5
91
330
5
100
AcDbSymbolTableRecord
100
AcDbLinetypeTableRecord
  2
CENTERX2
 70
     0
  3
Center (2x) ________  __  ________  __  _____
 72
    65
 73
     4
 40
4.0
 49
2.5
 74
     0
 49
-0.5
 74
     0
 49
0.5
 74
     0
 49
-0.5
 74
     0
  0
LTYPE
  5
92
330
5
100
AcDbSymbolTableRecord
100
AcDbLinetypeTableRecord
  2
DASHDOT2
 70
     0
  3
Dash dot (.5x) _._._._._._._._._._._._._._._.
 72
    65
 73
     4
 40
0.5
 49
0.25
 74
     0
 49
-0.125
 74
     0
 49
0.0
 74
     0
 49
-0.125
 74
     0
  0
LTYPE
  5
93
330
5
100
AcDbSymbolTableRecord
100
AcDbLinetypeTableRecord
  2
DASHDOTX2
 70
     0
  3
Dash dot (2x) ____  .  ____  .  ____  .  ___
 72
    65
 73
     4
 40
2.0
 49
1.0
 74
     0
 49
-0.5
 74
     0
 49
0.0
 74
     0
 49
-0.5
 74
     0
  0
LTYPE
  5
95
330
5
100
AcDbSymbolTableRecord
100
AcDbLinetypeTableRecord
  2
DASHED2
 70
     0
  3
Dashed (.5x) _ _ _ _ _ _ _ _ _ _ _ _ _ _ _ _ _
 72
    65
 73
     2
 40
0.375
 49
0.25
 74
     0
 49
-0.125
 74
     0
  0
LTYPE
  5
96
330
5
100
AcDbSymbolTableRecord
100
AcDbLinetypeTableRecord
  2
DASHEDX2
 70
     0
  3
Dashed (2x) ____  ____  ____  ____  ____  ___
 72
    65
 73
     2
 40
1.5
 49
1.0
 74
     0
 49
-0.5
 74
     0
  0
LTYPE
  5
97
330
5
100
AcDbSymbolTableRecord
100
AcDbLinetypeTableRecord
  2
DIVIDE
 70
     0
  3
Divide ____ . . ____ . . ____ . . ____ . . ____
 72
    65
 73
     6
 40
1.25
 49
0.5
 74
     0
 49
-0.25
 74
     0
 49
0.0
 74
     0
 49
-0.25
 74
     0
 49
0.0
 74
     0
 49
-0.25
 74
     0
  0
LTYPE
  5
98
330
5
100
AcDbSymbolTableRecord
100
AcDbLinetypeTableRecord
  2
DIVIDE2
 70
     0
  3
Divide (.5x) __..__..__..__..__..__..__..__.._
 72
    65
 73
     6
 40
0.625
 49
0.25
 74
     0
 49
-0.125
 74
     0
 49
0.0
 74
     0
 49
-0.125
 74
     0
 49
0.0
 74
     0
 49
-0.125
 74
     0
  0
LTYPE
  5
99
330
5
100
AcDbSymbolTableRecord
100
AcDbLinetypeTableRecord
  2
DIVIDEX2
 70
     0
  3
Divide (2x) ________  .  .  ________  .  .  _
 72
    65
 73
     6
 40
2.5
 49
1.0
 74
     0
 49
-0.5
 74
     0
 49
0.0
 74
     0
 49
-0.5
 74
     0
 49
0.0
 74
     0
 49
-0.5
 74
     0
  0
LTYPE
  5
9A
330
5
100
AcDbSymbolTableRecord
100
AcDbLinetypeTableRecord
  2
DOT
 70
     0
  3
Dot . . . . . . . . . . . . . . . . . . . . . .
 72
    65
 73
     2
 40
0.25
 49
0.0
 74
     0
 49
-0.25
 74
     0
  0
LTYPE
  5
9B
330
5
100
AcDbSymbolTableRecord
100
AcDbLinetypeTableRecord
  2
DOT2
 70
     0
  3
Dot (.5x) .....................................
 72
    65
 73
     2
 40
0.125
 49
0.0
 74
     0
 49
-0.125
 74
     0
  0
LTYPE
  5
9C
330
5
100
AcDbSymbolTableRecord
100
AcDbLinetypeTableRecord
  2
DOTX2
 70
     0
  3
Dot (2x) .  .  .  .  .  .  .  .  .  .  .  .  . 
 72
    65
 73
     2
 40
0.5
 49
0.0
 74
     0
 49
-0.5
 74
     0
  0
LTYPE
  5
9D
330
5
100
AcDbSymbolTableRecord
100
AcDbLinetypeTableRecord
  2
HIDDEN
 70
     0
  3
Hidden __ __ __ __ __ __ __ __ __ __ __ __ __ _
 72
    65
 73
     2
 40
0.375
 49
0.25
 74
     0
 49
-0.125
 74
     0
  0
LTYPE
  5
9E
330
5
100
AcDbSymbolTableRecord
100
AcDbLinetypeTableRecord
  2
HIDDEN2
 70
     0
  3
Hidden (.5x) _ _ _ _ _ _ _ _ _ _ _ _ _ _ _ _ _
 72
    65
 73
     2
 40
0.1875
 49
0.125
 74
     0
 49
-0.0625
 74
     0
  0
LTYPE
  5
9F
330
5
100
AcDbSymbolTableRecord
100
AcDbLinetypeTableRecord
  2
HIDDENX2
 70
     0
  3
Hidden (2x) ____ ____ ____ ____ ____ ____ ____
 72
    65
 73
     2
 40
0.75
 49
0.5
 74
     0
 49
-0.25
 74
     0
  0
LTYPE
  5
A0
330
5
100
AcDbSymbolTableRecord
100
AcDbLinetypeTableRecord
  2
PHANTOM
 70
     0
  3
Phantom ______  __  __  ______  __  __  ______
 72
    65
 73
     6
 40
2.5
 49
1.25
 74
     0
 49
-0.25
 74
     0
 49
0.25
 74
     0
 49
-0.25
 74
     0
 49
0.25
 74
     0
 49
-0.25
 74
     0
  0
LTYPE
  5
A1
330
5
100
AcDbSymbolTableRecord
100
AcDbLinetypeTableRecord
  2
PHANTOM2
 70
     0
  3
Phantom (.5x) ___ _ _ ___ _ _ ___ _ _ ___ _ _
 72
    65
 73
     6
 40
1.25
 49
0.625
 74
     0
 49
-0.125
 74
     0
 49
0.125
 74
     0
 49
-0.125
 74
     0
 49
0.125
 74
     0
 49
-0.125
 74
     0
  0
LTYPE
  5
A2
330
5
100
AcDbSymbolTableRecord
100
AcDbLinetypeTableRecord
  2
PHANTOMX2
 70
     0
  3
Phantom (2x) ____________    ____    ____   _
 72
    65
 73
     6
 40
5.0
 49
2.5
 74
     0
 49
-0.5
 74
     0
 49
0.5
 74
     0
 49
-0.5
 74
     0
 49
0.5
 74
     0
 49
-0.5
 74
     0
  0
LTYPE
  5
A3
330
5
100
AcDbSymbolTableRecord
100
AcDbLinetypeTableRecord
  2
ACAD_ISO02W100
 70
     0
  3
ISO dash __ __ __ __ __ __ __ __ __ __ __ __ __
 72
    65
 73
     2
 40
0.59
 49
0.47
 74
     0
 49
-0.12
 74
     0
  0
LTYPE
  5
A4
330
5
100
AcDbSymbolTableRecord
100
AcDbLinetypeTableRecord
  2
ACAD_ISO03W100
 70
     0
  3
ISO dash space __    __    __    __    __    __
 72
    65
 73
     2
 40
1.179999999999999
 49
0.47
 74
     0
 49
-0.71
 74
     0
  0
LTYPE
  5
A5
330
5
100
AcDbSymbolTableRecord
100
AcDbLinetypeTableRecord
  2
ACAD_ISO04W100
 70
     0
  3
ISO long-dash dot ____ . ____ . ____ . ____ . _
 72
    65
 73
     4
 40
1.179999999999999
 49
0.9399999999999998
 74
     0
 49
-0.12
 74
     0
 49
0.0
 74
     0
 49
-0.12
 74
     0
  0
LTYPE
  5
A6
330
5
100
AcDbSymbolTableRecord
100
AcDbLinetypeTableRecord
  2
ACAD_ISO05W100
 70
     0
  3
ISO long-dash double-dot ____ .. ____ .. ____ .
 72
    65
 73
     6
 40
1.299999999999999
 49
0.9399999999999998
 74
     0
 49
-0.12
 74
     0
 49
0.0
 74
     0
 49
-0.12
 74
     0
 49
0.0
 74
     0
 49
-0.12
 74
     0
  0
LTYPE
  5
A7
330
5
100
AcDbSymbolTableRecord
100
AcDbLinetypeTableRecord
  2
ACAD_ISO06W100
 70
     0
  3
ISO long-dash triple-dot ____ ... ____ ... ____
 72
    65
 73
     8
 40
1.419999999999999
 49
0.9399999999999998
 74
     0
 49
-0.12
 74
     0
 49
0.0
 74
     0
 49
-0.12
 74
     0
 49
0.0
 74
     0
 49
-0.12
 74
     0
 49
0.0
 74
     0
 49
-0.12
 74
     0
  0
LTYPE
  5
A8
330
5
100
AcDbSymbolTableRecord
100
AcDbLinetypeTableRecord
  2
ACAD_ISO07W100
 70
     0
  3
ISO dot . . . . . . . . . . . . . . . . . . . .
 72
    65
 73
     2
 40
0.12
 49
0.0
 74
     0
 49
-0.12
 74
     0
  0
LTYPE
  5
A9
330
5
100
AcDbSymbolTableRecord
100
AcDbLinetypeTableRecord
  2
ACAD_ISO08W100
 70
     0
  3
ISO long-dash short-dash ____ __ ____ __ ____ _
 72
    65
 73
     4
 40
0.95
 49
0.47
 74
     0
 49
-0.12
 74
     0
 49
0.24
 74
     0
 49
-0.12
 74
     0
  0
LTYPE
  5
AA
330
5
100
AcDbSymbolTableRecord
100
AcDbLinetypeTableRecord
  2
ACAD_ISO09W100
 70
     0
  3
ISO long-dash double-short-dash ____ __ __ ____
 72
    65
 73
     6
 40
1.31
 49
0.47
 74
     0
 49
-0.12
 74
     0
 49
0.24
 74
     0
 49
-0.12
 74
     0
 49
0.24
 74
     0
 49
-0.12
 74
     0
  0
LTYPE
  5
AB
330
5
100
AcDbSymbolTableRecord
100
AcDbLinetypeTableRecord
  2
ACAD_ISO10W100
 70
     0
  3
ISO dash dot __ . __ . __ . __ . __ . __ . __ .
 72
    65
 73
     4
 40
0.71
 49
0.47
 74
     0
 49
-0.12
 74
     0
 49
0.0
 74
     0
 49
-0.12
 74
     0
  0
LTYPE
  5
AC
330
5
100
AcDbSymbolTableRecord
100
AcDbLinetypeTableRecord
  2
ACAD_ISO11W100
 70
     0
  3
ISO double-dash dot __ __ . __ __ . __ __ . __ 
 72
    65
 73
     6
 40
1.299999999999999
 49
0.47
 74
     0
 49
-0.12
 74
     0
 49
0.47
 74
     0
 49
-0.12
 74
     0
 49
0.0
 74
     0
 49
-0.12
 74
     0
  0
LTYPE
  5
AD
330
5
100
AcDbSymbolTableRecord
100
AcDbLinetypeTableRecord
  2
ACAD_ISO12W100
 70
     0
  3
ISO dash double-dot __ . . __ . . __ . . __ . .
 72
    65
 73
     6
 40
0.8299999999999998
 49
0.47
 74
     0
 49
-0.12
 74
     0
 49
0.0
 74
     0
 49
-0.12
 74
     0
 49
0.0
 74
     0
 49
-0.12
 74
     0
  0
LTYPE
  5
AE
330
5
100
AcDbSymbolTableRecord
100
AcDbLinetypeTableRecord
  2
ACAD_ISO13W100
 70
     0
  3
ISO double-dash double-dot __ __ . . __ __ . . 
 72
    65
 73
     8
 40
1.419999999999999
 49
0.47
 74
     0
 49
-0.12
 74
     0
 49
0.47
 74
     0
 49
-0.12
 74
     0
 49
0.0
 74
     0
 49
-0.12
 74
     0
 49
0.0
 74
     0
 49
-0.12
 74
     0
  0
LTYPE
  5
AF
330
5
100
AcDbSymbolTableRecord
100
AcDbLinetypeTableRecord
  2
ACAD_ISO14W100
 70
     0
  3
ISO dash triple-dot __ . . . __ . . . __ . . . 
 72
    65
 73
     8
 40
0.95
 49
0.47
 74
     0
 49
-0.12
 74
     0
 49
0.0
 74
     0
 49
-0.12
 74
     0
 49
0.0
 74
     0
 49
-0.12
 74
     0
 49
0.0
 74
     0
 49
-0.12
 74
     0
  0
LTYPE
  5
B0
330
5
100
AcDbSymbolTableRecord
100
AcDbLinetypeTableRecord
  2
ACAD_ISO15W100
 70
     0
  3
ISO double-dash triple-dot __ __ . . . __ __ . 
 72
    65
 73
    10
 40
1.539999999999999
 49
0.47
 74
     0
 49
-0.12
 74
     0
 49
0.47
 74
     0
 49
-0.12
 74
     0
 49
0.0
 74
     0
 49
-0.12
 74
     0
 49
0.0
 74
     0
 49
-0.12
 74
     0
 49
0.0
 74
     0
 49
-0.12
 74
     0
  0
LTYPE
  5
B3
330
5
100
AcDbSymbolTableRecord
100
AcDbLinetypeTableRecord
  2
FENCELINE1
 70
     0
  3
Fenceline circle ----0-----0----0-----0----0---
 72
    65
 73
     4
 40
1.45
 49
0.25
 74
     0
 49
-0.1
 74
     4
 75
   133
340
B2
 46
0.1
 50
0.0
 44
-0.1
 45
0.0
 49
-0.1
 74
     0
 49
1.0
 74
     0
  0
LTYPE
  5
B4
330
5
100
AcDbSymbolTableRecord
100
AcDbLinetypeTableRecord
  2
FENCELINE2
 70
     0
  3
Fenceline square ----[]-----[]----[]-----[]----
 72
    65
 73
     4
 40
1.45
 49
0.25
 74
     0
 49
-0.1
 74
     4
 75
   132
340
B2
 46
0.1
 50
0.0
 44
-0.1
 45
0.0
 49
-0.1
 74
     0
 49
1.0
 74
     0
  0
LTYPE
  5
B5
330
5
100
AcDbSymbolTableRecord
100
AcDbLinetypeTableRecord
  2
TRACKS
 70
     0
  3
Tracks -|-|-|-|-|-|-|-|-|-|-|-|-|-|-|-|-|-|-|-|
 72
    65
 73
     2
 40
0.3
 49
0.15
 74
     4
 75
   130
340
B2
 46
0.25
 50
0.0
 44
0.0
 45
0.0
 49
0.15
 74
     0
  0
LTYPE
  5
B6
330
5
100
AcDbSymbolTableRecord
100
AcDbLinetypeTableRecord
  2
BATTING
 70
     0
  3
Batting SSSSSSSSSSSSSSSSSSSSSSSSSSSSSSSSSSSSSSS
 72
    65
 73
     4
 40
0.4001000000000001
 49
0.0001
 74
     0
 49
-0.1
 74
     4
 75
   134
340
B2
 46
0.1
 50
0.0
 44
-0.1
 45
0.0
 49
-0.2
 74
     4
 75
   134
340
B2
 46
0.1
 50
180.0
 44
0.1
 45
0.0
 49
-0.1
 74
     0
  0
LTYPE
  5
B7
330
5
100
AcDbSymbolTableRecord
100
AcDbLinetypeTableRecord
  2
HOT_WATER_SUPPLY
 70
     0
  3
Hot water supply ---- HW ---- HW ---- HW ----
 72
    65
 73
     3
 40
0.9
 49
0.5
 74
     0
 49
-0.2
 74
     2
 75
     0
340
55
 46
0.1
 50
0.0
 44
-0.1
 45
-0.05
  9
HW
 49
-0.2
 74
     0
  0
LTYPE
  5
B8
330
5
100
AcDbSymbolTableRecord
100
AcDbLinetypeTableRecord
  2
GAS_LINE
 70
     0
  3
Gas line ----GAS----GAS----GAS----GAS----GAS---
 72
    65
 73
     3
 40
0.95
 49
0.5
 74
     0
 49
-0.2
 74
     2
 75
     0
340
55
 46
0.1
 50
0.0
 44
-0.1
 45
-0.05
  9
GAS
 49
-0.25
 74
     0
  0
LTYPE
  5
B9
330
5
100
AcDbSymbolTableRecord
100
AcDbLinetypeTableRecord
  2
ZIGZAG
 70
     0
  3
Zig zag /\/\/\/\/\/\/\/\/\/\/\/\/\/\/\/\/\/\/\/
 72
    65
 73
     4
 40
0.8001000000000001
 49
0.0001
 74
     0
 49
-0.2
 74
     4
 75
   131
340
B2
 46
0.2
 50
0.0
 44
-0.2
 45
0.0
 49
-0.4
 74
     4
 75
   131
340
B2
 46
0.2
 50
180.0
 44
0.2
 45
0.0
 49
-0.2
 74
     0
  0
ENDTAB
  0
TABLE
  2
LAYER
  5
2
330
0
100
AcDbSymbolTable
 70
    27
  0
LAYER
  5
54
330
2
100
AcDbSymbolTableRecord
100
AcDbLayerTableRecord
  2
0
 70
     0
 62
     7
  6
Continuous
370
     0
390
F
  0
LAYER
  5
C0
330
2
100
AcDbSymbolTableRecord
100
AcDbLayerTableRecord
  2
Center Mark (ANSI)
 70
     0
 62
     7
  6
Continuous
370
     5
390
F
  0
LAYER
  5
C1
330
2
100
AcDbSymbolTableRecord
100
AcDbLayerTableRecord
  2
Centerline (ANSI)
 70
     0
 62
     7
  6
Continuous
370
     5
390
F
  0
LAYER
  5
C3
330
2
100
AcDbSymbolTableRecord
100
AcDbLayerTableRecord
  2
Dimension (ANSI)
 70
     0
 62
     7
  6
Continuous
370
     5
390
F
  0
LAYER
  5
CC
330
2
100
AcDbSymbolTableRecord
100
AcDbLayerTableRecord
  2
Symbol (ANSI)
 70
     0
 62
     7
  6
Continuous
370
     5
390
F
  0
LAYER
  5
CF
330
2
100
AcDbSymbolTableRecord
100
AcDbLayerTableRecord
  2
Visible (ANSI)
 70
     0
 62
     7
  6
Continuous
370
     5
390
F
  0
LAYER
  5
D0
330
2
100
AcDbSymbolTableRecord
100
AcDbLayerTableRecord
  2
Visible Narrow (ANSI)
 70
     0
 62
     7
  6
Continuous
370
     5
390
F
  0
LAYER
  5
18F
330
2
100
AcDbSymbolTableRecord
100
AcDbLayerTableRecord
  2
Defpoints
 70
     0
 62
     7
  6
Continuous
290
     0
370
    -3
390
F
  0
ENDTAB
  0
TABLE
  2
STYLE
  5
3
330
0
100
AcDbSymbolTable
 70
    10
  0
STYLE
  5
55
330
3
100
AcDbSymbolTableRecord
100
AcDbTextStyleTableRecord
  2
Standard
 70
     0
 40
0.0
 41
1.0
 50
0.0
 71
     0
 42
0.2
  3
txt
  4

  0
STYLE
  5
5A
330
3
100
AcDbSymbolTableRecord
100
AcDbTextStyleTableRecord
  2
Annotative
 70
     0
 40
0.0
 41
1.0
 50
0.0
 71
     0
 42
0.2
  3
txt
  4

1001
AcadAnnotative
1000
AnnotativeData
1002
{
1070
     1
1070
     1
1002
}
  0
STYLE
  5
B2
330
3
100
AcDbSymbolTableRecord
100
AcDbTextStyleTableRecord
  2

 70
     1
 40
0.0
 41
1.0
 50
0.0
 71
     0
 42
0.2
  3
ltypeshp.shx
  4

  0
STYLE
  5
D4
330
3
100
AcDbSymbolTableRecord
100
AcDbTextStyleTableRecord
  2
ITALICC_120
 70
     0
 40
0.0
 41
1.0
 50
0.0
 71
     0
 42
0.2
  3
italicc.shx
  4

  0
STYLE
  5
D5
330
3
100
AcDbSymbolTableRecord
100
AcDbTextStyleTableRecord
  2
Label Text (ANSI)
 70
     0
 40
0.0
 41
1.0
 50
0.0
 71
     0
 42
0.2
  3
TAHOMA.TTF
  4

1001
ACAD
1000
Tahoma
1071
      256
  0
STYLE
  5
D6
330
3
100
AcDbSymbolTableRecord
100
AcDbTextStyleTableRecord
  2
Note Text (ANSI)
 70
     0
 40
0.0
 41
1.0
 50
0.0
 71
     0
 42
0.2
  3
RomanS.shx
  4

  0
STYLE
  5
D7
330
3
100
AcDbSymbolTableRecord
100
AcDbTextStyleTableRecord
  2
ROMANS
 70
     0
 40
0.0
 41
1.0
 50
0.0
 71
     0
 42
0.2
  3
romans.shx
  4

  0
STYLE
  5
D8
330
3
100
AcDbSymbolTableRecord
100
AcDbTextStyleTableRecord
  2
SANSSERIF_114
 70
     0
 40
0.0
 41
1.0
 50
0.0
 71
     0
 42
0.2
  3
TAHOMA.TTF
  4

1001
ACAD
1000
Tahoma
1071
      256
  0
STYLE
  5
D9
330
3
100
AcDbSymbolTableRecord
100
AcDbTextStyleTableRecord
  2
SANSSERIF_117
 70
     0
 40
0.0
 41
1.0
 50
0.0
 71
     0
 42
0.2
  3
TAHOMA.TTF
  4

1001
ACAD
1000
Tahoma
1071
      256
  0
STYLE
  5
129
330
3
100
AcDbSymbolTableRecord
100
AcDbTextStyleTableRecord
  2
Text Style168
 70
     0
 40
0.0
 41
1.0
 50
0.0
 71
     0
 42
0.2
  3
TAHOMA.TTF
  4

1001
ACAD
1000
Tahoma
1071
      256
  0
ENDTAB
  0
TABLE
  2
VIEW
  5
6
330
0
100
AcDbSymbolTable
 70
     0
  0
ENDTAB
  0
TABLE
  2
UCS
  5
7
330
0
100
AcDbSymbolTable
 70
     0
  0
ENDTAB
  0
TABLE
  2
APPID
  5
9
330
0
100
AcDbSymbolTable
 70
     4
  0
APPID
  5
56
330
9
100
AcDbSymbolTableRecord
100
AcDbRegAppTableRecord
  2
ACAD
 70
     0
  0
APPID
  5
5E
330
9
100
AcDbSymbolTableRecord
100
AcDbRegAppTableRecord
  2
AcadAnnotative
 70
     0
  0
APPID
  5
910
330
9
100
AcDbSymbolTableRecord
100
AcDbRegAppTableRecord
  2
ACAD_DSTYLE_DIMRADIAL_EXTENSION
 70
     0
  0
APPID
  5
A3E
330
9
100
AcDbSymbolTableRecord
100
AcDbRegAppTableRecord
  2
ACAD_MLEADERVER
 70
     0
  0
ENDTAB
  0
TABLE
  2
DIMSTYLE
  5
A
330
0
100
AcDbSymbolTable
 70
    15
100
AcDbDimStyleTable
 71
     2
340
E2
340
58
  0
DIMSTYLE
105
58
330
A
100
AcDbSymbolTableRecord
100
AcDbDimStyleTableRecord
  2
Standard
 70
     0
340
55
  0
DIMSTYLE
105
59
330
A
100
AcDbSymbolTableRecord
100
AcDbDimStyleTableRecord
  2
Annotative
 70
     0
340
55
1001
AcadAnnotative
1000
AnnotativeData
1002
{
1070
     1
1070
     1
1002
}
  0
DIMSTYLE
105
DA
330
A
100
AcDbSymbolTableRecord
100
AcDbDimStyleTableRecord
  2
Architectural (ANSI)
 70
     0
 40
5.714285714285714
 41
0.0984251946210861
 43
0.2362204724409449
 44
0.125
 45
0.00000001
 46
0.3937007874015748
 78
     3
 79
     3
140
0.1000000014901161
146
1.200000029802321
147
0.031496062992126
171
     1
176
   256
177
   256
178
   256
272
     2
274
     1
276
     2
277
     4
284
    12
285
     4
286
    12
340
D6
371
    -1
372
    -1
  0
DIMSTYLE
105
DB
330
A
100
AcDbSymbolTableRecord
100
AcDbDimStyleTableRecord
  2
Architectural (ANSI)$7
 70
     0
 40
5.714285714285714
 41
0.0984251946210861
 43
0.2362204724409449
 44
0.125
 45
0.00000001
 46
0.3937007874015748
 78
     3
 79
     3
140
0.1000000014901161
146
1.200000029802321
147
0.031496062992126
171
     1
176
   256
177
   256
178
   256
272
     2
274
     1
276
     2
277
     4
284
    12
285
     4
286
    12
340
D6
371
    -1
372
    -1
  0
DIMSTYLE
105
DC
330
A
100
AcDbSymbolTableRecord
100
AcDbDimStyleTableRecord
  2
Default - Fraction (ANSI)
 70
     0
 40
5.714285714285714
 41
0.0984251946210861
 43
0.2362204724409449
 44
0.125
 45
0.00000001
 46
0.3937007874015748
 79
     3
140
0.1000000014901161
146
1.200000029802321
147
0.031496062992126
171
     1
176
   256
177
   256
178
   256
272
     2
274
     1
276
     2
277
     5
284
    12
285
     4
286
    12
340
D6
371
    -1
372
    -1
  0
DIMSTYLE
105
DD
330
A
100
AcDbSymbolTableRecord
100
AcDbDimStyleTableRecord
  2
Default - Fraction (ANSI)$7
 70
     0
 40
5.714285714285714
 41
0.0984251946210861
 43
0.2362204724409449
 44
0.125
 45
0.00000001
 46
0.3937007874015748
 79
     3
140
0.1000000014901161
146
1.200000029802321
147
0.031496062992126
171
     1
176
   256
177
   256
178
   256
272
     2
274
     1
276
     2
277
     5
284
    12
285
     4
286
    12
340
D6
371
    -1
372
    -1
  0
DIMSTYLE
105
DE
330
A
100
AcDbSymbolTableRecord
100
AcDbDimStyleTableRecord
  2
Default - mm (ANSI)
 70
     0
 40
5.714285714285714
 41
0.0984251946210861
 42
0.063
 43
0.2362204724409449
 44
0.125
 45
0.00000001
 46
0.3937007874015748
 73
     0
 78
     4
 79
     1
140
0.1000000014901161
143
1.0
144
25.4
146
1.200000029802321
147
0.031496062992126
171
     1
176
   256
177
   256
178
   256
179
     1
271
     2
272
     2
274
     1
284
     4
285
     4
340
D6
371
    -1
372
    -1
  0
DIMSTYLE
105
DF
330
A
100
AcDbSymbolTableRecord
100
AcDbDimStyleTableRecord
  2
Default - mm (ANSI)$7
 70
     0
 40
5.714285714285714
 41
0.0984251946210861
 42
0.063
 43
0.2362204724409449
 44
0.125
 45
0.00000001
 46
0.3937007874015748
 73
     0
 78
     4
 79
     1
140
0.1000000014901161
143
1.0
144
25.4
146
1.200000029802321
147
0.031496062992126
171
     1
176
   256
177
   256
178
   256
179
     1
271
     2
272
     2
274
     1
284
     4
285
     4
340
D6
371
    -1
372
    -1
  0
DIMSTYLE
105
E0
330
A
100
AcDbSymbolTableRecord
100
AcDbDimStyleTableRecord
  2
Default - mm [in] (ANSI)
 70
     0
  4
 in
 40
5.714285714285714
 41
0.0984251946210861
 42
0.063
 43
0.25
 44
0.125
 45
0.00000001
 46
0.3937007874015748
 73
     0
 78
     4
 79
     1
140
0.1000000014901161
143
0.03937
144
25.4
146
1.200000029802321
147
0.031496062992126
170
     1
171
     3
176
   256
177
   256
178
   256
179
     1
271
     2
272
     2
274
     3
284
     4
285
     4
286
     4
340
D6
371
    -1
372
    -1
  0
DIMSTYLE
105
E1
330
A
100
AcDbSymbolTableRecord
100
AcDbDimStyleTableRecord
  2
Default - mm [in] (ANSI)$7
 70
     0
  4
 in
 40
5.714285714285714
 41
0.0984251946210861
 42
0.063
 43
0.25
 44
0.125
 45
0.00000001
 46
0.3937007874015748
 73
     0
 78
     4
 79
     1
140
0.1000000014901161
143
0.03937
144
25.4
146
1.200000029802321
147
0.031496062992126
170
     1
171
     3
176
   256
177
   256
178
   256
179
     1
271
     2
272
     2
274
     3
284
     4
285
     4
286
     4
340
D6
371
    -1
372
    -1
  0
DIMSTYLE
105
E2
102
{ACAD_REACTORS
330
18D
330
2A4
330
38E
330
478
330
576
330
674
330
788
330
877
330
931
102
}
330
A
100
AcDbSymbolTableRecord
100
AcDbDimStyleTableRecord
  2
Default (ANSI)
 70
     0
 40
5.714285714285714
 41
0.0984251946210861
 43
0.2362204724409449
 44
0.125
 45
0.00000001
 46
0.3937007874015748
140
0.1000000014901161
147
0.031496062992126
176
   256
177
   256
178
   256
271
     2
272
     2
340
D7
371
    -1
372
    -1
  0
DIMSTYLE
105
E3
330
A
100
AcDbSymbolTableRecord
100
AcDbDimStyleTableRecord
  2
Default (ANSI)$7
 70
     0
 40
5.714285714285714
 41
0.0984251946210861
 43
0.2362204724409449
 44
0.125
 45
0.00000001
 46
0.3937007874015748
140
0.1000000014901161
147
0.031496062992126
176
   256
177
   256
178
   256
271
     2
272
     2
340
D7
371
    -1
372
    -1
  0
DIMSTYLE
105
E4
330
A
100
AcDbSymbolTableRecord
100
AcDbDimStyleTableRecord
  2
Alternate (ANSI)
 70
     0
 40
5.714285714285714
 41
0.0979999974370003
340
55
342
E5
  0
DIMSTYLE
105
F7
330
A
100
AcDbSymbolTableRecord
100
AcDbDimStyleTableRecord
  2
Datum (ANSI)
 70
     0
 40
5.714285714285714
 41
0.0979999974370003
340
55
342
E5
  0
DIMSTYLE
105
106
330
A
100
AcDbSymbolTableRecord
100
AcDbDimStyleTableRecord
  2
Large (ANSI)
 70
     0
 40
5.714285714285714
 41
0.1959999948740005
340
55
342
E5
  0
ENDTAB
  0
TABLE
  2
BLOCK_RECORD
  5
1
330
0
100
AcDbSymbolTable
 70
    13
  0
BLOCK_RECORD
  5
6C
330
1
100
AcDbSymbolTableRecord
100
AcDbBlockTableRecord
  2
*Model_Space
340
6F
  0
BLOCK_RECORD
  5
68
330
1
100
AcDbSymbolTableRecord
100
AcDbBlockTableRecord
  2
*Paper_Space
340
6B
  0
BLOCK_RECORD
  5
70
330
1
100
AcDbSymbolTableRecord
100
AcDbBlockTableRecord
  2
*Paper_Space0
340
73
  0
BLOCK_RECORD
  5
E5
330
1
100
AcDbSymbolTableRecord
100
AcDbBlockTableRecord
  2
_Closed
340
0
  0
BLOCK_RECORD
  5
EC
330
1
100
AcDbSymbolTableRecord
100
AcDbBlockTableRecord
  2
DatumFilled45
340
0
  0
BLOCK_RECORD
  5
F8
330
1
100
AcDbSymbolTableRecord
100
AcDbBlockTableRecord
  2
Filled-1
340
0
  0
BLOCK_RECORD
  5
190
330
1
100
AcDbSymbolTableRecord
100
AcDbBlockTableRecord
  2
*D4
340
0
  0
BLOCK_RECORD
  5
2A5
330
1
100
AcDbSymbolTableRecord
100
AcDbBlockTableRecord
  2
*D5
340
0
  0
BLOCK_RECORD
  5
38F
330
1
100
AcDbSymbolTableRecord
100
AcDbBlockTableRecord
  2
*D6
340
0
  0
BLOCK_RECORD
  5
479
330
1
100
AcDbSymbolTableRecord
100
AcDbBlockTableRecord
  2
*D7
340
0
  0
BLOCK_RECORD
  5
577
330
1
100
AcDbSymbolTableRecord
100
AcDbBlockTableRecord
  2
*D8
340
0
  0
BLOCK_RECORD
  5
675
330
1
100
AcDbSymbolTableRecord
100
AcDbBlockTableRecord
  2
*D9
340
0
  0
BLOCK_RECORD
  5
789
330
1
100
AcDbSymbolTableRecord
100
AcDbBlockTableRecord
  2
*D10
340
0
  0
BLOCK_RECORD
  5
878
330
1
100
AcDbSymbolTableRecord
100
AcDbBlockTableRecord
  2
*D11
340
0
  0
BLOCK_RECORD
  5
932
330
1
100
AcDbSymbolTableRecord
100
AcDbBlockTableRecord
  2
*D12
340
0
  0
ENDTAB
  0
ENDSEC
  0
SECTION
  2
BLOCKS
  0
BLOCK
  5
6D
330
6C
100
AcDbEntity
  8
0
100
AcDbBlockBegin
  2
*Model_Space
 70
     0
 10
0.0
 20
0.0
 30
0.0
  3
*Model_Space
  1

  0
ENDBLK
  5
6E
330
6C
100
AcDbEntity
  8
0
100
AcDbBlockEnd
  0
BLOCK
  5
69
330
68
100
AcDbEntity
 67
     1
  8
0
100
AcDbBlockBegin
  2
*Paper_Space
 70
     0
 10
0.0
 20
0.0
 30
0.0
  3
*Paper_Space
  1

  0
ENDBLK
  5
6A
330
68
100
AcDbEntity
 67
     1
  8
0
100
AcDbBlockEnd
  0
BLOCK
  5
71
330
70
100
AcDbEntity
 67
     1
  8
0
100
AcDbBlockBegin
  2
*Paper_Space0
 70
     0
 10
0.0
 20
0.0
 30
0.0
  3
*Paper_Space0
  1

  0
ENDBLK
  5
72
330
70
100
AcDbEntity
 67
     1
  8
0
100
AcDbBlockEnd
  0
BLOCK
  5
EA
330
E5
100
AcDbEntity
  8
0
100
AcDbBlockBegin
  2
_Closed
 70
     0
 10
0.0
 20
0.0
 30
0.0
  3
_Closed
  1

  0
LINE
  5
E6
330
E5
100
AcDbEntity
  8
0
  6
ByBlock
 62
     0
370
    -2
100
AcDbLine
 10
-1.0
 20
0.1666666666666666
 30
0.0
 11
0.0
 21
0.0
 31
0.0
  0
LINE
  5
E7
330
E5
100
AcDbEntity
  8
0
  6
ByBlock
 62
     0
370
    -2
100
AcDbLine
 10
0.0
 20
0.0
 30
0.0
 11
-1.0
 21
-0.1666666666666666
 31
0.0
  0
LINE
  5
E8
330
E5
100
AcDbEntity
  8
0
  6
ByBlock
 62
     0
370
    -2
100
AcDbLine
 10
-1.0
 20
0.1666666666666666
 30
0.0
 11
-1.0
 21
-0.1666666666666666
 31
0.0
  0
LINE
  5
E9
330
E5
100
AcDbEntity
  8
0
  6
ByBlock
 62
     0
370
    -2
100
AcDbLine
 10
0.0
 20
0.0
 30
0.0
 11
-1.0
 21
0.0
 31
0.0
  0
ENDBLK
  5
EB
330
E5
100
AcDbEntity
  8
0
100
AcDbBlockEnd
  0
BLOCK
  5
ED
330
EC
100
AcDbEntity
  8
0
100
AcDbBlockBegin
  2
DatumFilled45
 70
     0
 10
0.0
 20
0.0
 30
0.0
  3
DatumFilled45
  1

  0
POLYLINE
  5
EF
330
EC
100
AcDbEntity
  8
0
 62
     0
100
AcDb2dPolyline
 66
     1
 10
0.0
 20
0.0
 30
0.0
 70
   128
  0
VERTEX
  5
F0
330
EF
100
AcDbEntity
  8
0
 62
     0
100
AcDbVertex
100
AcDb2dVertex
 10
0.0
 20
0.9999999999999998
 30
0.0
  0
VERTEX
  5
F1
330
EF
100
AcDbEntity
  8
0
 62
     0
100
AcDbVertex
100
AcDb2dVertex
 10
0.0
 20
-0.9999999999999998
 30
0.0
  0
VERTEX
  5
F3
330
EF
100
AcDbEntity
  8
0
 62
     0
100
AcDbVertex
100
AcDb2dVertex
 10
-0.9999999999999998
 20
0.0
 30
0.0
  0
VERTEX
  5
F4
330
EF
100
AcDbEntity
  8
0
 62
     0
100
AcDbVertex
100
AcDb2dVertex
 10
0.0
 20
0.9999999999999998
 30
0.0
  0
SEQEND
  5
F2
330
EF
100
AcDbEntity
  8
0
 62
     0
  0
SOLID
  5
F6
330
EC
100
AcDbEntity
  8
0
 62
     0
100
AcDbTrace
 10
0.0
 20
0.9999999999999998
 30
0.0
 11
0.0
 21
-0.9999999999999998
 31
0.0
 12
-0.9999999999999998
 22
0.0
 32
0.0
 13
0.0
 23
0.9999999999999998
 33
0.0
  0
ENDBLK
  5
EE
330
EC
100
AcDbEntity
  8
0
100
AcDbBlockEnd
  0
BLOCK
  5
F9
330
F8
100
AcDbEntity
  8
0
100
AcDbBlockBegin
  2
Filled-1
 70
     0
 10
0.0
 20
0.0
 30
0.0
  3
Filled-1
  1

  0
LINE
  5
FB
330
F8
100
AcDbEntity
  8
0
 62
     0
100
AcDbLine
 10
-0.9999999999999998
 20
0.0
 30
0.0
 11
0.0
 21
0.0
 31
0.0
  0
POLYLINE
  5
FC
330
F8
100
AcDbEntity
  8
0
 62
     0
100
AcDb2dPolyline
 66
     1
 10
0.0
 20
0.0
 30
0.0
 70
   128
  0
VERTEX
  5
FD
330
FC
100
AcDbEntity
  8
0
 62
     0
100
AcDbVertex
100
AcDb2dVertex
 10
-0.9999999999999998
 20
-0.0994897959183674
 30
0.0
  0
VERTEX
  5
FE
330
FC
100
AcDbEntity
  8
0
 62
     0
100
AcDbVertex
100
AcDb2dVertex
 10
0.0
 20
0.0
 30
0.0
  0
VERTEX
  5
100
330
FC
100
AcDbEntity
  8
0
 62
     0
100
AcDbVertex
100
AcDb2dVertex
 10
-0.9999999999999998
 20
0.0994897959183674
 30
0.0
  0
VERTEX
  5
101
330
FC
100
AcDbEntity
  8
0
 62
     0
100
AcDbVertex
100
AcDb2dVertex
 10
-0.9999999999999998
 20
-0.0994897959183674
 30
0.0
  0
SEQEND
  5
FF
330
FC
100
AcDbEntity
  8
0
 62
     0
  0
SOLID
  5
102
330
F8
100
AcDbEntity
  8
0
 62
     0
100
AcDbTrace
 10
-0.9999999999999998
 20
-0.0994897959183674
 30
0.0
 11
0.0
 21
0.0
 31
0.0
 12
-0.9999999999999998
 22
0.0994897959183674
 32
0.0
 13
-0.9999999999999998
 23
-0.0994897959183674
 33
0.0
  0
LINE
  5
103
330
F8
100
AcDbEntity
  8
0
 62
     0
100
AcDbLine
 10
-0.9999999999999998
 20
-0.0994897959183674
 30
0.0
 11
0.0
 21
0.0
 31
0.0
  0
LINE
  5
104
330
F8
100
AcDbEntity
  8
0
 62
     0
100
AcDbLine
 10
0.0
 20
0.0
 30
0.0
 11
-0.9999999999999998
 21
0.0994897959183674
 31
0.0
  0
LINE
  5
105
330
F8
100
AcDbEntity
  8
0
 62
     0
100
AcDbLine
 10
-0.9999999999999998
 20
0.0994897959183674
 30
0.0
 11
-0.9999999999999998
 21
-0.0994897959183674
 31
0.0
  0
ENDBLK
  5
FA
330
F8
100
AcDbEntity
  8
0
100
AcDbBlockEnd
  0
BLOCK
  5
191
330
190
100
AcDbEntity
  8
0
100
AcDbBlockBegin
  2
*D4
 70
     1
 10
0.0
 20
0.0
 30
0.0
  3
*D4
  1

  0
LINE
  5
299
330
190
100
AcDbEntity
  8
Dimension (ANSI)
100
AcDbLine
 10
35.28206005422387
 20
22.837027496769
 30
0.0
 11
40.85190846626581
 21
22.837027496769
 31
0.0
  0
LINE
  5
29A
330
190
100
AcDbEntity
  8
Dimension (ANSI)
100
AcDbLine
 10
34.5118085976799
 20
23.712027496769
 30
0.0
 11
40.85190846626581
 21
23.712027496769
 31
0.0
  0
LINE
  5
29B
330
190
100
AcDbEntity
  8
Dimension (ANSI)
100
AcDbLine
 10
40.13762275198009
 20
24.27445718031806
 30
0.0
 11
40.13762275198009
 21
24.83688686386713
 31
0.0
  0
LINE
  5
29C
330
190
100
AcDbEntity
  8
Dimension (ANSI)
100
AcDbLine
 10
40.13762275198009
 20
22.27459781321993
 30
0.0
 11
40.13762275198009
 21
20.11042434022514
 31
0.0
  0
LINE
  5
29D
330
190
100
AcDbEntity
  8
Dimension (ANSI)
100
AcDbLine
 10
40.13762275198009
 20
20.11042434022514
 30
0.0
 11
39.57519306843103
 21
20.11042434022515
 31
0.0
  0
SOLID
  5
29E
330
190
100
AcDbEntity
  8
Dimension (ANSI)
100
AcDbTrace
 10
40.04388447138858
 20
24.27445718031806
 30
0.0
 11
40.23136103257161
 21
24.27445718031806
 31
0.0
 12
40.13762275198009
 22
23.712027496769
 32
0.0
 13
40.13762275198009
 23
23.712027496769
 33
0.0
  0
SOLID
  5
29F
330
190
100
AcDbEntity
  8
Dimension (ANSI)
100
AcDbTrace
 10
40.04388447138858
 20
22.27459781321993
 30
0.0
 11
40.23136103257161
 21
22.27459781321993
 31
0.0
 12
40.13762275198009
 22
22.837027496769
 32
0.0
 13
40.13762275198009
 23
22.837027496769
 33
0.0
  0
MTEXT
  5
2A0
330
190
100
AcDbEntity
  8
Dimension (ANSI)
100
AcDbMText
 10
38.52446725332399
 20
20.11042434022515
 30
0.0
 40
0.5714285799435208
 41
0.0
 71
     5
 72
     1
  1
\A1;0.88{\PTYP.}
  7
ROMANS
 73
     1
 44
1.0
1001
ACAD
1000
MTEXTBEGIN
1070
    73
1070
     1
1070
    44
1040
1.0
1070
    74
1070
     0
1000
MTEXTEND
  0
POINT
  5
2A1
330
190
100
AcDbEntity
  8
Defpoints
 62
     0
100
AcDbPoint
 10
34.92491719708102
 20
22.837027496769
 30
0.0
  0
POINT
  5
2A2
330
190
100
AcDbEntity
  8
Defpoints
 62
     0
100
AcDbPoint
 10
34.15466574053704
 20
23.712027496769
 30
0.0
  0
POINT
  5
2A3
330
190
100
AcDbEntity
  8
Defpoints
 62
     0
100
AcDbPoint
 10
40.13762275198009
 20
23.712027496769
 30
0.0
  0
ENDBLK
  5
192
330
190
100
AcDbEntity
  8
0
100
AcDbBlockEnd
  0
BLOCK
  5
2A6
330
2A5
100
AcDbEntity
  8
0
100
AcDbBlockBegin
  2
*D5
 70
     1
 10
0.0
 20
0.0
 30
0.0
  3
*D5
  1

  0
LINE
  5
384
330
2A5
100
AcDbEntity
  8
Dimension (ANSI)
100
AcDbLine
 10
35.28206005422387
 20
22.837027496769
 30
0.0
 11
41.93841550979193
 21
22.837027496769
 31
0.0
  0
LINE
  5
385
330
2A5
100
AcDbEntity
  8
Dimension (ANSI)
100
AcDbLine
 10
35.28206005422387
 20
43.837027496769
 30
0.0
 11
41.93841550979193
 21
43.837027496769
 31
0.0
  0
LINE
  5
386
330
2A5
100
AcDbEntity
  8
Dimension (ANSI)
100
AcDbLine
 10
41.22412979550622
 20
23.39945718031806
 30
0.0
 11
41.22412979550622
 21
32.87133570398509
 31
0.0
  0
LINE
  5
387
330
2A5
100
AcDbEntity
  8
Dimension (ANSI)
100
AcDbLine
 10
41.22412979550622
 20
43.27459781321993
 30
0.0
 11
41.22412979550622
 21
33.8027192895529
 31
0.0
  0
SOLID
  5
388
330
2A5
100
AcDbEntity
  8
Dimension (ANSI)
100
AcDbTrace
 10
41.13039151491471
 20
23.39945718031806
 30
0.0
 11
41.31786807609773
 21
23.39945718031806
 31
0.0
 12
41.22412979550622
 22
22.837027496769
 32
0.0
 13
41.22412979550622
 23
22.837027496769
 33
0.0
  0
SOLID
  5
389
330
2A5
100
AcDbEntity
  8
Dimension (ANSI)
100
AcDbTrace
 10
41.13039151491471
 20
43.27459781321993
 30
0.0
 11
41.31786807609773
 21
43.27459781321993
 31
0.0
 12
41.22412979550622
 22
43.837027496769
 32
0.0
 13
41.22412979550622
 23
43.837027496769
 33
0.0
  0
MTEXT
  5
38A
330
2A5
100
AcDbEntity
  8
Dimension (ANSI)
100
AcDbMText
 10
40.08127263561917
 20
33.62274178674076
 30
0.0
 40
0.5714285799435208
 41
0.0
 71
     1
 72
     1
  1
\A1;21.00
  7
ROMANS
 73
     1
 44
1.0
1001
ACAD
1000
MTEXTBEGIN
1070
    73
1070
     1
1070
    44
1040
1.0
1070
    74
1070
     0
1000
MTEXTEND
  0
POINT
  5
38B
330
2A5
100
AcDbEntity
  8
Defpoints
 62
     0
100
AcDbPoint
 10
34.92491719708102
 20
22.837027496769
 30
0.0
  0
POINT
  5
38C
330
2A5
100
AcDbEntity
  8
Defpoints
 62
     0
100
AcDbPoint
 10
34.92491719708102
 20
43.837027496769
 30
0.0
  0
POINT
  5
38D
330
2A5
100
AcDbEntity
  8
Defpoints
 62
     0
100
AcDbPoint
 10
41.22412979550622
 20
43.837027496769
 30
0.0
  0
ENDBLK
  5
2A7
330
2A5
100
AcDbEntity
  8
0
100
AcDbBlockEnd
  0
BLOCK
  5
390
330
38F
100
AcDbEntity
  8
0
100
AcDbBlockBegin
  2
*D6
 70
     1
 10
0.0
 20
0.0
 30
0.0
  3
*D6
  1

  0
LINE
  5
46E
330
38F
100
AcDbEntity
  8
Dimension (ANSI)
100
AcDbLine
 10
18.02966574053706
 20
44.08942181045581
 30
0.0
 11
18.02966574053706
 21
48.85291214821155
 31
0.0
  0
LINE
  5
46F
330
38F
100
AcDbEntity
  8
Dimension (ANSI)
100
AcDbLine
 10
35.02966574053706
 20
44.08942181045581
 30
0.0
 11
35.02966574053706
 21
48.85291214821155
 31
0.0
  0
LINE
  5
470
330
38F
100
AcDbEntity
  8
Dimension (ANSI)
100
AcDbLine
 10
18.59209542408612
 20
48.13862643392583
 30
0.0
 11
25.24764740497669
 21
48.13862643392583
 31
0.0
  0
LINE
  5
471
330
38F
100
AcDbEntity
  8
Dimension (ANSI)
100
AcDbLine
 10
34.46723605698799
 20
48.13862643392583
 30
0.0
 11
27.81168407609742
 21
48.13862643392583
 31
0.0
  0
SOLID
  5
472
330
38F
100
AcDbEntity
  8
Dimension (ANSI)
100
AcDbTrace
 10
18.59209542408612
 20
48.23236471451735
 30
0.0
 11
18.59209542408612
 21
48.04488815333432
 31
0.0
 12
18.02966574053706
 22
48.13862643392583
 32
0.0
 13
18.02966574053706
 23
48.13862643392583
 33
0.0
  0
SOLID
  5
473
330
38F
100
AcDbEntity
  8
Dimension (ANSI)
100
AcDbTrace
 10
34.46723605698799
 20
48.23236471451735
 30
0.0
 11
34.46723605698799
 21
48.04488815333432
 31
0.0
 12
35.02966574053706
 22
48.13862643392583
 32
0.0
 13
35.02966574053706
 23
48.13862643392583
 33
0.0
  0
MTEXT
  5
474
330
38F
100
AcDbEntity
  8
Dimension (ANSI)
100
AcDbMText
 10
25.42762490778883
 20
48.42434072389759
 30
0.0
 40
0.5714285799435208
 41
0.0
 71
     1
 72
     1
  1
\A1;17.00
  7
ROMANS
 73
     1
 44
1.0
1001
ACAD
1000
MTEXTBEGIN
1070
    73
1070
     1
1070
    44
1040
1.0
1070
    74
1070
     0
1000
MTEXTEND
  0
POINT
  5
475
330
38F
100
AcDbEntity
  8
Defpoints
 62
     0
100
AcDbPoint
 10
18.02966574053706
 20
43.73227895331296
 30
0.0
  0
POINT
  5
476
330
38F
100
AcDbEntity
  8
Defpoints
 62
     0
100
AcDbPoint
 10
35.02966574053706
 20
43.73227895331296
 30
0.0
  0
POINT
  5
477
330
38F
100
AcDbEntity
  8
Defpoints
 62
     0
100
AcDbPoint
 10
35.02966574053706
 20
48.13862643392583
 30
0.0
  0
ENDBLK
  5
391
330
38F
100
AcDbEntity
  8
0
100
AcDbBlockEnd
  0
BLOCK
  5
47A
330
479
100
AcDbEntity
  8
0
100
AcDbBlockBegin
  2
*D7
 70
     1
 10
0.0
 20
0.0
 30
0.0
  3
*D7
  1

  0
LINE
  5
56C
330
479
100
AcDbEntity
  8
Dimension (ANSI)
100
AcDbLine
 10
34.15466574053704
 20
44.31495606819757
 30
0.0
 11
34.15466574053704
 21
46.53959166488436
 31
0.0
  0
LINE
  5
56D
330
479
100
AcDbEntity
  8
Dimension (ANSI)
100
AcDbLine
 10
35.02966574053706
 20
44.08942181045581
 30
0.0
 11
35.02966574053706
 21
46.53959166488436
 31
0.0
  0
LINE
  5
56E
330
479
100
AcDbEntity
  8
Dimension (ANSI)
100
AcDbLine
 10
33.59223605698798
 20
45.82530595059864
 30
0.0
 11
33.02980637343892
 21
45.82530595059864
 31
0.0
  0
LINE
  5
56F
330
479
100
AcDbEntity
  8
Dimension (ANSI)
100
AcDbLine
 10
35.59209542408612
 20
45.82530595059864
 30
0.0
 11
37.35180124788485
 21
45.82530595059864
 31
0.0
  0
SOLID
  5
570
330
479
100
AcDbEntity
  8
Dimension (ANSI)
100
AcDbTrace
 10
33.59223605698798
 20
45.91904423119015
 30
0.0
 11
33.59223605698798
 21
45.73156767000713
 31
0.0
 12
34.15466574053704
 22
45.82530595059864
 32
0.0
 13
34.15466574053704
 23
45.82530595059864
 33
0.0
  0
SOLID
  5
571
330
479
100
AcDbEntity
  8
Dimension (ANSI)
100
AcDbTrace
 10
35.59209542408612
 20
45.91904423119015
 30
0.0
 11
35.59209542408612
 21
45.73156767000713
 31
0.0
 12
35.02966574053706
 22
45.82530595059864
 32
0.0
 13
35.02966574053706
 23
45.82530595059864
 33
0.0
  0
MTEXT
  5
572
330
479
100
AcDbEntity
  8
Dimension (ANSI)
100
AcDbMText
 10
38.40252706299188
 20
45.82530595059864
 30
0.0
 40
0.5714285799435208
 41
0.0
 71
     5
 72
     1
  1
\A1;0.88{\PTYP.}
  7
ROMANS
 73
     1
 44
1.0
1001
ACAD
1000
MTEXTBEGIN
1070
    73
1070
     1
1070
    44
1040
1.0
1070
    74
1070
     0
1000
MTEXTEND
  0
POINT
  5
573
330
479
100
AcDbEntity
  8
Defpoints
 62
     0
100
AcDbPoint
 10
34.15466574053704
 20
43.95781321105471
 30
0.0
  0
POINT
  5
574
330
479
100
AcDbEntity
  8
Defpoints
 62
     0
100
AcDbPoint
 10
35.02966574053706
 20
43.73227895331296
 30
0.0
  0
POINT
  5
575
330
479
100
AcDbEntity
  8
Defpoints
 62
     0
100
AcDbPoint
 10
35.02966574053706
 20
45.82530595059864
 30
0.0
  0
ENDBLK
  5
47B
330
479
100
AcDbEntity
  8
0
100
AcDbBlockEnd
  0
BLOCK
  5
578
330
577
100
AcDbEntity
  8
0
100
AcDbBlockBegin
  2
*D8
 70
     1
 10
0.0
 20
0.0
 30
0.0
  3
*D8
  1

  0
LINE
  5
66A
330
577
100
AcDbEntity
  8
Dimension (ANSI)
100
AcDbLine
 10
34.15466574053704
 20
23.35488463962615
 30
0.0
 11
34.15466574053704
 21
19.39819172624032
 31
0.0
  0
LINE
  5
66B
330
577
100
AcDbEntity
  8
Dimension (ANSI)
100
AcDbLine
 10
32.15466574053706
 20
23.35488463962615
 30
0.0
 11
32.15466574053706
 21
19.39819172624032
 31
0.0
  0
LINE
  5
66C
330
577
100
AcDbEntity
  8
Dimension (ANSI)
100
AcDbLine
 10
33.59223605698798
 20
20.11247744052603
 30
0.0
 11
32.71709542408612
 21
20.11247744052603
 31
0.0
  0
LINE
  5
66D
330
577
100
AcDbEntity
  8
Dimension (ANSI)
100
AcDbLine
 10
32.15466574053706
 20
20.11247744052603
 30
0.0
 11
29.76711512892001
 21
20.11247744052603
 31
0.0
  0
SOLID
  5
66E
330
577
100
AcDbEntity
  8
Dimension (ANSI)
100
AcDbTrace
 10
33.59223605698798
 20
20.20621572111754
 30
0.0
 11
33.59223605698798
 21
20.01873915993452
 31
0.0
 12
34.15466574053704
 22
20.11247744052603
 32
0.0
 13
34.15466574053704
 23
20.11247744052603
 33
0.0
  0
SOLID
  5
66F
330
577
100
AcDbEntity
  8
Dimension (ANSI)
100
AcDbTrace
 10
32.71709542408612
 20
20.20621572111754
 30
0.0
 11
32.71709542408612
 21
20.01873915993452
 31
0.0
 12
32.15466574053706
 22
20.11247744052603
 32
0.0
 13
32.15466574053706
 23
20.11247744052603
 33
0.0
  0
MTEXT
  5
670
330
577
100
AcDbEntity
  8
Dimension (ANSI)
100
AcDbMText
 10
28.71638931381297
 20
20.11247744052603
 30
0.0
 40
0.5714285799435208
 41
0.0
 71
     5
 72
     1
  1
\A1;2.00{\PTYP.}
  7
ROMANS
 73
     1
 44
1.0
1001
ACAD
1000
MTEXTBEGIN
1070
    73
1070
     1
1070
    44
1040
1.0
1070
    74
1070
     0
1000
MTEXTEND
  0
POINT
  5
671
330
577
100
AcDbEntity
  8
Defpoints
 62
     0
100
AcDbPoint
 10
34.15466574053704
 20
23.712027496769
 30
0.0
  0
POINT
  5
672
330
577
100
AcDbEntity
  8
Defpoints
 62
     0
100
AcDbPoint
 10
32.15466574053706
 20
23.712027496769
 30
0.0
  0
POINT
  5
673
330
577
100
AcDbEntity
  8
Defpoints
 62
     0
100
AcDbPoint
 10
32.15466574053706
 20
20.11247744052603
 30
0.0
  0
ENDBLK
  5
579
330
577
100
AcDbEntity
  8
0
100
AcDbBlockEnd
  0
BLOCK
  5
676
330
675
100
AcDbEntity
  8
0
100
AcDbBlockBegin
  2
*D9
 70
     1
 10
0.0
 20
0.0
 30
0.0
  3
*D9
  1

  0
LINE
  5
77D
330
675
100
AcDbEntity
  8
Dimension (ANSI)
100
AcDbLine
 10
35.26185859768699
 20
56.76388045961768
 30
0.0
 11
40.73460498459636
 21
56.76388045961768
 31
0.0
  0
LINE
  5
77E
330
675
100
AcDbEntity
  8
Dimension (ANSI)
100
AcDbLine
 10
35.28206005423095
 20
57.63888045961772
 30
0.0
 11
40.73460498459636
 21
57.63888045961772
 31
0.0
  0
LINE
  5
77F
330
675
100
AcDbEntity
  8
Dimension (ANSI)
100
AcDbLine
 10
40.02031927031064
 20
58.20131014316679
 30
0.0
 11
40.02031927031064
 21
58.76373982671585
 31
0.0
  0
LINE
  5
780
330
675
100
AcDbEntity
  8
Dimension (ANSI)
100
AcDbLine
 10
40.02031927031064
 20
56.20145077606862
 30
0.0
 11
40.02031927031064
 21
53.78612512188708
 31
0.0
  0
LINE
  5
781
330
675
100
AcDbEntity
  8
Dimension (ANSI)
100
AcDbLine
 10
40.02031927031064
 20
53.78612512188708
 30
0.0
 11
39.45788958676158
 21
53.78612512188708
 31
0.0
  0
SOLID
  5
782
330
675
100
AcDbEntity
  8
Dimension (ANSI)
100
AcDbTrace
 10
39.92658098971914
 20
58.20131014316679
 30
0.0
 11
40.11405755090215
 21
58.20131014316679
 31
0.0
 12
40.02031927031064
 22
57.63888045961772
 32
0.0
 13
40.02031927031064
 23
57.63888045961772
 33
0.0
  0
SOLID
  5
783
330
675
100
AcDbEntity
  8
Dimension (ANSI)
100
AcDbTrace
 10
39.92658098971914
 20
56.20145077606862
 30
0.0
 11
40.11405755090215
 21
56.20145077606862
 31
0.0
 12
40.02031927031064
 22
56.76388045961768
 32
0.0
 13
40.02031927031064
 23
56.76388045961768
 33
0.0
  0
MTEXT
  5
784
330
675
100
AcDbEntity
  8
Dimension (ANSI)
100
AcDbMText
 10
38.40716377165453
 20
53.78612512188709
 30
0.0
 40
0.5714285799435208
 41
0.0
 71
     5
 72
     1
  1
\A1;0.88{\PTYP.}
  7
ROMANS
 73
     1
 44
1.0
1001
ACAD
1000
MTEXTBEGIN
1070
    73
1070
     1
1070
    44
1040
1.0
1070
    74
1070
     0
1000
MTEXTEND
  0
POINT
  5
785
330
675
100
AcDbEntity
  8
Defpoints
 62
     0
100
AcDbPoint
 10
34.90471574054414
 20
56.76388045961768
 30
0.0
  0
POINT
  5
786
330
675
100
AcDbEntity
  8
Defpoints
 62
     0
100
AcDbPoint
 10
34.92491719708809
 20
57.63888045961772
 30
0.0
  0
POINT
  5
787
330
675
100
AcDbEntity
  8
Defpoints
 62
     0
100
AcDbPoint
 10
40.02031927031064
 20
57.63888045961772
 30
0.0
  0
ENDBLK
  5
677
330
675
100
AcDbEntity
  8
0
100
AcDbBlockEnd
  0
BLOCK
  5
78A
330
789
100
AcDbEntity
  8
0
100
AcDbBlockBegin
  2
*D10
 70
     1
 10
0.0
 20
0.0
 30
0.0
  3
*D10
  1

  0
LINE
  5
86F
330
789
100
AcDbEntity
  8
Dimension (ANSI)
100
AcDbLine
 10
56.54173639846828
 20
40.25195066847923
 30
0.0
 11
55.97930671491921
 21
40.25195066847923
 31
0.0
  0
LINE
  5
870
330
789
100
AcDbEntity
  8
Dimension (ANSI)
100
AcDbLine
 10
58.54159576556643
 20
40.25195066847923
 30
0.0
 11
59.49486006385936
 21
40.25195066847923
 31
0.0
  0
SOLID
  5
871
330
789
100
AcDbEntity
  8
Dimension (ANSI)
100
AcDbTrace
 10
56.54173639846828
 20
40.34568894907073
 30
0.0
 11
56.54173639846828
 21
40.15821238788772
 31
0.0
 12
57.10416608201733
 22
40.25195066847923
 32
0.0
 13
57.10416608201733
 23
40.25195066847923
 33
0.0
  0
SOLID
  5
872
330
789
100
AcDbEntity
  8
Dimension (ANSI)
100
AcDbTrace
 10
58.54159576556643
 20
40.34568894907073
 30
0.0
 11
58.54159576556643
 21
40.15821238788772
 31
0.0
 12
57.97916608201737
 22
40.25195066847923
 32
0.0
 13
57.97916608201737
 23
40.25195066847923
 33
0.0
  0
MTEXT
  5
873
330
789
100
AcDbEntity
  8
Dimension (ANSI)
100
AcDbMText
 10
60.54558587896639
 20
40.25195066847923
 30
0.0
 40
0.5714285799435208
 41
0.0
 71
     5
 72
     1
  1
\A1;0.88{\PTYP.}
  7
ROMANS
 73
     1
 44
1.0
1001
ACAD
1000
MTEXTBEGIN
1070
    73
1070
     1
1070
    44
1040
1.0
1070
    74
1070
     0
1000
MTEXTEND
  0
POINT
  5
874
330
789
100
AcDbEntity
  8
Defpoints
 62
     0
100
AcDbPoint
 10
57.97916608201737
 20
40.25195066847923
 30
0.0
  0
POINT
  5
875
330
789
100
AcDbEntity
  8
Defpoints
 62
     0
100
AcDbPoint
 10
57.10416608201733
 20
40.24256851196201
 30
0.0
  0
POINT
  5
876
330
789
100
AcDbEntity
  8
Defpoints
 62
     0
100
AcDbPoint
 10
57.10416608201733
 20
40.25195066847923
 30
0.0
  0
ENDBLK
  5
78B
330
789
100
AcDbEntity
  8
0
100
AcDbBlockEnd
  0
BLOCK
  5
879
330
878
100
AcDbEntity
  8
0
100
AcDbBlockBegin
  2
*D11
 70
     1
 10
0.0
 20
0.0
 30
0.0
  3
*D11
  1

  0
LINE
  5
929
330
878
100
AcDbEntity
  8
Dimension (ANSI)
100
AcDbLine
 10
14.27819380922735
 20
19.89774275371569
 30
0.0
 11
15.09038099748251
 21
19.89774275371569
 31
0.0
  0
LINE
  5
92A
330
878
100
AcDbEntity
  8
Dimension (ANSI)
100
AcDbLine
 10
15.09038099748251
 20
19.89774275371569
 30
0.0
 11
18.30791733845477
 21
23.11527909468693
 31
0.0
  0
MTEXT
  5
92B
102
{ACAD_XDICTIONARY
360
A45
102
}
330
878
100
AcDbEntity
  8
Dimension (ANSI)
100
AcDbMText
 10
12.61522308703798
 20
20.36032779462236
 30
0.0
 40
0.5714285799435208
 41
0.0
 71
     2
 72
     1
  1
\A1;\U+22050.56{\PTYP.\P(4 PL.)}
  7
ROMANS
 73
     1
 44
1.0
1001
ACAD
1000
MTEXTBEGIN
1070
    73
1070
     1
1070
    44
1040
1.0
1070
    74
1070
     0
1000
MTEXTEND
  0
SOLID
  5
92C
330
878
100
AcDbEntity
  8
Dimension (ANSI)
100
AcDbTrace
 10
18.24163436459176
 20
23.18156206854996
 30
0.0
 11
18.37420031231779
 21
23.04899612082389
 31
0.0
 12
18.70561518163298
 22
23.512976937865
 32
0.0
 13
18.70561518163298
 23
23.512976937865
 33
0.0
  0
LINE
  5
92D
330
878
100
AcDbEntity
  8
Dimension (ANSI)
100
AcDbLine
 10
18.39038002625131
 20
23.71202749676899
 30
0.0
 11
19.41895145482274
 21
23.71202749676899
 31
0.0
  0
LINE
  5
92E
330
878
100
AcDbEntity
  8
Dimension (ANSI)
100
AcDbLine
 10
18.90466574053703
 20
23.19774178248327
 30
0.0
 11
18.90466574053703
 21
24.22631321105471
 31
0.0
  0
POINT
  5
92F
330
878
100
AcDbEntity
  8
Defpoints
 62
     0
100
AcDbPoint
 10
18.70561518163298
 20
23.512976937865
 30
0.0
  0
POINT
  5
930
330
878
100
AcDbEntity
  8
Defpoints
 62
     0
100
AcDbPoint
 10
19.10371629944107
 20
23.91107805567297
 30
0.0
  0
ENDBLK
  5
87A
330
878
100
AcDbEntity
  8
0
100
AcDbBlockEnd
  0
BLOCK
  5
933
330
932
100
AcDbEntity
  8
0
100
AcDbBlockBegin
  2
*D12
 70
     1
 10
0.0
 20
0.0
 30
0.0
  3
*D12
  1

  0
LINE
  5
9E2
330
932
100
AcDbEntity
  8
Dimension (ANSI)
100
AcDbLine
 10
14.05903900924707
 20
29.745467039802
 30
0.0
 11
14.8712261975023
 21
29.745467039802
 31
0.0
  0
LINE
  5
9E3
330
932
100
AcDbEntity
  8
Dimension (ANSI)
100
AcDbLine
 10
14.8712261975023
 20
29.745467039802
 30
0.0
 11
20.39665923949373
 21
24.22003399781218
 31
0.0
  0
MTEXT
  5
9E4
102
{ACAD_XDICTIONARY
360
A47
102
}
330
932
100
AcDbEntity
  8
Dimension (ANSI)
100
AcDbMText
 10
12.39606828705769
 20
30.20805208070867
 30
0.0
 40
0.5714285799435208
 41
0.0
 71
     2
 72
     1
  1
\A1;\U+22050.31{\PTYP.\P(2 PL.)}
  7
ROMANS
 73
     1
 44
1.0
1001
ACAD
1000
MTEXTBEGIN
1070
    73
1070
     1
1070
    44
1040
1.0
1070
    74
1070
     0
1000
MTEXTEND
  0
SOLID
  5
9E5
330
932
100
AcDbEntity
  8
Dimension (ANSI)
100
AcDbTrace
 10
20.46294221335675
 20
24.28631697167521
 30
0.0
 11
20.33037626563072
 21
24.15375102394915
 31
0.0
 12
20.79435708267194
 22
23.82233615463409
 32
0.0
 13
20.79435708267194
 23
23.82233615463409
 33
0.0
  0
LINE
  5
9E6
330
932
100
AcDbEntity
  8
Dimension (ANSI)
100
AcDbLine
 10
20.39038002625134
 20
23.712027496769
 30
0.0
 11
21.41895145482278
 21
23.712027496769
 31
0.0
  0
LINE
  5
9E7
330
932
100
AcDbEntity
  8
Dimension (ANSI)
100
AcDbLine
 10
20.90466574053706
 20
23.19774178248329
 30
0.0
 11
20.90466574053706
 21
24.22631321105471
 31
0.0
  0
POINT
  5
9E8
330
932
100
AcDbEntity
  8
Defpoints
 62
     0
100
AcDbPoint
 10
20.79435708267194
 20
23.82233615463409
 30
0.0
  0
POINT
  5
9E9
330
932
100
AcDbEntity
  8
Defpoints
 62
     0
100
AcDbPoint
 10
21.01497439840217
 20
23.60171883890391
 30
0.0
  0
ENDBLK
  5
934
330
932
100
AcDbEntity
  8
0
100
AcDbBlockEnd
  0
ENDSEC
  0
SECTION
  2
ENTITIES
  0
CIRCLE
  5
107
330
6C
100
AcDbEntity
  8
Visible (ANSI)
100
AcDbCircle
 10
32.15466574053706
 20
23.712027496769
 30
0.0
 40
0.156
  0
CIRCLE
  5
108
330
6C
100
AcDbEntity
  8
Visible (ANSI)
100
AcDbCircle
 10
20.90466574053706
 20
23.712027496769
 30
0.0
 40
0.156
  0
CIRCLE
  5
109
330
6C
100
AcDbEntity
  8
Visible (ANSI)
100
AcDbCircle
 10
34.15466574053704
 20
23.712027496769
 30
0.0
 40
0.2814999999999999
  0
CIRCLE
  5
10A
330
6C
100
AcDbEntity
  8
Visible (ANSI)
100
AcDbCircle
 10
34.15466574053704
 20
42.962027496769
 30
0.0
 40
0.2814999999999999
  0
CIRCLE
  5
10B
330
6C
100
AcDbEntity
  8
Visible (ANSI)
100
AcDbCircle
 10
18.90466574053705
 20
42.962027496769
 30
0.0
 40
0.2814999999999999
  0
CIRCLE
  5
10C
330
6C
100
AcDbEntity
  8
Visible (ANSI)
100
AcDbCircle
 10
18.90466574053703
 20
23.712027496769
 30
0.0
 40
0.2814999999999999
  0
SPLINE
  5
10D
330
6C
100
AcDbEntity
  8
Visible (ANSI)
100
AcDbSpline
210
0.0
220
0.0
230
1.0
 70
     8
 71
     3
 72
    11
 73
     7
 74
     0
 42
0.0000000001
 43
0.0000000001
 40
0.0
 40
0.0
 40
0.0
 40
0.0
 40
1.483474787626995
 40
1.483474787626995
 40
1.483474787626995
 40
1.570796326794956
 40
1.570796326794956
 40
1.570796326794956
 40
1.570796326794956
 10
34.90471574053704
 20
22.96197749676901
 30
0.0
 10
34.92016860290816
 20
22.95561801507489
 30
0.0
 10
34.93449902125026
 20
22.94925853338078
 30
0.0
 10
34.93584667479773
 20
22.94289905168666
 30
0.0
 10
34.93592600151295
 20
22.94252471453278
 30
0.0
 10
34.93596574053705
 20
22.94215037737891
 30
0.0
 10
34.93596574053705
 20
22.94177604022504
 30
0.0
  0
SPLINE
  5
10E
330
6C
100
AcDbEntity
  8
Visible (ANSI)
100
AcDbSpline
210
0.0
220
0.0
230
1.0
 70
     8
 71
     3
 72
    11
 73
     7
 74
     0
 42
0.0000000001
 43
0.0000000001
 40
0.0
 40
0.0
 40
0.0
 40
0.0
 40
1.483474787627028
 40
1.483474787627028
 40
1.483474787627028
 40
1.570796326794917
 40
1.570796326794917
 40
1.570796326794917
 40
1.570796326794917
 10
34.93596574053704
 20
43.73227895331296
 30
0.0
 10
34.93596574053704
 20
43.72591947161885
 30
0.0
 10
34.92283505745073
 20
43.71955998992472
 30
0.0
 10
34.90744107208707
 20
43.71320050823061
 30
0.0
 10
34.90653493838861
 20
43.71282617107673
 30
0.0
 10
34.90562533990338
 20
43.71245183392286
 30
0.0
 10
34.90471574053704
 20
43.71207749676899
 30
0.0
  0
LINE
  5
10F
330
6C
100
AcDbEntity
  8
Visible (ANSI)
100
AcDbLine
 10
35.02966574053704
 20
43.73227895331296
 30
0.0
 11
34.93596574053704
 21
43.73227895331296
 31
0.0
  0
SPLINE
  5
110
330
6C
100
AcDbEntity
  8
Visible (ANSI)
100
AcDbSpline
210
0.0
220
0.0
230
1.0
 70
     8
 71
     3
 72
    11
 73
     7
 74
     0
 42
0.0000000001
 43
0.0000000001
 40
0.0
 40
0.0
 40
0.0
 40
0.0
 40
1.04908000579083
 40
1.04908000579083
 40
1.04908000579083
 40
1.570796326794917
 40
1.570796326794917
 40
1.570796326794917
 40
1.570796326794917
 10
34.90471574053704
 20
43.71207749676899
 30
0.0
 10
34.94840992277824
 20
43.71657477919545
 30
0.0
 10
34.99126720943304
 20
43.72107206162191
 30
0.0
 10
35.01304302929312
 20
43.72556934404837
 30
0.0
 10
35.02387232788001
 20
43.7278058804699
 30
0.0
 10
35.02966574053705
 20
43.73004241689144
 30
0.0
 10
35.02966574053705
 20
43.73227895331296
 30
0.0
  0
LINE
  5
111
330
6C
100
AcDbEntity
  8
Visible (ANSI)
100
AcDbLine
 10
35.02966574053706
 20
22.94177604022504
 30
0.0
 11
34.93596574053705
 21
22.94177604022504
 31
0.0
  0
SPLINE
  5
112
330
6C
100
AcDbEntity
  8
Visible (ANSI)
100
AcDbSpline
210
0.0
220
0.0
230
1.0
 70
     8
 71
     3
 72
    11
 73
     7
 74
     0
 42
0.0000000001
 43
0.0000000001
 40
0.0
 40
0.0
 40
0.0
 40
0.0
 40
1.04908000579083
 40
1.04908000579083
 40
1.04908000579083
 40
1.570796326794956
 40
1.570796326794956
 40
1.570796326794956
 40
1.570796326794956
 10
34.90471574053704
 20
22.96197749676901
 30
0.0
 10
34.94840992277824
 20
22.95748021434254
 30
0.0
 10
34.99126720943304
 20
22.95298293191609
 30
0.0
 10
35.01304302929312
 20
22.94848564948963
 30
0.0
 10
35.02387232788002
 20
22.9462491130681
 30
0.0
 10
35.02966574053705
 20
22.94401257664657
 30
0.0
 10
35.02966574053705
 20
22.94177604022504
 30
0.0
  0
SPLINE
  5
113
330
6C
100
AcDbEntity
  8
Visible (ANSI)
100
AcDbSpline
210
0.0
220
0.0
230
1.0
 70
     8
 71
     3
 72
    11
 73
     7
 74
     0
 42
0.0000000001
 43
0.0000000001
 40
0.0
 40
0.0
 40
0.0
 40
0.0
 40
1.483474787626954
 40
1.483474787626954
 40
1.483474787626954
 40
1.570796326794904
 40
1.570796326794904
 40
1.570796326794904
 40
1.570796326794904
 10
18.15461574053706
 20
22.961977496769
 30
0.0
 10
18.14825625884294
 20
22.94652463439788
 30
0.0
 10
18.14189677714882
 20
22.93219421605579
 30
0.0
 10
18.13553729545471
 20
22.93084656250833
 30
0.0
 10
18.13516295830084
 20
22.93076723579309
 30
0.0
 10
18.13478862114697
 20
22.930727496769
 30
0.0
 10
18.13441428399309
 20
22.930727496769
 30
0.0
  0
SPLINE
  5
114
330
6C
100
AcDbEntity
  8
Visible (ANSI)
100
AcDbSpline
210
0.0
220
0.0
230
1.0
 70
     8
 71
     3
 72
    11
 73
     7
 74
     0
 42
0.0000000001
 43
0.0000000001
 40
0.0
 40
0.0
 40
0.0
 40
0.0
 40
1.483474787626951
 40
1.483474787626951
 40
1.483474787626951
 40
1.570796326794904
 40
1.570796326794904
 40
1.570796326794904
 40
1.570796326794904
 10
34.92491719708102
 20
22.930727496769
 30
0.0
 10
34.9185577153869
 20
22.930727496769
 30
0.0
 10
34.91219823369279
 20
22.94385817985531
 30
0.0
 10
34.90583875199867
 20
22.95925216521898
 30
0.0
 10
34.9054644148448
 20
22.96015829891744
 30
0.0
 10
34.90509007769092
 20
22.96106789740267
 30
0.0
 10
34.90471574053705
 20
22.961977496769
 30
0.0
  0
LINE
  5
115
330
6C
100
AcDbEntity
  8
Visible (ANSI)
100
AcDbLine
 10
34.92491719708102
 20
22.837027496769
 30
0.0
 11
34.92491719708102
 21
22.930727496769
 31
0.0
  0
SPLINE
  5
116
330
6C
100
AcDbEntity
  8
Visible (ANSI)
100
AcDbSpline
210
0.0
220
0.0
230
1.0
 70
     8
 71
     3
 72
    11
 73
     7
 74
     0
 42
0.0000000001
 43
0.0000000001
 40
0.0
 40
0.0
 40
0.0
 40
0.0
 40
1.049080005790748
 40
1.049080005790748
 40
1.049080005790748
 40
1.570796326794904
 40
1.570796326794904
 40
1.570796326794904
 40
1.570796326794904
 10
34.90471574053705
 20
22.961977496769
 30
0.0
 10
34.90921302296352
 20
22.91828331452782
 30
0.0
 10
34.91371030538997
 20
22.87542602787302
 30
0.0
 10
34.91820758781643
 20
22.85365020801293
 30
0.0
 10
34.92044412423795
 20
22.84282090942603
 30
0.0
 10
34.92268066065949
 20
22.837027496769
 30
0.0
 10
34.92491719708102
 20
22.837027496769
 30
0.0
  0
LINE
  5
117
330
6C
100
AcDbEntity
  8
Visible (ANSI)
100
AcDbLine
 10
18.13441428399309
 20
22.837027496769
 30
0.0
 11
18.13441428399309
 21
22.930727496769
 31
0.0
  0
SPLINE
  5
118
330
6C
100
AcDbEntity
  8
Visible (ANSI)
100
AcDbSpline
210
0.0
220
0.0
230
1.0
 70
     8
 71
     3
 72
    11
 73
     7
 74
     0
 42
0.0000000001
 43
0.0000000001
 40
0.0
 40
0.0
 40
0.0
 40
0.0
 40
1.049080005790748
 40
1.049080005790748
 40
1.049080005790748
 40
1.570796326794904
 40
1.570796326794904
 40
1.570796326794904
 40
1.570796326794904
 10
18.15461574053706
 20
22.961977496769
 30
0.0
 10
18.1501184581106
 20
22.91828331452782
 30
0.0
 10
18.14562117568414
 20
22.87542602787302
 30
0.0
 10
18.14112389325768
 20
22.85365020801293
 30
0.0
 10
18.13888735683615
 20
22.84282090942603
 30
0.0
 10
18.13665082041462
 20
22.837027496769
 30
0.0
 10
18.13441428399309
 20
22.837027496769
 30
0.0
  0
SPLINE
  5
119
330
6C
100
AcDbEntity
  8
Visible (ANSI)
100
AcDbSpline
210
0.0
220
0.0
230
1.0
 70
     8
 71
     3
 72
    11
 73
     7
 74
     0
 42
0.0000000001
 43
0.0000000001
 40
0.0
 40
0.0
 40
0.0
 40
0.0
 40
1.483474787626955
 40
1.483474787626955
 40
1.483474787626955
 40
1.570796326794877
 40
1.570796326794877
 40
1.570796326794877
 40
1.570796326794877
 10
18.15461574053705
 20
43.712077496769
 30
0.0
 10
18.13916287816594
 20
43.71843697846311
 30
0.0
 10
18.12483245982384
 20
43.72479646015723
 30
0.0
 10
18.12348480627637
 20
43.73115594185135
 30
0.0
 10
18.12340547956114
 20
43.73153027900522
 30
0.0
 10
18.12336574053705
 20
43.7319046161591
 30
0.0
 10
18.12336574053705
 20
43.73227895331296
 30
0.0
  0
SPLINE
  5
11A
330
6C
100
AcDbEntity
  8
Visible (ANSI)
100
AcDbSpline
210
0.0
220
0.0
230
1.0
 70
     8
 71
     3
 72
    11
 73
     7
 74
     0
 42
0.0000000001
 43
0.0000000001
 40
0.0
 40
0.0
 40
0.0
 40
0.0
 40
1.48347478762695
 40
1.48347478762695
 40
1.48347478762695
 40
1.57079632679489
 40
1.57079632679489
 40
1.57079632679489
 40
1.57079632679489
 10
18.12336574053706
 20
22.94177604022504
 30
0.0
 10
18.12336574053706
 20
22.94813552191916
 30
0.0
 10
18.13649642362338
 20
22.95449500361327
 30
0.0
 10
18.15189040898703
 20
22.96085448530739
 30
0.0
 10
18.1527965426855
 20
22.96122882246126
 30
0.0
 10
18.15370614117072
 20
22.96160315961513
 30
0.0
 10
18.15461574053706
 20
22.961977496769
 30
0.0
  0
LINE
  5
11B
330
6C
100
AcDbEntity
  8
Visible (ANSI)
100
AcDbLine
 10
18.02966574053706
 20
22.94177604022504
 30
0.0
 11
18.12336574053706
 21
22.94177604022504
 31
0.0
  0
SPLINE
  5
11C
330
6C
100
AcDbEntity
  8
Visible (ANSI)
100
AcDbSpline
210
0.0
220
0.0
230
1.0
 70
     8
 71
     3
 72
    11
 73
     7
 74
     0
 42
0.0000000001
 43
0.0000000001
 40
0.0
 40
0.0
 40
0.0
 40
0.0
 40
1.049080005790747
 40
1.049080005790747
 40
1.049080005790747
 40
1.57079632679489
 40
1.57079632679489
 40
1.57079632679489
 40
1.57079632679489
 10
18.15461574053706
 20
22.961977496769
 30
0.0
 10
18.11092155829587
 20
22.95748021434254
 30
0.0
 10
18.06806427164107
 20
22.95298293191608
 30
0.0
 10
18.04628845178099
 20
22.94848564948963
 30
0.0
 10
18.03545915319409
 20
22.9462491130681
 30
0.0
 10
18.02966574053706
 20
22.94401257664657
 30
0.0
 10
18.02966574053706
 20
22.94177604022504
 30
0.0
  0
LINE
  5
11D
330
6C
100
AcDbEntity
  8
Visible (ANSI)
100
AcDbLine
 10
18.02966574053705
 20
43.73227895331296
 30
0.0
 11
18.12336574053705
 21
43.73227895331296
 31
0.0
  0
SPLINE
  5
11E
330
6C
100
AcDbEntity
  8
Visible (ANSI)
100
AcDbSpline
210
0.0
220
0.0
230
1.0
 70
     8
 71
     3
 72
    11
 73
     7
 74
     0
 42
0.0000000001
 43
0.0000000001
 40
0.0
 40
0.0
 40
0.0
 40
0.0
 40
1.049080005790748
 40
1.049080005790748
 40
1.049080005790748
 40
1.570796326794877
 40
1.570796326794877
 40
1.570796326794877
 40
1.570796326794877
 10
18.15461574053705
 20
43.712077496769
 30
0.0
 10
18.11092155829587
 20
43.71657477919546
 30
0.0
 10
18.06806427164107
 20
43.72107206162191
 30
0.0
 10
18.04628845178098
 20
43.72556934404837
 30
0.0
 10
18.03545915319408
 20
43.7278058804699
 30
0.0
 10
18.02966574053705
 20
43.73004241689144
 30
0.0
 10
18.02966574053705
 20
43.73227895331296
 30
0.0
  0
SPLINE
  5
11F
330
6C
100
AcDbEntity
  8
Visible (ANSI)
100
AcDbSpline
210
0.0
220
0.0
230
1.0
 70
     8
 71
     3
 72
    11
 73
     7
 74
     0
 42
0.0000000001
 43
0.0000000001
 40
0.0
 40
0.0
 40
0.0
 40
0.0
 40
1.483474787626995
 40
1.483474787626995
 40
1.483474787626995
 40
1.570796326794917
 40
1.570796326794917
 40
1.570796326794917
 40
1.570796326794917
 10
34.90471574053705
 20
43.712077496769
 30
0.0
 10
34.91107522223117
 20
43.72753035914011
 30
0.0
 10
34.91743470392529
 20
43.74186077748222
 30
0.0
 10
34.92379418561941
 20
43.74320843102967
 30
0.0
 10
34.92416852277327
 20
43.74328775774491
 30
0.0
 10
34.92454285992714
 20
43.743327496769
 30
0.0
 10
34.92491719708102
 20
43.743327496769
 30
0.0
  0
SPLINE
  5
120
330
6C
100
AcDbEntity
  8
Visible (ANSI)
100
AcDbSpline
210
0.0
220
0.0
230
1.0
 70
     8
 71
     3
 72
    11
 73
     7
 74
     0
 42
0.0000000001
 43
0.0000000001
 40
0.0
 40
0.0
 40
0.0
 40
0.0
 40
1.483474787627001
 40
1.483474787627001
 40
1.483474787627001
 40
1.570796326794917
 40
1.570796326794917
 40
1.570796326794917
 40
1.570796326794917
 10
18.13441428399309
 20
43.743327496769
 30
0.0
 10
18.14077376568721
 20
43.743327496769
 30
0.0
 10
18.14713324738132
 20
43.73019681368268
 30
0.0
 10
18.15349272907544
 20
43.71480282831902
 30
0.0
 10
18.15386706622931
 20
43.71389669462056
 30
0.0
 10
18.15424140338318
 20
43.71298709613533
 30
0.0
 10
18.15461574053705
 20
43.712077496769
 30
0.0
  0
LINE
  5
121
330
6C
100
AcDbEntity
  8
Visible (ANSI)
100
AcDbLine
 10
18.13441428399309
 20
43.837027496769
 30
0.0
 11
18.13441428399309
 21
43.743327496769
 31
0.0
  0
SPLINE
  5
122
330
6C
100
AcDbEntity
  8
Visible (ANSI)
100
AcDbSpline
210
0.0
220
0.0
230
1.0
 70
     8
 71
     3
 72
    11
 73
     7
 74
     0
 42
0.0000000001
 43
0.0000000001
 40
0.0
 40
0.0
 40
0.0
 40
0.0
 40
1.04908000579083
 40
1.04908000579083
 40
1.04908000579083
 40
1.570796326794917
 40
1.570796326794917
 40
1.570796326794917
 40
1.570796326794917
 10
18.15461574053705
 20
43.712077496769
 30
0.0
 10
18.15011845811059
 20
43.75577167901019
 30
0.0
 10
18.14562117568413
 20
43.79862896566499
 30
0.0
 10
18.14112389325767
 20
43.82040478552506
 30
0.0
 10
18.13888735683615
 20
43.83123408411196
 30
0.0
 10
18.13665082041461
 20
43.83702749676899
 30
0.0
 10
18.13441428399309
 20
43.83702749676899
 30
0.0
  0
LINE
  5
123
330
6C
100
AcDbEntity
  8
Visible (ANSI)
100
AcDbLine
 10
34.92491719708102
 20
43.837027496769
 30
0.0
 11
34.92491719708102
 21
43.743327496769
 31
0.0
  0
SPLINE
  5
124
330
6C
100
AcDbEntity
  8
Visible (ANSI)
100
AcDbSpline
210
0.0
220
0.0
230
1.0
 70
     8
 71
     3
 72
    11
 73
     7
 74
     0
 42
0.0000000001
 43
0.0000000001
 40
0.0
 40
0.0
 40
0.0
 40
0.0
 40
1.04908000579083
 40
1.04908000579083
 40
1.04908000579083
 40
1.570796326794917
 40
1.570796326794917
 40
1.570796326794917
 40
1.570796326794917
 10
34.90471574053705
 20
43.712077496769
 30
0.0
 10
34.90921302296352
 20
43.75577167901019
 30
0.0
 10
34.91371030538997
 20
43.79862896566499
 30
0.0
 10
34.91820758781643
 20
43.82040478552506
 30
0.0
 10
34.92044412423795
 20
43.83123408411196
 30
0.0
 10
34.92268066065949
 20
43.83702749676899
 30
0.0
 10
34.92491719708102
 20
43.83702749676899
 30
0.0
  0
LINE
  5
125
330
6C
100
AcDbEntity
  8
Visible (ANSI)
100
AcDbLine
 10
35.02966574053704
 20
43.73227895331296
 30
0.0
 11
35.02966574053706
 21
22.94177604022504
 31
0.0
  0
LINE
  5
126
330
6C
100
AcDbEntity
  8
Visible (ANSI)
100
AcDbLine
 10
34.92491719708102
 20
22.837027496769
 30
0.0
 11
18.13441428399309
 21
22.837027496769
 31
0.0
  0
LINE
  5
127
330
6C
100
AcDbEntity
  8
Visible (ANSI)
100
AcDbLine
 10
18.02966574053706
 20
22.94177604022504
 30
0.0
 11
18.02966574053705
 21
43.73227895331296
 31
0.0
  0
LINE
  5
128
330
6C
100
AcDbEntity
  8
Visible (ANSI)
100
AcDbLine
 10
18.13441428399309
 20
43.837027496769
 30
0.0
 11
34.92491719708102
 21
43.837027496769
 31
0.0
  0
MTEXT
  5
12A
330
6C
100
AcDbEntity
  8
Symbol (ANSI)
100
AcDbMText
 10
23.6798168234818
 20
15.00856233212359
 30
0.0
 40
0.6857142941890069
 41
0.0
 71
     7
 72
     1
  1
FRONT VIEW
  7
Text Style168
 73
     1
 44
1.0
1001
ACAD
1000
MTEXTBEGIN
1070
    73
1070
     1
1070
    44
1040
1.0
1070
    74
1070
     0
1000
MTEXTEND
  0
LINE
  5
12C
330
6C
100
AcDbEntity
  8
Symbol (ANSI)
370
    30
100
AcDbLine
 10
23.61124521851959
 20
14.86872440426707
 30
0.0
 11
29.12418810015203
 21
14.86872440426707
 31
0.0
  0
LINE
  5
12D
330
6C
100
AcDbEntity
  8
Visible (ANSI)
100
AcDbLine
 10
57.22911608201738
 20
22.94177604022504
 30
0.0
 11
57.97916608201738
 21
22.94177604022504
 31
0.0
  0
LINE
  5
12E
330
6C
100
AcDbEntity
  8
Visible (ANSI)
100
AcDbLine
 10
57.22911608201737
 20
43.73227895331296
 30
0.0
 11
57.97916608201737
 21
43.73227895331296
 31
0.0
  0
SPLINE
  5
12F
330
6C
100
AcDbEntity
  8
Visible (ANSI)
100
AcDbSpline
210
0.0
220
0.0
230
1.0
 70
     8
 71
     3
 72
    11
 73
     7
 74
     0
 42
0.0000000001
 43
0.0000000001
 40
0.0
 40
0.0
 40
0.0
 40
0.0
 40
1.04908000579083
 40
1.04908000579083
 40
1.04908000579083
 40
1.570796326794917
 40
1.570796326794917
 40
1.570796326794917
 40
1.570796326794917
 10
57.10416608201733
 20
43.71207749676899
 30
0.0
 10
57.10416608201736
 20
43.71657477919545
 30
0.0
 10
57.12896356186099
 20
43.72107206162191
 30
0.0
 10
57.16684489276618
 20
43.72556934404837
 30
0.0
 10
57.18568359761757
 20
43.7278058804699
 30
0.0
 10
57.20738659724755
 20
43.73004241689144
 30
0.0
 10
57.22911608201738
 20
43.73227895331296
 30
0.0
  0
SPLINE
  5
130
330
6C
100
AcDbEntity
  8
Visible (ANSI)
100
AcDbSpline
210
0.0
220
0.0
230
1.0
 70
     8
 71
     3
 72
    11
 73
     7
 74
     0
 42
0.0000000001
 43
0.0000000001
 40
0.0
 40
0.0
 40
0.0
 40
0.0
 40
1.04908000579083
 40
1.04908000579083
 40
1.04908000579083
 40
1.570796326794956
 40
1.570796326794956
 40
1.570796326794956
 40
1.570796326794956
 10
57.10416608201733
 20
22.96197749676901
 30
0.0
 10
57.10416608201736
 20
22.95748021434254
 30
0.0
 10
57.12896356186099
 20
22.95298293191609
 30
0.0
 10
57.16684489276618
 20
22.94848564948963
 30
0.0
 10
57.18568359761757
 20
22.9462491130681
 30
0.0
 10
57.20738659724756
 20
22.94401257664657
 30
0.0
 10
57.22911608201739
 20
22.94177604022504
 30
0.0
  0
SPLINE
  5
131
330
6C
100
AcDbEntity
  8
Visible (ANSI)
100
AcDbSpline
210
0.0
220
0.0
230
1.0
 70
     8
 71
     3
 72
     8
 73
     4
 74
     0
 42
0.0000000001
 43
0.0000000001
 40
0.0
 40
0.0
 40
0.0
 40
0.0
 40
0.9756948527145061
 40
0.9756948527145061
 40
0.9756948527145061
 40
0.9756948527145061
 10
57.22911608201735
 20
22.930727496769
 30
0.0
 10
57.21895259396823
 20
22.930727496769
 30
0.0
 10
57.20927465415706
 20
22.93640758403459
 30
0.0
 10
57.20345667350057
 20
22.94467585159605
 30
0.0
  0
LINE
  5
132
330
6C
100
AcDbEntity
  8
Visible (ANSI)
100
AcDbLine
 10
57.22911608201735
 20
22.837027496769
 30
0.0
 11
57.97916608201735
 21
22.837027496769
 31
0.0
  0
LINE
  5
133
330
6C
100
AcDbEntity
  8
Visible (ANSI)
100
AcDbLine
 10
57.97916608201735
 20
22.930727496769
 30
0.0
 11
57.22911608201735
 21
22.930727496769
 31
0.0
  0
LINE
  5
134
330
6C
100
AcDbEntity
  8
Visible (ANSI)
100
AcDbLine
 10
57.22911608201735
 20
22.837027496769
 30
0.0
 11
57.22911608201735
 21
22.930727496769
 31
0.0
  0
LINE
  5
135
330
6C
100
AcDbEntity
  8
Visible (ANSI)
100
AcDbLine
 10
57.97916608201735
 20
22.837027496769
 30
0.0
 11
57.97916608201735
 21
22.930727496769
 31
0.0
  0
SPLINE
  5
136
330
6C
100
AcDbEntity
  8
Visible (ANSI)
100
AcDbSpline
210
0.0
220
0.0
230
1.0
 70
     8
 71
     3
 72
    11
 73
     7
 74
     0
 42
0.0000000001
 43
0.0000000001
 40
0.0
 40
0.0
 40
0.0
 40
0.0
 40
1.049080005790748
 40
1.049080005790748
 40
1.049080005790748
 40
1.570796326794904
 40
1.570796326794904
 40
1.570796326794904
 40
1.570796326794904
 10
57.10416608201733
 20
22.961977496769
 30
0.0
 10
57.10416608201734
 20
22.91828331452782
 30
0.0
 10
57.12896356186097
 20
22.87542602787302
 30
0.0
 10
57.16684489276614
 20
22.85365020801293
 30
0.0
 10
57.18568359761754
 20
22.84282090942603
 30
0.0
 10
57.20738659724752
 20
22.837027496769
 30
0.0
 10
57.22911608201735
 20
22.837027496769
 30
0.0
  0
SPLINE
  5
137
330
6C
100
AcDbEntity
  8
Visible (ANSI)
100
AcDbSpline
210
0.0
220
0.0
230
1.0
 70
     8
 71
     3
 72
    11
 73
     7
 74
     0
 42
0.0000000001
 43
0.0000000001
 40
0.5951014740804311
 40
0.5951014740804311
 40
0.5951014740804311
 40
0.5951014740804311
 40
1.483474787626995
 40
1.483474787626995
 40
1.483474787626995
 40
1.570796326794917
 40
1.570796326794917
 40
1.570796326794917
 40
1.570796326794917
 10
57.20350367309327
 20
43.72936688443209
 30
0.0
 10
57.20876514794264
 20
43.73693851851313
 30
0.0
 10
57.21717212005968
 20
43.74240139375647
 30
0.0
 10
57.22639075046733
 20
43.74320843102967
 30
0.0
 10
57.22729688416579
 20
43.74328775774491
 30
0.0
 10
57.22820648265102
 20
43.743327496769
 30
0.0
 10
57.22911608201735
 20
43.743327496769
 30
0.0
  0
LINE
  5
138
330
6C
100
AcDbEntity
  8
Visible (ANSI)
100
AcDbLine
 10
57.22911608201735
 20
43.837027496769
 30
0.0
 11
57.97916608201735
 21
43.837027496769
 31
0.0
  0
LINE
  5
139
330
6C
100
AcDbEntity
  8
Visible (ANSI)
100
AcDbLine
 10
57.22911608201735
 20
43.837027496769
 30
0.0
 11
57.22911608201735
 21
43.743327496769
 31
0.0
  0
SPLINE
  5
13A
330
6C
100
AcDbEntity
  8
Visible (ANSI)
100
AcDbSpline
210
0.0
220
0.0
230
1.0
 70
     8
 71
     3
 72
    11
 73
     7
 74
     0
 42
0.0000000001
 43
0.0000000001
 40
0.0
 40
0.0
 40
0.0
 40
0.0
 40
1.04908000579083
 40
1.04908000579083
 40
1.04908000579083
 40
1.570796326794917
 40
1.570796326794917
 40
1.570796326794917
 40
1.570796326794917
 10
57.10416608201733
 20
43.712077496769
 30
0.0
 10
57.10416608201734
 20
43.75577167901019
 30
0.0
 10
57.12896356186097
 20
43.79862896566499
 30
0.0
 10
57.16684489276615
 20
43.82040478552506
 30
0.0
 10
57.18568359761754
 20
43.83123408411196
 30
0.0
 10
57.20738659724753
 20
43.83702749676899
 30
0.0
 10
57.22911608201735
 20
43.83702749676899
 30
0.0
  0
LINE
  5
13B
330
6C
100
AcDbEntity
  8
Visible (ANSI)
100
AcDbLine
 10
57.22911608201735
 20
43.743327496769
 30
0.0
 11
57.97916608201735
 21
43.743327496769
 31
0.0
  0
LINE
  5
13C
330
6C
100
AcDbEntity
  8
Visible (ANSI)
100
AcDbLine
 10
57.97916608201735
 20
43.837027496769
 30
0.0
 11
57.97916608201735
 21
43.743327496769
 31
0.0
  0
LINE
  5
13D
330
6C
100
AcDbEntity
  8
Visible (ANSI)
100
AcDbLine
 10
57.97916608201738
 20
22.94177604022504
 30
0.0
 11
57.97916608201737
 21
43.73227895331296
 31
0.0
  0
LINE
  5
13E
330
6C
100
AcDbEntity
  8
Visible (ANSI)
100
AcDbLine
 10
57.10416608201734
 20
22.961977496769
 30
0.0
 11
57.10416608201734
 21
43.712077496769
 31
0.0
  0
MTEXT
  5
13F
330
6C
100
AcDbEntity
  8
Symbol (ANSI)
100
AcDbMText
 10
56.14045597261266
 20
15.25617447647285
 30
0.0
 40
0.6857142941890069
 41
0.0
 71
     7
 72
     1
  1
SIDE VIEW
  7
Text Style168
 73
     1
 44
1.0
1001
ACAD
1000
MTEXTBEGIN
1070
    73
1070
     1
1070
    44
1040
1.0
1070
    74
1070
     0
1000
MTEXTEND
  0
LINE
  5
140
330
6C
100
AcDbEntity
  8
Symbol (ANSI)
370
    30
100
AcDbLine
 10
56.105347310872
 20
15.11411381267453
 30
0.0
 11
60.73919771318911
 21
15.11411381267453
 31
0.0
  0
SPLINE
  5
141
330
6C
100
AcDbEntity
  8
Visible (ANSI)
100
AcDbSpline
210
0.0
220
0.0
230
1.0
 70
     8
 71
     3
 72
     8
 73
     4
 74
     0
 42
0.0000000001
 43
0.0000000001
 40
0.0
 40
0.0
 40
0.0
 40
0.0
 40
0.9756948527140162
 40
0.9756948527140162
 40
0.9756948527140162
 40
0.9756948527140162
 10
34.93596574054412
 20
56.88883045961769
 30
0.0
 10
34.93596574054412
 20
56.87866697156858
 30
0.0
 10
34.93028565327854
 20
56.86898903175741
 30
0.0
 10
34.92201738571709
 20
56.86317105110092
 30
0.0
  0
LINE
  5
142
330
6C
100
AcDbEntity
  8
Visible (ANSI)
100
AcDbLine
 10
35.02966574054413
 20
56.88883045961769
 30
0.0
 11
35.02966574054415
 21
57.63888045961768
 31
0.0
  0
LINE
  5
143
330
6C
100
AcDbEntity
  8
Visible (ANSI)
100
AcDbLine
 10
34.93596574054415
 20
57.63888045961768
 30
0.0
 11
34.93596574054412
 21
56.88883045961769
 31
0.0
  0
LINE
  5
144
330
6C
100
AcDbEntity
  8
Visible (ANSI)
100
AcDbLine
 10
35.02966574054413
 20
56.88883045961769
 30
0.0
 11
34.93596574054412
 21
56.88883045961769
 31
0.0
  0
LINE
  5
145
330
6C
100
AcDbEntity
  8
Visible (ANSI)
100
AcDbLine
 10
35.02966574054415
 20
57.63888045961768
 30
0.0
 11
34.93596574054415
 21
57.63888045961768
 31
0.0
  0
SPLINE
  5
146
330
6C
100
AcDbEntity
  8
Visible (ANSI)
100
AcDbSpline
210
0.0
220
0.0
230
1.0
 70
     8
 71
     3
 72
    11
 73
     7
 74
     0
 42
0.0000000001
 43
0.0000000001
 40
0.0
 40
0.0
 40
0.0
 40
0.0
 40
1.04908000579083
 40
1.04908000579083
 40
1.04908000579083
 40
1.570796326794917
 40
1.570796326794917
 40
1.570796326794917
 40
1.570796326794917
 10
34.90471574054413
 20
56.76388045961768
 30
0.0
 10
34.94840992278532
 20
56.76388045961768
 30
0.0
 10
34.99126720944012
 20
56.78867793946132
 30
0.0
 10
35.0130430293002
 20
56.82655927036648
 30
0.0
 10
35.0238723278871
 20
56.84539797521788
 30
0.0
 10
35.02966574054414
 20
56.86710097484787
 30
0.0
 10
35.02966574054414
 20
56.88883045961769
 30
0.0
  0
SPLINE
  5
147
330
6C
100
AcDbEntity
  8
Visible (ANSI)
100
AcDbSpline
210
0.0
220
0.0
230
1.0
 70
     8
 71
     3
 72
    11
 73
     7
 74
     0
 42
0.0000000001
 43
0.0000000001
 40
0.5951014740804971
 40
0.5951014740804971
 40
0.5951014740804971
 40
0.5951014740804971
 40
1.483474787626955
 40
1.483474787626955
 40
1.483474787626955
 40
1.570796326794877
 40
1.570796326794877
 40
1.570796326794877
 40
1.570796326794877
 10
18.13732635288105
 20
56.86321805069361
 30
0.0
 10
18.1297547188
 20
56.86847952554298
 30
0.0
 10
18.12429184355666
 20
56.87688649766001
 30
0.0
 10
18.12348480628346
 20
56.88610512806766
 30
0.0
 10
18.12340547956823
 20
56.88701126176613
 30
0.0
 10
18.12336574054413
 20
56.88792086025135
 30
0.0
 10
18.12336574054413
 20
56.88883045961769
 30
0.0
  0
LINE
  5
148
330
6C
100
AcDbEntity
  8
Visible (ANSI)
100
AcDbLine
 10
18.02966574054413
 20
56.88883045961769
 30
0.0
 11
18.02966574054413
 21
57.63888045961768
 31
0.0
  0
LINE
  5
149
330
6C
100
AcDbEntity
  8
Visible (ANSI)
100
AcDbLine
 10
18.02966574054413
 20
56.88883045961769
 30
0.0
 11
18.12336574054413
 21
56.88883045961769
 31
0.0
  0
SPLINE
  5
14A
330
6C
100
AcDbEntity
  8
Visible (ANSI)
100
AcDbSpline
210
0.0
220
0.0
230
1.0
 70
     8
 71
     3
 72
    11
 73
     7
 74
     0
 42
0.0000000001
 43
0.0000000001
 40
0.0
 40
0.0
 40
0.0
 40
0.0
 40
1.049080005790748
 40
1.049080005790748
 40
1.049080005790748
 40
1.570796326794877
 40
1.570796326794877
 40
1.570796326794877
 40
1.570796326794877
 10
18.15461574054413
 20
56.76388045961768
 30
0.0
 10
18.11092155830294
 20
56.76388045961768
 30
0.0
 10
18.06806427164815
 20
56.7886779394613
 30
0.0
 10
18.04628845178806
 20
56.82655927036647
 30
0.0
 10
18.03545915320117
 20
56.84539797521787
 30
0.0
 10
18.02966574054413
 20
56.86710097484786
 30
0.0
 10
18.02966574054413
 20
56.88883045961769
 30
0.0
  0
LINE
  5
14B
330
6C
100
AcDbEntity
  8
Visible (ANSI)
100
AcDbLine
 10
18.12336574054413
 20
56.88883045961769
 30
0.0
 11
18.12336574054413
 21
57.63888045961768
 31
0.0
  0
LINE
  5
14C
330
6C
100
AcDbEntity
  8
Visible (ANSI)
100
AcDbLine
 10
18.02966574054413
 20
57.63888045961768
 30
0.0
 11
18.12336574054413
 21
57.63888045961768
 31
0.0
  0
LINE
  5
14D
330
6C
100
AcDbEntity
  8
Visible (ANSI)
100
AcDbLine
 10
34.9249171970881
 20
56.88883045961771
 30
0.0
 11
34.92491719708809
 21
57.63888045961772
 31
0.0
  0
LINE
  5
14E
330
6C
100
AcDbEntity
  8
Visible (ANSI)
100
AcDbLine
 10
18.13441428400017
 20
56.88883045961771
 30
0.0
 11
18.13441428400017
 21
57.63888045961772
 31
0.0
  0
SPLINE
  5
14F
330
6C
100
AcDbEntity
  8
Visible (ANSI)
100
AcDbSpline
210
0.0
220
0.0
230
1.0
 70
     8
 71
     3
 72
    11
 73
     7
 74
     0
 42
0.0000000001
 43
0.0000000001
 40
0.0
 40
0.0
 40
0.0
 40
0.0
 40
1.04908000579083
 40
1.04908000579083
 40
1.04908000579083
 40
1.570796326794917
 40
1.570796326794917
 40
1.570796326794917
 40
1.570796326794917
 10
18.15461574054413
 20
56.76388045961768
 30
0.0
 10
18.15011845811767
 20
56.76388045961768
 30
0.0
 10
18.14562117569121
 20
56.78867793946134
 30
0.0
 10
18.14112389326475
 20
56.82655927036652
 30
0.0
 10
18.13888735684322
 20
56.8453979752179
 30
0.0
 10
18.13665082042169
 20
56.8671009748479
 30
0.0
 10
18.13441428400017
 20
56.88883045961771
 30
0.0
  0
SPLINE
  5
150
330
6C
100
AcDbEntity
  8
Visible (ANSI)
100
AcDbSpline
210
0.0
220
0.0
230
1.0
 70
     8
 71
     3
 72
    11
 73
     7
 74
     0
 42
0.0000000001
 43
0.0000000001
 40
0.0
 40
0.0
 40
0.0
 40
0.0
 40
1.04908000579083
 40
1.04908000579083
 40
1.04908000579083
 40
1.570796326794917
 40
1.570796326794917
 40
1.570796326794917
 40
1.570796326794917
 10
34.90471574054414
 20
56.76388045961768
 30
0.0
 10
34.90921302297059
 20
56.76388045961768
 30
0.0
 10
34.91371030539705
 20
56.78867793946134
 30
0.0
 10
34.91820758782351
 20
56.82655927036652
 30
0.0
 10
34.92044412424504
 20
56.8453979752179
 30
0.0
 10
34.92268066066657
 20
56.8671009748479
 30
0.0
 10
34.9249171970881
 20
56.88883045961771
 30
0.0
  0
LINE
  5
151
330
6C
100
AcDbEntity
  8
Visible (ANSI)
100
AcDbLine
 10
34.92491719708809
 20
57.63888045961772
 30
0.0
 11
18.13441428400017
 21
57.63888045961772
 31
0.0
  0
LINE
  5
152
330
6C
100
AcDbEntity
  8
Visible (ANSI)
100
AcDbLine
 10
34.90471574054414
 20
56.76388045961768
 30
0.0
 11
18.15461574054413
 21
56.76388045961768
 31
0.0
  0
MTEXT
  5
153
330
6C
100
AcDbEntity
  8
Symbol (ANSI)
100
AcDbMText
 10
24.56569910396141
 20
53.29478345628257
 30
0.0
 40
0.6857142941890069
 41
0.0
 71
     7
 72
     1
  1
TOP VIEW
  7
Text Style168
 73
     1
 44
1.0
1001
ACAD
1000
MTEXTBEGIN
1070
    73
1070
     1
1070
    44
1040
1.0
1070
    74
1070
     0
1000
MTEXTEND
  0
LINE
  5
154
330
6C
100
AcDbEntity
  8
Symbol (ANSI)
370
    30
100
AcDbLine
 10
24.5662476768011
 20
53.15494552842605
 30
0.0
 11
28.892804690331
 21
53.15494552842605
 31
0.0
  0
ELLIPSE
  5
155
330
6C
100
AcDbEntity
  8
Visible (ANSI)
100
AcDbEllipse
 10
84.13506048753095
 20
22.99954878041235
 30
0.0
 11
-0.0778490250071677
 21
0.1351870160386469
 31
0.0
210
0.0
220
0.0
230
1.0
 40
0.5780931159158113
 41
0.0
 42
6.283185307179586
  0
ELLIPSE
  5
156
330
6C
100
AcDbEntity
  8
Visible (ANSI)
100
AcDbEllipse
 10
84.20131639292812
 20
23.0377030187947
 30
0.0
 11
0.0778490250071754
 21
-0.1351870160386416
 31
0.0
210
0.0
220
0.0
230
1.0
 40
0.5780931159158114
 41
3.57933795225616
 42
5.84544000851246
  0
ELLIPSE
  5
157
330
6C
100
AcDbEntity
  8
Visible (ANSI)
100
AcDbEllipse
 10
76.18010919918109
 20
27.58050056057543
 30
0.0
 11
-0.0778490250071677
 21
0.1351870160386469
 31
0.0
210
0.0
220
0.0
230
1.0
 40
0.5780931159158113
 41
0.0
 42
6.283185307179586
  0
ELLIPSE
  5
158
330
6C
100
AcDbEntity
  8
Visible (ANSI)
100
AcDbEllipse
 10
76.24636510457825
 20
27.61865479895778
 30
0.0
 11
0.077849025007176
 21
-0.1351870160386425
 31
0.0
210
0.0
220
0.0
230
1.0
 40
0.5780931159158114
 41
3.57933795225613
 42
5.84544000851246
  0
ELLIPSE
  5
159
330
6C
100
AcDbEntity
  8
Visible (ANSI)
100
AcDbEllipse
 10
85.54927404990428
 20
22.18515735282781
 30
0.0
 11
-0.1404775675610111
 21
0.243943237274866
 31
0.0
210
0.0
220
0.0
230
1.0
 40
0.5780931159158113
 41
0.0
 42
6.283185307179586
  0
ELLIPSE
  5
15A
330
6C
100
AcDbEntity
  8
Visible (ANSI)
100
AcDbEllipse
 10
85.61552995530142
 20
22.22331159121016
 30
0.0
 11
-0.1404775675610112
 21
0.2439432372748663
 31
0.0
210
0.0
220
0.0
230
1.0
 40
0.5780931159158113
 41
0.2371295998376308
 42
2.904463053752265
  0
ELLIPSE
  5
15B
330
6C
100
AcDbEntity
  8
Visible (ANSI)
100
AcDbEllipse
 10
85.54927404990426
 20
37.92293950604668
 30
0.0
 11
-0.1404775675610111
 21
0.243943237274866
 31
0.0
210
0.0
220
0.0
230
1.0
 40
0.5780931159158113
 41
0.0
 42
6.283185307179586
  0
ELLIPSE
  5
15C
330
6C
100
AcDbEntity
  8
Visible (ANSI)
100
AcDbEllipse
 10
85.61552995530142
 20
37.96109374442903
 30
0.0
 11
-0.1404775675610117
 21
0.2439432372748672
 31
0.0
210
0.0
220
0.0
230
1.0
 40
0.5780931159158112
 41
0.2371295998376153
 42
2.904463053752282
  0
ELLIPSE
  5
15D
330
6C
100
AcDbEntity
  8
Visible (ANSI)
100
AcDbEllipse
 10
74.76589563680777
 20
44.13267414137885
 30
0.0
 11
-0.1404775675610111
 21
0.243943237274866
 31
0.0
210
0.0
220
0.0
230
1.0
 40
0.5780931159158113
 41
0.0
 42
6.283185307179586
  0
ELLIPSE
  5
15E
330
6C
100
AcDbEntity
  8
Visible (ANSI)
100
AcDbEllipse
 10
74.83215154220494
 20
44.1708283797612
 30
0.0
 11
-0.1404775675610113
 21
0.2439432372748666
 31
0.0
210
0.0
220
0.0
230
1.0
 40
0.5780931159158113
 41
0.2371295998375107
 42
2.904463053752175
  0
ELLIPSE
  5
15F
330
6C
100
AcDbEntity
  8
Visible (ANSI)
100
AcDbEllipse
 10
74.76589563680777
 20
28.39489198815999
 30
0.0
 11
-0.1404775675610111
 21
0.243943237274866
 31
0.0
210
0.0
220
0.0
230
1.0
 40
0.5780931159158113
 41
0.0
 42
6.283185307179586
  0
ELLIPSE
  5
160
330
6C
100
AcDbEntity
  8
Visible (ANSI)
100
AcDbEllipse
 10
74.83215154220494
 20
28.43304622654234
 30
0.0
 11
-0.140477567561011
 21
0.2439432372748659
 31
0.0
210
0.0
220
0.0
230
1.0
 40
0.5780931159158112
 41
0.2371295998375098
 42
2.904463053752184
  0
SPLINE
  5
161
330
6C
100
AcDbEntity
  8
Visible (ANSI)
100
AcDbSpline
210
0.0
220
0.0
230
1.0
 70
     8
 71
     3
 72
    11
 73
     7
 74
     0
 42
0.0000000001
 43
0.0000000001
 40
0.0
 40
0.0
 40
0.0
 40
0.0
 40
1.483474787627028
 40
1.483474787627028
 40
1.483474787627028
 40
1.570796326794917
 40
1.570796326794917
 40
1.570796326794917
 40
1.570796326794917
 10
86.19008957035465
 20
38.28539346300243
 30
0.0
 10
86.17916274658329
 20
38.27390194770457
 30
0.0
 10
86.1597448155444
 20
38.26821424467621
 30
0.0
 10
86.14790668914215
 20
38.26873467481176
 30
0.0
 10
86.14720986340106
 20
38.2687653088076
 30
0.0
 10
86.14653858041059
 20
38.2688134735879
 30
0.0
 10
86.14589539653049
 20
38.26887782028727
 30
0.0
  0
LINE
  5
162
330
6C
100
AcDbEntity
  8
Visible (ANSI)
100
AcDbLine
 10
86.25634547575183
 20
21.25002334399463
 30
0.0
 11
86.78671091698074
 21
21.55544048912462
 31
0.0
  0
LINE
  5
163
330
6C
100
AcDbEntity
  8
Visible (ANSI)
100
AcDbLine
 10
86.25634547575183
 20
38.24723922462009
 30
0.0
 11
86.78671091698074
 21
38.55265636975007
 31
0.0
  0
LINE
  5
164
330
6C
100
AcDbEntity
  8
Visible (ANSI)
100
AcDbLine
 10
86.72045501158356
 20
38.5908106081324
 30
0.0
 11
86.19008957035465
 21
38.28539346300243
 31
0.0
  0
LINE
  5
165
330
6C
100
AcDbEntity
  8
Visible (ANSI)
100
AcDbLine
 10
86.25634547575183
 20
38.24723922462009
 30
0.0
 11
86.19008957035465
 21
38.28539346300243
 31
0.0
  0
LINE
  5
166
330
6C
100
AcDbEntity
  8
Visible (ANSI)
100
AcDbLine
 10
86.78671091698074
 20
38.55265636975007
 30
0.0
 11
86.72045501158356
 21
38.5908106081324
 31
0.0
  0
LINE
  5
167
330
6C
100
AcDbEntity
  8
Visible (ANSI)
100
AcDbLine
 10
86.07963949113331
 20
38.23072358190492
 30
0.0
 11
86.14589539653049
 21
38.26887782028727
 31
0.0
  0
SPLINE
  5
168
330
6C
100
AcDbEntity
  8
Visible (ANSI)
100
AcDbSpline
210
0.0
220
0.0
230
1.0
 70
     8
 71
     3
 72
    11
 73
     7
 74
     0
 42
0.0000000001
 43
0.0000000001
 40
0.0
 40
0.0
 40
0.0
 40
0.0
 40
1.04908000579083
 40
1.04908000579083
 40
1.04908000579083
 40
1.570796326794917
 40
1.570796326794917
 40
1.570796326794917
 40
1.570796326794917
 10
86.07963949113331
 20
38.23072358190492
 30
0.0
 10
86.11053594369446
 20
38.21660823849601
 30
0.0
 10
86.1583750878651
 20
38.21293110288794
 30
0.0
 10
86.20055906371748
 20
38.2231659382713
 30
0.0
 10
86.22153751013295
 20
38.22825580809325
 30
0.0
 10
86.2409804097194
 20
38.23656259763787
 30
0.0
 10
86.25634547575183
 20
38.24723922462009
 30
0.0
  0
SPLINE
  5
169
330
6C
100
AcDbEntity
  8
Visible (ANSI)
100
AcDbSpline
210
0.0
220
0.0
230
1.0
 70
     8
 71
     3
 72
    11
 73
     7
 74
     0
 42
0.0000000001
 43
0.0000000001
 40
0.0
 40
0.0
 40
0.0
 40
0.0
 40
1.04908000579083
 40
1.04908000579083
 40
1.04908000579083
 40
1.570796326794956
 40
1.570796326794956
 40
1.570796326794956
 40
1.570796326794956
 10
86.07963949113331
 20
21.26653898670978
 30
0.0
 10
86.11053594369446
 20
21.24507016266615
 30
0.0
 10
86.1583750878651
 20
21.23403954642336
 30
0.0
 10
86.20055906371748
 20
21.23692090117201
 30
0.0
 10
86.22153751013295
 20
21.23835382315191
 30
0.0
 10
86.2409804097194
 20
21.24300366485448
 30
0.0
 10
86.25634547575183
 20
21.25002334399464
 30
0.0
  0
LINE
  5
16A
330
6C
100
AcDbEntity
  8
Visible (ANSI)
100
AcDbLine
 10
86.18227707035464
 20
21.20703963138199
 30
0.0
 11
86.71264251158353
 21
21.51245677651198
 31
0.0
  0
LINE
  5
16B
330
6C
100
AcDbEntity
  8
Visible (ANSI)
100
AcDbLine
 10
86.18227707035464
 20
21.20703963138199
 30
0.0
 11
86.18227707035464
 21
21.23647346089886
 31
0.0
  0
LINE
  5
16C
330
6C
100
AcDbEntity
  8
Visible (ANSI)
100
AcDbLine
 10
86.71264251158353
 20
21.51245677651198
 30
0.0
 11
86.71264251158353
 21
21.5127873312033
 31
0.0
  0
SPLINE
  5
16D
330
6C
100
AcDbEntity
  8
Visible (ANSI)
100
AcDbSpline
210
0.0
220
0.0
230
1.0
 70
     8
 71
     3
 72
    11
 73
     7
 74
     0
 42
0.0000000001
 43
0.0000000001
 40
0.0
 40
0.0
 40
0.0
 40
0.0
 40
1.049080005790748
 40
1.049080005790748
 40
1.049080005790748
 40
1.570796326794904
 40
1.570796326794904
 40
1.570796326794904
 40
1.570796326794904
 10
86.07963949113331
 20
21.26653898670976
 30
0.0
 10
86.08281955003398
 20
21.22898565951837
 30
0.0
 10
86.1035340750884
 20
21.2022139614126
 30
0.0
 10
86.13350027995247
 20
21.19800504394447
 30
0.0
 10
86.1484027259717
 20
21.19591191384499
 30
0.0
 10
86.1653305342522
 20
21.19910218636539
 30
0.0
 10
86.18227707035464
 20
21.20703963138199
 30
0.0
  0
SPLINE
  5
16E
330
6C
100
AcDbEntity
  8
Visible (ANSI)
100
AcDbSpline
210
0.0
220
0.0
230
1.0
 70
     8
 71
     3
 72
     8
 73
     4
 74
     0
 42
0.0000000001
 43
0.0000000001
 40
0.0
 40
0.0
 40
0.0
 40
0.0
 40
0.7873318718204802
 40
0.7873318718204802
 40
0.7873318718204802
 40
0.7873318718204802
 10
74.23553019557875
 20
28.08710791230173
 30
0.0
 10
74.23314356947497
 20
28.06167296904694
 30
0.0
 10
74.24063316876794
 20
28.04231073984342
 30
0.0
 10
74.25449773536186
 20
28.03400129426385
 30
0.0
  0
LINE
  5
16F
330
6C
100
AcDbEntity
  8
Visible (ANSI)
100
AcDbLine
 10
74.6961748498355
 20
28.34327907183471
 30
0.0
 11
74.8399640422048
 21
28.42608176073581
 31
0.0
  0
LINE
  5
170
330
6C
100
AcDbEntity
  8
Visible (ANSI)
100
AcDbLine
 10
74.23553019557869
 20
45.16956635908874
 30
0.0
 11
74.30739600494343
 21
45.21095112631221
 31
0.0
  0
LINE
  5
171
330
6C
100
AcDbEntity
  8
Visible (ANSI)
100
AcDbLine
 10
74.83215154220478
 20
28.43961338521094
 30
0.0
 11
74.68831846999879
 21
28.35678542759243
 31
0.0
  0
SPLINE
  5
172
330
6C
100
AcDbEntity
  8
Visible (ANSI)
100
AcDbSpline
210
0.0
220
0.0
230
1.0
 70
     8
 71
     3
 72
     8
 73
     4
 74
     0
 42
0.0000000001
 43
0.0000000001
 40
0.0
 40
0.0
 40
0.0
 40
0.0
 40
0.7853981633975994
 40
0.7853981633975994
 40
0.7853981633975994
 40
0.7853981633975994
 10
74.23553019557875
 20
28.08710791230173
 30
0.0
 10
74.21239943628194
 20
28.09767542357627
 30
0.0
 10
74.19942812904821
 20
28.11371137098561
 30
0.0
 10
74.19914747017959
 20
28.12975529337074
 30
0.0
  0
LINE
  5
173
330
6C
100
AcDbEntity
  8
Visible (ANSI)
100
AcDbLine
 10
74.23553019557869
 20
45.16956635908874
 30
0.0
 11
74.26067308566037
 21
45.15508753163862
 31
0.0
  0
SPLINE
  5
174
330
6C
100
AcDbEntity
  8
Visible (ANSI)
100
AcDbSpline
210
0.0
220
0.0
230
1.0
 70
     8
 71
     3
 72
    11
 73
     7
 74
     0
 42
0.0000000001
 43
0.0000000001
 40
0.0
 40
0.0
 40
0.0
 40
0.0
 40
1.049080005790748
 40
1.049080005790748
 40
1.049080005790748
 40
1.570796326794877
 40
1.570796326794877
 40
1.570796326794877
 40
1.570796326794877
 10
74.23553019557871
 20
45.05129250749688
 30
0.0
 10
74.20463374301758
 20
45.07276133154051
 30
0.0
 10
74.19186353115448
 20
45.10398680279364
 30
0.0
 10
74.20325184722891
 20
45.13195567919968
 30
0.0
 10
74.20891535271181
 20
45.14586483695754
 30
0.0
 10
74.22016512954626
 20
45.15888973210652
 30
0.0
 10
74.23553019557869
 20
45.16956635908874
 30
0.0
  0
SPLINE
  5
175
330
6C
100
AcDbEntity
  8
Visible (ANSI)
100
AcDbSpline
210
0.0
220
0.0
230
1.0
 70
     8
 71
     3
 72
    11
 73
     7
 74
     0
 42
0.0000000001
 43
0.0000000001
 40
0.0
 40
0.0
 40
0.0
 40
0.0
 40
1.483474787626995
 40
1.483474787626995
 40
1.483474787626995
 40
1.570796326794917
 40
1.570796326794917
 40
1.570796326794917
 40
1.570796326794917
 10
86.14589539653049
 20
38.26887782028727
 30
0.0
 10
86.15039222916122
 20
38.27892170980158
 30
0.0
 10
86.16417385684391
 20
38.29339470629908
 30
0.0
 10
86.17955588091479
 20
38.29817528775257
 30
0.0
 10
86.18046131053757
 20
38.2984566863541
 30
0.0
 10
86.1813691901346
 20
38.29870713099888
 30
0.0
 10
86.18227707035464
 20
38.29892508747755
 30
0.0
  0
LINE
  5
176
330
6C
100
AcDbEntity
  8
Visible (ANSI)
100
AcDbLine
 10
86.18227707035464
 20
38.3755292530753
 30
0.0
 11
86.71264251158353
 21
38.6809463982053
 31
0.0
  0
LINE
  5
177
330
6C
100
AcDbEntity
  8
Visible (ANSI)
100
AcDbLine
 10
74.30959860097589
 20
45.21255007170139
 30
0.0
 11
74.83996404220476
 21
45.51796721683138
 31
0.0
  0
SPLINE
  5
178
330
6C
100
AcDbEntity
  8
Visible (ANSI)
100
AcDbSpline
210
0.0
220
0.0
230
1.0
 70
     8
 71
     3
 72
    11
 73
     7
 74
     0
 42
0.0000000001
 43
0.0000000001
 40
0.0
 40
0.0
 40
0.0
 40
0.0
 40
1.04908000579083
 40
1.04908000579083
 40
1.04908000579083
 40
1.570796326794917
 40
1.570796326794917
 40
1.570796326794917
 40
1.570796326794917
 10
74.23553019557871
 20
45.05129250749688
 30
0.0
 10
74.23235013667806
 20
45.08884583468828
 30
0.0
 10
74.24670454393115
 20
45.13581238780441
 30
0.0
 10
74.27031063099393
 20
45.17087153642722
 30
0.0
 10
74.28205013687308
 20
45.18830674626447
 30
0.0
 10
74.29581500501349
 20
45.20279121059561
 30
0.0
 10
74.30959860097589
 20
45.21255007170139
 30
0.0
  0
LINE
  5
179
330
6C
100
AcDbEntity
  8
Visible (ANSI)
100
AcDbLine
 10
86.18227707035464
 20
38.3755292530753
 30
0.0
 11
86.18227707035464
 21
38.29892508747755
 31
0.0
  0
SPLINE
  5
17A
330
6C
100
AcDbEntity
  8
Visible (ANSI)
100
AcDbSpline
210
0.0
220
0.0
230
1.0
 70
     8
 71
     3
 72
    11
 73
     7
 74
     0
 42
0.0000000001
 43
0.0000000001
 40
0.0
 40
0.0
 40
0.0
 40
0.0
 40
1.04908000579083
 40
1.04908000579083
 40
1.04908000579083
 40
1.570796326794917
 40
1.570796326794917
 40
1.570796326794917
 40
1.570796326794917
 10
86.07963949113331
 20
38.23072358190492
 30
0.0
 10
86.08281955003397
 20
38.26461436084078
 30
0.0
 10
86.1035340750884
 20
38.30791836570138
 30
0.0
 10
86.13350027995249
 20
38.33931496606865
 30
0.0
 10
86.1484027259717
 20
38.35492875981673
 30
0.0
 10
86.1653305342522
 20
38.36759180805869
 30
0.0
 10
86.18227707035464
 20
38.37552925307529
 30
0.0
  0
LINE
  5
17B
330
6C
100
AcDbEntity
  8
Visible (ANSI)
100
AcDbLine
 10
86.18227707035464
 20
38.29892508747755
 30
0.0
 11
86.71264251158353
 21
38.60434223260755
 31
0.0
  0
LINE
  5
17C
330
6C
100
AcDbEntity
  8
Visible (ANSI)
100
AcDbLine
 10
86.71264251158353
 20
38.6809463982053
 30
0.0
 11
86.71264251158353
 21
38.60434223260755
 31
0.0
  0
LINE
  5
17D
330
6C
100
AcDbEntity
  8
Visible Narrow (ANSI)
100
AcDbLine
 10
86.25634547575183
 20
38.24723922462009
 30
0.0
 11
86.25634547575183
 21
21.25002334399463
 31
0.0
  0
LINE
  5
17E
330
6C
100
AcDbEntity
  8
Visible Narrow (ANSI)
100
AcDbLine
 10
86.07963949113331
 20
21.26653898670976
 30
0.0
 11
86.07963949113331
 21
38.23072358190492
 31
0.0
  0
LINE
  5
17F
330
6C
100
AcDbEntity
  8
Visible Narrow (ANSI)
100
AcDbLine
 10
74.23553019557875
 20
28.08710791230173
 30
0.0
 11
86.07963949113331
 21
21.26653898670976
 31
0.0
  0
LINE
  5
180
330
6C
100
AcDbEntity
  8
Visible Narrow (ANSI)
100
AcDbLine
 10
74.23553019557871
 20
45.05129250749688
 30
0.0
 11
74.23553019557875
 21
28.08710791230173
 31
0.0
  0
LINE
  5
181
330
6C
100
AcDbEntity
  8
Visible Narrow (ANSI)
100
AcDbLine
 10
74.30959860097589
 20
45.21255007170139
 30
0.0
 11
86.18227707035464
 21
38.3755292530753
 31
0.0
  0
LINE
  5
182
330
6C
100
AcDbEntity
  8
Visible Narrow (ANSI)
100
AcDbLine
 10
86.07963949113331
 20
38.23072358190492
 30
0.0
 11
74.23553019557871
 21
45.05129250749688
 31
0.0
  0
LINE
  5
183
330
6C
100
AcDbEntity
  8
Visible (ANSI)
100
AcDbLine
 10
74.25436923473924
 20
28.03383051609692
 30
0.0
 11
86.11279828691641
 21
21.20501539109858
 31
0.0
  0
LINE
  5
184
330
6C
100
AcDbEntity
  8
Visible (ANSI)
100
AcDbLine
 10
74.19893318788798
 20
45.11042943329282
 30
0.0
 11
74.19893318788798
 21
28.12972919538252
 31
0.0
  0
LINE
  5
185
330
6C
100
AcDbEntity
  8
Visible (ANSI)
100
AcDbLine
 10
86.78671091698074
 20
21.55544048912462
 30
0.0
 11
86.78671091698074
 21
38.55265636975007
 31
0.0
  0
LINE
  5
186
330
6C
100
AcDbEntity
  8
Visible (ANSI)
100
AcDbLine
 10
74.8399640422048
 20
28.42608176073581
 30
0.0
 11
74.95442161551591
 21
28.36017002787824
 31
0.0
  0
LINE
  5
187
330
6C
100
AcDbEntity
  8
Visible (ANSI)
100
AcDbLine
 10
76.13607706116129
 20
27.67969991297054
 30
0.0
 11
76.27004762060294
 21
27.60255139872854
 31
0.0
  0
LINE
  5
188
330
6C
100
AcDbEntity
  8
Visible (ANSI)
100
AcDbLine
 10
84.09102834951113
 20
23.09874813280746
 30
0.0
 11
84.22499890895281
 21
23.02159961856546
 31
0.0
  0
LINE
  5
189
330
6C
100
AcDbEntity
  8
Visible (ANSI)
100
AcDbLine
 10
85.41649081965028
 20
22.33546506016117
 30
0.0
 11
85.73780002861241
 21
22.15043539254606
 31
0.0
  0
LINE
  5
18A
330
6C
100
AcDbEntity
  8
Visible (ANSI)
100
AcDbLine
 10
74.83215154220478
 20
44.31153602791268
 30
0.0
 11
74.83215154220478
 21
43.94068886411812
 31
0.0
  0
LINE
  5
18B
330
6C
100
AcDbEntity
  8
Visible (ANSI)
100
AcDbLine
 10
74.83215154220478
 20
28.57375387469381
 30
0.0
 11
74.83215154220478
 21
28.43961338521094
 31
0.0
  0
LINE
  5
18C
330
6C
100
AcDbEntity
  8
Visible (ANSI)
100
AcDbLine
 10
86.71264251158353
 20
38.6809463982053
 30
0.0
 11
74.83996404220476
 21
45.51796721683138
 31
0.0
  0
DIMENSION
  5
18D
330
6C
100
AcDbEntity
  8
Dimension (ANSI)
100
AcDbDimension
  2
*D4
 10
40.13762275198009
 20
23.712027496769
 30
0.0
 11
38.52446725332399
 21
20.11042434022515
 31
0.0
 70
   160
  1
<>{\PTYP.}
 71
     5
 42
0.8750000000000035
  3
Default (ANSI)
100
AcDbAlignedDimension
 13
34.92491719708102
 23
22.837027496769
 33
0.0
 14
34.15466574053704
 24
23.712027496769
 34
0.0
 50
90.0
100
AcDbRotatedDimension
1001
ACAD
1000
DSTYLE
1002
{
1070
   289
1070
     1
1070
   271
1070
     2
1070
   272
1070
     2
1070
    48
1040
0.0
1070
    47
1040
0.0
1002
}
  0
DIMENSION
  5
2A4
330
6C
100
AcDbEntity
  8
Dimension (ANSI)
100
AcDbDimension
  2
*D5
 10
41.22412979550622
 20
43.837027496769
 30
0.0
 11
41.22412979550621
 21
33.33702749676901
 31
0.0
 70
   160
  1
<>
 42
21.0
  3
Default (ANSI)
100
AcDbAlignedDimension
 13
34.92491719708102
 23
22.837027496769
 33
0.0
 14
34.92491719708102
 24
43.837027496769
 34
0.0
 50
90.0
100
AcDbRotatedDimension
1001
ACAD
1000
DSTYLE
1002
{
1070
   289
1070
     1
1070
   271
1070
     2
1070
   272
1070
     2
1070
    48
1040
0.0
1070
    47
1040
0.0
1002
}
  0
DIMENSION
  5
38E
330
6C
100
AcDbEntity
  8
Dimension (ANSI)
100
AcDbDimension
  2
*D6
 10
35.02966574053706
 20
48.13862643392583
 30
0.0
 11
26.52966574053705
 21
48.13862643392583
 31
0.0
 70
   160
  1
<>
 42
17.0
  3
Default (ANSI)
100
AcDbAlignedDimension
 13
18.02966574053706
 23
43.73227895331296
 33
0.0
 14
35.02966574053706
 24
43.73227895331296
 34
0.0
100
AcDbRotatedDimension
1001
ACAD
1000
DSTYLE
1002
{
1070
   289
1070
     1
1070
    73
1070
     0
1070
    74
1070
     0
1070
   271
1070
     2
1070
   272
1070
     2
1070
    48
1040
0.0
1070
    47
1040
0.0
1002
}
  0
DIMENSION
  5
478
330
6C
100
AcDbEntity
  8
Dimension (ANSI)
100
AcDbDimension
  2
*D7
 10
35.02966574053706
 20
45.82530595059864
 30
0.0
 11
38.40252706299188
 21
45.82530595059864
 31
0.0
 70
   160
  1
<>{\PTYP.}
 71
     5
 42
0.8750000000000142
  3
Default (ANSI)
100
AcDbAlignedDimension
 13
34.15466574053704
 23
43.95781321105471
 33
0.0
 14
35.02966574053706
 24
43.73227895331296
 34
0.0
 50
180.0
100
AcDbRotatedDimension
1001
ACAD
1000
DSTYLE
1002
{
1070
   289
1070
     1
1070
    73
1070
     0
1070
    74
1070
     0
1070
   271
1070
     2
1070
   272
1070
     2
1070
    48
1040
0.0
1070
    47
1040
0.0
1002
}
  0
DIMENSION
  5
576
330
6C
100
AcDbEntity
  8
Dimension (ANSI)
100
AcDbDimension
  2
*D8
 10
32.15466574053706
 20
20.11247744052603
 30
0.0
 11
28.71638931381297
 21
20.11247744052603
 31
0.0
 70
   160
  1
<>{\PTYP.}
 71
     5
 42
1.999999999999985
  3
Default (ANSI)
100
AcDbAlignedDimension
 13
34.15466574053704
 23
23.712027496769
 33
0.0
 14
32.15466574053706
 24
23.712027496769
 34
0.0
 50
180.0
100
AcDbRotatedDimension
1001
ACAD
1000
DSTYLE
1002
{
1070
   289
1070
     2
1070
    73
1070
     0
1070
    74
1070
     0
1070
   271
1070
     2
1070
   272
1070
     2
1070
    48
1040
0.0
1070
    47
1040
0.0
1002
}
  0
DIMENSION
  5
674
330
6C
100
AcDbEntity
  8
Dimension (ANSI)
100
AcDbDimension
  2
*D9
 10
40.02031927031064
 20
57.63888045961772
 30
0.0
 11
38.40716377165453
 21
53.78612512188709
 31
0.0
 70
   160
  1
<>{\PTYP.}
 71
     5
 42
0.8750000000000426
  3
Default (ANSI)
100
AcDbAlignedDimension
 13
34.90471574054414
 23
56.76388045961768
 33
0.0
 14
34.92491719708809
 24
57.63888045961772
 34
0.0
 50
90.0
100
AcDbRotatedDimension
1001
ACAD
1000
DSTYLE
1002
{
1070
   289
1070
     1
1070
   271
1070
     2
1070
   272
1070
     2
1070
    48
1040
0.0
1070
    47
1040
0.0
1002
}
  0
DIMENSION
  5
788
330
6C
100
AcDbEntity
  8
Dimension (ANSI)
100
AcDbDimension
  2
*D10
 10
57.10416608201733
 20
40.25195066847923
 30
0.0
 11
60.54558587896639
 21
40.25195066847923
 31
0.0
 70
   160
  1
<>{\PTYP.}
 71
     5
 42
0.8750000000000355
  3
Default (ANSI)
100
AcDbAlignedDimension
 13
57.97916608201737
 23
40.25195066847923
 33
0.0
 14
57.10416608201733
 24
40.24256851196201
 34
0.0
100
AcDbRotatedDimension
1001
ACAD
1000
DSTYLE
1002
{
1070
   289
1070
     1
1070
    73
1070
     0
1070
    74
1070
     0
1070
   271
1070
     2
1070
    76
1070
     1
1070
    75
1070
     1
1070
   272
1070
     2
1070
    48
1040
0.0
1070
    47
1040
0.0
1002
}
  0
DIMENSION
  5
877
330
6C
100
AcDbEntity
  8
Dimension (ANSI)
100
AcDbDimension
  2
*D11
 10
19.10371629944107
 20
23.91107805567297
 30
0.0
 11
12.61522308703798
 21
19.89774275371569
 31
0.0
 70
   163
  1
<>{\PTYP.\P(4 PL.)}
 71
     2
 42
0.5629999999999999
  3
Default (ANSI)
100
AcDbDiametricDimension
 15
18.70561518163298
 25
23.512976937865
 35
0.0
 40
0.0
1001
ACAD_DSTYLE_DIMRADIAL_EXTENSION
1070
   387
1070
     1
1070
   388
1040
0.0
1070
   390
1040
0.0
1001
ACAD
1000
DSTYLE
1002
{
1070
   145
1040
-0.3333333333333334
1070
   144
1040
1.000000000000008
1070
   271
1070
     2
1070
   272
1070
     2
1070
    48
1040
0.0
1070
    47
1040
0.0
1002
}
  0
DIMENSION
  5
931
330
6C
100
AcDbEntity
  8
Dimension (ANSI)
100
AcDbDimension
  2
*D12
 10
21.01497439840217
 20
23.60171883890391
 30
0.0
 11
12.39606828705769
 21
29.74546703980201
 31
0.0
 70
   163
  1
<>{\PTYP.\P(2 PL.)}
 71
     2
 42
0.3120000000000018
  3
Default (ANSI)
100
AcDbDiametricDimension
 15
20.79435708267194
 25
23.82233615463409
 35
0.0
 40
0.0
1001
ACAD_DSTYLE_DIMRADIAL_EXTENSION
1070
   387
1070
     1
1070
   388
1040
0.0
1070
   390
1040
0.0
1001
ACAD
1000
DSTYLE
1002
{
1070
   145
1040
-0.3333333333333334
1070
   144
1040
0.9999999999999849
1070
   271
1070
     2
1070
   272
1070
     2
1070
    48
1040
0.0
1070
    47
1040
0.0
1002
}
  0
MTEXT
  5
9EA
102
{ACAD_XDICTIONARY
360
A06
102
}
330
6C
100
AcDbEntity
  8
Symbol (ANSI)
100
AcDbMText
 10
50.17031245888373
 20
7.445317847736349
 30
0.0
 40
0.5714285896653132
 41
48.06643654677021
 71
     4
 72
     1
  3
{\fRomanS|b0|i0|c0|p2;\H2.0001x;PART#: ALNP2420\P(DATA SUBJECT TO CHANGE WITHOUT NOTICE)\H1.4011x; \H0.71373x;\P \H1.1072x; \H0.90319x;\P\H0.59997x;THIS DRAWING IS PROPERTY OF HUBBELL INC. WIEGMANN\H1.2422x; \H0.80501x;\PALL INFORMATION IS PROPRIETAR
  1
Y AND NOT TO BE DUPLICATED\H1.0095x; \H0.8255x;\P\H1.0785x; }
  7
Note Text (ANSI)
 73
     1
 44
0.9303776025772094
1001
ACAD
1000
MTEXTBEGIN
1070
    73
1070
     1
1070
    44
1040
0.9303776025772094
1070
    74
1070
     0
1000
MTEXTEND
  0
LINE
  5
9EC
330
6C
100
AcDbEntity
  8
Center Mark (ANSI)
  6
CHAIN
 48
0.1935144513845444
100
AcDbLine
 10
19.90045145482277
 20
42.962027496769
 30
0.0
 11
17.90888002625134
 21
42.962027496769
 31
0.0
  0
LINE
  5
9ED
330
6C
100
AcDbEntity
  8
Center Mark (ANSI)
  6
CHAIN
 48
0.1935144513845444
100
AcDbLine
 10
35.15045145482276
 20
42.962027496769
 30
0.0
 11
33.15888002625133
 21
42.962027496769
 31
0.0
  0
LINE
  5
9EE
330
6C
100
AcDbEntity
  8
Centerline (ANSI)
  6
CHAIN
 48
0.9524481296539306
100
AcDbLine
 10
17.90888002625134
 20
42.962027496769
 30
0.0
 11
35.15045145482276
 21
42.962027496769
 31
0.0
  0
LINE
  5
9EF
330
6C
100
AcDbEntity
  8
Center Mark (ANSI)
  6
CHAIN
 48
0.1935144513845444
100
AcDbLine
 10
19.90045145482275
 20
23.712027496769
 30
0.0
 11
17.90888002625132
 21
23.712027496769
 31
0.0
  0
LINE
  5
9F0
330
6C
100
AcDbEntity
  8
Center Mark (ANSI)
  6
CHAIN
 48
0.1935144513845444
100
AcDbLine
 10
35.15045145482276
 20
23.712027496769
 30
0.0
 11
33.15888002625133
 21
23.712027496769
 31
0.0
  0
LINE
  5
9F1
330
6C
100
AcDbEntity
  8
Centerline (ANSI)
  6
CHAIN
 48
0.9524481296539306
100
AcDbLine
 10
17.90888002625132
 20
23.712027496769
 30
0.0
 11
35.15045145482276
 21
23.712027496769
 31
0.0
  0
LINE
  5
9F2
330
6C
100
AcDbEntity
  8
Centerline (ANSI)
  6
CHAIN
 48
0.9524481296539306
100
AcDbLine
 10
18.90466574053705
 20
43.95781321105471
 30
0.0
 11
18.90466574053703
 21
22.71624178248329
 31
0.0
  0
LINE
  5
9F3
330
6C
100
AcDbEntity
  8
Centerline (ANSI)
  6
CHAIN
 48
0.9524481296539306
100
AcDbLine
 10
34.15466574053704
 20
43.95781321105471
 30
0.0
 11
34.15466574053704
 21
22.71624178248329
 31
0.0
  0
LINE
  5
9F4
330
6C
100
AcDbEntity
  8
Center Mark (ANSI)
  6
CHAIN
 48
0.1691130101680756
100
AcDbLine
 10
21.77495145482277
 20
23.712027496769
 30
0.0
 11
20.03438002625134
 21
23.712027496769
 31
0.0
  0
LINE
  5
9F5
330
6C
100
AcDbEntity
  8
Center Mark (ANSI)
  6
CHAIN
 48
0.1691130101680756
100
AcDbLine
 10
20.90466574053706
 20
24.58231321105472
 30
0.0
 11
20.90466574053706
 21
22.84174178248329
 31
0.0
  0
LINE
  5
9F6
330
6C
100
AcDbEntity
  8
Center Mark (ANSI)
  6
CHAIN
 48
0.1691130101680756
100
AcDbLine
 10
33.02495145482277
 20
23.712027496769
 30
0.0
 11
31.28438002625134
 21
23.712027496769
 31
0.0
  0
LINE
  5
9F7
330
6C
100
AcDbEntity
  8
Center Mark (ANSI)
  6
CHAIN
 48
0.1691130101680756
100
AcDbLine
 10
32.15466574053706
 20
24.58231321105472
 30
0.0
 11
32.15466574053706
 21
22.84174178248329
 31
0.0
  0
ENDSEC
  0
SECTION
  2
OBJECTS
  0
DICTIONARY
  5
C
330
0
100
AcDbDictionary
281
     1
  3
ACAD_CIP_PREVIOUS_PRODUCT_INFO
350
9F8
  3
ACAD_COLOR
350
63
  3
ACAD_GROUP
350
D
  3
ACAD_LAYOUT
350
62
  3
ACAD_MATERIAL
350
10
  3
ACAD_MLEADERSTYLE
350
66
  3
ACAD_MLINESTYLE
350
5F
  3
ACAD_PLOTSETTINGS
350
61
  3
ACAD_PLOTSTYLENAME
350
E
  3
ACAD_SCALELIST
350
42
  3
ACAD_TABLESTYLE
350
64
  3
ACAD_VISUALSTYLE
350
29
  3
ACDB_RECOMPOSE_DATA
350
A08
  3
AcDbVariableDictionary
350
76
  3
DWGPROPS
350
A09
  0
DICTIONARY
  5
A45
330
92B
100
AcDbDictionary
280
     1
281
     1
  3
ACAD_MTEXT_RT
360
A46
  0
DICTIONARY
  5
A47
330
9E4
100
AcDbDictionary
280
     1
281
     1
  3
ACAD_MTEXT_RT
360
A48
  0
DICTIONARY
  5
A06
330
9EA
100
AcDbDictionary
280
     1
281
     1
  3
ACAD_MTEXT_2008_RT
360
A07
  0
XRECORD
  5
9F8
102
{ACAD_REACTORS
330
C
102
}
330
C
100
AcDbXrecord
280
     1
300
INVNTOR
300
2012
300
85795PDSP_2012_0F
  0
DICTIONARY
  5
63
102
{ACAD_REACTORS
330
C
102
}
330
C
100
AcDbDictionary
281
     1
  0
DICTIONARY
  5
D
102
{ACAD_REACTORS
330
C
102
}
330
C
100
AcDbDictionary
281
     1
  0
DICTIONARY
  5
62
102
{ACAD_REACTORS
330
C
102
}
330
C
100
AcDbDictionary
281
     1
  3
Layout1
350
6B
  3
Layout2
350
73
  3
Model
350
6F
  0
DICTIONARY
  5
10
102
{ACAD_REACTORS
330
C
102
}
330
C
100
AcDbDictionary
281
     1
  3
ByBlock
350
19
  3
ByLayer
350
11
  3
Global
350
21
  0
DICTIONARY
  5
66
102
{ACAD_REACTORS
330
C
102
}
330
C
100
AcDbDictionary
281
     1
  3
Standard
350
67
  0
DICTIONARY
  5
5F
102
{ACAD_REACTORS
330
C
102
}
330
C
100
AcDbDictionary
281
     1
  3
Standard
350
60
  0
DICTIONARY
  5
61
102
{ACAD_REACTORS
330
C
102
}
330
C
100
AcDbDictionary
281
     1
  0
ACDBDICTIONARYWDFLT
  5
E
102
{ACAD_REACTORS
330
C
102
}
330
C
100
AcDbDictionary
281
     1
  3
Normal
350
F
100
AcDbDictionaryWithDefault
340
F
  0
DICTIONARY
  5
42
102
{ACAD_REACTORS
330
C
102
}
330
C
100
AcDbDictionary
281
     1
  3
A0
350
43
  3
A1
350
44
  3
A2
350
45
  3
A3
350
46
  3
A4
350
47
  3
A5
350
48
  3
A6
350
49
  3
A7
350
4A
  3
A8
350
4B
  3
A9
350
4C
  3
B0
350
4D
  3
B1
350
4E
  3
B2
350
4F
  3
B3
350
50
  3
B4
350
51
  3
B5
350
52
  3
B6
350
53
  0
DICTIONARY
  5
64
102
{ACAD_REACTORS
330
C
102
}
330
C
100
AcDbDictionary
281
     1
  3
Standard
350
65
  0
DICTIONARY
  5
29
102
{ACAD_REACTORS
330
C
102
}
330
C
100
AcDbDictionary
281
     1
  3
2dWireframe
350
2F
  3
Basic
350
2E
  3
Brighten
350
35
  3
ColorChange
350
39
  3
Conceptual
350
32
  3
Dim
350
34
  3
EdgeColorOff
350
41
  3
Facepattern
350
38
  3
Flat
350
2A
  3
FlatWithEdges
350
2B
  3
Gouraud
350
2C
  3
GouraudWithEdges
350
2D
  3
Hidden
350
31
  3
JitterOff
350
3F
  3
Linepattern
350
37
  3
OverhangOff
350
40
  3
Realistic
350
33
  3
Shaded
350
3E
  3
Shaded with edges
350
3D
  3
Shades of Gray
350
3A
  3
Sketchy
350
3B
  3
Thicken
350
36
  3
Wireframe
350
30
  3
X-Ray
350
3C
  0
XRECORD
  5
A08
102
{ACAD_REACTORS
330
C
102
}
330
C
100
AcDbXrecord
280
     1
 90
        1
330
65
330
576
330
9EA
  0
DICTIONARY
  5
76
102
{ACAD_REACTORS
330
C
102
}
330
C
100
AcDbDictionary
281
     1
  3
CANNOSCALE
350
79
  3
CMLEADERSTYLE
350
78
  3
CTABLESTYLE
350
77
  3
DIMASSOC
350
A00
  3
HIDETEXT
350
9FF
  3
INDEXCTL
350
9FE
  3
LAYEREVAL
350
9FB
  3
LAYERNOTIFY
350
9FC
  3
LIGHTINGUNITS
350
9FA
  3
MSLTSCALE
350
9F9
  3
SORTENTS
350
9FD
  3
XCLIPFRAME
350
A01
  0
XRECORD
  5
A09
102
{ACAD_REACTORS
330
C
102
}
330
C
100
AcDbXrecord
280
     1
  1
DWGPROPS COOKIE
  2

  3

  4
jfielder
  6

  7

  8

  9
-
300
Manager=
301
Company=
302
Category=
303
Part Number=HWDALNP2420-S
304
Description=
305
Project=
306
Designer=jfielder
307
Engineer=
308
Authority=
309
Cost Center=
 40
0.0000352777777778
 41
2455986.396932477
 42
2455986.396932477
  1

 90
       19
300
Vendor=
300
User Status=
300
Design Status=WorkInProgress
300
Checked by=
300
Engr Approved by=
300
Mfg Approved by=
300
DWG. NO=
300
NUMBER OF SHEETS=1
300
DRAWING #=
  0
XRECORD
  5
A46
102
{ACAD_REACTORS
330
A45
102
}
330
A45
100
AcDbXrecord
280
     1
 40
35902.0
  1
\A1;\U+22050.56{\PTYP.\P(4 PL.)}
  0
XRECORD
  5
A48
102
{ACAD_REACTORS
330
A47
102
}
330
A47
100
AcDbXrecord
280
     1
 40
35747.0
  1
\A1;\U+22050.31{\PTYP.\P(2 PL.)}
  0
XRECORD
  5
A07
102
{ACAD_REACTORS
330
A06
102
}
330
A06
100
AcDbXrecord
280
     1
 40
3259048.0
  1
\pxsm0.94;{\fRomanS|b0|i0;\H1.1429;PART#: ALNP2420\P(DATA SUBJECT TO CHANGE WITHOUT NOTICE)\P \P\fRomanS|b0|i0;\H0.6857;THIS DRAWING IS PROPERTY OF HUBBELL INC. WIEGMANN\PALL INFORMATION IS PROPRIETARY AND NOT TO BE DUPLICATED\fRomanS|b0|i0;\H0.5714;
  1
\P}
  0
LAYOUT
  5
6B
102
{ACAD_XDICTIONARY
360
A3F
102
}
102
{ACAD_REACTORS
330
62
102
}
330
62
100
AcDbPlotSettings
  1

  2

  4

  6

 40
0.0
 41
0.0
 42
0.0
 43
0.0
 44
0.0
 45
0.0
 46
0.0
 47
0.0
 48
0.0
 49
0.0
140
0.0
141
0.0
142
1.0
143
1.0
 70
   688
 72
     0
 73
     0
 74
     5
  7

 75
    16
147
1.0
148
0.0
149
0.0
100
AcDbLayout
  1
Layout1
 70
     1
 71
     1
 10
0.0
 20
0.0
 11
12.0
 21
9.0
 12
0.0
 22
0.0
 32
0.0
 14
0.0
 24
0.0
 34
0.0
 15
0.0
 25
0.0
 35
0.0
146
0.0
 13
0.0
 23
0.0
 33
0.0
 16
1.0
 26
0.0
 36
0.0
 17
0.0
 27
1.0
 37
0.0
 76
     0
330
68
  0
LAYOUT
  5
73
102
{ACAD_XDICTIONARY
360
A43
102
}
102
{ACAD_REACTORS
330
62
102
}
330
62
100
AcDbPlotSettings
  1

  2

  4

  6

 40
0.0
 41
0.0
 42
0.0
 43
0.0
 44
0.0
 45
0.0
 46
0.0
 47
0.0
 48
0.0
 49
0.0
140
0.0
141
0.0
142
1.0
143
1.0
 70
   688
 72
     0
 73
     0
 74
     5
  7

 75
    16
147
1.0
148
0.0
149
0.0
100
AcDbLayout
  1
Layout2
 70
     1
 71
     2
 10
0.0
 20
0.0
 11
12.0
 21
9.0
 12
0.0
 22
0.0
 32
0.0
 14
0.0
 24
0.0
 34
0.0
 15
0.0
 25
0.0
 35
0.0
146
0.0
 13
0.0
 23
0.0
 33
0.0
 16
1.0
 26
0.0
 36
0.0
 17
0.0
 27
1.0
 37
0.0
 76
     0
330
70
  0
LAYOUT
  5
6F
102
{ACAD_XDICTIONARY
360
A41
102
}
102
{ACAD_REACTORS
330
62
102
}
330
62
100
AcDbPlotSettings
  1

  2

  4

  6

 40
0.0
 41
0.0
 42
0.0
 43
0.0
 44
0.0
 45
0.0
 46
0.0
 47
0.0
 48
0.0
 49
0.0
140
0.0
141
0.0
142
1.0
143
1.0
 70
  1712
 72
     0
 73
     0
 74
     0
  7

 75
     0
147
1.0
148
0.0
149
0.0
100
AcDbLayout
  1
Model
 70
     1
 71
     0
 10
0.0
 20
0.0
 11
12.0
 21
9.0
 12
0.0
 22
0.0
 32
0.0
 14
0.0
 24
0.0
 34
0.0
 15
0.0
 25
0.0
 35
0.0
146
0.0
 13
0.0
 23
0.0
 33
0.0
 16
1.0
 26
0.0
 36
0.0
 17
0.0
 27
1.0
 37
0.0
 76
     0
330
6C
  0
MATERIAL
  5
19
102
{ACAD_XDICTIONARY
360
1A
102
}
102
{ACAD_REACTORS
330
10
102
}
330
10
100
AcDbMaterial
  1
ByBlock
 72
     0
 43
0.0208333333333333
 43
0.0
 43
0.0
 43
0.0
 43
0.0
 43
0.0208333333333333
 43
0.0
 43
0.0
 43
0.0
 43
0.0
 43
1.0
 43
0.0
 43
0.0
 43
0.0
 43
0.0
 43
1.0
 77
     0
 47
0.0208333333333333
 47
0.0
 47
0.0
 47
0.0
 47
0.0
 47
0.0208333333333333
 47
0.0
 47
0.0
 47
0.0
 47
0.0
 47
1.0
 47
0.0
 47
0.0
 47
0.0
 47
0.0
 47
1.0
171
     0
 49
0.0208333333333333
 49
0.0
 49
0.0
 49
0.0
 49
0.0
 49
0.0208333333333333
 49
0.0
 49
0.0
 49
0.0
 49
0.0
 49
1.0
 49
0.0
 49
0.0
 49
0.0
 49
0.0
 49
1.0
175
     0
142
0.0208333333333333
142
0.0
142
0.0
142
0.0
142
0.0
142
0.0208333333333333
142
0.0
142
0.0
142
0.0
142
0.0
142
1.0
142
0.0
142
0.0
142
0.0
142
0.0
142
1.0
179
     0
144
0.0208333333333333
144
0.0
144
0.0
144
0.0
144
0.0
144
0.0208333333333333
144
0.0
144
0.0
144
0.0
144
0.0
144
1.0
144
0.0
144
0.0
144
0.0
144
0.0
144
1.0
147
0.0208333333333333
147
0.0
147
0.0
147
0.0
147
0.0
147
0.0208333333333333
147
0.0
147
0.0
147
0.0
147
0.0
147
1.0
147
0.0
147
0.0
147
0.0
147
0.0
147
1.0
  0
MATERIAL
  5
11
102
{ACAD_XDICTIONARY
360
12
102
}
102
{ACAD_REACTORS
330
10
102
}
330
10
100
AcDbMaterial
  1
ByLayer
 72
     0
 43
0.0208333333333333
 43
0.0
 43
0.0
 43
0.0
 43
0.0
 43
0.0208333333333333
 43
0.0
 43
0.0
 43
0.0
 43
0.0
 43
1.0
 43
0.0
 43
0.0
 43
0.0
 43
0.0
 43
1.0
 77
     0
 47
0.0208333333333333
 47
0.0
 47
0.0
 47
0.0
 47
0.0
 47
0.0208333333333333
 47
0.0
 47
0.0
 47
0.0
 47
0.0
 47
1.0
 47
0.0
 47
0.0
 47
0.0
 47
0.0
 47
1.0
171
     0
 49
0.0208333333333333
 49
0.0
 49
0.0
 49
0.0
 49
0.0
 49
0.0208333333333333
 49
0.0
 49
0.0
 49
0.0
 49
0.0
 49
1.0
 49
0.0
 49
0.0
 49
0.0
 49
0.0
 49
1.0
175
     0
142
0.0208333333333333
142
0.0
142
0.0
142
0.0
142
0.0
142
0.0208333333333333
142
0.0
142
0.0
142
0.0
142
0.0
142
1.0
142
0.0
142
0.0
142
0.0
142
0.0
142
1.0
179
     0
144
0.0208333333333333
144
0.0
144
0.0
144
0.0
144
0.0
144
0.0208333333333333
144
0.0
144
0.0
144
0.0
144
0.0
144
1.0
144
0.0
144
0.0
144
0.0
144
0.0
144
1.0
147
0.0208333333333333
147
0.0
147
0.0
147
0.0
147
0.0
147
0.0208333333333333
147
0.0
147
0.0
147
0.0
147
0.0
147
1.0
147
0.0
147
0.0
147
0.0
147
0.0
147
1.0
  0
MATERIAL
  5
21
102
{ACAD_XDICTIONARY
360
22
102
}
102
{ACAD_REACTORS
330
10
102
}
330
10
100
AcDbMaterial
  1
Global
 72
     0
 43
0.0208333333333333
 43
0.0
 43
0.0
 43
0.0
 43
0.0
 43
0.0208333333333333
 43
0.0
 43
0.0
 43
0.0
 43
0.0
 43
1.0
 43
0.0
 43
0.0
 43
0.0
 43
0.0
 43
1.0
 77
     0
 47
0.0208333333333333
 47
0.0
 47
0.0
 47
0.0
 47
0.0
 47
0.0208333333333333
 47
0.0
 47
0.0
 47
0.0
 47
0.0
 47
1.0
 47
0.0
 47
0.0
 47
0.0
 47
0.0
 47
1.0
171
     0
 49
0.0208333333333333
 49
0.0
 49
0.0
 49
0.0
 49
0.0
 49
0.0208333333333333
 49
0.0
 49
0.0
 49
0.0
 49
0.0
 49
1.0
 49
0.0
 49
0.0
 49
0.0
 49
0.0
 49
1.0
175
     0
142
0.0208333333333333
142
0.0
142
0.0
142
0.0
142
0.0
142
0.0208333333333333
142
0.0
142
0.0
142
0.0
142
0.0
142
1.0
142
0.0
142
0.0
142
0.0
142
0.0
142
1.0
179
     0
144
0.0208333333333333
144
0.0
144
0.0
144
0.0
144
0.0
144
0.0208333333333333
144
0.0
144
0.0
144
0.0
144
0.0
144
1.0
144
0.0
144
0.0
144
0.0
144
0.0
144
1.0
147
0.0208333333333333
147
0.0
147
0.0
147
0.0
147
0.0
147
0.0208333333333333
147
0.0
147
0.0
147
0.0
147
0.0
147
1.0
147
0.0
147
0.0
147
0.0
147
0.0
147
1.0
  0
MLEADERSTYLE
  5
67
102
{ACAD_XDICTIONARY
360
A04
102
}
102
{ACAD_REACTORS
330
66
102
}
330
66
100
AcDbMLeaderStyle
170
     2
171
     1
172
     0
 90
        2
 40
0.0
 41
0.0
173
     1
 91
-1056964608
340
5B
 92
       -2
290
     1
 42
0.09
291
     1
 43
0.36
  3
Standard
 44
0.18
300

342
55
174
     1
178
     6
175
     1
176
     0
 93
-1056964608
 45
0.18
292
     0
297
     0
 46
0.18
 94
-1056964608
 47
1.0
 49
1.0
140
1.0
293
     1
141
0.0
294
     1
177
     0
142
1.0
295
     0
296
     0
143
0.125
1001
ACAD_MLEADERVER
1070
     2
  0
MLINESTYLE
  5
60
102
{ACAD_REACTORS
330
5F
102
}
330
5F
100
AcDbMlineStyle
  2
STANDARD
 70
     0
  3

 62
   256
 51
90.0
 52
90.0
 71
     2
 49
0.5
 62
   256
  6
BYLAYER
 49
-0.5
 62
   256
  6
BYLAYER
  0
ACDBPLACEHOLDER
  5
F
102
{ACAD_REACTORS
330
E
102
}
330
E
  0
SCALE
  5
43
102
{ACAD_REACTORS
330
42
102
}
330
42
100
AcDbScale
 70
     0
300
1:1
140
1.0
141
1.0
290
     1
  0
SCALE
  5
44
102
{ACAD_REACTORS
330
42
102
}
330
42
100
AcDbScale
 70
     0
300
1/128" = 1'-0"
140
0.0078125
141
12.0
290
     0
  0
SCALE
  5
45
102
{ACAD_REACTORS
330
42
102
}
330
42
100
AcDbScale
 70
     0
300
1/64" = 1'-0"
140
0.015625
141
12.0
290
     0
  0
SCALE
  5
46
102
{ACAD_REACTORS
330
42
102
}
330
42
100
AcDbScale
 70
     0
300
1/32" = 1'-0"
140
0.03125
141
12.0
290
     0
  0
SCALE
  5
47
102
{ACAD_REACTORS
330
42
102
}
330
42
100
AcDbScale
 70
     0
300
1/16" = 1'-0"
140
0.0625
141
12.0
290
     0
  0
SCALE
  5
48
102
{ACAD_REACTORS
330
42
102
}
330
42
100
AcDbScale
 70
     0
300
3/32" = 1'-0"
140
0.09375
141
12.0
290
     0
  0
SCALE
  5
49
102
{ACAD_REACTORS
330
42
102
}
330
42
100
AcDbScale
 70
     0
300
1/8" = 1'-0"
140
0.125
141
12.0
290
     0
  0
SCALE
  5
4A
102
{ACAD_REACTORS
330
42
102
}
330
42
100
AcDbScale
 70
     0
300
3/16" = 1'-0"
140
0.1875
141
12.0
290
     0
  0
SCALE
  5
4B
102
{ACAD_REACTORS
330
42
102
}
330
42
100
AcDbScale
 70
     0
300
1/4" = 1'-0"
140
0.25
141
12.0
290
     0
  0
SCALE
  5
4C
102
{ACAD_REACTORS
330
42
102
}
330
42
100
AcDbScale
 70
     0
300
3/8" = 1'-0"
140
0.375
141
12.0
290
     0
  0
SCALE
  5
4D
102
{ACAD_REACTORS
330
42
102
}
330
42
100
AcDbScale
 70
     0
300
1/2" = 1'-0"
140
0.5
141
12.0
290
     0
  0
SCALE
  5
4E
102
{ACAD_REACTORS
330
42
102
}
330
42
100
AcDbScale
 70
     0
300
3/4" = 1'-0"
140
0.75
141
12.0
290
     0
  0
SCALE
  5
4F
102
{ACAD_REACTORS
330
42
102
}
330
42
100
AcDbScale
 70
     0
300
1" = 1'-0"
140
1.0
141
12.0
290
     0
  0
SCALE
  5
50
102
{ACAD_REACTORS
330
42
102
}
330
42
100
AcDbScale
 70
     0
300
1-1/2" = 1'-0"
140
1.5
141
12.0
290
     0
  0
SCALE
  5
51
102
{ACAD_REACTORS
330
42
102
}
330
42
100
AcDbScale
 70
     0
300
3" = 1'-0"
140
3.0
141
12.0
290
     0
  0
SCALE
  5
52
102
{ACAD_REACTORS
330
42
102
}
330
42
100
AcDbScale
 70
     0
300
6" = 1'-0"
140
6.0
141
12.0
290
     0
  0
SCALE
  5
53
102
{ACAD_REACTORS
330
42
102
}
330
42
100
AcDbScale
 70
     0
300
1'-0" = 1'-0"
140
12.0
141
12.0
290
     0
  0
TABLESTYLE
  5
65
102
{ACAD_XDICTIONARY
360
A02
102
}
102
{ACAD_REACTORS
330
64
102
}
330
64
100
AcDbTableStyle
  3
Standard
 70
     0
 71
     0
 40
0.06
 41
0.06
280
     0
281
     0
  7
Standard
140
0.18
170
     2
 62
     0
 63
     7
283
     0
274
    -2
284
     1
 64
     0
275
    -2
285
     1
 65
     0
276
    -2
286
     1
 66
     0
277
    -2
287
     1
 67
     0
278
    -2
288
     1
 68
     0
279
    -2
289
     1
 69
     0
  7
Standard
140
0.25
170
     5
 62
     0
 63
     7
283
     0
274
    -2
284
     1
 64
     0
275
    -2
285
     1
 65
     0
276
    -2
286
     1
 66
     0
277
    -2
287
     1
 67
     0
278
    -2
288
     1
 68
     0
279
    -2
289
     1
 69
     0
  7
Standard
140
0.18
170
     5
 62
     0
 63
     7
283
     0
274
    -2
284
     1
 64
     0
275
    -2
285
     1
 65
     0
276
    -2
286
     1
 66
     0
277
    -2
287
     1
 67
     0
278
    -2
288
     1
 68
     0
279
    -2
289
     1
 69
     0
  0
VISUALSTYLE
  5
2F
102
{ACAD_XDICTIONARY
360
A17
102
}
102
{ACAD_REACTORS
330
29
102
}
330
29
100
AcDbVisualStyle
  2
2dWireframe
 70
     4
 71
     0
 72
     2
 73
     0
 90
        0
 40
-0.6
 41
-30.0
 62
     5
 63
     7
 74
     1
 91
        4
 64
     7
 65
   257
 75
     1
175
     1
 42
1.0
 92
        0
 66
   257
 43
1.0
 76
     1
 77
     6
 78
     2
 67
     7
 79
     5
170
     0
171
     0
290
     0
174
     0
 93
        1
 44
0.0
173
     0
291
     0
 45
0.0
1001
ACAD
1000
AcDbSavedByObjectVersion
1070
     0
  0
VISUALSTYLE
  5
2E
102
{ACAD_XDICTIONARY
360
A15
102
}
102
{ACAD_REACTORS
330
29
102
}
330
29
100
AcDbVisualStyle
  2
Basic
 70
     7
 71
     1
 72
     0
 73
     1
 90
        0
 40
-0.6
 41
-30.0
 62
     5
 63
     7
 74
     0
 91
        4
 64
     7
 65
   257
 75
     1
175
     1
 42
1.0
 92
        8
 66
     7
 43
1.0
 76
     1
 77
     6
 78
     2
 67
     7
 79
     5
170
     0
171
     0
290
     0
174
     0
 93
        1
 44
0.0
173
     0
291
     1
 45
0.0
1001
ACAD
1000
AcDbSavedByObjectVersion
1070
     0
  0
VISUALSTYLE
  5
35
102
{ACAD_XDICTIONARY
360
A23
102
}
102
{ACAD_REACTORS
330
29
102
}
330
29
100
AcDbVisualStyle
  2
Brighten
 70
    12
 71
     2
 72
     2
 73
     0
 90
        0
 40
-0.6
 41
-30.0
 62
     5
 63
     7
 74
     1
 91
        4
 64
     7
 65
   257
 75
     1
175
     1
 42
1.0
 92
        8
 66
     7
 43
1.0
 76
     1
 77
     6
 78
     2
 67
     7
 79
     5
170
     0
171
     0
290
     0
174
     0
 93
        1
 44
50.0
173
     0
291
     1
 45
0.0
1001
ACAD
1000
AcDbSavedByObjectVersion
1070
     0
  0
VISUALSTYLE
  5
39
102
{ACAD_XDICTIONARY
360
A2B
102
}
102
{ACAD_REACTORS
330
29
102
}
330
29
100
AcDbVisualStyle
  2
ColorChange
 70
    16
 71
     2
 72
     2
 73
     3
 90
        0
 40
-0.6
 41
-30.0
 62
     5
 63
     8
 74
     1
 91
        4
 64
     7
 65
   257
 75
     1
175
     1
 42
1.0
 92
        8
 66
     8
 43
1.0
 76
     1
 77
     6
 78
     2
 67
     7
 79
     5
170
     0
171
     0
290
     0
174
     0
 93
        1
 44
0.0
173
     0
291
     1
 45
0.0
1001
ACAD
1000
AcDbSavedByObjectVersion
1070
     0
  0
VISUALSTYLE
  5
32
102
{ACAD_XDICTIONARY
360
A1D
102
}
102
{ACAD_REACTORS
330
29
102
}
330
29
100
AcDbVisualStyle
  2
Conceptual
 70
     9
 71
     3
 72
     2
 73
     0
 90
        0
 40
-0.6
 41
-30.0
 62
     5
 63
     7
 74
     2
 91
        2
 64
     7
 65
   257
 75
     1
175
     1
 42
179.0
 92
        8
 66
     7
 43
1.0
 76
     1
 77
     6
 78
     2
 67
     7
 79
     3
170
     0
171
     0
290
     0
174
     0
 93
        1
 44
0.0
173
     0
291
     0
 45
0.0
1001
ACAD
1000
AcDbSavedByObjectVersion
1070
     0
  0
VISUALSTYLE
  5
34
102
{ACAD_XDICTIONARY
360
A21
102
}
102
{ACAD_REACTORS
330
29
102
}
330
29
100
AcDbVisualStyle
  2
Dim
 70
    11
 71
     2
 72
     2
 73
     0
 90
        0
 40
-0.6
 41
-30.0
 62
     5
 63
     7
 74
     1
 91
        4
 64
     7
 65
   257
 75
     1
175
     1
 42
1.0
 92
        8
 66
     7
 43
1.0
 76
     1
 77
     6
 78
     2
 67
     7
 79
     5
170
     0
171
     0
290
     0
174
     0
 93
        1
 44
-50.0
173
     0
291
     1
 45
0.0
1001
ACAD
1000
AcDbSavedByObjectVersion
1070
     0
  0
VISUALSTYLE
  5
41
102
{ACAD_XDICTIONARY
360
A3B
102
}
102
{ACAD_REACTORS
330
29
102
}
330
29
100
AcDbVisualStyle
  2
EdgeColorOff
 70
    22
 71
     2
 72
     2
 73
     0
 90
        0
 40
-0.6
 41
-30.0
 62
     5
 63
     7
 74
     1
 91
        4
 64
     7
 65
   257
 75
     1
175
     1
 42
1.0
 92
        8
 66
     7
 43
1.0
 76
     1
 77
     6
 78
     2
 67
     7
 79
     5
170
     0
171
     0
290
     0
174
     0
 93
        1
 44
0.0
173
     0
291
     1
 45
0.0
1001
ACAD
1000
AcDbSavedByObjectVersion
1070
     0
  0
VISUALSTYLE
  5
38
102
{ACAD_XDICTIONARY
360
A29
102
}
102
{ACAD_REACTORS
330
29
102
}
330
29
100
AcDbVisualStyle
  2
Facepattern
 70
    15
 71
     2
 72
     2
 73
     0
 90
        0
 40
-0.6
 41
-30.0
 62
     5
 63
     7
 74
     1
 91
        4
 64
     7
 65
   257
 75
     1
175
     1
 42
1.0
 92
        8
 66
     7
 43
1.0
 76
     1
 77
     6
 78
     2
 67
     7
 79
     5
170
     0
171
     0
290
     0
174
     0
 93
        1
 44
0.0
173
     0
291
     1
 45
0.0
1001
ACAD
1000
AcDbSavedByObjectVersion
1070
     0
  0
VISUALSTYLE
  5
2A
102
{ACAD_XDICTIONARY
360
A0D
102
}
102
{ACAD_REACTORS
330
29
102
}
330
29
100
AcDbVisualStyle
  2
Flat
 70
     0
 71
     2
 72
     1
 73
     1
 90
        2
 40
-0.6
 41
30.0
 62
     5
 63
     7
 74
     0
 91
        0
 64
     7
 65
   257
 75
     1
175
     1
 42
1.0
 92
        8
 66
     7
 43
1.0
 76
     1
 77
     6
 78
     2
 67
     7
 79
     5
170
     0
171
     0
290
     0
174
     0
 93
       13
 44
0.0
173
     0
291
     1
 45
0.0
1001
ACAD
1000
AcDbSavedByObjectVersion
1070
     0
  0
VISUALSTYLE
  5
2B
102
{ACAD_XDICTIONARY
360
A0F
102
}
102
{ACAD_REACTORS
330
29
102
}
330
29
100
AcDbVisualStyle
  2
FlatWithEdges
 70
     1
 71
     2
 72
     1
 73
     1
 90
        2
 40
-0.6
 41
30.0
 62
     5
 63
     7
 74
     1
 91
        0
 64
     7
 65
   257
 75
     1
175
     1
 42
1.0
 92
        0
 66
   257
 43
1.0
 76
     1
 77
     6
 78
     2
 67
     7
 79
     5
170
     0
171
     0
290
     0
174
     0
 93
       13
 44
0.0
173
     0
291
     1
 45
0.0
1001
ACAD
1000
AcDbSavedByObjectVersion
1070
     0
  0
VISUALSTYLE
  5
2C
102
{ACAD_XDICTIONARY
360
A11
102
}
102
{ACAD_REACTORS
330
29
102
}
330
29
100
AcDbVisualStyle
  2
Gouraud
 70
     2
 71
     2
 72
     2
 73
     1
 90
        2
 40
-0.6
 41
30.0
 62
     5
 63
     7
 74
     0
 91
        0
 64
     7
 65
   257
 75
     1
175
     1
 42
1.0
 92
        0
 66
     7
 43
1.0
 76
     1
 77
     6
 78
     2
 67
     7
 79
     5
170
     0
171
     0
290
     0
174
     0
 93
       13
 44
0.0
173
     0
291
     1
 45
0.0
1001
ACAD
1000
AcDbSavedByObjectVersion
1070
     0
  0
VISUALSTYLE
  5
2D
102
{ACAD_XDICTIONARY
360
A13
102
}
102
{ACAD_REACTORS
330
29
102
}
330
29
100
AcDbVisualStyle
  2
GouraudWithEdges
 70
     3
 71
     2
 72
     2
 73
     1
 90
        2
 40
-0.6
 41
30.0
 62
     5
 63
     7
 74
     1
 91
        0
 64
     7
 65
   257
 75
     1
175
     1
 42
1.0
 92
        0
 66
   257
 43
1.0
 76
     1
 77
     6
 78
     2
 67
     7
 79
     5
170
     0
171
     0
290
     0
174
     0
 93
       13
 44
0.0
173
     0
291
     1
 45
0.0
1001
ACAD
1000
AcDbSavedByObjectVersion
1070
     0
  0
VISUALSTYLE
  5
31
102
{ACAD_XDICTIONARY
360
A1B
102
}
102
{ACAD_REACTORS
330
29
102
}
330
29
100
AcDbVisualStyle
  2
Hidden
 70
     6
 71
     1
 72
     2
 73
     2
 90
        0
 40
-0.6
 41
-30.0
 62
     5
 63
     7
 74
     2
 91
        2
 64
     7
 65
   257
 75
     2
175
     1
 42
40.0
 92
        0
 66
   257
 43
1.0
 76
     1
 77
     6
 78
     2
 67
     7
 79
     3
170
     0
171
     0
290
     0
174
     0
 93
        1
 44
0.0
173
     0
291
     0
 45
0.0
1001
ACAD
1000
AcDbSavedByObjectVersion
1070
     0
  0
VISUALSTYLE
  5
3F
102
{ACAD_XDICTIONARY
360
A37
102
}
102
{ACAD_REACTORS
330
29
102
}
330
29
100
AcDbVisualStyle
  2
JitterOff
 70
    20
 71
     2
 72
     2
 73
     0
 90
        0
 40
-0.6
 41
-30.0
 62
     5
 63
     7
 74
     1
 91
        4
 64
     7
 65
   257
 75
     1
175
     1
 42
1.0
 92
       10
 66
     7
 43
1.0
 76
     1
 77
     6
 78
     2
 67
     7
 79
     5
170
     0
171
     0
290
     0
174
     0
 93
        1
 44
0.0
173
     0
291
     1
 45
0.0
1001
ACAD
1000
AcDbSavedByObjectVersion
1070
     0
  0
VISUALSTYLE
  5
37
102
{ACAD_XDICTIONARY
360
A27
102
}
102
{ACAD_REACTORS
330
29
102
}
330
29
100
AcDbVisualStyle
  2
Linepattern
 70
    14
 71
     2
 72
     2
 73
     0
 90
        0
 40
-0.6
 41
-30.0
 62
     5
 63
     7
 74
     1
 91
        4
 64
     7
 65
   257
 75
     7
175
     7
 42
1.0
 92
        8
 66
     7
 43
1.0
 76
     1
 77
     6
 78
     2
 67
     7
 79
     5
170
     0
171
     0
290
     0
174
     0
 93
        1
 44
0.0
173
     0
291
     1
 45
0.0
1001
ACAD
1000
AcDbSavedByObjectVersion
1070
     0
  0
VISUALSTYLE
  5
40
102
{ACAD_XDICTIONARY
360
A39
102
}
102
{ACAD_REACTORS
330
29
102
}
330
29
100
AcDbVisualStyle
  2
OverhangOff
 70
    21
 71
     2
 72
     2
 73
     0
 90
        0
 40
-0.6
 41
-30.0
 62
     5
 63
     7
 74
     1
 91
        4
 64
     7
 65
   257
 75
     1
175
     1
 42
1.0
 92
        9
 66
     7
 43
1.0
 76
     1
 77
     6
 78
     2
 67
     7
 79
     5
170
     0
171
     0
290
     0
174
     0
 93
        1
 44
0.0
173
     0
291
     1
 45
0.0
1001
ACAD
1000
AcDbSavedByObjectVersion
1070
     0
  0
VISUALSTYLE
  5
33
102
{ACAD_XDICTIONARY
360
A1F
102
}
102
{ACAD_REACTORS
330
29
102
}
330
29
100
AcDbVisualStyle
  2
Realistic
 70
     8
 71
     2
 72
     3
 73
     0
 90
        2
 40
-0.6
 41
30.0
 62
     5
 63
     7
 74
     0
 91
        0
 64
     7
 65
   257
 75
     1
175
     1
 42
1.0
 92
        8
 66
   257
 43
1.0
 76
     1
 77
     6
 78
     2
 67
     7
 79
     3
170
     0
171
     0
290
     0
174
     0
 93
       13
 44
0.0
173
     0
291
     0
 45
0.0
1001
ACAD
1000
AcDbSavedByObjectVersion
1070
     0
  0
VISUALSTYLE
  5
3E
102
{ACAD_XDICTIONARY
360
A35
102
}
102
{ACAD_REACTORS
330
29
102
}
330
29
100
AcDbVisualStyle
  2
Shaded
 70
    27
 71
     2
 72
     2
 73
     1
 90
        2
 40
-0.6
 41
30.0
 62
     5
 63
     7
 74
     0
 91
        4
 64
     7
 65
   257
 75
     1
175
     1
 42
1.0
 92
        8
 66
   257
 43
1.0
 76
     1
 77
     6
 78
     2
 67
     8
 79
     3
170
     0
171
     0
290
     0
174
     0
 93
        5
 44
0.0
173
     0
291
     0
 45
0.0
1001
ACAD
1000
AcDbSavedByObjectVersion
1070
     0
  0
VISUALSTYLE
  5
3D
102
{ACAD_XDICTIONARY
360
A33
102
}
102
{ACAD_REACTORS
330
29
102
}
330
29
100
AcDbVisualStyle
  2
Shaded with edges
 70
    26
 71
     2
 72
     2
 73
     1
 90
        2
 40
-0.6
 41
30.0
 62
     5
 63
     7
 74
     1
 91
       10
 64
     7
 65
   257
 75
     2
175
     1
 42
1.0
 92
        8
 66
   257
 43
1.0
 76
     1
 77
     6
 78
     2
 67
     7
 79
     3
170
     0
171
     0
290
     0
174
     0
 93
        5
 44
0.0
173
     0
291
     0
 45
0.0
1001
ACAD
1000
AcDbSavedByObjectVersion
1070
     0
  0
VISUALSTYLE
  5
3A
102
{ACAD_XDICTIONARY
360
A2D
102
}
102
{ACAD_REACTORS
330
29
102
}
330
29
100
AcDbVisualStyle
  2
Shades of Gray
 70
    23
 71
     2
 72
     2
 73
     3
 90
        0
 40
-0.6
 41
-30.0
 62
     5
 63
     7
 74
     2
 91
        2
 64
     7
 65
     7
 75
     1
175
     1
 42
40.0
 92
        8
 66
     7
 43
1.0
 76
     1
 77
     6
 78
     2
 67
     7
 79
     3
170
     0
171
     0
290
     0
174
     0
 93
        1
 44
0.0
173
     0
291
     0
 45
0.0
1001
ACAD
1000
AcDbSavedByObjectVersion
1070
     0
  0
VISUALSTYLE
  5
3B
102
{ACAD_XDICTIONARY
360
A2F
102
}
102
{ACAD_REACTORS
330
29
102
}
330
29
100
AcDbVisualStyle
  2
Sketchy
 70
    24
 71
     1
 72
     2
 73
     2
 90
        0
 40
-0.6
 41
-30.0
 62
     5
 63
     7
 74
     2
 91
        2
 64
     7
 65
     7
 75
     1
175
     1
 42
40.0
 92
       11
 66
     7
 43
1.0
 76
     1
 77
     6
 78
     2
 67
     7
 79
     6
170
     0
171
     0
290
     0
174
     0
 93
        1
 44
0.0
173
     0
291
     0
 45
0.0
1001
ACAD
1000
AcDbSavedByObjectVersion
1070
     0
  0
VISUALSTYLE
  5
36
102
{ACAD_XDICTIONARY
360
A25
102
}
102
{ACAD_REACTORS
330
29
102
}
330
29
100
AcDbVisualStyle
  2
Thicken
 70
    13
 71
     2
 72
     2
 73
     0
 90
        0
 40
-0.6
 41
-30.0
 62
     5
 63
     7
 74
     1
 91
        4
 64
     7
 65
   257
 75
     1
175
     1
 42
1.0
 92
       12
 66
     7
 43
1.0
 76
     1
 77
     6
 78
     2
 67
     7
 79
     5
170
     0
171
     0
290
     0
174
     0
 93
        1
 44
0.0
173
     0
291
     1
 45
0.0
1001
ACAD
1000
AcDbSavedByObjectVersion
1070
     0
  0
VISUALSTYLE
  5
30
102
{ACAD_XDICTIONARY
360
A19
102
}
102
{ACAD_REACTORS
330
29
102
}
330
29
100
AcDbVisualStyle
  2
Wireframe
 70
     5
 71
     0
 72
     2
 73
     0
 90
        0
 40
-0.6
 41
-30.0
 62
     5
 63
     7
 74
     1
 91
        4
 64
     7
 65
   257
 75
     1
175
     1
 42
1.0
 92
        0
 66
   257
 43
1.0
 76
     1
 77
     6
 78
     2
 67
     7
 79
     3
170
     0
171
     0
290
     0
174
     0
 93
        1
 44
0.0
173
     0
291
     0
 45
0.0
1001
ACAD
1000
AcDbSavedByObjectVersion
1070
     0
  0
VISUALSTYLE
  5
3C
102
{ACAD_XDICTIONARY
360
A31
102
}
102
{ACAD_REACTORS
330
29
102
}
330
29
100
AcDbVisualStyle
  2
X-Ray
 70
    25
 71
     2
 72
     2
 73
     1
 90
        1
 40
0.5
 41
-30.0
 62
     5
 63
     7
 74
     1
 91
        0
 64
     7
 65
   257
 75
     1
175
     1
 42
1.0
 92
        8
 66
     7
 43
1.0
 76
     1
 77
     6
 78
     2
 67
     7
 79
     3
170
     0
171
     0
290
     0
174
     0
 93
       13
 44
0.0
173
     0
291
     0
 45
0.0
1001
ACAD
1000
AcDbSavedByObjectVersion
1070
     0
  0
DICTIONARYVAR
  5
79
102
{ACAD_REACTORS
330
76
102
}
330
76
100
DictionaryVariables
280
     0
  1
1:1
  0
DICTIONARYVAR
  5
78
102
{ACAD_REACTORS
330
76
102
}
330
76
100
DictionaryVariables
280
     0
  1
STANDARD
  0
DICTIONARYVAR
  5
77
102
{ACAD_REACTORS
330
76
102
}
330
76
100
DictionaryVariables
280
     0
  1
STANDARD
  0
DICTIONARYVAR
  5
A00
102
{ACAD_REACTORS
330
76
102
}
330
76
100
DictionaryVariables
280
     0
  1
1
  0
DICTIONARYVAR
  5
9FF
102
{ACAD_REACTORS
330
76
102
}
330
76
100
DictionaryVariables
280
     0
  1
1
  0
DICTIONARYVAR
  5
9FE
102
{ACAD_REACTORS
330
76
102
}
330
76
100
DictionaryVariables
280
     0
  1
0
  0
DICTIONARYVAR
  5
9FB
102
{ACAD_REACTORS
330
76
102
}
330
76
100
DictionaryVariables
280
     0
  1
0
  0
DICTIONARYVAR
  5
9FC
102
{ACAD_REACTORS
330
76
102
}
330
76
100
DictionaryVariables
280
     0
  1
0
  0
DICTIONARYVAR
  5
9FA
102
{ACAD_REACTORS
330
76
102
}
330
76
100
DictionaryVariables
280
     0
  1
2
  0
DICTIONARYVAR
  5
9F9
102
{ACAD_REACTORS
330
76
102
}
330
76
100
DictionaryVariables
280
     0
  1
1
  0
DICTIONARYVAR
  5
9FD
102
{ACAD_REACTORS
330
76
102
}
330
76
100
DictionaryVariables
280
     0
  1
127
  0
DICTIONARYVAR
  5
A01
102
{ACAD_REACTORS
330
76
102
}
330
76
100
DictionaryVariables
280
     0
  1
2
  0
DICTIONARY
  5
A3F
330
6B
100
AcDbDictionary
280
     1
281
     1
  3
ACAD_XREC_ROUNDTRIP
360
A40
  0
DICTIONARY
  5
A43
330
73
100
AcDbDictionary
280
     1
281
     1
  3
ACAD_XREC_ROUNDTRIP
360
A44
  0
DICTIONARY
  5
A41
330
6F
100
AcDbDictionary
280
     1
281
     1
  3
ACAD_XREC_ROUNDTRIP
360
A42
  0
DICTIONARY
  5
1A
330
19
100
AcDbDictionary
280
     1
281
     1
  3
ACAD_XREC_ROUNDTRIP
360
A0B
  3
BUMPTILE
360
1C
  3
DIFFUSETILE
360
1B
  3
OPACITYTILE
360
1F
  3
REFLECTIONTILE
360
1E
  3
REFRACTIONTILE
360
20
  3
SPECULARTILE
360
1D
  0
DICTIONARY
  5
12
330
11
100
AcDbDictionary
280
     1
281
     1
  3
ACAD_XREC_ROUNDTRIP
360
A0A
  3
BUMPTILE
360
14
  3
DIFFUSETILE
360
13
  3
FBXASSET
360
F5
  3
OPACITYTILE
360
17
  3
REFLECTIONTILE
360
16
  3
REFRACTIONTILE
360
18
  3
SPECULARTILE
360
15
  0
DICTIONARY
  5
22
330
21
100
AcDbDictionary
280
     1
281
     1
  3
ACAD_XREC_ROUNDTRIP
360
A0C
  3
BUMPTILE
360
24
  3
DIFFUSETILE
360
23
  3
FBXASSET
360
BA
  3
OPACITYTILE
360
27
  3
REFLECTIONTILE
360
26
  3
REFRACTIONTILE
360
28
  3
SPECULARTILE
360
25
  0
DICTIONARY
  5
A04
330
67
100
AcDbDictionary
280
     1
281
     1
  3
ACAD_XREC_ROUNDTRIP
360
A05
  0
DICTIONARY
  5
A02
330
65
100
AcDbDictionary
280
     1
281
     1
  3
ACAD_ROUNDTRIP_2008_TABLESTYLE_CELLSTYLEMAP
360
A03
  3
ACAD_XREC_ROUNDTRIP
360
A3D
  0
DICTIONARY
  5
A17
330
2F
100
AcDbDictionary
280
     1
281
     1
  3
ACAD_XREC_ROUNDTRIP
360
A18
  0
DICTIONARY
  5
A15
330
2E
100
AcDbDictionary
280
     1
281
     1
  3
ACAD_XREC_ROUNDTRIP
360
A16
  0
DICTIONARY
  5
A23
330
35
100
AcDbDictionary
280
     1
281
     1
  3
ACAD_XREC_ROUNDTRIP
360
A24
  0
DICTIONARY
  5
A2B
330
39
100
AcDbDictionary
280
     1
281
     1
  3
ACAD_XREC_ROUNDTRIP
360
A2C
  0
DICTIONARY
  5
A1D
330
32
100
AcDbDictionary
280
     1
281
     1
  3
ACAD_XREC_ROUNDTRIP
360
A1E
  0
DICTIONARY
  5
A21
330
34
100
AcDbDictionary
280
     1
281
     1
  3
ACAD_XREC_ROUNDTRIP
360
A22
  0
DICTIONARY
  5
A3B
330
41
100
AcDbDictionary
280
     1
281
     1
  3
ACAD_XREC_ROUNDTRIP
360
A3C
  0
DICTIONARY
  5
A29
330
38
100
AcDbDictionary
280
     1
281
     1
  3
ACAD_XREC_ROUNDTRIP
360
A2A
  0
DICTIONARY
  5
A0D
330
2A
100
AcDbDictionary
280
     1
281
     1
  3
ACAD_XREC_ROUNDTRIP
360
A0E
  0
DICTIONARY
  5
A0F
330
2B
100
AcDbDictionary
280
     1
281
     1
  3
ACAD_XREC_ROUNDTRIP
360
A10
  0
DICTIONARY
  5
A11
330
2C
100
AcDbDictionary
280
     1
281
     1
  3
ACAD_XREC_ROUNDTRIP
360
A12
  0
DICTIONARY
  5
A13
330
2D
100
AcDbDictionary
280
     1
281
     1
  3
ACAD_XREC_ROUNDTRIP
360
A14
  0
DICTIONARY
  5
A1B
330
31
100
AcDbDictionary
280
     1
281
     1
  3
ACAD_XREC_ROUNDTRIP
360
A1C
  0
DICTIONARY
  5
A37
330
3F
100
AcDbDictionary
280
     1
281
     1
  3
ACAD_XREC_ROUNDTRIP
360
A38
  0
DICTIONARY
  5
A27
330
37
100
AcDbDictionary
280
     1
281
     1
  3
ACAD_XREC_ROUNDTRIP
360
A28
  0
DICTIONARY
  5
A39
330
40
100
AcDbDictionary
280
     1
281
     1
  3
ACAD_XREC_ROUNDTRIP
360
A3A
  0
DICTIONARY
  5
A1F
330
33
100
AcDbDictionary
280
     1
281
     1
  3
ACAD_XREC_ROUNDTRIP
360
A20
  0
DICTIONARY
  5
A35
330
3E
100
AcDbDictionary
280
     1
281
     1
  3
ACAD_XREC_ROUNDTRIP
360
A36
  0
DICTIONARY
  5
A33
330
3D
100
AcDbDictionary
280
     1
281
     1
  3
ACAD_XREC_ROUNDTRIP
360
A34
  0
DICTIONARY
  5
A2D
330
3A
100
AcDbDictionary
280
     1
281
     1
  3
ACAD_XREC_ROUNDTRIP
360
A2E
  0
DICTIONARY
  5
A2F
330
3B
100
AcDbDictionary
280
     1
281
     1
  3
ACAD_XREC_ROUNDTRIP
360
A30
  0
DICTIONARY
  5
A25
330
36
100
AcDbDictionary
280
     1
281
     1
  3
ACAD_XREC_ROUNDTRIP
360
A26
  0
DICTIONARY
  5
A19
330
30
100
AcDbDictionary
280
     1
281
     1
  3
ACAD_XREC_ROUNDTRIP
360
A1A
  0
DICTIONARY
  5
A31
330
3C
100
AcDbDictionary
280
     1
281
     1
  3
ACAD_XREC_ROUNDTRIP
360
A32
  0
XRECORD
  5
A40
102
{ACAD_REACTORS
330
A3F
102
}
330
A3F
100
AcDbXrecord
280
     1
102
SHADEPLOT
 70
     0
102
SHADEPLOTRESLEVEL
 70
     2
102
SHADEPLOTCUSTOMDPI
 70
   300
  0
XRECORD
  5
A44
102
{ACAD_REACTORS
330
A43
102
}
330
A43
100
AcDbXrecord
280
     1
102
SHADEPLOT
 70
     0
102
SHADEPLOTRESLEVEL
 70
     2
102
SHADEPLOTCUSTOMDPI
 70
   300
  0
XRECORD
  5
A42
102
{ACAD_REACTORS
330
A41
102
}
330
A41
100
AcDbXrecord
280
     1
102
SHADEPLOT
 70
     0
102
SHADEPLOTRESLEVEL
 70
     2
102
SHADEPLOTCUSTOMDPI
 70
   300
  0
XRECORD
  5
A0B
102
{ACAD_REACTORS
330
1A
102
}
330
1A
100
AcDbXrecord
280
     1
102
MATERIAL
148
0.0
149
0.0
149
0.0
 93
        0
 94
      127
282
     0
 72
     0
 77
     0
171
     0
175
     0
179
     0
273
     0
  0
XRECORD
  5
1C
102
{ACAD_REACTORS
330
1A
102
}
330
1A
100
AcDbXrecord
280
     1
270
     1
271
     1
  0
XRECORD
  5
1B
102
{ACAD_REACTORS
330
1A
102
}
330
1A
100
AcDbXrecord
280
     1
270
     1
271
     1
  0
XRECORD
  5
1F
102
{ACAD_REACTORS
330
1A
102
}
330
1A
100
AcDbXrecord
280
     1
270
     1
271
     1
  0
XRECORD
  5
1E
102
{ACAD_REACTORS
330
1A
102
}
330
1A
100
AcDbXrecord
280
     1
270
     1
271
     1
  0
XRECORD
  5
20
102
{ACAD_REACTORS
330
1A
102
}
330
1A
100
AcDbXrecord
280
     1
270
     1
271
     1
  0
XRECORD
  5
1D
102
{ACAD_REACTORS
330
1A
102
}
330
1A
100
AcDbXrecord
280
     1
270
     1
271
     1
  0
XRECORD
  5
A0A
102
{ACAD_REACTORS
330
12
102
}
330
12
100
AcDbXrecord
280
     1
102
MATERIAL
148
0.0
149
0.0
149
0.0
 93
        0
 94
      127
282
     0
 72
     0
 77
     0
171
     0
175
     0
179
     0
273
     0
  0
XRECORD
  5
14
102
{ACAD_REACTORS
330
12
102
}
330
12
100
AcDbXrecord
280
     1
270
     1
271
     1
  0
XRECORD
  5
13
102
{ACAD_REACTORS
330
12
102
}
330
12
100
AcDbXrecord
280
     1
270
     1
271
     1
  0
XRECORD
  5
F5
102
{ACAD_REACTORS
330
12
102
}
330
12
100
AcDbXrecord
280
     1
 70
     1
 90
1959938040
 71
     1
  1
509BD702-78FF-46B6-8C96-37D05A6874E8
311
504B03040A0000080000F24B5C403DEE336E79000000790000001B0000006175746F6465736B2D64657369676E2D7061636B6167652E786D6C3C3F786D6C2076657273696F6E3D22312E302220656E636F64696E673D227574662D3822203F3E3C666F726D6174733E3C666F726D61743E687474703A2F2F736368656D612E
311
6175746F6465736B2E636F6D2F64657369676E2D7061636B6167652F323030393C2F666F726D61743E3C2F666F726D6174733E504B0304140006080800F24B5C40D486FD9CA0000000F4000000130000005B436F6E74656E745F54797065735D2E786D6C7D8EC10E82300C865F65E91D8A1E8C310C0EEA1BF002731658846E
311
D98AC1B77784ABF1D8FE5FBFBF75BBCE937A534CCEB38643598122B6FEE978D0B0485F9C41B54DDD7D022595594E1A469170414C76A4D9A4D207E29CF43ECE46F218070CC6BECC4078ACAA135ACF422C856C0E68EA1BF5669944DDD7BCDE7B1F8E415D77AECB980613C2E4AC91FC167A2B244592486606FC29C8FD7F045B9A
311
EF7053A7E60B504B0304140006080800F24B5C40E1F21A97EA0000007C01000008000000636F72652E786D6C8D90416EC3201045AF82668F0D38716D0B13395172825E0001715062B00C543D7E71E248EDAEAB19FDF96F66F4F9E17B7AA02FB304EB5D0FB420808C535E5B37F690E21537800E822FDEC75F36404E4EA68755
311
06C1C7C5A779939477D1B89855E7B5D94419828980D423373D047533932C648AD911EEC52CD55D8EA6A0EF2EC329598D5E47ACCEFBECD59A05C49E92A6DED52D1EEA81E0DD9EB5F8589F083E9E2A762197F3990D2D2F5758F068A7F77DB518198D06C108659830CC9A4FD27615EDAA0F4CEA8E105EAEF63F509AF53FA1645D
311
ACD8F6EE0B0B20687EE43910BC5CB3C8E51954AE6B6EE207504B0304140006080800F24B5C4055019EA25F0000007C00000007000000636E782E786D6C4DCB3B0E80201045D1AD90E915ED2CF8AC45050C11660C8261F98AB1B07AC9C97D42D718D865D3E909258CFD00CCE24AC6E326A164D74DC0B4128928FF326038472B
311
A13128B1252AC747C6BAB984FC68F0B87FE8960A5C09FE86CFB69FBA01504B0304140006080800F24B5C4085D4282966010000020300000C0000006662782F636F72652E786D6C8D52ED8E8230107C95A6FF4B4B514E4DA951A34F702F50A17244684969898F7FCB87F1BC1863484A33B3B33B3B20B6B7A646BD765D654D86
311
E38861A44D6E8BCA94190EFE4256186DA570D6FA3F651819D5E80C0F3096A27436B433945BE3B5F1801A5BE819545DA73D46790D970C77F98F6E54A482878AEE1AB52ABFAA5247710434D449D1790706D0346438B1BC9C6F824EB8142154C5CC56054CAB2E9576582E63B64A17E99AECD21D238B255F937D7A60647F48F889
311
9D8E47BE5B0B3A88A5F0557377973BADBC2EB0E42CE68471C257DF6CBD49E24DF24558BA614CD0A1FC4914DAE24351A88C4FF86C77927558C6606424FE6D0B1179D4A91EFC5029E81022BCC6849F8386402064AFCEF57D8F2B40BDCEBD750B600A1B1E54AFEAA0612A43E323E8C442E7B1016CF6B20F7FD3E77D0FF880CA94
311
604D79B89E831FA68B69EA1C45AB1DE9FD0D19EB1A553FCC4D161FE763D04B796E6BEB3E51D379553A874987BF57FE02504B0304140006080800F24B5C4051F849267E0000009D0000000B0000006662782F636E782E786D6C4DCCD10A83201886E15B91FFDCB5D461821A2DD77DC4B290990EA76397BF1A1DECE883878F57
311
B69FD5A3B74D2F178382FA740664C33D4E2E2C0A4A9E7103A8D532C598FF6E80C2B85A053B83964B8AE579D064E7B1F8BCA977E17120EB7A6A08AFF1CD088E996938BE0AC631A174E09D20434F2F506959FD4ADBEE61FD05504B0304140006080800F24B5C404FD754FF2E01000014020000310000006662782F3441433344
311
3237312D454439372D344438372D423934372D3233334637413932464333352F636F72652E786D6C8D51CB6EC23010FC95C8277A70E2388124C831A250BEA03F106C432D881DF951F1F95D37416A6F5CBCD6ECCCEC6897ED1EE33DFB56CE6B6B7A54E60465CA082BB5B9F628860B6E51B6E3CC591BFED050668651F528C188
311
B3ABB3715A20614D5026006AAC540B3878AF02CAC41D3E3DF2E24B8D433EC4000C7FCBA741DC86ABCACB1CDAC0E3CC070701B279487A11AFF787EA489B127F1CBB06D7C7B6C1EF5DDD605A55A766DFD1D3A15AB362167216A3968B5C4B88A32F5AB9574D9298B3A0C7677CE1D41094449C92926242316D3F49B7ADCA6DD560
311
B2D912C28A44FF278A937C5114B509155DE2CE328F78C98AB9C199B4F17C7F86518FC9BA90A5792BAFC41BE2242794B6B45D5356CC545800786EEAC5D307EB60C1ABDB19D825AC29196F6ACE8A742328BF07849AEEC97F00504B0304140006080800F24B5C40464E34C54D01000033030000300000006662782F3441433344
311
3237312D454439372D344438372D423934372D3233334637413932464333352F636E782E786D6CD593CD6E022114855F85B09F5F8DB586C1A48B3E4117DD3270559481093F4D7DFB5E14AD1B175D764326E71ECEB9F9C2B0EDF764C817F8A09D1D6857B79480954E69BB1F688ABB6A4DC99633EF5C7CB05162C50403CD32E5
311
6CEF5D9A8BA460279289A81A6D4F45F4105CF21202CAF926314E0A830160AB84224C2328058ADC8DF8B5038FABA0389E493C00797FFB246E3C828C81353985B326777096CFD2F460A2441A11C240833CC0246A91A253104EB51251D45D7DEB7AB2D36F12C9176E95C96B92CB079A4FCACB463572640D0E390BD123BD628AE7
311
192817F36CB41411213717E3D5C359D236AE96C5AB11BC4777B75A2C971876997116F504C5213D88088AF2BEEDFAAAEDAB7EFDD1BE6E16DD66F152B5AB4DDBB226DB391B9D33E512C680773391CE46B091F28E3579FC0C5FF111A53DB276FEFC079008A0B45EE9DC33FE339FE6F2BE1197C7BF80FF00504B03041400060808
311
00F24B5C40979DBB2D9C0500007B100000340000006662782F34414333443237312D454439372D344438372D423934372D3233334637413932464333352F6F626A656374732E786D6CAD575D739B3814FD2B0CFB6C30B693383B844E6C371D4F376DA79E76F621331E018268233E461289D35FBF472030B876EADDE90B2021
311
5DDD7BEEB91FF2DFED326E3D53215991DFD89E33B62D9A4745CCF2F4C6AE54329ADBD6BBC01745A17ACB6C2B2719BDB1F5B41DF8A928AAD24CC53421155707B3778BBF2D19D19CDA56C4899437B68C1E69461C52A922A6F2C98989224E9AEC1CCF69160EC5A682948F07424B2268AEA029E67348B11AA5BCE1706CBB81EFEA
311
FF81AF9F66D5F4F42AB7B667783ECBA52279F4D3610762A6DE6CF57E72713DBA98CDA6A3D9E5C41B2DEE16AB9177351D2F2F97CBEBDBF7D738582A0149461341133BF8006C048B7CB7F915F815CBD57462961807B9823E33ED293B98589EEF366B3AEB8C91C7D48F8A3CA7518D15D0A8ED33A2635AD23C86CF1995D0AC87D0
311
7838F4348EBDDF533D3647F6A7CF43A0BFA327A8D5BD7DF7352DC27F60823C87414252CDC0064B6368C3D5F11EE1B028B8F9C7A49511450523DCE22C1444BCDA0196EA25813F10A3992C7434680BEC005E687E0FE98230FA35CF8F6999549C6B1ADB411D055BC40A55B2D68CFDA062AF7D1F19E8045F6936CC8D41EAB5A476
311
70DD50647EC0A606482BE12485CB61A6DE399D1C18BAD471BA5ED9C1C7BB70B7D1B17BFCF0521425154AD307D46A1DD7BE354A4627EF2CCFE90DF6812A7B50BE02F94F08F5BD2AF09B60BBD96E664E5182E432294406DF58636B34C6636C79F5537FF7BE7CB7DB3CF4DE293CE16C0DD56FC0736843DF973D3803FF19842FC4
311
D498B6890847DAB8673900D224B1788129E4E124DCD9C11A590E5919BB080F3C980C759FF1E9BB460C12457D52EF9D03CB83B4784682066C3523A146437EA3E0DE4F3FA5B3FA60B3EC14BC17BF85AEB7ABCDC74D251212D17B13D32B9AB09C2994B83D6FFA0A0D301F58F4445F5F0A11C3D09FF1DEF4F1CECC5112686BCC35
311
F0699BD3F5607FF2E08008FBD242A71BFF1727C0085D587BF2EF998C28E724A745D59EFB66FD40D96820D6C1AE99DC15987D6101699A3F073188221D09566A10BB6AD5254DE78475DFD69FC0483B58BCFE455EFBD92BDCE7DEA8E085D886AFDB262D1D85FAFB90DB0603574B01DDEB2069E3DF80BE8D5992541249F008AEDF
311
D7CBBEEF745A408A68A536D13283FD082E220C695BB9A8D682A09216F996A16E22EE8E1ED0970F480D036A81A7349694275BC679956D13C6518DB619294FC0F1FFF50FABACDC92ACA8727542F640755487A1EE03F6CA17A2A2473BD8D4EFD102B937A6F10932E85A7204AB816B2FC6D78BD5D57832BA9ADFDDA17F5A5C8EE6
311
CBEBCBD1F46A35BEB8BD9C5FCDDECF5B3F359A047E5B6AFA110D2FA1B4F99560C67DDFD6881F9304ECE09E28F9F0A109CFF6FD6DEDA017F65DEC41BDEC36DEC6CFE8FB68FC6B01FB954705ADB392D38CE68AE818BAD71FFC2B419F3150A6995F6724A56748F9FC6173600C66CED8F745C73B7D39D86B66973A208F0A518F55
311
16E684F1838D6983A453E6A9C1AFF549F76E0A4D3BD423E31874A6B2E02C461E8CAD94161955C886671421915109EAF57BFAD8DC3DCED8FDDC74888A849CB69A3C1234C95C222C40AD2A52C379EB0F3475BAAFBAB1516E9D273C4CA6B02D70E6C64693AE5844A513A240EB56A8160E2EF53B7934FE244F397AED665337EE76
311
696C0625B95B724EFF64EC6A52B8310069A444DF808608DEA99509FC5A37F33FFA4F86B7EA5844E133AC5467CB7EA233A63E0621DA18656E0B68629ECCD13B04EADB66794EBD6680C859B7AC3749D0481D2922D2FAA6A0F5332ADDAEBEB8E850ACF567ABE4550A5F9E2F692428C85CE900078BC00A23B3240A545DFEF9F045
311
14B8C966D61D03051E96459615B919DC9A9BB0B579C4BD367E405AA0FA42221F26636FF2505F04CCDD641B12491D12CB274CC0A78275100F1C0F4636B74554A0E647B7CED54E38E0E67A65999236835043947E56D5B0A0E5C8A985E8D197491D2BFD05E59B7701B75E0A1504BAF8E05F504B0304140006080000F24B5C4000
311
0000000000000000000000350000006662782F34414333443237312D454439372D344438372D423934372D3233334637413932464333352F76657274696365732E62696E504B0304140006080800F24B5C40F270F1330600000004000000360000006662782F34414333443237312D454439372D344438372D423934372D32
311
33334637413932464333352F747269616E676C65732E62696E636660600000504B0304140006080000F24B5C40000000000000000000000000370000006662782F34414333443237312D454439372D344438372D423934372D3233334637413932464333352F617474726962757465732E62696E504B0304140006080800F2
311
4B5C40D5987DFC8F00000041010000360000006662782F34414333443237312D454439372D344438372D423934372D3233334637413932464333352F6469726563746F72792E786D6C858F410EC2201045AF4266AF15DDB800BA74E7C21B903225242D6328188F2FA5C4183471359997F9FF81E89FF3C41E1816475E02DF1F
311
80A11FC8386F25A438EECEC07A250251FC3803E6F58C12560C4AD840E95E91C151A72936F496F35732D860FE635F62C8F2DA16B505C545B74125BAA2FA9E05D7CC053D063734D5C7665FD55B6B8D15D5E9BFEAFD8490FFA45E504B0304140006080800F24B5C40F259340FFC000000A00100003B0000006662782F34414333
311
443237312D454439372D344438372D423934372D3233334637413932464333352F7265736F75726365732F636F72652E786D6C8D504B6E833010BD0A9ABDC1988402328E48949CA017B0CC845A0936F2A7EAF16B0295DA5D3733A3F7D13C3D7EFA9A9FD9273AAFADE9A1CC296468941DB5997A88E14E1AC84E823B6BC32F19
311
6446CED8C30A83E093B371D921654D4013126AEC883B28BDC700997AA6A307AF3E7096B98C2129FC235FA47AC809F3324F74D209EE834B01B2EDC93A4138F4363A859E171B2B788C7ADC357A4C3FF55DA303712C69531FEA860CF540C9E1C85A72AE2F949C2F15BBD1DBF5CA869617AB59F0A0E79F8CCAA10C388260B46484
311
32C29A77DA7655D9556F84D61DA5BC58E57F4C7119FF698ADA848AED71379B0751A6202F42F062ED2BAD579969AFDD8A6F504B010214000A0000080000F24B5C403DEE336E79000000790000001B00000000000000000000000000000000006175746F6465736B2D64657369676E2D7061636B6167652E786D6C504B010214
311
00140006080800F24B5C40D486FD9CA0000000F40000001300000000000000000000000000B20000005B436F6E74656E745F54797065735D2E786D6C504B01021400140006080800F24B5C40E1F21A97EA0000007C010000080000000000000000000000000083010000636F72652E786D6C504B01021400140006080800F2
311
4B5C4055019EA25F0000007C000000070000000000000000000000000093020000636E782E786D6C504B01021400140006080800F24B5C4085D4282966010000020300000C00000000000000000000000000170300006662782F636F72652E786D6C504B01021400140006080800F24B5C4051F849267E0000009D0000000B
311
00000000000000000000000000A70400006662782F636E782E786D6C504B01021400140006080800F24B5C404FD754FF2E0100001402000031000000000000000000000000004E0500006662782F34414333443237312D454439372D344438372D423934372D3233334637413932464333352F636F72652E786D6C504B0102
311
1400140006080800F24B5C40464E34C54D010000330300003000000000000000000000000000CB0600006662782F34414333443237312D454439372D344438372D423934372D3233334637413932464333352F636E782E786D6C504B01021400140006080800F24B5C40979DBB2D9C0500007B100000340000000000000000
311
0000000000660800006662782F34414333443237312D454439372D344438372D423934372D3233334637413932464333352F6F626A656374732E786D6C504B01021400140006080000F24B5C400000000000000000000000003500000000000000000000000000540E00006662782F34414333443237312D454439372D3444
311
38372D423934372D3233334637413932464333352F76657274696365732E62696E504B01021400140006080800F24B5C40F270F13306000000040000003600000000000000000000000000A70E00006662782F34414333443237312D454439372D344438372D423934372D3233334637413932464333352F747269616E676C
311
65732E62696E504B01021400140006080000F24B5C400000000000000000000000003700000000000000000000000000010F00006662782F34414333443237312D454439372D344438372D423934372D3233334637413932464333352F617474726962757465732E62696E504B01021400140006080800F24B5C40D5987DFC
311
8F000000410100003600000000000000000000000000560F00006662782F34414333443237312D454439372D344438372D423934372D3233334637413932464333352F6469726563746F72792E786D6C504B01021400140006080800F24B5C40F259340FFC000000A00100003B000000000000000000000000003910000066
311
62782F34414333443237312D454439372D344438372D423934372D3233334637413932464333352F7265736F75726365732F636F72652E786D6C504B0506000000000E000E00800400008E1100000000
310
504B03040A0000080000F24B5C403DEE336E79000000790000001B0000006175746F6465736B2D64657369676E2D7061636B6167652E786D6C3C3F786D6C2076657273696F6E3D22312E302220656E636F64696E673D227574662D3822203F3E3C666F726D6174733E3C666F726D61743E687474703A2F2F736368656D612E
310
6175746F6465736B2E636F6D2F64657369676E2D7061636B6167652F323030393C2F666F726D61743E3C2F666F726D6174733E504B0304140006080800F24B5C40D486FD9CA0000000F4000000130000005B436F6E74656E745F54797065735D2E786D6C7D8EC10E82300C865F65E91D8A1E8C310C0EEA1BF002731658846E
310
D98AC1B77784ABF1D8FE5FBFBF75BBCE937A534CCEB38643598122B6FEE978D0B0485F9C41B54DDD7D022595594E1A469170414C76A4D9A4D207E29CF43ECE46F218070CC6BECC4078ACAA135ACF422C856C0E68EA1BF5669944DDD7BCDE7B1F8E415D77AECB980613C2E4AC91FC167A2B244592486606FC29C8FD7F045B9A
310
EF7053A7E60B504B0304140006080800F24B5C407A29D835EB0000007C01000008000000636F72652E786D6C8D90D18E832010457F85CC3B8A68D51AA4B1DDED17EC0F10A096B48211D8ECE7175B9BECBEEDD34CEEDC3333B9ECF033DDD1B75EBC71B687222380B4954E193BF610C305B7800E9C2DCE855F3640564CBA8755
310
06CEC6C5C57993A4B341DB9054EB94DE44E1BD0E80E43D353D7879D593C8440CC9E16FD92CE44D8C3A2BDE5D8263340ABD8E1895F6998BD10BF0F3B1ADC8C799E2FDA926B8FA1C1A3C340DC1F5B0A3153D35C7BA1E58BEC29C0533BDEFCB458BA015704A0A8A09C5B4FD22FBAE2CBAB2C1A4EE0861F96AFF03C559FD138AC6
310
86926EEFBE300FBC488F3C079CE56B16A93C834A75CD8D3F00504B0304140006080800F24B5C4055019EA25F0000007C00000007000000636E782E786D6C4DCB3B0E80201045D1AD90E915ED2CF8AC45050C11660C8261F98AB1B07AC9C97D42D718D865D3E909258CFD00CCE24AC6E326A164D74DC0B4128928FF32603847
310
2BA13128B1252AC747C6BAB984FC68F0B87FE8960A5C09FE86CFB69FBA01504B0304140006080800F24B5C407AFC04FB66010000020300000C0000006662782F636F72652E786D6C8D52D18E823010FC95A6EFA5A572A0A6D6A8777EC1FD4085EA35424B4A4BFCFC5B04E37931C69094666667777640AC2F4D8D7AED3BE3EC
310
0AA709C348DBD255C69E563886239963B496C23B17FE94616455A3577880B11427EF623B41A5B341DB00A875959E40D5753A6054D67059E1AEFCD18D4A540C50D19D9356956775D2499A000D755274C18301340E194E2C8F878BA0232E458CA69A5853C1347334DA63B9DFCE33F6B9E764B1CB19C9BE3605D9140523F9E683
310
677C576CF37C23E820962298E6E6AEF45A055D61C959CA09E384CFBFD962394B97B382B07CC998A043F98328B6D59BA2686C98F1C9EE28EBB04CC1C895F8B72D441450A77AF043A5A04388F0BA26FC18340402210775A86F7B9C01EA75199CCF80A95CBC53BDAAA386A90C5D1F4147163A5F1BC0664FFBF0177D5EF7800FA8
310
EC09ACA900D7430CC374314E9DA268B5277DB820EB7CA3EABBB9D1E2FDBC0F7A2A2F5DEDFC3B6A3AAD4AA730E9F0F7CA5F504B0304140006080800F24B5C4062E838287E0000009D0000000B0000006662782F636E782E786D6C4DCC4D0EC2201845D1AD906F8E850A9501D0E00FFB682C6D88140C8271F9B6A603472F3979
310
B9B2FF2C01BD5D7EF91415D00301E4E23D8D3ECE0A6A99B000D46B99532A7F374071589C828D41CB39A7FADC6974D350435935F8F8D8D1D8AB119C137C11B6C38C9D2816BC63D8B66742ED9198F666A1D1B2F995D6DDC2FA0B504B0304140006080800F24B5C40B436F3472A01000014020000310000006662782F41464441
310
383535302D433846362D343437312D383536342D4632423031463330413245462F636F72652E786D6C8D51CB6EC32010FC15C4293D600326AE1B61A2F4E12FE80F38405294182C1E553EBF503B527BCB8545B333B3A35DBEBF4D57F0AD7D30CEF6905418026DA553C69E7B98E2097510EC05F7CEC53F3408EC38E91E16180A
310
7EF62ECD2B249D8DDAC68C5AA7F40A8E21E80881BCE64F0F83FCD2D3588D296646B854F3282FE35957A4CAEDCC133C449F0380654879A1380CEF876EBBC5E8AD1B5AC4D83341DDB66568A0AF980C0D3ED08F81D78B50F0948C5AE546E538E664B47FD4A488058F66BAC7975E8F512B28282614618A68F7895F760DD935CF08
310
B73B8C795DE8FF4469560F8A92B1B1A16BDC4516A020BC5E1A822B978ED77B187D9B9D8FA0CCDB042D9FA0C015A64DCB08EB78BD50F302B267CB56CF109DCF0BDE5C8E99DDACC62D13BC2E37CAE5F780B9967B8A1F504B0304140006080800F24B5C4020E9FBD25401000033030000300000006662782F4146444138353530
310
2D433846362D343437312D383536342D4632423031463330413245462F636E782E786D6CBD93CD6EC32010845F0571F77FE4A61126520F7D821E7AC5B04968305880ABE6EDBB2424CD25874A552FC89A1D66569F30DB7E4D867C820FDAD98136654D0958E994B6FB812E7157AC29D972E69D8B77364AAC9860A049A69CEDBD
310
5BE62C29D889C544548DB6C72C7A086EF11202CAE926314E0A8301608B05459846500A14B919F16B071E5741713C917800F2FAF24EDCF801320656A514CEAAD4C1593A73D39D8912694408030DF2009328C5129D82702C9588A26CCA6BD7839D7E9248BA70AD5CBC26A97CA0E9A43C6F54224756E190B3103DD2CBA6789A81
310
7231CF464B11117275365E3C9C2DDAC67E95BD1AC17B74776DBF5E63D879C659D4136487F4202228CADBBA698BBA2DDAF55BFDBCE99A4DF754D4FDA6AE5995EC9C8DCE997C0963C0BB99486723D84879C3AA347E842FFB88D21E593B7FFA054804905B2F746E197FC9A7E9BBD5EA1FF954E7F78DB83CFE05FC1B504B030414
310
0006080800F24B5C405C351E635B070000941B0000340000006662782F41464441383535302D433846362D343437312D383536342D4632423031463330413245462F6F626A656374732E786D6CED595B739B3814FE2B0CFB6C6C62E7B643E8247693F174D376EA6D671F32C3C820136D84602491C4FBEBF7E802066212BCCD
310
BEF5C106847474CE77AE3A041F9E33EA3C622E48CE2E5CDF9BB80E66719E10965EB8A5DC8CCE5CE74318F03C978D69AEC350862F5C35EC8641CAF3B2B04309DEA092CACEE8F5D55F8E8831C3AE135324C4852BE27B9C210F95324FB078F0122491976E9E3DDF3313DB64538E8AFB0ED10271CC24700AE30CA8388629BFFD38
310
71C7613056EFC340FDDB59D341B366FDB3C65AEA369784098958FC82A50E99E92096A6FE6CF1F1E8F87C743C9B4D47B393237F74757DB518F9A7D3C9FC643E3FBFFC780EECADF39C5A99125C609680FEB66EE80763F5A616DD22B08FEB38670CC71A48804A8BD52548B080AD1AF04DDA8FBE92A8F15A4BD8789EA9F79685C6
310
F0B44DA56FD630205A744110BB5D2571756DCA97AFFF06C1C510A3E4024BE056480EDAB5F070F00A379C0463331A06EB9D2E887032243127883A94AC39E2A01498AAA684815960C928E7E040CA511268CD99D76DDB02CF7CDB75F671B92929559EE186DAB122703F2C85E68CFC83F98EFB2632C013485B1226CF2C97725B60
310
373C0FC67A300CD4657A645F1A209D0D45A9D08898B71D41E7CAF5970B37FC74BD7E5EA970B07FF382E705E652199DD2A3E60B0CD95E154A765B7F90E6D40210C6806A57EE40F906C87F86E8B16305F4C6C9F3EC7966E74A8E98D8E43C03DD3813673481BF89E3EB7F75DFB80BC6F5E2B6F6FAF0043755509DFD3C9E6D1934
310
5696FF069C61F008069FF3A97DB58A11057BBE250C005246E2D01C8620B46FD6CF6EB884C009811E56211AFA2032B0FB08B7C1D892D969A5722FEB750C10B57B4C87280960D316096CF4E8E906B20727F14E4D4D11FBE03D7E1773BD5CAC3EAD4ABE4131BEB53EBDC01BC28884ACB99FA116E62D891EF0F629E70908FA12EF
310
5513EFCC6E25006D85B9023EAD40500FBB9D5B1BC4B02ECD55B809DED8018450B9BA41FF968818538A18CECB6ADF3ABA2943AD3DDED60C6E7864209E1E754C98E347A2AA0A709ADD8C16A390F7634E0A05A21BDE18C9EAA0E9F548F77DF9192CB29EDF336BC920F43244FFD4416B0F0E2DCBAE90B640D402AF77E13CCE69CE
310
A3F5363291CE855A02D8687BCB8F165188F546498A0A7890F6BB2AA4A446DA28219B4D2920AEEE61F1C772DE34878937F58F9DE67FC71967106DC17711B77ED7D92322194A71B44149DF76CDDD6ADA4293EC21CDF186825CE491C86D84643449707A083407113F7F57EA29CD85200C0BC8577BC16FA231F12090186D562C2B
310
AD76802622CAB044F4100414991E7075DAD1356E0CA5C3DB3CD6D6FB9AC69A44FF278BE0086AC99C45044A51C8216F32EE7BC71043DAE81A943BF882B555B4B518B4841222DE464F98A4F7F210D40DF91EDC6338929432CA0B1483590F20FBC25794523BBCAF51FCA0F2471497F4BD0C4460BA8908A56516C18F3038790C71
310
ED3A30BD8A4283B8897D126750942159F2219B9C1C4F5EEC636A866E086C6CB42114C27694A1A207F55640D4F58853836FA9F728755D664584B2BC64830CC59B76BDC992EFAA55911DC8AF2A15A16CAC085B82614098ACB36A15B3C1D475600537D2816A1B099415D49CC2DE483C7EED4D9A72EF06DCFAE9FB6E9041E1D7A3
310
BD66449D5530581E5B8581784232BE77C395BE8EAEA0FE4E70B24BF555ADD9AC00013115C94B4EAC8ABE2FA1BCB1359A1BDE2229EE6E4CD6ADAEDF971E743F8231AC81DAA55EB85440679849A42A935B7543BF2108C12D1A667CA972EA21542E9344578D885E933E75B6CA88D6A619F18A7BCCF20C7EEC8EB0989609BE4389
310
78886E258D5644B16EA5F4325261FCAA805F6E561D78606480485F5581879F3A6BEDE85C954B7B89C8FB325B33442008B6444B8D6EBC82A556239596EBAB3A5340DD050666553CFB75B268B6237E9D2C526B183F75B2B8DAFE81B6CDBE48239DC7CAAE0F3A06D4F94951798F63806E3BD454EB2C6292B995DF3A530441B18A
310
F283ABB12A6818827D1CFFE7ACDD9705CD761DFE0FCBDAFE8B8AE3A0ACD29AACBA547B2AD76533871D4FCEAF16A793A3D1E9D9F5353468AF4E4667F3F393D1F4743139BE3C393B9D7D3CABD1D48E1A067530D3B90B9E4D50AB86D593C500BAB222A72481D37CE2A41862BE8433FD80F639CFB080E4D96C7627B6293F60F5A3
310
E9734AB4A6B8E2E41E4183980A48EB805119CBF6B8F31BB426251CB42F5C681A790FF067ADD27520F35CB8D02A9024C6C25B439B4935F4347148B93AF75B62800F62A94A896651FD5CAF52D8B4C27F3D65481AB072B57A1850B815D0FD6A7528346F96A7F820C12B761C24E1765D4AA8D68C2CBB815A18BDCD4EFD46364AD8
310
83DDFA195CF775B17C4FCF692132E893C1AB4660A88E24E2A9EE772BC62C4B978BAF63E8B339CB2F4E41CB1474399CD2886330E6521554604560159666812498EAFCF7BBAF3C874F3C99A3ABA2BB799E6539B30F97701E4BE01391B3BA870F3EC91D940D58B5D5C5DDD1C43FBAD3ED6CDB618FD648604FD543305095114A84
310
8EB18145BE684DD9C6E55829A1337DB9706CF8843680B1A017DD5DF379CB01EF511F5294AF680FAFE47CB5A33DD653C11A38F4A2C37F01504B0304140006080000F24B5C40000000000000000000000000350000006662782F41464441383535302D433846362D343437312D383536342D4632423031463330413245462F76
310
657274696365732E62696E504B0304140006080800F24B5C40F270F1330600000004000000360000006662782F41464441383535302D433846362D343437312D383536342D4632423031463330413245462F747269616E676C65732E62696E636660600000504B0304140006080000F24B5C40000000000000000000000000
310
370000006662782F41464441383535302D433846362D343437312D383536342D4632423031463330413245462F617474726962757465732E62696E504B0304140006080800F24B5C40D5987DFC8F00000041010000360000006662782F41464441383535302D433846362D343437312D383536342D46324230314633304132
310
45462F6469726563746F72792E786D6C858F410EC2201045AF4266AF15DDB800BA74E7C21B903225242D6328188F2FA5C4183471359997F9FF81E89FF3C41E1816475E02DF1F80A11FC8386F25A438EECEC07A250251FC3803E6F58C12560C4AD840E95E91C151A72936F496F35732D860FE635F62C8F2DA16B505C545B741
310
25BAA2FA9E05D7CC053D063734D5C7665FD55B6B8D15D5E9BFEAFD8490FFA45E504B0304140006080800F24B5C4012C38504FD000000A00100003B0000006662782F41464441383535302D433846362D343437312D383536342D4632423031463330413245462F7265736F75726365732F636F72652E786D6C8D504B6E8330
310
10BD0A9ABDC1180A09328E48DA9CA017B0CC845A0936F2A7EAF16B0295DA5D3733A3F7D13C3D7EFA9A1FD9273AAFADE9A1CC296468941DB5997A88E1460E909D0477D6865F32C88C9CB1871506C12767E3B243CA9A802624D4D81177507A8F0132F548470F5E7DE02C73194352F87BBE48759713E6659EE8A413DC07970264
310
DB93758270E86D740A3D2F3656F018F5B86BF4987EEA9B4607E27A3ED4F4F55A92E3A5A1A47E1B5A32B42D25CDF0C26A7669CF4D33F062350B1EF4FC935139940147108C968C5046D8E19D1EBBAAECAA96D0A6A39417ABFC8F292EE33F4D519B50B13DEE66F320CA14E449085EAC7DA5F52C33EDB55BF10D504B010214000A
310
0000080000F24B5C403DEE336E79000000790000001B00000000000000000000000000000000006175746F6465736B2D64657369676E2D7061636B6167652E786D6C504B01021400140006080800F24B5C40D486FD9CA0000000F40000001300000000000000000000000000B20000005B436F6E74656E745F54797065735D
310
2E786D6C504B01021400140006080800F24B5C407A29D835EB0000007C010000080000000000000000000000000083010000636F72652E786D6C504B01021400140006080800F24B5C4055019EA25F0000007C000000070000000000000000000000000094020000636E782E786D6C504B01021400140006080800F24B5C40
310
7AFC04FB66010000020300000C00000000000000000000000000180300006662782F636F72652E786D6C504B01021400140006080800F24B5C4062E838287E0000009D0000000B00000000000000000000000000A80400006662782F636E782E786D6C504B01021400140006080800F24B5C40B436F3472A01000014020000
310
31000000000000000000000000004F0500006662782F41464441383535302D433846362D343437312D383536342D4632423031463330413245462F636F72652E786D6C504B01021400140006080800F24B5C4020E9FBD254010000330300003000000000000000000000000000C80600006662782F41464441383535302D43
310
3846362D343437312D383536342D4632423031463330413245462F636E782E786D6C504B01021400140006080800F24B5C405C351E635B070000941B000034000000000000000000000000006A0800006662782F41464441383535302D433846362D343437312D383536342D4632423031463330413245462F6F626A656374
310
732E786D6C504B01021400140006080000F24B5C400000000000000000000000003500000000000000000000000000171000006662782F41464441383535302D433846362D343437312D383536342D4632423031463330413245462F76657274696365732E62696E504B01021400140006080800F24B5C40F270F133060000
310
000400000036000000000000000000000000006A1000006662782F41464441383535302D433846362D343437312D383536342D4632423031463330413245462F747269616E676C65732E62696E504B01021400140006080000F24B5C400000000000000000000000003700000000000000000000000000C41000006662782F
310
41464441383535302D433846362D343437312D383536342D4632423031463330413245462F617474726962757465732E62696E504B01021400140006080800F24B5C40D5987DFC8F000000410100003600000000000000000000000000191100006662782F41464441383535302D433846362D343437312D383536342D4632
310
423031463330413245462F6469726563746F72792E786D6C504B01021400140006080800F24B5C4012C38504FD000000A00100003B00000000000000000000000000FC1100006662782F41464441383535302D433846362D343437312D383536342D4632423031463330413245462F7265736F75726365732F636F72652E78
310
6D6C504B0506000000000E000E0080040000521300000000
  0
XRECORD
  5
17
102
{ACAD_REACTORS
330
12
102
}
330
12
100
AcDbXrecord
280
     1
270
     1
271
     1
  0
XRECORD
  5
16
102
{ACAD_REACTORS
330
12
102
}
330
12
100
AcDbXrecord
280
     1
270
     1
271
     1
  0
XRECORD
  5
18
102
{ACAD_REACTORS
330
12
102
}
330
12
100
AcDbXrecord
280
     1
270
     1
271
     1
  0
XRECORD
  5
15
102
{ACAD_REACTORS
330
12
102
}
330
12
100
AcDbXrecord
280
     1
270
     1
271
     1
  0
XRECORD
  5
A0C
102
{ACAD_REACTORS
330
22
102
}
330
22
100
AcDbXrecord
280
     1
102
MATERIAL
148
0.0
149
0.0
149
0.0
 93
        0
 94
      127
282
     0
 72
     0
 77
     0
171
     0
175
     0
179
     0
273
     0
  0
XRECORD
  5
24
102
{ACAD_REACTORS
330
22
102
}
330
22
100
AcDbXrecord
280
     1
270
     1
271
     1
  0
XRECORD
  5
23
102
{ACAD_REACTORS
330
22
102
}
330
22
100
AcDbXrecord
280
     1
270
     1
271
     1
  0
XRECORD
  5
BA
102
{ACAD_REACTORS
330
22
102
}
330
22
100
AcDbXrecord
280
     1
 70
     1
 90
1959938040
 71
     1
  1
E54B6D0C-E131-44EB-9846-DBBC6FCA92D8
311
504B03040A0000080000F24B5C403DEE336E79000000790000001B0000006175746F6465736B2D64657369676E2D7061636B6167652E786D6C3C3F786D6C2076657273696F6E3D22312E302220656E636F64696E673D227574662D3822203F3E3C666F726D6174733E3C666F726D61743E687474703A2F2F736368656D612E
311
6175746F6465736B2E636F6D2F64657369676E2D7061636B6167652F323030393C2F666F726D61743E3C2F666F726D6174733E504B0304140006080800F24B5C40D486FD9CA0000000F4000000130000005B436F6E74656E745F54797065735D2E786D6C7D8EC10E82300C865F65E91D8A1E8C310C0EEA1BF002731658846E
311
D98AC1B77784ABF1D8FE5FBFBF75BBCE937A534CCEB38643598122B6FEE978D0B0485F9C41B54DDD7D022595594E1A469170414C76A4D9A4D207E29CF43ECE46F218070CC6BECC4078ACAA135ACF422C856C0E68EA1BF5669944DDD7BCDE7B1F8E415D77AECB980613C2E4AC91FC167A2B244592486606FC29C8FD7F045B9A
311
EF7053A7E60B504B0304140006080800F24B5C40F29D0174E80000007C01000008000000636F72652E786D6C8D90516EC3201044AF82F61F1B701C610B13A5557D825E0001715062B00C543D7E71E248ED5FBF7635CC6347234EDFF31D7DD935BAE007A0150164BD0EC6F969809C2E98033A49B186907ED9007935DB013619
311
A498D690975DD2C127EB53517D307617558C3601D2F7B20C10F5D5CEAA52391547BC558BD23735D98ABEB602E7EC0C7A1E71A6FCE72ECEAE20E981BD7D703E62C2D9880FCDFB88396367DC9CDB8EB4ACED68C744BDC1522437BFEEEBD5AA640D484628C38461C63F49D737B46F8E981C7B4244BDD9FF407931FF84B2F3A961
311
7BDC27164BD612E4F12045BD7551C6A3A832B7DEE40F504B0304140006080800F24B5C4055019EA25F0000007C00000007000000636E782E786D6C4DCB3B0E80201045D1AD90E915ED2CF8AC45050C11660C8261F98AB1B07AC9C97D42D718D865D3E909258CFD00CCE24AC6E326A164D74DC0B4128928FF326038472BA131
311
28B1252AC747C6BAB984FC68F0B87FE8960A5C09FE86CFB69FBA01504B0304140006080800F24B5C40C912DD3364010000020300000C0000006662782F636F72652E786D6C8D52ED8E8320107C15C27F04B16DB4419ADEE5FA04F70254A967AA60104C1FFFD68FC6EBA5691A1324333BBBB3A3E2706B1B3468D7D7D6E4388E
311
1846DA14B6AC4D95E3E02F24C5E82085B3D6FF29C3C8A856E77884B11495B3A15BA0C21AAF8D07D4D8522FA0EA7BED312A1AB8E4B82F7E74AB22153C54F4D7A853C555553A8A23A0A14E8ADE3B3080E621E389E5E57C1374C6A508A12E17B62E615A7DA9B5C332DEF08FAF343D1196F213D9249F2792727E24C9719BB12DDF
311
6671C6051DC552F8BABDBB2B9C565E9758721673C238E1E937CBF649BC4F7684EDF68C093A963F884257BE290AB5F1095FECCEB21EBC829189F8B72D44E451AF06F043A5A06388F09A127E0C1A028190BD3A37F73DAE000DBAF0D66D80296D58A9413541C35486A647D09985CE5303D8EC691FFEA2CFEB1EF00195A9C09AF2
311
703D073F4E17F3D4258A4E3B32F81B32D6B5AA59CDCD16D7731DF4545ED8C6BA77D47459952E61D2F1EF95BF504B0304140006080800F24B5C40DDDEA9D27E0000009D0000000B0000006662782F636E782E786D6C4DCCD10A83201886E15B91FFDCE5A29A821AD5E67DC4B290D9EF703A76F9ABD1C18E3E78F87865FB593D
311
79DBF87201159C4F0C88C57B981C2E0A729A2907D26A1943487F372038AE56C1CEA0E512437E1E34D979CC3E6DEA1D3E0E140D17A2149CF6C694B462754FBBAAE6F4763566E0CD850D1D8342CBE257DA760FEB2F504B0304140006080800F24B5C40947D3B492C01000014020000310000006662782F39363839393239382D
311
424646322D343035422D413435382D4544464643383637304341302F636F72652E786D6C8D51CB6E833010FC15E4537A3018430844C65192962FE80F10DBA156828DFCA8F2F95D0A91DA5B2E5E6B766676B4CB0E8FF19E7C2BE7B5352DCA538212658495DA0C2D8AE18A6B941C3873D6863F3494987E542D9A61C4D9E06C9C
311
564858139409801A2BD50AF6DEAB801271874F8BBCF852639FF63100C3DFD2A917B77E50699E421B789CF9E02040B20C995FC49BAA6E1ADAD4F8D4751497647BC2C7725BE38FF7AE3BD7D58E9C8F84658B90B318B55CE55A421C7DD5CABD6A328B390B7A7CC6174EF54149C429C9292614D3FA9334FB22DF171526D59EC0E4
311
99FE4F1427F9A2286A130ABAC65D641EF19C654B833369E3E5FE0CA31E93752199E76DBC126F889394D0A2289A62C7B2850A0B00CFAA5C3D7DB00E16BCB95D809D6F17E3AAE42C9B6F04E5F78050E77BF21F504B0304140006080800F24B5C40475BB0B44D01000033030000300000006662782F39363839393239382D4246
311
46322D343035422D413435382D4544464643383637304341302F636E782E786D6CD593BD6E032110845F05D1DFAFAD936371584A912748919683B54DCCC1899F287EFB2C3676DCB84899069D668799D5278EEDBE6743BEC007EDEC48BBBAA504AC744ADBC34853DC571B4A769C79E7E2838D122B66186996296707EFD25224
311
057B914C44D5687B2AA287E092971050CE37897152180C005B2514619E402950E46EC4AF3D785C05C5E94CE211C8DBEB0771D327C818589353386B720767F92C4D0F264AA411218C34C823CCA216293A05E1542B1145DDD5B7AE273BFD26917CE15699BC26B97CA4F9A4BC6C542347D6E090B3103DD22BA6785E8072B12C46
311
4B11117273315E3D9C256DE3B02E5E8DE03DBABB61B55E63D865C659D4331487F4202228CAFBB6EBABB6AFFACD7BFBB25D75DBD550B5C3B66D5993ED9C4DCE99720963C0BB85486723D84879C79A3C7E86AFF888D21E593B7FFE034804505AAF74EE19FF994F7379DF88CBE35FC07F00504B0304140006080800F24B5C40CC
311
2F3FC99B0500007A100000340000006662782F39363839393239382D424646322D343035422D413435382D4544464643383637304341302F6F626A656374732E786D6CAD575D6FA33814FD2B887D260949DA6D57945193B4A368D499D14433DA874A910143BD3518D9A693CEAFDF633004324927BB9A9710CCF5F5BDE79EFB
311
E1E0DD2EE7CE0B958A89E2C6F54713D7A1452C125664376EA553EFCA75DE85811442F7C45CA72039BD71CDB21B069914556997129A928AEB83D5FBC5DF8E8A69415D27E644A91B57C54F34272352699150F53C4A8826A32CDD8DFC512338549B49523E1D282D89A48586A5582FA0C5698CF287AF13771C0663F33D0CCCAF95
311
9A9D961AD7FE0CCF6785D2A4887F3AEC40CDCC9FAFEEA617D7DEC57C3EF3E69753DF5BDC2F569EFFE76CB2BC5C2EAF6FEFAE71B0D2129AAC2592A66EF81ED8481607E3E6531854ACD0B3A915B1011A4BFAC24CA4DC70EAF8C1B891E9BCB34E1E333F164541E31A2BA051FB675527B4A445829833AA60590FA1C9F0D53738F6
311
3ECFCCBB3DB2BF7C1E02FD1D3D45ADEDEDB36FA988FE810BEA1C0649450D031B2CADA30D57277B842321B8FDC69493134D2523DCE12C9244BEBA21448D48180CD418264B930DC6033744149ACF43BA208D7ECDF36356A615E786C66E5867C116B942B5AA2D633FA8DC5BDF4706362156860D57D621FD5A5237BC6E287275C0
311
A6064827E52443C8E1A6D9399B1E38BA3479BA5EB9E187FB68B731B97BFCF0528A924A6DE8036AB5816B9F06256B937F56E4CC06F7C0943D285F80FC47A4FADE14C44DB2DD7C37B7A768490A950A992336CEC4F126F899387EFD6BFEF7FE05E36EF3307AA7F044B00D54BF01CFA10FFD58F6E00C8317105EC899756D13138E
311
B2F1C00A006448E2708125D4E134DAB9E11A550E5519BB080F7DB80C735FF037185B352814F549BD67012C0FCAE219051AB0D58C84190DF9AD81FB38FD54CEEA83ADD829782F7E0B5D6F579B0F9B4AA624A60F36A757346505D368717BDEF40D1A603EF0E899BE7E173281A33FE3BDE9E39DDBA314D036981BE0B3B6A69B97
311
FDC9830362ECCB842937C12F4E8013A6B1F6F43F301553CE494145D59EFB66FF40DB682036C96E98DC35987D6301699A2F073988261D4B561A10BB6ED515CDD109EFBEAE3F829190E722227C2F14ED4B6F2CB890DBE875DB54A5A3487F1B52DB4230365AC0F63A47DAF4B7986F1396A695420D3C02EBB7F5B21F3A53155021
311
5AAD4DB2CCE13E728B48CBD9562F9AB52468A4A2D832B44DA4DDD103FAFA81A82540ADF094C58AF274CB38AFF26DCA389AD13627E50938FEBFFD5195975B928BAAD027740F4C477318DA3E20AFFA4E74FCE4869BFAE92D507A139AECC33C1036ADE4085683D0DE5DCC1797ABC9D2BBF367BE379FDF2DBCEBABF9A5B75A2C96
311
97F7CBDBEBE9EAAA8D53A33C0CDA4ED34F6844099D2DA824B3E1FBBA46FAD81AE0860F44ABC7F74D76B6CFAFEB1146E1608C3D6897DDC6DBE405631F4D7EAD602F7954D13A2F39CD69A18949A107F3877F21183306C634EBEB9C64F40C2D9FDE6F0E9CC1CA19FB3E9B74A7DF0FF6DAD5A549C8A34AF45395470561FC6063D6
311
20392A8BCCE2D7C6A47B367DA67D356F3630184C95E02C41194C9C8C8A9C6A14C3337A90CCA902F5FA237D62AF1E67EC7E6906444D224E5B4B9E086664AE9016A05615EBE1BAF307663A3356DDB8E8B6A367FCD84AE13AE0CC8D8B195DB398AA5184FE6C26A15A39B8D41FE431F79322E318B59B4DDD7BB7CB6033E8C89DC8
311
39E393F5ABA9E0D6019491126303E62144A736260C6ADBECF7F83F39DE9AE3108DBF51A53B5FF60B9D33F53148D1C6297B59C00CF36C8FDE2151DF76CB1FD5320344CEBA64BD498246ABA789CCEA8B82B1CF9A74BBFA3CC680E2AC3F3925AF32C4F27C4D9EA4207365121C2C022BACCE92685075F9D7E367297091CD9D7B06
311
0A3C2E459E8BC2BEDCDA8BB0B379C2B536794459A0E63EA21EA7137FFA58DF03ECD5641B1145472451CF58404C25EB201E041E8C6C2E8BE840CD874E6E6C8270C0CDF5CAB12D6D0EA59628FDAA6A60C1C4515007D963EE922657FA02E59B5781712D0A132486F8F05F504B0304140006080000F24B5C400000000000000000
311
00000000350000006662782F39363839393239382D424646322D343035422D413435382D4544464643383637304341302F76657274696365732E62696E504B0304140006080800F24B5C40F270F1330600000004000000360000006662782F39363839393239382D424646322D343035422D413435382D4544464643383637
311
304341302F747269616E676C65732E62696E636660600000504B0304140006080000F24B5C40000000000000000000000000370000006662782F39363839393239382D424646322D343035422D413435382D4544464643383637304341302F617474726962757465732E62696E504B0304140006080800F24B5C40D5987DFC
311
8F00000041010000360000006662782F39363839393239382D424646322D343035422D413435382D4544464643383637304341302F6469726563746F72792E786D6C858F410EC2201045AF4266AF15DDB800BA74E7C21B903225242D6328188F2FA5C4183471359997F9FF81E89FF3C41E1816475E02DF1F80A11FC8386F25
311
A438EECEC07A250251FC3803E6F58C12560C4AD840E95E91C151A72936F496F35732D860FE635F62C8F2DA16B505C545B74125BAA2FA9E05D7CC053D063734D5C7665FD55B6B8D15D5E9BFEAFD8490FFA45E504B0304140006080800F24B5C409A775C45FB000000A00100003B0000006662782F39363839393239382D4246
311
46322D343035422D413435382D4544464643383637304341302F7265736F75726365732F636F72652E786D6C8D504B6EC32010BD0A628F8D711C610B13A55572825E00E189831283C5A7EAF10BB12BB5BB6E6646EFA3797AE2F4B53CD127F8609C1D7153518CC06A37193B8F38C51BE1189DA4F0CEC55F328CAC5A60C405C6
311
52CCDEA57587B4B3116CCCA87513ECA00A012246FA998F11077D8745552AC5AC088F6A55FAA166A89A2AD3592745883E0740DB9332B1F4105CF21A82A837568A94CCB46BCC947F9A9B018F6573606F17CE2F8472762587F6FD4A386367D29EBB9E76ACEB9B9E89BA98A58866F9C9A83DA80813968C368C504618FFA0FDD036
311
437B24F438502AEA22FF634AEBF44F533236B66C8FBBD942CE9A83BC0829EAD2575EAF32F32EDDCA6F504B010214000A0000080000F24B5C403DEE336E79000000790000001B00000000000000000000000000000000006175746F6465736B2D64657369676E2D7061636B6167652E786D6C504B01021400140006080800F2
311
4B5C40D486FD9CA0000000F40000001300000000000000000000000000B20000005B436F6E74656E745F54797065735D2E786D6C504B01021400140006080800F24B5C40F29D0174E80000007C010000080000000000000000000000000083010000636F72652E786D6C504B01021400140006080800F24B5C4055019EA25F
311
0000007C000000070000000000000000000000000091020000636E782E786D6C504B01021400140006080800F24B5C40C912DD3364010000020300000C00000000000000000000000000150300006662782F636F72652E786D6C504B01021400140006080800F24B5C40DDDEA9D27E0000009D0000000B0000000000000000
311
0000000000A30400006662782F636E782E786D6C504B01021400140006080800F24B5C40947D3B492C0100001402000031000000000000000000000000004A0500006662782F39363839393239382D424646322D343035422D413435382D4544464643383637304341302F636F72652E786D6C504B01021400140006080800
311
F24B5C40475BB0B44D010000330300003000000000000000000000000000C50600006662782F39363839393239382D424646322D343035422D413435382D4544464643383637304341302F636E782E786D6C504B01021400140006080800F24B5C40CC2F3FC99B0500007A1000003400000000000000000000000000600800
311
006662782F39363839393239382D424646322D343035422D413435382D4544464643383637304341302F6F626A656374732E786D6C504B01021400140006080000F24B5C4000000000000000000000000035000000000000000000000000004D0E00006662782F39363839393239382D424646322D343035422D413435382D
311
4544464643383637304341302F76657274696365732E62696E504B01021400140006080800F24B5C40F270F13306000000040000003600000000000000000000000000A00E00006662782F39363839393239382D424646322D343035422D413435382D4544464643383637304341302F747269616E676C65732E62696E504B
311
01021400140006080000F24B5C400000000000000000000000003700000000000000000000000000FA0E00006662782F39363839393239382D424646322D343035422D413435382D4544464643383637304341302F617474726962757465732E62696E504B01021400140006080800F24B5C40D5987DFC8F00000041010000
311
36000000000000000000000000004F0F00006662782F39363839393239382D424646322D343035422D413435382D4544464643383637304341302F6469726563746F72792E786D6C504B01021400140006080800F24B5C409A775C45FB000000A00100003B00000000000000000000000000321000006662782F3936383939
311
3239382D424646322D343035422D413435382D4544464643383637304341302F7265736F75726365732F636F72652E786D6C504B0506000000000E000E0080040000861100000000
310
504B03040A0000080000F24B5C403DEE336E79000000790000001B0000006175746F6465736B2D64657369676E2D7061636B6167652E786D6C3C3F786D6C2076657273696F6E3D22312E302220656E636F64696E673D227574662D3822203F3E3C666F726D6174733E3C666F726D61743E687474703A2F2F736368656D612E
310
6175746F6465736B2E636F6D2F64657369676E2D7061636B6167652F323030393C2F666F726D61743E3C2F666F726D6174733E504B0304140006080800F24B5C40D486FD9CA0000000F4000000130000005B436F6E74656E745F54797065735D2E786D6C7D8EC10E82300C865F65E91D8A1E8C310C0EEA1BF002731658846E
310
D98AC1B77784ABF1D8FE5FBFBF75BBCE937A534CCEB38643598122B6FEE978D0B0485F9C41B54DDD7D022595594E1A469170414C76A4D9A4D207E29CF43ECE46F218070CC6BECC4078ACAA135ACF422C856C0E68EA1BF5669944DDD7BCDE7B1F8E415D77AECB980613C2E4AC91FC167A2B244592486606FC29C8FD7F045B9A
310
EF7053A7E60B504B0304140006080800F24B5C402A7D8CACEA0000007C01000008000000636F72652E786D6C8D90416EC3201045AF82668F0D38716D0B13356E7D825E0001715162B00C543D7E71E248EDAEAB19FDF96F66F4F9E97BBEA12FB306EB5D0FB420808C535E5B37F590E20537804E82AFDEC75F36404ECEA6874D
310
06C1A7D5A765979477D1B89855E7B5D94519828980D42D373D04F5696659C814B3235C8B45AAAB9C4C419F5D8653B21A3D8E589DF7D98B352B88A11DC6A161140F2D63F8D01E47DC8E2FAFF8CCC87BDD1CCE6F5573E4E5060B1EEDFCBCAF5623A3D12018A10C138659F341DAAEA25D5563527784F072B3FF81D2A2FF0925EB
310
62C5F6771F580041F323F781E0E596452EF7A072DD72133F504B0304140006080800F24B5C4055019EA25F0000007C00000007000000636E782E786D6C4DCB3B0E80201045D1AD90E915ED2CF8AC45050C11660C8261F98AB1B07AC9C97D42D718D865D3E909258CFD00CCE24AC6E326A164D74DC0B4128928FF326038472B
310
A13128B1252AC747C6BAB984FC68F0B87FE8960A5C09FE86CFB69FBA01504B0304140006080800F24B5C40E4AB706C67010000020300000C0000006662782F636F72652E786D6C8D525B6EC32010BC0AE21F83C9A37644889AB439412F406CE2A2D81061B072FCAE1F919B2A8A2A4B18CDECECCE8E2D76B7A6469DF6AD7176
310
8BD38461A46DE14A63AB2D8EE14C328C765278E7C2AF328CAC6AF416F73096A2F22E5E27A87036681B00B5AED413A8DA56078C8A1A2E5BDC16DFBA51898A012ADA4B7255C545553A4913A0A14E8A36783080C621FD89E5F9741374C4A588D194136B4A9866CE467B2C0FF9E178C8784A0E39E76499AF8E243FBEBD933D679F
310
EB6CB9FF58642B417BB114C134777785D72AE8124BCE524E18273CFB62F966916E166BC2D61BC604EDCB1F44F15AFE53148D0D0B3ED91D652D96291819883FDB424401B5AA033F540ADA8708AF21E1C7A021100839A8537DDFE30250A78BE0FC1298D2C599EA541D354C656878041D59E83C3480CD9EF6E12FFABCEE011F50
310
D90AACA900D7530CFD74314E9DA2B86A4FBA7043D6F946D5B3B9D1E27CCE839ECA0B573BFF1F359D56A55398B4FF7BE50F504B0304140006080800F24B5C40535174AC7C0000009D0000000B0000006662782F636E782E786D6C4DCCD10A83201886E15B91FFDCB266A4A00652DD472C0B9969388D5DFE6A74B0A30F1E3E5E
310
D17D36870E13DF36780955410019FF0CB3F5AB849C16CC00754AC410D2DF0D909F3623E16250628D21EF37CD6699B24BA73AEB5F37D67DCB35E5046BD6D798F276C49A9206378C8F7478D08AEB014A25CA5FE9DC2BACBE504B0304140006080800F24B5C40CEA94C652B01000014020000310000006662782F324437394234
310
39302D423844322D343937462D423430352D3538394634453334313942452F636F72652E786D6C8D51CB6E833010FC15E4537A30D8C62138328E84927C417F8080935A0936F2A3CAE77729446A6FB978ADD999D9D1AE3C3CC747F6AD7D30CE3688E60465DAF66E30F6D6A014AFB846D94149EF5CFC434399ED46DDA019464A
310
DEBC4BD30AF5CE466D23A0D60D7A05BB10744459FF804F8342FFA5C72EEF520446B8E753D7DFBB9BCE690E6DE02919A28700D932647E9162C79D68B920B8AD8F0C73B13BE396932DDED6E2CC4F25A7A23DC962112A99921956B919208EB91AEDDF3599C54A4633BEE2F75E77510FA0279461C230AB3F89D897745F5698547B
310
426431D3FF89D234BC294AC6C692AD711759408ACA62692839B87479BCC2E8E7E47CCCE6799BA0FB0FA4484E181735A53B592C54580078567CF50CD17958F0E67E0176B91A575CC962BE1194DF03429DEFA97E00504B0304140006080800F24B5C4021FC7FA35401000033030000300000006662782F32443739423439302D
310
423844322D343937462D423430352D3538394634453334313942452F636E782E786D6CBD93CD6EC32010845F0571F77F64B91126520F7D821E7AC5B04969305880ABE6EDBB2424CD25874A552FC89A1D66569F30DB7DCD867C820FDAD99136654D0958E994B68791AE715F0C94EC38F3CEC53B1B2556CC30D22453CE0EDEAD
310
4B9614ECC56A22AA46DB63163D04B77A0901E57493182785C100B0C58A22CC1328058ADC8CF8B5078FABA0389D487C07F2F2FC46DCF401320656A514CEAAD4C1593A73D39D8912694408230DF21D66518A353A05E1582A1145D994D7AE073BFD249174E15AB97A4D52F948D34979DEA8448EACC22167217AA4974DF1B400E5
310
62598C962222E4EA6CBC78385BB58DFD267B3582F7E8EEDA7E1830EC3CE32CEA19B2437A101114E56DDDB445DD16EDF05A3F6DBB66DBF545DD6FEB9A55C9CED9E49CC9973006BC5B887436828D9437AC4AE347F8B28F28ED91B5F3A75F804400B9F542E796F1977C9ABEDB6CFE914F757EDF88CBE35FC0BF01504B03041400
310
06080800F24B5C40293CD3E958070000931B0000340000006662782F32443739423439302D423844322D343937462D423430352D3538394634453334313942452F6F626A656374732E786D6CED595B6FA33814FE2B887D0E094DDA6D57945193B4A368D499D16467B40F9590030EF1D618649B5EF6D7EFF1050234B464A7FB
310
360F0960ECE373BE73F521F8F09451E70173417276E9FADEC475308BF384B0F4D22DE57674EE3A1FC280E7B96C4C731D86327CE9AA61370C529E97851D4AF016955476466FE67F3922C60CBB4E4C911097AE887738431E2A659E6071EF2548222FDD3E79BE6726B6C9A61C15BB0ED10271CC24700AE30CA8388629BFFD3871
310
C7613056EFC340FDDB59D341B366FDB3C65AEA369784098958FC82A50E99E92096A6FE6C797D727A313A9DCDA6A3D9D9893F9ADFCC9723FFF7E96471B6585C5C5D5F007B9B3CA756A604179825A0BF6737F483B17A538B6E1138C4759C3386630D2440A5C5EA122458C0560DF826ED475F49D478AD256C3CCFD47BCB426378
310
DAA6D2376B18102DBA2088DDAE92B8BA36E5CB377F83E0628851728125702B2407ED5A783878851B4E82B1190D83CD5E17443819929813441D4A361C71500A4C5553C2C02CB06494737020E52809B4E6CCEBB66D8167BEED3A87B8DC96942ACF7043ED5811B81F96427346FEC17CCF7D1319E009A42D0993E7964BF95C6037
310
BC08C67A300CD4657A625F1A209D2D45A9D08898B71D4117CAF5574B37FC74B3795AAB707078F382E705E652199DD2A3E60B0CD95E154A765B7F90E6D40210C6806A57EE41F906C87F86E8B16705F4C6C9D3EC6966E74A8E98D8E63C03DD3813673481BF89E3EB7F75DFB80BC6F5E2B6F6FAF0043755509DFF3C9E6D193456
310
96FF069C61F000069FF3A97DB58E11057BBE250C005246E2D01C8620B46F374F6EB882C009811E56211AFA2032B0FB00B7C1D892D96BA5722FEB750C10B57B4C87280960D316096CF4E8E923640F4EE2BD9A9A22F6C17BFA2EE67AB55C7F5A977C8B627C6B7D7A89B784110959F330432DCC5B12DDE3E7C79C2720E84BBCD7
310
4DBC33BB9500B415E60AF8B402413DEC776E6D10C3BA3457E1267863071042E5EA06FD5B22624C2962382FAB7DEBE8A60CB5F6785B33B8E18981787AD231618E1F88AA2AC069F6335A8C42DE8F392914886EF8D14856074DAF47BAEFABCF6091F5FC9E592B06A19721FAA70E5A077068597685B405A21678B30FE7714E731E
310
6D9E2313E95CA825808DB6B7FC681185586F94A4A8800769BFAB424A6AA48D12B2DD9602E2EA01167FAC164D73987853FFD469FE779C7106D1167C1771EB779D3D2292A114475B94F46DD7DCADA62D34C91ED21C6F29C8451E887C8E908C26094E8F81E628E217EF4A3DA5B910846101F9EA20F84D34261E0412A3CD8A65A5
310
D50ED044441996881E838022D303AE4E3BBAC68DA174789BC7DA7A5FD35893E8FF64111C412D99B38840290A39E44DC67DEF1462481B5D8372075FB0B68AB61683965042C4CFD12326E94E1E83BA21DF837B0C4792524679816230EB01645FF88A526A87F70D8AEF55FE88E292BE9781084CB711A1B4CC22F81106278F21AE
310
5D07A65751681037B14FE20C8A32244B3E6493B3D3C98B7D4CCDD00D818D8DB68442D88E3254F4A0DE0A88BA1E716AF02DF51EA56ECAAC885096976C90A178D3AE3759F25DB52AB203F955A522948D15614B300C08937556AD623698BA0EACE0463A503D4702650535A7B037128F5F7B93A6DCBB01B77EFABE1B6450F8F568
310
AF195167150C96C75661201E918C776EB8D6D7D11CEAEF0427FB545FD59ACD0A10105391BCE4C4AAE8FB0ACA1B5BA3B9E12D92E2EEA3C9BAD5F5FBCA83EE4730863550BBD40B570AE80C3389546572AB6EE8370421B845C38CAF544E3D86CA5592E8AA11D11BD2A7CE5619D1DA34235EB1C32CCFE0C7EE088B6999E03B9488
310
FBE856D2684D14EB564A2F2315C6AF0AF8E5E3BA030F8C0C10E9AB2AF0F06367AD1D5DA872E92011B92BB30D430482604BB4D4E8C62B586A355269B9BEAA3305D45D606056C5B35F278B663BE2D7C922B586F173270B9A6F10DD479B46368F95591F750AA8D393A2F21EA700DD75A8A9D649C4E4722BBEF5A508626215E407
310
176355CC3004FB38FECF49BB2F099AED3AFC1F97B4FD1705C75149A5355935A90E14AEAB660ABB3E9DCDCF9693C5E8DA9FFAA3D9EC7A3EBA389F9D8D96F3F9E2EC66717571B23CAFD1D47E1A06752CD3A90B9E4D4CAB86D593C5009AB222A72481C37CE2A41842BE8423FD80EE39CFB080DCD9EC7527B6273F60F58369734A
310
B4A1B8E26487A03F4C056475C0A88C657BDCF90D3A9312CED9972EF48CBC7BF8B356E93A90782E5DE814481263E16DA0CBA4FA799A38645C9DFA2D31C007B1546544B3A87EAE57296C5AD1BF9E32240B58B95A2D0CA8DB0A687EB51A149A37CB537C94E0153B0E9270BB2925146B4696FD402D8CDE66AF7E231B25ECDE6EFD
310
04AEFBBA58BEA7E7B41019F4C5E0552330544712F154B7BB156396A5ABE5D731B4D99CD517A7A0650ABA1C4E69C4311873A9EA29B022B00A4BB340124C75F1C7DD579EC3179ECCD145D1DD22CFB29CD9872B388E25F085C859EFE07B4F72075503565D75717732F14FEE7437DB36D8A30D12D853E5100C54558412A1636C60
310
912F3A53B66F39564AE84C5F2D1D1B3EA10B602CE84573D77CDD72C07BD47714E52BDAC32B395F6D688FF554B0060EADE8F05F504B0304140006080000F24B5C40000000000000000000000000350000006662782F32443739423439302D423844322D343937462D423430352D3538394634453334313942452F7665727469
310
6365732E62696E504B0304140006080800F24B5C40F270F1330600000004000000360000006662782F32443739423439302D423844322D343937462D423430352D3538394634453334313942452F747269616E676C65732E62696E636660600000504B0304140006080000F24B5C4000000000000000000000000037000000
310
6662782F32443739423439302D423844322D343937462D423430352D3538394634453334313942452F617474726962757465732E62696E504B0304140006080800F24B5C40D5987DFC8F00000041010000360000006662782F32443739423439302D423844322D343937462D423430352D3538394634453334313942452F64
310
69726563746F72792E786D6C858F410EC2201045AF4266AF15DDB800BA74E7C21B903225242D6328188F2FA5C4183471359997F9FF81E89FF3C41E1816475E02DF1F80A11FC8386F25A438EECEC07A250251FC3803E6F58C12560C4AD840E95E91C151A72936F496F35732D860FE635F62C8F2DA16B505C545B74125BAA2FA
310
9E05D7CC053D063734D5C7665FD55B6B8D15D5E9BFEAFD8490FFA45E504B0304140006080800F24B5C4039D6A234FD000000A00100003B0000006662782F32443739423439302D423844322D343937462D423430352D3538394634453334313942452F7265736F75726365732F636F72652E786D6C8D504B6E833010BD0A9A
310
BDC1988402328E1ADA9CA017B0CC84580936F2A7EAF16B0295DA5D3733A3F7D13C3D7EFA9A1FD9273AAFADE9A1CC296468941DB5997A88E14A1AC84E823B6BC32F196446CED8C30A83E093B371D921654D4013126AEC883B28BDC700997AA4A307AF6E38CB5CC69014FE9E2F52DDE5847999273AE904F7C1A500D9F6649D20
310
1C7A1B9D42CF8B8D153C463DEE1A3DA69FFAAAD18118DAE132348C92A1658C1CDAE385B49797577266F4BD6E0EE7B7AA39F262350B1EF4FC935139940147108C968C504658F341DBAE2ABBAA26B4EE28E5C52AFF638ACBF84F53D426546C8FBBD93C883205791282176B5F693DCB4C7BED567C03504B010214000A00000800
310
00F24B5C403DEE336E79000000790000001B00000000000000000000000000000000006175746F6465736B2D64657369676E2D7061636B6167652E786D6C504B01021400140006080800F24B5C40D486FD9CA0000000F40000001300000000000000000000000000B20000005B436F6E74656E745F54797065735D2E786D6C
310
504B01021400140006080800F24B5C402A7D8CACEA0000007C010000080000000000000000000000000083010000636F72652E786D6C504B01021400140006080800F24B5C4055019EA25F0000007C000000070000000000000000000000000093020000636E782E786D6C504B01021400140006080800F24B5C40E4AB706C
310
67010000020300000C00000000000000000000000000170300006662782F636F72652E786D6C504B01021400140006080800F24B5C40535174AC7C0000009D0000000B00000000000000000000000000A80400006662782F636E782E786D6C504B01021400140006080800F24B5C40CEA94C652B0100001402000031000000
310
000000000000000000004D0500006662782F32443739423439302D423844322D343937462D423430352D3538394634453334313942452F636F72652E786D6C504B01021400140006080800F24B5C4021FC7FA354010000330300003000000000000000000000000000C70600006662782F32443739423439302D423844322D
310
343937462D423430352D3538394634453334313942452F636E782E786D6C504B01021400140006080800F24B5C40293CD3E958070000931B00003400000000000000000000000000690800006662782F32443739423439302D423844322D343937462D423430352D3538394634453334313942452F6F626A656374732E786D
310
6C504B01021400140006080000F24B5C400000000000000000000000003500000000000000000000000000131000006662782F32443739423439302D423844322D343937462D423430352D3538394634453334313942452F76657274696365732E62696E504B01021400140006080800F24B5C40F270F13306000000040000
310
003600000000000000000000000000661000006662782F32443739423439302D423844322D343937462D423430352D3538394634453334313942452F747269616E676C65732E62696E504B01021400140006080000F24B5C400000000000000000000000003700000000000000000000000000C01000006662782F32443739
310
423439302D423844322D343937462D423430352D3538394634453334313942452F617474726962757465732E62696E504B01021400140006080800F24B5C40D5987DFC8F000000410100003600000000000000000000000000151100006662782F32443739423439302D423844322D343937462D423430352D353839463445
310
3334313942452F6469726563746F72792E786D6C504B01021400140006080800F24B5C4039D6A234FD000000A00100003B00000000000000000000000000F81100006662782F32443739423439302D423844322D343937462D423430352D3538394634453334313942452F7265736F75726365732F636F72652E786D6C504B
310
0506000000000E000E00800400004E1300000000
  0
XRECORD
  5
27
102
{ACAD_REACTORS
330
22
102
}
330
22
100
AcDbXrecord
280
     1
270
     1
271
     1
  0
XRECORD
  5
26
102
{ACAD_REACTORS
330
22
102
}
330
22
100
AcDbXrecord
280
     1
270
     1
271
     1
  0
XRECORD
  5
28
102
{ACAD_REACTORS
330
22
102
}
330
22
100
AcDbXrecord
280
     1
270
     1
271
     1
  0
XRECORD
  5
25
102
{ACAD_REACTORS
330
22
102
}
330
22
100
AcDbXrecord
280
     1
270
     1
271
     1
  0
XRECORD
  5
A05
102
{ACAD_REACTORS
330
A04
102
}
330
A04
100
AcDbXrecord
280
     1
102
ACAD_ROUNDTRIP_2012_MLEADER_STYLE
298
     1
  0
CELLSTYLEMAP
  5
A03
102
{ACAD_REACTORS
330
A02
102
}
330
A02
100
AcDbCellStyleMap
 90
        3
300
CELLSTYLE
  1
TABLEFORMAT_BEGIN
 90
        5
170
     1
 91
        0
 92
    32768
 62
   257
 93
        1
300
CONTENTFORMAT
  1
CONTENTFORMAT_BEGIN
 90
        0
 91
        0
 92
      512
 93
        0
300

 40
0.0
140
1.0
 94
        5
 62
     0
340
55
144
0.25
309
CONTENTFORMAT_END
171
     0
 94
        0
309
TABLEFORMAT_END
  1
CELLSTYLE_BEGIN
 90
        1
 91
        1
300
_TITLE
309
CELLSTYLE_END
300
CELLSTYLE
  1
TABLEFORMAT_BEGIN
 90
        5
170
     1
 91
        0
 92
        0
 62
   257
 93
        1
300
CONTENTFORMAT
  1
CONTENTFORMAT_BEGIN
 90
        0
 91
        0
 92
      512
 93
        0
300

 40
0.0
140
1.0
 94
        5
 62
     0
340
55
144
0.18
309
CONTENTFORMAT_END
171
     0
 94
        0
309
TABLEFORMAT_END
  1
CELLSTYLE_BEGIN
 90
        2
 91
        1
300
_HEADER
309
CELLSTYLE_END
300
CELLSTYLE
  1
TABLEFORMAT_BEGIN
 90
        5
170
     1
 91
        0
 92
        0
 62
   257
 93
        1
300
CONTENTFORMAT
  1
CONTENTFORMAT_BEGIN
 90
        0
 91
        0
 92
      512
 93
        0
300

 40
0.0
140
1.0
 94
        2
 62
     0
340
55
144
0.18
309
CONTENTFORMAT_END
171
     0
 94
        0
309
TABLEFORMAT_END
  1
CELLSTYLE_BEGIN
 90
        3
 91
        2
300
_DATA
309
CELLSTYLE_END
  0
XRECORD
  5
A3D
102
{ACAD_REACTORS
330
A02
102
}
330
A02
100
AcDbXrecord
280
     1
102
ACAD_ROUNDTRIP_PRE2007_TABLESTYLE
 90
      512
 91
        0
  1

 92
      512
 93
        0
  2

 94
      512
 95
        0
  3

  0
XRECORD
  5
A18
102
{ACAD_REACTORS
330
A17
102
}
330
A17
100
AcDbXrecord
280
     1
102
RTVSPropertyOp0
 70
     1
102
RTVSPropertyOp1
 70
     1
102
RTVSPropertyOp2
 70
     1
102
RTVSPropertyOp3
 70
     1
102
RTVSPropertyOp4
 70
     1
102
RTVSPropertyOp5
 70
     1
102
RTVSPropertyOp6
 70
     1
102
RTVSPropertyOp7
 70
     1
102
RTVSPropertyOp8
 70
     1
102
RTVSPropertyOp9
 70
     1
102
RTVSPropertyOp10
 70
     1
102
RTVSPropertyOp11
 70
     1
102
RTVSPropertyOp12
 70
     1
102
RTVSPropertyOp13
 70
     1
102
RTVSPropertyOp14
 70
     1
102
RTVSPropertyOp15
 70
     1
102
RTVSPropertyOp16
 70
     1
102
RTVSPropertyOp17
 70
     1
102
RTVSPropertyOp18
 70
     1
102
RTVSPropertyOp19
 70
     1
102
RTVSPropertyOp20
 70
     1
102
RTVSPropertyOp21
 70
     1
102
RTVSPropertyOp22
 70
     1
102
RTVSPropertyOp23
 70
     1
102
RTVSPropertyOp24
 70
     1
102
RTVSPropertyOp25
 70
     1
102
RTVSPropertyOp26
 70
     1
102
RTVSPropertyOp27
 70
     1
102
RTVSPropertyOp28
 70
     1
102
RTVSPropertyOp29
 70
     1
102
RTVSPropertyOp30
 70
     1
102
RTVSPropertyOp31
 70
     1
102
RTVSPropertyOp32
 70
     1
  0
XRECORD
  5
A16
102
{ACAD_REACTORS
330
A15
102
}
330
A15
100
AcDbXrecord
280
     1
102
RTVSPropertyOp0
 70
     1
102
RTVSPropertyOp1
 70
     1
102
RTVSPropertyOp2
 70
     1
102
RTVSPropertyOp3
 70
     1
102
RTVSPropertyOp4
 70
     1
102
RTVSPropertyOp5
 70
     1
102
RTVSPropertyOp6
 70
     1
102
RTVSPropertyOp7
 70
     1
102
RTVSPropertyOp8
 70
     1
102
RTVSPropertyOp9
 70
     1
102
RTVSPropertyOp10
 70
     1
102
RTVSPropertyOp11
 70
     1
102
RTVSPropertyOp12
 70
     1
102
RTVSPropertyOp13
 70
     1
102
RTVSPropertyOp14
 70
     1
102
RTVSPropertyOp15
 70
     1
102
RTVSPropertyOp16
 70
     1
102
RTVSPropertyOp17
 70
     1
102
RTVSPropertyOp18
 70
     1
102
RTVSPropertyOp19
 70
     1
102
RTVSPropertyOp20
 70
     1
102
RTVSPropertyOp21
 70
     1
102
RTVSPropertyOp22
 70
     1
102
RTVSPropertyOp23
 70
     1
102
RTVSPropertyOp24
 70
     1
102
RTVSPropertyOp25
 70
     1
102
RTVSPropertyOp26
 70
     1
102
RTVSPropertyOp27
 70
     1
102
RTVSPropertyOp28
 70
     1
102
RTVSPropertyOp29
 70
     1
102
RTVSPropertyOp30
 70
     1
102
RTVSPropertyOp31
 70
     1
102
RTVSPropertyOp32
 70
     1
  0
XRECORD
  5
A24
102
{ACAD_REACTORS
330
A23
102
}
330
A23
100
AcDbXrecord
280
     1
102
RTVSPropertyOp0
 70
     1
102
RTVSPropertyOp1
 70
     1
102
RTVSPropertyOp2
 70
     1
102
RTVSPropertyOp3
 70
     1
102
RTVSPropertyOp4
 70
     1
102
RTVSPropertyOp5
 70
     1
102
RTVSPropertyOp6
 70
     1
102
RTVSPropertyOp7
 70
     1
102
RTVSPropertyOp8
 70
     1
102
RTVSPropertyOp9
 70
     1
102
RTVSPropertyOp10
 70
     1
102
RTVSPropertyOp11
 70
     1
102
RTVSPropertyOp12
 70
     1
102
RTVSPropertyOp13
 70
     1
102
RTVSPropertyOp14
 70
     1
102
RTVSPropertyOp15
 70
     1
102
RTVSPropertyOp16
 70
     1
102
RTVSPropertyOp17
 70
     1
102
RTVSPropertyOp18
 70
     1
102
RTVSPropertyOp19
 70
     1
102
RTVSPropertyOp20
 70
     1
102
RTVSPropertyOp21
 70
     1
102
RTVSPropertyOp22
 70
     1
102
RTVSPropertyOp23
 70
     1
102
RTVSPropertyOp24
 70
     1
102
RTVSPropertyOp25
 70
     1
102
RTVSPropertyOp26
 70
     1
102
RTVSPropertyOp27
 70
     1
102
RTVSPropertyOp28
 70
     1
102
RTVSPropertyOp29
 70
     1
102
RTVSPropertyOp30
 70
     1
102
RTVSPropertyOp31
 70
     1
102
RTVSPropertyOp32
 70
     1
  0
XRECORD
  5
A2C
102
{ACAD_REACTORS
330
A2B
102
}
330
A2B
100
AcDbXrecord
280
     1
102
RTVSPropertyOp0
 70
     1
102
RTVSPropertyOp1
 70
     1
102
RTVSPropertyOp2
 70
     1
102
RTVSPropertyOp3
 70
     1
102
RTVSPropertyOp4
 70
     1
102
RTVSPropertyOp5
 70
     1
102
RTVSPropertyOp6
 70
     1
102
RTVSPropertyOp7
 70
     1
102
RTVSPropertyOp8
 70
     1
102
RTVSPropertyOp9
 70
     1
102
RTVSPropertyOp10
 70
     1
102
RTVSPropertyOp11
 70
     1
102
RTVSPropertyOp12
 70
     1
102
RTVSPropertyOp13
 70
     1
102
RTVSPropertyOp14
 70
     1
102
RTVSPropertyOp15
 70
     1
102
RTVSPropertyOp16
 70
     1
102
RTVSPropertyOp17
 70
     1
102
RTVSPropertyOp18
 70
     1
102
RTVSPropertyOp19
 70
     1
102
RTVSPropertyOp20
 70
     1
102
RTVSPropertyOp21
 70
     1
102
RTVSPropertyOp22
 70
     1
102
RTVSPropertyOp23
 70
     1
102
RTVSPropertyOp24
 70
     1
102
RTVSPropertyOp25
 70
     1
102
RTVSPropertyOp26
 70
     1
102
RTVSPropertyOp27
 70
     1
102
RTVSPropertyOp28
 70
     1
102
RTVSPropertyOp29
 70
     1
102
RTVSPropertyOp30
 70
     1
102
RTVSPropertyOp31
 70
     1
102
RTVSPropertyOp32
 70
     1
  0
XRECORD
  5
A1E
102
{ACAD_REACTORS
330
A1D
102
}
330
A1D
100
AcDbXrecord
280
     1
102
RTVSPropertyOp0
 70
     1
102
RTVSPropertyOp1
 70
     1
102
RTVSPropertyOp2
 70
     1
102
RTVSPropertyOp3
 70
     1
102
RTVSPropertyOp4
 70
     1
102
RTVSPropertyOp5
 70
     1
102
RTVSPropertyOp6
 70
     1
102
RTVSPropertyOp7
 70
     1
102
RTVSPropertyOp8
 70
     1
102
RTVSPropertyOp9
 70
     1
102
RTVSPropertyOp10
 70
     1
102
RTVSPropertyOp11
 70
     1
102
RTVSPropertyOp12
 70
     1
102
RTVSPropertyOp13
 70
     1
102
RTVSPropertyOp14
 70
     1
102
RTVSPropertyOp15
 70
     1
102
RTVSPropertyOp16
 70
     1
102
RTVSPropertyOp17
 70
     1
102
RTVSPropertyOp18
 70
     1
102
RTVSPropertyOp19
 70
     1
102
RTVSPropertyOp20
 70
     1
102
RTVSPropertyOp21
 70
     1
102
RTVSPropertyOp22
 70
     1
102
RTVSPropertyOp23
 70
     1
102
RTVSPropertyOp24
 70
     1
102
RTVSPropertyOp25
 70
     1
102
RTVSPropertyOp26
 70
     1
102
RTVSPropertyOp27
 70
     1
102
RTVSPropertyOp28
 70
     1
102
RTVSPropertyOp29
 70
     1
102
RTVSPropertyOp30
 70
     1
102
RTVSPropertyOp31
 70
     1
102
RTVSPropertyOp32
 70
     1
  0
XRECORD
  5
A22
102
{ACAD_REACTORS
330
A21
102
}
330
A21
100
AcDbXrecord
280
     1
102
RTVSPropertyOp0
 70
     1
102
RTVSPropertyOp1
 70
     1
102
RTVSPropertyOp2
 70
     1
102
RTVSPropertyOp3
 70
     1
102
RTVSPropertyOp4
 70
     1
102
RTVSPropertyOp5
 70
     1
102
RTVSPropertyOp6
 70
     1
102
RTVSPropertyOp7
 70
     1
102
RTVSPropertyOp8
 70
     1
102
RTVSPropertyOp9
 70
     1
102
RTVSPropertyOp10
 70
     1
102
RTVSPropertyOp11
 70
     1
102
RTVSPropertyOp12
 70
     1
102
RTVSPropertyOp13
 70
     1
102
RTVSPropertyOp14
 70
     1
102
RTVSPropertyOp15
 70
     1
102
RTVSPropertyOp16
 70
     1
102
RTVSPropertyOp17
 70
     1
102
RTVSPropertyOp18
 70
     1
102
RTVSPropertyOp19
 70
     1
102
RTVSPropertyOp20
 70
     1
102
RTVSPropertyOp21
 70
     1
102
RTVSPropertyOp22
 70
     1
102
RTVSPropertyOp23
 70
     1
102
RTVSPropertyOp24
 70
     1
102
RTVSPropertyOp25
 70
     1
102
RTVSPropertyOp26
 70
     1
102
RTVSPropertyOp27
 70
     1
102
RTVSPropertyOp28
 70
     1
102
RTVSPropertyOp29
 70
     1
102
RTVSPropertyOp30
 70
     1
102
RTVSPropertyOp31
 70
     1
102
RTVSPropertyOp32
 70
     1
  0
XRECORD
  5
A3C
102
{ACAD_REACTORS
330
A3B
102
}
330
A3B
100
AcDbXrecord
280
     1
102
RTVSPropertyOp0
 70
     0
102
RTVSPropertyOp1
 70
     0
102
RTVSPropertyOp2
 70
     0
102
RTVSPropertyOp3
 70
     0
102
RTVSPropertyOp4
 70
     0
102
RTVSPropertyOp5
 70
     0
102
RTVSPropertyOp6
 70
     0
102
RTVSPropertyOp7
 70
     0
102
RTVSPropertyOp8
 70
     0
102
RTVSPropertyOp9
 70
     0
102
RTVSPropertyOp10
 70
     0
102
RTVSPropertyOp11
 70
     0
102
RTVSPropertyOp12
 70
     0
102
RTVSPropertyOp13
 70
     0
102
RTVSPropertyOp14
 70
     2
102
RTVSPropertyOp15
 70
     0
102
RTVSPropertyOp16
 70
     0
102
RTVSPropertyOp17
 70
     0
102
RTVSPropertyOp18
 70
     0
102
RTVSPropertyOp19
 70
     0
102
RTVSPropertyOp20
 70
     0
102
RTVSPropertyOp21
 70
     0
102
RTVSPropertyOp22
 70
     0
102
RTVSPropertyOp23
 70
     0
102
RTVSPropertyOp24
 70
     0
102
RTVSPropertyOp25
 70
     0
102
RTVSPropertyOp26
 70
     0
102
RTVSPropertyOp27
 70
     0
102
RTVSPropertyOp28
 70
     1
102
RTVSPropertyOp29
 70
     1
102
RTVSPropertyOp30
 70
     1
102
RTVSPropertyOp31
 70
     1
102
RTVSPropertyOp32
 70
     1
  0
XRECORD
  5
A2A
102
{ACAD_REACTORS
330
A29
102
}
330
A29
100
AcDbXrecord
280
     1
102
RTVSPropertyOp0
 70
     1
102
RTVSPropertyOp1
 70
     1
102
RTVSPropertyOp2
 70
     1
102
RTVSPropertyOp3
 70
     1
102
RTVSPropertyOp4
 70
     1
102
RTVSPropertyOp5
 70
     1
102
RTVSPropertyOp6
 70
     1
102
RTVSPropertyOp7
 70
     1
102
RTVSPropertyOp8
 70
     1
102
RTVSPropertyOp9
 70
     1
102
RTVSPropertyOp10
 70
     1
102
RTVSPropertyOp11
 70
     1
102
RTVSPropertyOp12
 70
     1
102
RTVSPropertyOp13
 70
     1
102
RTVSPropertyOp14
 70
     1
102
RTVSPropertyOp15
 70
     1
102
RTVSPropertyOp16
 70
     1
102
RTVSPropertyOp17
 70
     1
102
RTVSPropertyOp18
 70
     1
102
RTVSPropertyOp19
 70
     1
102
RTVSPropertyOp20
 70
     1
102
RTVSPropertyOp21
 70
     1
102
RTVSPropertyOp22
 70
     1
102
RTVSPropertyOp23
 70
     1
102
RTVSPropertyOp24
 70
     1
102
RTVSPropertyOp25
 70
     1
102
RTVSPropertyOp26
 70
     1
102
RTVSPropertyOp27
 70
     1
102
RTVSPropertyOp28
 70
     1
102
RTVSPropertyOp29
 70
     1
102
RTVSPropertyOp30
 70
     1
102
RTVSPropertyOp31
 70
     1
102
RTVSPropertyOp32
 70
     1
  0
XRECORD
  5
A0E
102
{ACAD_REACTORS
330
A0D
102
}
330
A0D
100
AcDbXrecord
280
     1
102
RTVSPropertyOp0
 70
     1
102
RTVSPropertyOp1
 70
     1
102
RTVSPropertyOp2
 70
     1
102
RTVSPropertyOp3
 70
     1
102
RTVSPropertyOp4
 70
     1
102
RTVSPropertyOp5
 70
     1
102
RTVSPropertyOp6
 70
     1
102
RTVSPropertyOp7
 70
     1
102
RTVSPropertyOp8
 70
     1
102
RTVSPropertyOp9
 70
     1
102
RTVSPropertyOp10
 70
     1
102
RTVSPropertyOp11
 70
     1
102
RTVSPropertyOp12
 70
     1
102
RTVSPropertyOp13
 70
     1
102
RTVSPropertyOp14
 70
     1
102
RTVSPropertyOp15
 70
     1
102
RTVSPropertyOp16
 70
     1
102
RTVSPropertyOp17
 70
     1
102
RTVSPropertyOp18
 70
     1
102
RTVSPropertyOp19
 70
     1
102
RTVSPropertyOp20
 70
     1
102
RTVSPropertyOp21
 70
     1
102
RTVSPropertyOp22
 70
     1
102
RTVSPropertyOp23
 70
     1
102
RTVSPropertyOp24
 70
     1
102
RTVSPropertyOp25
 70
     1
102
RTVSPropertyOp26
 70
     1
102
RTVSPropertyOp27
 70
     1
102
RTVSPropertyOp28
 70
     1
102
RTVSPropertyOp29
 70
     1
102
RTVSPropertyOp30
 70
     1
102
RTVSPropertyOp31
 70
     1
102
RTVSPropertyOp32
 70
     1
  0
XRECORD
  5
A10
102
{ACAD_REACTORS
330
A0F
102
}
330
A0F
100
AcDbXrecord
280
     1
102
RTVSPropertyOp0
 70
     1
102
RTVSPropertyOp1
 70
     1
102
RTVSPropertyOp2
 70
     1
102
RTVSPropertyOp3
 70
     1
102
RTVSPropertyOp4
 70
     1
102
RTVSPropertyOp5
 70
     1
102
RTVSPropertyOp6
 70
     1
102
RTVSPropertyOp7
 70
     1
102
RTVSPropertyOp8
 70
     1
102
RTVSPropertyOp9
 70
     1
102
RTVSPropertyOp10
 70
     1
102
RTVSPropertyOp11
 70
     1
102
RTVSPropertyOp12
 70
     1
102
RTVSPropertyOp13
 70
     1
102
RTVSPropertyOp14
 70
     1
102
RTVSPropertyOp15
 70
     1
102
RTVSPropertyOp16
 70
     1
102
RTVSPropertyOp17
 70
     1
102
RTVSPropertyOp18
 70
     1
102
RTVSPropertyOp19
 70
     1
102
RTVSPropertyOp20
 70
     1
102
RTVSPropertyOp21
 70
     1
102
RTVSPropertyOp22
 70
     1
102
RTVSPropertyOp23
 70
     1
102
RTVSPropertyOp24
 70
     1
102
RTVSPropertyOp25
 70
     1
102
RTVSPropertyOp26
 70
     1
102
RTVSPropertyOp27
 70
     1
102
RTVSPropertyOp28
 70
     1
102
RTVSPropertyOp29
 70
     1
102
RTVSPropertyOp30
 70
     1
102
RTVSPropertyOp31
 70
     1
102
RTVSPropertyOp32
 70
     1
  0
XRECORD
  5
A12
102
{ACAD_REACTORS
330
A11
102
}
330
A11
100
AcDbXrecord
280
     1
102
RTVSPropertyOp0
 70
     1
102
RTVSPropertyOp1
 70
     1
102
RTVSPropertyOp2
 70
     1
102
RTVSPropertyOp3
 70
     1
102
RTVSPropertyOp4
 70
     1
102
RTVSPropertyOp5
 70
     1
102
RTVSPropertyOp6
 70
     1
102
RTVSPropertyOp7
 70
     1
102
RTVSPropertyOp8
 70
     1
102
RTVSPropertyOp9
 70
     1
102
RTVSPropertyOp10
 70
     1
102
RTVSPropertyOp11
 70
     1
102
RTVSPropertyOp12
 70
     1
102
RTVSPropertyOp13
 70
     1
102
RTVSPropertyOp14
 70
     1
102
RTVSPropertyOp15
 70
     1
102
RTVSPropertyOp16
 70
     1
102
RTVSPropertyOp17
 70
     1
102
RTVSPropertyOp18
 70
     1
102
RTVSPropertyOp19
 70
     1
102
RTVSPropertyOp20
 70
     1
102
RTVSPropertyOp21
 70
     1
102
RTVSPropertyOp22
 70
     1
102
RTVSPropertyOp23
 70
     1
102
RTVSPropertyOp24
 70
     1
102
RTVSPropertyOp25
 70
     1
102
RTVSPropertyOp26
 70
     1
102
RTVSPropertyOp27
 70
     1
102
RTVSPropertyOp28
 70
     1
102
RTVSPropertyOp29
 70
     1
102
RTVSPropertyOp30
 70
     1
102
RTVSPropertyOp31
 70
     1
102
RTVSPropertyOp32
 70
     1
  0
XRECORD
  5
A14
102
{ACAD_REACTORS
330
A13
102
}
330
A13
100
AcDbXrecord
280
     1
102
RTVSPropertyOp0
 70
     1
102
RTVSPropertyOp1
 70
     1
102
RTVSPropertyOp2
 70
     1
102
RTVSPropertyOp3
 70
     1
102
RTVSPropertyOp4
 70
     1
102
RTVSPropertyOp5
 70
     1
102
RTVSPropertyOp6
 70
     1
102
RTVSPropertyOp7
 70
     1
102
RTVSPropertyOp8
 70
     1
102
RTVSPropertyOp9
 70
     1
102
RTVSPropertyOp10
 70
     1
102
RTVSPropertyOp11
 70
     1
102
RTVSPropertyOp12
 70
     1
102
RTVSPropertyOp13
 70
     1
102
RTVSPropertyOp14
 70
     1
102
RTVSPropertyOp15
 70
     1
102
RTVSPropertyOp16
 70
     1
102
RTVSPropertyOp17
 70
     1
102
RTVSPropertyOp18
 70
     1
102
RTVSPropertyOp19
 70
     1
102
RTVSPropertyOp20
 70
     1
102
RTVSPropertyOp21
 70
     1
102
RTVSPropertyOp22
 70
     1
102
RTVSPropertyOp23
 70
     1
102
RTVSPropertyOp24
 70
     1
102
RTVSPropertyOp25
 70
     1
102
RTVSPropertyOp26
 70
     1
102
RTVSPropertyOp27
 70
     1
102
RTVSPropertyOp28
 70
     1
102
RTVSPropertyOp29
 70
     1
102
RTVSPropertyOp30
 70
     1
102
RTVSPropertyOp31
 70
     1
102
RTVSPropertyOp32
 70
     1
  0
XRECORD
  5
A1C
102
{ACAD_REACTORS
330
A1B
102
}
330
A1B
100
AcDbXrecord
280
     1
102
RTVSPropertyOp0
 70
     1
102
RTVSPropertyOp1
 70
     1
102
RTVSPropertyOp2
 70
     1
102
RTVSPropertyOp3
 70
     1
102
RTVSPropertyOp4
 70
     1
102
RTVSPropertyOp5
 70
     1
102
RTVSPropertyOp6
 70
     1
102
RTVSPropertyOp7
 70
     1
102
RTVSPropertyOp8
 70
     1
102
RTVSPropertyOp9
 70
     1
102
RTVSPropertyOp10
 70
     1
102
RTVSPropertyOp11
 70
     1
102
RTVSPropertyOp12
 70
     1
102
RTVSPropertyOp13
 70
     1
102
RTVSPropertyOp14
 70
     1
102
RTVSPropertyOp15
 70
     1
102
RTVSPropertyOp16
 70
     1
102
RTVSPropertyOp17
 70
     1
102
RTVSPropertyOp18
 70
     1
102
RTVSPropertyOp19
 70
     1
102
RTVSPropertyOp20
 70
     1
102
RTVSPropertyOp21
 70
     1
102
RTVSPropertyOp22
 70
     1
102
RTVSPropertyOp23
 70
     1
102
RTVSPropertyOp24
 70
     1
102
RTVSPropertyOp25
 70
     1
102
RTVSPropertyOp26
 70
     1
102
RTVSPropertyOp27
 70
     1
102
RTVSPropertyOp28
 70
     1
102
RTVSPropertyOp29
 70
     1
102
RTVSPropertyOp30
 70
     1
102
RTVSPropertyOp31
 70
     1
102
RTVSPropertyOp32
 70
     1
  0
XRECORD
  5
A38
102
{ACAD_REACTORS
330
A37
102
}
330
A37
100
AcDbXrecord
280
     1
102
RTVSPropertyOp0
 70
     0
102
RTVSPropertyOp1
 70
     0
102
RTVSPropertyOp2
 70
     0
102
RTVSPropertyOp3
 70
     0
102
RTVSPropertyOp4
 70
     0
102
RTVSPropertyOp5
 70
     0
102
RTVSPropertyOp6
 70
     0
102
RTVSPropertyOp7
 70
     0
102
RTVSPropertyOp8
 70
     0
102
RTVSPropertyOp9
 70
     0
102
RTVSPropertyOp10
 70
     0
102
RTVSPropertyOp11
 70
     0
102
RTVSPropertyOp12
 70
     0
102
RTVSPropertyOp13
 70
     0
102
RTVSPropertyOp14
 70
     2
102
RTVSPropertyOp15
 70
     0
102
RTVSPropertyOp16
 70
     0
102
RTVSPropertyOp17
 70
     0
102
RTVSPropertyOp18
 70
     0
102
RTVSPropertyOp19
 70
     0
102
RTVSPropertyOp20
 70
     0
102
RTVSPropertyOp21
 70
     0
102
RTVSPropertyOp22
 70
     0
102
RTVSPropertyOp23
 70
     0
102
RTVSPropertyOp24
 70
     0
102
RTVSPropertyOp25
 70
     0
102
RTVSPropertyOp26
 70
     0
102
RTVSPropertyOp27
 70
     0
102
RTVSPropertyOp28
 70
     1
102
RTVSPropertyOp29
 70
     1
102
RTVSPropertyOp30
 70
     1
102
RTVSPropertyOp31
 70
     1
102
RTVSPropertyOp32
 70
     1
  0
XRECORD
  5
A28
102
{ACAD_REACTORS
330
A27
102
}
330
A27
100
AcDbXrecord
280
     1
102
RTVSPropertyOp0
 70
     1
102
RTVSPropertyOp1
 70
     1
102
RTVSPropertyOp2
 70
     1
102
RTVSPropertyOp3
 70
     1
102
RTVSPropertyOp4
 70
     1
102
RTVSPropertyOp5
 70
     1
102
RTVSPropertyOp6
 70
     1
102
RTVSPropertyOp7
 70
     1
102
RTVSPropertyOp8
 70
     1
102
RTVSPropertyOp9
 70
     1
102
RTVSPropertyOp10
 70
     1
102
RTVSPropertyOp11
 70
     1
102
RTVSPropertyOp12
 70
     1
102
RTVSPropertyOp13
 70
     1
102
RTVSPropertyOp14
 70
     1
102
RTVSPropertyOp15
 70
     1
102
RTVSPropertyOp16
 70
     1
102
RTVSPropertyOp17
 70
     1
102
RTVSPropertyOp18
 70
     1
102
RTVSPropertyOp19
 70
     1
102
RTVSPropertyOp20
 70
     1
102
RTVSPropertyOp21
 70
     1
102
RTVSPropertyOp22
 70
     1
102
RTVSPropertyOp23
 70
     1
102
RTVSPropertyOp24
 70
     1
102
RTVSPropertyOp25
 70
     1
102
RTVSPropertyOp26
 70
     1
102
RTVSPropertyOp27
 70
     1
102
RTVSPropertyOp28
 70
     1
102
RTVSPropertyOp29
 70
     1
102
RTVSPropertyOp30
 70
     1
102
RTVSPropertyOp31
 70
     1
102
RTVSPropertyOp32
 70
     1
  0
XRECORD
  5
A3A
102
{ACAD_REACTORS
330
A39
102
}
330
A39
100
AcDbXrecord
280
     1
102
RTVSPropertyOp0
 70
     0
102
RTVSPropertyOp1
 70
     0
102
RTVSPropertyOp2
 70
     0
102
RTVSPropertyOp3
 70
     0
102
RTVSPropertyOp4
 70
     0
102
RTVSPropertyOp5
 70
     0
102
RTVSPropertyOp6
 70
     0
102
RTVSPropertyOp7
 70
     0
102
RTVSPropertyOp8
 70
     0
102
RTVSPropertyOp9
 70
     0
102
RTVSPropertyOp10
 70
     0
102
RTVSPropertyOp11
 70
     0
102
RTVSPropertyOp12
 70
     0
102
RTVSPropertyOp13
 70
     0
102
RTVSPropertyOp14
 70
     2
102
RTVSPropertyOp15
 70
     0
102
RTVSPropertyOp16
 70
     0
102
RTVSPropertyOp17
 70
     0
102
RTVSPropertyOp18
 70
     0
102
RTVSPropertyOp19
 70
     0
102
RTVSPropertyOp20
 70
     0
102
RTVSPropertyOp21
 70
     0
102
RTVSPropertyOp22
 70
     0
102
RTVSPropertyOp23
 70
     0
102
RTVSPropertyOp24
 70
     0
102
RTVSPropertyOp25
 70
     0
102
RTVSPropertyOp26
 70
     0
102
RTVSPropertyOp27
 70
     0
102
RTVSPropertyOp28
 70
     1
102
RTVSPropertyOp29
 70
     1
102
RTVSPropertyOp30
 70
     1
102
RTVSPropertyOp31
 70
     1
102
RTVSPropertyOp32
 70
     1
  0
XRECORD
  5
A20
102
{ACAD_REACTORS
330
A1F
102
}
330
A1F
100
AcDbXrecord
280
     1
102
RTVSPropertyOp0
 70
     1
102
RTVSPropertyOp1
 70
     1
102
RTVSPropertyOp2
 70
     1
102
RTVSPropertyOp3
 70
     1
102
RTVSPropertyOp4
 70
     1
102
RTVSPropertyOp5
 70
     1
102
RTVSPropertyOp6
 70
     1
102
RTVSPropertyOp7
 70
     1
102
RTVSPropertyOp8
 70
     1
102
RTVSPropertyOp9
 70
     1
102
RTVSPropertyOp10
 70
     1
102
RTVSPropertyOp11
 70
     1
102
RTVSPropertyOp12
 70
     1
102
RTVSPropertyOp13
 70
     1
102
RTVSPropertyOp14
 70
     1
102
RTVSPropertyOp15
 70
     1
102
RTVSPropertyOp16
 70
     1
102
RTVSPropertyOp17
 70
     1
102
RTVSPropertyOp18
 70
     1
102
RTVSPropertyOp19
 70
     1
102
RTVSPropertyOp20
 70
     1
102
RTVSPropertyOp21
 70
     1
102
RTVSPropertyOp22
 70
     1
102
RTVSPropertyOp23
 70
     1
102
RTVSPropertyOp24
 70
     1
102
RTVSPropertyOp25
 70
     1
102
RTVSPropertyOp26
 70
     1
102
RTVSPropertyOp27
 70
     1
102
RTVSPropertyOp28
 70
     1
102
RTVSPropertyOp29
 70
     1
102
RTVSPropertyOp30
 70
     1
102
RTVSPropertyOp31
 70
     1
102
RTVSPropertyOp32
 70
     1
  0
XRECORD
  5
A36
102
{ACAD_REACTORS
330
A35
102
}
330
A35
100
AcDbXrecord
280
     1
102
RTVSPropertyOp0
 70
     1
102
RTVSPropertyOp1
 70
     1
102
RTVSPropertyOp2
 70
     1
102
RTVSPropertyOp3
 70
     1
102
RTVSPropertyOp4
 70
     1
102
RTVSPropertyOp5
 70
     1
102
RTVSPropertyOp6
 70
     1
102
RTVSPropertyOp7
 70
     1
102
RTVSPropertyOp8
 70
     1
102
RTVSPropertyOp9
 70
     1
102
RTVSPropertyOp10
 70
     1
102
RTVSPropertyOp11
 70
     1
102
RTVSPropertyOp12
 70
     1
102
RTVSPropertyOp13
 70
     1
102
RTVSPropertyOp14
 70
     1
102
RTVSPropertyOp15
 70
     1
102
RTVSPropertyOp16
 70
     1
102
RTVSPropertyOp17
 70
     1
102
RTVSPropertyOp18
 70
     1
102
RTVSPropertyOp19
 70
     1
102
RTVSPropertyOp20
 70
     1
102
RTVSPropertyOp21
 70
     1
102
RTVSPropertyOp22
 70
     1
102
RTVSPropertyOp23
 70
     1
102
RTVSPropertyOp24
 70
     1
102
RTVSPropertyOp25
 70
     1
102
RTVSPropertyOp26
 70
     1
102
RTVSPropertyOp27
 70
     1
102
RTVSPropertyOp28
 70
     1
102
RTVSPropertyOp29
 70
     1
102
RTVSPropertyOp30
 70
     1
102
RTVSPropertyOp31
 70
     1
102
RTVSPropertyOp32
 70
     1
  0
XRECORD
  5
A34
102
{ACAD_REACTORS
330
A33
102
}
330
A33
100
AcDbXrecord
280
     1
102
RTVSPropertyOp0
 70
     1
102
RTVSPropertyOp1
 70
     1
102
RTVSPropertyOp2
 70
     1
102
RTVSPropertyOp3
 70
     1
102
RTVSPropertyOp4
 70
     1
102
RTVSPropertyOp5
 70
     1
102
RTVSPropertyOp6
 70
     1
102
RTVSPropertyOp7
 70
     1
102
RTVSPropertyOp8
 70
     1
102
RTVSPropertyOp9
 70
     1
102
RTVSPropertyOp10
 70
     1
102
RTVSPropertyOp11
 70
     1
102
RTVSPropertyOp12
 70
     1
102
RTVSPropertyOp13
 70
     1
102
RTVSPropertyOp14
 70
     1
102
RTVSPropertyOp15
 70
     1
102
RTVSPropertyOp16
 70
     1
102
RTVSPropertyOp17
 70
     1
102
RTVSPropertyOp18
 70
     1
102
RTVSPropertyOp19
 70
     1
102
RTVSPropertyOp20
 70
     1
102
RTVSPropertyOp21
 70
     1
102
RTVSPropertyOp22
 70
     1
102
RTVSPropertyOp23
 70
     1
102
RTVSPropertyOp24
 70
     1
102
RTVSPropertyOp25
 70
     1
102
RTVSPropertyOp26
 70
     1
102
RTVSPropertyOp27
 70
     1
102
RTVSPropertyOp28
 70
     1
102
RTVSPropertyOp29
 70
     1
102
RTVSPropertyOp30
 70
     1
102
RTVSPropertyOp31
 70
     1
102
RTVSPropertyOp32
 70
     1
  0
XRECORD
  5
A2E
102
{ACAD_REACTORS
330
A2D
102
}
330
A2D
100
AcDbXrecord
280
     1
102
RTVSPropertyOp0
 70
     1
102
RTVSPropertyOp1
 70
     1
102
RTVSPropertyOp2
 70
     1
102
RTVSPropertyOp3
 70
     1
102
RTVSPropertyOp4
 70
     1
102
RTVSPropertyOp5
 70
     1
102
RTVSPropertyOp6
 70
     1
102
RTVSPropertyOp7
 70
     1
102
RTVSPropertyOp8
 70
     1
102
RTVSPropertyOp9
 70
     1
102
RTVSPropertyOp10
 70
     1
102
RTVSPropertyOp11
 70
     1
102
RTVSPropertyOp12
 70
     1
102
RTVSPropertyOp13
 70
     1
102
RTVSPropertyOp14
 70
     1
102
RTVSPropertyOp15
 70
     1
102
RTVSPropertyOp16
 70
     1
102
RTVSPropertyOp17
 70
     1
102
RTVSPropertyOp18
 70
     1
102
RTVSPropertyOp19
 70
     1
102
RTVSPropertyOp20
 70
     1
102
RTVSPropertyOp21
 70
     1
102
RTVSPropertyOp22
 70
     1
102
RTVSPropertyOp23
 70
     1
102
RTVSPropertyOp24
 70
     1
102
RTVSPropertyOp25
 70
     1
102
RTVSPropertyOp26
 70
     1
102
RTVSPropertyOp27
 70
     1
102
RTVSPropertyOp28
 70
     1
102
RTVSPropertyOp29
 70
     1
102
RTVSPropertyOp30
 70
     1
102
RTVSPropertyOp31
 70
     1
102
RTVSPropertyOp32
 70
     1
  0
XRECORD
  5
A30
102
{ACAD_REACTORS
330
A2F
102
}
330
A2F
100
AcDbXrecord
280
     1
102
RTVSPropertyOp0
 70
     1
102
RTVSPropertyOp1
 70
     1
102
RTVSPropertyOp2
 70
     1
102
RTVSPropertyOp3
 70
     1
102
RTVSPropertyOp4
 70
     1
102
RTVSPropertyOp5
 70
     1
102
RTVSPropertyOp6
 70
     1
102
RTVSPropertyOp7
 70
     1
102
RTVSPropertyOp8
 70
     1
102
RTVSPropertyOp9
 70
     1
102
RTVSPropertyOp10
 70
     1
102
RTVSPropertyOp11
 70
     1
102
RTVSPropertyOp12
 70
     1
102
RTVSPropertyOp13
 70
     1
102
RTVSPropertyOp14
 70
     1
102
RTVSPropertyOp15
 70
     1
102
RTVSPropertyOp16
 70
     1
102
RTVSPropertyOp17
 70
     1
102
RTVSPropertyOp18
 70
     1
102
RTVSPropertyOp19
 70
     1
102
RTVSPropertyOp20
 70
     1
102
RTVSPropertyOp21
 70
     1
102
RTVSPropertyOp22
 70
     1
102
RTVSPropertyOp23
 70
     1
102
RTVSPropertyOp24
 70
     1
102
RTVSPropertyOp25
 70
     1
102
RTVSPropertyOp26
 70
     1
102
RTVSPropertyOp27
 70
     1
102
RTVSPropertyOp28
 70
     1
102
RTVSPropertyOp29
 70
     1
102
RTVSPropertyOp30
 70
     1
102
RTVSPropertyOp31
 70
     1
102
RTVSPropertyOp32
 70
     1
  0
XRECORD
  5
A26
102
{ACAD_REACTORS
330
A25
102
}
330
A25
100
AcDbXrecord
280
     1
102
RTVSPropertyOp0
 70
     1
102
RTVSPropertyOp1
 70
     1
102
RTVSPropertyOp2
 70
     1
102
RTVSPropertyOp3
 70
     1
102
RTVSPropertyOp4
 70
     1
102
RTVSPropertyOp5
 70
     1
102
RTVSPropertyOp6
 70
     1
102
RTVSPropertyOp7
 70
     1
102
RTVSPropertyOp8
 70
     1
102
RTVSPropertyOp9
 70
     1
102
RTVSPropertyOp10
 70
     1
102
RTVSPropertyOp11
 70
     1
102
RTVSPropertyOp12
 70
     1
102
RTVSPropertyOp13
 70
     1
102
RTVSPropertyOp14
 70
     1
102
RTVSPropertyOp15
 70
     1
102
RTVSPropertyOp16
 70
     1
102
RTVSPropertyOp17
 70
     1
102
RTVSPropertyOp18
 70
     1
102
RTVSPropertyOp19
 70
     1
102
RTVSPropertyOp20
 70
     1
102
RTVSPropertyOp21
 70
     1
102
RTVSPropertyOp22
 70
     1
102
RTVSPropertyOp23
 70
     1
102
RTVSPropertyOp24
 70
     1
102
RTVSPropertyOp25
 70
     1
102
RTVSPropertyOp26
 70
     1
102
RTVSPropertyOp27
 70
     1
102
RTVSPropertyOp28
 70
     1
102
RTVSPropertyOp29
 70
     1
102
RTVSPropertyOp30
 70
     1
102
RTVSPropertyOp31
 70
     1
102
RTVSPropertyOp32
 70
     1
  0
XRECORD
  5
A1A
102
{ACAD_REACTORS
330
A19
102
}
330
A19
100
AcDbXrecord
280
     1
102
RTVSPropertyOp0
 70
     1
102
RTVSPropertyOp1
 70
     1
102
RTVSPropertyOp2
 70
     1
102
RTVSPropertyOp3
 70
     1
102
RTVSPropertyOp4
 70
     1
102
RTVSPropertyOp5
 70
     1
102
RTVSPropertyOp6
 70
     1
102
RTVSPropertyOp7
 70
     1
102
RTVSPropertyOp8
 70
     1
102
RTVSPropertyOp9
 70
     1
102
RTVSPropertyOp10
 70
     1
102
RTVSPropertyOp11
 70
     1
102
RTVSPropertyOp12
 70
     1
102
RTVSPropertyOp13
 70
     1
102
RTVSPropertyOp14
 70
     1
102
RTVSPropertyOp15
 70
     1
102
RTVSPropertyOp16
 70
     1
102
RTVSPropertyOp17
 70
     1
102
RTVSPropertyOp18
 70
     1
102
RTVSPropertyOp19
 70
     1
102
RTVSPropertyOp20
 70
     1
102
RTVSPropertyOp21
 70
     1
102
RTVSPropertyOp22
 70
     1
102
RTVSPropertyOp23
 70
     1
102
RTVSPropertyOp24
 70
     1
102
RTVSPropertyOp25
 70
     1
102
RTVSPropertyOp26
 70
     1
102
RTVSPropertyOp27
 70
     1
102
RTVSPropertyOp28
 70
     1
102
RTVSPropertyOp29
 70
     1
102
RTVSPropertyOp30
 70
     1
102
RTVSPropertyOp31
 70
     1
102
RTVSPropertyOp32
 70
     1
  0
XRECORD
  5
A32
102
{ACAD_REACTORS
330
A31
102
}
330
A31
100
AcDbXrecord
280
     1
102
RTVSPropertyOp0
 70
     1
102
RTVSPropertyOp1
 70
     1
102
RTVSPropertyOp2
 70
     1
102
RTVSPropertyOp3
 70
     1
102
RTVSPropertyOp4
 70
     1
102
RTVSPropertyOp5
 70
     1
102
RTVSPropertyOp6
 70
     1
102
RTVSPropertyOp7
 70
     1
102
RTVSPropertyOp8
 70
     1
102
RTVSPropertyOp9
 70
     1
102
RTVSPropertyOp10
 70
     1
102
RTVSPropertyOp11
 70
     1
102
RTVSPropertyOp12
 70
     1
102
RTVSPropertyOp13
 70
     1
102
RTVSPropertyOp14
 70
     1
102
RTVSPropertyOp15
 70
     1
102
RTVSPropertyOp16
 70
     1
102
RTVSPropertyOp17
 70
     1
102
RTVSPropertyOp18
 70
     1
102
RTVSPropertyOp19
 70
     1
102
RTVSPropertyOp20
 70
     1
102
RTVSPropertyOp21
 70
     1
102
RTVSPropertyOp22
 70
     1
102
RTVSPropertyOp23
 70
     1
102
RTVSPropertyOp24
 70
     1
102
RTVSPropertyOp25
 70
     1
102
RTVSPropertyOp26
 70
     1
102
RTVSPropertyOp27
 70
     1
102
RTVSPropertyOp28
 70
     1
102
RTVSPropertyOp29
 70
     1
102
RTVSPropertyOp30
 70
     1
102
RTVSPropertyOp31
 70
     1
102
RTVSPropertyOp32
 70
     1
  0
ENDSEC
  0
EOF
