  0
SECTION
  2
HEADER
  9
$ACADVER
  1
AC1015
  9
$ACADMAINTVER
 70
    18
  9
$DWGCODEPAGE
  3
ANSI_1252
  9
$INSBASE
 10
0.0
 20
0.0
 30
0.0
  9
$EXTMIN
 10
0.0
 20
0.0
 30
0.0
  9
$EXTMAX
 10
97.14285714285715
 20
62.85714285714286
 30
0.0
  9
$LIMMIN
 10
0.0
 20
0.0
  9
$LIMMAX
 10
97.14285714285715
 20
62.85714285714286
  9
$ORTHOMODE
 70
     0
  9
$REGENMODE
 70
     1
  9
$FILLMODE
 70
     1
  9
$QTEXTMODE
 70
     0
  9
$MIRRTEXT
 70
     0
  9
$LTSCALE
 40
5.714285714285714
  9
$ATTMODE
 70
     1
  9
$TEXTSIZE
 40
0.2
  9
$TRACEWID
 40
0.05
  9
$TEXTSTYLE
  7
Standard
  9
$CLAYER
  8
0
  9
$CELTYPE
  6
ByLayer
  9
$CECOLOR
 62
   256
  9
$CELTSCALE
 40
1.0
  9
$DISPSILH
 70
     0
  9
$DIMSCALE
 40
1.0
  9
$DIMASZ
 40
0.0708661417322835
  9
$DIMEXO
 40
0.0625
  9
$DIMDLI
 40
0.38
  9
$DIMRND
 40
0.0
  9
$DIMDLE
 40
0.0
  9
$DIMEXE
 40
0.18
  9
$DIMTP
 40
0.0
  9
$DIMTM
 40
0.0
  9
$DIMTXT
 40
0.0708661417322835
  9
$DIMCEN
 40
0.09
  9
$DIMTSZ
 40
0.0
  9
$DIMTOL
 70
     0
  9
$DIMLIM
 70
     0
  9
$DIMTIH
 70
     1
  9
$DIMTOH
 70
     1
  9
$DIMSE1
 70
     0
  9
$DIMSE2
 70
     0
  9
$DIMTAD
 70
     0
  9
$DIMZIN
 70
     0
  9
$DIMBLK
  1

  9
$DIMASO
 70
     1
  9
$DIMSHO
 70
     1
  9
$DIMPOST
  1

  9
$DIMAPOST
  1

  9
$DIMALT
 70
     0
  9
$DIMALTD
 70
     2
  9
$DIMALTF
 40
25.4
  9
$DIMLFAC
 40
1.0
  9
$DIMTOFL
 70
     0
  9
$DIMTVP
 40
0.0
  9
$DIMTIX
 70
     0
  9
$DIMSOXD
 70
     0
  9
$DIMSAH
 70
     0
  9
$DIMBLK1
  1

  9
$DIMBLK2
  1

  9
$DIMSTYLE
  2
Standard
  9
$DIMCLRD
 70
     0
  9
$DIMCLRE
 70
     0
  9
$DIMCLRT
 70
     0
  9
$DIMTFAC
 40
1.0
  9
$DIMGAP
 40
0.09
  9
$DIMJUST
 70
     0
  9
$DIMSD1
 70
     0
  9
$DIMSD2
 70
     0
  9
$DIMTOLJ
 70
     1
  9
$DIMTZIN
 70
     0
  9
$DIMALTZ
 70
     0
  9
$DIMALTTZ
 70
     0
  9
$DIMUPT
 70
     0
  9
$DIMDEC
 70
     4
  9
$DIMTDEC
 70
     4
  9
$DIMALTU
 70
     2
  9
$DIMALTTD
 70
     2
  9
$DIMTXSTY
  7
Standard
  9
$DIMAUNIT
 70
     0
  9
$DIMADEC
 70
     0
  9
$DIMALTRND
 40
0.0
  9
$DIMAZIN
 70
     0
  9
$DIMDSEP
 70
    46
  9
$DIMATFIT
 70
     3
  9
$DIMFRAC
 70
     0
  9
$DIMLDRBLK
  1

  9
$DIMLUNIT
 70
     2
  9
$DIMLWD
 70
    -2
  9
$DIMLWE
 70
    -2
  9
$DIMTMOVE
 70
     0
  9
$LUNITS
 70
     2
  9
$LUPREC
 70
     4
  9
$SKETCHINC
 40
0.1
  9
$FILLETRAD
 40
0.0
  9
$AUNITS
 70
     0
  9
$AUPREC
 70
     0
  9
$MENU
  1
.
  9
$ELEVATION
 40
0.0
  9
$PELEVATION
 40
0.0
  9
$THICKNESS
 40
0.0
  9
$LIMCHECK
 70
     0
  9
$CHAMFERA
 40
0.0
  9
$CHAMFERB
 40
0.0
  9
$CHAMFERC
 40
0.0
  9
$CHAMFERD
 40
0.0
  9
$SKPOLY
 70
     0
  9
$TDCREATE
 40
2455986.399272824
  9
$TDUCREATE
 40
2455986.649272825
  9
$TDUPDATE
 40
2455986.399272824
  9
$TDUUPDATE
 40
2455986.649272825
  9
$TDINDWG
 40
0.0000361690
  9
$TDUSRTIMER
 40
0.0000361690
  9
$USRTIMER
 70
     1
  9
$ANGBASE
 50
0.0
  9
$ANGDIR
 70
     0
  9
$PDMODE
 70
     0
  9
$PDSIZE
 40
0.0
  9
$PLINEWID
 40
0.0
  9
$SPLFRAME
 70
     0
  9
$SPLINETYPE
 70
     6
  9
$SPLINESEGS
 70
     8
  9
$HANDSEED
  5
A49
  9
$SURFTAB1
 70
     6
  9
$SURFTAB2
 70
     6
  9
$SURFTYPE
 70
     6
  9
$SURFU
 70
     6
  9
$SURFV
 70
     6
  9
$UCSBASE
  2

  9
$UCSNAME
  2

  9
$UCSORG
 10
0.0
 20
0.0
 30
0.0
  9
$UCSXDIR
 10
1.0
 20
0.0
 30
0.0
  9
$UCSYDIR
 10
0.0
 20
1.0
 30
0.0
  9
$UCSORTHOREF
  2

  9
$UCSORTHOVIEW
 70
     0
  9
$UCSORGTOP
 10
0.0
 20
0.0
 30
0.0
  9
$UCSORGBOTTOM
 10
0.0
 20
0.0
 30
0.0
  9
$UCSORGLEFT
 10
0.0
 20
0.0
 30
0.0
  9
$UCSORGRIGHT
 10
0.0
 20
0.0
 30
0.0
  9
$UCSORGFRONT
 10
0.0
 20
0.0
 30
0.0
  9
$UCSORGBACK
 10
0.0
 20
0.0
 30
0.0
  9
$PUCSBASE
  2

  9
$PUCSNAME
  2

  9
$PUCSORG
 10
0.0
 20
0.0
 30
0.0
  9
$PUCSXDIR
 10
1.0
 20
0.0
 30
0.0
  9
$PUCSYDIR
 10
0.0
 20
1.0
 30
0.0
  9
$PUCSORTHOREF
  2

  9
$PUCSORTHOVIEW
 70
     0
  9
$PUCSORGTOP
 10
0.0
 20
0.0
 30
0.0
  9
$PUCSORGBOTTOM
 10
0.0
 20
0.0
 30
0.0
  9
$PUCSORGLEFT
 10
0.0
 20
0.0
 30
0.0
  9
$PUCSORGRIGHT
 10
0.0
 20
0.0
 30
0.0
  9
$PUCSORGFRONT
 10
0.0
 20
0.0
 30
0.0
  9
$PUCSORGBACK
 10
0.0
 20
0.0
 30
0.0
  9
$USERI1
 70
     0
  9
$USERI2
 70
     0
  9
$USERI3
 70
     0
  9
$USERI4
 70
     0
  9
$USERI5
 70
     0
  9
$USERR1
 40
0.0
  9
$USERR2
 40
0.0
  9
$USERR3
 40
0.0
  9
$USERR4
 40
0.0
  9
$USERR5
 40
0.0
  9
$WORLDVIEW
 70
     1
  9
$SHADEDGE
 70
     3
  9
$SHADEDIF
 70
    70
  9
$TILEMODE
 70
     1
  9
$MAXACTVP
 70
    64
  9
$PINSBASE
 10
0.0
 20
0.0
 30
0.0
  9
$PLIMCHECK
 70
     0
  9
$PEXTMIN
 10
0.0
 20
0.0
 30
0.0
  9
$PEXTMAX
 10
97.14285714285715
 20
62.85714285714286
 30
0.0
  9
$PLIMMIN
 10
0.0
 20
0.0
  9
$PLIMMAX
 10
97.14285714285715
 20
62.85714285714286
  9
$UNITMODE
 70
     0
  9
$VISRETAIN
 70
     1
  9
$PLINEGEN
 70
     0
  9
$PSLTSCALE
 70
     1
  9
$TREEDEPTH
 70
  3020
  9
$CMLSTYLE
  2
Standard
  9
$CMLJUST
 70
     0
  9
$CMLSCALE
 40
1.0
  9
$PROXYGRAPHICS
 70
     1
  9
$MEASUREMENT
 70
     0
  9
$CELWEIGHT
370
    -1
  9
$ENDCAPS
280
     0
  9
$JOINSTYLE
280
     0
  9
$LWDISPLAY
290
     0
  9
$INSUNITS
 70
     1
  9
$HYPERLINKBASE
  1

  9
$STYLESHEET
  1

  9
$XEDIT
290
     1
  9
$CEPSNTYPE
380
     0
  9
$PSTYLEMODE
290
     1
  9
$FINGERPRINTGUID
  2
{B9B3ADAD-4BAC-44BF-B26A-BA3DA541A288}
  9
$VERSIONGUID
  2
{F7EF4C6B-F789-4916-BBAB-91D650064A25}
  9
$EXTNAMES
290
     1
  9
$PSVPSCALE
 40
0.0
  9
$OLESTARTUP
290
     0
  0
ENDSEC
  0
SECTION
  2
CLASSES
  0
CLASS
  1
ACDBDICTIONARYWDFLT
  2
AcDbDictionaryWithDefault
  3
ObjectDBX Classes
 90
        0
280
     0
281
     0
  0
CLASS
  1
MATERIAL
  2
AcDbMaterial
  3
ObjectDBX Classes
 90
     1153
280
     0
281
     0
  0
CLASS
  1
VISUALSTYLE
  2
AcDbVisualStyle
  3
ObjectDBX Classes
 90
     4095
280
     0
281
     0
  0
CLASS
  1
SCALE
  2
AcDbScale
  3
ObjectDBX Classes
 90
     1153
280
     0
281
     0
  0
CLASS
  1
TABLESTYLE
  2
AcDbTableStyle
  3
ObjectDBX Classes
 90
     4095
280
     0
281
     0
  0
CLASS
  1
MLEADERSTYLE
  2
AcDbMLeaderStyle
  3
ACDB_MLEADERSTYLE_CLASS
 90
     4095
280
     0
281
     0
  0
CLASS
  1
DICTIONARYVAR
  2
AcDbDictionaryVar
  3
ObjectDBX Classes
 90
        0
280
     0
281
     0
  0
CLASS
  1
CELLSTYLEMAP
  2
AcDbCellStyleMap
  3
ObjectDBX Classes
 90
     1152
280
     0
281
     0
  0
CLASS
  1
ACDBPLACEHOLDER
  2
AcDbPlaceHolder
  3
ObjectDBX Classes
 90
        0
280
     0
281
     0
  0
CLASS
  1
LAYOUT
  2
AcDbLayout
  3
ObjectDBX Classes
 90
        0
280
     0
281
     0
  0
ENDSEC
  0
SECTION
  2
TABLES
  0
TABLE
  2
VPORT
  5
8
330
0
100
AcDbSymbolTable
 70
     1
  0
VPORT
  5
57
330
8
100
AcDbSymbolTableRecord
100
AcDbViewportTableRecord
  2
*Active
 70
     0
 10
0.0
 20
0.0
 11
1.0
 21
1.0
 12
48.57142857142857
 22
31.42857142857143
 13
0.0
 23
0.0
 14
1.0
 24
1.0
 15
0.0
 25
0.0
 16
0.0
 26
0.0
 36
1.0
 17
0.0
 27
0.0
 37
0.0
 40
62.85714285714286
 41
1.545454545454545
 42
50.0
 43
0.0
 44
0.0
 50
0.0
 51
0.0
 71
     0
 72
   100
 73
     1
 74
     1
 75
     0
 76
     0
 77
     0
 78
     0
281
     0
 65
     1
110
0.0
120
0.0
130
0.0
111
1.0
121
0.0
131
0.0
112
0.0
122
1.0
132
0.0
 79
     0
146
0.0
  0
ENDTAB
  0
TABLE
  2
LTYPE
  5
5
330
0
100
AcDbSymbolTable
 70
    59
  0
LTYPE
  5
5B
330
5
100
AcDbSymbolTableRecord
100
AcDbLinetypeTableRecord
  2
ByBlock
 70
     0
  3

 72
    65
 73
     0
 40
0.0
  0
LTYPE
  5
5C
330
5
100
AcDbSymbolTableRecord
100
AcDbLinetypeTableRecord
  2
ByLayer
 70
     0
  3

 72
    65
 73
     0
 40
0.0
  0
LTYPE
  5
5D
330
5
100
AcDbSymbolTableRecord
100
AcDbLinetypeTableRecord
  2
Continuous
 70
     0
  3
Solid line
 72
    65
 73
     0
 40
0.0
  0
LTYPE
  5
7C
330
5
100
AcDbSymbolTableRecord
100
AcDbLinetypeTableRecord
  2
BY_STANDARD
 70
     0
  3
By Standard ____________    ____    ____   _
 72
    65
 73
     6
 40
1.240299999999999
 49
0.6614
 74
     0
 49
-0.0827
 74
     0
 49
0.1654
 74
     0
 49
-0.0827
 74
     0
 49
0.1654
 74
     0
 49
-0.0827
 74
     0
  0
LTYPE
  5
7D
330
5
100
AcDbSymbolTableRecord
100
AcDbLinetypeTableRecord
  2
CHAIN
 70
     0
  3
Chain ____ _ ____ _ ____ _ ____ _ ____ _ ____
 72
    65
 73
     4
 40
0.7087
 49
0.4724000000000001
 74
     0
 49
-0.0591
 74
     0
 49
0.1181
 74
     0
 49
-0.0591
 74
     0
  0
LTYPE
  5
7E
330
5
100
AcDbSymbolTableRecord
100
AcDbLinetypeTableRecord
  2
DASH_DOT
 70
     0
  3
Dash dot __ . __ . __ . __ . __ . __ . __ . __
 72
    65
 73
     4
 40
0.37
 49
0.24
 74
     0
 49
-0.06
 74
     0
 49
0.01
 74
     0
 49
-0.06
 74
     0
  0
LTYPE
  5
7F
330
5
100
AcDbSymbolTableRecord
100
AcDbLinetypeTableRecord
  2
DOUBLE_DASH_DOT
 70
     0
  3
Double-Dash Dot __ __ . __ __ . __ __ . __ _
 72
    65
 73
     6
 40
0.4398
 49
0.24
 74
     0
 49
-0.06
 74
     0
 49
0.0098
 74
     0
 49
-0.06
 74
     0
 49
0.01
 74
     0
 49
-0.06
 74
     0
  0
LTYPE
  5
80
330
5
100
AcDbSymbolTableRecord
100
AcDbLinetypeTableRecord
  2
DASH_TRIPLE_DOT
 70
     0
  3
Dash Triple-Dot _ . . . _ . . . _ . . . _
 72
    65
 73
     8
 40
0.51
 49
0.24
 74
     0
 49
-0.06
 74
     0
 49
0.01
 74
     0
 49
-0.06
 74
     0
 49
0.01
 74
     0
 49
-0.06
 74
     0
 49
0.01
 74
     0
 49
-0.06
 74
     0
  0
LTYPE
  5
81
330
5
100
AcDbSymbolTableRecord
100
AcDbLinetypeTableRecord
  2
DASHED
 70
     0
  3
Dashed __ __ __ __ __ __ __ __ __ __ __ __ __ _
 72
    65
 73
     2
 40
0.2067
 49
0.1654
 74
     0
 49
-0.0413
 74
     0
  0
LTYPE
  5
82
330
5
100
AcDbSymbolTableRecord
100
AcDbLinetypeTableRecord
  2
DASH_DOUBLE_DOT
 70
     0
  3
Dash Double-Dot __ . . __ . . __ . . __ . .
 72
    65
 73
     6
 40
0.4398
 49
0.24
 74
     0
 49
-0.06
 74
     0
 49
0.0098
 74
     0
 49
-0.06
 74
     0
 49
0.01
 74
     0
 49
-0.06
 74
     0
  0
LTYPE
  5
83
330
5
100
AcDbSymbolTableRecord
100
AcDbLinetypeTableRecord
  2
DASHED_SPACE
 70
     0
  3
Dashed Space __ __ __ __ __ __ __ __ __ __ __ _
 72
    65
 73
     2
 40
0.2067
 49
0.1654
 74
     0
 49
-0.0413
 74
     0
  0
LTYPE
  5
84
330
5
100
AcDbSymbolTableRecord
100
AcDbLinetypeTableRecord
  2
DOTTED
 70
     0
  3
Dotted . . . . . . . . . . . . . . . . . . . . 
 72
    65
 73
     2
 40
0.0482
 49
0.0069
 74
     0
 49
-0.0413
 74
     0
  0
LTYPE
  5
85
330
5
100
AcDbSymbolTableRecord
100
AcDbLinetypeTableRecord
  2
DOUBLE_DASH_CHAIN
 70
     0
  3
Double-Dash Chain ______  __  __  ______  __  _
 72
    65
 73
     6
 40
1.240299999999999
 49
0.6614
 74
     0
 49
-0.0827
 74
     0
 49
0.1654
 74
     0
 49
-0.0827
 74
     0
 49
0.1654
 74
     0
 49
-0.0827
 74
     0
  0
LTYPE
  5
87
330
5
100
AcDbSymbolTableRecord
100
AcDbLinetypeTableRecord
  2
DOUBLE_DASH_DOUBLE_DOT
 70
     0
  3
Double-Dash Double-dot _ _ . . _ _ . . _
 72
    65
 73
     8
 40
0.7400000000000001
 49
0.24
 74
     0
 49
-0.06
 74
     0
 49
0.24
 74
     0
 49
-0.06
 74
     0
 49
0.01
 74
     0
 49
-0.06
 74
     0
 49
0.01
 74
     0
 49
-0.06
 74
     0
  0
LTYPE
  5
88
330
5
100
AcDbSymbolTableRecord
100
AcDbLinetypeTableRecord
  2
DOUBLE_DASH_TRIPLE_DOT
 70
     0
  3
Double Dash Triple Dot __ __ . . . __ __ . .
 72
    65
 73
    10
 40
0.8100000000000001
 49
0.24
 74
     0
 49
-0.06
 74
     0
 49
0.24
 74
     0
 49
-0.06
 74
     0
 49
0.01
 74
     0
 49
-0.06
 74
     0
 49
0.01
 74
     0
 49
-0.06
 74
     0
 49
0.01
 74
     0
 49
-0.06
 74
     0
  0
LTYPE
  5
89
330
5
100
AcDbSymbolTableRecord
100
AcDbLinetypeTableRecord
  2
LONG_DASH_DOTTED
 70
     0
  3
Long Dash Dotted ____ . ____ . ____ . ____ . _
 72
    65
 73
     4
 40
0.3543
 49
0.2362
 74
     0
 49
-0.0295
 74
     0
 49
0.0591
 74
     0
 49
-0.0295
 74
     0
  0
LTYPE
  5
8A
330
5
100
AcDbSymbolTableRecord
100
AcDbLinetypeTableRecord
  2
LONG_DASH_DOUBLE_DOT
 70
     0
  3
Long Dash Double Dot ________  .  .  ________  
 72
    65
 73
     6
 40
0.6799999999999999
 49
0.48
 74
     0
 49
-0.06
 74
     0
 49
0.01
 74
     0
 49
-0.06
 74
     0
 49
0.01
 74
     0
 49
-0.06
 74
     0
  0
LTYPE
  5
8B
330
5
100
AcDbSymbolTableRecord
100
AcDbLinetypeTableRecord
  2
LONG_DASH_TRIPLE_DOT
 70
     0
  3
Long Dash Triple Dot ____ ... ____ ... ____
 72
    65
 73
     8
 40
0.3689
 49
0.2362
 74
     0
 49
-0.0295
 74
     0
 49
0.0049
 74
     0
 49
-0.0295
 74
     0
 49
0.0049
 74
     0
 49
-0.0295
 74
     0
 49
0.0049
 74
     0
 49
-0.0295
 74
     0
  0
LTYPE
  5
8C
330
5
100
AcDbSymbolTableRecord
100
AcDbLinetypeTableRecord
  2
BORDER
 70
     0
  3
Border __ __ . __ __ . __ __ . __ __ . __ __ .
 72
    65
 73
     6
 40
1.75
 49
0.5
 74
     0
 49
-0.25
 74
     0
 49
0.5
 74
     0
 49
-0.25
 74
     0
 49
0.0
 74
     0
 49
-0.25
 74
     0
  0
LTYPE
  5
8D
330
5
100
AcDbSymbolTableRecord
100
AcDbLinetypeTableRecord
  2
BORDER2
 70
     0
  3
Border (.5x) __.__.__.__.__.__.__.__.__.__.__.
 72
    65
 73
     6
 40
0.875
 49
0.25
 74
     0
 49
-0.125
 74
     0
 49
0.25
 74
     0
 49
-0.125
 74
     0
 49
0.0
 74
     0
 49
-0.125
 74
     0
  0
LTYPE
  5
8E
330
5
100
AcDbSymbolTableRecord
100
AcDbLinetypeTableRecord
  2
BORDERX2
 70
     0
  3
Border (2x) ____  ____  .  ____  ____  .  ___
 72
    65
 73
     6
 40
3.5
 49
1.0
 74
     0
 49
-0.5
 74
     0
 49
1.0
 74
     0
 49
-0.5
 74
     0
 49
0.0
 74
     0
 49
-0.5
 74
     0
  0
LTYPE
  5
8F
330
5
100
AcDbSymbolTableRecord
100
AcDbLinetypeTableRecord
  2
CENTER
 70
     0
  3
Center ____ _ ____ _ ____ _ ____ _ ____ _ ____
 72
    65
 73
     4
 40
2.0
 49
1.25
 74
     0
 49
-0.25
 74
     0
 49
0.25
 74
     0
 49
-0.25
 74
     0
  0
LTYPE
  5
90
330
5
100
AcDbSymbolTableRecord
100
AcDbLinetypeTableRecord
  2
CENTER2
 70
     0
  3
Center (.5x) ___ _ ___ _ ___ _ ___ _ ___ _ ___
 72
    65
 73
     4
 40
1.125
 49
0.75
 74
     0
 49
-0.125
 74
     0
 49
0.125
 74
     0
 49
-0.125
 74
     0
  0
LTYPE
  5
91
330
5
100
AcDbSymbolTableRecord
100
AcDbLinetypeTableRecord
  2
CENTERX2
 70
     0
  3
Center (2x) ________  __  ________  __  _____
 72
    65
 73
     4
 40
4.0
 49
2.5
 74
     0
 49
-0.5
 74
     0
 49
0.5
 74
     0
 49
-0.5
 74
     0
  0
LTYPE
  5
92
330
5
100
AcDbSymbolTableRecord
100
AcDbLinetypeTableRecord
  2
DASHDOT2
 70
     0
  3
Dash dot (.5x) _._._._._._._._._._._._._._._.
 72
    65
 73
     4
 40
0.5
 49
0.25
 74
     0
 49
-0.125
 74
     0
 49
0.0
 74
     0
 49
-0.125
 74
     0
  0
LTYPE
  5
93
330
5
100
AcDbSymbolTableRecord
100
AcDbLinetypeTableRecord
  2
DASHDOTX2
 70
     0
  3
Dash dot (2x) ____  .  ____  .  ____  .  ___
 72
    65
 73
     4
 40
2.0
 49
1.0
 74
     0
 49
-0.5
 74
     0
 49
0.0
 74
     0
 49
-0.5
 74
     0
  0
LTYPE
  5
95
330
5
100
AcDbSymbolTableRecord
100
AcDbLinetypeTableRecord
  2
DASHED2
 70
     0
  3
Dashed (.5x) _ _ _ _ _ _ _ _ _ _ _ _ _ _ _ _ _
 72
    65
 73
     2
 40
0.375
 49
0.25
 74
     0
 49
-0.125
 74
     0
  0
LTYPE
  5
96
330
5
100
AcDbSymbolTableRecord
100
AcDbLinetypeTableRecord
  2
DASHEDX2
 70
     0
  3
Dashed (2x) ____  ____  ____  ____  ____  ___
 72
    65
 73
     2
 40
1.5
 49
1.0
 74
     0
 49
-0.5
 74
     0
  0
LTYPE
  5
97
330
5
100
AcDbSymbolTableRecord
100
AcDbLinetypeTableRecord
  2
DIVIDE
 70
     0
  3
Divide ____ . . ____ . . ____ . . ____ . . ____
 72
    65
 73
     6
 40
1.25
 49
0.5
 74
     0
 49
-0.25
 74
     0
 49
0.0
 74
     0
 49
-0.25
 74
     0
 49
0.0
 74
     0
 49
-0.25
 74
     0
  0
LTYPE
  5
98
330
5
100
AcDbSymbolTableRecord
100
AcDbLinetypeTableRecord
  2
DIVIDE2
 70
     0
  3
Divide (.5x) __..__..__..__..__..__..__..__.._
 72
    65
 73
     6
 40
0.625
 49
0.25
 74
     0
 49
-0.125
 74
     0
 49
0.0
 74
     0
 49
-0.125
 74
     0
 49
0.0
 74
     0
 49
-0.125
 74
     0
  0
LTYPE
  5
99
330
5
100
AcDbSymbolTableRecord
100
AcDbLinetypeTableRecord
  2
DIVIDEX2
 70
     0
  3
Divide (2x) ________  .  .  ________  .  .  _
 72
    65
 73
     6
 40
2.5
 49
1.0
 74
     0
 49
-0.5
 74
     0
 49
0.0
 74
     0
 49
-0.5
 74
     0
 49
0.0
 74
     0
 49
-0.5
 74
     0
  0
LTYPE
  5
9A
330
5
100
AcDbSymbolTableRecord
100
AcDbLinetypeTableRecord
  2
DOT
 70
     0
  3
Dot . . . . . . . . . . . . . . . . . . . . . .
 72
    65
 73
     2
 40
0.25
 49
0.0
 74
     0
 49
-0.25
 74
     0
  0
LTYPE
  5
9B
330
5
100
AcDbSymbolTableRecord
100
AcDbLinetypeTableRecord
  2
DOT2
 70
     0
  3
Dot (.5x) .....................................
 72
    65
 73
     2
 40
0.125
 49
0.0
 74
     0
 49
-0.125
 74
     0
  0
LTYPE
  5
9C
330
5
100
AcDbSymbolTableRecord
100
AcDbLinetypeTableRecord
  2
DOTX2
 70
     0
  3
Dot (2x) .  .  .  .  .  .  .  .  .  .  .  .  . 
 72
    65
 73
     2
 40
0.5
 49
0.0
 74
     0
 49
-0.5
 74
     0
  0
LTYPE
  5
9D
330
5
100
AcDbSymbolTableRecord
100
AcDbLinetypeTableRecord
  2
HIDDEN
 70
     0
  3
Hidden __ __ __ __ __ __ __ __ __ __ __ __ __ _
 72
    65
 73
     2
 40
0.375
 49
0.25
 74
     0
 49
-0.125
 74
     0
  0
LTYPE
  5
9E
330
5
100
AcDbSymbolTableRecord
100
AcDbLinetypeTableRecord
  2
HIDDEN2
 70
     0
  3
Hidden (.5x) _ _ _ _ _ _ _ _ _ _ _ _ _ _ _ _ _
 72
    65
 73
     2
 40
0.1875
 49
0.125
 74
     0
 49
-0.0625
 74
     0
  0
LTYPE
  5
9F
330
5
100
AcDbSymbolTableRecord
100
AcDbLinetypeTableRecord
  2
HIDDENX2
 70
     0
  3
Hidden (2x) ____ ____ ____ ____ ____ ____ ____
 72
    65
 73
     2
 40
0.75
 49
0.5
 74
     0
 49
-0.25
 74
     0
  0
LTYPE
  5
A0
330
5
100
AcDbSymbolTableRecord
100
AcDbLinetypeTableRecord
  2
PHANTOM
 70
     0
  3
Phantom ______  __  __  ______  __  __  ______
 72
    65
 73
     6
 40
2.5
 49
1.25
 74
     0
 49
-0.25
 74
     0
 49
0.25
 74
     0
 49
-0.25
 74
     0
 49
0.25
 74
     0
 49
-0.25
 74
     0
  0
LTYPE
  5
A1
330
5
100
AcDbSymbolTableRecord
100
AcDbLinetypeTableRecord
  2
PHANTOM2
 70
     0
  3
Phantom (.5x) ___ _ _ ___ _ _ ___ _ _ ___ _ _
 72
    65
 73
     6
 40
1.25
 49
0.625
 74
     0
 49
-0.125
 74
     0
 49
0.125
 74
     0
 49
-0.125
 74
     0
 49
0.125
 74
     0
 49
-0.125
 74
     0
  0
LTYPE
  5
A2
330
5
100
AcDbSymbolTableRecord
100
AcDbLinetypeTableRecord
  2
PHANTOMX2
 70
     0
  3
Phantom (2x) ____________    ____    ____   _
 72
    65
 73
     6
 40
5.0
 49
2.5
 74
     0
 49
-0.5
 74
     0
 49
0.5
 74
     0
 49
-0.5
 74
     0
 49
0.5
 74
     0
 49
-0.5
 74
     0
  0
LTYPE
  5
A3
330
5
100
AcDbSymbolTableRecord
100
AcDbLinetypeTableRecord
  2
ACAD_ISO02W100
 70
     0
  3
ISO dash __ __ __ __ __ __ __ __ __ __ __ __ __
 72
    65
 73
     2
 40
0.59
 49
0.47
 74
     0
 49
-0.12
 74
     0
  0
LTYPE
  5
A4
330
5
100
AcDbSymbolTableRecord
100
AcDbLinetypeTableRecord
  2
ACAD_ISO03W100
 70
     0
  3
ISO dash space __    __    __    __    __    __
 72
    65
 73
     2
 40
1.179999999999999
 49
0.47
 74
     0
 49
-0.71
 74
     0
  0
LTYPE
  5
A5
330
5
100
AcDbSymbolTableRecord
100
AcDbLinetypeTableRecord
  2
ACAD_ISO04W100
 70
     0
  3
ISO long-dash dot ____ . ____ . ____ . ____ . _
 72
    65
 73
     4
 40
1.179999999999999
 49
0.9399999999999998
 74
     0
 49
-0.12
 74
     0
 49
0.0
 74
     0
 49
-0.12
 74
     0
  0
LTYPE
  5
A6
330
5
100
AcDbSymbolTableRecord
100
AcDbLinetypeTableRecord
  2
ACAD_ISO05W100
 70
     0
  3
ISO long-dash double-dot ____ .. ____ .. ____ .
 72
    65
 73
     6
 40
1.299999999999999
 49
0.9399999999999998
 74
     0
 49
-0.12
 74
     0
 49
0.0
 74
     0
 49
-0.12
 74
     0
 49
0.0
 74
     0
 49
-0.12
 74
     0
  0
LTYPE
  5
A7
330
5
100
AcDbSymbolTableRecord
100
AcDbLinetypeTableRecord
  2
ACAD_ISO06W100
 70
     0
  3
ISO long-dash triple-dot ____ ... ____ ... ____
 72
    65
 73
     8
 40
1.419999999999999
 49
0.9399999999999998
 74
     0
 49
-0.12
 74
     0
 49
0.0
 74
     0
 49
-0.12
 74
     0
 49
0.0
 74
     0
 49
-0.12
 74
     0
 49
0.0
 74
     0
 49
-0.12
 74
     0
  0
LTYPE
  5
A8
330
5
100
AcDbSymbolTableRecord
100
AcDbLinetypeTableRecord
  2
ACAD_ISO07W100
 70
     0
  3
ISO dot . . . . . . . . . . . . . . . . . . . .
 72
    65
 73
     2
 40
0.12
 49
0.0
 74
     0
 49
-0.12
 74
     0
  0
LTYPE
  5
A9
330
5
100
AcDbSymbolTableRecord
100
AcDbLinetypeTableRecord
  2
ACAD_ISO08W100
 70
     0
  3
ISO long-dash short-dash ____ __ ____ __ ____ _
 72
    65
 73
     4
 40
0.95
 49
0.47
 74
     0
 49
-0.12
 74
     0
 49
0.24
 74
     0
 49
-0.12
 74
     0
  0
LTYPE
  5
AA
330
5
100
AcDbSymbolTableRecord
100
AcDbLinetypeTableRecord
  2
ACAD_ISO09W100
 70
     0
  3
ISO long-dash double-short-dash ____ __ __ ____
 72
    65
 73
     6
 40
1.31
 49
0.47
 74
     0
 49
-0.12
 74
     0
 49
0.24
 74
     0
 49
-0.12
 74
     0
 49
0.24
 74
     0
 49
-0.12
 74
     0
  0
LTYPE
  5
AB
330
5
100
AcDbSymbolTableRecord
100
AcDbLinetypeTableRecord
  2
ACAD_ISO10W100
 70
     0
  3
ISO dash dot __ . __ . __ . __ . __ . __ . __ .
 72
    65
 73
     4
 40
0.71
 49
0.47
 74
     0
 49
-0.12
 74
     0
 49
0.0
 74
     0
 49
-0.12
 74
     0
  0
LTYPE
  5
AC
330
5
100
AcDbSymbolTableRecord
100
AcDbLinetypeTableRecord
  2
ACAD_ISO11W100
 70
     0
  3
ISO double-dash dot __ __ . __ __ . __ __ . __ 
 72
    65
 73
     6
 40
1.299999999999999
 49
0.47
 74
     0
 49
-0.12
 74
     0
 49
0.47
 74
     0
 49
-0.12
 74
     0
 49
0.0
 74
     0
 49
-0.12
 74
     0
  0
LTYPE
  5
AD
330
5
100
AcDbSymbolTableRecord
100
AcDbLinetypeTableRecord
  2
ACAD_ISO12W100
 70
     0
  3
ISO dash double-dot __ . . __ . . __ . . __ . .
 72
    65
 73
     6
 40
0.8299999999999998
 49
0.47
 74
     0
 49
-0.12
 74
     0
 49
0.0
 74
     0
 49
-0.12
 74
     0
 49
0.0
 74
     0
 49
-0.12
 74
     0
  0
LTYPE
  5
AE
330
5
100
AcDbSymbolTableRecord
100
AcDbLinetypeTableRecord
  2
ACAD_ISO13W100
 70
     0
  3
ISO double-dash double-dot __ __ . . __ __ . . 
 72
    65
 73
     8
 40
1.419999999999999
 49
0.47
 74
     0
 49
-0.12
 74
     0
 49
0.47
 74
     0
 49
-0.12
 74
     0
 49
0.0
 74
     0
 49
-0.12
 74
     0
 49
0.0
 74
     0
 49
-0.12
 74
     0
  0
LTYPE
  5
AF
330
5
100
AcDbSymbolTableRecord
100
AcDbLinetypeTableRecord
  2
ACAD_ISO14W100
 70
     0
  3
ISO dash triple-dot __ . . . __ . . . __ . . . 
 72
    65
 73
     8
 40
0.95
 49
0.47
 74
     0
 49
-0.12
 74
     0
 49
0.0
 74
     0
 49
-0.12
 74
     0
 49
0.0
 74
     0
 49
-0.12
 74
     0
 49
0.0
 74
     0
 49
-0.12
 74
     0
  0
LTYPE
  5
B0
330
5
100
AcDbSymbolTableRecord
100
AcDbLinetypeTableRecord
  2
ACAD_ISO15W100
 70
     0
  3
ISO double-dash triple-dot __ __ . . . __ __ . 
 72
    65
 73
    10
 40
1.539999999999999
 49
0.47
 74
     0
 49
-0.12
 74
     0
 49
0.47
 74
     0
 49
-0.12
 74
     0
 49
0.0
 74
     0
 49
-0.12
 74
     0
 49
0.0
 74
     0
 49
-0.12
 74
     0
 49
0.0
 74
     0
 49
-0.12
 74
     0
  0
LTYPE
  5
B3
330
5
100
AcDbSymbolTableRecord
100
AcDbLinetypeTableRecord
  2
FENCELINE1
 70
     0
  3
Fenceline circle ----0-----0----0-----0----0---
 72
    65
 73
     4
 40
1.45
 49
0.25
 74
     0
 49
-0.1
 74
     4
 75
   133
340
B2
 46
0.1
 50
0.0
 44
-0.1
 45
0.0
 49
-0.1
 74
     0
 49
1.0
 74
     0
  0
LTYPE
  5
B4
330
5
100
AcDbSymbolTableRecord
100
AcDbLinetypeTableRecord
  2
FENCELINE2
 70
     0
  3
Fenceline square ----[]-----[]----[]-----[]----
 72
    65
 73
     4
 40
1.45
 49
0.25
 74
     0
 49
-0.1
 74
     4
 75
   132
340
B2
 46
0.1
 50
0.0
 44
-0.1
 45
0.0
 49
-0.1
 74
     0
 49
1.0
 74
     0
  0
LTYPE
  5
B5
330
5
100
AcDbSymbolTableRecord
100
AcDbLinetypeTableRecord
  2
TRACKS
 70
     0
  3
Tracks -|-|-|-|-|-|-|-|-|-|-|-|-|-|-|-|-|-|-|-|
 72
    65
 73
     2
 40
0.3
 49
0.15
 74
     4
 75
   130
340
B2
 46
0.25
 50
0.0
 44
0.0
 45
0.0
 49
0.15
 74
     0
  0
LTYPE
  5
B6
330
5
100
AcDbSymbolTableRecord
100
AcDbLinetypeTableRecord
  2
BATTING
 70
     0
  3
Batting SSSSSSSSSSSSSSSSSSSSSSSSSSSSSSSSSSSSSSS
 72
    65
 73
     4
 40
0.4001000000000001
 49
0.0001
 74
     0
 49
-0.1
 74
     4
 75
   134
340
B2
 46
0.1
 50
0.0
 44
-0.1
 45
0.0
 49
-0.2
 74
     4
 75
   134
340
B2
 46
0.1
 50
180.0
 44
0.1
 45
0.0
 49
-0.1
 74
     0
  0
LTYPE
  5
B7
330
5
100
AcDbSymbolTableRecord
100
AcDbLinetypeTableRecord
  2
HOT_WATER_SUPPLY
 70
     0
  3
Hot water supply ---- HW ---- HW ---- HW ----
 72
    65
 73
     3
 40
0.9
 49
0.5
 74
     0
 49
-0.2
 74
     2
 75
     0
340
55
 46
0.1
 50
0.0
 44
-0.1
 45
-0.05
  9
HW
 49
-0.2
 74
     0
  0
LTYPE
  5
B8
330
5
100
AcDbSymbolTableRecord
100
AcDbLinetypeTableRecord
  2
GAS_LINE
 70
     0
  3
Gas line ----GAS----GAS----GAS----GAS----GAS---
 72
    65
 73
     3
 40
0.95
 49
0.5
 74
     0
 49
-0.2
 74
     2
 75
     0
340
55
 46
0.1
 50
0.0
 44
-0.1
 45
-0.05
  9
GAS
 49
-0.25
 74
     0
  0
LTYPE
  5
B9
330
5
100
AcDbSymbolTableRecord
100
AcDbLinetypeTableRecord
  2
ZIGZAG
 70
     0
  3
Zig zag /\/\/\/\/\/\/\/\/\/\/\/\/\/\/\/\/\/\/\/
 72
    65
 73
     4
 40
0.8001000000000001
 49
0.0001
 74
     0
 49
-0.2
 74
     4
 75
   131
340
B2
 46
0.2
 50
0.0
 44
-0.2
 45
0.0
 49
-0.4
 74
     4
 75
   131
340
B2
 46
0.2
 50
180.0
 44
0.2
 45
0.0
 49
-0.2
 74
     0
  0
ENDTAB
  0
TABLE
  2
LAYER
  5
2
330
0
100
AcDbSymbolTable
 70
    27
  0
LAYER
  5
54
330
2
100
AcDbSymbolTableRecord
100
AcDbLayerTableRecord
  2
0
 70
     0
 62
     7
  6
Continuous
370
     0
390
F
  0
LAYER
  5
C0
330
2
100
AcDbSymbolTableRecord
100
AcDbLayerTableRecord
  2
Center Mark (ANSI)
 70
     0
 62
     7
  6
Continuous
370
     5
390
F
  0
LAYER
  5
C1
330
2
100
AcDbSymbolTableRecord
100
AcDbLayerTableRecord
  2
Centerline (ANSI)
 70
     0
 62
     7
  6
Continuous
370
     5
390
F
  0
LAYER
  5
C3
330
2
100
AcDbSymbolTableRecord
100
AcDbLayerTableRecord
  2
Dimension (ANSI)
 70
     0
 62
     7
  6
Continuous
370
     5
390
F
  0
LAYER
  5
CC
330
2
100
AcDbSymbolTableRecord
100
AcDbLayerTableRecord
  2
Symbol (ANSI)
 70
     0
 62
     7
  6
Continuous
370
     5
390
F
  0
LAYER
  5
CF
330
2
100
AcDbSymbolTableRecord
100
AcDbLayerTableRecord
  2
Visible (ANSI)
 70
     0
 62
     7
  6
Continuous
370
     5
390
F
  0
LAYER
  5
D0
330
2
100
AcDbSymbolTableRecord
100
AcDbLayerTableRecord
  2
Visible Narrow (ANSI)
 70
     0
 62
     7
  6
Continuous
370
     5
390
F
  0
LAYER
  5
18F
330
2
100
AcDbSymbolTableRecord
100
AcDbLayerTableRecord
  2
Defpoints
 70
     0
 62
     7
  6
Continuous
290
     0
370
    -3
390
F
  0
ENDTAB
  0
TABLE
  2
STYLE
  5
3
330
0
100
AcDbSymbolTable
 70
    10
  0
STYLE
  5
55
330
3
100
AcDbSymbolTableRecord
100
AcDbTextStyleTableRecord
  2
Standard
 70
     0
 40
0.0
 41
1.0
 50
0.0
 71
     0
 42
0.2
  3
txt
  4

  0
STYLE
  5
5A
330
3
100
AcDbSymbolTableRecord
100
AcDbTextStyleTableRecord
  2
Annotative
 70
     0
 40
0.0
 41
1.0
 50
0.0
 71
     0
 42
0.2
  3
txt
  4

1001
AcadAnnotative
1000
AnnotativeData
1002
{
1070
     1
1070
     1
1002
}
  0
STYLE
  5
B2
330
3
100
AcDbSymbolTableRecord
100
AcDbTextStyleTableRecord
  2

 70
     1
 40
0.0
 41
1.0
 50
0.0
 71
     0
 42
0.2
  3
ltypeshp.shx
  4

  0
STYLE
  5
D4
330
3
100
AcDbSymbolTableRecord
100
AcDbTextStyleTableRecord
  2
ITALICC_120
 70
     0
 40
0.0
 41
1.0
 50
0.0
 71
     0
 42
0.2
  3
italicc.shx
  4

  0
STYLE
  5
D5
330
3
100
AcDbSymbolTableRecord
100
AcDbTextStyleTableRecord
  2
Label Text (ANSI)
 70
     0
 40
0.0
 41
1.0
 50
0.0
 71
     0
 42
0.2
  3
TAHOMA.TTF
  4

1001
ACAD
1000
Tahoma
1071
      256
  0
STYLE
  5
D6
330
3
100
AcDbSymbolTableRecord
100
AcDbTextStyleTableRecord
  2
Note Text (ANSI)
 70
     0
 40
0.0
 41
1.0
 50
0.0
 71
     0
 42
0.2
  3
RomanS.shx
  4

  0
STYLE
  5
D7
330
3
100
AcDbSymbolTableRecord
100
AcDbTextStyleTableRecord
  2
ROMANS
 70
     0
 40
0.0
 41
1.0
 50
0.0
 71
     0
 42
0.2
  3
romans.shx
  4

  0
STYLE
  5
D8
330
3
100
AcDbSymbolTableRecord
100
AcDbTextStyleTableRecord
  2
SANSSERIF_114
 70
     0
 40
0.0
 41
1.0
 50
0.0
 71
     0
 42
0.2
  3
TAHOMA.TTF
  4

1001
ACAD
1000
Tahoma
1071
      256
  0
STYLE
  5
D9
330
3
100
AcDbSymbolTableRecord
100
AcDbTextStyleTableRecord
  2
SANSSERIF_117
 70
     0
 40
0.0
 41
1.0
 50
0.0
 71
     0
 42
0.2
  3
TAHOMA.TTF
  4

1001
ACAD
1000
Tahoma
1071
      256
  0
STYLE
  5
129
330
3
100
AcDbSymbolTableRecord
100
AcDbTextStyleTableRecord
  2
Text Style168
 70
     0
 40
0.0
 41
1.0
 50
0.0
 71
     0
 42
0.2
  3
TAHOMA.TTF
  4

1001
ACAD
1000
Tahoma
1071
      256
  0
ENDTAB
  0
TABLE
  2
VIEW
  5
6
330
0
100
AcDbSymbolTable
 70
     0
  0
ENDTAB
  0
TABLE
  2
UCS
  5
7
330
0
100
AcDbSymbolTable
 70
     0
  0
ENDTAB
  0
TABLE
  2
APPID
  5
9
330
0
100
AcDbSymbolTable
 70
     4
  0
APPID
  5
56
330
9
100
AcDbSymbolTableRecord
100
AcDbRegAppTableRecord
  2
ACAD
 70
     0
  0
APPID
  5
5E
330
9
100
AcDbSymbolTableRecord
100
AcDbRegAppTableRecord
  2
AcadAnnotative
 70
     0
  0
APPID
  5
910
330
9
100
AcDbSymbolTableRecord
100
AcDbRegAppTableRecord
  2
ACAD_DSTYLE_DIMRADIAL_EXTENSION
 70
     0
  0
APPID
  5
A3E
330
9
100
AcDbSymbolTableRecord
100
AcDbRegAppTableRecord
  2
ACAD_MLEADERVER
 70
     0
  0
ENDTAB
  0
TABLE
  2
DIMSTYLE
  5
A
330
0
100
AcDbSymbolTable
 70
    15
100
AcDbDimStyleTable
 71
     2
340
E2
340
58
  0
DIMSTYLE
105
58
330
A
100
AcDbSymbolTableRecord
100
AcDbDimStyleTableRecord
  2
Standard
 70
     0
340
55
  0
DIMSTYLE
105
59
330
A
100
AcDbSymbolTableRecord
100
AcDbDimStyleTableRecord
  2
Annotative
 70
     0
340
55
1001
AcadAnnotative
1000
AnnotativeData
1002
{
1070
     1
1070
     1
1002
}
  0
DIMSTYLE
105
DA
330
A
100
AcDbSymbolTableRecord
100
AcDbDimStyleTableRecord
  2
Architectural (ANSI)
 70
     0
 40
5.714285714285714
 41
0.0984251946210861
 43
0.2362204724409449
 44
0.125
 45
0.00000001
 46
0.3937007874015748
 78
     3
 79
     3
140
0.1000000014901161
146
1.200000029802321
147
0.031496062992126
171
     1
176
   256
177
   256
178
   256
272
     2
274
     1
276
     2
277
     4
284
    12
285
     4
286
    12
340
D6
371
    -1
372
    -1
  0
DIMSTYLE
105
DB
330
A
100
AcDbSymbolTableRecord
100
AcDbDimStyleTableRecord
  2
Architectural (ANSI)$7
 70
     0
 40
5.714285714285714
 41
0.0984251946210861
 43
0.2362204724409449
 44
0.125
 45
0.00000001
 46
0.3937007874015748
 78
     3
 79
     3
140
0.1000000014901161
146
1.200000029802321
147
0.031496062992126
171
     1
176
   256
177
   256
178
   256
272
     2
274
     1
276
     2
277
     4
284
    12
285
     4
286
    12
340
D6
371
    -1
372
    -1
  0
DIMSTYLE
105
DC
330
A
100
AcDbSymbolTableRecord
100
AcDbDimStyleTableRecord
  2
Default - Fraction (ANSI)
 70
     0
 40
5.714285714285714
 41
0.0984251946210861
 43
0.2362204724409449
 44
0.125
 45
0.00000001
 46
0.3937007874015748
 79
     3
140
0.1000000014901161
146
1.200000029802321
147
0.031496062992126
171
     1
176
   256
177
   256
178
   256
272
     2
274
     1
276
     2
277
     5
284
    12
285
     4
286
    12
340
D6
371
    -1
372
    -1
  0
DIMSTYLE
105
DD
330
A
100
AcDbSymbolTableRecord
100
AcDbDimStyleTableRecord
  2
Default - Fraction (ANSI)$7
 70
     0
 40
5.714285714285714
 41
0.0984251946210861
 43
0.2362204724409449
 44
0.125
 45
0.00000001
 46
0.3937007874015748
 79
     3
140
0.1000000014901161
146
1.200000029802321
147
0.031496062992126
171
     1
176
   256
177
   256
178
   256
272
     2
274
     1
276
     2
277
     5
284
    12
285
     4
286
    12
340
D6
371
    -1
372
    -1
  0
DIMSTYLE
105
DE
330
A
100
AcDbSymbolTableRecord
100
AcDbDimStyleTableRecord
  2
Default - mm (ANSI)
 70
     0
 40
5.714285714285714
 41
0.0984251946210861
 42
0.063
 43
0.2362204724409449
 44
0.125
 45
0.00000001
 46
0.3937007874015748
 73
     0
 78
     4
 79
     1
140
0.1000000014901161
143
1.0
144
25.4
146
1.200000029802321
147
0.031496062992126
171
     1
176
   256
177
   256
178
   256
179
     1
271
     2
272
     2
274
     1
284
     4
285
     4
340
D6
371
    -1
372
    -1
  0
DIMSTYLE
105
DF
330
A
100
AcDbSymbolTableRecord
100
AcDbDimStyleTableRecord
  2
Default - mm (ANSI)$7
 70
     0
 40
5.714285714285714
 41
0.0984251946210861
 42
0.063
 43
0.2362204724409449
 44
0.125
 45
0.00000001
 46
0.3937007874015748
 73
     0
 78
     4
 79
     1
140
0.1000000014901161
143
1.0
144
25.4
146
1.200000029802321
147
0.031496062992126
171
     1
176
   256
177
   256
178
   256
179
     1
271
     2
272
     2
274
     1
284
     4
285
     4
340
D6
371
    -1
372
    -1
  0
DIMSTYLE
105
E0
330
A
100
AcDbSymbolTableRecord
100
AcDbDimStyleTableRecord
  2
Default - mm [in] (ANSI)
 70
     0
  4
 in
 40
5.714285714285714
 41
0.0984251946210861
 42
0.063
 43
0.25
 44
0.125
 45
0.00000001
 46
0.3937007874015748
 73
     0
 78
     4
 79
     1
140
0.1000000014901161
143
0.03937
144
25.4
146
1.200000029802321
147
0.031496062992126
170
     1
171
     3
176
   256
177
   256
178
   256
179
     1
271
     2
272
     2
274
     3
284
     4
285
     4
286
     4
340
D6
371
    -1
372
    -1
  0
DIMSTYLE
105
E1
330
A
100
AcDbSymbolTableRecord
100
AcDbDimStyleTableRecord
  2
Default - mm [in] (ANSI)$7
 70
     0
  4
 in
 40
5.714285714285714
 41
0.0984251946210861
 42
0.063
 43
0.25
 44
0.125
 45
0.00000001
 46
0.3937007874015748
 73
     0
 78
     4
 79
     1
140
0.1000000014901161
143
0.03937
144
25.4
146
1.200000029802321
147
0.031496062992126
170
     1
171
     3
176
   256
177
   256
178
   256
179
     1
271
     2
272
     2
274
     3
284
     4
285
     4
286
     4
340
D6
371
    -1
372
    -1
  0
DIMSTYLE
105
E2
102
{ACAD_REACTORS
330
18D
330
2A4
330
38E
330
478
330
576
330
674
330
788
330
877
330
931
102
}
330
A
100
AcDbSymbolTableRecord
100
AcDbDimStyleTableRecord
  2
Default (ANSI)
 70
     0
 40
5.714285714285714
 41
0.0984251946210861
 43
0.2362204724409449
 44
0.125
 45
0.00000001
 46
0.3937007874015748
140
0.1000000014901161
147
0.031496062992126
176
   256
177
   256
178
   256
271
     2
272
     2
340
D7
371
    -1
372
    -1
  0
DIMSTYLE
105
E3
330
A
100
AcDbSymbolTableRecord
100
AcDbDimStyleTableRecord
  2
Default (ANSI)$7
 70
     0
 40
5.714285714285714
 41
0.0984251946210861
 43
0.2362204724409449
 44
0.125
 45
0.00000001
 46
0.3937007874015748
140
0.1000000014901161
147
0.031496062992126
176
   256
177
   256
178
   256
271
     2
272
     2
340
D7
371
    -1
372
    -1
  0
DIMSTYLE
105
E4
330
A
100
AcDbSymbolTableRecord
100
AcDbDimStyleTableRecord
  2
Alternate (ANSI)
 70
     0
 40
5.714285714285714
 41
0.0979999974370003
340
55
342
E5
  0
DIMSTYLE
105
F7
330
A
100
AcDbSymbolTableRecord
100
AcDbDimStyleTableRecord
  2
Datum (ANSI)
 70
     0
 40
5.714285714285714
 41
0.0979999974370003
340
55
342
E5
  0
DIMSTYLE
105
106
330
A
100
AcDbSymbolTableRecord
100
AcDbDimStyleTableRecord
  2
Large (ANSI)
 70
     0
 40
5.714285714285714
 41
0.1959999948740005
340
55
342
E5
  0
ENDTAB
  0
TABLE
  2
BLOCK_RECORD
  5
1
330
0
100
AcDbSymbolTable
 70
    13
  0
BLOCK_RECORD
  5
6C
330
1
100
AcDbSymbolTableRecord
100
AcDbBlockTableRecord
  2
*Model_Space
340
6F
  0
BLOCK_RECORD
  5
68
330
1
100
AcDbSymbolTableRecord
100
AcDbBlockTableRecord
  2
*Paper_Space
340
6B
  0
BLOCK_RECORD
  5
70
330
1
100
AcDbSymbolTableRecord
100
AcDbBlockTableRecord
  2
*Paper_Space0
340
73
  0
BLOCK_RECORD
  5
E5
330
1
100
AcDbSymbolTableRecord
100
AcDbBlockTableRecord
  2
_Closed
340
0
  0
BLOCK_RECORD
  5
EC
330
1
100
AcDbSymbolTableRecord
100
AcDbBlockTableRecord
  2
DatumFilled45
340
0
  0
BLOCK_RECORD
  5
F8
330
1
100
AcDbSymbolTableRecord
100
AcDbBlockTableRecord
  2
Filled-1
340
0
  0
BLOCK_RECORD
  5
190
330
1
100
AcDbSymbolTableRecord
100
AcDbBlockTableRecord
  2
*D4
340
0
  0
BLOCK_RECORD
  5
2A5
330
1
100
AcDbSymbolTableRecord
100
AcDbBlockTableRecord
  2
*D5
340
0
  0
BLOCK_RECORD
  5
38F
330
1
100
AcDbSymbolTableRecord
100
AcDbBlockTableRecord
  2
*D6
340
0
  0
BLOCK_RECORD
  5
479
330
1
100
AcDbSymbolTableRecord
100
AcDbBlockTableRecord
  2
*D7
340
0
  0
BLOCK_RECORD
  5
577
330
1
100
AcDbSymbolTableRecord
100
AcDbBlockTableRecord
  2
*D8
340
0
  0
BLOCK_RECORD
  5
675
330
1
100
AcDbSymbolTableRecord
100
AcDbBlockTableRecord
  2
*D9
340
0
  0
BLOCK_RECORD
  5
789
330
1
100
AcDbSymbolTableRecord
100
AcDbBlockTableRecord
  2
*D10
340
0
  0
BLOCK_RECORD
  5
878
330
1
100
AcDbSymbolTableRecord
100
AcDbBlockTableRecord
  2
*D11
340
0
  0
BLOCK_RECORD
  5
932
330
1
100
AcDbSymbolTableRecord
100
AcDbBlockTableRecord
  2
*D12
340
0
  0
ENDTAB
  0
ENDSEC
  0
SECTION
  2
BLOCKS
  0
BLOCK
  5
6D
330
6C
100
AcDbEntity
  8
0
100
AcDbBlockBegin
  2
*Model_Space
 70
     0
 10
0.0
 20
0.0
 30
0.0
  3
*Model_Space
  1

  0
ENDBLK
  5
6E
330
6C
100
AcDbEntity
  8
0
100
AcDbBlockEnd
  0
BLOCK
  5
69
330
68
100
AcDbEntity
 67
     1
  8
0
100
AcDbBlockBegin
  2
*Paper_Space
 70
     0
 10
0.0
 20
0.0
 30
0.0
  3
*Paper_Space
  1

  0
ENDBLK
  5
6A
330
68
100
AcDbEntity
 67
     1
  8
0
100
AcDbBlockEnd
  0
BLOCK
  5
71
330
70
100
AcDbEntity
 67
     1
  8
0
100
AcDbBlockBegin
  2
*Paper_Space0
 70
     0
 10
0.0
 20
0.0
 30
0.0
  3
*Paper_Space0
  1

  0
ENDBLK
  5
72
330
70
100
AcDbEntity
 67
     1
  8
0
100
AcDbBlockEnd
  0
BLOCK
  5
EA
330
E5
100
AcDbEntity
  8
0
100
AcDbBlockBegin
  2
_Closed
 70
     0
 10
0.0
 20
0.0
 30
0.0
  3
_Closed
  1

  0
LINE
  5
E6
330
E5
100
AcDbEntity
  8
0
  6
ByBlock
 62
     0
370
    -2
100
AcDbLine
 10
-1.0
 20
0.1666666666666666
 30
0.0
 11
0.0
 21
0.0
 31
0.0
  0
LINE
  5
E7
330
E5
100
AcDbEntity
  8
0
  6
ByBlock
 62
     0
370
    -2
100
AcDbLine
 10
0.0
 20
0.0
 30
0.0
 11
-1.0
 21
-0.1666666666666666
 31
0.0
  0
LINE
  5
E8
330
E5
100
AcDbEntity
  8
0
  6
ByBlock
 62
     0
370
    -2
100
AcDbLine
 10
-1.0
 20
0.1666666666666666
 30
0.0
 11
-1.0
 21
-0.1666666666666666
 31
0.0
  0
LINE
  5
E9
330
E5
100
AcDbEntity
  8
0
  6
ByBlock
 62
     0
370
    -2
100
AcDbLine
 10
0.0
 20
0.0
 30
0.0
 11
-1.0
 21
0.0
 31
0.0
  0
ENDBLK
  5
EB
330
E5
100
AcDbEntity
  8
0
100
AcDbBlockEnd
  0
BLOCK
  5
ED
330
EC
100
AcDbEntity
  8
0
100
AcDbBlockBegin
  2
DatumFilled45
 70
     0
 10
0.0
 20
0.0
 30
0.0
  3
DatumFilled45
  1

  0
POLYLINE
  5
EF
330
EC
100
AcDbEntity
  8
0
 62
     0
100
AcDb2dPolyline
 66
     1
 10
0.0
 20
0.0
 30
0.0
 70
   128
  0
VERTEX
  5
F0
330
EF
100
AcDbEntity
  8
0
 62
     0
100
AcDbVertex
100
AcDb2dVertex
 10
0.0
 20
0.9999999999999998
 30
0.0
  0
VERTEX
  5
F1
330
EF
100
AcDbEntity
  8
0
 62
     0
100
AcDbVertex
100
AcDb2dVertex
 10
0.0
 20
-0.9999999999999998
 30
0.0
  0
VERTEX
  5
F3
330
EF
100
AcDbEntity
  8
0
 62
     0
100
AcDbVertex
100
AcDb2dVertex
 10
-0.9999999999999998
 20
0.0
 30
0.0
  0
VERTEX
  5
F4
330
EF
100
AcDbEntity
  8
0
 62
     0
100
AcDbVertex
100
AcDb2dVertex
 10
0.0
 20
0.9999999999999998
 30
0.0
  0
SEQEND
  5
F2
330
EF
100
AcDbEntity
  8
0
 62
     0
  0
SOLID
  5
F6
330
EC
100
AcDbEntity
  8
0
 62
     0
100
AcDbTrace
 10
0.0
 20
0.9999999999999998
 30
0.0
 11
0.0
 21
-0.9999999999999998
 31
0.0
 12
-0.9999999999999998
 22
0.0
 32
0.0
 13
0.0
 23
0.9999999999999998
 33
0.0
  0
ENDBLK
  5
EE
330
EC
100
AcDbEntity
  8
0
100
AcDbBlockEnd
  0
BLOCK
  5
F9
330
F8
100
AcDbEntity
  8
0
100
AcDbBlockBegin
  2
Filled-1
 70
     0
 10
0.0
 20
0.0
 30
0.0
  3
Filled-1
  1

  0
LINE
  5
FB
330
F8
100
AcDbEntity
  8
0
 62
     0
100
AcDbLine
 10
-0.9999999999999998
 20
0.0
 30
0.0
 11
0.0
 21
0.0
 31
0.0
  0
POLYLINE
  5
FC
330
F8
100
AcDbEntity
  8
0
 62
     0
100
AcDb2dPolyline
 66
     1
 10
0.0
 20
0.0
 30
0.0
 70
   128
  0
VERTEX
  5
FD
330
FC
100
AcDbEntity
  8
0
 62
     0
100
AcDbVertex
100
AcDb2dVertex
 10
-0.9999999999999998
 20
-0.0994897959183674
 30
0.0
  0
VERTEX
  5
FE
330
FC
100
AcDbEntity
  8
0
 62
     0
100
AcDbVertex
100
AcDb2dVertex
 10
0.0
 20
0.0
 30
0.0
  0
VERTEX
  5
100
330
FC
100
AcDbEntity
  8
0
 62
     0
100
AcDbVertex
100
AcDb2dVertex
 10
-0.9999999999999998
 20
0.0994897959183674
 30
0.0
  0
VERTEX
  5
101
330
FC
100
AcDbEntity
  8
0
 62
     0
100
AcDbVertex
100
AcDb2dVertex
 10
-0.9999999999999998
 20
-0.0994897959183674
 30
0.0
  0
SEQEND
  5
FF
330
FC
100
AcDbEntity
  8
0
 62
     0
  0
SOLID
  5
102
330
F8
100
AcDbEntity
  8
0
 62
     0
100
AcDbTrace
 10
-0.9999999999999998
 20
-0.0994897959183674
 30
0.0
 11
0.0
 21
0.0
 31
0.0
 12
-0.9999999999999998
 22
0.0994897959183674
 32
0.0
 13
-0.9999999999999998
 23
-0.0994897959183674
 33
0.0
  0
LINE
  5
103
330
F8
100
AcDbEntity
  8
0
 62
     0
100
AcDbLine
 10
-0.9999999999999998
 20
-0.0994897959183674
 30
0.0
 11
0.0
 21
0.0
 31
0.0
  0
LINE
  5
104
330
F8
100
AcDbEntity
  8
0
 62
     0
100
AcDbLine
 10
0.0
 20
0.0
 30
0.0
 11
-0.9999999999999998
 21
0.0994897959183674
 31
0.0
  0
LINE
  5
105
330
F8
100
AcDbEntity
  8
0
 62
     0
100
AcDbLine
 10
-0.9999999999999998
 20
0.0994897959183674
 30
0.0
 11
-0.9999999999999998
 21
-0.0994897959183674
 31
0.0
  0
ENDBLK
  5
FA
330
F8
100
AcDbEntity
  8
0
100
AcDbBlockEnd
  0
BLOCK
  5
191
330
190
100
AcDbEntity
  8
0
100
AcDbBlockBegin
  2
*D4
 70
     1
 10
0.0
 20
0.0
 30
0.0
  3
*D4
  1

  0
LINE
  5
299
330
190
100
AcDbEntity
  8
Dimension (ANSI)
100
AcDbLine
 10
37.08219961120196
 20
22.03758573857144
 30
0.0
 11
42.65204802324389
 21
22.03758573857143
 31
0.0
  0
LINE
  5
29A
330
190
100
AcDbEntity
  8
Dimension (ANSI)
100
AcDbLine
 10
36.31194815465797
 20
22.91258573857144
 30
0.0
 11
42.65204802324389
 21
22.91258573857144
 31
0.0
  0
LINE
  5
29B
330
190
100
AcDbEntity
  8
Dimension (ANSI)
100
AcDbLine
 10
41.93776230895818
 20
23.4750154221205
 30
0.0
 11
41.93776230895818
 21
24.03744510566957
 31
0.0
  0
LINE
  5
29C
330
190
100
AcDbEntity
  8
Dimension (ANSI)
100
AcDbLine
 10
41.93776230895818
 20
21.47515605502237
 30
0.0
 11
41.93776230895818
 21
18.32036589305449
 31
0.0
  0
LINE
  5
29D
330
190
100
AcDbEntity
  8
Dimension (ANSI)
100
AcDbLine
 10
41.93776230895818
 20
18.32036589305449
 30
0.0
 11
41.37533262540912
 21
18.32036589305449
 31
0.0
  0
SOLID
  5
29E
330
190
100
AcDbEntity
  8
Dimension (ANSI)
100
AcDbTrace
 10
41.84402402836667
 20
23.4750154221205
 30
0.0
 11
42.03150058954969
 21
23.4750154221205
 31
0.0
 12
41.93776230895818
 22
22.91258573857144
 32
0.0
 13
41.93776230895818
 23
22.91258573857144
 33
0.0
  0
SOLID
  5
29F
330
190
100
AcDbEntity
  8
Dimension (ANSI)
100
AcDbTrace
 10
41.84402402836667
 20
21.47515605502237
 30
0.0
 11
42.03150058954969
 21
21.47515605502237
 31
0.0
 12
41.93776230895818
 22
22.03758573857143
 32
0.0
 13
41.93776230895818
 23
22.03758573857143
 33
0.0
  0
MTEXT
  5
2A0
330
190
100
AcDbEntity
  8
Dimension (ANSI)
100
AcDbMText
 10
40.32460681030207
 20
18.3203658930545
 30
0.0
 40
0.5714285799435208
 41
0.0
 71
     5
 72
     1
  1
\A1;0.88{\PTYP.}
  7
ROMANS
 73
     1
 44
1.0
1001
ACAD
1000
MTEXTBEGIN
1070
    73
1070
     1
1070
    44
1040
1.0
1070
    74
1070
     0
1000
MTEXTEND
  0
POINT
  5
2A1
330
190
100
AcDbEntity
  8
Defpoints
 62
     0
100
AcDbPoint
 10
36.7250567540591
 20
22.03758573857144
 30
0.0
  0
POINT
  5
2A2
330
190
100
AcDbEntity
  8
Defpoints
 62
     0
100
AcDbPoint
 10
35.95480529751512
 20
22.91258573857144
 30
0.0
  0
POINT
  5
2A3
330
190
100
AcDbEntity
  8
Defpoints
 62
     0
100
AcDbPoint
 10
41.93776230895818
 20
22.91258573857144
 30
0.0
  0
ENDBLK
  5
192
330
190
100
AcDbEntity
  8
0
100
AcDbBlockEnd
  0
BLOCK
  5
2A6
330
2A5
100
AcDbEntity
  8
0
100
AcDbBlockBegin
  2
*D5
 70
     1
 10
0.0
 20
0.0
 30
0.0
  3
*D5
  1

  0
LINE
  5
384
330
2A5
100
AcDbEntity
  8
Dimension (ANSI)
100
AcDbLine
 10
37.08219961120196
 20
22.03758573857144
 30
0.0
 11
43.73855506677002
 21
22.03758573857143
 31
0.0
  0
LINE
  5
385
330
2A5
100
AcDbEntity
  8
Dimension (ANSI)
100
AcDbLine
 10
37.08219961120196
 20
43.03758573857144
 30
0.0
 11
43.73855506677002
 21
43.03758573857144
 31
0.0
  0
LINE
  5
386
330
2A5
100
AcDbEntity
  8
Dimension (ANSI)
100
AcDbLine
 10
43.02426935248431
 20
22.6000154221205
 30
0.0
 11
43.02426935248431
 21
32.07189394578753
 31
0.0
  0
LINE
  5
387
330
2A5
100
AcDbEntity
  8
Dimension (ANSI)
100
AcDbLine
 10
43.02426935248431
 20
42.47515605502238
 30
0.0
 11
43.02426935248431
 21
33.00327753135535
 31
0.0
  0
SOLID
  5
388
330
2A5
100
AcDbEntity
  8
Dimension (ANSI)
100
AcDbTrace
 10
42.9305310718928
 20
22.6000154221205
 30
0.0
 11
43.11800763307582
 21
22.6000154221205
 31
0.0
 12
43.02426935248431
 22
22.03758573857143
 32
0.0
 13
43.02426935248431
 23
22.03758573857143
 33
0.0
  0
SOLID
  5
389
330
2A5
100
AcDbEntity
  8
Dimension (ANSI)
100
AcDbTrace
 10
42.9305310718928
 20
42.47515605502238
 30
0.0
 11
43.11800763307582
 21
42.47515605502238
 31
0.0
 12
43.02426935248431
 22
43.03758573857144
 32
0.0
 13
43.02426935248431
 23
43.03758573857144
 33
0.0
  0
MTEXT
  5
38A
330
2A5
100
AcDbEntity
  8
Dimension (ANSI)
100
AcDbMText
 10
41.88141219259725
 20
32.8233000285432
 30
0.0
 40
0.5714285799435208
 41
0.0
 71
     1
 72
     1
  1
\A1;21.00
  7
ROMANS
 73
     1
 44
1.0
1001
ACAD
1000
MTEXTBEGIN
1070
    73
1070
     1
1070
    44
1040
1.0
1070
    74
1070
     0
1000
MTEXTEND
  0
POINT
  5
38B
330
2A5
100
AcDbEntity
  8
Defpoints
 62
     0
100
AcDbPoint
 10
36.7250567540591
 20
22.03758573857144
 30
0.0
  0
POINT
  5
38C
330
2A5
100
AcDbEntity
  8
Defpoints
 62
     0
100
AcDbPoint
 10
36.7250567540591
 20
43.03758573857144
 30
0.0
  0
POINT
  5
38D
330
2A5
100
AcDbEntity
  8
Defpoints
 62
     0
100
AcDbPoint
 10
43.02426935248431
 20
43.03758573857144
 30
0.0
  0
ENDBLK
  5
2A7
330
2A5
100
AcDbEntity
  8
0
100
AcDbBlockEnd
  0
BLOCK
  5
390
330
38F
100
AcDbEntity
  8
0
100
AcDbBlockBegin
  2
*D6
 70
     1
 10
0.0
 20
0.0
 30
0.0
  3
*D6
  1

  0
LINE
  5
46E
330
38F
100
AcDbEntity
  8
Dimension (ANSI)
100
AcDbLine
 10
15.82980529751513
 20
43.28998005225825
 30
0.0
 11
15.82980529751513
 21
48.05347039001398
 31
0.0
  0
LINE
  5
46F
330
38F
100
AcDbEntity
  8
Dimension (ANSI)
100
AcDbLine
 10
36.82980529751514
 20
43.28998005225825
 30
0.0
 11
36.82980529751514
 21
48.05347039001398
 31
0.0
  0
LINE
  5
470
330
38F
100
AcDbEntity
  8
Dimension (ANSI)
100
AcDbLine
 10
16.3922349810642
 20
47.33918467572826
 30
0.0
 11
25.00697063481596
 21
47.33918467572826
 31
0.0
  0
LINE
  5
471
330
38F
100
AcDbEntity
  8
Dimension (ANSI)
100
AcDbLine
 10
36.26737561396608
 20
47.33918467572826
 30
0.0
 11
27.65263996021433
 21
47.33918467572826
 31
0.0
  0
SOLID
  5
472
330
38F
100
AcDbEntity
  8
Dimension (ANSI)
100
AcDbTrace
 10
16.3922349810642
 20
47.43292295631977
 30
0.0
 11
16.3922349810642
 21
47.24544639513676
 31
0.0
 12
15.82980529751513
 22
47.33918467572826
 32
0.0
 13
15.82980529751513
 23
47.33918467572826
 33
0.0
  0
SOLID
  5
473
330
38F
100
AcDbEntity
  8
Dimension (ANSI)
100
AcDbTrace
 10
36.26737561396608
 20
47.43292295631977
 30
0.0
 11
36.26737561396608
 21
47.24544639513676
 31
0.0
 12
36.82980529751514
 22
47.33918467572826
 32
0.0
 13
36.82980529751514
 23
47.33918467572826
 33
0.0
  0
MTEXT
  5
474
330
38F
100
AcDbEntity
  8
Dimension (ANSI)
100
AcDbMText
 10
25.1869481376281
 20
47.62489896570002
 30
0.0
 40
0.5714285799435208
 41
0.0
 71
     1
 72
     1
  1
\A1;21.00
  7
ROMANS
 73
     1
 44
1.0
1001
ACAD
1000
MTEXTBEGIN
1070
    73
1070
     1
1070
    44
1040
1.0
1070
    74
1070
     0
1000
MTEXTEND
  0
POINT
  5
475
330
38F
100
AcDbEntity
  8
Defpoints
 62
     0
100
AcDbPoint
 10
15.82980529751513
 20
42.93283719511539
 30
0.0
  0
POINT
  5
476
330
38F
100
AcDbEntity
  8
Defpoints
 62
     0
100
AcDbPoint
 10
36.82980529751514
 20
42.93283719511539
 30
0.0
  0
POINT
  5
477
330
38F
100
AcDbEntity
  8
Defpoints
 62
     0
100
AcDbPoint
 10
36.82980529751514
 20
47.33918467572826
 30
0.0
  0
ENDBLK
  5
391
330
38F
100
AcDbEntity
  8
0
100
AcDbBlockEnd
  0
BLOCK
  5
47A
330
479
100
AcDbEntity
  8
0
100
AcDbBlockBegin
  2
*D7
 70
     1
 10
0.0
 20
0.0
 30
0.0
  3
*D7
  1

  0
LINE
  5
56C
330
479
100
AcDbEntity
  8
Dimension (ANSI)
100
AcDbLine
 10
35.95480529751512
 20
43.51551431
 30
0.0
 11
35.95480529751512
 21
45.7401499066868
 31
0.0
  0
LINE
  5
56D
330
479
100
AcDbEntity
  8
Dimension (ANSI)
100
AcDbLine
 10
36.82980529751514
 20
43.28998005225825
 30
0.0
 11
36.82980529751514
 21
45.7401499066868
 31
0.0
  0
LINE
  5
56E
330
479
100
AcDbEntity
  8
Dimension (ANSI)
100
AcDbLine
 10
35.39237561396606
 20
45.02586419240109
 30
0.0
 11
34.82994593041699
 21
45.02586419240109
 31
0.0
  0
LINE
  5
56F
330
479
100
AcDbEntity
  8
Dimension (ANSI)
100
AcDbLine
 10
37.3922349810642
 20
45.02586419240109
 30
0.0
 11
39.15194080486291
 21
45.02586419240109
 31
0.0
  0
SOLID
  5
570
330
479
100
AcDbEntity
  8
Dimension (ANSI)
100
AcDbTrace
 10
35.39237561396606
 20
45.11960247299259
 30
0.0
 11
35.39237561396606
 21
44.93212591180958
 31
0.0
 12
35.95480529751512
 22
45.02586419240109
 32
0.0
 13
35.95480529751512
 23
45.02586419240109
 33
0.0
  0
SOLID
  5
571
330
479
100
AcDbEntity
  8
Dimension (ANSI)
100
AcDbTrace
 10
37.3922349810642
 20
45.11960247299259
 30
0.0
 11
37.3922349810642
 21
44.93212591180958
 31
0.0
 12
36.82980529751514
 22
45.02586419240109
 32
0.0
 13
36.82980529751514
 23
45.02586419240109
 33
0.0
  0
MTEXT
  5
572
330
479
100
AcDbEntity
  8
Dimension (ANSI)
100
AcDbMText
 10
40.20266661996994
 20
45.02586419240109
 30
0.0
 40
0.5714285799435208
 41
0.0
 71
     5
 72
     1
  1
\A1;0.88{\PTYP.}
  7
ROMANS
 73
     1
 44
1.0
1001
ACAD
1000
MTEXTBEGIN
1070
    73
1070
     1
1070
    44
1040
1.0
1070
    74
1070
     0
1000
MTEXTEND
  0
POINT
  5
573
330
479
100
AcDbEntity
  8
Defpoints
 62
     0
100
AcDbPoint
 10
35.95480529751512
 20
43.15837145285715
 30
0.0
  0
POINT
  5
574
330
479
100
AcDbEntity
  8
Defpoints
 62
     0
100
AcDbPoint
 10
36.82980529751514
 20
42.93283719511539
 30
0.0
  0
POINT
  5
575
330
479
100
AcDbEntity
  8
Defpoints
 62
     0
100
AcDbPoint
 10
36.82980529751514
 20
45.02586419240109
 30
0.0
  0
ENDBLK
  5
47B
330
479
100
AcDbEntity
  8
0
100
AcDbBlockEnd
  0
BLOCK
  5
578
330
577
100
AcDbEntity
  8
0
100
AcDbBlockBegin
  2
*D8
 70
     1
 10
0.0
 20
0.0
 30
0.0
  3
*D8
  1

  0
LINE
  5
66A
330
577
100
AcDbEntity
  8
Dimension (ANSI)
100
AcDbLine
 10
35.95480529751512
 20
22.55544288142858
 30
0.0
 11
35.95480529751512
 21
17.61705449815831
 31
0.0
  0
LINE
  5
66B
330
577
100
AcDbEntity
  8
Dimension (ANSI)
100
AcDbLine
 10
33.95480529751515
 20
22.55544288142858
 30
0.0
 11
33.95480529751515
 21
17.61705449815831
 31
0.0
  0
LINE
  5
66C
330
577
100
AcDbEntity
  8
Dimension (ANSI)
100
AcDbLine
 10
35.39237561396606
 20
18.33134021244402
 30
0.0
 11
34.51723498106421
 21
18.33134021244402
 31
0.0
  0
LINE
  5
66D
330
577
100
AcDbEntity
  8
Dimension (ANSI)
100
AcDbLine
 10
33.95480529751515
 20
18.33134021244402
 30
0.0
 11
31.56725468589808
 21
18.33134021244402
 31
0.0
  0
SOLID
  5
66E
330
577
100
AcDbEntity
  8
Dimension (ANSI)
100
AcDbTrace
 10
35.39237561396606
 20
18.42507849303553
 30
0.0
 11
35.39237561396606
 21
18.23760193185252
 31
0.0
 12
35.95480529751512
 22
18.33134021244402
 32
0.0
 13
35.95480529751512
 23
18.33134021244402
 33
0.0
  0
SOLID
  5
66F
330
577
100
AcDbEntity
  8
Dimension (ANSI)
100
AcDbTrace
 10
34.51723498106421
 20
18.42507849303553
 30
0.0
 11
34.51723498106421
 21
18.23760193185252
 31
0.0
 12
33.95480529751515
 22
18.33134021244402
 32
0.0
 13
33.95480529751515
 23
18.33134021244402
 33
0.0
  0
MTEXT
  5
670
330
577
100
AcDbEntity
  8
Dimension (ANSI)
100
AcDbMText
 10
30.51652887079105
 20
18.33134021244402
 30
0.0
 40
0.5714285799435208
 41
0.0
 71
     5
 72
     1
  1
\A1;2.00{\PTYP.}
  7
ROMANS
 73
     1
 44
1.0
1001
ACAD
1000
MTEXTBEGIN
1070
    73
1070
     1
1070
    44
1040
1.0
1070
    74
1070
     0
1000
MTEXTEND
  0
POINT
  5
671
330
577
100
AcDbEntity
  8
Defpoints
 62
     0
100
AcDbPoint
 10
35.95480529751512
 20
22.91258573857144
 30
0.0
  0
POINT
  5
672
330
577
100
AcDbEntity
  8
Defpoints
 62
     0
100
AcDbPoint
 10
33.95480529751515
 20
22.91258573857144
 30
0.0
  0
POINT
  5
673
330
577
100
AcDbEntity
  8
Defpoints
 62
     0
100
AcDbPoint
 10
33.95480529751515
 20
18.33134021244402
 30
0.0
  0
ENDBLK
  5
579
330
577
100
AcDbEntity
  8
0
100
AcDbBlockEnd
  0
BLOCK
  5
676
330
675
100
AcDbEntity
  8
0
100
AcDbBlockBegin
  2
*D9
 70
     1
 10
0.0
 20
0.0
 30
0.0
  3
*D9
  1

  0
LINE
  5
77D
330
675
100
AcDbEntity
  8
Dimension (ANSI)
100
AcDbLine
 10
37.06199815466549
 20
57.36346177826578
 30
0.0
 11
42.53474454157485
 21
57.36346177826578
 31
0.0
  0
LINE
  5
77E
330
675
100
AcDbEntity
  8
Dimension (ANSI)
100
AcDbLine
 10
37.08219961120945
 20
58.23846177826581
 30
0.0
 11
42.53474454157485
 21
58.23846177826581
 31
0.0
  0
LINE
  5
77F
330
675
100
AcDbEntity
  8
Dimension (ANSI)
100
AcDbLine
 10
41.82045882728913
 20
58.80089146181488
 30
0.0
 11
41.82045882728913
 21
59.36332114536394
 31
0.0
  0
LINE
  5
780
330
675
100
AcDbEntity
  8
Dimension (ANSI)
100
AcDbLine
 10
41.82045882728913
 20
56.80103209471671
 30
0.0
 11
41.82045882728913
 21
54.38570644053518
 31
0.0
  0
LINE
  5
781
330
675
100
AcDbEntity
  8
Dimension (ANSI)
100
AcDbLine
 10
41.82045882728913
 20
54.38570644053518
 30
0.0
 11
41.25802914374007
 21
54.38570644053518
 31
0.0
  0
SOLID
  5
782
330
675
100
AcDbEntity
  8
Dimension (ANSI)
100
AcDbTrace
 10
41.72672054669763
 20
58.80089146181488
 30
0.0
 11
41.91419710788064
 21
58.80089146181488
 31
0.0
 12
41.82045882728913
 22
58.23846177826581
 32
0.0
 13
41.82045882728913
 23
58.23846177826581
 33
0.0
  0
SOLID
  5
783
330
675
100
AcDbEntity
  8
Dimension (ANSI)
100
AcDbTrace
 10
41.72672054669763
 20
56.80103209471671
 30
0.0
 11
41.91419710788064
 21
56.80103209471671
 31
0.0
 12
41.82045882728913
 22
57.36346177826578
 32
0.0
 13
41.82045882728913
 23
57.36346177826578
 33
0.0
  0
MTEXT
  5
784
330
675
100
AcDbEntity
  8
Dimension (ANSI)
100
AcDbMText
 10
40.20730332863302
 20
54.38570644053519
 30
0.0
 40
0.5714285799435208
 41
0.0
 71
     5
 72
     1
  1
\A1;0.88{\PTYP.}
  7
ROMANS
 73
     1
 44
1.0
1001
ACAD
1000
MTEXTBEGIN
1070
    73
1070
     1
1070
    44
1040
1.0
1070
    74
1070
     0
1000
MTEXTEND
  0
POINT
  5
785
330
675
100
AcDbEntity
  8
Defpoints
 62
     0
100
AcDbPoint
 10
36.70485529752264
 20
57.36346177826578
 30
0.0
  0
POINT
  5
786
330
675
100
AcDbEntity
  8
Defpoints
 62
     0
100
AcDbPoint
 10
36.7250567540666
 20
58.23846177826581
 30
0.0
  0
POINT
  5
787
330
675
100
AcDbEntity
  8
Defpoints
 62
     0
100
AcDbPoint
 10
41.82045882728913
 20
58.23846177826581
 30
0.0
  0
ENDBLK
  5
677
330
675
100
AcDbEntity
  8
0
100
AcDbBlockEnd
  0
BLOCK
  5
78A
330
789
100
AcDbEntity
  8
0
100
AcDbBlockBegin
  2
*D10
 70
     1
 10
0.0
 20
0.0
 30
0.0
  3
*D10
  1

  0
LINE
  5
86F
330
789
100
AcDbEntity
  8
Dimension (ANSI)
100
AcDbLine
 10
56.54173639846885
 20
39.45250891028168
 30
0.0
 11
55.9793067149198
 21
39.45250891028168
 31
0.0
  0
LINE
  5
870
330
789
100
AcDbEntity
  8
Dimension (ANSI)
100
AcDbLine
 10
58.54159576556701
 20
39.45250891028168
 30
0.0
 11
59.49486006385994
 21
39.45250891028168
 31
0.0
  0
SOLID
  5
871
330
789
100
AcDbEntity
  8
Dimension (ANSI)
100
AcDbTrace
 10
56.54173639846885
 20
39.54624719087319
 30
0.0
 11
56.54173639846885
 21
39.35877062969017
 31
0.0
 12
57.10416608201792
 22
39.45250891028168
 32
0.0
 13
57.10416608201792
 23
39.45250891028168
 33
0.0
  0
SOLID
  5
872
330
789
100
AcDbEntity
  8
Dimension (ANSI)
100
AcDbTrace
 10
58.54159576556701
 20
39.54624719087319
 30
0.0
 11
58.54159576556701
 21
39.35877062969017
 31
0.0
 12
57.97916608201795
 22
39.45250891028168
 32
0.0
 13
57.97916608201795
 23
39.45250891028168
 33
0.0
  0
MTEXT
  5
873
330
789
100
AcDbEntity
  8
Dimension (ANSI)
100
AcDbMText
 10
60.54558587896697
 20
39.45250891028168
 30
0.0
 40
0.5714285799435208
 41
0.0
 71
     5
 72
     1
  1
\A1;0.88{\PTYP.}
  7
ROMANS
 73
     1
 44
1.0
1001
ACAD
1000
MTEXTBEGIN
1070
    73
1070
     1
1070
    44
1040
1.0
1070
    74
1070
     0
1000
MTEXTEND
  0
POINT
  5
874
330
789
100
AcDbEntity
  8
Defpoints
 62
     0
100
AcDbPoint
 10
57.97916608201795
 20
39.45250891028168
 30
0.0
  0
POINT
  5
875
330
789
100
AcDbEntity
  8
Defpoints
 62
     0
100
AcDbPoint
 10
57.10416608201792
 20
39.44312675376444
 30
0.0
  0
POINT
  5
876
330
789
100
AcDbEntity
  8
Defpoints
 62
     0
100
AcDbPoint
 10
57.10416608201792
 20
39.45250891028168
 30
0.0
  0
ENDBLK
  5
78B
330
789
100
AcDbEntity
  8
0
100
AcDbBlockEnd
  0
BLOCK
  5
879
330
878
100
AcDbEntity
  8
0
100
AcDbBlockBegin
  2
*D11
 70
     1
 10
0.0
 20
0.0
 30
0.0
  3
*D11
  1

  0
LINE
  5
929
330
878
100
AcDbEntity
  8
Dimension (ANSI)
100
AcDbLine
 10
12.07833336620541
 20
19.09830099551814
 30
0.0
 11
12.8905205544606
 21
19.09830099551814
 31
0.0
  0
LINE
  5
92A
330
878
100
AcDbEntity
  8
Dimension (ANSI)
100
AcDbLine
 10
12.8905205544606
 20
19.09830099551814
 30
0.0
 11
16.10805689543286
 21
22.31583733648938
 31
0.0
  0
MTEXT
  5
92B
102
{ACAD_XDICTIONARY
360
A45
102
}
330
878
100
AcDbEntity
  8
Dimension (ANSI)
100
AcDbMText
 10
10.41536264401603
 20
19.5608860364248
 30
0.0
 40
0.5714285799435208
 41
0.0
 71
     2
 72
     1
  1
\A1;\U+22050.56{\PTYP.\P(4 PL.)}
  7
ROMANS
 73
     1
 44
1.0
1001
ACAD
1000
MTEXTBEGIN
1070
    73
1070
     1
1070
    44
1040
1.0
1070
    74
1070
     0
1000
MTEXTEND
  0
SOLID
  5
92C
330
878
100
AcDbEntity
  8
Dimension (ANSI)
100
AcDbTrace
 10
16.04177392156985
 20
22.38212031035241
 30
0.0
 11
16.17433986929588
 21
22.24955436262634
 31
0.0
 12
16.50575473861107
 22
22.71353517966746
 32
0.0
 13
16.50575473861107
 23
22.71353517966746
 33
0.0
  0
LINE
  5
92D
330
878
100
AcDbEntity
  8
Dimension (ANSI)
100
AcDbLine
 10
16.19051958322941
 20
22.91258573857144
 30
0.0
 11
17.21909101180083
 21
22.91258573857144
 31
0.0
  0
LINE
  5
92E
330
878
100
AcDbEntity
  8
Dimension (ANSI)
100
AcDbLine
 10
16.70480529751512
 20
22.39830002428573
 30
0.0
 11
16.70480529751512
 21
23.42687145285716
 31
0.0
  0
POINT
  5
92F
330
878
100
AcDbEntity
  8
Defpoints
 62
     0
100
AcDbPoint
 10
16.50575473861107
 20
22.71353517966746
 30
0.0
  0
POINT
  5
930
330
878
100
AcDbEntity
  8
Defpoints
 62
     0
100
AcDbPoint
 10
16.90385585641916
 20
23.11163629747542
 30
0.0
  0
ENDBLK
  5
87A
330
878
100
AcDbEntity
  8
0
100
AcDbBlockEnd
  0
BLOCK
  5
933
330
932
100
AcDbEntity
  8
0
100
AcDbBlockBegin
  2
*D12
 70
     1
 10
0.0
 20
0.0
 30
0.0
  3
*D12
  1

  0
LINE
  5
9E2
330
932
100
AcDbEntity
  8
Dimension (ANSI)
100
AcDbLine
 10
11.85917856622516
 20
28.94602528160445
 30
0.0
 11
12.67136575448038
 21
28.94602528160445
 31
0.0
  0
LINE
  5
9E3
330
932
100
AcDbEntity
  8
Dimension (ANSI)
100
AcDbLine
 10
12.67136575448038
 20
28.94602528160445
 30
0.0
 11
18.19679879647182
 21
23.42059223961461
 31
0.0
  0
MTEXT
  5
9E4
102
{ACAD_XDICTIONARY
360
A47
102
}
330
932
100
AcDbEntity
  8
Dimension (ANSI)
100
AcDbMText
 10
10.19620784403577
 20
29.40861032251112
 30
0.0
 40
0.5714285799435208
 41
0.0
 71
     2
 72
     1
  1
\A1;\U+22050.31{\PTYP.\P(2 PL.)}
  7
ROMANS
 73
     1
 44
1.0
1001
ACAD
1000
MTEXTBEGIN
1070
    73
1070
     1
1070
    44
1040
1.0
1070
    74
1070
     0
1000
MTEXTEND
  0
SOLID
  5
9E5
330
932
100
AcDbEntity
  8
Dimension (ANSI)
100
AcDbTrace
 10
18.26308177033483
 20
23.48687521347764
 30
0.0
 11
18.1305158226088
 21
23.35430926575158
 31
0.0
 12
18.59449663965002
 22
23.02289439643653
 32
0.0
 13
18.59449663965002
 23
23.02289439643653
 33
0.0
  0
LINE
  5
9E6
330
932
100
AcDbEntity
  8
Dimension (ANSI)
100
AcDbLine
 10
18.19051958322942
 20
22.91258573857144
 30
0.0
 11
19.21909101180085
 21
22.91258573857144
 31
0.0
  0
LINE
  5
9E7
330
932
100
AcDbEntity
  8
Dimension (ANSI)
100
AcDbLine
 10
18.70480529751513
 20
22.39830002428573
 30
0.0
 11
18.70480529751513
 21
23.42687145285715
 31
0.0
  0
POINT
  5
9E8
330
932
100
AcDbEntity
  8
Defpoints
 62
     0
100
AcDbPoint
 10
18.59449663965002
 20
23.02289439643653
 30
0.0
  0
POINT
  5
9E9
330
932
100
AcDbEntity
  8
Defpoints
 62
     0
100
AcDbPoint
 10
18.81511395538026
 20
22.80227708070635
 30
0.0
  0
ENDBLK
  5
934
330
932
100
AcDbEntity
  8
0
100
AcDbBlockEnd
  0
ENDSEC
  0
SECTION
  2
ENTITIES
  0
CIRCLE
  5
107
330
6C
100
AcDbEntity
  8
Visible (ANSI)
100
AcDbCircle
 10
33.95480529751515
 20
22.91258573857144
 30
0.0
 40
0.156
  0
CIRCLE
  5
108
330
6C
100
AcDbEntity
  8
Visible (ANSI)
100
AcDbCircle
 10
18.70480529751514
 20
22.91258573857144
 30
0.0
 40
0.156
  0
CIRCLE
  5
109
330
6C
100
AcDbEntity
  8
Visible (ANSI)
100
AcDbCircle
 10
35.95480529751512
 20
22.91258573857144
 30
0.0
 40
0.2814999999999999
  0
CIRCLE
  5
10A
330
6C
100
AcDbEntity
  8
Visible (ANSI)
100
AcDbCircle
 10
35.95480529751512
 20
42.16258573857144
 30
0.0
 40
0.2814999999999999
  0
CIRCLE
  5
10B
330
6C
100
AcDbEntity
  8
Visible (ANSI)
100
AcDbCircle
 10
16.70480529751513
 20
42.16258573857144
 30
0.0
 40
0.2814999999999999
  0
CIRCLE
  5
10C
330
6C
100
AcDbEntity
  8
Visible (ANSI)
100
AcDbCircle
 10
16.70480529751511
 20
22.91258573857144
 30
0.0
 40
0.2814999999999999
  0
SPLINE
  5
10D
330
6C
100
AcDbEntity
  8
Visible (ANSI)
100
AcDbSpline
210
0.0
220
0.0
230
1.0
 70
     8
 71
     3
 72
    11
 73
     7
 74
     0
 42
0.0000000001
 43
0.0000000001
 40
0.0
 40
0.0
 40
0.0
 40
0.0
 40
1.483474787626995
 40
1.483474787626995
 40
1.483474787626995
 40
1.570796326794956
 40
1.570796326794956
 40
1.570796326794956
 40
1.570796326794956
 10
36.70485529751513
 20
22.16253573857144
 30
0.0
 10
36.72030815988625
 20
22.15617625687733
 30
0.0
 10
36.73463857822834
 20
22.14981677518321
 30
0.0
 10
36.73598623177581
 20
22.14345729348909
 30
0.0
 10
36.73606555849104
 20
22.14308295633522
 30
0.0
 10
36.73610529751513
 20
22.14270861918135
 30
0.0
 10
36.73610529751513
 20
22.14233428202748
 30
0.0
  0
SPLINE
  5
10E
330
6C
100
AcDbEntity
  8
Visible (ANSI)
100
AcDbSpline
210
0.0
220
0.0
230
1.0
 70
     8
 71
     3
 72
    11
 73
     7
 74
     0
 42
0.0000000001
 43
0.0000000001
 40
0.0
 40
0.0
 40
0.0
 40
0.0
 40
1.483474787627016
 40
1.483474787627016
 40
1.483474787627016
 40
1.570796326794879
 40
1.570796326794879
 40
1.570796326794879
 40
1.570796326794879
 10
36.73610529751513
 20
42.9328371951154
 30
0.0
 10
36.73610529751513
 20
42.92647771342127
 30
0.0
 10
36.72297461442882
 20
42.92011823172717
 30
0.0
 10
36.70758062906516
 20
42.91375875003304
 30
0.0
 10
36.70667449536669
 20
42.91338441287917
 30
0.0
 10
36.70576489688146
 20
42.9130100757253
 30
0.0
 10
36.70485529751513
 20
42.91263573857142
 30
0.0
  0
LINE
  5
10F
330
6C
100
AcDbEntity
  8
Visible (ANSI)
100
AcDbLine
 10
36.82980529751513
 20
42.9328371951154
 30
0.0
 11
36.73610529751513
 21
42.9328371951154
 31
0.0
  0
SPLINE
  5
110
330
6C
100
AcDbEntity
  8
Visible (ANSI)
100
AcDbSpline
210
0.0
220
0.0
230
1.0
 70
     8
 71
     3
 72
    11
 73
     7
 74
     0
 42
0.0000000001
 43
0.0000000001
 40
0.0
 40
0.0
 40
0.0
 40
0.0
 40
1.049080005790823
 40
1.049080005790823
 40
1.049080005790823
 40
1.570796326794879
 40
1.570796326794879
 40
1.570796326794879
 40
1.570796326794879
 10
36.70485529751513
 20
42.91263573857142
 30
0.0
 10
36.74854947975632
 20
42.91713302099789
 30
0.0
 10
36.79140676641112
 20
42.92163030342435
 30
0.0
 10
36.81318258627121
 20
42.92612758585081
 30
0.0
 10
36.8240118848581
 20
42.92836412227233
 30
0.0
 10
36.82980529751514
 20
42.93060065869387
 30
0.0
 10
36.82980529751514
 20
42.9328371951154
 30
0.0
  0
LINE
  5
111
330
6C
100
AcDbEntity
  8
Visible (ANSI)
100
AcDbLine
 10
36.82980529751514
 20
22.14233428202748
 30
0.0
 11
36.73610529751514
 21
22.14233428202748
 31
0.0
  0
SPLINE
  5
112
330
6C
100
AcDbEntity
  8
Visible (ANSI)
100
AcDbSpline
210
0.0
220
0.0
230
1.0
 70
     8
 71
     3
 72
    11
 73
     7
 74
     0
 42
0.0000000001
 43
0.0000000001
 40
0.0
 40
0.0
 40
0.0
 40
0.0
 40
1.04908000579083
 40
1.04908000579083
 40
1.04908000579083
 40
1.570796326794956
 40
1.570796326794956
 40
1.570796326794956
 40
1.570796326794956
 10
36.70485529751513
 20
22.16253573857144
 30
0.0
 10
36.74854947975632
 20
22.15803845614499
 30
0.0
 10
36.79140676641112
 20
22.15354117371853
 30
0.0
 10
36.81318258627121
 20
22.14904389129206
 30
0.0
 10
36.8240118848581
 20
22.14680735487053
 30
0.0
 10
36.82980529751514
 20
22.14457081844901
 30
0.0
 10
36.82980529751514
 20
22.14233428202748
 30
0.0
  0
SPLINE
  5
113
330
6C
100
AcDbEntity
  8
Visible (ANSI)
100
AcDbSpline
210
0.0
220
0.0
230
1.0
 70
     8
 71
     3
 72
    11
 73
     7
 74
     0
 42
0.0000000001
 43
0.0000000001
 40
0.0
 40
0.0
 40
0.0
 40
0.0
 40
1.483474787626946
 40
1.483474787626946
 40
1.483474787626946
 40
1.570796326794891
 40
1.570796326794891
 40
1.570796326794891
 40
1.570796326794891
 10
15.95475529751514
 20
22.16253573857144
 30
0.0
 10
15.94839581582102
 20
22.14708287620033
 30
0.0
 10
15.94203633412691
 20
22.13275245785823
 30
0.0
 10
15.93567685243279
 20
22.13140480431077
 30
0.0
 10
15.93530251527892
 20
22.13132547759554
 30
0.0
 10
15.93492817812505
 20
22.13128573857144
 30
0.0
 10
15.93455384097118
 20
22.13128573857144
 30
0.0
  0
SPLINE
  5
114
330
6C
100
AcDbEntity
  8
Visible (ANSI)
100
AcDbSpline
210
0.0
220
0.0
230
1.0
 70
     8
 71
     3
 72
    11
 73
     7
 74
     0
 42
0.0000000001
 43
0.0000000001
 40
0.0
 40
0.0
 40
0.0
 40
0.0
 40
1.483474787626946
 40
1.483474787626946
 40
1.483474787626946
 40
1.57079632679489
 40
1.57079632679489
 40
1.57079632679489
 40
1.57079632679489
 10
36.7250567540591
 20
22.13128573857144
 30
0.0
 10
36.71869727236499
 20
22.13128573857144
 30
0.0
 10
36.71233779067087
 20
22.14441642165776
 30
0.0
 10
36.70597830897675
 20
22.15981040702142
 30
0.0
 10
36.70560397182288
 20
22.16071654071988
 30
0.0
 10
36.70522963466901
 20
22.16162613920511
 30
0.0
 10
36.70485529751514
 20
22.16253573857144
 30
0.0
  0
LINE
  5
115
330
6C
100
AcDbEntity
  8
Visible (ANSI)
100
AcDbLine
 10
36.7250567540591
 20
22.03758573857144
 30
0.0
 11
36.7250567540591
 21
22.13128573857144
 31
0.0
  0
SPLINE
  5
116
330
6C
100
AcDbEntity
  8
Visible (ANSI)
100
AcDbSpline
210
0.0
220
0.0
230
1.0
 70
     8
 71
     3
 72
    11
 73
     7
 74
     0
 42
0.0000000001
 43
0.0000000001
 40
0.0
 40
0.0
 40
0.0
 40
0.0
 40
1.049080005790748
 40
1.049080005790748
 40
1.049080005790748
 40
1.57079632679489
 40
1.57079632679489
 40
1.57079632679489
 40
1.57079632679489
 10
36.70485529751514
 20
22.16253573857144
 30
0.0
 10
36.7093525799416
 20
22.11884155633025
 30
0.0
 10
36.71384986236806
 20
22.07598426967546
 30
0.0
 10
36.71834714479451
 20
22.05420844981537
 30
0.0
 10
36.72058368121604
 20
22.04337915122847
 30
0.0
 10
36.72282021763758
 20
22.03758573857144
 30
0.0
 10
36.7250567540591
 20
22.03758573857144
 30
0.0
  0
LINE
  5
117
330
6C
100
AcDbEntity
  8
Visible (ANSI)
100
AcDbLine
 10
15.93455384097118
 20
22.03758573857144
 30
0.0
 11
15.93455384097118
 21
22.13128573857144
 31
0.0
  0
SPLINE
  5
118
330
6C
100
AcDbEntity
  8
Visible (ANSI)
100
AcDbSpline
210
0.0
220
0.0
230
1.0
 70
     8
 71
     3
 72
    11
 73
     7
 74
     0
 42
0.0000000001
 43
0.0000000001
 40
0.0
 40
0.0
 40
0.0
 40
0.0
 40
1.049080005790748
 40
1.049080005790748
 40
1.049080005790748
 40
1.570796326794891
 40
1.570796326794891
 40
1.570796326794891
 40
1.570796326794891
 10
15.95475529751514
 20
22.16253573857144
 30
0.0
 10
15.95025801508868
 20
22.11884155633025
 30
0.0
 10
15.94576073266222
 20
22.07598426967546
 30
0.0
 10
15.94126345023576
 20
22.05420844981537
 30
0.0
 10
15.93902691381424
 20
22.04337915122847
 30
0.0
 10
15.93679037739271
 20
22.03758573857144
 30
0.0
 10
15.93455384097118
 20
22.03758573857144
 30
0.0
  0
SPLINE
  5
119
330
6C
100
AcDbEntity
  8
Visible (ANSI)
100
AcDbSpline
210
0.0
220
0.0
230
1.0
 70
     8
 71
     3
 72
    11
 73
     7
 74
     0
 42
0.0000000001
 43
0.0000000001
 40
0.0
 40
0.0
 40
0.0
 40
0.0
 40
1.483474787626955
 40
1.483474787626955
 40
1.483474787626955
 40
1.570796326794877
 40
1.570796326794877
 40
1.570796326794877
 40
1.570796326794877
 10
15.95475529751513
 20
42.91263573857143
 30
0.0
 10
15.93930243514402
 20
42.91899522026556
 30
0.0
 10
15.92497201680192
 20
42.92535470195967
 30
0.0
 10
15.92362436325446
 20
42.93171418365378
 30
0.0
 10
15.92354503653923
 20
42.93208852080765
 30
0.0
 10
15.92350529751513
 20
42.93246285796152
 30
0.0
 10
15.92350529751513
 20
42.9328371951154
 30
0.0
  0
SPLINE
  5
11A
330
6C
100
AcDbEntity
  8
Visible (ANSI)
100
AcDbSpline
210
0.0
220
0.0
230
1.0
 70
     8
 71
     3
 72
    11
 73
     7
 74
     0
 42
0.0000000001
 43
0.0000000001
 40
0.0
 40
0.0
 40
0.0
 40
0.0
 40
1.48347478762695
 40
1.48347478762695
 40
1.48347478762695
 40
1.57079632679489
 40
1.57079632679489
 40
1.57079632679489
 40
1.57079632679489
 10
15.92350529751514
 20
22.14233428202748
 30
0.0
 10
15.92350529751514
 20
22.1486937637216
 30
0.0
 10
15.93663598060145
 20
22.15505324541571
 30
0.0
 10
15.95202996596512
 20
22.16141272710983
 30
0.0
 10
15.95293609966358
 20
22.1617870642637
 30
0.0
 10
15.9538456981488
 20
22.16216140141757
 30
0.0
 10
15.95475529751514
 20
22.16253573857144
 30
0.0
  0
LINE
  5
11B
330
6C
100
AcDbEntity
  8
Visible (ANSI)
100
AcDbLine
 10
15.82980529751513
 20
22.14233428202748
 30
0.0
 11
15.92350529751514
 21
22.14233428202748
 31
0.0
  0
SPLINE
  5
11C
330
6C
100
AcDbEntity
  8
Visible (ANSI)
100
AcDbSpline
210
0.0
220
0.0
230
1.0
 70
     8
 71
     3
 72
    11
 73
     7
 74
     0
 42
0.0000000001
 43
0.0000000001
 40
0.0
 40
0.0
 40
0.0
 40
0.0
 40
1.049080005790747
 40
1.049080005790747
 40
1.049080005790747
 40
1.57079632679489
 40
1.57079632679489
 40
1.57079632679489
 40
1.57079632679489
 10
15.95475529751514
 20
22.16253573857144
 30
0.0
 10
15.91106111527395
 20
22.15803845614498
 30
0.0
 10
15.86820382861915
 20
22.15354117371852
 30
0.0
 10
15.84642800875907
 20
22.14904389129206
 30
0.0
 10
15.83559871017217
 20
22.14680735487053
 30
0.0
 10
15.82980529751513
 20
22.14457081844901
 30
0.0
 10
15.82980529751513
 20
22.14233428202748
 30
0.0
  0
LINE
  5
11D
330
6C
100
AcDbEntity
  8
Visible (ANSI)
100
AcDbLine
 10
15.82980529751513
 20
42.9328371951154
 30
0.0
 11
15.92350529751513
 21
42.9328371951154
 31
0.0
  0
SPLINE
  5
11E
330
6C
100
AcDbEntity
  8
Visible (ANSI)
100
AcDbSpline
210
0.0
220
0.0
230
1.0
 70
     8
 71
     3
 72
    11
 73
     7
 74
     0
 42
0.0000000001
 43
0.0000000001
 40
0.0
 40
0.0
 40
0.0
 40
0.0
 40
1.049080005790748
 40
1.049080005790748
 40
1.049080005790748
 40
1.570796326794877
 40
1.570796326794877
 40
1.570796326794877
 40
1.570796326794877
 10
15.95475529751513
 20
42.91263573857143
 30
0.0
 10
15.91106111527395
 20
42.91713302099789
 30
0.0
 10
15.86820382861915
 20
42.92163030342435
 30
0.0
 10
15.84642800875906
 20
42.92612758585081
 30
0.0
 10
15.83559871017216
 20
42.92836412227233
 30
0.0
 10
15.82980529751513
 20
42.93060065869387
 30
0.0
 10
15.82980529751513
 20
42.9328371951154
 30
0.0
  0
SPLINE
  5
11F
330
6C
100
AcDbEntity
  8
Visible (ANSI)
100
AcDbSpline
210
0.0
220
0.0
230
1.0
 70
     8
 71
     3
 72
    11
 73
     7
 74
     0
 42
0.0000000001
 43
0.0000000001
 40
0.0
 40
0.0
 40
0.0
 40
0.0
 40
1.483474787626986
 40
1.483474787626986
 40
1.483474787626986
 40
1.570796326794879
 40
1.570796326794879
 40
1.570796326794879
 40
1.570796326794879
 10
36.70485529751514
 20
42.91263573857143
 30
0.0
 10
36.71121477920925
 20
42.92808860094255
 30
0.0
 10
36.71757426090338
 20
42.94241901928464
 30
0.0
 10
36.72393374259748
 20
42.94376667283211
 30
0.0
 10
36.72430807975136
 20
42.94384599954734
 30
0.0
 10
36.72468241690524
 20
42.94388573857143
 30
0.0
 10
36.7250567540591
 20
42.94388573857143
 30
0.0
  0
SPLINE
  5
120
330
6C
100
AcDbEntity
  8
Visible (ANSI)
100
AcDbSpline
210
0.0
220
0.0
230
1.0
 70
     8
 71
     3
 72
    11
 73
     7
 74
     0
 42
0.0000000001
 43
0.0000000001
 40
0.0
 40
0.0
 40
0.0
 40
0.0
 40
1.483474787626983
 40
1.483474787626983
 40
1.483474787626983
 40
1.570796326794879
 40
1.570796326794879
 40
1.570796326794879
 40
1.570796326794879
 10
15.93455384097117
 20
42.94388573857143
 30
0.0
 10
15.94091332266528
 20
42.94388573857143
 30
0.0
 10
15.9472728043594
 20
42.93075505548512
 30
0.0
 10
15.95363228605352
 20
42.91536107012146
 30
0.0
 10
15.95400662320739
 20
42.91445493642299
 30
0.0
 10
15.95438096036126
 20
42.91354533793777
 30
0.0
 10
15.95475529751513
 20
42.91263573857143
 30
0.0
  0
LINE
  5
121
330
6C
100
AcDbEntity
  8
Visible (ANSI)
100
AcDbLine
 10
15.93455384097117
 20
43.03758573857144
 30
0.0
 11
15.93455384097117
 21
42.94388573857143
 31
0.0
  0
SPLINE
  5
122
330
6C
100
AcDbEntity
  8
Visible (ANSI)
100
AcDbSpline
210
0.0
220
0.0
230
1.0
 70
     8
 71
     3
 72
    11
 73
     7
 74
     0
 42
0.0000000001
 43
0.0000000001
 40
0.0
 40
0.0
 40
0.0
 40
0.0
 40
1.049080005790823
 40
1.049080005790823
 40
1.049080005790823
 40
1.570796326794879
 40
1.570796326794879
 40
1.570796326794879
 40
1.570796326794879
 10
15.95475529751513
 20
42.91263573857143
 30
0.0
 10
15.95025801508867
 20
42.95632992081263
 30
0.0
 10
15.94576073266221
 20
42.99918720746743
 30
0.0
 10
15.94126345023575
 20
43.02096302732751
 30
0.0
 10
15.93902691381422
 20
43.0317923259144
 30
0.0
 10
15.9367903773927
 20
43.03758573857144
 30
0.0
 10
15.93455384097117
 20
43.03758573857144
 30
0.0
  0
LINE
  5
123
330
6C
100
AcDbEntity
  8
Visible (ANSI)
100
AcDbLine
 10
36.7250567540591
 20
43.03758573857144
 30
0.0
 11
36.7250567540591
 21
42.94388573857143
 31
0.0
  0
SPLINE
  5
124
330
6C
100
AcDbEntity
  8
Visible (ANSI)
100
AcDbSpline
210
0.0
220
0.0
230
1.0
 70
     8
 71
     3
 72
    11
 73
     7
 74
     0
 42
0.0000000001
 43
0.0000000001
 40
0.0
 40
0.0
 40
0.0
 40
0.0
 40
1.049080005790823
 40
1.049080005790823
 40
1.049080005790823
 40
1.570796326794879
 40
1.570796326794879
 40
1.570796326794879
 40
1.570796326794879
 10
36.70485529751514
 20
42.91263573857143
 30
0.0
 10
36.70935257994159
 20
42.95632992081263
 30
0.0
 10
36.71384986236806
 20
42.99918720746743
 30
0.0
 10
36.71834714479451
 20
43.02096302732751
 30
0.0
 10
36.72058368121604
 20
43.0317923259144
 30
0.0
 10
36.72282021763758
 20
43.03758573857144
 30
0.0
 10
36.7250567540591
 20
43.03758573857144
 30
0.0
  0
LINE
  5
125
330
6C
100
AcDbEntity
  8
Visible (ANSI)
100
AcDbLine
 10
36.82980529751513
 20
42.9328371951154
 30
0.0
 11
36.82980529751514
 21
22.14233428202748
 31
0.0
  0
LINE
  5
126
330
6C
100
AcDbEntity
  8
Visible (ANSI)
100
AcDbLine
 10
36.7250567540591
 20
22.03758573857144
 30
0.0
 11
15.93455384097118
 21
22.03758573857144
 31
0.0
  0
LINE
  5
127
330
6C
100
AcDbEntity
  8
Visible (ANSI)
100
AcDbLine
 10
15.82980529751513
 20
22.14233428202748
 30
0.0
 11
15.82980529751513
 21
42.9328371951154
 31
0.0
  0
LINE
  5
128
330
6C
100
AcDbEntity
  8
Visible (ANSI)
100
AcDbLine
 10
15.93455384097117
 20
43.03758573857144
 30
0.0
 11
36.7250567540591
 21
43.03758573857144
 31
0.0
  0
MTEXT
  5
12A
330
6C
100
AcDbEntity
  8
Symbol (ANSI)
100
AcDbMText
 10
21.68121239326266
 20
15.30835299144768
 30
0.0
 40
0.6857142941890069
 41
0.0
 71
     7
 72
     1
  1
FRONT VIEW
  7
Text Style168
 73
     1
 44
1.0
1001
ACAD
1000
MTEXTBEGIN
1070
    73
1070
     1
1070
    44
1040
1.0
1070
    74
1070
     0
1000
MTEXTEND
  0
LINE
  5
12C
330
6C
100
AcDbEntity
  8
Symbol (ANSI)
370
    30
100
AcDbLine
 10
21.61264078830046
 20
15.16851506359116
 30
0.0
 11
27.1255836699329
 21
15.16851506359116
 31
0.0
  0
LINE
  5
12D
330
6C
100
AcDbEntity
  8
Visible (ANSI)
100
AcDbLine
 10
57.22911608201795
 20
22.14233428202748
 30
0.0
 11
57.97916608201795
 21
22.14233428202748
 31
0.0
  0
LINE
  5
12E
330
6C
100
AcDbEntity
  8
Visible (ANSI)
100
AcDbLine
 10
57.22911608201795
 20
42.9328371951154
 30
0.0
 11
57.97916608201795
 21
42.9328371951154
 31
0.0
  0
SPLINE
  5
12F
330
6C
100
AcDbEntity
  8
Visible (ANSI)
100
AcDbSpline
210
0.0
220
0.0
230
1.0
 70
     8
 71
     3
 72
    11
 73
     7
 74
     0
 42
0.0000000001
 43
0.0000000001
 40
0.0
 40
0.0
 40
0.0
 40
0.0
 40
1.049080005790823
 40
1.049080005790823
 40
1.049080005790823
 40
1.570796326794879
 40
1.570796326794879
 40
1.570796326794879
 40
1.570796326794879
 10
57.10416608201791
 20
42.91263573857142
 30
0.0
 10
57.10416608201793
 20
42.91713302099789
 30
0.0
 10
57.12896356186156
 20
42.92163030342435
 30
0.0
 10
57.16684489276675
 20
42.92612758585081
 30
0.0
 10
57.18568359761814
 20
42.92836412227233
 30
0.0
 10
57.20738659724813
 20
42.93060065869387
 30
0.0
 10
57.22911608201795
 20
42.9328371951154
 30
0.0
  0
SPLINE
  5
130
330
6C
100
AcDbEntity
  8
Visible (ANSI)
100
AcDbSpline
210
0.0
220
0.0
230
1.0
 70
     8
 71
     3
 72
    11
 73
     7
 74
     0
 42
0.0000000001
 43
0.0000000001
 40
0.0
 40
0.0
 40
0.0
 40
0.0
 40
1.04908000579083
 40
1.04908000579083
 40
1.04908000579083
 40
1.570796326794956
 40
1.570796326794956
 40
1.570796326794956
 40
1.570796326794956
 10
57.10416608201791
 20
22.16253573857144
 30
0.0
 10
57.10416608201793
 20
22.15803845614499
 30
0.0
 10
57.12896356186156
 20
22.15354117371853
 30
0.0
 10
57.16684489276675
 20
22.14904389129206
 30
0.0
 10
57.18568359761814
 20
22.14680735487053
 30
0.0
 10
57.20738659724814
 20
22.14457081844901
 30
0.0
 10
57.22911608201796
 20
22.14233428202748
 30
0.0
  0
SPLINE
  5
131
330
6C
100
AcDbEntity
  8
Visible (ANSI)
100
AcDbSpline
210
0.0
220
0.0
230
1.0
 70
     8
 71
     3
 72
     8
 73
     4
 74
     0
 42
0.0000000001
 43
0.0000000001
 40
0.0
 40
0.0
 40
0.0
 40
0.0
 40
0.9756948527145091
 40
0.9756948527145091
 40
0.9756948527145091
 40
0.9756948527145091
 10
57.22911608201792
 20
22.13128573857144
 30
0.0
 10
57.21895259396881
 20
22.13128573857144
 30
0.0
 10
57.20927465415764
 20
22.13696582583702
 30
0.0
 10
57.20345667350114
 20
22.14523409339849
 30
0.0
  0
LINE
  5
132
330
6C
100
AcDbEntity
  8
Visible (ANSI)
100
AcDbLine
 10
57.22911608201791
 20
22.03758573857144
 30
0.0
 11
57.97916608201792
 21
22.03758573857144
 31
0.0
  0
LINE
  5
133
330
6C
100
AcDbEntity
  8
Visible (ANSI)
100
AcDbLine
 10
57.97916608201792
 20
22.13128573857144
 30
0.0
 11
57.22911608201791
 21
22.13128573857144
 31
0.0
  0
LINE
  5
134
330
6C
100
AcDbEntity
  8
Visible (ANSI)
100
AcDbLine
 10
57.22911608201791
 20
22.03758573857144
 30
0.0
 11
57.22911608201791
 21
22.13128573857144
 31
0.0
  0
LINE
  5
135
330
6C
100
AcDbEntity
  8
Visible (ANSI)
100
AcDbLine
 10
57.97916608201792
 20
22.03758573857144
 30
0.0
 11
57.97916608201792
 21
22.13128573857144
 31
0.0
  0
SPLINE
  5
136
330
6C
100
AcDbEntity
  8
Visible (ANSI)
100
AcDbSpline
210
0.0
220
0.0
230
1.0
 70
     8
 71
     3
 72
    11
 73
     7
 74
     0
 42
0.0000000001
 43
0.0000000001
 40
0.0
 40
0.0
 40
0.0
 40
0.0
 40
1.049080005790748
 40
1.049080005790748
 40
1.049080005790748
 40
1.57079632679489
 40
1.57079632679489
 40
1.57079632679489
 40
1.57079632679489
 10
57.10416608201791
 20
22.16253573857144
 30
0.0
 10
57.10416608201791
 20
22.11884155633025
 30
0.0
 10
57.12896356186154
 20
22.07598426967546
 30
0.0
 10
57.16684489276672
 20
22.05420844981537
 30
0.0
 10
57.1856835976181
 20
22.04337915122847
 30
0.0
 10
57.2073865972481
 20
22.03758573857144
 30
0.0
 10
57.22911608201791
 20
22.03758573857144
 30
0.0
  0
SPLINE
  5
137
330
6C
100
AcDbEntity
  8
Visible (ANSI)
100
AcDbSpline
210
0.0
220
0.0
230
1.0
 70
     8
 71
     3
 72
    11
 73
     7
 74
     0
 42
0.0000000001
 43
0.0000000001
 40
0.5951014740804303
 40
0.5951014740804303
 40
0.5951014740804303
 40
0.5951014740804303
 40
1.483474787626986
 40
1.483474787626986
 40
1.483474787626986
 40
1.570796326794879
 40
1.570796326794879
 40
1.570796326794879
 40
1.570796326794879
 10
57.20350367309384
 20
42.92992512623452
 30
0.0
 10
57.20876514794322
 20
42.93749676031556
 30
0.0
 10
57.21717212006026
 20
42.94295963555891
 30
0.0
 10
57.22639075046791
 20
42.94376667283211
 30
0.0
 10
57.22729688416635
 20
42.94384599954734
 30
0.0
 10
57.22820648265159
 20
42.94388573857143
 30
0.0
 10
57.22911608201791
 20
42.94388573857143
 30
0.0
  0
LINE
  5
138
330
6C
100
AcDbEntity
  8
Visible (ANSI)
100
AcDbLine
 10
57.22911608201791
 20
43.03758573857144
 30
0.0
 11
57.97916608201792
 21
43.03758573857144
 31
0.0
  0
LINE
  5
139
330
6C
100
AcDbEntity
  8
Visible (ANSI)
100
AcDbLine
 10
57.22911608201791
 20
43.03758573857144
 30
0.0
 11
57.22911608201791
 21
42.94388573857143
 31
0.0
  0
SPLINE
  5
13A
330
6C
100
AcDbEntity
  8
Visible (ANSI)
100
AcDbSpline
210
0.0
220
0.0
230
1.0
 70
     8
 71
     3
 72
    11
 73
     7
 74
     0
 42
0.0000000001
 43
0.0000000001
 40
0.0
 40
0.0
 40
0.0
 40
0.0
 40
1.049080005790823
 40
1.049080005790823
 40
1.049080005790823
 40
1.570796326794879
 40
1.570796326794879
 40
1.570796326794879
 40
1.570796326794879
 10
57.10416608201791
 20
42.91263573857143
 30
0.0
 10
57.10416608201791
 20
42.95632992081263
 30
0.0
 10
57.12896356186154
 20
42.99918720746743
 30
0.0
 10
57.16684489276673
 20
43.02096302732751
 30
0.0
 10
57.1856835976181
 20
43.0317923259144
 30
0.0
 10
57.2073865972481
 20
43.03758573857144
 30
0.0
 10
57.22911608201791
 20
43.03758573857144
 30
0.0
  0
LINE
  5
13B
330
6C
100
AcDbEntity
  8
Visible (ANSI)
100
AcDbLine
 10
57.22911608201791
 20
42.94388573857143
 30
0.0
 11
57.97916608201792
 21
42.94388573857144
 31
0.0
  0
LINE
  5
13C
330
6C
100
AcDbEntity
  8
Visible (ANSI)
100
AcDbLine
 10
57.97916608201792
 20
43.03758573857144
 30
0.0
 11
57.97916608201792
 21
42.94388573857144
 31
0.0
  0
LINE
  5
13D
330
6C
100
AcDbEntity
  8
Visible (ANSI)
100
AcDbLine
 10
57.97916608201795
 20
22.14233428202748
 30
0.0
 11
57.97916608201795
 21
42.9328371951154
 31
0.0
  0
LINE
  5
13E
330
6C
100
AcDbEntity
  8
Visible (ANSI)
100
AcDbLine
 10
57.10416608201791
 20
22.16253573857144
 30
0.0
 11
57.10416608201791
 21
42.91263573857143
 31
0.0
  0
MTEXT
  5
13F
330
6C
100
AcDbEntity
  8
Symbol (ANSI)
100
AcDbMText
 10
55.44094442203597
 20
15.75582557534634
 30
0.0
 40
0.6857142941890069
 41
0.0
 71
     7
 72
     1
  1
SIDE VIEW
  7
Text Style168
 73
     1
 44
1.0
1001
ACAD
1000
MTEXTBEGIN
1070
    73
1070
     1
1070
    44
1040
1.0
1070
    74
1070
     0
1000
MTEXTEND
  0
LINE
  5
140
330
6C
100
AcDbEntity
  8
Symbol (ANSI)
370
    30
100
AcDbLine
 10
55.40583576029531
 20
15.61376491154801
 30
0.0
 11
60.03968616261243
 21
15.61376491154801
 31
0.0
  0
SPLINE
  5
141
330
6C
100
AcDbEntity
  8
Visible (ANSI)
100
AcDbSpline
210
0.0
220
0.0
230
1.0
 70
     8
 71
     3
 72
     8
 73
     4
 74
     0
 42
0.0000000001
 43
0.0000000001
 40
0.0
 40
0.0
 40
0.0
 40
0.0
 40
0.9756948527138373
 40
0.9756948527138373
 40
0.9756948527138373
 40
0.9756948527138373
 10
36.73610529752263
 20
57.48841177826578
 30
0.0
 10
36.73610529752263
 20
57.47824829021669
 30
0.0
 10
36.73042521025705
 20
57.46857035040553
 30
0.0
 10
36.7221569426956
 20
57.46275236974902
 30
0.0
  0
LINE
  5
142
330
6C
100
AcDbEntity
  8
Visible (ANSI)
100
AcDbLine
 10
36.82980529752262
 20
57.48841177826577
 30
0.0
 11
36.82980529752267
 21
58.23846177826577
 31
0.0
  0
LINE
  5
143
330
6C
100
AcDbEntity
  8
Visible (ANSI)
100
AcDbLine
 10
36.73610529752267
 20
58.23846177826578
 30
0.0
 11
36.73610529752263
 21
57.48841177826578
 31
0.0
  0
LINE
  5
144
330
6C
100
AcDbEntity
  8
Visible (ANSI)
100
AcDbLine
 10
36.82980529752262
 20
57.48841177826577
 30
0.0
 11
36.73610529752263
 21
57.48841177826578
 31
0.0
  0
LINE
  5
145
330
6C
100
AcDbEntity
  8
Visible (ANSI)
100
AcDbLine
 10
36.82980529752267
 20
58.23846177826577
 30
0.0
 11
36.73610529752267
 21
58.23846177826578
 31
0.0
  0
SPLINE
  5
146
330
6C
100
AcDbEntity
  8
Visible (ANSI)
100
AcDbSpline
210
0.0
220
0.0
230
1.0
 70
     8
 71
     3
 72
    11
 73
     7
 74
     0
 42
0.0000000001
 43
0.0000000001
 40
0.0
 40
0.0
 40
0.0
 40
0.0
 40
1.049080005790823
 40
1.049080005790823
 40
1.049080005790823
 40
1.570796326794879
 40
1.570796326794879
 40
1.570796326794879
 40
1.570796326794879
 10
36.70485529752263
 20
57.36346177826578
 30
0.0
 10
36.74854947976382
 20
57.36346177826578
 30
0.0
 10
36.79140676641863
 20
57.38825925810941
 30
0.0
 10
36.8131825862787
 20
57.42614058901459
 30
0.0
 10
36.82401188486559
 20
57.44497929386597
 30
0.0
 10
36.82980529752263
 20
57.46668229349596
 30
0.0
 10
36.82980529752263
 20
57.48841177826578
 30
0.0
  0
SPLINE
  5
147
330
6C
100
AcDbEntity
  8
Visible (ANSI)
100
AcDbSpline
210
0.0
220
0.0
230
1.0
 70
     8
 71
     3
 72
    11
 73
     7
 74
     0
 42
0.0000000001
 43
0.0000000001
 40
0.5951014740805879
 40
0.5951014740805879
 40
0.5951014740805879
 40
0.5951014740805879
 40
1.483474787626955
 40
1.483474787626955
 40
1.483474787626955
 40
1.570796326794877
 40
1.570796326794877
 40
1.570796326794877
 40
1.570796326794877
 10
15.93746590985954
 20
57.46279936934171
 30
0.0
 10
15.9298942757785
 20
57.46806084419108
 30
0.0
 10
15.92443140053515
 20
57.47646781630811
 30
0.0
 10
15.92362436326195
 20
57.48568644671577
 30
0.0
 10
15.92354503654672
 20
57.48659258041422
 30
0.0
 10
15.92350529752263
 20
57.48750217889945
 30
0.0
 10
15.92350529752263
 20
57.48841177826578
 30
0.0
  0
LINE
  5
148
330
6C
100
AcDbEntity
  8
Visible (ANSI)
100
AcDbLine
 10
15.82980529752263
 20
57.48841177826578
 30
0.0
 11
15.82980529752263
 21
58.23846177826578
 31
0.0
  0
LINE
  5
149
330
6C
100
AcDbEntity
  8
Visible (ANSI)
100
AcDbLine
 10
15.82980529752263
 20
57.48841177826578
 30
0.0
 11
15.92350529752263
 21
57.48841177826578
 31
0.0
  0
SPLINE
  5
14A
330
6C
100
AcDbEntity
  8
Visible (ANSI)
100
AcDbSpline
210
0.0
220
0.0
230
1.0
 70
     8
 71
     3
 72
    11
 73
     7
 74
     0
 42
0.0000000001
 43
0.0000000001
 40
0.0
 40
0.0
 40
0.0
 40
0.0
 40
1.049080005790748
 40
1.049080005790748
 40
1.049080005790748
 40
1.570796326794877
 40
1.570796326794877
 40
1.570796326794877
 40
1.570796326794877
 10
15.95475529752263
 20
57.36346177826578
 30
0.0
 10
15.91106111528145
 20
57.36346177826578
 30
0.0
 10
15.86820382862665
 20
57.38825925810941
 30
0.0
 10
15.84642800876656
 20
57.42614058901457
 30
0.0
 10
15.83559871017966
 20
57.44497929386596
 30
0.0
 10
15.82980529752263
 20
57.46668229349596
 30
0.0
 10
15.82980529752263
 20
57.48841177826578
 30
0.0
  0
LINE
  5
14B
330
6C
100
AcDbEntity
  8
Visible (ANSI)
100
AcDbLine
 10
15.92350529752263
 20
57.48841177826578
 30
0.0
 11
15.92350529752263
 21
58.23846177826578
 31
0.0
  0
LINE
  5
14C
330
6C
100
AcDbEntity
  8
Visible (ANSI)
100
AcDbLine
 10
15.82980529752263
 20
58.23846177826578
 30
0.0
 11
15.92350529752263
 21
58.23846177826578
 31
0.0
  0
LINE
  5
14D
330
6C
100
AcDbEntity
  8
Visible (ANSI)
100
AcDbLine
 10
36.7250567540666
 20
57.48841177826582
 30
0.0
 11
36.7250567540666
 21
58.23846177826581
 31
0.0
  0
LINE
  5
14E
330
6C
100
AcDbEntity
  8
Visible (ANSI)
100
AcDbLine
 10
15.93455384097866
 20
57.48841177826582
 30
0.0
 11
15.93455384097867
 21
58.23846177826581
 31
0.0
  0
SPLINE
  5
14F
330
6C
100
AcDbEntity
  8
Visible (ANSI)
100
AcDbSpline
210
0.0
220
0.0
230
1.0
 70
     8
 71
     3
 72
    11
 73
     7
 74
     0
 42
0.0000000001
 43
0.0000000001
 40
0.0
 40
0.0
 40
0.0
 40
0.0
 40
1.049080005790823
 40
1.049080005790823
 40
1.049080005790823
 40
1.570796326794879
 40
1.570796326794879
 40
1.570796326794879
 40
1.570796326794879
 10
15.95475529752263
 20
57.36346177826578
 30
0.0
 10
15.95025801509617
 20
57.36346177826579
 30
0.0
 10
15.94576073266971
 20
57.38825925810943
 30
0.0
 10
15.94126345024325
 20
57.42614058901462
 30
0.0
 10
15.93902691382172
 20
57.44497929386601
 30
0.0
 10
15.93679037740019
 20
57.46668229349599
 30
0.0
 10
15.93455384097866
 20
57.48841177826582
 30
0.0
  0
SPLINE
  5
150
330
6C
100
AcDbEntity
  8
Visible (ANSI)
100
AcDbSpline
210
0.0
220
0.0
230
1.0
 70
     8
 71
     3
 72
    11
 73
     7
 74
     0
 42
0.0000000001
 43
0.0000000001
 40
0.0
 40
0.0
 40
0.0
 40
0.0
 40
1.049080005790823
 40
1.049080005790823
 40
1.049080005790823
 40
1.570796326794879
 40
1.570796326794879
 40
1.570796326794879
 40
1.570796326794879
 10
36.70485529752264
 20
57.36346177826578
 30
0.0
 10
36.70935257994909
 20
57.36346177826579
 30
0.0
 10
36.71384986237555
 20
57.38825925810943
 30
0.0
 10
36.71834714480201
 20
57.42614058901462
 30
0.0
 10
36.72058368122354
 20
57.44497929386601
 30
0.0
 10
36.72282021764508
 20
57.46668229349599
 30
0.0
 10
36.7250567540666
 20
57.48841177826582
 30
0.0
  0
LINE
  5
151
330
6C
100
AcDbEntity
  8
Visible (ANSI)
100
AcDbLine
 10
36.7250567540666
 20
58.23846177826581
 30
0.0
 11
15.93455384097867
 21
58.23846177826581
 31
0.0
  0
LINE
  5
152
330
6C
100
AcDbEntity
  8
Visible (ANSI)
100
AcDbLine
 10
36.70485529752264
 20
57.36346177826578
 30
0.0
 11
15.95475529752263
 21
57.36346177826578
 31
0.0
  0
MTEXT
  5
153
330
6C
100
AcDbEntity
  8
Symbol (ANSI)
100
AcDbMText
 10
24.3658386609399
 20
53.89436477493067
 30
0.0
 40
0.6857142941890069
 41
0.0
 71
     7
 72
     1
  1
TOP VIEW
  7
Text Style168
 73
     1
 44
1.0
1001
ACAD
1000
MTEXTBEGIN
1070
    73
1070
     1
1070
    44
1040
1.0
1070
    74
1070
     0
1000
MTEXTEND
  0
LINE
  5
154
330
6C
100
AcDbEntity
  8
Symbol (ANSI)
370
    30
100
AcDbLine
 10
24.3663872337796
 20
53.75452684707416
 30
0.0
 11
28.69294424730949
 21
53.75452684707416
 31
0.0
  0
ELLIPSE
  5
155
330
6C
100
AcDbEntity
  8
Visible (ANSI)
100
AcDbEllipse
 10
85.54927404990428
 20
21.38571559463025
 30
0.0
 11
-0.0778490250071678
 21
0.1351870160386468
 31
0.0
210
0.0
220
0.0
230
0.9999999999999998
 40
0.5780931159158113
 41
0.0
 42
6.283185307179586
  0
ELLIPSE
  5
156
330
6C
100
AcDbEntity
  8
Visible (ANSI)
100
AcDbEllipse
 10
85.61552995530144
 20
21.4238698330126
 30
0.0
 11
0.0778490250071756
 21
-0.1351870160386417
 31
0.0
210
0.0
220
0.0
230
1.0
 40
0.5780931159158113
 41
3.579337952256159
 42
5.84544000851246
  0
ELLIPSE
  5
157
330
6C
100
AcDbEntity
  8
Visible (ANSI)
100
AcDbEllipse
 10
74.76589563680777
 20
27.59545022996242
 30
0.0
 11
-0.0778490250071678
 21
0.1351870160386468
 31
0.0
210
0.0
220
0.0
230
0.9999999999999998
 40
0.5780931159158113
 41
0.0
 42
6.283185307179586
  0
ELLIPSE
  5
158
330
6C
100
AcDbEntity
  8
Visible (ANSI)
100
AcDbEllipse
 10
74.83215154220494
 20
27.63360446834477
 30
0.0
 11
0.077849025007176
 21
-0.1351870160386424
 31
0.0
210
0.0
220
0.0
230
1.0
 40
0.5780931159158115
 41
3.57933795225613
 42
5.84544000851246
  0
ELLIPSE
  5
159
330
6C
100
AcDbEntity
  8
Visible (ANSI)
100
AcDbEllipse
 10
86.96348761227756
 20
20.57132416704571
 30
0.0
 11
-0.1404775675610111
 21
0.2439432372748659
 31
0.0
210
0.0
220
0.0
230
1.0
 40
0.5780931159158113
 41
0.0
 42
6.283185307179586
  0
ELLIPSE
  5
15A
330
6C
100
AcDbEntity
  8
Visible (ANSI)
100
AcDbEllipse
 10
87.02974351767473
 20
20.60947840542805
 30
0.0
 11
-0.1404775675610122
 21
0.243943237274868
 31
0.0
210
0.0
220
0.0
230
0.9999999999999998
 40
0.5780931159158112
 41
0.2371295998376155
 42
2.904463053752264
  0
ELLIPSE
  5
15B
330
6C
100
AcDbEntity
  8
Visible (ANSI)
100
AcDbEllipse
 10
86.96348761227756
 20
36.30910632026457
 30
0.0
 11
-0.1404775675610111
 21
0.2439432372748659
 31
0.0
210
0.0
220
0.0
230
1.0
 40
0.5780931159158113
 41
0.0
 42
6.283185307179586
  0
ELLIPSE
  5
15C
330
6C
100
AcDbEntity
  8
Visible (ANSI)
100
AcDbEllipse
 10
87.02974351767473
 20
36.34726055864691
 30
0.0
 11
-0.1404775675610118
 21
0.2439432372748672
 31
0.0
210
0.0
220
0.0
230
0.9999999999999998
 40
0.5780931159158113
 41
0.2371295998376155
 42
2.904463053752282
  0
ELLIPSE
  5
15D
330
6C
100
AcDbEntity
  8
Visible (ANSI)
100
AcDbEllipse
 10
73.35168207443446
 20
44.14762381076584
 30
0.0
 11
-0.1404775675610111
 21
0.2439432372748659
 31
0.0
210
0.0
220
0.0
230
1.0
 40
0.5780931159158113
 41
0.0
 42
6.283185307179586
  0
ELLIPSE
  5
15E
330
6C
100
AcDbEntity
  8
Visible (ANSI)
100
AcDbEllipse
 10
73.41793797983164
 20
44.18577804914817
 30
0.0
 11
-0.1404775675610114
 21
0.2439432372748665
 31
0.0
210
0.0
220
0.0
230
1.0
 40
0.5780931159158113
 41
0.2371295998375098
 42
2.904463053752174
  0
ELLIPSE
  5
15F
330
6C
100
AcDbEntity
  8
Visible (ANSI)
100
AcDbEllipse
 10
73.35168207443446
 20
28.40984165754698
 30
0.0
 11
-0.1404775675610111
 21
0.2439432372748659
 31
0.0
210
0.0
220
0.0
230
1.0
 40
0.5780931159158113
 41
0.0
 42
6.283185307179586
  0
ELLIPSE
  5
160
330
6C
100
AcDbEntity
  8
Visible (ANSI)
100
AcDbEllipse
 10
73.41793797983164
 20
28.44799589592933
 30
0.0
 11
-0.1404775675610111
 21
0.2439432372748659
 31
0.0
210
0.0
220
0.0
230
0.9999999999999998
 40
0.5780931159158113
 41
0.2371295998375098
 42
2.904463053752184
  0
SPLINE
  5
161
330
6C
100
AcDbEntity
  8
Visible (ANSI)
100
AcDbSpline
210
0.0
220
0.0
230
1.0
 70
     8
 71
     3
 72
    11
 73
     7
 74
     0
 42
0.0000000001
 43
0.0000000001
 40
0.0
 40
0.0
 40
0.0
 40
0.0
 40
1.483474787627016
 40
1.483474787627016
 40
1.483474787627016
 40
1.570796326794879
 40
1.570796326794879
 40
1.570796326794879
 40
1.570796326794879
 10
87.60430313272793
 20
36.67156027722031
 30
0.0
 10
87.59337630895657
 20
36.66006876192245
 30
0.0
 10
87.5739583779177
 20
36.6543810588941
 30
0.0
 10
87.56212025151548
 20
36.65490148902965
 30
0.0
 10
87.56142342577437
 20
36.65493212302548
 30
0.0
 10
87.56075214278387
 20
36.65498028780579
 30
0.0
 10
87.56010895890378
 20
36.65504463450516
 30
0.0
  0
LINE
  5
162
330
6C
100
AcDbEntity
  8
Visible (ANSI)
100
AcDbLine
 10
87.67055903812515
 20
19.63619015821252
 30
0.0
 11
88.20092447935406
 21
19.94160730334249
 31
0.0
  0
LINE
  5
163
330
6C
100
AcDbEntity
  8
Visible (ANSI)
100
AcDbLine
 10
87.67055903812511
 20
36.63340603883798
 30
0.0
 11
88.20092447935405
 21
36.93882318396794
 31
0.0
  0
LINE
  5
164
330
6C
100
AcDbEntity
  8
Visible (ANSI)
100
AcDbLine
 10
88.13466857395686
 20
36.97697742235028
 30
0.0
 11
87.60430313272793
 21
36.67156027722031
 31
0.0
  0
LINE
  5
165
330
6C
100
AcDbEntity
  8
Visible (ANSI)
100
AcDbLine
 10
87.67055903812511
 20
36.63340603883798
 30
0.0
 11
87.60430313272793
 21
36.67156027722031
 31
0.0
  0
LINE
  5
166
330
6C
100
AcDbEntity
  8
Visible (ANSI)
100
AcDbLine
 10
88.20092447935405
 20
36.93882318396794
 30
0.0
 11
88.13466857395686
 21
36.97697742235028
 31
0.0
  0
LINE
  5
167
330
6C
100
AcDbEntity
  8
Visible (ANSI)
100
AcDbLine
 10
87.49385305350662
 20
36.61689039612281
 30
0.0
 11
87.56010895890378
 21
36.65504463450516
 31
0.0
  0
SPLINE
  5
168
330
6C
100
AcDbEntity
  8
Visible (ANSI)
100
AcDbSpline
210
0.0
220
0.0
230
1.0
 70
     8
 71
     3
 72
    11
 73
     7
 74
     0
 42
0.0000000001
 43
0.0000000001
 40
0.0
 40
0.0
 40
0.0
 40
0.0
 40
1.049080005790823
 40
1.049080005790823
 40
1.049080005790823
 40
1.570796326794879
 40
1.570796326794879
 40
1.570796326794879
 40
1.570796326794879
 10
87.49385305350662
 20
36.6168903961228
 30
0.0
 10
87.52474950606776
 20
36.60277505271389
 30
0.0
 10
87.57258865023841
 20
36.59909791710582
 30
0.0
 10
87.61477262609078
 20
36.60933275248919
 30
0.0
 10
87.63575107250625
 20
36.61442262231114
 30
0.0
 10
87.65519397209272
 20
36.62272941185576
 30
0.0
 10
87.67055903812515
 20
36.63340603883798
 30
0.0
  0
SPLINE
  5
169
330
6C
100
AcDbEntity
  8
Visible (ANSI)
100
AcDbSpline
210
0.0
220
0.0
230
1.0
 70
     8
 71
     3
 72
    11
 73
     7
 74
     0
 42
0.0000000001
 43
0.0000000001
 40
0.0
 40
0.0
 40
0.0
 40
0.0
 40
1.04908000579083
 40
1.04908000579083
 40
1.04908000579083
 40
1.570796326794956
 40
1.570796326794956
 40
1.570796326794956
 40
1.570796326794956
 10
87.49385305350662
 20
19.65270580092766
 30
0.0
 10
87.52474950606776
 20
19.63123697688403
 30
0.0
 10
87.57258865023841
 20
19.62020636064126
 30
0.0
 10
87.61477262609078
 20
19.6230877153899
 30
0.0
 10
87.63575107250627
 20
19.6245206373698
 30
0.0
 10
87.65519397209272
 20
19.62917047907237
 30
0.0
 10
87.67055903812515
 20
19.63619015821253
 30
0.0
  0
LINE
  5
16A
330
6C
100
AcDbEntity
  8
Visible (ANSI)
100
AcDbLine
 10
87.59649063272796
 20
19.59320644559988
 30
0.0
 11
88.12685607395684
 21
19.89862359072987
 31
0.0
  0
LINE
  5
16B
330
6C
100
AcDbEntity
  8
Visible (ANSI)
100
AcDbLine
 10
87.59649063272796
 20
19.59320644559988
 30
0.0
 11
87.59649063272796
 21
19.62264027511675
 31
0.0
  0
LINE
  5
16C
330
6C
100
AcDbEntity
  8
Visible (ANSI)
100
AcDbLine
 10
88.12685607395684
 20
19.89862359072987
 30
0.0
 11
88.12685607395684
 21
19.89895414542117
 31
0.0
  0
SPLINE
  5
16D
330
6C
100
AcDbEntity
  8
Visible (ANSI)
100
AcDbSpline
210
0.0
220
0.0
230
1.0
 70
     8
 71
     3
 72
    11
 73
     7
 74
     0
 42
0.0000000001
 43
0.0000000001
 40
0.0
 40
0.0
 40
0.0
 40
0.0
 40
1.049080005790748
 40
1.049080005790748
 40
1.049080005790748
 40
1.57079632679489
 40
1.57079632679489
 40
1.57079632679489
 40
1.57079632679489
 10
87.49385305350662
 20
19.65270580092765
 30
0.0
 10
87.49703311240727
 20
19.61515247373626
 30
0.0
 10
87.51774763746171
 20
19.58838077563049
 30
0.0
 10
87.54771384232578
 20
19.58417185816236
 30
0.0
 10
87.56261628834499
 20
19.58207872806287
 30
0.0
 10
87.5795440966255
 20
19.58526900058327
 30
0.0
 10
87.59649063272796
 20
19.59320644559987
 30
0.0
  0
SPLINE
  5
16E
330
6C
100
AcDbEntity
  8
Visible (ANSI)
100
AcDbSpline
210
0.0
220
0.0
230
1.0
 70
     8
 71
     3
 72
     8
 73
     4
 74
     0
 42
0.0000000001
 43
0.0000000001
 40
0.0
 40
0.0
 40
0.0
 40
0.0
 40
0.7873318718204803
 40
0.7873318718204803
 40
0.7873318718204803
 40
0.7873318718204803
 10
72.82131663320543
 20
28.10205758168872
 30
0.0
 10
72.81893000710166
 20
28.07662263843393
 30
0.0
 10
72.82641960639463
 20
28.05726040923041
 30
0.0
 10
72.84028417298855
 20
28.04895096365084
 30
0.0
  0
LINE
  5
16F
330
6C
100
AcDbEntity
  8
Visible (ANSI)
100
AcDbLine
 10
73.28196128746218
 20
28.3582287412217
 30
0.0
 11
73.42575047983148
 21
28.4410314301228
 31
0.0
  0
LINE
  5
170
330
6C
100
AcDbEntity
  8
Visible (ANSI)
100
AcDbLine
 10
72.82131663320538
 20
45.18451602847572
 30
0.0
 11
72.89318244257012
 21
45.2259007956992
 31
0.0
  0
LINE
  5
171
330
6C
100
AcDbEntity
  8
Visible (ANSI)
100
AcDbLine
 10
73.41793797983147
 20
28.45456305459793
 30
0.0
 11
73.27410490762547
 21
28.37173509697942
 31
0.0
  0
SPLINE
  5
172
330
6C
100
AcDbEntity
  8
Visible (ANSI)
100
AcDbSpline
210
0.0
220
0.0
230
1.0
 70
     8
 71
     3
 72
     8
 73
     4
 74
     0
 42
0.0000000001
 43
0.0000000001
 40
0.0
 40
0.0
 40
0.0
 40
0.0
 40
0.7853981633975997
 40
0.7853981633975997
 40
0.7853981633975997
 40
0.7853981633975997
 10
72.82131663320543
 20
28.10205758168872
 30
0.0
 10
72.79818587390862
 20
28.11262509296326
 30
0.0
 10
72.7852145666749
 20
28.1286610403726
 30
0.0
 10
72.78493390780628
 20
28.14470496275772
 30
0.0
  0
LINE
  5
173
330
6C
100
AcDbEntity
  8
Visible (ANSI)
100
AcDbLine
 10
72.82131663320538
 20
45.18451602847572
 30
0.0
 11
72.84645952328706
 21
45.1700372010256
 31
0.0
  0
SPLINE
  5
174
330
6C
100
AcDbEntity
  8
Visible (ANSI)
100
AcDbSpline
210
0.0
220
0.0
230
1.0
 70
     8
 71
     3
 72
    11
 73
     7
 74
     0
 42
0.0000000001
 43
0.0000000001
 40
0.0
 40
0.0
 40
0.0
 40
0.0
 40
1.049080005790748
 40
1.049080005790748
 40
1.049080005790748
 40
1.570796326794877
 40
1.570796326794877
 40
1.570796326794877
 40
1.570796326794877
 10
72.82131663320541
 20
45.06624217688386
 30
0.0
 10
72.79042018064427
 20
45.0877110009275
 30
0.0
 10
72.77764996878116
 20
45.11893647218062
 30
0.0
 10
72.7890382848556
 20
45.14690534858666
 30
0.0
 10
72.79470179033849
 20
45.16081450634453
 30
0.0
 10
72.80595156717295
 20
45.1738394014935
 30
0.0
 10
72.82131663320538
 20
45.18451602847572
 30
0.0
  0
SPLINE
  5
175
330
6C
100
AcDbEntity
  8
Visible (ANSI)
100
AcDbSpline
210
0.0
220
0.0
230
1.0
 70
     8
 71
     3
 72
    11
 73
     7
 74
     0
 42
0.0000000001
 43
0.0000000001
 40
0.0
 40
0.0
 40
0.0
 40
0.0
 40
1.483474787626986
 40
1.483474787626986
 40
1.483474787626986
 40
1.570796326794879
 40
1.570796326794879
 40
1.570796326794879
 40
1.570796326794879
 10
87.56010895890378
 20
36.65504463450516
 30
0.0
 10
87.56460579153452
 20
36.66508852401947
 30
0.0
 10
87.57838741921721
 20
36.67956152051697
 30
0.0
 10
87.5937694432881
 20
36.68434210197046
 30
0.0
 10
87.59467487291088
 20
36.68462350057199
 30
0.0
 10
87.59558275250791
 20
36.68487394521676
 30
0.0
 10
87.59649063272794
 20
36.68509190169544
 30
0.0
  0
LINE
  5
176
330
6C
100
AcDbEntity
  8
Visible (ANSI)
100
AcDbLine
 10
87.59649063272794
 20
36.76169606729319
 30
0.0
 11
88.12685607395684
 21
37.06711321242318
 31
0.0
  0
LINE
  5
177
330
6C
100
AcDbEntity
  8
Visible (ANSI)
100
AcDbLine
 10
72.89538503860256
 20
45.22749974108837
 30
0.0
 11
73.42575047983146
 21
45.53291688621836
 31
0.0
  0
SPLINE
  5
178
330
6C
100
AcDbEntity
  8
Visible (ANSI)
100
AcDbSpline
210
0.0
220
0.0
230
1.0
 70
     8
 71
     3
 72
    11
 73
     7
 74
     0
 42
0.0000000001
 43
0.0000000001
 40
0.0
 40
0.0
 40
0.0
 40
0.0
 40
1.049080005790823
 40
1.049080005790823
 40
1.049080005790823
 40
1.570796326794879
 40
1.570796326794879
 40
1.570796326794879
 40
1.570796326794879
 10
72.82131663320541
 20
45.06624217688386
 30
0.0
 10
72.81813657430475
 20
45.10379550407527
 30
0.0
 10
72.83249098155784
 20
45.1507620571914
 30
0.0
 10
72.85609706862061
 20
45.18582120581421
 30
0.0
 10
72.86783657449976
 20
45.20325641565146
 30
0.0
 10
72.88160144264018
 20
45.21774087998259
 30
0.0
 10
72.89538503860256
 20
45.22749974108837
 30
0.0
  0
LINE
  5
179
330
6C
100
AcDbEntity
  8
Visible (ANSI)
100
AcDbLine
 10
87.59649063272794
 20
36.76169606729319
 30
0.0
 11
87.59649063272794
 21
36.68509190169544
 31
0.0
  0
SPLINE
  5
17A
330
6C
100
AcDbEntity
  8
Visible (ANSI)
100
AcDbSpline
210
0.0
220
0.0
230
1.0
 70
     8
 71
     3
 72
    11
 73
     7
 74
     0
 42
0.0000000001
 43
0.0000000001
 40
0.0
 40
0.0
 40
0.0
 40
0.0
 40
1.049080005790823
 40
1.049080005790823
 40
1.049080005790823
 40
1.570796326794879
 40
1.570796326794879
 40
1.570796326794879
 40
1.570796326794879
 10
87.49385305350662
 20
36.61689039612281
 30
0.0
 10
87.49703311240727
 20
36.65078117505867
 30
0.0
 10
87.51774763746171
 20
36.69408517991927
 30
0.0
 10
87.54771384232578
 20
36.72548178028654
 30
0.0
 10
87.56261628834499
 20
36.74109557403461
 30
0.0
 10
87.5795440966255
 20
36.75375862227658
 30
0.0
 10
87.59649063272794
 20
36.76169606729318
 30
0.0
  0
LINE
  5
17B
330
6C
100
AcDbEntity
  8
Visible (ANSI)
100
AcDbLine
 10
87.59649063272794
 20
36.68509190169544
 30
0.0
 11
88.12685607395684
 21
36.99050904682543
 31
0.0
  0
LINE
  5
17C
330
6C
100
AcDbEntity
  8
Visible (ANSI)
100
AcDbLine
 10
88.12685607395684
 20
37.06711321242318
 30
0.0
 11
88.12685607395684
 21
36.99050904682543
 31
0.0
  0
LINE
  5
17D
330
6C
100
AcDbEntity
  8
Visible Narrow (ANSI)
100
AcDbLine
 10
87.67055903812511
 20
36.63340603883798
 30
0.0
 11
87.67055903812515
 21
19.63619015821252
 31
0.0
  0
LINE
  5
17E
330
6C
100
AcDbEntity
  8
Visible Narrow (ANSI)
100
AcDbLine
 10
87.49385305350662
 20
19.65270580092766
 30
0.0
 11
87.49385305350662
 21
36.61689039612281
 31
0.0
  0
LINE
  5
17F
330
6C
100
AcDbEntity
  8
Visible Narrow (ANSI)
100
AcDbLine
 10
72.82131663320543
 20
28.10205758168872
 30
0.0
 11
87.49385305350662
 21
19.65270580092766
 31
0.0
  0
LINE
  5
180
330
6C
100
AcDbEntity
  8
Visible Narrow (ANSI)
100
AcDbLine
 10
72.82131663320541
 20
45.06624217688386
 30
0.0
 11
72.82131663320543
 21
28.10205758168872
 31
0.0
  0
LINE
  5
181
330
6C
100
AcDbEntity
  8
Visible Narrow (ANSI)
100
AcDbLine
 10
72.89538503860256
 20
45.22749974108837
 30
0.0
 11
87.59649063272794
 21
36.76169606729319
 31
0.0
  0
LINE
  5
182
330
6C
100
AcDbEntity
  8
Visible Narrow (ANSI)
100
AcDbLine
 10
87.49385305350662
 20
36.61689039612281
 30
0.0
 11
72.82131663320541
 21
45.06624217688386
 31
0.0
  0
LINE
  5
183
330
6C
100
AcDbEntity
  8
Visible (ANSI)
100
AcDbLine
 10
72.84015567236592
 20
28.04878018548391
 30
0.0
 11
87.52701184928971
 21
19.59118220531647
 31
0.0
  0
LINE
  5
184
330
6C
100
AcDbEntity
  8
Visible (ANSI)
100
AcDbLine
 10
72.78471962551467
 20
45.12537910267981
 30
0.0
 11
72.78471962551467
 21
28.14467886476951
 31
0.0
  0
LINE
  5
185
330
6C
100
AcDbEntity
  8
Visible (ANSI)
100
AcDbLine
 10
88.20092447935406
 20
19.94160730334249
 30
0.0
 11
88.20092447935405
 21
36.93882318396794
 31
0.0
  0
LINE
  5
186
330
6C
100
AcDbEntity
  8
Visible (ANSI)
100
AcDbLine
 10
73.42575047983148
 20
28.4410314301228
 30
0.0
 11
73.54020805314259
 21
28.37511969726522
 31
0.0
  0
LINE
  5
187
330
6C
100
AcDbEntity
  8
Visible (ANSI)
100
AcDbLine
 10
74.72186349878796
 20
27.69464958235753
 30
0.0
 11
74.85583405822961
 21
27.61750106811552
 31
0.0
  0
LINE
  5
188
330
6C
100
AcDbEntity
  8
Visible (ANSI)
100
AcDbLine
 10
85.50524191188445
 20
21.48491494702535
 30
0.0
 11
85.63921247132611
 21
21.40776643278334
 31
0.0
  0
LINE
  5
189
330
6C
100
AcDbEntity
  8
Visible (ANSI)
100
AcDbLine
 10
86.8307043820236
 20
20.72163187437906
 30
0.0
 11
87.15201359098569
 21
20.53660220676395
 31
0.0
  0
LINE
  5
18A
330
6C
100
AcDbEntity
  8
Visible (ANSI)
100
AcDbLine
 10
73.41793797983147
 20
44.32648569729965
 30
0.0
 11
73.41793797983147
 21
43.9556385335051
 31
0.0
  0
LINE
  5
18B
330
6C
100
AcDbEntity
  8
Visible (ANSI)
100
AcDbLine
 10
73.41793797983147
 20
28.58870354408079
 30
0.0
 11
73.41793797983147
 21
28.45456305459793
 31
0.0
  0
LINE
  5
18C
330
6C
100
AcDbEntity
  8
Visible (ANSI)
100
AcDbLine
 10
88.12685607395684
 20
37.06711321242318
 30
0.0
 11
73.42575047983146
 21
45.53291688621836
 31
0.0
  0
DIMENSION
  5
18D
330
6C
100
AcDbEntity
  8
Dimension (ANSI)
100
AcDbDimension
  2
*D4
 10
41.93776230895818
 20
22.91258573857144
 30
0.0
 11
40.32460681030207
 21
18.3203658930545
 31
0.0
 70
   160
  1
<>{\PTYP.}
 71
     5
 42
0.8750000000000035
  3
Default (ANSI)
100
AcDbAlignedDimension
 13
36.7250567540591
 23
22.03758573857144
 33
0.0
 14
35.95480529751512
 24
22.91258573857144
 34
0.0
 50
90.0
100
AcDbRotatedDimension
1001
ACAD
1000
DSTYLE
1002
{
1070
   289
1070
     1
1070
   271
1070
     2
1070
   272
1070
     2
1070
    48
1040
0.0
1070
    47
1040
0.0
1002
}
  0
DIMENSION
  5
2A4
330
6C
100
AcDbEntity
  8
Dimension (ANSI)
100
AcDbDimension
  2
*D5
 10
43.02426935248431
 20
43.03758573857144
 30
0.0
 11
43.0242693524843
 21
32.53758573857144
 31
0.0
 70
   160
  1
<>
 42
21.00000000000001
  3
Default (ANSI)
100
AcDbAlignedDimension
 13
36.7250567540591
 23
22.03758573857144
 33
0.0
 14
36.7250567540591
 24
43.03758573857144
 34
0.0
 50
90.0
100
AcDbRotatedDimension
1001
ACAD
1000
DSTYLE
1002
{
1070
   289
1070
     1
1070
   271
1070
     2
1070
   272
1070
     2
1070
    48
1040
0.0
1070
    47
1040
0.0
1002
}
  0
DIMENSION
  5
38E
330
6C
100
AcDbEntity
  8
Dimension (ANSI)
100
AcDbDimension
  2
*D6
 10
36.82980529751514
 20
47.33918467572826
 30
0.0
 11
26.32980529751514
 21
47.33918467572826
 31
0.0
 70
   160
  1
<>
 42
21.0
  3
Default (ANSI)
100
AcDbAlignedDimension
 13
15.82980529751513
 23
42.93283719511539
 33
0.0
 14
36.82980529751514
 24
42.93283719511539
 34
0.0
100
AcDbRotatedDimension
1001
ACAD
1000
DSTYLE
1002
{
1070
   289
1070
     1
1070
    73
1070
     0
1070
    74
1070
     0
1070
   271
1070
     2
1070
   272
1070
     2
1070
    48
1040
0.0
1070
    47
1040
0.0
1002
}
  0
DIMENSION
  5
478
330
6C
100
AcDbEntity
  8
Dimension (ANSI)
100
AcDbDimension
  2
*D7
 10
36.82980529751514
 20
45.02586419240109
 30
0.0
 11
40.20266661996994
 21
45.02586419240109
 31
0.0
 70
   160
  1
<>{\PTYP.}
 71
     5
 42
0.8750000000000213
  3
Default (ANSI)
100
AcDbAlignedDimension
 13
35.95480529751512
 23
43.15837145285715
 33
0.0
 14
36.82980529751514
 24
42.93283719511539
 34
0.0
 50
180.0
100
AcDbRotatedDimension
1001
ACAD
1000
DSTYLE
1002
{
1070
   289
1070
     1
1070
    73
1070
     0
1070
    74
1070
     0
1070
   271
1070
     2
1070
   272
1070
     2
1070
    48
1040
0.0
1070
    47
1040
0.0
1002
}
  0
DIMENSION
  5
576
330
6C
100
AcDbEntity
  8
Dimension (ANSI)
100
AcDbDimension
  2
*D8
 10
33.95480529751515
 20
18.33134021244402
 30
0.0
 11
30.51652887079105
 21
18.33134021244402
 31
0.0
 70
   160
  1
<>{\PTYP.}
 71
     5
 42
1.999999999999971
  3
Default (ANSI)
100
AcDbAlignedDimension
 13
35.95480529751512
 23
22.91258573857144
 33
0.0
 14
33.95480529751515
 24
22.91258573857144
 34
0.0
 50
180.0
100
AcDbRotatedDimension
1001
ACAD
1000
DSTYLE
1002
{
1070
   289
1070
     2
1070
    73
1070
     0
1070
    74
1070
     0
1070
   271
1070
     2
1070
   272
1070
     2
1070
    48
1040
0.0
1070
    47
1040
0.0
1002
}
  0
DIMENSION
  5
674
330
6C
100
AcDbEntity
  8
Dimension (ANSI)
100
AcDbDimension
  2
*D9
 10
41.82045882728913
 20
58.23846177826581
 30
0.0
 11
40.20730332863302
 21
54.38570644053519
 31
0.0
 70
   160
  1
<>{\PTYP.}
 71
     5
 42
0.8750000000000355
  3
Default (ANSI)
100
AcDbAlignedDimension
 13
36.70485529752264
 23
57.36346177826578
 33
0.0
 14
36.7250567540666
 24
58.23846177826581
 34
0.0
 50
90.0
100
AcDbRotatedDimension
1001
ACAD
1000
DSTYLE
1002
{
1070
   289
1070
     1
1070
   271
1070
     2
1070
   272
1070
     2
1070
    48
1040
0.0
1070
    47
1040
0.0
1002
}
  0
DIMENSION
  5
788
330
6C
100
AcDbEntity
  8
Dimension (ANSI)
100
AcDbDimension
  2
*D10
 10
57.10416608201792
 20
39.45250891028168
 30
0.0
 11
60.54558587896697
 21
39.45250891028168
 31
0.0
 70
   160
  1
<>{\PTYP.}
 71
     5
 42
0.8750000000000284
  3
Default (ANSI)
100
AcDbAlignedDimension
 13
57.97916608201795
 23
39.45250891028168
 33
0.0
 14
57.10416608201792
 24
39.44312675376444
 34
0.0
100
AcDbRotatedDimension
1001
ACAD
1000
DSTYLE
1002
{
1070
   289
1070
     1
1070
    73
1070
     0
1070
    74
1070
     0
1070
   271
1070
     2
1070
    76
1070
     1
1070
    75
1070
     1
1070
   272
1070
     2
1070
    48
1040
0.0
1070
    47
1040
0.0
1002
}
  0
DIMENSION
  5
877
330
6C
100
AcDbEntity
  8
Dimension (ANSI)
100
AcDbDimension
  2
*D11
 10
16.90385585641916
 20
23.11163629747542
 30
0.0
 11
10.41536264401603
 21
19.09830099551814
 31
0.0
 70
   163
  1
<>{\PTYP.\P(4 PL.)}
 71
     2
 42
0.5629999999999999
  3
Default (ANSI)
100
AcDbDiametricDimension
 15
16.50575473861107
 25
22.71353517966746
 35
0.0
 40
0.0
1001
ACAD_DSTYLE_DIMRADIAL_EXTENSION
1070
   387
1070
     1
1070
   388
1040
0.0
1070
   390
1040
0.0
1001
ACAD
1000
DSTYLE
1002
{
1070
   145
1040
-0.3333333333333334
1070
   144
1040
1.000000000000008
1070
   271
1070
     2
1070
   272
1070
     2
1070
    48
1040
0.0
1070
    47
1040
0.0
1002
}
  0
DIMENSION
  5
931
330
6C
100
AcDbEntity
  8
Dimension (ANSI)
100
AcDbDimension
  2
*D12
 10
18.81511395538026
 20
22.80227708070635
 30
0.0
 11
10.19620784403577
 21
28.94602528160446
 31
0.0
 70
   163
  1
<>{\PTYP.\P(2 PL.)}
 71
     2
 42
0.312
  3
Default (ANSI)
100
AcDbDiametricDimension
 15
18.59449663965002
 25
23.02289439643653
 35
0.0
 40
0.0
1001
ACAD_DSTYLE_DIMRADIAL_EXTENSION
1070
   387
1070
     1
1070
   388
1040
0.0
1070
   390
1040
0.0
1001
ACAD
1000
DSTYLE
1002
{
1070
   145
1040
-0.3333333333333334
1070
   144
1040
0.9999999999999905
1070
   271
1070
     2
1070
   272
1070
     2
1070
    48
1040
0.0
1070
    47
1040
0.0
1002
}
  0
MTEXT
  5
9EA
102
{ACAD_XDICTIONARY
360
A06
102
}
330
6C
100
AcDbEntity
  8
Symbol (ANSI)
100
AcDbMText
 10
49.87052179435085
 20
6.046294770890607
 30
0.0
 40
0.5714285896653132
 41
45.46825078748532
 71
     4
 72
     1
  3
{\fRomanS|b0|i0|c0|p2;\H2.0001x;PART#: ALNP2424\P(DATA SUBJECT TO CHANGE WITHOUT NOTICE)\H1.4011x; \H0.71373x;\P \H1.1072x; \H0.90319x;\P\H0.59997x;THIS DRAWING IS PROPERTY OF HUBBELL INC. WIEGMANN\H1.2422x; \H0.80501x;\PALL INFORMATION IS PROPRIETAR
  1
Y AND NOT TO BE DUPLICATED\H1.0095x; \H0.8255x;\P\H1.0785x; }
  7
Note Text (ANSI)
 73
     1
 44
0.9303776025772094
1001
ACAD
1000
MTEXTBEGIN
1070
    73
1070
     1
1070
    44
1040
0.9303776025772094
1070
    74
1070
     0
1000
MTEXTEND
  0
LINE
  5
9EC
330
6C
100
AcDbEntity
  8
Center Mark (ANSI)
  6
CHAIN
 48
0.1935144513845444
100
AcDbLine
 10
17.70059101180084
 20
42.16258573857144
 30
0.0
 11
15.70901958322942
 21
42.16258573857144
 31
0.0
  0
LINE
  5
9ED
330
6C
100
AcDbEntity
  8
Center Mark (ANSI)
  6
CHAIN
 48
0.1935144513845444
100
AcDbLine
 10
36.95059101180083
 20
42.16258573857144
 30
0.0
 11
34.95901958322941
 21
42.16258573857144
 31
0.0
  0
LINE
  5
9EE
330
6C
100
AcDbEntity
  8
Centerline (ANSI)
  6
CHAIN
 48
0.9524481296539306
100
AcDbLine
 10
15.70901958322942
 20
42.16258573857144
 30
0.0
 11
36.95059101180083
 21
42.16258573857144
 31
0.0
  0
LINE
  5
9EF
330
6C
100
AcDbEntity
  8
Center Mark (ANSI)
  6
CHAIN
 48
0.1935144513845444
100
AcDbLine
 10
17.70059101180083
 20
22.91258573857144
 30
0.0
 11
15.7090195832294
 21
22.91258573857144
 31
0.0
  0
LINE
  5
9F0
330
6C
100
AcDbEntity
  8
Center Mark (ANSI)
  6
CHAIN
 48
0.1935144513845444
100
AcDbLine
 10
36.95059101180083
 20
22.91258573857144
 30
0.0
 11
34.95901958322941
 21
22.91258573857144
 31
0.0
  0
LINE
  5
9F1
330
6C
100
AcDbEntity
  8
Centerline (ANSI)
  6
CHAIN
 48
0.9524481296539306
100
AcDbLine
 10
15.7090195832294
 20
22.91258573857144
 30
0.0
 11
36.95059101180083
 21
22.91258573857144
 31
0.0
  0
LINE
  5
9F2
330
6C
100
AcDbEntity
  8
Centerline (ANSI)
  6
CHAIN
 48
0.9524481296539306
100
AcDbLine
 10
16.70480529751513
 20
43.15837145285715
 30
0.0
 11
16.70480529751511
 21
21.91680002428572
 31
0.0
  0
LINE
  5
9F3
330
6C
100
AcDbEntity
  8
Centerline (ANSI)
  6
CHAIN
 48
0.9524481296539306
100
AcDbLine
 10
35.95480529751512
 20
43.15837145285715
 30
0.0
 11
35.95480529751512
 21
21.91680002428572
 31
0.0
  0
LINE
  5
9F4
330
6C
100
AcDbEntity
  8
Center Mark (ANSI)
  6
CHAIN
 48
0.1691130101680756
100
AcDbLine
 10
19.57509101180085
 20
22.91258573857144
 30
0.0
 11
17.83451958322942
 21
22.91258573857144
 31
0.0
  0
LINE
  5
9F5
330
6C
100
AcDbEntity
  8
Center Mark (ANSI)
  6
CHAIN
 48
0.1691130101680756
100
AcDbLine
 10
18.70480529751514
 20
23.78287145285716
 30
0.0
 11
18.70480529751514
 21
22.04230002428573
 31
0.0
  0
LINE
  5
9F6
330
6C
100
AcDbEntity
  8
Center Mark (ANSI)
  6
CHAIN
 48
0.1691130101680756
100
AcDbLine
 10
34.82509101180086
 20
22.91258573857144
 30
0.0
 11
33.08451958322943
 21
22.91258573857144
 31
0.0
  0
LINE
  5
9F7
330
6C
100
AcDbEntity
  8
Center Mark (ANSI)
  6
CHAIN
 48
0.1691130101680756
100
AcDbLine
 10
33.95480529751515
 20
23.78287145285716
 30
0.0
 11
33.95480529751515
 21
22.04230002428573
 31
0.0
  0
ENDSEC
  0
SECTION
  2
OBJECTS
  0
DICTIONARY
  5
C
330
0
100
AcDbDictionary
281
     1
  3
ACAD_CIP_PREVIOUS_PRODUCT_INFO
350
9F8
  3
ACAD_COLOR
350
63
  3
ACAD_GROUP
350
D
  3
ACAD_LAYOUT
350
62
  3
ACAD_MATERIAL
350
10
  3
ACAD_MLEADERSTYLE
350
66
  3
ACAD_MLINESTYLE
350
5F
  3
ACAD_PLOTSETTINGS
350
61
  3
ACAD_PLOTSTYLENAME
350
E
  3
ACAD_SCALELIST
350
42
  3
ACAD_TABLESTYLE
350
64
  3
ACAD_VISUALSTYLE
350
29
  3
ACDB_RECOMPOSE_DATA
350
A08
  3
AcDbVariableDictionary
350
76
  3
DWGPROPS
350
A09
  0
DICTIONARY
  5
A45
330
92B
100
AcDbDictionary
280
     1
281
     1
  3
ACAD_MTEXT_RT
360
A46
  0
DICTIONARY
  5
A47
330
9E4
100
AcDbDictionary
280
     1
281
     1
  3
ACAD_MTEXT_RT
360
A48
  0
DICTIONARY
  5
A06
330
9EA
100
AcDbDictionary
280
     1
281
     1
  3
ACAD_MTEXT_2008_RT
360
A07
  0
XRECORD
  5
9F8
102
{ACAD_REACTORS
330
C
102
}
330
C
100
AcDbXrecord
280
     1
300
INVNTOR
300
2012
300
85795PDSP_2012_0F
  0
DICTIONARY
  5
63
102
{ACAD_REACTORS
330
C
102
}
330
C
100
AcDbDictionary
281
     1
  0
DICTIONARY
  5
D
102
{ACAD_REACTORS
330
C
102
}
330
C
100
AcDbDictionary
281
     1
  0
DICTIONARY
  5
62
102
{ACAD_REACTORS
330
C
102
}
330
C
100
AcDbDictionary
281
     1
  3
Layout1
350
6B
  3
Layout2
350
73
  3
Model
350
6F
  0
DICTIONARY
  5
10
102
{ACAD_REACTORS
330
C
102
}
330
C
100
AcDbDictionary
281
     1
  3
ByBlock
350
19
  3
ByLayer
350
11
  3
Global
350
21
  0
DICTIONARY
  5
66
102
{ACAD_REACTORS
330
C
102
}
330
C
100
AcDbDictionary
281
     1
  3
Standard
350
67
  0
DICTIONARY
  5
5F
102
{ACAD_REACTORS
330
C
102
}
330
C
100
AcDbDictionary
281
     1
  3
Standard
350
60
  0
DICTIONARY
  5
61
102
{ACAD_REACTORS
330
C
102
}
330
C
100
AcDbDictionary
281
     1
  0
ACDBDICTIONARYWDFLT
  5
E
102
{ACAD_REACTORS
330
C
102
}
330
C
100
AcDbDictionary
281
     1
  3
Normal
350
F
100
AcDbDictionaryWithDefault
340
F
  0
DICTIONARY
  5
42
102
{ACAD_REACTORS
330
C
102
}
330
C
100
AcDbDictionary
281
     1
  3
A0
350
43
  3
A1
350
44
  3
A2
350
45
  3
A3
350
46
  3
A4
350
47
  3
A5
350
48
  3
A6
350
49
  3
A7
350
4A
  3
A8
350
4B
  3
A9
350
4C
  3
B0
350
4D
  3
B1
350
4E
  3
B2
350
4F
  3
B3
350
50
  3
B4
350
51
  3
B5
350
52
  3
B6
350
53
  0
DICTIONARY
  5
64
102
{ACAD_REACTORS
330
C
102
}
330
C
100
AcDbDictionary
281
     1
  3
Standard
350
65
  0
DICTIONARY
  5
29
102
{ACAD_REACTORS
330
C
102
}
330
C
100
AcDbDictionary
281
     1
  3
2dWireframe
350
2F
  3
Basic
350
2E
  3
Brighten
350
35
  3
ColorChange
350
39
  3
Conceptual
350
32
  3
Dim
350
34
  3
EdgeColorOff
350
41
  3
Facepattern
350
38
  3
Flat
350
2A
  3
FlatWithEdges
350
2B
  3
Gouraud
350
2C
  3
GouraudWithEdges
350
2D
  3
Hidden
350
31
  3
JitterOff
350
3F
  3
Linepattern
350
37
  3
OverhangOff
350
40
  3
Realistic
350
33
  3
Shaded
350
3E
  3
Shaded with edges
350
3D
  3
Shades of Gray
350
3A
  3
Sketchy
350
3B
  3
Thicken
350
36
  3
Wireframe
350
30
  3
X-Ray
350
3C
  0
XRECORD
  5
A08
102
{ACAD_REACTORS
330
C
102
}
330
C
100
AcDbXrecord
280
     1
 90
        1
330
65
330
576
330
9EA
  0
DICTIONARY
  5
76
102
{ACAD_REACTORS
330
C
102
}
330
C
100
AcDbDictionary
281
     1
  3
CANNOSCALE
350
79
  3
CMLEADERSTYLE
350
78
  3
CTABLESTYLE
350
77
  3
DIMASSOC
350
A00
  3
HIDETEXT
350
9FF
  3
INDEXCTL
350
9FE
  3
LAYEREVAL
350
9FB
  3
LAYERNOTIFY
350
9FC
  3
LIGHTINGUNITS
350
9FA
  3
MSLTSCALE
350
9F9
  3
SORTENTS
350
9FD
  3
XCLIPFRAME
350
A01
  0
XRECORD
  5
A09
102
{ACAD_REACTORS
330
C
102
}
330
C
100
AcDbXrecord
280
     1
  1
DWGPROPS COOKIE
  2

  3

  4
jfielder
  6

  7

  8

  9
-
300
Manager=
301
Company=
302
Category=
303
Part Number=HWDALNP2424-S
304
Description=
305
Project=
306
Designer=jfielder
307
Engineer=
308
Authority=
309
Cost Center=
 40
0.0000358101851852
 41
2455986.399272824
 42
2455986.399272824
  1

 90
       19
300
Vendor=
300
User Status=
300
Design Status=WorkInProgress
300
Checked by=
300
Engr Approved by=
300
Mfg Approved by=
300
DWG. NO=
300
NUMBER OF SHEETS=1
300
DRAWING #=
  0
XRECORD
  5
A46
102
{ACAD_REACTORS
330
A45
102
}
330
A45
100
AcDbXrecord
280
     1
 40
35902.0
  1
\A1;\U+22050.56{\PTYP.\P(4 PL.)}
  0
XRECORD
  5
A48
102
{ACAD_REACTORS
330
A47
102
}
330
A47
100
AcDbXrecord
280
     1
 40
35747.0
  1
\A1;\U+22050.31{\PTYP.\P(2 PL.)}
  0
XRECORD
  5
A07
102
{ACAD_REACTORS
330
A06
102
}
330
A06
100
AcDbXrecord
280
     1
 40
3259236.0
  1
\pxsm0.94;{\fRomanS|b0|i0;\H1.1429;PART#: ALNP2424\P(DATA SUBJECT TO CHANGE WITHOUT NOTICE)\P \P\fRomanS|b0|i0;\H0.6857;THIS DRAWING IS PROPERTY OF HUBBELL INC. WIEGMANN\PALL INFORMATION IS PROPRIETARY AND NOT TO BE DUPLICATED\fRomanS|b0|i0;\H0.5714;
  1
\P}
  0
LAYOUT
  5
6B
102
{ACAD_XDICTIONARY
360
A3F
102
}
102
{ACAD_REACTORS
330
62
102
}
330
62
100
AcDbPlotSettings
  1

  2

  4

  6

 40
0.0
 41
0.0
 42
0.0
 43
0.0
 44
0.0
 45
0.0
 46
0.0
 47
0.0
 48
0.0
 49
0.0
140
0.0
141
0.0
142
1.0
143
1.0
 70
   688
 72
     0
 73
     0
 74
     5
  7

 75
    16
147
1.0
148
0.0
149
0.0
100
AcDbLayout
  1
Layout1
 70
     1
 71
     1
 10
0.0
 20
0.0
 11
12.0
 21
9.0
 12
0.0
 22
0.0
 32
0.0
 14
0.0
 24
0.0
 34
0.0
 15
0.0
 25
0.0
 35
0.0
146
0.0
 13
0.0
 23
0.0
 33
0.0
 16
1.0
 26
0.0
 36
0.0
 17
0.0
 27
1.0
 37
0.0
 76
     0
330
68
  0
LAYOUT
  5
73
102
{ACAD_XDICTIONARY
360
A43
102
}
102
{ACAD_REACTORS
330
62
102
}
330
62
100
AcDbPlotSettings
  1

  2

  4

  6

 40
0.0
 41
0.0
 42
0.0
 43
0.0
 44
0.0
 45
0.0
 46
0.0
 47
0.0
 48
0.0
 49
0.0
140
0.0
141
0.0
142
1.0
143
1.0
 70
   688
 72
     0
 73
     0
 74
     5
  7

 75
    16
147
1.0
148
0.0
149
0.0
100
AcDbLayout
  1
Layout2
 70
     1
 71
     2
 10
0.0
 20
0.0
 11
12.0
 21
9.0
 12
0.0
 22
0.0
 32
0.0
 14
0.0
 24
0.0
 34
0.0
 15
0.0
 25
0.0
 35
0.0
146
0.0
 13
0.0
 23
0.0
 33
0.0
 16
1.0
 26
0.0
 36
0.0
 17
0.0
 27
1.0
 37
0.0
 76
     0
330
70
  0
LAYOUT
  5
6F
102
{ACAD_XDICTIONARY
360
A41
102
}
102
{ACAD_REACTORS
330
62
102
}
330
62
100
AcDbPlotSettings
  1

  2

  4

  6

 40
0.0
 41
0.0
 42
0.0
 43
0.0
 44
0.0
 45
0.0
 46
0.0
 47
0.0
 48
0.0
 49
0.0
140
0.0
141
0.0
142
1.0
143
1.0
 70
  1712
 72
     0
 73
     0
 74
     0
  7

 75
     0
147
1.0
148
0.0
149
0.0
100
AcDbLayout
  1
Model
 70
     1
 71
     0
 10
0.0
 20
0.0
 11
12.0
 21
9.0
 12
0.0
 22
0.0
 32
0.0
 14
0.0
 24
0.0
 34
0.0
 15
0.0
 25
0.0
 35
0.0
146
0.0
 13
0.0
 23
0.0
 33
0.0
 16
1.0
 26
0.0
 36
0.0
 17
0.0
 27
1.0
 37
0.0
 76
     0
330
6C
  0
MATERIAL
  5
19
102
{ACAD_XDICTIONARY
360
1A
102
}
102
{ACAD_REACTORS
330
10
102
}
330
10
100
AcDbMaterial
  1
ByBlock
 72
     0
 43
0.0208333333333333
 43
0.0
 43
0.0
 43
0.0
 43
0.0
 43
0.0208333333333333
 43
0.0
 43
0.0
 43
0.0
 43
0.0
 43
1.0
 43
0.0
 43
0.0
 43
0.0
 43
0.0
 43
1.0
 77
     0
 47
0.0208333333333333
 47
0.0
 47
0.0
 47
0.0
 47
0.0
 47
0.0208333333333333
 47
0.0
 47
0.0
 47
0.0
 47
0.0
 47
1.0
 47
0.0
 47
0.0
 47
0.0
 47
0.0
 47
1.0
171
     0
 49
0.0208333333333333
 49
0.0
 49
0.0
 49
0.0
 49
0.0
 49
0.0208333333333333
 49
0.0
 49
0.0
 49
0.0
 49
0.0
 49
1.0
 49
0.0
 49
0.0
 49
0.0
 49
0.0
 49
1.0
175
     0
142
0.0208333333333333
142
0.0
142
0.0
142
0.0
142
0.0
142
0.0208333333333333
142
0.0
142
0.0
142
0.0
142
0.0
142
1.0
142
0.0
142
0.0
142
0.0
142
0.0
142
1.0
179
     0
144
0.0208333333333333
144
0.0
144
0.0
144
0.0
144
0.0
144
0.0208333333333333
144
0.0
144
0.0
144
0.0
144
0.0
144
1.0
144
0.0
144
0.0
144
0.0
144
0.0
144
1.0
147
0.0208333333333333
147
0.0
147
0.0
147
0.0
147
0.0
147
0.0208333333333333
147
0.0
147
0.0
147
0.0
147
0.0
147
1.0
147
0.0
147
0.0
147
0.0
147
0.0
147
1.0
  0
MATERIAL
  5
11
102
{ACAD_XDICTIONARY
360
12
102
}
102
{ACAD_REACTORS
330
10
102
}
330
10
100
AcDbMaterial
  1
ByLayer
 72
     0
 43
0.0208333333333333
 43
0.0
 43
0.0
 43
0.0
 43
0.0
 43
0.0208333333333333
 43
0.0
 43
0.0
 43
0.0
 43
0.0
 43
1.0
 43
0.0
 43
0.0
 43
0.0
 43
0.0
 43
1.0
 77
     0
 47
0.0208333333333333
 47
0.0
 47
0.0
 47
0.0
 47
0.0
 47
0.0208333333333333
 47
0.0
 47
0.0
 47
0.0
 47
0.0
 47
1.0
 47
0.0
 47
0.0
 47
0.0
 47
0.0
 47
1.0
171
     0
 49
0.0208333333333333
 49
0.0
 49
0.0
 49
0.0
 49
0.0
 49
0.0208333333333333
 49
0.0
 49
0.0
 49
0.0
 49
0.0
 49
1.0
 49
0.0
 49
0.0
 49
0.0
 49
0.0
 49
1.0
175
     0
142
0.0208333333333333
142
0.0
142
0.0
142
0.0
142
0.0
142
0.0208333333333333
142
0.0
142
0.0
142
0.0
142
0.0
142
1.0
142
0.0
142
0.0
142
0.0
142
0.0
142
1.0
179
     0
144
0.0208333333333333
144
0.0
144
0.0
144
0.0
144
0.0
144
0.0208333333333333
144
0.0
144
0.0
144
0.0
144
0.0
144
1.0
144
0.0
144
0.0
144
0.0
144
0.0
144
1.0
147
0.0208333333333333
147
0.0
147
0.0
147
0.0
147
0.0
147
0.0208333333333333
147
0.0
147
0.0
147
0.0
147
0.0
147
1.0
147
0.0
147
0.0
147
0.0
147
0.0
147
1.0
  0
MATERIAL
  5
21
102
{ACAD_XDICTIONARY
360
22
102
}
102
{ACAD_REACTORS
330
10
102
}
330
10
100
AcDbMaterial
  1
Global
 72
     0
 43
0.0208333333333333
 43
0.0
 43
0.0
 43
0.0
 43
0.0
 43
0.0208333333333333
 43
0.0
 43
0.0
 43
0.0
 43
0.0
 43
1.0
 43
0.0
 43
0.0
 43
0.0
 43
0.0
 43
1.0
 77
     0
 47
0.0208333333333333
 47
0.0
 47
0.0
 47
0.0
 47
0.0
 47
0.0208333333333333
 47
0.0
 47
0.0
 47
0.0
 47
0.0
 47
1.0
 47
0.0
 47
0.0
 47
0.0
 47
0.0
 47
1.0
171
     0
 49
0.0208333333333333
 49
0.0
 49
0.0
 49
0.0
 49
0.0
 49
0.0208333333333333
 49
0.0
 49
0.0
 49
0.0
 49
0.0
 49
1.0
 49
0.0
 49
0.0
 49
0.0
 49
0.0
 49
1.0
175
     0
142
0.0208333333333333
142
0.0
142
0.0
142
0.0
142
0.0
142
0.0208333333333333
142
0.0
142
0.0
142
0.0
142
0.0
142
1.0
142
0.0
142
0.0
142
0.0
142
0.0
142
1.0
179
     0
144
0.0208333333333333
144
0.0
144
0.0
144
0.0
144
0.0
144
0.0208333333333333
144
0.0
144
0.0
144
0.0
144
0.0
144
1.0
144
0.0
144
0.0
144
0.0
144
0.0
144
1.0
147
0.0208333333333333
147
0.0
147
0.0
147
0.0
147
0.0
147
0.0208333333333333
147
0.0
147
0.0
147
0.0
147
0.0
147
1.0
147
0.0
147
0.0
147
0.0
147
0.0
147
1.0
  0
MLEADERSTYLE
  5
67
102
{ACAD_XDICTIONARY
360
A04
102
}
102
{ACAD_REACTORS
330
66
102
}
330
66
100
AcDbMLeaderStyle
170
     2
171
     1
172
     0
 90
        2
 40
0.0
 41
0.0
173
     1
 91
-1056964608
340
5B
 92
       -2
290
     1
 42
0.09
291
     1
 43
0.36
  3
Standard
 44
0.18
300

342
55
174
     1
178
     6
175
     1
176
     0
 93
-1056964608
 45
0.18
292
     0
297
     0
 46
0.18
 94
-1056964608
 47
1.0
 49
1.0
140
1.0
293
     1
141
0.0
294
     1
177
     0
142
1.0
295
     0
296
     0
143
0.125
1001
ACAD_MLEADERVER
1070
     2
  0
MLINESTYLE
  5
60
102
{ACAD_REACTORS
330
5F
102
}
330
5F
100
AcDbMlineStyle
  2
STANDARD
 70
     0
  3

 62
   256
 51
90.0
 52
90.0
 71
     2
 49
0.5
 62
   256
  6
BYLAYER
 49
-0.5
 62
   256
  6
BYLAYER
  0
ACDBPLACEHOLDER
  5
F
102
{ACAD_REACTORS
330
E
102
}
330
E
  0
SCALE
  5
43
102
{ACAD_REACTORS
330
42
102
}
330
42
100
AcDbScale
 70
     0
300
1:1
140
1.0
141
1.0
290
     1
  0
SCALE
  5
44
102
{ACAD_REACTORS
330
42
102
}
330
42
100
AcDbScale
 70
     0
300
1/128" = 1'-0"
140
0.0078125
141
12.0
290
     0
  0
SCALE
  5
45
102
{ACAD_REACTORS
330
42
102
}
330
42
100
AcDbScale
 70
     0
300
1/64" = 1'-0"
140
0.015625
141
12.0
290
     0
  0
SCALE
  5
46
102
{ACAD_REACTORS
330
42
102
}
330
42
100
AcDbScale
 70
     0
300
1/32" = 1'-0"
140
0.03125
141
12.0
290
     0
  0
SCALE
  5
47
102
{ACAD_REACTORS
330
42
102
}
330
42
100
AcDbScale
 70
     0
300
1/16" = 1'-0"
140
0.0625
141
12.0
290
     0
  0
SCALE
  5
48
102
{ACAD_REACTORS
330
42
102
}
330
42
100
AcDbScale
 70
     0
300
3/32" = 1'-0"
140
0.09375
141
12.0
290
     0
  0
SCALE
  5
49
102
{ACAD_REACTORS
330
42
102
}
330
42
100
AcDbScale
 70
     0
300
1/8" = 1'-0"
140
0.125
141
12.0
290
     0
  0
SCALE
  5
4A
102
{ACAD_REACTORS
330
42
102
}
330
42
100
AcDbScale
 70
     0
300
3/16" = 1'-0"
140
0.1875
141
12.0
290
     0
  0
SCALE
  5
4B
102
{ACAD_REACTORS
330
42
102
}
330
42
100
AcDbScale
 70
     0
300
1/4" = 1'-0"
140
0.25
141
12.0
290
     0
  0
SCALE
  5
4C
102
{ACAD_REACTORS
330
42
102
}
330
42
100
AcDbScale
 70
     0
300
3/8" = 1'-0"
140
0.375
141
12.0
290
     0
  0
SCALE
  5
4D
102
{ACAD_REACTORS
330
42
102
}
330
42
100
AcDbScale
 70
     0
300
1/2" = 1'-0"
140
0.5
141
12.0
290
     0
  0
SCALE
  5
4E
102
{ACAD_REACTORS
330
42
102
}
330
42
100
AcDbScale
 70
     0
300
3/4" = 1'-0"
140
0.75
141
12.0
290
     0
  0
SCALE
  5
4F
102
{ACAD_REACTORS
330
42
102
}
330
42
100
AcDbScale
 70
     0
300
1" = 1'-0"
140
1.0
141
12.0
290
     0
  0
SCALE
  5
50
102
{ACAD_REACTORS
330
42
102
}
330
42
100
AcDbScale
 70
     0
300
1-1/2" = 1'-0"
140
1.5
141
12.0
290
     0
  0
SCALE
  5
51
102
{ACAD_REACTORS
330
42
102
}
330
42
100
AcDbScale
 70
     0
300
3" = 1'-0"
140
3.0
141
12.0
290
     0
  0
SCALE
  5
52
102
{ACAD_REACTORS
330
42
102
}
330
42
100
AcDbScale
 70
     0
300
6" = 1'-0"
140
6.0
141
12.0
290
     0
  0
SCALE
  5
53
102
{ACAD_REACTORS
330
42
102
}
330
42
100
AcDbScale
 70
     0
300
1'-0" = 1'-0"
140
12.0
141
12.0
290
     0
  0
TABLESTYLE
  5
65
102
{ACAD_XDICTIONARY
360
A02
102
}
102
{ACAD_REACTORS
330
64
102
}
330
64
100
AcDbTableStyle
  3
Standard
 70
     0
 71
     0
 40
0.06
 41
0.06
280
     0
281
     0
  7
Standard
140
0.18
170
     2
 62
     0
 63
     7
283
     0
274
    -2
284
     1
 64
     0
275
    -2
285
     1
 65
     0
276
    -2
286
     1
 66
     0
277
    -2
287
     1
 67
     0
278
    -2
288
     1
 68
     0
279
    -2
289
     1
 69
     0
  7
Standard
140
0.25
170
     5
 62
     0
 63
     7
283
     0
274
    -2
284
     1
 64
     0
275
    -2
285
     1
 65
     0
276
    -2
286
     1
 66
     0
277
    -2
287
     1
 67
     0
278
    -2
288
     1
 68
     0
279
    -2
289
     1
 69
     0
  7
Standard
140
0.18
170
     5
 62
     0
 63
     7
283
     0
274
    -2
284
     1
 64
     0
275
    -2
285
     1
 65
     0
276
    -2
286
     1
 66
     0
277
    -2
287
     1
 67
     0
278
    -2
288
     1
 68
     0
279
    -2
289
     1
 69
     0
  0
VISUALSTYLE
  5
2F
102
{ACAD_XDICTIONARY
360
A17
102
}
102
{ACAD_REACTORS
330
29
102
}
330
29
100
AcDbVisualStyle
  2
2dWireframe
 70
     4
 71
     0
 72
     2
 73
     0
 90
        0
 40
-0.6
 41
-30.0
 62
     5
 63
     7
 74
     1
 91
        4
 64
     7
 65
   257
 75
     1
175
     1
 42
1.0
 92
        0
 66
   257
 43
1.0
 76
     1
 77
     6
 78
     2
 67
     7
 79
     5
170
     0
171
     0
290
     0
174
     0
 93
        1
 44
0.0
173
     0
291
     0
 45
0.0
1001
ACAD
1000
AcDbSavedByObjectVersion
1070
     0
  0
VISUALSTYLE
  5
2E
102
{ACAD_XDICTIONARY
360
A15
102
}
102
{ACAD_REACTORS
330
29
102
}
330
29
100
AcDbVisualStyle
  2
Basic
 70
     7
 71
     1
 72
     0
 73
     1
 90
        0
 40
-0.6
 41
-30.0
 62
     5
 63
     7
 74
     0
 91
        4
 64
     7
 65
   257
 75
     1
175
     1
 42
1.0
 92
        8
 66
     7
 43
1.0
 76
     1
 77
     6
 78
     2
 67
     7
 79
     5
170
     0
171
     0
290
     0
174
     0
 93
        1
 44
0.0
173
     0
291
     1
 45
0.0
1001
ACAD
1000
AcDbSavedByObjectVersion
1070
     0
  0
VISUALSTYLE
  5
35
102
{ACAD_XDICTIONARY
360
A23
102
}
102
{ACAD_REACTORS
330
29
102
}
330
29
100
AcDbVisualStyle
  2
Brighten
 70
    12
 71
     2
 72
     2
 73
     0
 90
        0
 40
-0.6
 41
-30.0
 62
     5
 63
     7
 74
     1
 91
        4
 64
     7
 65
   257
 75
     1
175
     1
 42
1.0
 92
        8
 66
     7
 43
1.0
 76
     1
 77
     6
 78
     2
 67
     7
 79
     5
170
     0
171
     0
290
     0
174
     0
 93
        1
 44
50.0
173
     0
291
     1
 45
0.0
1001
ACAD
1000
AcDbSavedByObjectVersion
1070
     0
  0
VISUALSTYLE
  5
39
102
{ACAD_XDICTIONARY
360
A2B
102
}
102
{ACAD_REACTORS
330
29
102
}
330
29
100
AcDbVisualStyle
  2
ColorChange
 70
    16
 71
     2
 72
     2
 73
     3
 90
        0
 40
-0.6
 41
-30.0
 62
     5
 63
     8
 74
     1
 91
        4
 64
     7
 65
   257
 75
     1
175
     1
 42
1.0
 92
        8
 66
     8
 43
1.0
 76
     1
 77
     6
 78
     2
 67
     7
 79
     5
170
     0
171
     0
290
     0
174
     0
 93
        1
 44
0.0
173
     0
291
     1
 45
0.0
1001
ACAD
1000
AcDbSavedByObjectVersion
1070
     0
  0
VISUALSTYLE
  5
32
102
{ACAD_XDICTIONARY
360
A1D
102
}
102
{ACAD_REACTORS
330
29
102
}
330
29
100
AcDbVisualStyle
  2
Conceptual
 70
     9
 71
     3
 72
     2
 73
     0
 90
        0
 40
-0.6
 41
-30.0
 62
     5
 63
     7
 74
     2
 91
        2
 64
     7
 65
   257
 75
     1
175
     1
 42
179.0
 92
        8
 66
     7
 43
1.0
 76
     1
 77
     6
 78
     2
 67
     7
 79
     3
170
     0
171
     0
290
     0
174
     0
 93
        1
 44
0.0
173
     0
291
     0
 45
0.0
1001
ACAD
1000
AcDbSavedByObjectVersion
1070
     0
  0
VISUALSTYLE
  5
34
102
{ACAD_XDICTIONARY
360
A21
102
}
102
{ACAD_REACTORS
330
29
102
}
330
29
100
AcDbVisualStyle
  2
Dim
 70
    11
 71
     2
 72
     2
 73
     0
 90
        0
 40
-0.6
 41
-30.0
 62
     5
 63
     7
 74
     1
 91
        4
 64
     7
 65
   257
 75
     1
175
     1
 42
1.0
 92
        8
 66
     7
 43
1.0
 76
     1
 77
     6
 78
     2
 67
     7
 79
     5
170
     0
171
     0
290
     0
174
     0
 93
        1
 44
-50.0
173
     0
291
     1
 45
0.0
1001
ACAD
1000
AcDbSavedByObjectVersion
1070
     0
  0
VISUALSTYLE
  5
41
102
{ACAD_XDICTIONARY
360
A3B
102
}
102
{ACAD_REACTORS
330
29
102
}
330
29
100
AcDbVisualStyle
  2
EdgeColorOff
 70
    22
 71
     2
 72
     2
 73
     0
 90
        0
 40
-0.6
 41
-30.0
 62
     5
 63
     7
 74
     1
 91
        4
 64
     7
 65
   257
 75
     1
175
     1
 42
1.0
 92
        8
 66
     7
 43
1.0
 76
     1
 77
     6
 78
     2
 67
     7
 79
     5
170
     0
171
     0
290
     0
174
     0
 93
        1
 44
0.0
173
     0
291
     1
 45
0.0
1001
ACAD
1000
AcDbSavedByObjectVersion
1070
     0
  0
VISUALSTYLE
  5
38
102
{ACAD_XDICTIONARY
360
A29
102
}
102
{ACAD_REACTORS
330
29
102
}
330
29
100
AcDbVisualStyle
  2
Facepattern
 70
    15
 71
     2
 72
     2
 73
     0
 90
        0
 40
-0.6
 41
-30.0
 62
     5
 63
     7
 74
     1
 91
        4
 64
     7
 65
   257
 75
     1
175
     1
 42
1.0
 92
        8
 66
     7
 43
1.0
 76
     1
 77
     6
 78
     2
 67
     7
 79
     5
170
     0
171
     0
290
     0
174
     0
 93
        1
 44
0.0
173
     0
291
     1
 45
0.0
1001
ACAD
1000
AcDbSavedByObjectVersion
1070
     0
  0
VISUALSTYLE
  5
2A
102
{ACAD_XDICTIONARY
360
A0D
102
}
102
{ACAD_REACTORS
330
29
102
}
330
29
100
AcDbVisualStyle
  2
Flat
 70
     0
 71
     2
 72
     1
 73
     1
 90
        2
 40
-0.6
 41
30.0
 62
     5
 63
     7
 74
     0
 91
        0
 64
     7
 65
   257
 75
     1
175
     1
 42
1.0
 92
        8
 66
     7
 43
1.0
 76
     1
 77
     6
 78
     2
 67
     7
 79
     5
170
     0
171
     0
290
     0
174
     0
 93
       13
 44
0.0
173
     0
291
     1
 45
0.0
1001
ACAD
1000
AcDbSavedByObjectVersion
1070
     0
  0
VISUALSTYLE
  5
2B
102
{ACAD_XDICTIONARY
360
A0F
102
}
102
{ACAD_REACTORS
330
29
102
}
330
29
100
AcDbVisualStyle
  2
FlatWithEdges
 70
     1
 71
     2
 72
     1
 73
     1
 90
        2
 40
-0.6
 41
30.0
 62
     5
 63
     7
 74
     1
 91
        0
 64
     7
 65
   257
 75
     1
175
     1
 42
1.0
 92
        0
 66
   257
 43
1.0
 76
     1
 77
     6
 78
     2
 67
     7
 79
     5
170
     0
171
     0
290
     0
174
     0
 93
       13
 44
0.0
173
     0
291
     1
 45
0.0
1001
ACAD
1000
AcDbSavedByObjectVersion
1070
     0
  0
VISUALSTYLE
  5
2C
102
{ACAD_XDICTIONARY
360
A11
102
}
102
{ACAD_REACTORS
330
29
102
}
330
29
100
AcDbVisualStyle
  2
Gouraud
 70
     2
 71
     2
 72
     2
 73
     1
 90
        2
 40
-0.6
 41
30.0
 62
     5
 63
     7
 74
     0
 91
        0
 64
     7
 65
   257
 75
     1
175
     1
 42
1.0
 92
        0
 66
     7
 43
1.0
 76
     1
 77
     6
 78
     2
 67
     7
 79
     5
170
     0
171
     0
290
     0
174
     0
 93
       13
 44
0.0
173
     0
291
     1
 45
0.0
1001
ACAD
1000
AcDbSavedByObjectVersion
1070
     0
  0
VISUALSTYLE
  5
2D
102
{ACAD_XDICTIONARY
360
A13
102
}
102
{ACAD_REACTORS
330
29
102
}
330
29
100
AcDbVisualStyle
  2
GouraudWithEdges
 70
     3
 71
     2
 72
     2
 73
     1
 90
        2
 40
-0.6
 41
30.0
 62
     5
 63
     7
 74
     1
 91
        0
 64
     7
 65
   257
 75
     1
175
     1
 42
1.0
 92
        0
 66
   257
 43
1.0
 76
     1
 77
     6
 78
     2
 67
     7
 79
     5
170
     0
171
     0
290
     0
174
     0
 93
       13
 44
0.0
173
     0
291
     1
 45
0.0
1001
ACAD
1000
AcDbSavedByObjectVersion
1070
     0
  0
VISUALSTYLE
  5
31
102
{ACAD_XDICTIONARY
360
A1B
102
}
102
{ACAD_REACTORS
330
29
102
}
330
29
100
AcDbVisualStyle
  2
Hidden
 70
     6
 71
     1
 72
     2
 73
     2
 90
        0
 40
-0.6
 41
-30.0
 62
     5
 63
     7
 74
     2
 91
        2
 64
     7
 65
   257
 75
     2
175
     1
 42
40.0
 92
        0
 66
   257
 43
1.0
 76
     1
 77
     6
 78
     2
 67
     7
 79
     3
170
     0
171
     0
290
     0
174
     0
 93
        1
 44
0.0
173
     0
291
     0
 45
0.0
1001
ACAD
1000
AcDbSavedByObjectVersion
1070
     0
  0
VISUALSTYLE
  5
3F
102
{ACAD_XDICTIONARY
360
A37
102
}
102
{ACAD_REACTORS
330
29
102
}
330
29
100
AcDbVisualStyle
  2
JitterOff
 70
    20
 71
     2
 72
     2
 73
     0
 90
        0
 40
-0.6
 41
-30.0
 62
     5
 63
     7
 74
     1
 91
        4
 64
     7
 65
   257
 75
     1
175
     1
 42
1.0
 92
       10
 66
     7
 43
1.0
 76
     1
 77
     6
 78
     2
 67
     7
 79
     5
170
     0
171
     0
290
     0
174
     0
 93
        1
 44
0.0
173
     0
291
     1
 45
0.0
1001
ACAD
1000
AcDbSavedByObjectVersion
1070
     0
  0
VISUALSTYLE
  5
37
102
{ACAD_XDICTIONARY
360
A27
102
}
102
{ACAD_REACTORS
330
29
102
}
330
29
100
AcDbVisualStyle
  2
Linepattern
 70
    14
 71
     2
 72
     2
 73
     0
 90
        0
 40
-0.6
 41
-30.0
 62
     5
 63
     7
 74
     1
 91
        4
 64
     7
 65
   257
 75
     7
175
     7
 42
1.0
 92
        8
 66
     7
 43
1.0
 76
     1
 77
     6
 78
     2
 67
     7
 79
     5
170
     0
171
     0
290
     0
174
     0
 93
        1
 44
0.0
173
     0
291
     1
 45
0.0
1001
ACAD
1000
AcDbSavedByObjectVersion
1070
     0
  0
VISUALSTYLE
  5
40
102
{ACAD_XDICTIONARY
360
A39
102
}
102
{ACAD_REACTORS
330
29
102
}
330
29
100
AcDbVisualStyle
  2
OverhangOff
 70
    21
 71
     2
 72
     2
 73
     0
 90
        0
 40
-0.6
 41
-30.0
 62
     5
 63
     7
 74
     1
 91
        4
 64
     7
 65
   257
 75
     1
175
     1
 42
1.0
 92
        9
 66
     7
 43
1.0
 76
     1
 77
     6
 78
     2
 67
     7
 79
     5
170
     0
171
     0
290
     0
174
     0
 93
        1
 44
0.0
173
     0
291
     1
 45
0.0
1001
ACAD
1000
AcDbSavedByObjectVersion
1070
     0
  0
VISUALSTYLE
  5
33
102
{ACAD_XDICTIONARY
360
A1F
102
}
102
{ACAD_REACTORS
330
29
102
}
330
29
100
AcDbVisualStyle
  2
Realistic
 70
     8
 71
     2
 72
     3
 73
     0
 90
        2
 40
-0.6
 41
30.0
 62
     5
 63
     7
 74
     0
 91
        0
 64
     7
 65
   257
 75
     1
175
     1
 42
1.0
 92
        8
 66
   257
 43
1.0
 76
     1
 77
     6
 78
     2
 67
     7
 79
     3
170
     0
171
     0
290
     0
174
     0
 93
       13
 44
0.0
173
     0
291
     0
 45
0.0
1001
ACAD
1000
AcDbSavedByObjectVersion
1070
     0
  0
VISUALSTYLE
  5
3E
102
{ACAD_XDICTIONARY
360
A35
102
}
102
{ACAD_REACTORS
330
29
102
}
330
29
100
AcDbVisualStyle
  2
Shaded
 70
    27
 71
     2
 72
     2
 73
     1
 90
        2
 40
-0.6
 41
30.0
 62
     5
 63
     7
 74
     0
 91
        4
 64
     7
 65
   257
 75
     1
175
     1
 42
1.0
 92
        8
 66
   257
 43
1.0
 76
     1
 77
     6
 78
     2
 67
     8
 79
     3
170
     0
171
     0
290
     0
174
     0
 93
        5
 44
0.0
173
     0
291
     0
 45
0.0
1001
ACAD
1000
AcDbSavedByObjectVersion
1070
     0
  0
VISUALSTYLE
  5
3D
102
{ACAD_XDICTIONARY
360
A33
102
}
102
{ACAD_REACTORS
330
29
102
}
330
29
100
AcDbVisualStyle
  2
Shaded with edges
 70
    26
 71
     2
 72
     2
 73
     1
 90
        2
 40
-0.6
 41
30.0
 62
     5
 63
     7
 74
     1
 91
       10
 64
     7
 65
   257
 75
     2
175
     1
 42
1.0
 92
        8
 66
   257
 43
1.0
 76
     1
 77
     6
 78
     2
 67
     7
 79
     3
170
     0
171
     0
290
     0
174
     0
 93
        5
 44
0.0
173
     0
291
     0
 45
0.0
1001
ACAD
1000
AcDbSavedByObjectVersion
1070
     0
  0
VISUALSTYLE
  5
3A
102
{ACAD_XDICTIONARY
360
A2D
102
}
102
{ACAD_REACTORS
330
29
102
}
330
29
100
AcDbVisualStyle
  2
Shades of Gray
 70
    23
 71
     2
 72
     2
 73
     3
 90
        0
 40
-0.6
 41
-30.0
 62
     5
 63
     7
 74
     2
 91
        2
 64
     7
 65
     7
 75
     1
175
     1
 42
40.0
 92
        8
 66
     7
 43
1.0
 76
     1
 77
     6
 78
     2
 67
     7
 79
     3
170
     0
171
     0
290
     0
174
     0
 93
        1
 44
0.0
173
     0
291
     0
 45
0.0
1001
ACAD
1000
AcDbSavedByObjectVersion
1070
     0
  0
VISUALSTYLE
  5
3B
102
{ACAD_XDICTIONARY
360
A2F
102
}
102
{ACAD_REACTORS
330
29
102
}
330
29
100
AcDbVisualStyle
  2
Sketchy
 70
    24
 71
     1
 72
     2
 73
     2
 90
        0
 40
-0.6
 41
-30.0
 62
     5
 63
     7
 74
     2
 91
        2
 64
     7
 65
     7
 75
     1
175
     1
 42
40.0
 92
       11
 66
     7
 43
1.0
 76
     1
 77
     6
 78
     2
 67
     7
 79
     6
170
     0
171
     0
290
     0
174
     0
 93
        1
 44
0.0
173
     0
291
     0
 45
0.0
1001
ACAD
1000
AcDbSavedByObjectVersion
1070
     0
  0
VISUALSTYLE
  5
36
102
{ACAD_XDICTIONARY
360
A25
102
}
102
{ACAD_REACTORS
330
29
102
}
330
29
100
AcDbVisualStyle
  2
Thicken
 70
    13
 71
     2
 72
     2
 73
     0
 90
        0
 40
-0.6
 41
-30.0
 62
     5
 63
     7
 74
     1
 91
        4
 64
     7
 65
   257
 75
     1
175
     1
 42
1.0
 92
       12
 66
     7
 43
1.0
 76
     1
 77
     6
 78
     2
 67
     7
 79
     5
170
     0
171
     0
290
     0
174
     0
 93
        1
 44
0.0
173
     0
291
     1
 45
0.0
1001
ACAD
1000
AcDbSavedByObjectVersion
1070
     0
  0
VISUALSTYLE
  5
30
102
{ACAD_XDICTIONARY
360
A19
102
}
102
{ACAD_REACTORS
330
29
102
}
330
29
100
AcDbVisualStyle
  2
Wireframe
 70
     5
 71
     0
 72
     2
 73
     0
 90
        0
 40
-0.6
 41
-30.0
 62
     5
 63
     7
 74
     1
 91
        4
 64
     7
 65
   257
 75
     1
175
     1
 42
1.0
 92
        0
 66
   257
 43
1.0
 76
     1
 77
     6
 78
     2
 67
     7
 79
     3
170
     0
171
     0
290
     0
174
     0
 93
        1
 44
0.0
173
     0
291
     0
 45
0.0
1001
ACAD
1000
AcDbSavedByObjectVersion
1070
     0
  0
VISUALSTYLE
  5
3C
102
{ACAD_XDICTIONARY
360
A31
102
}
102
{ACAD_REACTORS
330
29
102
}
330
29
100
AcDbVisualStyle
  2
X-Ray
 70
    25
 71
     2
 72
     2
 73
     1
 90
        1
 40
0.5
 41
-30.0
 62
     5
 63
     7
 74
     1
 91
        0
 64
     7
 65
   257
 75
     1
175
     1
 42
1.0
 92
        8
 66
     7
 43
1.0
 76
     1
 77
     6
 78
     2
 67
     7
 79
     3
170
     0
171
     0
290
     0
174
     0
 93
       13
 44
0.0
173
     0
291
     0
 45
0.0
1001
ACAD
1000
AcDbSavedByObjectVersion
1070
     0
  0
DICTIONARYVAR
  5
79
102
{ACAD_REACTORS
330
76
102
}
330
76
100
DictionaryVariables
280
     0
  1
1:1
  0
DICTIONARYVAR
  5
78
102
{ACAD_REACTORS
330
76
102
}
330
76
100
DictionaryVariables
280
     0
  1
STANDARD
  0
DICTIONARYVAR
  5
77
102
{ACAD_REACTORS
330
76
102
}
330
76
100
DictionaryVariables
280
     0
  1
STANDARD
  0
DICTIONARYVAR
  5
A00
102
{ACAD_REACTORS
330
76
102
}
330
76
100
DictionaryVariables
280
     0
  1
1
  0
DICTIONARYVAR
  5
9FF
102
{ACAD_REACTORS
330
76
102
}
330
76
100
DictionaryVariables
280
     0
  1
1
  0
DICTIONARYVAR
  5
9FE
102
{ACAD_REACTORS
330
76
102
}
330
76
100
DictionaryVariables
280
     0
  1
0
  0
DICTIONARYVAR
  5
9FB
102
{ACAD_REACTORS
330
76
102
}
330
76
100
DictionaryVariables
280
     0
  1
0
  0
DICTIONARYVAR
  5
9FC
102
{ACAD_REACTORS
330
76
102
}
330
76
100
DictionaryVariables
280
     0
  1
0
  0
DICTIONARYVAR
  5
9FA
102
{ACAD_REACTORS
330
76
102
}
330
76
100
DictionaryVariables
280
     0
  1
2
  0
DICTIONARYVAR
  5
9F9
102
{ACAD_REACTORS
330
76
102
}
330
76
100
DictionaryVariables
280
     0
  1
1
  0
DICTIONARYVAR
  5
9FD
102
{ACAD_REACTORS
330
76
102
}
330
76
100
DictionaryVariables
280
     0
  1
127
  0
DICTIONARYVAR
  5
A01
102
{ACAD_REACTORS
330
76
102
}
330
76
100
DictionaryVariables
280
     0
  1
2
  0
DICTIONARY
  5
A3F
330
6B
100
AcDbDictionary
280
     1
281
     1
  3
ACAD_XREC_ROUNDTRIP
360
A40
  0
DICTIONARY
  5
A43
330
73
100
AcDbDictionary
280
     1
281
     1
  3
ACAD_XREC_ROUNDTRIP
360
A44
  0
DICTIONARY
  5
A41
330
6F
100
AcDbDictionary
280
     1
281
     1
  3
ACAD_XREC_ROUNDTRIP
360
A42
  0
DICTIONARY
  5
1A
330
19
100
AcDbDictionary
280
     1
281
     1
  3
ACAD_XREC_ROUNDTRIP
360
A0B
  3
BUMPTILE
360
1C
  3
DIFFUSETILE
360
1B
  3
OPACITYTILE
360
1F
  3
REFLECTIONTILE
360
1E
  3
REFRACTIONTILE
360
20
  3
SPECULARTILE
360
1D
  0
DICTIONARY
  5
12
330
11
100
AcDbDictionary
280
     1
281
     1
  3
ACAD_XREC_ROUNDTRIP
360
A0A
  3
BUMPTILE
360
14
  3
DIFFUSETILE
360
13
  3
FBXASSET
360
F5
  3
OPACITYTILE
360
17
  3
REFLECTIONTILE
360
16
  3
REFRACTIONTILE
360
18
  3
SPECULARTILE
360
15
  0
DICTIONARY
  5
22
330
21
100
AcDbDictionary
280
     1
281
     1
  3
ACAD_XREC_ROUNDTRIP
360
A0C
  3
BUMPTILE
360
24
  3
DIFFUSETILE
360
23
  3
FBXASSET
360
BA
  3
OPACITYTILE
360
27
  3
REFLECTIONTILE
360
26
  3
REFRACTIONTILE
360
28
  3
SPECULARTILE
360
25
  0
DICTIONARY
  5
A04
330
67
100
AcDbDictionary
280
     1
281
     1
  3
ACAD_XREC_ROUNDTRIP
360
A05
  0
DICTIONARY
  5
A02
330
65
100
AcDbDictionary
280
     1
281
     1
  3
ACAD_ROUNDTRIP_2008_TABLESTYLE_CELLSTYLEMAP
360
A03
  3
ACAD_XREC_ROUNDTRIP
360
A3D
  0
DICTIONARY
  5
A17
330
2F
100
AcDbDictionary
280
     1
281
     1
  3
ACAD_XREC_ROUNDTRIP
360
A18
  0
DICTIONARY
  5
A15
330
2E
100
AcDbDictionary
280
     1
281
     1
  3
ACAD_XREC_ROUNDTRIP
360
A16
  0
DICTIONARY
  5
A23
330
35
100
AcDbDictionary
280
     1
281
     1
  3
ACAD_XREC_ROUNDTRIP
360
A24
  0
DICTIONARY
  5
A2B
330
39
100
AcDbDictionary
280
     1
281
     1
  3
ACAD_XREC_ROUNDTRIP
360
A2C
  0
DICTIONARY
  5
A1D
330
32
100
AcDbDictionary
280
     1
281
     1
  3
ACAD_XREC_ROUNDTRIP
360
A1E
  0
DICTIONARY
  5
A21
330
34
100
AcDbDictionary
280
     1
281
     1
  3
ACAD_XREC_ROUNDTRIP
360
A22
  0
DICTIONARY
  5
A3B
330
41
100
AcDbDictionary
280
     1
281
     1
  3
ACAD_XREC_ROUNDTRIP
360
A3C
  0
DICTIONARY
  5
A29
330
38
100
AcDbDictionary
280
     1
281
     1
  3
ACAD_XREC_ROUNDTRIP
360
A2A
  0
DICTIONARY
  5
A0D
330
2A
100
AcDbDictionary
280
     1
281
     1
  3
ACAD_XREC_ROUNDTRIP
360
A0E
  0
DICTIONARY
  5
A0F
330
2B
100
AcDbDictionary
280
     1
281
     1
  3
ACAD_XREC_ROUNDTRIP
360
A10
  0
DICTIONARY
  5
A11
330
2C
100
AcDbDictionary
280
     1
281
     1
  3
ACAD_XREC_ROUNDTRIP
360
A12
  0
DICTIONARY
  5
A13
330
2D
100
AcDbDictionary
280
     1
281
     1
  3
ACAD_XREC_ROUNDTRIP
360
A14
  0
DICTIONARY
  5
A1B
330
31
100
AcDbDictionary
280
     1
281
     1
  3
ACAD_XREC_ROUNDTRIP
360
A1C
  0
DICTIONARY
  5
A37
330
3F
100
AcDbDictionary
280
     1
281
     1
  3
ACAD_XREC_ROUNDTRIP
360
A38
  0
DICTIONARY
  5
A27
330
37
100
AcDbDictionary
280
     1
281
     1
  3
ACAD_XREC_ROUNDTRIP
360
A28
  0
DICTIONARY
  5
A39
330
40
100
AcDbDictionary
280
     1
281
     1
  3
ACAD_XREC_ROUNDTRIP
360
A3A
  0
DICTIONARY
  5
A1F
330
33
100
AcDbDictionary
280
     1
281
     1
  3
ACAD_XREC_ROUNDTRIP
360
A20
  0
DICTIONARY
  5
A35
330
3E
100
AcDbDictionary
280
     1
281
     1
  3
ACAD_XREC_ROUNDTRIP
360
A36
  0
DICTIONARY
  5
A33
330
3D
100
AcDbDictionary
280
     1
281
     1
  3
ACAD_XREC_ROUNDTRIP
360
A34
  0
DICTIONARY
  5
A2D
330
3A
100
AcDbDictionary
280
     1
281
     1
  3
ACAD_XREC_ROUNDTRIP
360
A2E
  0
DICTIONARY
  5
A2F
330
3B
100
AcDbDictionary
280
     1
281
     1
  3
ACAD_XREC_ROUNDTRIP
360
A30
  0
DICTIONARY
  5
A25
330
36
100
AcDbDictionary
280
     1
281
     1
  3
ACAD_XREC_ROUNDTRIP
360
A26
  0
DICTIONARY
  5
A19
330
30
100
AcDbDictionary
280
     1
281
     1
  3
ACAD_XREC_ROUNDTRIP
360
A1A
  0
DICTIONARY
  5
A31
330
3C
100
AcDbDictionary
280
     1
281
     1
  3
ACAD_XREC_ROUNDTRIP
360
A32
  0
XRECORD
  5
A40
102
{ACAD_REACTORS
330
A3F
102
}
330
A3F
100
AcDbXrecord
280
     1
102
SHADEPLOT
 70
     0
102
SHADEPLOTRESLEVEL
 70
     2
102
SHADEPLOTCUSTOMDPI
 70
   300
  0
XRECORD
  5
A44
102
{ACAD_REACTORS
330
A43
102
}
330
A43
100
AcDbXrecord
280
     1
102
SHADEPLOT
 70
     0
102
SHADEPLOTRESLEVEL
 70
     2
102
SHADEPLOTCUSTOMDPI
 70
   300
  0
XRECORD
  5
A42
102
{ACAD_REACTORS
330
A41
102
}
330
A41
100
AcDbXrecord
280
     1
102
SHADEPLOT
 70
     0
102
SHADEPLOTRESLEVEL
 70
     2
102
SHADEPLOTCUSTOMDPI
 70
   300
  0
XRECORD
  5
A0B
102
{ACAD_REACTORS
330
1A
102
}
330
1A
100
AcDbXrecord
280
     1
102
MATERIAL
148
0.0
149
0.0
149
0.0
 93
        0
 94
      127
282
     0
 72
     0
 77
     0
171
     0
175
     0
179
     0
273
     0
  0
XRECORD
  5
1C
102
{ACAD_REACTORS
330
1A
102
}
330
1A
100
AcDbXrecord
280
     1
270
     1
271
     1
  0
XRECORD
  5
1B
102
{ACAD_REACTORS
330
1A
102
}
330
1A
100
AcDbXrecord
280
     1
270
     1
271
     1
  0
XRECORD
  5
1F
102
{ACAD_REACTORS
330
1A
102
}
330
1A
100
AcDbXrecord
280
     1
270
     1
271
     1
  0
XRECORD
  5
1E
102
{ACAD_REACTORS
330
1A
102
}
330
1A
100
AcDbXrecord
280
     1
270
     1
271
     1
  0
XRECORD
  5
20
102
{ACAD_REACTORS
330
1A
102
}
330
1A
100
AcDbXrecord
280
     1
270
     1
271
     1
  0
XRECORD
  5
1D
102
{ACAD_REACTORS
330
1A
102
}
330
1A
100
AcDbXrecord
280
     1
270
     1
271
     1
  0
XRECORD
  5
A0A
102
{ACAD_REACTORS
330
12
102
}
330
12
100
AcDbXrecord
280
     1
102
MATERIAL
148
0.0
149
0.0
149
0.0
 93
        0
 94
      127
282
     0
 72
     0
 77
     0
171
     0
175
     0
179
     0
273
     0
  0
XRECORD
  5
14
102
{ACAD_REACTORS
330
12
102
}
330
12
100
AcDbXrecord
280
     1
270
     1
271
     1
  0
XRECORD
  5
13
102
{ACAD_REACTORS
330
12
102
}
330
12
100
AcDbXrecord
280
     1
270
     1
271
     1
  0
XRECORD
  5
F5
102
{ACAD_REACTORS
330
12
102
}
330
12
100
AcDbXrecord
280
     1
 70
     1
 90
1959938040
 71
     1
  1
06D64530-587F-44DF-9526-02C084193703
311
504B03040A00000800005D4C5C403DEE336E79000000790000001B0000006175746F6465736B2D64657369676E2D7061636B6167652E786D6C3C3F786D6C2076657273696F6E3D22312E302220656E636F64696E673D227574662D3822203F3E3C666F726D6174733E3C666F726D61743E687474703A2F2F736368656D612E
311
6175746F6465736B2E636F6D2F64657369676E2D7061636B6167652F323030393C2F666F726D61743E3C2F666F726D6174733E504B03041400060808005D4C5C40D486FD9CA0000000F4000000130000005B436F6E74656E745F54797065735D2E786D6C7D8EC10E82300C865F65E91D8A1E8C310C0EEA1BF002731658846E
311
D98AC1B77784ABF1D8FE5FBFBF75BBCE937A534CCEB38643598122B6FEE978D0B0485F9C41B54DDD7D022595594E1A469170414C76A4D9A4D207E29CF43ECE46F218070CC6BECC4078ACAA135ACF422C856C0E68EA1BF5669944DDD7BCDE7B1F8E415D77AECB980613C2E4AC91FC167A2B244592486606FC29C8FD7F045B9A
311
EF7053A7E60B504B03041400060808005D4C5C407A5525B9EB0000007C01000008000000636F72652E786D6C8D90416EC3201045AF82668F0DD84E6D0B13256973825E0001715062B00C543D7E71E248EDAEAB19FDF96F66F4F9FE7BBAA32FB304EBDD00B420808C535E5B370E90E205B780F6822FDEC75F36404E4E668055
311
06C1C7C5A779939477D1B89855E7B5D94419828980D43D3703047535932C648AD9116EC52CD54D8EA6A0AF2EC329598D9E47ACCEFBECC59A0504A97675F3F17EC4849CDF70BD3B1E70579D293EB427DAB2A63BD1AEE3E50A0B1EEDF4BAAF1623A3D12018A10C138659FB49BABEAAFBA6C364D713C2CBD5FE074AB3FE2794AC
311
8B15DBDE7D620104CD8F3C0682976B16B93C82CA75CD4DFC00504B03041400060808005D4C5C4055019EA25F0000007C00000007000000636E782E786D6C4DCB3B0E80201045D1AD90E915ED2CF8AC45050C11660C8261F98AB1B07AC9C97D42D718D865D3E909258CFD00CCE24AC6E326A164D74DC0B4128928FF32603847
311
2BA13128B1252AC747C6BAB984FC68F0B87FE8960A5C09FE86CFB69FBA01504B03041400060808005D4C5C40E55D46D167010000020300000C0000006662782F636F72652E786D6C8D52ED8E8230107C95A6FF4BCB879E9852A3DEF904F702152A4784969496F8F8B77C18CE8B3186A434333BBBB3037C776B6AD42BDB5546
311
67380C18464AE7A6A8749961EF2E6483D14E706B8CFB538691968DCAF00063C14B6B7C3B43B9D14E6907A836859A41D975CA6194D770C97097FFA84606D23BA8E8AE412BF3AB2C55100640439DE09DB360004D4386138BCBF9C6E9840BEE7D55CC6C55C0B4EA52298B058BD7C9EAEBF340183B7D90647DD893343E8564BF39
311
869B68951EC334E574100BEEAAE6EE2EB74A3A556011B130222C22D1E69BA5DB38D9AE52C2D65BC6381DCA1F44BE2DDE14F94ABB389AED4EB20E8B108C8CC4BF6D2122873AD9831F2A381D4284D798F063D0100884ECE4B9BEEF7105A857B9333601A6307EA17A597B0553191A1F4E27163A8F0D60B3A77DA2177D5EF7800F
311
287509D6A483EBD9BB613A9FA6CE51B4CA92DEDD9036B691F5626EB2B89CCBA0A7F2DCD4C6BEA3A6F3AA740E930E7FAFF805504B03041400060808005D4C5C4055A6F33C7E0000009D0000000B0000006662782F636E782E786D6C4DCCDF0A83201C86E15B91DFB92BA7F607D468C9EE239685643A9C8E5DFE6A74B0A30F1E
311
3E5ED17D3687DE26BE6CF012C8A50464FC234CD62F12729A7103A853228690FE6E80FCB819090783124B0CF979D264E631BBB4ABB37E3D910C94EA96DF30EF2B8DD99D51DCEB6B835B52D77C2819A5BC824289E257DAF708AB2F504B03041400060808005D4C5C404AA890AD2B01000014020000310000006662782F314333
311
33443935422D354136442D344634332D414432382D3931373735433034333335362F636F72652E786D6C8D51CB6EC32010FC15C4293D6063F033C24469A27E417FC0C1C44589C1E251E5F30BB523B5B75C58343B333BDA6587C77C07DFD23A65740F8B0C4320B530A3D2530F83BFA216820367D618FF8706811E66D9C30443
311
CE266BC2B241C2682FB58FA836A3DCC0C139E92110F7F8E9A1135F721EB221F8C870B76C19C46D98645664B11D799C396F6300B00E492FE4C589D27357BDA3EA589F51F95152743C93167545D354275C525AD52C5F859C85A0C64DAEC618475D95B4AF9A2431675ECDCFF8C2CAC1CB1172820B823041A4FDC4DD9E96FBAA43
311
B8DE63CCF244FF270ACBF8A22828ED29D9E2AE3217B3B27C6D70369A70B93FC3C8C762AC0769DECE49F10639CE30A10D6D71C3F2951A17103DEB72F374DED8B8E0DDED12D945B51AD7256779BA512CBF078C35DD93FF00504B03041400060808005D4C5C4085C512F14D01000033030000300000006662782F314333334439
311
35422D354136442D344634332D414432382D3931373735433034333335362F636E782E786D6CD593CD6E022114855F85B09F5FA7460D8349177D822EBA45B82A9581093F4D7DFB5E14AD1B175D764326E71ECEB9F9C2B0EDF764C817F8A09D1D6957B79480954E697B18698AFB6A45C99633EF5C7CB05162C50423CD32E5EC
311
E05D9A8BA4602F9289A81A6D4F45F4105CF21202CAF926314E0A830160AB84224C3B500A14B91BF16B0F1E5741717726F108E4EDF583B8DD27C818589353386B720767F92C4D0F264AA411218C34C8234CA216293A05E1542B1145DDD5B7AE273BFD26917CE15699BC26B97CA4F9A4BC6C542347D6E090B3103DD22BA6789E
311
817231CF464B11117273315E3D9C256DE372285E8DE03DBABBE5621830EC32E32CEA098A437A101114E57DDBF555DB57FDEABD5D6F16C3E6655DB5CB4DDBB226DB39DB3967CA258C01EF66229D8D6023E51D6BF2F819BEE2234A7B64EDFCF90F20114069BDD2B967FC673ECDE57D232E8F7F01FF01504B0304140006080800
311
5D4C5C40966509BE9C0500007B100000340000006662782F31433333443935422D354136442D344634332D414432382D3931373735433034333335362F6F626A656374732E786D6CAD575D739B3814FD2B0CFB0C06DB49931D4227B19B8CA79BB6534F3BFB90198F0041B4111F2389D4E9AFDF2310185C3BF1EEF4059090AE
311
EE3DF7DC0F05EFB739B79EA990AC2CAE6CDFF56C8B167199B022BBB26B953A17B6F53E0C4459AAC132DB2A484EAF6C3D6D874126CABA3253094D49CDD5DEECEDCDDF968C69416D2BE644CA2B5BC68F34272EA9559950F9E4264411374BB7AEEFB60BC7623341AAC73DA11511B450D014F305A458AD52FE78E8D9933098E8FF
311
61A09F66D5ECF8AA4963CFF87C5648458AF897C3F6C4CCFCF9F2C3F4ECD2399BCF67CEFC7CEA3B37B7374BC77F37F316E78BC5E5F5874B1C2C958024A389A0A91DDE011BC1E260D2FE0A839A156A36354B8C8326823E33ED293B9C5A7E3069D7F4D619230FA91F974541E3062BA0D1D8674427B4A245029F332AA1D900216F
311
3CF4358E83DF333D36470EA74F4360B86320A8D3BD7B0F352DA37F60823C85414252CDC0164B6368CB556F87705496DCFC63D2CA89A282116E711609225EEC104BF592301889D14C163A1AB40576082FB4BFC7744118BDCDF3435AA635E79AC676D844C106B142956C34633FA9D8693F44063AC1579A0D17C620F552513BBC
311
6C2972B1C7A616482BE52483CB61A6DE399BEE19BAD071BA5ADAE1C7DB68BBD6B17BF8F04A9415154AD307D4EA1CD7BD354A4627FF24CFE90DF69E2A3B50BE02F94F08F59D2AF09B60DBF9766E4E518214322D450EDF589EE578787896DF3CF5F7E02B98F49BC7DE3B86279CADA1FA0D788E6D18FA720067183C83F0A59819
311
D3D631E1481BF7AC00409A24162F31853C9C465B3B5C21CB212B6317E1A10F93A1EE333E8389118344D19C347817C0722F2D9E90A0015BC348A8D192DF28B8F3D32FE9AC39D82C3B06EFD96FA1EBF572FD715D8B94C4F4DEC4F492A6AC600A256EC79BA14223CC47163DD1971FA54860E8AF78AF8778E7E62809B435E61AF8
311
ACCBE97AB03B7974408C7D59A9D34DF0C609304217D681FC7B2663CA3929685977E7BE5A3F50365A8875B06B26F705665758409AF6CF5E0CA248C782551AC4BE5AF549D33D62DDB7D52730D20E6F5EFE222FC3EC15ED726F5CF2526CA2974D9B960E42FD7DCC6D83C1444B01DD9B20E9E2DF80BE49589AD61249F000AEDF57
311
8BA1EF745A408AE8A4B6D13287FD082E220C693BB9A8D682A09296C586A16E22EE0E1E30940F480D031A81C7349694A71BC6799D6F52C6518D3639A98EC0F1FFF58FEABCDA90BCAC0B7544F648755487B1EE23F6CA1F44C58F76B86EDECE0D726F42932364D0B5E4005623D77AE7CBF3F9D9CC73CE2EDEDD3AF3F9F2D6B93C
311
9B9E3BDE74E15DCCFDCBD93B6FD6F9A9D5240CBA52338C687809A52DA80533EEFBB642FC98246087F744C987BB363CBBF7B7958B5E3898600FEA65BFF13A7946DF4793B705EC561E14B4CA2B4E735A28A263E85E7FF0AF047DC64899767E95938C9E20E5F3DD7ACF18CC9CB0EF8B8E77FA636FAF995DE8803C28443DD67954
311
10C6F736662D926E556406BFCE27FDBB2D34DD508F8C63D099CA92B3047930B1325AE654211B9E5084444E25A837ECE91373F73861F773DB212A1271DA69F248D0247389B000B5EA588DE7AD3FD0D4E9BEEACA46B9759FF03099C2B6C0992B1B4DBA6231956E8402AD5BA14638B834ECE4D1F89322E3E8B5DB4DFDB8DFA5B1
311
1995E47EC929FD93B1AB4DE1C600A4910A7D031A2278A751260C1ADDCCFFF83F19DEA9631185CFA856BD2DBB89DE98E61884686B94B92DA0897932476F11A8AF9BE5BBCD9A112227DDB25E25412BD5514464CD4D41EB6754BA5E7E99A043B1569FAD8AD7197C79BA24475090B9D6010E16811546664514A8BAF8F3E18B2871
311
93CDAD5B060A3C2CCA3C2F0B33B83637616BFD887B6DF280B440F585443E4C3D7FFAD05C04CCDD641311495D92C8274CC0A782F5108F1C0F46B6B74554A0F647BF6EA29DB0C7CDD5D232256D0EA18628C3ACAA6141CB51500BD1A32F933A56860BAA57EF029366295410E8E2C37F01504B03041400060800005D4C5C400000
311
00000000000000000000350000006662782F31433333443935422D354136442D344634332D414432382D3931373735433034333335362F76657274696365732E62696E504B03041400060808005D4C5C40F270F1330600000004000000360000006662782F31433333443935422D354136442D344634332D414432382D3931
311
373735433034333335362F747269616E676C65732E62696E636660600000504B03041400060800005D4C5C40000000000000000000000000370000006662782F31433333443935422D354136442D344634332D414432382D3931373735433034333335362F617474726962757465732E62696E504B03041400060808005D4C
311
5C40D5987DFC8F00000041010000360000006662782F31433333443935422D354136442D344634332D414432382D3931373735433034333335362F6469726563746F72792E786D6C858F410EC2201045AF4266AF15DDB800BA74E7C21B903225242D6328188F2FA5C4183471359997F9FF81E89FF3C41E1816475E02DF1F80
311
A11FC8386F25A438EECEC07A250251FC3803E6F58C12560C4AD840E95E91C151A72936F496F35732D860FE635F62C8F2DA16B505C545B74125BAA2FA9E05D7CC053D063734D5C7665FD55B6B8D15D5E9BFEAFD8490FFA45E504B03041400060808005D4C5C4012BF7888FD000000A00100003B0000006662782F3143333344
311
3935422D354136442D344634332D414432382D3931373735433034333335362F7265736F75726365732F636F72652E786D6C8D50596E833010BD0A9A7F83CD56888C239A3627E8052C3349AC041B79A97AFC9A40A5F6AF3F33A3B7689E1E3F7ECD8FEC139DD7D60CC0720A191A65276DAE03C470211D6447C19DB5E1970C32
311
23671C608541F0ABB371D921654D4013126AEC843B28BDC700997AA46300AF6E38CB5CC69014FE9E2F52DDE5157396273AE904F7C1A500D9F6649D201C7A1B9D42CF8B8D153C463DED1A3DA59FFAA2D181A0555B37EF6F23A1F4FC42EAF675247D756664EC4EAC2B9BFEC4FA9E17AB59F0A0E79F8CCAA10C388128292B092D
311
49D97DD0FE50D587A627B43D50CA8B55FEC71497E99FA6A84DA8CA3DEE66F320580AF224042FD6BED27A9699F6DAADF806504B010214000A00000800005D4C5C403DEE336E79000000790000001B00000000000000000000000000000000006175746F6465736B2D64657369676E2D7061636B6167652E786D6C504B010214
311
001400060808005D4C5C40D486FD9CA0000000F40000001300000000000000000000000000B20000005B436F6E74656E745F54797065735D2E786D6C504B010214001400060808005D4C5C407A5525B9EB0000007C010000080000000000000000000000000083010000636F72652E786D6C504B010214001400060808005D
311
4C5C4055019EA25F0000007C000000070000000000000000000000000094020000636E782E786D6C504B010214001400060808005D4C5C40E55D46D167010000020300000C00000000000000000000000000180300006662782F636F72652E786D6C504B010214001400060808005D4C5C4055A6F33C7E0000009D0000000B
311
00000000000000000000000000A90400006662782F636E782E786D6C504B010214001400060808005D4C5C404AA890AD2B010000140200003100000000000000000000000000500500006662782F31433333443935422D354136442D344634332D414432382D3931373735433034333335362F636F72652E786D6C504B0102
311
14001400060808005D4C5C4085C512F14D010000330300003000000000000000000000000000CA0600006662782F31433333443935422D354136442D344634332D414432382D3931373735433034333335362F636E782E786D6C504B010214001400060808005D4C5C40966509BE9C0500007B100000340000000000000000
311
0000000000650800006662782F31433333443935422D354136442D344634332D414432382D3931373735433034333335362F6F626A656374732E786D6C504B010214001400060800005D4C5C400000000000000000000000003500000000000000000000000000530E00006662782F31433333443935422D354136442D3446
311
34332D414432382D3931373735433034333335362F76657274696365732E62696E504B010214001400060808005D4C5C40F270F13306000000040000003600000000000000000000000000A60E00006662782F31433333443935422D354136442D344634332D414432382D3931373735433034333335362F747269616E676C
311
65732E62696E504B010214001400060800005D4C5C400000000000000000000000003700000000000000000000000000000F00006662782F31433333443935422D354136442D344634332D414432382D3931373735433034333335362F617474726962757465732E62696E504B010214001400060808005D4C5C40D5987DFC
311
8F000000410100003600000000000000000000000000550F00006662782F31433333443935422D354136442D344634332D414432382D3931373735433034333335362F6469726563746F72792E786D6C504B010214001400060808005D4C5C4012BF7888FD000000A00100003B000000000000000000000000003810000066
311
62782F31433333443935422D354136442D344634332D414432382D3931373735433034333335362F7265736F75726365732F636F72652E786D6C504B0506000000000E000E00800400008E1100000000
310
504B03040A00000800005D4C5C403DEE336E79000000790000001B0000006175746F6465736B2D64657369676E2D7061636B6167652E786D6C3C3F786D6C2076657273696F6E3D22312E302220656E636F64696E673D227574662D3822203F3E3C666F726D6174733E3C666F726D61743E687474703A2F2F736368656D612E
310
6175746F6465736B2E636F6D2F64657369676E2D7061636B6167652F323030393C2F666F726D61743E3C2F666F726D6174733E504B03041400060808005D4C5C40D486FD9CA0000000F4000000130000005B436F6E74656E745F54797065735D2E786D6C7D8EC10E82300C865F65E91D8A1E8C310C0EEA1BF002731658846E
310
D98AC1B77784ABF1D8FE5FBFBF75BBCE937A534CCEB38643598122B6FEE978D0B0485F9C41B54DDD7D022595594E1A469170414C76A4D9A4D207E29CF43ECE46F218070CC6BECC4078ACAA135ACF422C856C0E68EA1BF5669944DDD7BCDE7B1F8E415D77AECB980613C2E4AC91FC167A2B244592486606FC29C8FD7F045B9A
310
EF7053A7E60B504B03041400060808005D4C5C40510950E9E80000007C01000008000000636F72652E786D6C8D904D6EC3201085AF82668F831D53FF081335B56FD00B20200E4A0C9681AAC72F248ED4EEBA9AD19BF7CD8C1E3B7D2F77F4A5376F9C1DA02C08206DA553C6CE03C470C12DA013679B73E1970D90158B1E20CB
310
C0D9BCB9B8EE927436681B926A9DD2BB28BCD70190BCA766002FAF7A1185882139FCAD5885BC895917E5AB4B708C46A1E711A3D23E73317A033ED1A9A1EF2DC5E3D88CB82623C5DD4743F0D4D5B4A1E7E64C0861870C7316CCF2BA2F372D8256C02B52569854B86A3F49D71FEB9E7698BCF519CAF63F505CD53FA1686C3856
310
FBBB4FCC032FD3238F0167879C452A8FA052CDB9F11F504B03041400060808005D4C5C4055019EA25F0000007C00000007000000636E782E786D6C4DCB3B0E80201045D1AD90E915ED2CF8AC45050C11660C8261F98AB1B07AC9C97D42D718D865D3E909258CFD00CCE24AC6E326A164D74DC0B4128928FF326038472BA131
310
28B1252AC747C6BAB984FC68F0B87FE8960A5C09FE86CFB69FBA01504B03041400060808005D4C5C40484D601A64010000020300000C0000006662782F636F72652E786D6C8D52D18E832010FC15C23B8A56CFB6419AEBD93FB81FA04A3D53058360FAF9B7A88DD74BD33426486676766747D9E1D6B568946668B4CA711450
310
8CA42A75D5A83AC7CE5EC816A30367466BFBA70C23253A99630F63CE6AA35DBF40A556562A0BA8D2955C40310CD26254B670C9F150FEC84E04C259A818AE412FCAABA865100540431D6783356000CD43FC89F9E57C63E18C73E65C532D6C53C1B4E6D24883F9293D65E9E7362545911524A1454A765F1925A75D9266E9313B
310
524A59E8C59CD9A6BBBB2B8D14565698C7348A098D49BCFDA6BBFD26D9A73B423FF65EE4CB1F44AEAFDE14B946D94DBCD89D6503E6111899887FDB4244160D62043F2167A10F115E53C28F41432010B215E7F6BEC715A05196569B04984ABB951A45EB244CA5687A5838B3D0796A009B3DED13BFE8F3BA077C40A16AB0262C
310
5CCFCEFAE96C9EBA44D14B43467B434A9B4EB4ABB9D9E27AAE839ECA4BDD6AF38E3A5C560D973043FFF7F25F504B03041400060808005D4C5C402D37E8427D0000009D0000000B0000006662782F636E782E786D6C4DCCD10A83201886E15B91FFDCA5C39A811AE67621B12C64A6C36974F9ABD1C18E3E78F87845B72D1EAD
310
367D5C0C12E88500B2E11947176609254F9803EA944831E6BF1BA0302C56C2C1A0C49C62799F34DA69283EEFEA5D789D782586D53DBBE31B695ACC5ADE63FD301AEB5A6BDA18C2A8E1502951FD4AFB1E61F505504B03041400060808005D4C5C408571B9F32A01000014020000310000006662782F32304334354234442D37
310
3036392D343938422D414543412D4135414131364330343143382F636F72652E786D6C8D51CB6EC32010FC15C4293D60631B3B7684891CB77FD01F7080A42831583CAA7C7EA176A4F6960B8B66676647BBF4F898EFE05B5AA78CEE61916108A4E646287DED61F017D4427064D41AE3FFD020D0D32C7B9860C8E8D59AB06C10
310
37DA4BED23AA8D901B3839273D04FC1E3F3D74FC4BCE5336051F19EE962D13BF4D579915596C471EA3CEDB1800AC43D20B598947529FC83BDAE3A643A46B4F68F8180734D4C350342326C5D8D27C15321A82129B5C8918475D94B4AF9A2431A35ECDCFF8DCCAC94B91F445897089CAF61377878A1CEA0EE1E68031CD13FD9F
310
282CE2455150DA57E516779539C80A9AAF0D468509E7FB338C7C2CC67A90E6ED9CE46F90E10C97D5BEEA484DF3951A17103D1BB2793A6F6C5CF0EE768EEC6A336E08A379BA512CBF078C35DD93FD00504B03041400060808005D4C5C40E362DDE65501000033030000300000006662782F32304334354234442D373036392D
310
343938422D414543412D4135414131364330343143382F636E782E786D6CBD93CD6EC32010845F0571F76F5C2B8930917AE813F4D02B864D4A83C1025C356FDF2521692E3954AA7A41D6EC30B3FA84D9EE6B32E4137CD0CE0EB4296B4AC04AA7B43D0C7489FB624DC98E33EF5CBCB35162C504034D32E5ECE0DD326749C15E
310
2C26A26AB43D66D143708B9710504E37897152180C005B2C28C2348252A0C8CD885F7BF0B80A8AE389C477202FCF6FC48D1F206360554AE1AC4A1D9CA53337DD992891468430D020DF6112A558A253108EA51251944D79ED7AB0D34F124917AE958BD724950F349D94E78D4AE4C82A1C7216A2477AD9144F33502EE6D96829
310
2242AECEC68B87B345DBD877D9AB11BC47F7AAEDD76B0C3BCF388B7A82EC901E440445795B376D51B745BB7EAD37DB55B77DDA1475BFAD6B56253B67A373265FC218F06E26D2D9083652DEB02A8D1FE1CB3EA2B447D6CE9F7E011201E4D60B9D5BC65FF269FA55D7FD239FEAFCBE1197C7BF807F03504B0304140006080800
310
5D4C5C407E362F6C5A070000941B0000340000006662782F32304334354234442D373036392D343938422D414543412D4135414131364330343143382F6F626A656374732E786D6CED595B73ABB616FE2B0C7D36065FB29333844E62377B3C6D76F7D46777CE4366181964A246084612D9717F7D972E602026C1A7E95B1F6C
310
40484B6B7DEBAA45F8E34B4E9D67CC0529D8B51B78BEEB6096142961D9B55BC9FDE4D2757E8C425E14B235CD7518CAF1B5AB86DD28CC7851957628C57B5451D91BBDBBFD9F2312CCB0EB24140971ED8AE411E7C843952C522C9EBC1449E465FB172FF0CCC42ED98CA3F2B147B4441C33099CC238032A8E612AE83EFAEE340A
310
A7EA7D14AA7F3B6B3E6AD66278D6544BDDE5923021114B5EB1D423331FC5D23C58AC7F9A2DAF26CBC5623E595CCC82C9EDDDED7A127C9AFBAB8BD5EAEAE6A72B606F5714D4CA94E212B314F47770A3209CAA378DE81681535C27056338D14002545AAC3E4182056CD582CFEF3E064AA2D66B2D61EB79A1DE5B165AC3F32E95
310
A159E380E8D00541EC76B5C4F5B52D5FB1FB030417638C920B2C815B213968D7C2C3C12BDCC80FA766340A77475D10E1E448624E107528D971C4412930554D8942B3C09251CEC18194A324D09A33AFBBB6059EF9BEEB9CE2725F51AA3CC38DB463C5E07E580ACD19F913F323F76D64802790B6224C5E5A2EE5A1C46E74154E
310
F56014AACB7C665F1A209D3D4599D08898B73D4157CAF5376B37FAF96EF7B255E1E0F4E6252F4ACCA5323AA547CD1718B2BD2A94ECB6C128CDA905208C01D5AE3C82F21B20FF05A2C79115D01B272F8B97859D2B3962625FF01C74E3F8CEC4873FDF09F4BFBA6FDD85D36671577B4378829B2AA82EFF3E9E5D19345696FF16
310
9C51F80C065FF0B97DB54D10057BBE270C005246E2D0028620B4EF772F6EB481C009811E56211A052032B0FB0CB7E1D492396AA5762FEB750C10B57BCCC7280960D316096C0CE8E933640F4E92A39ADA220EC1BBFC1073BD596F7FDE567C8F127C6F7D7A8DF784110959F334431DCC3B123DE1C3F782A720E86BBCB76DBC73
310
BB9500B415E60AF8AC06413D1C77EE6C90C0BAAC50E1267C67071042E5EA16FD7B22124C2962B8A8EA7D9BE8A60CB5F1785B33B8D1CC403C9FF54C98E367A2AA0A709AE38C0EA390F7134E4A05A21B7D36923541D31B90EEDBE60B5864337F60D68641E86588FE5707AD1338742CBB46DA02D108BC3B86F3A4A0058F7787D8
310
443A176A0960A3EB2DBF778842AC374A5254C083B4DFD5212533D2C629D9EF2B0171F5048BBF6F566D73F0BD79B074DAFF3D675C40B405DF45DCFA5D6F8F98E428C3F11EA543DBB5776B680B4D728034C77B0A729167220F3192B19FE2EC1C68CE227EF5A1D4335A0841181690AF4E82DF46C3F72090186DD62C2BADF68026
310
22CEB144F41C041499017075DAD1356E02A5C3FB3C36D6FB96C6DA44FF218BE0086AC982C5044A51C821EF321E784B88215D740DCA3D7CC1DA6ADA5A0C5A4109911CE2EF98648FF21CD40DF901DC13389254322E4A9480598F20FBCA5794527BBCEF50F2A4F2479C54F4A30C4460BA8F09A5551EC38F3038798C71ED2630BD
310
89428BB8897D12E750942159F1319B5C2CFD57FB989AA11F025B1BED0985B01DE7A81C40BD1310753DE234E05BEA034ADD557919A3BCA8D82843F1E67D6FB2E4FB6A556447F2AB4A45281B6BC296601412269BAC5AC76C30751D58C18D74A03AC402E52535A7B077124FD07893A63CB801B77EFAB11BE450F80D68AF1D5117
310
350C96C74E6120BE23993CBAD1565F27B7507FA7383DA6FABAD66C578080988AE415275645DF3650DED81ACD8DEE91140F9F4DD6ADAFDF361E743FC229AC81DAA559B85140E79849A42A937B75437F4310823B34CCF846E5D473A8DCA4A9AE1A11BD2343EAEC94119D4D73E2958F981539FCD8036109AD52FC8052F114DF4B
310
1A6F8962DD4AE9E5A4C6F84D017FFDBCEDC103232344FAAA0A3CFCBDB7D68EAE54B97492887CACF21D4304826047B4CCE8C62B596635526BB9B9AA3305D45D606056C58B7F4F16ED76C4BF278BCC1AC6DF3A59DC1E7E4187765FA495CE1365D7671D039AFCA4A87CC43140B71D1AAA4D1631C9DCCA6F9D2986A05847F9D1D5
310
581D340CC1218EFFEFAC3D9405CD763DFECFCBDAC1AB8AE3ACACD299ACBA54272AD74D3B87F917EB8BC572EE4F96979FEE268BC5FA6E72B59C5D4CFCD9CABF5C0457F34FFEB18CD08E1A854D30D3B90B9E4D50AB87D593C500BAB2A2A02485D37CEA641862BE8433FD88F639CFB180E4D96E76A7B6293F62F5B3E9734AB4A3
310
B8E6E4114183980A48EB805195C8EEB8F303B426251CB4AF5D681A794FF067ADD27520F35CBBD02A9024C1C2DB419B4935F4347148B93AF75B62800F62994A896651F3DCAC52D874C27F33654C1AB072757A1850B895D0FDEA7428346F96A7E42CC16B761C24E1765749A8D68C2CC7814618BDCD51FD46364AD893DDFA055C
310
F76DB1024FCFE92032EA93C19B4660A84E24E299EE772BC62C4B37EBAF53E8B3399B5F9D925619E8723CA509C760CC952AA8C08AC02A2CCD124930D5D57F1EBEF2023EF1E48EAE8A1E56459E17CC3EDCC0792C854F44CEF6113EF8A40F503660D556170F333F983DE876B6EDB0C73B24B0A7EA2118A8CB082542CFD8C0225F
310
B5A66CE372AA94D09BBE593B367C421BC058D0ABEEAEF9BCE580F7A80F29CA57B487D772BED9D19EEAA9600D1C7AD1D15F504B03041400060800005D4C5C40000000000000000000000000350000006662782F32304334354234442D373036392D343938422D414543412D4135414131364330343143382F76657274696365
310
732E62696E504B03041400060808005D4C5C40F270F1330600000004000000360000006662782F32304334354234442D373036392D343938422D414543412D4135414131364330343143382F747269616E676C65732E62696E636660600000504B03041400060800005D4C5C40000000000000000000000000370000006662
310
782F32304334354234442D373036392D343938422D414543412D4135414131364330343143382F617474726962757465732E62696E504B03041400060808005D4C5C40D5987DFC8F00000041010000360000006662782F32304334354234442D373036392D343938422D414543412D4135414131364330343143382F646972
310
6563746F72792E786D6C858F410EC2201045AF4266AF15DDB800BA74E7C21B903225242D6328188F2FA5C4183471359997F9FF81E89FF3C41E1816475E02DF1F80A11FC8386F25A438EECEC07A250251FC3803E6F58C12560C4AD840E95E91C151A72936F496F35732D860FE635F62C8F2DA16B505C545B74125BAA2FA9E05
310
D7CC053D063734D5C7665FD55B6B8D15D5E9BFEAFD8490FFA45E504B03041400060808005D4C5C4042A27E71FB000000A00100003B0000006662782F32304334354234442D373036392D343938422D414543412D4135414131364330343143382F7265736F75726365732F636F72652E786D6C8D504B6E833010BD0A9ABDC1
310
10280119474DE106BD806526D44AB0913F558F5F3B50A9DD7533337A1FCDD36397AFF5917DA275CAE801CA9C42865A9A59E96580E06FE40CD985336B8CFF25834C8B1507483070B65813B60392467BD43EA2DACC7880C239F490C9473C0670F20357918BE0A3C2DDF34DC8BB58302FF348471D67CEDB1820DB9FA409DCA233
310
C14A74ACD859CE4250F3A15173FCA96E0A2DF0A999DAE6F55C93716C4752D3B121DD5B4BC9D4D54DDB5CDB2BA59415C9CC9957EB4F466951789C8157B4AC08AD48757EA75D7FAAFBA623F4A54FA624FF630ADBFC4F5350DA9FAA23EE6E73C0CB18E4497056A4BEE27A961977EA967F03504B010214000A00000800005D4C5C
310
403DEE336E79000000790000001B00000000000000000000000000000000006175746F6465736B2D64657369676E2D7061636B6167652E786D6C504B010214001400060808005D4C5C40D486FD9CA0000000F40000001300000000000000000000000000B20000005B436F6E74656E745F54797065735D2E786D6C504B0102
310
14001400060808005D4C5C40510950E9E80000007C010000080000000000000000000000000083010000636F72652E786D6C504B010214001400060808005D4C5C4055019EA25F0000007C000000070000000000000000000000000091020000636E782E786D6C504B010214001400060808005D4C5C40484D601A64010000
310
020300000C00000000000000000000000000150300006662782F636F72652E786D6C504B010214001400060808005D4C5C402D37E8427D0000009D0000000B00000000000000000000000000A30400006662782F636E782E786D6C504B010214001400060808005D4C5C408571B9F32A010000140200003100000000000000
310
000000000000490500006662782F32304334354234442D373036392D343938422D414543412D4135414131364330343143382F636F72652E786D6C504B010214001400060808005D4C5C40E362DDE655010000330300003000000000000000000000000000C20600006662782F32304334354234442D373036392D34393842
310
2D414543412D4135414131364330343143382F636E782E786D6C504B010214001400060808005D4C5C407E362F6C5A070000941B00003400000000000000000000000000650800006662782F32304334354234442D373036392D343938422D414543412D4135414131364330343143382F6F626A656374732E786D6C504B01
310
0214001400060800005D4C5C400000000000000000000000003500000000000000000000000000111000006662782F32304334354234442D373036392D343938422D414543412D4135414131364330343143382F76657274696365732E62696E504B010214001400060808005D4C5C40F270F1330600000004000000360000
310
0000000000000000000000641000006662782F32304334354234442D373036392D343938422D414543412D4135414131364330343143382F747269616E676C65732E62696E504B010214001400060800005D4C5C400000000000000000000000003700000000000000000000000000BE1000006662782F3230433435423444
310
2D373036392D343938422D414543412D4135414131364330343143382F617474726962757465732E62696E504B010214001400060808005D4C5C40D5987DFC8F000000410100003600000000000000000000000000131100006662782F32304334354234442D373036392D343938422D414543412D41354141313643303431
310
43382F6469726563746F72792E786D6C504B010214001400060808005D4C5C4042A27E71FB000000A00100003B00000000000000000000000000F61100006662782F32304334354234442D373036392D343938422D414543412D4135414131364330343143382F7265736F75726365732F636F72652E786D6C504B05060000
310
00000E000E00800400004A1300000000
  0
XRECORD
  5
17
102
{ACAD_REACTORS
330
12
102
}
330
12
100
AcDbXrecord
280
     1
270
     1
271
     1
  0
XRECORD
  5
16
102
{ACAD_REACTORS
330
12
102
}
330
12
100
AcDbXrecord
280
     1
270
     1
271
     1
  0
XRECORD
  5
18
102
{ACAD_REACTORS
330
12
102
}
330
12
100
AcDbXrecord
280
     1
270
     1
271
     1
  0
XRECORD
  5
15
102
{ACAD_REACTORS
330
12
102
}
330
12
100
AcDbXrecord
280
     1
270
     1
271
     1
  0
XRECORD
  5
A0C
102
{ACAD_REACTORS
330
22
102
}
330
22
100
AcDbXrecord
280
     1
102
MATERIAL
148
0.0
149
0.0
149
0.0
 93
        0
 94
      127
282
     0
 72
     0
 77
     0
171
     0
175
     0
179
     0
273
     0
  0
XRECORD
  5
24
102
{ACAD_REACTORS
330
22
102
}
330
22
100
AcDbXrecord
280
     1
270
     1
271
     1
  0
XRECORD
  5
23
102
{ACAD_REACTORS
330
22
102
}
330
22
100
AcDbXrecord
280
     1
270
     1
271
     1
  0
XRECORD
  5
BA
102
{ACAD_REACTORS
330
22
102
}
330
22
100
AcDbXrecord
280
     1
 70
     1
 90
1959938040
 71
     1
  1
BD027FDA-6A4F-4608-AF73-E0015610B9ED
311
504B03040A00000800005D4C5C403DEE336E79000000790000001B0000006175746F6465736B2D64657369676E2D7061636B6167652E786D6C3C3F786D6C2076657273696F6E3D22312E302220656E636F64696E673D227574662D3822203F3E3C666F726D6174733E3C666F726D61743E687474703A2F2F736368656D612E
311
6175746F6465736B2E636F6D2F64657369676E2D7061636B6167652F323030393C2F666F726D61743E3C2F666F726D6174733E504B03041400060808005D4C5C40D486FD9CA0000000F4000000130000005B436F6E74656E745F54797065735D2E786D6C7D8EC10E82300C865F65E91D8A1E8C310C0EEA1BF002731658846E
311
D98AC1B77784ABF1D8FE5FBFBF75BBCE937A534CCEB38643598122B6FEE978D0B0485F9C41B54DDD7D022595594E1A469170414C76A4D9A4D207E29CF43ECE46F218070CC6BECC4078ACAA135ACF422C856C0E68EA1BF5669944DDD7BCDE7B1F8E415D77AECB980613C2E4AC91FC167A2B244592486606FC29C8FD7F045B9A
311
EF7053A7E60B504B03041400060808005D4C5C40443117E7EA0000007C01000008000000636F72652E786D6C8D90D18E832010457F85CC3B8A885D35486353FB05FB0304A925AD600436FBF98BAD4D76DFF6692677EE99995C7EFC9E1FE84BAFDE38DB41911140DA2A371A3B7510C315D7808E82AFCE855F364056CEBA834D
311
06C1A7D5C5659794B341DB9054EB46BD8BD27B1D00A9476A3AF0EAA66799C91892C3DFB345AABB9C7456BCBB04C76846F43A62C6B4CF5C8D5E41F4970F766297011F9A33C18CF5275C33DAE0B262251DAA7E68C899E71B2C7830F3FBBE5AB50C7A0441494131A198D69FA4694BD6560D268796109E6FF63F505CC67F42D1D8
311
50D2FDDD17E64114E991E740F07CCB22956750A96EB9891F504B03041400060808005D4C5C4055019EA25F0000007C00000007000000636E782E786D6C4DCB3B0E80201045D1AD90E915ED2CF8AC45050C11660C8261F98AB1B07AC9C97D42D718D865D3E909258CFD00CCE24AC6E326A164D74DC0B4128928FF326038472B
311
A13128B1252AC747C6BAB984FC68F0B87FE8960A5C09FE86CFB69FBA01504B03041400060808005D4C5C40F8A5993B66010000020300000C0000006662782F636F72652E786D6C8D52ED8E8230107C95A6FF4BCB879E9852A3519FE05EA042E588D092D2121FFF960FC37931C69094666667777680EFEE4D8D7A65BBCAE80C
311
8701C348E9DC14952E33ECDD956C30DA096E8D717FCA30D2B251191E602C78698D6F672837DA29ED00D5A6503328BB4E398CF21A2E19EEF21FD5C8407A0715DD2D68657E93A50AC20068A813BC73160CA069C8706271BDDC399D70C1BDAF8A99AD0A98565D2B65B1D89FBF9243723E91757A642449F607B249A294C4AB248E
311
4EABFD2965474E07B1E0AE6A1EEE72ABA4530516110B23C222126DBE59BA8D93ED2A256CBD658CD3A1FC49E4DBE24391AFB48BA3D9EE24EBB008C1C848FCDB162272A8933DF8A182D32144788D093F070D8140C84E5EEAC71E37807A953B6313600AE317AA97B5573095A1F1E17462A1F3D800367BD9277AD3E77D0FF88052
311
97604D3AB85EBC1BA6F369EA1C45AB2CE9DD1D69631B592FE6268BCBB90C7A29CF4D6DEC276A3AAF4AE730E9F0F78A5F504B03041400060808005D4C5C40E4F28A467E0000009D0000000B0000006662782F636E782E786D6C4DCCD10A83201886E15B91FFDCE5425D0335B4D67DC4B290990EA76397BF1A1DECE883878F57
311
B49FD5A3B74D2F178384F38900B2E11E2717160925CFB801D42A9162CC7F3740615CAD849D418925C5F23C68B2F3587CDED4BBF03890B19E51C36BACB536980EE48AF5C00DD637DAD5FDC5348477502951FD4ADBEE61F505504B03041400060808005D4C5C40F1883D1F2C01000014020000310000006662782F3535443534
311
4236322D414141422D344630392D414636422D4145344332443742383036432F636F72652E786D6C8D51CB6EC32010FC158B537AC0C604BB768489ECA4F982FE8003244589C1E251E5F30BB523B5B75C58343B333BDAA5FBC774CFBEA575CAE80E94390299D4DC08A5AF1D08FE021B90ED19B5C6F83F3490E971921D483060
311
F46A4D9857881BEDA5F611D546C8151C9D931E64FC1E3F1D70FC4B4E633E061F19EE96CF23BF8D579997796C471EA3CEDB18205B86A417B0AA3A5664A831ECFB7E80E4845AD89FEA01F61FE4808FEF4383EA032D1621A32128B1CA958871D44549FBAA491233EAD5F48CCFAD1CBD14806154628830C4CD276A775BB2AB5A88
311
EA1D42B448F47FA2308B17454169BFC56BDC45E6002B69B1341815269CEFCF30F2311BEBB3346FE3247F030CE508E3AA266D4B8B851A17103D6BB27A3A6F6C5CF0E6768EECB25A8C6BC268916E14CBEF01634DF7643F504B03041400060808005D4C5C4085C512F14D01000033030000300000006662782F35354435344236
311
322D414141422D344630392D414636422D4145344332443742383036432F636E782E786D6CD593CD6E022114855F85B09F5FA7460D8349177D822EBA45B82A9581093F4D7DFB5E14AD1B175D764326E71ECEB9F9C2B0EDF764C817F8A09D1D6957B79480954E697B18698AFB6A45C99633EF5C7CB05162C50423CD32E5ECE0
311
5D9A8BA4602F9289A81A6D4F45F4105CF21202CAF926314E0A830160AB84224C3B500A14B91BF16B0F1E5741717726F108E4EDF583B8DD27C818589353386B720767F92C4D0F264AA411218C34C8234CA216293A05E1542B1145DDD5B7AE273BFD26917CE15699BC26B97CA4F9A4BC6C542347D6E090B3103DD22BA6789E81
311
7231CF464B11117273315E3D9C256DE372285E8DE03DBABBE5621830EC32E32CEA098A437A101114E57DDBF555DB57FDEABD5D6F16C3E6655DB5CB4DDBB226DB39DB3967CA258C01EF66229D8D6023E51D6BF2F819BEE2234A7B64EDFCF90F20114069BDD2B967FC673ECDE57D232E8F7F01FF01504B03041400060808005D
311
4C5C405B0E03969B0500007A100000340000006662782F35354435344236322D414141422D344630392D414636422D4145344332443742383036432F6F626A656374732E786D6CAD575D6FA33814FD2B887D4E0249DA695794519AB4A368D499D14433DA874A910143BD3518D9A693EEAFDF633004324927BB9A9710CCF5F5
311
BDE79EFBE1E0FD2EE7CE0B958A89E2C6F5C79EEBD02216092BB21BB7D2E9E8CA75DE87811442F7C45CA72039BD71CDB21B069914556997129A928AEB83D5FBDBBF1C15D382BA4ECC895237AE8A9F684EC6A4D222A1EA799C104DC659BA1BFBE34670A83693A47C3A505A12490B0D4BB15E408BD318E50F5F3D77120613F33D
311
0CCCAF959A9D969AD4FE0CCF6785D2A4887F3AEC40CDCC9FAFEEA617D7A38BF97C369A5F4EFDD1EDFDED6AE4BF9B79CBCBE5F27A71778D839596D0642D913475C30FC046B23898349FC2A062859E4DAD880DD044D2176622E58653C70F268D4CE79D75F298F9B1280A1AD758018DDA3FAB3AA1252D12C49C5105CB7A0879C3
311
57DFE0D8FB3C33EFF6C8FEF27908F477F414B5B6B7CFBEA522FA1B2EA873182415350C6CB0B48E365CF5F608474270FB8D2927279A4A46B8C35924897C7543881A913018A8314C96261B8C076E8828349F8774411AFD9AE7C7AC4C2BCE0D8DDDB0CE822D72856A555BC6FEA1726F7D1F19D8845819365C5987F46B49DDF0BA
311
A1C8D5019B1A209D94930C21879B66E76C7AE0E8D2E4E97AE5861FEFA3DDC6E4EEF1C34B294A2AB5A10FA8D506AE7D1A94AC4DFE5991331BDC0353F6A07C05F29F90EA7B531037C976F3DDDC9EA22529542A648ED8389E33F2F0E3397EFD6BFEF7FE05936EF3307AA7F044B00D54BF01CFA10FFD58F6E00C8317105EC89975
311
6D13138EB2F1C00A006448E2708125D4E134DAB9E11A550E5519BB080F7DB80C735FF0379858352814F549BD67012C0FCAE219051AB0D58C84190DF9AD81FB38FD54CEEA83ADD829782F7E0B5D17ABCDC74D255312D3079BD32B9AB28269B4B83D6FFA060D301F78F44C5F7F0899C0D19FF1DEF4F1CEED510A681BCC0DF059
311
5BD3CDCBFEE4C10131F665C2949BE01727C009D3587BFA1F988A29E7A4A0A26ACF7DB37FA06D34109B64374CEE1ACCBEB18034CD97831C44938E252B0D885DB7EA8AE6F88477DFD69FC048C8731111BE178AF6A537165CC86DF4BA6DAAD251A4BF0FA96D2198182D607B9D236DFA5BCCB7094BD34AA1061E81F5FB7AD90F9D
311
A90AA810ADD62659E6701FB945A4E56CAB17CD5A123452516C19DA26D2EEE8017DFD40D412A05678CA624579BA659C57F936651CCD689B93F2041CFFDFFEA8CACB2DC94555E813BA07A6A3390C6D1F9057FD203A7E72C34DFD1CDDA2F42634D98779206C5AC911AC06A1BD5D79D377F7ABC5E87231BFC7F8E45D8D16F7EF66
311
A33BCFF32F2E7DEFF6FA6ED5C6A9511E066DA7E92734A284CE165492D9F07D5B237D6C0D70C307A2D5E387263BDBE7B7F518A37030C11EB4CB6EE32279C1D847935F2BD84B1E55B4CE4B4E735A686252E8C1FCE15F09C68C8131CDFA3A27193D43CBE70F9B0367B072C6BE2F26DDE98F83BD76756912F2A812FD54E5514118
311
3FD89835488ECB22B3F8B531E99E4D9F695FCD9B0D0C065325384B50061327A322A71AC5F08C1E2473AA40BDFE489FD8ABC719BB5F9A01519388D3D692278219992BA405A855C57AB8EEFC8199CE8C55372EBAEDF8193FB652B80E3873E36246D72CA66A1CA13F9B49A8560E2EF50779CCFDA4C83846ED6653F7DEED32D80C
311
3A722772CEF864FD6A2AB8750065A4C4D8807908D1A98D0983DA36FB3DFE4F8EB7E63844E36F54E9CE97FD42E74C7D0C52B471CA5E1630C33CDBA37748D4B7DDF2C7B5CC0091B32E596F92A0D13AD24466F545C1D8674D5AACBE4C30A038EBCF4EC9AB0CB13C5FD3485290B932090E16811556674934A8BAFCF3F18B14B8C8
311
E6CE3D03051E9722CF45615F16F622EC6C9E70AD4D1E5116A8B98FA8C7A9E74F1FEB7B80BD9A6C23A2E89824EA190B88A9641DC483C08391CD65111DA8F9D0C94D4C100EB8B95E39B6A5CDA1D412A55F550D2C98380AEA207BCC5DD2E44A5FA07CF32A30A9456182C4101FFE0B504B03041400060800005D4C5C4000000000
311
0000000000000000350000006662782F35354435344236322D414141422D344630392D414636422D4145344332443742383036432F76657274696365732E62696E504B03041400060808005D4C5C40F270F1330600000004000000360000006662782F35354435344236322D414141422D344630392D414636422D41453443
311
32443742383036432F747269616E676C65732E62696E636660600000504B03041400060800005D4C5C40000000000000000000000000370000006662782F35354435344236322D414141422D344630392D414636422D4145344332443742383036432F617474726962757465732E62696E504B03041400060808005D4C5C40
311
D5987DFC8F00000041010000360000006662782F35354435344236322D414141422D344630392D414636422D4145344332443742383036432F6469726563746F72792E786D6C858F410EC2201045AF4266AF15DDB800BA74E7C21B903225242D6328188F2FA5C4183471359997F9FF81E89FF3C41E1816475E02DF1F80A11F
311
C8386F25A438EECEC07A250251FC3803E6F58C12560C4AD840E95E91C151A72936F496F35732D860FE635F62C8F2DA16B505C545B74125BAA2FA9E05D7CC053D063734D5C7665FD55B6B8D15D5E9BFEAFD8490FFA45E504B03041400060808005D4C5C40579A397FFD000000A00100003B0000006662782F35354435344236
311
322D414141422D344630392D414636422D4145344332443742383036432F7265736F75726365732F636F72652E786D6C8D504B6E833010BD0A9ABDC1189306641C252239412F609909B512ECC89FAAC7AF49A8D4EEBA9919BD8FE6E989C3D7722F3ED107E3EC007549A140ABDD64EC3C408A57B287E22085772EFE924161D5
311
8203AC3048317B971E1BA49D8D686346AD9B7003550818A1D0F77C0C10F4072EAA54296645B8950FA56F6AC6B22E339D755284E87380E2F5649D203D0697BCC620AA172B454A66DA3466CA3FCDD5A00779BCBCF113BF8C64D78D94707E3C913D671D695ADEB0737B3C777414D56A96229AE527A3F6A8224E2019AD19A18CB0
311
FD3BEDFA86F76D47E8AEA75454ABFC8F293DA67F9A92B1B1615BDC972D80AC7390272145B5F695D7B3CCBCD76EE537504B010214000A00000800005D4C5C403DEE336E79000000790000001B00000000000000000000000000000000006175746F6465736B2D64657369676E2D7061636B6167652E786D6C504B0102140014
311
00060808005D4C5C40D486FD9CA0000000F40000001300000000000000000000000000B20000005B436F6E74656E745F54797065735D2E786D6C504B010214001400060808005D4C5C40443117E7EA0000007C010000080000000000000000000000000083010000636F72652E786D6C504B010214001400060808005D4C5C
311
4055019EA25F0000007C000000070000000000000000000000000093020000636E782E786D6C504B010214001400060808005D4C5C40F8A5993B66010000020300000C00000000000000000000000000170300006662782F636F72652E786D6C504B010214001400060808005D4C5C40E4F28A467E0000009D0000000B0000
311
0000000000000000000000A70400006662782F636E782E786D6C504B010214001400060808005D4C5C40F1883D1F2C0100001402000031000000000000000000000000004E0500006662782F35354435344236322D414141422D344630392D414636422D4145344332443742383036432F636F72652E786D6C504B01021400
311
1400060808005D4C5C4085C512F14D010000330300003000000000000000000000000000C90600006662782F35354435344236322D414141422D344630392D414636422D4145344332443742383036432F636E782E786D6C504B010214001400060808005D4C5C405B0E03969B0500007A1000003400000000000000000000
311
000000640800006662782F35354435344236322D414141422D344630392D414636422D4145344332443742383036432F6F626A656374732E786D6C504B010214001400060800005D4C5C400000000000000000000000003500000000000000000000000000510E00006662782F35354435344236322D414141422D34463039
311
2D414636422D4145344332443742383036432F76657274696365732E62696E504B010214001400060808005D4C5C40F270F13306000000040000003600000000000000000000000000A40E00006662782F35354435344236322D414141422D344630392D414636422D4145344332443742383036432F747269616E676C6573
311
2E62696E504B010214001400060800005D4C5C400000000000000000000000003700000000000000000000000000FE0E00006662782F35354435344236322D414141422D344630392D414636422D4145344332443742383036432F617474726962757465732E62696E504B010214001400060808005D4C5C40D5987DFC8F00
311
0000410100003600000000000000000000000000530F00006662782F35354435344236322D414141422D344630392D414636422D4145344332443742383036432F6469726563746F72792E786D6C504B010214001400060808005D4C5C40579A397FFD000000A00100003B0000000000000000000000000036100000666278
311
2F35354435344236322D414141422D344630392D414636422D4145344332443742383036432F7265736F75726365732F636F72652E786D6C504B0506000000000E000E00800400008C1100000000
310
504B03040A00000800005D4C5C403DEE336E79000000790000001B0000006175746F6465736B2D64657369676E2D7061636B6167652E786D6C3C3F786D6C2076657273696F6E3D22312E302220656E636F64696E673D227574662D3822203F3E3C666F726D6174733E3C666F726D61743E687474703A2F2F736368656D612E
310
6175746F6465736B2E636F6D2F64657369676E2D7061636B6167652F323030393C2F666F726D61743E3C2F666F726D6174733E504B03041400060808005D4C5C40D486FD9CA0000000F4000000130000005B436F6E74656E745F54797065735D2E786D6C7D8EC10E82300C865F65E91D8A1E8C310C0EEA1BF002731658846E
310
D98AC1B77784ABF1D8FE5FBFBF75BBCE937A534CCEB38643598122B6FEE978D0B0485F9C41B54DDD7D022595594E1A469170414C76A4D9A4D207E29CF43ECE46F218070CC6BECC4078ACAA135ACF422C856C0E68EA1BF5669944DDD7BCDE7B1F8E415D77AECB980613C2E4AC91FC167A2B244592486606FC29C8FD7F045B9A
310
EF7053A7E60B504B03041400060808005D4C5C408D386AE8EB0000007C01000008000000636F72652E786D6C8D90D18E832010457FC5CC3B8A685D3448D3D6F60BF60708504B5AC1086CF6F3175B9BECBEEDD34CEEDC3333B96CFF3D3DB22FBD78E36C0F658E21D3563A65ECD8430C574421DB73B638177ED920B362D23DAC
310
3270362E2ECE9B249D0DDA86A45AA7F4260AEF75804C3E52D38397373D895CC4901CFE9ECF42DEC5A8F3F2DD253846A3B2D711A3D23E73357A013E5C08A11F678AEA0B3DA29A1E8EE8D00E67844F0DDD0D4D454F3561C50A7316CCF4BE2F172D8256C0092E09C20411FA89DBAEAABB5D8B70D361CC8AD5FE078AB3FA27148D
310
0D15D9DE7D611E78991E790E382BD62C52790695EA9A1BFF01504B03041400060808005D4C5C4055019EA25F0000007C00000007000000636E782E786D6C4DCB3B0E80201045D1AD90E915ED2CF8AC45050C11660C8261F98AB1B07AC9C97D42D718D865D3E909258CFD00CCE24AC6E326A164D74DC0B4128928FF32603847
310
2BA13128B1252AC747C6BAB984FC68F0B87FE8960A5C09FE86CFB69FBA01504B03041400060808005D4C5C405CD2268B66010000020300000C0000006662782F636F72652E786D6C8D52ED8EC220107C15C27F0A62F5AAA1183F9FE05E005BEC115B30141A1FFFB6B6C6F3628C6942C9CCCEEEECB462756D6AD469DF1A6773
310
3C491846DA16AE34B6CA710C279261B492C23B17FE94616455A373DCC3588ACABB7819A1C2D9A06D00D4BA528FA06A5B1D302A6AB8E4B82D7E74A312150354B4E7E4A28AB3AA74324980863A29DAE0C1001A86F42796A7E355D001972246538EAC29619A3919EDB1DC1D38CFBEF619490FD986A4D97A43D68BDD9EB0ED3C9B
310
EDE6D36C9B72417BB114C134777785D72AE8124BCE269C304E78F6CD16CB69BA9C2D089B2F1913B42F7F12C54BF9A1281A1BA67CB43BC85A2C2760E446FCDB16220AA8551DF8A152D03E4478DD127E0E1A028190833AD6F73DCE0075BA08CEA7C0942E3EA84ED551C354866E8FA0030B9D6F0D60B3977DF89B3EEF7BC00754
310
B6026B2AC0F518433F5D0C53C7282EDA932E5C9175BE51F5C3DC60F1713E06BD9417AE76FE13351D57A56398B4FF7BE52F504B03041400060808005D4C5C406BFD06DF7C0000009D0000000B0000006662782F636E782E786D6C4DCCD10A83201805E05791FFDEE5289D0335CAF520B12C64A6C3E9E8F1B3D1C5AECEE1E370
310
44BBAD0E7D4DFCD8E0255C2F0490F1CF3059BF48C869C61C50AB440C21FDCD00F97135120E06259618F2FBA4C9CC6376A9A8B3FE75A26675C3EB3BC11D6304374CF7A53D3AAC09A154D381DFFA012A25AADF53C9E358ED504B03041400060808005D4C5C40A3FC6F6E2A01000014020000310000006662782F433633343833
310
39302D413636302D343643422D413644412D4330303535433545383742452F636F72652E786D6C8D51CB6EC32010FC15C4293DD8C62FEA44982871F307FD0162488A1283C5A3CAE777A91DA9BDE5C2A2D999D9D12EDB3FA63BFA56CE6B6B7A5CE6042365462BB5B9F638864BD661B4E7CC591BFED0303262523D4E30E6ECEA
310
6C9C5768B4262813003556AA1514DEAB80D178874F8FFDF8A526918B1880E16FF92CC69BB8AABCCCA10D3CCE7C7010002D43D28BF940EBA6ABB7243B504AB2860E47F87D1CB28190B61DDA53F77E3CB162117216A396AB5C4B88A32F5AB9574D9298B3A0A767FCD1291194C4BC226595912AABBA4FB2DDD5CDAEDD6684EE08
310
6145A2FF13C559BE288ADA84BA5AE32E328F79C98AA5C199B4F17C7F86518FD9BA80D2BC8D57E31BE62427555BD39A8064A1C202C09336ABA70FD6C18237B733B06B602563DA7056A41B41F93D20D4744FFE03504B03041400060808005D4C5C40E362DDE65501000033030000300000006662782F43363334383339302D41
310
3636302D343643422D413644412D4330303535433545383742452F636E782E786D6CBD93CD6EC32010845F0571F76F5C2B8930917AE813F4D02B864D4A83C1025C356FDF2521692E3954AA7A41D6EC30B3FA84D9EE6B32E4137CD0CE0EB4296B4AC04AA7B43D0C7489FB624DC98E33EF5CBCB35162C504034D32E5ECE0DD32
310
6749C15E2C26A26AB43D66D143708B9710504E37897152180C005B2C28C2348252A0C8CD885F7BF0B80A8AE389C477202FCF6FC48D1F206360554AE1AC4A1D9CA53337DD992891468430D020DF6112A558A253108EA51251944D79ED7AB0D34F124917AE958BD724950F349D94E78D4AE4C82A1C7216A2477AD9144F33502E
310
E6D968292242AECEC68B87B345DBD877D9AB11BC47F7AAEDD76B0C3BCF388B7A82EC901E440445795B376D51B745BB7EAD37DB55B77DDA1475BFAD6B56253B67A373265FC218F06E26D2D9083652DEB02A8D1FE1CB3EA2B447D6CE9F7E011201E4D60B9D5BC65FF269FA55D7FD239FEAFCBE1197C7BF807F03504B03041400
310
060808005D4C5C400D323F3458070000931B0000340000006662782F43363334383339302D413636302D343643422D413644412D4330303535433545383742452F6F626A656374732E786D6CED595B6FA33814FE2B887D0E8124ED4C579451DBB455B4EACC68B233DA874AC801877A6B0CB24D2FFBEBF7F802011A5AB2D37D
310
9B870430F6F139DFB9FA107E7ACAA9F380B920053B7503CF771DCC9222252C3B752BB99D7C749D4F51C88B42B6A6B90E43393E75D5B01B85192FAAD20EA5788B2A2A7BA357E77F3922C10CBB4E429110A7AE48EE708E3C54C922C5E2DE4B91445EB67DF202CF4CEC92CD382AEF7A444BC43193C0298C33A0E218A682EEA3EF
310
4EA370AADE47A1FAB7B3E6A3662D86674DB5D45D2E091312B1E4054B3D32F3512CCD83C5F272767432395A2CE693C5F12C989C5F9D2F27C187B97F717C717172767902EC6D8A825A99525C629682FE9EDD2808A7EA4D23BA45601FD749C1184E3490009516AB4F9060015BB5E0F3BB8F8192A8F55A4BD87A5EA8F79685D6F0
310
BC4B6568D638203A744110BB5D2D717D6DCB576CFE06C1C518A3E4024BE056480EDAB5F070F00A37F2C3A9198DC2CD4E17443839929813441D4A361C71500A4C5553A2D02CB06494737020E52809B4E6CCEBAE6D8167BEED3AFBB8DC56942ACF7023ED5831B81F96427346FEC17CC77D1B19E009A4AD08931F2D97F2B9C46E
310
74124EF56014AACB7C665F1A209D2D4599D08898B73D412F94EBAF966EF4C7D5E669ADC2C1FECD4B5E94984B65744A8F9A2F30647B5528D96D83519A530B401803AA5DB903E51B20FF19A2C78E15D01B274F8BA7859D2B3962625BF01C74E3F8CEC4873FDF09F4BFBA6FDD85D36671577B4378829B2AA83EFE3C9E5D193456
310
96FF169C51F800065FF0B97DB54E10057BBE210C005246E2D0028620B46F374F6EB482C009811E56211A052032B0FB00B7E1D492D969A5762FEB750C10B57BCCC7280960D316096C0CE8E91AB20727C94E4D6D1187E03D7A17733D5BAEFF58577C8B127C637D7A89B784110959733F431DCC3B12DDE3E7C782A720E84BBCD7
310
6DBC73BB9500B415E60AF8AC06413DEC76EE6C90C0BAAC50E1267C63071042E5EA16FD1B22124C2962B8A8EA7D9BE8A60CB5F1785B33B8D1CC403C9FF54C98E307A2AA0A709ADD8C0EA390F7134E4A05A21B5D1BC99AA0E90D48F77DF5192CB2993F306BC520F43244FFD4416B0F0E1DCBAE91B64034026F76E13C2968C1E3
310
CD736C229D0BB504B0D1F5961F1DA210EB8D921415F020ED777548C98CB4714AB6DB4A405CDDC3E28FD545DB1C7C6F1E1C39EDFF9E332E20DA82EF226EFDAEB7474C7294E1788BD2A1EDDABB35B4852639409AE32D05B9C80391CF3192B19FE2EC10680E227EF2AED4335A0841181690AFF682DF46C3F72090186DD62C2BAD
310
F6802622CEB144F410041499017075DAD1356E02A5C3DB3C36D6FB9AC6DA44FF278BE0086AC982C5044A51C8216F321E78471043BAE81A947BF882B5D5B4B518B4821222798E1F31C9EEE421A81BF203B8277024A9645C942801B31E41F685AF28A5F678DFA0E45EE58F38A9E87B1988C0741B134AAB3C861F6170F218E3DA
310
4D607A1585167113FB24CEA12843B2E26336393EF25FEC636A867E086C6DB42514C2769CA37200F54E40D4F588D3806FA90F287553E5658CF2A262A30CC59BF7BDC992EFAB55911DC9AF2A15A16CAC095B825148986CB26A1DB3C1D475600537D281EA3916282FA93985BD917882C69B34E5C10DB8F5D3F7DD2087C26F407B
310
ED88BAA861B03C760A03F1886472E7466B7D9D9C43FD9DE27497EAEB5AB35D0102622A92579C58157D5F4179636B3437BA4152DC5E9BAC5B5FBFAF3CE87E84535803B54BB370A580CE319348552637EA867E4310823B34CCF84AE5D443A89CA5A9AE1A11BD2243EAEC94119D4D73E29577981539FCD82D6109AD527C8B5271
310
1FDF481AAF8962DD4AE9E5A4C6F85501BF5CAF7BF0C0C80891BEAA020F3FF6D6DAD10B552EED2522EFAA7CC3108120D8112D33BAF14A96598DD45A6EAEEA4C017517189855F1E2D7C9A2DD8EF875B2C8AC61FCDCC982161B4477D1A695CD1365D6079D029AF4A4A8BCC72940771D1AAA4D1231B9DC8A6F7D2986985807F9D1
310
C5581D330CC1218EFF73D21E4A8266BB1EFF8725EDE045C1715052E94C564DAA3D85EBAA9DC2CE97FEECC3D5F26C727CB6B882FEACFF717276F5613EB9F4FDE0E838F0CF4F2E970D9ADA4FA3B089653A75C1B38969F5B07AB2184053561494A470984F9D0C43C89770A41FD13DE73916903BDBBDEED4F6E447AC7E306D4E89
310
3614D79CDC21E80F5301591D30AA12D91D777E83CEA48473F6A90B3D23EF1EFEAC55BA0E249E53173A05922458781BE832A97E9E260E1957A77E4B0CF0412C5319D12C6A9E9B550A9B4EF46FA68CC90256AE4E0B03EAB6129A5F9D0685E6CDF2941C2478CD8E8324DC6E2A09C59A916537D008A3B7D9A9DFC84609BBB75B3F
310
81EBBE2E56E0E9391D44467D3178D5080CD589443CD3ED6EC59865E96CF9750A6D3667F5C5296995812EC7539A700CC65CA97A0AAC08ACC2D22C910453BDF8FDF62B2FE00B4FEEE8A2E8F6A2C8F382D98733388EA5F085C859DFC1F79EF416AA06ACBAEAE276E607B35BDDCDB60DF6788304F6543904037515A144E8191B58
310
E48BCE94ED5B4E95127AD3574BC7864FE802180B7AD1DC355FB71CF01EF51D45F98AF6F05ACE571BDA533D15AC81432B3AFA17504B03041400060800005D4C5C40000000000000000000000000350000006662782F43363334383339302D413636302D343643422D413644412D4330303535433545383742452F7665727469
310
6365732E62696E504B03041400060808005D4C5C40F270F1330600000004000000360000006662782F43363334383339302D413636302D343643422D413644412D4330303535433545383742452F747269616E676C65732E62696E636660600000504B03041400060800005D4C5C4000000000000000000000000037000000
310
6662782F43363334383339302D413636302D343643422D413644412D4330303535433545383742452F617474726962757465732E62696E504B03041400060808005D4C5C40D5987DFC8F00000041010000360000006662782F43363334383339302D413636302D343643422D413644412D4330303535433545383742452F64
310
69726563746F72792E786D6C858F410EC2201045AF4266AF15DDB800BA74E7C21B903225242D6328188F2FA5C4183471359997F9FF81E89FF3C41E1816475E02DF1F80A11FC8386F25A438EECEC07A250251FC3803E6F58C12560C4AD840E95E91C151A72936F496F35732D860FE635F62C8F2DA16B505C545B74125BAA2FA
310
9E05D7CC053D063734D5C7665FD55B6B8D15D5E9BFEAFD8490FFA45E504B03041400060808005D4C5C407D59FE98FE000000A00100003B0000006662782F43363334383339302D413636302D343643422D413644412D4330303535433545383742452F7265736F75726365732F636F72652E786D6C8D504B6EC23010BD4A34
310
7B278E096022C708089CA017B09C012C881DF953F5F8752095DA5D3733A3F7D13C3DB1FF1A9FC527FA609CEDA02E291468B51B8CBD7590E2957028F65278E7E22F1914568DD8C10C831437EFD2B440DAD9883666D4BA0117508580110AFDCC470741DF7154A54A312BC2A39C947EA81B967599E9AC9322449F0314EF27F304
310
E931B8E4350651BD59295232C3A23143FE69AE063DC8FEC218DF9EB7A4B9F02369F8E1480EBBFE4CE869C3D7FD66C54F0D13D56C96229AF127A3F6A8220E2019AD19A18C30FE4177EDAA69D73B42372DA5A29AE57F4C691AFE694AC6C6155BE2BE6D01649D83BC0829AAB9AFBC5E65E63D772BBF01504B010214000A000008
310
00005D4C5C403DEE336E79000000790000001B00000000000000000000000000000000006175746F6465736B2D64657369676E2D7061636B6167652E786D6C504B010214001400060808005D4C5C40D486FD9CA0000000F40000001300000000000000000000000000B20000005B436F6E74656E745F54797065735D2E786D
310
6C504B010214001400060808005D4C5C408D386AE8EB0000007C010000080000000000000000000000000083010000636F72652E786D6C504B010214001400060808005D4C5C4055019EA25F0000007C000000070000000000000000000000000094020000636E782E786D6C504B010214001400060808005D4C5C405CD226
310
8B66010000020300000C00000000000000000000000000180300006662782F636F72652E786D6C504B010214001400060808005D4C5C406BFD06DF7C0000009D0000000B00000000000000000000000000A80400006662782F636E782E786D6C504B010214001400060808005D4C5C40A3FC6F6E2A01000014020000310000
310
00000000000000000000004D0500006662782F43363334383339302D413636302D343643422D413644412D4330303535433545383742452F636F72652E786D6C504B010214001400060808005D4C5C40E362DDE655010000330300003000000000000000000000000000C60600006662782F43363334383339302D41363630
310
2D343643422D413644412D4330303535433545383742452F636E782E786D6C504B010214001400060808005D4C5C400D323F3458070000931B00003400000000000000000000000000690800006662782F43363334383339302D413636302D343643422D413644412D4330303535433545383742452F6F626A656374732E78
310
6D6C504B010214001400060800005D4C5C400000000000000000000000003500000000000000000000000000131000006662782F43363334383339302D413636302D343643422D413644412D4330303535433545383742452F76657274696365732E62696E504B010214001400060808005D4C5C40F270F133060000000400
310
00003600000000000000000000000000661000006662782F43363334383339302D413636302D343643422D413644412D4330303535433545383742452F747269616E676C65732E62696E504B010214001400060800005D4C5C400000000000000000000000003700000000000000000000000000C01000006662782F433633
310
34383339302D413636302D343643422D413644412D4330303535433545383742452F617474726962757465732E62696E504B010214001400060808005D4C5C40D5987DFC8F000000410100003600000000000000000000000000151100006662782F43363334383339302D413636302D343643422D413644412D4330303535
310
433545383742452F6469726563746F72792E786D6C504B010214001400060808005D4C5C407D59FE98FE000000A00100003B00000000000000000000000000F81100006662782F43363334383339302D413636302D343643422D413644412D4330303535433545383742452F7265736F75726365732F636F72652E786D6C50
310
4B0506000000000E000E00800400004F1300000000
  0
XRECORD
  5
27
102
{ACAD_REACTORS
330
22
102
}
330
22
100
AcDbXrecord
280
     1
270
     1
271
     1
  0
XRECORD
  5
26
102
{ACAD_REACTORS
330
22
102
}
330
22
100
AcDbXrecord
280
     1
270
     1
271
     1
  0
XRECORD
  5
28
102
{ACAD_REACTORS
330
22
102
}
330
22
100
AcDbXrecord
280
     1
270
     1
271
     1
  0
XRECORD
  5
25
102
{ACAD_REACTORS
330
22
102
}
330
22
100
AcDbXrecord
280
     1
270
     1
271
     1
  0
XRECORD
  5
A05
102
{ACAD_REACTORS
330
A04
102
}
330
A04
100
AcDbXrecord
280
     1
102
ACAD_ROUNDTRIP_2012_MLEADER_STYLE
298
     1
  0
CELLSTYLEMAP
  5
A03
102
{ACAD_REACTORS
330
A02
102
}
330
A02
100
AcDbCellStyleMap
 90
        3
300
CELLSTYLE
  1
TABLEFORMAT_BEGIN
 90
        5
170
     1
 91
        0
 92
    32768
 62
   257
 93
        1
300
CONTENTFORMAT
  1
CONTENTFORMAT_BEGIN
 90
        0
 91
        0
 92
      512
 93
        0
300

 40
0.0
140
1.0
 94
        5
 62
     0
340
55
144
0.25
309
CONTENTFORMAT_END
171
     0
 94
        0
309
TABLEFORMAT_END
  1
CELLSTYLE_BEGIN
 90
        1
 91
        1
300
_TITLE
309
CELLSTYLE_END
300
CELLSTYLE
  1
TABLEFORMAT_BEGIN
 90
        5
170
     1
 91
        0
 92
        0
 62
   257
 93
        1
300
CONTENTFORMAT
  1
CONTENTFORMAT_BEGIN
 90
        0
 91
        0
 92
      512
 93
        0
300

 40
0.0
140
1.0
 94
        5
 62
     0
340
55
144
0.18
309
CONTENTFORMAT_END
171
     0
 94
        0
309
TABLEFORMAT_END
  1
CELLSTYLE_BEGIN
 90
        2
 91
        1
300
_HEADER
309
CELLSTYLE_END
300
CELLSTYLE
  1
TABLEFORMAT_BEGIN
 90
        5
170
     1
 91
        0
 92
        0
 62
   257
 93
        1
300
CONTENTFORMAT
  1
CONTENTFORMAT_BEGIN
 90
        0
 91
        0
 92
      512
 93
        0
300

 40
0.0
140
1.0
 94
        2
 62
     0
340
55
144
0.18
309
CONTENTFORMAT_END
171
     0
 94
        0
309
TABLEFORMAT_END
  1
CELLSTYLE_BEGIN
 90
        3
 91
        2
300
_DATA
309
CELLSTYLE_END
  0
XRECORD
  5
A3D
102
{ACAD_REACTORS
330
A02
102
}
330
A02
100
AcDbXrecord
280
     1
102
ACAD_ROUNDTRIP_PRE2007_TABLESTYLE
 90
      512
 91
        0
  1

 92
      512
 93
        0
  2

 94
      512
 95
        0
  3

  0
XRECORD
  5
A18
102
{ACAD_REACTORS
330
A17
102
}
330
A17
100
AcDbXrecord
280
     1
102
RTVSPropertyOp0
 70
     1
102
RTVSPropertyOp1
 70
     1
102
RTVSPropertyOp2
 70
     1
102
RTVSPropertyOp3
 70
     1
102
RTVSPropertyOp4
 70
     1
102
RTVSPropertyOp5
 70
     1
102
RTVSPropertyOp6
 70
     1
102
RTVSPropertyOp7
 70
     1
102
RTVSPropertyOp8
 70
     1
102
RTVSPropertyOp9
 70
     1
102
RTVSPropertyOp10
 70
     1
102
RTVSPropertyOp11
 70
     1
102
RTVSPropertyOp12
 70
     1
102
RTVSPropertyOp13
 70
     1
102
RTVSPropertyOp14
 70
     1
102
RTVSPropertyOp15
 70
     1
102
RTVSPropertyOp16
 70
     1
102
RTVSPropertyOp17
 70
     1
102
RTVSPropertyOp18
 70
     1
102
RTVSPropertyOp19
 70
     1
102
RTVSPropertyOp20
 70
     1
102
RTVSPropertyOp21
 70
     1
102
RTVSPropertyOp22
 70
     1
102
RTVSPropertyOp23
 70
     1
102
RTVSPropertyOp24
 70
     1
102
RTVSPropertyOp25
 70
     1
102
RTVSPropertyOp26
 70
     1
102
RTVSPropertyOp27
 70
     1
102
RTVSPropertyOp28
 70
     1
102
RTVSPropertyOp29
 70
     1
102
RTVSPropertyOp30
 70
     1
102
RTVSPropertyOp31
 70
     1
102
RTVSPropertyOp32
 70
     1
  0
XRECORD
  5
A16
102
{ACAD_REACTORS
330
A15
102
}
330
A15
100
AcDbXrecord
280
     1
102
RTVSPropertyOp0
 70
     1
102
RTVSPropertyOp1
 70
     1
102
RTVSPropertyOp2
 70
     1
102
RTVSPropertyOp3
 70
     1
102
RTVSPropertyOp4
 70
     1
102
RTVSPropertyOp5
 70
     1
102
RTVSPropertyOp6
 70
     1
102
RTVSPropertyOp7
 70
     1
102
RTVSPropertyOp8
 70
     1
102
RTVSPropertyOp9
 70
     1
102
RTVSPropertyOp10
 70
     1
102
RTVSPropertyOp11
 70
     1
102
RTVSPropertyOp12
 70
     1
102
RTVSPropertyOp13
 70
     1
102
RTVSPropertyOp14
 70
     1
102
RTVSPropertyOp15
 70
     1
102
RTVSPropertyOp16
 70
     1
102
RTVSPropertyOp17
 70
     1
102
RTVSPropertyOp18
 70
     1
102
RTVSPropertyOp19
 70
     1
102
RTVSPropertyOp20
 70
     1
102
RTVSPropertyOp21
 70
     1
102
RTVSPropertyOp22
 70
     1
102
RTVSPropertyOp23
 70
     1
102
RTVSPropertyOp24
 70
     1
102
RTVSPropertyOp25
 70
     1
102
RTVSPropertyOp26
 70
     1
102
RTVSPropertyOp27
 70
     1
102
RTVSPropertyOp28
 70
     1
102
RTVSPropertyOp29
 70
     1
102
RTVSPropertyOp30
 70
     1
102
RTVSPropertyOp31
 70
     1
102
RTVSPropertyOp32
 70
     1
  0
XRECORD
  5
A24
102
{ACAD_REACTORS
330
A23
102
}
330
A23
100
AcDbXrecord
280
     1
102
RTVSPropertyOp0
 70
     1
102
RTVSPropertyOp1
 70
     1
102
RTVSPropertyOp2
 70
     1
102
RTVSPropertyOp3
 70
     1
102
RTVSPropertyOp4
 70
     1
102
RTVSPropertyOp5
 70
     1
102
RTVSPropertyOp6
 70
     1
102
RTVSPropertyOp7
 70
     1
102
RTVSPropertyOp8
 70
     1
102
RTVSPropertyOp9
 70
     1
102
RTVSPropertyOp10
 70
     1
102
RTVSPropertyOp11
 70
     1
102
RTVSPropertyOp12
 70
     1
102
RTVSPropertyOp13
 70
     1
102
RTVSPropertyOp14
 70
     1
102
RTVSPropertyOp15
 70
     1
102
RTVSPropertyOp16
 70
     1
102
RTVSPropertyOp17
 70
     1
102
RTVSPropertyOp18
 70
     1
102
RTVSPropertyOp19
 70
     1
102
RTVSPropertyOp20
 70
     1
102
RTVSPropertyOp21
 70
     1
102
RTVSPropertyOp22
 70
     1
102
RTVSPropertyOp23
 70
     1
102
RTVSPropertyOp24
 70
     1
102
RTVSPropertyOp25
 70
     1
102
RTVSPropertyOp26
 70
     1
102
RTVSPropertyOp27
 70
     1
102
RTVSPropertyOp28
 70
     1
102
RTVSPropertyOp29
 70
     1
102
RTVSPropertyOp30
 70
     1
102
RTVSPropertyOp31
 70
     1
102
RTVSPropertyOp32
 70
     1
  0
XRECORD
  5
A2C
102
{ACAD_REACTORS
330
A2B
102
}
330
A2B
100
AcDbXrecord
280
     1
102
RTVSPropertyOp0
 70
     1
102
RTVSPropertyOp1
 70
     1
102
RTVSPropertyOp2
 70
     1
102
RTVSPropertyOp3
 70
     1
102
RTVSPropertyOp4
 70
     1
102
RTVSPropertyOp5
 70
     1
102
RTVSPropertyOp6
 70
     1
102
RTVSPropertyOp7
 70
     1
102
RTVSPropertyOp8
 70
     1
102
RTVSPropertyOp9
 70
     1
102
RTVSPropertyOp10
 70
     1
102
RTVSPropertyOp11
 70
     1
102
RTVSPropertyOp12
 70
     1
102
RTVSPropertyOp13
 70
     1
102
RTVSPropertyOp14
 70
     1
102
RTVSPropertyOp15
 70
     1
102
RTVSPropertyOp16
 70
     1
102
RTVSPropertyOp17
 70
     1
102
RTVSPropertyOp18
 70
     1
102
RTVSPropertyOp19
 70
     1
102
RTVSPropertyOp20
 70
     1
102
RTVSPropertyOp21
 70
     1
102
RTVSPropertyOp22
 70
     1
102
RTVSPropertyOp23
 70
     1
102
RTVSPropertyOp24
 70
     1
102
RTVSPropertyOp25
 70
     1
102
RTVSPropertyOp26
 70
     1
102
RTVSPropertyOp27
 70
     1
102
RTVSPropertyOp28
 70
     1
102
RTVSPropertyOp29
 70
     1
102
RTVSPropertyOp30
 70
     1
102
RTVSPropertyOp31
 70
     1
102
RTVSPropertyOp32
 70
     1
  0
XRECORD
  5
A1E
102
{ACAD_REACTORS
330
A1D
102
}
330
A1D
100
AcDbXrecord
280
     1
102
RTVSPropertyOp0
 70
     1
102
RTVSPropertyOp1
 70
     1
102
RTVSPropertyOp2
 70
     1
102
RTVSPropertyOp3
 70
     1
102
RTVSPropertyOp4
 70
     1
102
RTVSPropertyOp5
 70
     1
102
RTVSPropertyOp6
 70
     1
102
RTVSPropertyOp7
 70
     1
102
RTVSPropertyOp8
 70
     1
102
RTVSPropertyOp9
 70
     1
102
RTVSPropertyOp10
 70
     1
102
RTVSPropertyOp11
 70
     1
102
RTVSPropertyOp12
 70
     1
102
RTVSPropertyOp13
 70
     1
102
RTVSPropertyOp14
 70
     1
102
RTVSPropertyOp15
 70
     1
102
RTVSPropertyOp16
 70
     1
102
RTVSPropertyOp17
 70
     1
102
RTVSPropertyOp18
 70
     1
102
RTVSPropertyOp19
 70
     1
102
RTVSPropertyOp20
 70
     1
102
RTVSPropertyOp21
 70
     1
102
RTVSPropertyOp22
 70
     1
102
RTVSPropertyOp23
 70
     1
102
RTVSPropertyOp24
 70
     1
102
RTVSPropertyOp25
 70
     1
102
RTVSPropertyOp26
 70
     1
102
RTVSPropertyOp27
 70
     1
102
RTVSPropertyOp28
 70
     1
102
RTVSPropertyOp29
 70
     1
102
RTVSPropertyOp30
 70
     1
102
RTVSPropertyOp31
 70
     1
102
RTVSPropertyOp32
 70
     1
  0
XRECORD
  5
A22
102
{ACAD_REACTORS
330
A21
102
}
330
A21
100
AcDbXrecord
280
     1
102
RTVSPropertyOp0
 70
     1
102
RTVSPropertyOp1
 70
     1
102
RTVSPropertyOp2
 70
     1
102
RTVSPropertyOp3
 70
     1
102
RTVSPropertyOp4
 70
     1
102
RTVSPropertyOp5
 70
     1
102
RTVSPropertyOp6
 70
     1
102
RTVSPropertyOp7
 70
     1
102
RTVSPropertyOp8
 70
     1
102
RTVSPropertyOp9
 70
     1
102
RTVSPropertyOp10
 70
     1
102
RTVSPropertyOp11
 70
     1
102
RTVSPropertyOp12
 70
     1
102
RTVSPropertyOp13
 70
     1
102
RTVSPropertyOp14
 70
     1
102
RTVSPropertyOp15
 70
     1
102
RTVSPropertyOp16
 70
     1
102
RTVSPropertyOp17
 70
     1
102
RTVSPropertyOp18
 70
     1
102
RTVSPropertyOp19
 70
     1
102
RTVSPropertyOp20
 70
     1
102
RTVSPropertyOp21
 70
     1
102
RTVSPropertyOp22
 70
     1
102
RTVSPropertyOp23
 70
     1
102
RTVSPropertyOp24
 70
     1
102
RTVSPropertyOp25
 70
     1
102
RTVSPropertyOp26
 70
     1
102
RTVSPropertyOp27
 70
     1
102
RTVSPropertyOp28
 70
     1
102
RTVSPropertyOp29
 70
     1
102
RTVSPropertyOp30
 70
     1
102
RTVSPropertyOp31
 70
     1
102
RTVSPropertyOp32
 70
     1
  0
XRECORD
  5
A3C
102
{ACAD_REACTORS
330
A3B
102
}
330
A3B
100
AcDbXrecord
280
     1
102
RTVSPropertyOp0
 70
     0
102
RTVSPropertyOp1
 70
     0
102
RTVSPropertyOp2
 70
     0
102
RTVSPropertyOp3
 70
     0
102
RTVSPropertyOp4
 70
     0
102
RTVSPropertyOp5
 70
     0
102
RTVSPropertyOp6
 70
     0
102
RTVSPropertyOp7
 70
     0
102
RTVSPropertyOp8
 70
     0
102
RTVSPropertyOp9
 70
     0
102
RTVSPropertyOp10
 70
     0
102
RTVSPropertyOp11
 70
     0
102
RTVSPropertyOp12
 70
     0
102
RTVSPropertyOp13
 70
     0
102
RTVSPropertyOp14
 70
     2
102
RTVSPropertyOp15
 70
     0
102
RTVSPropertyOp16
 70
     0
102
RTVSPropertyOp17
 70
     0
102
RTVSPropertyOp18
 70
     0
102
RTVSPropertyOp19
 70
     0
102
RTVSPropertyOp20
 70
     0
102
RTVSPropertyOp21
 70
     0
102
RTVSPropertyOp22
 70
     0
102
RTVSPropertyOp23
 70
     0
102
RTVSPropertyOp24
 70
     0
102
RTVSPropertyOp25
 70
     0
102
RTVSPropertyOp26
 70
     0
102
RTVSPropertyOp27
 70
     0
102
RTVSPropertyOp28
 70
     1
102
RTVSPropertyOp29
 70
     1
102
RTVSPropertyOp30
 70
     1
102
RTVSPropertyOp31
 70
     1
102
RTVSPropertyOp32
 70
     1
  0
XRECORD
  5
A2A
102
{ACAD_REACTORS
330
A29
102
}
330
A29
100
AcDbXrecord
280
     1
102
RTVSPropertyOp0
 70
     1
102
RTVSPropertyOp1
 70
     1
102
RTVSPropertyOp2
 70
     1
102
RTVSPropertyOp3
 70
     1
102
RTVSPropertyOp4
 70
     1
102
RTVSPropertyOp5
 70
     1
102
RTVSPropertyOp6
 70
     1
102
RTVSPropertyOp7
 70
     1
102
RTVSPropertyOp8
 70
     1
102
RTVSPropertyOp9
 70
     1
102
RTVSPropertyOp10
 70
     1
102
RTVSPropertyOp11
 70
     1
102
RTVSPropertyOp12
 70
     1
102
RTVSPropertyOp13
 70
     1
102
RTVSPropertyOp14
 70
     1
102
RTVSPropertyOp15
 70
     1
102
RTVSPropertyOp16
 70
     1
102
RTVSPropertyOp17
 70
     1
102
RTVSPropertyOp18
 70
     1
102
RTVSPropertyOp19
 70
     1
102
RTVSPropertyOp20
 70
     1
102
RTVSPropertyOp21
 70
     1
102
RTVSPropertyOp22
 70
     1
102
RTVSPropertyOp23
 70
     1
102
RTVSPropertyOp24
 70
     1
102
RTVSPropertyOp25
 70
     1
102
RTVSPropertyOp26
 70
     1
102
RTVSPropertyOp27
 70
     1
102
RTVSPropertyOp28
 70
     1
102
RTVSPropertyOp29
 70
     1
102
RTVSPropertyOp30
 70
     1
102
RTVSPropertyOp31
 70
     1
102
RTVSPropertyOp32
 70
     1
  0
XRECORD
  5
A0E
102
{ACAD_REACTORS
330
A0D
102
}
330
A0D
100
AcDbXrecord
280
     1
102
RTVSPropertyOp0
 70
     1
102
RTVSPropertyOp1
 70
     1
102
RTVSPropertyOp2
 70
     1
102
RTVSPropertyOp3
 70
     1
102
RTVSPropertyOp4
 70
     1
102
RTVSPropertyOp5
 70
     1
102
RTVSPropertyOp6
 70
     1
102
RTVSPropertyOp7
 70
     1
102
RTVSPropertyOp8
 70
     1
102
RTVSPropertyOp9
 70
     1
102
RTVSPropertyOp10
 70
     1
102
RTVSPropertyOp11
 70
     1
102
RTVSPropertyOp12
 70
     1
102
RTVSPropertyOp13
 70
     1
102
RTVSPropertyOp14
 70
     1
102
RTVSPropertyOp15
 70
     1
102
RTVSPropertyOp16
 70
     1
102
RTVSPropertyOp17
 70
     1
102
RTVSPropertyOp18
 70
     1
102
RTVSPropertyOp19
 70
     1
102
RTVSPropertyOp20
 70
     1
102
RTVSPropertyOp21
 70
     1
102
RTVSPropertyOp22
 70
     1
102
RTVSPropertyOp23
 70
     1
102
RTVSPropertyOp24
 70
     1
102
RTVSPropertyOp25
 70
     1
102
RTVSPropertyOp26
 70
     1
102
RTVSPropertyOp27
 70
     1
102
RTVSPropertyOp28
 70
     1
102
RTVSPropertyOp29
 70
     1
102
RTVSPropertyOp30
 70
     1
102
RTVSPropertyOp31
 70
     1
102
RTVSPropertyOp32
 70
     1
  0
XRECORD
  5
A10
102
{ACAD_REACTORS
330
A0F
102
}
330
A0F
100
AcDbXrecord
280
     1
102
RTVSPropertyOp0
 70
     1
102
RTVSPropertyOp1
 70
     1
102
RTVSPropertyOp2
 70
     1
102
RTVSPropertyOp3
 70
     1
102
RTVSPropertyOp4
 70
     1
102
RTVSPropertyOp5
 70
     1
102
RTVSPropertyOp6
 70
     1
102
RTVSPropertyOp7
 70
     1
102
RTVSPropertyOp8
 70
     1
102
RTVSPropertyOp9
 70
     1
102
RTVSPropertyOp10
 70
     1
102
RTVSPropertyOp11
 70
     1
102
RTVSPropertyOp12
 70
     1
102
RTVSPropertyOp13
 70
     1
102
RTVSPropertyOp14
 70
     1
102
RTVSPropertyOp15
 70
     1
102
RTVSPropertyOp16
 70
     1
102
RTVSPropertyOp17
 70
     1
102
RTVSPropertyOp18
 70
     1
102
RTVSPropertyOp19
 70
     1
102
RTVSPropertyOp20
 70
     1
102
RTVSPropertyOp21
 70
     1
102
RTVSPropertyOp22
 70
     1
102
RTVSPropertyOp23
 70
     1
102
RTVSPropertyOp24
 70
     1
102
RTVSPropertyOp25
 70
     1
102
RTVSPropertyOp26
 70
     1
102
RTVSPropertyOp27
 70
     1
102
RTVSPropertyOp28
 70
     1
102
RTVSPropertyOp29
 70
     1
102
RTVSPropertyOp30
 70
     1
102
RTVSPropertyOp31
 70
     1
102
RTVSPropertyOp32
 70
     1
  0
XRECORD
  5
A12
102
{ACAD_REACTORS
330
A11
102
}
330
A11
100
AcDbXrecord
280
     1
102
RTVSPropertyOp0
 70
     1
102
RTVSPropertyOp1
 70
     1
102
RTVSPropertyOp2
 70
     1
102
RTVSPropertyOp3
 70
     1
102
RTVSPropertyOp4
 70
     1
102
RTVSPropertyOp5
 70
     1
102
RTVSPropertyOp6
 70
     1
102
RTVSPropertyOp7
 70
     1
102
RTVSPropertyOp8
 70
     1
102
RTVSPropertyOp9
 70
     1
102
RTVSPropertyOp10
 70
     1
102
RTVSPropertyOp11
 70
     1
102
RTVSPropertyOp12
 70
     1
102
RTVSPropertyOp13
 70
     1
102
RTVSPropertyOp14
 70
     1
102
RTVSPropertyOp15
 70
     1
102
RTVSPropertyOp16
 70
     1
102
RTVSPropertyOp17
 70
     1
102
RTVSPropertyOp18
 70
     1
102
RTVSPropertyOp19
 70
     1
102
RTVSPropertyOp20
 70
     1
102
RTVSPropertyOp21
 70
     1
102
RTVSPropertyOp22
 70
     1
102
RTVSPropertyOp23
 70
     1
102
RTVSPropertyOp24
 70
     1
102
RTVSPropertyOp25
 70
     1
102
RTVSPropertyOp26
 70
     1
102
RTVSPropertyOp27
 70
     1
102
RTVSPropertyOp28
 70
     1
102
RTVSPropertyOp29
 70
     1
102
RTVSPropertyOp30
 70
     1
102
RTVSPropertyOp31
 70
     1
102
RTVSPropertyOp32
 70
     1
  0
XRECORD
  5
A14
102
{ACAD_REACTORS
330
A13
102
}
330
A13
100
AcDbXrecord
280
     1
102
RTVSPropertyOp0
 70
     1
102
RTVSPropertyOp1
 70
     1
102
RTVSPropertyOp2
 70
     1
102
RTVSPropertyOp3
 70
     1
102
RTVSPropertyOp4
 70
     1
102
RTVSPropertyOp5
 70
     1
102
RTVSPropertyOp6
 70
     1
102
RTVSPropertyOp7
 70
     1
102
RTVSPropertyOp8
 70
     1
102
RTVSPropertyOp9
 70
     1
102
RTVSPropertyOp10
 70
     1
102
RTVSPropertyOp11
 70
     1
102
RTVSPropertyOp12
 70
     1
102
RTVSPropertyOp13
 70
     1
102
RTVSPropertyOp14
 70
     1
102
RTVSPropertyOp15
 70
     1
102
RTVSPropertyOp16
 70
     1
102
RTVSPropertyOp17
 70
     1
102
RTVSPropertyOp18
 70
     1
102
RTVSPropertyOp19
 70
     1
102
RTVSPropertyOp20
 70
     1
102
RTVSPropertyOp21
 70
     1
102
RTVSPropertyOp22
 70
     1
102
RTVSPropertyOp23
 70
     1
102
RTVSPropertyOp24
 70
     1
102
RTVSPropertyOp25
 70
     1
102
RTVSPropertyOp26
 70
     1
102
RTVSPropertyOp27
 70
     1
102
RTVSPropertyOp28
 70
     1
102
RTVSPropertyOp29
 70
     1
102
RTVSPropertyOp30
 70
     1
102
RTVSPropertyOp31
 70
     1
102
RTVSPropertyOp32
 70
     1
  0
XRECORD
  5
A1C
102
{ACAD_REACTORS
330
A1B
102
}
330
A1B
100
AcDbXrecord
280
     1
102
RTVSPropertyOp0
 70
     1
102
RTVSPropertyOp1
 70
     1
102
RTVSPropertyOp2
 70
     1
102
RTVSPropertyOp3
 70
     1
102
RTVSPropertyOp4
 70
     1
102
RTVSPropertyOp5
 70
     1
102
RTVSPropertyOp6
 70
     1
102
RTVSPropertyOp7
 70
     1
102
RTVSPropertyOp8
 70
     1
102
RTVSPropertyOp9
 70
     1
102
RTVSPropertyOp10
 70
     1
102
RTVSPropertyOp11
 70
     1
102
RTVSPropertyOp12
 70
     1
102
RTVSPropertyOp13
 70
     1
102
RTVSPropertyOp14
 70
     1
102
RTVSPropertyOp15
 70
     1
102
RTVSPropertyOp16
 70
     1
102
RTVSPropertyOp17
 70
     1
102
RTVSPropertyOp18
 70
     1
102
RTVSPropertyOp19
 70
     1
102
RTVSPropertyOp20
 70
     1
102
RTVSPropertyOp21
 70
     1
102
RTVSPropertyOp22
 70
     1
102
RTVSPropertyOp23
 70
     1
102
RTVSPropertyOp24
 70
     1
102
RTVSPropertyOp25
 70
     1
102
RTVSPropertyOp26
 70
     1
102
RTVSPropertyOp27
 70
     1
102
RTVSPropertyOp28
 70
     1
102
RTVSPropertyOp29
 70
     1
102
RTVSPropertyOp30
 70
     1
102
RTVSPropertyOp31
 70
     1
102
RTVSPropertyOp32
 70
     1
  0
XRECORD
  5
A38
102
{ACAD_REACTORS
330
A37
102
}
330
A37
100
AcDbXrecord
280
     1
102
RTVSPropertyOp0
 70
     0
102
RTVSPropertyOp1
 70
     0
102
RTVSPropertyOp2
 70
     0
102
RTVSPropertyOp3
 70
     0
102
RTVSPropertyOp4
 70
     0
102
RTVSPropertyOp5
 70
     0
102
RTVSPropertyOp6
 70
     0
102
RTVSPropertyOp7
 70
     0
102
RTVSPropertyOp8
 70
     0
102
RTVSPropertyOp9
 70
     0
102
RTVSPropertyOp10
 70
     0
102
RTVSPropertyOp11
 70
     0
102
RTVSPropertyOp12
 70
     0
102
RTVSPropertyOp13
 70
     0
102
RTVSPropertyOp14
 70
     2
102
RTVSPropertyOp15
 70
     0
102
RTVSPropertyOp16
 70
     0
102
RTVSPropertyOp17
 70
     0
102
RTVSPropertyOp18
 70
     0
102
RTVSPropertyOp19
 70
     0
102
RTVSPropertyOp20
 70
     0
102
RTVSPropertyOp21
 70
     0
102
RTVSPropertyOp22
 70
     0
102
RTVSPropertyOp23
 70
     0
102
RTVSPropertyOp24
 70
     0
102
RTVSPropertyOp25
 70
     0
102
RTVSPropertyOp26
 70
     0
102
RTVSPropertyOp27
 70
     0
102
RTVSPropertyOp28
 70
     1
102
RTVSPropertyOp29
 70
     1
102
RTVSPropertyOp30
 70
     1
102
RTVSPropertyOp31
 70
     1
102
RTVSPropertyOp32
 70
     1
  0
XRECORD
  5
A28
102
{ACAD_REACTORS
330
A27
102
}
330
A27
100
AcDbXrecord
280
     1
102
RTVSPropertyOp0
 70
     1
102
RTVSPropertyOp1
 70
     1
102
RTVSPropertyOp2
 70
     1
102
RTVSPropertyOp3
 70
     1
102
RTVSPropertyOp4
 70
     1
102
RTVSPropertyOp5
 70
     1
102
RTVSPropertyOp6
 70
     1
102
RTVSPropertyOp7
 70
     1
102
RTVSPropertyOp8
 70
     1
102
RTVSPropertyOp9
 70
     1
102
RTVSPropertyOp10
 70
     1
102
RTVSPropertyOp11
 70
     1
102
RTVSPropertyOp12
 70
     1
102
RTVSPropertyOp13
 70
     1
102
RTVSPropertyOp14
 70
     1
102
RTVSPropertyOp15
 70
     1
102
RTVSPropertyOp16
 70
     1
102
RTVSPropertyOp17
 70
     1
102
RTVSPropertyOp18
 70
     1
102
RTVSPropertyOp19
 70
     1
102
RTVSPropertyOp20
 70
     1
102
RTVSPropertyOp21
 70
     1
102
RTVSPropertyOp22
 70
     1
102
RTVSPropertyOp23
 70
     1
102
RTVSPropertyOp24
 70
     1
102
RTVSPropertyOp25
 70
     1
102
RTVSPropertyOp26
 70
     1
102
RTVSPropertyOp27
 70
     1
102
RTVSPropertyOp28
 70
     1
102
RTVSPropertyOp29
 70
     1
102
RTVSPropertyOp30
 70
     1
102
RTVSPropertyOp31
 70
     1
102
RTVSPropertyOp32
 70
     1
  0
XRECORD
  5
A3A
102
{ACAD_REACTORS
330
A39
102
}
330
A39
100
AcDbXrecord
280
     1
102
RTVSPropertyOp0
 70
     0
102
RTVSPropertyOp1
 70
     0
102
RTVSPropertyOp2
 70
     0
102
RTVSPropertyOp3
 70
     0
102
RTVSPropertyOp4
 70
     0
102
RTVSPropertyOp5
 70
     0
102
RTVSPropertyOp6
 70
     0
102
RTVSPropertyOp7
 70
     0
102
RTVSPropertyOp8
 70
     0
102
RTVSPropertyOp9
 70
     0
102
RTVSPropertyOp10
 70
     0
102
RTVSPropertyOp11
 70
     0
102
RTVSPropertyOp12
 70
     0
102
RTVSPropertyOp13
 70
     0
102
RTVSPropertyOp14
 70
     2
102
RTVSPropertyOp15
 70
     0
102
RTVSPropertyOp16
 70
     0
102
RTVSPropertyOp17
 70
     0
102
RTVSPropertyOp18
 70
     0
102
RTVSPropertyOp19
 70
     0
102
RTVSPropertyOp20
 70
     0
102
RTVSPropertyOp21
 70
     0
102
RTVSPropertyOp22
 70
     0
102
RTVSPropertyOp23
 70
     0
102
RTVSPropertyOp24
 70
     0
102
RTVSPropertyOp25
 70
     0
102
RTVSPropertyOp26
 70
     0
102
RTVSPropertyOp27
 70
     0
102
RTVSPropertyOp28
 70
     1
102
RTVSPropertyOp29
 70
     1
102
RTVSPropertyOp30
 70
     1
102
RTVSPropertyOp31
 70
     1
102
RTVSPropertyOp32
 70
     1
  0
XRECORD
  5
A20
102
{ACAD_REACTORS
330
A1F
102
}
330
A1F
100
AcDbXrecord
280
     1
102
RTVSPropertyOp0
 70
     1
102
RTVSPropertyOp1
 70
     1
102
RTVSPropertyOp2
 70
     1
102
RTVSPropertyOp3
 70
     1
102
RTVSPropertyOp4
 70
     1
102
RTVSPropertyOp5
 70
     1
102
RTVSPropertyOp6
 70
     1
102
RTVSPropertyOp7
 70
     1
102
RTVSPropertyOp8
 70
     1
102
RTVSPropertyOp9
 70
     1
102
RTVSPropertyOp10
 70
     1
102
RTVSPropertyOp11
 70
     1
102
RTVSPropertyOp12
 70
     1
102
RTVSPropertyOp13
 70
     1
102
RTVSPropertyOp14
 70
     1
102
RTVSPropertyOp15
 70
     1
102
RTVSPropertyOp16
 70
     1
102
RTVSPropertyOp17
 70
     1
102
RTVSPropertyOp18
 70
     1
102
RTVSPropertyOp19
 70
     1
102
RTVSPropertyOp20
 70
     1
102
RTVSPropertyOp21
 70
     1
102
RTVSPropertyOp22
 70
     1
102
RTVSPropertyOp23
 70
     1
102
RTVSPropertyOp24
 70
     1
102
RTVSPropertyOp25
 70
     1
102
RTVSPropertyOp26
 70
     1
102
RTVSPropertyOp27
 70
     1
102
RTVSPropertyOp28
 70
     1
102
RTVSPropertyOp29
 70
     1
102
RTVSPropertyOp30
 70
     1
102
RTVSPropertyOp31
 70
     1
102
RTVSPropertyOp32
 70
     1
  0
XRECORD
  5
A36
102
{ACAD_REACTORS
330
A35
102
}
330
A35
100
AcDbXrecord
280
     1
102
RTVSPropertyOp0
 70
     1
102
RTVSPropertyOp1
 70
     1
102
RTVSPropertyOp2
 70
     1
102
RTVSPropertyOp3
 70
     1
102
RTVSPropertyOp4
 70
     1
102
RTVSPropertyOp5
 70
     1
102
RTVSPropertyOp6
 70
     1
102
RTVSPropertyOp7
 70
     1
102
RTVSPropertyOp8
 70
     1
102
RTVSPropertyOp9
 70
     1
102
RTVSPropertyOp10
 70
     1
102
RTVSPropertyOp11
 70
     1
102
RTVSPropertyOp12
 70
     1
102
RTVSPropertyOp13
 70
     1
102
RTVSPropertyOp14
 70
     1
102
RTVSPropertyOp15
 70
     1
102
RTVSPropertyOp16
 70
     1
102
RTVSPropertyOp17
 70
     1
102
RTVSPropertyOp18
 70
     1
102
RTVSPropertyOp19
 70
     1
102
RTVSPropertyOp20
 70
     1
102
RTVSPropertyOp21
 70
     1
102
RTVSPropertyOp22
 70
     1
102
RTVSPropertyOp23
 70
     1
102
RTVSPropertyOp24
 70
     1
102
RTVSPropertyOp25
 70
     1
102
RTVSPropertyOp26
 70
     1
102
RTVSPropertyOp27
 70
     1
102
RTVSPropertyOp28
 70
     1
102
RTVSPropertyOp29
 70
     1
102
RTVSPropertyOp30
 70
     1
102
RTVSPropertyOp31
 70
     1
102
RTVSPropertyOp32
 70
     1
  0
XRECORD
  5
A34
102
{ACAD_REACTORS
330
A33
102
}
330
A33
100
AcDbXrecord
280
     1
102
RTVSPropertyOp0
 70
     1
102
RTVSPropertyOp1
 70
     1
102
RTVSPropertyOp2
 70
     1
102
RTVSPropertyOp3
 70
     1
102
RTVSPropertyOp4
 70
     1
102
RTVSPropertyOp5
 70
     1
102
RTVSPropertyOp6
 70
     1
102
RTVSPropertyOp7
 70
     1
102
RTVSPropertyOp8
 70
     1
102
RTVSPropertyOp9
 70
     1
102
RTVSPropertyOp10
 70
     1
102
RTVSPropertyOp11
 70
     1
102
RTVSPropertyOp12
 70
     1
102
RTVSPropertyOp13
 70
     1
102
RTVSPropertyOp14
 70
     1
102
RTVSPropertyOp15
 70
     1
102
RTVSPropertyOp16
 70
     1
102
RTVSPropertyOp17
 70
     1
102
RTVSPropertyOp18
 70
     1
102
RTVSPropertyOp19
 70
     1
102
RTVSPropertyOp20
 70
     1
102
RTVSPropertyOp21
 70
     1
102
RTVSPropertyOp22
 70
     1
102
RTVSPropertyOp23
 70
     1
102
RTVSPropertyOp24
 70
     1
102
RTVSPropertyOp25
 70
     1
102
RTVSPropertyOp26
 70
     1
102
RTVSPropertyOp27
 70
     1
102
RTVSPropertyOp28
 70
     1
102
RTVSPropertyOp29
 70
     1
102
RTVSPropertyOp30
 70
     1
102
RTVSPropertyOp31
 70
     1
102
RTVSPropertyOp32
 70
     1
  0
XRECORD
  5
A2E
102
{ACAD_REACTORS
330
A2D
102
}
330
A2D
100
AcDbXrecord
280
     1
102
RTVSPropertyOp0
 70
     1
102
RTVSPropertyOp1
 70
     1
102
RTVSPropertyOp2
 70
     1
102
RTVSPropertyOp3
 70
     1
102
RTVSPropertyOp4
 70
     1
102
RTVSPropertyOp5
 70
     1
102
RTVSPropertyOp6
 70
     1
102
RTVSPropertyOp7
 70
     1
102
RTVSPropertyOp8
 70
     1
102
RTVSPropertyOp9
 70
     1
102
RTVSPropertyOp10
 70
     1
102
RTVSPropertyOp11
 70
     1
102
RTVSPropertyOp12
 70
     1
102
RTVSPropertyOp13
 70
     1
102
RTVSPropertyOp14
 70
     1
102
RTVSPropertyOp15
 70
     1
102
RTVSPropertyOp16
 70
     1
102
RTVSPropertyOp17
 70
     1
102
RTVSPropertyOp18
 70
     1
102
RTVSPropertyOp19
 70
     1
102
RTVSPropertyOp20
 70
     1
102
RTVSPropertyOp21
 70
     1
102
RTVSPropertyOp22
 70
     1
102
RTVSPropertyOp23
 70
     1
102
RTVSPropertyOp24
 70
     1
102
RTVSPropertyOp25
 70
     1
102
RTVSPropertyOp26
 70
     1
102
RTVSPropertyOp27
 70
     1
102
RTVSPropertyOp28
 70
     1
102
RTVSPropertyOp29
 70
     1
102
RTVSPropertyOp30
 70
     1
102
RTVSPropertyOp31
 70
     1
102
RTVSPropertyOp32
 70
     1
  0
XRECORD
  5
A30
102
{ACAD_REACTORS
330
A2F
102
}
330
A2F
100
AcDbXrecord
280
     1
102
RTVSPropertyOp0
 70
     1
102
RTVSPropertyOp1
 70
     1
102
RTVSPropertyOp2
 70
     1
102
RTVSPropertyOp3
 70
     1
102
RTVSPropertyOp4
 70
     1
102
RTVSPropertyOp5
 70
     1
102
RTVSPropertyOp6
 70
     1
102
RTVSPropertyOp7
 70
     1
102
RTVSPropertyOp8
 70
     1
102
RTVSPropertyOp9
 70
     1
102
RTVSPropertyOp10
 70
     1
102
RTVSPropertyOp11
 70
     1
102
RTVSPropertyOp12
 70
     1
102
RTVSPropertyOp13
 70
     1
102
RTVSPropertyOp14
 70
     1
102
RTVSPropertyOp15
 70
     1
102
RTVSPropertyOp16
 70
     1
102
RTVSPropertyOp17
 70
     1
102
RTVSPropertyOp18
 70
     1
102
RTVSPropertyOp19
 70
     1
102
RTVSPropertyOp20
 70
     1
102
RTVSPropertyOp21
 70
     1
102
RTVSPropertyOp22
 70
     1
102
RTVSPropertyOp23
 70
     1
102
RTVSPropertyOp24
 70
     1
102
RTVSPropertyOp25
 70
     1
102
RTVSPropertyOp26
 70
     1
102
RTVSPropertyOp27
 70
     1
102
RTVSPropertyOp28
 70
     1
102
RTVSPropertyOp29
 70
     1
102
RTVSPropertyOp30
 70
     1
102
RTVSPropertyOp31
 70
     1
102
RTVSPropertyOp32
 70
     1
  0
XRECORD
  5
A26
102
{ACAD_REACTORS
330
A25
102
}
330
A25
100
AcDbXrecord
280
     1
102
RTVSPropertyOp0
 70
     1
102
RTVSPropertyOp1
 70
     1
102
RTVSPropertyOp2
 70
     1
102
RTVSPropertyOp3
 70
     1
102
RTVSPropertyOp4
 70
     1
102
RTVSPropertyOp5
 70
     1
102
RTVSPropertyOp6
 70
     1
102
RTVSPropertyOp7
 70
     1
102
RTVSPropertyOp8
 70
     1
102
RTVSPropertyOp9
 70
     1
102
RTVSPropertyOp10
 70
     1
102
RTVSPropertyOp11
 70
     1
102
RTVSPropertyOp12
 70
     1
102
RTVSPropertyOp13
 70
     1
102
RTVSPropertyOp14
 70
     1
102
RTVSPropertyOp15
 70
     1
102
RTVSPropertyOp16
 70
     1
102
RTVSPropertyOp17
 70
     1
102
RTVSPropertyOp18
 70
     1
102
RTVSPropertyOp19
 70
     1
102
RTVSPropertyOp20
 70
     1
102
RTVSPropertyOp21
 70
     1
102
RTVSPropertyOp22
 70
     1
102
RTVSPropertyOp23
 70
     1
102
RTVSPropertyOp24
 70
     1
102
RTVSPropertyOp25
 70
     1
102
RTVSPropertyOp26
 70
     1
102
RTVSPropertyOp27
 70
     1
102
RTVSPropertyOp28
 70
     1
102
RTVSPropertyOp29
 70
     1
102
RTVSPropertyOp30
 70
     1
102
RTVSPropertyOp31
 70
     1
102
RTVSPropertyOp32
 70
     1
  0
XRECORD
  5
A1A
102
{ACAD_REACTORS
330
A19
102
}
330
A19
100
AcDbXrecord
280
     1
102
RTVSPropertyOp0
 70
     1
102
RTVSPropertyOp1
 70
     1
102
RTVSPropertyOp2
 70
     1
102
RTVSPropertyOp3
 70
     1
102
RTVSPropertyOp4
 70
     1
102
RTVSPropertyOp5
 70
     1
102
RTVSPropertyOp6
 70
     1
102
RTVSPropertyOp7
 70
     1
102
RTVSPropertyOp8
 70
     1
102
RTVSPropertyOp9
 70
     1
102
RTVSPropertyOp10
 70
     1
102
RTVSPropertyOp11
 70
     1
102
RTVSPropertyOp12
 70
     1
102
RTVSPropertyOp13
 70
     1
102
RTVSPropertyOp14
 70
     1
102
RTVSPropertyOp15
 70
     1
102
RTVSPropertyOp16
 70
     1
102
RTVSPropertyOp17
 70
     1
102
RTVSPropertyOp18
 70
     1
102
RTVSPropertyOp19
 70
     1
102
RTVSPropertyOp20
 70
     1
102
RTVSPropertyOp21
 70
     1
102
RTVSPropertyOp22
 70
     1
102
RTVSPropertyOp23
 70
     1
102
RTVSPropertyOp24
 70
     1
102
RTVSPropertyOp25
 70
     1
102
RTVSPropertyOp26
 70
     1
102
RTVSPropertyOp27
 70
     1
102
RTVSPropertyOp28
 70
     1
102
RTVSPropertyOp29
 70
     1
102
RTVSPropertyOp30
 70
     1
102
RTVSPropertyOp31
 70
     1
102
RTVSPropertyOp32
 70
     1
  0
XRECORD
  5
A32
102
{ACAD_REACTORS
330
A31
102
}
330
A31
100
AcDbXrecord
280
     1
102
RTVSPropertyOp0
 70
     1
102
RTVSPropertyOp1
 70
     1
102
RTVSPropertyOp2
 70
     1
102
RTVSPropertyOp3
 70
     1
102
RTVSPropertyOp4
 70
     1
102
RTVSPropertyOp5
 70
     1
102
RTVSPropertyOp6
 70
     1
102
RTVSPropertyOp7
 70
     1
102
RTVSPropertyOp8
 70
     1
102
RTVSPropertyOp9
 70
     1
102
RTVSPropertyOp10
 70
     1
102
RTVSPropertyOp11
 70
     1
102
RTVSPropertyOp12
 70
     1
102
RTVSPropertyOp13
 70
     1
102
RTVSPropertyOp14
 70
     1
102
RTVSPropertyOp15
 70
     1
102
RTVSPropertyOp16
 70
     1
102
RTVSPropertyOp17
 70
     1
102
RTVSPropertyOp18
 70
     1
102
RTVSPropertyOp19
 70
     1
102
RTVSPropertyOp20
 70
     1
102
RTVSPropertyOp21
 70
     1
102
RTVSPropertyOp22
 70
     1
102
RTVSPropertyOp23
 70
     1
102
RTVSPropertyOp24
 70
     1
102
RTVSPropertyOp25
 70
     1
102
RTVSPropertyOp26
 70
     1
102
RTVSPropertyOp27
 70
     1
102
RTVSPropertyOp28
 70
     1
102
RTVSPropertyOp29
 70
     1
102
RTVSPropertyOp30
 70
     1
102
RTVSPropertyOp31
 70
     1
102
RTVSPropertyOp32
 70
     1
  0
ENDSEC
  0
EOF
