  0
SECTION
  2
HEADER
  9
$ACADVER
  1
AC1015
  9
$ACADMAINTVER
 70
    18
  9
$DWGCODEPAGE
  3
ANSI_1252
  9
$INSBASE
 10
0.0
 20
0.0
 30
0.0
  9
$EXTMIN
 10
0.0
 20
0.0
 30
0.0
  9
$EXTMAX
 10
123.6363636363636
 20
80.0
 30
0.0
  9
$LIMMIN
 10
0.0
 20
0.0
  9
$LIMMAX
 10
123.6363636363636
 20
80.0
  9
$ORTHOMODE
 70
     0
  9
$REGENMODE
 70
     1
  9
$FILLMODE
 70
     1
  9
$QTEXTMODE
 70
     0
  9
$MIRRTEXT
 70
     0
  9
$LTSCALE
 40
7.272727272727272
  9
$ATTMODE
 70
     1
  9
$TEXTSIZE
 40
0.2
  9
$TRACEWID
 40
0.05
  9
$TEXTSTYLE
  7
Standard
  9
$CLAYER
  8
0
  9
$CELTYPE
  6
ByLayer
  9
$CECOLOR
 62
   256
  9
$CELTSCALE
 40
1.0
  9
$DISPSILH
 70
     0
  9
$DIMSCALE
 40
1.0
  9
$DIMASZ
 40
0.0708661417322835
  9
$DIMEXO
 40
0.0625
  9
$DIMDLI
 40
0.38
  9
$DIMRND
 40
0.0
  9
$DIMDLE
 40
0.0
  9
$DIMEXE
 40
0.18
  9
$DIMTP
 40
0.0
  9
$DIMTM
 40
0.0
  9
$DIMTXT
 40
0.0708661417322835
  9
$DIMCEN
 40
0.09
  9
$DIMTSZ
 40
0.0
  9
$DIMTOL
 70
     0
  9
$DIMLIM
 70
     0
  9
$DIMTIH
 70
     1
  9
$DIMTOH
 70
     1
  9
$DIMSE1
 70
     0
  9
$DIMSE2
 70
     0
  9
$DIMTAD
 70
     0
  9
$DIMZIN
 70
     0
  9
$DIMBLK
  1

  9
$DIMASO
 70
     1
  9
$DIMSHO
 70
     1
  9
$DIMPOST
  1

  9
$DIMAPOST
  1

  9
$DIMALT
 70
     0
  9
$DIMALTD
 70
     2
  9
$DIMALTF
 40
25.4
  9
$DIMLFAC
 40
1.0
  9
$DIMTOFL
 70
     0
  9
$DIMTVP
 40
0.0
  9
$DIMTIX
 70
     0
  9
$DIMSOXD
 70
     0
  9
$DIMSAH
 70
     0
  9
$DIMBLK1
  1

  9
$DIMBLK2
  1

  9
$DIMSTYLE
  2
Standard
  9
$DIMCLRD
 70
     0
  9
$DIMCLRE
 70
     0
  9
$DIMCLRT
 70
     0
  9
$DIMTFAC
 40
1.0
  9
$DIMGAP
 40
0.09
  9
$DIMJUST
 70
     0
  9
$DIMSD1
 70
     0
  9
$DIMSD2
 70
     0
  9
$DIMTOLJ
 70
     1
  9
$DIMTZIN
 70
     0
  9
$DIMALTZ
 70
     0
  9
$DIMALTTZ
 70
     0
  9
$DIMUPT
 70
     0
  9
$DIMDEC
 70
     4
  9
$DIMTDEC
 70
     4
  9
$DIMALTU
 70
     2
  9
$DIMALTTD
 70
     2
  9
$DIMTXSTY
  7
Standard
  9
$DIMAUNIT
 70
     0
  9
$DIMADEC
 70
     0
  9
$DIMALTRND
 40
0.0
  9
$DIMAZIN
 70
     0
  9
$DIMDSEP
 70
    46
  9
$DIMATFIT
 70
     3
  9
$DIMFRAC
 70
     0
  9
$DIMLDRBLK
  1

  9
$DIMLUNIT
 70
     2
  9
$DIMLWD
 70
    -2
  9
$DIMLWE
 70
    -2
  9
$DIMTMOVE
 70
     0
  9
$LUNITS
 70
     2
  9
$LUPREC
 70
     4
  9
$SKETCHINC
 40
0.1
  9
$FILLETRAD
 40
0.0
  9
$AUNITS
 70
     0
  9
$AUPREC
 70
     0
  9
$MENU
  1
.
  9
$ELEVATION
 40
0.0
  9
$PELEVATION
 40
0.0
  9
$THICKNESS
 40
0.0
  9
$LIMCHECK
 70
     0
  9
$CHAMFERA
 40
0.0
  9
$CHAMFERB
 40
0.0
  9
$CHAMFERC
 40
0.0
  9
$CHAMFERD
 40
0.0
  9
$SKPOLY
 70
     0
  9
$TDCREATE
 40
2455986.401147801
  9
$TDUCREATE
 40
2455986.651147801
  9
$TDUPDATE
 40
2455986.401147801
  9
$TDUUPDATE
 40
2455986.651147801
  9
$TDINDWG
 40
0.0000356250
  9
$TDUSRTIMER
 40
0.0000356250
  9
$USRTIMER
 70
     1
  9
$ANGBASE
 50
0.0
  9
$ANGDIR
 70
     0
  9
$PDMODE
 70
     0
  9
$PDSIZE
 40
0.0
  9
$PLINEWID
 40
0.0
  9
$SPLFRAME
 70
     0
  9
$SPLINETYPE
 70
     6
  9
$SPLINESEGS
 70
     8
  9
$HANDSEED
  5
A4D
  9
$SURFTAB1
 70
     6
  9
$SURFTAB2
 70
     6
  9
$SURFTYPE
 70
     6
  9
$SURFU
 70
     6
  9
$SURFV
 70
     6
  9
$UCSBASE
  2

  9
$UCSNAME
  2

  9
$UCSORG
 10
0.0
 20
0.0
 30
0.0
  9
$UCSXDIR
 10
1.0
 20
0.0
 30
0.0
  9
$UCSYDIR
 10
0.0
 20
1.0
 30
0.0
  9
$UCSORTHOREF
  2

  9
$UCSORTHOVIEW
 70
     0
  9
$UCSORGTOP
 10
0.0
 20
0.0
 30
0.0
  9
$UCSORGBOTTOM
 10
0.0
 20
0.0
 30
0.0
  9
$UCSORGLEFT
 10
0.0
 20
0.0
 30
0.0
  9
$UCSORGRIGHT
 10
0.0
 20
0.0
 30
0.0
  9
$UCSORGFRONT
 10
0.0
 20
0.0
 30
0.0
  9
$UCSORGBACK
 10
0.0
 20
0.0
 30
0.0
  9
$PUCSBASE
  2

  9
$PUCSNAME
  2

  9
$PUCSORG
 10
0.0
 20
0.0
 30
0.0
  9
$PUCSXDIR
 10
1.0
 20
0.0
 30
0.0
  9
$PUCSYDIR
 10
0.0
 20
1.0
 30
0.0
  9
$PUCSORTHOREF
  2

  9
$PUCSORTHOVIEW
 70
     0
  9
$PUCSORGTOP
 10
0.0
 20
0.0
 30
0.0
  9
$PUCSORGBOTTOM
 10
0.0
 20
0.0
 30
0.0
  9
$PUCSORGLEFT
 10
0.0
 20
0.0
 30
0.0
  9
$PUCSORGRIGHT
 10
0.0
 20
0.0
 30
0.0
  9
$PUCSORGFRONT
 10
0.0
 20
0.0
 30
0.0
  9
$PUCSORGBACK
 10
0.0
 20
0.0
 30
0.0
  9
$USERI1
 70
     0
  9
$USERI2
 70
     0
  9
$USERI3
 70
     0
  9
$USERI4
 70
     0
  9
$USERI5
 70
     0
  9
$USERR1
 40
0.0
  9
$USERR2
 40
0.0
  9
$USERR3
 40
0.0
  9
$USERR4
 40
0.0
  9
$USERR5
 40
0.0
  9
$WORLDVIEW
 70
     1
  9
$SHADEDGE
 70
     3
  9
$SHADEDIF
 70
    70
  9
$TILEMODE
 70
     1
  9
$MAXACTVP
 70
    64
  9
$PINSBASE
 10
0.0
 20
0.0
 30
0.0
  9
$PLIMCHECK
 70
     0
  9
$PEXTMIN
 10
0.0
 20
0.0
 30
0.0
  9
$PEXTMAX
 10
123.6363636363636
 20
80.0
 30
0.0
  9
$PLIMMIN
 10
0.0
 20
0.0
  9
$PLIMMAX
 10
123.6363636363636
 20
80.0
  9
$UNITMODE
 70
     0
  9
$VISRETAIN
 70
     1
  9
$PLINEGEN
 70
     0
  9
$PSLTSCALE
 70
     1
  9
$TREEDEPTH
 70
  3020
  9
$CMLSTYLE
  2
Standard
  9
$CMLJUST
 70
     0
  9
$CMLSCALE
 40
1.0
  9
$PROXYGRAPHICS
 70
     1
  9
$MEASUREMENT
 70
     0
  9
$CELWEIGHT
370
    -1
  9
$ENDCAPS
280
     0
  9
$JOINSTYLE
280
     0
  9
$LWDISPLAY
290
     0
  9
$INSUNITS
 70
     1
  9
$HYPERLINKBASE
  1

  9
$STYLESHEET
  1

  9
$XEDIT
290
     1
  9
$CEPSNTYPE
380
     0
  9
$PSTYLEMODE
290
     1
  9
$FINGERPRINTGUID
  2
{72719C07-98F5-4C9A-803A-EBC990552325}
  9
$VERSIONGUID
  2
{073D45A2-F02D-45E9-9221-C1724DC0D144}
  9
$EXTNAMES
290
     1
  9
$PSVPSCALE
 40
0.0
  9
$OLESTARTUP
290
     0
  0
ENDSEC
  0
SECTION
  2
CLASSES
  0
CLASS
  1
ACDBDICTIONARYWDFLT
  2
AcDbDictionaryWithDefault
  3
ObjectDBX Classes
 90
        0
280
     0
281
     0
  0
CLASS
  1
MATERIAL
  2
AcDbMaterial
  3
ObjectDBX Classes
 90
     1153
280
     0
281
     0
  0
CLASS
  1
VISUALSTYLE
  2
AcDbVisualStyle
  3
ObjectDBX Classes
 90
     4095
280
     0
281
     0
  0
CLASS
  1
SCALE
  2
AcDbScale
  3
ObjectDBX Classes
 90
     1153
280
     0
281
     0
  0
CLASS
  1
TABLESTYLE
  2
AcDbTableStyle
  3
ObjectDBX Classes
 90
     4095
280
     0
281
     0
  0
CLASS
  1
MLEADERSTYLE
  2
AcDbMLeaderStyle
  3
ACDB_MLEADERSTYLE_CLASS
 90
     4095
280
     0
281
     0
  0
CLASS
  1
DICTIONARYVAR
  2
AcDbDictionaryVar
  3
ObjectDBX Classes
 90
        0
280
     0
281
     0
  0
CLASS
  1
CELLSTYLEMAP
  2
AcDbCellStyleMap
  3
ObjectDBX Classes
 90
     1152
280
     0
281
     0
  0
CLASS
  1
ACDBPLACEHOLDER
  2
AcDbPlaceHolder
  3
ObjectDBX Classes
 90
        0
280
     0
281
     0
  0
CLASS
  1
LAYOUT
  2
AcDbLayout
  3
ObjectDBX Classes
 90
        0
280
     0
281
     0
  0
ENDSEC
  0
SECTION
  2
TABLES
  0
TABLE
  2
VPORT
  5
8
330
0
100
AcDbSymbolTable
 70
     1
  0
VPORT
  5
57
330
8
100
AcDbSymbolTableRecord
100
AcDbViewportTableRecord
  2
*Active
 70
     0
 10
0.0
 20
0.0
 11
1.0
 21
1.0
 12
61.81818181818181
 22
40.0
 13
0.0
 23
0.0
 14
1.0
 24
1.0
 15
0.0
 25
0.0
 16
0.0
 26
0.0
 36
1.0
 17
0.0
 27
0.0
 37
0.0
 40
80.0
 41
1.545454545454545
 42
50.0
 43
0.0
 44
0.0
 50
0.0
 51
0.0
 71
     0
 72
   100
 73
     1
 74
     1
 75
     0
 76
     0
 77
     0
 78
     0
281
     0
 65
     1
110
0.0
120
0.0
130
0.0
111
1.0
121
0.0
131
0.0
112
0.0
122
1.0
132
0.0
 79
     0
146
0.0
  0
ENDTAB
  0
TABLE
  2
LTYPE
  5
5
330
0
100
AcDbSymbolTable
 70
    59
  0
LTYPE
  5
5B
330
5
100
AcDbSymbolTableRecord
100
AcDbLinetypeTableRecord
  2
ByBlock
 70
     0
  3

 72
    65
 73
     0
 40
0.0
  0
LTYPE
  5
5C
330
5
100
AcDbSymbolTableRecord
100
AcDbLinetypeTableRecord
  2
ByLayer
 70
     0
  3

 72
    65
 73
     0
 40
0.0
  0
LTYPE
  5
5D
330
5
100
AcDbSymbolTableRecord
100
AcDbLinetypeTableRecord
  2
Continuous
 70
     0
  3
Solid line
 72
    65
 73
     0
 40
0.0
  0
LTYPE
  5
7C
330
5
100
AcDbSymbolTableRecord
100
AcDbLinetypeTableRecord
  2
BY_STANDARD
 70
     0
  3
By Standard ____________    ____    ____   _
 72
    65
 73
     6
 40
1.240299999999999
 49
0.6614
 74
     0
 49
-0.0827
 74
     0
 49
0.1654
 74
     0
 49
-0.0827
 74
     0
 49
0.1654
 74
     0
 49
-0.0827
 74
     0
  0
LTYPE
  5
7D
330
5
100
AcDbSymbolTableRecord
100
AcDbLinetypeTableRecord
  2
CHAIN
 70
     0
  3
Chain ____ _ ____ _ ____ _ ____ _ ____ _ ____
 72
    65
 73
     4
 40
0.7087
 49
0.4724000000000001
 74
     0
 49
-0.0591
 74
     0
 49
0.1181
 74
     0
 49
-0.0591
 74
     0
  0
LTYPE
  5
7E
330
5
100
AcDbSymbolTableRecord
100
AcDbLinetypeTableRecord
  2
DASH_DOT
 70
     0
  3
Dash dot __ . __ . __ . __ . __ . __ . __ . __
 72
    65
 73
     4
 40
0.37
 49
0.24
 74
     0
 49
-0.06
 74
     0
 49
0.01
 74
     0
 49
-0.06
 74
     0
  0
LTYPE
  5
7F
330
5
100
AcDbSymbolTableRecord
100
AcDbLinetypeTableRecord
  2
DOUBLE_DASH_DOT
 70
     0
  3
Double-Dash Dot __ __ . __ __ . __ __ . __ _
 72
    65
 73
     6
 40
0.4398
 49
0.24
 74
     0
 49
-0.06
 74
     0
 49
0.0098
 74
     0
 49
-0.06
 74
     0
 49
0.01
 74
     0
 49
-0.06
 74
     0
  0
LTYPE
  5
80
330
5
100
AcDbSymbolTableRecord
100
AcDbLinetypeTableRecord
  2
DASH_TRIPLE_DOT
 70
     0
  3
Dash Triple-Dot _ . . . _ . . . _ . . . _
 72
    65
 73
     8
 40
0.51
 49
0.24
 74
     0
 49
-0.06
 74
     0
 49
0.01
 74
     0
 49
-0.06
 74
     0
 49
0.01
 74
     0
 49
-0.06
 74
     0
 49
0.01
 74
     0
 49
-0.06
 74
     0
  0
LTYPE
  5
81
330
5
100
AcDbSymbolTableRecord
100
AcDbLinetypeTableRecord
  2
DASHED
 70
     0
  3
Dashed __ __ __ __ __ __ __ __ __ __ __ __ __ _
 72
    65
 73
     2
 40
0.2067
 49
0.1654
 74
     0
 49
-0.0413
 74
     0
  0
LTYPE
  5
82
330
5
100
AcDbSymbolTableRecord
100
AcDbLinetypeTableRecord
  2
DASH_DOUBLE_DOT
 70
     0
  3
Dash Double-Dot __ . . __ . . __ . . __ . .
 72
    65
 73
     6
 40
0.4398
 49
0.24
 74
     0
 49
-0.06
 74
     0
 49
0.0098
 74
     0
 49
-0.06
 74
     0
 49
0.01
 74
     0
 49
-0.06
 74
     0
  0
LTYPE
  5
83
330
5
100
AcDbSymbolTableRecord
100
AcDbLinetypeTableRecord
  2
DASHED_SPACE
 70
     0
  3
Dashed Space __ __ __ __ __ __ __ __ __ __ __ _
 72
    65
 73
     2
 40
0.2067
 49
0.1654
 74
     0
 49
-0.0413
 74
     0
  0
LTYPE
  5
84
330
5
100
AcDbSymbolTableRecord
100
AcDbLinetypeTableRecord
  2
DOTTED
 70
     0
  3
Dotted . . . . . . . . . . . . . . . . . . . . 
 72
    65
 73
     2
 40
0.0482
 49
0.0069
 74
     0
 49
-0.0413
 74
     0
  0
LTYPE
  5
85
330
5
100
AcDbSymbolTableRecord
100
AcDbLinetypeTableRecord
  2
DOUBLE_DASH_CHAIN
 70
     0
  3
Double-Dash Chain ______  __  __  ______  __  _
 72
    65
 73
     6
 40
1.240299999999999
 49
0.6614
 74
     0
 49
-0.0827
 74
     0
 49
0.1654
 74
     0
 49
-0.0827
 74
     0
 49
0.1654
 74
     0
 49
-0.0827
 74
     0
  0
LTYPE
  5
87
330
5
100
AcDbSymbolTableRecord
100
AcDbLinetypeTableRecord
  2
DOUBLE_DASH_DOUBLE_DOT
 70
     0
  3
Double-Dash Double-dot _ _ . . _ _ . . _
 72
    65
 73
     8
 40
0.7400000000000001
 49
0.24
 74
     0
 49
-0.06
 74
     0
 49
0.24
 74
     0
 49
-0.06
 74
     0
 49
0.01
 74
     0
 49
-0.06
 74
     0
 49
0.01
 74
     0
 49
-0.06
 74
     0
  0
LTYPE
  5
88
330
5
100
AcDbSymbolTableRecord
100
AcDbLinetypeTableRecord
  2
DOUBLE_DASH_TRIPLE_DOT
 70
     0
  3
Double Dash Triple Dot __ __ . . . __ __ . .
 72
    65
 73
    10
 40
0.8100000000000001
 49
0.24
 74
     0
 49
-0.06
 74
     0
 49
0.24
 74
     0
 49
-0.06
 74
     0
 49
0.01
 74
     0
 49
-0.06
 74
     0
 49
0.01
 74
     0
 49
-0.06
 74
     0
 49
0.01
 74
     0
 49
-0.06
 74
     0
  0
LTYPE
  5
89
330
5
100
AcDbSymbolTableRecord
100
AcDbLinetypeTableRecord
  2
LONG_DASH_DOTTED
 70
     0
  3
Long Dash Dotted ____ . ____ . ____ . ____ . _
 72
    65
 73
     4
 40
0.3543
 49
0.2362
 74
     0
 49
-0.0295
 74
     0
 49
0.0591
 74
     0
 49
-0.0295
 74
     0
  0
LTYPE
  5
8A
330
5
100
AcDbSymbolTableRecord
100
AcDbLinetypeTableRecord
  2
LONG_DASH_DOUBLE_DOT
 70
     0
  3
Long Dash Double Dot ________  .  .  ________  
 72
    65
 73
     6
 40
0.6799999999999999
 49
0.48
 74
     0
 49
-0.06
 74
     0
 49
0.01
 74
     0
 49
-0.06
 74
     0
 49
0.01
 74
     0
 49
-0.06
 74
     0
  0
LTYPE
  5
8B
330
5
100
AcDbSymbolTableRecord
100
AcDbLinetypeTableRecord
  2
LONG_DASH_TRIPLE_DOT
 70
     0
  3
Long Dash Triple Dot ____ ... ____ ... ____
 72
    65
 73
     8
 40
0.3689
 49
0.2362
 74
     0
 49
-0.0295
 74
     0
 49
0.0049
 74
     0
 49
-0.0295
 74
     0
 49
0.0049
 74
     0
 49
-0.0295
 74
     0
 49
0.0049
 74
     0
 49
-0.0295
 74
     0
  0
LTYPE
  5
8C
330
5
100
AcDbSymbolTableRecord
100
AcDbLinetypeTableRecord
  2
BORDER
 70
     0
  3
Border __ __ . __ __ . __ __ . __ __ . __ __ .
 72
    65
 73
     6
 40
1.75
 49
0.5
 74
     0
 49
-0.25
 74
     0
 49
0.5
 74
     0
 49
-0.25
 74
     0
 49
0.0
 74
     0
 49
-0.25
 74
     0
  0
LTYPE
  5
8D
330
5
100
AcDbSymbolTableRecord
100
AcDbLinetypeTableRecord
  2
BORDER2
 70
     0
  3
Border (.5x) __.__.__.__.__.__.__.__.__.__.__.
 72
    65
 73
     6
 40
0.875
 49
0.25
 74
     0
 49
-0.125
 74
     0
 49
0.25
 74
     0
 49
-0.125
 74
     0
 49
0.0
 74
     0
 49
-0.125
 74
     0
  0
LTYPE
  5
8E
330
5
100
AcDbSymbolTableRecord
100
AcDbLinetypeTableRecord
  2
BORDERX2
 70
     0
  3
Border (2x) ____  ____  .  ____  ____  .  ___
 72
    65
 73
     6
 40
3.5
 49
1.0
 74
     0
 49
-0.5
 74
     0
 49
1.0
 74
     0
 49
-0.5
 74
     0
 49
0.0
 74
     0
 49
-0.5
 74
     0
  0
LTYPE
  5
8F
330
5
100
AcDbSymbolTableRecord
100
AcDbLinetypeTableRecord
  2
CENTER
 70
     0
  3
Center ____ _ ____ _ ____ _ ____ _ ____ _ ____
 72
    65
 73
     4
 40
2.0
 49
1.25
 74
     0
 49
-0.25
 74
     0
 49
0.25
 74
     0
 49
-0.25
 74
     0
  0
LTYPE
  5
90
330
5
100
AcDbSymbolTableRecord
100
AcDbLinetypeTableRecord
  2
CENTER2
 70
     0
  3
Center (.5x) ___ _ ___ _ ___ _ ___ _ ___ _ ___
 72
    65
 73
     4
 40
1.125
 49
0.75
 74
     0
 49
-0.125
 74
     0
 49
0.125
 74
     0
 49
-0.125
 74
     0
  0
LTYPE
  5
91
330
5
100
AcDbSymbolTableRecord
100
AcDbLinetypeTableRecord
  2
CENTERX2
 70
     0
  3
Center (2x) ________  __  ________  __  _____
 72
    65
 73
     4
 40
4.0
 49
2.5
 74
     0
 49
-0.5
 74
     0
 49
0.5
 74
     0
 49
-0.5
 74
     0
  0
LTYPE
  5
92
330
5
100
AcDbSymbolTableRecord
100
AcDbLinetypeTableRecord
  2
DASHDOT2
 70
     0
  3
Dash dot (.5x) _._._._._._._._._._._._._._._.
 72
    65
 73
     4
 40
0.5
 49
0.25
 74
     0
 49
-0.125
 74
     0
 49
0.0
 74
     0
 49
-0.125
 74
     0
  0
LTYPE
  5
93
330
5
100
AcDbSymbolTableRecord
100
AcDbLinetypeTableRecord
  2
DASHDOTX2
 70
     0
  3
Dash dot (2x) ____  .  ____  .  ____  .  ___
 72
    65
 73
     4
 40
2.0
 49
1.0
 74
     0
 49
-0.5
 74
     0
 49
0.0
 74
     0
 49
-0.5
 74
     0
  0
LTYPE
  5
95
330
5
100
AcDbSymbolTableRecord
100
AcDbLinetypeTableRecord
  2
DASHED2
 70
     0
  3
Dashed (.5x) _ _ _ _ _ _ _ _ _ _ _ _ _ _ _ _ _
 72
    65
 73
     2
 40
0.375
 49
0.25
 74
     0
 49
-0.125
 74
     0
  0
LTYPE
  5
96
330
5
100
AcDbSymbolTableRecord
100
AcDbLinetypeTableRecord
  2
DASHEDX2
 70
     0
  3
Dashed (2x) ____  ____  ____  ____  ____  ___
 72
    65
 73
     2
 40
1.5
 49
1.0
 74
     0
 49
-0.5
 74
     0
  0
LTYPE
  5
97
330
5
100
AcDbSymbolTableRecord
100
AcDbLinetypeTableRecord
  2
DIVIDE
 70
     0
  3
Divide ____ . . ____ . . ____ . . ____ . . ____
 72
    65
 73
     6
 40
1.25
 49
0.5
 74
     0
 49
-0.25
 74
     0
 49
0.0
 74
     0
 49
-0.25
 74
     0
 49
0.0
 74
     0
 49
-0.25
 74
     0
  0
LTYPE
  5
98
330
5
100
AcDbSymbolTableRecord
100
AcDbLinetypeTableRecord
  2
DIVIDE2
 70
     0
  3
Divide (.5x) __..__..__..__..__..__..__..__.._
 72
    65
 73
     6
 40
0.625
 49
0.25
 74
     0
 49
-0.125
 74
     0
 49
0.0
 74
     0
 49
-0.125
 74
     0
 49
0.0
 74
     0
 49
-0.125
 74
     0
  0
LTYPE
  5
99
330
5
100
AcDbSymbolTableRecord
100
AcDbLinetypeTableRecord
  2
DIVIDEX2
 70
     0
  3
Divide (2x) ________  .  .  ________  .  .  _
 72
    65
 73
     6
 40
2.5
 49
1.0
 74
     0
 49
-0.5
 74
     0
 49
0.0
 74
     0
 49
-0.5
 74
     0
 49
0.0
 74
     0
 49
-0.5
 74
     0
  0
LTYPE
  5
9A
330
5
100
AcDbSymbolTableRecord
100
AcDbLinetypeTableRecord
  2
DOT
 70
     0
  3
Dot . . . . . . . . . . . . . . . . . . . . . .
 72
    65
 73
     2
 40
0.25
 49
0.0
 74
     0
 49
-0.25
 74
     0
  0
LTYPE
  5
9B
330
5
100
AcDbSymbolTableRecord
100
AcDbLinetypeTableRecord
  2
DOT2
 70
     0
  3
Dot (.5x) .....................................
 72
    65
 73
     2
 40
0.125
 49
0.0
 74
     0
 49
-0.125
 74
     0
  0
LTYPE
  5
9C
330
5
100
AcDbSymbolTableRecord
100
AcDbLinetypeTableRecord
  2
DOTX2
 70
     0
  3
Dot (2x) .  .  .  .  .  .  .  .  .  .  .  .  . 
 72
    65
 73
     2
 40
0.5
 49
0.0
 74
     0
 49
-0.5
 74
     0
  0
LTYPE
  5
9D
330
5
100
AcDbSymbolTableRecord
100
AcDbLinetypeTableRecord
  2
HIDDEN
 70
     0
  3
Hidden __ __ __ __ __ __ __ __ __ __ __ __ __ _
 72
    65
 73
     2
 40
0.375
 49
0.25
 74
     0
 49
-0.125
 74
     0
  0
LTYPE
  5
9E
330
5
100
AcDbSymbolTableRecord
100
AcDbLinetypeTableRecord
  2
HIDDEN2
 70
     0
  3
Hidden (.5x) _ _ _ _ _ _ _ _ _ _ _ _ _ _ _ _ _
 72
    65
 73
     2
 40
0.1875
 49
0.125
 74
     0
 49
-0.0625
 74
     0
  0
LTYPE
  5
9F
330
5
100
AcDbSymbolTableRecord
100
AcDbLinetypeTableRecord
  2
HIDDENX2
 70
     0
  3
Hidden (2x) ____ ____ ____ ____ ____ ____ ____
 72
    65
 73
     2
 40
0.75
 49
0.5
 74
     0
 49
-0.25
 74
     0
  0
LTYPE
  5
A0
330
5
100
AcDbSymbolTableRecord
100
AcDbLinetypeTableRecord
  2
PHANTOM
 70
     0
  3
Phantom ______  __  __  ______  __  __  ______
 72
    65
 73
     6
 40
2.5
 49
1.25
 74
     0
 49
-0.25
 74
     0
 49
0.25
 74
     0
 49
-0.25
 74
     0
 49
0.25
 74
     0
 49
-0.25
 74
     0
  0
LTYPE
  5
A1
330
5
100
AcDbSymbolTableRecord
100
AcDbLinetypeTableRecord
  2
PHANTOM2
 70
     0
  3
Phantom (.5x) ___ _ _ ___ _ _ ___ _ _ ___ _ _
 72
    65
 73
     6
 40
1.25
 49
0.625
 74
     0
 49
-0.125
 74
     0
 49
0.125
 74
     0
 49
-0.125
 74
     0
 49
0.125
 74
     0
 49
-0.125
 74
     0
  0
LTYPE
  5
A2
330
5
100
AcDbSymbolTableRecord
100
AcDbLinetypeTableRecord
  2
PHANTOMX2
 70
     0
  3
Phantom (2x) ____________    ____    ____   _
 72
    65
 73
     6
 40
5.0
 49
2.5
 74
     0
 49
-0.5
 74
     0
 49
0.5
 74
     0
 49
-0.5
 74
     0
 49
0.5
 74
     0
 49
-0.5
 74
     0
  0
LTYPE
  5
A3
330
5
100
AcDbSymbolTableRecord
100
AcDbLinetypeTableRecord
  2
ACAD_ISO02W100
 70
     0
  3
ISO dash __ __ __ __ __ __ __ __ __ __ __ __ __
 72
    65
 73
     2
 40
0.59
 49
0.47
 74
     0
 49
-0.12
 74
     0
  0
LTYPE
  5
A4
330
5
100
AcDbSymbolTableRecord
100
AcDbLinetypeTableRecord
  2
ACAD_ISO03W100
 70
     0
  3
ISO dash space __    __    __    __    __    __
 72
    65
 73
     2
 40
1.179999999999999
 49
0.47
 74
     0
 49
-0.71
 74
     0
  0
LTYPE
  5
A5
330
5
100
AcDbSymbolTableRecord
100
AcDbLinetypeTableRecord
  2
ACAD_ISO04W100
 70
     0
  3
ISO long-dash dot ____ . ____ . ____ . ____ . _
 72
    65
 73
     4
 40
1.179999999999999
 49
0.9399999999999998
 74
     0
 49
-0.12
 74
     0
 49
0.0
 74
     0
 49
-0.12
 74
     0
  0
LTYPE
  5
A6
330
5
100
AcDbSymbolTableRecord
100
AcDbLinetypeTableRecord
  2
ACAD_ISO05W100
 70
     0
  3
ISO long-dash double-dot ____ .. ____ .. ____ .
 72
    65
 73
     6
 40
1.299999999999999
 49
0.9399999999999998
 74
     0
 49
-0.12
 74
     0
 49
0.0
 74
     0
 49
-0.12
 74
     0
 49
0.0
 74
     0
 49
-0.12
 74
     0
  0
LTYPE
  5
A7
330
5
100
AcDbSymbolTableRecord
100
AcDbLinetypeTableRecord
  2
ACAD_ISO06W100
 70
     0
  3
ISO long-dash triple-dot ____ ... ____ ... ____
 72
    65
 73
     8
 40
1.419999999999999
 49
0.9399999999999998
 74
     0
 49
-0.12
 74
     0
 49
0.0
 74
     0
 49
-0.12
 74
     0
 49
0.0
 74
     0
 49
-0.12
 74
     0
 49
0.0
 74
     0
 49
-0.12
 74
     0
  0
LTYPE
  5
A8
330
5
100
AcDbSymbolTableRecord
100
AcDbLinetypeTableRecord
  2
ACAD_ISO07W100
 70
     0
  3
ISO dot . . . . . . . . . . . . . . . . . . . .
 72
    65
 73
     2
 40
0.12
 49
0.0
 74
     0
 49
-0.12
 74
     0
  0
LTYPE
  5
A9
330
5
100
AcDbSymbolTableRecord
100
AcDbLinetypeTableRecord
  2
ACAD_ISO08W100
 70
     0
  3
ISO long-dash short-dash ____ __ ____ __ ____ _
 72
    65
 73
     4
 40
0.95
 49
0.47
 74
     0
 49
-0.12
 74
     0
 49
0.24
 74
     0
 49
-0.12
 74
     0
  0
LTYPE
  5
AA
330
5
100
AcDbSymbolTableRecord
100
AcDbLinetypeTableRecord
  2
ACAD_ISO09W100
 70
     0
  3
ISO long-dash double-short-dash ____ __ __ ____
 72
    65
 73
     6
 40
1.31
 49
0.47
 74
     0
 49
-0.12
 74
     0
 49
0.24
 74
     0
 49
-0.12
 74
     0
 49
0.24
 74
     0
 49
-0.12
 74
     0
  0
LTYPE
  5
AB
330
5
100
AcDbSymbolTableRecord
100
AcDbLinetypeTableRecord
  2
ACAD_ISO10W100
 70
     0
  3
ISO dash dot __ . __ . __ . __ . __ . __ . __ .
 72
    65
 73
     4
 40
0.71
 49
0.47
 74
     0
 49
-0.12
 74
     0
 49
0.0
 74
     0
 49
-0.12
 74
     0
  0
LTYPE
  5
AC
330
5
100
AcDbSymbolTableRecord
100
AcDbLinetypeTableRecord
  2
ACAD_ISO11W100
 70
     0
  3
ISO double-dash dot __ __ . __ __ . __ __ . __ 
 72
    65
 73
     6
 40
1.299999999999999
 49
0.47
 74
     0
 49
-0.12
 74
     0
 49
0.47
 74
     0
 49
-0.12
 74
     0
 49
0.0
 74
     0
 49
-0.12
 74
     0
  0
LTYPE
  5
AD
330
5
100
AcDbSymbolTableRecord
100
AcDbLinetypeTableRecord
  2
ACAD_ISO12W100
 70
     0
  3
ISO dash double-dot __ . . __ . . __ . . __ . .
 72
    65
 73
     6
 40
0.8299999999999998
 49
0.47
 74
     0
 49
-0.12
 74
     0
 49
0.0
 74
     0
 49
-0.12
 74
     0
 49
0.0
 74
     0
 49
-0.12
 74
     0
  0
LTYPE
  5
AE
330
5
100
AcDbSymbolTableRecord
100
AcDbLinetypeTableRecord
  2
ACAD_ISO13W100
 70
     0
  3
ISO double-dash double-dot __ __ . . __ __ . . 
 72
    65
 73
     8
 40
1.419999999999999
 49
0.47
 74
     0
 49
-0.12
 74
     0
 49
0.47
 74
     0
 49
-0.12
 74
     0
 49
0.0
 74
     0
 49
-0.12
 74
     0
 49
0.0
 74
     0
 49
-0.12
 74
     0
  0
LTYPE
  5
AF
330
5
100
AcDbSymbolTableRecord
100
AcDbLinetypeTableRecord
  2
ACAD_ISO14W100
 70
     0
  3
ISO dash triple-dot __ . . . __ . . . __ . . . 
 72
    65
 73
     8
 40
0.95
 49
0.47
 74
     0
 49
-0.12
 74
     0
 49
0.0
 74
     0
 49
-0.12
 74
     0
 49
0.0
 74
     0
 49
-0.12
 74
     0
 49
0.0
 74
     0
 49
-0.12
 74
     0
  0
LTYPE
  5
B0
330
5
100
AcDbSymbolTableRecord
100
AcDbLinetypeTableRecord
  2
ACAD_ISO15W100
 70
     0
  3
ISO double-dash triple-dot __ __ . . . __ __ . 
 72
    65
 73
    10
 40
1.539999999999999
 49
0.47
 74
     0
 49
-0.12
 74
     0
 49
0.47
 74
     0
 49
-0.12
 74
     0
 49
0.0
 74
     0
 49
-0.12
 74
     0
 49
0.0
 74
     0
 49
-0.12
 74
     0
 49
0.0
 74
     0
 49
-0.12
 74
     0
  0
LTYPE
  5
B3
330
5
100
AcDbSymbolTableRecord
100
AcDbLinetypeTableRecord
  2
FENCELINE1
 70
     0
  3
Fenceline circle ----0-----0----0-----0----0---
 72
    65
 73
     4
 40
1.45
 49
0.25
 74
     0
 49
-0.1
 74
     4
 75
   133
340
B2
 46
0.1
 50
0.0
 44
-0.1
 45
0.0
 49
-0.1
 74
     0
 49
1.0
 74
     0
  0
LTYPE
  5
B4
330
5
100
AcDbSymbolTableRecord
100
AcDbLinetypeTableRecord
  2
FENCELINE2
 70
     0
  3
Fenceline square ----[]-----[]----[]-----[]----
 72
    65
 73
     4
 40
1.45
 49
0.25
 74
     0
 49
-0.1
 74
     4
 75
   132
340
B2
 46
0.1
 50
0.0
 44
-0.1
 45
0.0
 49
-0.1
 74
     0
 49
1.0
 74
     0
  0
LTYPE
  5
B5
330
5
100
AcDbSymbolTableRecord
100
AcDbLinetypeTableRecord
  2
TRACKS
 70
     0
  3
Tracks -|-|-|-|-|-|-|-|-|-|-|-|-|-|-|-|-|-|-|-|
 72
    65
 73
     2
 40
0.3
 49
0.15
 74
     4
 75
   130
340
B2
 46
0.25
 50
0.0
 44
0.0
 45
0.0
 49
0.15
 74
     0
  0
LTYPE
  5
B6
330
5
100
AcDbSymbolTableRecord
100
AcDbLinetypeTableRecord
  2
BATTING
 70
     0
  3
Batting SSSSSSSSSSSSSSSSSSSSSSSSSSSSSSSSSSSSSSS
 72
    65
 73
     4
 40
0.4001000000000001
 49
0.0001
 74
     0
 49
-0.1
 74
     4
 75
   134
340
B2
 46
0.1
 50
0.0
 44
-0.1
 45
0.0
 49
-0.2
 74
     4
 75
   134
340
B2
 46
0.1
 50
180.0
 44
0.1
 45
0.0
 49
-0.1
 74
     0
  0
LTYPE
  5
B7
330
5
100
AcDbSymbolTableRecord
100
AcDbLinetypeTableRecord
  2
HOT_WATER_SUPPLY
 70
     0
  3
Hot water supply ---- HW ---- HW ---- HW ----
 72
    65
 73
     3
 40
0.9
 49
0.5
 74
     0
 49
-0.2
 74
     2
 75
     0
340
55
 46
0.1
 50
0.0
 44
-0.1
 45
-0.05
  9
HW
 49
-0.2
 74
     0
  0
LTYPE
  5
B8
330
5
100
AcDbSymbolTableRecord
100
AcDbLinetypeTableRecord
  2
GAS_LINE
 70
     0
  3
Gas line ----GAS----GAS----GAS----GAS----GAS---
 72
    65
 73
     3
 40
0.95
 49
0.5
 74
     0
 49
-0.2
 74
     2
 75
     0
340
55
 46
0.1
 50
0.0
 44
-0.1
 45
-0.05
  9
GAS
 49
-0.25
 74
     0
  0
LTYPE
  5
B9
330
5
100
AcDbSymbolTableRecord
100
AcDbLinetypeTableRecord
  2
ZIGZAG
 70
     0
  3
Zig zag /\/\/\/\/\/\/\/\/\/\/\/\/\/\/\/\/\/\/\/
 72
    65
 73
     4
 40
0.8001000000000001
 49
0.0001
 74
     0
 49
-0.2
 74
     4
 75
   131
340
B2
 46
0.2
 50
0.0
 44
-0.2
 45
0.0
 49
-0.4
 74
     4
 75
   131
340
B2
 46
0.2
 50
180.0
 44
0.2
 45
0.0
 49
-0.2
 74
     0
  0
ENDTAB
  0
TABLE
  2
LAYER
  5
2
330
0
100
AcDbSymbolTable
 70
    27
  0
LAYER
  5
54
330
2
100
AcDbSymbolTableRecord
100
AcDbLayerTableRecord
  2
0
 70
     0
 62
     7
  6
Continuous
370
     0
390
F
  0
LAYER
  5
C0
330
2
100
AcDbSymbolTableRecord
100
AcDbLayerTableRecord
  2
Center Mark (ANSI)
 70
     0
 62
     7
  6
Continuous
370
     5
390
F
  0
LAYER
  5
C1
330
2
100
AcDbSymbolTableRecord
100
AcDbLayerTableRecord
  2
Centerline (ANSI)
 70
     0
 62
     7
  6
Continuous
370
     5
390
F
  0
LAYER
  5
C3
330
2
100
AcDbSymbolTableRecord
100
AcDbLayerTableRecord
  2
Dimension (ANSI)
 70
     0
 62
     7
  6
Continuous
370
     5
390
F
  0
LAYER
  5
CC
330
2
100
AcDbSymbolTableRecord
100
AcDbLayerTableRecord
  2
Symbol (ANSI)
 70
     0
 62
     7
  6
Continuous
370
     5
390
F
  0
LAYER
  5
CF
330
2
100
AcDbSymbolTableRecord
100
AcDbLayerTableRecord
  2
Visible (ANSI)
 70
     0
 62
     7
  6
Continuous
370
     5
390
F
  0
LAYER
  5
D0
330
2
100
AcDbSymbolTableRecord
100
AcDbLayerTableRecord
  2
Visible Narrow (ANSI)
 70
     0
 62
     7
  6
Continuous
370
     5
390
F
  0
LAYER
  5
18F
330
2
100
AcDbSymbolTableRecord
100
AcDbLayerTableRecord
  2
Defpoints
 70
     0
 62
     7
  6
Continuous
290
     0
370
    -3
390
F
  0
ENDTAB
  0
TABLE
  2
STYLE
  5
3
330
0
100
AcDbSymbolTable
 70
    10
  0
STYLE
  5
55
330
3
100
AcDbSymbolTableRecord
100
AcDbTextStyleTableRecord
  2
Standard
 70
     0
 40
0.0
 41
1.0
 50
0.0
 71
     0
 42
0.2
  3
txt
  4

  0
STYLE
  5
5A
330
3
100
AcDbSymbolTableRecord
100
AcDbTextStyleTableRecord
  2
Annotative
 70
     0
 40
0.0
 41
1.0
 50
0.0
 71
     0
 42
0.2
  3
txt
  4

1001
AcadAnnotative
1000
AnnotativeData
1002
{
1070
     1
1070
     1
1002
}
  0
STYLE
  5
B2
330
3
100
AcDbSymbolTableRecord
100
AcDbTextStyleTableRecord
  2

 70
     1
 40
0.0
 41
1.0
 50
0.0
 71
     0
 42
0.2
  3
ltypeshp.shx
  4

  0
STYLE
  5
D4
330
3
100
AcDbSymbolTableRecord
100
AcDbTextStyleTableRecord
  2
ITALICC_120
 70
     0
 40
0.0
 41
1.0
 50
0.0
 71
     0
 42
0.2
  3
italicc.shx
  4

  0
STYLE
  5
D5
330
3
100
AcDbSymbolTableRecord
100
AcDbTextStyleTableRecord
  2
Label Text (ANSI)
 70
     0
 40
0.0
 41
1.0
 50
0.0
 71
     0
 42
0.2
  3
TAHOMA.TTF
  4

1001
ACAD
1000
Tahoma
1071
      256
  0
STYLE
  5
D6
330
3
100
AcDbSymbolTableRecord
100
AcDbTextStyleTableRecord
  2
Note Text (ANSI)
 70
     0
 40
0.0
 41
1.0
 50
0.0
 71
     0
 42
0.2
  3
RomanS.shx
  4

  0
STYLE
  5
D7
330
3
100
AcDbSymbolTableRecord
100
AcDbTextStyleTableRecord
  2
ROMANS
 70
     0
 40
0.0
 41
1.0
 50
0.0
 71
     0
 42
0.2
  3
romans.shx
  4

  0
STYLE
  5
D8
330
3
100
AcDbSymbolTableRecord
100
AcDbTextStyleTableRecord
  2
SANSSERIF_114
 70
     0
 40
0.0
 41
1.0
 50
0.0
 71
     0
 42
0.2
  3
TAHOMA.TTF
  4

1001
ACAD
1000
Tahoma
1071
      256
  0
STYLE
  5
D9
330
3
100
AcDbSymbolTableRecord
100
AcDbTextStyleTableRecord
  2
SANSSERIF_117
 70
     0
 40
0.0
 41
1.0
 50
0.0
 71
     0
 42
0.2
  3
TAHOMA.TTF
  4

1001
ACAD
1000
Tahoma
1071
      256
  0
STYLE
  5
129
330
3
100
AcDbSymbolTableRecord
100
AcDbTextStyleTableRecord
  2
Text Style168
 70
     0
 40
0.0
 41
1.0
 50
0.0
 71
     0
 42
0.2
  3
TAHOMA.TTF
  4

1001
ACAD
1000
Tahoma
1071
      256
  0
ENDTAB
  0
TABLE
  2
VIEW
  5
6
330
0
100
AcDbSymbolTable
 70
     0
  0
ENDTAB
  0
TABLE
  2
UCS
  5
7
330
0
100
AcDbSymbolTable
 70
     0
  0
ENDTAB
  0
TABLE
  2
APPID
  5
9
330
0
100
AcDbSymbolTable
 70
     4
  0
APPID
  5
56
330
9
100
AcDbSymbolTableRecord
100
AcDbRegAppTableRecord
  2
ACAD
 70
     0
  0
APPID
  5
5E
330
9
100
AcDbSymbolTableRecord
100
AcDbRegAppTableRecord
  2
AcadAnnotative
 70
     0
  0
APPID
  5
914
330
9
100
AcDbSymbolTableRecord
100
AcDbRegAppTableRecord
  2
ACAD_DSTYLE_DIMRADIAL_EXTENSION
 70
     0
  0
APPID
  5
A42
330
9
100
AcDbSymbolTableRecord
100
AcDbRegAppTableRecord
  2
ACAD_MLEADERVER
 70
     0
  0
ENDTAB
  0
TABLE
  2
DIMSTYLE
  5
A
330
0
100
AcDbSymbolTable
 70
    15
100
AcDbDimStyleTable
 71
     2
340
E2
340
58
  0
DIMSTYLE
105
58
330
A
100
AcDbSymbolTableRecord
100
AcDbDimStyleTableRecord
  2
Standard
 70
     0
340
55
  0
DIMSTYLE
105
59
330
A
100
AcDbSymbolTableRecord
100
AcDbDimStyleTableRecord
  2
Annotative
 70
     0
340
55
1001
AcadAnnotative
1000
AnnotativeData
1002
{
1070
     1
1070
     1
1002
}
  0
DIMSTYLE
105
DA
330
A
100
AcDbSymbolTableRecord
100
AcDbDimStyleTableRecord
  2
Architectural (ANSI)
 70
     0
 40
7.272727272727272
 41
0.0984251946210861
 43
0.2362204724409449
 44
0.125
 45
0.00000001
 46
0.3937007874015748
 78
     3
 79
     3
140
0.1000000014901161
146
1.200000029802321
147
0.031496062992126
171
     1
176
   256
177
   256
178
   256
272
     2
274
     1
276
     2
277
     4
284
    12
285
     4
286
    12
340
D6
371
    -1
372
    -1
  0
DIMSTYLE
105
DB
330
A
100
AcDbSymbolTableRecord
100
AcDbDimStyleTableRecord
  2
Architectural (ANSI)$7
 70
     0
 40
7.272727272727272
 41
0.0984251946210861
 43
0.2362204724409449
 44
0.125
 45
0.00000001
 46
0.3937007874015748
 78
     3
 79
     3
140
0.1000000014901161
146
1.200000029802321
147
0.031496062992126
171
     1
176
   256
177
   256
178
   256
272
     2
274
     1
276
     2
277
     4
284
    12
285
     4
286
    12
340
D6
371
    -1
372
    -1
  0
DIMSTYLE
105
DC
330
A
100
AcDbSymbolTableRecord
100
AcDbDimStyleTableRecord
  2
Default - Fraction (ANSI)
 70
     0
 40
7.272727272727272
 41
0.0984251946210861
 43
0.2362204724409449
 44
0.125
 45
0.00000001
 46
0.3937007874015748
 79
     3
140
0.1000000014901161
146
1.200000029802321
147
0.031496062992126
171
     1
176
   256
177
   256
178
   256
272
     2
274
     1
276
     2
277
     5
284
    12
285
     4
286
    12
340
D6
371
    -1
372
    -1
  0
DIMSTYLE
105
DD
330
A
100
AcDbSymbolTableRecord
100
AcDbDimStyleTableRecord
  2
Default - Fraction (ANSI)$7
 70
     0
 40
7.272727272727272
 41
0.0984251946210861
 43
0.2362204724409449
 44
0.125
 45
0.00000001
 46
0.3937007874015748
 79
     3
140
0.1000000014901161
146
1.200000029802321
147
0.031496062992126
171
     1
176
   256
177
   256
178
   256
272
     2
274
     1
276
     2
277
     5
284
    12
285
     4
286
    12
340
D6
371
    -1
372
    -1
  0
DIMSTYLE
105
DE
330
A
100
AcDbSymbolTableRecord
100
AcDbDimStyleTableRecord
  2
Default - mm (ANSI)
 70
     0
 40
7.272727272727272
 41
0.0984251946210861
 42
0.063
 43
0.2362204724409449
 44
0.125
 45
0.00000001
 46
0.3937007874015748
 73
     0
 78
     4
 79
     1
140
0.1000000014901161
143
1.0
144
25.4
146
1.200000029802321
147
0.031496062992126
171
     1
176
   256
177
   256
178
   256
179
     1
271
     2
272
     2
274
     1
284
     4
285
     4
340
D6
371
    -1
372
    -1
  0
DIMSTYLE
105
DF
330
A
100
AcDbSymbolTableRecord
100
AcDbDimStyleTableRecord
  2
Default - mm (ANSI)$7
 70
     0
 40
7.272727272727272
 41
0.0984251946210861
 42
0.063
 43
0.2362204724409449
 44
0.125
 45
0.00000001
 46
0.3937007874015748
 73
     0
 78
     4
 79
     1
140
0.1000000014901161
143
1.0
144
25.4
146
1.200000029802321
147
0.031496062992126
171
     1
176
   256
177
   256
178
   256
179
     1
271
     2
272
     2
274
     1
284
     4
285
     4
340
D6
371
    -1
372
    -1
  0
DIMSTYLE
105
E0
330
A
100
AcDbSymbolTableRecord
100
AcDbDimStyleTableRecord
  2
Default - mm [in] (ANSI)
 70
     0
  4
 in
 40
7.272727272727272
 41
0.0984251946210861
 42
0.063
 43
0.25
 44
0.125
 45
0.00000001
 46
0.3937007874015748
 73
     0
 78
     4
 79
     1
140
0.1000000014901161
143
0.03937
144
25.4
146
1.200000029802321
147
0.031496062992126
170
     1
171
     3
176
   256
177
   256
178
   256
179
     1
271
     2
272
     2
274
     3
284
     4
285
     4
286
     4
340
D6
371
    -1
372
    -1
  0
DIMSTYLE
105
E1
330
A
100
AcDbSymbolTableRecord
100
AcDbDimStyleTableRecord
  2
Default - mm [in] (ANSI)$7
 70
     0
  4
 in
 40
7.272727272727272
 41
0.0984251946210861
 42
0.063
 43
0.25
 44
0.125
 45
0.00000001
 46
0.3937007874015748
 73
     0
 78
     4
 79
     1
140
0.1000000014901161
143
0.03937
144
25.4
146
1.200000029802321
147
0.031496062992126
170
     1
171
     3
176
   256
177
   256
178
   256
179
     1
271
     2
272
     2
274
     3
284
     4
285
     4
286
     4
340
D6
371
    -1
372
    -1
  0
DIMSTYLE
105
E2
102
{ACAD_REACTORS
330
18D
330
2A6
330
390
330
47A
330
578
330
676
330
78C
330
87B
330
935
102
}
330
A
100
AcDbSymbolTableRecord
100
AcDbDimStyleTableRecord
  2
Default (ANSI)
 70
     0
 40
7.272727272727272
 41
0.0984251946210861
 43
0.2362204724409449
 44
0.125
 45
0.00000001
 46
0.3937007874015748
140
0.1000000014901161
147
0.031496062992126
176
   256
177
   256
178
   256
271
     2
272
     2
340
D7
371
    -1
372
    -1
  0
DIMSTYLE
105
E3
330
A
100
AcDbSymbolTableRecord
100
AcDbDimStyleTableRecord
  2
Default (ANSI)$7
 70
     0
 40
7.272727272727272
 41
0.0984251946210861
 43
0.2362204724409449
 44
0.125
 45
0.00000001
 46
0.3937007874015748
140
0.1000000014901161
147
0.031496062992126
176
   256
177
   256
178
   256
271
     2
272
     2
340
D7
371
    -1
372
    -1
  0
DIMSTYLE
105
E4
330
A
100
AcDbSymbolTableRecord
100
AcDbDimStyleTableRecord
  2
Alternate (ANSI)
 70
     0
 40
7.272727272727272
 41
0.0979999974370003
340
55
342
E5
  0
DIMSTYLE
105
F7
330
A
100
AcDbSymbolTableRecord
100
AcDbDimStyleTableRecord
  2
Datum (ANSI)
 70
     0
 40
7.272727272727272
 41
0.0979999974370003
340
55
342
E5
  0
DIMSTYLE
105
106
330
A
100
AcDbSymbolTableRecord
100
AcDbDimStyleTableRecord
  2
Large (ANSI)
 70
     0
 40
7.272727272727272
 41
0.1959999948740005
340
55
342
E5
  0
ENDTAB
  0
TABLE
  2
BLOCK_RECORD
  5
1
330
0
100
AcDbSymbolTable
 70
    13
  0
BLOCK_RECORD
  5
6C
330
1
100
AcDbSymbolTableRecord
100
AcDbBlockTableRecord
  2
*Model_Space
340
6F
  0
BLOCK_RECORD
  5
68
330
1
100
AcDbSymbolTableRecord
100
AcDbBlockTableRecord
  2
*Paper_Space
340
6B
  0
BLOCK_RECORD
  5
70
330
1
100
AcDbSymbolTableRecord
100
AcDbBlockTableRecord
  2
*Paper_Space0
340
73
  0
BLOCK_RECORD
  5
E5
330
1
100
AcDbSymbolTableRecord
100
AcDbBlockTableRecord
  2
_Closed
340
0
  0
BLOCK_RECORD
  5
EC
330
1
100
AcDbSymbolTableRecord
100
AcDbBlockTableRecord
  2
DatumFilled45
340
0
  0
BLOCK_RECORD
  5
F8
330
1
100
AcDbSymbolTableRecord
100
AcDbBlockTableRecord
  2
Filled-1
340
0
  0
BLOCK_RECORD
  5
190
330
1
100
AcDbSymbolTableRecord
100
AcDbBlockTableRecord
  2
*D4
340
0
  0
BLOCK_RECORD
  5
2A7
330
1
100
AcDbSymbolTableRecord
100
AcDbBlockTableRecord
  2
*D5
340
0
  0
BLOCK_RECORD
  5
391
330
1
100
AcDbSymbolTableRecord
100
AcDbBlockTableRecord
  2
*D6
340
0
  0
BLOCK_RECORD
  5
47B
330
1
100
AcDbSymbolTableRecord
100
AcDbBlockTableRecord
  2
*D7
340
0
  0
BLOCK_RECORD
  5
579
330
1
100
AcDbSymbolTableRecord
100
AcDbBlockTableRecord
  2
*D8
340
0
  0
BLOCK_RECORD
  5
677
330
1
100
AcDbSymbolTableRecord
100
AcDbBlockTableRecord
  2
*D9
340
0
  0
BLOCK_RECORD
  5
78D
330
1
100
AcDbSymbolTableRecord
100
AcDbBlockTableRecord
  2
*D10
340
0
  0
BLOCK_RECORD
  5
87C
330
1
100
AcDbSymbolTableRecord
100
AcDbBlockTableRecord
  2
*D11
340
0
  0
BLOCK_RECORD
  5
936
330
1
100
AcDbSymbolTableRecord
100
AcDbBlockTableRecord
  2
*D12
340
0
  0
ENDTAB
  0
ENDSEC
  0
SECTION
  2
BLOCKS
  0
BLOCK
  5
6D
330
6C
100
AcDbEntity
  8
0
100
AcDbBlockBegin
  2
*Model_Space
 70
     0
 10
0.0
 20
0.0
 30
0.0
  3
*Model_Space
  1

  0
ENDBLK
  5
6E
330
6C
100
AcDbEntity
  8
0
100
AcDbBlockEnd
  0
BLOCK
  5
69
330
68
100
AcDbEntity
 67
     1
  8
0
100
AcDbBlockBegin
  2
*Paper_Space
 70
     0
 10
0.0
 20
0.0
 30
0.0
  3
*Paper_Space
  1

  0
ENDBLK
  5
6A
330
68
100
AcDbEntity
 67
     1
  8
0
100
AcDbBlockEnd
  0
BLOCK
  5
71
330
70
100
AcDbEntity
 67
     1
  8
0
100
AcDbBlockBegin
  2
*Paper_Space0
 70
     0
 10
0.0
 20
0.0
 30
0.0
  3
*Paper_Space0
  1

  0
ENDBLK
  5
72
330
70
100
AcDbEntity
 67
     1
  8
0
100
AcDbBlockEnd
  0
BLOCK
  5
EA
330
E5
100
AcDbEntity
  8
0
100
AcDbBlockBegin
  2
_Closed
 70
     0
 10
0.0
 20
0.0
 30
0.0
  3
_Closed
  1

  0
LINE
  5
E6
330
E5
100
AcDbEntity
  8
0
  6
ByBlock
 62
     0
370
    -2
100
AcDbLine
 10
-1.0
 20
0.1666666666666666
 30
0.0
 11
0.0
 21
0.0
 31
0.0
  0
LINE
  5
E7
330
E5
100
AcDbEntity
  8
0
  6
ByBlock
 62
     0
370
    -2
100
AcDbLine
 10
0.0
 20
0.0
 30
0.0
 11
-1.0
 21
-0.1666666666666666
 31
0.0
  0
LINE
  5
E8
330
E5
100
AcDbEntity
  8
0
  6
ByBlock
 62
     0
370
    -2
100
AcDbLine
 10
-1.0
 20
0.1666666666666666
 30
0.0
 11
-1.0
 21
-0.1666666666666666
 31
0.0
  0
LINE
  5
E9
330
E5
100
AcDbEntity
  8
0
  6
ByBlock
 62
     0
370
    -2
100
AcDbLine
 10
0.0
 20
0.0
 30
0.0
 11
-1.0
 21
0.0
 31
0.0
  0
ENDBLK
  5
EB
330
E5
100
AcDbEntity
  8
0
100
AcDbBlockEnd
  0
BLOCK
  5
ED
330
EC
100
AcDbEntity
  8
0
100
AcDbBlockBegin
  2
DatumFilled45
 70
     0
 10
0.0
 20
0.0
 30
0.0
  3
DatumFilled45
  1

  0
POLYLINE
  5
EF
330
EC
100
AcDbEntity
  8
0
 62
     0
100
AcDb2dPolyline
 66
     1
 10
0.0
 20
0.0
 30
0.0
 70
   128
  0
VERTEX
  5
F0
330
EF
100
AcDbEntity
  8
0
 62
     0
100
AcDbVertex
100
AcDb2dVertex
 10
0.0
 20
0.9999999999999998
 30
0.0
  0
VERTEX
  5
F1
330
EF
100
AcDbEntity
  8
0
 62
     0
100
AcDbVertex
100
AcDb2dVertex
 10
0.0
 20
-0.9999999999999998
 30
0.0
  0
VERTEX
  5
F3
330
EF
100
AcDbEntity
  8
0
 62
     0
100
AcDbVertex
100
AcDb2dVertex
 10
-0.9999999999999998
 20
0.0
 30
0.0
  0
VERTEX
  5
F4
330
EF
100
AcDbEntity
  8
0
 62
     0
100
AcDbVertex
100
AcDb2dVertex
 10
0.0
 20
0.9999999999999998
 30
0.0
  0
SEQEND
  5
F2
330
EF
100
AcDbEntity
  8
0
 62
     0
  0
SOLID
  5
F6
330
EC
100
AcDbEntity
  8
0
 62
     0
100
AcDbTrace
 10
0.0
 20
0.9999999999999998
 30
0.0
 11
0.0
 21
-0.9999999999999998
 31
0.0
 12
-0.9999999999999998
 22
0.0
 32
0.0
 13
0.0
 23
0.9999999999999998
 33
0.0
  0
ENDBLK
  5
EE
330
EC
100
AcDbEntity
  8
0
100
AcDbBlockEnd
  0
BLOCK
  5
F9
330
F8
100
AcDbEntity
  8
0
100
AcDbBlockBegin
  2
Filled-1
 70
     0
 10
0.0
 20
0.0
 30
0.0
  3
Filled-1
  1

  0
LINE
  5
FB
330
F8
100
AcDbEntity
  8
0
 62
     0
100
AcDbLine
 10
-0.9999999999999998
 20
0.0
 30
0.0
 11
0.0
 21
0.0
 31
0.0
  0
POLYLINE
  5
FC
330
F8
100
AcDbEntity
  8
0
 62
     0
100
AcDb2dPolyline
 66
     1
 10
0.0
 20
0.0
 30
0.0
 70
   128
  0
VERTEX
  5
FD
330
FC
100
AcDbEntity
  8
0
 62
     0
100
AcDbVertex
100
AcDb2dVertex
 10
-0.9999999999999998
 20
-0.0994897959183674
 30
0.0
  0
VERTEX
  5
FE
330
FC
100
AcDbEntity
  8
0
 62
     0
100
AcDbVertex
100
AcDb2dVertex
 10
0.0
 20
0.0
 30
0.0
  0
VERTEX
  5
100
330
FC
100
AcDbEntity
  8
0
 62
     0
100
AcDbVertex
100
AcDb2dVertex
 10
-0.9999999999999998
 20
0.0994897959183674
 30
0.0
  0
VERTEX
  5
101
330
FC
100
AcDbEntity
  8
0
 62
     0
100
AcDbVertex
100
AcDb2dVertex
 10
-0.9999999999999998
 20
-0.0994897959183674
 30
0.0
  0
SEQEND
  5
FF
330
FC
100
AcDbEntity
  8
0
 62
     0
  0
SOLID
  5
102
330
F8
100
AcDbEntity
  8
0
 62
     0
100
AcDbTrace
 10
-0.9999999999999998
 20
-0.0994897959183674
 30
0.0
 11
0.0
 21
0.0
 31
0.0
 12
-0.9999999999999998
 22
0.0994897959183674
 32
0.0
 13
-0.9999999999999998
 23
-0.0994897959183674
 33
0.0
  0
LINE
  5
103
330
F8
100
AcDbEntity
  8
0
 62
     0
100
AcDbLine
 10
-0.9999999999999998
 20
-0.0994897959183674
 30
0.0
 11
0.0
 21
0.0
 31
0.0
  0
LINE
  5
104
330
F8
100
AcDbEntity
  8
0
 62
     0
100
AcDbLine
 10
0.0
 20
0.0
 30
0.0
 11
-0.9999999999999998
 21
0.0994897959183674
 31
0.0
  0
LINE
  5
105
330
F8
100
AcDbEntity
  8
0
 62
     0
100
AcDbLine
 10
-0.9999999999999998
 20
0.0994897959183674
 30
0.0
 11
-0.9999999999999998
 21
-0.0994897959183674
 31
0.0
  0
ENDBLK
  5
FA
330
F8
100
AcDbEntity
  8
0
100
AcDbBlockEnd
  0
BLOCK
  5
191
330
190
100
AcDbEntity
  8
0
100
AcDbBlockBegin
  2
*D4
 70
     1
 10
0.0
 20
0.0
 30
0.0
  3
*D4
  1

  0
LINE
  5
29B
330
190
100
AcDbEntity
  8
Dimension (ANSI)
100
AcDbLine
 10
41.9439637513892
 20
26.63963359741296
 30
0.0
 11
48.59119193362186
 21
26.63963359741296
 31
0.0
  0
LINE
  5
29C
330
190
100
AcDbEntity
  8
Dimension (ANSI)
100
AcDbLine
 10
41.17371229484525
 20
27.51463359741296
 30
0.0
 11
48.59119193362186
 21
27.51463359741296
 31
0.0
  0
LINE
  5
29D
330
190
100
AcDbEntity
  8
Dimension (ANSI)
100
AcDbLine
 10
47.68210102453095
 20
28.23045319465722
 30
0.0
 11
47.68210102453095
 21
28.94627279190149
 31
0.0
  0
LINE
  5
29E
330
190
100
AcDbEntity
  8
Dimension (ANSI)
100
AcDbLine
 10
47.68210102453095
 20
25.9238140001687
 30
0.0
 11
47.68210102453095
 21
22.92241375189602
 31
0.0
  0
LINE
  5
29F
330
190
100
AcDbEntity
  8
Dimension (ANSI)
100
AcDbLine
 10
47.68210102453095
 20
22.92241375189602
 30
0.0
 11
46.96628142728669
 21
22.92241375189602
 31
0.0
  0
SOLID
  5
2A0
330
190
100
AcDbEntity
  8
Dimension (ANSI)
100
AcDbTrace
 10
47.56279775832357
 20
28.23045319465722
 30
0.0
 11
47.80140429073832
 21
28.23045319465722
 31
0.0
 12
47.68210102453095
 22
27.51463359741296
 32
0.0
 13
47.68210102453095
 23
27.51463359741296
 33
0.0
  0
SOLID
  5
2A1
330
190
100
AcDbEntity
  8
Dimension (ANSI)
100
AcDbTrace
 10
47.56279775832357
 20
25.9238140001687
 30
0.0
 11
47.80140429073832
 21
25.9238140001687
 31
0.0
 12
47.68210102453095
 22
26.63963359741296
 32
0.0
 13
47.68210102453095
 23
26.63963359741296
 33
0.0
  0
MTEXT
  5
2A2
330
190
100
AcDbEntity
  8
Dimension (ANSI)
100
AcDbMText
 10
45.62899402624135
 20
22.92241375189602
 30
0.0
 40
0.7272727381099355
 41
0.0
 71
     5
 72
     1
  1
\A1;0.88{\PTYP.}
  7
ROMANS
 73
     1
 44
1.0
1001
ACAD
1000
MTEXTBEGIN
1070
    73
1070
     1
1070
    44
1040
1.0
1070
    74
1070
     0
1000
MTEXTEND
  0
POINT
  5
2A3
330
190
100
AcDbEntity
  8
Defpoints
 62
     0
100
AcDbPoint
 10
41.48941829684374
 20
26.63963359741296
 30
0.0
  0
POINT
  5
2A4
330
190
100
AcDbEntity
  8
Defpoints
 62
     0
100
AcDbPoint
 10
40.7191668402998
 20
27.51463359741296
 30
0.0
  0
POINT
  5
2A5
330
190
100
AcDbEntity
  8
Defpoints
 62
     0
100
AcDbPoint
 10
47.68210102453095
 20
27.51463359741296
 30
0.0
  0
ENDBLK
  5
192
330
190
100
AcDbEntity
  8
0
100
AcDbBlockEnd
  0
BLOCK
  5
2A8
330
2A7
100
AcDbEntity
  8
0
100
AcDbBlockBegin
  2
*D5
 70
     1
 10
0.0
 20
0.0
 30
0.0
  3
*D5
  1

  0
LINE
  5
386
330
2A7
100
AcDbEntity
  8
Dimension (ANSI)
100
AcDbLine
 10
41.9439637513892
 20
26.63963359741296
 30
0.0
 11
50.41568887665764
 21
26.63963359741296
 31
0.0
  0
LINE
  5
387
330
2A7
100
AcDbEntity
  8
Dimension (ANSI)
100
AcDbLine
 10
41.94396375138919
 20
53.63963359741294
 30
0.0
 11
50.41568887665764
 21
53.63963359741294
 31
0.0
  0
LINE
  5
388
330
2A7
100
AcDbEntity
  8
Dimension (ANSI)
100
AcDbLine
 10
49.50659796756673
 20
27.35545319465722
 30
0.0
 11
49.50659796756673
 21
39.54693495205162
 31
0.0
  0
LINE
  5
389
330
2A7
100
AcDbEntity
  8
Dimension (ANSI)
100
AcDbLine
 10
49.50659796756674
 20
52.92381400016868
 30
0.0
 11
49.50659796756673
 21
40.73233224277429
 31
0.0
  0
SOLID
  5
38A
330
2A7
100
AcDbEntity
  8
Dimension (ANSI)
100
AcDbTrace
 10
49.38729470135935
 20
27.35545319465722
 30
0.0
 11
49.62590123377411
 21
27.35545319465722
 31
0.0
 12
49.50659796756673
 22
26.63963359741296
 32
0.0
 13
49.50659796756673
 23
26.63963359741296
 33
0.0
  0
SOLID
  5
38B
330
2A7
100
AcDbEntity
  8
Dimension (ANSI)
100
AcDbTrace
 10
49.38729470135936
 20
52.92381400016868
 30
0.0
 11
49.62590123377411
 21
52.92381400016868
 31
0.0
 12
49.50659796756674
 22
53.63963359741294
 32
0.0
 13
49.50659796756674
 23
53.63963359741294
 33
0.0
  0
MTEXT
  5
38C
330
2A7
100
AcDbEntity
  8
Dimension (ANSI)
100
AcDbMText
 10
48.05205249134686
 20
40.50326996646793
 30
0.0
 40
0.7272727381099355
 41
0.0
 71
     1
 72
     1
  1
\A1;27.00
  7
ROMANS
 73
     1
 44
1.0
1001
ACAD
1000
MTEXTBEGIN
1070
    73
1070
     1
1070
    44
1040
1.0
1070
    74
1070
     0
1000
MTEXTEND
  0
POINT
  5
38D
330
2A7
100
AcDbEntity
  8
Defpoints
 62
     0
100
AcDbPoint
 10
41.48941829684374
 20
26.63963359741296
 30
0.0
  0
POINT
  5
38E
330
2A7
100
AcDbEntity
  8
Defpoints
 62
     0
100
AcDbPoint
 10
41.48941829684374
 20
53.63963359741294
 30
0.0
  0
POINT
  5
38F
330
2A7
100
AcDbEntity
  8
Defpoints
 62
     0
100
AcDbPoint
 10
49.50659796756674
 20
53.63963359741294
 30
0.0
  0
ENDBLK
  5
2A9
330
2A7
100
AcDbEntity
  8
0
100
AcDbBlockEnd
  0
BLOCK
  5
392
330
391
100
AcDbEntity
  8
0
100
AcDbBlockBegin
  2
*D6
 70
     1
 10
0.0
 20
0.0
 30
0.0
  3
*D6
  1

  0
LINE
  5
470
330
391
100
AcDbEntity
  8
Dimension (ANSI)
100
AcDbLine
 10
20.59416684029979
 20
53.98943050850236
 30
0.0
 11
20.59416684029979
 21
59.72219173285181
 31
0.0
  0
LINE
  5
471
330
391
100
AcDbEntity
  8
Dimension (ANSI)
100
AcDbLine
 10
41.5941668402998
 20
53.98943050850238
 30
0.0
 11
41.5941668402998
 21
59.72219173285181
 31
0.0
  0
LINE
  5
472
330
391
100
AcDbEntity
  8
Dimension (ANSI)
100
AcDbLine
 10
21.30998643754405
 20
58.8131008237609
 30
0.0
 11
29.41055908777354
 21
58.8131008237609
 31
0.0
  0
LINE
  5
473
330
391
100
AcDbEntity
  8
Dimension (ANSI)
100
AcDbLine
 10
40.87834724305554
 20
58.8131008237609
 30
0.0
 11
32.77777459282603
 21
58.8131008237609
 31
0.0
  0
SOLID
  5
474
330
391
100
AcDbEntity
  8
Dimension (ANSI)
100
AcDbTrace
 10
21.30998643754405
 20
58.93240408996827
 30
0.0
 11
21.30998643754405
 21
58.69379755755353
 31
0.0
 12
20.59416684029979
 22
58.8131008237609
 32
0.0
 13
20.59416684029979
 23
58.8131008237609
 33
0.0
  0
SOLID
  5
475
330
391
100
AcDbEntity
  8
Dimension (ANSI)
100
AcDbTrace
 10
40.87834724305554
 20
58.93240408996827
 30
0.0
 11
40.87834724305554
 21
58.69379755755353
 31
0.0
 12
41.5941668402998
 22
58.8131008237609
 32
0.0
 13
41.5941668402998
 23
58.8131008237609
 33
0.0
  0
MTEXT
  5
476
330
391
100
AcDbEntity
  8
Dimension (ANSI)
100
AcDbMText
 10
29.63962136407991
 20
59.17673719281587
 30
0.0
 40
0.7272727381099355
 41
0.0
 71
     1
 72
     1
  1
\A1;21.00
  7
ROMANS
 73
     1
 44
1.0
1001
ACAD
1000
MTEXTBEGIN
1070
    73
1070
     1
1070
    44
1040
1.0
1070
    74
1070
     0
1000
MTEXTEND
  0
POINT
  5
477
330
391
100
AcDbEntity
  8
Defpoints
 62
     0
100
AcDbPoint
 10
20.59416684029979
 20
53.53488505395691
 30
0.0
  0
POINT
  5
478
330
391
100
AcDbEntity
  8
Defpoints
 62
     0
100
AcDbPoint
 10
41.5941668402998
 20
53.53488505395692
 30
0.0
  0
POINT
  5
479
330
391
100
AcDbEntity
  8
Defpoints
 62
     0
100
AcDbPoint
 10
41.5941668402998
 20
58.8131008237609
 30
0.0
  0
ENDBLK
  5
393
330
391
100
AcDbEntity
  8
0
100
AcDbBlockEnd
  0
BLOCK
  5
47C
330
47B
100
AcDbEntity
  8
0
100
AcDbBlockBegin
  2
*D7
 70
     1
 10
0.0
 20
0.0
 30
0.0
  3
*D7
  1

  0
LINE
  5
56E
330
47B
100
AcDbEntity
  8
Dimension (ANSI)
100
AcDbLine
 10
40.7191668402998
 20
53.21917905195842
 30
0.0
 11
40.7191668402998
 21
56.5370029603335
 31
0.0
  0
LINE
  5
56F
330
47B
100
AcDbEntity
  8
Dimension (ANSI)
100
AcDbLine
 10
41.5941668402998
 20
53.98943050850238
 30
0.0
 11
41.5941668402998
 21
56.5370029603335
 31
0.0
  0
LINE
  5
570
330
47B
100
AcDbEntity
  8
Dimension (ANSI)
100
AcDbLine
 10
40.00334724305553
 20
55.62791205124259
 30
0.0
 11
39.28752764581128
 21
55.62791205124259
 31
0.0
  0
LINE
  5
571
330
47B
100
AcDbEntity
  8
Dimension (ANSI)
100
AcDbLine
 10
42.30998643754406
 20
55.62791205124259
 30
0.0
 11
43.62974076170931
 21
55.62791205124259
 31
0.0
  0
SOLID
  5
572
330
47B
100
AcDbEntity
  8
Dimension (ANSI)
100
AcDbTrace
 10
40.00334724305553
 20
55.74721531744997
 30
0.0
 11
40.00334724305553
 21
55.50860878503522
 31
0.0
 12
40.7191668402998
 22
55.62791205124259
 32
0.0
 13
40.7191668402998
 23
55.62791205124259
 33
0.0
  0
SOLID
  5
573
330
47B
100
AcDbEntity
  8
Dimension (ANSI)
100
AcDbTrace
 10
42.30998643754406
 20
55.74721531744997
 30
0.0
 11
42.30998643754406
 21
55.50860878503522
 31
0.0
 12
41.5941668402998
 22
55.62791205124259
 32
0.0
 13
41.5941668402998
 23
55.62791205124259
 33
0.0
  0
MTEXT
  5
574
330
47B
100
AcDbEntity
  8
Dimension (ANSI)
100
AcDbMText
 10
44.96702816275463
 20
55.62791205124259
 30
0.0
 40
0.7272727381099355
 41
0.0
 71
     5
 72
     1
  1
\A1;0.88{\PTYP.}
  7
ROMANS
 73
     1
 44
1.0
1001
ACAD
1000
MTEXTBEGIN
1070
    73
1070
     1
1070
    44
1040
1.0
1070
    74
1070
     0
1000
MTEXTEND
  0
POINT
  5
575
330
47B
100
AcDbEntity
  8
Defpoints
 62
     0
100
AcDbPoint
 10
40.7191668402998
 20
52.76463359741296
 30
0.0
  0
POINT
  5
576
330
47B
100
AcDbEntity
  8
Defpoints
 62
     0
100
AcDbPoint
 10
41.5941668402998
 20
53.53488505395692
 30
0.0
  0
POINT
  5
577
330
47B
100
AcDbEntity
  8
Defpoints
 62
     0
100
AcDbPoint
 10
41.5941668402998
 20
55.62791205124259
 30
0.0
  0
ENDBLK
  5
47D
330
47B
100
AcDbEntity
  8
0
100
AcDbBlockEnd
  0
BLOCK
  5
57A
330
579
100
AcDbEntity
  8
0
100
AcDbBlockBegin
  2
*D8
 70
     1
 10
0.0
 20
0.0
 30
0.0
  3
*D8
  1

  0
LINE
  5
66C
330
579
100
AcDbEntity
  8
Dimension (ANSI)
100
AcDbLine
 10
40.7191668402998
 20
27.06008814286751
 30
0.0
 11
40.7191668402998
 21
22.02429716219464
 31
0.0
  0
LINE
  5
66D
330
579
100
AcDbEntity
  8
Dimension (ANSI)
100
AcDbLine
 10
38.71916684029981
 20
27.06008814286751
 30
0.0
 11
38.71916684029981
 21
22.02429716219464
 31
0.0
  0
LINE
  5
66E
330
579
100
AcDbEntity
  8
Dimension (ANSI)
100
AcDbLine
 10
41.43498643754406
 20
22.93338807128554
 30
0.0
 11
42.15080603478832
 21
22.93338807128554
 31
0.0
  0
LINE
  5
66F
330
579
100
AcDbEntity
  8
Dimension (ANSI)
100
AcDbLine
 10
38.00334724305555
 20
22.93338807128554
 30
0.0
 11
36.61817781462106
 21
22.93338807128554
 31
0.0
  0
SOLID
  5
670
330
579
100
AcDbEntity
  8
Dimension (ANSI)
100
AcDbTrace
 10
41.43498643754406
 20
23.05269133749292
 30
0.0
 11
41.43498643754406
 21
22.81408480507817
 31
0.0
 12
40.7191668402998
 22
22.93338807128554
 32
0.0
 13
40.7191668402998
 23
22.93338807128554
 33
0.0
  0
SOLID
  5
671
330
579
100
AcDbEntity
  8
Dimension (ANSI)
100
AcDbTrace
 10
38.00334724305555
 20
23.05269133749292
 30
0.0
 11
38.00334724305555
 21
22.81408480507817
 31
0.0
 12
38.71916684029981
 22
22.93338807128554
 32
0.0
 13
38.71916684029981
 23
22.93338807128554
 33
0.0
  0
MTEXT
  5
672
330
579
100
AcDbEntity
  8
Dimension (ANSI)
100
AcDbMText
 10
35.28089041357573
 20
22.93338807128554
 30
0.0
 40
0.7272727381099355
 41
0.0
 71
     5
 72
     1
  1
\A1;2.00{\PTYP.}
  7
ROMANS
 73
     1
 44
1.0
1001
ACAD
1000
MTEXTBEGIN
1070
    73
1070
     1
1070
    44
1040
1.0
1070
    74
1070
     0
1000
MTEXTEND
  0
POINT
  5
673
330
579
100
AcDbEntity
  8
Defpoints
 62
     0
100
AcDbPoint
 10
40.7191668402998
 20
27.51463359741296
 30
0.0
  0
POINT
  5
674
330
579
100
AcDbEntity
  8
Defpoints
 62
     0
100
AcDbPoint
 10
38.71916684029981
 20
27.51463359741296
 30
0.0
  0
POINT
  5
675
330
579
100
AcDbEntity
  8
Defpoints
 62
     0
100
AcDbPoint
 10
38.71916684029981
 20
22.93338807128554
 30
0.0
  0
ENDBLK
  5
57B
330
579
100
AcDbEntity
  8
0
100
AcDbBlockEnd
  0
BLOCK
  5
678
330
677
100
AcDbEntity
  8
0
100
AcDbBlockBegin
  2
*D9
 70
     1
 10
0.0
 20
0.0
 30
0.0
  3
*D9
  1

  0
LINE
  5
781
330
677
100
AcDbEntity
  8
Dimension (ANSI)
100
AcDbLine
 10
41.92376229485514
 20
73.12734290732089
 30
0.0
 11
47.93386277880058
 21
73.12734290732089
 31
0.0
  0
LINE
  5
782
330
677
100
AcDbEntity
  8
Dimension (ANSI)
100
AcDbLine
 10
41.94396375139911
 20
74.00234290732092
 30
0.0
 11
47.93386277880058
 21
74.00234290732092
 31
0.0
  0
LINE
  5
783
330
677
100
AcDbEntity
  8
Dimension (ANSI)
100
AcDbLine
 10
47.02477186970967
 20
74.71816250456519
 30
0.0
 11
47.02477186970967
 21
75.43398210180945
 31
0.0
  0
LINE
  5
784
330
677
100
AcDbEntity
  8
Dimension (ANSI)
100
AcDbLine
 10
47.02477186970967
 20
72.41152331007663
 30
0.0
 11
47.02477186970967
 21
70.14958756959028
 31
0.0
  0
LINE
  5
785
330
677
100
AcDbEntity
  8
Dimension (ANSI)
100
AcDbLine
 10
47.02477186970967
 20
70.14958756959028
 30
0.0
 11
46.30895227246541
 21
70.14958756959028
 31
0.0
  0
SOLID
  5
786
330
677
100
AcDbEntity
  8
Dimension (ANSI)
100
AcDbTrace
 10
46.9054686035023
 20
74.71816250456519
 30
0.0
 11
47.14407513591704
 21
74.71816250456519
 31
0.0
 12
47.02477186970967
 22
74.00234290732092
 32
0.0
 13
47.02477186970967
 23
74.00234290732092
 33
0.0
  0
SOLID
  5
787
330
677
100
AcDbEntity
  8
Dimension (ANSI)
100
AcDbTrace
 10
46.9054686035023
 20
72.41152331007663
 30
0.0
 11
47.14407513591704
 21
72.41152331007663
 31
0.0
 12
47.02477186970967
 22
73.12734290732089
 32
0.0
 13
47.02477186970967
 23
73.12734290732089
 33
0.0
  0
MTEXT
  5
788
330
677
100
AcDbEntity
  8
Dimension (ANSI)
100
AcDbMText
 10
44.97166487142008
 20
70.14958756959029
 30
0.0
 40
0.7272727381099355
 41
0.0
 71
     5
 72
     1
  1
\A1;0.88{\PTYP.}
  7
ROMANS
 73
     1
 44
1.0
1001
ACAD
1000
MTEXTBEGIN
1070
    73
1070
     1
1070
    44
1040
1.0
1070
    74
1070
     0
1000
MTEXTEND
  0
POINT
  5
789
330
677
100
AcDbEntity
  8
Defpoints
 62
     0
100
AcDbPoint
 10
41.46921684030969
 20
73.12734290732089
 30
0.0
  0
POINT
  5
78A
330
677
100
AcDbEntity
  8
Defpoints
 62
     0
100
AcDbPoint
 10
41.48941829685365
 20
74.00234290732092
 30
0.0
  0
POINT
  5
78B
330
677
100
AcDbEntity
  8
Defpoints
 62
     0
100
AcDbPoint
 10
47.02477186970967
 20
74.00234290732092
 30
0.0
  0
ENDBLK
  5
679
330
677
100
AcDbEntity
  8
0
100
AcDbBlockEnd
  0
BLOCK
  5
78E
330
78D
100
AcDbEntity
  8
0
100
AcDbBlockBegin
  2
*D10
 70
     1
 10
0.0
 20
0.0
 30
0.0
  3
*D10
  1

  0
LINE
  5
873
330
78D
100
AcDbEntity
  8
Dimension (ANSI)
100
AcDbLine
 10
69.79220007659939
 20
49.0501573182635
 30
0.0
 11
69.07638047935512
 21
49.0501573182635
 31
0.0
  0
LINE
  5
874
330
78D
100
AcDbEntity
  8
Dimension (ANSI)
100
AcDbLine
 10
72.09883927108795
 20
49.0501573182635
 30
0.0
 11
73.3120847416426
 21
49.0501573182635
 31
0.0
  0
SOLID
  5
875
330
78D
100
AcDbEntity
  8
Dimension (ANSI)
100
AcDbTrace
 10
69.79220007659939
 20
49.16946058447088
 30
0.0
 11
69.79220007659939
 21
48.93085405205613
 31
0.0
 12
70.50801967384365
 22
49.0501573182635
 32
0.0
 13
70.50801967384365
 23
49.0501573182635
 33
0.0
  0
SOLID
  5
876
330
78D
100
AcDbEntity
  8
Dimension (ANSI)
100
AcDbTrace
 10
72.09883927108795
 20
49.16946058447088
 30
0.0
 11
72.09883927108795
 21
48.93085405205613
 31
0.0
 12
71.38301967384369
 22
49.0501573182635
 32
0.0
 13
71.38301967384369
 23
49.0501573182635
 33
0.0
  0
MTEXT
  5
877
330
78D
100
AcDbEntity
  8
Dimension (ANSI)
100
AcDbMText
 10
74.64937214268791
 20
49.0501573182635
 30
0.0
 40
0.7272727381099355
 41
0.0
 71
     5
 72
     1
  1
\A1;0.88{\PTYP.}
  7
ROMANS
 73
     1
 44
1.0
1001
ACAD
1000
MTEXTBEGIN
1070
    73
1070
     1
1070
    44
1040
1.0
1070
    74
1070
     0
1000
MTEXTEND
  0
POINT
  5
878
330
78D
100
AcDbEntity
  8
Defpoints
 62
     0
100
AcDbPoint
 10
71.38301967384369
 20
49.0501573182635
 30
0.0
  0
POINT
  5
879
330
78D
100
AcDbEntity
  8
Defpoints
 62
     0
100
AcDbPoint
 10
70.50801967384365
 20
49.04194793375419
 30
0.0
  0
POINT
  5
87A
330
78D
100
AcDbEntity
  8
Defpoints
 62
     0
100
AcDbPoint
 10
70.50801967384365
 20
49.0501573182635
 30
0.0
  0
ENDBLK
  5
78F
330
78D
100
AcDbEntity
  8
0
100
AcDbBlockEnd
  0
BLOCK
  5
87D
330
87C
100
AcDbEntity
  8
0
100
AcDbBlockBegin
  2
*D11
 70
     1
 10
0.0
 20
0.0
 30
0.0
  3
*D11
  1

  0
LINE
  5
92D
330
87C
100
AcDbEntity
  8
Dimension (ANSI)
100
AcDbLine
 10
15.09496554082461
 20
22.17412508299148
 30
0.0
 11
16.12865832587676
 21
22.17412508299148
 31
0.0
  0
LINE
  5
92E
330
87C
100
AcDbEntity
  8
Dimension (ANSI)
100
AcDbLine
 10
16.12865832587676
 20
22.17412508299148
 30
0.0
 11
20.76395539007801
 21
26.80942214719141
 31
0.0
  0
MTEXT
  5
92F
102
{ACAD_XDICTIONARY
360
A49
102
}
330
87C
100
AcDbEntity
  8
Dimension (ANSI)
100
AcDbMText
 10
12.97845734894721
 20
22.76286968050905
 30
0.0
 40
0.7272727381099355
 41
0.0
 71
     2
 72
     1
  1
\A1;\U+22050.56{\PTYP.\P(4 PL.)}
  7
ROMANS
 73
     1
 44
1.0
1001
ACAD
1000
MTEXTBEGIN
1070
    73
1070
     1
1070
    44
1040
1.0
1070
    74
1070
     0
1000
MTEXTEND
  0
SOLID
  5
930
330
87C
100
AcDbEntity
  8
Dimension (ANSI)
100
AcDbTrace
 10
20.67959524152509
 20
26.89378229574436
 30
0.0
 11
20.84831553863094
 21
26.72506199863846
 31
0.0
 12
21.27011628139572
 22
27.31558303850898
 32
0.0
 13
21.27011628139572
 23
27.31558303850898
 33
0.0
  0
LINE
  5
931
330
87C
100
AcDbEntity
  8
Dimension (ANSI)
100
AcDbLine
 10
20.81462138575432
 20
27.51463359741296
 30
0.0
 11
22.12371229484523
 21
27.51463359741296
 31
0.0
  0
LINE
  5
932
330
87C
100
AcDbEntity
  8
Dimension (ANSI)
100
AcDbLine
 10
21.46916684029976
 20
26.86008814286751
 30
0.0
 11
21.46916684029976
 21
28.16917905195842
 31
0.0
  0
POINT
  5
933
330
87C
100
AcDbEntity
  8
Defpoints
 62
     0
100
AcDbPoint
 10
21.27011628139572
 20
27.31558303850898
 30
0.0
  0
POINT
  5
934
330
87C
100
AcDbEntity
  8
Defpoints
 62
     0
100
AcDbPoint
 10
21.66821739920381
 20
27.71368415631695
 30
0.0
  0
ENDBLK
  5
87E
330
87C
100
AcDbEntity
  8
0
100
AcDbBlockEnd
  0
BLOCK
  5
937
330
936
100
AcDbEntity
  8
0
100
AcDbBlockBegin
  2
*D12
 70
     1
 10
0.0
 20
0.0
 30
0.0
  3
*D12
  1

  0
LINE
  5
9E6
330
936
100
AcDbEntity
  8
Dimension (ANSI)
100
AcDbLine
 10
14.42089843395283
 20
35.52920921870559
 30
0.0
 11
15.45459121900496
 21
35.52920921870559
 31
0.0
  0
LINE
  5
9E7
330
936
100
AcDbEntity
  8
Dimension (ANSI)
100
AcDbLine
 10
15.45459121900496
 20
35.52920921870559
 30
0.0
 11
22.85269729111695
 21
28.13110314659562
 31
0.0
  0
MTEXT
  5
9E8
102
{ACAD_XDICTIONARY
360
A4B
102
}
330
936
100
AcDbEntity
  8
Dimension (ANSI)
100
AcDbMText
 10
12.30439024207544
 20
36.11795381622315
 30
0.0
 40
0.7272727381099355
 41
0.0
 71
     2
 72
     1
  1
\A1;\U+22050.31{\PTYP.\P(2 PL.)}
  7
ROMANS
 73
     1
 44
1.0
1001
ACAD
1000
MTEXTBEGIN
1070
    73
1070
     1
1070
    44
1040
1.0
1070
    74
1070
     0
1000
MTEXTEND
  0
SOLID
  5
9E9
330
936
100
AcDbEntity
  8
Dimension (ANSI)
100
AcDbTrace
 10
22.93705743966988
 20
28.21546329514857
 30
0.0
 11
22.76833714256403
 21
28.04674299804267
 31
0.0
 12
23.35885818243466
 22
27.62494225527805
 32
0.0
 13
23.35885818243466
 23
27.62494225527805
 33
0.0
  0
LINE
  5
9EA
330
936
100
AcDbEntity
  8
Dimension (ANSI)
100
AcDbLine
 10
22.81462138575432
 20
27.51463359741297
 30
0.0
 11
24.12371229484524
 21
27.51463359741297
 31
0.0
  0
LINE
  5
9EB
330
936
100
AcDbEntity
  8
Dimension (ANSI)
100
AcDbLine
 10
23.46916684029978
 20
26.86008814286751
 30
0.0
 11
23.46916684029979
 21
28.16917905195842
 31
0.0
  0
POINT
  5
9EC
330
936
100
AcDbEntity
  8
Defpoints
 62
     0
100
AcDbPoint
 10
23.35885818243466
 20
27.62494225527805
 30
0.0
  0
POINT
  5
9ED
330
936
100
AcDbEntity
  8
Defpoints
 62
     0
100
AcDbPoint
 10
23.5794754981649
 20
27.40432493954788
 30
0.0
  0
ENDBLK
  5
938
330
936
100
AcDbEntity
  8
0
100
AcDbBlockEnd
  0
ENDSEC
  0
SECTION
  2
ENTITIES
  0
CIRCLE
  5
107
330
6C
100
AcDbEntity
  8
Visible (ANSI)
100
AcDbCircle
 10
38.71916684029981
 20
27.51463359741296
 30
0.0
 40
0.156
  0
CIRCLE
  5
108
330
6C
100
AcDbEntity
  8
Visible (ANSI)
100
AcDbCircle
 10
23.46916684029979
 20
27.51463359741296
 30
0.0
 40
0.156
  0
CIRCLE
  5
109
330
6C
100
AcDbEntity
  8
Visible (ANSI)
100
AcDbCircle
 10
40.7191668402998
 20
27.51463359741296
 30
0.0
 40
0.2814999999999999
  0
CIRCLE
  5
10A
330
6C
100
AcDbEntity
  8
Visible (ANSI)
100
AcDbCircle
 10
40.7191668402998
 20
52.76463359741296
 30
0.0
 40
0.2814999999999999
  0
CIRCLE
  5
10B
330
6C
100
AcDbEntity
  8
Visible (ANSI)
100
AcDbCircle
 10
21.46916684029978
 20
52.76463359741296
 30
0.0
 40
0.2814999999999999
  0
CIRCLE
  5
10C
330
6C
100
AcDbEntity
  8
Visible (ANSI)
100
AcDbCircle
 10
21.46916684029977
 20
27.51463359741296
 30
0.0
 40
0.2814999999999999
  0
SPLINE
  5
10D
330
6C
100
AcDbEntity
  8
Visible (ANSI)
100
AcDbSpline
210
0.0
220
0.0
230
1.0
 70
     8
 71
     3
 72
    11
 73
     7
 74
     0
 42
0.0000000001
 43
0.0000000001
 40
0.0
 40
0.0
 40
0.0
 40
0.0
 40
1.48347478762774
 40
1.48347478762774
 40
1.48347478762774
 40
1.570796326794879
 40
1.570796326794879
 40
1.570796326794879
 40
1.570796326794879
 10
41.46921684029979
 20
26.76458359741296
 30
0.0
 10
41.48466970267092
 20
26.75822411571884
 30
0.0
 10
41.49900012101303
 20
26.75186463402472
 30
0.0
 10
41.50034777456048
 20
26.7455051523306
 30
0.0
 10
41.5004271012757
 20
26.74513081517674
 30
0.0
 10
41.50046684029979
 20
26.74475647802286
 30
0.0
 10
41.50046684029979
 20
26.744382140869
 30
0.0
  0
SPLINE
  5
10E
330
6C
100
AcDbEntity
  8
Visible (ANSI)
100
AcDbSpline
210
0.0
220
0.0
230
1.0
 70
     8
 71
     3
 72
    11
 73
     7
 74
     0
 42
0.0000000001
 43
0.0000000001
 40
0.0
 40
0.0
 40
0.0
 40
0.0
 40
1.483474787626201
 40
1.483474787626201
 40
1.483474787626201
 40
1.570796326794879
 40
1.570796326794879
 40
1.570796326794879
 40
1.570796326794879
 10
41.50046684029979
 20
53.53488505395692
 30
0.0
 10
41.50046684029979
 20
53.52852557226281
 30
0.0
 10
41.48733615721349
 20
53.5221660905687
 30
0.0
 10
41.47194217184984
 20
53.51580660887459
 30
0.0
 10
41.47103603815136
 20
53.51543227172071
 30
0.0
 10
41.47012643966613
 20
53.51505793456684
 30
0.0
 10
41.46921684029979
 20
53.51468359741296
 30
0.0
  0
LINE
  5
10F
330
6C
100
AcDbEntity
  8
Visible (ANSI)
100
AcDbLine
 10
41.5941668402998
 20
53.53488505395692
 30
0.0
 11
41.50046684029979
 21
53.53488505395692
 31
0.0
  0
SPLINE
  5
110
330
6C
100
AcDbEntity
  8
Visible (ANSI)
100
AcDbSpline
210
0.0
220
0.0
230
1.0
 70
     8
 71
     3
 72
    11
 73
     7
 74
     0
 42
0.0000000001
 43
0.0000000001
 40
0.0
 40
0.0
 40
0.0
 40
0.0
 40
1.049080005790814
 40
1.049080005790814
 40
1.049080005790814
 40
1.570796326794879
 40
1.570796326794879
 40
1.570796326794879
 40
1.570796326794879
 10
41.46921684029979
 20
53.51468359741296
 30
0.0
 10
41.51291102254098
 20
53.51918087983943
 30
0.0
 10
41.55576830919577
 20
53.52367816226588
 30
0.0
 10
41.57754412905585
 20
53.52817544469234
 30
0.0
 10
41.58837342764275
 20
53.53041198111387
 30
0.0
 10
41.59416684029979
 20
53.53264851753539
 30
0.0
 10
41.5941668402998
 20
53.53488505395692
 30
0.0
  0
LINE
  5
111
330
6C
100
AcDbEntity
  8
Visible (ANSI)
100
AcDbLine
 10
41.5941668402998
 20
26.744382140869
 30
0.0
 11
41.50046684029979
 21
26.744382140869
 31
0.0
  0
SPLINE
  5
112
330
6C
100
AcDbEntity
  8
Visible (ANSI)
100
AcDbSpline
210
0.0
220
0.0
230
1.0
 70
     8
 71
     3
 72
    11
 73
     7
 74
     0
 42
0.0000000001
 43
0.0000000001
 40
0.0
 40
0.0
 40
0.0
 40
0.0
 40
1.049080005790672
 40
1.049080005790672
 40
1.049080005790672
 40
1.570796326794879
 40
1.570796326794879
 40
1.570796326794879
 40
1.570796326794879
 10
41.46921684029979
 20
26.76458359741296
 30
0.0
 10
41.51291102254096
 20
26.7600863149865
 30
0.0
 10
41.55576830919576
 20
26.75558903256004
 30
0.0
 10
41.57754412905585
 20
26.75109175013358
 30
0.0
 10
41.58837342764275
 20
26.74885521371205
 30
0.0
 10
41.5941668402998
 20
26.74661867729053
 30
0.0
 10
41.5941668402998
 20
26.744382140869
 30
0.0
  0
SPLINE
  5
113
330
6C
100
AcDbEntity
  8
Visible (ANSI)
100
AcDbSpline
210
0.0
220
0.0
230
1.0
 70
     8
 71
     3
 72
    11
 73
     7
 74
     0
 42
0.0000000001
 43
0.0000000001
 40
0.0
 40
0.0
 40
0.0
 40
0.0
 40
1.483474787626946
 40
1.483474787626946
 40
1.483474787626946
 40
1.570796326794891
 40
1.570796326794891
 40
1.570796326794891
 40
1.570796326794891
 10
20.71911684029979
 20
26.76458359741296
 30
0.0
 10
20.71275735860568
 20
26.74913073504185
 30
0.0
 10
20.70639787691156
 20
26.73480031669975
 30
0.0
 10
20.70003839521744
 20
26.73345266315229
 30
0.0
 10
20.69966405806357
 20
26.73337333643706
 30
0.0
 10
20.6992897209097
 20
26.73333359741296
 30
0.0
 10
20.69891538375582
 20
26.73333359741296
 30
0.0
  0
SPLINE
  5
114
330
6C
100
AcDbEntity
  8
Visible (ANSI)
100
AcDbSpline
210
0.0
220
0.0
230
1.0
 70
     8
 71
     3
 72
    11
 73
     7
 74
     0
 42
0.0000000001
 43
0.0000000001
 40
0.0
 40
0.0
 40
0.0
 40
0.0
 40
1.483474787626946
 40
1.483474787626946
 40
1.483474787626946
 40
1.570796326794903
 40
1.570796326794903
 40
1.570796326794903
 40
1.570796326794903
 10
41.48941829684374
 20
26.73333359741296
 30
0.0
 10
41.48305881514963
 20
26.73333359741296
 30
0.0
 10
41.47669933345552
 20
26.74646428049928
 30
0.0
 10
41.4703398517614
 20
26.76185826586294
 30
0.0
 10
41.46996551460752
 20
26.7627643995614
 30
0.0
 10
41.46959117745366
 20
26.76367399804663
 30
0.0
 10
41.46921684029979
 20
26.76458359741296
 30
0.0
  0
LINE
  5
115
330
6C
100
AcDbEntity
  8
Visible (ANSI)
100
AcDbLine
 10
41.48941829684374
 20
26.63963359741296
 30
0.0
 11
41.48941829684374
 21
26.73333359741296
 31
0.0
  0
SPLINE
  5
116
330
6C
100
AcDbEntity
  8
Visible (ANSI)
100
AcDbSpline
210
0.0
220
0.0
230
1.0
 70
     8
 71
     3
 72
    11
 73
     7
 74
     0
 42
0.0000000001
 43
0.0000000001
 40
0.0
 40
0.0
 40
0.0
 40
0.0
 40
1.049080005790748
 40
1.049080005790748
 40
1.049080005790748
 40
1.570796326794903
 40
1.570796326794903
 40
1.570796326794903
 40
1.570796326794903
 10
41.46921684029979
 20
26.76458359741296
 30
0.0
 10
41.47371412272624
 20
26.72088941517178
 30
0.0
 10
41.4782114051527
 20
26.67803212851698
 30
0.0
 10
41.48270868757916
 20
26.65625630865689
 30
0.0
 10
41.48494522400069
 20
26.64542701007
 30
0.0
 10
41.48718176042222
 20
26.63963359741296
 30
0.0
 10
41.48941829684374
 20
26.63963359741296
 30
0.0
  0
LINE
  5
117
330
6C
100
AcDbEntity
  8
Visible (ANSI)
100
AcDbLine
 10
20.69891538375582
 20
26.63963359741296
 30
0.0
 11
20.69891538375582
 21
26.73333359741296
 31
0.0
  0
SPLINE
  5
118
330
6C
100
AcDbEntity
  8
Visible (ANSI)
100
AcDbSpline
210
0.0
220
0.0
230
1.0
 70
     8
 71
     3
 72
    11
 73
     7
 74
     0
 42
0.0000000001
 43
0.0000000001
 40
0.0
 40
0.0
 40
0.0
 40
0.0
 40
1.049080005790748
 40
1.049080005790748
 40
1.049080005790748
 40
1.570796326794891
 40
1.570796326794891
 40
1.570796326794891
 40
1.570796326794891
 10
20.71911684029979
 20
26.76458359741296
 30
0.0
 10
20.71461955787333
 20
26.72088941517178
 30
0.0
 10
20.71012227544687
 20
26.67803212851698
 30
0.0
 10
20.70562499302042
 20
26.65625630865689
 30
0.0
 10
20.70338845659888
 20
26.64542701007
 30
0.0
 10
20.70115192017736
 20
26.63963359741296
 30
0.0
 10
20.69891538375582
 20
26.63963359741296
 30
0.0
  0
SPLINE
  5
119
330
6C
100
AcDbEntity
  8
Visible (ANSI)
100
AcDbSpline
210
0.0
220
0.0
230
1.0
 70
     8
 71
     3
 72
    11
 73
     7
 74
     0
 42
0.0000000001
 43
0.0000000001
 40
0.0
 40
0.0
 40
0.0
 40
0.0
 40
1.483474787626951
 40
1.483474787626951
 40
1.483474787626951
 40
1.57079632679489
 40
1.57079632679489
 40
1.57079632679489
 40
1.57079632679489
 10
20.71911684029978
 20
53.51468359741295
 30
0.0
 10
20.70366397792867
 20
53.52104307910707
 30
0.0
 10
20.68933355958657
 20
53.5274025608012
 30
0.0
 10
20.6879859060391
 20
53.5337620424953
 30
0.0
 10
20.68790657932387
 20
53.53413637964918
 30
0.0
 10
20.68786684029978
 20
53.53451071680304
 30
0.0
 10
20.68786684029978
 20
53.53488505395691
 30
0.0
  0
SPLINE
  5
11A
330
6C
100
AcDbEntity
  8
Visible (ANSI)
100
AcDbSpline
210
0.0
220
0.0
230
1.0
 70
     8
 71
     3
 72
    11
 73
     7
 74
     0
 42
0.0000000001
 43
0.0000000001
 40
0.0
 40
0.0
 40
0.0
 40
0.0
 40
1.483474787626945
 40
1.483474787626945
 40
1.483474787626945
 40
1.57079632679489
 40
1.57079632679489
 40
1.57079632679489
 40
1.57079632679489
 10
20.68786684029979
 20
26.744382140869
 30
0.0
 10
20.68786684029979
 20
26.75074162256311
 30
0.0
 10
20.7009975233861
 20
26.75710110425723
 30
0.0
 10
20.71639150874977
 20
26.76346058595135
 30
0.0
 10
20.71729764244822
 20
26.76383492310522
 30
0.0
 10
20.71820724093345
 20
26.76420926025909
 30
0.0
 10
20.71911684029979
 20
26.76458359741296
 30
0.0
  0
LINE
  5
11B
330
6C
100
AcDbEntity
  8
Visible (ANSI)
100
AcDbLine
 10
20.59416684029979
 20
26.744382140869
 30
0.0
 11
20.68786684029979
 21
26.744382140869
 31
0.0
  0
SPLINE
  5
11C
330
6C
100
AcDbEntity
  8
Visible (ANSI)
100
AcDbSpline
210
0.0
220
0.0
230
1.0
 70
     8
 71
     3
 72
    11
 73
     7
 74
     0
 42
0.0000000001
 43
0.0000000001
 40
0.0
 40
0.0
 40
0.0
 40
0.0
 40
1.049080005790748
 40
1.049080005790748
 40
1.049080005790748
 40
1.570796326794889
 40
1.570796326794889
 40
1.570796326794889
 40
1.570796326794889
 10
20.71911684029979
 20
26.76458359741296
 30
0.0
 10
20.6754226580586
 20
26.7600863149865
 30
0.0
 10
20.63256537140381
 20
26.75558903256004
 30
0.0
 10
20.61078955154372
 20
26.75109175013358
 30
0.0
 10
20.59996025295682
 20
26.74885521371205
 30
0.0
 10
20.59416684029979
 20
26.74661867729053
 30
0.0
 10
20.59416684029979
 20
26.744382140869
 30
0.0
  0
LINE
  5
11D
330
6C
100
AcDbEntity
  8
Visible (ANSI)
100
AcDbLine
 10
20.59416684029978
 20
53.53488505395691
 30
0.0
 11
20.68786684029978
 21
53.53488505395691
 31
0.0
  0
SPLINE
  5
11E
330
6C
100
AcDbEntity
  8
Visible (ANSI)
100
AcDbSpline
210
0.0
220
0.0
230
1.0
 70
     8
 71
     3
 72
    11
 73
     7
 74
     0
 42
0.0000000001
 43
0.0000000001
 40
0.0
 40
0.0
 40
0.0
 40
0.0
 40
1.049080005790748
 40
1.049080005790748
 40
1.049080005790748
 40
1.57079632679489
 40
1.57079632679489
 40
1.57079632679489
 40
1.57079632679489
 10
20.71911684029979
 20
53.51468359741295
 30
0.0
 10
20.67542265805861
 20
53.5191808798394
 30
0.0
 10
20.63256537140381
 20
53.52367816226587
 30
0.0
 10
20.61078955154371
 20
53.52817544469234
 30
0.0
 10
20.59996025295681
 20
53.53041198111386
 30
0.0
 10
20.59416684029978
 20
53.53264851753539
 30
0.0
 10
20.59416684029978
 20
53.53488505395691
 30
0.0
  0
SPLINE
  5
11F
330
6C
100
AcDbEntity
  8
Visible (ANSI)
100
AcDbSpline
210
0.0
220
0.0
230
1.0
 70
     8
 71
     3
 72
    11
 73
     7
 74
     0
 42
0.0000000001
 43
0.0000000001
 40
0.0
 40
0.0
 40
0.0
 40
0.0
 40
1.48347478762454
 40
1.48347478762454
 40
1.48347478762454
 40
1.570796326794647
 40
1.570796326794647
 40
1.570796326794647
 40
1.570796326794647
 10
41.46921684029979
 20
53.51468359741296
 30
0.0
 10
41.47557632199389
 20
53.53013645978404
 30
0.0
 10
41.48193580368799
 20
53.54446687812614
 30
0.0
 10
41.48829528538209
 20
53.54581453167362
 30
0.0
 10
41.48866962253597
 20
53.54589385838886
 30
0.0
 10
41.48904395968985
 20
53.54593359741296
 30
0.0
 10
41.48941829684374
 20
53.54593359741296
 30
0.0
  0
SPLINE
  5
120
330
6C
100
AcDbEntity
  8
Visible (ANSI)
100
AcDbSpline
210
0.0
220
0.0
230
1.0
 70
     8
 71
     3
 72
    11
 73
     7
 74
     0
 42
0.0000000001
 43
0.0000000001
 40
0.0
 40
0.0
 40
0.0
 40
0.0
 40
1.483474787627705
 40
1.483474787627705
 40
1.483474787627705
 40
1.570796326794879
 40
1.570796326794879
 40
1.570796326794879
 40
1.570796326794879
 10
20.69891538375581
 20
53.54593359741297
 30
0.0
 10
20.70527486544993
 20
53.54593359741297
 30
0.0
 10
20.71163434714405
 20
53.53280291432664
 30
0.0
 10
20.71799382883817
 20
53.51740892896296
 30
0.0
 10
20.71836816599204
 20
53.51650279526451
 30
0.0
 10
20.71874250314591
 20
53.51559319677928
 30
0.0
 10
20.71911684029978
 20
53.51468359741296
 30
0.0
  0
LINE
  5
121
330
6C
100
AcDbEntity
  8
Visible (ANSI)
100
AcDbLine
 10
20.69891538375581
 20
53.63963359741296
 30
0.0
 11
20.69891538375581
 21
53.54593359741296
 31
0.0
  0
SPLINE
  5
122
330
6C
100
AcDbEntity
  8
Visible (ANSI)
100
AcDbSpline
210
0.0
220
0.0
230
1.0
 70
     8
 71
     3
 72
    11
 73
     7
 74
     0
 42
0.0000000001
 43
0.0000000001
 40
0.0
 40
0.0
 40
0.0
 40
0.0
 40
1.049080005790959
 40
1.049080005790959
 40
1.049080005790959
 40
1.570796326794879
 40
1.570796326794879
 40
1.570796326794879
 40
1.570796326794879
 10
20.71911684029978
 20
53.51468359741296
 30
0.0
 10
20.71461955787332
 20
53.55837777965415
 30
0.0
 10
20.71012227544686
 20
53.60123506630896
 30
0.0
 10
20.7056249930204
 20
53.62301088616903
 30
0.0
 10
20.70338845659887
 20
53.63384018475593
 30
0.0
 10
20.70115192017734
 20
53.63963359741296
 30
0.0
 10
20.69891538375581
 20
53.63963359741296
 30
0.0
  0
LINE
  5
123
330
6C
100
AcDbEntity
  8
Visible (ANSI)
100
AcDbLine
 10
41.48941829684374
 20
53.63963359741294
 30
0.0
 11
41.48941829684374
 21
53.54593359741294
 31
0.0
  0
SPLINE
  5
124
330
6C
100
AcDbEntity
  8
Visible (ANSI)
100
AcDbSpline
210
0.0
220
0.0
230
1.0
 70
     8
 71
     3
 72
    11
 73
     7
 74
     0
 42
0.0000000001
 43
0.0000000001
 40
0.0
 40
0.0
 40
0.0
 40
0.0
 40
1.0490800057906
 40
1.0490800057906
 40
1.0490800057906
 40
1.570796326794647
 40
1.570796326794647
 40
1.570796326794647
 40
1.570796326794647
 10
41.46921684029979
 20
53.51468359741296
 30
0.0
 10
41.47371412272623
 20
53.55837777965414
 30
0.0
 10
41.4782114051527
 20
53.60123506630894
 30
0.0
 10
41.48270868757915
 20
53.62301088616902
 30
0.0
 10
41.48494522400068
 20
53.63384018475592
 30
0.0
 10
41.48718176042221
 20
53.63963359741295
 30
0.0
 10
41.48941829684374
 20
53.63963359741296
 30
0.0
  0
LINE
  5
125
330
6C
100
AcDbEntity
  8
Visible (ANSI)
100
AcDbLine
 10
41.5941668402998
 20
53.53488505395692
 30
0.0
 11
41.5941668402998
 21
26.744382140869
 31
0.0
  0
LINE
  5
126
330
6C
100
AcDbEntity
  8
Visible (ANSI)
100
AcDbLine
 10
41.48941829684374
 20
26.63963359741296
 30
0.0
 11
20.69891538375582
 21
26.63963359741296
 31
0.0
  0
LINE
  5
127
330
6C
100
AcDbEntity
  8
Visible (ANSI)
100
AcDbLine
 10
20.59416684029979
 20
26.744382140869
 30
0.0
 11
20.59416684029978
 21
53.53488505395691
 31
0.0
  0
LINE
  5
128
330
6C
100
AcDbEntity
  8
Visible (ANSI)
100
AcDbLine
 10
20.69891538375581
 20
53.63963359741296
 30
0.0
 11
41.48941829684374
 21
53.63963359741294
 31
0.0
  0
MTEXT
  5
12A
330
6C
100
AcDbEntity
  8
Symbol (ANSI)
100
AcDbMText
 10
27.21146366711512
 20
18.75463671932228
 30
0.0
 40
0.8727272835132813
 41
0.0
 71
     7
 72
     1
  1
FRONT VIEW
  7
Text Style168
 73
     1
 44
1.0
1001
ACAD
1000
MTEXTBEGIN
1070
    73
1070
     1
1070
    44
1040
1.0
1070
    74
1070
     0
1000
MTEXTEND
  0
LINE
  5
12C
330
6C
100
AcDbEntity
  8
Symbol (ANSI)
370
    30
100
AcDbLine
 10
27.12419071534504
 20
18.57666117477762
 30
0.0
 11
34.14066347378633
 21
18.57666117477762
 31
0.0
  0
LINE
  5
12D
330
6C
100
AcDbEntity
  8
Visible (ANSI)
100
AcDbLine
 10
70.63296967384369
 20
26.744382140869
 30
0.0
 11
71.38301967384369
 21
26.744382140869
 31
0.0
  0
LINE
  5
12E
330
6C
100
AcDbEntity
  8
Visible (ANSI)
100
AcDbLine
 10
70.63296967384371
 20
53.53488505395692
 30
0.0
 11
71.38301967384369
 21
53.53488505395692
 31
0.0
  0
SPLINE
  5
12F
330
6C
100
AcDbEntity
  8
Visible (ANSI)
100
AcDbSpline
210
0.0
220
0.0
230
1.0
 70
     8
 71
     3
 72
    11
 73
     7
 74
     0
 42
0.0000000001
 43
0.0000000001
 40
0.0
 40
0.0
 40
0.0
 40
0.0
 40
1.049080005790814
 40
1.049080005790814
 40
1.049080005790814
 40
1.570796326794879
 40
1.570796326794879
 40
1.570796326794879
 40
1.570796326794879
 10
70.50801967384366
 20
53.51468359741296
 30
0.0
 10
70.50801967384368
 20
53.51918087983943
 30
0.0
 10
70.5328171536873
 20
53.52367816226588
 30
0.0
 10
70.57069848459248
 20
53.52817544469234
 30
0.0
 10
70.58953718944387
 20
53.53041198111387
 30
0.0
 10
70.61124018907387
 20
53.53264851753539
 30
0.0
 10
70.63296967384369
 20
53.53488505395692
 30
0.0
  0
SPLINE
  5
130
330
6C
100
AcDbEntity
  8
Visible (ANSI)
100
AcDbSpline
210
0.0
220
0.0
230
1.0
 70
     8
 71
     3
 72
    11
 73
     7
 74
     0
 42
0.0000000001
 43
0.0000000001
 40
0.0
 40
0.0
 40
0.0
 40
0.0
 40
1.049080005790672
 40
1.049080005790672
 40
1.049080005790672
 40
1.570796326794879
 40
1.570796326794879
 40
1.570796326794879
 40
1.570796326794879
 10
70.50801967384366
 20
26.76458359741296
 30
0.0
 10
70.50801967384368
 20
26.7600863149865
 30
0.0
 10
70.53281715368729
 20
26.75558903256004
 30
0.0
 10
70.57069848459247
 20
26.75109175013358
 30
0.0
 10
70.58953718944386
 20
26.74885521371205
 30
0.0
 10
70.61124018907385
 20
26.74661867729053
 30
0.0
 10
70.63296967384369
 20
26.744382140869
 30
0.0
  0
SPLINE
  5
131
330
6C
100
AcDbEntity
  8
Visible (ANSI)
100
AcDbSpline
210
0.0
220
0.0
230
1.0
 70
     8
 71
     3
 72
     8
 73
     4
 74
     0
 42
0.0000000001
 43
0.0000000001
 40
0.0
 40
0.0
 40
0.0
 40
0.0
 40
0.9756948527141528
 40
0.9756948527141528
 40
0.9756948527141528
 40
0.9756948527141528
 10
70.63296967384366
 20
26.73333359741296
 30
0.0
 10
70.62280618579456
 20
26.73333359741296
 30
0.0
 10
70.61312824598338
 20
26.73901368467854
 30
0.0
 10
70.60731026532689
 20
26.74728195224
 30
0.0
  0
LINE
  5
132
330
6C
100
AcDbEntity
  8
Visible (ANSI)
100
AcDbLine
 10
70.63296967384366
 20
26.63963359741296
 30
0.0
 11
71.38301967384368
 21
26.63963359741296
 31
0.0
  0
LINE
  5
133
330
6C
100
AcDbEntity
  8
Visible (ANSI)
100
AcDbLine
 10
71.38301967384368
 20
26.73333359741296
 30
0.0
 11
70.63296967384366
 21
26.73333359741296
 31
0.0
  0
LINE
  5
134
330
6C
100
AcDbEntity
  8
Visible (ANSI)
100
AcDbLine
 10
70.63296967384366
 20
26.63963359741296
 30
0.0
 11
70.63296967384366
 21
26.73333359741296
 31
0.0
  0
LINE
  5
135
330
6C
100
AcDbEntity
  8
Visible (ANSI)
100
AcDbLine
 10
71.38301967384368
 20
26.63963359741296
 30
0.0
 11
71.38301967384368
 21
26.73333359741296
 31
0.0
  0
SPLINE
  5
136
330
6C
100
AcDbEntity
  8
Visible (ANSI)
100
AcDbSpline
210
0.0
220
0.0
230
1.0
 70
     8
 71
     3
 72
    11
 73
     7
 74
     0
 42
0.0000000001
 43
0.0000000001
 40
0.0
 40
0.0
 40
0.0
 40
0.0
 40
1.049080005790748
 40
1.049080005790748
 40
1.049080005790748
 40
1.570796326794903
 40
1.570796326794903
 40
1.570796326794903
 40
1.570796326794903
 10
70.50801967384366
 20
26.76458359741296
 30
0.0
 10
70.50801967384366
 20
26.72088941517178
 30
0.0
 10
70.53281715368729
 20
26.67803212851698
 30
0.0
 10
70.57069848459246
 20
26.65625630865689
 30
0.0
 10
70.58953718944386
 20
26.64542701007
 30
0.0
 10
70.61124018907385
 20
26.63963359741296
 30
0.0
 10
70.63296967384366
 20
26.63963359741296
 30
0.0
  0
SPLINE
  5
137
330
6C
100
AcDbEntity
  8
Visible (ANSI)
100
AcDbSpline
210
0.0
220
0.0
230
1.0
 70
     8
 71
     3
 72
    11
 73
     7
 74
     0
 42
0.0000000001
 43
0.0000000001
 40
0.5951014740807307
 40
0.5951014740807307
 40
0.5951014740807307
 40
0.5951014740807307
 40
1.48347478762454
 40
1.48347478762454
 40
1.48347478762454
 40
1.570796326794647
 40
1.570796326794647
 40
1.570796326794647
 40
1.570796326794647
 10
70.6073572649196
 20
53.53197298507604
 30
0.0
 10
70.61261873976895
 20
53.53954461915707
 30
0.0
 10
70.62102571188595
 20
53.5450074944004
 30
0.0
 10
70.63024434229358
 20
53.54581453167362
 30
0.0
 10
70.63115047599204
 20
53.54589385838886
 30
0.0
 10
70.63206007447729
 20
53.54593359741296
 30
0.0
 10
70.63296967384366
 20
53.54593359741296
 30
0.0
  0
LINE
  5
138
330
6C
100
AcDbEntity
  8
Visible (ANSI)
100
AcDbLine
 10
70.63296967384366
 20
53.63963359741294
 30
0.0
 11
71.38301967384366
 21
53.63963359741291
 31
0.0
  0
LINE
  5
139
330
6C
100
AcDbEntity
  8
Visible (ANSI)
100
AcDbLine
 10
70.63296967384366
 20
53.63963359741294
 30
0.0
 11
70.63296967384366
 21
53.54593359741294
 31
0.0
  0
SPLINE
  5
13A
330
6C
100
AcDbEntity
  8
Visible (ANSI)
100
AcDbSpline
210
0.0
220
0.0
230
1.0
 70
     8
 71
     3
 72
    11
 73
     7
 74
     0
 42
0.0000000001
 43
0.0000000001
 40
0.0
 40
0.0
 40
0.0
 40
0.0
 40
1.0490800057906
 40
1.0490800057906
 40
1.0490800057906
 40
1.570796326794647
 40
1.570796326794647
 40
1.570796326794647
 40
1.570796326794647
 10
70.50801967384366
 20
53.51468359741296
 30
0.0
 10
70.50801967384366
 20
53.55837777965414
 30
0.0
 10
70.53281715368729
 20
53.60123506630894
 30
0.0
 10
70.57069848459244
 20
53.62301088616902
 30
0.0
 10
70.58953718944383
 20
53.63384018475592
 30
0.0
 10
70.61124018907382
 20
53.63963359741295
 30
0.0
 10
70.63296967384364
 20
53.63963359741296
 30
0.0
  0
LINE
  5
13B
330
6C
100
AcDbEntity
  8
Visible (ANSI)
100
AcDbLine
 10
70.63296967384366
 20
53.54593359741294
 30
0.0
 11
71.38301967384366
 21
53.54593359741291
 31
0.0
  0
LINE
  5
13C
330
6C
100
AcDbEntity
  8
Visible (ANSI)
100
AcDbLine
 10
71.38301967384366
 20
53.63963359741291
 30
0.0
 11
71.38301967384366
 21
53.54593359741291
 31
0.0
  0
LINE
  5
13D
330
6C
100
AcDbEntity
  8
Visible (ANSI)
100
AcDbLine
 10
71.38301967384369
 20
26.744382140869
 30
0.0
 11
71.38301967384369
 21
53.53488505395692
 31
0.0
  0
LINE
  5
13E
330
6C
100
AcDbEntity
  8
Visible (ANSI)
100
AcDbLine
 10
70.50801967384366
 20
26.76458359741296
 30
0.0
 11
70.50801967384366
 21
53.51468359741295
 31
0.0
  0
MTEXT
  5
13F
330
6C
100
AcDbEntity
  8
Symbol (ANSI)
100
AcDbMText
 10
68.72213551975708
 20
20.10269368290172
 30
0.0
 40
0.8727272835132813
 41
0.0
 71
     7
 72
     1
  1
SIDE VIEW
  7
Text Style168
 73
     1
 44
1.0
1001
ACAD
1000
MTEXTBEGIN
1070
    73
1070
     1
1070
    44
1040
1.0
1070
    74
1070
     0
1000
MTEXTEND
  0
LINE
  5
140
330
6C
100
AcDbEntity
  8
Symbol (ANSI)
370
    30
100
AcDbLine
 10
68.67745176845078
 20
19.92188920170385
 30
0.0
 11
74.57507955321801
 21
19.92188920170385
 31
0.0
  0
SPLINE
  5
141
330
6C
100
AcDbEntity
  8
Visible (ANSI)
100
AcDbSpline
210
0.0
220
0.0
230
1.0
 70
     8
 71
     3
 72
     8
 73
     4
 74
     0
 42
0.0000000001
 43
0.0000000001
 40
0.0
 40
0.0
 40
0.0
 40
0.0
 40
0.9756948527150495
 40
0.9756948527150495
 40
0.9756948527150495
 40
0.9756948527150495
 10
41.50046684030971
 20
73.25229290732089
 30
0.0
 10
41.50046684030971
 20
73.24212941927178
 30
0.0
 10
41.49478675304412
 20
73.23245147946059
 30
0.0
 10
41.48651848548264
 20
73.22663349880411
 30
0.0
  0
LINE
  5
142
330
6C
100
AcDbEntity
  8
Visible (ANSI)
100
AcDbLine
 10
41.59416684030971
 20
73.25229290732091
 30
0.0
 11
41.59416684030971
 21
74.0023429073209
 31
0.0
  0
LINE
  5
143
330
6C
100
AcDbEntity
  8
Visible (ANSI)
100
AcDbLine
 10
41.50046684030971
 20
74.0023429073209
 30
0.0
 11
41.50046684030971
 21
73.25229290732091
 31
0.0
  0
LINE
  5
144
330
6C
100
AcDbEntity
  8
Visible (ANSI)
100
AcDbLine
 10
41.59416684030971
 20
73.25229290732091
 30
0.0
 11
41.50046684030971
 21
73.25229290732091
 31
0.0
  0
LINE
  5
145
330
6C
100
AcDbEntity
  8
Visible (ANSI)
100
AcDbLine
 10
41.59416684030971
 20
74.0023429073209
 30
0.0
 11
41.50046684030971
 21
74.0023429073209
 31
0.0
  0
SPLINE
  5
146
330
6C
100
AcDbEntity
  8
Visible (ANSI)
100
AcDbSpline
210
0.0
220
0.0
230
1.0
 70
     8
 71
     3
 72
    11
 73
     7
 74
     0
 42
0.0000000001
 43
0.0000000001
 40
0.0
 40
0.0
 40
0.0
 40
0.0
 40
1.049080005790814
 40
1.049080005790814
 40
1.049080005790814
 40
1.570796326794879
 40
1.570796326794879
 40
1.570796326794879
 40
1.570796326794879
 10
41.4692168403097
 20
73.12734290732089
 30
0.0
 10
41.51291102255089
 20
73.12734290732089
 30
0.0
 10
41.55576830920569
 20
73.15214038716451
 30
0.0
 10
41.57754412906577
 20
73.19002171806968
 30
0.0
 10
41.58837342765267
 20
73.20886042292108
 30
0.0
 10
41.59416684030971
 20
73.23056342255106
 30
0.0
 10
41.59416684030971
 20
73.25229290732089
 30
0.0
  0
SPLINE
  5
147
330
6C
100
AcDbEntity
  8
Visible (ANSI)
100
AcDbSpline
210
0.0
220
0.0
230
1.0
 70
     8
 71
     3
 72
    11
 73
     7
 74
     0
 42
0.0000000001
 43
0.0000000001
 40
0.5951014740807251
 40
0.5951014740807251
 40
0.5951014740807251
 40
0.5951014740807251
 40
1.483474787626951
 40
1.483474787626951
 40
1.483474787626951
 40
1.57079632679489
 40
1.57079632679489
 40
1.57079632679489
 40
1.57079632679489
 10
20.70182745264661
 20
73.22668049839681
 30
0.0
 10
20.69425581856557
 20
73.23194197324619
 30
0.0
 10
20.68879294332222
 20
73.24034894536322
 30
0.0
 10
20.68798590604902
 20
73.24956757577087
 30
0.0
 10
20.68790657933379
 20
73.25047370946933
 30
0.0
 10
20.68786684030969
 20
73.25138330795457
 30
0.0
 10
20.68786684030969
 20
73.25229290732089
 30
0.0
  0
LINE
  5
148
330
6C
100
AcDbEntity
  8
Visible (ANSI)
100
AcDbLine
 10
20.59416684030969
 20
73.25229290732089
 30
0.0
 11
20.59416684030969
 21
74.00234290732088
 31
0.0
  0
LINE
  5
149
330
6C
100
AcDbEntity
  8
Visible (ANSI)
100
AcDbLine
 10
20.59416684030969
 20
73.25229290732089
 30
0.0
 11
20.68786684030969
 21
73.25229290732089
 31
0.0
  0
SPLINE
  5
14A
330
6C
100
AcDbEntity
  8
Visible (ANSI)
100
AcDbSpline
210
0.0
220
0.0
230
1.0
 70
     8
 71
     3
 72
    11
 73
     7
 74
     0
 42
0.0000000001
 43
0.0000000001
 40
0.0
 40
0.0
 40
0.0
 40
0.0
 40
1.049080005790748
 40
1.049080005790748
 40
1.049080005790748
 40
1.57079632679489
 40
1.57079632679489
 40
1.57079632679489
 40
1.57079632679489
 10
20.71911684030971
 20
73.12734290732089
 30
0.0
 10
20.67542265806852
 20
73.12734290732089
 30
0.0
 10
20.63256537141372
 20
73.15214038716451
 30
0.0
 10
20.61078955155363
 20
73.19002171806968
 30
0.0
 10
20.59996025296674
 20
73.20886042292106
 30
0.0
 10
20.5941668403097
 20
73.23056342255106
 30
0.0
 10
20.59416684030969
 20
73.25229290732088
 30
0.0
  0
LINE
  5
14B
330
6C
100
AcDbEntity
  8
Visible (ANSI)
100
AcDbLine
 10
20.68786684030969
 20
73.25229290732089
 30
0.0
 11
20.68786684030969
 21
74.00234290732088
 31
0.0
  0
LINE
  5
14C
330
6C
100
AcDbEntity
  8
Visible (ANSI)
100
AcDbLine
 10
20.59416684030969
 20
74.00234290732088
 30
0.0
 11
20.68786684030969
 21
74.00234290732088
 31
0.0
  0
LINE
  5
14D
330
6C
100
AcDbEntity
  8
Visible (ANSI)
100
AcDbLine
 10
41.48941829685365
 20
73.25229290732093
 30
0.0
 11
41.48941829685365
 21
74.00234290732092
 31
0.0
  0
LINE
  5
14E
330
6C
100
AcDbEntity
  8
Visible (ANSI)
100
AcDbLine
 10
20.69891538376573
 20
73.25229290732093
 30
0.0
 11
20.69891538376574
 21
74.00234290732093
 31
0.0
  0
SPLINE
  5
14F
330
6C
100
AcDbEntity
  8
Visible (ANSI)
100
AcDbSpline
210
0.0
220
0.0
230
1.0
 70
     8
 71
     3
 72
    11
 73
     7
 74
     0
 42
0.0000000001
 43
0.0000000001
 40
0.0
 40
0.0
 40
0.0
 40
0.0
 40
1.049080005790959
 40
1.049080005790959
 40
1.049080005790959
 40
1.570796326794879
 40
1.570796326794879
 40
1.570796326794879
 40
1.570796326794879
 10
20.7191168403097
 20
73.12734290732089
 30
0.0
 10
20.71461955788324
 20
73.12734290732089
 30
0.0
 10
20.71012227545677
 20
73.15214038716455
 30
0.0
 10
20.70562499303031
 20
73.19002171806975
 30
0.0
 10
20.70338845660879
 20
73.20886042292113
 30
0.0
 10
20.70115192018726
 20
73.23056342255111
 30
0.0
 10
20.69891538376573
 20
73.25229290732092
 30
0.0
  0
SPLINE
  5
150
330
6C
100
AcDbEntity
  8
Visible (ANSI)
100
AcDbSpline
210
0.0
220
0.0
230
1.0
 70
     8
 71
     3
 72
    11
 73
     7
 74
     0
 42
0.0000000001
 43
0.0000000001
 40
0.0
 40
0.0
 40
0.0
 40
0.0
 40
1.0490800057906
 40
1.0490800057906
 40
1.0490800057906
 40
1.570796326794647
 40
1.570796326794647
 40
1.570796326794647
 40
1.570796326794647
 10
41.4692168403097
 20
73.12734290732089
 30
0.0
 10
41.47371412273615
 20
73.12734290732091
 30
0.0
 10
41.47821140516262
 20
73.15214038716454
 30
0.0
 10
41.48270868758907
 20
73.1900217180697
 30
0.0
 10
41.4849452240106
 20
73.20886042292109
 30
0.0
 10
41.48718176043212
 20
73.23056342255108
 30
0.0
 10
41.48941829685365
 20
73.25229290732091
 30
0.0
  0
LINE
  5
151
330
6C
100
AcDbEntity
  8
Visible (ANSI)
100
AcDbLine
 10
41.48941829685365
 20
74.00234290732092
 30
0.0
 11
20.69891538376574
 21
74.00234290732093
 31
0.0
  0
LINE
  5
152
330
6C
100
AcDbEntity
  8
Visible (ANSI)
100
AcDbLine
 10
41.46921684030969
 20
73.12734290732089
 30
0.0
 11
20.7191168403097
 21
73.12734290732089
 31
0.0
  0
MTEXT
  5
153
330
6C
100
AcDbEntity
  8
Symbol (ANSI)
100
AcDbMText
 10
28.34020510263107
 20
68.06432922542381
 30
0.0
 40
0.8727272835132813
 41
0.0
 71
     7
 72
     1
  1
TOP VIEW
  7
Text Style168
 73
     1
 44
1.0
1001
ACAD
1000
MTEXTBEGIN
1070
    73
1070
     1
1070
    44
1040
1.0
1070
    74
1070
     0
1000
MTEXTEND
  0
LINE
  5
154
330
6C
100
AcDbEntity
  8
Symbol (ANSI)
370
    30
100
AcDbLine
 10
28.34090328624523
 20
67.88635368087914
 30
0.0
 11
33.84743039437418
 21
67.88635368087914
 31
0.0
  0
ELLIPSE
  5
155
330
6C
100
AcDbEntity
  8
Visible (ANSI)
100
AcDbEllipse
 10
107.40238502051
 20
26.78246682873393
 30
0.0
 11
-0.0764335881888556
 21
0.1327290702924897
 31
0.0
210
0.0
220
0.0
230
1.0
 40
0.5780931159158114
 41
0.0
 42
6.283185307179586
  0
ELLIPSE
  5
156
330
6C
100
AcDbEntity
  8
Visible (ANSI)
100
AcDbEllipse
 10
107.4674362730817
 20
26.81992735369115
 30
0.0
 11
0.0764335881888633
 21
-0.1327290702924847
 31
0.0
210
0.0
220
0.0
230
0.9999999999999998
 40
0.5780931159158112
 41
3.579337952256249
 42
5.845440008512513
  0
ELLIPSE
  5
157
330
6C
100
AcDbEntity
  8
Visible (ANSI)
100
AcDbEllipse
 10
96.81506803310618
 20
32.87929719796917
 30
0.0
 11
-0.0764335881888556
 21
0.1327290702924897
 31
0.0
210
0.0
220
0.0
230
1.0
 40
0.5780931159158114
 41
0.0
 42
6.283185307179586
  0
ELLIPSE
  5
158
330
6C
100
AcDbEntity
  8
Visible (ANSI)
100
AcDbEllipse
 10
96.88011928567796
 20
32.91675772292638
 30
0.0
 11
0.0764335881888637
 21
-0.1327290702924853
 31
0.0
210
0.0
220
0.0
230
1.0
 40
0.5780931159158113
 41
3.579337952256212
 42
5.845440008512513
  0
ELLIPSE
  5
159
330
6C
100
AcDbEntity
  8
Visible (ANSI)
100
AcDbEllipse
 10
108.790885609022
 20
25.98288251801456
 30
0.0
 11
-0.1379234299689926
 21
0.2395079056880502
 31
0.0
210
0.0
220
0.0
230
1.0
 40
0.5780931159158113
 41
0.0
 42
6.283185307179586
  0
ELLIPSE
  5
15A
330
6C
100
AcDbEntity
  8
Visible (ANSI)
100
AcDbEllipse
 10
108.8559368615937
 20
26.02034304297177
 30
0.0
 11
-0.1379234299689938
 21
0.2395079056880522
 31
0.0
210
0.0
220
0.0
230
0.9999999999999998
 40
0.5780931159158114
 41
0.2371295998376505
 42
2.904463053752236
  0
ELLIPSE
  5
15B
330
6C
100
AcDbEntity
  8
Visible (ANSI)
100
AcDbEllipse
 10
108.790885609022
 20
46.25061896752003
 30
0.0
 11
-0.1379234299689926
 21
0.2395079056880502
 31
0.0
210
0.0
220
0.0
230
1.0
 40
0.5780931159158113
 41
0.0
 42
6.283185307179586
  0
ELLIPSE
  5
15C
330
6C
100
AcDbEntity
  8
Visible (ANSI)
100
AcDbEllipse
 10
108.8559368615937
 20
46.28807949247724
 30
0.0
 11
-0.1379234299689929
 21
0.2395079056880507
 31
0.0
210
0.0
220
0.0
230
1.0
 40
0.5780931159158112
 41
0.2371295998375925
 42
2.904463053752236
  0
ELLIPSE
  5
15D
330
6C
100
AcDbEntity
  8
Visible (ANSI)
100
AcDbEllipse
 10
95.42656744459417
 20
53.94661795819402
 30
0.0
 11
-0.1379234299689926
 21
0.2395079056880502
 31
0.0
210
0.0
220
0.0
230
1.0
 40
0.5780931159158113
 41
0.0
 42
6.283185307179586
  0
ELLIPSE
  5
15E
330
6C
100
AcDbEntity
  8
Visible (ANSI)
100
AcDbEllipse
 10
95.49161869716595
 20
53.98407848315123
 30
0.0
 11
-0.1379234299689929
 21
0.2395079056880507
 31
0.0
210
0.0
220
0.0
230
1.0
 40
0.5780931159158112
 41
0.2371295998375925
 42
2.904463053752236
  0
ELLIPSE
  5
15F
330
6C
100
AcDbEntity
  8
Visible (ANSI)
100
AcDbEllipse
 10
95.42656744459417
 20
33.67888150868855
 30
0.0
 11
-0.1379234299689926
 21
0.2395079056880502
 31
0.0
210
0.0
220
0.0
230
1.0
 40
0.5780931159158113
 41
0.0
 42
6.283185307179586
  0
ELLIPSE
  5
160
330
6C
100
AcDbEntity
  8
Visible (ANSI)
100
AcDbEllipse
 10
95.49161869716595
 20
33.71634203364576
 30
0.0
 11
-0.1379234299689926
 21
0.2395079056880502
 31
0.0
210
0.0
220
0.0
230
1.0
 40
0.5780931159158113
 41
0.2371295998376116
 42
2.904463053752236
  0
SPLINE
  5
161
330
6C
100
AcDbEntity
  8
Visible (ANSI)
100
AcDbSpline
210
0.0
220
0.0
230
1.0
 70
     8
 71
     3
 72
    11
 73
     7
 74
     0
 42
0.0000000001
 43
0.0000000001
 40
0.0
 40
0.0
 40
0.0
 40
0.0
 40
1.483474787626201
 40
1.483474787626201
 40
1.483474787626201
 40
1.570796326794879
 40
1.570796326794879
 40
1.570796326794879
 40
1.570796326794879
 10
109.4200499381914
 20
46.60648285253113
 30
0.0
 10
109.4093217839432
 20
46.59520027387507
 30
0.0
 10
109.3902569061959
 20
46.58961598362904
 30
0.0
 10
109.3786340184555
 20
46.59012695139848
 30
0.0
 10
109.3779498622734
 20
46.59015702841257
 30
0.0
 10
109.3772907844281
 20
46.5902043174696
 30
0.0
 10
109.3766592948004
 20
46.59026749422898
 30
0.0
  0
LINE
  5
162
330
6C
100
AcDbEntity
  8
Visible (ANSI)
100
AcDbLine
 10
109.4851011907632
 20
25.06475094570562
 30
0.0
 11
110.0058236239698
 21
25.36461505183325
 31
0.0
  0
LINE
  5
163
330
6C
100
AcDbEntity
  8
Visible (ANSI)
100
AcDbLine
 10
109.4851011907632
 20
46.56902232757393
 30
0.0
 11
110.0058236239697
 21
46.86888643370155
 31
0.0
  0
LINE
  5
164
330
6C
100
AcDbEntity
  8
Visible (ANSI)
100
AcDbLine
 10
109.940772371398
 20
46.90634695865876
 30
0.0
 11
109.4200499381914
 21
46.60648285253113
 31
0.0
  0
LINE
  5
165
330
6C
100
AcDbEntity
  8
Visible (ANSI)
100
AcDbLine
 10
109.4851011907632
 20
46.56902232757393
 30
0.0
 11
109.4200499381914
 21
46.60648285253113
 31
0.0
  0
LINE
  5
166
330
6C
100
AcDbEntity
  8
Visible (ANSI)
100
AcDbLine
 10
110.0058236239697
 20
46.86888643370155
 30
0.0
 11
109.940772371398
 21
46.90634695865876
 31
0.0
  0
LINE
  5
167
330
6C
100
AcDbEntity
  8
Visible (ANSI)
100
AcDbLine
 10
109.3116080422286
 20
46.55280696927177
 30
0.0
 11
109.3766592948004
 21
46.59026749422898
 31
0.0
  0
SPLINE
  5
168
330
6C
100
AcDbEntity
  8
Visible (ANSI)
100
AcDbSpline
210
0.0
220
0.0
230
1.0
 70
     8
 71
     3
 72
    11
 73
     7
 74
     0
 42
0.0000000001
 43
0.0000000001
 40
0.0
 40
0.0
 40
0.0
 40
0.0
 40
1.049080005790814
 40
1.049080005790814
 40
1.049080005790814
 40
1.570796326794879
 40
1.570796326794879
 40
1.570796326794879
 40
1.570796326794879
 10
109.3116080422287
 20
46.55280696927177
 30
0.0
 10
109.3419427411069
 20
46.5389482684703
 30
0.0
 10
109.3889120826562
 20
46.53533798987328
 30
0.0
 10
109.4303290771295
 20
46.54538673734058
 30
0.0
 10
109.4509260972465
 20
46.55038406407484
 30
0.0
 10
109.4700154895677
 20
46.55853982108229
 30
0.0
 10
109.4851011907632
 20
46.56902232757393
 30
0.0
  0
SPLINE
  5
169
330
6C
100
AcDbEntity
  8
Visible (ANSI)
100
AcDbSpline
210
0.0
220
0.0
230
1.0
 70
     8
 71
     3
 72
    11
 73
     7
 74
     0
 42
0.0000000001
 43
0.0000000001
 40
0.0
 40
0.0
 40
0.0
 40
0.0
 40
1.049080005790672
 40
1.049080005790672
 40
1.049080005790672
 40
1.570796326794879
 40
1.570796326794879
 40
1.570796326794879
 40
1.570796326794879
 10
109.3116080422287
 20
25.08096630400775
 30
0.0
 10
109.3419427411069
 20
25.05988782221947
 30
0.0
 10
109.3889120826562
 20
25.04905776263565
 30
0.0
 10
109.4303290771294
 20
25.05188672911613
 30
0.0
 10
109.4509260972465
 20
25.05329359796912
 30
0.0
 10
109.4700154895677
 20
25.05785889709527
 30
0.0
 10
109.4851011907632
 20
25.06475094570562
 30
0.0
  0
LINE
  5
16A
330
6C
100
AcDbEntity
  8
Visible (ANSI)
100
AcDbLine
 10
109.412379483646
 20
25.02254875514049
 30
0.0
 11
109.9331019168525
 21
25.32241286126811
 31
0.0
  0
LINE
  5
16B
330
6C
100
AcDbEntity
  8
Visible (ANSI)
100
AcDbLine
 10
109.412379483646
 20
25.02254875514049
 30
0.0
 11
109.412379483646
 21
25.05144742412067
 31
0.0
  0
LINE
  5
16C
330
6C
100
AcDbEntity
  8
Visible (ANSI)
100
AcDbLine
 10
109.9331019168525
 20
25.32241286126811
 30
0.0
 11
109.9331019168525
 21
25.32273740587414
 31
0.0
  0
SPLINE
  5
16D
330
6C
100
AcDbEntity
  8
Visible (ANSI)
100
AcDbSpline
210
0.0
220
0.0
230
1.0
 70
     8
 71
     3
 72
    11
 73
     7
 74
     0
 42
0.0000000001
 43
0.0000000001
 40
0.0
 40
0.0
 40
0.0
 40
0.0
 40
1.049080005790748
 40
1.049080005790748
 40
1.049080005790748
 40
1.570796326794903
 40
1.570796326794903
 40
1.570796326794903
 40
1.570796326794903
 10
109.3116080422287
 20
25.08096630400777
 30
0.0
 10
109.3147302818766
 20
25.04409576458348
 30
0.0
 10
109.3350681792027
 20
25.01781082462509
 30
0.0
 10
109.3644895439784
 20
25.0136784329291
 30
0.0
 10
109.3791210364336
 20
25.01162335974052
 30
0.0
 10
109.3957410663817
 20
25.01475562730601
 30
0.0
 10
109.412379483646
 20
25.02254875514049
 30
0.0
  0
SPLINE
  5
16E
330
6C
100
AcDbEntity
  8
Visible (ANSI)
100
AcDbSpline
210
0.0
220
0.0
230
1.0
 70
     8
 71
     3
 72
     8
 73
     4
 74
     0
 42
0.0000000001
 43
0.0000000001
 40
0.0
 40
0.0
 40
0.0
 40
0.0
 40
0.7873318718204803
 40
0.7873318718204803
 40
0.7873318718204803
 40
0.7873318718204803
 10
94.9058450113875
 20
33.3766935069368
 30
0.0
 10
94.90350177848561
 20
33.35172101719574
 30
0.0
 10
94.91085520324599
 20
33.33271082852319
 30
0.0
 10
94.92446768681093
 20
33.32455246377235
 30
0.0
  0
LINE
  5
16F
330
6C
100
AcDbEntity
  8
Visible (ANSI)
100
AcDbLine
 10
95.35811430829415
 20
33.62820700902373
 30
0.0
 11
95.49928915171125
 21
33.70950419449027
 31
0.0
  0
LINE
  5
170
330
6C
100
AcDbEntity
  8
Visible (ANSI)
100
AcDbLine
 10
94.90584501138744
 20
54.96465759012736
 30
0.0
 11
94.97640416967284
 21
55.0052899070377
 31
0.0
  0
LINE
  5
171
330
6C
100
AcDbEntity
  8
Visible (ANSI)
100
AcDbLine
 10
95.49161869716579
 20
33.72278978942948
 30
0.0
 11
95.35040077172718
 21
33.64146779467676
 31
0.0
  0
SPLINE
  5
172
330
6C
100
AcDbEntity
  8
Visible (ANSI)
100
AcDbSpline
210
0.0
220
0.0
230
1.0
 70
     8
 71
     3
 72
     8
 73
     4
 74
     0
 42
0.0000000001
 43
0.0000000001
 40
0.0
 40
0.0
 40
0.0
 40
0.0
 40
0.7853981633975992
 40
0.7853981633975992
 40
0.7853981633975992
 40
0.7853981633975992
 10
94.90584501138748
 20
33.3766935069368
 30
0.0
 10
94.88313481135064
 20
33.38706888164271
 30
0.0
 10
94.87039934606661
 20
33.40281326637188
 30
0.0
 10
94.87012379008652
 20
33.41856548107728
 30
0.0
  0
LINE
  5
173
330
6C
100
AcDbEntity
  8
Visible (ANSI)
100
AcDbLine
 10
94.90584501138744
 20
54.96465759012736
 30
0.0
 11
94.93053075801309
 21
54.95044201408543
 31
0.0
  0
SPLINE
  5
174
330
6C
100
AcDbEntity
  8
Visible (ANSI)
100
AcDbSpline
210
0.0
220
0.0
230
1.0
 70
     8
 71
     3
 72
    11
 73
     7
 74
     0
 42
0.0000000001
 43
0.0000000001
 40
0.0
 40
0.0
 40
0.0
 40
0.0
 40
1.049080005790748
 40
1.049080005790748
 40
1.049080005790748
 40
1.57079632679489
 40
1.57079632679489
 40
1.57079632679489
 40
1.57079632679489
 10
94.90584501138748
 20
54.8485341722008
 30
0.0
 10
94.87551031250927
 20
54.86961265398909
 30
0.0
 10
94.8629722863164
 20
54.90027038940126
 30
0.0
 10
94.87415354209858
 20
54.92773074078172
 30
0.0
 10
94.87971407475452
 20
54.94138700476219
 30
0.0
 10
94.89075931019197
 20
54.95417508363573
 30
0.0
 10
94.90584501138744
 20
54.96465759012735
 30
0.0
  0
SPLINE
  5
175
330
6C
100
AcDbEntity
  8
Visible (ANSI)
100
AcDbSpline
210
0.0
220
0.0
230
1.0
 70
     8
 71
     3
 72
    11
 73
     7
 74
     0
 42
0.0000000001
 43
0.0000000001
 40
0.0
 40
0.0
 40
0.0
 40
0.0
 40
1.48347478762454
 40
1.48347478762454
 40
1.48347478762454
 40
1.570796326794647
 40
1.570796326794647
 40
1.570796326794647
 40
1.570796326794647
 10
109.3766592948004
 20
46.59026749422898
 30
0.0
 10
109.3810743668379
 20
46.60012876757028
 30
0.0
 10
109.3946054194717
 20
46.61433861867691
 30
0.0
 10
109.4097077703776
 20
46.61903228046763
 30
0.0
 10
109.4105967376437
 20
46.61930856273095
 30
0.0
 10
109.411488110339
 20
46.61955445383674
 30
0.0
 10
109.4123794836459
 20
46.61976844747035
 30
0.0
  0
LINE
  5
176
330
6C
100
AcDbEntity
  8
Visible (ANSI)
100
AcDbLine
 10
109.4123794836459
 20
46.69497981005721
 30
0.0
 11
109.9331019168525
 21
46.99484391618481
 31
0.0
  0
LINE
  5
177
330
6C
100
AcDbEntity
  8
Visible (ANSI)
100
AcDbLine
 10
94.9785667185047
 20
55.00685978069252
 30
0.0
 11
95.49928915171125
 21
55.30672388682011
 31
0.0
  0
SPLINE
  5
178
330
6C
100
AcDbEntity
  8
Visible (ANSI)
100
AcDbSpline
210
0.0
220
0.0
230
1.0
 70
     8
 71
     3
 72
    11
 73
     7
 74
     0
 42
0.0000000001
 43
0.0000000001
 40
0.0
 40
0.0
 40
0.0
 40
0.0
 40
1.049080005790959
 40
1.049080005790959
 40
1.049080005790959
 40
1.570796326794879
 40
1.570796326794879
 40
1.570796326794879
 40
1.570796326794879
 10
94.90584501138748
 20
54.84853417220081
 30
0.0
 10
94.90272277173955
 20
54.88540471162509
 30
0.0
 10
94.91681618976988
 20
54.93151732741186
 30
0.0
 10
94.93999307524967
 20
54.96593903696879
 30
0.0
 10
94.95151913556739
 20
54.98305724299082
 30
0.0
 10
94.965033733378
 20
54.99727835342502
 30
0.0
 10
94.97856671850469
 20
55.00685978069252
 30
0.0
  0
LINE
  5
179
330
6C
100
AcDbEntity
  8
Visible (ANSI)
100
AcDbLine
 10
109.4123794836459
 20
46.69497981005721
 30
0.0
 11
109.4123794836459
 21
46.61976844747034
 31
0.0
  0
SPLINE
  5
17A
330
6C
100
AcDbEntity
  8
Visible (ANSI)
100
AcDbSpline
210
0.0
220
0.0
230
1.0
 70
     8
 71
     3
 72
    11
 73
     7
 74
     0
 42
0.0000000001
 43
0.0000000001
 40
0.0
 40
0.0
 40
0.0
 40
0.0
 40
1.0490800057906
 40
1.0490800057906
 40
1.0490800057906
 40
1.570796326794647
 40
1.570796326794647
 40
1.570796326794647
 40
1.570796326794647
 10
109.3116080422287
 20
46.55280696927177
 30
0.0
 10
109.3147302818766
 20
46.58608155222697
 30
0.0
 10
109.3350681792027
 20
46.62859821154465
 30
0.0
 10
109.3644895439783
 20
46.65942396463251
 30
0.0
 10
109.3791210364336
 20
46.67475387122153
 30
0.0
 10
109.3957410663817
 20
46.68718668222274
 30
0.0
 10
109.4123794836459
 20
46.69497981005721
 30
0.0
  0
LINE
  5
17B
330
6C
100
AcDbEntity
  8
Visible (ANSI)
100
AcDbLine
 10
109.4123794836459
 20
46.61976844747034
 30
0.0
 11
109.9331019168525
 21
46.91963255359794
 31
0.0
  0
LINE
  5
17C
330
6C
100
AcDbEntity
  8
Visible (ANSI)
100
AcDbLine
 10
109.9331019168525
 20
46.99484391618481
 30
0.0
 11
109.9331019168525
 21
46.91963255359794
 31
0.0
  0
LINE
  5
17D
330
6C
100
AcDbEntity
  8
Visible Narrow (ANSI)
100
AcDbLine
 10
109.4851011907632
 20
46.56902232757393
 30
0.0
 11
109.4851011907632
 21
25.06475094570562
 31
0.0
  0
LINE
  5
17E
330
6C
100
AcDbEntity
  8
Visible Narrow (ANSI)
100
AcDbLine
 10
109.3116080422287
 20
25.08096630400777
 30
0.0
 11
109.3116080422286
 21
46.55280696927177
 31
0.0
  0
LINE
  5
17F
330
6C
100
AcDbEntity
  8
Visible Narrow (ANSI)
100
AcDbLine
 10
94.9058450113875
 20
33.3766935069368
 30
0.0
 11
109.3116080422287
 21
25.08096630400777
 31
0.0
  0
LINE
  5
180
330
6C
100
AcDbEntity
  8
Visible Narrow (ANSI)
100
AcDbLine
 10
94.90584501138748
 20
54.84853417220081
 30
0.0
 11
94.9058450113875
 21
33.3766935069368
 31
0.0
  0
LINE
  5
181
330
6C
100
AcDbEntity
  8
Visible Narrow (ANSI)
100
AcDbLine
 10
94.9785667185047
 20
55.00685978069252
 30
0.0
 11
109.4123794836459
 21
46.69497981005721
 31
0.0
  0
LINE
  5
182
330
6C
100
AcDbEntity
  8
Visible Narrow (ANSI)
100
AcDbLine
 10
109.3116080422286
 20
46.55280696927177
 30
0.0
 11
94.90584501138748
 21
54.84853417220081
 31
0.0
  0
LINE
  5
183
330
6C
100
AcDbEntity
  8
Visible (ANSI)
100
AcDbLine
 10
94.92434152256327
 20
33.32438479066299
 30
0.0
 11
109.3441639508157
 21
25.02056131922588
 31
0.0
  0
LINE
  5
184
330
6C
100
AcDbEntity
  8
Visible (ANSI)
100
AcDbLine
 10
94.86991340383655
 20
54.9065958811641
 30
0.0
 11
94.86991340383658
 21
33.41853985759794
 31
0.0
  0
LINE
  5
185
330
6C
100
AcDbEntity
  8
Visible (ANSI)
100
AcDbLine
 10
110.0058236239698
 20
25.36461505183325
 30
0.0
 11
110.0058236239697
 21
46.86888643370155
 31
0.0
  0
LINE
  5
186
330
6C
100
AcDbEntity
  8
Visible (ANSI)
100
AcDbLine
 10
95.49928915171125
 20
33.70950419449027
 30
0.0
 11
95.61166567823489
 21
33.64479085677556
 31
0.0
  0
LINE
  5
187
330
6C
100
AcDbEntity
  8
Visible (ANSI)
100
AcDbLine
 10
96.77183647941399
 20
32.97669292577527
 30
0.0
 11
96.90337121050218
 21
32.90094711179221
 31
0.0
  0
LINE
  5
188
330
6C
100
AcDbEntity
  8
Visible (ANSI)
100
AcDbLine
 10
107.3591534668178
 20
26.87986255654004
 30
0.0
 11
107.490688197906
 21
26.80411674255697
 31
0.0
  0
LINE
  5
189
330
6C
100
AcDbEntity
  8
Visible (ANSI)
100
AcDbLine
 10
108.6605166193181
 20
26.13045735794186
 30
0.0
 11
108.9759838426627
 21
25.94879186610157
 31
0.0
  0
LINE
  5
18A
330
6C
100
AcDbEntity
  8
Visible (ANSI)
100
AcDbLine
 10
95.49161869716579
 20
54.12222781042724
 30
0.0
 11
95.49161869716579
 21
53.75812332233803
 31
0.0
  0
LINE
  5
18B
330
6C
100
AcDbEntity
  8
Visible (ANSI)
100
AcDbLine
 10
95.49161869716579
 20
33.85449136092176
 30
0.0
 11
95.49161869716579
 21
33.72278978942948
 31
0.0
  0
LINE
  5
18C
330
6C
100
AcDbEntity
  8
Visible (ANSI)
100
AcDbLine
 10
109.9331019168525
 20
46.99484391618481
 30
0.0
 11
95.49928915171125
 21
55.30672388682011
 31
0.0
  0
DIMENSION
  5
18D
330
6C
100
AcDbEntity
  8
Dimension (ANSI)
100
AcDbDimension
  2
*D4
 10
47.68210102453095
 20
27.51463359741296
 30
0.0
 11
45.62899402624135
 21
22.92241375189602
 31
0.0
 70
   160
  1
<>{\PTYP.}
 71
     5
 42
0.875
  3
Default (ANSI)
100
AcDbAlignedDimension
 13
41.48941829684374
 23
26.63963359741296
 33
0.0
 14
40.7191668402998
 24
27.51463359741296
 34
0.0
 50
90.0
100
AcDbRotatedDimension
1001
ACAD
1000
DSTYLE
1002
{
1070
   289
1070
     1
1070
   271
1070
     2
1070
   272
1070
     2
1070
    48
1040
0.0
1070
    47
1040
0.0
1002
}
  0
DIMENSION
  5
2A6
330
6C
100
AcDbEntity
  8
Dimension (ANSI)
100
AcDbDimension
  2
*D5
 10
49.50659796756674
 20
53.63963359741294
 30
0.0
 11
49.50659796756673
 21
40.13963359741296
 31
0.0
 70
   160
  1
<>
 42
26.99999999999998
  3
Default (ANSI)
100
AcDbAlignedDimension
 13
41.48941829684374
 23
26.63963359741296
 33
0.0
 14
41.48941829684374
 24
53.63963359741294
 34
0.0
 50
90.0
100
AcDbRotatedDimension
1001
ACAD
1000
DSTYLE
1002
{
1070
   289
1070
     1
1070
   271
1070
     2
1070
   272
1070
     2
1070
    48
1040
0.0
1070
    47
1040
0.0
1002
}
  0
DIMENSION
  5
390
330
6C
100
AcDbEntity
  8
Dimension (ANSI)
100
AcDbDimension
  2
*D6
 10
41.5941668402998
 20
58.8131008237609
 30
0.0
 11
31.09416684029978
 21
58.8131008237609
 31
0.0
 70
   160
  1
<>
 42
21.00000000000001
  3
Default (ANSI)
100
AcDbAlignedDimension
 13
20.59416684029979
 23
53.53488505395691
 33
0.0
 14
41.5941668402998
 24
53.53488505395692
 34
0.0
100
AcDbRotatedDimension
1001
ACAD
1000
DSTYLE
1002
{
1070
   289
1070
     1
1070
    73
1070
     0
1070
    74
1070
     0
1070
   271
1070
     2
1070
   272
1070
     2
1070
    48
1040
0.0
1070
    47
1040
0.0
1002
}
  0
DIMENSION
  5
47A
330
6C
100
AcDbEntity
  8
Dimension (ANSI)
100
AcDbDimension
  2
*D7
 10
41.5941668402998
 20
55.62791205124259
 30
0.0
 11
44.96702816275463
 21
55.62791205124259
 31
0.0
 70
   160
  1
<>{\PTYP.}
 71
     5
 42
0.875
  3
Default (ANSI)
100
AcDbAlignedDimension
 13
40.7191668402998
 23
52.76463359741296
 33
0.0
 14
41.5941668402998
 24
53.53488505395692
 34
0.0
 50
180.0
100
AcDbRotatedDimension
1001
ACAD
1000
DSTYLE
1002
{
1070
   289
1070
     1
1070
    73
1070
     0
1070
    74
1070
     0
1070
   271
1070
     2
1070
   272
1070
     2
1070
    48
1040
0.0
1070
    47
1040
0.0
1002
}
  0
DIMENSION
  5
578
330
6C
100
AcDbEntity
  8
Dimension (ANSI)
100
AcDbDimension
  2
*D8
 10
38.71916684029981
 20
22.93338807128554
 30
0.0
 11
35.28089041357573
 21
22.93338807128554
 31
0.0
 70
   160
  1
<>{\PTYP.}
 71
     5
 42
1.999999999999992
  3
Default (ANSI)
100
AcDbAlignedDimension
 13
40.7191668402998
 23
27.51463359741296
 33
0.0
 14
38.71916684029981
 24
27.51463359741296
 34
0.0
 50
180.0
100
AcDbRotatedDimension
1001
ACAD
1000
DSTYLE
1002
{
1070
   289
1070
     1
1070
    73
1070
     0
1070
    74
1070
     0
1070
   271
1070
     2
1070
   272
1070
     2
1070
    48
1040
0.0
1070
    47
1040
0.0
1002
}
  0
DIMENSION
  5
676
330
6C
100
AcDbEntity
  8
Dimension (ANSI)
100
AcDbDimension
  2
*D9
 10
47.02477186970967
 20
74.00234290732092
 30
0.0
 11
44.97166487142008
 21
70.14958756959029
 31
0.0
 70
   160
  1
<>{\PTYP.}
 71
     5
 42
0.8750000000000284
  3
Default (ANSI)
100
AcDbAlignedDimension
 13
41.46921684030969
 23
73.12734290732089
 33
0.0
 14
41.48941829685365
 24
74.00234290732092
 34
0.0
 50
90.0
100
AcDbRotatedDimension
1001
ACAD
1000
DSTYLE
1002
{
1070
   289
1070
     1
1070
   271
1070
     2
1070
   272
1070
     2
1070
    48
1040
0.0
1070
    47
1040
0.0
1002
}
  0
DIMENSION
  5
78C
330
6C
100
AcDbEntity
  8
Dimension (ANSI)
100
AcDbDimension
  2
*D10
 10
70.50801967384365
 20
49.0501573182635
 30
0.0
 11
74.64937214268791
 21
49.0501573182635
 31
0.0
 70
   160
  1
<>{\PTYP.}
 71
     5
 42
0.8750000000000426
  3
Default (ANSI)
100
AcDbAlignedDimension
 13
71.38301967384369
 23
49.0501573182635
 33
0.0
 14
70.50801967384365
 24
49.04194793375419
 34
0.0
100
AcDbRotatedDimension
1001
ACAD
1000
DSTYLE
1002
{
1070
   289
1070
     1
1070
    73
1070
     0
1070
    74
1070
     0
1070
   271
1070
     2
1070
    76
1070
     1
1070
    75
1070
     1
1070
   272
1070
     2
1070
    48
1040
0.0
1070
    47
1040
0.0
1002
}
  0
DIMENSION
  5
87B
330
6C
100
AcDbEntity
  8
Dimension (ANSI)
100
AcDbDimension
  2
*D11
 10
21.66821739920381
 20
27.71368415631695
 30
0.0
 11
12.97845734894721
 21
22.17412508299148
 31
0.0
 70
   163
  1
<>{\PTYP.\P(4 PL.)}
 71
     2
 42
0.5629999999999999
  3
Default (ANSI)
100
AcDbDiametricDimension
 15
21.27011628139572
 25
27.31558303850898
 35
0.0
 40
0.0
1001
ACAD_DSTYLE_DIMRADIAL_EXTENSION
1070
   387
1070
     1
1070
   388
1040
0.0
1070
   390
1040
0.0
1001
ACAD
1000
DSTYLE
1002
{
1070
   145
1040
-0.3333333333333334
1070
   144
1040
0.9999999999999957
1070
   271
1070
     2
1070
   272
1070
     2
1070
    48
1040
0.0
1070
    47
1040
0.0
1002
}
  0
DIMENSION
  5
935
330
6C
100
AcDbEntity
  8
Dimension (ANSI)
100
AcDbDimension
  2
*D12
 10
23.5794754981649
 20
27.40432493954788
 30
0.0
 11
12.30439024207544
 21
35.52920921870559
 31
0.0
 70
   163
  1
<>{\PTYP.\P(2 PL.)}
 71
     2
 42
0.312
  3
Default (ANSI)
100
AcDbDiametricDimension
 15
23.35885818243466
 25
27.62494225527805
 35
0.0
 40
0.0
1001
ACAD_DSTYLE_DIMRADIAL_EXTENSION
1070
   387
1070
     1
1070
   388
1040
0.0
1070
   390
1040
0.0
1001
ACAD
1000
DSTYLE
1002
{
1070
   145
1040
-0.3333333333333334
1070
   144
1040
1.000000000000019
1070
   271
1070
     2
1070
   272
1070
     2
1070
    48
1040
0.0
1070
    47
1040
0.0
1002
}
  0
MTEXT
  5
9EE
102
{ACAD_XDICTIONARY
360
A0A
102
}
330
6C
100
AcDbEntity
  8
Symbol (ANSI)
100
AcDbMText
 10
64.36186062081687
 20
9.094307330706515
 30
0.0
 40
0.7272727504831257
 41
63.0832234701894
 71
     4
 72
     1
  3
{\fRomanS|b0|i0|c0|p2;\H1.9999x;PART#: ALNP3024\P(DATA SUBJECT TO CHANGE WITHOUT NOTICE)\H1.4011x; \H0.71374x;\P \H1.1072x; \H0.9032x;\P\H0.6x;THIS DRAWING IS PROPERTY OF HUBBELL INC. WIEGMANN\H1.2422x; \H0.80502x;\PALL INFORMATION IS PROPRIETARY AND
  1
 NOT TO BE DUPLICATED\H1.0095x; \H0.82557x;\P\H1.0785x; }
  7
Note Text (ANSI)
 73
     1
 44
0.9303776025772094
1001
ACAD
1000
MTEXTBEGIN
1070
    73
1070
     1
1070
    44
1040
0.9303776025772094
1070
    74
1070
     0
1000
MTEXTEND
  0
LINE
  5
9F0
330
6C
100
AcDbEntity
  8
Center Mark (ANSI)
  6
CHAIN
 48
0.1817859262228012
100
AcDbLine
 10
22.65975774939068
 20
52.76463359741296
 30
0.0
 11
20.27857593120887
 21
52.76463359741296
 31
0.0
  0
LINE
  5
9F1
330
6C
100
AcDbEntity
  8
Center Mark (ANSI)
  6
CHAIN
 48
0.1817859262228012
100
AcDbLine
 10
41.90975774939071
 20
52.76463359741296
 30
0.0
 11
39.52857593120889
 21
52.76463359741296
 31
0.0
  0
LINE
  5
9F2
330
6C
100
AcDbEntity
  8
Centerline (ANSI)
  6
CHAIN
 48
0.9524481296539306
100
AcDbLine
 10
20.27857593120887
 20
52.76463359741296
 30
0.0
 11
41.90975774939071
 21
52.76463359741296
 31
0.0
  0
LINE
  5
9F3
330
6C
100
AcDbEntity
  8
Center Mark (ANSI)
  6
CHAIN
 48
0.1817859262228012
100
AcDbLine
 10
22.65975774939068
 20
27.51463359741296
 30
0.0
 11
20.27857593120885
 21
27.51463359741296
 31
0.0
  0
LINE
  5
9F4
330
6C
100
AcDbEntity
  8
Center Mark (ANSI)
  6
CHAIN
 48
0.1817859262228012
100
AcDbLine
 10
41.90975774939071
 20
27.51463359741296
 30
0.0
 11
39.52857593120889
 21
27.51463359741296
 31
0.0
  0
LINE
  5
9F5
330
6C
100
AcDbEntity
  8
Centerline (ANSI)
  6
CHAIN
 48
0.9524481296539306
100
AcDbLine
 10
20.27857593120885
 20
27.51463359741296
 30
0.0
 11
41.90975774939071
 21
27.51463359741296
 31
0.0
  0
LINE
  5
9F6
330
6C
100
AcDbEntity
  8
Centerline (ANSI)
  6
CHAIN
 48
0.9524481296539306
100
AcDbLine
 10
21.46916684029978
 20
53.95522450650387
 30
0.0
 11
21.46916684029976
 21
26.32404268832206
 31
0.0
  0
LINE
  5
9F7
330
6C
100
AcDbEntity
  8
Centerline (ANSI)
  6
CHAIN
 48
0.9524481296539306
100
AcDbLine
 10
40.7191668402998
 20
53.95522450650387
 30
0.0
 11
40.7191668402998
 21
26.32404268832206
 31
0.0
  0
LINE
  5
9F8
330
6C
100
AcDbEntity
  8
Center Mark (ANSI)
  6
CHAIN
 48
0.1626133620738983
100
AcDbLine
 10
24.53425774939069
 20
27.51463359741296
 30
0.0
 11
22.40407593120888
 21
27.51463359741296
 31
0.0
  0
LINE
  5
9F9
330
6C
100
AcDbEntity
  8
Center Mark (ANSI)
  6
CHAIN
 48
0.1626133620738983
100
AcDbLine
 10
23.46916684029979
 20
28.57972450650387
 30
0.0
 11
23.46916684029979
 21
26.44954268832205
 31
0.0
  0
LINE
  5
9FA
330
6C
100
AcDbEntity
  8
Center Mark (ANSI)
  6
CHAIN
 48
0.1626133620738983
100
AcDbLine
 10
39.78425774939071
 20
27.51463359741296
 30
0.0
 11
37.65407593120889
 21
27.51463359741296
 31
0.0
  0
LINE
  5
9FB
330
6C
100
AcDbEntity
  8
Center Mark (ANSI)
  6
CHAIN
 48
0.1626133620738983
100
AcDbLine
 10
38.71916684029981
 20
28.57972450650387
 30
0.0
 11
38.71916684029981
 21
26.44954268832205
 31
0.0
  0
ENDSEC
  0
SECTION
  2
OBJECTS
  0
DICTIONARY
  5
C
330
0
100
AcDbDictionary
281
     1
  3
ACAD_CIP_PREVIOUS_PRODUCT_INFO
350
9FC
  3
ACAD_COLOR
350
63
  3
ACAD_GROUP
350
D
  3
ACAD_LAYOUT
350
62
  3
ACAD_MATERIAL
350
10
  3
ACAD_MLEADERSTYLE
350
66
  3
ACAD_MLINESTYLE
350
5F
  3
ACAD_PLOTSETTINGS
350
61
  3
ACAD_PLOTSTYLENAME
350
E
  3
ACAD_SCALELIST
350
42
  3
ACAD_TABLESTYLE
350
64
  3
ACAD_VISUALSTYLE
350
29
  3
ACDB_RECOMPOSE_DATA
350
A0C
  3
AcDbVariableDictionary
350
76
  3
DWGPROPS
350
A0D
  0
DICTIONARY
  5
A49
330
92F
100
AcDbDictionary
280
     1
281
     1
  3
ACAD_MTEXT_RT
360
A4A
  0
DICTIONARY
  5
A4B
330
9E8
100
AcDbDictionary
280
     1
281
     1
  3
ACAD_MTEXT_RT
360
A4C
  0
DICTIONARY
  5
A0A
330
9EE
100
AcDbDictionary
280
     1
281
     1
  3
ACAD_MTEXT_2008_RT
360
A0B
  0
XRECORD
  5
9FC
102
{ACAD_REACTORS
330
C
102
}
330
C
100
AcDbXrecord
280
     1
300
INVNTOR
300
2012
300
85795PDSP_2012_0F
  0
DICTIONARY
  5
63
102
{ACAD_REACTORS
330
C
102
}
330
C
100
AcDbDictionary
281
     1
  0
DICTIONARY
  5
D
102
{ACAD_REACTORS
330
C
102
}
330
C
100
AcDbDictionary
281
     1
  0
DICTIONARY
  5
62
102
{ACAD_REACTORS
330
C
102
}
330
C
100
AcDbDictionary
281
     1
  3
Layout1
350
6B
  3
Layout2
350
73
  3
Model
350
6F
  0
DICTIONARY
  5
10
102
{ACAD_REACTORS
330
C
102
}
330
C
100
AcDbDictionary
281
     1
  3
ByBlock
350
19
  3
ByLayer
350
11
  3
Global
350
21
  0
DICTIONARY
  5
66
102
{ACAD_REACTORS
330
C
102
}
330
C
100
AcDbDictionary
281
     1
  3
Standard
350
67
  0
DICTIONARY
  5
5F
102
{ACAD_REACTORS
330
C
102
}
330
C
100
AcDbDictionary
281
     1
  3
Standard
350
60
  0
DICTIONARY
  5
61
102
{ACAD_REACTORS
330
C
102
}
330
C
100
AcDbDictionary
281
     1
  0
ACDBDICTIONARYWDFLT
  5
E
102
{ACAD_REACTORS
330
C
102
}
330
C
100
AcDbDictionary
281
     1
  3
Normal
350
F
100
AcDbDictionaryWithDefault
340
F
  0
DICTIONARY
  5
42
102
{ACAD_REACTORS
330
C
102
}
330
C
100
AcDbDictionary
281
     1
  3
A0
350
43
  3
A1
350
44
  3
A2
350
45
  3
A3
350
46
  3
A4
350
47
  3
A5
350
48
  3
A6
350
49
  3
A7
350
4A
  3
A8
350
4B
  3
A9
350
4C
  3
B0
350
4D
  3
B1
350
4E
  3
B2
350
4F
  3
B3
350
50
  3
B4
350
51
  3
B5
350
52
  3
B6
350
53
  0
DICTIONARY
  5
64
102
{ACAD_REACTORS
330
C
102
}
330
C
100
AcDbDictionary
281
     1
  3
Standard
350
65
  0
DICTIONARY
  5
29
102
{ACAD_REACTORS
330
C
102
}
330
C
100
AcDbDictionary
281
     1
  3
2dWireframe
350
2F
  3
Basic
350
2E
  3
Brighten
350
35
  3
ColorChange
350
39
  3
Conceptual
350
32
  3
Dim
350
34
  3
EdgeColorOff
350
41
  3
Facepattern
350
38
  3
Flat
350
2A
  3
FlatWithEdges
350
2B
  3
Gouraud
350
2C
  3
GouraudWithEdges
350
2D
  3
Hidden
350
31
  3
JitterOff
350
3F
  3
Linepattern
350
37
  3
OverhangOff
350
40
  3
Realistic
350
33
  3
Shaded
350
3E
  3
Shaded with edges
350
3D
  3
Shades of Gray
350
3A
  3
Sketchy
350
3B
  3
Thicken
350
36
  3
Wireframe
350
30
  3
X-Ray
350
3C
  0
XRECORD
  5
A0C
102
{ACAD_REACTORS
330
C
102
}
330
C
100
AcDbXrecord
280
     1
 90
        1
330
65
330
9EE
  0
DICTIONARY
  5
76
102
{ACAD_REACTORS
330
C
102
}
330
C
100
AcDbDictionary
281
     1
  3
CANNOSCALE
350
79
  3
CMLEADERSTYLE
350
78
  3
CTABLESTYLE
350
77
  3
DIMASSOC
350
A04
  3
HIDETEXT
350
A03
  3
INDEXCTL
350
A02
  3
LAYEREVAL
350
9FF
  3
LAYERNOTIFY
350
A00
  3
LIGHTINGUNITS
350
9FE
  3
MSLTSCALE
350
9FD
  3
SORTENTS
350
A01
  3
XCLIPFRAME
350
A05
  0
XRECORD
  5
A0D
102
{ACAD_REACTORS
330
C
102
}
330
C
100
AcDbXrecord
280
     1
  1
DWGPROPS COOKIE
  2

  3

  4
jfielder
  6

  7

  8

  9
-
300
Manager=
301
Company=
302
Category=
303
Part Number=HWDALNP3024-S
304
Description=
305
Project=
306
Designer=jfielder
307
Engineer=
308
Authority=
309
Cost Center=
 40
0.0000352662037037
 41
2455986.401147801
 42
2455986.401147801
  1

 90
       19
300
Vendor=
300
User Status=
300
Design Status=WorkInProgress
300
Checked by=
300
Engr Approved by=
300
Mfg Approved by=
300
DWG. NO=
300
NUMBER OF SHEETS=1
300
DRAWING #=
  0
XRECORD
  5
A4A
102
{ACAD_REACTORS
330
A49
102
}
330
A49
100
AcDbXrecord
280
     1
 40
35902.0
  1
\A1;\U+22050.56{\PTYP.\P(4 PL.)}
  0
XRECORD
  5
A4C
102
{ACAD_REACTORS
330
A4B
102
}
330
A4B
100
AcDbXrecord
280
     1
 40
35747.0
  1
\A1;\U+22050.31{\PTYP.\P(2 PL.)}
  0
XRECORD
  5
A0B
102
{ACAD_REACTORS
330
A0A
102
}
330
A0A
100
AcDbXrecord
280
     1
 40
3180845.0
  1
\pxsm0.94;{\fRomanS|b0|i0;\H1.4545;PART#: ALNP3024\P(DATA SUBJECT TO CHANGE WITHOUT NOTICE)\P \P\fRomanS|b0|i0;\H0.8727;THIS DRAWING IS PROPERTY OF HUBBELL INC. WIEGMANN\PALL INFORMATION IS PROPRIETARY AND NOT TO BE DUPLICATED\fRomanS|b0|i0;\H0.7273;
  1
\P}
  0
LAYOUT
  5
6B
102
{ACAD_XDICTIONARY
360
A43
102
}
102
{ACAD_REACTORS
330
62
102
}
330
62
100
AcDbPlotSettings
  1

  2

  4

  6

 40
0.0
 41
0.0
 42
0.0
 43
0.0
 44
0.0
 45
0.0
 46
0.0
 47
0.0
 48
0.0
 49
0.0
140
0.0
141
0.0
142
1.0
143
1.0
 70
   688
 72
     0
 73
     0
 74
     5
  7

 75
    16
147
1.0
148
0.0
149
0.0
100
AcDbLayout
  1
Layout1
 70
     1
 71
     1
 10
0.0
 20
0.0
 11
12.0
 21
9.0
 12
0.0
 22
0.0
 32
0.0
 14
0.0
 24
0.0
 34
0.0
 15
0.0
 25
0.0
 35
0.0
146
0.0
 13
0.0
 23
0.0
 33
0.0
 16
1.0
 26
0.0
 36
0.0
 17
0.0
 27
1.0
 37
0.0
 76
     0
330
68
  0
LAYOUT
  5
73
102
{ACAD_XDICTIONARY
360
A47
102
}
102
{ACAD_REACTORS
330
62
102
}
330
62
100
AcDbPlotSettings
  1

  2

  4

  6

 40
0.0
 41
0.0
 42
0.0
 43
0.0
 44
0.0
 45
0.0
 46
0.0
 47
0.0
 48
0.0
 49
0.0
140
0.0
141
0.0
142
1.0
143
1.0
 70
   688
 72
     0
 73
     0
 74
     5
  7

 75
    16
147
1.0
148
0.0
149
0.0
100
AcDbLayout
  1
Layout2
 70
     1
 71
     2
 10
0.0
 20
0.0
 11
12.0
 21
9.0
 12
0.0
 22
0.0
 32
0.0
 14
0.0
 24
0.0
 34
0.0
 15
0.0
 25
0.0
 35
0.0
146
0.0
 13
0.0
 23
0.0
 33
0.0
 16
1.0
 26
0.0
 36
0.0
 17
0.0
 27
1.0
 37
0.0
 76
     0
330
70
  0
LAYOUT
  5
6F
102
{ACAD_XDICTIONARY
360
A45
102
}
102
{ACAD_REACTORS
330
62
102
}
330
62
100
AcDbPlotSettings
  1

  2

  4

  6

 40
0.0
 41
0.0
 42
0.0
 43
0.0
 44
0.0
 45
0.0
 46
0.0
 47
0.0
 48
0.0
 49
0.0
140
0.0
141
0.0
142
1.0
143
1.0
 70
  1712
 72
     0
 73
     0
 74
     0
  7

 75
     0
147
1.0
148
0.0
149
0.0
100
AcDbLayout
  1
Model
 70
     1
 71
     0
 10
0.0
 20
0.0
 11
12.0
 21
9.0
 12
0.0
 22
0.0
 32
0.0
 14
0.0
 24
0.0
 34
0.0
 15
0.0
 25
0.0
 35
0.0
146
0.0
 13
0.0
 23
0.0
 33
0.0
 16
1.0
 26
0.0
 36
0.0
 17
0.0
 27
1.0
 37
0.0
 76
     0
330
6C
  0
MATERIAL
  5
19
102
{ACAD_XDICTIONARY
360
1A
102
}
102
{ACAD_REACTORS
330
10
102
}
330
10
100
AcDbMaterial
  1
ByBlock
 72
     0
 43
0.0208333333333333
 43
0.0
 43
0.0
 43
0.0
 43
0.0
 43
0.0208333333333333
 43
0.0
 43
0.0
 43
0.0
 43
0.0
 43
1.0
 43
0.0
 43
0.0
 43
0.0
 43
0.0
 43
1.0
 77
     0
 47
0.0208333333333333
 47
0.0
 47
0.0
 47
0.0
 47
0.0
 47
0.0208333333333333
 47
0.0
 47
0.0
 47
0.0
 47
0.0
 47
1.0
 47
0.0
 47
0.0
 47
0.0
 47
0.0
 47
1.0
171
     0
 49
0.0208333333333333
 49
0.0
 49
0.0
 49
0.0
 49
0.0
 49
0.0208333333333333
 49
0.0
 49
0.0
 49
0.0
 49
0.0
 49
1.0
 49
0.0
 49
0.0
 49
0.0
 49
0.0
 49
1.0
175
     0
142
0.0208333333333333
142
0.0
142
0.0
142
0.0
142
0.0
142
0.0208333333333333
142
0.0
142
0.0
142
0.0
142
0.0
142
1.0
142
0.0
142
0.0
142
0.0
142
0.0
142
1.0
179
     0
144
0.0208333333333333
144
0.0
144
0.0
144
0.0
144
0.0
144
0.0208333333333333
144
0.0
144
0.0
144
0.0
144
0.0
144
1.0
144
0.0
144
0.0
144
0.0
144
0.0
144
1.0
147
0.0208333333333333
147
0.0
147
0.0
147
0.0
147
0.0
147
0.0208333333333333
147
0.0
147
0.0
147
0.0
147
0.0
147
1.0
147
0.0
147
0.0
147
0.0
147
0.0
147
1.0
  0
MATERIAL
  5
11
102
{ACAD_XDICTIONARY
360
12
102
}
102
{ACAD_REACTORS
330
10
102
}
330
10
100
AcDbMaterial
  1
ByLayer
 72
     0
 43
0.0208333333333333
 43
0.0
 43
0.0
 43
0.0
 43
0.0
 43
0.0208333333333333
 43
0.0
 43
0.0
 43
0.0
 43
0.0
 43
1.0
 43
0.0
 43
0.0
 43
0.0
 43
0.0
 43
1.0
 77
     0
 47
0.0208333333333333
 47
0.0
 47
0.0
 47
0.0
 47
0.0
 47
0.0208333333333333
 47
0.0
 47
0.0
 47
0.0
 47
0.0
 47
1.0
 47
0.0
 47
0.0
 47
0.0
 47
0.0
 47
1.0
171
     0
 49
0.0208333333333333
 49
0.0
 49
0.0
 49
0.0
 49
0.0
 49
0.0208333333333333
 49
0.0
 49
0.0
 49
0.0
 49
0.0
 49
1.0
 49
0.0
 49
0.0
 49
0.0
 49
0.0
 49
1.0
175
     0
142
0.0208333333333333
142
0.0
142
0.0
142
0.0
142
0.0
142
0.0208333333333333
142
0.0
142
0.0
142
0.0
142
0.0
142
1.0
142
0.0
142
0.0
142
0.0
142
0.0
142
1.0
179
     0
144
0.0208333333333333
144
0.0
144
0.0
144
0.0
144
0.0
144
0.0208333333333333
144
0.0
144
0.0
144
0.0
144
0.0
144
1.0
144
0.0
144
0.0
144
0.0
144
0.0
144
1.0
147
0.0208333333333333
147
0.0
147
0.0
147
0.0
147
0.0
147
0.0208333333333333
147
0.0
147
0.0
147
0.0
147
0.0
147
1.0
147
0.0
147
0.0
147
0.0
147
0.0
147
1.0
  0
MATERIAL
  5
21
102
{ACAD_XDICTIONARY
360
22
102
}
102
{ACAD_REACTORS
330
10
102
}
330
10
100
AcDbMaterial
  1
Global
 72
     0
 43
0.0208333333333333
 43
0.0
 43
0.0
 43
0.0
 43
0.0
 43
0.0208333333333333
 43
0.0
 43
0.0
 43
0.0
 43
0.0
 43
1.0
 43
0.0
 43
0.0
 43
0.0
 43
0.0
 43
1.0
 77
     0
 47
0.0208333333333333
 47
0.0
 47
0.0
 47
0.0
 47
0.0
 47
0.0208333333333333
 47
0.0
 47
0.0
 47
0.0
 47
0.0
 47
1.0
 47
0.0
 47
0.0
 47
0.0
 47
0.0
 47
1.0
171
     0
 49
0.0208333333333333
 49
0.0
 49
0.0
 49
0.0
 49
0.0
 49
0.0208333333333333
 49
0.0
 49
0.0
 49
0.0
 49
0.0
 49
1.0
 49
0.0
 49
0.0
 49
0.0
 49
0.0
 49
1.0
175
     0
142
0.0208333333333333
142
0.0
142
0.0
142
0.0
142
0.0
142
0.0208333333333333
142
0.0
142
0.0
142
0.0
142
0.0
142
1.0
142
0.0
142
0.0
142
0.0
142
0.0
142
1.0
179
     0
144
0.0208333333333333
144
0.0
144
0.0
144
0.0
144
0.0
144
0.0208333333333333
144
0.0
144
0.0
144
0.0
144
0.0
144
1.0
144
0.0
144
0.0
144
0.0
144
0.0
144
1.0
147
0.0208333333333333
147
0.0
147
0.0
147
0.0
147
0.0
147
0.0208333333333333
147
0.0
147
0.0
147
0.0
147
0.0
147
1.0
147
0.0
147
0.0
147
0.0
147
0.0
147
1.0
  0
MLEADERSTYLE
  5
67
102
{ACAD_XDICTIONARY
360
A08
102
}
102
{ACAD_REACTORS
330
66
102
}
330
66
100
AcDbMLeaderStyle
170
     2
171
     1
172
     0
 90
        2
 40
0.0
 41
0.0
173
     1
 91
-1056964608
340
5B
 92
       -2
290
     1
 42
0.09
291
     1
 43
0.36
  3
Standard
 44
0.18
300

342
55
174
     1
178
     6
175
     1
176
     0
 93
-1056964608
 45
0.18
292
     0
297
     0
 46
0.18
 94
-1056964608
 47
1.0
 49
1.0
140
1.0
293
     1
141
0.0
294
     1
177
     0
142
1.0
295
     0
296
     0
143
0.125
1001
ACAD_MLEADERVER
1070
     2
  0
MLINESTYLE
  5
60
102
{ACAD_REACTORS
330
5F
102
}
330
5F
100
AcDbMlineStyle
  2
STANDARD
 70
     0
  3

 62
   256
 51
90.0
 52
90.0
 71
     2
 49
0.5
 62
   256
  6
BYLAYER
 49
-0.5
 62
   256
  6
BYLAYER
  0
ACDBPLACEHOLDER
  5
F
102
{ACAD_REACTORS
330
E
102
}
330
E
  0
SCALE
  5
43
102
{ACAD_REACTORS
330
42
102
}
330
42
100
AcDbScale
 70
     0
300
1:1
140
1.0
141
1.0
290
     1
  0
SCALE
  5
44
102
{ACAD_REACTORS
330
42
102
}
330
42
100
AcDbScale
 70
     0
300
1/128" = 1'-0"
140
0.0078125
141
12.0
290
     0
  0
SCALE
  5
45
102
{ACAD_REACTORS
330
42
102
}
330
42
100
AcDbScale
 70
     0
300
1/64" = 1'-0"
140
0.015625
141
12.0
290
     0
  0
SCALE
  5
46
102
{ACAD_REACTORS
330
42
102
}
330
42
100
AcDbScale
 70
     0
300
1/32" = 1'-0"
140
0.03125
141
12.0
290
     0
  0
SCALE
  5
47
102
{ACAD_REACTORS
330
42
102
}
330
42
100
AcDbScale
 70
     0
300
1/16" = 1'-0"
140
0.0625
141
12.0
290
     0
  0
SCALE
  5
48
102
{ACAD_REACTORS
330
42
102
}
330
42
100
AcDbScale
 70
     0
300
3/32" = 1'-0"
140
0.09375
141
12.0
290
     0
  0
SCALE
  5
49
102
{ACAD_REACTORS
330
42
102
}
330
42
100
AcDbScale
 70
     0
300
1/8" = 1'-0"
140
0.125
141
12.0
290
     0
  0
SCALE
  5
4A
102
{ACAD_REACTORS
330
42
102
}
330
42
100
AcDbScale
 70
     0
300
3/16" = 1'-0"
140
0.1875
141
12.0
290
     0
  0
SCALE
  5
4B
102
{ACAD_REACTORS
330
42
102
}
330
42
100
AcDbScale
 70
     0
300
1/4" = 1'-0"
140
0.25
141
12.0
290
     0
  0
SCALE
  5
4C
102
{ACAD_REACTORS
330
42
102
}
330
42
100
AcDbScale
 70
     0
300
3/8" = 1'-0"
140
0.375
141
12.0
290
     0
  0
SCALE
  5
4D
102
{ACAD_REACTORS
330
42
102
}
330
42
100
AcDbScale
 70
     0
300
1/2" = 1'-0"
140
0.5
141
12.0
290
     0
  0
SCALE
  5
4E
102
{ACAD_REACTORS
330
42
102
}
330
42
100
AcDbScale
 70
     0
300
3/4" = 1'-0"
140
0.75
141
12.0
290
     0
  0
SCALE
  5
4F
102
{ACAD_REACTORS
330
42
102
}
330
42
100
AcDbScale
 70
     0
300
1" = 1'-0"
140
1.0
141
12.0
290
     0
  0
SCALE
  5
50
102
{ACAD_REACTORS
330
42
102
}
330
42
100
AcDbScale
 70
     0
300
1-1/2" = 1'-0"
140
1.5
141
12.0
290
     0
  0
SCALE
  5
51
102
{ACAD_REACTORS
330
42
102
}
330
42
100
AcDbScale
 70
     0
300
3" = 1'-0"
140
3.0
141
12.0
290
     0
  0
SCALE
  5
52
102
{ACAD_REACTORS
330
42
102
}
330
42
100
AcDbScale
 70
     0
300
6" = 1'-0"
140
6.0
141
12.0
290
     0
  0
SCALE
  5
53
102
{ACAD_REACTORS
330
42
102
}
330
42
100
AcDbScale
 70
     0
300
1'-0" = 1'-0"
140
12.0
141
12.0
290
     0
  0
TABLESTYLE
  5
65
102
{ACAD_XDICTIONARY
360
A06
102
}
102
{ACAD_REACTORS
330
64
102
}
330
64
100
AcDbTableStyle
  3
Standard
 70
     0
 71
     0
 40
0.06
 41
0.06
280
     0
281
     0
  7
Standard
140
0.18
170
     2
 62
     0
 63
     7
283
     0
274
    -2
284
     1
 64
     0
275
    -2
285
     1
 65
     0
276
    -2
286
     1
 66
     0
277
    -2
287
     1
 67
     0
278
    -2
288
     1
 68
     0
279
    -2
289
     1
 69
     0
  7
Standard
140
0.25
170
     5
 62
     0
 63
     7
283
     0
274
    -2
284
     1
 64
     0
275
    -2
285
     1
 65
     0
276
    -2
286
     1
 66
     0
277
    -2
287
     1
 67
     0
278
    -2
288
     1
 68
     0
279
    -2
289
     1
 69
     0
  7
Standard
140
0.18
170
     5
 62
     0
 63
     7
283
     0
274
    -2
284
     1
 64
     0
275
    -2
285
     1
 65
     0
276
    -2
286
     1
 66
     0
277
    -2
287
     1
 67
     0
278
    -2
288
     1
 68
     0
279
    -2
289
     1
 69
     0
  0
VISUALSTYLE
  5
2F
102
{ACAD_XDICTIONARY
360
A1B
102
}
102
{ACAD_REACTORS
330
29
102
}
330
29
100
AcDbVisualStyle
  2
2dWireframe
 70
     4
 71
     0
 72
     2
 73
     0
 90
        0
 40
-0.6
 41
-30.0
 62
     5
 63
     7
 74
     1
 91
        4
 64
     7
 65
   257
 75
     1
175
     1
 42
1.0
 92
        0
 66
   257
 43
1.0
 76
     1
 77
     6
 78
     2
 67
     7
 79
     5
170
     0
171
     0
290
     0
174
     0
 93
        1
 44
0.0
173
     0
291
     0
 45
0.0
1001
ACAD
1000
AcDbSavedByObjectVersion
1070
     0
  0
VISUALSTYLE
  5
2E
102
{ACAD_XDICTIONARY
360
A19
102
}
102
{ACAD_REACTORS
330
29
102
}
330
29
100
AcDbVisualStyle
  2
Basic
 70
     7
 71
     1
 72
     0
 73
     1
 90
        0
 40
-0.6
 41
-30.0
 62
     5
 63
     7
 74
     0
 91
        4
 64
     7
 65
   257
 75
     1
175
     1
 42
1.0
 92
        8
 66
     7
 43
1.0
 76
     1
 77
     6
 78
     2
 67
     7
 79
     5
170
     0
171
     0
290
     0
174
     0
 93
        1
 44
0.0
173
     0
291
     1
 45
0.0
1001
ACAD
1000
AcDbSavedByObjectVersion
1070
     0
  0
VISUALSTYLE
  5
35
102
{ACAD_XDICTIONARY
360
A27
102
}
102
{ACAD_REACTORS
330
29
102
}
330
29
100
AcDbVisualStyle
  2
Brighten
 70
    12
 71
     2
 72
     2
 73
     0
 90
        0
 40
-0.6
 41
-30.0
 62
     5
 63
     7
 74
     1
 91
        4
 64
     7
 65
   257
 75
     1
175
     1
 42
1.0
 92
        8
 66
     7
 43
1.0
 76
     1
 77
     6
 78
     2
 67
     7
 79
     5
170
     0
171
     0
290
     0
174
     0
 93
        1
 44
50.0
173
     0
291
     1
 45
0.0
1001
ACAD
1000
AcDbSavedByObjectVersion
1070
     0
  0
VISUALSTYLE
  5
39
102
{ACAD_XDICTIONARY
360
A2F
102
}
102
{ACAD_REACTORS
330
29
102
}
330
29
100
AcDbVisualStyle
  2
ColorChange
 70
    16
 71
     2
 72
     2
 73
     3
 90
        0
 40
-0.6
 41
-30.0
 62
     5
 63
     8
 74
     1
 91
        4
 64
     7
 65
   257
 75
     1
175
     1
 42
1.0
 92
        8
 66
     8
 43
1.0
 76
     1
 77
     6
 78
     2
 67
     7
 79
     5
170
     0
171
     0
290
     0
174
     0
 93
        1
 44
0.0
173
     0
291
     1
 45
0.0
1001
ACAD
1000
AcDbSavedByObjectVersion
1070
     0
  0
VISUALSTYLE
  5
32
102
{ACAD_XDICTIONARY
360
A21
102
}
102
{ACAD_REACTORS
330
29
102
}
330
29
100
AcDbVisualStyle
  2
Conceptual
 70
     9
 71
     3
 72
     2
 73
     0
 90
        0
 40
-0.6
 41
-30.0
 62
     5
 63
     7
 74
     2
 91
        2
 64
     7
 65
   257
 75
     1
175
     1
 42
179.0
 92
        8
 66
     7
 43
1.0
 76
     1
 77
     6
 78
     2
 67
     7
 79
     3
170
     0
171
     0
290
     0
174
     0
 93
        1
 44
0.0
173
     0
291
     0
 45
0.0
1001
ACAD
1000
AcDbSavedByObjectVersion
1070
     0
  0
VISUALSTYLE
  5
34
102
{ACAD_XDICTIONARY
360
A25
102
}
102
{ACAD_REACTORS
330
29
102
}
330
29
100
AcDbVisualStyle
  2
Dim
 70
    11
 71
     2
 72
     2
 73
     0
 90
        0
 40
-0.6
 41
-30.0
 62
     5
 63
     7
 74
     1
 91
        4
 64
     7
 65
   257
 75
     1
175
     1
 42
1.0
 92
        8
 66
     7
 43
1.0
 76
     1
 77
     6
 78
     2
 67
     7
 79
     5
170
     0
171
     0
290
     0
174
     0
 93
        1
 44
-50.0
173
     0
291
     1
 45
0.0
1001
ACAD
1000
AcDbSavedByObjectVersion
1070
     0
  0
VISUALSTYLE
  5
41
102
{ACAD_XDICTIONARY
360
A3F
102
}
102
{ACAD_REACTORS
330
29
102
}
330
29
100
AcDbVisualStyle
  2
EdgeColorOff
 70
    22
 71
     2
 72
     2
 73
     0
 90
        0
 40
-0.6
 41
-30.0
 62
     5
 63
     7
 74
     1
 91
        4
 64
     7
 65
   257
 75
     1
175
     1
 42
1.0
 92
        8
 66
     7
 43
1.0
 76
     1
 77
     6
 78
     2
 67
     7
 79
     5
170
     0
171
     0
290
     0
174
     0
 93
        1
 44
0.0
173
     0
291
     1
 45
0.0
1001
ACAD
1000
AcDbSavedByObjectVersion
1070
     0
  0
VISUALSTYLE
  5
38
102
{ACAD_XDICTIONARY
360
A2D
102
}
102
{ACAD_REACTORS
330
29
102
}
330
29
100
AcDbVisualStyle
  2
Facepattern
 70
    15
 71
     2
 72
     2
 73
     0
 90
        0
 40
-0.6
 41
-30.0
 62
     5
 63
     7
 74
     1
 91
        4
 64
     7
 65
   257
 75
     1
175
     1
 42
1.0
 92
        8
 66
     7
 43
1.0
 76
     1
 77
     6
 78
     2
 67
     7
 79
     5
170
     0
171
     0
290
     0
174
     0
 93
        1
 44
0.0
173
     0
291
     1
 45
0.0
1001
ACAD
1000
AcDbSavedByObjectVersion
1070
     0
  0
VISUALSTYLE
  5
2A
102
{ACAD_XDICTIONARY
360
A11
102
}
102
{ACAD_REACTORS
330
29
102
}
330
29
100
AcDbVisualStyle
  2
Flat
 70
     0
 71
     2
 72
     1
 73
     1
 90
        2
 40
-0.6
 41
30.0
 62
     5
 63
     7
 74
     0
 91
        0
 64
     7
 65
   257
 75
     1
175
     1
 42
1.0
 92
        8
 66
     7
 43
1.0
 76
     1
 77
     6
 78
     2
 67
     7
 79
     5
170
     0
171
     0
290
     0
174
     0
 93
       13
 44
0.0
173
     0
291
     1
 45
0.0
1001
ACAD
1000
AcDbSavedByObjectVersion
1070
     0
  0
VISUALSTYLE
  5
2B
102
{ACAD_XDICTIONARY
360
A13
102
}
102
{ACAD_REACTORS
330
29
102
}
330
29
100
AcDbVisualStyle
  2
FlatWithEdges
 70
     1
 71
     2
 72
     1
 73
     1
 90
        2
 40
-0.6
 41
30.0
 62
     5
 63
     7
 74
     1
 91
        0
 64
     7
 65
   257
 75
     1
175
     1
 42
1.0
 92
        0
 66
   257
 43
1.0
 76
     1
 77
     6
 78
     2
 67
     7
 79
     5
170
     0
171
     0
290
     0
174
     0
 93
       13
 44
0.0
173
     0
291
     1
 45
0.0
1001
ACAD
1000
AcDbSavedByObjectVersion
1070
     0
  0
VISUALSTYLE
  5
2C
102
{ACAD_XDICTIONARY
360
A15
102
}
102
{ACAD_REACTORS
330
29
102
}
330
29
100
AcDbVisualStyle
  2
Gouraud
 70
     2
 71
     2
 72
     2
 73
     1
 90
        2
 40
-0.6
 41
30.0
 62
     5
 63
     7
 74
     0
 91
        0
 64
     7
 65
   257
 75
     1
175
     1
 42
1.0
 92
        0
 66
     7
 43
1.0
 76
     1
 77
     6
 78
     2
 67
     7
 79
     5
170
     0
171
     0
290
     0
174
     0
 93
       13
 44
0.0
173
     0
291
     1
 45
0.0
1001
ACAD
1000
AcDbSavedByObjectVersion
1070
     0
  0
VISUALSTYLE
  5
2D
102
{ACAD_XDICTIONARY
360
A17
102
}
102
{ACAD_REACTORS
330
29
102
}
330
29
100
AcDbVisualStyle
  2
GouraudWithEdges
 70
     3
 71
     2
 72
     2
 73
     1
 90
        2
 40
-0.6
 41
30.0
 62
     5
 63
     7
 74
     1
 91
        0
 64
     7
 65
   257
 75
     1
175
     1
 42
1.0
 92
        0
 66
   257
 43
1.0
 76
     1
 77
     6
 78
     2
 67
     7
 79
     5
170
     0
171
     0
290
     0
174
     0
 93
       13
 44
0.0
173
     0
291
     1
 45
0.0
1001
ACAD
1000
AcDbSavedByObjectVersion
1070
     0
  0
VISUALSTYLE
  5
31
102
{ACAD_XDICTIONARY
360
A1F
102
}
102
{ACAD_REACTORS
330
29
102
}
330
29
100
AcDbVisualStyle
  2
Hidden
 70
     6
 71
     1
 72
     2
 73
     2
 90
        0
 40
-0.6
 41
-30.0
 62
     5
 63
     7
 74
     2
 91
        2
 64
     7
 65
   257
 75
     2
175
     1
 42
40.0
 92
        0
 66
   257
 43
1.0
 76
     1
 77
     6
 78
     2
 67
     7
 79
     3
170
     0
171
     0
290
     0
174
     0
 93
        1
 44
0.0
173
     0
291
     0
 45
0.0
1001
ACAD
1000
AcDbSavedByObjectVersion
1070
     0
  0
VISUALSTYLE
  5
3F
102
{ACAD_XDICTIONARY
360
A3B
102
}
102
{ACAD_REACTORS
330
29
102
}
330
29
100
AcDbVisualStyle
  2
JitterOff
 70
    20
 71
     2
 72
     2
 73
     0
 90
        0
 40
-0.6
 41
-30.0
 62
     5
 63
     7
 74
     1
 91
        4
 64
     7
 65
   257
 75
     1
175
     1
 42
1.0
 92
       10
 66
     7
 43
1.0
 76
     1
 77
     6
 78
     2
 67
     7
 79
     5
170
     0
171
     0
290
     0
174
     0
 93
        1
 44
0.0
173
     0
291
     1
 45
0.0
1001
ACAD
1000
AcDbSavedByObjectVersion
1070
     0
  0
VISUALSTYLE
  5
37
102
{ACAD_XDICTIONARY
360
A2B
102
}
102
{ACAD_REACTORS
330
29
102
}
330
29
100
AcDbVisualStyle
  2
Linepattern
 70
    14
 71
     2
 72
     2
 73
     0
 90
        0
 40
-0.6
 41
-30.0
 62
     5
 63
     7
 74
     1
 91
        4
 64
     7
 65
   257
 75
     7
175
     7
 42
1.0
 92
        8
 66
     7
 43
1.0
 76
     1
 77
     6
 78
     2
 67
     7
 79
     5
170
     0
171
     0
290
     0
174
     0
 93
        1
 44
0.0
173
     0
291
     1
 45
0.0
1001
ACAD
1000
AcDbSavedByObjectVersion
1070
     0
  0
VISUALSTYLE
  5
40
102
{ACAD_XDICTIONARY
360
A3D
102
}
102
{ACAD_REACTORS
330
29
102
}
330
29
100
AcDbVisualStyle
  2
OverhangOff
 70
    21
 71
     2
 72
     2
 73
     0
 90
        0
 40
-0.6
 41
-30.0
 62
     5
 63
     7
 74
     1
 91
        4
 64
     7
 65
   257
 75
     1
175
     1
 42
1.0
 92
        9
 66
     7
 43
1.0
 76
     1
 77
     6
 78
     2
 67
     7
 79
     5
170
     0
171
     0
290
     0
174
     0
 93
        1
 44
0.0
173
     0
291
     1
 45
0.0
1001
ACAD
1000
AcDbSavedByObjectVersion
1070
     0
  0
VISUALSTYLE
  5
33
102
{ACAD_XDICTIONARY
360
A23
102
}
102
{ACAD_REACTORS
330
29
102
}
330
29
100
AcDbVisualStyle
  2
Realistic
 70
     8
 71
     2
 72
     3
 73
     0
 90
        2
 40
-0.6
 41
30.0
 62
     5
 63
     7
 74
     0
 91
        0
 64
     7
 65
   257
 75
     1
175
     1
 42
1.0
 92
        8
 66
   257
 43
1.0
 76
     1
 77
     6
 78
     2
 67
     7
 79
     3
170
     0
171
     0
290
     0
174
     0
 93
       13
 44
0.0
173
     0
291
     0
 45
0.0
1001
ACAD
1000
AcDbSavedByObjectVersion
1070
     0
  0
VISUALSTYLE
  5
3E
102
{ACAD_XDICTIONARY
360
A39
102
}
102
{ACAD_REACTORS
330
29
102
}
330
29
100
AcDbVisualStyle
  2
Shaded
 70
    27
 71
     2
 72
     2
 73
     1
 90
        2
 40
-0.6
 41
30.0
 62
     5
 63
     7
 74
     0
 91
        4
 64
     7
 65
   257
 75
     1
175
     1
 42
1.0
 92
        8
 66
   257
 43
1.0
 76
     1
 77
     6
 78
     2
 67
     8
 79
     3
170
     0
171
     0
290
     0
174
     0
 93
        5
 44
0.0
173
     0
291
     0
 45
0.0
1001
ACAD
1000
AcDbSavedByObjectVersion
1070
     0
  0
VISUALSTYLE
  5
3D
102
{ACAD_XDICTIONARY
360
A37
102
}
102
{ACAD_REACTORS
330
29
102
}
330
29
100
AcDbVisualStyle
  2
Shaded with edges
 70
    26
 71
     2
 72
     2
 73
     1
 90
        2
 40
-0.6
 41
30.0
 62
     5
 63
     7
 74
     1
 91
       10
 64
     7
 65
   257
 75
     2
175
     1
 42
1.0
 92
        8
 66
   257
 43
1.0
 76
     1
 77
     6
 78
     2
 67
     7
 79
     3
170
     0
171
     0
290
     0
174
     0
 93
        5
 44
0.0
173
     0
291
     0
 45
0.0
1001
ACAD
1000
AcDbSavedByObjectVersion
1070
     0
  0
VISUALSTYLE
  5
3A
102
{ACAD_XDICTIONARY
360
A31
102
}
102
{ACAD_REACTORS
330
29
102
}
330
29
100
AcDbVisualStyle
  2
Shades of Gray
 70
    23
 71
     2
 72
     2
 73
     3
 90
        0
 40
-0.6
 41
-30.0
 62
     5
 63
     7
 74
     2
 91
        2
 64
     7
 65
     7
 75
     1
175
     1
 42
40.0
 92
        8
 66
     7
 43
1.0
 76
     1
 77
     6
 78
     2
 67
     7
 79
     3
170
     0
171
     0
290
     0
174
     0
 93
        1
 44
0.0
173
     0
291
     0
 45
0.0
1001
ACAD
1000
AcDbSavedByObjectVersion
1070
     0
  0
VISUALSTYLE
  5
3B
102
{ACAD_XDICTIONARY
360
A33
102
}
102
{ACAD_REACTORS
330
29
102
}
330
29
100
AcDbVisualStyle
  2
Sketchy
 70
    24
 71
     1
 72
     2
 73
     2
 90
        0
 40
-0.6
 41
-30.0
 62
     5
 63
     7
 74
     2
 91
        2
 64
     7
 65
     7
 75
     1
175
     1
 42
40.0
 92
       11
 66
     7
 43
1.0
 76
     1
 77
     6
 78
     2
 67
     7
 79
     6
170
     0
171
     0
290
     0
174
     0
 93
        1
 44
0.0
173
     0
291
     0
 45
0.0
1001
ACAD
1000
AcDbSavedByObjectVersion
1070
     0
  0
VISUALSTYLE
  5
36
102
{ACAD_XDICTIONARY
360
A29
102
}
102
{ACAD_REACTORS
330
29
102
}
330
29
100
AcDbVisualStyle
  2
Thicken
 70
    13
 71
     2
 72
     2
 73
     0
 90
        0
 40
-0.6
 41
-30.0
 62
     5
 63
     7
 74
     1
 91
        4
 64
     7
 65
   257
 75
     1
175
     1
 42
1.0
 92
       12
 66
     7
 43
1.0
 76
     1
 77
     6
 78
     2
 67
     7
 79
     5
170
     0
171
     0
290
     0
174
     0
 93
        1
 44
0.0
173
     0
291
     1
 45
0.0
1001
ACAD
1000
AcDbSavedByObjectVersion
1070
     0
  0
VISUALSTYLE
  5
30
102
{ACAD_XDICTIONARY
360
A1D
102
}
102
{ACAD_REACTORS
330
29
102
}
330
29
100
AcDbVisualStyle
  2
Wireframe
 70
     5
 71
     0
 72
     2
 73
     0
 90
        0
 40
-0.6
 41
-30.0
 62
     5
 63
     7
 74
     1
 91
        4
 64
     7
 65
   257
 75
     1
175
     1
 42
1.0
 92
        0
 66
   257
 43
1.0
 76
     1
 77
     6
 78
     2
 67
     7
 79
     3
170
     0
171
     0
290
     0
174
     0
 93
        1
 44
0.0
173
     0
291
     0
 45
0.0
1001
ACAD
1000
AcDbSavedByObjectVersion
1070
     0
  0
VISUALSTYLE
  5
3C
102
{ACAD_XDICTIONARY
360
A35
102
}
102
{ACAD_REACTORS
330
29
102
}
330
29
100
AcDbVisualStyle
  2
X-Ray
 70
    25
 71
     2
 72
     2
 73
     1
 90
        1
 40
0.5
 41
-30.0
 62
     5
 63
     7
 74
     1
 91
        0
 64
     7
 65
   257
 75
     1
175
     1
 42
1.0
 92
        8
 66
     7
 43
1.0
 76
     1
 77
     6
 78
     2
 67
     7
 79
     3
170
     0
171
     0
290
     0
174
     0
 93
       13
 44
0.0
173
     0
291
     0
 45
0.0
1001
ACAD
1000
AcDbSavedByObjectVersion
1070
     0
  0
DICTIONARYVAR
  5
79
102
{ACAD_REACTORS
330
76
102
}
330
76
100
DictionaryVariables
280
     0
  1
1:1
  0
DICTIONARYVAR
  5
78
102
{ACAD_REACTORS
330
76
102
}
330
76
100
DictionaryVariables
280
     0
  1
STANDARD
  0
DICTIONARYVAR
  5
77
102
{ACAD_REACTORS
330
76
102
}
330
76
100
DictionaryVariables
280
     0
  1
STANDARD
  0
DICTIONARYVAR
  5
A04
102
{ACAD_REACTORS
330
76
102
}
330
76
100
DictionaryVariables
280
     0
  1
1
  0
DICTIONARYVAR
  5
A03
102
{ACAD_REACTORS
330
76
102
}
330
76
100
DictionaryVariables
280
     0
  1
1
  0
DICTIONARYVAR
  5
A02
102
{ACAD_REACTORS
330
76
102
}
330
76
100
DictionaryVariables
280
     0
  1
0
  0
DICTIONARYVAR
  5
9FF
102
{ACAD_REACTORS
330
76
102
}
330
76
100
DictionaryVariables
280
     0
  1
0
  0
DICTIONARYVAR
  5
A00
102
{ACAD_REACTORS
330
76
102
}
330
76
100
DictionaryVariables
280
     0
  1
0
  0
DICTIONARYVAR
  5
9FE
102
{ACAD_REACTORS
330
76
102
}
330
76
100
DictionaryVariables
280
     0
  1
2
  0
DICTIONARYVAR
  5
9FD
102
{ACAD_REACTORS
330
76
102
}
330
76
100
DictionaryVariables
280
     0
  1
1
  0
DICTIONARYVAR
  5
A01
102
{ACAD_REACTORS
330
76
102
}
330
76
100
DictionaryVariables
280
     0
  1
127
  0
DICTIONARYVAR
  5
A05
102
{ACAD_REACTORS
330
76
102
}
330
76
100
DictionaryVariables
280
     0
  1
2
  0
DICTIONARY
  5
A43
330
6B
100
AcDbDictionary
280
     1
281
     1
  3
ACAD_XREC_ROUNDTRIP
360
A44
  0
DICTIONARY
  5
A47
330
73
100
AcDbDictionary
280
     1
281
     1
  3
ACAD_XREC_ROUNDTRIP
360
A48
  0
DICTIONARY
  5
A45
330
6F
100
AcDbDictionary
280
     1
281
     1
  3
ACAD_XREC_ROUNDTRIP
360
A46
  0
DICTIONARY
  5
1A
330
19
100
AcDbDictionary
280
     1
281
     1
  3
ACAD_XREC_ROUNDTRIP
360
A0F
  3
BUMPTILE
360
1C
  3
DIFFUSETILE
360
1B
  3
OPACITYTILE
360
1F
  3
REFLECTIONTILE
360
1E
  3
REFRACTIONTILE
360
20
  3
SPECULARTILE
360
1D
  0
DICTIONARY
  5
12
330
11
100
AcDbDictionary
280
     1
281
     1
  3
ACAD_XREC_ROUNDTRIP
360
A0E
  3
BUMPTILE
360
14
  3
DIFFUSETILE
360
13
  3
FBXASSET
360
F5
  3
OPACITYTILE
360
17
  3
REFLECTIONTILE
360
16
  3
REFRACTIONTILE
360
18
  3
SPECULARTILE
360
15
  0
DICTIONARY
  5
22
330
21
100
AcDbDictionary
280
     1
281
     1
  3
ACAD_XREC_ROUNDTRIP
360
A10
  3
BUMPTILE
360
24
  3
DIFFUSETILE
360
23
  3
FBXASSET
360
BA
  3
OPACITYTILE
360
27
  3
REFLECTIONTILE
360
26
  3
REFRACTIONTILE
360
28
  3
SPECULARTILE
360
25
  0
DICTIONARY
  5
A08
330
67
100
AcDbDictionary
280
     1
281
     1
  3
ACAD_XREC_ROUNDTRIP
360
A09
  0
DICTIONARY
  5
A06
330
65
100
AcDbDictionary
280
     1
281
     1
  3
ACAD_ROUNDTRIP_2008_TABLESTYLE_CELLSTYLEMAP
360
A07
  3
ACAD_XREC_ROUNDTRIP
360
A41
  0
DICTIONARY
  5
A1B
330
2F
100
AcDbDictionary
280
     1
281
     1
  3
ACAD_XREC_ROUNDTRIP
360
A1C
  0
DICTIONARY
  5
A19
330
2E
100
AcDbDictionary
280
     1
281
     1
  3
ACAD_XREC_ROUNDTRIP
360
A1A
  0
DICTIONARY
  5
A27
330
35
100
AcDbDictionary
280
     1
281
     1
  3
ACAD_XREC_ROUNDTRIP
360
A28
  0
DICTIONARY
  5
A2F
330
39
100
AcDbDictionary
280
     1
281
     1
  3
ACAD_XREC_ROUNDTRIP
360
A30
  0
DICTIONARY
  5
A21
330
32
100
AcDbDictionary
280
     1
281
     1
  3
ACAD_XREC_ROUNDTRIP
360
A22
  0
DICTIONARY
  5
A25
330
34
100
AcDbDictionary
280
     1
281
     1
  3
ACAD_XREC_ROUNDTRIP
360
A26
  0
DICTIONARY
  5
A3F
330
41
100
AcDbDictionary
280
     1
281
     1
  3
ACAD_XREC_ROUNDTRIP
360
A40
  0
DICTIONARY
  5
A2D
330
38
100
AcDbDictionary
280
     1
281
     1
  3
ACAD_XREC_ROUNDTRIP
360
A2E
  0
DICTIONARY
  5
A11
330
2A
100
AcDbDictionary
280
     1
281
     1
  3
ACAD_XREC_ROUNDTRIP
360
A12
  0
DICTIONARY
  5
A13
330
2B
100
AcDbDictionary
280
     1
281
     1
  3
ACAD_XREC_ROUNDTRIP
360
A14
  0
DICTIONARY
  5
A15
330
2C
100
AcDbDictionary
280
     1
281
     1
  3
ACAD_XREC_ROUNDTRIP
360
A16
  0
DICTIONARY
  5
A17
330
2D
100
AcDbDictionary
280
     1
281
     1
  3
ACAD_XREC_ROUNDTRIP
360
A18
  0
DICTIONARY
  5
A1F
330
31
100
AcDbDictionary
280
     1
281
     1
  3
ACAD_XREC_ROUNDTRIP
360
A20
  0
DICTIONARY
  5
A3B
330
3F
100
AcDbDictionary
280
     1
281
     1
  3
ACAD_XREC_ROUNDTRIP
360
A3C
  0
DICTIONARY
  5
A2B
330
37
100
AcDbDictionary
280
     1
281
     1
  3
ACAD_XREC_ROUNDTRIP
360
A2C
  0
DICTIONARY
  5
A3D
330
40
100
AcDbDictionary
280
     1
281
     1
  3
ACAD_XREC_ROUNDTRIP
360
A3E
  0
DICTIONARY
  5
A23
330
33
100
AcDbDictionary
280
     1
281
     1
  3
ACAD_XREC_ROUNDTRIP
360
A24
  0
DICTIONARY
  5
A39
330
3E
100
AcDbDictionary
280
     1
281
     1
  3
ACAD_XREC_ROUNDTRIP
360
A3A
  0
DICTIONARY
  5
A37
330
3D
100
AcDbDictionary
280
     1
281
     1
  3
ACAD_XREC_ROUNDTRIP
360
A38
  0
DICTIONARY
  5
A31
330
3A
100
AcDbDictionary
280
     1
281
     1
  3
ACAD_XREC_ROUNDTRIP
360
A32
  0
DICTIONARY
  5
A33
330
3B
100
AcDbDictionary
280
     1
281
     1
  3
ACAD_XREC_ROUNDTRIP
360
A34
  0
DICTIONARY
  5
A29
330
36
100
AcDbDictionary
280
     1
281
     1
  3
ACAD_XREC_ROUNDTRIP
360
A2A
  0
DICTIONARY
  5
A1D
330
30
100
AcDbDictionary
280
     1
281
     1
  3
ACAD_XREC_ROUNDTRIP
360
A1E
  0
DICTIONARY
  5
A35
330
3C
100
AcDbDictionary
280
     1
281
     1
  3
ACAD_XREC_ROUNDTRIP
360
A36
  0
XRECORD
  5
A44
102
{ACAD_REACTORS
330
A43
102
}
330
A43
100
AcDbXrecord
280
     1
102
SHADEPLOT
 70
     0
102
SHADEPLOTRESLEVEL
 70
     2
102
SHADEPLOTCUSTOMDPI
 70
   300
  0
XRECORD
  5
A48
102
{ACAD_REACTORS
330
A47
102
}
330
A47
100
AcDbXrecord
280
     1
102
SHADEPLOT
 70
     0
102
SHADEPLOTRESLEVEL
 70
     2
102
SHADEPLOTCUSTOMDPI
 70
   300
  0
XRECORD
  5
A46
102
{ACAD_REACTORS
330
A45
102
}
330
A45
100
AcDbXrecord
280
     1
102
SHADEPLOT
 70
     0
102
SHADEPLOTRESLEVEL
 70
     2
102
SHADEPLOTCUSTOMDPI
 70
   300
  0
XRECORD
  5
A0F
102
{ACAD_REACTORS
330
1A
102
}
330
1A
100
AcDbXrecord
280
     1
102
MATERIAL
148
0.0
149
0.0
149
0.0
 93
        0
 94
      127
282
     0
 72
     0
 77
     0
171
     0
175
     0
179
     0
273
     0
  0
XRECORD
  5
1C
102
{ACAD_REACTORS
330
1A
102
}
330
1A
100
AcDbXrecord
280
     1
270
     1
271
     1
  0
XRECORD
  5
1B
102
{ACAD_REACTORS
330
1A
102
}
330
1A
100
AcDbXrecord
280
     1
270
     1
271
     1
  0
XRECORD
  5
1F
102
{ACAD_REACTORS
330
1A
102
}
330
1A
100
AcDbXrecord
280
     1
270
     1
271
     1
  0
XRECORD
  5
1E
102
{ACAD_REACTORS
330
1A
102
}
330
1A
100
AcDbXrecord
280
     1
270
     1
271
     1
  0
XRECORD
  5
20
102
{ACAD_REACTORS
330
1A
102
}
330
1A
100
AcDbXrecord
280
     1
270
     1
271
     1
  0
XRECORD
  5
1D
102
{ACAD_REACTORS
330
1A
102
}
330
1A
100
AcDbXrecord
280
     1
270
     1
271
     1
  0
XRECORD
  5
A0E
102
{ACAD_REACTORS
330
12
102
}
330
12
100
AcDbXrecord
280
     1
102
MATERIAL
148
0.0
149
0.0
149
0.0
 93
        0
 94
      127
282
     0
 72
     0
 77
     0
171
     0
175
     0
179
     0
273
     0
  0
XRECORD
  5
14
102
{ACAD_REACTORS
330
12
102
}
330
12
100
AcDbXrecord
280
     1
270
     1
271
     1
  0
XRECORD
  5
13
102
{ACAD_REACTORS
330
12
102
}
330
12
100
AcDbXrecord
280
     1
270
     1
271
     1
  0
XRECORD
  5
F5
102
{ACAD_REACTORS
330
12
102
}
330
12
100
AcDbXrecord
280
     1
 70
     1
 90
1959938040
 71
     1
  1
159EA21D-45D0-44D9-B078-79CE90C34071
311
504B03040A0000080000B44C5C403DEE336E79000000790000001B0000006175746F6465736B2D64657369676E2D7061636B6167652E786D6C3C3F786D6C2076657273696F6E3D22312E302220656E636F64696E673D227574662D3822203F3E3C666F726D6174733E3C666F726D61743E687474703A2F2F736368656D612E
311
6175746F6465736B2E636F6D2F64657369676E2D7061636B6167652F323030393C2F666F726D61743E3C2F666F726D6174733E504B0304140006080800B44C5C40D486FD9CA0000000F4000000130000005B436F6E74656E745F54797065735D2E786D6C7D8EC10E82300C865F65E91D8A1E8C310C0EEA1BF002731658846E
311
D98AC1B77784ABF1D8FE5FBFBF75BBCE937A534CCEB38643598122B6FEE978D0B0485F9C41B54DDD7D022595594E1A469170414C76A4D9A4D207E29CF43ECE46F218070CC6BECC4078ACAA135ACF422C856C0E68EA1BF5669944DDD7BCDE7B1F8E415D77AECB980613C2E4AC91FC167A2B244592486606FC29C8FD7F045B9A
311
EF7053A7E60B504B0304140006080800B44C5C4080FEFE46EA0000007C01000008000000636F72652E786D6C8D904D6EC3201085AF82668F8D31F19F3051A2D427E80510260E4A0C9681AAC72F4E1CA9DD7535A337EF9B193D7EFC9E1FE84BAFDE38DB43911140DA2A371A3BF510C31537808E82AFCE855F364056CEBA874D
311
06C1A7D5C5659794B341DB9054EB46BD8BD27B1D00A9476A7AF0EAA66799C91892C3DFB345AABB9C7456BCBB04C76846F43A62C6B4CF5C8D5E419C3E2ECD706205AECB8162D65667DCD6E7011346D9A1BAB0F64018CF3758F060E6F77DB56A19F4088292826242316D3E49DB9575975691AA2384E79BFD0F1497F19F503436
311
94747FF7857910457AE439103CDFB248E51954AA5B6EE207504B0304140006080800B44C5C4055019EA25F0000007C00000007000000636E782E786D6C4DCB3B0E80201045D1AD90E915ED2CF8AC45050C11660C8261F98AB1B07AC9C97D42D718D865D3E909258CFD00CCE24AC6E326A164D74DC0B4128928FF326038472B
311
A13128B1252AC747C6BAB984FC68F0B87FE8960A5C09FE86CFB69FBA01504B0304140006080800B44C5C4065D3BC9D65010000020300000C0000006662782F636F72652E786D6C8D52ED8E8230107C95A6FF4B0BE2674A8DC6F309EE052A548E082DE907F1F16FF9309C17630C49697676766607F8FEDED4A853D655466738
311
8E18464AE7A6A87499E1E0AF6483D15E706B8CFFD38691968DCA705FC68297D684762AE5467BA53D54B529D45494CE298F515EC325C32EFF518D8C64F0D0E16E512BF39B2C55144700439FE0CE5B30804691FEC4E27AB9733AD6050FA12A26B42A40ADBA56CA6271F83A6DCE873426EBC53921E9767524DBF5F14C589AA4CB
311
D529DD2E59CA694F16DC57CDC35D6E95F4AAC022617142584292CD37DBEE16EB1D8C62AB1D639CF6ED4FA4D0161F9242A5FD2299EC8E3487450C4606E0DFB61091474E76E0870A4EFB10E13524FC1C340402217B79A91F7BDCA0D4A9DC1B9B02529830439DAC830255868687D31185C9C300D8ECE59CE4CD9CF733E0034A5D
311
8235E9E17A09BE57E7A3EA1445AB2CE9FC1D69631B59CFE6468BF3390BBDA4E7A636F613369D56A55398B4FF7BC52F504B0304140006080800B44C5C40932B6DCA7E0000009D0000000B0000006662782F636E782E786D6C4DCC4D0E83201845D1AD906F4ED5560303C4C8DF3E4C45438AD05068BAFC6AE3A0A3979CBC5C36
311
7C368FDE36BD5C0C3D34971A900DF738BBB0F650F28229A081B31463FEBB010AD3667B3818385B532CCF9366BB4CC5E75DBD0B8F130DD15D5313853BAD286EA56831257AC46A14F27A934A1B61A0E2ACFA95F63DC2FC0B504B0304140006080800B44C5C4098B1F47B2D01000014020000310000006662782F463745353130
311
37442D354544382D344342342D383745412D4441424332334344454642462F636F72652E786D6C8D51CB6EC32010FC15C4293D600321B11B61A22476BEA03F406D92A2C460F1A8F2F985DA91DA5B2E2C9A9D991DEDF2FD63BC836FE5BCB6A681A4C01028D3DB419B6B0363B8A01A82BDE0CEDAF087068191A36A6086A1E057
311
67E3B440BD35419990506307B580D27B1520E8EFE9D340DF7FA951163286C4F0B76292FD4D5E55418AD44E3CC17D7029009887E4178A73D56D08AE5AB4E9DA1AB1D391A1BAEA0EA83D1C4F747D6ABBF3F1CCCB5928788C7A58E47A4871F4452BF7AA49160B1EF4F88CDF3B25831AA0A098508429A2F5077EDFADAB1D23086F
311
7718F332D3FF89E234BC288ADA84355DE2CE320F05E1E5DC107CB0F1F3FE0CA31E937501E4792BAFFA3728708129AD1923352F676A5A40F2DCB2C5D307EBD28257B7CFC4269BD978CB042FF38D52F93D60AAF99EE207504B0304140006080800B44C5C40708E30024D01000033030000300000006662782F46374535313037
311
442D354544382D344342342D383745412D4441424332334344454642462F636E782E786D6CD593BD6E032110845F05D1DFAF4F8E6371584A912748919683B543CCC1899F287EFB2C3676DCB84899069D668799D5278EEDBE6743BEC007EDEC48BBBAA504AC744ADBC34853DC571B4A769C79E7E29D8D122B66186996296707
311
EFD25224057B914C44D5687B2CA287E092971050CE37897152180C005B2514619E402950E466C4AF3D785C05C5E944E20790D79777E2A64F9031B026A770D6E40ECEF2599AEE4C944823421869901F308B5AA4E8148463AD441475575FBB1EECF49B44F2856B65F29AE4F291E693F2B2518D1C598343CE42F448AF98E26901
311
CAC5B2182D4544C8CDD978F17096B48DEBA1783582F7E8EED6AB61C0B0F38CB3A867280EE941445094F76DD7576D5FF59BB7F679BB7ADA0E5DD5AEB76DCB9A6CE76C72CE944B1803DE2D443A1BC146CA3BD6E4F1237CC54794F6C8DAF9D31F402280D27AA173CBF8CF7C9AF3FB465C1EFF02FE03504B0304140006080800B4
311
4C5C40082268219A0500007B100000340000006662782F46374535313037442D354544382D344342342D383745412D4441424332334344454642462F6F626A656374732E786D6CAD575D739B3814FD2B0CFB0C18DB69E21D4227B1938E67376DA79E76F621331E018268233E4612A9B3BF7E8F406070EDD4BBD3174042BABA
311
F7DC733F14BCDFE5DC7AA142B2B2B8B67D77625BB488CB8415D9B55DABD4B9B2ADF76120CA520D96D95641727A6DEB693B0C3251D695994A684A6AAE0E66EF6FFFB2644C0B6A5B3127525EDB327EA2397149ADCA84CA6737218AB859BA737DB75D38169B09523D1D08AD88A08582A6982F20C56A95F2C7C389ED8581A7FF87
311
817E9A55B3D3ABBCC69EF1F9AC908A14F10F871D8899F9F3D5DDF462E15CCCE73367FE6EEA3BB7F7B72BC7BF9C4D96EF96CBC5CDDD02074B2520C96822686A871F808D6071E0B5BFC2A066859A4DCD12E3204FD017A63D658753CB0FBC764D6F9D31F298FA715914346EB0021A8D7D4674422B5A24F039A3129A0D109A8C87
311
BEC671F07BA6C7E6C8E1F479080C770C0475BA77EFA1A665F4374C90E7304848AA19D862690C6DB93AD9231C952537FF98B472A2A860845B9C458288573BC452BD240C46623493858E066D811DC20BEDEF315D10463FE7F9312DD39A734D633B6CA2608B58A14A369AB17FA8D86B3F44063AC1579A0D57C620F55A513B5CB4
311
14B93A60530BA4957292C1E53053EF9C4D0F0C5DEA385DAFECF08FFB68B7D1B17BFCF04A9415154AD307D4EA1CD7BD354A4627FF2CCFE90DF6812A7B50BE00F98F08F5BD2AF09B60BBF96E6E4E518214322D450EDF5813CB99E031B1FCE6A9BF075F81D76F1E7BEF149E70B686EA17E039B661E8CB019C61F002C29762664C
311
DBC484236D3CB00200699258BCC414F2701AEDEC708D2C87AC8C5D84873E4C86BA2FF80C3C230689A23969F02E80E5415A3C234103B6869150A325BF5170EFA71FD25973B059760ADE8B5F42D79BD5E68F4D2D5212D30713D32B9AB2822994B83D6F860A8D301F59F44C5FBF972281A13FE2BD19E29D9BA324D0D6986BE0B3
311
2EA7EBC1FEE4D10131F665A54E37C14F4E8011BAB00EE43F301953CE4941CBBA3BF7CDFA81B2D142AC835D33B92F30FBC202D2B47F0E6210453A16ACD220F6D5AA4F9AEE09EBBEAE3F82917678FBFA27791D66AF689F7BE39297621BBD6EDBB47414EA6F636E1B0C3C2D05746F82A48B7F03FA3661695A4B24C123B87E5B2F
311
87BED3690129A293DA46CB1CF623B88830A4EDE4A25A0B824A5A165B86BA89B83B7AC0503E20350C68049ED258529E6E19E775BE4D194735DAE6A43A01C7FFD73FAAF36A4BF2B22ED409D923D5511DC6BA8FD82BBF13153FD9E1A6793BB7C8BD094D4E9041D79223588D5D7BB1B8BB99FA2B677EB19A38F3F96AE1DC4E2EAF
311
9CCBC5F26E3159CEE693CB3D9A4D1315065DA9194634BC84D216D48219F77D5D237E4C12B0C307A2E4E387363CBBF7D7B58B5E38F0B007F5B2DF7893BCA0EFA3C9CF05EC571E15B4CE2B4E735A28A263E8417FF02F047DC64899767E9D938C9E21E5D387CD8131983963DF671DEFF4FBC15E33BBD4017954887AAAF3A8208C
311
1F6CCC5A24DDAAC80C7E9D4FFA775B68BAA11E19C7A03395256709F2606265B4CCA942363CA308899C4A506FD8D327E6EE71C6EE97B6435424E2B4D3E489A049E612610192D7B11ACF5BBFA1A9D37DD5B58D72EB3EE36132856D8133D7369A74C5622ADD08055AB7428D707069D8C983B3A4C8387AED76533FEE77696C4625
311
B95F724EFF64EC6A53B8310069A442DF808608DE699409834637F33FFE4F8677EA5844E133AA556FCB7EA237A6390621DA1A656E0B68629ECDD13B04EADB66F96EB36684C859B7AC3749D04A751411597353D0FA19956E569F3D7428D6FA9355F13A832FCF97E4080A32D73AC0C122B0C2C8AC88025597BF3F7E16256EB2B9
311
75CF4081C76599E765610637E6266C6D9E70AF4D1E9116A8BE90C8C7E9C49F3E3617017337D94644529724F21913F0A9603DC423C78391ED6D1139B3FDD1AFF3B4130EB8B95E59A6A4CD21D410659855352C68390A6A217AF46552C7CA7041F5E65DC06B964205812E3EFC17504B0304140006080000B44C5C400000000000
311
00000000000000350000006662782F46374535313037442D354544382D344342342D383745412D4441424332334344454642462F76657274696365732E62696E504B0304140006080800B44C5C40F270F1330600000004000000360000006662782F46374535313037442D354544382D344342342D383745412D4441424332
311
334344454642462F747269616E676C65732E62696E636660600000504B0304140006080000B44C5C40000000000000000000000000370000006662782F46374535313037442D354544382D344342342D383745412D4441424332334344454642462F617474726962757465732E62696E504B0304140006080800B44C5C40D5
311
987DFC8F00000041010000360000006662782F46374535313037442D354544382D344342342D383745412D4441424332334344454642462F6469726563746F72792E786D6C858F410EC2201045AF4266AF15DDB800BA74E7C21B903225242D6328188F2FA5C4183471359997F9FF81E89FF3C41E1816475E02DF1F80A11FC8
311
386F25A438EECEC07A250251FC3803E6F58C12560C4AD840E95E91C151A72936F496F35732D860FE635F62C8F2DA16B505C545B74125BAA2FA9E05D7CC053D063734D5C7665FD55B6B8D15D5E9BFEAFD8490FFA45E504B0304140006080800B44C5C409355D0DEFD000000A00100003B0000006662782F4637453531303744
311
2D354544382D344342342D383745412D4441424332334344454642462F7265736F75726365732F636F72652E786D6C8D50596AC33010BD8A997FD9B2ACC40BB242429A13F402429EB822B114B4941EBF72E242FBD79F99E12DCCE389C3D7722F3ED107E3EC087549A140ABDD64EC3C428A57D2417190C23B177FC9A0B06AC1
311
115618A498BD4B8F0DD2CE46B431A3D64DB8812A048C50E87B3E4608FA031755AA14B322DCCA87D2373563599799CE3A2942F43940F17AB24E901E834B5E6310D58B952225336D1A33E59FE66AD0833CBE9DBBCB9153D236174678BF3F91BE3D5D08E58CEFF667DEEF2817D56A96229AE527A3F6A8224E2019AD19A18CB0EE
311
9DF643D30EBC26743F502AAA55FEC7941ED33F4DC9D8D8B02DEECB1640D639C89390A25AFBCAEB5966DE6BB7F21B504B010214000A0000080000B44C5C403DEE336E79000000790000001B00000000000000000000000000000000006175746F6465736B2D64657369676E2D7061636B6167652E786D6C504B010214001400
311
06080800B44C5C40D486FD9CA0000000F40000001300000000000000000000000000B20000005B436F6E74656E745F54797065735D2E786D6C504B01021400140006080800B44C5C4080FEFE46EA0000007C010000080000000000000000000000000083010000636F72652E786D6C504B01021400140006080800B44C5C40
311
55019EA25F0000007C000000070000000000000000000000000093020000636E782E786D6C504B01021400140006080800B44C5C4065D3BC9D65010000020300000C00000000000000000000000000170300006662782F636F72652E786D6C504B01021400140006080800B44C5C40932B6DCA7E0000009D0000000B000000
311
00000000000000000000A60400006662782F636E782E786D6C504B01021400140006080800B44C5C4098B1F47B2D0100001402000031000000000000000000000000004D0500006662782F46374535313037442D354544382D344342342D383745412D4441424332334344454642462F636F72652E786D6C504B0102140014
311
0006080800B44C5C40708E30024D010000330300003000000000000000000000000000C90600006662782F46374535313037442D354544382D344342342D383745412D4441424332334344454642462F636E782E786D6C504B01021400140006080800B44C5C40082268219A0500007B100000340000000000000000000000
311
0000640800006662782F46374535313037442D354544382D344342342D383745412D4441424332334344454642462F6F626A656374732E786D6C504B01021400140006080000B44C5C400000000000000000000000003500000000000000000000000000500E00006662782F46374535313037442D354544382D344342342D
311
383745412D4441424332334344454642462F76657274696365732E62696E504B01021400140006080800B44C5C40F270F13306000000040000003600000000000000000000000000A30E00006662782F46374535313037442D354544382D344342342D383745412D4441424332334344454642462F747269616E676C65732E
311
62696E504B01021400140006080000B44C5C400000000000000000000000003700000000000000000000000000FD0E00006662782F46374535313037442D354544382D344342342D383745412D4441424332334344454642462F617474726962757465732E62696E504B01021400140006080800B44C5C40D5987DFC8F0000
311
00410100003600000000000000000000000000520F00006662782F46374535313037442D354544382D344342342D383745412D4441424332334344454642462F6469726563746F72792E786D6C504B01021400140006080800B44C5C409355D0DEFD000000A00100003B00000000000000000000000000351000006662782F
311
46374535313037442D354544382D344342342D383745412D4441424332334344454642462F7265736F75726365732F636F72652E786D6C504B0506000000000E000E00800400008B1100000000
310
504B03040A0000080000B44C5C403DEE336E79000000790000001B0000006175746F6465736B2D64657369676E2D7061636B6167652E786D6C3C3F786D6C2076657273696F6E3D22312E302220656E636F64696E673D227574662D3822203F3E3C666F726D6174733E3C666F726D61743E687474703A2F2F736368656D612E
310
6175746F6465736B2E636F6D2F64657369676E2D7061636B6167652F323030393C2F666F726D61743E3C2F666F726D6174733E504B0304140006080800B44C5C40D486FD9CA0000000F4000000130000005B436F6E74656E745F54797065735D2E786D6C7D8EC10E82300C865F65E91D8A1E8C310C0EEA1BF002731658846E
310
D98AC1B77784ABF1D8FE5FBFBF75BBCE937A534CCEB38643598122B6FEE978D0B0485F9C41B54DDD7D022595594E1A469170414C76A4D9A4D207E29CF43ECE46F218070CC6BECC4078ACAA135ACF422C856C0E68EA1BF5669944DDD7BCDE7B1F8E415D77AECB980613C2E4AC91FC167A2B244592486606FC29C8FD7F045B9A
310
EF7053A7E60B504B0304140006080800B44C5C400CDA39C5EB0000007C01000008000000636F72652E786D6C8D90416EC3201045AF82668F0DD875130B13C5B57B825E0001715162B00C543D7E71E248EDAEAB19FDF96F66F4F9E97BBEA12FB306EB5D07B420808C535E5B377590E2051F009D045FBD8FBF6C809C9C4D079B
310
0C824FAB4FCB2E29EFA27131ABCE6BB38B32041301A95B6E3A08EAD3CCB290296647B8168B54573999823EBB0CA764357A1CB13AEFB3176B56104D35BED5C34B85C773CD703DF4EFF8D80F15EE593D36F4DC0F43DFF07283058F767EDE57AB91D168108C508609C3ECF0418E6DF5DAD61493A62584979BFD0F9416FD4F2859
310
172BB6BFFBC002089A1FB90F042FB72C72B90795EB969BF801504B0304140006080800B44C5C4055019EA25F0000007C00000007000000636E782E786D6C4DCB3B0E80201045D1AD90E915ED2CF8AC45050C11660C8261F98AB1B07AC9C97D42D718D865D3E909258CFD00CCE24AC6E326A164D74DC0B4128928FF32603847
310
2BA13128B1252AC747C6BAB984FC68F0B87FE8960A5C09FE86CFB69FBA01504B0304140006080800B44C5C409A61063D67010000020300000C0000006662782F636F72652E786D6C8D525B6E833010BC8AE57F633094269171144A7A825EC00187A2808D8C8D72FC2E8F284D55451192B16676766707F8FEDAB5685476688C
310
CE70148418295D9AAAD17586BD3B930D467BC1AD31EE5719465A762AC3138C05AFADF1FD0A95463BA51DA0DA546A05E530288751D9C225C343F9AD3A1948EFA062B804BD2C2FB2564114000D75820FCE8201B40C994E2CCEA72BA70B2EB8F74DB5B24D05D39A73A32C16697CFC488AB7981C0F092349917F926D5EC42467C9
310
318D0E7951E429A7935870D7743777A555D2A90A0B16468C848CB0CD57B8DDC5EFBB242261BA0B434EA7F20791EFAB1745BED12E66ABDD45366011819199F8B32D44E4D02047F04305A75388F09A137E0C1A0281909D3CB5B73D2E008DAA74C626C054C6DFA951B65EC1D410CD0FA70B0B9DE706B0D9BF7DD8933ECF7BC007
310
94BA066BD2C1F5E4DD349D2F53D7287A65C9E8AE481BDBC9F66E6EB1783FEF83FE9597A635F615355D57A56B9874FA7BC50F504B0304140006080800B44C5C409B830B2E7E0000009D0000000B0000006662782F636E782E786D6C4DCCD10A83201886E15B91FFDC954B6982196DEA7DC4B290990EA76397BF1A1DECE88387
310
8F57F49FD5A3B74D2F174307E45403B2E11E2717960E4A9EF105502F458A31FFDD008571B51DEC0C522C2996E741939DC7E2F3A6DE85C78103A98786DCCE9811C5306D89C29C7185356F5A6DAE941AA3A192A2FA95B6DDC3F20B504B0304140006080800B44C5C40CAA367322C01000014020000310000006662782F413130
310
41333143322D353144352D343731442D393539442D4539333745464234344646452F636F72652E786D6C8D51CB6EC32010FC158B537AC006EC38768489D226F982FE000192A2C460F1A8F2F985DA91DA5B2E2C9A9D991DEDD2DD63BC17DFCA796DCD00708940A18CB0529BEB0062B8C00E143B469DB5E10F0D14868F6A0019
310
068C5E9D8DD302096B823221A1C64AB580DC7B154021EEE933002FBED4C84B1E4362F85B397171E35755E232B5138F511F5C0A50CC43F20BD81EA37D8D3F085CE3C31A361B7C80FDBA3FC0635F6F8EA7F7A6399D8EB49A858CC6A8E522D732C5D117ADDCAB2659CC68D0E333BE708A072501230813880824DD27EAB7F566DB
310
6088DA2D42B4CAF47FA238C91745519B509325EE2CF380615ACD0D46A58DE7FB338C7A4CD68522CF5B7925DE0043252235215DDBD26AA6A60524CFB6593C7DB02E2D78753B2776BD18B70DA355BE512ABF074C35DF93FD00504B0304140006080800B44C5C401629FF155401000033030000300000006662782F4131304133
310
3143322D353144352D343731442D393539442D4539333745464234344646452F636E782E786D6CBD93CD6EC32010845F0571F76F2C378D30917AE813F4D02B864D4283C1025C356FDF2521692E3954AA7A41D6EC30B3FA84D9F66B32E4137CD0CE0EB4296B4AC04AA7B4DD0F7489BB624DC99633EF5CBCB35162C504034D32
310
E56CEFDD326749C14E2C26A26AB43D66D143708B9710504E37897152180C005B2C28C2348252A0C8CD885F3BF0B80A8AE389C40390D79777E2C60F9031B02AA57056A50ECED2999BEE4C944823421868900798442996E8148463A9441465535EBB1EECF49344D2856BE5E23549E5034D27E579A31239B20A879C85E8915E36
310
C5D30C948B79365A8A8890ABB3F1E2E16CD136F65DF66A04EFD1BD6AFBF51AC3CE33CEA29E203BA407114151DED64D5BD46DD1AEDFEAE7CDEA69D33545DD6FEA9A55C9CED9E89CC9973006BC9B897436828D9437AC4AE347F8B28F28ED91B5F3A75F804400B9F542E796F1977C9A7ED575FFC8A73ABF6FC4E5F12FE0DF504B
310
0304140006080800B44C5C408D3C5CC759070000941B0000340000006662782F41313041333143322D353144352D343731442D393539442D4539333745464234344646452F6F626A656374732E786D6CED59DD739B3810FF5718EED91862A7AD6F089DC46E3B9E5EDA4E7DEDDC4366181964A28B108C24D2F8FEFA5B7D8081
310
98045F736F7DB00121AD767FFBA9257CFB9053E71E73410A76E1069EEF3A9825454A5876E156723779E33A6FA39017856C4D731D86727CE1AA61370A335E54A51D4AF10E5554F646DF5FFDE5880433EC3A0945425CB822B9C539F250258B148B3B2F451279D9EEC10B3C33B14B36E3A8BCED112D11C74C02A730CE808A6398
310
0ABA8FBE3B8DC2A97A1F85EADFCE9A8D9A351F9E35D55277B9244C48C492472CF5C8CC46B1340BE6AB7767E78BC9F97C3E9BCC5F9D0593ABF757AB49F07AE62F5F2D978BCB770B606F5B14D4CA94E212B314F4B777A3209CAA378DE81681635C27056338D14002545AAC3E4182056CD582CFEF3E064AA2D66B2D61EB79AEDE
310
5B165AC3B32E95A159E380E8D00541EC76B5C4F5B52D5FB1FD1B0417638C920B2C815B213968D7C2C3C12BDCC80FA766340AB7075D10E1E448624E107528D972C4412930554D8942B3C09251CEC18194A324D09A33AFBBB6059EF9BCEB1CE3725751AA3CC38DB463C5E07E580ACD19F907F303F76D64802790B6224CBEB15C
310
CA7D89DD68114EF56014AACBECCCBE34403A3B8A32A111316F7B822E95EBAF576EF4F1FDF661A3C2C1F1CD4B5E94984B65744A8F9A2F30647B5528D96D83519A530B401803AA5D7900E52B20FF09A2C78115D01B270FF387B99D2B39626257F01C74E3F8CEC4873FDF09F4BFBA6FDD85D36671577B4378829B2AA8DEFC3C9E
310
5D19345696FF169C51780F065FF0997DB54910057BBE260C005246E2D0028620B4EFB60F6EB486C009811E56211A052032B07B0FB7E1D4923968A5762FEB750C10B57BCCC6280960D316096C0CE8E903640F4E92839ADA220EC17BFE22E67AB9DA7CDC547C87127C6D7D7A857784110959F338431DCC3B12DDE1FD8F82A720
310
E863BC376DBC73BB9500B415E60AF8AC06413D1C76EE6C90C0BAAC50E1267C66071042E5EA16FD6B22124C2962B8A8EA7D9BE8A60CB5F1785B33B8D199817876D633618EEF89AA2AC0690E333A8C42DE4F382915886EF4C148D6044D6F40BA6FEB4F6091CDFC81596B06A19721FAA70E5A4770E858768DB405A211787B08E7
310
49410B1E6FF7B189742ED412C046D75BBE778842AC374A5254C083B4DFD5212533D2C629D9ED2A0171F5088BDFD7CBB639F8DE2C3877DAFF3D679C43B405DF45DCFA5D6F8F98E428C3F10EA543DBB5776B680B4D728034C73B0A72917B22F73192B19FE2EC14684E22BE7851EA192D84200C0BC85747C16FA3E17B10488C36
310
6B9695567B401311E758227A0A028ACC00B83AEDE81A3781D2E1791E1BEB7D4A636DA2FF93457004B564C16202A528E49067190FBC7388215D740DCA3D7CC1DA6ADA5A0C5A410991ECE31F9864B7F214D40DF901DC13389254322E4A9480598F20FBC85794527BBC6F5172A7F2479C54F4A50C4460BA8B09A5551EC38F3038
310
798C71ED26303D89428BB8897D12E750942159F1319BBC3AF71FED636A867E086C6DB42314C2769CA37200F54E40D4F588D3806FA90F28755BE5658CF2A262A30CC59BF5BDC992EFAB55911DC9AF2A15A16CAC095B825148986CB26A1DB3C1D475600537D2816A1F0B9497D49CC29E493C41E34D9AF2E006DCFAE9CB6E9043
310
E137A0BD76449DD730581E3B8581F8816472EB461B7D9D5C41FD9DE2F490EAEB5AB35D0102622A92579C58157D5B4379636B3437BA4652DC7C3059B7BE7E5B7BD0FD08A7B0066A9766E15A019D632691AA4CAED50DFD8A2004776898F1B5CAA9A750B94C535D3522FA9E0CA9B353467436CD8957DE6256E4F063378425B44A
310
F10D4AC55D7C2D69BC218A752BA597931AE32705FCFC61D38307464688F4451578F8476FAD1D5DAA72E92811795BE55B860804C18E6899D18D57B2CC6AA4D6727355670AA8BBC0C0AC8AE7BF4E16ED76C4AF9345660DE3A74E1657FB3FD0BEDD1769A5F344D9F549C780263F292A2F710CD06D87866A93454C32B7F25B678A
310
2128D6517E743556070D437088E3FF9CB587B2A0D9AEC7FF69593B7854719C94553A935597EA48E5BA6EE7B0E07CF1EEF22C584DE6E72B7F329FAF16932BFFF59BC9EBC5F2DDC25FCEE6FEEB464F86781436C14CE72E783641AD1E564F1603E8CA8A8292144EF3A9936188F912CEF423DAE73CC7029267BBD99DDAA6FC88D5
310
F7A6CF29D196E29A935B040D622A20AD83185522BBE3CE6FD09A9470D0BE70A169E4DDC19FB54AD781CC73E142AB4092040B6F0B6D26D5D0D3C421E5EADC6F894120432C5329D12C6A9E9B550A9B4EF86FA68C490356AE4E0F030AB712BA5F9D0E85E6CDF2949C2478CD8E8324DC6E2B09D59A91E530D008A3B739A8DFC846
310
09BBB35B3F80EB3E2D56E0E9391D44467D3278D2080CD589443CD3FD6EC59865E972F5650A7D3667FDD9296995812EC7539A700CC65CA9820AAC08ACC2D22C9104535DFE7EF38517F0892777745574B32CF2BC60F6E112CE63297C227236B7F0C127BD81B201ABB6BAB839F383B31BDDCEB61DF6788B04F6543D04037519A1
310
44E8191B58E4A3D6946D5C4E95127AD3D72BC7864F6803180B7AD4DD359FB71CF01EF52145F98AF6F05ACE273BDA533D15AC81432F3AFA17504B0304140006080000B44C5C40000000000000000000000000350000006662782F41313041333143322D353144352D343731442D393539442D4539333745464234344646452F
310
76657274696365732E62696E504B0304140006080800B44C5C40F270F1330600000004000000360000006662782F41313041333143322D353144352D343731442D393539442D4539333745464234344646452F747269616E676C65732E62696E636660600000504B0304140006080000B44C5C400000000000000000000000
310
00370000006662782F41313041333143322D353144352D343731442D393539442D4539333745464234344646452F617474726962757465732E62696E504B0304140006080800B44C5C40D5987DFC8F00000041010000360000006662782F41313041333143322D353144352D343731442D393539442D453933374546423434
310
4646452F6469726563746F72792E786D6C858F410EC2201045AF4266AF15DDB800BA74E7C21B903225242D6328188F2FA5C4183471359997F9FF81E89FF3C41E1816475E02DF1F80A11FC8386F25A438EECEC07A250251FC3803E6F58C12560C4AD840E95E91C151A72936F496F35732D860FE635F62C8F2DA16B505C545B7
310
4125BAA2FA9E05D7CC053D063734D5C7665FD55B6B8D15D5E9BFEAFD8490FFA45E504B0304140006080800B44C5C401F71175DFD000000A00100003B0000006662782F41313041333143322D353144352D343731442D393539442D4539333745464234344646452F7265736F75726365732F636F72652E786D6C8D504B6E83
310
3010BD0A9ABDC1184A13641C85424FD00B586642AC041BF953F5F8350995DA5D3733A3F7D13C3D7EFA5AEED9273AAFADE9A0CC296468949DB4993B88E1420E909D0477D6865F32C88C5CB0830D06C16767E3BA43CA9A802624D4D80977507A8F0132754F47075E5D7191B98C2129FC2D5FA5BAC919F3324F74D209EE834B01
310
B2E7936D8270E86D740A3D2F9EACE031EA69D7E829FDD4178D0E44538D6FF5F0C2C878AE19A987FE9D1CFBA1223DABC7A63CF7C3D037BCD8CC8207BDFC64540E65C00904A32523941176F8A0C7B67A6DEB92D0A6A594179BFC8F29AED33F4D519B50B13DEED3E6419429C88310BCD8FA4AEB5166DA5BB7E21B504B01021400
310
0A0000080000B44C5C403DEE336E79000000790000001B00000000000000000000000000000000006175746F6465736B2D64657369676E2D7061636B6167652E786D6C504B01021400140006080800B44C5C40D486FD9CA0000000F40000001300000000000000000000000000B20000005B436F6E74656E745F5479706573
310
5D2E786D6C504B01021400140006080800B44C5C400CDA39C5EB0000007C010000080000000000000000000000000083010000636F72652E786D6C504B01021400140006080800B44C5C4055019EA25F0000007C000000070000000000000000000000000094020000636E782E786D6C504B01021400140006080800B44C5C
310
409A61063D67010000020300000C00000000000000000000000000180300006662782F636F72652E786D6C504B01021400140006080800B44C5C409B830B2E7E0000009D0000000B00000000000000000000000000A90400006662782F636E782E786D6C504B01021400140006080800B44C5C40CAA367322C010000140200
310
003100000000000000000000000000500500006662782F41313041333143322D353144352D343731442D393539442D4539333745464234344646452F636F72652E786D6C504B01021400140006080800B44C5C401629FF1554010000330300003000000000000000000000000000CB0600006662782F41313041333143322D
310
353144352D343731442D393539442D4539333745464234344646452F636E782E786D6C504B01021400140006080800B44C5C408D3C5CC759070000941B000034000000000000000000000000006D0800006662782F41313041333143322D353144352D343731442D393539442D4539333745464234344646452F6F626A6563
310
74732E786D6C504B01021400140006080000B44C5C400000000000000000000000003500000000000000000000000000181000006662782F41313041333143322D353144352D343731442D393539442D4539333745464234344646452F76657274696365732E62696E504B01021400140006080800B44C5C40F270F1330600
310
00000400000036000000000000000000000000006B1000006662782F41313041333143322D353144352D343731442D393539442D4539333745464234344646452F747269616E676C65732E62696E504B01021400140006080000B44C5C400000000000000000000000003700000000000000000000000000C5100000666278
310
2F41313041333143322D353144352D343731442D393539442D4539333745464234344646452F617474726962757465732E62696E504B01021400140006080800B44C5C40D5987DFC8F0000004101000036000000000000000000000000001A1100006662782F41313041333143322D353144352D343731442D393539442D45
310
39333745464234344646452F6469726563746F72792E786D6C504B01021400140006080800B44C5C401F71175DFD000000A00100003B00000000000000000000000000FD1100006662782F41313041333143322D353144352D343731442D393539442D4539333745464234344646452F7265736F75726365732F636F72652E
310
786D6C504B0506000000000E000E0080040000531300000000
  0
XRECORD
  5
17
102
{ACAD_REACTORS
330
12
102
}
330
12
100
AcDbXrecord
280
     1
270
     1
271
     1
  0
XRECORD
  5
16
102
{ACAD_REACTORS
330
12
102
}
330
12
100
AcDbXrecord
280
     1
270
     1
271
     1
  0
XRECORD
  5
18
102
{ACAD_REACTORS
330
12
102
}
330
12
100
AcDbXrecord
280
     1
270
     1
271
     1
  0
XRECORD
  5
15
102
{ACAD_REACTORS
330
12
102
}
330
12
100
AcDbXrecord
280
     1
270
     1
271
     1
  0
XRECORD
  5
A10
102
{ACAD_REACTORS
330
22
102
}
330
22
100
AcDbXrecord
280
     1
102
MATERIAL
148
0.0
149
0.0
149
0.0
 93
        0
 94
      127
282
     0
 72
     0
 77
     0
171
     0
175
     0
179
     0
273
     0
  0
XRECORD
  5
24
102
{ACAD_REACTORS
330
22
102
}
330
22
100
AcDbXrecord
280
     1
270
     1
271
     1
  0
XRECORD
  5
23
102
{ACAD_REACTORS
330
22
102
}
330
22
100
AcDbXrecord
280
     1
270
     1
271
     1
  0
XRECORD
  5
BA
102
{ACAD_REACTORS
330
22
102
}
330
22
100
AcDbXrecord
280
     1
 70
     1
 90
1959938040
 71
     1
  1
572945C4-64E2-4D67-A45E-35B38031B0EB
311
504B03040A0000080000B44C5C403DEE336E79000000790000001B0000006175746F6465736B2D64657369676E2D7061636B6167652E786D6C3C3F786D6C2076657273696F6E3D22312E302220656E636F64696E673D227574662D3822203F3E3C666F726D6174733E3C666F726D61743E687474703A2F2F736368656D612E
311
6175746F6465736B2E636F6D2F64657369676E2D7061636B6167652F323030393C2F666F726D61743E3C2F666F726D6174733E504B0304140006080800B44C5C40D486FD9CA0000000F4000000130000005B436F6E74656E745F54797065735D2E786D6C7D8EC10E82300C865F65E91D8A1E8C310C0EEA1BF002731658846E
311
D98AC1B77784ABF1D8FE5FBFBF75BBCE937A534CCEB38643598122B6FEE978D0B0485F9C41B54DDD7D022595594E1A469170414C76A4D9A4D207E29CF43ECE46F218070CC6BECC4078ACAA135ACF422C856C0E68EA1BF5669944DDD7BCDE7B1F8E415D77AECB980613C2E4AC91FC167A2B244592486606FC29C8FD7F045B9A
311
EF7053A7E60B504B0304140006080800B44C5C408D4F9095EB0000007C01000008000000636F72652E786D6C8D90416E83301045AF62CDDE601B4203328E5A0227E8052CE3102BC146D8AE7AFC9A8448EDAEAB19FDF96F66F4F9E97BBEA32FBD7AE36C0B342380B4556E34766A21860B3E023A09BE3A177ED9005939EB1636
311
19049F5617975D52CE066D4352AD1BF52E4AEF7500A4EEA969C1ABAB9E652663480E7FCB16A96E72D2197D75098ED18CE879C48C699FB918BD82782F8A73D997041FCAAAC765D70DF8A3EF0866B4AE87E15CD787AEE2F9060B1ECCFCBAAF562D831E41304219260CB3E327A99BE2AD292926554308CF37FB1F282EE33FA168
311
6C28D8FEEE13F320687AE431103CDFB248E51154AA5B6EE207504B0304140006080800B44C5C4055019EA25F0000007C00000007000000636E782E786D6C4DCB3B0E80201045D1AD90E915ED2CF8AC45050C11660C8261F98AB1B07AC9C97D42D718D865D3E909258CFD00CCE24AC6E326A164D74DC0B4128928FF32603847
311
2BA13128B1252AC747C6BAB984FC68F0B87FE8960A5C09FE86CFB69FBA01504B0304140006080800B44C5C4033F8DD8D67010000020300000C0000006662782F636F72652E786D6C8D52ED8E8230107C95A6FF4BCB879E98527387FA04F702152A4784969496F8F8B77C18CF8B3186A434333BBBB3037C776D1B3428DBD746
311
67380C18464A17A6AC759561EFCE6483D14E706B8CFB53869196ADCAF00863C12B6B7CB74085D14E6907A836A55A40D9F7CA61543470C9705FFCA85606D23BA8E82F41278B8BAC54100640439DE0BDB36000CD43C6138BF3E9CAE98C0BEE7D5D2E6C5DC2B4FA5C2B8BC5671CEF9343C2C82A591F4892E747F275C81989C234
311
3D1EF769BACAD79C8E62C15DDDDEDC155649A74A2C221646844524DA7CB3741B7F6C9390B0F596314EC7F20791EFCA3745BED62E8E16BBB3ACC722042313F16F5B88C8A15E0EE0870A4EC710E13525FC18340402213B796A6E7B5C001A54E18C4D80298DBF53836CBC82A90C4D0FA7330B9DA706B0D9D33ED18B3EAF7BC007
311
94BA026BD2C1F5E4DD389DCF5397283A65C9E0AE481BDBCAE66E6EB6783FEF839ECA0BD318FB8E9A2EABD2254C3AFEBDE217504B0304140006080800B44C5C40F7EB4BD07E0000009D0000000B0000006662782F636E782E786D6C4DCCD10A83201886E15B91FFDCA5CCB2811A7F6BBB8F581692E9703676F9ABD1C18E3E78
311
F87855F3593C79DBF4723168E02706C486471C5C9834AC79A43590C6A81463FEBB0109FD6235EC0C464D29AECF83063BF6ABCF9B7A17E60365C51019B6540A595281174EEB2B3FD3AA1325DEEED8D61D426154F12B6DBB87CD17504B0304140006080800B44C5C40218076052C01000014020000310000006662782F373630
311
41413041422D373437352D344139312D384331332D3644343541454641423844412F636F72652E786D6C8D51CB6EC32010FC15C4293D6083E3F8116122D2B45FD01FA098A42831583CAA7C7EA176A4F6960B8B66676647BBF4709F6EE05B39AFAD1920293004CA483B6A7319600C67D4417060D4591BFED02030625203CC30
311
64F4E26C9C57485A139409093576542B28BC570102794B9F017AF9A52651881812C35F8B59C8ABB8A88214A99D788CFAE05200B00CC92F646D8339C7FC88DABADDA19AF70475AF648B9A53BDE36FEFFCD89D382D1721A331EA7195EB31C5D167ADDCB32659CC68D0D323BE744A043542566152215CA1AAFBC0FD7EDBEE6B82
311
70B3C7989699FE4F14E7F14951D4266CAB35EE22F390115A2E0D46471B3F6F8F30EA3E5B17409EB7F14ABE40860B5C557DDF371D2D176A5A40F26CEAD5D307EBD28237D7CFC426BBC5B8A9192DF38D52F93D60AAF99EEC07504B0304140006080800B44C5C40708E30024D01000033030000300000006662782F3736304141
311
3041422D373437352D344139312D384331332D3644343541454641423844412F636E782E786D6CD593BD6E032110845F05D1DFAF4F8E6371584A912748919683B543CCC1899F287EFB2C3676DCB84899069D668799D5278EEDBE6743BEC007EDEC48BBBAA504AC744ADBC34853DC571B4A769C79E7E29D8D122B6618699629
311
6707EFD25224057B914C44D5687B2CA287E092971050CE37897152180C005B2514619E402950E466C4AF3D785C05C5E944E20790D79777E2A64F9031B026A770D6E40ECEF2599AEE4C944823421869901F308B5AA4E8148463AD441475575FBB1EECF49B44F2856B65F29AE4F291E693F2B2518D1C598343CE42F448AF98E2
311
6901CAC5B2182D4544C8CDD978F17096B48DEBA1783582F7E8EED6AB61C0B0F38CB3A867280EE941445094F76DD7576D5FF59BB7F679BB7ADA0E5DD5AEB76DCB9A6CE76C72CE944B1803DE2D443A1BC146CA3BD6E4F1237CC54794F6C8DAF9D31F402280D27AA173CBF8CF7C9AF3FB465C1EFF02FE03504B03041400060808
311
00B44C5C407F43B6369B0500007A100000340000006662782F37363041413041422D373437352D344139312D384331332D3644343541454641423844412F6F626A656374732E786D6CAD57DB6EDB3810FD1541FBEC8B7C499385A222B693C228D216355AEC4300839228851B4A14482A75F6EBF750A264C9B113EFA22F9645
311
0D873367CE5CE87FDC65DC79A65231915FBBDE70EC3A348F44CCF2F4DA2D7532B8749D8F812F85D01D31D7C94946AF5DB3EC067E2A4559D8A59826A4E4FA60F56EF197A3229A53D7893851EADA55D123CDC890945AC4543D0D63A2C9304D76436F580BF6D5A692148F074A0B2269AE6129D67368716AA3BCFEEBD81D05FEC8
311
7C0F7CF36BA5A6A7A546953FFDF359AE34C9A357871DA8997AB3D5ED647E3598CF66D3C1EC62E20D16778BD5C0FB301D2F2F96CBAB9BDB2B1CACB484266B89A4891B7C02369245FEA8FE14F825CBF57462456C8046923E3313293798389E3FAA655AEFAC93C7CC8F449ED3A8C20A6854FE59D5312D681E23E68C2A58D64168
311
DC7FF50C8E9DCF53F36E8FEC2E9F874077474751637BF3EC5A2AC2BFE1823A87415251C3C01A4BEB68CDD5F11EE150086EBF31E5644453C90877380B25912F6E00512312F83D3586C9D26483F1C00D1085FA739F2E48A3F7797ECCCAA4E4DCD0D80DAA2CD82257A8569565EC1F2AF7D67791814D889561C3A57548BF14D40D
311
AE6A8A5C1EB0A906D24938491172B869764E27078E2E4D9EAE576EF0F92EDC6D4CEE1E3FBC90A2A0521BFA805A4DE09AA741C9DAE49D1539B3C13D30650FCA7720FF05A9BE370571936C37DBCDEC295A925C254266888D33760663FC8C1DAFFA35FF3BFFFC51BBB91FBD537822D806AADF8067DF876E2C3B7006FE33082FE4
311
D4BAB6890847D9B8673900322471B8C012EA7012EEDC608D2A87AA8C5D84071E5C86B9CFF8EB8FAC1A148AEAA4CE3307960765F18C020DD82A46C28C9AFCD6C07D9C5E95B3EA602B760ADEF96FA1EBCD6AF37953CA8444F4DEE6F48A262C671A2D6ECF9BAE413DCC7B1E3DD1975F42C670F435DE9B2EDE993D4A016D83B901
311
3E6D6ABA79D99FDC3B20C2BE549872E3BF73029C308DB5A3FF9EA988724E722ACAE6DC37FB07DA460DB14976C3E4B6C1EC1B0B48537F39C84134E948B2C280D876ABB6680E4F78F763FD058C843C1721E17BA1705F7A23C185DC862FDBBA2A1D45FA679FDA168291D102B65739D2A4BFC57C1BB32429156AE011587FAE97DD
311
D099AA800AD168AD936506F7915B445ACE367AD1AC25412315F996A16D22ED8E1ED0D50F442D012A85A72C5694275BC679996D13C6D18CB619294EC0F1FFED0FCBACD8924C94B93EA1BB673A9A43DFF61E79D52FA2A34737D854CFC102A537A6F13ECC3D61D34A8E60D50BEDFCC3E46A365FCE0617B3DBC960B6BAF830B899
311
CD6F07D3F9627A399E7A8BF1EDA28953AD3CF09B4ED34D6844099DCD2F25B3E1FBB146FAD81AE006F744AB874F757636CF1FEB2146617F843D6897EDC69BF819631F8DDF57B0973CAA689D159C6634D7C4A4D0BDF9C3BF138C193D63EAF57546527A8696AF9F3607CE60E58C7DDF4CBAD35F077BEDEAD224E45125FAB1CCC2
311
9C307EB031AD911C16796AF16B62D23EEB3ED3BC9A371B180CA64A7016A30CC64E4A4546358AE1193D486654817ADD913EB6578F33763FD703A22621A78D258F04333257480B50AB8C747FDDF903339D19ABAE5D74DBE1137E6CA5701D70E6DAC58CAE5944D530447F369350A51C5CEA0EF298FB499E728CDAF5A6F6BDDD65
311
B0E975E456E49CF1C9FA555770EB00CA4881B101F310A2531913F8956DF67BF49F1C6FCC7188C6DFB0D4AD2FFB85D699EA18A468ED94BD2C608679B247EF90A86FBBE50D2B991E22675DB2DE2441AD75A0894CAB8B82B1CF9A74B3FA36C280E2ACBF3A052F53C4F27C4D034941E6D22438580456589D05D1A0EAF2CF876F52
311
E0229B39770C1478588A2C13B97DB9B1176167F3886B6DFC80B240CD7D443D4CC6DEE4A1BA07D8ABC936248A0E49AC9EB080984AD642DC0B3C18595F16D181EA0FADDCC804E1809BEB95635BDA0C4A2D51BA55D5C0828923A70EB2C7DC254DAE74058A37AF02A34A1426480CF1C1BF504B0304140006080000B44C5C400000
311
00000000000000000000350000006662782F37363041413041422D373437352D344139312D384331332D3644343541454641423844412F76657274696365732E62696E504B0304140006080800B44C5C40F270F1330600000004000000360000006662782F37363041413041422D373437352D344139312D384331332D3644
311
343541454641423844412F747269616E676C65732E62696E636660600000504B0304140006080000B44C5C40000000000000000000000000370000006662782F37363041413041422D373437352D344139312D384331332D3644343541454641423844412F617474726962757465732E62696E504B0304140006080800B44C
311
5C40D5987DFC8F00000041010000360000006662782F37363041413041422D373437352D344139312D384331332D3644343541454641423844412F6469726563746F72792E786D6C858F410EC2201045AF4266AF15DDB800BA74E7C21B903225242D6328188F2FA5C4183471359997F9FF81E89FF3C41E1816475E02DF1F80
311
A11FC8386F25A438EECEC07A250251FC3803E6F58C12560C4AD840E95E91C151A72936F496F35732D860FE635F62C8F2DA16B505C545B74125BAA2FA9E05D7CC053D063734D5C7665FD55B6B8D15D5E9BFEAFD8490FFA45E504B0304140006080800B44C5C4057C8BCA0FD000000A00100003B0000006662782F3736304141
311
3041422D373437352D344139312D384331332D3644343541454641423844412F7265736F75726365732F636F72652E786D6C8D50596E833010BD0A9A7F83594203328E5A0227E8052C33A156828DBC543D7E4DA052FBD79F99D15B344F8F5DBE9647F289D629A33BC8530A096A6926A5E70E82BF91332417CEAC31FE970C12
311
2D16EC608381B3D99AB01E9034DAA3F611D566C20314CEA187443EE2D181931FB88854041F15EE9EAE42DEC58C699E463AEA3873DEC600C9FE649BC02D3A13AC44C7B29DE52C04351D1A35C59FEAA6D0027F2DCB6B3594233955F540AABE1FC9DBD05352E44D338ED7A639F535CB3633675E2D3F19A545E171025ED0BC20B4
311
20C5F99D366DF9D25639A1754B29CB36F91F5358A77F9A82D2BE2C8EB8BBCD01CF639027C159B6F515D7B3CCB8B76EF937504B010214000A0000080000B44C5C403DEE336E79000000790000001B00000000000000000000000000000000006175746F6465736B2D64657369676E2D7061636B6167652E786D6C504B010214
311
00140006080800B44C5C40D486FD9CA0000000F40000001300000000000000000000000000B20000005B436F6E74656E745F54797065735D2E786D6C504B01021400140006080800B44C5C408D4F9095EB0000007C010000080000000000000000000000000083010000636F72652E786D6C504B01021400140006080800B4
311
4C5C4055019EA25F0000007C000000070000000000000000000000000094020000636E782E786D6C504B01021400140006080800B44C5C4033F8DD8D67010000020300000C00000000000000000000000000180300006662782F636F72652E786D6C504B01021400140006080800B44C5C40F7EB4BD07E0000009D0000000B
311
00000000000000000000000000A90400006662782F636E782E786D6C504B01021400140006080800B44C5C40218076052C010000140200003100000000000000000000000000500500006662782F37363041413041422D373437352D344139312D384331332D3644343541454641423844412F636F72652E786D6C504B0102
311
1400140006080800B44C5C40708E30024D010000330300003000000000000000000000000000CB0600006662782F37363041413041422D373437352D344139312D384331332D3644343541454641423844412F636E782E786D6C504B01021400140006080800B44C5C407F43B6369B0500007A100000340000000000000000
311
0000000000660800006662782F37363041413041422D373437352D344139312D384331332D3644343541454641423844412F6F626A656374732E786D6C504B01021400140006080000B44C5C400000000000000000000000003500000000000000000000000000530E00006662782F37363041413041422D373437352D3441
311
39312D384331332D3644343541454641423844412F76657274696365732E62696E504B01021400140006080800B44C5C40F270F13306000000040000003600000000000000000000000000A60E00006662782F37363041413041422D373437352D344139312D384331332D3644343541454641423844412F747269616E676C
311
65732E62696E504B01021400140006080000B44C5C400000000000000000000000003700000000000000000000000000000F00006662782F37363041413041422D373437352D344139312D384331332D3644343541454641423844412F617474726962757465732E62696E504B01021400140006080800B44C5C40D5987DFC
311
8F000000410100003600000000000000000000000000550F00006662782F37363041413041422D373437352D344139312D384331332D3644343541454641423844412F6469726563746F72792E786D6C504B01021400140006080800B44C5C4057C8BCA0FD000000A00100003B000000000000000000000000003810000066
311
62782F37363041413041422D373437352D344139312D384331332D3644343541454641423844412F7265736F75726365732F636F72652E786D6C504B0506000000000E000E00800400008E1100000000
310
504B03040A0000080000B44C5C403DEE336E79000000790000001B0000006175746F6465736B2D64657369676E2D7061636B6167652E786D6C3C3F786D6C2076657273696F6E3D22312E302220656E636F64696E673D227574662D3822203F3E3C666F726D6174733E3C666F726D61743E687474703A2F2F736368656D612E
310
6175746F6465736B2E636F6D2F64657369676E2D7061636B6167652F323030393C2F666F726D61743E3C2F666F726D6174733E504B0304140006080800B44C5C40D486FD9CA0000000F4000000130000005B436F6E74656E745F54797065735D2E786D6C7D8EC10E82300C865F65E91D8A1E8C310C0EEA1BF002731658846E
310
D98AC1B77784ABF1D8FE5FBFBF75BBCE937A534CCEB38643598122B6FEE978D0B0485F9C41B54DDD7D022595594E1A469170414C76A4D9A4D207E29CF43ECE46F218070CC6BECC4078ACAA135ACF422C856C0E68EA1BF5669944DDD7BCDE7B1F8E415D77AECB980613C2E4AC91FC167A2B244592486606FC29C8FD7F045B9A
310
EF7053A7E60B504B0304140006080800B44C5C40B15B7DCFEA0000007C01000008000000636F72652E786D6C8D90DD6E842010855F85CC3D8AECAA6890CDDAC627E80B10602DD9158C40D3C72FEE4FD2DEF56A2667CE373339FCF4BDDCD097D982F56E80AA20808C535E5B370F90E205334027C137EFE32F1B20271733C02E
310
83E0F3E6D3FA949477D1B89855E7B5798A32041301A95B6E0608EAD32CB290296647B816AB5457399BA27A75194EC96AF4386275DE672FD66C20CECDD475F45CE3B791B5F858138A59D332FC4E4636B5D358936EE2E50E0B1EEDF2BAAF3623A3D12028A928CE10651FA4EB0F6D7FAC30697A4278B9DBFF4069D5FF849275F1
310
409FEF3EB000A2CA8FDC0782977B16B9DC83CA75CF4DFC00504B0304140006080800B44C5C4055019EA25F0000007C00000007000000636E782E786D6C4DCB3B0E80201045D1AD90E915ED2CF8AC45050C11660C8261F98AB1B07AC9C97D42D718D865D3E909258CFD00CCE24AC6E326A164D74DC0B4128928FF326038472B
310
A13128B1252AC747C6BAB984FC68F0B87FE8960A5C09FE86CFB69FBA01504B0304140006080800B44C5C401090934766010000020300000C0000006662782F636F72652E786D6C8D52ED8E8320107C15C27F05ED87DA204D7B179FE05E802AF548150C82E9E3DFFAD178BD34CDC504C9CCCEEEEC283BDEDB060DD2F6CAE81C
310
4721C548EAD2544AD739F6EE1AA4181D39B3C6B85F651869D1CA1C8F30E6ACB6C6770B541AEDA476806A53C905147D2F1D466503971CF7E5B76C4528BC838AFE1676A2BC895A86510834D471D63B0B06D03C643C31BF5EEE8CCC3867DEAB6A615505D3D455498BF9695F64597CDA051FE73409B63B1A07E93E49834F7A4E8B
310
A438EF685630328A3973AA7DB82BAD144E5698C7348A0310C5E917CD0E9BE4B08D02BA3F50CAC858FE24F25DF54F9157DA6DE2C5EE2CEB318FC0C844FCD9162272A81703F8219C913144784D093F070D8140C84E5C9AC71E378006593A63B7C054C6AFD4201A2F612A45D3C3C8CC42E7A9016CF6B24FFCA6CFFB1EF00185AE
310
C19A7070BD78374E67F3D4258A4EDA607077A48D6D45B39A9B2DAEE73AE8A5BC348DB1FF51936555B28449C6BF97FF00504B0304140006080800B44C5C4027AE39027E0000009D0000000B0000006662782F636E782E786D6C4DCCD10E82201886E15B61FF39A980651BE092E03E5CA273223482D6E5A7CD838EBEEDD9B797
310
B79FD5A1B78DAF397801D5A90464FD230CB39F04E434E206502B790C21FDDD00F97EB5027606C9A718F2F3A0C18E7D76695337FBE540AA4C4735A93063B5C6EC6E2EB8A38DC26755AA5AE92B21370385E4C5AFB4ED1E965F504B0304140006080800B44C5C4018A435062B01000014020000310000006662782F3343464233
310
4532312D343435452D344446372D423338432D3643304335434539323241462F636F72652E786D6C8D51CB6EC32010FC158B537AC0C6F81127C2448D9B7C417F8000715162B07854F9FC42ED48ED2D1716CDCECC8E76C9E131DDB36F699D32BA07658E4026353742E9B107C15F6107B20325D618FF870632CD26D98304034A
310
466BC2BC42DC682FB58FA83642AE20734E7A90F17BFCF4C0F12F39B19C051F19EE96CF8CDFD828F3328FEDC8A3C4791B0364CB90F4025A0DE76375C225ACEBE604EB8FF3161EAB6E80ED80866638ED307E3F93621152128212AB5C8918475D95B4AF9A2431255E4DCFF8DC4AE6A50014A312438421EE3ED16E5F6DF7750951
310
BB47881489FE4F1466F1A22828ED2BBCC65D640ED092144B831261C2E5FE0C231FB3B13E4BF3364EF23740518E7053770835A458A87101D1B3AD574FE78D8D0BDEDC2E915DADC66D4D49916E14CBEF01634DF7A43F504B0304140006080800B44C5C401629FF155401000033030000300000006662782F3343464233453231
310
2D343435452D344446372D423338432D3643304335434539323241462F636E782E786D6CBD93CD6EC32010845F0571F76F2C378D30917AE813F4D02B864D4283C1025C356FDF2521692E3954AA7A41D6EC30B3FA84D9F66B32E4137CD0CE0EB4296B4AC04AA7B4DD0F7489BB624DC99633EF5CBCB35162C504034D32E56CEF
310
DD326749C14E2C26A26AB43D66D143708B9710504E37897152180C005B2C28C2348252A0C8CD885F3BF0B80A8AE389C40390D79777E2C60F9031B02AA57056A50ECED2999BEE4C944823421868900798442996E8148463A9441465535EBB1EECF49344D2856BE5E23549E5034D27E579A31239B20A879C85E8915E36C5D30C
310
948B79365A8A8890ABB3F1E2E16CD136F65DF66A04EFD1BD6AFBF51AC3CE33CEA29E203BA407114151DED64D5BD46DD1AEDFEAE7CDEA69D33545DD6FEA9A55C9CED9E89CC9973006BC9B897436828D9437AC4AE347F8B28F28ED91B5F3A75F804400B9F542E796F1977C9A7ED575FFC8A73ABF6FC4E5F12FE0DF504B030414
310
0006080800B44C5C40B248F39F58070000931B0000340000006662782F33434642334532312D343435452D344446372D423338432D3643304335434539323241462F6F626A656374732E786D6CED595B6FA33814FE2B887D0E09B974A62BCAA84D2F8A569D194D7646FB100939E0506F8D41B6E9657FFD1E5F2040434B76BA
310
6FF39000C63E3EE73B571F824F4F19751E3017246767AEEF4D5C07B3384F084BCFDC52EE461F5DE75318F03C978D69AEC35086CF5C35EC8641CAF3B2B04309DEA192CACEE8F5C55F8E8831C3AE135324C4992BE23B9C210F95324FB0B8F712249197EE9E3CDF3313DB64538E8ABB0ED10271CC24700AE30CA8388629BFFD38
310
71C7613056EFC340FDDB59B341B3E6FDB3C65AEA369784098958FC82A50E99D9209666FEFCF26ABA381D2DE6F3D9687E32F54717D7179723FFC36CB23C592E4FCFAF4E81BD6D9E532B53820BCC12D0DFB31BFAC158BDA945B7081CE23ACE19C3B10612A0D2627509122C60AB067C93F6A3AF246ABCD612369EE7EABD65A131
310
3C6B53E99B350C88165D10C46E57495C5D9BF2E5DBBF417031C428B9C012B8159283762D3C1CBCC20D27C1D88C86C176AF0B229C0C49CC09A20E255B8E382805A6AA296160165832CA3938907294045A73E675DBB6C033DF769D435CEE4A4A9567B8A176AC08DC0F4BA13923FF60BEE7BE890CF004D29684C98F964BF95C60
310
373C0DC67A300CD46536B52F0D90CE8EA2546844CCDB8EA04BE5FAAB4B37FCE37AFBB456E1E0F0E605CF0BCCA5323AA547CD1718B2BD2A94ECB6FE20CDA905208C01D5AEDC83F20D90FF0CD163CF0AE88D93A7F9D3DCCE951C31B1CB7906BA7126CE68027F13C7D7FFEABE71178CEBC56DEDF5E1096EAAA0FAF8F378B665D0
310
5859FE1B7086C103187CCE67F6D53A4614ECF996300048198943731882D0BEDB3EB9E10A0227047A588568E883C8C0EE03DC06634B66AF95CABDACD73140D4EE311BA224804D5B24B0D1A3A71BC81E9CC47B353545EC8377F12EE67A7EB9FE635DF21D8AF1ADF5E94BBC238C48C89A87196A61DE92E81E3F3FE63C01415FE2
310
BD6EE29DD9AD04A0AD3057C0A71508EA61BF736B8318D6A5B90A37C11B3B80102A5737E8DF1211634A11C37959ED5B473765A8B5C7DB9AC10DA706E2D9B463C21C3F10555580D3EC67B41885BC1F73522810DDF0C64856074DAF47BAEFABCF6091F5FC9E592B06A19721FAA70E5A077068597685B405A21678BB0FE7714E73
310
1E6D9F2313E95CA825808DB6B7FC681185586F94A4A8800769BFAB424A6AA48D12B2DB9502E2EA01167FAC964D739878337FE134FF3BCE3887680BBE8BB8F5BBCE1E11C9508AA31D4AFAB66BEE56D3169A640F698E7714E4220F443E4748469304A7C7407314F1D377A59ED25C08C2B0807C7510FC261A130F0289D166C5B2
310
D26A076822A20C4B448F414091E90157A71D5DE3C6503ABCCD636DBDAF69AC49F47FB2088EA096CC5944A014851CF226E3BEB78018D246D7A0DCC117ACADA2ADC5A0259410F173F488497A278F41DD90EFC13D86234929A3BC403198F500B22F7C4529B5C3FB16C5F72A7F447149DFCB4004A6BB88505A6611FC088393C710
310
D7AE03D3AB2834889BD8277106451992251FB2C9C962F2621F533374436063A31DA110B6A30C153DA8B702A2AE479C1A7C4BBD47A9DB322B2294E5251B6428DEACEB4D967C57AD8AEC407E55A908656345D8120C03C2649D55AB980DA6AE032BB8910E54CF91405941CD29EC8DC4E3D7DEA429F76EC0AD9FBEEF0619147E3D
310
DA6B46D4790583E5B15518884724E33B375CEBEBE802EAEF0427FB545FD59ACD0A10105391BCE4C4AAE8FB0ACA1B5BA3B9E12D92627363B26E75FDBEF2A0FB118C610DD42EF5C295023AC34C225599DCAA1BFA0D41086ED130E32B95538FA1729E24BA6A44F49AF4A9B35546B436CD8857DC619667F0631BC2625A26788312
310
711FDD4A1AAD8962DD4AE965A4C2F85501BFDCAC3BF0C0C80091BEAA020F3F76D6DAD1A52A970E12917765B6658840106C89961ADD78054BAD462A2DD75775A680BA0B0CCCAA78FEEB64D16C47FC3A59A4D6307EEE6441F32DA2FB68D3C8E6B132EBA34E01757A5254DEE314A0BB0E35D53A89985C6EC5B7BE14414CAC82FC
310
E062AC8A1986601FC7FF3969F72541B35D87FFE392B6FFA2E0382AA9B426AB26D581C275D54C618B0FD3D3F962391F9DCCAFA6A3F9E5C987D1F97C71359A2D2E661F2733FF62727551A3A9FD340CEA58A653173C9B98560DAB278B013465454E490287F9C44931847C0947FA01DD739E6101B9B3D9EB4E6C4F7EC0EA07D3E6
310
94684B71C5C91D82FE301590D501A33296ED71E737E84C4A38679FB9D033F2EEE1CF5AA5EB40E23973A15320498C85B7852E93EAE769E2907175EAB7C4001FC4529511CDA2FAB95EA5B06945FF7ACA902C60E56AB530A06E2BA0F9D56A5068DE2C4FF1518257EC3848C2EDB69450AC1959F603B5307A9BBDFA8D6C94B07BBB
310
F513B8EEEB62F99E9ED34264D01783578DC0501D49C453DDEE568C5996CE2FBF8EA1CDE6ACBE38052D53D0E5704A238EC1984B554F81158155589A059260AACBDF375F790E5F78324717459B659E6539B30FE7701C4BE00B91B3BE83EF3DC906AA06ACBAEA62339DF8D38DEE66DB067BB445027BAA1C8281AA8A5022748C0D
310
2CF24567CAF62DC74A099DE9AB4BC7864FE802180B7AD1DC355FB71CF01EF51D45F98AF6F04ACE571BDA633D15AC81432B3AFC17504B0304140006080000B44C5C40000000000000000000000000350000006662782F33434642334532312D343435452D344446372D423338432D3643304335434539323241462F76657274
310
696365732E62696E504B0304140006080800B44C5C40F270F1330600000004000000360000006662782F33434642334532312D343435452D344446372D423338432D3643304335434539323241462F747269616E676C65732E62696E636660600000504B0304140006080000B44C5C40000000000000000000000000370000
310
006662782F33434642334532312D343435452D344446372D423338432D3643304335434539323241462F617474726962757465732E62696E504B0304140006080800B44C5C40D5987DFC8F00000041010000360000006662782F33434642334532312D343435452D344446372D423338432D3643304335434539323241462F
310
6469726563746F72792E786D6C858F410EC2201045AF4266AF15DDB800BA74E7C21B903225242D6328188F2FA5C4183471359997F9FF81E89FF3C41E1816475E02DF1F80A11FC8386F25A438EECEC07A250251FC3803E6F58C12560C4AD840E95E91C151A72936F496F35732D860FE635F62C8F2DA16B505C545B74125BAA2
310
FA9E05D7CC053D063734D5C7665FD55B6B8D15D5E9BFEAFD8490FFA45E504B0304140006080800B44C5C40A2F05357FC000000A00100003B0000006662782F33434642334532312D343435452D344446372D423338432D3643304335434539323241462F7265736F75726365732F636F72652E786D6C8D50596E833010BD0A
310
9A7F8321844DC65168C5097A01CB4C889560232F558F5F13A8D4FEF56766F416CDD36397AFE5997CA275CAE81EF29442825A9A49E9B987E06FA481E4C29935C6FF9241A2C5823D6C3070365B13D60392467BD43EA2DA4C7880C239F490C8673C7A70F28E8B4845F051E11EE92AE443CC98E669A4A38E33E76D0C90EC4FB609
310
DCA233C14A742CDB59CE4250D3A15153FCA96E0A2DF06B35B66D712DC9DBD0D4A43CD3823455DD90773A34633D0E67DA8E2CDBCC9C79B5FC64941685C7097841F3824453D17CD0B63BD55D99135A7594B26C93FF318575FAA72928ED4FC51177B739E0790CF22238CBB6BEE27A9519F7D62DFF06504B010214000A00000800
310
00B44C5C403DEE336E79000000790000001B00000000000000000000000000000000006175746F6465736B2D64657369676E2D7061636B6167652E786D6C504B01021400140006080800B44C5C40D486FD9CA0000000F40000001300000000000000000000000000B20000005B436F6E74656E745F54797065735D2E786D6C
310
504B01021400140006080800B44C5C40B15B7DCFEA0000007C010000080000000000000000000000000083010000636F72652E786D6C504B01021400140006080800B44C5C4055019EA25F0000007C000000070000000000000000000000000093020000636E782E786D6C504B01021400140006080800B44C5C4010909347
310
66010000020300000C00000000000000000000000000170300006662782F636F72652E786D6C504B01021400140006080800B44C5C4027AE39027E0000009D0000000B00000000000000000000000000A70400006662782F636E782E786D6C504B01021400140006080800B44C5C4018A435062B0100001402000031000000
310
000000000000000000004E0500006662782F33434642334532312D343435452D344446372D423338432D3643304335434539323241462F636F72652E786D6C504B01021400140006080800B44C5C401629FF1554010000330300003000000000000000000000000000C80600006662782F33434642334532312D343435452D
310
344446372D423338432D3643304335434539323241462F636E782E786D6C504B01021400140006080800B44C5C40B248F39F58070000931B000034000000000000000000000000006A0800006662782F33434642334532312D343435452D344446372D423338432D3643304335434539323241462F6F626A656374732E786D
310
6C504B01021400140006080000B44C5C400000000000000000000000003500000000000000000000000000141000006662782F33434642334532312D343435452D344446372D423338432D3643304335434539323241462F76657274696365732E62696E504B01021400140006080800B44C5C40F270F13306000000040000
310
003600000000000000000000000000671000006662782F33434642334532312D343435452D344446372D423338432D3643304335434539323241462F747269616E676C65732E62696E504B01021400140006080000B44C5C400000000000000000000000003700000000000000000000000000C11000006662782F33434642
310
334532312D343435452D344446372D423338432D3643304335434539323241462F617474726962757465732E62696E504B01021400140006080800B44C5C40D5987DFC8F000000410100003600000000000000000000000000161100006662782F33434642334532312D343435452D344446372D423338432D364330433543
310
4539323241462F6469726563746F72792E786D6C504B01021400140006080800B44C5C40A2F05357FC000000A00100003B00000000000000000000000000F91100006662782F33434642334532312D343435452D344446372D423338432D3643304335434539323241462F7265736F75726365732F636F72652E786D6C504B
310
0506000000000E000E00800400004E1300000000
  0
XRECORD
  5
27
102
{ACAD_REACTORS
330
22
102
}
330
22
100
AcDbXrecord
280
     1
270
     1
271
     1
  0
XRECORD
  5
26
102
{ACAD_REACTORS
330
22
102
}
330
22
100
AcDbXrecord
280
     1
270
     1
271
     1
  0
XRECORD
  5
28
102
{ACAD_REACTORS
330
22
102
}
330
22
100
AcDbXrecord
280
     1
270
     1
271
     1
  0
XRECORD
  5
25
102
{ACAD_REACTORS
330
22
102
}
330
22
100
AcDbXrecord
280
     1
270
     1
271
     1
  0
XRECORD
  5
A09
102
{ACAD_REACTORS
330
A08
102
}
330
A08
100
AcDbXrecord
280
     1
102
ACAD_ROUNDTRIP_2012_MLEADER_STYLE
298
     1
  0
CELLSTYLEMAP
  5
A07
102
{ACAD_REACTORS
330
A06
102
}
330
A06
100
AcDbCellStyleMap
 90
        3
300
CELLSTYLE
  1
TABLEFORMAT_BEGIN
 90
        5
170
     1
 91
        0
 92
    32768
 62
   257
 93
        1
300
CONTENTFORMAT
  1
CONTENTFORMAT_BEGIN
 90
        0
 91
        0
 92
      512
 93
        0
300

 40
0.0
140
1.0
 94
        5
 62
     0
340
55
144
0.25
309
CONTENTFORMAT_END
171
     0
 94
        0
309
TABLEFORMAT_END
  1
CELLSTYLE_BEGIN
 90
        1
 91
        1
300
_TITLE
309
CELLSTYLE_END
300
CELLSTYLE
  1
TABLEFORMAT_BEGIN
 90
        5
170
     1
 91
        0
 92
        0
 62
   257
 93
        1
300
CONTENTFORMAT
  1
CONTENTFORMAT_BEGIN
 90
        0
 91
        0
 92
      512
 93
        0
300

 40
0.0
140
1.0
 94
        5
 62
     0
340
55
144
0.18
309
CONTENTFORMAT_END
171
     0
 94
        0
309
TABLEFORMAT_END
  1
CELLSTYLE_BEGIN
 90
        2
 91
        1
300
_HEADER
309
CELLSTYLE_END
300
CELLSTYLE
  1
TABLEFORMAT_BEGIN
 90
        5
170
     1
 91
        0
 92
        0
 62
   257
 93
        1
300
CONTENTFORMAT
  1
CONTENTFORMAT_BEGIN
 90
        0
 91
        0
 92
      512
 93
        0
300

 40
0.0
140
1.0
 94
        2
 62
     0
340
55
144
0.18
309
CONTENTFORMAT_END
171
     0
 94
        0
309
TABLEFORMAT_END
  1
CELLSTYLE_BEGIN
 90
        3
 91
        2
300
_DATA
309
CELLSTYLE_END
  0
XRECORD
  5
A41
102
{ACAD_REACTORS
330
A06
102
}
330
A06
100
AcDbXrecord
280
     1
102
ACAD_ROUNDTRIP_PRE2007_TABLESTYLE
 90
      512
 91
        0
  1

 92
      512
 93
        0
  2

 94
      512
 95
        0
  3

  0
XRECORD
  5
A1C
102
{ACAD_REACTORS
330
A1B
102
}
330
A1B
100
AcDbXrecord
280
     1
102
RTVSPropertyOp0
 70
     1
102
RTVSPropertyOp1
 70
     1
102
RTVSPropertyOp2
 70
     1
102
RTVSPropertyOp3
 70
     1
102
RTVSPropertyOp4
 70
     1
102
RTVSPropertyOp5
 70
     1
102
RTVSPropertyOp6
 70
     1
102
RTVSPropertyOp7
 70
     1
102
RTVSPropertyOp8
 70
     1
102
RTVSPropertyOp9
 70
     1
102
RTVSPropertyOp10
 70
     1
102
RTVSPropertyOp11
 70
     1
102
RTVSPropertyOp12
 70
     1
102
RTVSPropertyOp13
 70
     1
102
RTVSPropertyOp14
 70
     1
102
RTVSPropertyOp15
 70
     1
102
RTVSPropertyOp16
 70
     1
102
RTVSPropertyOp17
 70
     1
102
RTVSPropertyOp18
 70
     1
102
RTVSPropertyOp19
 70
     1
102
RTVSPropertyOp20
 70
     1
102
RTVSPropertyOp21
 70
     1
102
RTVSPropertyOp22
 70
     1
102
RTVSPropertyOp23
 70
     1
102
RTVSPropertyOp24
 70
     1
102
RTVSPropertyOp25
 70
     1
102
RTVSPropertyOp26
 70
     1
102
RTVSPropertyOp27
 70
     1
102
RTVSPropertyOp28
 70
     1
102
RTVSPropertyOp29
 70
     1
102
RTVSPropertyOp30
 70
     1
102
RTVSPropertyOp31
 70
     1
102
RTVSPropertyOp32
 70
     1
  0
XRECORD
  5
A1A
102
{ACAD_REACTORS
330
A19
102
}
330
A19
100
AcDbXrecord
280
     1
102
RTVSPropertyOp0
 70
     1
102
RTVSPropertyOp1
 70
     1
102
RTVSPropertyOp2
 70
     1
102
RTVSPropertyOp3
 70
     1
102
RTVSPropertyOp4
 70
     1
102
RTVSPropertyOp5
 70
     1
102
RTVSPropertyOp6
 70
     1
102
RTVSPropertyOp7
 70
     1
102
RTVSPropertyOp8
 70
     1
102
RTVSPropertyOp9
 70
     1
102
RTVSPropertyOp10
 70
     1
102
RTVSPropertyOp11
 70
     1
102
RTVSPropertyOp12
 70
     1
102
RTVSPropertyOp13
 70
     1
102
RTVSPropertyOp14
 70
     1
102
RTVSPropertyOp15
 70
     1
102
RTVSPropertyOp16
 70
     1
102
RTVSPropertyOp17
 70
     1
102
RTVSPropertyOp18
 70
     1
102
RTVSPropertyOp19
 70
     1
102
RTVSPropertyOp20
 70
     1
102
RTVSPropertyOp21
 70
     1
102
RTVSPropertyOp22
 70
     1
102
RTVSPropertyOp23
 70
     1
102
RTVSPropertyOp24
 70
     1
102
RTVSPropertyOp25
 70
     1
102
RTVSPropertyOp26
 70
     1
102
RTVSPropertyOp27
 70
     1
102
RTVSPropertyOp28
 70
     1
102
RTVSPropertyOp29
 70
     1
102
RTVSPropertyOp30
 70
     1
102
RTVSPropertyOp31
 70
     1
102
RTVSPropertyOp32
 70
     1
  0
XRECORD
  5
A28
102
{ACAD_REACTORS
330
A27
102
}
330
A27
100
AcDbXrecord
280
     1
102
RTVSPropertyOp0
 70
     1
102
RTVSPropertyOp1
 70
     1
102
RTVSPropertyOp2
 70
     1
102
RTVSPropertyOp3
 70
     1
102
RTVSPropertyOp4
 70
     1
102
RTVSPropertyOp5
 70
     1
102
RTVSPropertyOp6
 70
     1
102
RTVSPropertyOp7
 70
     1
102
RTVSPropertyOp8
 70
     1
102
RTVSPropertyOp9
 70
     1
102
RTVSPropertyOp10
 70
     1
102
RTVSPropertyOp11
 70
     1
102
RTVSPropertyOp12
 70
     1
102
RTVSPropertyOp13
 70
     1
102
RTVSPropertyOp14
 70
     1
102
RTVSPropertyOp15
 70
     1
102
RTVSPropertyOp16
 70
     1
102
RTVSPropertyOp17
 70
     1
102
RTVSPropertyOp18
 70
     1
102
RTVSPropertyOp19
 70
     1
102
RTVSPropertyOp20
 70
     1
102
RTVSPropertyOp21
 70
     1
102
RTVSPropertyOp22
 70
     1
102
RTVSPropertyOp23
 70
     1
102
RTVSPropertyOp24
 70
     1
102
RTVSPropertyOp25
 70
     1
102
RTVSPropertyOp26
 70
     1
102
RTVSPropertyOp27
 70
     1
102
RTVSPropertyOp28
 70
     1
102
RTVSPropertyOp29
 70
     1
102
RTVSPropertyOp30
 70
     1
102
RTVSPropertyOp31
 70
     1
102
RTVSPropertyOp32
 70
     1
  0
XRECORD
  5
A30
102
{ACAD_REACTORS
330
A2F
102
}
330
A2F
100
AcDbXrecord
280
     1
102
RTVSPropertyOp0
 70
     1
102
RTVSPropertyOp1
 70
     1
102
RTVSPropertyOp2
 70
     1
102
RTVSPropertyOp3
 70
     1
102
RTVSPropertyOp4
 70
     1
102
RTVSPropertyOp5
 70
     1
102
RTVSPropertyOp6
 70
     1
102
RTVSPropertyOp7
 70
     1
102
RTVSPropertyOp8
 70
     1
102
RTVSPropertyOp9
 70
     1
102
RTVSPropertyOp10
 70
     1
102
RTVSPropertyOp11
 70
     1
102
RTVSPropertyOp12
 70
     1
102
RTVSPropertyOp13
 70
     1
102
RTVSPropertyOp14
 70
     1
102
RTVSPropertyOp15
 70
     1
102
RTVSPropertyOp16
 70
     1
102
RTVSPropertyOp17
 70
     1
102
RTVSPropertyOp18
 70
     1
102
RTVSPropertyOp19
 70
     1
102
RTVSPropertyOp20
 70
     1
102
RTVSPropertyOp21
 70
     1
102
RTVSPropertyOp22
 70
     1
102
RTVSPropertyOp23
 70
     1
102
RTVSPropertyOp24
 70
     1
102
RTVSPropertyOp25
 70
     1
102
RTVSPropertyOp26
 70
     1
102
RTVSPropertyOp27
 70
     1
102
RTVSPropertyOp28
 70
     1
102
RTVSPropertyOp29
 70
     1
102
RTVSPropertyOp30
 70
     1
102
RTVSPropertyOp31
 70
     1
102
RTVSPropertyOp32
 70
     1
  0
XRECORD
  5
A22
102
{ACAD_REACTORS
330
A21
102
}
330
A21
100
AcDbXrecord
280
     1
102
RTVSPropertyOp0
 70
     1
102
RTVSPropertyOp1
 70
     1
102
RTVSPropertyOp2
 70
     1
102
RTVSPropertyOp3
 70
     1
102
RTVSPropertyOp4
 70
     1
102
RTVSPropertyOp5
 70
     1
102
RTVSPropertyOp6
 70
     1
102
RTVSPropertyOp7
 70
     1
102
RTVSPropertyOp8
 70
     1
102
RTVSPropertyOp9
 70
     1
102
RTVSPropertyOp10
 70
     1
102
RTVSPropertyOp11
 70
     1
102
RTVSPropertyOp12
 70
     1
102
RTVSPropertyOp13
 70
     1
102
RTVSPropertyOp14
 70
     1
102
RTVSPropertyOp15
 70
     1
102
RTVSPropertyOp16
 70
     1
102
RTVSPropertyOp17
 70
     1
102
RTVSPropertyOp18
 70
     1
102
RTVSPropertyOp19
 70
     1
102
RTVSPropertyOp20
 70
     1
102
RTVSPropertyOp21
 70
     1
102
RTVSPropertyOp22
 70
     1
102
RTVSPropertyOp23
 70
     1
102
RTVSPropertyOp24
 70
     1
102
RTVSPropertyOp25
 70
     1
102
RTVSPropertyOp26
 70
     1
102
RTVSPropertyOp27
 70
     1
102
RTVSPropertyOp28
 70
     1
102
RTVSPropertyOp29
 70
     1
102
RTVSPropertyOp30
 70
     1
102
RTVSPropertyOp31
 70
     1
102
RTVSPropertyOp32
 70
     1
  0
XRECORD
  5
A26
102
{ACAD_REACTORS
330
A25
102
}
330
A25
100
AcDbXrecord
280
     1
102
RTVSPropertyOp0
 70
     1
102
RTVSPropertyOp1
 70
     1
102
RTVSPropertyOp2
 70
     1
102
RTVSPropertyOp3
 70
     1
102
RTVSPropertyOp4
 70
     1
102
RTVSPropertyOp5
 70
     1
102
RTVSPropertyOp6
 70
     1
102
RTVSPropertyOp7
 70
     1
102
RTVSPropertyOp8
 70
     1
102
RTVSPropertyOp9
 70
     1
102
RTVSPropertyOp10
 70
     1
102
RTVSPropertyOp11
 70
     1
102
RTVSPropertyOp12
 70
     1
102
RTVSPropertyOp13
 70
     1
102
RTVSPropertyOp14
 70
     1
102
RTVSPropertyOp15
 70
     1
102
RTVSPropertyOp16
 70
     1
102
RTVSPropertyOp17
 70
     1
102
RTVSPropertyOp18
 70
     1
102
RTVSPropertyOp19
 70
     1
102
RTVSPropertyOp20
 70
     1
102
RTVSPropertyOp21
 70
     1
102
RTVSPropertyOp22
 70
     1
102
RTVSPropertyOp23
 70
     1
102
RTVSPropertyOp24
 70
     1
102
RTVSPropertyOp25
 70
     1
102
RTVSPropertyOp26
 70
     1
102
RTVSPropertyOp27
 70
     1
102
RTVSPropertyOp28
 70
     1
102
RTVSPropertyOp29
 70
     1
102
RTVSPropertyOp30
 70
     1
102
RTVSPropertyOp31
 70
     1
102
RTVSPropertyOp32
 70
     1
  0
XRECORD
  5
A40
102
{ACAD_REACTORS
330
A3F
102
}
330
A3F
100
AcDbXrecord
280
     1
102
RTVSPropertyOp0
 70
     0
102
RTVSPropertyOp1
 70
     0
102
RTVSPropertyOp2
 70
     0
102
RTVSPropertyOp3
 70
     0
102
RTVSPropertyOp4
 70
     0
102
RTVSPropertyOp5
 70
     0
102
RTVSPropertyOp6
 70
     0
102
RTVSPropertyOp7
 70
     0
102
RTVSPropertyOp8
 70
     0
102
RTVSPropertyOp9
 70
     0
102
RTVSPropertyOp10
 70
     0
102
RTVSPropertyOp11
 70
     0
102
RTVSPropertyOp12
 70
     0
102
RTVSPropertyOp13
 70
     0
102
RTVSPropertyOp14
 70
     2
102
RTVSPropertyOp15
 70
     0
102
RTVSPropertyOp16
 70
     0
102
RTVSPropertyOp17
 70
     0
102
RTVSPropertyOp18
 70
     0
102
RTVSPropertyOp19
 70
     0
102
RTVSPropertyOp20
 70
     0
102
RTVSPropertyOp21
 70
     0
102
RTVSPropertyOp22
 70
     0
102
RTVSPropertyOp23
 70
     0
102
RTVSPropertyOp24
 70
     0
102
RTVSPropertyOp25
 70
     0
102
RTVSPropertyOp26
 70
     0
102
RTVSPropertyOp27
 70
     0
102
RTVSPropertyOp28
 70
     1
102
RTVSPropertyOp29
 70
     1
102
RTVSPropertyOp30
 70
     1
102
RTVSPropertyOp31
 70
     1
102
RTVSPropertyOp32
 70
     1
  0
XRECORD
  5
A2E
102
{ACAD_REACTORS
330
A2D
102
}
330
A2D
100
AcDbXrecord
280
     1
102
RTVSPropertyOp0
 70
     1
102
RTVSPropertyOp1
 70
     1
102
RTVSPropertyOp2
 70
     1
102
RTVSPropertyOp3
 70
     1
102
RTVSPropertyOp4
 70
     1
102
RTVSPropertyOp5
 70
     1
102
RTVSPropertyOp6
 70
     1
102
RTVSPropertyOp7
 70
     1
102
RTVSPropertyOp8
 70
     1
102
RTVSPropertyOp9
 70
     1
102
RTVSPropertyOp10
 70
     1
102
RTVSPropertyOp11
 70
     1
102
RTVSPropertyOp12
 70
     1
102
RTVSPropertyOp13
 70
     1
102
RTVSPropertyOp14
 70
     1
102
RTVSPropertyOp15
 70
     1
102
RTVSPropertyOp16
 70
     1
102
RTVSPropertyOp17
 70
     1
102
RTVSPropertyOp18
 70
     1
102
RTVSPropertyOp19
 70
     1
102
RTVSPropertyOp20
 70
     1
102
RTVSPropertyOp21
 70
     1
102
RTVSPropertyOp22
 70
     1
102
RTVSPropertyOp23
 70
     1
102
RTVSPropertyOp24
 70
     1
102
RTVSPropertyOp25
 70
     1
102
RTVSPropertyOp26
 70
     1
102
RTVSPropertyOp27
 70
     1
102
RTVSPropertyOp28
 70
     1
102
RTVSPropertyOp29
 70
     1
102
RTVSPropertyOp30
 70
     1
102
RTVSPropertyOp31
 70
     1
102
RTVSPropertyOp32
 70
     1
  0
XRECORD
  5
A12
102
{ACAD_REACTORS
330
A11
102
}
330
A11
100
AcDbXrecord
280
     1
102
RTVSPropertyOp0
 70
     1
102
RTVSPropertyOp1
 70
     1
102
RTVSPropertyOp2
 70
     1
102
RTVSPropertyOp3
 70
     1
102
RTVSPropertyOp4
 70
     1
102
RTVSPropertyOp5
 70
     1
102
RTVSPropertyOp6
 70
     1
102
RTVSPropertyOp7
 70
     1
102
RTVSPropertyOp8
 70
     1
102
RTVSPropertyOp9
 70
     1
102
RTVSPropertyOp10
 70
     1
102
RTVSPropertyOp11
 70
     1
102
RTVSPropertyOp12
 70
     1
102
RTVSPropertyOp13
 70
     1
102
RTVSPropertyOp14
 70
     1
102
RTVSPropertyOp15
 70
     1
102
RTVSPropertyOp16
 70
     1
102
RTVSPropertyOp17
 70
     1
102
RTVSPropertyOp18
 70
     1
102
RTVSPropertyOp19
 70
     1
102
RTVSPropertyOp20
 70
     1
102
RTVSPropertyOp21
 70
     1
102
RTVSPropertyOp22
 70
     1
102
RTVSPropertyOp23
 70
     1
102
RTVSPropertyOp24
 70
     1
102
RTVSPropertyOp25
 70
     1
102
RTVSPropertyOp26
 70
     1
102
RTVSPropertyOp27
 70
     1
102
RTVSPropertyOp28
 70
     1
102
RTVSPropertyOp29
 70
     1
102
RTVSPropertyOp30
 70
     1
102
RTVSPropertyOp31
 70
     1
102
RTVSPropertyOp32
 70
     1
  0
XRECORD
  5
A14
102
{ACAD_REACTORS
330
A13
102
}
330
A13
100
AcDbXrecord
280
     1
102
RTVSPropertyOp0
 70
     1
102
RTVSPropertyOp1
 70
     1
102
RTVSPropertyOp2
 70
     1
102
RTVSPropertyOp3
 70
     1
102
RTVSPropertyOp4
 70
     1
102
RTVSPropertyOp5
 70
     1
102
RTVSPropertyOp6
 70
     1
102
RTVSPropertyOp7
 70
     1
102
RTVSPropertyOp8
 70
     1
102
RTVSPropertyOp9
 70
     1
102
RTVSPropertyOp10
 70
     1
102
RTVSPropertyOp11
 70
     1
102
RTVSPropertyOp12
 70
     1
102
RTVSPropertyOp13
 70
     1
102
RTVSPropertyOp14
 70
     1
102
RTVSPropertyOp15
 70
     1
102
RTVSPropertyOp16
 70
     1
102
RTVSPropertyOp17
 70
     1
102
RTVSPropertyOp18
 70
     1
102
RTVSPropertyOp19
 70
     1
102
RTVSPropertyOp20
 70
     1
102
RTVSPropertyOp21
 70
     1
102
RTVSPropertyOp22
 70
     1
102
RTVSPropertyOp23
 70
     1
102
RTVSPropertyOp24
 70
     1
102
RTVSPropertyOp25
 70
     1
102
RTVSPropertyOp26
 70
     1
102
RTVSPropertyOp27
 70
     1
102
RTVSPropertyOp28
 70
     1
102
RTVSPropertyOp29
 70
     1
102
RTVSPropertyOp30
 70
     1
102
RTVSPropertyOp31
 70
     1
102
RTVSPropertyOp32
 70
     1
  0
XRECORD
  5
A16
102
{ACAD_REACTORS
330
A15
102
}
330
A15
100
AcDbXrecord
280
     1
102
RTVSPropertyOp0
 70
     1
102
RTVSPropertyOp1
 70
     1
102
RTVSPropertyOp2
 70
     1
102
RTVSPropertyOp3
 70
     1
102
RTVSPropertyOp4
 70
     1
102
RTVSPropertyOp5
 70
     1
102
RTVSPropertyOp6
 70
     1
102
RTVSPropertyOp7
 70
     1
102
RTVSPropertyOp8
 70
     1
102
RTVSPropertyOp9
 70
     1
102
RTVSPropertyOp10
 70
     1
102
RTVSPropertyOp11
 70
     1
102
RTVSPropertyOp12
 70
     1
102
RTVSPropertyOp13
 70
     1
102
RTVSPropertyOp14
 70
     1
102
RTVSPropertyOp15
 70
     1
102
RTVSPropertyOp16
 70
     1
102
RTVSPropertyOp17
 70
     1
102
RTVSPropertyOp18
 70
     1
102
RTVSPropertyOp19
 70
     1
102
RTVSPropertyOp20
 70
     1
102
RTVSPropertyOp21
 70
     1
102
RTVSPropertyOp22
 70
     1
102
RTVSPropertyOp23
 70
     1
102
RTVSPropertyOp24
 70
     1
102
RTVSPropertyOp25
 70
     1
102
RTVSPropertyOp26
 70
     1
102
RTVSPropertyOp27
 70
     1
102
RTVSPropertyOp28
 70
     1
102
RTVSPropertyOp29
 70
     1
102
RTVSPropertyOp30
 70
     1
102
RTVSPropertyOp31
 70
     1
102
RTVSPropertyOp32
 70
     1
  0
XRECORD
  5
A18
102
{ACAD_REACTORS
330
A17
102
}
330
A17
100
AcDbXrecord
280
     1
102
RTVSPropertyOp0
 70
     1
102
RTVSPropertyOp1
 70
     1
102
RTVSPropertyOp2
 70
     1
102
RTVSPropertyOp3
 70
     1
102
RTVSPropertyOp4
 70
     1
102
RTVSPropertyOp5
 70
     1
102
RTVSPropertyOp6
 70
     1
102
RTVSPropertyOp7
 70
     1
102
RTVSPropertyOp8
 70
     1
102
RTVSPropertyOp9
 70
     1
102
RTVSPropertyOp10
 70
     1
102
RTVSPropertyOp11
 70
     1
102
RTVSPropertyOp12
 70
     1
102
RTVSPropertyOp13
 70
     1
102
RTVSPropertyOp14
 70
     1
102
RTVSPropertyOp15
 70
     1
102
RTVSPropertyOp16
 70
     1
102
RTVSPropertyOp17
 70
     1
102
RTVSPropertyOp18
 70
     1
102
RTVSPropertyOp19
 70
     1
102
RTVSPropertyOp20
 70
     1
102
RTVSPropertyOp21
 70
     1
102
RTVSPropertyOp22
 70
     1
102
RTVSPropertyOp23
 70
     1
102
RTVSPropertyOp24
 70
     1
102
RTVSPropertyOp25
 70
     1
102
RTVSPropertyOp26
 70
     1
102
RTVSPropertyOp27
 70
     1
102
RTVSPropertyOp28
 70
     1
102
RTVSPropertyOp29
 70
     1
102
RTVSPropertyOp30
 70
     1
102
RTVSPropertyOp31
 70
     1
102
RTVSPropertyOp32
 70
     1
  0
XRECORD
  5
A20
102
{ACAD_REACTORS
330
A1F
102
}
330
A1F
100
AcDbXrecord
280
     1
102
RTVSPropertyOp0
 70
     1
102
RTVSPropertyOp1
 70
     1
102
RTVSPropertyOp2
 70
     1
102
RTVSPropertyOp3
 70
     1
102
RTVSPropertyOp4
 70
     1
102
RTVSPropertyOp5
 70
     1
102
RTVSPropertyOp6
 70
     1
102
RTVSPropertyOp7
 70
     1
102
RTVSPropertyOp8
 70
     1
102
RTVSPropertyOp9
 70
     1
102
RTVSPropertyOp10
 70
     1
102
RTVSPropertyOp11
 70
     1
102
RTVSPropertyOp12
 70
     1
102
RTVSPropertyOp13
 70
     1
102
RTVSPropertyOp14
 70
     1
102
RTVSPropertyOp15
 70
     1
102
RTVSPropertyOp16
 70
     1
102
RTVSPropertyOp17
 70
     1
102
RTVSPropertyOp18
 70
     1
102
RTVSPropertyOp19
 70
     1
102
RTVSPropertyOp20
 70
     1
102
RTVSPropertyOp21
 70
     1
102
RTVSPropertyOp22
 70
     1
102
RTVSPropertyOp23
 70
     1
102
RTVSPropertyOp24
 70
     1
102
RTVSPropertyOp25
 70
     1
102
RTVSPropertyOp26
 70
     1
102
RTVSPropertyOp27
 70
     1
102
RTVSPropertyOp28
 70
     1
102
RTVSPropertyOp29
 70
     1
102
RTVSPropertyOp30
 70
     1
102
RTVSPropertyOp31
 70
     1
102
RTVSPropertyOp32
 70
     1
  0
XRECORD
  5
A3C
102
{ACAD_REACTORS
330
A3B
102
}
330
A3B
100
AcDbXrecord
280
     1
102
RTVSPropertyOp0
 70
     0
102
RTVSPropertyOp1
 70
     0
102
RTVSPropertyOp2
 70
     0
102
RTVSPropertyOp3
 70
     0
102
RTVSPropertyOp4
 70
     0
102
RTVSPropertyOp5
 70
     0
102
RTVSPropertyOp6
 70
     0
102
RTVSPropertyOp7
 70
     0
102
RTVSPropertyOp8
 70
     0
102
RTVSPropertyOp9
 70
     0
102
RTVSPropertyOp10
 70
     0
102
RTVSPropertyOp11
 70
     0
102
RTVSPropertyOp12
 70
     0
102
RTVSPropertyOp13
 70
     0
102
RTVSPropertyOp14
 70
     2
102
RTVSPropertyOp15
 70
     0
102
RTVSPropertyOp16
 70
     0
102
RTVSPropertyOp17
 70
     0
102
RTVSPropertyOp18
 70
     0
102
RTVSPropertyOp19
 70
     0
102
RTVSPropertyOp20
 70
     0
102
RTVSPropertyOp21
 70
     0
102
RTVSPropertyOp22
 70
     0
102
RTVSPropertyOp23
 70
     0
102
RTVSPropertyOp24
 70
     0
102
RTVSPropertyOp25
 70
     0
102
RTVSPropertyOp26
 70
     0
102
RTVSPropertyOp27
 70
     0
102
RTVSPropertyOp28
 70
     1
102
RTVSPropertyOp29
 70
     1
102
RTVSPropertyOp30
 70
     1
102
RTVSPropertyOp31
 70
     1
102
RTVSPropertyOp32
 70
     1
  0
XRECORD
  5
A2C
102
{ACAD_REACTORS
330
A2B
102
}
330
A2B
100
AcDbXrecord
280
     1
102
RTVSPropertyOp0
 70
     1
102
RTVSPropertyOp1
 70
     1
102
RTVSPropertyOp2
 70
     1
102
RTVSPropertyOp3
 70
     1
102
RTVSPropertyOp4
 70
     1
102
RTVSPropertyOp5
 70
     1
102
RTVSPropertyOp6
 70
     1
102
RTVSPropertyOp7
 70
     1
102
RTVSPropertyOp8
 70
     1
102
RTVSPropertyOp9
 70
     1
102
RTVSPropertyOp10
 70
     1
102
RTVSPropertyOp11
 70
     1
102
RTVSPropertyOp12
 70
     1
102
RTVSPropertyOp13
 70
     1
102
RTVSPropertyOp14
 70
     1
102
RTVSPropertyOp15
 70
     1
102
RTVSPropertyOp16
 70
     1
102
RTVSPropertyOp17
 70
     1
102
RTVSPropertyOp18
 70
     1
102
RTVSPropertyOp19
 70
     1
102
RTVSPropertyOp20
 70
     1
102
RTVSPropertyOp21
 70
     1
102
RTVSPropertyOp22
 70
     1
102
RTVSPropertyOp23
 70
     1
102
RTVSPropertyOp24
 70
     1
102
RTVSPropertyOp25
 70
     1
102
RTVSPropertyOp26
 70
     1
102
RTVSPropertyOp27
 70
     1
102
RTVSPropertyOp28
 70
     1
102
RTVSPropertyOp29
 70
     1
102
RTVSPropertyOp30
 70
     1
102
RTVSPropertyOp31
 70
     1
102
RTVSPropertyOp32
 70
     1
  0
XRECORD
  5
A3E
102
{ACAD_REACTORS
330
A3D
102
}
330
A3D
100
AcDbXrecord
280
     1
102
RTVSPropertyOp0
 70
     0
102
RTVSPropertyOp1
 70
     0
102
RTVSPropertyOp2
 70
     0
102
RTVSPropertyOp3
 70
     0
102
RTVSPropertyOp4
 70
     0
102
RTVSPropertyOp5
 70
     0
102
RTVSPropertyOp6
 70
     0
102
RTVSPropertyOp7
 70
     0
102
RTVSPropertyOp8
 70
     0
102
RTVSPropertyOp9
 70
     0
102
RTVSPropertyOp10
 70
     0
102
RTVSPropertyOp11
 70
     0
102
RTVSPropertyOp12
 70
     0
102
RTVSPropertyOp13
 70
     0
102
RTVSPropertyOp14
 70
     2
102
RTVSPropertyOp15
 70
     0
102
RTVSPropertyOp16
 70
     0
102
RTVSPropertyOp17
 70
     0
102
RTVSPropertyOp18
 70
     0
102
RTVSPropertyOp19
 70
     0
102
RTVSPropertyOp20
 70
     0
102
RTVSPropertyOp21
 70
     0
102
RTVSPropertyOp22
 70
     0
102
RTVSPropertyOp23
 70
     0
102
RTVSPropertyOp24
 70
     0
102
RTVSPropertyOp25
 70
     0
102
RTVSPropertyOp26
 70
     0
102
RTVSPropertyOp27
 70
     0
102
RTVSPropertyOp28
 70
     1
102
RTVSPropertyOp29
 70
     1
102
RTVSPropertyOp30
 70
     1
102
RTVSPropertyOp31
 70
     1
102
RTVSPropertyOp32
 70
     1
  0
XRECORD
  5
A24
102
{ACAD_REACTORS
330
A23
102
}
330
A23
100
AcDbXrecord
280
     1
102
RTVSPropertyOp0
 70
     1
102
RTVSPropertyOp1
 70
     1
102
RTVSPropertyOp2
 70
     1
102
RTVSPropertyOp3
 70
     1
102
RTVSPropertyOp4
 70
     1
102
RTVSPropertyOp5
 70
     1
102
RTVSPropertyOp6
 70
     1
102
RTVSPropertyOp7
 70
     1
102
RTVSPropertyOp8
 70
     1
102
RTVSPropertyOp9
 70
     1
102
RTVSPropertyOp10
 70
     1
102
RTVSPropertyOp11
 70
     1
102
RTVSPropertyOp12
 70
     1
102
RTVSPropertyOp13
 70
     1
102
RTVSPropertyOp14
 70
     1
102
RTVSPropertyOp15
 70
     1
102
RTVSPropertyOp16
 70
     1
102
RTVSPropertyOp17
 70
     1
102
RTVSPropertyOp18
 70
     1
102
RTVSPropertyOp19
 70
     1
102
RTVSPropertyOp20
 70
     1
102
RTVSPropertyOp21
 70
     1
102
RTVSPropertyOp22
 70
     1
102
RTVSPropertyOp23
 70
     1
102
RTVSPropertyOp24
 70
     1
102
RTVSPropertyOp25
 70
     1
102
RTVSPropertyOp26
 70
     1
102
RTVSPropertyOp27
 70
     1
102
RTVSPropertyOp28
 70
     1
102
RTVSPropertyOp29
 70
     1
102
RTVSPropertyOp30
 70
     1
102
RTVSPropertyOp31
 70
     1
102
RTVSPropertyOp32
 70
     1
  0
XRECORD
  5
A3A
102
{ACAD_REACTORS
330
A39
102
}
330
A39
100
AcDbXrecord
280
     1
102
RTVSPropertyOp0
 70
     1
102
RTVSPropertyOp1
 70
     1
102
RTVSPropertyOp2
 70
     1
102
RTVSPropertyOp3
 70
     1
102
RTVSPropertyOp4
 70
     1
102
RTVSPropertyOp5
 70
     1
102
RTVSPropertyOp6
 70
     1
102
RTVSPropertyOp7
 70
     1
102
RTVSPropertyOp8
 70
     1
102
RTVSPropertyOp9
 70
     1
102
RTVSPropertyOp10
 70
     1
102
RTVSPropertyOp11
 70
     1
102
RTVSPropertyOp12
 70
     1
102
RTVSPropertyOp13
 70
     1
102
RTVSPropertyOp14
 70
     1
102
RTVSPropertyOp15
 70
     1
102
RTVSPropertyOp16
 70
     1
102
RTVSPropertyOp17
 70
     1
102
RTVSPropertyOp18
 70
     1
102
RTVSPropertyOp19
 70
     1
102
RTVSPropertyOp20
 70
     1
102
RTVSPropertyOp21
 70
     1
102
RTVSPropertyOp22
 70
     1
102
RTVSPropertyOp23
 70
     1
102
RTVSPropertyOp24
 70
     1
102
RTVSPropertyOp25
 70
     1
102
RTVSPropertyOp26
 70
     1
102
RTVSPropertyOp27
 70
     1
102
RTVSPropertyOp28
 70
     1
102
RTVSPropertyOp29
 70
     1
102
RTVSPropertyOp30
 70
     1
102
RTVSPropertyOp31
 70
     1
102
RTVSPropertyOp32
 70
     1
  0
XRECORD
  5
A38
102
{ACAD_REACTORS
330
A37
102
}
330
A37
100
AcDbXrecord
280
     1
102
RTVSPropertyOp0
 70
     1
102
RTVSPropertyOp1
 70
     1
102
RTVSPropertyOp2
 70
     1
102
RTVSPropertyOp3
 70
     1
102
RTVSPropertyOp4
 70
     1
102
RTVSPropertyOp5
 70
     1
102
RTVSPropertyOp6
 70
     1
102
RTVSPropertyOp7
 70
     1
102
RTVSPropertyOp8
 70
     1
102
RTVSPropertyOp9
 70
     1
102
RTVSPropertyOp10
 70
     1
102
RTVSPropertyOp11
 70
     1
102
RTVSPropertyOp12
 70
     1
102
RTVSPropertyOp13
 70
     1
102
RTVSPropertyOp14
 70
     1
102
RTVSPropertyOp15
 70
     1
102
RTVSPropertyOp16
 70
     1
102
RTVSPropertyOp17
 70
     1
102
RTVSPropertyOp18
 70
     1
102
RTVSPropertyOp19
 70
     1
102
RTVSPropertyOp20
 70
     1
102
RTVSPropertyOp21
 70
     1
102
RTVSPropertyOp22
 70
     1
102
RTVSPropertyOp23
 70
     1
102
RTVSPropertyOp24
 70
     1
102
RTVSPropertyOp25
 70
     1
102
RTVSPropertyOp26
 70
     1
102
RTVSPropertyOp27
 70
     1
102
RTVSPropertyOp28
 70
     1
102
RTVSPropertyOp29
 70
     1
102
RTVSPropertyOp30
 70
     1
102
RTVSPropertyOp31
 70
     1
102
RTVSPropertyOp32
 70
     1
  0
XRECORD
  5
A32
102
{ACAD_REACTORS
330
A31
102
}
330
A31
100
AcDbXrecord
280
     1
102
RTVSPropertyOp0
 70
     1
102
RTVSPropertyOp1
 70
     1
102
RTVSPropertyOp2
 70
     1
102
RTVSPropertyOp3
 70
     1
102
RTVSPropertyOp4
 70
     1
102
RTVSPropertyOp5
 70
     1
102
RTVSPropertyOp6
 70
     1
102
RTVSPropertyOp7
 70
     1
102
RTVSPropertyOp8
 70
     1
102
RTVSPropertyOp9
 70
     1
102
RTVSPropertyOp10
 70
     1
102
RTVSPropertyOp11
 70
     1
102
RTVSPropertyOp12
 70
     1
102
RTVSPropertyOp13
 70
     1
102
RTVSPropertyOp14
 70
     1
102
RTVSPropertyOp15
 70
     1
102
RTVSPropertyOp16
 70
     1
102
RTVSPropertyOp17
 70
     1
102
RTVSPropertyOp18
 70
     1
102
RTVSPropertyOp19
 70
     1
102
RTVSPropertyOp20
 70
     1
102
RTVSPropertyOp21
 70
     1
102
RTVSPropertyOp22
 70
     1
102
RTVSPropertyOp23
 70
     1
102
RTVSPropertyOp24
 70
     1
102
RTVSPropertyOp25
 70
     1
102
RTVSPropertyOp26
 70
     1
102
RTVSPropertyOp27
 70
     1
102
RTVSPropertyOp28
 70
     1
102
RTVSPropertyOp29
 70
     1
102
RTVSPropertyOp30
 70
     1
102
RTVSPropertyOp31
 70
     1
102
RTVSPropertyOp32
 70
     1
  0
XRECORD
  5
A34
102
{ACAD_REACTORS
330
A33
102
}
330
A33
100
AcDbXrecord
280
     1
102
RTVSPropertyOp0
 70
     1
102
RTVSPropertyOp1
 70
     1
102
RTVSPropertyOp2
 70
     1
102
RTVSPropertyOp3
 70
     1
102
RTVSPropertyOp4
 70
     1
102
RTVSPropertyOp5
 70
     1
102
RTVSPropertyOp6
 70
     1
102
RTVSPropertyOp7
 70
     1
102
RTVSPropertyOp8
 70
     1
102
RTVSPropertyOp9
 70
     1
102
RTVSPropertyOp10
 70
     1
102
RTVSPropertyOp11
 70
     1
102
RTVSPropertyOp12
 70
     1
102
RTVSPropertyOp13
 70
     1
102
RTVSPropertyOp14
 70
     1
102
RTVSPropertyOp15
 70
     1
102
RTVSPropertyOp16
 70
     1
102
RTVSPropertyOp17
 70
     1
102
RTVSPropertyOp18
 70
     1
102
RTVSPropertyOp19
 70
     1
102
RTVSPropertyOp20
 70
     1
102
RTVSPropertyOp21
 70
     1
102
RTVSPropertyOp22
 70
     1
102
RTVSPropertyOp23
 70
     1
102
RTVSPropertyOp24
 70
     1
102
RTVSPropertyOp25
 70
     1
102
RTVSPropertyOp26
 70
     1
102
RTVSPropertyOp27
 70
     1
102
RTVSPropertyOp28
 70
     1
102
RTVSPropertyOp29
 70
     1
102
RTVSPropertyOp30
 70
     1
102
RTVSPropertyOp31
 70
     1
102
RTVSPropertyOp32
 70
     1
  0
XRECORD
  5
A2A
102
{ACAD_REACTORS
330
A29
102
}
330
A29
100
AcDbXrecord
280
     1
102
RTVSPropertyOp0
 70
     1
102
RTVSPropertyOp1
 70
     1
102
RTVSPropertyOp2
 70
     1
102
RTVSPropertyOp3
 70
     1
102
RTVSPropertyOp4
 70
     1
102
RTVSPropertyOp5
 70
     1
102
RTVSPropertyOp6
 70
     1
102
RTVSPropertyOp7
 70
     1
102
RTVSPropertyOp8
 70
     1
102
RTVSPropertyOp9
 70
     1
102
RTVSPropertyOp10
 70
     1
102
RTVSPropertyOp11
 70
     1
102
RTVSPropertyOp12
 70
     1
102
RTVSPropertyOp13
 70
     1
102
RTVSPropertyOp14
 70
     1
102
RTVSPropertyOp15
 70
     1
102
RTVSPropertyOp16
 70
     1
102
RTVSPropertyOp17
 70
     1
102
RTVSPropertyOp18
 70
     1
102
RTVSPropertyOp19
 70
     1
102
RTVSPropertyOp20
 70
     1
102
RTVSPropertyOp21
 70
     1
102
RTVSPropertyOp22
 70
     1
102
RTVSPropertyOp23
 70
     1
102
RTVSPropertyOp24
 70
     1
102
RTVSPropertyOp25
 70
     1
102
RTVSPropertyOp26
 70
     1
102
RTVSPropertyOp27
 70
     1
102
RTVSPropertyOp28
 70
     1
102
RTVSPropertyOp29
 70
     1
102
RTVSPropertyOp30
 70
     1
102
RTVSPropertyOp31
 70
     1
102
RTVSPropertyOp32
 70
     1
  0
XRECORD
  5
A1E
102
{ACAD_REACTORS
330
A1D
102
}
330
A1D
100
AcDbXrecord
280
     1
102
RTVSPropertyOp0
 70
     1
102
RTVSPropertyOp1
 70
     1
102
RTVSPropertyOp2
 70
     1
102
RTVSPropertyOp3
 70
     1
102
RTVSPropertyOp4
 70
     1
102
RTVSPropertyOp5
 70
     1
102
RTVSPropertyOp6
 70
     1
102
RTVSPropertyOp7
 70
     1
102
RTVSPropertyOp8
 70
     1
102
RTVSPropertyOp9
 70
     1
102
RTVSPropertyOp10
 70
     1
102
RTVSPropertyOp11
 70
     1
102
RTVSPropertyOp12
 70
     1
102
RTVSPropertyOp13
 70
     1
102
RTVSPropertyOp14
 70
     1
102
RTVSPropertyOp15
 70
     1
102
RTVSPropertyOp16
 70
     1
102
RTVSPropertyOp17
 70
     1
102
RTVSPropertyOp18
 70
     1
102
RTVSPropertyOp19
 70
     1
102
RTVSPropertyOp20
 70
     1
102
RTVSPropertyOp21
 70
     1
102
RTVSPropertyOp22
 70
     1
102
RTVSPropertyOp23
 70
     1
102
RTVSPropertyOp24
 70
     1
102
RTVSPropertyOp25
 70
     1
102
RTVSPropertyOp26
 70
     1
102
RTVSPropertyOp27
 70
     1
102
RTVSPropertyOp28
 70
     1
102
RTVSPropertyOp29
 70
     1
102
RTVSPropertyOp30
 70
     1
102
RTVSPropertyOp31
 70
     1
102
RTVSPropertyOp32
 70
     1
  0
XRECORD
  5
A36
102
{ACAD_REACTORS
330
A35
102
}
330
A35
100
AcDbXrecord
280
     1
102
RTVSPropertyOp0
 70
     1
102
RTVSPropertyOp1
 70
     1
102
RTVSPropertyOp2
 70
     1
102
RTVSPropertyOp3
 70
     1
102
RTVSPropertyOp4
 70
     1
102
RTVSPropertyOp5
 70
     1
102
RTVSPropertyOp6
 70
     1
102
RTVSPropertyOp7
 70
     1
102
RTVSPropertyOp8
 70
     1
102
RTVSPropertyOp9
 70
     1
102
RTVSPropertyOp10
 70
     1
102
RTVSPropertyOp11
 70
     1
102
RTVSPropertyOp12
 70
     1
102
RTVSPropertyOp13
 70
     1
102
RTVSPropertyOp14
 70
     1
102
RTVSPropertyOp15
 70
     1
102
RTVSPropertyOp16
 70
     1
102
RTVSPropertyOp17
 70
     1
102
RTVSPropertyOp18
 70
     1
102
RTVSPropertyOp19
 70
     1
102
RTVSPropertyOp20
 70
     1
102
RTVSPropertyOp21
 70
     1
102
RTVSPropertyOp22
 70
     1
102
RTVSPropertyOp23
 70
     1
102
RTVSPropertyOp24
 70
     1
102
RTVSPropertyOp25
 70
     1
102
RTVSPropertyOp26
 70
     1
102
RTVSPropertyOp27
 70
     1
102
RTVSPropertyOp28
 70
     1
102
RTVSPropertyOp29
 70
     1
102
RTVSPropertyOp30
 70
     1
102
RTVSPropertyOp31
 70
     1
102
RTVSPropertyOp32
 70
     1
  0
ENDSEC
  0
EOF
