  0
SECTION
  2
HEADER
  9
$ACADVER
  1
AC1015
  9
$ACADMAINTVER
 70
    18
  9
$DWGCODEPAGE
  3
ANSI_1252
  9
$INSBASE
 10
0.0
 20
0.0
 30
0.0
  9
$EXTMIN
 10
0.0
 20
0.0
 30
0.0
  9
$EXTMAX
 10
147.8260869565217
 20
95.65217391304347
 30
0.0
  9
$LIMMIN
 10
0.0
 20
0.0
  9
$LIMMAX
 10
147.8260869565217
 20
95.65217391304347
  9
$ORTHOMODE
 70
     0
  9
$REGENMODE
 70
     1
  9
$FILLMODE
 70
     1
  9
$QTEXTMODE
 70
     0
  9
$MIRRTEXT
 70
     0
  9
$LTSCALE
 40
8.695652173913043
  9
$ATTMODE
 70
     1
  9
$TEXTSIZE
 40
0.2
  9
$TRACEWID
 40
0.05
  9
$TEXTSTYLE
  7
Standard
  9
$CLAYER
  8
0
  9
$CELTYPE
  6
ByLayer
  9
$CECOLOR
 62
   256
  9
$CELTSCALE
 40
1.0
  9
$DISPSILH
 70
     0
  9
$DIMSCALE
 40
1.0
  9
$DIMASZ
 40
0.0708661417322835
  9
$DIMEXO
 40
0.0625
  9
$DIMDLI
 40
0.38
  9
$DIMRND
 40
0.0
  9
$DIMDLE
 40
0.0
  9
$DIMEXE
 40
0.18
  9
$DIMTP
 40
0.0
  9
$DIMTM
 40
0.0
  9
$DIMTXT
 40
0.0708661417322835
  9
$DIMCEN
 40
0.09
  9
$DIMTSZ
 40
0.0
  9
$DIMTOL
 70
     0
  9
$DIMLIM
 70
     0
  9
$DIMTIH
 70
     1
  9
$DIMTOH
 70
     1
  9
$DIMSE1
 70
     0
  9
$DIMSE2
 70
     0
  9
$DIMTAD
 70
     0
  9
$DIMZIN
 70
     0
  9
$DIMBLK
  1

  9
$DIMASO
 70
     1
  9
$DIMSHO
 70
     1
  9
$DIMPOST
  1

  9
$DIMAPOST
  1

  9
$DIMALT
 70
     0
  9
$DIMALTD
 70
     2
  9
$DIMALTF
 40
25.4
  9
$DIMLFAC
 40
1.0
  9
$DIMTOFL
 70
     0
  9
$DIMTVP
 40
0.0
  9
$DIMTIX
 70
     0
  9
$DIMSOXD
 70
     0
  9
$DIMSAH
 70
     0
  9
$DIMBLK1
  1

  9
$DIMBLK2
  1

  9
$DIMSTYLE
  2
Standard
  9
$DIMCLRD
 70
     0
  9
$DIMCLRE
 70
     0
  9
$DIMCLRT
 70
     0
  9
$DIMTFAC
 40
1.0
  9
$DIMGAP
 40
0.09
  9
$DIMJUST
 70
     0
  9
$DIMSD1
 70
     0
  9
$DIMSD2
 70
     0
  9
$DIMTOLJ
 70
     1
  9
$DIMTZIN
 70
     0
  9
$DIMALTZ
 70
     0
  9
$DIMALTTZ
 70
     0
  9
$DIMUPT
 70
     0
  9
$DIMDEC
 70
     4
  9
$DIMTDEC
 70
     4
  9
$DIMALTU
 70
     2
  9
$DIMALTTD
 70
     2
  9
$DIMTXSTY
  7
Standard
  9
$DIMAUNIT
 70
     0
  9
$DIMADEC
 70
     0
  9
$DIMALTRND
 40
0.0
  9
$DIMAZIN
 70
     0
  9
$DIMDSEP
 70
    46
  9
$DIMATFIT
 70
     3
  9
$DIMFRAC
 70
     0
  9
$DIMLDRBLK
  1

  9
$DIMLUNIT
 70
     2
  9
$DIMLWD
 70
    -2
  9
$DIMLWE
 70
    -2
  9
$DIMTMOVE
 70
     0
  9
$LUNITS
 70
     2
  9
$LUPREC
 70
     4
  9
$SKETCHINC
 40
0.1
  9
$FILLETRAD
 40
0.0
  9
$AUNITS
 70
     0
  9
$AUPREC
 70
     0
  9
$MENU
  1
.
  9
$ELEVATION
 40
0.0
  9
$PELEVATION
 40
0.0
  9
$THICKNESS
 40
0.0
  9
$LIMCHECK
 70
     0
  9
$CHAMFERA
 40
0.0
  9
$CHAMFERB
 40
0.0
  9
$CHAMFERC
 40
0.0
  9
$CHAMFERD
 40
0.0
  9
$SKPOLY
 70
     0
  9
$TDCREATE
 40
2455986.402274537
  9
$TDUCREATE
 40
2455986.652274537
  9
$TDUPDATE
 40
2455986.402274722
  9
$TDUUPDATE
 40
2455986.652274722
  9
$TDINDWG
 40
0.0000363542
  9
$TDUSRTIMER
 40
0.0000363542
  9
$USRTIMER
 70
     1
  9
$ANGBASE
 50
0.0
  9
$ANGDIR
 70
     0
  9
$PDMODE
 70
     0
  9
$PDSIZE
 40
0.0
  9
$PLINEWID
 40
0.0
  9
$SPLFRAME
 70
     0
  9
$SPLINETYPE
 70
     6
  9
$SPLINESEGS
 70
     8
  9
$HANDSEED
  5
B55
  9
$SURFTAB1
 70
     6
  9
$SURFTAB2
 70
     6
  9
$SURFTYPE
 70
     6
  9
$SURFU
 70
     6
  9
$SURFV
 70
     6
  9
$UCSBASE
  2

  9
$UCSNAME
  2

  9
$UCSORG
 10
0.0
 20
0.0
 30
0.0
  9
$UCSXDIR
 10
1.0
 20
0.0
 30
0.0
  9
$UCSYDIR
 10
0.0
 20
1.0
 30
0.0
  9
$UCSORTHOREF
  2

  9
$UCSORTHOVIEW
 70
     0
  9
$UCSORGTOP
 10
0.0
 20
0.0
 30
0.0
  9
$UCSORGBOTTOM
 10
0.0
 20
0.0
 30
0.0
  9
$UCSORGLEFT
 10
0.0
 20
0.0
 30
0.0
  9
$UCSORGRIGHT
 10
0.0
 20
0.0
 30
0.0
  9
$UCSORGFRONT
 10
0.0
 20
0.0
 30
0.0
  9
$UCSORGBACK
 10
0.0
 20
0.0
 30
0.0
  9
$PUCSBASE
  2

  9
$PUCSNAME
  2

  9
$PUCSORG
 10
0.0
 20
0.0
 30
0.0
  9
$PUCSXDIR
 10
1.0
 20
0.0
 30
0.0
  9
$PUCSYDIR
 10
0.0
 20
1.0
 30
0.0
  9
$PUCSORTHOREF
  2

  9
$PUCSORTHOVIEW
 70
     0
  9
$PUCSORGTOP
 10
0.0
 20
0.0
 30
0.0
  9
$PUCSORGBOTTOM
 10
0.0
 20
0.0
 30
0.0
  9
$PUCSORGLEFT
 10
0.0
 20
0.0
 30
0.0
  9
$PUCSORGRIGHT
 10
0.0
 20
0.0
 30
0.0
  9
$PUCSORGFRONT
 10
0.0
 20
0.0
 30
0.0
  9
$PUCSORGBACK
 10
0.0
 20
0.0
 30
0.0
  9
$USERI1
 70
     0
  9
$USERI2
 70
     0
  9
$USERI3
 70
     0
  9
$USERI4
 70
     0
  9
$USERI5
 70
     0
  9
$USERR1
 40
0.0
  9
$USERR2
 40
0.0
  9
$USERR3
 40
0.0
  9
$USERR4
 40
0.0
  9
$USERR5
 40
0.0
  9
$WORLDVIEW
 70
     1
  9
$SHADEDGE
 70
     3
  9
$SHADEDIF
 70
    70
  9
$TILEMODE
 70
     1
  9
$MAXACTVP
 70
    64
  9
$PINSBASE
 10
0.0
 20
0.0
 30
0.0
  9
$PLIMCHECK
 70
     0
  9
$PEXTMIN
 10
0.0
 20
0.0
 30
0.0
  9
$PEXTMAX
 10
147.8260869565217
 20
95.65217391304347
 30
0.0
  9
$PLIMMIN
 10
0.0
 20
0.0
  9
$PLIMMAX
 10
147.8260869565217
 20
95.65217391304347
  9
$UNITMODE
 70
     0
  9
$VISRETAIN
 70
     1
  9
$PLINEGEN
 70
     0
  9
$PSLTSCALE
 70
     1
  9
$TREEDEPTH
 70
  3020
  9
$CMLSTYLE
  2
Standard
  9
$CMLJUST
 70
     0
  9
$CMLSCALE
 40
1.0
  9
$PROXYGRAPHICS
 70
     1
  9
$MEASUREMENT
 70
     0
  9
$CELWEIGHT
370
    -1
  9
$ENDCAPS
280
     0
  9
$JOINSTYLE
280
     0
  9
$LWDISPLAY
290
     0
  9
$INSUNITS
 70
     1
  9
$HYPERLINKBASE
  1

  9
$STYLESHEET
  1

  9
$XEDIT
290
     1
  9
$CEPSNTYPE
380
     0
  9
$PSTYLEMODE
290
     1
  9
$FINGERPRINTGUID
  2
{63002701-70D7-43A6-9367-1DE18EB96F9D}
  9
$VERSIONGUID
  2
{732B6915-9878-441C-B1CA-CA5ADE199769}
  9
$EXTNAMES
290
     1
  9
$PSVPSCALE
 40
0.0
  9
$OLESTARTUP
290
     0
  0
ENDSEC
  0
SECTION
  2
CLASSES
  0
CLASS
  1
ACDBDICTIONARYWDFLT
  2
AcDbDictionaryWithDefault
  3
ObjectDBX Classes
 90
        0
280
     0
281
     0
  0
CLASS
  1
MATERIAL
  2
AcDbMaterial
  3
ObjectDBX Classes
 90
     1153
280
     0
281
     0
  0
CLASS
  1
VISUALSTYLE
  2
AcDbVisualStyle
  3
ObjectDBX Classes
 90
     4095
280
     0
281
     0
  0
CLASS
  1
SCALE
  2
AcDbScale
  3
ObjectDBX Classes
 90
     1153
280
     0
281
     0
  0
CLASS
  1
TABLESTYLE
  2
AcDbTableStyle
  3
ObjectDBX Classes
 90
     4095
280
     0
281
     0
  0
CLASS
  1
MLEADERSTYLE
  2
AcDbMLeaderStyle
  3
ACDB_MLEADERSTYLE_CLASS
 90
     4095
280
     0
281
     0
  0
CLASS
  1
DICTIONARYVAR
  2
AcDbDictionaryVar
  3
ObjectDBX Classes
 90
        0
280
     0
281
     0
  0
CLASS
  1
CELLSTYLEMAP
  2
AcDbCellStyleMap
  3
ObjectDBX Classes
 90
     1152
280
     0
281
     0
  0
CLASS
  1
ACDBPLACEHOLDER
  2
AcDbPlaceHolder
  3
ObjectDBX Classes
 90
        0
280
     0
281
     0
  0
CLASS
  1
LAYOUT
  2
AcDbLayout
  3
ObjectDBX Classes
 90
        0
280
     0
281
     0
  0
ENDSEC
  0
SECTION
  2
TABLES
  0
TABLE
  2
VPORT
  5
8
330
0
100
AcDbSymbolTable
 70
     1
  0
VPORT
  5
57
330
8
100
AcDbSymbolTableRecord
100
AcDbViewportTableRecord
  2
*Active
 70
     0
 10
0.0
 20
0.0
 11
1.0
 21
1.0
 12
73.91304347826086
 22
47.82608695652173
 13
0.0
 23
0.0
 14
1.0
 24
1.0
 15
0.0
 25
0.0
 16
0.0
 26
0.0
 36
1.0
 17
0.0
 27
0.0
 37
0.0
 40
95.65217391304347
 41
1.545454545454545
 42
50.0
 43
0.0
 44
0.0
 50
0.0
 51
0.0
 71
     0
 72
   100
 73
     1
 74
     1
 75
     0
 76
     0
 77
     0
 78
     0
281
     0
 65
     1
110
0.0
120
0.0
130
0.0
111
1.0
121
0.0
131
0.0
112
0.0
122
1.0
132
0.0
 79
     0
146
0.0
  0
ENDTAB
  0
TABLE
  2
LTYPE
  5
5
330
0
100
AcDbSymbolTable
 70
    59
  0
LTYPE
  5
5B
330
5
100
AcDbSymbolTableRecord
100
AcDbLinetypeTableRecord
  2
ByBlock
 70
     0
  3

 72
    65
 73
     0
 40
0.0
  0
LTYPE
  5
5C
330
5
100
AcDbSymbolTableRecord
100
AcDbLinetypeTableRecord
  2
ByLayer
 70
     0
  3

 72
    65
 73
     0
 40
0.0
  0
LTYPE
  5
5D
330
5
100
AcDbSymbolTableRecord
100
AcDbLinetypeTableRecord
  2
Continuous
 70
     0
  3
Solid line
 72
    65
 73
     0
 40
0.0
  0
LTYPE
  5
7C
330
5
100
AcDbSymbolTableRecord
100
AcDbLinetypeTableRecord
  2
BY_STANDARD
 70
     0
  3
By Standard ____________    ____    ____   _
 72
    65
 73
     6
 40
1.240299999999999
 49
0.6614
 74
     0
 49
-0.0827
 74
     0
 49
0.1654
 74
     0
 49
-0.0827
 74
     0
 49
0.1654
 74
     0
 49
-0.0827
 74
     0
  0
LTYPE
  5
7D
330
5
100
AcDbSymbolTableRecord
100
AcDbLinetypeTableRecord
  2
CHAIN
 70
     0
  3
Chain ____ _ ____ _ ____ _ ____ _ ____ _ ____
 72
    65
 73
     4
 40
0.7087
 49
0.4724000000000001
 74
     0
 49
-0.0591
 74
     0
 49
0.1181
 74
     0
 49
-0.0591
 74
     0
  0
LTYPE
  5
7E
330
5
100
AcDbSymbolTableRecord
100
AcDbLinetypeTableRecord
  2
DASH_DOT
 70
     0
  3
Dash dot __ . __ . __ . __ . __ . __ . __ . __
 72
    65
 73
     4
 40
0.37
 49
0.24
 74
     0
 49
-0.06
 74
     0
 49
0.01
 74
     0
 49
-0.06
 74
     0
  0
LTYPE
  5
7F
330
5
100
AcDbSymbolTableRecord
100
AcDbLinetypeTableRecord
  2
DOUBLE_DASH_DOT
 70
     0
  3
Double-Dash Dot __ __ . __ __ . __ __ . __ _
 72
    65
 73
     6
 40
0.4398
 49
0.24
 74
     0
 49
-0.06
 74
     0
 49
0.0098
 74
     0
 49
-0.06
 74
     0
 49
0.01
 74
     0
 49
-0.06
 74
     0
  0
LTYPE
  5
80
330
5
100
AcDbSymbolTableRecord
100
AcDbLinetypeTableRecord
  2
DASH_TRIPLE_DOT
 70
     0
  3
Dash Triple-Dot _ . . . _ . . . _ . . . _
 72
    65
 73
     8
 40
0.51
 49
0.24
 74
     0
 49
-0.06
 74
     0
 49
0.01
 74
     0
 49
-0.06
 74
     0
 49
0.01
 74
     0
 49
-0.06
 74
     0
 49
0.01
 74
     0
 49
-0.06
 74
     0
  0
LTYPE
  5
81
330
5
100
AcDbSymbolTableRecord
100
AcDbLinetypeTableRecord
  2
DASHED
 70
     0
  3
Dashed __ __ __ __ __ __ __ __ __ __ __ __ __ _
 72
    65
 73
     2
 40
0.2067
 49
0.1654
 74
     0
 49
-0.0413
 74
     0
  0
LTYPE
  5
82
330
5
100
AcDbSymbolTableRecord
100
AcDbLinetypeTableRecord
  2
DASH_DOUBLE_DOT
 70
     0
  3
Dash Double-Dot __ . . __ . . __ . . __ . .
 72
    65
 73
     6
 40
0.4398
 49
0.24
 74
     0
 49
-0.06
 74
     0
 49
0.0098
 74
     0
 49
-0.06
 74
     0
 49
0.01
 74
     0
 49
-0.06
 74
     0
  0
LTYPE
  5
83
330
5
100
AcDbSymbolTableRecord
100
AcDbLinetypeTableRecord
  2
DASHED_SPACE
 70
     0
  3
Dashed Space __ __ __ __ __ __ __ __ __ __ __ _
 72
    65
 73
     2
 40
0.2067
 49
0.1654
 74
     0
 49
-0.0413
 74
     0
  0
LTYPE
  5
84
330
5
100
AcDbSymbolTableRecord
100
AcDbLinetypeTableRecord
  2
DOTTED
 70
     0
  3
Dotted . . . . . . . . . . . . . . . . . . . . 
 72
    65
 73
     2
 40
0.0482
 49
0.0069
 74
     0
 49
-0.0413
 74
     0
  0
LTYPE
  5
85
330
5
100
AcDbSymbolTableRecord
100
AcDbLinetypeTableRecord
  2
DOUBLE_DASH_CHAIN
 70
     0
  3
Double-Dash Chain ______  __  __  ______  __  _
 72
    65
 73
     6
 40
1.240299999999999
 49
0.6614
 74
     0
 49
-0.0827
 74
     0
 49
0.1654
 74
     0
 49
-0.0827
 74
     0
 49
0.1654
 74
     0
 49
-0.0827
 74
     0
  0
LTYPE
  5
87
330
5
100
AcDbSymbolTableRecord
100
AcDbLinetypeTableRecord
  2
DOUBLE_DASH_DOUBLE_DOT
 70
     0
  3
Double-Dash Double-dot _ _ . . _ _ . . _
 72
    65
 73
     8
 40
0.7400000000000001
 49
0.24
 74
     0
 49
-0.06
 74
     0
 49
0.24
 74
     0
 49
-0.06
 74
     0
 49
0.01
 74
     0
 49
-0.06
 74
     0
 49
0.01
 74
     0
 49
-0.06
 74
     0
  0
LTYPE
  5
88
330
5
100
AcDbSymbolTableRecord
100
AcDbLinetypeTableRecord
  2
DOUBLE_DASH_TRIPLE_DOT
 70
     0
  3
Double Dash Triple Dot __ __ . . . __ __ . .
 72
    65
 73
    10
 40
0.8100000000000001
 49
0.24
 74
     0
 49
-0.06
 74
     0
 49
0.24
 74
     0
 49
-0.06
 74
     0
 49
0.01
 74
     0
 49
-0.06
 74
     0
 49
0.01
 74
     0
 49
-0.06
 74
     0
 49
0.01
 74
     0
 49
-0.06
 74
     0
  0
LTYPE
  5
89
330
5
100
AcDbSymbolTableRecord
100
AcDbLinetypeTableRecord
  2
LONG_DASH_DOTTED
 70
     0
  3
Long Dash Dotted ____ . ____ . ____ . ____ . _
 72
    65
 73
     4
 40
0.3543
 49
0.2362
 74
     0
 49
-0.0295
 74
     0
 49
0.0591
 74
     0
 49
-0.0295
 74
     0
  0
LTYPE
  5
8A
330
5
100
AcDbSymbolTableRecord
100
AcDbLinetypeTableRecord
  2
LONG_DASH_DOUBLE_DOT
 70
     0
  3
Long Dash Double Dot ________  .  .  ________  
 72
    65
 73
     6
 40
0.6799999999999999
 49
0.48
 74
     0
 49
-0.06
 74
     0
 49
0.01
 74
     0
 49
-0.06
 74
     0
 49
0.01
 74
     0
 49
-0.06
 74
     0
  0
LTYPE
  5
8B
330
5
100
AcDbSymbolTableRecord
100
AcDbLinetypeTableRecord
  2
LONG_DASH_TRIPLE_DOT
 70
     0
  3
Long Dash Triple Dot ____ ... ____ ... ____
 72
    65
 73
     8
 40
0.3689
 49
0.2362
 74
     0
 49
-0.0295
 74
     0
 49
0.0049
 74
     0
 49
-0.0295
 74
     0
 49
0.0049
 74
     0
 49
-0.0295
 74
     0
 49
0.0049
 74
     0
 49
-0.0295
 74
     0
  0
LTYPE
  5
8C
330
5
100
AcDbSymbolTableRecord
100
AcDbLinetypeTableRecord
  2
BORDER
 70
     0
  3
Border __ __ . __ __ . __ __ . __ __ . __ __ .
 72
    65
 73
     6
 40
1.75
 49
0.5
 74
     0
 49
-0.25
 74
     0
 49
0.5
 74
     0
 49
-0.25
 74
     0
 49
0.0
 74
     0
 49
-0.25
 74
     0
  0
LTYPE
  5
8D
330
5
100
AcDbSymbolTableRecord
100
AcDbLinetypeTableRecord
  2
BORDER2
 70
     0
  3
Border (.5x) __.__.__.__.__.__.__.__.__.__.__.
 72
    65
 73
     6
 40
0.875
 49
0.25
 74
     0
 49
-0.125
 74
     0
 49
0.25
 74
     0
 49
-0.125
 74
     0
 49
0.0
 74
     0
 49
-0.125
 74
     0
  0
LTYPE
  5
8E
330
5
100
AcDbSymbolTableRecord
100
AcDbLinetypeTableRecord
  2
BORDERX2
 70
     0
  3
Border (2x) ____  ____  .  ____  ____  .  ___
 72
    65
 73
     6
 40
3.5
 49
1.0
 74
     0
 49
-0.5
 74
     0
 49
1.0
 74
     0
 49
-0.5
 74
     0
 49
0.0
 74
     0
 49
-0.5
 74
     0
  0
LTYPE
  5
8F
330
5
100
AcDbSymbolTableRecord
100
AcDbLinetypeTableRecord
  2
CENTER
 70
     0
  3
Center ____ _ ____ _ ____ _ ____ _ ____ _ ____
 72
    65
 73
     4
 40
2.0
 49
1.25
 74
     0
 49
-0.25
 74
     0
 49
0.25
 74
     0
 49
-0.25
 74
     0
  0
LTYPE
  5
90
330
5
100
AcDbSymbolTableRecord
100
AcDbLinetypeTableRecord
  2
CENTER2
 70
     0
  3
Center (.5x) ___ _ ___ _ ___ _ ___ _ ___ _ ___
 72
    65
 73
     4
 40
1.125
 49
0.75
 74
     0
 49
-0.125
 74
     0
 49
0.125
 74
     0
 49
-0.125
 74
     0
  0
LTYPE
  5
91
330
5
100
AcDbSymbolTableRecord
100
AcDbLinetypeTableRecord
  2
CENTERX2
 70
     0
  3
Center (2x) ________  __  ________  __  _____
 72
    65
 73
     4
 40
4.0
 49
2.5
 74
     0
 49
-0.5
 74
     0
 49
0.5
 74
     0
 49
-0.5
 74
     0
  0
LTYPE
  5
92
330
5
100
AcDbSymbolTableRecord
100
AcDbLinetypeTableRecord
  2
DASHDOT2
 70
     0
  3
Dash dot (.5x) _._._._._._._._._._._._._._._.
 72
    65
 73
     4
 40
0.5
 49
0.25
 74
     0
 49
-0.125
 74
     0
 49
0.0
 74
     0
 49
-0.125
 74
     0
  0
LTYPE
  5
93
330
5
100
AcDbSymbolTableRecord
100
AcDbLinetypeTableRecord
  2
DASHDOTX2
 70
     0
  3
Dash dot (2x) ____  .  ____  .  ____  .  ___
 72
    65
 73
     4
 40
2.0
 49
1.0
 74
     0
 49
-0.5
 74
     0
 49
0.0
 74
     0
 49
-0.5
 74
     0
  0
LTYPE
  5
95
330
5
100
AcDbSymbolTableRecord
100
AcDbLinetypeTableRecord
  2
DASHED2
 70
     0
  3
Dashed (.5x) _ _ _ _ _ _ _ _ _ _ _ _ _ _ _ _ _
 72
    65
 73
     2
 40
0.375
 49
0.25
 74
     0
 49
-0.125
 74
     0
  0
LTYPE
  5
96
330
5
100
AcDbSymbolTableRecord
100
AcDbLinetypeTableRecord
  2
DASHEDX2
 70
     0
  3
Dashed (2x) ____  ____  ____  ____  ____  ___
 72
    65
 73
     2
 40
1.5
 49
1.0
 74
     0
 49
-0.5
 74
     0
  0
LTYPE
  5
97
330
5
100
AcDbSymbolTableRecord
100
AcDbLinetypeTableRecord
  2
DIVIDE
 70
     0
  3
Divide ____ . . ____ . . ____ . . ____ . . ____
 72
    65
 73
     6
 40
1.25
 49
0.5
 74
     0
 49
-0.25
 74
     0
 49
0.0
 74
     0
 49
-0.25
 74
     0
 49
0.0
 74
     0
 49
-0.25
 74
     0
  0
LTYPE
  5
98
330
5
100
AcDbSymbolTableRecord
100
AcDbLinetypeTableRecord
  2
DIVIDE2
 70
     0
  3
Divide (.5x) __..__..__..__..__..__..__..__.._
 72
    65
 73
     6
 40
0.625
 49
0.25
 74
     0
 49
-0.125
 74
     0
 49
0.0
 74
     0
 49
-0.125
 74
     0
 49
0.0
 74
     0
 49
-0.125
 74
     0
  0
LTYPE
  5
99
330
5
100
AcDbSymbolTableRecord
100
AcDbLinetypeTableRecord
  2
DIVIDEX2
 70
     0
  3
Divide (2x) ________  .  .  ________  .  .  _
 72
    65
 73
     6
 40
2.5
 49
1.0
 74
     0
 49
-0.5
 74
     0
 49
0.0
 74
     0
 49
-0.5
 74
     0
 49
0.0
 74
     0
 49
-0.5
 74
     0
  0
LTYPE
  5
9A
330
5
100
AcDbSymbolTableRecord
100
AcDbLinetypeTableRecord
  2
DOT
 70
     0
  3
Dot . . . . . . . . . . . . . . . . . . . . . .
 72
    65
 73
     2
 40
0.25
 49
0.0
 74
     0
 49
-0.25
 74
     0
  0
LTYPE
  5
9B
330
5
100
AcDbSymbolTableRecord
100
AcDbLinetypeTableRecord
  2
DOT2
 70
     0
  3
Dot (.5x) .....................................
 72
    65
 73
     2
 40
0.125
 49
0.0
 74
     0
 49
-0.125
 74
     0
  0
LTYPE
  5
9C
330
5
100
AcDbSymbolTableRecord
100
AcDbLinetypeTableRecord
  2
DOTX2
 70
     0
  3
Dot (2x) .  .  .  .  .  .  .  .  .  .  .  .  . 
 72
    65
 73
     2
 40
0.5
 49
0.0
 74
     0
 49
-0.5
 74
     0
  0
LTYPE
  5
9D
330
5
100
AcDbSymbolTableRecord
100
AcDbLinetypeTableRecord
  2
HIDDEN
 70
     0
  3
Hidden __ __ __ __ __ __ __ __ __ __ __ __ __ _
 72
    65
 73
     2
 40
0.375
 49
0.25
 74
     0
 49
-0.125
 74
     0
  0
LTYPE
  5
9E
330
5
100
AcDbSymbolTableRecord
100
AcDbLinetypeTableRecord
  2
HIDDEN2
 70
     0
  3
Hidden (.5x) _ _ _ _ _ _ _ _ _ _ _ _ _ _ _ _ _
 72
    65
 73
     2
 40
0.1875
 49
0.125
 74
     0
 49
-0.0625
 74
     0
  0
LTYPE
  5
9F
330
5
100
AcDbSymbolTableRecord
100
AcDbLinetypeTableRecord
  2
HIDDENX2
 70
     0
  3
Hidden (2x) ____ ____ ____ ____ ____ ____ ____
 72
    65
 73
     2
 40
0.75
 49
0.5
 74
     0
 49
-0.25
 74
     0
  0
LTYPE
  5
A0
330
5
100
AcDbSymbolTableRecord
100
AcDbLinetypeTableRecord
  2
PHANTOM
 70
     0
  3
Phantom ______  __  __  ______  __  __  ______
 72
    65
 73
     6
 40
2.5
 49
1.25
 74
     0
 49
-0.25
 74
     0
 49
0.25
 74
     0
 49
-0.25
 74
     0
 49
0.25
 74
     0
 49
-0.25
 74
     0
  0
LTYPE
  5
A1
330
5
100
AcDbSymbolTableRecord
100
AcDbLinetypeTableRecord
  2
PHANTOM2
 70
     0
  3
Phantom (.5x) ___ _ _ ___ _ _ ___ _ _ ___ _ _
 72
    65
 73
     6
 40
1.25
 49
0.625
 74
     0
 49
-0.125
 74
     0
 49
0.125
 74
     0
 49
-0.125
 74
     0
 49
0.125
 74
     0
 49
-0.125
 74
     0
  0
LTYPE
  5
A2
330
5
100
AcDbSymbolTableRecord
100
AcDbLinetypeTableRecord
  2
PHANTOMX2
 70
     0
  3
Phantom (2x) ____________    ____    ____   _
 72
    65
 73
     6
 40
5.0
 49
2.5
 74
     0
 49
-0.5
 74
     0
 49
0.5
 74
     0
 49
-0.5
 74
     0
 49
0.5
 74
     0
 49
-0.5
 74
     0
  0
LTYPE
  5
A3
330
5
100
AcDbSymbolTableRecord
100
AcDbLinetypeTableRecord
  2
ACAD_ISO02W100
 70
     0
  3
ISO dash __ __ __ __ __ __ __ __ __ __ __ __ __
 72
    65
 73
     2
 40
0.59
 49
0.47
 74
     0
 49
-0.12
 74
     0
  0
LTYPE
  5
A4
330
5
100
AcDbSymbolTableRecord
100
AcDbLinetypeTableRecord
  2
ACAD_ISO03W100
 70
     0
  3
ISO dash space __    __    __    __    __    __
 72
    65
 73
     2
 40
1.179999999999999
 49
0.47
 74
     0
 49
-0.71
 74
     0
  0
LTYPE
  5
A5
330
5
100
AcDbSymbolTableRecord
100
AcDbLinetypeTableRecord
  2
ACAD_ISO04W100
 70
     0
  3
ISO long-dash dot ____ . ____ . ____ . ____ . _
 72
    65
 73
     4
 40
1.179999999999999
 49
0.9399999999999998
 74
     0
 49
-0.12
 74
     0
 49
0.0
 74
     0
 49
-0.12
 74
     0
  0
LTYPE
  5
A6
330
5
100
AcDbSymbolTableRecord
100
AcDbLinetypeTableRecord
  2
ACAD_ISO05W100
 70
     0
  3
ISO long-dash double-dot ____ .. ____ .. ____ .
 72
    65
 73
     6
 40
1.299999999999999
 49
0.9399999999999998
 74
     0
 49
-0.12
 74
     0
 49
0.0
 74
     0
 49
-0.12
 74
     0
 49
0.0
 74
     0
 49
-0.12
 74
     0
  0
LTYPE
  5
A7
330
5
100
AcDbSymbolTableRecord
100
AcDbLinetypeTableRecord
  2
ACAD_ISO06W100
 70
     0
  3
ISO long-dash triple-dot ____ ... ____ ... ____
 72
    65
 73
     8
 40
1.419999999999999
 49
0.9399999999999998
 74
     0
 49
-0.12
 74
     0
 49
0.0
 74
     0
 49
-0.12
 74
     0
 49
0.0
 74
     0
 49
-0.12
 74
     0
 49
0.0
 74
     0
 49
-0.12
 74
     0
  0
LTYPE
  5
A8
330
5
100
AcDbSymbolTableRecord
100
AcDbLinetypeTableRecord
  2
ACAD_ISO07W100
 70
     0
  3
ISO dot . . . . . . . . . . . . . . . . . . . .
 72
    65
 73
     2
 40
0.12
 49
0.0
 74
     0
 49
-0.12
 74
     0
  0
LTYPE
  5
A9
330
5
100
AcDbSymbolTableRecord
100
AcDbLinetypeTableRecord
  2
ACAD_ISO08W100
 70
     0
  3
ISO long-dash short-dash ____ __ ____ __ ____ _
 72
    65
 73
     4
 40
0.95
 49
0.47
 74
     0
 49
-0.12
 74
     0
 49
0.24
 74
     0
 49
-0.12
 74
     0
  0
LTYPE
  5
AA
330
5
100
AcDbSymbolTableRecord
100
AcDbLinetypeTableRecord
  2
ACAD_ISO09W100
 70
     0
  3
ISO long-dash double-short-dash ____ __ __ ____
 72
    65
 73
     6
 40
1.31
 49
0.47
 74
     0
 49
-0.12
 74
     0
 49
0.24
 74
     0
 49
-0.12
 74
     0
 49
0.24
 74
     0
 49
-0.12
 74
     0
  0
LTYPE
  5
AB
330
5
100
AcDbSymbolTableRecord
100
AcDbLinetypeTableRecord
  2
ACAD_ISO10W100
 70
     0
  3
ISO dash dot __ . __ . __ . __ . __ . __ . __ .
 72
    65
 73
     4
 40
0.71
 49
0.47
 74
     0
 49
-0.12
 74
     0
 49
0.0
 74
     0
 49
-0.12
 74
     0
  0
LTYPE
  5
AC
330
5
100
AcDbSymbolTableRecord
100
AcDbLinetypeTableRecord
  2
ACAD_ISO11W100
 70
     0
  3
ISO double-dash dot __ __ . __ __ . __ __ . __ 
 72
    65
 73
     6
 40
1.299999999999999
 49
0.47
 74
     0
 49
-0.12
 74
     0
 49
0.47
 74
     0
 49
-0.12
 74
     0
 49
0.0
 74
     0
 49
-0.12
 74
     0
  0
LTYPE
  5
AD
330
5
100
AcDbSymbolTableRecord
100
AcDbLinetypeTableRecord
  2
ACAD_ISO12W100
 70
     0
  3
ISO dash double-dot __ . . __ . . __ . . __ . .
 72
    65
 73
     6
 40
0.8299999999999998
 49
0.47
 74
     0
 49
-0.12
 74
     0
 49
0.0
 74
     0
 49
-0.12
 74
     0
 49
0.0
 74
     0
 49
-0.12
 74
     0
  0
LTYPE
  5
AE
330
5
100
AcDbSymbolTableRecord
100
AcDbLinetypeTableRecord
  2
ACAD_ISO13W100
 70
     0
  3
ISO double-dash double-dot __ __ . . __ __ . . 
 72
    65
 73
     8
 40
1.419999999999999
 49
0.47
 74
     0
 49
-0.12
 74
     0
 49
0.47
 74
     0
 49
-0.12
 74
     0
 49
0.0
 74
     0
 49
-0.12
 74
     0
 49
0.0
 74
     0
 49
-0.12
 74
     0
  0
LTYPE
  5
AF
330
5
100
AcDbSymbolTableRecord
100
AcDbLinetypeTableRecord
  2
ACAD_ISO14W100
 70
     0
  3
ISO dash triple-dot __ . . . __ . . . __ . . . 
 72
    65
 73
     8
 40
0.95
 49
0.47
 74
     0
 49
-0.12
 74
     0
 49
0.0
 74
     0
 49
-0.12
 74
     0
 49
0.0
 74
     0
 49
-0.12
 74
     0
 49
0.0
 74
     0
 49
-0.12
 74
     0
  0
LTYPE
  5
B0
330
5
100
AcDbSymbolTableRecord
100
AcDbLinetypeTableRecord
  2
ACAD_ISO15W100
 70
     0
  3
ISO double-dash triple-dot __ __ . . . __ __ . 
 72
    65
 73
    10
 40
1.539999999999999
 49
0.47
 74
     0
 49
-0.12
 74
     0
 49
0.47
 74
     0
 49
-0.12
 74
     0
 49
0.0
 74
     0
 49
-0.12
 74
     0
 49
0.0
 74
     0
 49
-0.12
 74
     0
 49
0.0
 74
     0
 49
-0.12
 74
     0
  0
LTYPE
  5
B3
330
5
100
AcDbSymbolTableRecord
100
AcDbLinetypeTableRecord
  2
FENCELINE1
 70
     0
  3
Fenceline circle ----0-----0----0-----0----0---
 72
    65
 73
     4
 40
1.45
 49
0.25
 74
     0
 49
-0.1
 74
     4
 75
   133
340
B2
 46
0.1
 50
0.0
 44
-0.1
 45
0.0
 49
-0.1
 74
     0
 49
1.0
 74
     0
  0
LTYPE
  5
B4
330
5
100
AcDbSymbolTableRecord
100
AcDbLinetypeTableRecord
  2
FENCELINE2
 70
     0
  3
Fenceline square ----[]-----[]----[]-----[]----
 72
    65
 73
     4
 40
1.45
 49
0.25
 74
     0
 49
-0.1
 74
     4
 75
   132
340
B2
 46
0.1
 50
0.0
 44
-0.1
 45
0.0
 49
-0.1
 74
     0
 49
1.0
 74
     0
  0
LTYPE
  5
B5
330
5
100
AcDbSymbolTableRecord
100
AcDbLinetypeTableRecord
  2
TRACKS
 70
     0
  3
Tracks -|-|-|-|-|-|-|-|-|-|-|-|-|-|-|-|-|-|-|-|
 72
    65
 73
     2
 40
0.3
 49
0.15
 74
     4
 75
   130
340
B2
 46
0.25
 50
0.0
 44
0.0
 45
0.0
 49
0.15
 74
     0
  0
LTYPE
  5
B6
330
5
100
AcDbSymbolTableRecord
100
AcDbLinetypeTableRecord
  2
BATTING
 70
     0
  3
Batting SSSSSSSSSSSSSSSSSSSSSSSSSSSSSSSSSSSSSSS
 72
    65
 73
     4
 40
0.4001000000000001
 49
0.0001
 74
     0
 49
-0.1
 74
     4
 75
   134
340
B2
 46
0.1
 50
0.0
 44
-0.1
 45
0.0
 49
-0.2
 74
     4
 75
   134
340
B2
 46
0.1
 50
180.0
 44
0.1
 45
0.0
 49
-0.1
 74
     0
  0
LTYPE
  5
B7
330
5
100
AcDbSymbolTableRecord
100
AcDbLinetypeTableRecord
  2
HOT_WATER_SUPPLY
 70
     0
  3
Hot water supply ---- HW ---- HW ---- HW ----
 72
    65
 73
     3
 40
0.9
 49
0.5
 74
     0
 49
-0.2
 74
     2
 75
     0
340
55
 46
0.1
 50
0.0
 44
-0.1
 45
-0.05
  9
HW
 49
-0.2
 74
     0
  0
LTYPE
  5
B8
330
5
100
AcDbSymbolTableRecord
100
AcDbLinetypeTableRecord
  2
GAS_LINE
 70
     0
  3
Gas line ----GAS----GAS----GAS----GAS----GAS---
 72
    65
 73
     3
 40
0.95
 49
0.5
 74
     0
 49
-0.2
 74
     2
 75
     0
340
55
 46
0.1
 50
0.0
 44
-0.1
 45
-0.05
  9
GAS
 49
-0.25
 74
     0
  0
LTYPE
  5
B9
330
5
100
AcDbSymbolTableRecord
100
AcDbLinetypeTableRecord
  2
ZIGZAG
 70
     0
  3
Zig zag /\/\/\/\/\/\/\/\/\/\/\/\/\/\/\/\/\/\/\/
 72
    65
 73
     4
 40
0.8001000000000001
 49
0.0001
 74
     0
 49
-0.2
 74
     4
 75
   131
340
B2
 46
0.2
 50
0.0
 44
-0.2
 45
0.0
 49
-0.4
 74
     4
 75
   131
340
B2
 46
0.2
 50
180.0
 44
0.2
 45
0.0
 49
-0.2
 74
     0
  0
ENDTAB
  0
TABLE
  2
LAYER
  5
2
330
0
100
AcDbSymbolTable
 70
    27
  0
LAYER
  5
54
330
2
100
AcDbSymbolTableRecord
100
AcDbLayerTableRecord
  2
0
 70
     0
 62
     7
  6
Continuous
370
     0
390
F
  0
LAYER
  5
C0
330
2
100
AcDbSymbolTableRecord
100
AcDbLayerTableRecord
  2
Center Mark (ANSI)
 70
     0
 62
     7
  6
Continuous
370
     5
390
F
  0
LAYER
  5
C1
330
2
100
AcDbSymbolTableRecord
100
AcDbLayerTableRecord
  2
Centerline (ANSI)
 70
     0
 62
     7
  6
Continuous
370
     5
390
F
  0
LAYER
  5
C3
330
2
100
AcDbSymbolTableRecord
100
AcDbLayerTableRecord
  2
Dimension (ANSI)
 70
     0
 62
     7
  6
Continuous
370
     5
390
F
  0
LAYER
  5
CC
330
2
100
AcDbSymbolTableRecord
100
AcDbLayerTableRecord
  2
Symbol (ANSI)
 70
     0
 62
     7
  6
Continuous
370
     5
390
F
  0
LAYER
  5
CF
330
2
100
AcDbSymbolTableRecord
100
AcDbLayerTableRecord
  2
Visible (ANSI)
 70
     0
 62
     7
  6
Continuous
370
     5
390
F
  0
LAYER
  5
D0
330
2
100
AcDbSymbolTableRecord
100
AcDbLayerTableRecord
  2
Visible Narrow (ANSI)
 70
     0
 62
     7
  6
Continuous
370
     5
390
F
  0
LAYER
  5
196
330
2
100
AcDbSymbolTableRecord
100
AcDbLayerTableRecord
  2
Defpoints
 70
     0
 62
     7
  6
Continuous
290
     0
370
    -3
390
F
  0
ENDTAB
  0
TABLE
  2
STYLE
  5
3
330
0
100
AcDbSymbolTable
 70
    10
  0
STYLE
  5
55
330
3
100
AcDbSymbolTableRecord
100
AcDbTextStyleTableRecord
  2
Standard
 70
     0
 40
0.0
 41
1.0
 50
0.0
 71
     0
 42
0.2
  3
txt
  4

  0
STYLE
  5
5A
330
3
100
AcDbSymbolTableRecord
100
AcDbTextStyleTableRecord
  2
Annotative
 70
     0
 40
0.0
 41
1.0
 50
0.0
 71
     0
 42
0.2
  3
txt
  4

1001
AcadAnnotative
1000
AnnotativeData
1002
{
1070
     1
1070
     1
1002
}
  0
STYLE
  5
B2
330
3
100
AcDbSymbolTableRecord
100
AcDbTextStyleTableRecord
  2

 70
     1
 40
0.0
 41
1.0
 50
0.0
 71
     0
 42
0.2
  3
ltypeshp.shx
  4

  0
STYLE
  5
D4
330
3
100
AcDbSymbolTableRecord
100
AcDbTextStyleTableRecord
  2
ITALICC_120
 70
     0
 40
0.0
 41
1.0
 50
0.0
 71
     0
 42
0.2
  3
italicc.shx
  4

  0
STYLE
  5
D5
330
3
100
AcDbSymbolTableRecord
100
AcDbTextStyleTableRecord
  2
Label Text (ANSI)
 70
     0
 40
0.0
 41
1.0
 50
0.0
 71
     0
 42
0.2
  3
TAHOMA.TTF
  4

1001
ACAD
1000
Tahoma
1071
      256
  0
STYLE
  5
D6
330
3
100
AcDbSymbolTableRecord
100
AcDbTextStyleTableRecord
  2
Note Text (ANSI)
 70
     0
 40
0.0
 41
1.0
 50
0.0
 71
     0
 42
0.2
  3
RomanS.shx
  4

  0
STYLE
  5
D7
330
3
100
AcDbSymbolTableRecord
100
AcDbTextStyleTableRecord
  2
ROMANS
 70
     0
 40
0.0
 41
1.0
 50
0.0
 71
     0
 42
0.2
  3
romans.shx
  4

  0
STYLE
  5
D8
330
3
100
AcDbSymbolTableRecord
100
AcDbTextStyleTableRecord
  2
SANSSERIF_114
 70
     0
 40
0.0
 41
1.0
 50
0.0
 71
     0
 42
0.2
  3
TAHOMA.TTF
  4

1001
ACAD
1000
Tahoma
1071
      256
  0
STYLE
  5
D9
330
3
100
AcDbSymbolTableRecord
100
AcDbTextStyleTableRecord
  2
SANSSERIF_117
 70
     0
 40
0.0
 41
1.0
 50
0.0
 71
     0
 42
0.2
  3
TAHOMA.TTF
  4

1001
ACAD
1000
Tahoma
1071
      256
  0
STYLE
  5
12B
330
3
100
AcDbSymbolTableRecord
100
AcDbTextStyleTableRecord
  2
Text Style168
 70
     0
 40
0.0
 41
1.0
 50
0.0
 71
     0
 42
0.2
  3
TAHOMA.TTF
  4

1001
ACAD
1000
Tahoma
1071
      256
  0
ENDTAB
  0
TABLE
  2
VIEW
  5
6
330
0
100
AcDbSymbolTable
 70
     0
  0
ENDTAB
  0
TABLE
  2
UCS
  5
7
330
0
100
AcDbSymbolTable
 70
     0
  0
ENDTAB
  0
TABLE
  2
APPID
  5
9
330
0
100
AcDbSymbolTable
 70
     4
  0
APPID
  5
56
330
9
100
AcDbSymbolTableRecord
100
AcDbRegAppTableRecord
  2
ACAD
 70
     0
  0
APPID
  5
5E
330
9
100
AcDbSymbolTableRecord
100
AcDbRegAppTableRecord
  2
AcadAnnotative
 70
     0
  0
APPID
  5
A19
330
9
100
AcDbSymbolTableRecord
100
AcDbRegAppTableRecord
  2
ACAD_DSTYLE_DIMRADIAL_EXTENSION
 70
     0
  0
APPID
  5
B4A
330
9
100
AcDbSymbolTableRecord
100
AcDbRegAppTableRecord
  2
ACAD_MLEADERVER
 70
     0
  0
ENDTAB
  0
TABLE
  2
DIMSTYLE
  5
A
330
0
100
AcDbSymbolTable
 70
    15
100
AcDbDimStyleTable
 71
     2
340
E2
340
58
  0
DIMSTYLE
105
58
330
A
100
AcDbSymbolTableRecord
100
AcDbDimStyleTableRecord
  2
Standard
 70
     0
340
55
  0
DIMSTYLE
105
59
330
A
100
AcDbSymbolTableRecord
100
AcDbDimStyleTableRecord
  2
Annotative
 70
     0
340
55
1001
AcadAnnotative
1000
AnnotativeData
1002
{
1070
     1
1070
     1
1002
}
  0
DIMSTYLE
105
DA
330
A
100
AcDbSymbolTableRecord
100
AcDbDimStyleTableRecord
  2
Architectural (ANSI)
 70
     0
 40
8.695652173913043
 41
0.0984251946210861
 43
0.2362204724409449
 44
0.125
 45
0.00000001
 46
0.3937007874015748
 78
     3
 79
     3
140
0.1000000014901161
146
1.200000029802321
147
0.031496062992126
171
     1
176
   256
177
   256
178
   256
272
     2
274
     1
276
     2
277
     4
284
    12
285
     4
286
    12
340
D6
371
    -1
372
    -1
  0
DIMSTYLE
105
DB
330
A
100
AcDbSymbolTableRecord
100
AcDbDimStyleTableRecord
  2
Architectural (ANSI)$7
 70
     0
 40
8.695652173913043
 41
0.0984251946210861
 43
0.2362204724409449
 44
0.125
 45
0.00000001
 46
0.3937007874015748
 78
     3
 79
     3
140
0.1000000014901161
146
1.200000029802321
147
0.031496062992126
171
     1
176
   256
177
   256
178
   256
272
     2
274
     1
276
     2
277
     4
284
    12
285
     4
286
    12
340
D6
371
    -1
372
    -1
  0
DIMSTYLE
105
DC
330
A
100
AcDbSymbolTableRecord
100
AcDbDimStyleTableRecord
  2
Default - Fraction (ANSI)
 70
     0
 40
8.695652173913043
 41
0.0984251946210861
 43
0.2362204724409449
 44
0.125
 45
0.00000001
 46
0.3937007874015748
 79
     3
140
0.1000000014901161
146
1.200000029802321
147
0.031496062992126
171
     1
176
   256
177
   256
178
   256
272
     2
274
     1
276
     2
277
     5
284
    12
285
     4
286
    12
340
D6
371
    -1
372
    -1
  0
DIMSTYLE
105
DD
330
A
100
AcDbSymbolTableRecord
100
AcDbDimStyleTableRecord
  2
Default - Fraction (ANSI)$7
 70
     0
 40
8.695652173913043
 41
0.0984251946210861
 43
0.2362204724409449
 44
0.125
 45
0.00000001
 46
0.3937007874015748
 79
     3
140
0.1000000014901161
146
1.200000029802321
147
0.031496062992126
171
     1
176
   256
177
   256
178
   256
272
     2
274
     1
276
     2
277
     5
284
    12
285
     4
286
    12
340
D6
371
    -1
372
    -1
  0
DIMSTYLE
105
DE
330
A
100
AcDbSymbolTableRecord
100
AcDbDimStyleTableRecord
  2
Default - mm (ANSI)
 70
     0
 40
8.695652173913043
 41
0.0984251946210861
 42
0.063
 43
0.2362204724409449
 44
0.125
 45
0.00000001
 46
0.3937007874015748
 73
     0
 78
     4
 79
     1
140
0.1000000014901161
143
1.0
144
25.4
146
1.200000029802321
147
0.031496062992126
171
     1
176
   256
177
   256
178
   256
179
     1
271
     2
272
     2
274
     1
284
     4
285
     4
340
D6
371
    -1
372
    -1
  0
DIMSTYLE
105
DF
330
A
100
AcDbSymbolTableRecord
100
AcDbDimStyleTableRecord
  2
Default - mm (ANSI)$7
 70
     0
 40
8.695652173913043
 41
0.0984251946210861
 42
0.063
 43
0.2362204724409449
 44
0.125
 45
0.00000001
 46
0.3937007874015748
 73
     0
 78
     4
 79
     1
140
0.1000000014901161
143
1.0
144
25.4
146
1.200000029802321
147
0.031496062992126
171
     1
176
   256
177
   256
178
   256
179
     1
271
     2
272
     2
274
     1
284
     4
285
     4
340
D6
371
    -1
372
    -1
  0
DIMSTYLE
105
E0
330
A
100
AcDbSymbolTableRecord
100
AcDbDimStyleTableRecord
  2
Default - mm [in] (ANSI)
 70
     0
  4
 in
 40
8.695652173913043
 41
0.0984251946210861
 42
0.063
 43
0.25
 44
0.125
 45
0.00000001
 46
0.3937007874015748
 73
     0
 78
     4
 79
     1
140
0.1000000014901161
143
0.03937
144
25.4
146
1.200000029802321
147
0.031496062992126
170
     1
171
     3
176
   256
177
   256
178
   256
179
     1
271
     2
272
     2
274
     3
284
     4
285
     4
286
     4
340
D6
371
    -1
372
    -1
  0
DIMSTYLE
105
E1
330
A
100
AcDbSymbolTableRecord
100
AcDbDimStyleTableRecord
  2
Default - mm [in] (ANSI)$7
 70
     0
  4
 in
 40
8.695652173913043
 41
0.0984251946210861
 42
0.063
 43
0.25
 44
0.125
 45
0.00000001
 46
0.3937007874015748
 73
     0
 78
     4
 79
     1
140
0.1000000014901161
143
0.03937
144
25.4
146
1.200000029802321
147
0.031496062992126
170
     1
171
     3
176
   256
177
   256
178
   256
179
     1
271
     2
272
     2
274
     3
284
     4
285
     4
286
     4
340
D6
371
    -1
372
    -1
  0
DIMSTYLE
105
E2
102
{ACAD_REACTORS
330
194
330
295
330
3AB
330
495
330
57F
330
67D
330
77B
330
891
330
980
330
A3A
102
}
330
A
100
AcDbSymbolTableRecord
100
AcDbDimStyleTableRecord
  2
Default (ANSI)
 70
     0
 40
8.695652173913043
 41
0.0984251946210861
 43
0.2362204724409449
 44
0.125
 45
0.00000001
 46
0.3937007874015748
140
0.1000000014901161
147
0.031496062992126
176
   256
177
   256
178
   256
271
     2
272
     2
340
D7
371
    -1
372
    -1
  0
DIMSTYLE
105
E3
330
A
100
AcDbSymbolTableRecord
100
AcDbDimStyleTableRecord
  2
Default (ANSI)$7
 70
     0
 40
8.695652173913043
 41
0.0984251946210861
 43
0.2362204724409449
 44
0.125
 45
0.00000001
 46
0.3937007874015748
140
0.1000000014901161
147
0.031496062992126
176
   256
177
   256
178
   256
271
     2
272
     2
340
D7
371
    -1
372
    -1
  0
DIMSTYLE
105
E4
330
A
100
AcDbSymbolTableRecord
100
AcDbDimStyleTableRecord
  2
Alternate (ANSI)
 70
     0
 40
8.695652173913043
 41
0.0979999974370003
340
55
342
E5
  0
DIMSTYLE
105
F7
330
A
100
AcDbSymbolTableRecord
100
AcDbDimStyleTableRecord
  2
Datum (ANSI)
 70
     0
 40
8.695652173913043
 41
0.0979999974370003
340
55
342
E5
  0
DIMSTYLE
105
106
330
A
100
AcDbSymbolTableRecord
100
AcDbDimStyleTableRecord
  2
Large (ANSI)
 70
     0
 40
8.695652173913043
 41
0.1959999948740005
340
55
342
E5
  0
ENDTAB
  0
TABLE
  2
BLOCK_RECORD
  5
1
330
0
100
AcDbSymbolTable
 70
    14
  0
BLOCK_RECORD
  5
6C
330
1
100
AcDbSymbolTableRecord
100
AcDbBlockTableRecord
  2
*Model_Space
340
6F
  0
BLOCK_RECORD
  5
68
330
1
100
AcDbSymbolTableRecord
100
AcDbBlockTableRecord
  2
*Paper_Space
340
6B
  0
BLOCK_RECORD
  5
70
330
1
100
AcDbSymbolTableRecord
100
AcDbBlockTableRecord
  2
*Paper_Space0
340
73
  0
BLOCK_RECORD
  5
E5
330
1
100
AcDbSymbolTableRecord
100
AcDbBlockTableRecord
  2
_Closed
340
0
  0
BLOCK_RECORD
  5
EC
330
1
100
AcDbSymbolTableRecord
100
AcDbBlockTableRecord
  2
DatumFilled45
340
0
  0
BLOCK_RECORD
  5
F8
330
1
100
AcDbSymbolTableRecord
100
AcDbBlockTableRecord
  2
Filled-1
340
0
  0
BLOCK_RECORD
  5
197
330
1
100
AcDbSymbolTableRecord
100
AcDbBlockTableRecord
  2
*D4
340
0
  0
BLOCK_RECORD
  5
296
330
1
100
AcDbSymbolTableRecord
100
AcDbBlockTableRecord
  2
*D5
340
0
  0
BLOCK_RECORD
  5
3AC
330
1
100
AcDbSymbolTableRecord
100
AcDbBlockTableRecord
  2
*D6
340
0
  0
BLOCK_RECORD
  5
496
330
1
100
AcDbSymbolTableRecord
100
AcDbBlockTableRecord
  2
*D7
340
0
  0
BLOCK_RECORD
  5
580
330
1
100
AcDbSymbolTableRecord
100
AcDbBlockTableRecord
  2
*D8
340
0
  0
BLOCK_RECORD
  5
67E
330
1
100
AcDbSymbolTableRecord
100
AcDbBlockTableRecord
  2
*D9
340
0
  0
BLOCK_RECORD
  5
77C
330
1
100
AcDbSymbolTableRecord
100
AcDbBlockTableRecord
  2
*D10
340
0
  0
BLOCK_RECORD
  5
892
330
1
100
AcDbSymbolTableRecord
100
AcDbBlockTableRecord
  2
*D11
340
0
  0
BLOCK_RECORD
  5
981
330
1
100
AcDbSymbolTableRecord
100
AcDbBlockTableRecord
  2
*D12
340
0
  0
BLOCK_RECORD
  5
A3B
330
1
100
AcDbSymbolTableRecord
100
AcDbBlockTableRecord
  2
*D13
340
0
  0
ENDTAB
  0
ENDSEC
  0
SECTION
  2
BLOCKS
  0
BLOCK
  5
6D
330
6C
100
AcDbEntity
  8
0
100
AcDbBlockBegin
  2
*Model_Space
 70
     0
 10
0.0
 20
0.0
 30
0.0
  3
*Model_Space
  1

  0
ENDBLK
  5
6E
330
6C
100
AcDbEntity
  8
0
100
AcDbBlockEnd
  0
BLOCK
  5
69
330
68
100
AcDbEntity
 67
     1
  8
0
100
AcDbBlockBegin
  2
*Paper_Space
 70
     0
 10
0.0
 20
0.0
 30
0.0
  3
*Paper_Space
  1

  0
ENDBLK
  5
6A
330
68
100
AcDbEntity
 67
     1
  8
0
100
AcDbBlockEnd
  0
BLOCK
  5
71
330
70
100
AcDbEntity
 67
     1
  8
0
100
AcDbBlockBegin
  2
*Paper_Space0
 70
     0
 10
0.0
 20
0.0
 30
0.0
  3
*Paper_Space0
  1

  0
ENDBLK
  5
72
330
70
100
AcDbEntity
 67
     1
  8
0
100
AcDbBlockEnd
  0
BLOCK
  5
EA
330
E5
100
AcDbEntity
  8
0
100
AcDbBlockBegin
  2
_Closed
 70
     0
 10
0.0
 20
0.0
 30
0.0
  3
_Closed
  1

  0
LINE
  5
E6
330
E5
100
AcDbEntity
  8
0
  6
ByBlock
 62
     0
370
    -2
100
AcDbLine
 10
-1.0
 20
0.1666666666666666
 30
0.0
 11
0.0
 21
0.0
 31
0.0
  0
LINE
  5
E7
330
E5
100
AcDbEntity
  8
0
  6
ByBlock
 62
     0
370
    -2
100
AcDbLine
 10
0.0
 20
0.0
 30
0.0
 11
-1.0
 21
-0.1666666666666666
 31
0.0
  0
LINE
  5
E8
330
E5
100
AcDbEntity
  8
0
  6
ByBlock
 62
     0
370
    -2
100
AcDbLine
 10
-1.0
 20
0.1666666666666666
 30
0.0
 11
-1.0
 21
-0.1666666666666666
 31
0.0
  0
LINE
  5
E9
330
E5
100
AcDbEntity
  8
0
  6
ByBlock
 62
     0
370
    -2
100
AcDbLine
 10
0.0
 20
0.0
 30
0.0
 11
-1.0
 21
0.0
 31
0.0
  0
ENDBLK
  5
EB
330
E5
100
AcDbEntity
  8
0
100
AcDbBlockEnd
  0
BLOCK
  5
ED
330
EC
100
AcDbEntity
  8
0
100
AcDbBlockBegin
  2
DatumFilled45
 70
     0
 10
0.0
 20
0.0
 30
0.0
  3
DatumFilled45
  1

  0
POLYLINE
  5
EF
330
EC
100
AcDbEntity
  8
0
 62
     0
100
AcDb2dPolyline
 66
     1
 10
0.0
 20
0.0
 30
0.0
 70
   128
  0
VERTEX
  5
F0
330
EF
100
AcDbEntity
  8
0
 62
     0
100
AcDbVertex
100
AcDb2dVertex
 10
0.0
 20
0.9999999999999998
 30
0.0
  0
VERTEX
  5
F1
330
EF
100
AcDbEntity
  8
0
 62
     0
100
AcDbVertex
100
AcDb2dVertex
 10
0.0
 20
-0.9999999999999998
 30
0.0
  0
VERTEX
  5
F3
330
EF
100
AcDbEntity
  8
0
 62
     0
100
AcDbVertex
100
AcDb2dVertex
 10
-0.9999999999999998
 20
0.0
 30
0.0
  0
VERTEX
  5
F4
330
EF
100
AcDbEntity
  8
0
 62
     0
100
AcDbVertex
100
AcDb2dVertex
 10
0.0
 20
0.9999999999999998
 30
0.0
  0
SEQEND
  5
F2
330
EF
100
AcDbEntity
  8
0
 62
     0
  0
SOLID
  5
F6
330
EC
100
AcDbEntity
  8
0
 62
     0
100
AcDbTrace
 10
0.0
 20
0.9999999999999998
 30
0.0
 11
0.0
 21
-0.9999999999999998
 31
0.0
 12
-0.9999999999999998
 22
0.0
 32
0.0
 13
0.0
 23
0.9999999999999998
 33
0.0
  0
ENDBLK
  5
EE
330
EC
100
AcDbEntity
  8
0
100
AcDbBlockEnd
  0
BLOCK
  5
F9
330
F8
100
AcDbEntity
  8
0
100
AcDbBlockBegin
  2
Filled-1
 70
     0
 10
0.0
 20
0.0
 30
0.0
  3
Filled-1
  1

  0
LINE
  5
FB
330
F8
100
AcDbEntity
  8
0
 62
     0
100
AcDbLine
 10
-0.9999999999999998
 20
0.0
 30
0.0
 11
0.0
 21
0.0
 31
0.0
  0
POLYLINE
  5
FC
330
F8
100
AcDbEntity
  8
0
 62
     0
100
AcDb2dPolyline
 66
     1
 10
0.0
 20
0.0
 30
0.0
 70
   128
  0
VERTEX
  5
FD
330
FC
100
AcDbEntity
  8
0
 62
     0
100
AcDbVertex
100
AcDb2dVertex
 10
-0.9999999999999998
 20
-0.0994897959183674
 30
0.0
  0
VERTEX
  5
FE
330
FC
100
AcDbEntity
  8
0
 62
     0
100
AcDbVertex
100
AcDb2dVertex
 10
0.0
 20
0.0
 30
0.0
  0
VERTEX
  5
100
330
FC
100
AcDbEntity
  8
0
 62
     0
100
AcDbVertex
100
AcDb2dVertex
 10
-0.9999999999999998
 20
0.0994897959183674
 30
0.0
  0
VERTEX
  5
101
330
FC
100
AcDbEntity
  8
0
 62
     0
100
AcDbVertex
100
AcDb2dVertex
 10
-0.9999999999999998
 20
-0.0994897959183674
 30
0.0
  0
SEQEND
  5
FF
330
FC
100
AcDbEntity
  8
0
 62
     0
  0
SOLID
  5
102
330
F8
100
AcDbEntity
  8
0
 62
     0
100
AcDbTrace
 10
-0.9999999999999998
 20
-0.0994897959183674
 30
0.0
 11
0.0
 21
0.0
 31
0.0
 12
-0.9999999999999998
 22
0.0994897959183674
 32
0.0
 13
-0.9999999999999998
 23
-0.0994897959183674
 33
0.0
  0
LINE
  5
103
330
F8
100
AcDbEntity
  8
0
 62
     0
100
AcDbLine
 10
-0.9999999999999998
 20
-0.0994897959183674
 30
0.0
 11
0.0
 21
0.0
 31
0.0
  0
LINE
  5
104
330
F8
100
AcDbEntity
  8
0
 62
     0
100
AcDbLine
 10
0.0
 20
0.0
 30
0.0
 11
-0.9999999999999998
 21
0.0994897959183674
 31
0.0
  0
LINE
  5
105
330
F8
100
AcDbEntity
  8
0
 62
     0
100
AcDbLine
 10
-0.9999999999999998
 20
0.0994897959183674
 30
0.0
 11
-0.9999999999999998
 21
-0.0994897959183674
 31
0.0
  0
ENDBLK
  5
FA
330
F8
100
AcDbEntity
  8
0
100
AcDbBlockEnd
  0
BLOCK
  5
198
330
197
100
AcDbEntity
  8
0
100
AcDbBlockBegin
  2
*D4
 70
     1
 10
0.0
 20
0.0
 30
0.0
  3
*D4
  1

  0
LINE
  5
28B
330
197
100
AcDbEntity
  8
Dimension (ANSI)
100
AcDbLine
 10
48.56282826657875
 20
32.36804017081984
 30
0.0
 11
54.74698862180074
 21
32.36804017081984
 31
0.0
  0
LINE
  5
28C
330
197
100
AcDbEntity
  8
Dimension (ANSI)
100
AcDbLine
 10
48.56282826657879
 20
47.99304017081984
 30
0.0
 11
54.74698862180074
 21
47.99304017081984
 31
0.0
  0
LINE
  5
28D
330
197
100
AcDbEntity
  8
Dimension (ANSI)
100
AcDbLine
 10
53.66003210006161
 20
33.2239114283945
 30
0.0
 11
53.66003210006161
 21
38.74724105506087
 31
0.0
  0
LINE
  5
28E
330
197
100
AcDbEntity
  8
Dimension (ANSI)
100
AcDbLine
 10
53.66003210006161
 20
47.13716891324517
 30
0.0
 11
53.66003210006161
 21
41.61383928657879
 31
0.0
  0
SOLID
  5
28F
330
197
100
AcDbEntity
  8
Dimension (ANSI)
100
AcDbTrace
 10
53.51738689046584
 20
33.2239114283945
 30
0.0
 11
53.80267730965739
 21
33.2239114283945
 31
0.0
 12
53.66003210006161
 22
32.36804017081984
 32
0.0
 13
53.66003210006161
 23
32.36804017081984
 33
0.0
  0
SOLID
  5
290
330
197
100
AcDbEntity
  8
Dimension (ANSI)
100
AcDbTrace
 10
53.51738689046584
 20
47.13716891324517
 30
0.0
 11
53.80267730965739
 21
47.13716891324517
 31
0.0
 12
53.66003210006161
 22
47.99304017081984
 32
0.0
 13
53.66003210006161
 23
47.99304017081984
 33
0.0
  0
MTEXT
  5
291
330
197
100
AcDbEntity
  8
Dimension (ANSI)
100
AcDbMText
 10
53.6600321000616
 20
40.18054017081984
 30
0.0
 40
0.8695652303488358
 41
0.0
 71
     5
 72
     1
  1
\A1;15.63{\PTYP.}
  7
ROMANS
 73
     1
 44
1.0
1001
ACAD
1000
MTEXTBEGIN
1070
    73
1070
     1
1070
    44
1040
1.0
1070
    74
1070
     0
1000
MTEXTEND
  0
POINT
  5
292
330
197
100
AcDbEntity
  8
Defpoints
 62
     0
100
AcDbPoint
 10
48.01935000570919
 20
32.36804017081984
 30
0.0
  0
POINT
  5
293
330
197
100
AcDbEntity
  8
Defpoints
 62
     0
100
AcDbPoint
 10
48.01935000570923
 20
47.99304017081984
 30
0.0
  0
POINT
  5
294
330
197
100
AcDbEntity
  8
Defpoints
 62
     0
100
AcDbPoint
 10
53.66003210006161
 20
47.99304017081984
 30
0.0
  0
ENDBLK
  5
199
330
197
100
AcDbEntity
  8
0
100
AcDbBlockEnd
  0
BLOCK
  5
297
330
296
100
AcDbEntity
  8
0
100
AcDbBlockBegin
  2
*D5
 70
     1
 10
0.0
 20
0.0
 30
0.0
  3
*D5
  1

  0
LINE
  5
3A0
330
296
100
AcDbEntity
  8
Dimension (ANSI)
100
AcDbLine
 10
49.33307972312274
 20
31.49304017081985
 30
0.0
 11
57.20184046758174
 21
31.49304017081985
 31
0.0
  0
LINE
  5
3A1
330
296
100
AcDbEntity
  8
Dimension (ANSI)
100
AcDbLine
 10
48.56282826657875
 20
32.36804017081984
 30
0.0
 11
57.20184046758174
 21
32.36804017081984
 31
0.0
  0
LINE
  5
3A2
330
296
100
AcDbEntity
  8
Dimension (ANSI)
100
AcDbLine
 10
56.11488394584261
 20
33.2239114283945
 30
0.0
 11
56.11488394584261
 21
34.07978268596917
 31
0.0
  0
LINE
  5
3A3
330
296
100
AcDbEntity
  8
Dimension (ANSI)
100
AcDbLine
 10
56.11488394584261
 20
30.63716891324518
 30
0.0
 11
56.11488394584261
 21
26.55775323617265
 31
0.0
  0
LINE
  5
3A4
330
296
100
AcDbEntity
  8
Dimension (ANSI)
100
AcDbLine
 10
56.11488394584261
 20
26.55775323617265
 30
0.0
 11
55.25901268826795
 21
26.55775323617265
 31
0.0
  0
SOLID
  5
3A5
330
296
100
AcDbEntity
  8
Dimension (ANSI)
100
AcDbTrace
 10
55.97223873624684
 20
33.2239114283945
 30
0.0
 11
56.25752915543839
 21
33.2239114283945
 31
0.0
 12
56.11488394584261
 22
32.36804017081984
 32
0.0
 13
56.11488394584261
 23
32.36804017081984
 33
0.0
  0
SOLID
  5
3A6
330
296
100
AcDbEntity
  8
Dimension (ANSI)
100
AcDbTrace
 10
55.97223873624684
 20
30.63716891324518
 30
0.0
 11
56.25752915543839
 21
30.63716891324518
 31
0.0
 12
56.11488394584261
 22
31.49304017081985
 32
0.0
 13
56.11488394584261
 23
31.49304017081985
 33
0.0
  0
MTEXT
  5
3A7
330
296
100
AcDbEntity
  8
Dimension (ANSI)
100
AcDbMText
 10
53.66008210006159
 20
26.55775323617266
 30
0.0
 40
0.8695652303488358
 41
0.0
 71
     5
 72
     1
  1
\A1;0.88{\PTYP.}
  7
ROMANS
 73
     1
 44
1.0
1001
ACAD
1000
MTEXTBEGIN
1070
    73
1070
     1
1070
    44
1040
1.0
1070
    74
1070
     0
1000
MTEXTEND
  0
POINT
  5
3A8
330
296
100
AcDbEntity
  8
Defpoints
 62
     0
100
AcDbPoint
 10
48.78960146225318
 20
31.49304017081985
 30
0.0
  0
POINT
  5
3A9
330
296
100
AcDbEntity
  8
Defpoints
 62
     0
100
AcDbPoint
 10
48.01935000570919
 20
32.36804017081984
 30
0.0
  0
POINT
  5
3AA
330
296
100
AcDbEntity
  8
Defpoints
 62
     0
100
AcDbPoint
 10
56.11488394584261
 20
32.36804017081984
 30
0.0
  0
ENDBLK
  5
298
330
296
100
AcDbEntity
  8
0
100
AcDbBlockEnd
  0
BLOCK
  5
3AD
330
3AC
100
AcDbEntity
  8
0
100
AcDbBlockBegin
  2
*D6
 70
     1
 10
0.0
 20
0.0
 30
0.0
  3
*D6
  1

  0
LINE
  5
48B
330
3AC
100
AcDbEntity
  8
Dimension (ANSI)
100
AcDbLine
 10
49.33307972312274
 20
31.49304017081985
 30
0.0
 11
61.51640735064757
 21
31.49304017081985
 31
0.0
  0
LINE
  5
48C
330
3AC
100
AcDbEntity
  8
Dimension (ANSI)
100
AcDbLine
 10
49.33307972312274
 20
64.49304017081984
 30
0.0
 11
61.51640735064757
 21
64.49304017081984
 31
0.0
  0
LINE
  5
48D
330
3AC
100
AcDbEntity
  8
Dimension (ANSI)
100
AcDbLine
 10
60.42945082890843
 20
32.3489114283945
 30
0.0
 11
60.42945082890843
 21
47.28437874701823
 31
0.0
  0
LINE
  5
48E
330
3AC
100
AcDbEntity
  8
Dimension (ANSI)
100
AcDbLine
 10
60.42945082890844
 20
63.63716891324518
 30
0.0
 11
60.42945082890844
 21
48.70170159462143
 31
0.0
  0
SOLID
  5
48F
330
3AC
100
AcDbEntity
  8
Dimension (ANSI)
100
AcDbTrace
 10
60.28680561931266
 20
32.3489114283945
 30
0.0
 11
60.57209603850421
 21
32.3489114283945
 31
0.0
 12
60.42945082890843
 22
31.49304017081985
 32
0.0
 13
60.42945082890843
 23
31.49304017081985
 33
0.0
  0
SOLID
  5
490
330
3AC
100
AcDbEntity
  8
Dimension (ANSI)
100
AcDbTrace
 10
60.28680561931267
 20
63.63716891324518
 30
0.0
 11
60.57209603850422
 21
63.63716891324518
 31
0.0
 12
60.42945082890844
 22
64.49304017081984
 32
0.0
 13
60.42945082890844
 23
64.49304017081984
 33
0.0
  0
MTEXT
  5
491
330
3AC
100
AcDbEntity
  8
Dimension (ANSI)
100
AcDbMText
 10
58.69032036821075
 20
48.42782278599425
 30
0.0
 40
0.8695652303488358
 41
0.0
 71
     1
 72
     1
  1
\A1;33.00
  7
ROMANS
 73
     1
 44
1.0
1001
ACAD
1000
MTEXTBEGIN
1070
    73
1070
     1
1070
    44
1040
1.0
1070
    74
1070
     0
1000
MTEXTEND
  0
POINT
  5
492
330
3AC
100
AcDbEntity
  8
Defpoints
 62
     0
100
AcDbPoint
 10
48.78960146225318
 20
31.49304017081985
 30
0.0
  0
POINT
  5
493
330
3AC
100
AcDbEntity
  8
Defpoints
 62
     0
100
AcDbPoint
 10
48.78960146225317
 20
64.49304017081984
 30
0.0
  0
POINT
  5
494
330
3AC
100
AcDbEntity
  8
Defpoints
 62
     0
100
AcDbPoint
 10
60.42945082890844
 20
64.49304017081984
 30
0.0
  0
ENDBLK
  5
3AE
330
3AC
100
AcDbEntity
  8
0
100
AcDbBlockEnd
  0
BLOCK
  5
497
330
496
100
AcDbEntity
  8
0
100
AcDbBlockBegin
  2
*D7
 70
     1
 10
0.0
 20
0.0
 30
0.0
  3
*D7
  1

  0
LINE
  5
575
330
496
100
AcDbEntity
  8
Dimension (ANSI)
100
AcDbLine
 10
27.89435000570922
 20
64.93176988823335
 30
0.0
 11
27.89435000570922
 21
73.08186950852441
 31
0.0
  0
LINE
  5
576
330
496
100
AcDbEntity
  8
Dimension (ANSI)
100
AcDbLine
 10
48.89435000570921
 20
64.93176988823335
 30
0.0
 11
48.89435000570921
 21
73.08186950852441
 31
0.0
  0
LINE
  5
577
330
496
100
AcDbEntity
  8
Dimension (ANSI)
100
AcDbLine
 10
28.75022126328388
 20
71.99491298678528
 30
0.0
 11
36.38134073638437
 21
71.99491298678528
 31
0.0
  0
LINE
  5
578
330
496
100
AcDbEntity
  8
Dimension (ANSI)
100
AcDbLine
 10
48.03847874813455
 20
71.99491298678528
 30
0.0
 11
40.40735927503408
 21
71.99491298678528
 31
0.0
  0
SOLID
  5
579
330
496
100
AcDbEntity
  8
Dimension (ANSI)
100
AcDbTrace
 10
28.75022126328388
 20
72.13755819638105
 30
0.0
 11
28.75022126328388
 21
71.85226777718951
 31
0.0
 12
27.89435000570922
 22
71.99491298678528
 32
0.0
 13
27.89435000570922
 23
71.99491298678528
 33
0.0
  0
SOLID
  5
57A
330
496
100
AcDbEntity
  8
Dimension (ANSI)
100
AcDbTrace
 10
48.03847874813455
 20
72.13755819638105
 30
0.0
 11
48.03847874813455
 21
71.85226777718951
 31
0.0
 12
48.89435000570921
 22
71.99491298678528
 32
0.0
 13
48.89435000570921
 23
71.99491298678528
 33
0.0
  0
MTEXT
  5
57B
330
496
100
AcDbEntity
  8
Dimension (ANSI)
100
AcDbMText
 10
36.65521954501155
 20
72.4296956019597
 30
0.0
 40
0.8695652303488358
 41
0.0
 71
     1
 72
     1
  1
\A1;21.00
  7
ROMANS
 73
     1
 44
1.0
1001
ACAD
1000
MTEXTBEGIN
1070
    73
1070
     1
1070
    44
1040
1.0
1070
    74
1070
     0
1000
MTEXTEND
  0
POINT
  5
57C
330
496
100
AcDbEntity
  8
Defpoints
 62
     0
100
AcDbPoint
 10
27.89435000570922
 20
64.38829162736379
 30
0.0
  0
POINT
  5
57D
330
496
100
AcDbEntity
  8
Defpoints
 62
     0
100
AcDbPoint
 10
48.89435000570921
 20
64.38829162736379
 30
0.0
  0
POINT
  5
57E
330
496
100
AcDbEntity
  8
Defpoints
 62
     0
100
AcDbPoint
 10
48.89435000570921
 20
71.99491298678528
 30
0.0
  0
ENDBLK
  5
498
330
496
100
AcDbEntity
  8
0
100
AcDbBlockEnd
  0
BLOCK
  5
581
330
580
100
AcDbEntity
  8
0
100
AcDbBlockBegin
  2
*D8
 70
     1
 10
0.0
 20
0.0
 30
0.0
  3
*D8
  1

  0
LINE
  5
673
330
580
100
AcDbEntity
  8
Dimension (ANSI)
100
AcDbLine
 10
48.01935000570919
 20
65.52997495342852
 30
0.0
 11
48.01935000570919
 21
69.62625653507863
 31
0.0
  0
LINE
  5
674
330
580
100
AcDbEntity
  8
Dimension (ANSI)
100
AcDbLine
 10
48.89435000570921
 20
64.93176988823335
 30
0.0
 11
48.89435000570921
 21
69.62625653507863
 31
0.0
  0
LINE
  5
675
330
580
100
AcDbEntity
  8
Dimension (ANSI)
100
AcDbLine
 10
47.16347874813453
 20
68.53930001333951
 30
0.0
 11
46.30760749055986
 21
68.53930001333951
 31
0.0
  0
LINE
  5
676
330
580
100
AcDbEntity
  8
Dimension (ANSI)
100
AcDbLine
 10
49.75022126328387
 20
68.53930001333951
 30
0.0
 11
53.14488655056297
 21
68.53930001333951
 31
0.0
  0
SOLID
  5
677
330
580
100
AcDbEntity
  8
Dimension (ANSI)
100
AcDbTrace
 10
47.16347874813453
 20
68.68194522293528
 30
0.0
 11
47.16347874813453
 21
68.39665480374375
 31
0.0
 12
48.01935000570919
 22
68.53930001333951
 32
0.0
 13
48.01935000570919
 23
68.53930001333951
 33
0.0
  0
SOLID
  5
678
330
580
100
AcDbEntity
  8
Dimension (ANSI)
100
AcDbTrace
 10
49.75022126328387
 20
68.68194522293528
 30
0.0
 11
49.75022126328387
 21
68.39665480374375
 31
0.0
 12
48.89435000570921
 22
68.53930001333951
 32
0.0
 13
48.89435000570921
 23
68.53930001333951
 33
0.0
  0
MTEXT
  5
679
330
580
100
AcDbEntity
  8
Dimension (ANSI)
100
AcDbMText
 10
54.74381713876933
 20
68.53930001333951
 30
0.0
 40
0.8695652303488358
 41
0.0
 71
     5
 72
     1
  1
\A1;0.88{\PTYP.}
  7
ROMANS
 73
     1
 44
1.0
1001
ACAD
1000
MTEXTBEGIN
1070
    73
1070
     1
1070
    44
1040
1.0
1070
    74
1070
     0
1000
MTEXTEND
  0
POINT
  5
67A
330
580
100
AcDbEntity
  8
Defpoints
 62
     0
100
AcDbPoint
 10
48.01935000570919
 20
64.98649669255896
 30
0.0
  0
POINT
  5
67B
330
580
100
AcDbEntity
  8
Defpoints
 62
     0
100
AcDbPoint
 10
48.89435000570921
 20
64.38829162736379
 30
0.0
  0
POINT
  5
67C
330
580
100
AcDbEntity
  8
Defpoints
 62
     0
100
AcDbPoint
 10
48.89435000570921
 20
68.53930001333951
 30
0.0
  0
ENDBLK
  5
582
330
580
100
AcDbEntity
  8
0
100
AcDbBlockEnd
  0
BLOCK
  5
67F
330
67E
100
AcDbEntity
  8
0
100
AcDbBlockBegin
  2
*D9
 70
     1
 10
0.0
 20
0.0
 30
0.0
  3
*D9
  1

  0
LINE
  5
771
330
67E
100
AcDbEntity
  8
Dimension (ANSI)
100
AcDbLine
 10
48.01935000570919
 20
31.82456190995027
 30
0.0
 11
48.01935000570919
 21
26.0317398170597
 31
0.0
  0
LINE
  5
772
330
67E
100
AcDbEntity
  8
Dimension (ANSI)
100
AcDbLine
 10
46.01935000570921
 20
31.82456190995027
 30
0.0
 11
46.01935000570921
 21
26.0317398170597
 31
0.0
  0
LINE
  5
773
330
67E
100
AcDbEntity
  8
Dimension (ANSI)
100
AcDbLine
 10
48.87522126328385
 20
27.11869633879884
 30
0.0
 11
49.73109252085851
 21
27.11869633879884
 31
0.0
  0
LINE
  5
774
330
67E
100
AcDbEntity
  8
Dimension (ANSI)
100
AcDbLine
 10
45.16347874813455
 20
27.11869633879884
 30
0.0
 11
41.47873826653692
 21
27.11869633879884
 31
0.0
  0
SOLID
  5
775
330
67E
100
AcDbEntity
  8
Dimension (ANSI)
100
AcDbTrace
 10
48.87522126328385
 20
27.26134154839461
 30
0.0
 11
48.87522126328385
 21
26.97605112920306
 31
0.0
 12
48.01935000570919
 22
27.11869633879884
 32
0.0
 13
48.01935000570919
 23
27.11869633879884
 33
0.0
  0
SOLID
  5
776
330
67E
100
AcDbEntity
  8
Dimension (ANSI)
100
AcDbTrace
 10
45.16347874813455
 20
27.26134154839461
 30
0.0
 11
45.16347874813455
 21
26.97605112920306
 31
0.0
 12
46.01935000570921
 22
27.11869633879884
 32
0.0
 13
46.01935000570921
 23
27.11869633879884
 33
0.0
  0
MTEXT
  5
777
330
67E
100
AcDbEntity
  8
Dimension (ANSI)
100
AcDbMText
 10
39.87980767833056
 20
27.11869633879884
 30
0.0
 40
0.8695652303488358
 41
0.0
 71
     5
 72
     1
  1
\A1;2.00{\PTYP.}
  7
ROMANS
 73
     1
 44
1.0
1001
ACAD
1000
MTEXTBEGIN
1070
    73
1070
     1
1070
    44
1040
1.0
1070
    74
1070
     0
1000
MTEXTEND
  0
POINT
  5
778
330
67E
100
AcDbEntity
  8
Defpoints
 62
     0
100
AcDbPoint
 10
48.01935000570919
 20
32.36804017081984
 30
0.0
  0
POINT
  5
779
330
67E
100
AcDbEntity
  8
Defpoints
 62
     0
100
AcDbPoint
 10
46.01935000570921
 20
32.36804017081984
 30
0.0
  0
POINT
  5
77A
330
67E
100
AcDbEntity
  8
Defpoints
 62
     0
100
AcDbPoint
 10
46.01935000570921
 20
27.11869633879884
 30
0.0
  0
ENDBLK
  5
680
330
67E
100
AcDbEntity
  8
0
100
AcDbBlockEnd
  0
BLOCK
  5
77D
330
77C
100
AcDbEntity
  8
0
100
AcDbBlockBegin
  2
*D10
 70
     1
 10
0.0
 20
0.0
 30
0.0
  3
*D10
  1

  0
LINE
  5
886
330
77C
100
AcDbEntity
  8
Dimension (ANSI)
100
AcDbLine
 10
49.31287826659063
 20
87.52045176428357
 30
0.0
 11
55.81360640435161
 21
87.52045176428357
 31
0.0
  0
LINE
  5
887
330
77C
100
AcDbEntity
  8
Dimension (ANSI)
100
AcDbLine
 10
49.3330797231346
 20
88.39545176428359
 30
0.0
 11
55.81360640435161
 21
88.39545176428359
 31
0.0
  0
LINE
  5
888
330
77C
100
AcDbEntity
  8
Dimension (ANSI)
100
AcDbLine
 10
54.72664988261248
 20
89.25132302185826
 30
0.0
 11
54.72664988261248
 21
90.10719427943291
 31
0.0
  0
LINE
  5
889
330
77C
100
AcDbEntity
  8
Dimension (ANSI)
100
AcDbLine
 10
54.72664988261248
 20
86.6645805067089
 30
0.0
 11
54.72664988261248
 21
83.14230376510799
 31
0.0
  0
LINE
  5
88A
330
77C
100
AcDbEntity
  8
Dimension (ANSI)
100
AcDbLine
 10
54.72664988261248
 20
83.14230376510799
 30
0.0
 11
53.87077862503782
 21
83.14230376510799
 31
0.0
  0
SOLID
  5
88B
330
77C
100
AcDbEntity
  8
Dimension (ANSI)
100
AcDbTrace
 10
54.58400467301671
 20
89.25132302185826
 30
0.0
 11
54.86929509220826
 21
89.25132302185826
 31
0.0
 12
54.72664988261248
 22
88.39545176428359
 32
0.0
 13
54.72664988261248
 23
88.39545176428359
 33
0.0
  0
SOLID
  5
88C
330
77C
100
AcDbEntity
  8
Dimension (ANSI)
100
AcDbTrace
 10
54.58400467301671
 20
86.6645805067089
 30
0.0
 11
54.86929509220826
 21
86.6645805067089
 31
0.0
 12
54.72664988261248
 22
87.52045176428357
 32
0.0
 13
54.72664988261248
 23
87.52045176428357
 33
0.0
  0
MTEXT
  5
88D
330
77C
100
AcDbEntity
  8
Dimension (ANSI)
100
AcDbMText
 10
52.27184803683145
 20
83.14230376510801
 30
0.0
 40
0.8695652303488358
 41
0.0
 71
     5
 72
     1
  1
\A1;0.88{\PTYP.}
  7
ROMANS
 73
     1
 44
1.0
1001
ACAD
1000
MTEXTBEGIN
1070
    73
1070
     1
1070
    44
1040
1.0
1070
    74
1070
     0
1000
MTEXTEND
  0
POINT
  5
88E
330
77C
100
AcDbEntity
  8
Defpoints
 62
     0
100
AcDbPoint
 10
48.76940000572107
 20
87.52045176428357
 30
0.0
  0
POINT
  5
88F
330
77C
100
AcDbEntity
  8
Defpoints
 62
     0
100
AcDbPoint
 10
48.78960146226503
 20
88.39545176428359
 30
0.0
  0
POINT
  5
890
330
77C
100
AcDbEntity
  8
Defpoints
 62
     0
100
AcDbPoint
 10
54.72664988261248
 20
88.39545176428359
 30
0.0
  0
ENDBLK
  5
77E
330
77C
100
AcDbEntity
  8
0
100
AcDbBlockEnd
  0
BLOCK
  5
893
330
892
100
AcDbEntity
  8
0
100
AcDbBlockBegin
  2
*D11
 70
     1
 10
0.0
 20
0.0
 30
0.0
  3
*D11
  1

  0
LINE
  5
978
330
892
100
AcDbEntity
  8
Dimension (ANSI)
100
AcDbLine
 10
87.03033874130388
 20
58.8991644408107
 30
0.0
 11
86.17446748372923
 21
58.8991644408107
 31
0.0
  0
LINE
  5
979
330
892
100
AcDbEntity
  8
Dimension (ANSI)
100
AcDbLine
 10
89.61708125645326
 20
58.8991644408107
 30
0.0
 11
91.06770084081206
 21
58.8991644408107
 31
0.0
  0
SOLID
  5
97A
330
892
100
AcDbEntity
  8
Dimension (ANSI)
100
AcDbTrace
 10
87.03033874130388
 20
59.04180965040647
 30
0.0
 11
87.03033874130388
 21
58.75651923121491
 31
0.0
 12
87.88620999887855
 22
58.8991644408107
 32
0.0
 13
87.88620999887855
 23
58.8991644408107
 33
0.0
  0
SOLID
  5
97B
330
892
100
AcDbEntity
  8
Dimension (ANSI)
100
AcDbTrace
 10
89.61708125645326
 20
59.04180965040647
 30
0.0
 11
89.61708125645326
 21
58.75651923121491
 31
0.0
 12
88.76120999887859
 22
58.8991644408107
 32
0.0
 13
88.76120999887859
 23
58.8991644408107
 33
0.0
  0
MTEXT
  5
97C
330
892
100
AcDbEntity
  8
Dimension (ANSI)
100
AcDbMText
 10
92.66663142901842
 20
58.8991644408107
 30
0.0
 40
0.8695652303488358
 41
0.0
 71
     5
 72
     1
  1
\A1;0.88{\PTYP.}
  7
ROMANS
 73
     1
 44
1.0
1001
ACAD
1000
MTEXTBEGIN
1070
    73
1070
     1
1070
    44
1040
1.0
1070
    74
1070
     0
1000
MTEXTEND
  0
POINT
  5
97D
330
892
100
AcDbEntity
  8
Defpoints
 62
     0
100
AcDbPoint
 10
88.76120999887859
 20
58.8991644408107
 30
0.0
  0
POINT
  5
97E
330
892
100
AcDbEntity
  8
Defpoints
 62
     0
100
AcDbPoint
 10
87.88620999887855
 20
58.89212782830932
 30
0.0
  0
POINT
  5
97F
330
892
100
AcDbEntity
  8
Defpoints
 62
     0
100
AcDbPoint
 10
87.88620999887855
 20
58.8991644408107
 30
0.0
  0
ENDBLK
  5
894
330
892
100
AcDbEntity
  8
0
100
AcDbBlockEnd
  0
BLOCK
  5
982
330
981
100
AcDbEntity
  8
0
100
AcDbBlockBegin
  2
*D12
 70
     1
 10
0.0
 20
0.0
 30
0.0
  3
*D12
  1

  0
LINE
  5
A32
330
981
100
AcDbEntity
  8
Dimension (ANSI)
100
AcDbLine
 10
22.19290446568034
 20
27.02753165639837
 30
0.0
 11
23.42884149128591
 21
27.02753165639838
 31
0.0
  0
LINE
  5
A33
330
981
100
AcDbEntity
  8
Dimension (ANSI)
100
AcDbLine
 10
23.42884149128591
 20
27.02753165639838
 30
0.0
 11
27.96510707675135
 21
31.56379724186227
 31
0.0
  0
MTEXT
  5
A34
102
{ACAD_XDICTIONARY
360
B51
102
}
330
981
100
AcDbEntity
  8
Dimension (ANSI)
100
AcDbMText
 10
19.66229684495736
 20
27.73146541429982
 30
0.0
 40
0.8695652303488358
 41
0.0
 71
     2
 72
     1
  1
\A1;\U+22050.56{\PTYP.\P(6 PL.)}
  7
ROMANS
 73
     1
 44
1.0
1001
ACAD
1000
MTEXTBEGIN
1070
    73
1070
     1
1070
    44
1040
1.0
1070
    74
1070
     0
1000
MTEXTEND
  0
SOLID
  5
A35
330
981
100
AcDbEntity
  8
Dimension (ANSI)
100
AcDbTrace
 10
27.86424168174241
 20
31.66466263687124
 30
0.0
 11
28.06597247176028
 21
31.46293184685331
 31
0.0
 12
28.57029944680515
 22
32.16898961191587
 32
0.0
 13
28.57029944680515
 23
32.16898961191587
 33
0.0
  0
LINE
  5
A36
330
981
100
AcDbEntity
  8
Dimension (ANSI)
100
AcDbLine
 10
27.98674131005702
 20
32.36804017081984
 30
0.0
 11
29.55195870136137
 21
32.36804017081983
 31
0.0
  0
LINE
  5
A37
330
981
100
AcDbEntity
  8
Dimension (ANSI)
100
AcDbLine
 10
28.76935000570918
 20
31.58543147516767
 30
0.0
 11
28.76935000570919
 21
33.15064886647201
 31
0.0
  0
POINT
  5
A38
330
981
100
AcDbEntity
  8
Defpoints
 62
     0
100
AcDbPoint
 10
28.57029944680515
 20
32.16898961191587
 30
0.0
  0
POINT
  5
A39
330
981
100
AcDbEntity
  8
Defpoints
 62
     0
100
AcDbPoint
 10
28.96840056461323
 20
32.56709072972381
 30
0.0
  0
ENDBLK
  5
983
330
981
100
AcDbEntity
  8
0
100
AcDbBlockEnd
  0
BLOCK
  5
A3C
330
A3B
100
AcDbEntity
  8
0
100
AcDbBlockBegin
  2
*D13
 70
     1
 10
0.0
 20
0.0
 30
0.0
  3
*D13
  1

  0
LINE
  5
AEB
330
A3B
100
AcDbEntity
  8
Dimension (ANSI)
100
AcDbLine
 10
21.5188373588086
 20
40.38261579211246
 30
0.0
 11
22.75477438441479
 21
40.38261579211246
 31
0.0
  0
LINE
  5
AEC
330
A3B
100
AcDbEntity
  8
Dimension (ANSI)
100
AcDbLine
 10
22.75477438441479
 20
40.38261579211246
 30
0.0
 11
30.05384897779033
 21
33.08354119873857
 31
0.0
  0
MTEXT
  5
AED
102
{ACAD_XDICTIONARY
360
B53
102
}
330
A3B
100
AcDbEntity
  8
Dimension (ANSI)
100
AcDbMText
 10
18.98822973808562
 20
41.0865495500139
 30
0.0
 40
0.8695652303488358
 41
0.0
 71
     2
 72
     1
  1
\A1;\U+22050.31{\PTYP.\P(2 PL.)}
  7
ROMANS
 73
     1
 44
1.0
1001
ACAD
1000
MTEXTBEGIN
1070
    73
1070
     1
1070
    44
1040
1.0
1070
    74
1070
     0
1000
MTEXTEND
  0
SOLID
  5
AEE
330
A3B
100
AcDbEntity
  8
Dimension (ANSI)
100
AcDbTrace
 10
30.15471437279927
 20
33.18440659374753
 30
0.0
 11
29.95298358278139
 21
32.98267580372961
 31
0.0
 12
30.6590413478441
 22
32.47834882868494
 32
0.0
 13
30.6590413478441
 23
32.47834882868494
 33
0.0
  0
LINE
  5
AEF
330
A3B
100
AcDbEntity
  8
Dimension (ANSI)
100
AcDbLine
 10
29.98674131005704
 20
32.36804017081985
 30
0.0
 11
31.5519587013614
 21
32.36804017081985
 31
0.0
  0
LINE
  5
AF0
330
A3B
100
AcDbEntity
  8
Dimension (ANSI)
100
AcDbLine
 10
30.76935000570922
 20
31.58543147516768
 30
0.0
 11
30.76935000570922
 21
33.15064886647202
 31
0.0
  0
POINT
  5
AF1
330
A3B
100
AcDbEntity
  8
Defpoints
 62
     0
100
AcDbPoint
 10
30.6590413478441
 20
32.47834882868494
 30
0.0
  0
POINT
  5
AF2
330
A3B
100
AcDbEntity
  8
Defpoints
 62
     0
100
AcDbPoint
 10
30.87965866357433
 20
32.25773151295476
 30
0.0
  0
ENDBLK
  5
A3D
330
A3B
100
AcDbEntity
  8
0
100
AcDbBlockEnd
  0
ENDSEC
  0
SECTION
  2
ENTITIES
  0
CIRCLE
  5
107
330
6C
100
AcDbEntity
  8
Visible (ANSI)
100
AcDbCircle
 10
46.01935000570921
 20
32.36804017081984
 30
0.0
 40
0.156
  0
CIRCLE
  5
108
330
6C
100
AcDbEntity
  8
Visible (ANSI)
100
AcDbCircle
 10
30.76935000570922
 20
32.36804017081984
 30
0.0
 40
0.156
  0
CIRCLE
  5
109
330
6C
100
AcDbEntity
  8
Visible (ANSI)
100
AcDbCircle
 10
48.01935000570924
 20
47.99304017081984
 30
0.0
 40
0.2814999999999999
  0
CIRCLE
  5
10A
330
6C
100
AcDbEntity
  8
Visible (ANSI)
100
AcDbCircle
 10
28.76935000570921
 20
47.99304017081984
 30
0.0
 40
0.2814999999999999
  0
CIRCLE
  5
10B
330
6C
100
AcDbEntity
  8
Visible (ANSI)
100
AcDbCircle
 10
48.01935000570919
 20
32.36804017081984
 30
0.0
 40
0.2814999999999999
  0
CIRCLE
  5
10C
330
6C
100
AcDbEntity
  8
Visible (ANSI)
100
AcDbCircle
 10
48.01935000570919
 20
63.61804017081984
 30
0.0
 40
0.2814999999999999
  0
CIRCLE
  5
10D
330
6C
100
AcDbEntity
  8
Visible (ANSI)
100
AcDbCircle
 10
28.76935000570921
 20
63.61804017081983
 30
0.0
 40
0.2814999999999999
  0
CIRCLE
  5
10E
330
6C
100
AcDbEntity
  8
Visible (ANSI)
100
AcDbCircle
 10
28.7693500057092
 20
32.36804017081984
 30
0.0
 40
0.2814999999999999
  0
SPLINE
  5
10F
330
6C
100
AcDbEntity
  8
Visible (ANSI)
100
AcDbSpline
210
0.0
220
0.0
230
1.0
 70
     8
 71
     3
 72
    11
 73
     7
 74
     0
 42
0.0000000001
 43
0.0000000001
 40
0.0
 40
0.0
 40
0.0
 40
0.0
 40
1.483474787626995
 40
1.483474787626995
 40
1.483474787626995
 40
1.570796326794956
 40
1.570796326794956
 40
1.570796326794956
 40
1.570796326794956
 10
48.76940000570921
 20
31.61799017081985
 30
0.0
 10
48.78485286808032
 20
31.61163068912574
 30
0.0
 10
48.79918328642242
 20
31.60527120743161
 30
0.0
 10
48.80053093996989
 20
31.5989117257375
 30
0.0
 10
48.80061026668512
 20
31.59853738858362
 30
0.0
 10
48.80065000570921
 20
31.59816305142975
 30
0.0
 10
48.80065000570921
 20
31.59778871427588
 30
0.0
  0
SPLINE
  5
110
330
6C
100
AcDbEntity
  8
Visible (ANSI)
100
AcDbSpline
210
0.0
220
0.0
230
1.0
 70
     8
 71
     3
 72
    11
 73
     7
 74
     0
 42
0.0000000001
 43
0.0000000001
 40
0.0
 40
0.0
 40
0.0
 40
0.0
 40
1.483474787627023
 40
1.483474787627023
 40
1.483474787627023
 40
1.570796326794917
 40
1.570796326794917
 40
1.570796326794917
 40
1.570796326794917
 10
48.8006500057092
 20
64.3882916273638
 30
0.0
 10
48.8006500057092
 20
64.38193214566968
 30
0.0
 10
48.78751932262288
 20
64.37557266397558
 30
0.0
 10
48.77212533725922
 20
64.36921318228144
 30
0.0
 10
48.77121920356076
 20
64.36883884512757
 30
0.0
 10
48.77030960507553
 20
64.36846450797371
 30
0.0
 10
48.7694000057092
 20
64.36809017081983
 30
0.0
  0
LINE
  5
111
330
6C
100
AcDbEntity
  8
Visible (ANSI)
100
AcDbLine
 10
48.89435000570919
 20
64.3882916273638
 30
0.0
 11
48.8006500057092
 21
64.3882916273638
 31
0.0
  0
SPLINE
  5
112
330
6C
100
AcDbEntity
  8
Visible (ANSI)
100
AcDbSpline
210
0.0
220
0.0
230
1.0
 70
     8
 71
     3
 72
    11
 73
     7
 74
     0
 42
0.0000000001
 43
0.0000000001
 40
0.0
 40
0.0
 40
0.0
 40
0.0
 40
1.04908000579083
 40
1.04908000579083
 40
1.04908000579083
 40
1.570796326794917
 40
1.570796326794917
 40
1.570796326794917
 40
1.570796326794917
 10
48.7694000057092
 20
64.36809017081983
 30
0.0
 10
48.81309418795039
 20
64.3725874532463
 30
0.0
 10
48.85595147460519
 20
64.37708473567276
 30
0.0
 10
48.87772729446528
 20
64.38158201809923
 30
0.0
 10
48.88855659305217
 20
64.38381855452075
 30
0.0
 10
48.8943500057092
 20
64.38605509094227
 30
0.0
 10
48.8943500057092
 20
64.3882916273638
 30
0.0
  0
LINE
  5
113
330
6C
100
AcDbEntity
  8
Visible (ANSI)
100
AcDbLine
 10
48.89435000570922
 20
31.59778871427588
 30
0.0
 11
48.80065000570921
 21
31.59778871427588
 31
0.0
  0
SPLINE
  5
114
330
6C
100
AcDbEntity
  8
Visible (ANSI)
100
AcDbSpline
210
0.0
220
0.0
230
1.0
 70
     8
 71
     3
 72
    11
 73
     7
 74
     0
 42
0.0000000001
 43
0.0000000001
 40
0.0
 40
0.0
 40
0.0
 40
0.0
 40
1.04908000579083
 40
1.04908000579083
 40
1.04908000579083
 40
1.570796326794956
 40
1.570796326794956
 40
1.570796326794956
 40
1.570796326794956
 10
48.76940000570921
 20
31.61799017081985
 30
0.0
 10
48.8130941879504
 20
31.61349288839339
 30
0.0
 10
48.8559514746052
 20
31.60899560596693
 30
0.0
 10
48.87772729446528
 20
31.60449832354047
 30
0.0
 10
48.88855659305217
 20
31.60226178711894
 30
0.0
 10
48.89435000570921
 20
31.60002525069741
 30
0.0
 10
48.89435000570921
 20
31.59778871427588
 30
0.0
  0
SPLINE
  5
115
330
6C
100
AcDbEntity
  8
Visible (ANSI)
100
AcDbSpline
210
0.0
220
0.0
230
1.0
 70
     8
 71
     3
 72
    11
 73
     7
 74
     0
 42
0.0000000001
 43
0.0000000001
 40
0.0
 40
0.0
 40
0.0
 40
0.0
 40
1.483474787626946
 40
1.483474787626946
 40
1.483474787626946
 40
1.570796326794891
 40
1.570796326794891
 40
1.570796326794891
 40
1.570796326794891
 10
28.01930000570922
 20
31.61799017081984
 30
0.0
 10
28.01294052401511
 20
31.60253730844873
 30
0.0
 10
28.00658104232099
 20
31.58820689010663
 30
0.0
 10
28.00022156062687
 20
31.58685923655917
 30
0.0
 10
27.999847223473
 20
31.58677990984394
 30
0.0
 10
27.99947288631913
 20
31.58674017081985
 30
0.0
 10
27.99909854916526
 20
31.58674017081985
 30
0.0
  0
SPLINE
  5
116
330
6C
100
AcDbEntity
  8
Visible (ANSI)
100
AcDbSpline
210
0.0
220
0.0
230
1.0
 70
     8
 71
     3
 72
    11
 73
     7
 74
     0
 42
0.0000000001
 43
0.0000000001
 40
0.0
 40
0.0
 40
0.0
 40
0.0
 40
1.483474787626946
 40
1.483474787626946
 40
1.483474787626946
 40
1.57079632679489
 40
1.57079632679489
 40
1.57079632679489
 40
1.57079632679489
 10
48.78960146225318
 20
31.58674017081985
 30
0.0
 10
48.78324198055906
 20
31.58674017081985
 30
0.0
 10
48.77688249886495
 20
31.59987085390616
 30
0.0
 10
48.77052301717083
 20
31.61526483926983
 30
0.0
 10
48.77014868001696
 20
31.61617097296829
 30
0.0
 10
48.7697743428631
 20
31.61708057145352
 30
0.0
 10
48.76940000570922
 20
31.61799017081984
 30
0.0
  0
LINE
  5
117
330
6C
100
AcDbEntity
  8
Visible (ANSI)
100
AcDbLine
 10
48.78960146225318
 20
31.49304017081985
 30
0.0
 11
48.78960146225318
 21
31.58674017081985
 31
0.0
  0
SPLINE
  5
118
330
6C
100
AcDbEntity
  8
Visible (ANSI)
100
AcDbSpline
210
0.0
220
0.0
230
1.0
 70
     8
 71
     3
 72
    11
 73
     7
 74
     0
 42
0.0000000001
 43
0.0000000001
 40
0.0
 40
0.0
 40
0.0
 40
0.0
 40
1.049080005790748
 40
1.049080005790748
 40
1.049080005790748
 40
1.57079632679489
 40
1.57079632679489
 40
1.57079632679489
 40
1.57079632679489
 10
48.76940000570922
 20
31.61799017081984
 30
0.0
 10
48.77389728813568
 20
31.57429598857866
 30
0.0
 10
48.77839457056214
 20
31.53143870192387
 30
0.0
 10
48.7828918529886
 20
31.50966288206378
 30
0.0
 10
48.78512838941013
 20
31.49883358347688
 30
0.0
 10
48.78736492583165
 20
31.49304017081985
 30
0.0
 10
48.78960146225318
 20
31.49304017081985
 30
0.0
  0
LINE
  5
119
330
6C
100
AcDbEntity
  8
Visible (ANSI)
100
AcDbLine
 10
27.99909854916526
 20
31.49304017081985
 30
0.0
 11
27.99909854916526
 21
31.58674017081985
 31
0.0
  0
SPLINE
  5
11A
330
6C
100
AcDbEntity
  8
Visible (ANSI)
100
AcDbSpline
210
0.0
220
0.0
230
1.0
 70
     8
 71
     3
 72
    11
 73
     7
 74
     0
 42
0.0000000001
 43
0.0000000001
 40
0.0
 40
0.0
 40
0.0
 40
0.0
 40
1.049080005790748
 40
1.049080005790748
 40
1.049080005790748
 40
1.570796326794891
 40
1.570796326794891
 40
1.570796326794891
 40
1.570796326794891
 10
28.01930000570922
 20
31.61799017081984
 30
0.0
 10
28.01480272328277
 20
31.57429598857866
 30
0.0
 10
28.0103054408563
 20
31.53143870192387
 30
0.0
 10
28.00580815842985
 20
31.50966288206378
 30
0.0
 10
28.00357162200832
 20
31.49883358347688
 30
0.0
 10
28.00133508558678
 20
31.49304017081985
 30
0.0
 10
27.99909854916526
 20
31.49304017081985
 30
0.0
  0
SPLINE
  5
11B
330
6C
100
AcDbEntity
  8
Visible (ANSI)
100
AcDbSpline
210
0.0
220
0.0
230
1.0
 70
     8
 71
     3
 72
    11
 73
     7
 74
     0
 42
0.0000000001
 43
0.0000000001
 40
0.0
 40
0.0
 40
0.0
 40
0.0
 40
1.483474787626952
 40
1.483474787626952
 40
1.483474787626952
 40
1.570796326794904
 40
1.570796326794904
 40
1.570796326794904
 40
1.570796326794904
 10
28.01930000570921
 20
64.36809017081984
 30
0.0
 10
28.0038471433381
 20
64.37444965251394
 30
0.0
 10
27.989516724996
 20
64.38080913420808
 30
0.0
 10
27.98816907144853
 20
64.38716861590219
 30
0.0
 10
27.9880897447333
 20
64.38754295305606
 30
0.0
 10
27.98805000570921
 20
64.38791729020993
 30
0.0
 10
27.98805000570921
 20
64.3882916273638
 30
0.0
  0
SPLINE
  5
11C
330
6C
100
AcDbEntity
  8
Visible (ANSI)
100
AcDbSpline
210
0.0
220
0.0
230
1.0
 70
     8
 71
     3
 72
    11
 73
     7
 74
     0
 42
0.0000000001
 43
0.0000000001
 40
0.0
 40
0.0
 40
0.0
 40
0.0
 40
1.483474787626948
 40
1.483474787626948
 40
1.483474787626948
 40
1.570796326794876
 40
1.570796326794876
 40
1.570796326794876
 40
1.570796326794876
 10
27.98805000570922
 20
31.59778871427589
 30
0.0
 10
27.98805000570922
 20
31.60414819597
 30
0.0
 10
28.00118068879554
 20
31.61050767766412
 30
0.0
 10
28.0165746741592
 20
31.61686715935823
 30
0.0
 10
28.01748080785766
 20
31.6172414965121
 30
0.0
 10
28.01839040634289
 20
31.61761583366598
 30
0.0
 10
28.01930000570922
 20
31.61799017081984
 30
0.0
  0
LINE
  5
11D
330
6C
100
AcDbEntity
  8
Visible (ANSI)
100
AcDbLine
 10
27.89435000570922
 20
31.59778871427589
 30
0.0
 11
27.98805000570922
 21
31.59778871427589
 31
0.0
  0
SPLINE
  5
11E
330
6C
100
AcDbEntity
  8
Visible (ANSI)
100
AcDbSpline
210
0.0
220
0.0
230
1.0
 70
     8
 71
     3
 72
    11
 73
     7
 74
     0
 42
0.0000000001
 43
0.0000000001
 40
0.0
 40
0.0
 40
0.0
 40
0.0
 40
1.049080005790748
 40
1.049080005790748
 40
1.049080005790748
 40
1.570796326794876
 40
1.570796326794876
 40
1.570796326794876
 40
1.570796326794876
 10
28.01930000570922
 20
31.61799017081984
 30
0.0
 10
27.97560582346804
 20
31.61349288839339
 30
0.0
 10
27.93274853681324
 20
31.60899560596693
 30
0.0
 10
27.91097271695315
 20
31.60449832354047
 30
0.0
 10
27.90014341836626
 20
31.60226178711894
 30
0.0
 10
27.89435000570922
 20
31.60002525069741
 30
0.0
 10
27.89435000570922
 20
31.59778871427589
 30
0.0
  0
LINE
  5
11F
330
6C
100
AcDbEntity
  8
Visible (ANSI)
100
AcDbLine
 10
27.89435000570921
 20
64.3882916273638
 30
0.0
 11
27.98805000570921
 21
64.3882916273638
 31
0.0
  0
SPLINE
  5
120
330
6C
100
AcDbEntity
  8
Visible (ANSI)
100
AcDbSpline
210
0.0
220
0.0
230
1.0
 70
     8
 71
     3
 72
    11
 73
     7
 74
     0
 42
0.0000000001
 43
0.0000000001
 40
0.0
 40
0.0
 40
0.0
 40
0.0
 40
1.049080005790748
 40
1.049080005790748
 40
1.049080005790748
 40
1.570796326794904
 40
1.570796326794904
 40
1.570796326794904
 40
1.570796326794904
 10
28.01930000570921
 20
64.36809017081984
 30
0.0
 10
27.97560582346803
 20
64.3725874532463
 30
0.0
 10
27.93274853681323
 20
64.37708473567276
 30
0.0
 10
27.91097271695314
 20
64.38158201809923
 30
0.0
 10
27.90014341836625
 20
64.38381855452075
 30
0.0
 10
27.89435000570921
 20
64.38605509094227
 30
0.0
 10
27.89435000570921
 20
64.3882916273638
 30
0.0
  0
SPLINE
  5
121
330
6C
100
AcDbEntity
  8
Visible (ANSI)
100
AcDbSpline
210
0.0
220
0.0
230
1.0
 70
     8
 71
     3
 72
    11
 73
     7
 74
     0
 42
0.0000000001
 43
0.0000000001
 40
0.0
 40
0.0
 40
0.0
 40
0.0
 40
1.483474787626214
 40
1.483474787626214
 40
1.483474787626214
 40
1.570796326794879
 40
1.570796326794879
 40
1.570796326794879
 40
1.570796326794879
 10
48.76940000570921
 20
64.36809017081984
 30
0.0
 10
48.77575948740332
 20
64.38354303319094
 30
0.0
 10
48.78211896909744
 20
64.39787345153304
 30
0.0
 10
48.78847845079155
 20
64.39922110508051
 30
0.0
 10
48.78885278794543
 20
64.39930043179575
 30
0.0
 10
48.7892271250993
 20
64.39934017081984
 30
0.0
 10
48.78960146225318
 20
64.39934017081984
 30
0.0
  0
SPLINE
  5
122
330
6C
100
AcDbEntity
  8
Visible (ANSI)
100
AcDbSpline
210
0.0
220
0.0
230
1.0
 70
     8
 71
     3
 72
    11
 73
     7
 74
     0
 42
0.0000000001
 43
0.0000000001
 40
0.0
 40
0.0
 40
0.0
 40
0.0
 40
1.483474787626228
 40
1.483474787626228
 40
1.483474787626228
 40
1.570796326794879
 40
1.570796326794879
 40
1.570796326794879
 40
1.570796326794879
 10
27.99909854916525
 20
64.39934017081984
 30
0.0
 10
28.00545803085936
 20
64.39934017081984
 30
0.0
 10
28.01181751255347
 20
64.38620948773354
 30
0.0
 10
28.01817699424759
 20
64.37081550236989
 30
0.0
 10
28.01855133140146
 20
64.36990936867141
 30
0.0
 10
28.01892566855534
 20
64.36899977018618
 30
0.0
 10
28.01930000570921
 20
64.36809017081984
 30
0.0
  0
LINE
  5
123
330
6C
100
AcDbEntity
  8
Visible (ANSI)
100
AcDbLine
 10
27.99909854916525
 20
64.49304017081984
 30
0.0
 11
27.99909854916525
 21
64.39934017081984
 31
0.0
  0
SPLINE
  5
124
330
6C
100
AcDbEntity
  8
Visible (ANSI)
100
AcDbSpline
210
0.0
220
0.0
230
1.0
 70
     8
 71
     3
 72
    11
 73
     7
 74
     0
 42
0.0000000001
 43
0.0000000001
 40
0.0
 40
0.0
 40
0.0
 40
0.0
 40
1.049080005790959
 40
1.049080005790959
 40
1.049080005790959
 40
1.570796326794879
 40
1.570796326794879
 40
1.570796326794879
 40
1.570796326794879
 10
28.01930000570921
 20
64.36809017081984
 30
0.0
 10
28.01480272328275
 20
64.41178435306103
 30
0.0
 10
28.01030544085629
 20
64.45464163971583
 30
0.0
 10
28.00580815842983
 20
64.47641745957591
 30
0.0
 10
28.0035716220083
 20
64.48724675816279
 30
0.0
 10
28.00133508558678
 20
64.49304017081984
 30
0.0
 10
27.99909854916525
 20
64.49304017081984
 30
0.0
  0
LINE
  5
125
330
6C
100
AcDbEntity
  8
Visible (ANSI)
100
AcDbLine
 10
48.78960146225318
 20
64.49304017081984
 30
0.0
 11
48.78960146225318
 21
64.39934017081984
 31
0.0
  0
SPLINE
  5
126
330
6C
100
AcDbEntity
  8
Visible (ANSI)
100
AcDbSpline
210
0.0
220
0.0
230
1.0
 70
     8
 71
     3
 72
    11
 73
     7
 74
     0
 42
0.0000000001
 43
0.0000000001
 40
0.0
 40
0.0
 40
0.0
 40
0.0
 40
1.049080005790959
 40
1.049080005790959
 40
1.049080005790959
 40
1.570796326794879
 40
1.570796326794879
 40
1.570796326794879
 40
1.570796326794879
 10
48.76940000570921
 20
64.36809017081984
 30
0.0
 10
48.77389728813567
 20
64.41178435306103
 30
0.0
 10
48.77839457056214
 20
64.45464163971583
 30
0.0
 10
48.78289185298859
 20
64.47641745957591
 30
0.0
 10
48.78512838941012
 20
64.48724675816279
 30
0.0
 10
48.78736492583165
 20
64.49304017081984
 30
0.0
 10
48.78960146225318
 20
64.49304017081984
 30
0.0
  0
LINE
  5
127
330
6C
100
AcDbEntity
  8
Visible (ANSI)
100
AcDbLine
 10
48.89435000570919
 20
64.3882916273638
 30
0.0
 11
48.89435000570922
 21
31.59778871427588
 31
0.0
  0
LINE
  5
128
330
6C
100
AcDbEntity
  8
Visible (ANSI)
100
AcDbLine
 10
48.78960146225318
 20
31.49304017081985
 30
0.0
 11
27.99909854916526
 21
31.49304017081985
 31
0.0
  0
LINE
  5
129
330
6C
100
AcDbEntity
  8
Visible (ANSI)
100
AcDbLine
 10
27.89435000570922
 20
31.59778871427589
 30
0.0
 11
27.89435000570921
 21
64.3882916273638
 31
0.0
  0
LINE
  5
12A
330
6C
100
AcDbEntity
  8
Visible (ANSI)
100
AcDbLine
 10
27.99909854916525
 20
64.49304017081984
 30
0.0
 11
48.78960146225318
 21
64.49304017081984
 31
0.0
  0
MTEXT
  5
12C
330
6C
100
AcDbEntity
  8
Symbol (ANSI)
100
AcDbMText
 10
33.48254948004393
 20
22.00630857544519
 30
0.0
 40
1.043478273765879
 41
0.0
 71
     7
 72
     1
  1
FRONT VIEW
  7
Text Style168
 73
     1
 44
1.0
1001
ACAD
1000
MTEXTBEGIN
1070
    73
1070
     1
1070
    44
1040
1.0
1070
    74
1070
     0
1000
MTEXTEND
  0
LINE
  5
12E
330
6C
100
AcDbEntity
  8
Symbol (ANSI)
370
    30
100
AcDbLine
 10
33.37820138553623
 20
21.79351172870702
 30
0.0
 11
41.76746229236819
 21
21.79351172870702
 31
0.0
  0
LINE
  5
12F
330
6C
100
AcDbEntity
  8
Visible (ANSI)
100
AcDbLine
 10
88.0111599988786
 20
31.59778871427588
 30
0.0
 11
88.76120999887859
 21
31.59778871427589
 31
0.0
  0
LINE
  5
130
330
6C
100
AcDbEntity
  8
Visible (ANSI)
100
AcDbLine
 10
88.0111599988786
 20
64.3882916273638
 30
0.0
 11
88.76120999887859
 21
64.3882916273638
 31
0.0
  0
SPLINE
  5
131
330
6C
100
AcDbEntity
  8
Visible (ANSI)
100
AcDbSpline
210
0.0
220
0.0
230
1.0
 70
     8
 71
     3
 72
    11
 73
     7
 74
     0
 42
0.0000000001
 43
0.0000000001
 40
0.0
 40
0.0
 40
0.0
 40
0.0
 40
1.04908000579083
 40
1.04908000579083
 40
1.04908000579083
 40
1.570796326794917
 40
1.570796326794917
 40
1.570796326794917
 40
1.570796326794917
 10
87.88620999887855
 20
64.36809017081983
 30
0.0
 10
87.88620999887857
 20
64.3725874532463
 30
0.0
 10
87.91100747872221
 20
64.37708473567276
 30
0.0
 10
87.94888880962741
 20
64.38158201809923
 30
0.0
 10
87.96772751447878
 20
64.38381855452075
 30
0.0
 10
87.98943051410878
 20
64.38605509094227
 30
0.0
 10
88.0111599988786
 20
64.3882916273638
 30
0.0
  0
SPLINE
  5
132
330
6C
100
AcDbEntity
  8
Visible (ANSI)
100
AcDbSpline
210
0.0
220
0.0
230
1.0
 70
     8
 71
     3
 72
    11
 73
     7
 74
     0
 42
0.0000000001
 43
0.0000000001
 40
0.0
 40
0.0
 40
0.0
 40
0.0
 40
1.04908000579083
 40
1.04908000579083
 40
1.04908000579083
 40
1.570796326794956
 40
1.570796326794956
 40
1.570796326794956
 40
1.570796326794956
 10
87.88620999887855
 20
31.61799017081985
 30
0.0
 10
87.88620999887857
 20
31.61349288839339
 30
0.0
 10
87.91100747872221
 20
31.60899560596693
 30
0.0
 10
87.94888880962741
 20
31.60449832354047
 30
0.0
 10
87.9677275144788
 20
31.60226178711894
 30
0.0
 10
87.98943051410878
 20
31.60002525069741
 30
0.0
 10
88.0111599988786
 20
31.59778871427588
 30
0.0
  0
SPLINE
  5
133
330
6C
100
AcDbEntity
  8
Visible (ANSI)
100
AcDbSpline
210
0.0
220
0.0
230
1.0
 70
     8
 71
     3
 72
     8
 73
     4
 74
     0
 42
0.0000000001
 43
0.0000000001
 40
0.0
 40
0.0
 40
0.0
 40
0.0
 40
0.9756948527143229
 40
0.9756948527143229
 40
0.9756948527143229
 40
0.9756948527143229
 10
88.01115999887857
 20
31.58674017081985
 30
0.0
 10
88.00099651082945
 20
31.58674017081985
 30
0.0
 10
87.9913185710183
 20
31.59242025808543
 30
0.0
 10
87.98550059036179
 20
31.60068852564689
 30
0.0
  0
LINE
  5
134
330
6C
100
AcDbEntity
  8
Visible (ANSI)
100
AcDbLine
 10
88.01115999887857
 20
31.49304017081985
 30
0.0
 11
88.76120999887858
 21
31.49304017081985
 31
0.0
  0
LINE
  5
135
330
6C
100
AcDbEntity
  8
Visible (ANSI)
100
AcDbLine
 10
88.76120999887858
 20
31.58674017081985
 30
0.0
 11
88.01115999887857
 21
31.58674017081985
 31
0.0
  0
LINE
  5
136
330
6C
100
AcDbEntity
  8
Visible (ANSI)
100
AcDbLine
 10
88.01115999887857
 20
31.49304017081985
 30
0.0
 11
88.01115999887857
 21
31.58674017081985
 31
0.0
  0
LINE
  5
137
330
6C
100
AcDbEntity
  8
Visible (ANSI)
100
AcDbLine
 10
88.76120999887858
 20
31.49304017081985
 30
0.0
 11
88.76120999887858
 21
31.58674017081985
 31
0.0
  0
SPLINE
  5
138
330
6C
100
AcDbEntity
  8
Visible (ANSI)
100
AcDbSpline
210
0.0
220
0.0
230
1.0
 70
     8
 71
     3
 72
    11
 73
     7
 74
     0
 42
0.0000000001
 43
0.0000000001
 40
0.0
 40
0.0
 40
0.0
 40
0.0
 40
1.049080005790748
 40
1.049080005790748
 40
1.049080005790748
 40
1.57079632679489
 40
1.57079632679489
 40
1.57079632679489
 40
1.57079632679489
 10
87.88620999887855
 20
31.61799017081984
 30
0.0
 10
87.88620999887855
 20
31.57429598857866
 30
0.0
 10
87.91100747872219
 20
31.53143870192387
 30
0.0
 10
87.94888880962735
 20
31.50966288206378
 30
0.0
 10
87.96772751447875
 20
31.49883358347688
 30
0.0
 10
87.98943051410875
 20
31.49304017081985
 30
0.0
 10
88.01115999887857
 20
31.49304017081985
 30
0.0
  0
SPLINE
  5
139
330
6C
100
AcDbEntity
  8
Visible (ANSI)
100
AcDbSpline
210
0.0
220
0.0
230
1.0
 70
     8
 71
     3
 72
    11
 73
     7
 74
     0
 42
0.0000000001
 43
0.0000000001
 40
0.595101474080534
 40
0.595101474080534
 40
0.595101474080534
 40
0.595101474080534
 40
1.483474787626214
 40
1.483474787626214
 40
1.483474787626214
 40
1.570796326794879
 40
1.570796326794879
 40
1.570796326794879
 40
1.570796326794879
 10
87.98554758995448
 20
64.38537955848291
 30
0.0
 10
87.99080906480387
 20
64.39295119256396
 30
0.0
 10
87.99921603692087
 20
64.39841406780731
 30
0.0
 10
88.00843466732853
 20
64.39922110508051
 30
0.0
 10
88.00934080102699
 20
64.39930043179575
 30
0.0
 10
88.01025039951221
 20
64.39934017081984
 30
0.0
 10
88.01115999887857
 20
64.39934017081984
 30
0.0
  0
LINE
  5
13A
330
6C
100
AcDbEntity
  8
Visible (ANSI)
100
AcDbLine
 10
88.01115999887857
 20
64.49304017081984
 30
0.0
 11
88.76120999887858
 21
64.49304017081984
 31
0.0
  0
LINE
  5
13B
330
6C
100
AcDbEntity
  8
Visible (ANSI)
100
AcDbLine
 10
88.01115999887857
 20
64.49304017081984
 30
0.0
 11
88.01115999887857
 21
64.39934017081984
 31
0.0
  0
SPLINE
  5
13C
330
6C
100
AcDbEntity
  8
Visible (ANSI)
100
AcDbSpline
210
0.0
220
0.0
230
1.0
 70
     8
 71
     3
 72
    11
 73
     7
 74
     0
 42
0.0000000001
 43
0.0000000001
 40
0.0
 40
0.0
 40
0.0
 40
0.0
 40
1.049080005790959
 40
1.049080005790959
 40
1.049080005790959
 40
1.570796326794879
 40
1.570796326794879
 40
1.570796326794879
 40
1.570796326794879
 10
87.88620999887855
 20
64.36809017081984
 30
0.0
 10
87.88620999887855
 20
64.41178435306103
 30
0.0
 10
87.91100747872219
 20
64.45464163971583
 30
0.0
 10
87.94888880962737
 20
64.47641745957591
 30
0.0
 10
87.96772751447877
 20
64.48724675816279
 30
0.0
 10
87.98943051410875
 20
64.49304017081984
 30
0.0
 10
88.01115999887857
 20
64.49304017081984
 30
0.0
  0
LINE
  5
13D
330
6C
100
AcDbEntity
  8
Visible (ANSI)
100
AcDbLine
 10
88.01115999887857
 20
64.39934017081984
 30
0.0
 11
88.76120999887858
 21
64.39934017081984
 31
0.0
  0
LINE
  5
13E
330
6C
100
AcDbEntity
  8
Visible (ANSI)
100
AcDbLine
 10
88.76120999887858
 20
64.49304017081984
 30
0.0
 11
88.76120999887858
 21
64.39934017081984
 31
0.0
  0
LINE
  5
13F
330
6C
100
AcDbEntity
  8
Visible (ANSI)
100
AcDbLine
 10
88.76120999887859
 20
31.59778871427589
 30
0.0
 11
88.76120999887859
 21
64.3882916273638
 31
0.0
  0
LINE
  5
140
330
6C
100
AcDbEntity
  8
Visible (ANSI)
100
AcDbLine
 10
87.88620999887855
 20
31.61799017081984
 30
0.0
 11
87.88620999887855
 21
64.36809017081984
 31
0.0
  0
MTEXT
  5
141
330
6C
100
AcDbEntity
  8
Symbol (ANSI)
100
AcDbMText
 10
85.17234804834089
 20
23.35547251449763
 30
0.0
 40
1.043478273765879
 41
0.0
 71
     7
 72
     1
  1
SIDE VIEW
  7
Text Style168
 73
     1
 44
1.0
1001
ACAD
1000
MTEXTBEGIN
1070
    73
1070
     1
1070
    44
1040
1.0
1070
    74
1070
     0
1000
MTEXTEND
  0
LINE
  5
142
330
6C
100
AcDbEntity
  8
Symbol (ANSI)
370
    30
100
AcDbLine
 10
85.11892182395294
 20
23.13929324350018
 30
0.0
 11
92.17043330573984
 21
23.13929324350018
 31
0.0
  0
SPLINE
  5
143
330
6C
100
AcDbEntity
  8
Visible (ANSI)
100
AcDbSpline
210
0.0
220
0.0
230
1.0
 70
     8
 71
     3
 72
     8
 73
     4
 74
     0
 42
0.0000000001
 43
0.0000000001
 40
0.0
 40
0.0
 40
0.0
 40
0.0
 40
0.9756948527137833
 40
0.9756948527137833
 40
0.9756948527137833
 40
0.9756948527137833
 10
48.80065000572106
 20
87.64540176428356
 30
0.0
 10
48.80065000572106
 20
87.63523827623446
 30
0.0
 10
48.79496991845549
 20
87.62556033642331
 30
0.0
 10
48.78670165089403
 20
87.6197423557668
 30
0.0
  0
LINE
  5
144
330
6C
100
AcDbEntity
  8
Visible (ANSI)
100
AcDbLine
 10
48.89435000572106
 20
87.64540176428356
 30
0.0
 11
48.89435000572111
 21
88.39545176428357
 31
0.0
  0
LINE
  5
145
330
6C
100
AcDbEntity
  8
Visible (ANSI)
100
AcDbLine
 10
48.8006500057211
 20
88.39545176428357
 30
0.0
 11
48.80065000572106
 21
87.64540176428358
 31
0.0
  0
LINE
  5
146
330
6C
100
AcDbEntity
  8
Visible (ANSI)
100
AcDbLine
 10
48.89435000572106
 20
87.64540176428356
 30
0.0
 11
48.80065000572106
 21
87.64540176428358
 31
0.0
  0
LINE
  5
147
330
6C
100
AcDbEntity
  8
Visible (ANSI)
100
AcDbLine
 10
48.89435000572111
 20
88.39545176428357
 30
0.0
 11
48.8006500057211
 21
88.39545176428357
 31
0.0
  0
SPLINE
  5
148
330
6C
100
AcDbEntity
  8
Visible (ANSI)
100
AcDbSpline
210
0.0
220
0.0
230
1.0
 70
     8
 71
     3
 72
    11
 73
     7
 74
     0
 42
0.0000000001
 43
0.0000000001
 40
0.0
 40
0.0
 40
0.0
 40
0.0
 40
1.04908000579083
 40
1.04908000579083
 40
1.04908000579083
 40
1.570796326794917
 40
1.570796326794917
 40
1.570796326794917
 40
1.570796326794917
 10
48.76940000572106
 20
87.52045176428357
 30
0.0
 10
48.81309418796225
 20
87.52045176428357
 30
0.0
 10
48.85595147461705
 20
87.54524924412718
 30
0.0
 10
48.87772729447714
 20
87.58313057503237
 30
0.0
 10
48.88855659306403
 20
87.60196927988376
 30
0.0
 10
48.89435000572106
 20
87.62367227951374
 30
0.0
 10
48.89435000572106
 20
87.64540176428358
 30
0.0
  0
SPLINE
  5
149
330
6C
100
AcDbEntity
  8
Visible (ANSI)
100
AcDbSpline
210
0.0
220
0.0
230
1.0
 70
     8
 71
     3
 72
    11
 73
     7
 74
     0
 42
0.0000000001
 43
0.0000000001
 40
0.5951014740803954
 40
0.5951014740803954
 40
0.5951014740803954
 40
0.5951014740803954
 40
1.483474787626952
 40
1.483474787626952
 40
1.483474787626952
 40
1.570796326794904
 40
1.570796326794904
 40
1.570796326794904
 40
1.570796326794904
 10
28.00201061805799
 20
87.61978935535948
 30
0.0
 10
27.99443898397695
 20
87.62505083020885
 30
0.0
 10
27.9889761087336
 20
87.63345780232588
 30
0.0
 10
27.98816907146039
 20
87.64267643273354
 30
0.0
 10
27.98808974474516
 20
87.643582566432
 30
0.0
 10
27.98805000572107
 20
87.64449216491724
 30
0.0
 10
27.98805000572107
 20
87.64540176428356
 30
0.0
  0
LINE
  5
14A
330
6C
100
AcDbEntity
  8
Visible (ANSI)
100
AcDbLine
 10
27.89435000572107
 20
87.64540176428356
 30
0.0
 11
27.89435000572107
 21
88.39545176428357
 31
0.0
  0
LINE
  5
14B
330
6C
100
AcDbEntity
  8
Visible (ANSI)
100
AcDbLine
 10
27.89435000572107
 20
87.64540176428356
 30
0.0
 11
27.98805000572107
 21
87.64540176428356
 31
0.0
  0
SPLINE
  5
14C
330
6C
100
AcDbEntity
  8
Visible (ANSI)
100
AcDbSpline
210
0.0
220
0.0
230
1.0
 70
     8
 71
     3
 72
    11
 73
     7
 74
     0
 42
0.0000000001
 43
0.0000000001
 40
0.0
 40
0.0
 40
0.0
 40
0.0
 40
1.049080005790748
 40
1.049080005790748
 40
1.049080005790748
 40
1.570796326794904
 40
1.570796326794904
 40
1.570796326794904
 40
1.570796326794904
 10
28.01930000572106
 20
87.52045176428357
 30
0.0
 10
27.97560582347988
 20
87.52045176428357
 30
0.0
 10
27.93274853682508
 20
87.54524924412718
 30
0.0
 10
27.91097271696501
 20
87.58313057503235
 30
0.0
 10
27.90014341837811
 20
87.60196927988374
 30
0.0
 10
27.89435000572107
 20
87.62367227951374
 30
0.0
 10
27.89435000572107
 20
87.64540176428356
 30
0.0
  0
LINE
  5
14D
330
6C
100
AcDbEntity
  8
Visible (ANSI)
100
AcDbLine
 10
27.98805000572107
 20
87.64540176428356
 30
0.0
 11
27.98805000572107
 21
88.39545176428357
 31
0.0
  0
LINE
  5
14E
330
6C
100
AcDbEntity
  8
Visible (ANSI)
100
AcDbLine
 10
27.89435000572107
 20
88.39545176428357
 30
0.0
 11
27.98805000572107
 21
88.39545176428357
 31
0.0
  0
LINE
  5
14F
330
6C
100
AcDbEntity
  8
Visible (ANSI)
100
AcDbLine
 10
48.78960146226503
 20
87.6454017642836
 30
0.0
 11
48.78960146226503
 21
88.39545176428359
 31
0.0
  0
LINE
  5
150
330
6C
100
AcDbEntity
  8
Visible (ANSI)
100
AcDbLine
 10
27.99909854917711
 20
87.6454017642836
 30
0.0
 11
27.99909854917711
 21
88.39545176428359
 31
0.0
  0
SPLINE
  5
151
330
6C
100
AcDbEntity
  8
Visible (ANSI)
100
AcDbSpline
210
0.0
220
0.0
230
1.0
 70
     8
 71
     3
 72
    11
 73
     7
 74
     0
 42
0.0000000001
 43
0.0000000001
 40
0.0
 40
0.0
 40
0.0
 40
0.0
 40
1.049080005790959
 40
1.049080005790959
 40
1.049080005790959
 40
1.570796326794879
 40
1.570796326794879
 40
1.570796326794879
 40
1.570796326794879
 10
28.01930000572107
 20
87.52045176428357
 30
0.0
 10
28.01480272329461
 20
87.52045176428357
 30
0.0
 10
28.01030544086815
 20
87.5452492441272
 30
0.0
 10
28.00580815844169
 20
87.5831305750324
 30
0.0
 10
28.00357162202017
 20
87.6019692798838
 30
0.0
 10
28.00133508559864
 20
87.62367227951378
 30
0.0
 10
27.99909854917711
 20
87.6454017642836
 30
0.0
  0
SPLINE
  5
152
330
6C
100
AcDbEntity
  8
Visible (ANSI)
100
AcDbSpline
210
0.0
220
0.0
230
1.0
 70
     8
 71
     3
 72
    11
 73
     7
 74
     0
 42
0.0000000001
 43
0.0000000001
 40
0.0
 40
0.0
 40
0.0
 40
0.0
 40
1.049080005790959
 40
1.049080005790959
 40
1.049080005790959
 40
1.570796326794879
 40
1.570796326794879
 40
1.570796326794879
 40
1.570796326794879
 10
48.76940000572107
 20
87.52045176428357
 30
0.0
 10
48.77389728814753
 20
87.52045176428357
 30
0.0
 10
48.77839457057399
 20
87.5452492441272
 30
0.0
 10
48.78289185300045
 20
87.5831305750324
 30
0.0
 10
48.78512838942198
 20
87.6019692798838
 30
0.0
 10
48.78736492584351
 20
87.62367227951378
 30
0.0
 10
48.78960146226503
 20
87.6454017642836
 30
0.0
  0
LINE
  5
153
330
6C
100
AcDbEntity
  8
Visible (ANSI)
100
AcDbLine
 10
48.78960146226503
 20
88.39545176428359
 30
0.0
 11
27.99909854917711
 21
88.39545176428359
 31
0.0
  0
LINE
  5
154
330
6C
100
AcDbEntity
  8
Visible (ANSI)
100
AcDbLine
 10
48.76940000572107
 20
87.52045176428357
 30
0.0
 11
28.01930000572107
 21
87.52045176428357
 31
0.0
  0
MTEXT
  5
155
330
6C
100
AcDbEntity
  8
Symbol (ANSI)
100
AcDbMText
 10
35.10156966719227
 20
82.27949175038462
 30
0.0
 40
1.043478273765879
 41
0.0
 71
     7
 72
     1
  1
TOP VIEW
  7
Text Style168
 73
     1
 44
1.0
1001
ACAD
1000
MTEXTBEGIN
1070
    73
1070
     1
1070
    44
1040
1.0
1070
    74
1070
     0
1000
MTEXTEND
  0
LINE
  5
156
330
6C
100
AcDbEntity
  8
Symbol (ANSI)
370
    30
100
AcDbLine
 10
35.10240445194833
 20
82.06669490364644
 30
0.0
 11
41.68629555949381
 21
82.06669490364644
 31
0.0
  0
ELLIPSE
  5
157
330
6C
100
AcDbEntity
  8
Visible (ANSI)
100
AcDbEllipse
 10
127.7529765949148
 20
31.23773956208868
 30
0.0
 11
-0.0812337652248707
 21
0.1410647123881532
 31
0.0
210
0.0
220
0.0
230
1.0
 40
0.5780931159158113
 41
0.0
 42
6.283185307179586
  0
ELLIPSE
  5
158
330
6C
100
AcDbEntity
  8
Visible (ANSI)
100
AcDbEllipse
 10
127.822113191851
 20
31.27755268040071
 30
0.0
 11
0.0812337652248788
 21
-0.1410647123881477
 31
0.0
210
0.0
220
0.0
230
1.0
 40
0.5780931159158113
 41
3.579337952256111
 42
5.845440008512515
  0
ELLIPSE
  5
159
330
6C
100
AcDbEntity
  8
Visible (ANSI)
100
AcDbEllipse
 10
116.5007556421185
 20
37.71746265982661
 30
0.0
 11
-0.0812337652248707
 21
0.1410647123881532
 31
0.0
210
0.0
220
0.0
230
1.0
 40
0.5780931159158113
 41
0.0
 42
6.283185307179586
  0
ELLIPSE
  5
15A
330
6C
100
AcDbEntity
  8
Visible (ANSI)
100
AcDbEllipse
 10
116.5698922390547
 20
37.75727577813862
 30
0.0
 11
0.0812337652248793
 21
-0.1410647123881487
 31
0.0
210
0.0
220
0.0
230
1.0
 40
0.5780931159158112
 41
3.579337952256068
 42
5.845440008512282
  0
ELLIPSE
  5
15B
330
6C
100
AcDbEntity
  8
Visible (ANSI)
100
AcDbEllipse
 10
129.2286777034783
 20
43.71751249921575
 30
0.0
 11
-0.1465852878897507
 21
0.2545494649824689
 31
0.0
210
0.0
220
0.0
230
1.0
 40
0.5780931159158113
 41
0.0
 42
6.283185307179586
  0
ELLIPSE
  5
15C
330
6C
100
AcDbEntity
  8
Visible (ANSI)
100
AcDbEllipse
 10
129.2978143004144
 20
43.75732561752776
 30
0.0
 11
-0.1465852878897513
 21
0.25454946498247
 31
0.0
210
0.0
220
0.0
230
1.0
 40
0.5780931159158114
 41
0.2371295998375213
 42
2.904463053752243
  0
ELLIPSE
  5
15D
330
6C
100
AcDbEntity
  8
Visible (ANSI)
100
AcDbEllipse
 10
115.025054533555
 20
51.89683509799969
 30
0.0
 11
-0.1465852878897507
 21
0.2545494649824689
 31
0.0
210
0.0
220
0.0
230
1.0
 40
0.5780931159158113
 41
0.0
 42
6.283185307179586
  0
ELLIPSE
  5
15E
330
6C
100
AcDbEntity
  8
Visible (ANSI)
100
AcDbEllipse
 10
115.0941911304912
 20
51.93664821631172
 30
0.0
 11
-0.1465852878897509
 21
0.2545494649824694
 31
0.0
210
0.0
220
0.0
230
1.0
 40
0.5780931159158113
 41
0.2371295998375205
 42
2.904463053752257
  0
ELLIPSE
  5
15F
330
6C
100
AcDbEntity
  8
Visible (ANSI)
100
AcDbEllipse
 10
129.2286777034783
 20
30.38793981156569
 30
0.0
 11
-0.1465852878897507
 21
0.2545494649824689
 31
0.0
210
0.0
220
0.0
230
1.0
 40
0.5780931159158113
 41
0.0
 42
6.283185307179586
  0
ELLIPSE
  5
160
330
6C
100
AcDbEntity
  8
Visible (ANSI)
100
AcDbEllipse
 10
129.2978143004144
 20
30.42775292987771
 30
0.0
 11
-0.1465852878897518
 21
0.2545494649824708
 31
0.0
210
0.0
220
0.0
230
1.0
 40
0.5780931159158113
 41
0.2371295998375205
 42
2.904463053752113
  0
ELLIPSE
  5
161
330
6C
100
AcDbEntity
  8
Visible (ANSI)
100
AcDbEllipse
 10
129.2286777034783
 20
57.04708518686583
 30
0.0
 11
-0.1465852878897507
 21
0.2545494649824689
 31
0.0
210
0.0
220
0.0
230
1.0
 40
0.5780931159158113
 41
0.0
 42
6.283185307179586
  0
ELLIPSE
  5
162
330
6C
100
AcDbEntity
  8
Visible (ANSI)
100
AcDbEllipse
 10
129.2978143004144
 20
57.08689830517785
 30
0.0
 11
-0.1465852878897508
 21
0.2545494649824693
 31
0.0
210
0.0
220
0.0
230
1.0
 40
0.5780931159158112
 41
0.2371295998375213
 42
2.904463053752257
  0
ELLIPSE
  5
163
330
6C
100
AcDbEntity
  8
Visible (ANSI)
100
AcDbEllipse
 10
115.025054533555
 20
65.22640778564976
 30
0.0
 11
-0.1465852878897507
 21
0.2545494649824689
 31
0.0
210
0.0
220
0.0
230
1.0
 40
0.5780931159158113
 41
0.0
 42
6.283185307179586
  0
ELLIPSE
  5
164
330
6C
100
AcDbEntity
  8
Visible (ANSI)
100
AcDbEllipse
 10
115.0941911304912
 20
65.26622090396178
 30
0.0
 11
-0.1465852878897514
 21
0.2545494649824703
 31
0.0
210
0.0
220
0.0
230
1.0
 40
0.5780931159158114
 41
0.2371295998375211
 42
2.90446305375223
  0
ELLIPSE
  5
165
330
6C
100
AcDbEntity
  8
Visible (ANSI)
100
AcDbEllipse
 10
115.025054533555
 20
38.56726241034963
 30
0.0
 11
-0.1465852878897507
 21
0.2545494649824689
 31
0.0
210
0.0
220
0.0
230
1.0
 40
0.5780931159158113
 41
0.0
 42
6.283185307179586
  0
ELLIPSE
  5
166
330
6C
100
AcDbEntity
  8
Visible (ANSI)
100
AcDbEllipse
 10
115.0941911304912
 20
38.60707552866164
 30
0.0
 11
-0.1465852878897505
 21
0.2545494649824687
 31
0.0
210
0.0
220
0.0
230
1.0
 40
0.5780931159158116
 41
0.2371295998375205
 42
2.904463053752257
  0
SPLINE
  5
167
330
6C
100
AcDbEntity
  8
Visible (ANSI)
100
AcDbSpline
210
0.0
220
0.0
230
1.0
 70
     8
 71
     3
 72
    11
 73
     7
 74
     0
 42
0.0000000001
 43
0.0000000001
 40
0.0
 40
0.0
 40
0.0
 40
0.0
 40
1.483474787627023
 40
1.483474787627023
 40
1.483474787627023
 40
1.570796326794917
 40
1.570796326794917
 40
1.570796326794917
 40
1.570796326794917
 10
129.8973547682961
 20
57.42529801151531
 30
0.0
 10
129.8859528652303
 20
57.41330686511755
 30
0.0
 10
129.8656906763202
 20
57.40737187065318
 30
0.0
 10
129.85333784877
 20
57.40791492818592
 30
0.0
 10
129.8526107262575
 20
57.40794689409462
 30
0.0
 10
129.8519102570501
 20
57.4079971529958
 30
0.0
 10
129.8512391086535
 20
57.40806429737776
 30
0.0
  0
LINE
  5
168
330
6C
100
AcDbEntity
  8
Visible (ANSI)
100
AcDbLine
 10
129.9664913652323
 20
29.41214780234846
 30
0.0
 11
130.5199161734711
 21
29.73084395378842
 31
0.0
  0
LINE
  5
169
330
6C
100
AcDbEntity
  8
Visible (ANSI)
100
AcDbLine
 10
129.9664913652323
 20
57.38548489320332
 30
0.0
 11
130.5199161734711
 21
57.70418104464328
 31
0.0
  0
LINE
  5
16A
330
6C
100
AcDbEntity
  8
Visible (ANSI)
100
AcDbLine
 10
130.4507795765349
 20
57.74399416295528
 30
0.0
 11
129.8973547682961
 21
57.42529801151531
 31
0.0
  0
LINE
  5
16B
330
6C
100
AcDbEntity
  8
Visible (ANSI)
100
AcDbLine
 10
129.9664913652323
 20
57.38548489320332
 30
0.0
 11
129.8973547682961
 21
57.42529801151531
 31
0.0
  0
LINE
  5
16C
330
6C
100
AcDbEntity
  8
Visible (ANSI)
100
AcDbLine
 10
130.5199161734711
 20
57.70418104464328
 30
0.0
 11
130.4507795765349
 21
57.74399416295528
 31
0.0
  0
LINE
  5
16D
330
6C
100
AcDbEntity
  8
Visible (ANSI)
100
AcDbLine
 10
129.7821025117173
 20
57.36825117906574
 30
0.0
 11
129.8512391086535
 21
57.40806429737776
 31
0.0
  0
SPLINE
  5
16E
330
6C
100
AcDbEntity
  8
Visible (ANSI)
100
AcDbSpline
210
0.0
220
0.0
230
1.0
 70
     8
 71
     3
 72
    11
 73
     7
 74
     0
 42
0.0000000001
 43
0.0000000001
 40
0.0
 40
0.0
 40
0.0
 40
0.0
 40
1.04908000579083
 40
1.04908000579083
 40
1.04908000579083
 40
1.570796326794917
 40
1.570796326794917
 40
1.570796326794917
 40
1.570796326794917
 10
129.7821025117173
 20
57.36825117906574
 30
0.0
 10
129.8143422883028
 20
57.35352212507383
 30
0.0
 10
129.8642613952635
 20
57.34968511400455
 30
0.0
 10
129.9082794570225
 20
57.36036494223066
 30
0.0
 10
129.9301700098038
 20
57.36567611074052
 30
0.0
 10
129.9504582528506
 20
57.37434406504796
 30
0.0
 10
129.9664913652323
 20
57.38548489320332
 30
0.0
  0
SPLINE
  5
16F
330
6C
100
AcDbEntity
  8
Visible (ANSI)
100
AcDbSpline
210
0.0
220
0.0
230
1.0
 70
     8
 71
     3
 72
    11
 73
     7
 74
     0
 42
0.0000000001
 43
0.0000000001
 40
0.0
 40
0.0
 40
0.0
 40
0.0
 40
1.04908000579083
 40
1.04908000579083
 40
1.04908000579083
 40
1.570796326794956
 40
1.570796326794956
 40
1.570796326794956
 40
1.570796326794956
 10
129.7821025117173
 20
29.429381516486
 30
0.0
 10
129.8143422883028
 20
29.40697926531004
 30
0.0
 10
129.8642613952635
 20
29.3954690570567
 30
0.0
 10
129.9082794570225
 20
29.39847568809876
 30
0.0
 10
129.9301700098039
 20
29.39997091103431
 30
0.0
 10
129.9504582528506
 20
29.40482291976742
 30
0.0
 10
129.9664913652323
 20
29.41214780234846
 30
0.0
  0
LINE
  5
170
330
6C
100
AcDbEntity
  8
Visible (ANSI)
100
AcDbLine
 10
129.889202594383
 20
29.36729523266569
 30
0.0
 11
130.4426274026219
 21
29.68599138410568
 31
0.0
  0
LINE
  5
171
330
6C
100
AcDbEntity
  8
Visible (ANSI)
100
AcDbLine
 10
129.889202594383
 20
29.36729523266569
 30
0.0
 11
129.889202594383
 21
29.39800879390069
 31
0.0
  0
LINE
  5
172
330
6C
100
AcDbEntity
  8
Visible (ANSI)
100
AcDbLine
 10
130.4426274026219
 20
29.68599138410568
 30
0.0
 11
130.4426274026219
 21
29.68633631074009
 31
0.0
  0
SPLINE
  5
173
330
6C
100
AcDbEntity
  8
Visible (ANSI)
100
AcDbSpline
210
0.0
220
0.0
230
1.0
 70
     8
 71
     3
 72
    11
 73
     7
 74
     0
 42
0.0000000001
 43
0.0000000001
 40
0.0
 40
0.0
 40
0.0
 40
0.0
 40
1.049080005790748
 40
1.049080005790748
 40
1.049080005790748
 40
1.57079632679489
 40
1.57079632679489
 40
1.57079632679489
 40
1.57079632679489
 10
129.7821025117173
 20
29.42938151648599
 30
0.0
 10
129.7854208340484
 20
29.39019543593845
 30
0.0
 10
129.8070359906269
 20
29.36225975095851
 30
0.0
 10
129.8383050739633
 20
29.35786783707872
 30
0.0
 10
129.8538554524182
 20
29.35568370132275
 30
0.0
 10
129.8715192523631
 20
29.35901268134403
 30
0.0
 10
129.889202594383
 20
29.36729523266569
 30
0.0
  0
SPLINE
  5
174
330
6C
100
AcDbEntity
  8
Visible (ANSI)
100
AcDbSpline
210
0.0
220
0.0
230
1.0
 70
     8
 71
     3
 72
     8
 73
     4
 74
     0
 42
0.0000000001
 43
0.0000000001
 40
0.0
 40
0.0
 40
0.0
 40
0.0
 40
0.78733187182048
 40
0.78733187182048
 40
0.78733187182048
 40
0.78733187182048
 10
114.471629725316
 20
38.24609641814971
 30
0.0
 10
114.4691393328599
 20
38.21955560779688
 30
0.0
 10
114.4769545669048
 20
38.19935154254103
 30
0.0
 10
114.4914219407419
 20
38.19068081671888
 30
0.0
  0
LINE
  5
175
330
6C
100
AcDbEntity
  8
Visible (ANSI)
100
AcDbLine
 10
114.9523024080187
 20
38.51340545418411
 30
0.0
 11
115.1023433044041
 21
38.59980825999397
 31
0.0
  0
LINE
  5
176
330
6C
100
AcDbEntity
  8
Visible (ANSI)
100
AcDbLine
 10
114.471629725316
 20
66.30838227369489
 30
0.0
 11
114.5466201350879
 21
66.35156637862374
 31
0.0
  0
LINE
  5
177
330
6C
100
AcDbEntity
  8
Visible (ANSI)
100
AcDbLine
 10
115.094191130491
 20
38.61392821596801
 30
0.0
 11
114.94410444645
 21
38.52749904280087
 31
0.0
  0
SPLINE
  5
178
330
6C
100
AcDbEntity
  8
Visible (ANSI)
100
AcDbSpline
210
0.0
220
0.0
230
1.0
 70
     8
 71
     3
 72
     8
 73
     4
 74
     0
 42
0.0000000001
 43
0.0000000001
 40
0.0
 40
0.0
 40
0.0
 40
0.0
 40
0.7853981633975998
 40
0.7853981633975998
 40
0.7853981633975998
 40
0.7853981633975998
 10
114.471629725316
 20
38.24609641814971
 30
0.0
 10
114.4474932808324
 20
38.25712338643618
 30
0.0
 10
114.433958003719
 20
38.27385654895027
 30
0.0
 10
114.4336651422908
 20
38.29059803317824
 30
0.0
  0
LINE
  5
179
330
6C
100
AcDbEntity
  8
Visible (ANSI)
100
AcDbLine
 10
114.471629725316
 20
66.30838227369489
 30
0.0
 11
114.4978657845317
 21
66.29327393200779
 31
0.0
  0
SPLINE
  5
17A
330
6C
100
AcDbEntity
  8
Visible (ANSI)
100
AcDbSpline
210
0.0
220
0.0
230
1.0
 70
     8
 71
     3
 72
    11
 73
     7
 74
     0
 42
0.0000000001
 43
0.0000000001
 40
0.0
 40
0.0
 40
0.0
 40
0.0
 40
1.049080005790748
 40
1.049080005790748
 40
1.049080005790748
 40
1.570796326794904
 40
1.570796326794904
 40
1.570796326794904
 40
1.570796326794904
 10
114.471629725316
 20
66.18496608072947
 30
0.0
 10
114.4393899487305
 20
66.20736833190543
 30
0.0
 10
114.4260645102646
 20
66.23995143234347
 30
0.0
 10
114.4379479705162
 20
66.26913634685412
 30
0.0
 10
114.443857715368
 20
66.28365025060145
 30
0.0
 10
114.4555966129343
 20
66.29724144553953
 30
0.0
 10
114.471629725316
 20
66.30838227369489
 30
0.0
  0
SPLINE
  5
17B
330
6C
100
AcDbEntity
  8
Visible (ANSI)
100
AcDbSpline
210
0.0
220
0.0
230
1.0
 70
     8
 71
     3
 72
    11
 73
     7
 74
     0
 42
0.0000000001
 43
0.0000000001
 40
0.0
 40
0.0
 40
0.0
 40
0.0
 40
1.483474787626214
 40
1.483474787626214
 40
1.483474787626214
 40
1.570796326794879
 40
1.570796326794879
 40
1.570796326794879
 40
1.570796326794879
 10
129.8512391086535
 20
57.40806429737776
 30
0.0
 10
129.8559314557464
 20
57.4185448777405
 30
0.0
 10
129.8703122846327
 20
57.4336471349553
 30
0.0
 10
129.8863630923588
 20
57.43863556777633
 30
0.0
 10
129.8873078884869
 20
57.43892920109967
 30
0.0
 10
129.8882552411099
 20
57.43919053464205
 30
0.0
 10
129.889202594383
 20
57.43941796748935
 30
0.0
  0
LINE
  5
17C
330
6C
100
AcDbEntity
  8
Visible (ANSI)
100
AcDbLine
 10
129.889202594383
 20
57.51935274898265
 30
0.0
 11
130.4426274026219
 21
57.83804890042265
 31
0.0
  0
LINE
  5
17D
330
6C
100
AcDbEntity
  8
Visible (ANSI)
100
AcDbLine
 10
114.5489184961652
 20
66.35323484337764
 30
0.0
 11
115.1023433044041
 21
66.67193099481763
 31
0.0
  0
SPLINE
  5
17E
330
6C
100
AcDbEntity
  8
Visible (ANSI)
100
AcDbSpline
210
0.0
220
0.0
230
1.0
 70
     8
 71
     3
 72
    11
 73
     7
 74
     0
 42
0.0000000001
 43
0.0000000001
 40
0.0
 40
0.0
 40
0.0
 40
0.0
 40
1.049080005790959
 40
1.049080005790959
 40
1.049080005790959
 40
1.570796326794879
 40
1.570796326794879
 40
1.570796326794879
 40
1.570796326794879
 10
114.471629725316
 20
66.18496608072947
 30
0.0
 10
114.4683114029849
 20
66.22415216127702
 30
0.0
 10
114.4832899149012
 20
66.27316073844169
 30
0.0
 10
114.5079223535754
 20
66.30974419787417
 30
0.0
 10
114.5201722727536
 20
66.32793746031303
 30
0.0
 10
114.5345356134219
 20
66.34305168396292
 30
0.0
 10
114.5489184961652
 20
66.35323484337765
 30
0.0
  0
LINE
  5
17F
330
6C
100
AcDbEntity
  8
Visible (ANSI)
100
AcDbLine
 10
129.889202594383
 20
57.51935274898265
 30
0.0
 11
129.889202594383
 21
57.43941796748935
 31
0.0
  0
SPLINE
  5
180
330
6C
100
AcDbEntity
  8
Visible (ANSI)
100
AcDbSpline
210
0.0
220
0.0
230
1.0
 70
     8
 71
     3
 72
    11
 73
     7
 74
     0
 42
0.0000000001
 43
0.0000000001
 40
0.0
 40
0.0
 40
0.0
 40
0.0
 40
1.049080005790959
 40
1.049080005790959
 40
1.049080005790959
 40
1.570796326794879
 40
1.570796326794879
 40
1.570796326794879
 40
1.570796326794879
 10
129.7821025117173
 20
57.36825117906574
 30
0.0
 10
129.7854208340484
 20
57.40361547012926
 30
0.0
 10
129.8070359906269
 20
57.44880225780988
 30
0.0
 10
129.8383050739634
 20
57.48156392775833
 30
0.0
 10
129.8538554524182
 20
57.49785658210416
 30
0.0
 10
129.8715192523631
 20
57.51107019766099
 30
0.0
 10
129.889202594383
 20
57.51935274898266
 30
0.0
  0
LINE
  5
181
330
6C
100
AcDbEntity
  8
Visible (ANSI)
100
AcDbLine
 10
129.889202594383
 20
57.43941796748935
 30
0.0
 11
130.4426274026219
 21
57.75811411892934
 31
0.0
  0
LINE
  5
182
330
6C
100
AcDbEntity
  8
Visible (ANSI)
100
AcDbLine
 10
130.4426274026219
 20
57.83804890042265
 30
0.0
 11
130.4426274026219
 21
57.75811411892934
 31
0.0
  0
LINE
  5
183
330
6C
100
AcDbEntity
  8
Visible Narrow (ANSI)
100
AcDbLine
 10
129.9664913652323
 20
57.38548489320332
 30
0.0
 11
129.9664913652323
 21
29.41214780234846
 31
0.0
  0
LINE
  5
184
330
6C
100
AcDbEntity
  8
Visible Narrow (ANSI)
100
AcDbLine
 10
129.7821025117173
 20
29.42938151648599
 30
0.0
 11
129.7821025117173
 21
57.36825117906574
 31
0.0
  0
LINE
  5
185
330
6C
100
AcDbEntity
  8
Visible Narrow (ANSI)
100
AcDbLine
 10
114.471629725316
 20
38.24609641814971
 30
0.0
 11
129.7821025117173
 21
29.42938151648599
 31
0.0
  0
LINE
  5
186
330
6C
100
AcDbEntity
  8
Visible Narrow (ANSI)
100
AcDbLine
 10
114.471629725316
 20
66.18496608072947
 30
0.0
 11
114.471629725316
 21
38.24609641814971
 31
0.0
  0
LINE
  5
187
330
6C
100
AcDbEntity
  8
Visible Narrow (ANSI)
100
AcDbLine
 10
114.5489184961652
 20
66.35323484337764
 30
0.0
 11
129.889202594383
 21
57.51935274898265
 31
0.0
  0
LINE
  5
188
330
6C
100
AcDbEntity
  8
Visible Narrow (ANSI)
100
AcDbLine
 10
129.7821025117173
 20
57.36825117906574
 30
0.0
 11
114.471629725316
 21
66.18496608072947
 31
0.0
  0
LINE
  5
189
330
6C
100
AcDbEntity
  8
Visible (ANSI)
100
AcDbLine
 10
114.4912878531357
 20
38.19050261341426
 30
0.0
 11
129.8167029942736
 21
29.36518298193519
 31
0.0
  0
LINE
  5
18A
330
6C
100
AcDbEntity
  8
Visible (ANSI)
100
AcDbLine
 10
114.4334415433779
 20
66.24667417721219
 30
0.0
 11
114.4334415433779
 21
38.29057080049487
 31
0.0
  0
LINE
  5
18B
330
6C
100
AcDbEntity
  8
Visible (ANSI)
100
AcDbLine
 10
130.5199161734711
 20
29.73084395378842
 30
0.0
 11
130.5199161734711
 21
57.70418104464328
 31
0.0
  0
LINE
  5
18C
330
6C
100
AcDbEntity
  8
Visible (ANSI)
100
AcDbLine
 10
115.1023433044041
 20
38.59980825999397
 30
0.0
 11
115.2217772939461
 21
38.53103079962084
 31
0.0
  0
LINE
  5
18D
330
6C
100
AcDbEntity
  8
Visible (ANSI)
100
AcDbLine
 10
116.4548090633152
 20
37.82097502754324
 30
0.0
 11
116.5946044296891
 21
37.74047223007332
 31
0.0
  0
LINE
  5
18E
330
6C
100
AcDbEntity
  8
Visible (ANSI)
100
AcDbLine
 10
127.7070300161115
 20
31.34125192980532
 30
0.0
 11
127.8468253824855
 21
31.2607491323354
 31
0.0
  0
LINE
  5
18F
330
6C
100
AcDbEntity
  8
Visible (ANSI)
100
AcDbLine
 10
129.0901212893002
 20
30.5447826366092
 30
0.0
 11
129.4254004638694
 21
30.35170820083691
 31
0.0
  0
LINE
  5
190
330
6C
100
AcDbEntity
  8
Visible (ANSI)
100
AcDbLine
 10
115.094191130491
 20
65.41304627594593
 30
0.0
 11
115.094191130491
 21
65.02607532242118
 31
0.0
  0
LINE
  5
191
330
6C
100
AcDbEntity
  8
Visible (ANSI)
100
AcDbLine
 10
115.094191130491
 20
52.08347358829588
 30
0.0
 11
115.094191130491
 21
51.69650263477111
 31
0.0
  0
LINE
  5
192
330
6C
100
AcDbEntity
  8
Visible (ANSI)
100
AcDbLine
 10
115.094191130491
 20
38.75390090064578
 30
0.0
 11
115.094191130491
 21
38.61392821596801
 31
0.0
  0
LINE
  5
193
330
6C
100
AcDbEntity
  8
Visible (ANSI)
100
AcDbLine
 10
130.4426274026219
 20
57.83804890042265
 30
0.0
 11
115.1023433044041
 21
66.67193099481763
 31
0.0
  0
DIMENSION
  5
194
330
6C
100
AcDbEntity
  8
Dimension (ANSI)
100
AcDbDimension
  2
*D4
 10
53.66003210006161
 20
47.99304017081984
 30
0.0
 11
53.6600321000616
 21
40.18054017081984
 31
0.0
 70
   160
  1
<>{\PTYP.}
 71
     5
 42
15.625
  3
Default (ANSI)
100
AcDbAlignedDimension
 13
48.01935000570919
 23
32.36804017081984
 33
0.0
 14
48.01935000570923
 24
47.99304017081984
 34
0.0
 50
90.0
100
AcDbRotatedDimension
1001
ACAD
1000
DSTYLE
1002
{
1070
   289
1070
     1
1070
   271
1070
     2
1070
   272
1070
     2
1070
    48
1040
0.0
1070
    47
1040
0.0
1002
}
  0
DIMENSION
  5
295
330
6C
100
AcDbEntity
  8
Dimension (ANSI)
100
AcDbDimension
  2
*D5
 10
56.11488394584261
 20
32.36804017081984
 30
0.0
 11
53.66008210006159
 21
26.55775323617266
 31
0.0
 70
   160
  1
<>{\PTYP.}
 71
     5
 42
0.8749999999999964
  3
Default (ANSI)
100
AcDbAlignedDimension
 13
48.78960146225318
 23
31.49304017081985
 33
0.0
 14
48.01935000570919
 24
32.36804017081984
 34
0.0
 50
90.0
100
AcDbRotatedDimension
1001
ACAD
1000
DSTYLE
1002
{
1070
   289
1070
     1
1070
   271
1070
     2
1070
   272
1070
     2
1070
    48
1040
0.0
1070
    47
1040
0.0
1002
}
  0
DIMENSION
  5
3AB
330
6C
100
AcDbEntity
  8
Dimension (ANSI)
100
AcDbDimension
  2
*D6
 10
60.42945082890844
 20
64.49304017081984
 30
0.0
 11
60.42945082890843
 21
47.99304017081984
 31
0.0
 70
   160
  1
<>
 42
33.0
  3
Default (ANSI)
100
AcDbAlignedDimension
 13
48.78960146225318
 23
31.49304017081985
 33
0.0
 14
48.78960146225317
 24
64.49304017081984
 34
0.0
 50
90.0
100
AcDbRotatedDimension
1001
ACAD
1000
DSTYLE
1002
{
1070
   289
1070
     1
1070
   271
1070
     2
1070
   272
1070
     2
1070
    48
1040
0.0
1070
    47
1040
0.0
1002
}
  0
DIMENSION
  5
495
330
6C
100
AcDbEntity
  8
Dimension (ANSI)
100
AcDbDimension
  2
*D7
 10
48.89435000570921
 20
71.99491298678528
 30
0.0
 11
38.39435000570922
 21
71.99491298678528
 31
0.0
 70
   160
  1
<>
 42
21.0
  3
Default (ANSI)
100
AcDbAlignedDimension
 13
27.89435000570922
 23
64.38829162736379
 33
0.0
 14
48.89435000570921
 24
64.38829162736379
 34
0.0
100
AcDbRotatedDimension
1001
ACAD
1000
DSTYLE
1002
{
1070
   289
1070
     1
1070
    73
1070
     0
1070
    74
1070
     0
1070
   271
1070
     2
1070
   272
1070
     2
1070
    48
1040
0.0
1070
    47
1040
0.0
1002
}
  0
DIMENSION
  5
57F
330
6C
100
AcDbEntity
  8
Dimension (ANSI)
100
AcDbDimension
  2
*D8
 10
48.89435000570921
 20
68.53930001333951
 30
0.0
 11
54.74381713876933
 21
68.53930001333951
 31
0.0
 70
   160
  1
<>{\PTYP.}
 71
     5
 42
0.8750000000000213
  3
Default (ANSI)
100
AcDbAlignedDimension
 13
48.01935000570919
 23
64.98649669255896
 33
0.0
 14
48.89435000570921
 24
64.38829162736379
 34
0.0
 50
180.0
100
AcDbRotatedDimension
1001
ACAD
1000
DSTYLE
1002
{
1070
   289
1070
     1
1070
    73
1070
     0
1070
    74
1070
     0
1070
   271
1070
     2
1070
   272
1070
     2
1070
    48
1040
0.0
1070
    47
1040
0.0
1002
}
  0
DIMENSION
  5
67D
330
6C
100
AcDbEntity
  8
Dimension (ANSI)
100
AcDbDimension
  2
*D9
 10
46.01935000570921
 20
27.11869633879884
 30
0.0
 11
39.87980767833056
 21
27.11869633879884
 31
0.0
 70
   160
  1
<>{\PTYP.}
 71
     5
 42
1.999999999999978
  3
Default (ANSI)
100
AcDbAlignedDimension
 13
48.01935000570919
 23
32.36804017081984
 33
0.0
 14
46.01935000570921
 24
32.36804017081984
 34
0.0
 50
180.0
100
AcDbRotatedDimension
1001
ACAD
1000
DSTYLE
1002
{
1070
   289
1070
     1
1070
    73
1070
     0
1070
    74
1070
     0
1070
   271
1070
     2
1070
   272
1070
     2
1070
    48
1040
0.0
1070
    47
1040
0.0
1002
}
  0
DIMENSION
  5
77B
330
6C
100
AcDbEntity
  8
Dimension (ANSI)
100
AcDbDimension
  2
*D10
 10
54.72664988261248
 20
88.39545176428359
 30
0.0
 11
52.27184803683145
 21
83.14230376510801
 31
0.0
 70
   160
  1
<>{\PTYP.}
 71
     5
 42
0.8750000000000284
  3
Default (ANSI)
100
AcDbAlignedDimension
 13
48.76940000572107
 23
87.52045176428357
 33
0.0
 14
48.78960146226503
 24
88.39545176428359
 34
0.0
 50
90.0
100
AcDbRotatedDimension
1001
ACAD
1000
DSTYLE
1002
{
1070
   289
1070
     1
1070
   271
1070
     2
1070
   272
1070
     2
1070
    48
1040
0.0
1070
    47
1040
0.0
1002
}
  0
DIMENSION
  5
891
330
6C
100
AcDbEntity
  8
Dimension (ANSI)
100
AcDbDimension
  2
*D11
 10
87.88620999887855
 20
58.8991644408107
 30
0.0
 11
92.66663142901842
 21
58.8991644408107
 31
0.0
 70
   160
  1
<>{\PTYP.}
 71
     5
 42
0.8750000000000426
  3
Default (ANSI)
100
AcDbAlignedDimension
 13
88.76120999887859
 23
58.8991644408107
 33
0.0
 14
87.88620999887855
 24
58.89212782830932
 34
0.0
100
AcDbRotatedDimension
1001
ACAD
1000
DSTYLE
1002
{
1070
   289
1070
     1
1070
    73
1070
     0
1070
    74
1070
     0
1070
   271
1070
     2
1070
    76
1070
     1
1070
    75
1070
     1
1070
   272
1070
     2
1070
    48
1040
0.0
1070
    47
1040
0.0
1002
}
  0
DIMENSION
  5
980
330
6C
100
AcDbEntity
  8
Dimension (ANSI)
100
AcDbDimension
  2
*D12
 10
28.96840056461323
 20
32.56709072972381
 30
0.0
 11
19.66229684495736
 21
27.02753165639838
 31
0.0
 70
   163
  1
<>{\PTYP.\P(6 PL.)}
 71
     2
 42
0.5629999999999999
  3
Default (ANSI)
100
AcDbDiametricDimension
 15
28.57029944680515
 25
32.16898961191587
 35
0.0
 40
0.0
1001
ACAD_DSTYLE_DIMRADIAL_EXTENSION
1070
   387
1070
     1
1070
   388
1040
0.0
1070
   390
1040
0.0
1001
ACAD
1000
DSTYLE
1002
{
1070
   145
1040
-0.3333333333333334
1070
   144
1040
1.000000000000046
1070
   271
1070
     2
1070
   272
1070
     2
1070
    48
1040
0.0
1070
    47
1040
0.0
1002
}
  0
DIMENSION
  5
A3A
330
6C
100
AcDbEntity
  8
Dimension (ANSI)
100
AcDbDimension
  2
*D13
 10
30.87965866357433
 20
32.25773151295476
 30
0.0
 11
18.98822973808562
 21
40.38261579211246
 31
0.0
 70
   163
  1
<>{\PTYP.\P(2 PL.)}
 71
     2
 42
0.312
  3
Default (ANSI)
100
AcDbDiametricDimension
 15
30.6590413478441
 25
32.47834882868494
 35
0.0
 40
0.0
1001
ACAD_DSTYLE_DIMRADIAL_EXTENSION
1070
   387
1070
     1
1070
   388
1040
0.0
1070
   390
1040
0.0
1001
ACAD
1000
DSTYLE
1002
{
1070
   145
1040
-0.3333333333333334
1070
   144
1040
0.9999999999999849
1070
   271
1070
     2
1070
   272
1070
     2
1070
    48
1040
0.0
1070
    47
1040
0.0
1002
}
  0
MTEXT
  5
AF3
102
{ACAD_XDICTIONARY
360
B12
102
}
330
6C
100
AcDbEntity
  8
Symbol (ANSI)
100
AcDbMText
 10
78.62714358061663
 20
8.74468016977514
 30
0.0
 40
0.8695652451428676
 41
73.75284826732569
 71
     4
 72
     1
  3
{\fRomanS|b0|i0|c0|p2;\H2x;PART#: ALNP3624\P(DATA SUBJECT TO CHANGE WITHOUT NOTICE)\H1.4011x; \H0.71374x;\P \H1.1072x; \H0.9032x;\P\H0.60002x;THIS DRAWING IS PROPERTY OF HUBBELL INC. WIEGMANN\H1.2422x; \H0.80503x;\PALL INFORMATION IS PROPRIETARY AND 
  1
NOT TO BE DUPLICATED\H1.0095x; \H0.82552x;\P\H1.0785x; }
  7
Note Text (ANSI)
 73
     1
 44
0.9303776025772094
1001
ACAD
1000
MTEXTBEGIN
1070
    73
1070
     1
1070
    44
1040
0.9303776025772094
1070
    74
1070
     0
1000
MTEXTEND
  0
LINE
  5
AF5
330
6C
100
AcDbEntity
  8
Center Mark (ANSI)
  6
CHAIN
 48
0.1747488081455231
100
AcDbLine
 10
30.13780652744834
 20
63.61804017081983
 30
0.0
 11
27.40089348397008
 21
63.61804017081983
 31
0.0
  0
LINE
  5
AF6
330
6C
100
AcDbEntity
  8
Center Mark (ANSI)
  6
CHAIN
 48
0.1747488081455231
100
AcDbLine
 10
49.38780652744832
 20
63.61804017081983
 30
0.0
 11
46.65089348397006
 21
63.61804017081983
 31
0.0
  0
LINE
  5
AF7
330
6C
100
AcDbEntity
  8
Centerline (ANSI)
  6
CHAIN
 48
0.9524481296539306
100
AcDbLine
 10
27.40089348397008
 20
63.61804017081983
 30
0.0
 11
49.38780652744832
 21
63.61804017081983
 31
0.0
  0
LINE
  5
AF8
330
6C
100
AcDbEntity
  8
Center Mark (ANSI)
  6
CHAIN
 48
0.1747488081455231
100
AcDbLine
 10
30.13780652744833
 20
32.36804017081984
 30
0.0
 11
27.40089348397007
 21
32.36804017081984
 31
0.0
  0
LINE
  5
AF9
330
6C
100
AcDbEntity
  8
Center Mark (ANSI)
  6
CHAIN
 48
0.1747488081455231
100
AcDbLine
 10
49.38780652744832
 20
32.36804017081984
 30
0.0
 11
46.65089348397006
 21
32.36804017081984
 31
0.0
  0
LINE
  5
AFA
330
6C
100
AcDbEntity
  8
Centerline (ANSI)
  6
CHAIN
 48
0.9524481296539306
100
AcDbLine
 10
27.40089348397007
 20
32.36804017081984
 30
0.0
 11
49.38780652744832
 21
32.36804017081984
 31
0.0
  0
LINE
  5
AFB
330
6C
100
AcDbEntity
  8
Centerline (ANSI)
  6
CHAIN
 48
0.9524481296539306
100
AcDbLine
 10
28.76935000570921
 20
64.98649669255896
 30
0.0
 11
28.7693500057092
 21
30.99958364908071
 31
0.0
  0
LINE
  5
AFC
330
6C
100
AcDbEntity
  8
Center Mark (ANSI)
  6
CHAIN
 48
0.1747488081455231
100
AcDbLine
 10
28.76935000570921
 20
49.36149669255897
 30
0.0
 11
28.76935000570921
 21
46.62458364908071
 31
0.0
  0
LINE
  5
AFD
330
6C
100
AcDbEntity
  8
Center Mark (ANSI)
  6
CHAIN
 48
0.1747488081455231
100
AcDbLine
 10
48.01935000570923
 20
49.36149669255897
 30
0.0
 11
48.01935000570923
 21
46.62458364908071
 31
0.0
  0
LINE
  5
AFE
330
6C
100
AcDbEntity
  8
Centerline (ANSI)
  6
CHAIN
 48
0.9524481296539306
100
AcDbLine
 10
27.40089348397008
 20
47.99304017081984
 30
0.0
 11
49.38780652744835
 21
47.99304017081984
 31
0.0
  0
LINE
  5
AFF
330
6C
100
AcDbEntity
  8
Centerline (ANSI)
  6
CHAIN
 48
0.9524481296539306
100
AcDbLine
 10
48.01935000570919
 20
64.98649669255896
 30
0.0
 11
48.01935000570919
 21
30.99958364908071
 31
0.0
  0
LINE
  5
B00
330
6C
100
AcDbEntity
  8
Center Mark (ANSI)
  6
CHAIN
 48
0.1587135791778564
100
AcDbLine
 10
32.01230652744835
 20
32.36804017081984
 30
0.0
 11
29.52639348397008
 21
32.36804017081984
 31
0.0
  0
LINE
  5
B01
330
6C
100
AcDbEntity
  8
Center Mark (ANSI)
  6
CHAIN
 48
0.1587135791778564
100
AcDbLine
 10
30.76935000570922
 20
33.61099669255897
 30
0.0
 11
30.76935000570922
 21
31.1250836490807
 31
0.0
  0
LINE
  5
B02
330
6C
100
AcDbEntity
  8
Center Mark (ANSI)
  6
CHAIN
 48
0.1587135791778564
100
AcDbLine
 10
47.26230652744835
 20
32.36804017081984
 30
0.0
 11
44.77639348397008
 21
32.36804017081984
 31
0.0
  0
LINE
  5
B03
330
6C
100
AcDbEntity
  8
Center Mark (ANSI)
  6
CHAIN
 48
0.1587135791778564
100
AcDbLine
 10
46.01935000570921
 20
33.61099669255897
 30
0.0
 11
46.01935000570921
 21
31.1250836490807
 31
0.0
  0
ENDSEC
  0
SECTION
  2
OBJECTS
  0
DICTIONARY
  5
C
330
0
100
AcDbDictionary
281
     1
  3
ACAD_CIP_PREVIOUS_PRODUCT_INFO
350
B04
  3
ACAD_COLOR
350
63
  3
ACAD_GROUP
350
D
  3
ACAD_LAYOUT
350
62
  3
ACAD_MATERIAL
350
10
  3
ACAD_MLEADERSTYLE
350
66
  3
ACAD_MLINESTYLE
350
5F
  3
ACAD_PLOTSETTINGS
350
61
  3
ACAD_PLOTSTYLENAME
350
E
  3
ACAD_SCALELIST
350
42
  3
ACAD_TABLESTYLE
350
64
  3
ACAD_VISUALSTYLE
350
29
  3
ACDB_RECOMPOSE_DATA
350
B14
  3
AcDbVariableDictionary
350
76
  3
DWGPROPS
350
B15
  0
DICTIONARY
  5
B51
330
A34
100
AcDbDictionary
280
     1
281
     1
  3
ACAD_MTEXT_RT
360
B52
  0
DICTIONARY
  5
B53
330
AED
100
AcDbDictionary
280
     1
281
     1
  3
ACAD_MTEXT_RT
360
B54
  0
DICTIONARY
  5
B12
330
AF3
100
AcDbDictionary
280
     1
281
     1
  3
ACAD_MTEXT_2008_RT
360
B13
  0
XRECORD
  5
B04
102
{ACAD_REACTORS
330
C
102
}
330
C
100
AcDbXrecord
280
     1
300
INVNTOR
300
2012
300
85795PDSP_2012_0F
  0
DICTIONARY
  5
63
102
{ACAD_REACTORS
330
C
102
}
330
C
100
AcDbDictionary
281
     1
  0
DICTIONARY
  5
D
102
{ACAD_REACTORS
330
C
102
}
330
C
100
AcDbDictionary
281
     1
  0
DICTIONARY
  5
62
102
{ACAD_REACTORS
330
C
102
}
330
C
100
AcDbDictionary
281
     1
  3
Layout1
350
6B
  3
Layout2
350
73
  3
Model
350
6F
  0
DICTIONARY
  5
10
102
{ACAD_REACTORS
330
C
102
}
330
C
100
AcDbDictionary
281
     1
  3
ByBlock
350
19
  3
ByLayer
350
11
  3
Global
350
21
  0
DICTIONARY
  5
66
102
{ACAD_REACTORS
330
C
102
}
330
C
100
AcDbDictionary
281
     1
  3
Standard
350
67
  0
DICTIONARY
  5
5F
102
{ACAD_REACTORS
330
C
102
}
330
C
100
AcDbDictionary
281
     1
  3
Standard
350
60
  0
DICTIONARY
  5
61
102
{ACAD_REACTORS
330
C
102
}
330
C
100
AcDbDictionary
281
     1
  0
ACDBDICTIONARYWDFLT
  5
E
102
{ACAD_REACTORS
330
C
102
}
330
C
100
AcDbDictionary
281
     1
  3
Normal
350
F
100
AcDbDictionaryWithDefault
340
F
  0
DICTIONARY
  5
42
102
{ACAD_REACTORS
330
C
102
}
330
C
100
AcDbDictionary
281
     1
  3
A0
350
43
  3
A1
350
44
  3
A2
350
45
  3
A3
350
46
  3
A4
350
47
  3
A5
350
48
  3
A6
350
49
  3
A7
350
4A
  3
A8
350
4B
  3
A9
350
4C
  3
B0
350
4D
  3
B1
350
4E
  3
B2
350
4F
  3
B3
350
50
  3
B4
350
51
  3
B5
350
52
  3
B6
350
53
  0
DICTIONARY
  5
64
102
{ACAD_REACTORS
330
C
102
}
330
C
100
AcDbDictionary
281
     1
  3
Standard
350
65
  0
DICTIONARY
  5
29
102
{ACAD_REACTORS
330
C
102
}
330
C
100
AcDbDictionary
281
     1
  3
2dWireframe
350
2F
  3
Basic
350
2E
  3
Brighten
350
35
  3
ColorChange
350
39
  3
Conceptual
350
32
  3
Dim
350
34
  3
EdgeColorOff
350
41
  3
Facepattern
350
38
  3
Flat
350
2A
  3
FlatWithEdges
350
2B
  3
Gouraud
350
2C
  3
GouraudWithEdges
350
2D
  3
Hidden
350
31
  3
JitterOff
350
3F
  3
Linepattern
350
37
  3
OverhangOff
350
40
  3
Realistic
350
33
  3
Shaded
350
3E
  3
Shaded with edges
350
3D
  3
Shades of Gray
350
3A
  3
Sketchy
350
3B
  3
Thicken
350
36
  3
Wireframe
350
30
  3
X-Ray
350
3C
  0
XRECORD
  5
B14
102
{ACAD_REACTORS
330
C
102
}
330
C
100
AcDbXrecord
280
     1
 90
        1
330
65
330
AF3
  0
DICTIONARY
  5
76
102
{ACAD_REACTORS
330
C
102
}
330
C
100
AcDbDictionary
281
     1
  3
CANNOSCALE
350
79
  3
CMLEADERSTYLE
350
78
  3
CTABLESTYLE
350
77
  3
DIMASSOC
350
B0C
  3
HIDETEXT
350
B0B
  3
INDEXCTL
350
B0A
  3
LAYEREVAL
350
B07
  3
LAYERNOTIFY
350
B08
  3
LIGHTINGUNITS
350
B06
  3
MSLTSCALE
350
B05
  3
SORTENTS
350
B09
  3
XCLIPFRAME
350
B0D
  0
XRECORD
  5
B15
102
{ACAD_REACTORS
330
C
102
}
330
C
100
AcDbXrecord
280
     1
  1
DWGPROPS COOKIE
  2

  3

  4
jfielder
  6

  7

  8

  9
-
300
Manager=
301
Company=
302
Category=
303
Part Number=HWDALNP3624-S
304
Description=
305
Project=
306
Designer=jfielder
307
Engineer=
308
Authority=
309
Cost Center=
 40
0.0000359953703704
 41
2455986.402274537
 42
2455986.402274722
  1

 90
       19
300
Vendor=
300
User Status=
300
Design Status=WorkInProgress
300
Checked by=
300
Engr Approved by=
300
Mfg Approved by=
300
DWG. NO=
300
NUMBER OF SHEETS=1
300
DRAWING #=
  0
XRECORD
  5
B52
102
{ACAD_REACTORS
330
B51
102
}
330
B51
100
AcDbXrecord
280
     1
 40
35954.0
  1
\A1;\U+22050.56{\PTYP.\P(6 PL.)}
  0
XRECORD
  5
B54
102
{ACAD_REACTORS
330
B53
102
}
330
B53
100
AcDbXrecord
280
     1
 40
35747.0
  1
\A1;\U+22050.31{\PTYP.\P(2 PL.)}
  0
XRECORD
  5
B13
102
{ACAD_REACTORS
330
B12
102
}
330
B12
100
AcDbXrecord
280
     1
 40
3151241.0
  1
\pxsm0.94;{\fRomanS|b0|i0;\H1.7391;PART#: ALNP3624\P(DATA SUBJECT TO CHANGE WITHOUT NOTICE)\P \P\fRomanS|b0|i0;\H1.0435;THIS DRAWING IS PROPERTY OF HUBBELL INC. WIEGMANN\PALL INFORMATION IS PROPRIETARY AND NOT TO BE DUPLICATED\fRomanS|b0|i0;\H0.8696;
  1
\P}
  0
LAYOUT
  5
6B
102
{ACAD_XDICTIONARY
360
B4B
102
}
102
{ACAD_REACTORS
330
62
102
}
330
62
100
AcDbPlotSettings
  1

  2

  4

  6

 40
0.0
 41
0.0
 42
0.0
 43
0.0
 44
0.0
 45
0.0
 46
0.0
 47
0.0
 48
0.0
 49
0.0
140
0.0
141
0.0
142
1.0
143
1.0
 70
   688
 72
     0
 73
     0
 74
     5
  7

 75
    16
147
1.0
148
0.0
149
0.0
100
AcDbLayout
  1
Layout1
 70
     1
 71
     1
 10
0.0
 20
0.0
 11
12.0
 21
9.0
 12
0.0
 22
0.0
 32
0.0
 14
0.0
 24
0.0
 34
0.0
 15
0.0
 25
0.0
 35
0.0
146
0.0
 13
0.0
 23
0.0
 33
0.0
 16
1.0
 26
0.0
 36
0.0
 17
0.0
 27
1.0
 37
0.0
 76
     0
330
68
  0
LAYOUT
  5
73
102
{ACAD_XDICTIONARY
360
B4F
102
}
102
{ACAD_REACTORS
330
62
102
}
330
62
100
AcDbPlotSettings
  1

  2

  4

  6

 40
0.0
 41
0.0
 42
0.0
 43
0.0
 44
0.0
 45
0.0
 46
0.0
 47
0.0
 48
0.0
 49
0.0
140
0.0
141
0.0
142
1.0
143
1.0
 70
   688
 72
     0
 73
     0
 74
     5
  7

 75
    16
147
1.0
148
0.0
149
0.0
100
AcDbLayout
  1
Layout2
 70
     1
 71
     2
 10
0.0
 20
0.0
 11
12.0
 21
9.0
 12
0.0
 22
0.0
 32
0.0
 14
0.0
 24
0.0
 34
0.0
 15
0.0
 25
0.0
 35
0.0
146
0.0
 13
0.0
 23
0.0
 33
0.0
 16
1.0
 26
0.0
 36
0.0
 17
0.0
 27
1.0
 37
0.0
 76
     0
330
70
  0
LAYOUT
  5
6F
102
{ACAD_XDICTIONARY
360
B4D
102
}
102
{ACAD_REACTORS
330
62
102
}
330
62
100
AcDbPlotSettings
  1

  2

  4

  6

 40
0.0
 41
0.0
 42
0.0
 43
0.0
 44
0.0
 45
0.0
 46
0.0
 47
0.0
 48
0.0
 49
0.0
140
0.0
141
0.0
142
1.0
143
1.0
 70
  1712
 72
     0
 73
     0
 74
     0
  7

 75
     0
147
1.0
148
0.0
149
0.0
100
AcDbLayout
  1
Model
 70
     1
 71
     0
 10
0.0
 20
0.0
 11
12.0
 21
9.0
 12
0.0
 22
0.0
 32
0.0
 14
0.0
 24
0.0
 34
0.0
 15
0.0
 25
0.0
 35
0.0
146
0.0
 13
0.0
 23
0.0
 33
0.0
 16
1.0
 26
0.0
 36
0.0
 17
0.0
 27
1.0
 37
0.0
 76
     0
330
6C
  0
MATERIAL
  5
19
102
{ACAD_XDICTIONARY
360
1A
102
}
102
{ACAD_REACTORS
330
10
102
}
330
10
100
AcDbMaterial
  1
ByBlock
 72
     0
 43
0.0208333333333333
 43
0.0
 43
0.0
 43
0.0
 43
0.0
 43
0.0208333333333333
 43
0.0
 43
0.0
 43
0.0
 43
0.0
 43
1.0
 43
0.0
 43
0.0
 43
0.0
 43
0.0
 43
1.0
 77
     0
 47
0.0208333333333333
 47
0.0
 47
0.0
 47
0.0
 47
0.0
 47
0.0208333333333333
 47
0.0
 47
0.0
 47
0.0
 47
0.0
 47
1.0
 47
0.0
 47
0.0
 47
0.0
 47
0.0
 47
1.0
171
     0
 49
0.0208333333333333
 49
0.0
 49
0.0
 49
0.0
 49
0.0
 49
0.0208333333333333
 49
0.0
 49
0.0
 49
0.0
 49
0.0
 49
1.0
 49
0.0
 49
0.0
 49
0.0
 49
0.0
 49
1.0
175
     0
142
0.0208333333333333
142
0.0
142
0.0
142
0.0
142
0.0
142
0.0208333333333333
142
0.0
142
0.0
142
0.0
142
0.0
142
1.0
142
0.0
142
0.0
142
0.0
142
0.0
142
1.0
179
     0
144
0.0208333333333333
144
0.0
144
0.0
144
0.0
144
0.0
144
0.0208333333333333
144
0.0
144
0.0
144
0.0
144
0.0
144
1.0
144
0.0
144
0.0
144
0.0
144
0.0
144
1.0
147
0.0208333333333333
147
0.0
147
0.0
147
0.0
147
0.0
147
0.0208333333333333
147
0.0
147
0.0
147
0.0
147
0.0
147
1.0
147
0.0
147
0.0
147
0.0
147
0.0
147
1.0
  0
MATERIAL
  5
11
102
{ACAD_XDICTIONARY
360
12
102
}
102
{ACAD_REACTORS
330
10
102
}
330
10
100
AcDbMaterial
  1
ByLayer
 72
     0
 43
0.0208333333333333
 43
0.0
 43
0.0
 43
0.0
 43
0.0
 43
0.0208333333333333
 43
0.0
 43
0.0
 43
0.0
 43
0.0
 43
1.0
 43
0.0
 43
0.0
 43
0.0
 43
0.0
 43
1.0
 77
     0
 47
0.0208333333333333
 47
0.0
 47
0.0
 47
0.0
 47
0.0
 47
0.0208333333333333
 47
0.0
 47
0.0
 47
0.0
 47
0.0
 47
1.0
 47
0.0
 47
0.0
 47
0.0
 47
0.0
 47
1.0
171
     0
 49
0.0208333333333333
 49
0.0
 49
0.0
 49
0.0
 49
0.0
 49
0.0208333333333333
 49
0.0
 49
0.0
 49
0.0
 49
0.0
 49
1.0
 49
0.0
 49
0.0
 49
0.0
 49
0.0
 49
1.0
175
     0
142
0.0208333333333333
142
0.0
142
0.0
142
0.0
142
0.0
142
0.0208333333333333
142
0.0
142
0.0
142
0.0
142
0.0
142
1.0
142
0.0
142
0.0
142
0.0
142
0.0
142
1.0
179
     0
144
0.0208333333333333
144
0.0
144
0.0
144
0.0
144
0.0
144
0.0208333333333333
144
0.0
144
0.0
144
0.0
144
0.0
144
1.0
144
0.0
144
0.0
144
0.0
144
0.0
144
1.0
147
0.0208333333333333
147
0.0
147
0.0
147
0.0
147
0.0
147
0.0208333333333333
147
0.0
147
0.0
147
0.0
147
0.0
147
1.0
147
0.0
147
0.0
147
0.0
147
0.0
147
1.0
  0
MATERIAL
  5
21
102
{ACAD_XDICTIONARY
360
22
102
}
102
{ACAD_REACTORS
330
10
102
}
330
10
100
AcDbMaterial
  1
Global
 72
     0
 43
0.0208333333333333
 43
0.0
 43
0.0
 43
0.0
 43
0.0
 43
0.0208333333333333
 43
0.0
 43
0.0
 43
0.0
 43
0.0
 43
1.0
 43
0.0
 43
0.0
 43
0.0
 43
0.0
 43
1.0
 77
     0
 47
0.0208333333333333
 47
0.0
 47
0.0
 47
0.0
 47
0.0
 47
0.0208333333333333
 47
0.0
 47
0.0
 47
0.0
 47
0.0
 47
1.0
 47
0.0
 47
0.0
 47
0.0
 47
0.0
 47
1.0
171
     0
 49
0.0208333333333333
 49
0.0
 49
0.0
 49
0.0
 49
0.0
 49
0.0208333333333333
 49
0.0
 49
0.0
 49
0.0
 49
0.0
 49
1.0
 49
0.0
 49
0.0
 49
0.0
 49
0.0
 49
1.0
175
     0
142
0.0208333333333333
142
0.0
142
0.0
142
0.0
142
0.0
142
0.0208333333333333
142
0.0
142
0.0
142
0.0
142
0.0
142
1.0
142
0.0
142
0.0
142
0.0
142
0.0
142
1.0
179
     0
144
0.0208333333333333
144
0.0
144
0.0
144
0.0
144
0.0
144
0.0208333333333333
144
0.0
144
0.0
144
0.0
144
0.0
144
1.0
144
0.0
144
0.0
144
0.0
144
0.0
144
1.0
147
0.0208333333333333
147
0.0
147
0.0
147
0.0
147
0.0
147
0.0208333333333333
147
0.0
147
0.0
147
0.0
147
0.0
147
1.0
147
0.0
147
0.0
147
0.0
147
0.0
147
1.0
  0
MLEADERSTYLE
  5
67
102
{ACAD_XDICTIONARY
360
B10
102
}
102
{ACAD_REACTORS
330
66
102
}
330
66
100
AcDbMLeaderStyle
170
     2
171
     1
172
     0
 90
        2
 40
0.0
 41
0.0
173
     1
 91
-1056964608
340
5B
 92
       -2
290
     1
 42
0.09
291
     1
 43
0.36
  3
Standard
 44
0.18
300

342
55
174
     1
178
     6
175
     1
176
     0
 93
-1056964608
 45
0.18
292
     0
297
     0
 46
0.18
 94
-1056964608
 47
1.0
 49
1.0
140
1.0
293
     1
141
0.0
294
     1
177
     0
142
1.0
295
     0
296
     0
143
0.125
1001
ACAD_MLEADERVER
1070
     2
  0
MLINESTYLE
  5
60
102
{ACAD_REACTORS
330
5F
102
}
330
5F
100
AcDbMlineStyle
  2
STANDARD
 70
     0
  3

 62
   256
 51
90.0
 52
90.0
 71
     2
 49
0.5
 62
   256
  6
BYLAYER
 49
-0.5
 62
   256
  6
BYLAYER
  0
ACDBPLACEHOLDER
  5
F
102
{ACAD_REACTORS
330
E
102
}
330
E
  0
SCALE
  5
43
102
{ACAD_REACTORS
330
42
102
}
330
42
100
AcDbScale
 70
     0
300
1:1
140
1.0
141
1.0
290
     1
  0
SCALE
  5
44
102
{ACAD_REACTORS
330
42
102
}
330
42
100
AcDbScale
 70
     0
300
1/128" = 1'-0"
140
0.0078125
141
12.0
290
     0
  0
SCALE
  5
45
102
{ACAD_REACTORS
330
42
102
}
330
42
100
AcDbScale
 70
     0
300
1/64" = 1'-0"
140
0.015625
141
12.0
290
     0
  0
SCALE
  5
46
102
{ACAD_REACTORS
330
42
102
}
330
42
100
AcDbScale
 70
     0
300
1/32" = 1'-0"
140
0.03125
141
12.0
290
     0
  0
SCALE
  5
47
102
{ACAD_REACTORS
330
42
102
}
330
42
100
AcDbScale
 70
     0
300
1/16" = 1'-0"
140
0.0625
141
12.0
290
     0
  0
SCALE
  5
48
102
{ACAD_REACTORS
330
42
102
}
330
42
100
AcDbScale
 70
     0
300
3/32" = 1'-0"
140
0.09375
141
12.0
290
     0
  0
SCALE
  5
49
102
{ACAD_REACTORS
330
42
102
}
330
42
100
AcDbScale
 70
     0
300
1/8" = 1'-0"
140
0.125
141
12.0
290
     0
  0
SCALE
  5
4A
102
{ACAD_REACTORS
330
42
102
}
330
42
100
AcDbScale
 70
     0
300
3/16" = 1'-0"
140
0.1875
141
12.0
290
     0
  0
SCALE
  5
4B
102
{ACAD_REACTORS
330
42
102
}
330
42
100
AcDbScale
 70
     0
300
1/4" = 1'-0"
140
0.25
141
12.0
290
     0
  0
SCALE
  5
4C
102
{ACAD_REACTORS
330
42
102
}
330
42
100
AcDbScale
 70
     0
300
3/8" = 1'-0"
140
0.375
141
12.0
290
     0
  0
SCALE
  5
4D
102
{ACAD_REACTORS
330
42
102
}
330
42
100
AcDbScale
 70
     0
300
1/2" = 1'-0"
140
0.5
141
12.0
290
     0
  0
SCALE
  5
4E
102
{ACAD_REACTORS
330
42
102
}
330
42
100
AcDbScale
 70
     0
300
3/4" = 1'-0"
140
0.75
141
12.0
290
     0
  0
SCALE
  5
4F
102
{ACAD_REACTORS
330
42
102
}
330
42
100
AcDbScale
 70
     0
300
1" = 1'-0"
140
1.0
141
12.0
290
     0
  0
SCALE
  5
50
102
{ACAD_REACTORS
330
42
102
}
330
42
100
AcDbScale
 70
     0
300
1-1/2" = 1'-0"
140
1.5
141
12.0
290
     0
  0
SCALE
  5
51
102
{ACAD_REACTORS
330
42
102
}
330
42
100
AcDbScale
 70
     0
300
3" = 1'-0"
140
3.0
141
12.0
290
     0
  0
SCALE
  5
52
102
{ACAD_REACTORS
330
42
102
}
330
42
100
AcDbScale
 70
     0
300
6" = 1'-0"
140
6.0
141
12.0
290
     0
  0
SCALE
  5
53
102
{ACAD_REACTORS
330
42
102
}
330
42
100
AcDbScale
 70
     0
300
1'-0" = 1'-0"
140
12.0
141
12.0
290
     0
  0
TABLESTYLE
  5
65
102
{ACAD_XDICTIONARY
360
B0E
102
}
102
{ACAD_REACTORS
330
64
102
}
330
64
100
AcDbTableStyle
  3
Standard
 70
     0
 71
     0
 40
0.06
 41
0.06
280
     0
281
     0
  7
Standard
140
0.18
170
     2
 62
     0
 63
     7
283
     0
274
    -2
284
     1
 64
     0
275
    -2
285
     1
 65
     0
276
    -2
286
     1
 66
     0
277
    -2
287
     1
 67
     0
278
    -2
288
     1
 68
     0
279
    -2
289
     1
 69
     0
  7
Standard
140
0.25
170
     5
 62
     0
 63
     7
283
     0
274
    -2
284
     1
 64
     0
275
    -2
285
     1
 65
     0
276
    -2
286
     1
 66
     0
277
    -2
287
     1
 67
     0
278
    -2
288
     1
 68
     0
279
    -2
289
     1
 69
     0
  7
Standard
140
0.18
170
     5
 62
     0
 63
     7
283
     0
274
    -2
284
     1
 64
     0
275
    -2
285
     1
 65
     0
276
    -2
286
     1
 66
     0
277
    -2
287
     1
 67
     0
278
    -2
288
     1
 68
     0
279
    -2
289
     1
 69
     0
  0
VISUALSTYLE
  5
2F
102
{ACAD_XDICTIONARY
360
B23
102
}
102
{ACAD_REACTORS
330
29
102
}
330
29
100
AcDbVisualStyle
  2
2dWireframe
 70
     4
 71
     0
 72
     2
 73
     0
 90
        0
 40
-0.6
 41
-30.0
 62
     5
 63
     7
 74
     1
 91
        4
 64
     7
 65
   257
 75
     1
175
     1
 42
1.0
 92
        0
 66
   257
 43
1.0
 76
     1
 77
     6
 78
     2
 67
     7
 79
     5
170
     0
171
     0
290
     0
174
     0
 93
        1
 44
0.0
173
     0
291
     0
 45
0.0
1001
ACAD
1000
AcDbSavedByObjectVersion
1070
     0
  0
VISUALSTYLE
  5
2E
102
{ACAD_XDICTIONARY
360
B21
102
}
102
{ACAD_REACTORS
330
29
102
}
330
29
100
AcDbVisualStyle
  2
Basic
 70
     7
 71
     1
 72
     0
 73
     1
 90
        0
 40
-0.6
 41
-30.0
 62
     5
 63
     7
 74
     0
 91
        4
 64
     7
 65
   257
 75
     1
175
     1
 42
1.0
 92
        8
 66
     7
 43
1.0
 76
     1
 77
     6
 78
     2
 67
     7
 79
     5
170
     0
171
     0
290
     0
174
     0
 93
        1
 44
0.0
173
     0
291
     1
 45
0.0
1001
ACAD
1000
AcDbSavedByObjectVersion
1070
     0
  0
VISUALSTYLE
  5
35
102
{ACAD_XDICTIONARY
360
B2F
102
}
102
{ACAD_REACTORS
330
29
102
}
330
29
100
AcDbVisualStyle
  2
Brighten
 70
    12
 71
     2
 72
     2
 73
     0
 90
        0
 40
-0.6
 41
-30.0
 62
     5
 63
     7
 74
     1
 91
        4
 64
     7
 65
   257
 75
     1
175
     1
 42
1.0
 92
        8
 66
     7
 43
1.0
 76
     1
 77
     6
 78
     2
 67
     7
 79
     5
170
     0
171
     0
290
     0
174
     0
 93
        1
 44
50.0
173
     0
291
     1
 45
0.0
1001
ACAD
1000
AcDbSavedByObjectVersion
1070
     0
  0
VISUALSTYLE
  5
39
102
{ACAD_XDICTIONARY
360
B37
102
}
102
{ACAD_REACTORS
330
29
102
}
330
29
100
AcDbVisualStyle
  2
ColorChange
 70
    16
 71
     2
 72
     2
 73
     3
 90
        0
 40
-0.6
 41
-30.0
 62
     5
 63
     8
 74
     1
 91
        4
 64
     7
 65
   257
 75
     1
175
     1
 42
1.0
 92
        8
 66
     8
 43
1.0
 76
     1
 77
     6
 78
     2
 67
     7
 79
     5
170
     0
171
     0
290
     0
174
     0
 93
        1
 44
0.0
173
     0
291
     1
 45
0.0
1001
ACAD
1000
AcDbSavedByObjectVersion
1070
     0
  0
VISUALSTYLE
  5
32
102
{ACAD_XDICTIONARY
360
B29
102
}
102
{ACAD_REACTORS
330
29
102
}
330
29
100
AcDbVisualStyle
  2
Conceptual
 70
     9
 71
     3
 72
     2
 73
     0
 90
        0
 40
-0.6
 41
-30.0
 62
     5
 63
     7
 74
     2
 91
        2
 64
     7
 65
   257
 75
     1
175
     1
 42
179.0
 92
        8
 66
     7
 43
1.0
 76
     1
 77
     6
 78
     2
 67
     7
 79
     3
170
     0
171
     0
290
     0
174
     0
 93
        1
 44
0.0
173
     0
291
     0
 45
0.0
1001
ACAD
1000
AcDbSavedByObjectVersion
1070
     0
  0
VISUALSTYLE
  5
34
102
{ACAD_XDICTIONARY
360
B2D
102
}
102
{ACAD_REACTORS
330
29
102
}
330
29
100
AcDbVisualStyle
  2
Dim
 70
    11
 71
     2
 72
     2
 73
     0
 90
        0
 40
-0.6
 41
-30.0
 62
     5
 63
     7
 74
     1
 91
        4
 64
     7
 65
   257
 75
     1
175
     1
 42
1.0
 92
        8
 66
     7
 43
1.0
 76
     1
 77
     6
 78
     2
 67
     7
 79
     5
170
     0
171
     0
290
     0
174
     0
 93
        1
 44
-50.0
173
     0
291
     1
 45
0.0
1001
ACAD
1000
AcDbSavedByObjectVersion
1070
     0
  0
VISUALSTYLE
  5
41
102
{ACAD_XDICTIONARY
360
B47
102
}
102
{ACAD_REACTORS
330
29
102
}
330
29
100
AcDbVisualStyle
  2
EdgeColorOff
 70
    22
 71
     2
 72
     2
 73
     0
 90
        0
 40
-0.6
 41
-30.0
 62
     5
 63
     7
 74
     1
 91
        4
 64
     7
 65
   257
 75
     1
175
     1
 42
1.0
 92
        8
 66
     7
 43
1.0
 76
     1
 77
     6
 78
     2
 67
     7
 79
     5
170
     0
171
     0
290
     0
174
     0
 93
        1
 44
0.0
173
     0
291
     1
 45
0.0
1001
ACAD
1000
AcDbSavedByObjectVersion
1070
     0
  0
VISUALSTYLE
  5
38
102
{ACAD_XDICTIONARY
360
B35
102
}
102
{ACAD_REACTORS
330
29
102
}
330
29
100
AcDbVisualStyle
  2
Facepattern
 70
    15
 71
     2
 72
     2
 73
     0
 90
        0
 40
-0.6
 41
-30.0
 62
     5
 63
     7
 74
     1
 91
        4
 64
     7
 65
   257
 75
     1
175
     1
 42
1.0
 92
        8
 66
     7
 43
1.0
 76
     1
 77
     6
 78
     2
 67
     7
 79
     5
170
     0
171
     0
290
     0
174
     0
 93
        1
 44
0.0
173
     0
291
     1
 45
0.0
1001
ACAD
1000
AcDbSavedByObjectVersion
1070
     0
  0
VISUALSTYLE
  5
2A
102
{ACAD_XDICTIONARY
360
B19
102
}
102
{ACAD_REACTORS
330
29
102
}
330
29
100
AcDbVisualStyle
  2
Flat
 70
     0
 71
     2
 72
     1
 73
     1
 90
        2
 40
-0.6
 41
30.0
 62
     5
 63
     7
 74
     0
 91
        0
 64
     7
 65
   257
 75
     1
175
     1
 42
1.0
 92
        8
 66
     7
 43
1.0
 76
     1
 77
     6
 78
     2
 67
     7
 79
     5
170
     0
171
     0
290
     0
174
     0
 93
       13
 44
0.0
173
     0
291
     1
 45
0.0
1001
ACAD
1000
AcDbSavedByObjectVersion
1070
     0
  0
VISUALSTYLE
  5
2B
102
{ACAD_XDICTIONARY
360
B1B
102
}
102
{ACAD_REACTORS
330
29
102
}
330
29
100
AcDbVisualStyle
  2
FlatWithEdges
 70
     1
 71
     2
 72
     1
 73
     1
 90
        2
 40
-0.6
 41
30.0
 62
     5
 63
     7
 74
     1
 91
        0
 64
     7
 65
   257
 75
     1
175
     1
 42
1.0
 92
        0
 66
   257
 43
1.0
 76
     1
 77
     6
 78
     2
 67
     7
 79
     5
170
     0
171
     0
290
     0
174
     0
 93
       13
 44
0.0
173
     0
291
     1
 45
0.0
1001
ACAD
1000
AcDbSavedByObjectVersion
1070
     0
  0
VISUALSTYLE
  5
2C
102
{ACAD_XDICTIONARY
360
B1D
102
}
102
{ACAD_REACTORS
330
29
102
}
330
29
100
AcDbVisualStyle
  2
Gouraud
 70
     2
 71
     2
 72
     2
 73
     1
 90
        2
 40
-0.6
 41
30.0
 62
     5
 63
     7
 74
     0
 91
        0
 64
     7
 65
   257
 75
     1
175
     1
 42
1.0
 92
        0
 66
     7
 43
1.0
 76
     1
 77
     6
 78
     2
 67
     7
 79
     5
170
     0
171
     0
290
     0
174
     0
 93
       13
 44
0.0
173
     0
291
     1
 45
0.0
1001
ACAD
1000
AcDbSavedByObjectVersion
1070
     0
  0
VISUALSTYLE
  5
2D
102
{ACAD_XDICTIONARY
360
B1F
102
}
102
{ACAD_REACTORS
330
29
102
}
330
29
100
AcDbVisualStyle
  2
GouraudWithEdges
 70
     3
 71
     2
 72
     2
 73
     1
 90
        2
 40
-0.6
 41
30.0
 62
     5
 63
     7
 74
     1
 91
        0
 64
     7
 65
   257
 75
     1
175
     1
 42
1.0
 92
        0
 66
   257
 43
1.0
 76
     1
 77
     6
 78
     2
 67
     7
 79
     5
170
     0
171
     0
290
     0
174
     0
 93
       13
 44
0.0
173
     0
291
     1
 45
0.0
1001
ACAD
1000
AcDbSavedByObjectVersion
1070
     0
  0
VISUALSTYLE
  5
31
102
{ACAD_XDICTIONARY
360
B27
102
}
102
{ACAD_REACTORS
330
29
102
}
330
29
100
AcDbVisualStyle
  2
Hidden
 70
     6
 71
     1
 72
     2
 73
     2
 90
        0
 40
-0.6
 41
-30.0
 62
     5
 63
     7
 74
     2
 91
        2
 64
     7
 65
   257
 75
     2
175
     1
 42
40.0
 92
        0
 66
   257
 43
1.0
 76
     1
 77
     6
 78
     2
 67
     7
 79
     3
170
     0
171
     0
290
     0
174
     0
 93
        1
 44
0.0
173
     0
291
     0
 45
0.0
1001
ACAD
1000
AcDbSavedByObjectVersion
1070
     0
  0
VISUALSTYLE
  5
3F
102
{ACAD_XDICTIONARY
360
B43
102
}
102
{ACAD_REACTORS
330
29
102
}
330
29
100
AcDbVisualStyle
  2
JitterOff
 70
    20
 71
     2
 72
     2
 73
     0
 90
        0
 40
-0.6
 41
-30.0
 62
     5
 63
     7
 74
     1
 91
        4
 64
     7
 65
   257
 75
     1
175
     1
 42
1.0
 92
       10
 66
     7
 43
1.0
 76
     1
 77
     6
 78
     2
 67
     7
 79
     5
170
     0
171
     0
290
     0
174
     0
 93
        1
 44
0.0
173
     0
291
     1
 45
0.0
1001
ACAD
1000
AcDbSavedByObjectVersion
1070
     0
  0
VISUALSTYLE
  5
37
102
{ACAD_XDICTIONARY
360
B33
102
}
102
{ACAD_REACTORS
330
29
102
}
330
29
100
AcDbVisualStyle
  2
Linepattern
 70
    14
 71
     2
 72
     2
 73
     0
 90
        0
 40
-0.6
 41
-30.0
 62
     5
 63
     7
 74
     1
 91
        4
 64
     7
 65
   257
 75
     7
175
     7
 42
1.0
 92
        8
 66
     7
 43
1.0
 76
     1
 77
     6
 78
     2
 67
     7
 79
     5
170
     0
171
     0
290
     0
174
     0
 93
        1
 44
0.0
173
     0
291
     1
 45
0.0
1001
ACAD
1000
AcDbSavedByObjectVersion
1070
     0
  0
VISUALSTYLE
  5
40
102
{ACAD_XDICTIONARY
360
B45
102
}
102
{ACAD_REACTORS
330
29
102
}
330
29
100
AcDbVisualStyle
  2
OverhangOff
 70
    21
 71
     2
 72
     2
 73
     0
 90
        0
 40
-0.6
 41
-30.0
 62
     5
 63
     7
 74
     1
 91
        4
 64
     7
 65
   257
 75
     1
175
     1
 42
1.0
 92
        9
 66
     7
 43
1.0
 76
     1
 77
     6
 78
     2
 67
     7
 79
     5
170
     0
171
     0
290
     0
174
     0
 93
        1
 44
0.0
173
     0
291
     1
 45
0.0
1001
ACAD
1000
AcDbSavedByObjectVersion
1070
     0
  0
VISUALSTYLE
  5
33
102
{ACAD_XDICTIONARY
360
B2B
102
}
102
{ACAD_REACTORS
330
29
102
}
330
29
100
AcDbVisualStyle
  2
Realistic
 70
     8
 71
     2
 72
     3
 73
     0
 90
        2
 40
-0.6
 41
30.0
 62
     5
 63
     7
 74
     0
 91
        0
 64
     7
 65
   257
 75
     1
175
     1
 42
1.0
 92
        8
 66
   257
 43
1.0
 76
     1
 77
     6
 78
     2
 67
     7
 79
     3
170
     0
171
     0
290
     0
174
     0
 93
       13
 44
0.0
173
     0
291
     0
 45
0.0
1001
ACAD
1000
AcDbSavedByObjectVersion
1070
     0
  0
VISUALSTYLE
  5
3E
102
{ACAD_XDICTIONARY
360
B41
102
}
102
{ACAD_REACTORS
330
29
102
}
330
29
100
AcDbVisualStyle
  2
Shaded
 70
    27
 71
     2
 72
     2
 73
     1
 90
        2
 40
-0.6
 41
30.0
 62
     5
 63
     7
 74
     0
 91
        4
 64
     7
 65
   257
 75
     1
175
     1
 42
1.0
 92
        8
 66
   257
 43
1.0
 76
     1
 77
     6
 78
     2
 67
     8
 79
     3
170
     0
171
     0
290
     0
174
     0
 93
        5
 44
0.0
173
     0
291
     0
 45
0.0
1001
ACAD
1000
AcDbSavedByObjectVersion
1070
     0
  0
VISUALSTYLE
  5
3D
102
{ACAD_XDICTIONARY
360
B3F
102
}
102
{ACAD_REACTORS
330
29
102
}
330
29
100
AcDbVisualStyle
  2
Shaded with edges
 70
    26
 71
     2
 72
     2
 73
     1
 90
        2
 40
-0.6
 41
30.0
 62
     5
 63
     7
 74
     1
 91
       10
 64
     7
 65
   257
 75
     2
175
     1
 42
1.0
 92
        8
 66
   257
 43
1.0
 76
     1
 77
     6
 78
     2
 67
     7
 79
     3
170
     0
171
     0
290
     0
174
     0
 93
        5
 44
0.0
173
     0
291
     0
 45
0.0
1001
ACAD
1000
AcDbSavedByObjectVersion
1070
     0
  0
VISUALSTYLE
  5
3A
102
{ACAD_XDICTIONARY
360
B39
102
}
102
{ACAD_REACTORS
330
29
102
}
330
29
100
AcDbVisualStyle
  2
Shades of Gray
 70
    23
 71
     2
 72
     2
 73
     3
 90
        0
 40
-0.6
 41
-30.0
 62
     5
 63
     7
 74
     2
 91
        2
 64
     7
 65
     7
 75
     1
175
     1
 42
40.0
 92
        8
 66
     7
 43
1.0
 76
     1
 77
     6
 78
     2
 67
     7
 79
     3
170
     0
171
     0
290
     0
174
     0
 93
        1
 44
0.0
173
     0
291
     0
 45
0.0
1001
ACAD
1000
AcDbSavedByObjectVersion
1070
     0
  0
VISUALSTYLE
  5
3B
102
{ACAD_XDICTIONARY
360
B3B
102
}
102
{ACAD_REACTORS
330
29
102
}
330
29
100
AcDbVisualStyle
  2
Sketchy
 70
    24
 71
     1
 72
     2
 73
     2
 90
        0
 40
-0.6
 41
-30.0
 62
     5
 63
     7
 74
     2
 91
        2
 64
     7
 65
     7
 75
     1
175
     1
 42
40.0
 92
       11
 66
     7
 43
1.0
 76
     1
 77
     6
 78
     2
 67
     7
 79
     6
170
     0
171
     0
290
     0
174
     0
 93
        1
 44
0.0
173
     0
291
     0
 45
0.0
1001
ACAD
1000
AcDbSavedByObjectVersion
1070
     0
  0
VISUALSTYLE
  5
36
102
{ACAD_XDICTIONARY
360
B31
102
}
102
{ACAD_REACTORS
330
29
102
}
330
29
100
AcDbVisualStyle
  2
Thicken
 70
    13
 71
     2
 72
     2
 73
     0
 90
        0
 40
-0.6
 41
-30.0
 62
     5
 63
     7
 74
     1
 91
        4
 64
     7
 65
   257
 75
     1
175
     1
 42
1.0
 92
       12
 66
     7
 43
1.0
 76
     1
 77
     6
 78
     2
 67
     7
 79
     5
170
     0
171
     0
290
     0
174
     0
 93
        1
 44
0.0
173
     0
291
     1
 45
0.0
1001
ACAD
1000
AcDbSavedByObjectVersion
1070
     0
  0
VISUALSTYLE
  5
30
102
{ACAD_XDICTIONARY
360
B25
102
}
102
{ACAD_REACTORS
330
29
102
}
330
29
100
AcDbVisualStyle
  2
Wireframe
 70
     5
 71
     0
 72
     2
 73
     0
 90
        0
 40
-0.6
 41
-30.0
 62
     5
 63
     7
 74
     1
 91
        4
 64
     7
 65
   257
 75
     1
175
     1
 42
1.0
 92
        0
 66
   257
 43
1.0
 76
     1
 77
     6
 78
     2
 67
     7
 79
     3
170
     0
171
     0
290
     0
174
     0
 93
        1
 44
0.0
173
     0
291
     0
 45
0.0
1001
ACAD
1000
AcDbSavedByObjectVersion
1070
     0
  0
VISUALSTYLE
  5
3C
102
{ACAD_XDICTIONARY
360
B3D
102
}
102
{ACAD_REACTORS
330
29
102
}
330
29
100
AcDbVisualStyle
  2
X-Ray
 70
    25
 71
     2
 72
     2
 73
     1
 90
        1
 40
0.5
 41
-30.0
 62
     5
 63
     7
 74
     1
 91
        0
 64
     7
 65
   257
 75
     1
175
     1
 42
1.0
 92
        8
 66
     7
 43
1.0
 76
     1
 77
     6
 78
     2
 67
     7
 79
     3
170
     0
171
     0
290
     0
174
     0
 93
       13
 44
0.0
173
     0
291
     0
 45
0.0
1001
ACAD
1000
AcDbSavedByObjectVersion
1070
     0
  0
DICTIONARYVAR
  5
79
102
{ACAD_REACTORS
330
76
102
}
330
76
100
DictionaryVariables
280
     0
  1
1:1
  0
DICTIONARYVAR
  5
78
102
{ACAD_REACTORS
330
76
102
}
330
76
100
DictionaryVariables
280
     0
  1
STANDARD
  0
DICTIONARYVAR
  5
77
102
{ACAD_REACTORS
330
76
102
}
330
76
100
DictionaryVariables
280
     0
  1
STANDARD
  0
DICTIONARYVAR
  5
B0C
102
{ACAD_REACTORS
330
76
102
}
330
76
100
DictionaryVariables
280
     0
  1
1
  0
DICTIONARYVAR
  5
B0B
102
{ACAD_REACTORS
330
76
102
}
330
76
100
DictionaryVariables
280
     0
  1
1
  0
DICTIONARYVAR
  5
B0A
102
{ACAD_REACTORS
330
76
102
}
330
76
100
DictionaryVariables
280
     0
  1
0
  0
DICTIONARYVAR
  5
B07
102
{ACAD_REACTORS
330
76
102
}
330
76
100
DictionaryVariables
280
     0
  1
0
  0
DICTIONARYVAR
  5
B08
102
{ACAD_REACTORS
330
76
102
}
330
76
100
DictionaryVariables
280
     0
  1
0
  0
DICTIONARYVAR
  5
B06
102
{ACAD_REACTORS
330
76
102
}
330
76
100
DictionaryVariables
280
     0
  1
2
  0
DICTIONARYVAR
  5
B05
102
{ACAD_REACTORS
330
76
102
}
330
76
100
DictionaryVariables
280
     0
  1
1
  0
DICTIONARYVAR
  5
B09
102
{ACAD_REACTORS
330
76
102
}
330
76
100
DictionaryVariables
280
     0
  1
127
  0
DICTIONARYVAR
  5
B0D
102
{ACAD_REACTORS
330
76
102
}
330
76
100
DictionaryVariables
280
     0
  1
2
  0
DICTIONARY
  5
B4B
330
6B
100
AcDbDictionary
280
     1
281
     1
  3
ACAD_XREC_ROUNDTRIP
360
B4C
  0
DICTIONARY
  5
B4F
330
73
100
AcDbDictionary
280
     1
281
     1
  3
ACAD_XREC_ROUNDTRIP
360
B50
  0
DICTIONARY
  5
B4D
330
6F
100
AcDbDictionary
280
     1
281
     1
  3
ACAD_XREC_ROUNDTRIP
360
B4E
  0
DICTIONARY
  5
1A
330
19
100
AcDbDictionary
280
     1
281
     1
  3
ACAD_XREC_ROUNDTRIP
360
B17
  3
BUMPTILE
360
1C
  3
DIFFUSETILE
360
1B
  3
OPACITYTILE
360
1F
  3
REFLECTIONTILE
360
1E
  3
REFRACTIONTILE
360
20
  3
SPECULARTILE
360
1D
  0
DICTIONARY
  5
12
330
11
100
AcDbDictionary
280
     1
281
     1
  3
ACAD_XREC_ROUNDTRIP
360
B16
  3
BUMPTILE
360
14
  3
DIFFUSETILE
360
13
  3
FBXASSET
360
F5
  3
OPACITYTILE
360
17
  3
REFLECTIONTILE
360
16
  3
REFRACTIONTILE
360
18
  3
SPECULARTILE
360
15
  0
DICTIONARY
  5
22
330
21
100
AcDbDictionary
280
     1
281
     1
  3
ACAD_XREC_ROUNDTRIP
360
B18
  3
BUMPTILE
360
24
  3
DIFFUSETILE
360
23
  3
FBXASSET
360
BA
  3
OPACITYTILE
360
27
  3
REFLECTIONTILE
360
26
  3
REFRACTIONTILE
360
28
  3
SPECULARTILE
360
25
  0
DICTIONARY
  5
B10
330
67
100
AcDbDictionary
280
     1
281
     1
  3
ACAD_XREC_ROUNDTRIP
360
B11
  0
DICTIONARY
  5
B0E
330
65
100
AcDbDictionary
280
     1
281
     1
  3
ACAD_ROUNDTRIP_2008_TABLESTYLE_CELLSTYLEMAP
360
B0F
  3
ACAD_XREC_ROUNDTRIP
360
B49
  0
DICTIONARY
  5
B23
330
2F
100
AcDbDictionary
280
     1
281
     1
  3
ACAD_XREC_ROUNDTRIP
360
B24
  0
DICTIONARY
  5
B21
330
2E
100
AcDbDictionary
280
     1
281
     1
  3
ACAD_XREC_ROUNDTRIP
360
B22
  0
DICTIONARY
  5
B2F
330
35
100
AcDbDictionary
280
     1
281
     1
  3
ACAD_XREC_ROUNDTRIP
360
B30
  0
DICTIONARY
  5
B37
330
39
100
AcDbDictionary
280
     1
281
     1
  3
ACAD_XREC_ROUNDTRIP
360
B38
  0
DICTIONARY
  5
B29
330
32
100
AcDbDictionary
280
     1
281
     1
  3
ACAD_XREC_ROUNDTRIP
360
B2A
  0
DICTIONARY
  5
B2D
330
34
100
AcDbDictionary
280
     1
281
     1
  3
ACAD_XREC_ROUNDTRIP
360
B2E
  0
DICTIONARY
  5
B47
330
41
100
AcDbDictionary
280
     1
281
     1
  3
ACAD_XREC_ROUNDTRIP
360
B48
  0
DICTIONARY
  5
B35
330
38
100
AcDbDictionary
280
     1
281
     1
  3
ACAD_XREC_ROUNDTRIP
360
B36
  0
DICTIONARY
  5
B19
330
2A
100
AcDbDictionary
280
     1
281
     1
  3
ACAD_XREC_ROUNDTRIP
360
B1A
  0
DICTIONARY
  5
B1B
330
2B
100
AcDbDictionary
280
     1
281
     1
  3
ACAD_XREC_ROUNDTRIP
360
B1C
  0
DICTIONARY
  5
B1D
330
2C
100
AcDbDictionary
280
     1
281
     1
  3
ACAD_XREC_ROUNDTRIP
360
B1E
  0
DICTIONARY
  5
B1F
330
2D
100
AcDbDictionary
280
     1
281
     1
  3
ACAD_XREC_ROUNDTRIP
360
B20
  0
DICTIONARY
  5
B27
330
31
100
AcDbDictionary
280
     1
281
     1
  3
ACAD_XREC_ROUNDTRIP
360
B28
  0
DICTIONARY
  5
B43
330
3F
100
AcDbDictionary
280
     1
281
     1
  3
ACAD_XREC_ROUNDTRIP
360
B44
  0
DICTIONARY
  5
B33
330
37
100
AcDbDictionary
280
     1
281
     1
  3
ACAD_XREC_ROUNDTRIP
360
B34
  0
DICTIONARY
  5
B45
330
40
100
AcDbDictionary
280
     1
281
     1
  3
ACAD_XREC_ROUNDTRIP
360
B46
  0
DICTIONARY
  5
B2B
330
33
100
AcDbDictionary
280
     1
281
     1
  3
ACAD_XREC_ROUNDTRIP
360
B2C
  0
DICTIONARY
  5
B41
330
3E
100
AcDbDictionary
280
     1
281
     1
  3
ACAD_XREC_ROUNDTRIP
360
B42
  0
DICTIONARY
  5
B3F
330
3D
100
AcDbDictionary
280
     1
281
     1
  3
ACAD_XREC_ROUNDTRIP
360
B40
  0
DICTIONARY
  5
B39
330
3A
100
AcDbDictionary
280
     1
281
     1
  3
ACAD_XREC_ROUNDTRIP
360
B3A
  0
DICTIONARY
  5
B3B
330
3B
100
AcDbDictionary
280
     1
281
     1
  3
ACAD_XREC_ROUNDTRIP
360
B3C
  0
DICTIONARY
  5
B31
330
36
100
AcDbDictionary
280
     1
281
     1
  3
ACAD_XREC_ROUNDTRIP
360
B32
  0
DICTIONARY
  5
B25
330
30
100
AcDbDictionary
280
     1
281
     1
  3
ACAD_XREC_ROUNDTRIP
360
B26
  0
DICTIONARY
  5
B3D
330
3C
100
AcDbDictionary
280
     1
281
     1
  3
ACAD_XREC_ROUNDTRIP
360
B3E
  0
XRECORD
  5
B4C
102
{ACAD_REACTORS
330
B4B
102
}
330
B4B
100
AcDbXrecord
280
     1
102
SHADEPLOT
 70
     0
102
SHADEPLOTRESLEVEL
 70
     2
102
SHADEPLOTCUSTOMDPI
 70
   300
  0
XRECORD
  5
B50
102
{ACAD_REACTORS
330
B4F
102
}
330
B4F
100
AcDbXrecord
280
     1
102
SHADEPLOT
 70
     0
102
SHADEPLOTRESLEVEL
 70
     2
102
SHADEPLOTCUSTOMDPI
 70
   300
  0
XRECORD
  5
B4E
102
{ACAD_REACTORS
330
B4D
102
}
330
B4D
100
AcDbXrecord
280
     1
102
SHADEPLOT
 70
     0
102
SHADEPLOTRESLEVEL
 70
     2
102
SHADEPLOTCUSTOMDPI
 70
   300
  0
XRECORD
  5
B17
102
{ACAD_REACTORS
330
1A
102
}
330
1A
100
AcDbXrecord
280
     1
102
MATERIAL
148
0.0
149
0.0
149
0.0
 93
        0
 94
      127
282
     0
 72
     0
 77
     0
171
     0
175
     0
179
     0
273
     0
  0
XRECORD
  5
1C
102
{ACAD_REACTORS
330
1A
102
}
330
1A
100
AcDbXrecord
280
     1
270
     1
271
     1
  0
XRECORD
  5
1B
102
{ACAD_REACTORS
330
1A
102
}
330
1A
100
AcDbXrecord
280
     1
270
     1
271
     1
  0
XRECORD
  5
1F
102
{ACAD_REACTORS
330
1A
102
}
330
1A
100
AcDbXrecord
280
     1
270
     1
271
     1
  0
XRECORD
  5
1E
102
{ACAD_REACTORS
330
1A
102
}
330
1A
100
AcDbXrecord
280
     1
270
     1
271
     1
  0
XRECORD
  5
20
102
{ACAD_REACTORS
330
1A
102
}
330
1A
100
AcDbXrecord
280
     1
270
     1
271
     1
  0
XRECORD
  5
1D
102
{ACAD_REACTORS
330
1A
102
}
330
1A
100
AcDbXrecord
280
     1
270
     1
271
     1
  0
XRECORD
  5
B16
102
{ACAD_REACTORS
330
12
102
}
330
12
100
AcDbXrecord
280
     1
102
MATERIAL
148
0.0
149
0.0
149
0.0
 93
        0
 94
      127
282
     0
 72
     0
 77
     0
171
     0
175
     0
179
     0
273
     0
  0
XRECORD
  5
14
102
{ACAD_REACTORS
330
12
102
}
330
12
100
AcDbXrecord
280
     1
270
     1
271
     1
  0
XRECORD
  5
13
102
{ACAD_REACTORS
330
12
102
}
330
12
100
AcDbXrecord
280
     1
270
     1
271
     1
  0
XRECORD
  5
F5
102
{ACAD_REACTORS
330
12
102
}
330
12
100
AcDbXrecord
280
     1
 70
     1
 90
1959938040
 71
     1
  1
19867A95-DDB0-4E84-9B3E-697A9EA098B1
311
504B03040A0000080000E94C5C403DEE336E79000000790000001B0000006175746F6465736B2D64657369676E2D7061636B6167652E786D6C3C3F786D6C2076657273696F6E3D22312E302220656E636F64696E673D227574662D3822203F3E3C666F726D6174733E3C666F726D61743E687474703A2F2F736368656D612E
311
6175746F6465736B2E636F6D2F64657369676E2D7061636B6167652F323030393C2F666F726D61743E3C2F666F726D6174733E504B0304140006080800E94C5C40D486FD9CA0000000F4000000130000005B436F6E74656E745F54797065735D2E786D6C7D8EC10E82300C865F65E91D8A1E8C310C0EEA1BF002731658846E
311
D98AC1B77784ABF1D8FE5FBFBF75BBCE937A534CCEB38643598122B6FEE978D0B0485F9C41B54DDD7D022595594E1A469170414C76A4D9A4D207E29CF43ECE46F218070CC6BECC4078ACAA135ACF422C856C0E68EA1BF5669944DDD7BCDE7B1F8E415D77AECB980613C2E4AC91FC167A2B244592486606FC29C8FD7F045B9A
311
EF7053A7E60B504B0304140006080800E94C5C408A9471F4EA0000007C01000008000000636F72652E786D6C8D90416EC3201045AF82668F8D214D8D85899CA63D412F80803828315806AA1EBF3871A476D7D58CFEFC3733FAE2F03DDDD0975DA20BBE87A62280ACD7C1383FF690D319B7800E522C21A45F36405E4DB68755
311
0629C625E4799374F0C9FA54541F8CDD4415A34D80F4AD343D447DB193AA544EC511AFD5ACF4558DB66A9E5D817376063D8E3853F6B9B3B30B484A8776381286DB0FCEF08EB2573CD0FD0933BE7F7B69DF77FC341C45BDC25224373DEFEBC5AA644DE1494331A198B69F84778C770DC764DF1122EAD5FE07CAB3F927949D4F
311
8C6EEF3EB008B2298FDC0752D46B16A5DC832A75CD4DFE00504B0304140006080800E94C5C4055019EA25F0000007C00000007000000636E782E786D6C4DCB3B0E80201045D1AD90E915ED2CF8AC45050C11660C8261F98AB1B07AC9C97D42D718D865D3E909258CFD00CCE24AC6E326A164D74DC0B4128928FF326038472B
311
A13128B1252AC747C6BAB984FC68F0B87FE8960A5C09FE86CFB69FBA01504B0304140006080800E94C5C4077F1D0D866010000020300000C0000006662782F636F72652E786D6C8D52D18E823010FC95A6EFA5A5781E9852A3E7DD17DC0FD4523922B4A6B4C4CFBF45309E17630C49696676766707C4FADCB56830BE6F9C2D
311
719A308C8CD5AE6A6C5DE2180E24C7682D85772EFC29C3C8AACE947884B114B577F13443DAD9606C00D4BACACCA0EA7B1330D22D5C4ADCEB1FD3A944C50015FD3139297D54B549D20468A893A20F1E0CA069C8786279D89F059D7029626CAA996D2A98D61C1AE3B1E47C936FB62C23F957919105CFDEC9862F77242B961F6F
311
F9E7A2D86DB6828E622942D35DDD696F543015E859CA09E384E7DFAC5865C52A2D085BAE1813742CBF13C553F5A2283636647CB63BC97A2C53307221FE6D0B1105D4AB01FC5029E81822BC2E09DF070D8140C841EDDBEB1E478006A383F30B602A176FD4A0DA68602A439747D08985CE9706B0D9C33EFC499FE73DE0032A5B
311
833515E0BA8F619C2EA6A9731427E3C910CEC83ADFA9F6666EB2783B6F831ECAB56B9D7F454DE755E91C261DFF5EF90B504B0304140006080800E94C5C402459BB587E0000009D0000000B0000006662782F636E782E786D6C4DCCD10AC2201886E15B91FFDC96CDB2813AFE59DDC7686E484EC334BAFCB6D841471F3C7CBC
311
B2FDCC9EBC6D7AB91814B0DD1E880DF738B830292879A46720AD9629C6FC770312FAD92A5819B49C522CCF8D063BF6C5E745BD0B8F0D8D10578EA786D617D1518EBCA668102932C14473EB0EE6C8A0D2B2FA95965DC3FA0B504B0304140006080800E94C5C4075536B9A2D01000014020000310000006662782F4337374534
311
4136392D334437422D344134332D414341412D4131373137394642324335312F636F72652E786D6C8D514B6EC32014BC8AC52A5D600376EC38C2444EDA9EA017A0405294182C3E558E5FA81DA9DD65C343F366E60D3C7AB84FB7E25B39AFAD19002E11289411566A7319400C67B803C58151676DF8430385E1931A408601A3
311
1767E3BC42C29AA04C48A8B152AD20F75E0550885BBA0CC08B2F35F192C79018FE5ACE5C5CF94595B84CEDC463D407970214CB907C0276EABAB7666C7B58BF7647D88C4D0DC7D338C21177B8EBDF8FE4B4C5B45A848CC6A8E52AD732C5D167ADDCB32659CC68D0D323BE708A072501230813880824BB0FD4EFEB7E8F7B88DA
311
3D42B4CAF47FA238CB2745519B509335EE22F380A5D72C0D46A58D9FB74718759FAD0B459EB7F14ABC00864A446A4CD0AEA3D5424D1F903CDB66F5F4C1BAF4C19BEB6762E32DADB271DB305AE51DA5F2BBC054F33ED90F504B0304140006080800E94C5C4090BFD1BC4C01000033030000300000006662782F433737453441
311
36392D334437422D344134332D414341412D4131373137394642324335312F636E782E786D6CD593CD6E022114855F85B09F5F8D51C360D2459FA08B6E19B82ACAC0849FA6BE7D2F8AD68D8B2EBB2193730FE7DC7C61D8EE7B32E40B7CD0CE0EB4AB5B4AC04AA7B43D0C34C57DB5A664C799772E3ED928B162828166997276
311
F02ECD4552B017C944548DB6E7227A082E790901E57C93182785C100B0554211A6119402451E46FCDA83C755501C2F241E81BCBF7D12379E40C6C09A9CC259933B38CB67697A3251228D0861A0411E6112B548D12908E75A8928EAAEBE77BDD8E93789E40BF7CAE435C9E503CD27E565A31A39B206879C85E8915E31C5CB0C
311
948B79365A8A88909BABF1E6E12C691B57CBE2D508DEA3BB5B2D964B0CBBCE388B7A82E2901E44044579DF767DD5F655BFFE6837DBC566DB6DAA76B56D5BD6643B67A373A65CC218F06E26D2D9083652DEB1268F5FE12B3EA2B447D6CE5FFE00120194D61B9D47C67FE6D35CDF37E2F2F817F01F504B0304140006080800E9
311
4C5C40A81CF5F8990500007B100000340000006662782F43373745344136392D334437422D344134332D414341412D4131373137394642324335312F6F626A656374732E786D6CAD575B6F9C3814FE2B887D06E69634B322547349AAD16EDAAAA356FB106964C0106FCC45B64927FBEBF7331806A633E9ECAA2F808D7D7CCE
311
77BE73B1FF7E9F71EB850AC98AFCD61EBB23DBA27954C42C4F6FED4A25CE8D6DBD0F7C5114AAB7CCB67292D15B5B4FDB819F8AA22ACD544C13527175347BBFFCCB9211CDA96D459C48796BCBE88966C425952A622A9FDD9828E2A6C9DE1DBBCDC2A1D85490F2E948684904CD1534C57C0E2956A3D478381CD95EE07BFA7FE0
311
EBA759353DBFCAABED199ECF72A9481EFD70D89198E978B6BE9B5CCD9DABD96CEACCAE27636779BF5C3BE377D3D1EA7AB59A2FEEE638582A0149461341133BF8006C048B7CAFF915F815CBD574629618077982BE30ED293B985863DF6BD674D619234FA91F15794EA31A2BA051DB6744C7B4A4790C9F332AA1590FA1D17038
311
D638F67E4FF5D81CD99FBE0C81FE8E9EA056F7F6DDD7B408FF8609F21206094935031B2C8DA10D57470784C3A2E0E61F93564614158C708BB35010F16A0758AA9704FE408C66B2D0D1A02DB00378A1F93DA40BC2E8E73C3FA5655271AE696C077514EC102B54C95A33F60F1507EDFBC84027F84AB3E1C618A45E4B6A07F386
311
2237476C6A80B4124E52B81C66EA9DD3C991A12B1DA79BB51DFC711FEEB73A764F1F5E8AA2A44269FA805AADE3DAB746C9E834BEC8737A837DA4CA01942F40FE2342FDA00AFC26D87EB69F99539420B94C0A91C137D6C87246788CAC71FDD4DFBD2FDFEB360FBD770E4F385B43F50BF01CDAD0F7650FCEC07F01E10B3135A6
311
6D23C291361E580E8034492C5E600A793809F776B041964356C62EC283314C86BA2FF8F43D230689A23EA9F7CE81E5515ABC204103B69A9150A321BF51F0E0A71FD2597DB059760EDEAB5F42D7C57AFBC7B6120989E88389E9354D58CE144ADC81377D8506980F2C7AA6AFDF0B11C3D01FF1DEF6F1CECC5112686BCC35F069
311
9BD3F5E070F2E08008FBD242A71BFF2727C0085D587BF21F988C28E724A745D59EFB66FD40D96820D6C1AE99DC1598436101699A3F473188221D09566A10BB6AD5254DF78C755F371FC1483B58BEFE495EFBD92B3CE4DEA8E085D885AFBB262D9D84FADB90DB06034F4B01DDEB2069E3DF80BE8B5992541249F004AEDF36AB
311
BEEF745A408A68A536D13283FD082E220C695BB9A8D682A09216F98EA16E22EE4E1ED0970F480D036A81E7349694273BC67995ED12C6518D761929CFC0F1FFF50FABACDC91ACA8727546F640755487A1EE03F6CAEF44454F76B0ADDFCE12B937A6F11932E85A7202ABA16BE737D7EF16F32B67BD5E8E9CD9DDCDCC992FA777
311
CEF51CB3778BD1FC667940B36EA202BF2D35FD88869750DAFC4A30E3BEAF1BC48F490276F040947CFCD08467FBFEBA71D10BFB1EF6A05E761B17F10BFA3E1AFF5CC061E549419BACE434A3B9223A861EF407FF42D0670C9469E6371949E905523E7DD81E1983990BF67DD6F14EBF1FED35B32B1D902785A8A72A0B73C2F8D1
311
C6B441D22DF3D4E0D7FAA47B3785A61DEA91710C3A53597016230FC6564A8B8C2A64C30B8A90C8A804F5FA3D7D6CEE1E17EC7E693A4445424E5B4D9E089A642E1116207915A9E1BCF51B9A3ADD57DDDA28B7EE331E2653D81638736BA349572CA2D20D51A0752B540B0797FA9D3C384BF294A3D76E3675E36E97C6665092BB
311
2597F44FC6AE26851B0390464AF40D6888E09D5A99C0AF7533FFA3FF6478AB8E45143EC34A75B61C263A63EA6310A28D51E6B68026E6D91CBD47A0BE6DD6D8ADD70C10B9E896F526091AA98E2222AD6F0A5A3FA3D262FDD94387626D3E5925AF52F8F272498EA02073A5031C2C022B8CCC92285075F5FBE36751E0269B59F7
311
0C14785C155956E466B03037616BFB847B6DFC88B440F585443E4E46E3C9637D113077935D482475492C9F31019F0AD6413C703C18D9DC1691339B1FDD3A4F3BE1889B9BB5654ADA0C420D51FA5955C3829623A716A2475F2675ACF417946FDE05BC7A295410E8E2837F01504B0304140006080000E94C5C40000000000000
311
000000000000350000006662782F43373745344136392D334437422D344134332D414341412D4131373137394642324335312F76657274696365732E62696E504B0304140006080800E94C5C40F270F1330600000004000000360000006662782F43373745344136392D334437422D344134332D414341412D413137313739
311
4642324335312F747269616E676C65732E62696E636660600000504B0304140006080000E94C5C40000000000000000000000000370000006662782F43373745344136392D334437422D344134332D414341412D4131373137394642324335312F617474726962757465732E62696E504B0304140006080800E94C5C40D598
311
7DFC8F00000041010000360000006662782F43373745344136392D334437422D344134332D414341412D4131373137394642324335312F6469726563746F72792E786D6C858F410EC2201045AF4266AF15DDB800BA74E7C21B903225242D6328188F2FA5C4183471359997F9FF81E89FF3C41E1816475E02DF1F80A11FC838
311
6F25A438EECEC07A250251FC3803E6F58C12560C4AD840E95E91C151A72936F496F35732D860FE635F62C8F2DA16B505C545B74125BAA2FA9E05D7CC053D063734D5C7665FD55B6B8D15D5E9BFEAFD8490FFA45E504B0304140006080800E94C5C40993F5F6CFD000000A00100003B0000006662782F43373745344136392D
311
334437422D344134332D414341412D4131373137394642324335312F7265736F75726365732F636F72652E786D6C8D905D6EC3201084AF8278C7C638756D0B13394D7B825E00C1C64589C1E2A7EAF10B892BB56F7D61D1CC7CDAD1F2E3D77A439FE0837176C24D453102AB9C367699708A17D2637414DC3B177FC530B27285
311
0917190BBE7897B65D52CE46B031ABD669D8451902448CD42D7F261CD407ACB29229E644B8569B5457B940D554D9CE39C143F4B9007A2C292F161E824B5E41E0F5C3153C25A3F78CD179A7B918F0583036F7F38932D2BF0D2D39B0F699CCAC3B9376E85E9EFAD7C3709E4FBC2EB0E0D1AC3F1D95071941679E368C649CF5EF
311
7418DB616C0642BB91525E97F81F286DFA9F503236B66CAFFBC002164D2E723704AFCBBDF2B81F33CF725BF10D504B010214000A0000080000E94C5C403DEE336E79000000790000001B00000000000000000000000000000000006175746F6465736B2D64657369676E2D7061636B6167652E786D6C504B01021400140006
311
080800E94C5C40D486FD9CA0000000F40000001300000000000000000000000000B20000005B436F6E74656E745F54797065735D2E786D6C504B01021400140006080800E94C5C408A9471F4EA0000007C010000080000000000000000000000000083010000636F72652E786D6C504B01021400140006080800E94C5C4055
311
019EA25F0000007C000000070000000000000000000000000093020000636E782E786D6C504B01021400140006080800E94C5C4077F1D0D866010000020300000C00000000000000000000000000170300006662782F636F72652E786D6C504B01021400140006080800E94C5C402459BB587E0000009D0000000B00000000
311
000000000000000000A70400006662782F636E782E786D6C504B01021400140006080800E94C5C4075536B9A2D0100001402000031000000000000000000000000004E0500006662782F43373745344136392D334437422D344134332D414341412D4131373137394642324335312F636F72652E786D6C504B010214001400
311
06080800E94C5C4090BFD1BC4C010000330300003000000000000000000000000000CA0600006662782F43373745344136392D334437422D344134332D414341412D4131373137394642324335312F636E782E786D6C504B01021400140006080800E94C5C40A81CF5F8990500007B10000034000000000000000000000000
311
00640800006662782F43373745344136392D334437422D344134332D414341412D4131373137394642324335312F6F626A656374732E786D6C504B01021400140006080000E94C5C4000000000000000000000000035000000000000000000000000004F0E00006662782F43373745344136392D334437422D344134332D41
311
4341412D4131373137394642324335312F76657274696365732E62696E504B01021400140006080800E94C5C40F270F13306000000040000003600000000000000000000000000A20E00006662782F43373745344136392D334437422D344134332D414341412D4131373137394642324335312F747269616E676C65732E62
311
696E504B01021400140006080000E94C5C400000000000000000000000003700000000000000000000000000FC0E00006662782F43373745344136392D334437422D344134332D414341412D4131373137394642324335312F617474726962757465732E62696E504B01021400140006080800E94C5C40D5987DFC8F000000
311
410100003600000000000000000000000000510F00006662782F43373745344136392D334437422D344134332D414341412D4131373137394642324335312F6469726563746F72792E786D6C504B01021400140006080800E94C5C40993F5F6CFD000000A00100003B00000000000000000000000000341000006662782F43
311
373745344136392D334437422D344134332D414341412D4131373137394642324335312F7265736F75726365732F636F72652E786D6C504B0506000000000E000E00800400008A1100000000
310
504B03040A0000080000E94C5C403DEE336E79000000790000001B0000006175746F6465736B2D64657369676E2D7061636B6167652E786D6C3C3F786D6C2076657273696F6E3D22312E302220656E636F64696E673D227574662D3822203F3E3C666F726D6174733E3C666F726D61743E687474703A2F2F736368656D612E
310
6175746F6465736B2E636F6D2F64657369676E2D7061636B6167652F323030393C2F666F726D61743E3C2F666F726D6174733E504B0304140006080800E94C5C40D486FD9CA0000000F4000000130000005B436F6E74656E745F54797065735D2E786D6C7D8EC10E82300C865F65E91D8A1E8C310C0EEA1BF002731658846E
310
D98AC1B77784ABF1D8FE5FBFBF75BBCE937A534CCEB38643598122B6FEE978D0B0485F9C41B54DDD7D022595594E1A469170414C76A4D9A4D207E29CF43ECE46F218070CC6BECC4078ACAA135ACF422C856C0E68EA1BF5669944DDD7BCDE7B1F8E415D77AECB980613C2E4AC91FC167A2B244592486606FC29C8FD7F045B9A
310
EF7053A7E60B504B0304140006080800E94C5C40319CF701EC0000007C01000008000000636F72652E786D6C7590416EC3201045AF82668F0DD84A6C0B13A57172825E0001715162B00C543D7E71E248CDA2AB19FDF96F66F4F9E167BAA36FB304EB5D0FB420808C535E5B37F690E21537800E822FDEC73F36404E4EA68755
310
06C1C7C5A779939477D1B89855E7B5D94419828980D43D373D04F5652659C814B323DC8A59AA9B1C4D415F5D8653B21A3D8F589DF7D9AB350B88E142183D9E29660D21B8AE87236EEAFD80CF15AB4FBB53FDB1BFB4BC5C61C1A39D5EF7D56264341A04239461C232FE49DAAE6A3BDA60B2EB08E1E56A7F83D2ACFF83DA7728
310
59172BB6BDFBC402089A1F790C042FD72C72790495EB9A9BF805504B0304140006080800E94C5C4055019EA25F0000007C00000007000000636E782E786D6C4DCB3B0E80201045D1AD90E915ED2CF8AC45050C11660C8261F98AB1B07AC9C97D42D718D865D3E909258CFD00CCE24AC6E326A164D74DC0B4128928FF326038
310
472BA13128B1252AC747C6BAB984FC68F0B87FE8960A5C09FE86CFB69FBA01504B0304140006080800E94C5C406EFE8ABB68010000020300000C0000006662782F636F72652E786D6C8D52ED8E8320107C15C27F05A969B5419A5E3F9EE05E802AF54C150C82E9E3DFFAD178BDF49A8B0992999DDDD951BEBB3735EA95ED2A
310
A3331C851423A5735354BACCB077D720C16827B835C6FD28C348CB46657880B1E0A535BE9DA1DC68A7B403549B42CDA0EC3AE530CA6BB864B8CBBF542343E91D5474B7B095F94D962A8C42A0A14EF0CE593080A621C389C5F572E764C205F7BE2A66B62A605A75AD94C5E278A62CDA9FA280259406717CDC0749BC3906A715
310
8B0FEB43FCB139A79C0C62C15DD53CDCE55649A70A2C188D584019C83F69BA5DA5DB2809E87A4B292743F993C8B7C55FA2F459E42BED566CB63BC93A2C22303212BFB685881CEA640F7E88E06408115E63C2CF41432010B29397FAB1C70DA05EE5CED81898C2F885EA65ED154CA5687C389958E83C3680CD5EF6616FFABCEF
310
011F50EA12AC4907D78B77C3743E4D9DA368950D7A7747DAD846D68BB9C9E2722E835ECA73531BFB1F35995725739864F87BC537504B0304140006080800E94C5C40F97A71347D0000009D0000000B0000006662782F636E782E786D6C4DCCD10A83201886E15B91FFDC559A4E410D62EE3E6259C84AC3E9D8E5AF46073BFA
310
E0E1E355DD675DD0DBA5978F414373A901B9F088A30FB38692272C007546A518F3DF0D501856A7E160306A4EB16C278D6E1ACA92775D7C789E782544D69653CC1B2B707BE32D9696DF31639250DB0B4E590F9551D5AFB4EF11365F504B0304140006080800E94C5C40BBD30A0C2E01000014020000310000006662782F3732
310
3239304536332D363145382D344436342D394536462D3535393233454238363335422F636F72652E786D6C8D51CB6EC32010FC158B537AC0E6E1503BC2448AEA7E417F80D8C44589C1E251E5F30BB52335874ABDB068766676B4CB8FF7F9567C29E7B5351DC025028532831DB5993A10C30536A0380AEEAC0DBF68A0307256
310
1DC830107C72362E1B3458139409093576541B28BD570114C32D7D3AE0874F35CB52C69018FE5A2E72B8CA4995B84CEDC413DC07970214EB90FC02F14A488B7A4621C37D03EB3756C3B667EF70BF6F09ED4F0DA3FB13AF56A1E031EA7193EB31C5D117ADDC7F4DB258F0A0E747FCC12919D408044198404420693E507BA0ED
310
013710B10342BCCAF427515CC6BF44EDB3286A1328D9E2AE320F04E6D5DA107CB4F17C7B8451F7C5BA50E4793BAF8617205089082535AE09AF566A5A40F264F5E6E9837569C1BBEB39B1E966CC6AC1AB7CA3547E0E986ABEA7F806504B0304140006080800E94C5C40F951562D5701000033030000300000006662782F3732
310
3239304536332D363145382D344436342D394536462D3535393233454238363335422F636E782E786D6CAD93CD6EC32010845F0571F76F22CB8930917AE813F4D02B864D4A83C1025C356FDF2521692E39A4EA0559B3C3CCEA1366BBEFC9902FF0413B3BD0A6AC29012B9DD2F630D025EE8B9E921D67DEB97867A3C48A0906
310
9A64CAD9C1BB65CE9282BD584C44D5687BCCA287E0162F21A09C6E12E3A4301800B65850846904A540919B11BFF6E0711514C713891F405E5FDE891B3F41C6C0AA94C259953A384B676EBA3351228D0861A0417EC0244AB144A7201C4B25A2289BF2DAF560A7DF24922E5C2B17AF492A1F683A29CF1B95C8915538E42C448F
310
F4B2299E66A05CCCB3D15244845C9D8D170F678BB6B15B67AF46F01EDDABB6EB7B0C3BCF388B7A82EC901E440445795B376D51B745DBBFD59BED6AB36DFAA2EEB675CDAA64E76C74CEE44B1803DECD443A1BC146CA1B56A5F1237CD94794F6C8DAF9D3132011406EBDD0B965FC279FA65BADD7CFF2D9FC9D4F757EDF88CBE3
310
5FC07F00504B0304140006080800E94C5C40BFDDE76759070000941B0000340000006662782F37323239304536332D363145382D344436342D394536462D3535393233454238363335422F6F626A656374732E786D6CED59DD739B3810FF5718EED9D8C44E1ADF103A499C643CBDB49DFADAB987CC3032C8441721184924F1
310
FDF5B7FA00033109BEE6DEFA6003425AEDFEF6534BF0F139A3CE23E682E4ECCCF5BD89EB6016E70961E9995BCACDE8D4753E8601CF73D998E63A0C65F8CC55C36E18A43C2F0B3B94E00D2AA9EC8C5E5FFCE5881833EC3A3145429CB922BEC719F25029F3048B072F411279E9E6D9F33D33B14D36E5A8B8EF102D10C74C02A7
310
30CE808A6398F2DB8F13771C0663F53E0CD4BF9D351D346BD63F6BACA56E7349989088C52F58EA90990E6269EACF165747C7F3D1F16C361DCD4E8EFCD1C5F5C562E47F984E2E4F2E2FE7E75773606F9DE7D4CA94E002B304F4B775433F18AB37B5E816817D5CC7396338D64002545AAC2E4182056CD5806FD27EF495448DD7
310
5AC2C6F34CBDB72C3486A76D2A7DB38601D1A20B82D8ED2A89AB6B53BE7CFD37082E861825175802B74272D0AE85878357B8E124189BD13058EF7441849321893941D4A164CD1107A5C05435250CCC024B46390707528E92406BCEBC6EDB1678E6DBAEB38FCB4D49A9F20C37D48E1581FB61293467E41FCC77DC3791019E40
310
DA9230796AB994DB02BBE13C18EBC1305097E9917D6980743614A5422362DE7604BD54AEBF5CB8E1A7EBF5F34A8583FD9B173C2F3097CAE8941E355F60C8F6AA50B2DBFA8334A71680300654BB7207CA3740FE33448F1D2BA0374E9E67CF333B5772C4C426E719E8C69938A309FC4D1C5FFFABFBC65D30AE17B7B5D78727B8
310
A982EAF4E7F16CCBA0B1B2FC37E00C834730F89C4FEDAB558C28D8F32D610090321287E63004A17DB37E76C325044E08F4B00AD1D0079181DD47B80DC696CC4E2B957B59AF6380A8DD633A4449009BB64860A3474F37903D3889776A6A8AD807EFF1BB98EBF962F56955F20D8AF1ADF5E905DE10462464CDFD0CB5306F49F4
310
80B74F394F40D09778AF9A7867762B01682BCC15F06905827AD8EDDCDA20867569AEC24DF0C60E2084CAD50DFAB744C49852C4705E56FBD6D14D196AEDF1B66670C32303F1F4A863C21C3F12555580D3EC66B41885BC1F73522810DDF0C64856074DAF47BAEFCBCF6091F5FC9E594B06A19721FAA70E5A7B7068597685B405
310
A21678BD0BE7714E731EADB79189742ED412C046DB5B7EB48842AC374A5254C083B4DF55212535D24609D96C4A0171750F8B3F96974D73987853FFD869FE779C7106D1167C1771EB779D3D2292A114471B94F46DD7DCADA62D34C91ED21C6F28C8451E89DC4648469304A787407310F1F9BB524F692E04615840BEDA0B7E13
310
8D890781C468B3625969B5033411518625A28720A0C8F480ABD38EAE7163281DDEE6B1B6DED734D624FA3F590447504BE62C22508A420E799371DF3B8618D246D7A0DCC117ACADA2ADC5A0259410F1367AC224BD9787A06EC8F7E01EC391A494515EA018CC7A00D917BEA294DAE17D8DE207953FA2B8A4EF652002D34D4428
310
2DB3087E84C1C963886BD781E955141AC44DEC933883A20CC9920FD9E4E478F2621F533374436063A30DA110B6A30C153DA8B702A2AE479C1A7C4BBD47A9EB322B2294E5251B6428DEB4EB4D967C57AD8AEC407E55A908656345D8120C03C2649D55AB980DA6AE032BB8910E54DB48A0ACA0E614F646E2F16B6FD2947B37E0
310
D64FDF77830C0ABF1EED3523EAAC82C1F2D82A0CC41392F1BD1BAEF4757401F57782935DAAAF6ACD66050888A9485E726255F47D09E58DADD1DCF01649717763B26E75FDBEF4A0FB118C610DD42EF5C2A5023AC34C225599DCAA1BFA0D41086ED130E34B95530FA1729E24BA6A44F49AF4A9B35546B436CD8857DC639667F0
310
637784C5B44CF01D4AC443742B69B4228A752BA597910AE35705FC72B3EAC003230344FAAA0A3CFCD4596B472F55B9B49788BC2FB335430482604BB4D4E8C62B586A355269B9BEAA3305D45D606056C5B35F278B663BE2D7C922B586F153278B8BED1F68DBEC8B34D279ACECFAA063409D9F1495F73806E8B6434DB5CE2226
310
995BF9AD33451014AB283FB81AAB828621D8C7F17FCEDA7D59D06CD7E1FFB0ACEDBFA8380ECA2AADC9AA4BB5A7725D3673983F3F3DF9703E3F1E2D161793D1ECEA74369A5F4CAF46277318BD3A9FCC4F2F6A3D19E2615007339DBBE0D904B56A583D590CA02B2B724A1238CD274E8A21E64B38D30F689FF30C0B489ECD6677
310
629BF203563F9A3EA7446B8A2B4EEE113488A980B40E6294B16C8F3BBF416B52C241FBCC85A691F7007FD62A5D0732CF990BAD0249622CBC35B49954434F138794AB73BF2506810CB154A544B3A87EAE57296C5AE1BF9E32240D58B95A3D0C28DC0AE87EB53A149A37CB537C90E0153B0E9270BB2E25546B4696DD402D8CDE
310
66A77E231B25ECC16EFD0CAEFBBA58BEA7E7B41019F4C9E0552330544712F154F7BB156396A5F3C5D731F4D99CE517A7A0650ABA1C4E69C4311873A90A2AB022B00A4BB340124CF5F2F7BBAF3C874F3C99A3ABA2BBCB3CCB72661FCEE13C96C0272267750F1F7C923B281BB06AAB8BBBA3897F74A7DBD9B6C31EAD91C09EAA
310
8760A02A2394081D63038B7CD19AB28DCBB1524267FA72E1D8F0096D0063412FBABBE6F39603DEA33EA4285FD11E5EC9F96A477BACA7823570E84587FF02504B0304140006080000E94C5C40000000000000000000000000350000006662782F37323239304536332D363145382D344436342D394536462D35353932334542
310
38363335422F76657274696365732E62696E504B0304140006080800E94C5C40F270F1330600000004000000360000006662782F37323239304536332D363145382D344436342D394536462D3535393233454238363335422F747269616E676C65732E62696E636660600000504B0304140006080000E94C5C400000000000
310
00000000000000370000006662782F37323239304536332D363145382D344436342D394536462D3535393233454238363335422F617474726962757465732E62696E504B0304140006080800E94C5C40D5987DFC8F00000041010000360000006662782F37323239304536332D363145382D344436342D394536462D353539
310
3233454238363335422F6469726563746F72792E786D6C858F410EC2201045AF4266AF15DDB800BA74E7C21B903225242D6328188F2FA5C4183471359997F9FF81E89FF3C41E1816475E02DF1F80A11FC8386F25A438EECEC07A250251FC3803E6F58C12560C4AD840E95E91C151A72936F496F35732D860FE635F62C8F2DA
310
16B505C545B74125BAA2FA9E05D7CC053D063734D5C7665FD55B6B8D15D5E9BFEAFD8490FFA45E504B0304140006080800E94C5C405E4BDC4CFC000000A00100003B0000006662782F37323239304536332D363145382D344436342D394536462D3535393233454238363335422F7265736F75726365732F636F72652E786D
310
6C8D504B6E833010BD0A9ABDC1189400328ED2909CA017B0CC845A0936F2A7EAF16B0295DA5D3733A3F7D13C3D7EFA9A9FD9273AAFADE9A1CC296468941DB5997A88E14E1AC84E823B6BC32F196446CED8C30A83E093B371D921654D4013126AEC883B28BDC700997AA6A307AF3E7096B98C2129FC235FA47AC809F3324F74
310
D209EE834B01B2EDC93A4138F4363A859E171B2B788C7ADC357A4C3FF55DA30331DC282BCF574A584329A9EBE14C9AFA38906BC5EACBE152BF1D6F2D2F56B3E041CF3F199543197004C168C90865C9FE4EDBAE6ABBB221F4D051CA8B55FEC71497F19FA6A84DA8D81E77B37910650AF222042FD6BED27A9599F6DAADF80650
310
4B010214000A0000080000E94C5C403DEE336E79000000790000001B00000000000000000000000000000000006175746F6465736B2D64657369676E2D7061636B6167652E786D6C504B01021400140006080800E94C5C40D486FD9CA0000000F40000001300000000000000000000000000B20000005B436F6E74656E745F
310
54797065735D2E786D6C504B01021400140006080800E94C5C40319CF701EC0000007C010000080000000000000000000000000083010000636F72652E786D6C504B01021400140006080800E94C5C4055019EA25F0000007C000000070000000000000000000000000095020000636E782E786D6C504B0102140014000608
310
0800E94C5C406EFE8ABB68010000020300000C00000000000000000000000000190300006662782F636F72652E786D6C504B01021400140006080800E94C5C40F97A71347D0000009D0000000B00000000000000000000000000AB0400006662782F636E782E786D6C504B01021400140006080800E94C5C40BBD30A0C2E01
310
0000140200003100000000000000000000000000510500006662782F37323239304536332D363145382D344436342D394536462D3535393233454238363335422F636F72652E786D6C504B01021400140006080800E94C5C40F951562D57010000330300003000000000000000000000000000CE0600006662782F37323239
310
304536332D363145382D344436342D394536462D3535393233454238363335422F636E782E786D6C504B01021400140006080800E94C5C40BFDDE76759070000941B00003400000000000000000000000000730800006662782F37323239304536332D363145382D344436342D394536462D3535393233454238363335422F
310
6F626A656374732E786D6C504B01021400140006080000E94C5C4000000000000000000000000035000000000000000000000000001E1000006662782F37323239304536332D363145382D344436342D394536462D3535393233454238363335422F76657274696365732E62696E504B01021400140006080800E94C5C40F2
310
70F13306000000040000003600000000000000000000000000711000006662782F37323239304536332D363145382D344436342D394536462D3535393233454238363335422F747269616E676C65732E62696E504B01021400140006080000E94C5C400000000000000000000000003700000000000000000000000000CB10
310
00006662782F37323239304536332D363145382D344436342D394536462D3535393233454238363335422F617474726962757465732E62696E504B01021400140006080800E94C5C40D5987DFC8F000000410100003600000000000000000000000000201100006662782F37323239304536332D363145382D344436342D39
310
4536462D3535393233454238363335422F6469726563746F72792E786D6C504B01021400140006080800E94C5C405E4BDC4CFC000000A00100003B00000000000000000000000000031200006662782F37323239304536332D363145382D344436342D394536462D3535393233454238363335422F7265736F75726365732F
310
636F72652E786D6C504B0506000000000E000E0080040000581300000000
  0
XRECORD
  5
17
102
{ACAD_REACTORS
330
12
102
}
330
12
100
AcDbXrecord
280
     1
270
     1
271
     1
  0
XRECORD
  5
16
102
{ACAD_REACTORS
330
12
102
}
330
12
100
AcDbXrecord
280
     1
270
     1
271
     1
  0
XRECORD
  5
18
102
{ACAD_REACTORS
330
12
102
}
330
12
100
AcDbXrecord
280
     1
270
     1
271
     1
  0
XRECORD
  5
15
102
{ACAD_REACTORS
330
12
102
}
330
12
100
AcDbXrecord
280
     1
270
     1
271
     1
  0
XRECORD
  5
B18
102
{ACAD_REACTORS
330
22
102
}
330
22
100
AcDbXrecord
280
     1
102
MATERIAL
148
0.0
149
0.0
149
0.0
 93
        0
 94
      127
282
     0
 72
     0
 77
     0
171
     0
175
     0
179
     0
273
     0
  0
XRECORD
  5
24
102
{ACAD_REACTORS
330
22
102
}
330
22
100
AcDbXrecord
280
     1
270
     1
271
     1
  0
XRECORD
  5
23
102
{ACAD_REACTORS
330
22
102
}
330
22
100
AcDbXrecord
280
     1
270
     1
271
     1
  0
XRECORD
  5
BA
102
{ACAD_REACTORS
330
22
102
}
330
22
100
AcDbXrecord
280
     1
 70
     1
 90
1959938040
 71
     1
  1
A2341184-017F-4229-9944-168CDCFB3D1A
311
504B03040A0000080000E94C5C403DEE336E79000000790000001B0000006175746F6465736B2D64657369676E2D7061636B6167652E786D6C3C3F786D6C2076657273696F6E3D22312E302220656E636F64696E673D227574662D3822203F3E3C666F726D6174733E3C666F726D61743E687474703A2F2F736368656D612E
311
6175746F6465736B2E636F6D2F64657369676E2D7061636B6167652F323030393C2F666F726D61743E3C2F666F726D6174733E504B0304140006080800E94C5C40D486FD9CA0000000F4000000130000005B436F6E74656E745F54797065735D2E786D6C7D8EC10E82300C865F65E91D8A1E8C310C0EEA1BF002731658846E
311
D98AC1B77784ABF1D8FE5FBFBF75BBCE937A534CCEB38643598122B6FEE978D0B0485F9C41B54DDD7D022595594E1A469170414C76A4D9A4D207E29CF43ECE46F218070CC6BECC4078ACAA135ACF422C856C0E68EA1BF5669944DDD7BCDE7B1F8E415D77AECB980613C2E4AC91FC167A2B244592486606FC29C8FD7F045B9A
311
EF7053A7E60B504B0304140006080800E94C5C40189BEF09EA0000007C01000008000000636F72652E786D6C8D90416EC3201045AF82D863034E6D6261A23A764FD00B20200E4A0C9681AAC72F4E1CA9DD7535A33FFFCD8C3E3F7DCF77F065D660BDEB20293004C629AFAD9B3A98E20531084E82AFDEC75F36089C9C4D0737
311
190A3EAD3E2DBBA4BC8BC6C5AC3AAFCD2ECA104C8440DD73D3C1A0AE6696854C313BC2AD58A4BAC9C914E4D5653825ABC1F388D5799FBD58B34241FB919E9BF18C067620E8D0B337F45EB31A0D4383C7EAA3274DCF78B9C182473BBFEEABD5C86874E631A1085344D9273EB6D5B1250CE1BAC598979BFD0F9416FD4F285917
311
2BBABFFBC40214243FF218085E6E59E4F2082AD72D37F103504B0304140006080800E94C5C4055019EA25F0000007C00000007000000636E782E786D6C4DCB3B0E80201045D1AD90E915ED2CF8AC45050C11660C8261F98AB1B07AC9C97D42D718D865D3E909258CFD00CCE24AC6E326A164D74DC0B4128928FF326038472B
311
A13128B1252AC747C6BAB984FC68F0B87FE8960A5C09FE86CFB69FBA01504B0304140006080800E94C5C40408D462666010000020300000C0000006662782F636F72652E786D6C8D52ED8E8230107C95A6FF4B0B7A8AA6D41CEA3DC1BD4085CA35424B4A4B7CFC5B3E8CE7C51843529A999DDDD901BEBB3635EA95EBB43519
311
8E23869132852DB5A9321CFC99A418ED0477D6FA3F651819D9A80C0F3016BC7236B4335458E395F1801A5BAA19945DA73C46450D970C77C58F6A642483878AEE12B5B2B8C84A45710434D409DE790706D0346438B1389FAE9C4EB8E021E872667509D3F4592B8745921F93FDFAB82787741993659E7E90CF55BA2287C39A1D
311
175F79BCCE534E07B1E05E3737778553D2AB12F42C4E084B48927EB3CD76B1D9C62961AB2D639C0EE50FA2D0966F8A82367E91CC76275987450C4646E2DFB61091479DECC10F159C0E21C26B4CF83168080442F6F254DFF6B800D4ABC25BB704A6B4E14EF5B20E0AA632343E9C4E2C741E1BC0664FFB242FFABCEE011F509A
311
0AAC490FD753F0C3743E4D9DA3689523BDBF22635D23EBBBB9C9E2FDBC0F7A2A2F6C6DDD3B6A3AAF4AE730E9F0F78A5F504B0304140006080800E94C5C40B6F2ADDC7D0000009D0000000B0000006662782F636E782E786D6C4DCCD10A83201805E05791FFDE65D95A811A84F91EB12C64A6C3E9E8F1B3D1C5AE0EE7E37058
311
BF6F167D75F818EF3894370248BBA79F8D5B39A4B8E016502F58F03EFECD00B969D31C4E06C1D6E0D3FBA2592F53B231AB35EE75A15243756F15C143456A5C4BFAC01DC9B5919D248A96E3481B28042B7E4F39CF637100504B0304140006080800E94C5C4051B39C862A01000014020000310000006662782F464642323538
311
46302D423230342D344433372D393046302D3644394430463331454533362F636F72652E786D6C8D51CB6E833010FC15E4537A0016432844C691A2842FE80F10DB49AC041BF951E5F3BB1422B5B75CBCF6786676B4CBF6CFF1917C2BE7B5351D2932208932C24A6DAE1D89E1923624D973E6AC0D7F682431C3A83A32C384B3
311
ABB3715A21614D5026206AAC542B3878AF0249C4032F1DF1E2A6C6211B624086BF67D320EEC355654586DFC8E3CC07870192A5C97C12DEF707BA6D7A480F14AAB43A969F690BF8AC8FED11FAB2389DCA9AE58B90B318B55CE55A621C7DD1CABD6B328B390B7A7CC5174E0D4149C2291434059AD2E60BDA5DD9EE8A26857A07
311
C0F299FE4F1427F9A6286A134ABAC65D649EF082E5CB0767D2C6F3E315463D27EB4232F7DB78253E08870C286D011A1CC042C501A0675DAD9E3E588703DEDCCFC82EB68B715D7196CF3BC2F2BB40ACF33EF90F504B0304140006080800E94C5C4091AA55CD4C01000033030000300000006662782F46464232353846302D42
311
3230342D344433372D393046302D3644394430463331454533362F636E782E786D6CD593CD6E022114855F85B09F5F8D51C360D2459FA08B6E19B82ACAC0849FA6BE7D2F8AD68D8B2EBB2193730FE7DC7C61D8EE7B32E40B7CD0CE0EB4AB5B4AC04AA7B43D0C34C57DB5A664C799772E3ED928B162828166997276F02ECD45
311
52B017C944548DB6E7227A082E790901E57C93182785C100B0554211A6119402451E46FCDA83C755501C2F241E81BCBF7D12379E40C6C09A9CC259933B38CB67697A3251228D0861A0411E6112B548D12908E75A8928EAAEBE77BDD8E93789E40BF7CAE435C9E503CD27E565A31A39B206879C85E8915E31C5CB0C948B7936
311
5A8A88909BABF1E6E12C691B57CBE2D508DEA3BB5B2D964B0CBBCE388B7A82E2901E44044579DF767DD5F655BFFE6837DBC566DBADAB76B56D5BD6643B67A373A65CC218F06E26D2D9083652DEB1268F5FE12B3EA2B447D6CE5FFE00120194D61B9D47C67FE6D35CDF37E2F2F817F01F504B0304140006080800E94C5C40A2
311
33C0F7980500007A100000340000006662782F46464232353846302D423230342D344433372D393046302D3644394430463331454533362F6F626A656374732E786D6CAD57DB6EDB3810FD1541FBEC8B6CB78D178A0AC76E0AA3481BD468B10F010C4AA2146E285120A9D4D9AFDF4389BAB976EA5DF4C5B2A8E170E6CC990B
311
FDF7878C3BCF542A26F26BD71B4F5D87E69188599E5EBBA54E4657AEF33EF0A510BA27E63A39C9E8B56B96DDC04FA5280BBB14D384945C1FADDEDEFCE5A888E6D475224E94BA7655F448333226A51631554FE39868324E93C3D81BD78243B5A924C5E391D282489A6B588AF51C5A9CDA286FF83A7527813F31DF03DFFC5AA9
311
F979A949E5CFF07C962B4DF2E8A7C38ED4CCBDC5E6C3ECCD72F466B1988F166F67DEE8E6F66633F2DECDA7EBB7EBF572F56189839596D0642D913471838FC046B2C89FD49F02BF64B99ECFAC880DD044D2676622E50633C7F327B54CEB9D75F294F991C8731A5558018DCA3FAB3AA605CD63C49C5105CB7A084D87AF9EC1B1
311
F7796EDEED91FDE5CB10E8EFE8296A6C6F9E7D4B45F8375C509730482A6A185863691DADB93AED100E85E0F61B534E4634958C7087B35012F9E206103522813F5063982C4D36180FDC0051A83F0FE98234FA35CF4F5999949C1B1ABB4195057BE40AD5AAB28CFD4365677D1F19D8845819365C5987F44B41DD605953E4EA88
311
4D35904EC2498A90C34DB3733E3B72746DF274BB71834FB7E1616772F7F4E185140595DAD007D46A02D73C0D4AD626EFA2C8990DEE91291D285F81FC67A47A670AE226D9617158D853B424B94A84CC101B67EA8CA6F8993A5EF56BFEF7FEF99376F3307AE7F044B00D54BF01CFA10FFD58F6E00CFC67105EC8B9756D17118E
311
B271C772006448E2708125D4E1243CB8C116550E5519BB080F3CB80C739FF1D79F58352814D549BD670E2C8FCAE205051AB0558C841935F9AD815D9C7E2A67D5C156EC1CBC6F7E0B5D579BDDA75D291312D13B9BD31B9AB09C69B4B88E377D8306980F3C7AA22F3F848CE1E8CF78EFFA7867F62805B40DE606F8B4A9E9E6A5
311
3B797040847DA930E5C6FFC50970C234D69EFE3BA622CA39C9A9289B735FED1F681B35C426D90D93DB06D3351690A6FE72948368D291648501B1ED566DD11C9FF1EEDBF6331809792E42C23BA1B02BBD91E042EEC3977D5D954E22FD7D486D0BC1C46801DBAB1C69D2DF62BE8F5992940A35F004ACDFB7EB7EE84C55408568
311
B4D6C9B280FBC82D222D671BBD68D692A0918A7CCFD0369176270FE8EB07A2960095C273162BCA933DE3BCCCF609E36846FB8C1467E0F8FFF6876556EC4926CA5C9FD13D301DCD6168FB80BCEA07D1D1A31BECAAE7E806A537A67117E681B0692527B01A8476359B2F3CEF6A319A7AEF6E478BD96C395A2E178B91F7F66ABD
311
59DFDECC37DEAA8953AD3CF09B4ED34F6844099DCD2F25B3E1FBB645FAD81AE0067744AB878F757636CF6FDB3146617F823D6897EDC655FC8CB18FC6BF56D0499E54B4CD0A4E339A6B6252E8CEFCE15F09C68C8131F5FA362329BD40CB978FBB2367B072C1BE7B93EEF4C7D15EBBBA36097952897E2CB330278C1F6D4C6B24
311
C7459E5AFC9A98B4CFBACF34AFE6CD060683A9129CC52883B1935291518D6278410F921955A05E7FA48FEDD5E382DDCFF580A849C86963C923C18CCC15D202D42A233D5C77FEC04C67C6AA6B17DD76FC841F5B295C079CB97631A36B1651350ED19FCD2454290797FA833CE67E92A71CA376BDA97D6F77196C061DB915B964
311
7CB27ED515DC3A803252606CC03C84E854C6047E659BFD1EFD27C71B731CA2F1372C75EB4BB7D03A531D8314AD9DB29705CC304FF6E80312F575B7BC71253340E4A24BD6AB24A8B58E349169755130F65993569BFB09061467FBC52978992296976B1A490A329726C1C122B0C2EA2C880655D77F3EDC4B818B6CE6DC3250E0
311
612DB24CE4F665652FC2CEEE11D7DAF80165819AFB887A984DBDD943750FB057937D48141D93583D61013195AC8578107830B2BE2C7A10B281B7319898201C7173BB716C4B5B74F2FDAA6A60C1C4915307D963EE922657FA02C5AB578149250A532586F8E05F504B0304140006080000E94C5C400000000000000000000000
311
00350000006662782F46464232353846302D423230342D344433372D393046302D3644394430463331454533362F76657274696365732E62696E504B0304140006080800E94C5C40F270F1330600000004000000360000006662782F46464232353846302D423230342D344433372D393046302D3644394430463331454533
311
362F747269616E676C65732E62696E636660600000504B0304140006080000E94C5C40000000000000000000000000370000006662782F46464232353846302D423230342D344433372D393046302D3644394430463331454533362F617474726962757465732E62696E504B0304140006080800E94C5C40D5987DFC8F0000
311
0041010000360000006662782F46464232353846302D423230342D344433372D393046302D3644394430463331454533362F6469726563746F72792E786D6C858F410EC2201045AF4266AF15DDB800BA74E7C21B903225242D6328188F2FA5C4183471359997F9FF81E89FF3C41E1816475E02DF1F80A11FC8386F25A438EE
311
CEC07A250251FC3803E6F58C12560C4AD840E95E91C151A72936F496F35732D860FE635F62C8F2DA16B505C545B74125BAA2FA9E05D7CC053D063734D5C7665FD55B6B8D15D5E9BFEAFD8490FFA45E504B0304140006080800E94C5C400B30C191FC000000A00100003B0000006662782F46464232353846302D423230342D
311
344433372D393046302D3644394430463331454533362F7265736F75726365732F636F72652E786D6C8D504B6E833010BD0AF2DE60430A0E328E4AA127E8052C332156828DFCA97AFC9A40A576D7CDCCE87D344F8F5FBE9647F609CE6B6B3A4473823230CA4EDACC1D8AE18A19CA2E823B6BC32F19CA8C5CA0431B8C049F9D
311
8DEB01296B0298905063273840E93D0494A9473A3AE4D50D1699CB1892C2DFF355AABB9C21A779A2934E701F5C0A90ED4FB68984036FA353E079B1B382C7A8A743A3A7F4535F353824CA7E2CDF9AB1C7033B517CEAD90B7EAD598D87A12163F5DED3A667BCD8CC8207BDFC64540E648029F9092D312971C93EC8B9ADCE2D65
311
98D42D21BCD8E47F4C719DFE698ADA84AA3CE2EE368F044D419E84E0C5D6575ACF32D3DEBA15DF504B010214000A0000080000E94C5C403DEE336E79000000790000001B00000000000000000000000000000000006175746F6465736B2D64657369676E2D7061636B6167652E786D6C504B01021400140006080800E94C5C
311
40D486FD9CA0000000F40000001300000000000000000000000000B20000005B436F6E74656E745F54797065735D2E786D6C504B01021400140006080800E94C5C40189BEF09EA0000007C010000080000000000000000000000000083010000636F72652E786D6C504B01021400140006080800E94C5C4055019EA25F0000
311
007C000000070000000000000000000000000093020000636E782E786D6C504B01021400140006080800E94C5C40408D462666010000020300000C00000000000000000000000000170300006662782F636F72652E786D6C504B01021400140006080800E94C5C40B6F2ADDC7D0000009D0000000B00000000000000000000
311
000000A70400006662782F636E782E786D6C504B01021400140006080800E94C5C4051B39C862A0100001402000031000000000000000000000000004D0500006662782F46464232353846302D423230342D344433372D393046302D3644394430463331454533362F636F72652E786D6C504B01021400140006080800E94C
311
5C4091AA55CD4C010000330300003000000000000000000000000000C60600006662782F46464232353846302D423230342D344433372D393046302D3644394430463331454533362F636E782E786D6C504B01021400140006080800E94C5C40A233C0F7980500007A10000034000000000000000000000000006008000066
311
62782F46464232353846302D423230342D344433372D393046302D3644394430463331454533362F6F626A656374732E786D6C504B01021400140006080000E94C5C4000000000000000000000000035000000000000000000000000004A0E00006662782F46464232353846302D423230342D344433372D393046302D3644
311
394430463331454533362F76657274696365732E62696E504B01021400140006080800E94C5C40F270F133060000000400000036000000000000000000000000009D0E00006662782F46464232353846302D423230342D344433372D393046302D3644394430463331454533362F747269616E676C65732E62696E504B0102
311
1400140006080000E94C5C400000000000000000000000003700000000000000000000000000F70E00006662782F46464232353846302D423230342D344433372D393046302D3644394430463331454533362F617474726962757465732E62696E504B01021400140006080800E94C5C40D5987DFC8F000000410100003600
311
0000000000000000000000004C0F00006662782F46464232353846302D423230342D344433372D393046302D3644394430463331454533362F6469726563746F72792E786D6C504B01021400140006080800E94C5C400B30C191FC000000A00100003B000000000000000000000000002F1000006662782F46464232353846
311
302D423230342D344433372D393046302D3644394430463331454533362F7265736F75726365732F636F72652E786D6C504B0506000000000E000E0080040000841100000000
310
504B03040A0000080000E94C5C403DEE336E79000000790000001B0000006175746F6465736B2D64657369676E2D7061636B6167652E786D6C3C3F786D6C2076657273696F6E3D22312E302220656E636F64696E673D227574662D3822203F3E3C666F726D6174733E3C666F726D61743E687474703A2F2F736368656D612E
310
6175746F6465736B2E636F6D2F64657369676E2D7061636B6167652F323030393C2F666F726D61743E3C2F666F726D6174733E504B0304140006080800E94C5C40D486FD9CA0000000F4000000130000005B436F6E74656E745F54797065735D2E786D6C7D8EC10E82300C865F65E91D8A1E8C310C0EEA1BF002731658846E
310
D98AC1B77784ABF1D8FE5FBFBF75BBCE937A534CCEB38643598122B6FEE978D0B0485F9C41B54DDD7D022595594E1A469170414C76A4D9A4D207E29CF43ECE46F218070CC6BECC4078ACAA135ACF422C856C0E68EA1BF5669944DDD7BCDE7B1F8E415D77AECB980613C2E4AC91FC167A2B244592486606FC29C8FD7F045B9A
310
EF7053A7E60B504B0304140006080800E94C5C40FA7631B3E80000007C01000008000000636F72652E786D6C8D90416EC3201045AF82668F0D982027C24496DA9EA01740405C94182C03518F5F9C3852BBEB6A467FFE9B197D79FE9E6FE8EED6E46318803604900B265A1FA6014ABEE01ED059C935C6FCCB0628E8D90DB0C9
310
A0E4B4C6B2EC928921BB90AB1AA275BBA853721990B9D5668064BEDCAC1B5D7275A46BB36873D5936BE8ABAB7029DEA2E7116FEB3E7FF16E0525B860878E0ACCF8F88639A5148F9C31CC8520FCFD2048F731CA768395CC7E7EDD37ABD3D959508C508609C3ACFF24C753773CD11E13712244B69BFD0F5416FB4FA8F8903BB6
310
BFFBC412285A1F790C946CB72C6A790455EB969BFA01504B0304140006080800E94C5C4055019EA25F0000007C00000007000000636E782E786D6C4DCB3B0E80201045D1AD90E915ED2CF8AC45050C11660C8261F98AB1B07AC9C97D42D718D865D3E909258CFD00CCE24AC6E326A164D74DC0B4128928FF326038472BA131
310
28B1252AC747C6BAB984FC68F0B87FE8960A5C09FE86CFB69FBA01504B0304140006080800E94C5C4026272EE764010000020300000C0000006662782F636F72652E786D6C8D52ED8A8330107C9590FF311F5A694B4C29DCDD13DC0BA49AF6A49A484CA48F7FEB47F17A945284186676766747E5E1D6366830BEAF9D2D304F
310
1846C696AEAAEDA5C0319CC916A38392DEB9F0A70C23AB5B53E011C64A5EBC8BDD0295CE066303A0D655660175DF9B8051D9C0A5C07DF9635A9DE818A0A2BF269D2EAFFA62129E000D754AF6C18301340F194FACCEA79BA433AE648C75B5B07505D3EA736D3C5679968B4DCA7322B2E307C938E7E4980941B23C67D9E72667
310
E9D751D251AC64A8DBBBBBD21B1D4C8595605C102688D87EB3DD3EDDEDF996B07CCF98A463F9832876D59BA258DB908AC5EE2CEBB1E2606422FE6D0B1105D4EB01FC5025E91822BCA6841F83864020E4A04FCD7D8F2B40832983F31930958B2B35E8261A98CAD0F4483AB3D0796A009B3DED235EF479DD033EA0B617B0A603
310
5C4F318CD3E53C7589A2339E0CE186ACF3AD6E5673B3C5F55C073D9597AE71FE1D355D56A54B9874FC7BD52F504B0304140006080800E94C5C40A2473C627D0000009D0000000B0000006662782F636E782E786D6C4DCCD10A83201886E15B91FFDC95FCD23C504363DD472C0B99E9703A76F9ABD1C18E3E78F87865FFD902
310
79BBFCF2292A609716888BF734FBB82AA865A10248AF654EA9FCDD80C469730A0E062DD79CEAF3A4D92D530D65D7E0E3E34414231A610D1DD8D051CE38526B444B398E8CD91B0ADE5DA1D1B2F995F63DC2FA0B504B0304140006080800E94C5C40162E786F2B01000014020000310000006662782F33384633413842412D43
310
3143362D343134332D424138302D3433463131424533383436372F636F72652E786D6C8D51CB6EC32010FC158B537AC0E6E13A24C24449D47C417F801892A2C460F1A8F2F985DA91DA5B2E2C9A9D991DEDF2DD63BC57DFDA07E36C0F708D40A5EDE094B1D71EA478810C543BC1BD73F10F0D54568EBA070506825FBD4BD302
310
0DCE466D6346AD537A0165083A826AB8E74F0FC2F0A54759CB143323DCEA490E3779D535AE733BF3040FD1E700D53CA4BC405076A27B76D8C3233E76B0C52D85873D43B0A5278C0F1F94B5DD9A37B350F0948C5AE446E538E662B47FD5A488058F667CC61FBC96512B2008C204220209FB449B2DDD6C3183A8DB22C49B42FF
310
274A937A51948C8D942C7167590002F3666E08AE5C3ADF9F61F463723E5665DE2AE8E10D085423D261F2BEDEF066A6E60564CFAE5D3C43743E2F78753B67365D8CBB56F0A6DC2897DF03E65AEE297E00504B0304140006080800E94C5C40F70D9ADA5401000033030000300000006662782F33384633413842412D43314336
310
2D343134332D424138302D3433463131424533383436372F636E782E786D6CBD93CD6EC32010845F0571F76F22CB8930917AE813F4D02B864D4283C1025C356FDF2521692E3954AA7A41D6EC30B3FA84D9EE6B32E4137CD0CE0EB4296B4AC04AA7B43D0C7489FBA2A764C799772E3ED828B162828126997276F06E99B3A460
310
2F16135135DA9EB2E821B8C54B0828A79BC438290C06802D1614611A412950E46EC4AF3D785C05C5F14CE211C8EBCB3B71E307C81858955238AB520767E9CC4D0F264AA411210C34C8234CA2144B740AC2A954228AB2296F5D4F76FA4922E9C2AD72F19AA4F281A693F2BC51891C598543CE42F4482F9BE27906CAC53C1B2D
310
4544C8D5C578F570B6681BBB75F66A04EFD1BD6ABBBEC7B0CB8CB3A827C80EE941445094B775D316755BB4FD5BBDD9AE36DBA62FEA6E5BD7AC4A76CE46E74CBE8431E0DD4CA4B3116CA4BC61551A3FC3977D44698FAC9D3FFF022402C8AD573AF78CBFE4D374ABF5FA1FF95497F78DB83CFE05FC1B504B0304140006080800
310
E94C5C400C554B3257070000931B0000340000006662782F33384633413842412D433143362D343134332D424138302D3433463131424533383436372F6F626A656374732E786D6CED595B6FA33814FE2B887D0E0949DA695694519B4CAB68D599D16467B40F9590030EF5D618649B5EF6D7EFF1050234B464A7FB360F0960
310
ECE373BE73F521F8F89451E70173417276EEFADEC475308BF384B0F4DC2DE56E74E63A1FC380E7B96C4C731D86327CEEAA61370C529E97851D4AF00E95547646AF2EFF72448C19769D982221CE5D11DFE10C79A8947982C5BD972089BC74F7E4F99E99D8269B7254DC7588168863268153186740C5314CF9EDC7893B0E83B1
310
7A1F06EADFCE9A0D9A35EF9F35D652B7B9244C48C4E2172C75C8CC06B134F3E7AB4FD393C5E8643E9F8DE6A7537F747975B91AF91F6693E5E972B9B8F8B400F6B6794EAD4C092E304B407FCF6EE80763F5A616DD227088EB38670CC71A48804A8BD52548B080AD1AF04DDA8FBE92A8F15A4BD8789EABF79685C6F0AC4DA56F
310
D630205A744110BB5D2571756DCA976FFF06C1C510A3E4024BE056480EDAB5F070F00A379C0463331A06DBBD2E887032243127883A946C39E2A01498AAA684815960C928E7E040CA511268CD99D76DDB02CF7CDB750E71B92B29559EE186DAB122703F2C85E68CFC83F99EFB2632C013485B1226CF2C97F2B9C06EB808C67A
310
300CD46536B52F0D90CE8EA2546844CCDB8EA04BE5FAEB951BFE71B57DDAA8707078F382E705E652199DD2A3E60B0CD95E154A765B7F90E6D40210C6806A57EE41F906C87F86E8B16705F4C6C9D3FC696EE74A8E98D8E53C03DD3813673481BF89E3EB7F75DFB80BC6F5E2B6F6FAF0043755509DFD3C9E6D19345696FF069C
310
61F000069FF3997DB58911057BBE210C005246E2D01C8620B4EFB64F6EB886C009811E56211AFA2032B0FB00B7C1D892D96BA5722FEB750C10B57BCC86280960D316096CF4E8E91AB20727F15E4D4D11FBE03D791773BD586DFED8947C87627C637D7A857784110959F330432DCC5B12DDE3E7C79C2720E84BBC374DBC33BB
310
9500B415E60AF8B402413DEC776E6D10C3BA3457E1267863071042E5EA06FD1B22624C2962382FAB7DEBE8A60CB5F6785B33B8E1D4403C9B764C98E307A2AA0A709AFD8C16A390F7634E0A05A21B5E1BC9EAA0E9F548F77DFD192CB29EDF336BCD20F43244FFD441EB000E2DCBAE90B640D4026FF7E13CCE69CEA3ED736422
310
9D0BB504B0D1F6961F2DA210EB8D921415F020ED775548498DB4514276BB52405C3DC0E28FF5B2690E136FE69F38CDFF8E33CE21DA82EF226EFDAEB347443294E2688792BEED9ABBD5B48526D9439AE31D05B9C80391CF1192D124C1E931D01C457CF1AED4539A0B41181690AF0E82DF4463E2412031DAAC58565AED004D44
310
946189E8310828323DE0EAB4A36BDC184A87B779ACADF7358D3589FE4F16C111D492398B0894A29043DE64DCF74E2086B4D1352877F0056BAB686B3168092544FC1C3D6292DEC9635037E47B708FE14852CA282F500C663D80EC0B5F514AEDF0BE45F1BDCA1F515CD2F7321081E92E22949659043FC2E0E431C4B5EBC0F42A
310
0A0DE226F6499C41518664C9876C727A3279B18FA919BA21B0B1D18E5008DB51868A1ED45B0151D7234E0DBEA5DEA3D46D991511CAF2920D32146FD6F5264BBEAB56457620BFAA5484B2B1226C09860161B2CEAA55CC0653D78115DC4807AAE748A0ACA0E614F646E2F16B6FD2947B37E0D64FDF77830C0ABF1EED3523EABC
310
82C1F2D82A0CC42392F19D1B6EF4757409F57782937DAAAF6ACD66050888A9485E726255F47D0DE58DADD1DCF00649717B6DB26E75FDBEF6A0FB118C610DD42EF5C2B5023AC34C225599DCA81BFA0D41086ED130E36B95538FA1729124BA6A44F48AF4A9B35546B436CD8857DC619667F063B784C5B44CF02D4AC47D742369
310
B4218A752BA597910AE35705FC72BDE9C003230344FAAA0A3CFCD8596B4797AA5C3A4844DE95D996210241B0255A6A74E3152CB51AA9B45C5FD59902EA2E3030ABE2F9AF9345B31DF1EB64915AC3F8B99305CDB788EEA34D239BC7CAAC8F3A05D4E94951798F5380EE3AD454EB246272B915DFFA520431B10AF2838BB12A66
310
18827D1CFFE7A4DD9704CD761DFE8F4BDAFE8B82E3A8A4D29AAC9A54070AD77533855D4C6773DF3F9B8F26FE87ABD17C3A5D8C168BF97CE49F9E2D57CBABCBD9CABFA8D1D47E1A06752CD3A90B9E4D4CAB86D593C5009AB222A72481C37CE2A41842BE8423FD80EE39CFB080DCD9EC7527B6273F60F58369734AB4A5B8E2E4
310
0E417F980AC8EA805119CBF6B8F31B7426259CB3CF5DE81979F7F067ADD27520F19CBBD0299024C6C2DB429749F5F33471C8B83AF55B62800F62A9CA886651FD5CAF52D8B4A27F3D654816B072B55A1850B715D0FC6A3528346F96A7F828C12B761C24E1765B4A28D68C2CFB815A18BDCD5EFD46364AD8BDDDFA095CF775B1
310
7C4FCF692132E88BC1AB4660A88E24E2A96E772BC62C4B17ABAF6368B339EB2F4E41CB1474399CD2886330E652D553604560159666812498EAF2F7DBAF3C872F3C99A38BA2DB659E6539B30F17701C4BE00B91B3B983EF3DC92D540D5875D5C5ED74E24F6F7537DB36D8A32D12D853E5100C54558412A1636C60912F3A53B6
310
6F39564AE84C5FAF1C1B3EA10B602CE84573D77CDD72C07BD47714E52BDAC32B395F6D688FF554B0060EADE8F05F504B0304140006080000E94C5C40000000000000000000000000350000006662782F33384633413842412D433143362D343134332D424138302D3433463131424533383436372F76657274696365732E62
310
696E504B0304140006080800E94C5C40F270F1330600000004000000360000006662782F33384633413842412D433143362D343134332D424138302D3433463131424533383436372F747269616E676C65732E62696E636660600000504B0304140006080000E94C5C40000000000000000000000000370000006662782F33
310
384633413842412D433143362D343134332D424138302D3433463131424533383436372F617474726962757465732E62696E504B0304140006080800E94C5C40D5987DFC8F00000041010000360000006662782F33384633413842412D433143362D343134332D424138302D3433463131424533383436372F646972656374
310
6F72792E786D6C858F410EC2201045AF4266AF15DDB800BA74E7C21B903225242D6328188F2FA5C4183471359997F9FF81E89FF3C41E1816475E02DF1F80A11FC8386F25A438EECEC07A250251FC3803E6F58C12560C4AD840E95E91C151A72936F496F35732D860FE635F62C8F2DA16B505C545B74125BAA2FA9E05D7CC05
310
3D063734D5C7665FD55B6B8D15D5E9BFEAFD8490FFA45E504B0304140006080800E94C5C40929C6C82FA000000A00100003B0000006662782F33384633413842412D433143362D343134332D424138302D3433463131424533383436372F7265736F75726365732F636F72652E786D6C8D50DB6A843010FD1599F768122FB8
310
12B3086DBFA03F10E2AC0DBB26924BE9E737AE16DAB7BECC0CE7C21C8EB87EAD8FE2137D30CE8EC04A0A055AED6663971152BC911E8AAB14DEB9F84B0685552B8EB0C320C5E25DDA4E483B1BD1C68C5A37E309AA103042A11FF91821E80F5C55A952CC8A702F37A5EF6AC1929599CE3A2942F43940713CD927488FC125AF31
310
88EA60A548C9CCA7C6CCF9A7B919F420BBA6E36DCD5AC29BE985348C3132359C93A6EB68F3DA76B47E9B44B59BA58866FDC9A83DAA8833484E19279413DEBFD3CB505F06D613DA0D948A6A97FF31A56DFEA729191B6B7EC63D6C0124CB419E8414D5DE575ECF32F3DEBB95DF504B010214000A0000080000E94C5C403DEE33
310
6E79000000790000001B00000000000000000000000000000000006175746F6465736B2D64657369676E2D7061636B6167652E786D6C504B01021400140006080800E94C5C40D486FD9CA0000000F40000001300000000000000000000000000B20000005B436F6E74656E745F54797065735D2E786D6C504B010214001400
310
06080800E94C5C40FA7631B3E80000007C010000080000000000000000000000000083010000636F72652E786D6C504B01021400140006080800E94C5C4055019EA25F0000007C000000070000000000000000000000000091020000636E782E786D6C504B01021400140006080800E94C5C4026272EE76401000002030000
310
0C00000000000000000000000000150300006662782F636F72652E786D6C504B01021400140006080800E94C5C40A2473C627D0000009D0000000B00000000000000000000000000A30400006662782F636E782E786D6C504B01021400140006080800E94C5C40162E786F2B01000014020000310000000000000000000000
310
0000490500006662782F33384633413842412D433143362D343134332D424138302D3433463131424533383436372F636F72652E786D6C504B01021400140006080800E94C5C40F70D9ADA54010000330300003000000000000000000000000000C30600006662782F33384633413842412D433143362D343134332D424138
310
302D3433463131424533383436372F636E782E786D6C504B01021400140006080800E94C5C400C554B3257070000931B00003400000000000000000000000000650800006662782F33384633413842412D433143362D343134332D424138302D3433463131424533383436372F6F626A656374732E786D6C504B0102140014
310
0006080000E94C5C4000000000000000000000000035000000000000000000000000000E1000006662782F33384633413842412D433143362D343134332D424138302D3433463131424533383436372F76657274696365732E62696E504B01021400140006080800E94C5C40F270F133060000000400000036000000000000
310
00000000000000611000006662782F33384633413842412D433143362D343134332D424138302D3433463131424533383436372F747269616E676C65732E62696E504B01021400140006080000E94C5C400000000000000000000000003700000000000000000000000000BB1000006662782F33384633413842412D433143
310
362D343134332D424138302D3433463131424533383436372F617474726962757465732E62696E504B01021400140006080800E94C5C40D5987DFC8F000000410100003600000000000000000000000000101100006662782F33384633413842412D433143362D343134332D424138302D3433463131424533383436372F64
310
69726563746F72792E786D6C504B01021400140006080800E94C5C40929C6C82FA000000A00100003B00000000000000000000000000F31100006662782F33384633413842412D433143362D343134332D424138302D3433463131424533383436372F7265736F75726365732F636F72652E786D6C504B0506000000000E00
310
0E0080040000461300000000
  0
XRECORD
  5
27
102
{ACAD_REACTORS
330
22
102
}
330
22
100
AcDbXrecord
280
     1
270
     1
271
     1
  0
XRECORD
  5
26
102
{ACAD_REACTORS
330
22
102
}
330
22
100
AcDbXrecord
280
     1
270
     1
271
     1
  0
XRECORD
  5
28
102
{ACAD_REACTORS
330
22
102
}
330
22
100
AcDbXrecord
280
     1
270
     1
271
     1
  0
XRECORD
  5
25
102
{ACAD_REACTORS
330
22
102
}
330
22
100
AcDbXrecord
280
     1
270
     1
271
     1
  0
XRECORD
  5
B11
102
{ACAD_REACTORS
330
B10
102
}
330
B10
100
AcDbXrecord
280
     1
102
ACAD_ROUNDTRIP_2012_MLEADER_STYLE
298
     1
  0
CELLSTYLEMAP
  5
B0F
102
{ACAD_REACTORS
330
B0E
102
}
330
B0E
100
AcDbCellStyleMap
 90
        3
300
CELLSTYLE
  1
TABLEFORMAT_BEGIN
 90
        5
170
     1
 91
        0
 92
    32768
 62
   257
 93
        1
300
CONTENTFORMAT
  1
CONTENTFORMAT_BEGIN
 90
        0
 91
        0
 92
      512
 93
        0
300

 40
0.0
140
1.0
 94
        5
 62
     0
340
55
144
0.25
309
CONTENTFORMAT_END
171
     0
 94
        0
309
TABLEFORMAT_END
  1
CELLSTYLE_BEGIN
 90
        1
 91
        1
300
_TITLE
309
CELLSTYLE_END
300
CELLSTYLE
  1
TABLEFORMAT_BEGIN
 90
        5
170
     1
 91
        0
 92
        0
 62
   257
 93
        1
300
CONTENTFORMAT
  1
CONTENTFORMAT_BEGIN
 90
        0
 91
        0
 92
      512
 93
        0
300

 40
0.0
140
1.0
 94
        5
 62
     0
340
55
144
0.18
309
CONTENTFORMAT_END
171
     0
 94
        0
309
TABLEFORMAT_END
  1
CELLSTYLE_BEGIN
 90
        2
 91
        1
300
_HEADER
309
CELLSTYLE_END
300
CELLSTYLE
  1
TABLEFORMAT_BEGIN
 90
        5
170
     1
 91
        0
 92
        0
 62
   257
 93
        1
300
CONTENTFORMAT
  1
CONTENTFORMAT_BEGIN
 90
        0
 91
        0
 92
      512
 93
        0
300

 40
0.0
140
1.0
 94
        2
 62
     0
340
55
144
0.18
309
CONTENTFORMAT_END
171
     0
 94
        0
309
TABLEFORMAT_END
  1
CELLSTYLE_BEGIN
 90
        3
 91
        2
300
_DATA
309
CELLSTYLE_END
  0
XRECORD
  5
B49
102
{ACAD_REACTORS
330
B0E
102
}
330
B0E
100
AcDbXrecord
280
     1
102
ACAD_ROUNDTRIP_PRE2007_TABLESTYLE
 90
      512
 91
        0
  1

 92
      512
 93
        0
  2

 94
      512
 95
        0
  3

  0
XRECORD
  5
B24
102
{ACAD_REACTORS
330
B23
102
}
330
B23
100
AcDbXrecord
280
     1
102
RTVSPropertyOp0
 70
     1
102
RTVSPropertyOp1
 70
     1
102
RTVSPropertyOp2
 70
     1
102
RTVSPropertyOp3
 70
     1
102
RTVSPropertyOp4
 70
     1
102
RTVSPropertyOp5
 70
     1
102
RTVSPropertyOp6
 70
     1
102
RTVSPropertyOp7
 70
     1
102
RTVSPropertyOp8
 70
     1
102
RTVSPropertyOp9
 70
     1
102
RTVSPropertyOp10
 70
     1
102
RTVSPropertyOp11
 70
     1
102
RTVSPropertyOp12
 70
     1
102
RTVSPropertyOp13
 70
     1
102
RTVSPropertyOp14
 70
     1
102
RTVSPropertyOp15
 70
     1
102
RTVSPropertyOp16
 70
     1
102
RTVSPropertyOp17
 70
     1
102
RTVSPropertyOp18
 70
     1
102
RTVSPropertyOp19
 70
     1
102
RTVSPropertyOp20
 70
     1
102
RTVSPropertyOp21
 70
     1
102
RTVSPropertyOp22
 70
     1
102
RTVSPropertyOp23
 70
     1
102
RTVSPropertyOp24
 70
     1
102
RTVSPropertyOp25
 70
     1
102
RTVSPropertyOp26
 70
     1
102
RTVSPropertyOp27
 70
     1
102
RTVSPropertyOp28
 70
     1
102
RTVSPropertyOp29
 70
     1
102
RTVSPropertyOp30
 70
     1
102
RTVSPropertyOp31
 70
     1
102
RTVSPropertyOp32
 70
     1
  0
XRECORD
  5
B22
102
{ACAD_REACTORS
330
B21
102
}
330
B21
100
AcDbXrecord
280
     1
102
RTVSPropertyOp0
 70
     1
102
RTVSPropertyOp1
 70
     1
102
RTVSPropertyOp2
 70
     1
102
RTVSPropertyOp3
 70
     1
102
RTVSPropertyOp4
 70
     1
102
RTVSPropertyOp5
 70
     1
102
RTVSPropertyOp6
 70
     1
102
RTVSPropertyOp7
 70
     1
102
RTVSPropertyOp8
 70
     1
102
RTVSPropertyOp9
 70
     1
102
RTVSPropertyOp10
 70
     1
102
RTVSPropertyOp11
 70
     1
102
RTVSPropertyOp12
 70
     1
102
RTVSPropertyOp13
 70
     1
102
RTVSPropertyOp14
 70
     1
102
RTVSPropertyOp15
 70
     1
102
RTVSPropertyOp16
 70
     1
102
RTVSPropertyOp17
 70
     1
102
RTVSPropertyOp18
 70
     1
102
RTVSPropertyOp19
 70
     1
102
RTVSPropertyOp20
 70
     1
102
RTVSPropertyOp21
 70
     1
102
RTVSPropertyOp22
 70
     1
102
RTVSPropertyOp23
 70
     1
102
RTVSPropertyOp24
 70
     1
102
RTVSPropertyOp25
 70
     1
102
RTVSPropertyOp26
 70
     1
102
RTVSPropertyOp27
 70
     1
102
RTVSPropertyOp28
 70
     1
102
RTVSPropertyOp29
 70
     1
102
RTVSPropertyOp30
 70
     1
102
RTVSPropertyOp31
 70
     1
102
RTVSPropertyOp32
 70
     1
  0
XRECORD
  5
B30
102
{ACAD_REACTORS
330
B2F
102
}
330
B2F
100
AcDbXrecord
280
     1
102
RTVSPropertyOp0
 70
     1
102
RTVSPropertyOp1
 70
     1
102
RTVSPropertyOp2
 70
     1
102
RTVSPropertyOp3
 70
     1
102
RTVSPropertyOp4
 70
     1
102
RTVSPropertyOp5
 70
     1
102
RTVSPropertyOp6
 70
     1
102
RTVSPropertyOp7
 70
     1
102
RTVSPropertyOp8
 70
     1
102
RTVSPropertyOp9
 70
     1
102
RTVSPropertyOp10
 70
     1
102
RTVSPropertyOp11
 70
     1
102
RTVSPropertyOp12
 70
     1
102
RTVSPropertyOp13
 70
     1
102
RTVSPropertyOp14
 70
     1
102
RTVSPropertyOp15
 70
     1
102
RTVSPropertyOp16
 70
     1
102
RTVSPropertyOp17
 70
     1
102
RTVSPropertyOp18
 70
     1
102
RTVSPropertyOp19
 70
     1
102
RTVSPropertyOp20
 70
     1
102
RTVSPropertyOp21
 70
     1
102
RTVSPropertyOp22
 70
     1
102
RTVSPropertyOp23
 70
     1
102
RTVSPropertyOp24
 70
     1
102
RTVSPropertyOp25
 70
     1
102
RTVSPropertyOp26
 70
     1
102
RTVSPropertyOp27
 70
     1
102
RTVSPropertyOp28
 70
     1
102
RTVSPropertyOp29
 70
     1
102
RTVSPropertyOp30
 70
     1
102
RTVSPropertyOp31
 70
     1
102
RTVSPropertyOp32
 70
     1
  0
XRECORD
  5
B38
102
{ACAD_REACTORS
330
B37
102
}
330
B37
100
AcDbXrecord
280
     1
102
RTVSPropertyOp0
 70
     1
102
RTVSPropertyOp1
 70
     1
102
RTVSPropertyOp2
 70
     1
102
RTVSPropertyOp3
 70
     1
102
RTVSPropertyOp4
 70
     1
102
RTVSPropertyOp5
 70
     1
102
RTVSPropertyOp6
 70
     1
102
RTVSPropertyOp7
 70
     1
102
RTVSPropertyOp8
 70
     1
102
RTVSPropertyOp9
 70
     1
102
RTVSPropertyOp10
 70
     1
102
RTVSPropertyOp11
 70
     1
102
RTVSPropertyOp12
 70
     1
102
RTVSPropertyOp13
 70
     1
102
RTVSPropertyOp14
 70
     1
102
RTVSPropertyOp15
 70
     1
102
RTVSPropertyOp16
 70
     1
102
RTVSPropertyOp17
 70
     1
102
RTVSPropertyOp18
 70
     1
102
RTVSPropertyOp19
 70
     1
102
RTVSPropertyOp20
 70
     1
102
RTVSPropertyOp21
 70
     1
102
RTVSPropertyOp22
 70
     1
102
RTVSPropertyOp23
 70
     1
102
RTVSPropertyOp24
 70
     1
102
RTVSPropertyOp25
 70
     1
102
RTVSPropertyOp26
 70
     1
102
RTVSPropertyOp27
 70
     1
102
RTVSPropertyOp28
 70
     1
102
RTVSPropertyOp29
 70
     1
102
RTVSPropertyOp30
 70
     1
102
RTVSPropertyOp31
 70
     1
102
RTVSPropertyOp32
 70
     1
  0
XRECORD
  5
B2A
102
{ACAD_REACTORS
330
B29
102
}
330
B29
100
AcDbXrecord
280
     1
102
RTVSPropertyOp0
 70
     1
102
RTVSPropertyOp1
 70
     1
102
RTVSPropertyOp2
 70
     1
102
RTVSPropertyOp3
 70
     1
102
RTVSPropertyOp4
 70
     1
102
RTVSPropertyOp5
 70
     1
102
RTVSPropertyOp6
 70
     1
102
RTVSPropertyOp7
 70
     1
102
RTVSPropertyOp8
 70
     1
102
RTVSPropertyOp9
 70
     1
102
RTVSPropertyOp10
 70
     1
102
RTVSPropertyOp11
 70
     1
102
RTVSPropertyOp12
 70
     1
102
RTVSPropertyOp13
 70
     1
102
RTVSPropertyOp14
 70
     1
102
RTVSPropertyOp15
 70
     1
102
RTVSPropertyOp16
 70
     1
102
RTVSPropertyOp17
 70
     1
102
RTVSPropertyOp18
 70
     1
102
RTVSPropertyOp19
 70
     1
102
RTVSPropertyOp20
 70
     1
102
RTVSPropertyOp21
 70
     1
102
RTVSPropertyOp22
 70
     1
102
RTVSPropertyOp23
 70
     1
102
RTVSPropertyOp24
 70
     1
102
RTVSPropertyOp25
 70
     1
102
RTVSPropertyOp26
 70
     1
102
RTVSPropertyOp27
 70
     1
102
RTVSPropertyOp28
 70
     1
102
RTVSPropertyOp29
 70
     1
102
RTVSPropertyOp30
 70
     1
102
RTVSPropertyOp31
 70
     1
102
RTVSPropertyOp32
 70
     1
  0
XRECORD
  5
B2E
102
{ACAD_REACTORS
330
B2D
102
}
330
B2D
100
AcDbXrecord
280
     1
102
RTVSPropertyOp0
 70
     1
102
RTVSPropertyOp1
 70
     1
102
RTVSPropertyOp2
 70
     1
102
RTVSPropertyOp3
 70
     1
102
RTVSPropertyOp4
 70
     1
102
RTVSPropertyOp5
 70
     1
102
RTVSPropertyOp6
 70
     1
102
RTVSPropertyOp7
 70
     1
102
RTVSPropertyOp8
 70
     1
102
RTVSPropertyOp9
 70
     1
102
RTVSPropertyOp10
 70
     1
102
RTVSPropertyOp11
 70
     1
102
RTVSPropertyOp12
 70
     1
102
RTVSPropertyOp13
 70
     1
102
RTVSPropertyOp14
 70
     1
102
RTVSPropertyOp15
 70
     1
102
RTVSPropertyOp16
 70
     1
102
RTVSPropertyOp17
 70
     1
102
RTVSPropertyOp18
 70
     1
102
RTVSPropertyOp19
 70
     1
102
RTVSPropertyOp20
 70
     1
102
RTVSPropertyOp21
 70
     1
102
RTVSPropertyOp22
 70
     1
102
RTVSPropertyOp23
 70
     1
102
RTVSPropertyOp24
 70
     1
102
RTVSPropertyOp25
 70
     1
102
RTVSPropertyOp26
 70
     1
102
RTVSPropertyOp27
 70
     1
102
RTVSPropertyOp28
 70
     1
102
RTVSPropertyOp29
 70
     1
102
RTVSPropertyOp30
 70
     1
102
RTVSPropertyOp31
 70
     1
102
RTVSPropertyOp32
 70
     1
  0
XRECORD
  5
B48
102
{ACAD_REACTORS
330
B47
102
}
330
B47
100
AcDbXrecord
280
     1
102
RTVSPropertyOp0
 70
     0
102
RTVSPropertyOp1
 70
     0
102
RTVSPropertyOp2
 70
     0
102
RTVSPropertyOp3
 70
     0
102
RTVSPropertyOp4
 70
     0
102
RTVSPropertyOp5
 70
     0
102
RTVSPropertyOp6
 70
     0
102
RTVSPropertyOp7
 70
     0
102
RTVSPropertyOp8
 70
     0
102
RTVSPropertyOp9
 70
     0
102
RTVSPropertyOp10
 70
     0
102
RTVSPropertyOp11
 70
     0
102
RTVSPropertyOp12
 70
     0
102
RTVSPropertyOp13
 70
     0
102
RTVSPropertyOp14
 70
     2
102
RTVSPropertyOp15
 70
     0
102
RTVSPropertyOp16
 70
     0
102
RTVSPropertyOp17
 70
     0
102
RTVSPropertyOp18
 70
     0
102
RTVSPropertyOp19
 70
     0
102
RTVSPropertyOp20
 70
     0
102
RTVSPropertyOp21
 70
     0
102
RTVSPropertyOp22
 70
     0
102
RTVSPropertyOp23
 70
     0
102
RTVSPropertyOp24
 70
     0
102
RTVSPropertyOp25
 70
     0
102
RTVSPropertyOp26
 70
     0
102
RTVSPropertyOp27
 70
     0
102
RTVSPropertyOp28
 70
     1
102
RTVSPropertyOp29
 70
     1
102
RTVSPropertyOp30
 70
     1
102
RTVSPropertyOp31
 70
     1
102
RTVSPropertyOp32
 70
     1
  0
XRECORD
  5
B36
102
{ACAD_REACTORS
330
B35
102
}
330
B35
100
AcDbXrecord
280
     1
102
RTVSPropertyOp0
 70
     1
102
RTVSPropertyOp1
 70
     1
102
RTVSPropertyOp2
 70
     1
102
RTVSPropertyOp3
 70
     1
102
RTVSPropertyOp4
 70
     1
102
RTVSPropertyOp5
 70
     1
102
RTVSPropertyOp6
 70
     1
102
RTVSPropertyOp7
 70
     1
102
RTVSPropertyOp8
 70
     1
102
RTVSPropertyOp9
 70
     1
102
RTVSPropertyOp10
 70
     1
102
RTVSPropertyOp11
 70
     1
102
RTVSPropertyOp12
 70
     1
102
RTVSPropertyOp13
 70
     1
102
RTVSPropertyOp14
 70
     1
102
RTVSPropertyOp15
 70
     1
102
RTVSPropertyOp16
 70
     1
102
RTVSPropertyOp17
 70
     1
102
RTVSPropertyOp18
 70
     1
102
RTVSPropertyOp19
 70
     1
102
RTVSPropertyOp20
 70
     1
102
RTVSPropertyOp21
 70
     1
102
RTVSPropertyOp22
 70
     1
102
RTVSPropertyOp23
 70
     1
102
RTVSPropertyOp24
 70
     1
102
RTVSPropertyOp25
 70
     1
102
RTVSPropertyOp26
 70
     1
102
RTVSPropertyOp27
 70
     1
102
RTVSPropertyOp28
 70
     1
102
RTVSPropertyOp29
 70
     1
102
RTVSPropertyOp30
 70
     1
102
RTVSPropertyOp31
 70
     1
102
RTVSPropertyOp32
 70
     1
  0
XRECORD
  5
B1A
102
{ACAD_REACTORS
330
B19
102
}
330
B19
100
AcDbXrecord
280
     1
102
RTVSPropertyOp0
 70
     1
102
RTVSPropertyOp1
 70
     1
102
RTVSPropertyOp2
 70
     1
102
RTVSPropertyOp3
 70
     1
102
RTVSPropertyOp4
 70
     1
102
RTVSPropertyOp5
 70
     1
102
RTVSPropertyOp6
 70
     1
102
RTVSPropertyOp7
 70
     1
102
RTVSPropertyOp8
 70
     1
102
RTVSPropertyOp9
 70
     1
102
RTVSPropertyOp10
 70
     1
102
RTVSPropertyOp11
 70
     1
102
RTVSPropertyOp12
 70
     1
102
RTVSPropertyOp13
 70
     1
102
RTVSPropertyOp14
 70
     1
102
RTVSPropertyOp15
 70
     1
102
RTVSPropertyOp16
 70
     1
102
RTVSPropertyOp17
 70
     1
102
RTVSPropertyOp18
 70
     1
102
RTVSPropertyOp19
 70
     1
102
RTVSPropertyOp20
 70
     1
102
RTVSPropertyOp21
 70
     1
102
RTVSPropertyOp22
 70
     1
102
RTVSPropertyOp23
 70
     1
102
RTVSPropertyOp24
 70
     1
102
RTVSPropertyOp25
 70
     1
102
RTVSPropertyOp26
 70
     1
102
RTVSPropertyOp27
 70
     1
102
RTVSPropertyOp28
 70
     1
102
RTVSPropertyOp29
 70
     1
102
RTVSPropertyOp30
 70
     1
102
RTVSPropertyOp31
 70
     1
102
RTVSPropertyOp32
 70
     1
  0
XRECORD
  5
B1C
102
{ACAD_REACTORS
330
B1B
102
}
330
B1B
100
AcDbXrecord
280
     1
102
RTVSPropertyOp0
 70
     1
102
RTVSPropertyOp1
 70
     1
102
RTVSPropertyOp2
 70
     1
102
RTVSPropertyOp3
 70
     1
102
RTVSPropertyOp4
 70
     1
102
RTVSPropertyOp5
 70
     1
102
RTVSPropertyOp6
 70
     1
102
RTVSPropertyOp7
 70
     1
102
RTVSPropertyOp8
 70
     1
102
RTVSPropertyOp9
 70
     1
102
RTVSPropertyOp10
 70
     1
102
RTVSPropertyOp11
 70
     1
102
RTVSPropertyOp12
 70
     1
102
RTVSPropertyOp13
 70
     1
102
RTVSPropertyOp14
 70
     1
102
RTVSPropertyOp15
 70
     1
102
RTVSPropertyOp16
 70
     1
102
RTVSPropertyOp17
 70
     1
102
RTVSPropertyOp18
 70
     1
102
RTVSPropertyOp19
 70
     1
102
RTVSPropertyOp20
 70
     1
102
RTVSPropertyOp21
 70
     1
102
RTVSPropertyOp22
 70
     1
102
RTVSPropertyOp23
 70
     1
102
RTVSPropertyOp24
 70
     1
102
RTVSPropertyOp25
 70
     1
102
RTVSPropertyOp26
 70
     1
102
RTVSPropertyOp27
 70
     1
102
RTVSPropertyOp28
 70
     1
102
RTVSPropertyOp29
 70
     1
102
RTVSPropertyOp30
 70
     1
102
RTVSPropertyOp31
 70
     1
102
RTVSPropertyOp32
 70
     1
  0
XRECORD
  5
B1E
102
{ACAD_REACTORS
330
B1D
102
}
330
B1D
100
AcDbXrecord
280
     1
102
RTVSPropertyOp0
 70
     1
102
RTVSPropertyOp1
 70
     1
102
RTVSPropertyOp2
 70
     1
102
RTVSPropertyOp3
 70
     1
102
RTVSPropertyOp4
 70
     1
102
RTVSPropertyOp5
 70
     1
102
RTVSPropertyOp6
 70
     1
102
RTVSPropertyOp7
 70
     1
102
RTVSPropertyOp8
 70
     1
102
RTVSPropertyOp9
 70
     1
102
RTVSPropertyOp10
 70
     1
102
RTVSPropertyOp11
 70
     1
102
RTVSPropertyOp12
 70
     1
102
RTVSPropertyOp13
 70
     1
102
RTVSPropertyOp14
 70
     1
102
RTVSPropertyOp15
 70
     1
102
RTVSPropertyOp16
 70
     1
102
RTVSPropertyOp17
 70
     1
102
RTVSPropertyOp18
 70
     1
102
RTVSPropertyOp19
 70
     1
102
RTVSPropertyOp20
 70
     1
102
RTVSPropertyOp21
 70
     1
102
RTVSPropertyOp22
 70
     1
102
RTVSPropertyOp23
 70
     1
102
RTVSPropertyOp24
 70
     1
102
RTVSPropertyOp25
 70
     1
102
RTVSPropertyOp26
 70
     1
102
RTVSPropertyOp27
 70
     1
102
RTVSPropertyOp28
 70
     1
102
RTVSPropertyOp29
 70
     1
102
RTVSPropertyOp30
 70
     1
102
RTVSPropertyOp31
 70
     1
102
RTVSPropertyOp32
 70
     1
  0
XRECORD
  5
B20
102
{ACAD_REACTORS
330
B1F
102
}
330
B1F
100
AcDbXrecord
280
     1
102
RTVSPropertyOp0
 70
     1
102
RTVSPropertyOp1
 70
     1
102
RTVSPropertyOp2
 70
     1
102
RTVSPropertyOp3
 70
     1
102
RTVSPropertyOp4
 70
     1
102
RTVSPropertyOp5
 70
     1
102
RTVSPropertyOp6
 70
     1
102
RTVSPropertyOp7
 70
     1
102
RTVSPropertyOp8
 70
     1
102
RTVSPropertyOp9
 70
     1
102
RTVSPropertyOp10
 70
     1
102
RTVSPropertyOp11
 70
     1
102
RTVSPropertyOp12
 70
     1
102
RTVSPropertyOp13
 70
     1
102
RTVSPropertyOp14
 70
     1
102
RTVSPropertyOp15
 70
     1
102
RTVSPropertyOp16
 70
     1
102
RTVSPropertyOp17
 70
     1
102
RTVSPropertyOp18
 70
     1
102
RTVSPropertyOp19
 70
     1
102
RTVSPropertyOp20
 70
     1
102
RTVSPropertyOp21
 70
     1
102
RTVSPropertyOp22
 70
     1
102
RTVSPropertyOp23
 70
     1
102
RTVSPropertyOp24
 70
     1
102
RTVSPropertyOp25
 70
     1
102
RTVSPropertyOp26
 70
     1
102
RTVSPropertyOp27
 70
     1
102
RTVSPropertyOp28
 70
     1
102
RTVSPropertyOp29
 70
     1
102
RTVSPropertyOp30
 70
     1
102
RTVSPropertyOp31
 70
     1
102
RTVSPropertyOp32
 70
     1
  0
XRECORD
  5
B28
102
{ACAD_REACTORS
330
B27
102
}
330
B27
100
AcDbXrecord
280
     1
102
RTVSPropertyOp0
 70
     1
102
RTVSPropertyOp1
 70
     1
102
RTVSPropertyOp2
 70
     1
102
RTVSPropertyOp3
 70
     1
102
RTVSPropertyOp4
 70
     1
102
RTVSPropertyOp5
 70
     1
102
RTVSPropertyOp6
 70
     1
102
RTVSPropertyOp7
 70
     1
102
RTVSPropertyOp8
 70
     1
102
RTVSPropertyOp9
 70
     1
102
RTVSPropertyOp10
 70
     1
102
RTVSPropertyOp11
 70
     1
102
RTVSPropertyOp12
 70
     1
102
RTVSPropertyOp13
 70
     1
102
RTVSPropertyOp14
 70
     1
102
RTVSPropertyOp15
 70
     1
102
RTVSPropertyOp16
 70
     1
102
RTVSPropertyOp17
 70
     1
102
RTVSPropertyOp18
 70
     1
102
RTVSPropertyOp19
 70
     1
102
RTVSPropertyOp20
 70
     1
102
RTVSPropertyOp21
 70
     1
102
RTVSPropertyOp22
 70
     1
102
RTVSPropertyOp23
 70
     1
102
RTVSPropertyOp24
 70
     1
102
RTVSPropertyOp25
 70
     1
102
RTVSPropertyOp26
 70
     1
102
RTVSPropertyOp27
 70
     1
102
RTVSPropertyOp28
 70
     1
102
RTVSPropertyOp29
 70
     1
102
RTVSPropertyOp30
 70
     1
102
RTVSPropertyOp31
 70
     1
102
RTVSPropertyOp32
 70
     1
  0
XRECORD
  5
B44
102
{ACAD_REACTORS
330
B43
102
}
330
B43
100
AcDbXrecord
280
     1
102
RTVSPropertyOp0
 70
     0
102
RTVSPropertyOp1
 70
     0
102
RTVSPropertyOp2
 70
     0
102
RTVSPropertyOp3
 70
     0
102
RTVSPropertyOp4
 70
     0
102
RTVSPropertyOp5
 70
     0
102
RTVSPropertyOp6
 70
     0
102
RTVSPropertyOp7
 70
     0
102
RTVSPropertyOp8
 70
     0
102
RTVSPropertyOp9
 70
     0
102
RTVSPropertyOp10
 70
     0
102
RTVSPropertyOp11
 70
     0
102
RTVSPropertyOp12
 70
     0
102
RTVSPropertyOp13
 70
     0
102
RTVSPropertyOp14
 70
     2
102
RTVSPropertyOp15
 70
     0
102
RTVSPropertyOp16
 70
     0
102
RTVSPropertyOp17
 70
     0
102
RTVSPropertyOp18
 70
     0
102
RTVSPropertyOp19
 70
     0
102
RTVSPropertyOp20
 70
     0
102
RTVSPropertyOp21
 70
     0
102
RTVSPropertyOp22
 70
     0
102
RTVSPropertyOp23
 70
     0
102
RTVSPropertyOp24
 70
     0
102
RTVSPropertyOp25
 70
     0
102
RTVSPropertyOp26
 70
     0
102
RTVSPropertyOp27
 70
     0
102
RTVSPropertyOp28
 70
     1
102
RTVSPropertyOp29
 70
     1
102
RTVSPropertyOp30
 70
     1
102
RTVSPropertyOp31
 70
     1
102
RTVSPropertyOp32
 70
     1
  0
XRECORD
  5
B34
102
{ACAD_REACTORS
330
B33
102
}
330
B33
100
AcDbXrecord
280
     1
102
RTVSPropertyOp0
 70
     1
102
RTVSPropertyOp1
 70
     1
102
RTVSPropertyOp2
 70
     1
102
RTVSPropertyOp3
 70
     1
102
RTVSPropertyOp4
 70
     1
102
RTVSPropertyOp5
 70
     1
102
RTVSPropertyOp6
 70
     1
102
RTVSPropertyOp7
 70
     1
102
RTVSPropertyOp8
 70
     1
102
RTVSPropertyOp9
 70
     1
102
RTVSPropertyOp10
 70
     1
102
RTVSPropertyOp11
 70
     1
102
RTVSPropertyOp12
 70
     1
102
RTVSPropertyOp13
 70
     1
102
RTVSPropertyOp14
 70
     1
102
RTVSPropertyOp15
 70
     1
102
RTVSPropertyOp16
 70
     1
102
RTVSPropertyOp17
 70
     1
102
RTVSPropertyOp18
 70
     1
102
RTVSPropertyOp19
 70
     1
102
RTVSPropertyOp20
 70
     1
102
RTVSPropertyOp21
 70
     1
102
RTVSPropertyOp22
 70
     1
102
RTVSPropertyOp23
 70
     1
102
RTVSPropertyOp24
 70
     1
102
RTVSPropertyOp25
 70
     1
102
RTVSPropertyOp26
 70
     1
102
RTVSPropertyOp27
 70
     1
102
RTVSPropertyOp28
 70
     1
102
RTVSPropertyOp29
 70
     1
102
RTVSPropertyOp30
 70
     1
102
RTVSPropertyOp31
 70
     1
102
RTVSPropertyOp32
 70
     1
  0
XRECORD
  5
B46
102
{ACAD_REACTORS
330
B45
102
}
330
B45
100
AcDbXrecord
280
     1
102
RTVSPropertyOp0
 70
     0
102
RTVSPropertyOp1
 70
     0
102
RTVSPropertyOp2
 70
     0
102
RTVSPropertyOp3
 70
     0
102
RTVSPropertyOp4
 70
     0
102
RTVSPropertyOp5
 70
     0
102
RTVSPropertyOp6
 70
     0
102
RTVSPropertyOp7
 70
     0
102
RTVSPropertyOp8
 70
     0
102
RTVSPropertyOp9
 70
     0
102
RTVSPropertyOp10
 70
     0
102
RTVSPropertyOp11
 70
     0
102
RTVSPropertyOp12
 70
     0
102
RTVSPropertyOp13
 70
     0
102
RTVSPropertyOp14
 70
     2
102
RTVSPropertyOp15
 70
     0
102
RTVSPropertyOp16
 70
     0
102
RTVSPropertyOp17
 70
     0
102
RTVSPropertyOp18
 70
     0
102
RTVSPropertyOp19
 70
     0
102
RTVSPropertyOp20
 70
     0
102
RTVSPropertyOp21
 70
     0
102
RTVSPropertyOp22
 70
     0
102
RTVSPropertyOp23
 70
     0
102
RTVSPropertyOp24
 70
     0
102
RTVSPropertyOp25
 70
     0
102
RTVSPropertyOp26
 70
     0
102
RTVSPropertyOp27
 70
     0
102
RTVSPropertyOp28
 70
     1
102
RTVSPropertyOp29
 70
     1
102
RTVSPropertyOp30
 70
     1
102
RTVSPropertyOp31
 70
     1
102
RTVSPropertyOp32
 70
     1
  0
XRECORD
  5
B2C
102
{ACAD_REACTORS
330
B2B
102
}
330
B2B
100
AcDbXrecord
280
     1
102
RTVSPropertyOp0
 70
     1
102
RTVSPropertyOp1
 70
     1
102
RTVSPropertyOp2
 70
     1
102
RTVSPropertyOp3
 70
     1
102
RTVSPropertyOp4
 70
     1
102
RTVSPropertyOp5
 70
     1
102
RTVSPropertyOp6
 70
     1
102
RTVSPropertyOp7
 70
     1
102
RTVSPropertyOp8
 70
     1
102
RTVSPropertyOp9
 70
     1
102
RTVSPropertyOp10
 70
     1
102
RTVSPropertyOp11
 70
     1
102
RTVSPropertyOp12
 70
     1
102
RTVSPropertyOp13
 70
     1
102
RTVSPropertyOp14
 70
     1
102
RTVSPropertyOp15
 70
     1
102
RTVSPropertyOp16
 70
     1
102
RTVSPropertyOp17
 70
     1
102
RTVSPropertyOp18
 70
     1
102
RTVSPropertyOp19
 70
     1
102
RTVSPropertyOp20
 70
     1
102
RTVSPropertyOp21
 70
     1
102
RTVSPropertyOp22
 70
     1
102
RTVSPropertyOp23
 70
     1
102
RTVSPropertyOp24
 70
     1
102
RTVSPropertyOp25
 70
     1
102
RTVSPropertyOp26
 70
     1
102
RTVSPropertyOp27
 70
     1
102
RTVSPropertyOp28
 70
     1
102
RTVSPropertyOp29
 70
     1
102
RTVSPropertyOp30
 70
     1
102
RTVSPropertyOp31
 70
     1
102
RTVSPropertyOp32
 70
     1
  0
XRECORD
  5
B42
102
{ACAD_REACTORS
330
B41
102
}
330
B41
100
AcDbXrecord
280
     1
102
RTVSPropertyOp0
 70
     1
102
RTVSPropertyOp1
 70
     1
102
RTVSPropertyOp2
 70
     1
102
RTVSPropertyOp3
 70
     1
102
RTVSPropertyOp4
 70
     1
102
RTVSPropertyOp5
 70
     1
102
RTVSPropertyOp6
 70
     1
102
RTVSPropertyOp7
 70
     1
102
RTVSPropertyOp8
 70
     1
102
RTVSPropertyOp9
 70
     1
102
RTVSPropertyOp10
 70
     1
102
RTVSPropertyOp11
 70
     1
102
RTVSPropertyOp12
 70
     1
102
RTVSPropertyOp13
 70
     1
102
RTVSPropertyOp14
 70
     1
102
RTVSPropertyOp15
 70
     1
102
RTVSPropertyOp16
 70
     1
102
RTVSPropertyOp17
 70
     1
102
RTVSPropertyOp18
 70
     1
102
RTVSPropertyOp19
 70
     1
102
RTVSPropertyOp20
 70
     1
102
RTVSPropertyOp21
 70
     1
102
RTVSPropertyOp22
 70
     1
102
RTVSPropertyOp23
 70
     1
102
RTVSPropertyOp24
 70
     1
102
RTVSPropertyOp25
 70
     1
102
RTVSPropertyOp26
 70
     1
102
RTVSPropertyOp27
 70
     1
102
RTVSPropertyOp28
 70
     1
102
RTVSPropertyOp29
 70
     1
102
RTVSPropertyOp30
 70
     1
102
RTVSPropertyOp31
 70
     1
102
RTVSPropertyOp32
 70
     1
  0
XRECORD
  5
B40
102
{ACAD_REACTORS
330
B3F
102
}
330
B3F
100
AcDbXrecord
280
     1
102
RTVSPropertyOp0
 70
     1
102
RTVSPropertyOp1
 70
     1
102
RTVSPropertyOp2
 70
     1
102
RTVSPropertyOp3
 70
     1
102
RTVSPropertyOp4
 70
     1
102
RTVSPropertyOp5
 70
     1
102
RTVSPropertyOp6
 70
     1
102
RTVSPropertyOp7
 70
     1
102
RTVSPropertyOp8
 70
     1
102
RTVSPropertyOp9
 70
     1
102
RTVSPropertyOp10
 70
     1
102
RTVSPropertyOp11
 70
     1
102
RTVSPropertyOp12
 70
     1
102
RTVSPropertyOp13
 70
     1
102
RTVSPropertyOp14
 70
     1
102
RTVSPropertyOp15
 70
     1
102
RTVSPropertyOp16
 70
     1
102
RTVSPropertyOp17
 70
     1
102
RTVSPropertyOp18
 70
     1
102
RTVSPropertyOp19
 70
     1
102
RTVSPropertyOp20
 70
     1
102
RTVSPropertyOp21
 70
     1
102
RTVSPropertyOp22
 70
     1
102
RTVSPropertyOp23
 70
     1
102
RTVSPropertyOp24
 70
     1
102
RTVSPropertyOp25
 70
     1
102
RTVSPropertyOp26
 70
     1
102
RTVSPropertyOp27
 70
     1
102
RTVSPropertyOp28
 70
     1
102
RTVSPropertyOp29
 70
     1
102
RTVSPropertyOp30
 70
     1
102
RTVSPropertyOp31
 70
     1
102
RTVSPropertyOp32
 70
     1
  0
XRECORD
  5
B3A
102
{ACAD_REACTORS
330
B39
102
}
330
B39
100
AcDbXrecord
280
     1
102
RTVSPropertyOp0
 70
     1
102
RTVSPropertyOp1
 70
     1
102
RTVSPropertyOp2
 70
     1
102
RTVSPropertyOp3
 70
     1
102
RTVSPropertyOp4
 70
     1
102
RTVSPropertyOp5
 70
     1
102
RTVSPropertyOp6
 70
     1
102
RTVSPropertyOp7
 70
     1
102
RTVSPropertyOp8
 70
     1
102
RTVSPropertyOp9
 70
     1
102
RTVSPropertyOp10
 70
     1
102
RTVSPropertyOp11
 70
     1
102
RTVSPropertyOp12
 70
     1
102
RTVSPropertyOp13
 70
     1
102
RTVSPropertyOp14
 70
     1
102
RTVSPropertyOp15
 70
     1
102
RTVSPropertyOp16
 70
     1
102
RTVSPropertyOp17
 70
     1
102
RTVSPropertyOp18
 70
     1
102
RTVSPropertyOp19
 70
     1
102
RTVSPropertyOp20
 70
     1
102
RTVSPropertyOp21
 70
     1
102
RTVSPropertyOp22
 70
     1
102
RTVSPropertyOp23
 70
     1
102
RTVSPropertyOp24
 70
     1
102
RTVSPropertyOp25
 70
     1
102
RTVSPropertyOp26
 70
     1
102
RTVSPropertyOp27
 70
     1
102
RTVSPropertyOp28
 70
     1
102
RTVSPropertyOp29
 70
     1
102
RTVSPropertyOp30
 70
     1
102
RTVSPropertyOp31
 70
     1
102
RTVSPropertyOp32
 70
     1
  0
XRECORD
  5
B3C
102
{ACAD_REACTORS
330
B3B
102
}
330
B3B
100
AcDbXrecord
280
     1
102
RTVSPropertyOp0
 70
     1
102
RTVSPropertyOp1
 70
     1
102
RTVSPropertyOp2
 70
     1
102
RTVSPropertyOp3
 70
     1
102
RTVSPropertyOp4
 70
     1
102
RTVSPropertyOp5
 70
     1
102
RTVSPropertyOp6
 70
     1
102
RTVSPropertyOp7
 70
     1
102
RTVSPropertyOp8
 70
     1
102
RTVSPropertyOp9
 70
     1
102
RTVSPropertyOp10
 70
     1
102
RTVSPropertyOp11
 70
     1
102
RTVSPropertyOp12
 70
     1
102
RTVSPropertyOp13
 70
     1
102
RTVSPropertyOp14
 70
     1
102
RTVSPropertyOp15
 70
     1
102
RTVSPropertyOp16
 70
     1
102
RTVSPropertyOp17
 70
     1
102
RTVSPropertyOp18
 70
     1
102
RTVSPropertyOp19
 70
     1
102
RTVSPropertyOp20
 70
     1
102
RTVSPropertyOp21
 70
     1
102
RTVSPropertyOp22
 70
     1
102
RTVSPropertyOp23
 70
     1
102
RTVSPropertyOp24
 70
     1
102
RTVSPropertyOp25
 70
     1
102
RTVSPropertyOp26
 70
     1
102
RTVSPropertyOp27
 70
     1
102
RTVSPropertyOp28
 70
     1
102
RTVSPropertyOp29
 70
     1
102
RTVSPropertyOp30
 70
     1
102
RTVSPropertyOp31
 70
     1
102
RTVSPropertyOp32
 70
     1
  0
XRECORD
  5
B32
102
{ACAD_REACTORS
330
B31
102
}
330
B31
100
AcDbXrecord
280
     1
102
RTVSPropertyOp0
 70
     1
102
RTVSPropertyOp1
 70
     1
102
RTVSPropertyOp2
 70
     1
102
RTVSPropertyOp3
 70
     1
102
RTVSPropertyOp4
 70
     1
102
RTVSPropertyOp5
 70
     1
102
RTVSPropertyOp6
 70
     1
102
RTVSPropertyOp7
 70
     1
102
RTVSPropertyOp8
 70
     1
102
RTVSPropertyOp9
 70
     1
102
RTVSPropertyOp10
 70
     1
102
RTVSPropertyOp11
 70
     1
102
RTVSPropertyOp12
 70
     1
102
RTVSPropertyOp13
 70
     1
102
RTVSPropertyOp14
 70
     1
102
RTVSPropertyOp15
 70
     1
102
RTVSPropertyOp16
 70
     1
102
RTVSPropertyOp17
 70
     1
102
RTVSPropertyOp18
 70
     1
102
RTVSPropertyOp19
 70
     1
102
RTVSPropertyOp20
 70
     1
102
RTVSPropertyOp21
 70
     1
102
RTVSPropertyOp22
 70
     1
102
RTVSPropertyOp23
 70
     1
102
RTVSPropertyOp24
 70
     1
102
RTVSPropertyOp25
 70
     1
102
RTVSPropertyOp26
 70
     1
102
RTVSPropertyOp27
 70
     1
102
RTVSPropertyOp28
 70
     1
102
RTVSPropertyOp29
 70
     1
102
RTVSPropertyOp30
 70
     1
102
RTVSPropertyOp31
 70
     1
102
RTVSPropertyOp32
 70
     1
  0
XRECORD
  5
B26
102
{ACAD_REACTORS
330
B25
102
}
330
B25
100
AcDbXrecord
280
     1
102
RTVSPropertyOp0
 70
     1
102
RTVSPropertyOp1
 70
     1
102
RTVSPropertyOp2
 70
     1
102
RTVSPropertyOp3
 70
     1
102
RTVSPropertyOp4
 70
     1
102
RTVSPropertyOp5
 70
     1
102
RTVSPropertyOp6
 70
     1
102
RTVSPropertyOp7
 70
     1
102
RTVSPropertyOp8
 70
     1
102
RTVSPropertyOp9
 70
     1
102
RTVSPropertyOp10
 70
     1
102
RTVSPropertyOp11
 70
     1
102
RTVSPropertyOp12
 70
     1
102
RTVSPropertyOp13
 70
     1
102
RTVSPropertyOp14
 70
     1
102
RTVSPropertyOp15
 70
     1
102
RTVSPropertyOp16
 70
     1
102
RTVSPropertyOp17
 70
     1
102
RTVSPropertyOp18
 70
     1
102
RTVSPropertyOp19
 70
     1
102
RTVSPropertyOp20
 70
     1
102
RTVSPropertyOp21
 70
     1
102
RTVSPropertyOp22
 70
     1
102
RTVSPropertyOp23
 70
     1
102
RTVSPropertyOp24
 70
     1
102
RTVSPropertyOp25
 70
     1
102
RTVSPropertyOp26
 70
     1
102
RTVSPropertyOp27
 70
     1
102
RTVSPropertyOp28
 70
     1
102
RTVSPropertyOp29
 70
     1
102
RTVSPropertyOp30
 70
     1
102
RTVSPropertyOp31
 70
     1
102
RTVSPropertyOp32
 70
     1
  0
XRECORD
  5
B3E
102
{ACAD_REACTORS
330
B3D
102
}
330
B3D
100
AcDbXrecord
280
     1
102
RTVSPropertyOp0
 70
     1
102
RTVSPropertyOp1
 70
     1
102
RTVSPropertyOp2
 70
     1
102
RTVSPropertyOp3
 70
     1
102
RTVSPropertyOp4
 70
     1
102
RTVSPropertyOp5
 70
     1
102
RTVSPropertyOp6
 70
     1
102
RTVSPropertyOp7
 70
     1
102
RTVSPropertyOp8
 70
     1
102
RTVSPropertyOp9
 70
     1
102
RTVSPropertyOp10
 70
     1
102
RTVSPropertyOp11
 70
     1
102
RTVSPropertyOp12
 70
     1
102
RTVSPropertyOp13
 70
     1
102
RTVSPropertyOp14
 70
     1
102
RTVSPropertyOp15
 70
     1
102
RTVSPropertyOp16
 70
     1
102
RTVSPropertyOp17
 70
     1
102
RTVSPropertyOp18
 70
     1
102
RTVSPropertyOp19
 70
     1
102
RTVSPropertyOp20
 70
     1
102
RTVSPropertyOp21
 70
     1
102
RTVSPropertyOp22
 70
     1
102
RTVSPropertyOp23
 70
     1
102
RTVSPropertyOp24
 70
     1
102
RTVSPropertyOp25
 70
     1
102
RTVSPropertyOp26
 70
     1
102
RTVSPropertyOp27
 70
     1
102
RTVSPropertyOp28
 70
     1
102
RTVSPropertyOp29
 70
     1
102
RTVSPropertyOp30
 70
     1
102
RTVSPropertyOp31
 70
     1
102
RTVSPropertyOp32
 70
     1
  0
ENDSEC
  0
EOF
