  0
SECTION
  2
HEADER
  9
$ACADVER
  1
AC1015
  9
$ACADMAINTVER
 70
    18
  9
$DWGCODEPAGE
  3
ANSI_1252
  9
$INSBASE
 10
0.0
 20
0.0
 30
0.0
  9
$EXTMIN
 10
0.0
 20
0.0
 30
0.0
  9
$EXTMAX
 10
147.8260869565217
 20
95.65217391304347
 30
0.0
  9
$LIMMIN
 10
0.0
 20
0.0
  9
$LIMMAX
 10
147.8260869565217
 20
95.65217391304347
  9
$ORTHOMODE
 70
     0
  9
$REGENMODE
 70
     1
  9
$FILLMODE
 70
     1
  9
$QTEXTMODE
 70
     0
  9
$MIRRTEXT
 70
     0
  9
$LTSCALE
 40
8.695652173913043
  9
$ATTMODE
 70
     1
  9
$TEXTSIZE
 40
0.2
  9
$TRACEWID
 40
0.05
  9
$TEXTSTYLE
  7
Standard
  9
$CLAYER
  8
0
  9
$CELTYPE
  6
ByLayer
  9
$CECOLOR
 62
   256
  9
$CELTSCALE
 40
1.0
  9
$DISPSILH
 70
     0
  9
$DIMSCALE
 40
1.0
  9
$DIMASZ
 40
0.0708661417322835
  9
$DIMEXO
 40
0.0625
  9
$DIMDLI
 40
0.38
  9
$DIMRND
 40
0.0
  9
$DIMDLE
 40
0.0
  9
$DIMEXE
 40
0.18
  9
$DIMTP
 40
0.0
  9
$DIMTM
 40
0.0
  9
$DIMTXT
 40
0.0708661417322835
  9
$DIMCEN
 40
0.09
  9
$DIMTSZ
 40
0.0
  9
$DIMTOL
 70
     0
  9
$DIMLIM
 70
     0
  9
$DIMTIH
 70
     1
  9
$DIMTOH
 70
     1
  9
$DIMSE1
 70
     0
  9
$DIMSE2
 70
     0
  9
$DIMTAD
 70
     0
  9
$DIMZIN
 70
     0
  9
$DIMBLK
  1

  9
$DIMASO
 70
     1
  9
$DIMSHO
 70
     1
  9
$DIMPOST
  1

  9
$DIMAPOST
  1

  9
$DIMALT
 70
     0
  9
$DIMALTD
 70
     2
  9
$DIMALTF
 40
25.4
  9
$DIMLFAC
 40
1.0
  9
$DIMTOFL
 70
     0
  9
$DIMTVP
 40
0.0
  9
$DIMTIX
 70
     0
  9
$DIMSOXD
 70
     0
  9
$DIMSAH
 70
     0
  9
$DIMBLK1
  1

  9
$DIMBLK2
  1

  9
$DIMSTYLE
  2
Standard
  9
$DIMCLRD
 70
     0
  9
$DIMCLRE
 70
     0
  9
$DIMCLRT
 70
     0
  9
$DIMTFAC
 40
1.0
  9
$DIMGAP
 40
0.09
  9
$DIMJUST
 70
     0
  9
$DIMSD1
 70
     0
  9
$DIMSD2
 70
     0
  9
$DIMTOLJ
 70
     1
  9
$DIMTZIN
 70
     0
  9
$DIMALTZ
 70
     0
  9
$DIMALTTZ
 70
     0
  9
$DIMUPT
 70
     0
  9
$DIMDEC
 70
     4
  9
$DIMTDEC
 70
     4
  9
$DIMALTU
 70
     2
  9
$DIMALTTD
 70
     2
  9
$DIMTXSTY
  7
Standard
  9
$DIMAUNIT
 70
     0
  9
$DIMADEC
 70
     0
  9
$DIMALTRND
 40
0.0
  9
$DIMAZIN
 70
     0
  9
$DIMDSEP
 70
    46
  9
$DIMATFIT
 70
     3
  9
$DIMFRAC
 70
     0
  9
$DIMLDRBLK
  1

  9
$DIMLUNIT
 70
     2
  9
$DIMLWD
 70
    -2
  9
$DIMLWE
 70
    -2
  9
$DIMTMOVE
 70
     0
  9
$LUNITS
 70
     2
  9
$LUPREC
 70
     4
  9
$SKETCHINC
 40
0.1
  9
$FILLETRAD
 40
0.0
  9
$AUNITS
 70
     0
  9
$AUPREC
 70
     0
  9
$MENU
  1
.
  9
$ELEVATION
 40
0.0
  9
$PELEVATION
 40
0.0
  9
$THICKNESS
 40
0.0
  9
$LIMCHECK
 70
     0
  9
$CHAMFERA
 40
0.0
  9
$CHAMFERB
 40
0.0
  9
$CHAMFERC
 40
0.0
  9
$CHAMFERD
 40
0.0
  9
$SKPOLY
 70
     0
  9
$TDCREATE
 40
2455986.408042801
  9
$TDUCREATE
 40
2455986.658042801
  9
$TDUPDATE
 40
2455986.408042801
  9
$TDUUPDATE
 40
2455986.658042801
  9
$TDINDWG
 40
0.0000359954
  9
$TDUSRTIMER
 40
0.0000359954
  9
$USRTIMER
 70
     1
  9
$ANGBASE
 50
0.0
  9
$ANGDIR
 70
     0
  9
$PDMODE
 70
     0
  9
$PDSIZE
 40
0.0
  9
$PLINEWID
 40
0.0
  9
$SPLFRAME
 70
     0
  9
$SPLINETYPE
 70
     6
  9
$SPLINESEGS
 70
     8
  9
$HANDSEED
  5
B55
  9
$SURFTAB1
 70
     6
  9
$SURFTAB2
 70
     6
  9
$SURFTYPE
 70
     6
  9
$SURFU
 70
     6
  9
$SURFV
 70
     6
  9
$UCSBASE
  2

  9
$UCSNAME
  2

  9
$UCSORG
 10
0.0
 20
0.0
 30
0.0
  9
$UCSXDIR
 10
1.0
 20
0.0
 30
0.0
  9
$UCSYDIR
 10
0.0
 20
1.0
 30
0.0
  9
$UCSORTHOREF
  2

  9
$UCSORTHOVIEW
 70
     0
  9
$UCSORGTOP
 10
0.0
 20
0.0
 30
0.0
  9
$UCSORGBOTTOM
 10
0.0
 20
0.0
 30
0.0
  9
$UCSORGLEFT
 10
0.0
 20
0.0
 30
0.0
  9
$UCSORGRIGHT
 10
0.0
 20
0.0
 30
0.0
  9
$UCSORGFRONT
 10
0.0
 20
0.0
 30
0.0
  9
$UCSORGBACK
 10
0.0
 20
0.0
 30
0.0
  9
$PUCSBASE
  2

  9
$PUCSNAME
  2

  9
$PUCSORG
 10
0.0
 20
0.0
 30
0.0
  9
$PUCSXDIR
 10
1.0
 20
0.0
 30
0.0
  9
$PUCSYDIR
 10
0.0
 20
1.0
 30
0.0
  9
$PUCSORTHOREF
  2

  9
$PUCSORTHOVIEW
 70
     0
  9
$PUCSORGTOP
 10
0.0
 20
0.0
 30
0.0
  9
$PUCSORGBOTTOM
 10
0.0
 20
0.0
 30
0.0
  9
$PUCSORGLEFT
 10
0.0
 20
0.0
 30
0.0
  9
$PUCSORGRIGHT
 10
0.0
 20
0.0
 30
0.0
  9
$PUCSORGFRONT
 10
0.0
 20
0.0
 30
0.0
  9
$PUCSORGBACK
 10
0.0
 20
0.0
 30
0.0
  9
$USERI1
 70
     0
  9
$USERI2
 70
     0
  9
$USERI3
 70
     0
  9
$USERI4
 70
     0
  9
$USERI5
 70
     0
  9
$USERR1
 40
0.0
  9
$USERR2
 40
0.0
  9
$USERR3
 40
0.0
  9
$USERR4
 40
0.0
  9
$USERR5
 40
0.0
  9
$WORLDVIEW
 70
     1
  9
$SHADEDGE
 70
     3
  9
$SHADEDIF
 70
    70
  9
$TILEMODE
 70
     1
  9
$MAXACTVP
 70
    64
  9
$PINSBASE
 10
0.0
 20
0.0
 30
0.0
  9
$PLIMCHECK
 70
     0
  9
$PEXTMIN
 10
0.0
 20
0.0
 30
0.0
  9
$PEXTMAX
 10
147.8260869565217
 20
95.65217391304347
 30
0.0
  9
$PLIMMIN
 10
0.0
 20
0.0
  9
$PLIMMAX
 10
147.8260869565217
 20
95.65217391304347
  9
$UNITMODE
 70
     0
  9
$VISRETAIN
 70
     1
  9
$PLINEGEN
 70
     0
  9
$PSLTSCALE
 70
     1
  9
$TREEDEPTH
 70
  3020
  9
$CMLSTYLE
  2
Standard
  9
$CMLJUST
 70
     0
  9
$CMLSCALE
 40
1.0
  9
$PROXYGRAPHICS
 70
     1
  9
$MEASUREMENT
 70
     0
  9
$CELWEIGHT
370
    -1
  9
$ENDCAPS
280
     0
  9
$JOINSTYLE
280
     0
  9
$LWDISPLAY
290
     0
  9
$INSUNITS
 70
     1
  9
$HYPERLINKBASE
  1

  9
$STYLESHEET
  1

  9
$XEDIT
290
     1
  9
$CEPSNTYPE
380
     0
  9
$PSTYLEMODE
290
     1
  9
$FINGERPRINTGUID
  2
{C16D5023-066F-4CB7-8110-0DCFF92DC7FD}
  9
$VERSIONGUID
  2
{F435ADB9-B5BE-4EA5-BF7A-A004BBE9D383}
  9
$EXTNAMES
290
     1
  9
$PSVPSCALE
 40
0.0
  9
$OLESTARTUP
290
     0
  0
ENDSEC
  0
SECTION
  2
CLASSES
  0
CLASS
  1
ACDBDICTIONARYWDFLT
  2
AcDbDictionaryWithDefault
  3
ObjectDBX Classes
 90
        0
280
     0
281
     0
  0
CLASS
  1
MATERIAL
  2
AcDbMaterial
  3
ObjectDBX Classes
 90
     1153
280
     0
281
     0
  0
CLASS
  1
VISUALSTYLE
  2
AcDbVisualStyle
  3
ObjectDBX Classes
 90
     4095
280
     0
281
     0
  0
CLASS
  1
SCALE
  2
AcDbScale
  3
ObjectDBX Classes
 90
     1153
280
     0
281
     0
  0
CLASS
  1
TABLESTYLE
  2
AcDbTableStyle
  3
ObjectDBX Classes
 90
     4095
280
     0
281
     0
  0
CLASS
  1
MLEADERSTYLE
  2
AcDbMLeaderStyle
  3
ACDB_MLEADERSTYLE_CLASS
 90
     4095
280
     0
281
     0
  0
CLASS
  1
DICTIONARYVAR
  2
AcDbDictionaryVar
  3
ObjectDBX Classes
 90
        0
280
     0
281
     0
  0
CLASS
  1
CELLSTYLEMAP
  2
AcDbCellStyleMap
  3
ObjectDBX Classes
 90
     1152
280
     0
281
     0
  0
CLASS
  1
ACDBPLACEHOLDER
  2
AcDbPlaceHolder
  3
ObjectDBX Classes
 90
        0
280
     0
281
     0
  0
CLASS
  1
LAYOUT
  2
AcDbLayout
  3
ObjectDBX Classes
 90
        0
280
     0
281
     0
  0
ENDSEC
  0
SECTION
  2
TABLES
  0
TABLE
  2
VPORT
  5
8
330
0
100
AcDbSymbolTable
 70
     1
  0
VPORT
  5
57
330
8
100
AcDbSymbolTableRecord
100
AcDbViewportTableRecord
  2
*Active
 70
     0
 10
0.0
 20
0.0
 11
1.0
 21
1.0
 12
73.91304347826086
 22
47.82608695652173
 13
0.0
 23
0.0
 14
1.0
 24
1.0
 15
0.0
 25
0.0
 16
0.0
 26
0.0
 36
1.0
 17
0.0
 27
0.0
 37
0.0
 40
95.65217391304347
 41
1.545454545454545
 42
50.0
 43
0.0
 44
0.0
 50
0.0
 51
0.0
 71
     0
 72
   100
 73
     1
 74
     1
 75
     0
 76
     0
 77
     0
 78
     0
281
     0
 65
     1
110
0.0
120
0.0
130
0.0
111
1.0
121
0.0
131
0.0
112
0.0
122
1.0
132
0.0
 79
     0
146
0.0
  0
ENDTAB
  0
TABLE
  2
LTYPE
  5
5
330
0
100
AcDbSymbolTable
 70
    59
  0
LTYPE
  5
5B
330
5
100
AcDbSymbolTableRecord
100
AcDbLinetypeTableRecord
  2
ByBlock
 70
     0
  3

 72
    65
 73
     0
 40
0.0
  0
LTYPE
  5
5C
330
5
100
AcDbSymbolTableRecord
100
AcDbLinetypeTableRecord
  2
ByLayer
 70
     0
  3

 72
    65
 73
     0
 40
0.0
  0
LTYPE
  5
5D
330
5
100
AcDbSymbolTableRecord
100
AcDbLinetypeTableRecord
  2
Continuous
 70
     0
  3
Solid line
 72
    65
 73
     0
 40
0.0
  0
LTYPE
  5
7C
330
5
100
AcDbSymbolTableRecord
100
AcDbLinetypeTableRecord
  2
BY_STANDARD
 70
     0
  3
By Standard ____________    ____    ____   _
 72
    65
 73
     6
 40
1.240299999999999
 49
0.6614
 74
     0
 49
-0.0827
 74
     0
 49
0.1654
 74
     0
 49
-0.0827
 74
     0
 49
0.1654
 74
     0
 49
-0.0827
 74
     0
  0
LTYPE
  5
7D
330
5
100
AcDbSymbolTableRecord
100
AcDbLinetypeTableRecord
  2
CHAIN
 70
     0
  3
Chain ____ _ ____ _ ____ _ ____ _ ____ _ ____
 72
    65
 73
     4
 40
0.7087
 49
0.4724000000000001
 74
     0
 49
-0.0591
 74
     0
 49
0.1181
 74
     0
 49
-0.0591
 74
     0
  0
LTYPE
  5
7E
330
5
100
AcDbSymbolTableRecord
100
AcDbLinetypeTableRecord
  2
DASH_DOT
 70
     0
  3
Dash dot __ . __ . __ . __ . __ . __ . __ . __
 72
    65
 73
     4
 40
0.37
 49
0.24
 74
     0
 49
-0.06
 74
     0
 49
0.01
 74
     0
 49
-0.06
 74
     0
  0
LTYPE
  5
7F
330
5
100
AcDbSymbolTableRecord
100
AcDbLinetypeTableRecord
  2
DOUBLE_DASH_DOT
 70
     0
  3
Double-Dash Dot __ __ . __ __ . __ __ . __ _
 72
    65
 73
     6
 40
0.4398
 49
0.24
 74
     0
 49
-0.06
 74
     0
 49
0.0098
 74
     0
 49
-0.06
 74
     0
 49
0.01
 74
     0
 49
-0.06
 74
     0
  0
LTYPE
  5
80
330
5
100
AcDbSymbolTableRecord
100
AcDbLinetypeTableRecord
  2
DASH_TRIPLE_DOT
 70
     0
  3
Dash Triple-Dot _ . . . _ . . . _ . . . _
 72
    65
 73
     8
 40
0.51
 49
0.24
 74
     0
 49
-0.06
 74
     0
 49
0.01
 74
     0
 49
-0.06
 74
     0
 49
0.01
 74
     0
 49
-0.06
 74
     0
 49
0.01
 74
     0
 49
-0.06
 74
     0
  0
LTYPE
  5
81
330
5
100
AcDbSymbolTableRecord
100
AcDbLinetypeTableRecord
  2
DASHED
 70
     0
  3
Dashed __ __ __ __ __ __ __ __ __ __ __ __ __ _
 72
    65
 73
     2
 40
0.2067
 49
0.1654
 74
     0
 49
-0.0413
 74
     0
  0
LTYPE
  5
82
330
5
100
AcDbSymbolTableRecord
100
AcDbLinetypeTableRecord
  2
DASH_DOUBLE_DOT
 70
     0
  3
Dash Double-Dot __ . . __ . . __ . . __ . .
 72
    65
 73
     6
 40
0.4398
 49
0.24
 74
     0
 49
-0.06
 74
     0
 49
0.0098
 74
     0
 49
-0.06
 74
     0
 49
0.01
 74
     0
 49
-0.06
 74
     0
  0
LTYPE
  5
83
330
5
100
AcDbSymbolTableRecord
100
AcDbLinetypeTableRecord
  2
DASHED_SPACE
 70
     0
  3
Dashed Space __ __ __ __ __ __ __ __ __ __ __ _
 72
    65
 73
     2
 40
0.2067
 49
0.1654
 74
     0
 49
-0.0413
 74
     0
  0
LTYPE
  5
84
330
5
100
AcDbSymbolTableRecord
100
AcDbLinetypeTableRecord
  2
DOTTED
 70
     0
  3
Dotted . . . . . . . . . . . . . . . . . . . . 
 72
    65
 73
     2
 40
0.0482
 49
0.0069
 74
     0
 49
-0.0413
 74
     0
  0
LTYPE
  5
85
330
5
100
AcDbSymbolTableRecord
100
AcDbLinetypeTableRecord
  2
DOUBLE_DASH_CHAIN
 70
     0
  3
Double-Dash Chain ______  __  __  ______  __  _
 72
    65
 73
     6
 40
1.240299999999999
 49
0.6614
 74
     0
 49
-0.0827
 74
     0
 49
0.1654
 74
     0
 49
-0.0827
 74
     0
 49
0.1654
 74
     0
 49
-0.0827
 74
     0
  0
LTYPE
  5
87
330
5
100
AcDbSymbolTableRecord
100
AcDbLinetypeTableRecord
  2
DOUBLE_DASH_DOUBLE_DOT
 70
     0
  3
Double-Dash Double-dot _ _ . . _ _ . . _
 72
    65
 73
     8
 40
0.7400000000000001
 49
0.24
 74
     0
 49
-0.06
 74
     0
 49
0.24
 74
     0
 49
-0.06
 74
     0
 49
0.01
 74
     0
 49
-0.06
 74
     0
 49
0.01
 74
     0
 49
-0.06
 74
     0
  0
LTYPE
  5
88
330
5
100
AcDbSymbolTableRecord
100
AcDbLinetypeTableRecord
  2
DOUBLE_DASH_TRIPLE_DOT
 70
     0
  3
Double Dash Triple Dot __ __ . . . __ __ . .
 72
    65
 73
    10
 40
0.8100000000000001
 49
0.24
 74
     0
 49
-0.06
 74
     0
 49
0.24
 74
     0
 49
-0.06
 74
     0
 49
0.01
 74
     0
 49
-0.06
 74
     0
 49
0.01
 74
     0
 49
-0.06
 74
     0
 49
0.01
 74
     0
 49
-0.06
 74
     0
  0
LTYPE
  5
89
330
5
100
AcDbSymbolTableRecord
100
AcDbLinetypeTableRecord
  2
LONG_DASH_DOTTED
 70
     0
  3
Long Dash Dotted ____ . ____ . ____ . ____ . _
 72
    65
 73
     4
 40
0.3543
 49
0.2362
 74
     0
 49
-0.0295
 74
     0
 49
0.0591
 74
     0
 49
-0.0295
 74
     0
  0
LTYPE
  5
8A
330
5
100
AcDbSymbolTableRecord
100
AcDbLinetypeTableRecord
  2
LONG_DASH_DOUBLE_DOT
 70
     0
  3
Long Dash Double Dot ________  .  .  ________  
 72
    65
 73
     6
 40
0.6799999999999999
 49
0.48
 74
     0
 49
-0.06
 74
     0
 49
0.01
 74
     0
 49
-0.06
 74
     0
 49
0.01
 74
     0
 49
-0.06
 74
     0
  0
LTYPE
  5
8B
330
5
100
AcDbSymbolTableRecord
100
AcDbLinetypeTableRecord
  2
LONG_DASH_TRIPLE_DOT
 70
     0
  3
Long Dash Triple Dot ____ ... ____ ... ____
 72
    65
 73
     8
 40
0.3689
 49
0.2362
 74
     0
 49
-0.0295
 74
     0
 49
0.0049
 74
     0
 49
-0.0295
 74
     0
 49
0.0049
 74
     0
 49
-0.0295
 74
     0
 49
0.0049
 74
     0
 49
-0.0295
 74
     0
  0
LTYPE
  5
8C
330
5
100
AcDbSymbolTableRecord
100
AcDbLinetypeTableRecord
  2
BORDER
 70
     0
  3
Border __ __ . __ __ . __ __ . __ __ . __ __ .
 72
    65
 73
     6
 40
1.75
 49
0.5
 74
     0
 49
-0.25
 74
     0
 49
0.5
 74
     0
 49
-0.25
 74
     0
 49
0.0
 74
     0
 49
-0.25
 74
     0
  0
LTYPE
  5
8D
330
5
100
AcDbSymbolTableRecord
100
AcDbLinetypeTableRecord
  2
BORDER2
 70
     0
  3
Border (.5x) __.__.__.__.__.__.__.__.__.__.__.
 72
    65
 73
     6
 40
0.875
 49
0.25
 74
     0
 49
-0.125
 74
     0
 49
0.25
 74
     0
 49
-0.125
 74
     0
 49
0.0
 74
     0
 49
-0.125
 74
     0
  0
LTYPE
  5
8E
330
5
100
AcDbSymbolTableRecord
100
AcDbLinetypeTableRecord
  2
BORDERX2
 70
     0
  3
Border (2x) ____  ____  .  ____  ____  .  ___
 72
    65
 73
     6
 40
3.5
 49
1.0
 74
     0
 49
-0.5
 74
     0
 49
1.0
 74
     0
 49
-0.5
 74
     0
 49
0.0
 74
     0
 49
-0.5
 74
     0
  0
LTYPE
  5
8F
330
5
100
AcDbSymbolTableRecord
100
AcDbLinetypeTableRecord
  2
CENTER
 70
     0
  3
Center ____ _ ____ _ ____ _ ____ _ ____ _ ____
 72
    65
 73
     4
 40
2.0
 49
1.25
 74
     0
 49
-0.25
 74
     0
 49
0.25
 74
     0
 49
-0.25
 74
     0
  0
LTYPE
  5
90
330
5
100
AcDbSymbolTableRecord
100
AcDbLinetypeTableRecord
  2
CENTER2
 70
     0
  3
Center (.5x) ___ _ ___ _ ___ _ ___ _ ___ _ ___
 72
    65
 73
     4
 40
1.125
 49
0.75
 74
     0
 49
-0.125
 74
     0
 49
0.125
 74
     0
 49
-0.125
 74
     0
  0
LTYPE
  5
91
330
5
100
AcDbSymbolTableRecord
100
AcDbLinetypeTableRecord
  2
CENTERX2
 70
     0
  3
Center (2x) ________  __  ________  __  _____
 72
    65
 73
     4
 40
4.0
 49
2.5
 74
     0
 49
-0.5
 74
     0
 49
0.5
 74
     0
 49
-0.5
 74
     0
  0
LTYPE
  5
92
330
5
100
AcDbSymbolTableRecord
100
AcDbLinetypeTableRecord
  2
DASHDOT2
 70
     0
  3
Dash dot (.5x) _._._._._._._._._._._._._._._.
 72
    65
 73
     4
 40
0.5
 49
0.25
 74
     0
 49
-0.125
 74
     0
 49
0.0
 74
     0
 49
-0.125
 74
     0
  0
LTYPE
  5
93
330
5
100
AcDbSymbolTableRecord
100
AcDbLinetypeTableRecord
  2
DASHDOTX2
 70
     0
  3
Dash dot (2x) ____  .  ____  .  ____  .  ___
 72
    65
 73
     4
 40
2.0
 49
1.0
 74
     0
 49
-0.5
 74
     0
 49
0.0
 74
     0
 49
-0.5
 74
     0
  0
LTYPE
  5
95
330
5
100
AcDbSymbolTableRecord
100
AcDbLinetypeTableRecord
  2
DASHED2
 70
     0
  3
Dashed (.5x) _ _ _ _ _ _ _ _ _ _ _ _ _ _ _ _ _
 72
    65
 73
     2
 40
0.375
 49
0.25
 74
     0
 49
-0.125
 74
     0
  0
LTYPE
  5
96
330
5
100
AcDbSymbolTableRecord
100
AcDbLinetypeTableRecord
  2
DASHEDX2
 70
     0
  3
Dashed (2x) ____  ____  ____  ____  ____  ___
 72
    65
 73
     2
 40
1.5
 49
1.0
 74
     0
 49
-0.5
 74
     0
  0
LTYPE
  5
97
330
5
100
AcDbSymbolTableRecord
100
AcDbLinetypeTableRecord
  2
DIVIDE
 70
     0
  3
Divide ____ . . ____ . . ____ . . ____ . . ____
 72
    65
 73
     6
 40
1.25
 49
0.5
 74
     0
 49
-0.25
 74
     0
 49
0.0
 74
     0
 49
-0.25
 74
     0
 49
0.0
 74
     0
 49
-0.25
 74
     0
  0
LTYPE
  5
98
330
5
100
AcDbSymbolTableRecord
100
AcDbLinetypeTableRecord
  2
DIVIDE2
 70
     0
  3
Divide (.5x) __..__..__..__..__..__..__..__.._
 72
    65
 73
     6
 40
0.625
 49
0.25
 74
     0
 49
-0.125
 74
     0
 49
0.0
 74
     0
 49
-0.125
 74
     0
 49
0.0
 74
     0
 49
-0.125
 74
     0
  0
LTYPE
  5
99
330
5
100
AcDbSymbolTableRecord
100
AcDbLinetypeTableRecord
  2
DIVIDEX2
 70
     0
  3
Divide (2x) ________  .  .  ________  .  .  _
 72
    65
 73
     6
 40
2.5
 49
1.0
 74
     0
 49
-0.5
 74
     0
 49
0.0
 74
     0
 49
-0.5
 74
     0
 49
0.0
 74
     0
 49
-0.5
 74
     0
  0
LTYPE
  5
9A
330
5
100
AcDbSymbolTableRecord
100
AcDbLinetypeTableRecord
  2
DOT
 70
     0
  3
Dot . . . . . . . . . . . . . . . . . . . . . .
 72
    65
 73
     2
 40
0.25
 49
0.0
 74
     0
 49
-0.25
 74
     0
  0
LTYPE
  5
9B
330
5
100
AcDbSymbolTableRecord
100
AcDbLinetypeTableRecord
  2
DOT2
 70
     0
  3
Dot (.5x) .....................................
 72
    65
 73
     2
 40
0.125
 49
0.0
 74
     0
 49
-0.125
 74
     0
  0
LTYPE
  5
9C
330
5
100
AcDbSymbolTableRecord
100
AcDbLinetypeTableRecord
  2
DOTX2
 70
     0
  3
Dot (2x) .  .  .  .  .  .  .  .  .  .  .  .  . 
 72
    65
 73
     2
 40
0.5
 49
0.0
 74
     0
 49
-0.5
 74
     0
  0
LTYPE
  5
9D
330
5
100
AcDbSymbolTableRecord
100
AcDbLinetypeTableRecord
  2
HIDDEN
 70
     0
  3
Hidden __ __ __ __ __ __ __ __ __ __ __ __ __ _
 72
    65
 73
     2
 40
0.375
 49
0.25
 74
     0
 49
-0.125
 74
     0
  0
LTYPE
  5
9E
330
5
100
AcDbSymbolTableRecord
100
AcDbLinetypeTableRecord
  2
HIDDEN2
 70
     0
  3
Hidden (.5x) _ _ _ _ _ _ _ _ _ _ _ _ _ _ _ _ _
 72
    65
 73
     2
 40
0.1875
 49
0.125
 74
     0
 49
-0.0625
 74
     0
  0
LTYPE
  5
9F
330
5
100
AcDbSymbolTableRecord
100
AcDbLinetypeTableRecord
  2
HIDDENX2
 70
     0
  3
Hidden (2x) ____ ____ ____ ____ ____ ____ ____
 72
    65
 73
     2
 40
0.75
 49
0.5
 74
     0
 49
-0.25
 74
     0
  0
LTYPE
  5
A0
330
5
100
AcDbSymbolTableRecord
100
AcDbLinetypeTableRecord
  2
PHANTOM
 70
     0
  3
Phantom ______  __  __  ______  __  __  ______
 72
    65
 73
     6
 40
2.5
 49
1.25
 74
     0
 49
-0.25
 74
     0
 49
0.25
 74
     0
 49
-0.25
 74
     0
 49
0.25
 74
     0
 49
-0.25
 74
     0
  0
LTYPE
  5
A1
330
5
100
AcDbSymbolTableRecord
100
AcDbLinetypeTableRecord
  2
PHANTOM2
 70
     0
  3
Phantom (.5x) ___ _ _ ___ _ _ ___ _ _ ___ _ _
 72
    65
 73
     6
 40
1.25
 49
0.625
 74
     0
 49
-0.125
 74
     0
 49
0.125
 74
     0
 49
-0.125
 74
     0
 49
0.125
 74
     0
 49
-0.125
 74
     0
  0
LTYPE
  5
A2
330
5
100
AcDbSymbolTableRecord
100
AcDbLinetypeTableRecord
  2
PHANTOMX2
 70
     0
  3
Phantom (2x) ____________    ____    ____   _
 72
    65
 73
     6
 40
5.0
 49
2.5
 74
     0
 49
-0.5
 74
     0
 49
0.5
 74
     0
 49
-0.5
 74
     0
 49
0.5
 74
     0
 49
-0.5
 74
     0
  0
LTYPE
  5
A3
330
5
100
AcDbSymbolTableRecord
100
AcDbLinetypeTableRecord
  2
ACAD_ISO02W100
 70
     0
  3
ISO dash __ __ __ __ __ __ __ __ __ __ __ __ __
 72
    65
 73
     2
 40
0.59
 49
0.47
 74
     0
 49
-0.12
 74
     0
  0
LTYPE
  5
A4
330
5
100
AcDbSymbolTableRecord
100
AcDbLinetypeTableRecord
  2
ACAD_ISO03W100
 70
     0
  3
ISO dash space __    __    __    __    __    __
 72
    65
 73
     2
 40
1.179999999999999
 49
0.47
 74
     0
 49
-0.71
 74
     0
  0
LTYPE
  5
A5
330
5
100
AcDbSymbolTableRecord
100
AcDbLinetypeTableRecord
  2
ACAD_ISO04W100
 70
     0
  3
ISO long-dash dot ____ . ____ . ____ . ____ . _
 72
    65
 73
     4
 40
1.179999999999999
 49
0.9399999999999998
 74
     0
 49
-0.12
 74
     0
 49
0.0
 74
     0
 49
-0.12
 74
     0
  0
LTYPE
  5
A6
330
5
100
AcDbSymbolTableRecord
100
AcDbLinetypeTableRecord
  2
ACAD_ISO05W100
 70
     0
  3
ISO long-dash double-dot ____ .. ____ .. ____ .
 72
    65
 73
     6
 40
1.299999999999999
 49
0.9399999999999998
 74
     0
 49
-0.12
 74
     0
 49
0.0
 74
     0
 49
-0.12
 74
     0
 49
0.0
 74
     0
 49
-0.12
 74
     0
  0
LTYPE
  5
A7
330
5
100
AcDbSymbolTableRecord
100
AcDbLinetypeTableRecord
  2
ACAD_ISO06W100
 70
     0
  3
ISO long-dash triple-dot ____ ... ____ ... ____
 72
    65
 73
     8
 40
1.419999999999999
 49
0.9399999999999998
 74
     0
 49
-0.12
 74
     0
 49
0.0
 74
     0
 49
-0.12
 74
     0
 49
0.0
 74
     0
 49
-0.12
 74
     0
 49
0.0
 74
     0
 49
-0.12
 74
     0
  0
LTYPE
  5
A8
330
5
100
AcDbSymbolTableRecord
100
AcDbLinetypeTableRecord
  2
ACAD_ISO07W100
 70
     0
  3
ISO dot . . . . . . . . . . . . . . . . . . . .
 72
    65
 73
     2
 40
0.12
 49
0.0
 74
     0
 49
-0.12
 74
     0
  0
LTYPE
  5
A9
330
5
100
AcDbSymbolTableRecord
100
AcDbLinetypeTableRecord
  2
ACAD_ISO08W100
 70
     0
  3
ISO long-dash short-dash ____ __ ____ __ ____ _
 72
    65
 73
     4
 40
0.95
 49
0.47
 74
     0
 49
-0.12
 74
     0
 49
0.24
 74
     0
 49
-0.12
 74
     0
  0
LTYPE
  5
AA
330
5
100
AcDbSymbolTableRecord
100
AcDbLinetypeTableRecord
  2
ACAD_ISO09W100
 70
     0
  3
ISO long-dash double-short-dash ____ __ __ ____
 72
    65
 73
     6
 40
1.31
 49
0.47
 74
     0
 49
-0.12
 74
     0
 49
0.24
 74
     0
 49
-0.12
 74
     0
 49
0.24
 74
     0
 49
-0.12
 74
     0
  0
LTYPE
  5
AB
330
5
100
AcDbSymbolTableRecord
100
AcDbLinetypeTableRecord
  2
ACAD_ISO10W100
 70
     0
  3
ISO dash dot __ . __ . __ . __ . __ . __ . __ .
 72
    65
 73
     4
 40
0.71
 49
0.47
 74
     0
 49
-0.12
 74
     0
 49
0.0
 74
     0
 49
-0.12
 74
     0
  0
LTYPE
  5
AC
330
5
100
AcDbSymbolTableRecord
100
AcDbLinetypeTableRecord
  2
ACAD_ISO11W100
 70
     0
  3
ISO double-dash dot __ __ . __ __ . __ __ . __ 
 72
    65
 73
     6
 40
1.299999999999999
 49
0.47
 74
     0
 49
-0.12
 74
     0
 49
0.47
 74
     0
 49
-0.12
 74
     0
 49
0.0
 74
     0
 49
-0.12
 74
     0
  0
LTYPE
  5
AD
330
5
100
AcDbSymbolTableRecord
100
AcDbLinetypeTableRecord
  2
ACAD_ISO12W100
 70
     0
  3
ISO dash double-dot __ . . __ . . __ . . __ . .
 72
    65
 73
     6
 40
0.8299999999999998
 49
0.47
 74
     0
 49
-0.12
 74
     0
 49
0.0
 74
     0
 49
-0.12
 74
     0
 49
0.0
 74
     0
 49
-0.12
 74
     0
  0
LTYPE
  5
AE
330
5
100
AcDbSymbolTableRecord
100
AcDbLinetypeTableRecord
  2
ACAD_ISO13W100
 70
     0
  3
ISO double-dash double-dot __ __ . . __ __ . . 
 72
    65
 73
     8
 40
1.419999999999999
 49
0.47
 74
     0
 49
-0.12
 74
     0
 49
0.47
 74
     0
 49
-0.12
 74
     0
 49
0.0
 74
     0
 49
-0.12
 74
     0
 49
0.0
 74
     0
 49
-0.12
 74
     0
  0
LTYPE
  5
AF
330
5
100
AcDbSymbolTableRecord
100
AcDbLinetypeTableRecord
  2
ACAD_ISO14W100
 70
     0
  3
ISO dash triple-dot __ . . . __ . . . __ . . . 
 72
    65
 73
     8
 40
0.95
 49
0.47
 74
     0
 49
-0.12
 74
     0
 49
0.0
 74
     0
 49
-0.12
 74
     0
 49
0.0
 74
     0
 49
-0.12
 74
     0
 49
0.0
 74
     0
 49
-0.12
 74
     0
  0
LTYPE
  5
B0
330
5
100
AcDbSymbolTableRecord
100
AcDbLinetypeTableRecord
  2
ACAD_ISO15W100
 70
     0
  3
ISO double-dash triple-dot __ __ . . . __ __ . 
 72
    65
 73
    10
 40
1.539999999999999
 49
0.47
 74
     0
 49
-0.12
 74
     0
 49
0.47
 74
     0
 49
-0.12
 74
     0
 49
0.0
 74
     0
 49
-0.12
 74
     0
 49
0.0
 74
     0
 49
-0.12
 74
     0
 49
0.0
 74
     0
 49
-0.12
 74
     0
  0
LTYPE
  5
B3
330
5
100
AcDbSymbolTableRecord
100
AcDbLinetypeTableRecord
  2
FENCELINE1
 70
     0
  3
Fenceline circle ----0-----0----0-----0----0---
 72
    65
 73
     4
 40
1.45
 49
0.25
 74
     0
 49
-0.1
 74
     4
 75
   133
340
B2
 46
0.1
 50
0.0
 44
-0.1
 45
0.0
 49
-0.1
 74
     0
 49
1.0
 74
     0
  0
LTYPE
  5
B4
330
5
100
AcDbSymbolTableRecord
100
AcDbLinetypeTableRecord
  2
FENCELINE2
 70
     0
  3
Fenceline square ----[]-----[]----[]-----[]----
 72
    65
 73
     4
 40
1.45
 49
0.25
 74
     0
 49
-0.1
 74
     4
 75
   132
340
B2
 46
0.1
 50
0.0
 44
-0.1
 45
0.0
 49
-0.1
 74
     0
 49
1.0
 74
     0
  0
LTYPE
  5
B5
330
5
100
AcDbSymbolTableRecord
100
AcDbLinetypeTableRecord
  2
TRACKS
 70
     0
  3
Tracks -|-|-|-|-|-|-|-|-|-|-|-|-|-|-|-|-|-|-|-|
 72
    65
 73
     2
 40
0.3
 49
0.15
 74
     4
 75
   130
340
B2
 46
0.25
 50
0.0
 44
0.0
 45
0.0
 49
0.15
 74
     0
  0
LTYPE
  5
B6
330
5
100
AcDbSymbolTableRecord
100
AcDbLinetypeTableRecord
  2
BATTING
 70
     0
  3
Batting SSSSSSSSSSSSSSSSSSSSSSSSSSSSSSSSSSSSSSS
 72
    65
 73
     4
 40
0.4001000000000001
 49
0.0001
 74
     0
 49
-0.1
 74
     4
 75
   134
340
B2
 46
0.1
 50
0.0
 44
-0.1
 45
0.0
 49
-0.2
 74
     4
 75
   134
340
B2
 46
0.1
 50
180.0
 44
0.1
 45
0.0
 49
-0.1
 74
     0
  0
LTYPE
  5
B7
330
5
100
AcDbSymbolTableRecord
100
AcDbLinetypeTableRecord
  2
HOT_WATER_SUPPLY
 70
     0
  3
Hot water supply ---- HW ---- HW ---- HW ----
 72
    65
 73
     3
 40
0.9
 49
0.5
 74
     0
 49
-0.2
 74
     2
 75
     0
340
55
 46
0.1
 50
0.0
 44
-0.1
 45
-0.05
  9
HW
 49
-0.2
 74
     0
  0
LTYPE
  5
B8
330
5
100
AcDbSymbolTableRecord
100
AcDbLinetypeTableRecord
  2
GAS_LINE
 70
     0
  3
Gas line ----GAS----GAS----GAS----GAS----GAS---
 72
    65
 73
     3
 40
0.95
 49
0.5
 74
     0
 49
-0.2
 74
     2
 75
     0
340
55
 46
0.1
 50
0.0
 44
-0.1
 45
-0.05
  9
GAS
 49
-0.25
 74
     0
  0
LTYPE
  5
B9
330
5
100
AcDbSymbolTableRecord
100
AcDbLinetypeTableRecord
  2
ZIGZAG
 70
     0
  3
Zig zag /\/\/\/\/\/\/\/\/\/\/\/\/\/\/\/\/\/\/\/
 72
    65
 73
     4
 40
0.8001000000000001
 49
0.0001
 74
     0
 49
-0.2
 74
     4
 75
   131
340
B2
 46
0.2
 50
0.0
 44
-0.2
 45
0.0
 49
-0.4
 74
     4
 75
   131
340
B2
 46
0.2
 50
180.0
 44
0.2
 45
0.0
 49
-0.2
 74
     0
  0
ENDTAB
  0
TABLE
  2
LAYER
  5
2
330
0
100
AcDbSymbolTable
 70
    27
  0
LAYER
  5
54
330
2
100
AcDbSymbolTableRecord
100
AcDbLayerTableRecord
  2
0
 70
     0
 62
     7
  6
Continuous
370
     0
390
F
  0
LAYER
  5
C0
330
2
100
AcDbSymbolTableRecord
100
AcDbLayerTableRecord
  2
Center Mark (ANSI)
 70
     0
 62
     7
  6
Continuous
370
     5
390
F
  0
LAYER
  5
C1
330
2
100
AcDbSymbolTableRecord
100
AcDbLayerTableRecord
  2
Centerline (ANSI)
 70
     0
 62
     7
  6
Continuous
370
     5
390
F
  0
LAYER
  5
C3
330
2
100
AcDbSymbolTableRecord
100
AcDbLayerTableRecord
  2
Dimension (ANSI)
 70
     0
 62
     7
  6
Continuous
370
     5
390
F
  0
LAYER
  5
CC
330
2
100
AcDbSymbolTableRecord
100
AcDbLayerTableRecord
  2
Symbol (ANSI)
 70
     0
 62
     7
  6
Continuous
370
     5
390
F
  0
LAYER
  5
CF
330
2
100
AcDbSymbolTableRecord
100
AcDbLayerTableRecord
  2
Visible (ANSI)
 70
     0
 62
     7
  6
Continuous
370
     5
390
F
  0
LAYER
  5
D0
330
2
100
AcDbSymbolTableRecord
100
AcDbLayerTableRecord
  2
Visible Narrow (ANSI)
 70
     0
 62
     7
  6
Continuous
370
     5
390
F
  0
LAYER
  5
196
330
2
100
AcDbSymbolTableRecord
100
AcDbLayerTableRecord
  2
Defpoints
 70
     0
 62
     7
  6
Continuous
290
     0
370
    -3
390
F
  0
ENDTAB
  0
TABLE
  2
STYLE
  5
3
330
0
100
AcDbSymbolTable
 70
    10
  0
STYLE
  5
55
330
3
100
AcDbSymbolTableRecord
100
AcDbTextStyleTableRecord
  2
Standard
 70
     0
 40
0.0
 41
1.0
 50
0.0
 71
     0
 42
0.2
  3
txt
  4

  0
STYLE
  5
5A
330
3
100
AcDbSymbolTableRecord
100
AcDbTextStyleTableRecord
  2
Annotative
 70
     0
 40
0.0
 41
1.0
 50
0.0
 71
     0
 42
0.2
  3
txt
  4

1001
AcadAnnotative
1000
AnnotativeData
1002
{
1070
     1
1070
     1
1002
}
  0
STYLE
  5
B2
330
3
100
AcDbSymbolTableRecord
100
AcDbTextStyleTableRecord
  2

 70
     1
 40
0.0
 41
1.0
 50
0.0
 71
     0
 42
0.2
  3
ltypeshp.shx
  4

  0
STYLE
  5
D4
330
3
100
AcDbSymbolTableRecord
100
AcDbTextStyleTableRecord
  2
ITALICC_120
 70
     0
 40
0.0
 41
1.0
 50
0.0
 71
     0
 42
0.2
  3
italicc.shx
  4

  0
STYLE
  5
D5
330
3
100
AcDbSymbolTableRecord
100
AcDbTextStyleTableRecord
  2
Label Text (ANSI)
 70
     0
 40
0.0
 41
1.0
 50
0.0
 71
     0
 42
0.2
  3
TAHOMA.TTF
  4

1001
ACAD
1000
Tahoma
1071
      256
  0
STYLE
  5
D6
330
3
100
AcDbSymbolTableRecord
100
AcDbTextStyleTableRecord
  2
Note Text (ANSI)
 70
     0
 40
0.0
 41
1.0
 50
0.0
 71
     0
 42
0.2
  3
RomanS.shx
  4

  0
STYLE
  5
D7
330
3
100
AcDbSymbolTableRecord
100
AcDbTextStyleTableRecord
  2
ROMANS
 70
     0
 40
0.0
 41
1.0
 50
0.0
 71
     0
 42
0.2
  3
romans.shx
  4

  0
STYLE
  5
D8
330
3
100
AcDbSymbolTableRecord
100
AcDbTextStyleTableRecord
  2
SANSSERIF_114
 70
     0
 40
0.0
 41
1.0
 50
0.0
 71
     0
 42
0.2
  3
TAHOMA.TTF
  4

1001
ACAD
1000
Tahoma
1071
      256
  0
STYLE
  5
D9
330
3
100
AcDbSymbolTableRecord
100
AcDbTextStyleTableRecord
  2
SANSSERIF_117
 70
     0
 40
0.0
 41
1.0
 50
0.0
 71
     0
 42
0.2
  3
TAHOMA.TTF
  4

1001
ACAD
1000
Tahoma
1071
      256
  0
STYLE
  5
12B
330
3
100
AcDbSymbolTableRecord
100
AcDbTextStyleTableRecord
  2
Text Style168
 70
     0
 40
0.0
 41
1.0
 50
0.0
 71
     0
 42
0.2
  3
TAHOMA.TTF
  4

1001
ACAD
1000
Tahoma
1071
      256
  0
ENDTAB
  0
TABLE
  2
VIEW
  5
6
330
0
100
AcDbSymbolTable
 70
     0
  0
ENDTAB
  0
TABLE
  2
UCS
  5
7
330
0
100
AcDbSymbolTable
 70
     0
  0
ENDTAB
  0
TABLE
  2
APPID
  5
9
330
0
100
AcDbSymbolTable
 70
     4
  0
APPID
  5
56
330
9
100
AcDbSymbolTableRecord
100
AcDbRegAppTableRecord
  2
ACAD
 70
     0
  0
APPID
  5
5E
330
9
100
AcDbSymbolTableRecord
100
AcDbRegAppTableRecord
  2
AcadAnnotative
 70
     0
  0
APPID
  5
A19
330
9
100
AcDbSymbolTableRecord
100
AcDbRegAppTableRecord
  2
ACAD_DSTYLE_DIMRADIAL_EXTENSION
 70
     0
  0
APPID
  5
B4A
330
9
100
AcDbSymbolTableRecord
100
AcDbRegAppTableRecord
  2
ACAD_MLEADERVER
 70
     0
  0
ENDTAB
  0
TABLE
  2
DIMSTYLE
  5
A
330
0
100
AcDbSymbolTable
 70
    15
100
AcDbDimStyleTable
 71
     2
340
E2
340
58
  0
DIMSTYLE
105
58
330
A
100
AcDbSymbolTableRecord
100
AcDbDimStyleTableRecord
  2
Standard
 70
     0
340
55
  0
DIMSTYLE
105
59
330
A
100
AcDbSymbolTableRecord
100
AcDbDimStyleTableRecord
  2
Annotative
 70
     0
340
55
1001
AcadAnnotative
1000
AnnotativeData
1002
{
1070
     1
1070
     1
1002
}
  0
DIMSTYLE
105
DA
330
A
100
AcDbSymbolTableRecord
100
AcDbDimStyleTableRecord
  2
Architectural (ANSI)
 70
     0
 40
8.695652173913043
 41
0.0984251946210861
 43
0.2362204724409449
 44
0.125
 45
0.00000001
 46
0.3937007874015748
 78
     3
 79
     3
140
0.1000000014901161
146
1.200000029802321
147
0.031496062992126
171
     1
176
   256
177
   256
178
   256
272
     2
274
     1
276
     2
277
     4
284
    12
285
     4
286
    12
340
D6
371
    -1
372
    -1
  0
DIMSTYLE
105
DB
330
A
100
AcDbSymbolTableRecord
100
AcDbDimStyleTableRecord
  2
Architectural (ANSI)$7
 70
     0
 40
8.695652173913043
 41
0.0984251946210861
 43
0.2362204724409449
 44
0.125
 45
0.00000001
 46
0.3937007874015748
 78
     3
 79
     3
140
0.1000000014901161
146
1.200000029802321
147
0.031496062992126
171
     1
176
   256
177
   256
178
   256
272
     2
274
     1
276
     2
277
     4
284
    12
285
     4
286
    12
340
D6
371
    -1
372
    -1
  0
DIMSTYLE
105
DC
330
A
100
AcDbSymbolTableRecord
100
AcDbDimStyleTableRecord
  2
Default - Fraction (ANSI)
 70
     0
 40
8.695652173913043
 41
0.0984251946210861
 43
0.2362204724409449
 44
0.125
 45
0.00000001
 46
0.3937007874015748
 79
     3
140
0.1000000014901161
146
1.200000029802321
147
0.031496062992126
171
     1
176
   256
177
   256
178
   256
272
     2
274
     1
276
     2
277
     5
284
    12
285
     4
286
    12
340
D6
371
    -1
372
    -1
  0
DIMSTYLE
105
DD
330
A
100
AcDbSymbolTableRecord
100
AcDbDimStyleTableRecord
  2
Default - Fraction (ANSI)$7
 70
     0
 40
8.695652173913043
 41
0.0984251946210861
 43
0.2362204724409449
 44
0.125
 45
0.00000001
 46
0.3937007874015748
 79
     3
140
0.1000000014901161
146
1.200000029802321
147
0.031496062992126
171
     1
176
   256
177
   256
178
   256
272
     2
274
     1
276
     2
277
     5
284
    12
285
     4
286
    12
340
D6
371
    -1
372
    -1
  0
DIMSTYLE
105
DE
330
A
100
AcDbSymbolTableRecord
100
AcDbDimStyleTableRecord
  2
Default - mm (ANSI)
 70
     0
 40
8.695652173913043
 41
0.0984251946210861
 42
0.063
 43
0.2362204724409449
 44
0.125
 45
0.00000001
 46
0.3937007874015748
 73
     0
 78
     4
 79
     1
140
0.1000000014901161
143
1.0
144
25.4
146
1.200000029802321
147
0.031496062992126
171
     1
176
   256
177
   256
178
   256
179
     1
271
     2
272
     2
274
     1
284
     4
285
     4
340
D6
371
    -1
372
    -1
  0
DIMSTYLE
105
DF
330
A
100
AcDbSymbolTableRecord
100
AcDbDimStyleTableRecord
  2
Default - mm (ANSI)$7
 70
     0
 40
8.695652173913043
 41
0.0984251946210861
 42
0.063
 43
0.2362204724409449
 44
0.125
 45
0.00000001
 46
0.3937007874015748
 73
     0
 78
     4
 79
     1
140
0.1000000014901161
143
1.0
144
25.4
146
1.200000029802321
147
0.031496062992126
171
     1
176
   256
177
   256
178
   256
179
     1
271
     2
272
     2
274
     1
284
     4
285
     4
340
D6
371
    -1
372
    -1
  0
DIMSTYLE
105
E0
330
A
100
AcDbSymbolTableRecord
100
AcDbDimStyleTableRecord
  2
Default - mm [in] (ANSI)
 70
     0
  4
 in
 40
8.695652173913043
 41
0.0984251946210861
 42
0.063
 43
0.25
 44
0.125
 45
0.00000001
 46
0.3937007874015748
 73
     0
 78
     4
 79
     1
140
0.1000000014901161
143
0.03937
144
25.4
146
1.200000029802321
147
0.031496062992126
170
     1
171
     3
176
   256
177
   256
178
   256
179
     1
271
     2
272
     2
274
     3
284
     4
285
     4
286
     4
340
D6
371
    -1
372
    -1
  0
DIMSTYLE
105
E1
330
A
100
AcDbSymbolTableRecord
100
AcDbDimStyleTableRecord
  2
Default - mm [in] (ANSI)$7
 70
     0
  4
 in
 40
8.695652173913043
 41
0.0984251946210861
 42
0.063
 43
0.25
 44
0.125
 45
0.00000001
 46
0.3937007874015748
 73
     0
 78
     4
 79
     1
140
0.1000000014901161
143
0.03937
144
25.4
146
1.200000029802321
147
0.031496062992126
170
     1
171
     3
176
   256
177
   256
178
   256
179
     1
271
     2
272
     2
274
     3
284
     4
285
     4
286
     4
340
D6
371
    -1
372
    -1
  0
DIMSTYLE
105
E2
102
{ACAD_REACTORS
330
194
330
295
330
3AB
330
495
330
57F
330
67D
330
77B
330
891
330
980
330
A3A
102
}
330
A
100
AcDbSymbolTableRecord
100
AcDbDimStyleTableRecord
  2
Default (ANSI)
 70
     0
 40
8.695652173913043
 41
0.0984251946210861
 43
0.2362204724409449
 44
0.125
 45
0.00000001
 46
0.3937007874015748
140
0.1000000014901161
147
0.031496062992126
176
   256
177
   256
178
   256
271
     2
272
     2
340
D7
371
    -1
372
    -1
  0
DIMSTYLE
105
E3
330
A
100
AcDbSymbolTableRecord
100
AcDbDimStyleTableRecord
  2
Default (ANSI)$7
 70
     0
 40
8.695652173913043
 41
0.0984251946210861
 43
0.2362204724409449
 44
0.125
 45
0.00000001
 46
0.3937007874015748
140
0.1000000014901161
147
0.031496062992126
176
   256
177
   256
178
   256
271
     2
272
     2
340
D7
371
    -1
372
    -1
  0
DIMSTYLE
105
E4
330
A
100
AcDbSymbolTableRecord
100
AcDbDimStyleTableRecord
  2
Alternate (ANSI)
 70
     0
 40
8.695652173913043
 41
0.0979999974370003
340
55
342
E5
  0
DIMSTYLE
105
F7
330
A
100
AcDbSymbolTableRecord
100
AcDbDimStyleTableRecord
  2
Datum (ANSI)
 70
     0
 40
8.695652173913043
 41
0.0979999974370003
340
55
342
E5
  0
DIMSTYLE
105
106
330
A
100
AcDbSymbolTableRecord
100
AcDbDimStyleTableRecord
  2
Large (ANSI)
 70
     0
 40
8.695652173913043
 41
0.1959999948740005
340
55
342
E5
  0
ENDTAB
  0
TABLE
  2
BLOCK_RECORD
  5
1
330
0
100
AcDbSymbolTable
 70
    14
  0
BLOCK_RECORD
  5
6C
330
1
100
AcDbSymbolTableRecord
100
AcDbBlockTableRecord
  2
*Model_Space
340
6F
  0
BLOCK_RECORD
  5
68
330
1
100
AcDbSymbolTableRecord
100
AcDbBlockTableRecord
  2
*Paper_Space
340
6B
  0
BLOCK_RECORD
  5
70
330
1
100
AcDbSymbolTableRecord
100
AcDbBlockTableRecord
  2
*Paper_Space0
340
73
  0
BLOCK_RECORD
  5
E5
330
1
100
AcDbSymbolTableRecord
100
AcDbBlockTableRecord
  2
_Closed
340
0
  0
BLOCK_RECORD
  5
EC
330
1
100
AcDbSymbolTableRecord
100
AcDbBlockTableRecord
  2
DatumFilled45
340
0
  0
BLOCK_RECORD
  5
F8
330
1
100
AcDbSymbolTableRecord
100
AcDbBlockTableRecord
  2
Filled-1
340
0
  0
BLOCK_RECORD
  5
197
330
1
100
AcDbSymbolTableRecord
100
AcDbBlockTableRecord
  2
*D4
340
0
  0
BLOCK_RECORD
  5
296
330
1
100
AcDbSymbolTableRecord
100
AcDbBlockTableRecord
  2
*D5
340
0
  0
BLOCK_RECORD
  5
3AC
330
1
100
AcDbSymbolTableRecord
100
AcDbBlockTableRecord
  2
*D6
340
0
  0
BLOCK_RECORD
  5
496
330
1
100
AcDbSymbolTableRecord
100
AcDbBlockTableRecord
  2
*D7
340
0
  0
BLOCK_RECORD
  5
580
330
1
100
AcDbSymbolTableRecord
100
AcDbBlockTableRecord
  2
*D8
340
0
  0
BLOCK_RECORD
  5
67E
330
1
100
AcDbSymbolTableRecord
100
AcDbBlockTableRecord
  2
*D9
340
0
  0
BLOCK_RECORD
  5
77C
330
1
100
AcDbSymbolTableRecord
100
AcDbBlockTableRecord
  2
*D10
340
0
  0
BLOCK_RECORD
  5
892
330
1
100
AcDbSymbolTableRecord
100
AcDbBlockTableRecord
  2
*D11
340
0
  0
BLOCK_RECORD
  5
981
330
1
100
AcDbSymbolTableRecord
100
AcDbBlockTableRecord
  2
*D12
340
0
  0
BLOCK_RECORD
  5
A3B
330
1
100
AcDbSymbolTableRecord
100
AcDbBlockTableRecord
  2
*D13
340
0
  0
ENDTAB
  0
ENDSEC
  0
SECTION
  2
BLOCKS
  0
BLOCK
  5
6D
330
6C
100
AcDbEntity
  8
0
100
AcDbBlockBegin
  2
*Model_Space
 70
     0
 10
0.0
 20
0.0
 30
0.0
  3
*Model_Space
  1

  0
ENDBLK
  5
6E
330
6C
100
AcDbEntity
  8
0
100
AcDbBlockEnd
  0
BLOCK
  5
69
330
68
100
AcDbEntity
 67
     1
  8
0
100
AcDbBlockBegin
  2
*Paper_Space
 70
     0
 10
0.0
 20
0.0
 30
0.0
  3
*Paper_Space
  1

  0
ENDBLK
  5
6A
330
68
100
AcDbEntity
 67
     1
  8
0
100
AcDbBlockEnd
  0
BLOCK
  5
71
330
70
100
AcDbEntity
 67
     1
  8
0
100
AcDbBlockBegin
  2
*Paper_Space0
 70
     0
 10
0.0
 20
0.0
 30
0.0
  3
*Paper_Space0
  1

  0
ENDBLK
  5
72
330
70
100
AcDbEntity
 67
     1
  8
0
100
AcDbBlockEnd
  0
BLOCK
  5
EA
330
E5
100
AcDbEntity
  8
0
100
AcDbBlockBegin
  2
_Closed
 70
     0
 10
0.0
 20
0.0
 30
0.0
  3
_Closed
  1

  0
LINE
  5
E6
330
E5
100
AcDbEntity
  8
0
  6
ByBlock
 62
     0
370
    -2
100
AcDbLine
 10
-1.0
 20
0.1666666666666666
 30
0.0
 11
0.0
 21
0.0
 31
0.0
  0
LINE
  5
E7
330
E5
100
AcDbEntity
  8
0
  6
ByBlock
 62
     0
370
    -2
100
AcDbLine
 10
0.0
 20
0.0
 30
0.0
 11
-1.0
 21
-0.1666666666666666
 31
0.0
  0
LINE
  5
E8
330
E5
100
AcDbEntity
  8
0
  6
ByBlock
 62
     0
370
    -2
100
AcDbLine
 10
-1.0
 20
0.1666666666666666
 30
0.0
 11
-1.0
 21
-0.1666666666666666
 31
0.0
  0
LINE
  5
E9
330
E5
100
AcDbEntity
  8
0
  6
ByBlock
 62
     0
370
    -2
100
AcDbLine
 10
0.0
 20
0.0
 30
0.0
 11
-1.0
 21
0.0
 31
0.0
  0
ENDBLK
  5
EB
330
E5
100
AcDbEntity
  8
0
100
AcDbBlockEnd
  0
BLOCK
  5
ED
330
EC
100
AcDbEntity
  8
0
100
AcDbBlockBegin
  2
DatumFilled45
 70
     0
 10
0.0
 20
0.0
 30
0.0
  3
DatumFilled45
  1

  0
POLYLINE
  5
EF
330
EC
100
AcDbEntity
  8
0
 62
     0
100
AcDb2dPolyline
 66
     1
 10
0.0
 20
0.0
 30
0.0
 70
   128
  0
VERTEX
  5
F0
330
EF
100
AcDbEntity
  8
0
 62
     0
100
AcDbVertex
100
AcDb2dVertex
 10
0.0
 20
0.9999999999999998
 30
0.0
  0
VERTEX
  5
F1
330
EF
100
AcDbEntity
  8
0
 62
     0
100
AcDbVertex
100
AcDb2dVertex
 10
0.0
 20
-0.9999999999999998
 30
0.0
  0
VERTEX
  5
F3
330
EF
100
AcDbEntity
  8
0
 62
     0
100
AcDbVertex
100
AcDb2dVertex
 10
-0.9999999999999998
 20
0.0
 30
0.0
  0
VERTEX
  5
F4
330
EF
100
AcDbEntity
  8
0
 62
     0
100
AcDbVertex
100
AcDb2dVertex
 10
0.0
 20
0.9999999999999998
 30
0.0
  0
SEQEND
  5
F2
330
EF
100
AcDbEntity
  8
0
 62
     0
  0
SOLID
  5
F6
330
EC
100
AcDbEntity
  8
0
 62
     0
100
AcDbTrace
 10
0.0
 20
0.9999999999999998
 30
0.0
 11
0.0
 21
-0.9999999999999998
 31
0.0
 12
-0.9999999999999998
 22
0.0
 32
0.0
 13
0.0
 23
0.9999999999999998
 33
0.0
  0
ENDBLK
  5
EE
330
EC
100
AcDbEntity
  8
0
100
AcDbBlockEnd
  0
BLOCK
  5
F9
330
F8
100
AcDbEntity
  8
0
100
AcDbBlockBegin
  2
Filled-1
 70
     0
 10
0.0
 20
0.0
 30
0.0
  3
Filled-1
  1

  0
LINE
  5
FB
330
F8
100
AcDbEntity
  8
0
 62
     0
100
AcDbLine
 10
-0.9999999999999998
 20
0.0
 30
0.0
 11
0.0
 21
0.0
 31
0.0
  0
POLYLINE
  5
FC
330
F8
100
AcDbEntity
  8
0
 62
     0
100
AcDb2dPolyline
 66
     1
 10
0.0
 20
0.0
 30
0.0
 70
   128
  0
VERTEX
  5
FD
330
FC
100
AcDbEntity
  8
0
 62
     0
100
AcDbVertex
100
AcDb2dVertex
 10
-0.9999999999999998
 20
-0.0994897959183674
 30
0.0
  0
VERTEX
  5
FE
330
FC
100
AcDbEntity
  8
0
 62
     0
100
AcDbVertex
100
AcDb2dVertex
 10
0.0
 20
0.0
 30
0.0
  0
VERTEX
  5
100
330
FC
100
AcDbEntity
  8
0
 62
     0
100
AcDbVertex
100
AcDb2dVertex
 10
-0.9999999999999998
 20
0.0994897959183674
 30
0.0
  0
VERTEX
  5
101
330
FC
100
AcDbEntity
  8
0
 62
     0
100
AcDbVertex
100
AcDb2dVertex
 10
-0.9999999999999998
 20
-0.0994897959183674
 30
0.0
  0
SEQEND
  5
FF
330
FC
100
AcDbEntity
  8
0
 62
     0
  0
SOLID
  5
102
330
F8
100
AcDbEntity
  8
0
 62
     0
100
AcDbTrace
 10
-0.9999999999999998
 20
-0.0994897959183674
 30
0.0
 11
0.0
 21
0.0
 31
0.0
 12
-0.9999999999999998
 22
0.0994897959183674
 32
0.0
 13
-0.9999999999999998
 23
-0.0994897959183674
 33
0.0
  0
LINE
  5
103
330
F8
100
AcDbEntity
  8
0
 62
     0
100
AcDbLine
 10
-0.9999999999999998
 20
-0.0994897959183674
 30
0.0
 11
0.0
 21
0.0
 31
0.0
  0
LINE
  5
104
330
F8
100
AcDbEntity
  8
0
 62
     0
100
AcDbLine
 10
0.0
 20
0.0
 30
0.0
 11
-0.9999999999999998
 21
0.0994897959183674
 31
0.0
  0
LINE
  5
105
330
F8
100
AcDbEntity
  8
0
 62
     0
100
AcDbLine
 10
-0.9999999999999998
 20
0.0994897959183674
 30
0.0
 11
-0.9999999999999998
 21
-0.0994897959183674
 31
0.0
  0
ENDBLK
  5
FA
330
F8
100
AcDbEntity
  8
0
100
AcDbBlockEnd
  0
BLOCK
  5
198
330
197
100
AcDbEntity
  8
0
100
AcDbBlockBegin
  2
*D4
 70
     1
 10
0.0
 20
0.0
 30
0.0
  3
*D4
  1

  0
LINE
  5
28B
330
197
100
AcDbEntity
  8
Dimension (ANSI)
100
AcDbLine
 10
51.41076053819251
 20
34.34492060549318
 30
0.0
 11
57.59492089341447
 21
34.34492060549318
 31
0.0
  0
LINE
  5
28C
330
197
100
AcDbEntity
  8
Dimension (ANSI)
100
AcDbLine
 10
51.41076053819255
 20
49.96992060549318
 30
0.0
 11
57.59492089341448
 21
49.96992060549318
 31
0.0
  0
LINE
  5
28D
330
197
100
AcDbEntity
  8
Dimension (ANSI)
100
AcDbLine
 10
56.50796437167534
 20
35.20079186306784
 30
0.0
 11
56.50796437167534
 21
40.72412148973421
 31
0.0
  0
LINE
  5
28E
330
197
100
AcDbEntity
  8
Dimension (ANSI)
100
AcDbLine
 10
56.50796437167535
 20
49.11404934791852
 30
0.0
 11
56.50796437167534
 21
43.59071972125214
 31
0.0
  0
SOLID
  5
28F
330
197
100
AcDbEntity
  8
Dimension (ANSI)
100
AcDbTrace
 10
56.36531916207957
 20
35.20079186306784
 30
0.0
 11
56.65060958127112
 21
35.20079186306784
 31
0.0
 12
56.50796437167534
 22
34.34492060549318
 32
0.0
 13
56.50796437167534
 23
34.34492060549318
 33
0.0
  0
SOLID
  5
290
330
197
100
AcDbEntity
  8
Dimension (ANSI)
100
AcDbTrace
 10
56.36531916207957
 20
49.11404934791852
 30
0.0
 11
56.65060958127113
 21
49.11404934791852
 31
0.0
 12
56.50796437167535
 22
49.96992060549318
 32
0.0
 13
56.50796437167535
 23
49.96992060549318
 33
0.0
  0
MTEXT
  5
291
330
197
100
AcDbEntity
  8
Dimension (ANSI)
100
AcDbMText
 10
56.50796437167533
 20
42.15742060549319
 30
0.0
 40
0.8695652303488358
 41
0.0
 71
     5
 72
     1
  1
\A1;15.63{\PTYP.}
  7
ROMANS
 73
     1
 44
1.0
1001
ACAD
1000
MTEXTBEGIN
1070
    73
1070
     1
1070
    44
1040
1.0
1070
    74
1070
     0
1000
MTEXTEND
  0
POINT
  5
292
330
197
100
AcDbEntity
  8
Defpoints
 62
     0
100
AcDbPoint
 10
50.86728227732294
 20
34.34492060549318
 30
0.0
  0
POINT
  5
293
330
197
100
AcDbEntity
  8
Defpoints
 62
     0
100
AcDbPoint
 10
50.86728227732299
 20
49.96992060549318
 30
0.0
  0
POINT
  5
294
330
197
100
AcDbEntity
  8
Defpoints
 62
     0
100
AcDbPoint
 10
56.50796437167535
 20
49.96992060549318
 30
0.0
  0
ENDBLK
  5
199
330
197
100
AcDbEntity
  8
0
100
AcDbBlockEnd
  0
BLOCK
  5
297
330
296
100
AcDbEntity
  8
0
100
AcDbBlockBegin
  2
*D5
 70
     1
 10
0.0
 20
0.0
 30
0.0
  3
*D5
  1

  0
LINE
  5
3A0
330
296
100
AcDbEntity
  8
Dimension (ANSI)
100
AcDbLine
 10
52.18101199473649
 20
33.46992060549319
 30
0.0
 11
60.04977273919548
 21
33.46992060549319
 31
0.0
  0
LINE
  5
3A1
330
296
100
AcDbEntity
  8
Dimension (ANSI)
100
AcDbLine
 10
51.41076053819251
 20
34.34492060549318
 30
0.0
 11
60.04977273919548
 21
34.34492060549318
 31
0.0
  0
LINE
  5
3A2
330
296
100
AcDbEntity
  8
Dimension (ANSI)
100
AcDbLine
 10
58.96281621745635
 20
35.20079186306784
 30
0.0
 11
58.96281621745635
 21
36.05666312064251
 31
0.0
  0
LINE
  5
3A3
330
296
100
AcDbEntity
  8
Dimension (ANSI)
100
AcDbLine
 10
58.96281621745635
 20
32.61404934791853
 30
0.0
 11
58.96281621745635
 21
28.53463367084599
 31
0.0
  0
LINE
  5
3A4
330
296
100
AcDbEntity
  8
Dimension (ANSI)
100
AcDbLine
 10
58.96281621745635
 20
28.53463367084599
 30
0.0
 11
58.10694495988169
 21
28.53463367084599
 31
0.0
  0
SOLID
  5
3A5
330
296
100
AcDbEntity
  8
Dimension (ANSI)
100
AcDbTrace
 10
58.82017100786057
 20
35.20079186306784
 30
0.0
 11
59.10546142705213
 21
35.20079186306784
 31
0.0
 12
58.96281621745635
 22
34.34492060549318
 32
0.0
 13
58.96281621745635
 23
34.34492060549318
 33
0.0
  0
SOLID
  5
3A6
330
296
100
AcDbEntity
  8
Dimension (ANSI)
100
AcDbTrace
 10
58.82017100786057
 20
32.61404934791853
 30
0.0
 11
59.10546142705213
 21
32.61404934791853
 31
0.0
 12
58.96281621745635
 22
33.46992060549319
 32
0.0
 13
58.96281621745635
 23
33.46992060549319
 33
0.0
  0
MTEXT
  5
3A7
330
296
100
AcDbEntity
  8
Dimension (ANSI)
100
AcDbMText
 10
56.50801437167532
 20
28.534633670846
 30
0.0
 40
0.8695652303488358
 41
0.0
 71
     5
 72
     1
  1
\A1;0.88{\PTYP.}
  7
ROMANS
 73
     1
 44
1.0
1001
ACAD
1000
MTEXTBEGIN
1070
    73
1070
     1
1070
    44
1040
1.0
1070
    74
1070
     0
1000
MTEXTEND
  0
POINT
  5
3A8
330
296
100
AcDbEntity
  8
Defpoints
 62
     0
100
AcDbPoint
 10
51.63753373386693
 20
33.46992060549319
 30
0.0
  0
POINT
  5
3A9
330
296
100
AcDbEntity
  8
Defpoints
 62
     0
100
AcDbPoint
 10
50.86728227732294
 20
34.34492060549318
 30
0.0
  0
POINT
  5
3AA
330
296
100
AcDbEntity
  8
Defpoints
 62
     0
100
AcDbPoint
 10
58.96281621745635
 20
34.34492060549318
 30
0.0
  0
ENDBLK
  5
298
330
296
100
AcDbEntity
  8
0
100
AcDbBlockEnd
  0
BLOCK
  5
3AD
330
3AC
100
AcDbEntity
  8
0
100
AcDbBlockBegin
  2
*D6
 70
     1
 10
0.0
 20
0.0
 30
0.0
  3
*D6
  1

  0
LINE
  5
48B
330
3AC
100
AcDbEntity
  8
Dimension (ANSI)
100
AcDbLine
 10
52.18101199473649
 20
33.46992060549319
 30
0.0
 11
64.36433962226131
 21
33.46992060549319
 31
0.0
  0
LINE
  5
48C
330
3AC
100
AcDbEntity
  8
Dimension (ANSI)
100
AcDbLine
 10
52.1810119947365
 20
66.46992060549319
 30
0.0
 11
64.36433962226131
 21
66.46992060549319
 31
0.0
  0
LINE
  5
48D
330
3AC
100
AcDbEntity
  8
Dimension (ANSI)
100
AcDbLine
 10
63.27738310052217
 20
34.32579186306785
 30
0.0
 11
63.27738310052218
 21
49.26125918169158
 31
0.0
  0
LINE
  5
48E
330
3AC
100
AcDbEntity
  8
Dimension (ANSI)
100
AcDbLine
 10
63.27738310052218
 20
65.61404934791852
 30
0.0
 11
63.27738310052218
 21
50.67858202929478
 31
0.0
  0
SOLID
  5
48F
330
3AC
100
AcDbEntity
  8
Dimension (ANSI)
100
AcDbTrace
 10
63.1347378909264
 20
34.32579186306785
 30
0.0
 11
63.42002831011795
 21
34.32579186306785
 31
0.0
 12
63.27738310052217
 22
33.46992060549319
 32
0.0
 13
63.27738310052217
 23
33.46992060549319
 33
0.0
  0
SOLID
  5
490
330
3AC
100
AcDbEntity
  8
Dimension (ANSI)
100
AcDbTrace
 10
63.1347378909264
 20
65.61404934791852
 30
0.0
 11
63.42002831011796
 21
65.61404934791852
 31
0.0
 12
63.27738310052218
 22
66.46992060549319
 32
0.0
 13
63.27738310052218
 23
66.46992060549319
 33
0.0
  0
MTEXT
  5
491
330
3AC
100
AcDbEntity
  8
Dimension (ANSI)
100
AcDbMText
 10
61.53825263982449
 20
50.4047032206676
 30
0.0
 40
0.8695652303488358
 41
0.0
 71
     1
 72
     1
  1
\A1;33.00
  7
ROMANS
 73
     1
 44
1.0
1001
ACAD
1000
MTEXTBEGIN
1070
    73
1070
     1
1070
    44
1040
1.0
1070
    74
1070
     0
1000
MTEXTEND
  0
POINT
  5
492
330
3AC
100
AcDbEntity
  8
Defpoints
 62
     0
100
AcDbPoint
 10
51.63753373386693
 20
33.46992060549319
 30
0.0
  0
POINT
  5
493
330
3AC
100
AcDbEntity
  8
Defpoints
 62
     0
100
AcDbPoint
 10
51.63753373386693
 20
66.46992060549319
 30
0.0
  0
POINT
  5
494
330
3AC
100
AcDbEntity
  8
Defpoints
 62
     0
100
AcDbPoint
 10
63.27738310052218
 20
66.46992060549319
 30
0.0
  0
ENDBLK
  5
3AE
330
3AC
100
AcDbEntity
  8
0
100
AcDbBlockEnd
  0
BLOCK
  5
497
330
496
100
AcDbEntity
  8
0
100
AcDbBlockBegin
  2
*D7
 70
     1
 10
0.0
 20
0.0
 30
0.0
  3
*D7
  1

  0
LINE
  5
575
330
496
100
AcDbEntity
  8
Dimension (ANSI)
100
AcDbLine
 10
24.74228227732299
 20
66.90865032290668
 30
0.0
 11
24.74228227732299
 21
75.05874994319777
 31
0.0
  0
LINE
  5
576
330
496
100
AcDbEntity
  8
Dimension (ANSI)
100
AcDbLine
 10
51.74228227732296
 20
66.90865032290671
 30
0.0
 11
51.74228227732296
 21
75.05874994319777
 31
0.0
  0
LINE
  5
577
330
496
100
AcDbEntity
  8
Dimension (ANSI)
100
AcDbLine
 10
25.59815353489765
 20
73.97179342145864
 30
0.0
 11
36.22927300799812
 21
73.97179342145864
 31
0.0
  0
LINE
  5
578
330
496
100
AcDbEntity
  8
Dimension (ANSI)
100
AcDbLine
 10
50.8864110197483
 20
73.97179342145864
 30
0.0
 11
40.25529154664782
 21
73.97179342145864
 31
0.0
  0
SOLID
  5
579
330
496
100
AcDbEntity
  8
Dimension (ANSI)
100
AcDbTrace
 10
25.59815353489765
 20
74.11443863105441
 30
0.0
 11
25.59815353489765
 21
73.82914821186287
 31
0.0
 12
24.74228227732299
 22
73.97179342145864
 32
0.0
 13
24.74228227732299
 23
73.97179342145864
 33
0.0
  0
SOLID
  5
57A
330
496
100
AcDbEntity
  8
Dimension (ANSI)
100
AcDbTrace
 10
50.8864110197483
 20
74.11443863105441
 30
0.0
 11
50.8864110197483
 21
73.82914821186287
 31
0.0
 12
51.74228227732296
 22
73.97179342145864
 32
0.0
 13
51.74228227732296
 23
73.97179342145864
 33
0.0
  0
MTEXT
  5
57B
330
496
100
AcDbEntity
  8
Dimension (ANSI)
100
AcDbMText
 10
36.5031518166253
 20
74.40657603663305
 30
0.0
 40
0.8695652303488358
 41
0.0
 71
     1
 72
     1
  1
\A1;27.00
  7
ROMANS
 73
     1
 44
1.0
1001
ACAD
1000
MTEXTBEGIN
1070
    73
1070
     1
1070
    44
1040
1.0
1070
    74
1070
     0
1000
MTEXTEND
  0
POINT
  5
57C
330
496
100
AcDbEntity
  8
Defpoints
 62
     0
100
AcDbPoint
 10
24.74228227732299
 20
66.36517206203712
 30
0.0
  0
POINT
  5
57D
330
496
100
AcDbEntity
  8
Defpoints
 62
     0
100
AcDbPoint
 10
51.74228227732296
 20
66.36517206203714
 30
0.0
  0
POINT
  5
57E
330
496
100
AcDbEntity
  8
Defpoints
 62
     0
100
AcDbPoint
 10
51.74228227732296
 20
73.97179342145864
 30
0.0
  0
ENDBLK
  5
498
330
496
100
AcDbEntity
  8
0
100
AcDbBlockEnd
  0
BLOCK
  5
581
330
580
100
AcDbEntity
  8
0
100
AcDbBlockBegin
  2
*D8
 70
     1
 10
0.0
 20
0.0
 30
0.0
  3
*D8
  1

  0
LINE
  5
673
330
580
100
AcDbEntity
  8
Dimension (ANSI)
100
AcDbLine
 10
50.86728227732294
 20
67.50685538810185
 30
0.0
 11
50.86728227732294
 21
71.60313696975197
 31
0.0
  0
LINE
  5
674
330
580
100
AcDbEntity
  8
Dimension (ANSI)
100
AcDbLine
 10
51.74228227732296
 20
66.90865032290671
 30
0.0
 11
51.74228227732296
 21
71.60313696975197
 31
0.0
  0
LINE
  5
675
330
580
100
AcDbEntity
  8
Dimension (ANSI)
100
AcDbLine
 10
50.01141101974828
 20
70.51618044801284
 30
0.0
 11
49.15553976217362
 21
70.51618044801284
 31
0.0
  0
LINE
  5
676
330
580
100
AcDbEntity
  8
Dimension (ANSI)
100
AcDbLine
 10
52.59815353489763
 20
70.51618044801284
 30
0.0
 11
55.99281882217672
 21
70.51618044801284
 31
0.0
  0
SOLID
  5
677
330
580
100
AcDbEntity
  8
Dimension (ANSI)
100
AcDbTrace
 10
50.01141101974828
 20
70.65882565760862
 30
0.0
 11
50.01141101974828
 21
70.37353523841708
 31
0.0
 12
50.86728227732294
 22
70.51618044801284
 32
0.0
 13
50.86728227732294
 23
70.51618044801284
 33
0.0
  0
SOLID
  5
678
330
580
100
AcDbEntity
  8
Dimension (ANSI)
100
AcDbTrace
 10
52.59815353489763
 20
70.65882565760862
 30
0.0
 11
52.59815353489763
 21
70.37353523841708
 31
0.0
 12
51.74228227732296
 22
70.51618044801284
 32
0.0
 13
51.74228227732296
 23
70.51618044801284
 33
0.0
  0
MTEXT
  5
679
330
580
100
AcDbEntity
  8
Dimension (ANSI)
100
AcDbMText
 10
57.59174941038308
 20
70.51618044801284
 30
0.0
 40
0.8695652303488358
 41
0.0
 71
     5
 72
     1
  1
\A1;0.88{\PTYP.}
  7
ROMANS
 73
     1
 44
1.0
1001
ACAD
1000
MTEXTBEGIN
1070
    73
1070
     1
1070
    44
1040
1.0
1070
    74
1070
     0
1000
MTEXTEND
  0
POINT
  5
67A
330
580
100
AcDbEntity
  8
Defpoints
 62
     0
100
AcDbPoint
 10
50.86728227732294
 20
66.96337712723229
 30
0.0
  0
POINT
  5
67B
330
580
100
AcDbEntity
  8
Defpoints
 62
     0
100
AcDbPoint
 10
51.74228227732296
 20
66.36517206203714
 30
0.0
  0
POINT
  5
67C
330
580
100
AcDbEntity
  8
Defpoints
 62
     0
100
AcDbPoint
 10
51.74228227732296
 20
70.51618044801284
 30
0.0
  0
ENDBLK
  5
582
330
580
100
AcDbEntity
  8
0
100
AcDbBlockEnd
  0
BLOCK
  5
67F
330
67E
100
AcDbEntity
  8
0
100
AcDbBlockBegin
  2
*D9
 70
     1
 10
0.0
 20
0.0
 30
0.0
  3
*D9
  1

  0
LINE
  5
771
330
67E
100
AcDbEntity
  8
Dimension (ANSI)
100
AcDbLine
 10
50.86728227732294
 20
33.80144234462362
 30
0.0
 11
50.86728227732294
 21
28.00862025173305
 31
0.0
  0
LINE
  5
772
330
67E
100
AcDbEntity
  8
Dimension (ANSI)
100
AcDbLine
 10
48.86728227732296
 20
33.80144234462362
 30
0.0
 11
48.86728227732296
 21
28.00862025173305
 31
0.0
  0
LINE
  5
773
330
67E
100
AcDbEntity
  8
Dimension (ANSI)
100
AcDbLine
 10
51.72315353489761
 20
29.09557677347218
 30
0.0
 11
52.57902479247227
 21
29.09557677347218
 31
0.0
  0
LINE
  5
774
330
67E
100
AcDbEntity
  8
Dimension (ANSI)
100
AcDbLine
 10
48.0114110197483
 20
29.09557677347218
 30
0.0
 11
44.32667053815066
 21
29.09557677347218
 31
0.0
  0
SOLID
  5
775
330
67E
100
AcDbEntity
  8
Dimension (ANSI)
100
AcDbTrace
 10
51.72315353489761
 20
29.23822198306796
 30
0.0
 11
51.72315353489761
 21
28.9529315638764
 31
0.0
 12
50.86728227732294
 22
29.09557677347218
 32
0.0
 13
50.86728227732294
 23
29.09557677347218
 33
0.0
  0
SOLID
  5
776
330
67E
100
AcDbEntity
  8
Dimension (ANSI)
100
AcDbTrace
 10
48.0114110197483
 20
29.23822198306796
 30
0.0
 11
48.0114110197483
 21
28.9529315638764
 31
0.0
 12
48.86728227732296
 22
29.09557677347218
 32
0.0
 13
48.86728227732296
 23
29.09557677347218
 33
0.0
  0
MTEXT
  5
777
330
67E
100
AcDbEntity
  8
Dimension (ANSI)
100
AcDbMText
 10
42.7277399499443
 20
29.09557677347218
 30
0.0
 40
0.8695652303488358
 41
0.0
 71
     5
 72
     1
  1
\A1;2.00{\PTYP.}
  7
ROMANS
 73
     1
 44
1.0
1001
ACAD
1000
MTEXTBEGIN
1070
    73
1070
     1
1070
    44
1040
1.0
1070
    74
1070
     0
1000
MTEXTEND
  0
POINT
  5
778
330
67E
100
AcDbEntity
  8
Defpoints
 62
     0
100
AcDbPoint
 10
50.86728227732294
 20
34.34492060549318
 30
0.0
  0
POINT
  5
779
330
67E
100
AcDbEntity
  8
Defpoints
 62
     0
100
AcDbPoint
 10
48.86728227732296
 20
34.34492060549318
 30
0.0
  0
POINT
  5
77A
330
67E
100
AcDbEntity
  8
Defpoints
 62
     0
100
AcDbPoint
 10
48.86728227732296
 20
29.09557677347218
 30
0.0
  0
ENDBLK
  5
680
330
67E
100
AcDbEntity
  8
0
100
AcDbBlockEnd
  0
BLOCK
  5
77D
330
77C
100
AcDbEntity
  8
0
100
AcDbBlockBegin
  2
*D10
 70
     1
 10
0.0
 20
0.0
 30
0.0
  3
*D10
  1

  0
LINE
  5
886
330
77C
100
AcDbEntity
  8
Dimension (ANSI)
100
AcDbLine
 10
52.16081053820425
 20
89.04112902172467
 30
0.0
 11
58.66153867596524
 21
89.04112902172467
 31
0.0
  0
LINE
  5
887
330
77C
100
AcDbEntity
  8
Dimension (ANSI)
100
AcDbLine
 10
52.18101199474822
 20
89.9161290217247
 30
0.0
 11
58.66153867596524
 21
89.9161290217247
 31
0.0
  0
LINE
  5
888
330
77C
100
AcDbEntity
  8
Dimension (ANSI)
100
AcDbLine
 10
57.57458215422611
 20
90.77200027929936
 30
0.0
 11
57.57458215422611
 21
91.62787153687402
 31
0.0
  0
LINE
  5
889
330
77C
100
AcDbEntity
  8
Dimension (ANSI)
100
AcDbLine
 10
57.57458215422611
 20
88.18525776415
 30
0.0
 11
57.57458215422611
 21
84.6629810225491
 31
0.0
  0
LINE
  5
88A
330
77C
100
AcDbEntity
  8
Dimension (ANSI)
100
AcDbLine
 10
57.57458215422611
 20
84.6629810225491
 30
0.0
 11
56.71871089665144
 21
84.6629810225491
 31
0.0
  0
SOLID
  5
88B
330
77C
100
AcDbEntity
  8
Dimension (ANSI)
100
AcDbTrace
 10
57.43193694463033
 20
90.77200027929936
 30
0.0
 11
57.71722736382188
 21
90.77200027929936
 31
0.0
 12
57.57458215422611
 22
89.9161290217247
 32
0.0
 13
57.57458215422611
 23
89.9161290217247
 33
0.0
  0
SOLID
  5
88C
330
77C
100
AcDbEntity
  8
Dimension (ANSI)
100
AcDbTrace
 10
57.43193694463033
 20
88.18525776415
 30
0.0
 11
57.71722736382188
 21
88.18525776415
 31
0.0
 12
57.57458215422611
 22
89.04112902172467
 32
0.0
 13
57.57458215422611
 23
89.04112902172467
 33
0.0
  0
MTEXT
  5
88D
330
77C
100
AcDbEntity
  8
Dimension (ANSI)
100
AcDbMText
 10
55.11978030844507
 20
84.66298102254912
 30
0.0
 40
0.8695652303488358
 41
0.0
 71
     5
 72
     1
  1
\A1;0.88{\PTYP.}
  7
ROMANS
 73
     1
 44
1.0
1001
ACAD
1000
MTEXTBEGIN
1070
    73
1070
     1
1070
    44
1040
1.0
1070
    74
1070
     0
1000
MTEXTEND
  0
POINT
  5
88E
330
77C
100
AcDbEntity
  8
Defpoints
 62
     0
100
AcDbPoint
 10
51.61733227733469
 20
89.04112902172467
 30
0.0
  0
POINT
  5
88F
330
77C
100
AcDbEntity
  8
Defpoints
 62
     0
100
AcDbPoint
 10
51.63753373387866
 20
89.9161290217247
 30
0.0
  0
POINT
  5
890
330
77C
100
AcDbEntity
  8
Defpoints
 62
     0
100
AcDbPoint
 10
57.57458215422611
 20
89.9161290217247
 30
0.0
  0
ENDBLK
  5
77E
330
77C
100
AcDbEntity
  8
0
100
AcDbBlockEnd
  0
BLOCK
  5
893
330
892
100
AcDbEntity
  8
0
100
AcDbBlockBegin
  2
*D11
 70
     1
 10
0.0
 20
0.0
 30
0.0
  3
*D11
  1

  0
LINE
  5
978
330
892
100
AcDbEntity
  8
Dimension (ANSI)
100
AcDbLine
 10
87.03033874130476
 20
60.87604487548404
 30
0.0
 11
86.1744674837301
 21
60.87604487548404
 31
0.0
  0
LINE
  5
979
330
892
100
AcDbEntity
  8
Dimension (ANSI)
100
AcDbLine
 10
89.61708125645413
 20
60.87604487548404
 30
0.0
 11
91.06770084081293
 21
60.87604487548404
 31
0.0
  0
SOLID
  5
97A
330
892
100
AcDbEntity
  8
Dimension (ANSI)
100
AcDbTrace
 10
87.03033874130476
 20
61.01869008507982
 30
0.0
 11
87.03033874130476
 21
60.73339966588826
 31
0.0
 12
87.88620999887942
 22
60.87604487548404
 32
0.0
 13
87.88620999887942
 23
60.87604487548404
 33
0.0
  0
SOLID
  5
97B
330
892
100
AcDbEntity
  8
Dimension (ANSI)
100
AcDbTrace
 10
89.61708125645413
 20
61.01869008507982
 30
0.0
 11
89.61708125645413
 21
60.73339966588826
 31
0.0
 12
88.76120999887948
 22
60.87604487548404
 32
0.0
 13
88.76120999887948
 23
60.87604487548404
 33
0.0
  0
MTEXT
  5
97C
330
892
100
AcDbEntity
  8
Dimension (ANSI)
100
AcDbMText
 10
92.66663142901929
 20
60.87604487548404
 30
0.0
 40
0.8695652303488358
 41
0.0
 71
     5
 72
     1
  1
\A1;0.88{\PTYP.}
  7
ROMANS
 73
     1
 44
1.0
1001
ACAD
1000
MTEXTBEGIN
1070
    73
1070
     1
1070
    44
1040
1.0
1070
    74
1070
     0
1000
MTEXTEND
  0
POINT
  5
97D
330
892
100
AcDbEntity
  8
Defpoints
 62
     0
100
AcDbPoint
 10
88.76120999887948
 20
60.87604487548404
 30
0.0
  0
POINT
  5
97E
330
892
100
AcDbEntity
  8
Defpoints
 62
     0
100
AcDbPoint
 10
87.88620999887942
 20
60.86900826298267
 30
0.0
  0
POINT
  5
97F
330
892
100
AcDbEntity
  8
Defpoints
 62
     0
100
AcDbPoint
 10
87.88620999887942
 20
60.87604487548404
 30
0.0
  0
ENDBLK
  5
894
330
892
100
AcDbEntity
  8
0
100
AcDbBlockEnd
  0
BLOCK
  5
982
330
981
100
AcDbEntity
  8
0
100
AcDbBlockBegin
  2
*D12
 70
     1
 10
0.0
 20
0.0
 30
0.0
  3
*D12
  1

  0
LINE
  5
A32
330
981
100
AcDbEntity
  8
Dimension (ANSI)
100
AcDbLine
 10
19.04083673729406
 20
29.00441209107178
 30
0.0
 11
20.27677376289984
 21
29.00441209107178
 31
0.0
  0
LINE
  5
A33
330
981
100
AcDbEntity
  8
Dimension (ANSI)
100
AcDbLine
 10
20.27677376289984
 20
29.00441209107178
 30
0.0
 11
24.81303934836512
 21
33.54067767653559
 31
0.0
  0
MTEXT
  5
A34
102
{ACAD_XDICTIONARY
360
B51
102
}
330
981
100
AcDbEntity
  8
Dimension (ANSI)
100
AcDbMText
 10
16.51022911657109
 20
29.70834584897322
 30
0.0
 40
0.8695652303488358
 41
0.0
 71
     2
 72
     1
  1
\A1;\U+22050.56{\PTYP.\P(6 PL.)}
  7
ROMANS
 73
     1
 44
1.0
1001
ACAD
1000
MTEXTBEGIN
1070
    73
1070
     1
1070
    44
1040
1.0
1070
    74
1070
     0
1000
MTEXTEND
  0
SOLID
  5
A35
330
981
100
AcDbEntity
  8
Dimension (ANSI)
100
AcDbTrace
 10
24.71217395335619
 20
33.64154307154456
 30
0.0
 11
24.91390474337405
 21
33.43981228152663
 31
0.0
 12
25.41823171841891
 22
34.1458700465892
 32
0.0
 13
25.41823171841891
 23
34.1458700465892
 33
0.0
  0
LINE
  5
A36
330
981
100
AcDbEntity
  8
Dimension (ANSI)
100
AcDbLine
 10
24.83467358167078
 20
34.34492060549319
 30
0.0
 11
26.39989097297514
 21
34.34492060549319
 31
0.0
  0
LINE
  5
A37
330
981
100
AcDbEntity
  8
Dimension (ANSI)
100
AcDbLine
 10
25.61728227732296
 20
33.56231190984102
 30
0.0
 11
25.61728227732297
 21
35.12752930114536
 31
0.0
  0
POINT
  5
A38
330
981
100
AcDbEntity
  8
Defpoints
 62
     0
100
AcDbPoint
 10
25.41823171841891
 20
34.1458700465892
 30
0.0
  0
POINT
  5
A39
330
981
100
AcDbEntity
  8
Defpoints
 62
     0
100
AcDbPoint
 10
25.816332836227
 20
34.54397116439717
 30
0.0
  0
ENDBLK
  5
983
330
981
100
AcDbEntity
  8
0
100
AcDbBlockEnd
  0
BLOCK
  5
A3C
330
A3B
100
AcDbEntity
  8
0
100
AcDbBlockBegin
  2
*D13
 70
     1
 10
0.0
 20
0.0
 30
0.0
  3
*D13
  1

  0
LINE
  5
AEB
330
A3B
100
AcDbEntity
  8
Dimension (ANSI)
100
AcDbLine
 10
18.36676963042236
 20
42.35949622678581
 30
0.0
 11
19.60270665602829
 21
42.35949622678581
 31
0.0
  0
LINE
  5
AEC
330
A3B
100
AcDbEntity
  8
Dimension (ANSI)
100
AcDbLine
 10
19.60270665602829
 20
42.35949622678581
 30
0.0
 11
26.90178124940409
 21
35.06042163341189
 31
0.0
  0
MTEXT
  5
AED
102
{ACAD_XDICTIONARY
360
B53
102
}
330
A3B
100
AcDbEntity
  8
Dimension (ANSI)
100
AcDbMText
 10
15.83616200969939
 20
43.06342998468724
 30
0.0
 40
0.8695652303488358
 41
0.0
 71
     2
 72
     1
  1
\A1;\U+22050.31{\PTYP.\P(2 PL.)}
  7
ROMANS
 73
     1
 44
1.0
1001
ACAD
1000
MTEXTBEGIN
1070
    73
1070
     1
1070
    44
1040
1.0
1070
    74
1070
     0
1000
MTEXTEND
  0
SOLID
  5
AEE
330
A3B
100
AcDbEntity
  8
Dimension (ANSI)
100
AcDbTrace
 10
27.00264664441303
 20
35.16128702842086
 30
0.0
 11
26.80091585439515
 21
34.95955623840293
 31
0.0
 12
27.50697361945787
 22
34.45522926335827
 32
0.0
 13
27.50697361945787
 23
34.45522926335827
 33
0.0
  0
LINE
  5
AEF
330
A3B
100
AcDbEntity
  8
Dimension (ANSI)
100
AcDbLine
 10
26.83467358167082
 20
34.34492060549319
 30
0.0
 11
28.39989097297516
 21
34.34492060549319
 31
0.0
  0
LINE
  5
AF0
330
A3B
100
AcDbEntity
  8
Dimension (ANSI)
100
AcDbLine
 10
27.61728227732299
 20
33.56231190984102
 30
0.0
 11
27.61728227732298
 21
35.12752930114535
 31
0.0
  0
POINT
  5
AF1
330
A3B
100
AcDbEntity
  8
Defpoints
 62
     0
100
AcDbPoint
 10
27.50697361945787
 20
34.45522926335827
 30
0.0
  0
POINT
  5
AF2
330
A3B
100
AcDbEntity
  8
Defpoints
 62
     0
100
AcDbPoint
 10
27.7275909351881
 20
34.2346119476281
 30
0.0
  0
ENDBLK
  5
A3D
330
A3B
100
AcDbEntity
  8
0
100
AcDbBlockEnd
  0
ENDSEC
  0
SECTION
  2
ENTITIES
  0
CIRCLE
  5
107
330
6C
100
AcDbEntity
  8
Visible (ANSI)
100
AcDbCircle
 10
48.86728227732297
 20
34.34492060549318
 30
0.0
 40
0.156
  0
CIRCLE
  5
108
330
6C
100
AcDbEntity
  8
Visible (ANSI)
100
AcDbCircle
 10
27.61728227732298
 20
34.34492060549318
 30
0.0
 40
0.156
  0
CIRCLE
  5
109
330
6C
100
AcDbEntity
  8
Visible (ANSI)
100
AcDbCircle
 10
50.86728227732299
 20
49.96992060549318
 30
0.0
 40
0.2814999999999999
  0
CIRCLE
  5
10A
330
6C
100
AcDbEntity
  8
Visible (ANSI)
100
AcDbCircle
 10
25.61728227732297
 20
49.96992060549318
 30
0.0
 40
0.2814999999999999
  0
CIRCLE
  5
10B
330
6C
100
AcDbEntity
  8
Visible (ANSI)
100
AcDbCircle
 10
50.86728227732294
 20
34.34492060549318
 30
0.0
 40
0.2814999999999999
  0
CIRCLE
  5
10C
330
6C
100
AcDbEntity
  8
Visible (ANSI)
100
AcDbCircle
 10
50.86728227732294
 20
65.59492060549316
 30
0.0
 40
0.2814999999999999
  0
CIRCLE
  5
10D
330
6C
100
AcDbEntity
  8
Visible (ANSI)
100
AcDbCircle
 10
25.61728227732297
 20
65.59492060549316
 30
0.0
 40
0.2814999999999999
  0
CIRCLE
  5
10E
330
6C
100
AcDbEntity
  8
Visible (ANSI)
100
AcDbCircle
 10
25.61728227732296
 20
34.34492060549318
 30
0.0
 40
0.2814999999999999
  0
SPLINE
  5
10F
330
6C
100
AcDbEntity
  8
Visible (ANSI)
100
AcDbSpline
210
0.0
220
0.0
230
1.0
 70
     8
 71
     3
 72
    11
 73
     7
 74
     0
 42
0.0000000001
 43
0.0000000001
 40
0.0
 40
0.0
 40
0.0
 40
0.0
 40
1.483474787624713
 40
1.483474787624713
 40
1.483474787624713
 40
1.57079632679511
 40
1.57079632679511
 40
1.57079632679511
 40
1.57079632679511
 10
51.61733227732296
 20
33.5948706054932
 30
0.0
 10
51.63278513969405
 20
33.58851112379909
 30
0.0
 10
51.64711555803613
 20
33.58215164210498
 30
0.0
 10
51.64846321158363
 20
33.57579216041088
 30
0.0
 10
51.64854253829886
 20
33.57541782325699
 30
0.0
 10
51.64858227732295
 20
33.57504348610311
 30
0.0
 10
51.64858227732295
 20
33.57466914894923
 30
0.0
  0
SPLINE
  5
110
330
6C
100
AcDbEntity
  8
Visible (ANSI)
100
AcDbSpline
210
0.0
220
0.0
230
1.0
 70
     8
 71
     3
 72
    11
 73
     7
 74
     0
 42
0.0000000001
 43
0.0000000001
 40
0.0
 40
0.0
 40
0.0
 40
0.0
 40
1.483474787624763
 40
1.483474787624763
 40
1.483474787624763
 40
1.570796326794879
 40
1.570796326794879
 40
1.570796326794879
 40
1.570796326794879
 10
51.64858227732294
 20
66.36517206203714
 30
0.0
 10
51.64858227732294
 20
66.35881258034302
 30
0.0
 10
51.63545159423668
 20
66.35245309864892
 30
0.0
 10
51.62005760887304
 20
66.34609361695481
 30
0.0
 10
51.61915147517456
 20
66.34571927980093
 30
0.0
 10
51.61824187668932
 20
66.34534494264705
 30
0.0
 10
51.61733227732296
 20
66.34497060549318
 30
0.0
  0
LINE
  5
111
330
6C
100
AcDbEntity
  8
Visible (ANSI)
100
AcDbLine
 10
51.74228227732294
 20
66.36517206203714
 30
0.0
 11
51.64858227732294
 21
66.36517206203714
 31
0.0
  0
SPLINE
  5
112
330
6C
100
AcDbEntity
  8
Visible (ANSI)
100
AcDbSpline
210
0.0
220
0.0
230
1.0
 70
     8
 71
     3
 72
    11
 73
     7
 74
     0
 42
0.0000000001
 43
0.0000000001
 40
0.0
 40
0.0
 40
0.0
 40
0.0
 40
1.049080005790692
 40
1.049080005790692
 40
1.049080005790692
 40
1.570796326794879
 40
1.570796326794879
 40
1.570796326794879
 40
1.570796326794879
 10
51.61733227732296
 20
66.34497060549318
 30
0.0
 10
51.66102645956414
 20
66.34946788791963
 30
0.0
 10
51.70388374621895
 20
66.3539651703461
 30
0.0
 10
51.72565956607902
 20
66.35846245277256
 30
0.0
 10
51.73648886466593
 20
66.36069898919408
 30
0.0
 10
51.74228227732296
 20
66.36293552561561
 30
0.0
 10
51.74228227732296
 20
66.36517206203714
 30
0.0
  0
LINE
  5
113
330
6C
100
AcDbEntity
  8
Visible (ANSI)
100
AcDbLine
 10
51.74228227732297
 20
33.57466914894923
 30
0.0
 11
51.64858227732296
 21
33.57466914894923
 31
0.0
  0
SPLINE
  5
114
330
6C
100
AcDbEntity
  8
Visible (ANSI)
100
AcDbSpline
210
0.0
220
0.0
230
1.0
 70
     8
 71
     3
 72
    11
 73
     7
 74
     0
 42
0.0000000001
 43
0.0000000001
 40
0.0
 40
0.0
 40
0.0
 40
0.0
 40
1.049080005790984
 40
1.049080005790984
 40
1.049080005790984
 40
1.57079632679511
 40
1.57079632679511
 40
1.57079632679511
 40
1.57079632679511
 10
51.61733227732298
 20
33.5948706054932
 30
0.0
 10
51.66102645956417
 20
33.59037332306674
 30
0.0
 10
51.70388374621897
 20
33.58587604064027
 30
0.0
 10
51.72565956607905
 20
33.58137875821382
 30
0.0
 10
51.73648886466594
 20
33.57914222179229
 30
0.0
 10
51.74228227732297
 20
33.57690568537076
 30
0.0
 10
51.74228227732296
 20
33.57466914894923
 30
0.0
  0
SPLINE
  5
115
330
6C
100
AcDbEntity
  8
Visible (ANSI)
100
AcDbSpline
210
0.0
220
0.0
230
1.0
 70
     8
 71
     3
 72
    11
 73
     7
 74
     0
 42
0.0000000001
 43
0.0000000001
 40
0.0
 40
0.0
 40
0.0
 40
0.0
 40
1.483474787626944
 40
1.483474787626944
 40
1.483474787626944
 40
1.570796326794889
 40
1.570796326794889
 40
1.570796326794889
 40
1.570796326794889
 10
24.86723227732298
 20
33.59487060549319
 30
0.0
 10
24.86087279562886
 20
33.57941774312207
 30
0.0
 10
24.85451331393475
 20
33.56508732477997
 30
0.0
 10
24.84815383224063
 20
33.56373967123251
 30
0.0
 10
24.84777949508676
 20
33.56366034451728
 30
0.0
 10
24.84740515793289
 20
33.56362060549319
 30
0.0
 10
24.84703082077901
 20
33.56362060549319
 30
0.0
  0
SPLINE
  5
116
330
6C
100
AcDbEntity
  8
Visible (ANSI)
100
AcDbSpline
210
0.0
220
0.0
230
1.0
 70
     8
 71
     3
 72
    11
 73
     7
 74
     0
 42
0.0000000001
 43
0.0000000001
 40
0.0
 40
0.0
 40
0.0
 40
0.0
 40
1.483474787626938
 40
1.483474787626938
 40
1.483474787626938
 40
1.57079632679489
 40
1.57079632679489
 40
1.57079632679489
 40
1.57079632679489
 10
51.63753373386693
 20
33.56362060549319
 30
0.0
 10
51.63117425217281
 20
33.56362060549319
 30
0.0
 10
51.6248147704787
 20
33.5767512885795
 30
0.0
 10
51.61845528878458
 20
33.59214527394317
 30
0.0
 10
51.61808095163071
 20
33.59305140764162
 30
0.0
 10
51.61770661447685
 20
33.59396100612686
 30
0.0
 10
51.61733227732298
 20
33.59487060549319
 30
0.0
  0
LINE
  5
117
330
6C
100
AcDbEntity
  8
Visible (ANSI)
100
AcDbLine
 10
51.63753373386693
 20
33.46992060549319
 30
0.0
 11
51.63753373386693
 21
33.56362060549319
 31
0.0
  0
SPLINE
  5
118
330
6C
100
AcDbEntity
  8
Visible (ANSI)
100
AcDbSpline
210
0.0
220
0.0
230
1.0
 70
     8
 71
     3
 72
    11
 73
     7
 74
     0
 42
0.0000000001
 43
0.0000000001
 40
0.0
 40
0.0
 40
0.0
 40
0.0
 40
1.049080005790748
 40
1.049080005790748
 40
1.049080005790748
 40
1.57079632679489
 40
1.57079632679489
 40
1.57079632679489
 40
1.57079632679489
 10
51.61733227732298
 20
33.59487060549319
 30
0.0
 10
51.62182955974944
 20
33.551176423252
 30
0.0
 10
51.62632684217589
 20
33.5083191365972
 30
0.0
 10
51.63082412460235
 20
33.48654331673712
 30
0.0
 10
51.63306066102387
 20
33.47571401815022
 30
0.0
 10
51.6352971974454
 20
33.46992060549319
 30
0.0
 10
51.63753373386693
 20
33.46992060549319
 30
0.0
  0
LINE
  5
119
330
6C
100
AcDbEntity
  8
Visible (ANSI)
100
AcDbLine
 10
24.84703082077901
 20
33.46992060549319
 30
0.0
 11
24.84703082077901
 21
33.56362060549319
 31
0.0
  0
SPLINE
  5
11A
330
6C
100
AcDbEntity
  8
Visible (ANSI)
100
AcDbSpline
210
0.0
220
0.0
230
1.0
 70
     8
 71
     3
 72
    11
 73
     7
 74
     0
 42
0.0000000001
 43
0.0000000001
 40
0.0
 40
0.0
 40
0.0
 40
0.0
 40
1.049080005790747
 40
1.049080005790747
 40
1.049080005790747
 40
1.570796326794889
 40
1.570796326794889
 40
1.570796326794889
 40
1.570796326794889
 10
24.86723227732298
 20
33.59487060549319
 30
0.0
 10
24.86273499489652
 20
33.551176423252
 30
0.0
 10
24.85823771247006
 20
33.5083191365972
 30
0.0
 10
24.85374043004361
 20
33.48654331673712
 30
0.0
 10
24.85150389362207
 20
33.47571401815022
 30
0.0
 10
24.84926735720054
 20
33.46992060549319
 30
0.0
 10
24.84703082077901
 20
33.46992060549319
 30
0.0
  0
SPLINE
  5
11B
330
6C
100
AcDbEntity
  8
Visible (ANSI)
100
AcDbSpline
210
0.0
220
0.0
230
1.0
 70
     8
 71
     3
 72
    11
 73
     7
 74
     0
 42
0.0000000001
 43
0.0000000001
 40
0.0
 40
0.0
 40
0.0
 40
0.0
 40
1.483474787626957
 40
1.483474787626957
 40
1.483474787626957
 40
1.57079632679489
 40
1.57079632679489
 40
1.57079632679489
 40
1.57079632679489
 10
24.86723227732297
 20
66.34497060549318
 30
0.0
 10
24.85177941495186
 20
66.35133008718729
 30
0.0
 10
24.83744899660976
 20
66.35768956888141
 30
0.0
 10
24.8361013430623
 20
66.36404905057553
 30
0.0
 10
24.83602201634707
 20
66.36442338772939
 30
0.0
 10
24.83598227732298
 20
66.36479772488326
 30
0.0
 10
24.83598227732298
 20
66.36517206203713
 30
0.0
  0
SPLINE
  5
11C
330
6C
100
AcDbEntity
  8
Visible (ANSI)
100
AcDbSpline
210
0.0
220
0.0
230
1.0
 70
     8
 71
     3
 72
    11
 73
     7
 74
     0
 42
0.0000000001
 43
0.0000000001
 40
0.0
 40
0.0
 40
0.0
 40
0.0
 40
1.483474787626945
 40
1.483474787626945
 40
1.483474787626945
 40
1.57079632679489
 40
1.57079632679489
 40
1.57079632679489
 40
1.57079632679489
 10
24.83598227732298
 20
33.57466914894923
 30
0.0
 10
24.83598227732298
 20
33.58102863064335
 30
0.0
 10
24.8491129604093
 20
33.58738811233746
 30
0.0
 10
24.86450694577297
 20
33.59374759403158
 30
0.0
 10
24.86541307947142
 20
33.59412193118545
 30
0.0
 10
24.86632267795665
 20
33.59449626833932
 30
0.0
 10
24.86723227732299
 20
33.59487060549319
 30
0.0
  0
LINE
  5
11D
330
6C
100
AcDbEntity
  8
Visible (ANSI)
100
AcDbLine
 10
24.74228227732299
 20
33.57466914894923
 30
0.0
 11
24.83598227732298
 21
33.57466914894923
 31
0.0
  0
SPLINE
  5
11E
330
6C
100
AcDbEntity
  8
Visible (ANSI)
100
AcDbSpline
210
0.0
220
0.0
230
1.0
 70
     8
 71
     3
 72
    11
 73
     7
 74
     0
 42
0.0000000001
 43
0.0000000001
 40
0.0
 40
0.0
 40
0.0
 40
0.0
 40
1.049080005790748
 40
1.049080005790748
 40
1.049080005790748
 40
1.57079632679489
 40
1.57079632679489
 40
1.57079632679489
 40
1.57079632679489
 10
24.86723227732299
 20
33.59487060549319
 30
0.0
 10
24.8235380950818
 20
33.59037332306673
 30
0.0
 10
24.780680808427
 20
33.58587604064027
 30
0.0
 10
24.75890498856692
 20
33.58137875821382
 30
0.0
 10
24.74807568998002
 20
33.57914222179229
 30
0.0
 10
24.74228227732299
 20
33.57690568537076
 30
0.0
 10
24.74228227732299
 20
33.57466914894923
 30
0.0
  0
LINE
  5
11F
330
6C
100
AcDbEntity
  8
Visible (ANSI)
100
AcDbLine
 10
24.74228227732298
 20
66.36517206203713
 30
0.0
 11
24.83598227732298
 21
66.36517206203713
 31
0.0
  0
SPLINE
  5
120
330
6C
100
AcDbEntity
  8
Visible (ANSI)
100
AcDbSpline
210
0.0
220
0.0
230
1.0
 70
     8
 71
     3
 72
    11
 73
     7
 74
     0
 42
0.0000000001
 43
0.0000000001
 40
0.0
 40
0.0
 40
0.0
 40
0.0
 40
1.049080005790748
 40
1.049080005790748
 40
1.049080005790748
 40
1.57079632679489
 40
1.57079632679489
 40
1.57079632679489
 40
1.57079632679489
 10
24.86723227732297
 20
66.34497060549318
 30
0.0
 10
24.82353809508178
 20
66.34946788791964
 30
0.0
 10
24.78068080842698
 20
66.3539651703461
 30
0.0
 10
24.7589049885669
 20
66.35846245277256
 30
0.0
 10
24.74807568998001
 20
66.36069898919408
 30
0.0
 10
24.74228227732298
 20
66.36293552561561
 30
0.0
 10
24.74228227732298
 20
66.36517206203713
 30
0.0
  0
SPLINE
  5
121
330
6C
100
AcDbEntity
  8
Visible (ANSI)
100
AcDbSpline
210
0.0
220
0.0
230
1.0
 70
     8
 71
     3
 72
    11
 73
     7
 74
     0
 42
0.0000000001
 43
0.0000000001
 40
0.0
 40
0.0
 40
0.0
 40
0.0
 40
1.483474787626223
 40
1.483474787626223
 40
1.483474787626223
 40
1.57079632679511
 40
1.57079632679511
 40
1.57079632679511
 40
1.57079632679511
 10
51.61733227732296
 20
66.34497060549318
 30
0.0
 10
51.62369175901708
 20
66.36042346786428
 30
0.0
 10
51.63005124071119
 20
66.37475388620638
 30
0.0
 10
51.63641072240531
 20
66.37610153975384
 30
0.0
 10
51.63678505955918
 20
66.37618086646908
 30
0.0
 10
51.63715939671305
 20
66.37622060549317
 30
0.0
 10
51.63753373386693
 20
66.37622060549317
 30
0.0
  0
SPLINE
  5
122
330
6C
100
AcDbEntity
  8
Visible (ANSI)
100
AcDbSpline
210
0.0
220
0.0
230
1.0
 70
     8
 71
     3
 72
    11
 73
     7
 74
     0
 42
0.0000000001
 43
0.0000000001
 40
0.0
 40
0.0
 40
0.0
 40
0.0
 40
1.483474787627839
 40
1.483474787627839
 40
1.483474787627839
 40
1.570796326794879
 40
1.570796326794879
 40
1.570796326794879
 40
1.570796326794879
 10
24.84703082077901
 20
66.37622060549316
 30
0.0
 10
24.85339030247314
 20
66.37622060549316
 30
0.0
 10
24.85974978416726
 20
66.36308992240683
 30
0.0
 10
24.86610926586137
 20
66.34769593704318
 30
0.0
 10
24.86648360301524
 20
66.34678980334472
 30
0.0
 10
24.86685794016911
 20
66.34588020485951
 30
0.0
 10
24.86723227732298
 20
66.34497060549318
 30
0.0
  0
LINE
  5
123
330
6C
100
AcDbEntity
  8
Visible (ANSI)
100
AcDbLine
 10
24.84703082077901
 20
66.46992060549315
 30
0.0
 11
24.84703082077901
 21
66.37622060549316
 31
0.0
  0
SPLINE
  5
124
330
6C
100
AcDbEntity
  8
Visible (ANSI)
100
AcDbSpline
210
0.0
220
0.0
230
1.0
 70
     8
 71
     3
 72
    11
 73
     7
 74
     0
 42
0.0000000001
 43
0.0000000001
 40
0.0
 40
0.0
 40
0.0
 40
0.0
 40
1.049080005790959
 40
1.049080005790959
 40
1.049080005790959
 40
1.570796326794879
 40
1.570796326794879
 40
1.570796326794879
 40
1.570796326794879
 10
24.86723227732298
 20
66.34497060549318
 30
0.0
 10
24.86273499489652
 20
66.38866478773437
 30
0.0
 10
24.85823771247006
 20
66.43152207438916
 30
0.0
 10
24.8537404300436
 20
66.45329789424924
 30
0.0
 10
24.85150389362207
 20
66.46412719283613
 30
0.0
 10
24.84926735720055
 20
66.46992060549317
 30
0.0
 10
24.84703082077901
 20
66.46992060549317
 30
0.0
  0
LINE
  5
125
330
6C
100
AcDbEntity
  8
Visible (ANSI)
100
AcDbLine
 10
51.63753373386693
 20
66.46992060549319
 30
0.0
 11
51.63753373386693
 21
66.37622060549317
 31
0.0
  0
SPLINE
  5
126
330
6C
100
AcDbEntity
  8
Visible (ANSI)
100
AcDbSpline
210
0.0
220
0.0
230
1.0
 70
     8
 71
     3
 72
    11
 73
     7
 74
     0
 42
0.0000000001
 43
0.0000000001
 40
0.0
 40
0.0
 40
0.0
 40
0.0
 40
1.049080005790687
 40
1.049080005790687
 40
1.049080005790687
 40
1.57079632679511
 40
1.57079632679511
 40
1.57079632679511
 40
1.57079632679511
 10
51.61733227732296
 20
66.34497060549318
 30
0.0
 10
51.62182955974941
 20
66.38866478773434
 30
0.0
 10
51.62632684217587
 20
66.43152207438915
 30
0.0
 10
51.63082412460234
 20
66.45329789424924
 30
0.0
 10
51.63306066102387
 20
66.46412719283613
 30
0.0
 10
51.6352971974454
 20
66.46992060549319
 30
0.0
 10
51.63753373386693
 20
66.46992060549317
 30
0.0
  0
LINE
  5
127
330
6C
100
AcDbEntity
  8
Visible (ANSI)
100
AcDbLine
 10
51.74228227732294
 20
66.36517206203714
 30
0.0
 11
51.74228227732297
 21
33.57466914894923
 31
0.0
  0
LINE
  5
128
330
6C
100
AcDbEntity
  8
Visible (ANSI)
100
AcDbLine
 10
51.63753373386693
 20
33.46992060549319
 30
0.0
 11
24.84703082077901
 21
33.46992060549319
 31
0.0
  0
LINE
  5
129
330
6C
100
AcDbEntity
  8
Visible (ANSI)
100
AcDbLine
 10
24.74228227732299
 20
33.57466914894923
 30
0.0
 11
24.74228227732298
 21
66.36517206203713
 31
0.0
  0
LINE
  5
12A
330
6C
100
AcDbEntity
  8
Visible (ANSI)
100
AcDbLine
 10
24.84703082077901
 20
66.46992060549315
 30
0.0
 11
51.63753373386693
 21
66.46992060549319
 31
0.0
  0
MTEXT
  5
12C
330
6C
100
AcDbEntity
  8
Symbol (ANSI)
100
AcDbMText
 10
33.63461720843017
 20
21.09390222098058
 30
0.0
 40
1.043478273765879
 41
0.0
 71
     7
 72
     1
  1
FRONT VIEW
  7
Text Style168
 73
     1
 44
1.0
1001
ACAD
1000
MTEXTBEGIN
1070
    73
1070
     1
1070
    44
1040
1.0
1070
    74
1070
     0
1000
MTEXTEND
  0
LINE
  5
12E
330
6C
100
AcDbEntity
  8
Symbol (ANSI)
370
    30
100
AcDbLine
 10
33.53026911392246
 20
20.88110537424241
 30
0.0
 11
41.91953002075443
 21
20.88110537424241
 31
0.0
  0
LINE
  5
12F
330
6C
100
AcDbEntity
  8
Visible (ANSI)
100
AcDbLine
 10
88.01115999887949
 20
33.57466914894923
 30
0.0
 11
88.7612099988795
 21
33.57466914894924
 31
0.0
  0
LINE
  5
130
330
6C
100
AcDbEntity
  8
Visible (ANSI)
100
AcDbLine
 10
88.01115999887946
 20
66.36517206203716
 30
0.0
 11
88.76120999887948
 21
66.36517206203716
 31
0.0
  0
SPLINE
  5
131
330
6C
100
AcDbEntity
  8
Visible (ANSI)
100
AcDbSpline
210
0.0
220
0.0
230
1.0
 70
     8
 71
     3
 72
    11
 73
     7
 74
     0
 42
0.0000000001
 43
0.0000000001
 40
0.0
 40
0.0
 40
0.0
 40
0.0
 40
1.049080005790692
 40
1.049080005790692
 40
1.049080005790692
 40
1.570796326794879
 40
1.570796326794879
 40
1.570796326794879
 40
1.570796326794879
 10
87.88620999887942
 20
66.34497060549318
 30
0.0
 10
87.88620999887944
 20
66.34946788791964
 30
0.0
 10
87.91100747872308
 20
66.3539651703461
 30
0.0
 10
87.94888880962824
 20
66.35846245277256
 30
0.0
 10
87.96772751447964
 20
66.36069898919408
 30
0.0
 10
87.98943051410963
 20
66.36293552561561
 30
0.0
 10
88.01115999887946
 20
66.36517206203716
 30
0.0
  0
SPLINE
  5
132
330
6C
100
AcDbEntity
  8
Visible (ANSI)
100
AcDbSpline
210
0.0
220
0.0
230
1.0
 70
     8
 71
     3
 72
    11
 73
     7
 74
     0
 42
0.0000000001
 43
0.0000000001
 40
0.0
 40
0.0
 40
0.0
 40
0.0
 40
1.049080005790984
 40
1.049080005790984
 40
1.049080005790984
 40
1.57079632679511
 40
1.57079632679511
 40
1.57079632679511
 40
1.57079632679511
 10
87.88620999887942
 20
33.59487060549321
 30
0.0
 10
87.88620999887944
 20
33.59037332306674
 30
0.0
 10
87.91100747872309
 20
33.58587604064028
 30
0.0
 10
87.94888880962828
 20
33.58137875821382
 30
0.0
 10
87.96772751447967
 20
33.57914222179229
 30
0.0
 10
87.98943051410969
 20
33.57690568537076
 30
0.0
 10
88.01115999887951
 20
33.57466914894923
 30
0.0
  0
SPLINE
  5
133
330
6C
100
AcDbEntity
  8
Visible (ANSI)
100
AcDbSpline
210
0.0
220
0.0
230
1.0
 70
     8
 71
     3
 72
     8
 73
     4
 74
     0
 42
0.0000000001
 43
0.0000000001
 40
0.0
 40
0.0
 40
0.0
 40
0.0
 40
0.9756948527147033
 40
0.9756948527147033
 40
0.9756948527147033
 40
0.9756948527147033
 10
88.01115999887942
 20
33.56362060549319
 30
0.0
 10
88.00099651083032
 20
33.56362060549319
 30
0.0
 10
87.99131857101913
 20
33.56930069275878
 30
0.0
 10
87.98550059036264
 20
33.57756896032025
 30
0.0
  0
LINE
  5
134
330
6C
100
AcDbEntity
  8
Visible (ANSI)
100
AcDbLine
 10
88.01115999887942
 20
33.46992060549319
 30
0.0
 11
88.76120999887943
 21
33.46992060549319
 31
0.0
  0
LINE
  5
135
330
6C
100
AcDbEntity
  8
Visible (ANSI)
100
AcDbLine
 10
88.76120999887943
 20
33.56362060549319
 30
0.0
 11
88.01115999887942
 21
33.56362060549319
 31
0.0
  0
LINE
  5
136
330
6C
100
AcDbEntity
  8
Visible (ANSI)
100
AcDbLine
 10
88.01115999887942
 20
33.46992060549319
 30
0.0
 11
88.01115999887942
 21
33.56362060549319
 31
0.0
  0
LINE
  5
137
330
6C
100
AcDbEntity
  8
Visible (ANSI)
100
AcDbLine
 10
88.76120999887943
 20
33.46992060549319
 30
0.0
 11
88.76120999887943
 21
33.56362060549319
 31
0.0
  0
SPLINE
  5
138
330
6C
100
AcDbEntity
  8
Visible (ANSI)
100
AcDbSpline
210
0.0
220
0.0
230
1.0
 70
     8
 71
     3
 72
    11
 73
     7
 74
     0
 42
0.0000000001
 43
0.0000000001
 40
0.0
 40
0.0
 40
0.0
 40
0.0
 40
1.049080005790748
 40
1.049080005790748
 40
1.049080005790748
 40
1.57079632679489
 40
1.57079632679489
 40
1.57079632679489
 40
1.57079632679489
 10
87.88620999887942
 20
33.59487060549319
 30
0.0
 10
87.88620999887942
 20
33.55117642325201
 30
0.0
 10
87.91100747872304
 20
33.50831913659721
 30
0.0
 10
87.94888880962821
 20
33.48654331673712
 30
0.0
 10
87.9677275144796
 20
33.47571401815023
 30
0.0
 10
87.9894305141096
 20
33.46992060549319
 30
0.0
 10
88.01115999887942
 20
33.46992060549319
 30
0.0
  0
SPLINE
  5
139
330
6C
100
AcDbEntity
  8
Visible (ANSI)
100
AcDbSpline
210
0.0
220
0.0
230
1.0
 70
     8
 71
     3
 72
    11
 73
     7
 74
     0
 42
0.0000000001
 43
0.0000000001
 40
0.5951014740806262
 40
0.5951014740806262
 40
0.5951014740806262
 40
0.5951014740806262
 40
1.483474787626223
 40
1.483474787626223
 40
1.483474787626223
 40
1.57079632679511
 40
1.57079632679511
 40
1.57079632679511
 40
1.57079632679511
 10
87.98554758995535
 20
66.36225999315627
 30
0.0
 10
87.99080906480472
 20
66.3698316272373
 30
0.0
 10
87.99921603692174
 20
66.37529450248064
 30
0.0
 10
88.00843466732938
 20
66.37610153975384
 30
0.0
 10
88.00934080102784
 20
66.37618086646909
 30
0.0
 10
88.01025039951309
 20
66.37622060549317
 30
0.0
 10
88.01115999887944
 20
66.37622060549317
 30
0.0
  0
LINE
  5
13A
330
6C
100
AcDbEntity
  8
Visible (ANSI)
100
AcDbLine
 10
88.01115999887942
 20
66.4699206054932
 30
0.0
 11
88.76120999887943
 21
66.46992060549322
 31
0.0
  0
LINE
  5
13B
330
6C
100
AcDbEntity
  8
Visible (ANSI)
100
AcDbLine
 10
88.01115999887942
 20
66.4699206054932
 30
0.0
 11
88.01115999887944
 21
66.37622060549318
 31
0.0
  0
SPLINE
  5
13C
330
6C
100
AcDbEntity
  8
Visible (ANSI)
100
AcDbSpline
210
0.0
220
0.0
230
1.0
 70
     8
 71
     3
 72
    11
 73
     7
 74
     0
 42
0.0000000001
 43
0.0000000001
 40
0.0
 40
0.0
 40
0.0
 40
0.0
 40
1.049080005790687
 40
1.049080005790687
 40
1.049080005790687
 40
1.57079632679511
 40
1.57079632679511
 40
1.57079632679511
 40
1.57079632679511
 10
87.88620999887942
 20
66.34497060549318
 30
0.0
 10
87.88620999887942
 20
66.38866478773434
 30
0.0
 10
87.91100747872304
 20
66.43152207438916
 30
0.0
 10
87.94888880962821
 20
66.45329789424924
 30
0.0
 10
87.9677275144796
 20
66.46412719283614
 30
0.0
 10
87.98943051410962
 20
66.4699206054932
 30
0.0
 10
88.01115999887946
 20
66.46992060549319
 30
0.0
  0
LINE
  5
13D
330
6C
100
AcDbEntity
  8
Visible (ANSI)
100
AcDbLine
 10
88.01115999887944
 20
66.37622060549318
 30
0.0
 11
88.76120999887943
 21
66.37622060549322
 31
0.0
  0
LINE
  5
13E
330
6C
100
AcDbEntity
  8
Visible (ANSI)
100
AcDbLine
 10
88.76120999887943
 20
66.46992060549322
 30
0.0
 11
88.76120999887943
 21
66.37622060549322
 31
0.0
  0
LINE
  5
13F
330
6C
100
AcDbEntity
  8
Visible (ANSI)
100
AcDbLine
 10
88.7612099988795
 20
33.57466914894924
 30
0.0
 11
88.76120999887948
 21
66.36517206203716
 31
0.0
  0
LINE
  5
140
330
6C
100
AcDbEntity
  8
Visible (ANSI)
100
AcDbLine
 10
87.88620999887942
 20
33.59487060549319
 30
0.0
 11
87.88620999887942
 21
66.34497060549318
 31
0.0
  0
MTEXT
  5
141
330
6C
100
AcDbEntity
  8
Symbol (ANSI)
100
AcDbMText
 10
85.47648350511337
 20
22.44306616003303
 30
0.0
 40
1.043478273765879
 41
0.0
 71
     7
 72
     1
  1
SIDE VIEW
  7
Text Style168
 73
     1
 44
1.0
1001
ACAD
1000
MTEXTBEGIN
1070
    73
1070
     1
1070
    44
1040
1.0
1070
    74
1070
     0
1000
MTEXTEND
  0
LINE
  5
142
330
6C
100
AcDbEntity
  8
Symbol (ANSI)
370
    30
100
AcDbLine
 10
85.42305728072541
 20
22.22688688903557
 30
0.0
 11
92.47456876251233
 21
22.22688688903557
 31
0.0
  0
SPLINE
  5
143
330
6C
100
AcDbEntity
  8
Visible (ANSI)
100
AcDbSpline
210
0.0
220
0.0
230
1.0
 70
     8
 71
     3
 72
     8
 73
     4
 74
     0
 42
0.0000000001
 43
0.0000000001
 40
0.0
 40
0.0
 40
0.0
 40
0.0
 40
0.9756948527137456
 40
0.9756948527137456
 40
0.9756948527137456
 40
0.9756948527137456
 10
51.64858227733467
 20
89.16607902172469
 30
0.0
 10
51.64858227733467
 20
89.15591553367557
 30
0.0
 10
51.6429021900691
 20
89.14623759386442
 30
0.0
 10
51.63463392250765
 20
89.14041961320791
 30
0.0
  0
LINE
  5
144
330
6C
100
AcDbEntity
  8
Visible (ANSI)
100
AcDbLine
 10
51.74228227733467
 20
89.16607902172469
 30
0.0
 11
51.74228227733463
 21
89.91612902172468
 31
0.0
  0
LINE
  5
145
330
6C
100
AcDbEntity
  8
Visible (ANSI)
100
AcDbLine
 10
51.64858227733462
 20
89.91612902172468
 30
0.0
 11
51.64858227733467
 21
89.16607902172469
 31
0.0
  0
LINE
  5
146
330
6C
100
AcDbEntity
  8
Visible (ANSI)
100
AcDbLine
 10
51.74228227733467
 20
89.16607902172469
 30
0.0
 11
51.64858227733467
 21
89.16607902172469
 31
0.0
  0
LINE
  5
147
330
6C
100
AcDbEntity
  8
Visible (ANSI)
100
AcDbLine
 10
51.74228227733463
 20
89.91612902172468
 30
0.0
 11
51.64858227733462
 21
89.91612902172468
 31
0.0
  0
SPLINE
  5
148
330
6C
100
AcDbEntity
  8
Visible (ANSI)
100
AcDbSpline
210
0.0
220
0.0
230
1.0
 70
     8
 71
     3
 72
    11
 73
     7
 74
     0
 42
0.0000000001
 43
0.0000000001
 40
0.0
 40
0.0
 40
0.0
 40
0.0
 40
1.049080005790692
 40
1.049080005790692
 40
1.049080005790692
 40
1.570796326794879
 40
1.570796326794879
 40
1.570796326794879
 40
1.570796326794879
 10
51.61733227733469
 20
89.04112902172467
 30
0.0
 10
51.66102645957587
 20
89.04112902172467
 30
0.0
 10
51.70388374623067
 20
89.06592650156829
 30
0.0
 10
51.72565956609075
 20
89.10380783247346
 30
0.0
 10
51.73648886467765
 20
89.12264653732485
 30
0.0
 10
51.74228227733468
 20
89.14434953695485
 30
0.0
 10
51.74228227733468
 20
89.16607902172469
 30
0.0
  0
SPLINE
  5
149
330
6C
100
AcDbEntity
  8
Visible (ANSI)
100
AcDbSpline
210
0.0
220
0.0
230
1.0
 70
     8
 71
     3
 72
    11
 73
     7
 74
     0
 42
0.0000000001
 43
0.0000000001
 40
0.5951014740802231
 40
0.5951014740802231
 40
0.5951014740802231
 40
0.5951014740802231
 40
1.483474787626957
 40
1.483474787626957
 40
1.483474787626957
 40
1.57079632679489
 40
1.57079632679489
 40
1.57079632679489
 40
1.57079632679489
 10
24.84994288967162
 20
89.14046661280059
 30
0.0
 10
24.84237125559058
 20
89.14572808764996
 30
0.0
 10
24.83690838034723
 20
89.15413505976699
 30
0.0
 10
24.83610134307403
 20
89.16335369017465
 30
0.0
 10
24.83602201635879
 20
89.16425982387311
 30
0.0
 10
24.8359822773347
 20
89.16516942235835
 30
0.0
 10
24.8359822773347
 20
89.16607902172469
 30
0.0
  0
LINE
  5
14A
330
6C
100
AcDbEntity
  8
Visible (ANSI)
100
AcDbLine
 10
24.7422822773347
 20
89.16607902172469
 30
0.0
 11
24.7422822773347
 21
89.91612902172468
 31
0.0
  0
LINE
  5
14B
330
6C
100
AcDbEntity
  8
Visible (ANSI)
100
AcDbLine
 10
24.7422822773347
 20
89.16607902172469
 30
0.0
 11
24.8359822773347
 21
89.16607902172469
 31
0.0
  0
SPLINE
  5
14C
330
6C
100
AcDbEntity
  8
Visible (ANSI)
100
AcDbSpline
210
0.0
220
0.0
230
1.0
 70
     8
 71
     3
 72
    11
 73
     7
 74
     0
 42
0.0000000001
 43
0.0000000001
 40
0.0
 40
0.0
 40
0.0
 40
0.0
 40
1.049080005790748
 40
1.049080005790748
 40
1.049080005790748
 40
1.57079632679489
 40
1.57079632679489
 40
1.57079632679489
 40
1.57079632679489
 10
24.86723227733469
 20
89.04112902172467
 30
0.0
 10
24.8235380950935
 20
89.04112902172467
 30
0.0
 10
24.78068080843871
 20
89.06592650156829
 30
0.0
 10
24.75890498857863
 20
89.10380783247347
 30
0.0
 10
24.74807568999173
 20
89.12264653732487
 30
0.0
 10
24.7422822773347
 20
89.14434953695485
 30
0.0
 10
24.7422822773347
 20
89.16607902172469
 30
0.0
  0
LINE
  5
14D
330
6C
100
AcDbEntity
  8
Visible (ANSI)
100
AcDbLine
 10
24.8359822773347
 20
89.16607902172469
 30
0.0
 11
24.8359822773347
 21
89.91612902172468
 31
0.0
  0
LINE
  5
14E
330
6C
100
AcDbEntity
  8
Visible (ANSI)
100
AcDbLine
 10
24.7422822773347
 20
89.91612902172468
 30
0.0
 11
24.8359822773347
 21
89.91612902172468
 31
0.0
  0
LINE
  5
14F
330
6C
100
AcDbEntity
  8
Visible (ANSI)
100
AcDbLine
 10
51.63753373387867
 20
89.1660790217247
 30
0.0
 11
51.63753373387866
 21
89.9161290217247
 31
0.0
  0
LINE
  5
150
330
6C
100
AcDbEntity
  8
Visible (ANSI)
100
AcDbLine
 10
24.84703082079074
 20
89.16607902172469
 30
0.0
 11
24.84703082079074
 21
89.9161290217247
 31
0.0
  0
SPLINE
  5
151
330
6C
100
AcDbEntity
  8
Visible (ANSI)
100
AcDbSpline
210
0.0
220
0.0
230
1.0
 70
     8
 71
     3
 72
    11
 73
     7
 74
     0
 42
0.0000000001
 43
0.0000000001
 40
0.0
 40
0.0
 40
0.0
 40
0.0
 40
1.049080005790959
 40
1.049080005790959
 40
1.049080005790959
 40
1.570796326794879
 40
1.570796326794879
 40
1.570796326794879
 40
1.570796326794879
 10
24.8672322773347
 20
89.04112902172467
 30
0.0
 10
24.86273499490824
 20
89.04112902172467
 30
0.0
 10
24.85823771248178
 20
89.06592650156833
 30
0.0
 10
24.85374043005533
 20
89.10380783247351
 30
0.0
 10
24.8515038936338
 20
89.1226465373249
 30
0.0
 10
24.84926735721227
 20
89.14434953695488
 30
0.0
 10
24.84703082079074
 20
89.1660790217247
 30
0.0
  0
SPLINE
  5
152
330
6C
100
AcDbEntity
  8
Visible (ANSI)
100
AcDbSpline
210
0.0
220
0.0
230
1.0
 70
     8
 71
     3
 72
    11
 73
     7
 74
     0
 42
0.0000000001
 43
0.0000000001
 40
0.0
 40
0.0
 40
0.0
 40
0.0
 40
1.049080005790687
 40
1.049080005790687
 40
1.049080005790687
 40
1.57079632679511
 40
1.57079632679511
 40
1.57079632679511
 40
1.57079632679511
 10
51.61733227733468
 20
89.04112902172467
 30
0.0
 10
51.62182955976114
 20
89.04112902172467
 30
0.0
 10
51.6263268421876
 20
89.06592650156831
 30
0.0
 10
51.63082412461406
 20
89.10380783247347
 30
0.0
 10
51.6330606610356
 20
89.12264653732488
 30
0.0
 10
51.63529719745713
 20
89.14434953695488
 30
0.0
 10
51.63753373387867
 20
89.16607902172472
 30
0.0
  0
LINE
  5
153
330
6C
100
AcDbEntity
  8
Visible (ANSI)
100
AcDbLine
 10
51.63753373387866
 20
89.9161290217247
 30
0.0
 11
24.84703082079074
 21
89.9161290217247
 31
0.0
  0
LINE
  5
154
330
6C
100
AcDbEntity
  8
Visible (ANSI)
100
AcDbLine
 10
51.61733227733469
 20
89.04112902172467
 30
0.0
 11
24.8672322773347
 21
89.04112902172467
 31
0.0
  0
MTEXT
  5
155
330
6C
100
AcDbEntity
  8
Symbol (ANSI)
100
AcDbMText
 10
34.9495019388059
 20
83.80016900782575
 30
0.0
 40
1.043478273765879
 41
0.0
 71
     7
 72
     1
  1
TOP VIEW
  7
Text Style168
 73
     1
 44
1.0
1001
ACAD
1000
MTEXTBEGIN
1070
    73
1070
     1
1070
    44
1040
1.0
1070
    74
1070
     0
1000
MTEXTEND
  0
LINE
  5
156
330
6C
100
AcDbEntity
  8
Symbol (ANSI)
370
    30
100
AcDbLine
 10
34.95033672356195
 20
83.58737216108755
 30
0.0
 11
41.53422783110744
 21
83.58737216108755
 31
0.0
  0
ELLIPSE
  5
157
330
6C
100
AcDbEntity
  8
Visible (ANSI)
100
AcDbEllipse
 10
129.96652825776
 20
31.93992037097751
 30
0.0
 11
-0.0812337652248707
 21
0.1410647123881532
 31
0.0
210
0.0
220
0.0
230
1.0
 40
0.5780931159158113
 41
0.0
 42
6.283185307179586
  0
ELLIPSE
  5
158
330
6C
100
AcDbEntity
  8
Visible (ANSI)
100
AcDbEllipse
 10
130.0356648546962
 20
31.97973348928953
 30
0.0
 11
0.0812337652248788
 21
-0.1410647123881476
 31
0.0
210
0.0
220
0.0
230
1.0
 40
0.5780931159158115
 41
3.579337952256111
 42
5.845440008512515
  0
ELLIPSE
  5
159
330
6C
100
AcDbEntity
  8
Visible (ANSI)
100
AcDbEllipse
 10
114.2872039792733
 20
40.96904272028444
 30
0.0
 11
-0.0812337652248707
 21
0.1410647123881532
 31
0.0
210
0.0
220
0.0
230
1.0
 40
0.5780931159158113
 41
0.0
 42
6.283185307179586
  0
ELLIPSE
  5
15A
330
6C
100
AcDbEntity
  8
Visible (ANSI)
100
AcDbEllipse
 10
114.3563405762095
 20
41.00885583859645
 30
0.0
 11
0.0812337652248793
 21
-0.1410647123881486
 31
0.0
210
0.0
220
0.0
230
1.0
 40
0.5780931159158114
 41
3.579337952256068
 42
5.845440008512282
  0
ELLIPSE
  5
15B
330
6C
100
AcDbEntity
  8
Visible (ANSI)
100
AcDbEllipse
 10
131.4422293663235
 20
44.41969330810457
 30
0.0
 11
-0.1465852878897507
 21
0.2545494649824688
 31
0.0
210
0.0
220
0.0
230
1.0
 40
0.5780931159158115
 41
0.0
 42
6.283185307179586
  0
ELLIPSE
  5
15C
330
6C
100
AcDbEntity
  8
Visible (ANSI)
100
AcDbEllipse
 10
131.5113659632596
 20
44.45950642641659
 30
0.0
 11
-0.1465852878897514
 21
0.25454946498247
 31
0.0
210
0.0
220
0.0
230
1.0
 40
0.5780931159158115
 41
0.2371295998375196
 42
2.904463053752242
  0
ELLIPSE
  5
15D
330
6C
100
AcDbEntity
  8
Visible (ANSI)
100
AcDbEllipse
 10
112.8115028707098
 20
55.14841515845752
 30
0.0
 11
-0.1465852878897507
 21
0.2545494649824688
 31
0.0
210
0.0
220
0.0
230
1.0
 40
0.5780931159158115
 41
0.0
 42
6.283185307179586
  0
ELLIPSE
  5
15E
330
6C
100
AcDbEntity
  8
Visible (ANSI)
100
AcDbEllipse
 10
112.880639467646
 20
55.18822827676955
 30
0.0
 11
-0.1465852878897503
 21
0.254549464982468
 31
0.0
210
0.0
220
0.0
230
1.0
 40
0.5780931159158114
 41
0.2371295998375634
 42
2.904463053752256
  0
ELLIPSE
  5
15F
330
6C
100
AcDbEntity
  8
Visible (ANSI)
100
AcDbEllipse
 10
131.4422293663234
 20
31.09012062045452
 30
0.0
 11
-0.1465852878897507
 21
0.2545494649824688
 31
0.0
210
0.0
220
0.0
230
1.0
 40
0.5780931159158115
 41
0.0
 42
6.283185307179586
  0
ELLIPSE
  5
160
330
6C
100
AcDbEntity
  8
Visible (ANSI)
100
AcDbEllipse
 10
131.5113659632596
 20
31.12993373876653
 30
0.0
 11
-0.1465852878897513
 21
0.2545494649824698
 31
0.0
210
0.0
220
0.0
230
1.0
 40
0.5780931159158114
 41
0.2371295998375196
 42
2.904463053752242
  0
ELLIPSE
  5
161
330
6C
100
AcDbEntity
  8
Visible (ANSI)
100
AcDbEllipse
 10
131.4422293663234
 20
57.74926599575465
 30
0.0
 11
-0.1465852878897507
 21
0.2545494649824688
 31
0.0
210
0.0
220
0.0
230
1.0
 40
0.5780931159158115
 41
0.0
 42
6.283185307179586
  0
ELLIPSE
  5
162
330
6C
100
AcDbEntity
  8
Visible (ANSI)
100
AcDbEllipse
 10
131.5113659632596
 20
57.78907911406665
 30
0.0
 11
-0.1465852878897496
 21
0.2545494649824671
 31
0.0
210
0.0
220
0.0
230
1.0
 40
0.5780931159158113
 41
0.2371295998375641
 42
2.904463053752257
  0
ELLIPSE
  5
163
330
6C
100
AcDbEntity
  8
Visible (ANSI)
100
AcDbEllipse
 10
112.8115028707098
 20
68.47798784610759
 30
0.0
 11
-0.1465852878897507
 21
0.2545494649824688
 31
0.0
210
0.0
220
0.0
230
1.0
 40
0.5780931159158115
 41
0.0
 42
6.283185307179586
  0
ELLIPSE
  5
164
330
6C
100
AcDbEntity
  8
Visible (ANSI)
100
AcDbEllipse
 10
112.880639467646
 20
68.51780096441959
 30
0.0
 11
-0.1465852878897506
 21
0.2545494649824687
 31
0.0
210
0.0
220
0.0
230
1.0
 40
0.5780931159158114
 41
0.2371295998375205
 42
2.904463053752256
  0
ELLIPSE
  5
165
330
6C
100
AcDbEntity
  8
Visible (ANSI)
100
AcDbEllipse
 10
112.8115028707098
 20
41.81884247080746
 30
0.0
 11
-0.1465852878897507
 21
0.2545494649824688
 31
0.0
210
0.0
220
0.0
230
1.0
 40
0.5780931159158115
 41
0.0
 42
6.283185307179586
  0
ELLIPSE
  5
166
330
6C
100
AcDbEntity
  8
Visible (ANSI)
100
AcDbEllipse
 10
112.880639467646
 20
41.85865558911947
 30
0.0
 11
-0.1465852878897506
 21
0.2545494649824687
 31
0.0
210
0.0
220
0.0
230
1.0
 40
0.5780931159158113
 41
0.2371295998375205
 42
2.904463053752257
  0
SPLINE
  5
167
330
6C
100
AcDbEntity
  8
Visible (ANSI)
100
AcDbSpline
210
0.0
220
0.0
230
1.0
 70
     8
 71
     3
 72
    11
 73
     7
 74
     0
 42
0.0000000001
 43
0.0000000001
 40
0.0
 40
0.0
 40
0.0
 40
0.0
 40
1.483474787624763
 40
1.483474787624763
 40
1.483474787624763
 40
1.570796326794879
 40
1.570796326794879
 40
1.570796326794879
 40
1.570796326794879
 10
132.1109064311412
 20
58.12747882040415
 30
0.0
 10
132.0995045280755
 20
58.11548767400639
 30
0.0
 10
132.0792423391654
 20
58.10955267954202
 30
0.0
 10
132.0668895116152
 20
58.11009573707475
 30
0.0
 10
132.0661623891028
 20
58.11012770298344
 30
0.0
 10
132.0654619198953
 20
58.11017796188465
 30
0.0
 10
132.0647907714986
 20
58.11024510626658
 30
0.0
  0
LINE
  5
168
330
6C
100
AcDbEntity
  8
Visible (ANSI)
100
AcDbLine
 10
132.1800430280775
 20
30.1143286112373
 30
0.0
 11
132.7334678363162
 21
30.43302476267732
 31
0.0
  0
LINE
  5
169
330
6C
100
AcDbEntity
  8
Visible (ANSI)
100
AcDbLine
 10
132.1800430280774
 20
58.08766570209216
 30
0.0
 11
132.7334678363162
 21
58.40636185353215
 31
0.0
  0
LINE
  5
16A
330
6C
100
AcDbEntity
  8
Visible (ANSI)
100
AcDbLine
 10
132.66433123938
 20
58.44617497184415
 30
0.0
 11
132.1109064311412
 21
58.12747882040415
 31
0.0
  0
LINE
  5
16B
330
6C
100
AcDbEntity
  8
Visible (ANSI)
100
AcDbLine
 10
132.1800430280774
 20
58.08766570209216
 30
0.0
 11
132.1109064311412
 21
58.12747882040415
 31
0.0
  0
LINE
  5
16C
330
6C
100
AcDbEntity
  8
Visible (ANSI)
100
AcDbLine
 10
132.7334678363162
 20
58.40636185353215
 30
0.0
 11
132.66433123938
 21
58.44617497184415
 31
0.0
  0
LINE
  5
16D
330
6C
100
AcDbEntity
  8
Visible (ANSI)
100
AcDbLine
 10
131.9956541745624
 20
58.07043198795455
 30
0.0
 11
132.0647907714986
 21
58.11024510626658
 31
0.0
  0
SPLINE
  5
16E
330
6C
100
AcDbEntity
  8
Visible (ANSI)
100
AcDbSpline
210
0.0
220
0.0
230
1.0
 70
     8
 71
     3
 72
    11
 73
     7
 74
     0
 42
0.0000000001
 43
0.0000000001
 40
0.0
 40
0.0
 40
0.0
 40
0.0
 40
1.049080005790692
 40
1.049080005790692
 40
1.049080005790692
 40
1.570796326794879
 40
1.570796326794879
 40
1.570796326794879
 40
1.570796326794879
 10
131.9956541745624
 20
58.07043198795457
 30
0.0
 10
132.027893951148
 20
58.05570293396266
 30
0.0
 10
132.0778130581086
 20
58.05186592289336
 30
0.0
 10
132.1218311198676
 20
58.06254575111947
 30
0.0
 10
132.143721672649
 20
58.06785691962933
 30
0.0
 10
132.1640099156957
 20
58.07652487393678
 30
0.0
 10
132.1800430280774
 20
58.08766570209213
 30
0.0
  0
SPLINE
  5
16F
330
6C
100
AcDbEntity
  8
Visible (ANSI)
100
AcDbSpline
210
0.0
220
0.0
230
1.0
 70
     8
 71
     3
 72
    11
 73
     7
 74
     0
 42
0.0000000001
 43
0.0000000001
 40
0.0
 40
0.0
 40
0.0
 40
0.0
 40
1.049080005790984
 40
1.049080005790984
 40
1.049080005790984
 40
1.57079632679511
 40
1.57079632679511
 40
1.57079632679511
 40
1.57079632679511
 10
131.9956541745624
 20
30.13156232537482
 30
0.0
 10
132.027893951148
 20
30.10916007419885
 30
0.0
 10
132.0778130581087
 20
30.09764986594552
 30
0.0
 10
132.1218311198677
 20
30.1006564969876
 30
0.0
 10
132.1437216726491
 20
30.10215171992315
 30
0.0
 10
132.1640099156958
 20
30.10700372865627
 30
0.0
 10
132.1800430280775
 20
30.11432861123731
 30
0.0
  0
LINE
  5
170
330
6C
100
AcDbEntity
  8
Visible (ANSI)
100
AcDbLine
 10
132.1027542572282
 20
30.06947604155453
 30
0.0
 11
132.656179065467
 21
30.38817219299451
 31
0.0
  0
LINE
  5
171
330
6C
100
AcDbEntity
  8
Visible (ANSI)
100
AcDbLine
 10
132.1027542572282
 20
30.06947604155453
 30
0.0
 11
132.1027542572282
 21
30.10018960278952
 31
0.0
  0
LINE
  5
172
330
6C
100
AcDbEntity
  8
Visible (ANSI)
100
AcDbLine
 10
132.656179065467
 20
30.38817219299451
 30
0.0
 11
132.656179065467
 21
30.38851711962899
 31
0.0
  0
SPLINE
  5
173
330
6C
100
AcDbEntity
  8
Visible (ANSI)
100
AcDbSpline
210
0.0
220
0.0
230
1.0
 70
     8
 71
     3
 72
    11
 73
     7
 74
     0
 42
0.0000000001
 43
0.0000000001
 40
0.0
 40
0.0
 40
0.0
 40
0.0
 40
1.049080005790748
 40
1.049080005790748
 40
1.049080005790748
 40
1.57079632679489
 40
1.57079632679489
 40
1.57079632679489
 40
1.57079632679489
 10
131.9956541745624
 20
30.13156232537481
 30
0.0
 10
131.9989724968936
 20
30.09237624482727
 30
0.0
 10
132.0205876534721
 20
30.06444055984733
 30
0.0
 10
132.0518567368085
 20
30.06004864596754
 30
0.0
 10
132.0674071152634
 20
30.05786451021157
 30
0.0
 10
132.0850709152082
 20
30.06119349023285
 30
0.0
 10
132.1027542572282
 20
30.06947604155453
 30
0.0
  0
SPLINE
  5
174
330
6C
100
AcDbEntity
  8
Visible (ANSI)
100
AcDbSpline
210
0.0
220
0.0
230
1.0
 70
     8
 71
     3
 72
     8
 73
     4
 74
     0
 42
0.0000000001
 43
0.0000000001
 40
0.0
 40
0.0
 40
0.0
 40
0.0
 40
0.7873318718204802
 40
0.7873318718204802
 40
0.7873318718204802
 40
0.7873318718204802
 10
112.2580780624709
 20
41.49767647860754
 30
0.0
 10
112.2555876700147
 20
41.47113566825471
 30
0.0
 10
112.2634029040596
 20
41.45093160299887
 30
0.0
 10
112.2778702778967
 20
41.44226087717671
 30
0.0
  0
LINE
  5
175
330
6C
100
AcDbEntity
  8
Visible (ANSI)
100
AcDbLine
 10
112.7387507451736
 20
41.76498551464194
 30
0.0
 11
112.8887916415589
 21
41.85138832045178
 31
0.0
  0
LINE
  5
176
330
6C
100
AcDbEntity
  8
Visible (ANSI)
100
AcDbLine
 10
112.2580780624708
 20
69.5599623341527
 30
0.0
 11
112.3330684722428
 21
69.60314643908157
 31
0.0
  0
LINE
  5
177
330
6C
100
AcDbEntity
  8
Visible (ANSI)
100
AcDbLine
 10
112.8806394676459
 20
41.86550827642584
 30
0.0
 11
112.7305527836048
 21
41.7790791032587
 31
0.0
  0
SPLINE
  5
178
330
6C
100
AcDbEntity
  8
Visible (ANSI)
100
AcDbSpline
210
0.0
220
0.0
230
1.0
 70
     8
 71
     3
 72
     8
 73
     4
 74
     0
 42
0.0000000001
 43
0.0000000001
 40
0.0
 40
0.0
 40
0.0
 40
0.0
 40
0.7853981633975997
 40
0.7853981633975997
 40
0.7853981633975997
 40
0.7853981633975997
 10
112.2580780624709
 20
41.49767647860754
 30
0.0
 10
112.2339416179872
 20
41.508703446894
 30
0.0
 10
112.2204063408738
 20
41.5254366094081
 30
0.0
 10
112.2201134794457
 20
41.54217809363607
 30
0.0
  0
LINE
  5
179
330
6C
100
AcDbEntity
  8
Visible (ANSI)
100
AcDbLine
 10
112.2580780624708
 20
69.5599623341527
 30
0.0
 11
112.2843141216865
 21
69.54485399246562
 31
0.0
  0
SPLINE
  5
17A
330
6C
100
AcDbEntity
  8
Visible (ANSI)
100
AcDbSpline
210
0.0
220
0.0
230
1.0
 70
     8
 71
     3
 72
    11
 73
     7
 74
     0
 42
0.0000000001
 43
0.0000000001
 40
0.0
 40
0.0
 40
0.0
 40
0.0
 40
1.049080005790748
 40
1.049080005790748
 40
1.049080005790748
 40
1.57079632679489
 40
1.57079632679489
 40
1.57079632679489
 40
1.57079632679489
 10
112.2580780624708
 20
69.43654614118731
 30
0.0
 10
112.2258382858853
 20
69.45894839236325
 30
0.0
 10
112.2125128474194
 20
69.4915314928013
 30
0.0
 10
112.224396307671
 20
69.52071640731195
 30
0.0
 10
112.2303060525228
 20
69.53523031105928
 30
0.0
 10
112.2420449500892
 20
69.54882150599735
 30
0.0
 10
112.2580780624708
 20
69.5599623341527
 30
0.0
  0
SPLINE
  5
17B
330
6C
100
AcDbEntity
  8
Visible (ANSI)
100
AcDbSpline
210
0.0
220
0.0
230
1.0
 70
     8
 71
     3
 72
    11
 73
     7
 74
     0
 42
0.0000000001
 43
0.0000000001
 40
0.0
 40
0.0
 40
0.0
 40
0.0
 40
1.483474787626223
 40
1.483474787626223
 40
1.483474787626223
 40
1.57079632679511
 40
1.57079632679511
 40
1.57079632679511
 40
1.57079632679511
 10
132.0647907714986
 20
58.11024510626658
 30
0.0
 10
132.0694831185916
 20
58.12072568662934
 30
0.0
 10
132.0838639474778
 20
58.1358279438441
 30
0.0
 10
132.0999147552039
 20
58.14081637666514
 30
0.0
 10
132.1008595513321
 20
58.14111000998849
 30
0.0
 10
132.1018069039551
 20
58.14137134353086
 30
0.0
 10
132.1027542572282
 20
58.14159877637818
 30
0.0
  0
LINE
  5
17C
330
6C
100
AcDbEntity
  8
Visible (ANSI)
100
AcDbLine
 10
132.1027542572282
 20
58.22153355787148
 30
0.0
 11
132.656179065467
 21
58.54022970931151
 31
0.0
  0
LINE
  5
17D
330
6C
100
AcDbEntity
  8
Visible (ANSI)
100
AcDbLine
 10
112.3353668333201
 20
69.60481490383543
 30
0.0
 11
112.8887916415589
 21
69.92351105527546
 31
0.0
  0
SPLINE
  5
17E
330
6C
100
AcDbEntity
  8
Visible (ANSI)
100
AcDbSpline
210
0.0
220
0.0
230
1.0
 70
     8
 71
     3
 72
    11
 73
     7
 74
     0
 42
0.0000000001
 43
0.0000000001
 40
0.0
 40
0.0
 40
0.0
 40
0.0
 40
1.049080005790959
 40
1.049080005790959
 40
1.049080005790959
 40
1.570796326794879
 40
1.570796326794879
 40
1.570796326794879
 40
1.570796326794879
 10
112.2580780624709
 20
69.43654614118729
 30
0.0
 10
112.2547597401397
 20
69.47573222173483
 30
0.0
 10
112.269738252056
 20
69.5247407988995
 30
0.0
 10
112.2943706907302
 20
69.561324258332
 30
0.0
 10
112.3066206099084
 20
69.57951752077086
 30
0.0
 10
112.3209839505767
 20
69.59463174442074
 30
0.0
 10
112.3353668333201
 20
69.60481490383545
 30
0.0
  0
LINE
  5
17F
330
6C
100
AcDbEntity
  8
Visible (ANSI)
100
AcDbLine
 10
132.1027542572282
 20
58.22153355787148
 30
0.0
 11
132.1027542572282
 21
58.14159877637818
 31
0.0
  0
SPLINE
  5
180
330
6C
100
AcDbEntity
  8
Visible (ANSI)
100
AcDbSpline
210
0.0
220
0.0
230
1.0
 70
     8
 71
     3
 72
    11
 73
     7
 74
     0
 42
0.0000000001
 43
0.0000000001
 40
0.0
 40
0.0
 40
0.0
 40
0.0
 40
1.049080005790687
 40
1.049080005790687
 40
1.049080005790687
 40
1.57079632679511
 40
1.57079632679511
 40
1.57079632679511
 40
1.57079632679511
 10
131.9956541745624
 20
58.07043198795455
 30
0.0
 10
131.9989724968936
 20
58.10579627901805
 30
0.0
 10
132.0205876534721
 20
58.15098306669869
 30
0.0
 10
132.0518567368085
 20
58.18374473664714
 30
0.0
 10
132.0674071152634
 20
58.20003739099297
 30
0.0
 10
132.0850709152082
 20
58.21325100654981
 30
0.0
 10
132.1027542572282
 20
58.22153355787148
 30
0.0
  0
LINE
  5
181
330
6C
100
AcDbEntity
  8
Visible (ANSI)
100
AcDbLine
 10
132.1027542572282
 20
58.14159877637818
 30
0.0
 11
132.656179065467
 21
58.4602949278182
 31
0.0
  0
LINE
  5
182
330
6C
100
AcDbEntity
  8
Visible (ANSI)
100
AcDbLine
 10
132.656179065467
 20
58.54022970931151
 30
0.0
 11
132.656179065467
 21
58.4602949278182
 31
0.0
  0
LINE
  5
183
330
6C
100
AcDbEntity
  8
Visible Narrow (ANSI)
100
AcDbLine
 10
132.1800430280774
 20
58.08766570209216
 30
0.0
 11
132.1800430280775
 21
30.1143286112373
 31
0.0
  0
LINE
  5
184
330
6C
100
AcDbEntity
  8
Visible Narrow (ANSI)
100
AcDbLine
 10
131.9956541745624
 20
30.13156232537481
 30
0.0
 11
131.9956541745624
 21
58.07043198795455
 31
0.0
  0
LINE
  5
185
330
6C
100
AcDbEntity
  8
Visible Narrow (ANSI)
100
AcDbLine
 10
112.2580780624709
 20
41.49767647860754
 30
0.0
 11
131.9956541745624
 21
30.13156232537481
 31
0.0
  0
LINE
  5
186
330
6C
100
AcDbEntity
  8
Visible Narrow (ANSI)
100
AcDbLine
 10
112.2580780624709
 20
69.43654614118731
 30
0.0
 11
112.2580780624709
 21
41.49767647860754
 31
0.0
  0
LINE
  5
187
330
6C
100
AcDbEntity
  8
Visible Narrow (ANSI)
100
AcDbLine
 10
112.3353668333201
 20
69.60481490383543
 30
0.0
 11
132.1027542572282
 21
58.22153355787148
 31
0.0
  0
LINE
  5
188
330
6C
100
AcDbEntity
  8
Visible Narrow (ANSI)
100
AcDbLine
 10
131.9956541745624
 20
58.07043198795455
 30
0.0
 11
112.2580780624709
 21
69.43654614118731
 31
0.0
  0
LINE
  5
189
330
6C
100
AcDbEntity
  8
Visible (ANSI)
100
AcDbLine
 10
112.2777361902905
 20
41.44208267387209
 30
0.0
 11
132.0302546571187
 21
30.06736379082401
 31
0.0
  0
LINE
  5
18A
330
6C
100
AcDbEntity
  8
Visible (ANSI)
100
AcDbLine
 10
112.2198898805327
 20
69.49825423767001
 30
0.0
 11
112.2198898805327
 21
41.5421508609527
 31
0.0
  0
LINE
  5
18B
330
6C
100
AcDbEntity
  8
Visible (ANSI)
100
AcDbLine
 10
132.7334678363162
 20
30.43302476267732
 30
0.0
 11
132.7334678363162
 21
58.40636185353215
 31
0.0
  0
LINE
  5
18C
330
6C
100
AcDbEntity
  8
Visible (ANSI)
100
AcDbLine
 10
112.8887916415589
 20
41.85138832045178
 30
0.0
 11
113.008225631101
 21
41.78261086007867
 31
0.0
  0
LINE
  5
18D
330
6C
100
AcDbEntity
  8
Visible (ANSI)
100
AcDbLine
 10
114.24125740047
 20
41.07255508800107
 30
0.0
 11
114.3810527668439
 21
40.99205229053115
 31
0.0
  0
LINE
  5
18E
330
6C
100
AcDbEntity
  8
Visible (ANSI)
100
AcDbLine
 10
129.9205816789567
 20
32.04343273869415
 30
0.0
 11
130.0603770453306
 21
31.96292994122423
 31
0.0
  0
LINE
  5
18F
330
6C
100
AcDbEntity
  8
Visible (ANSI)
100
AcDbLine
 10
131.3036729521454
 20
31.24696344549802
 30
0.0
 11
131.6389521267145
 21
31.05388900972573
 31
0.0
  0
LINE
  5
190
330
6C
100
AcDbEntity
  8
Visible (ANSI)
100
AcDbLine
 10
112.8806394676459
 20
68.66462633640374
 30
0.0
 11
112.8806394676459
 21
68.27765538287899
 31
0.0
  0
LINE
  5
191
330
6C
100
AcDbEntity
  8
Visible (ANSI)
100
AcDbLine
 10
112.8806394676459
 20
55.33505364875369
 30
0.0
 11
112.8806394676459
 21
54.94808269522895
 31
0.0
  0
LINE
  5
192
330
6C
100
AcDbEntity
  8
Visible (ANSI)
100
AcDbLine
 10
112.8806394676459
 20
42.00548096110361
 30
0.0
 11
112.8806394676459
 21
41.86550827642584
 31
0.0
  0
LINE
  5
193
330
6C
100
AcDbEntity
  8
Visible (ANSI)
100
AcDbLine
 10
132.656179065467
 20
58.54022970931151
 30
0.0
 11
112.8887916415589
 21
69.92351105527546
 31
0.0
  0
DIMENSION
  5
194
330
6C
100
AcDbEntity
  8
Dimension (ANSI)
100
AcDbDimension
  2
*D4
 10
56.50796437167535
 20
49.96992060549318
 30
0.0
 11
56.50796437167533
 21
42.15742060549319
 31
0.0
 70
   160
  1
<>{\PTYP.}
 71
     5
 42
15.62500000000001
  3
Default (ANSI)
100
AcDbAlignedDimension
 13
50.86728227732294
 23
34.34492060549318
 33
0.0
 14
50.86728227732299
 24
49.96992060549318
 34
0.0
 50
90.0
100
AcDbRotatedDimension
1001
ACAD
1000
DSTYLE
1002
{
1070
   289
1070
     1
1070
   271
1070
     2
1070
   272
1070
     2
1070
    48
1040
0.0
1070
    47
1040
0.0
1002
}
  0
DIMENSION
  5
295
330
6C
100
AcDbEntity
  8
Dimension (ANSI)
100
AcDbDimension
  2
*D5
 10
58.96281621745635
 20
34.34492060549318
 30
0.0
 11
56.50801437167532
 21
28.534633670846
 31
0.0
 70
   160
  1
<>{\PTYP.}
 71
     5
 42
0.8749999999999928
  3
Default (ANSI)
100
AcDbAlignedDimension
 13
51.63753373386693
 23
33.46992060549319
 33
0.0
 14
50.86728227732294
 24
34.34492060549318
 34
0.0
 50
90.0
100
AcDbRotatedDimension
1001
ACAD
1000
DSTYLE
1002
{
1070
   289
1070
     1
1070
   271
1070
     2
1070
   272
1070
     2
1070
    48
1040
0.0
1070
    47
1040
0.0
1002
}
  0
DIMENSION
  5
3AB
330
6C
100
AcDbEntity
  8
Dimension (ANSI)
100
AcDbDimension
  2
*D6
 10
63.27738310052218
 20
66.46992060549319
 30
0.0
 11
63.27738310052216
 21
49.96992060549318
 31
0.0
 70
   160
  1
<>
 42
33.0
  3
Default (ANSI)
100
AcDbAlignedDimension
 13
51.63753373386693
 23
33.46992060549319
 33
0.0
 14
51.63753373386693
 24
66.46992060549319
 34
0.0
 50
90.0
100
AcDbRotatedDimension
1001
ACAD
1000
DSTYLE
1002
{
1070
   289
1070
     1
1070
   271
1070
     2
1070
   272
1070
     2
1070
    48
1040
0.0
1070
    47
1040
0.0
1002
}
  0
DIMENSION
  5
495
330
6C
100
AcDbEntity
  8
Dimension (ANSI)
100
AcDbDimension
  2
*D7
 10
51.74228227732296
 20
73.97179342145864
 30
0.0
 11
38.24228227732297
 21
73.97179342145864
 31
0.0
 70
   160
  1
<>
 42
26.99999999999998
  3
Default (ANSI)
100
AcDbAlignedDimension
 13
24.74228227732299
 23
66.36517206203712
 33
0.0
 14
51.74228227732296
 24
66.36517206203714
 34
0.0
100
AcDbRotatedDimension
1001
ACAD
1000
DSTYLE
1002
{
1070
   289
1070
     1
1070
    73
1070
     0
1070
    74
1070
     0
1070
   271
1070
     2
1070
   272
1070
     2
1070
    48
1040
0.0
1070
    47
1040
0.0
1002
}
  0
DIMENSION
  5
57F
330
6C
100
AcDbEntity
  8
Dimension (ANSI)
100
AcDbDimension
  2
*D8
 10
51.74228227732296
 20
70.51618044801284
 30
0.0
 11
57.59174941038308
 21
70.51618044801284
 31
0.0
 70
   160
  1
<>{\PTYP.}
 71
     5
 42
0.8750000000000213
  3
Default (ANSI)
100
AcDbAlignedDimension
 13
50.86728227732294
 23
66.96337712723229
 33
0.0
 14
51.74228227732296
 24
66.36517206203714
 34
0.0
 50
180.0
100
AcDbRotatedDimension
1001
ACAD
1000
DSTYLE
1002
{
1070
   289
1070
     1
1070
    73
1070
     0
1070
    74
1070
     0
1070
   271
1070
     2
1070
   272
1070
     2
1070
    48
1040
0.0
1070
    47
1040
0.0
1002
}
  0
DIMENSION
  5
67D
330
6C
100
AcDbEntity
  8
Dimension (ANSI)
100
AcDbDimension
  2
*D9
 10
48.86728227732296
 20
29.09557677347218
 30
0.0
 11
42.7277399499443
 21
29.09557677347218
 31
0.0
 70
   160
  1
<>{\PTYP.}
 71
     5
 42
1.999999999999978
  3
Default (ANSI)
100
AcDbAlignedDimension
 13
50.86728227732294
 23
34.34492060549318
 33
0.0
 14
48.86728227732296
 24
34.34492060549318
 34
0.0
 50
180.0
100
AcDbRotatedDimension
1001
ACAD
1000
DSTYLE
1002
{
1070
   289
1070
     1
1070
    73
1070
     0
1070
    74
1070
     0
1070
   271
1070
     2
1070
   272
1070
     2
1070
    48
1040
0.0
1070
    47
1040
0.0
1002
}
  0
DIMENSION
  5
77B
330
6C
100
AcDbEntity
  8
Dimension (ANSI)
100
AcDbDimension
  2
*D10
 10
57.57458215422611
 20
89.9161290217247
 30
0.0
 11
55.11978030844507
 21
84.66298102254912
 31
0.0
 70
   160
  1
<>{\PTYP.}
 71
     5
 42
0.8750000000000284
  3
Default (ANSI)
100
AcDbAlignedDimension
 13
51.61733227733469
 23
89.04112902172467
 33
0.0
 14
51.63753373387866
 24
89.9161290217247
 34
0.0
 50
90.0
100
AcDbRotatedDimension
1001
ACAD
1000
DSTYLE
1002
{
1070
   289
1070
     1
1070
   271
1070
     2
1070
   272
1070
     2
1070
    48
1040
0.0
1070
    47
1040
0.0
1002
}
  0
DIMENSION
  5
891
330
6C
100
AcDbEntity
  8
Dimension (ANSI)
100
AcDbDimension
  2
*D11
 10
87.88620999887942
 20
60.87604487548404
 30
0.0
 11
92.66663142901929
 21
60.87604487548404
 31
0.0
 70
   160
  1
<>{\PTYP.}
 71
     5
 42
0.8750000000000568
  3
Default (ANSI)
100
AcDbAlignedDimension
 13
88.76120999887948
 23
60.87604487548404
 33
0.0
 14
87.88620999887942
 24
60.86900826298267
 34
0.0
100
AcDbRotatedDimension
1001
ACAD
1000
DSTYLE
1002
{
1070
   289
1070
     1
1070
    73
1070
     0
1070
    74
1070
     0
1070
   271
1070
     2
1070
    76
1070
     1
1070
    75
1070
     1
1070
   272
1070
     2
1070
    48
1040
0.0
1070
    47
1040
0.0
1002
}
  0
DIMENSION
  5
980
330
6C
100
AcDbEntity
  8
Dimension (ANSI)
100
AcDbDimension
  2
*D12
 10
25.816332836227
 20
34.54397116439717
 30
0.0
 11
16.51022911657109
 21
29.00441209107178
 31
0.0
 70
   163
  1
<>{\PTYP.\P(6 PL.)}
 71
     2
 42
0.5629999999999999
  3
Default (ANSI)
100
AcDbDiametricDimension
 15
25.41823171841891
 25
34.1458700465892
 35
0.0
 40
0.0
1001
ACAD_DSTYLE_DIMRADIAL_EXTENSION
1070
   387
1070
     1
1070
   388
1040
0.0
1070
   390
1040
0.0
1001
ACAD
1000
DSTYLE
1002
{
1070
   145
1040
-0.3333333333333334
1070
   144
1040
1.000000000000008
1070
   271
1070
     2
1070
   272
1070
     2
1070
    48
1040
0.0
1070
    47
1040
0.0
1002
}
  0
DIMENSION
  5
A3A
330
6C
100
AcDbEntity
  8
Dimension (ANSI)
100
AcDbDimension
  2
*D13
 10
27.7275909351881
 20
34.2346119476281
 30
0.0
 11
15.83616200969939
 21
42.35949622678581
 31
0.0
 70
   163
  1
<>{\PTYP.\P(2 PL.)}
 71
     2
 42
0.3119999999999999
  3
Default (ANSI)
100
AcDbDiametricDimension
 15
27.50697361945787
 25
34.45522926335827
 35
0.0
 40
0.0
1001
ACAD_DSTYLE_DIMRADIAL_EXTENSION
1070
   387
1070
     1
1070
   388
1040
0.0
1070
   390
1040
0.0
1001
ACAD
1000
DSTYLE
1002
{
1070
   145
1040
-0.3333333333333334
1070
   144
1040
1.000000000000007
1070
   271
1070
     2
1070
   272
1070
     2
1070
    48
1040
0.0
1070
    47
1040
0.0
1002
}
  0
MTEXT
  5
AF3
102
{ACAD_XDICTIONARY
360
B12
102
}
330
6C
100
AcDbEntity
  8
Symbol (ANSI)
100
AcDbMText
 10
73.30477308709827
 20
9.657086524239756
 30
0.0
 40
0.8695652451428676
 41
72.68837416862203
 71
     4
 72
     1
  3
{\fRomanS|b0|i0|c0|p2;\H2x;PART#: ALNP3630\P(DATA SUBJECT TO CHANGE WITHOUT NOTICE)\H1.4011x; \H0.71374x;\P \H1.1072x; \H0.9032x;\P\H0.60002x;THIS DRAWING IS PROPERTY OF HUBBELL INC. WIEGMANN\H1.2422x; \H0.80503x;\PALL INFORMATION IS PROPRIETARY AND 
  1
NOT TO BE DUPLICATED\H1.0095x; \H0.82552x;\P\H1.0785x; }
  7
Note Text (ANSI)
 73
     1
 44
0.9303776025772094
1001
ACAD
1000
MTEXTBEGIN
1070
    73
1070
     1
1070
    44
1040
0.9303776025772094
1070
    74
1070
     0
1000
MTEXTEND
  0
LINE
  5
AF5
330
6C
100
AcDbEntity
  8
Center Mark (ANSI)
  6
CHAIN
 48
0.1747488081455231
100
AcDbLine
 10
26.98573879906211
 20
65.59492060549316
 30
0.0
 11
24.24882575558385
 21
65.59492060549316
 31
0.0
  0
LINE
  5
AF6
330
6C
100
AcDbEntity
  8
Center Mark (ANSI)
  6
CHAIN
 48
0.1747488081455231
100
AcDbLine
 10
52.23573879906207
 20
65.59492060549316
 30
0.0
 11
49.49882575558381
 21
65.59492060549316
 31
0.0
  0
LINE
  5
AF7
330
6C
100
AcDbEntity
  8
Centerline (ANSI)
  6
CHAIN
 48
0.9524481296539306
100
AcDbLine
 10
24.24882575558385
 20
65.59492060549316
 30
0.0
 11
52.23573879906207
 21
65.59492060549316
 31
0.0
  0
LINE
  5
AF8
330
6C
100
AcDbEntity
  8
Center Mark (ANSI)
  6
CHAIN
 48
0.1747488081455231
100
AcDbLine
 10
26.98573879906209
 20
34.34492060549318
 30
0.0
 11
24.24882575558383
 21
34.34492060549318
 31
0.0
  0
LINE
  5
AF9
330
6C
100
AcDbEntity
  8
Center Mark (ANSI)
  6
CHAIN
 48
0.1747488081455231
100
AcDbLine
 10
52.23573879906207
 20
34.34492060549318
 30
0.0
 11
49.49882575558381
 21
34.34492060549318
 31
0.0
  0
LINE
  5
AFA
330
6C
100
AcDbEntity
  8
Centerline (ANSI)
  6
CHAIN
 48
0.9524481296539306
100
AcDbLine
 10
24.24882575558383
 20
34.34492060549318
 30
0.0
 11
52.23573879906207
 21
34.34492060549318
 31
0.0
  0
LINE
  5
AFB
330
6C
100
AcDbEntity
  8
Centerline (ANSI)
  6
CHAIN
 48
0.9524481296539306
100
AcDbLine
 10
25.61728227732297
 20
66.96337712723229
 30
0.0
 11
25.61728227732296
 21
32.97646408375405
 31
0.0
  0
LINE
  5
AFC
330
6C
100
AcDbEntity
  8
Center Mark (ANSI)
  6
CHAIN
 48
0.1747488081455231
100
AcDbLine
 10
25.61728227732297
 20
51.33837712723231
 30
0.0
 11
25.61728227732297
 21
48.60146408375406
 31
0.0
  0
LINE
  5
AFD
330
6C
100
AcDbEntity
  8
Center Mark (ANSI)
  6
CHAIN
 48
0.1747488081455231
100
AcDbLine
 10
50.86728227732299
 20
51.33837712723231
 30
0.0
 11
50.86728227732299
 21
48.60146408375406
 31
0.0
  0
LINE
  5
AFE
330
6C
100
AcDbEntity
  8
Centerline (ANSI)
  6
CHAIN
 48
0.9524481296539306
100
AcDbLine
 10
24.24882575558385
 20
49.96992060549318
 30
0.0
 11
52.23573879906211
 21
49.96992060549318
 31
0.0
  0
LINE
  5
AFF
330
6C
100
AcDbEntity
  8
Centerline (ANSI)
  6
CHAIN
 48
0.9524481296539306
100
AcDbLine
 10
50.86728227732294
 20
66.96337712723229
 30
0.0
 11
50.86728227732294
 21
32.97646408375405
 31
0.0
  0
LINE
  5
B00
330
6C
100
AcDbEntity
  8
Center Mark (ANSI)
  6
CHAIN
 48
0.1587135791778564
100
AcDbLine
 10
28.86023879906212
 20
34.34492060549318
 30
0.0
 11
26.37432575558385
 21
34.34492060549318
 31
0.0
  0
LINE
  5
B01
330
6C
100
AcDbEntity
  8
Center Mark (ANSI)
  6
CHAIN
 48
0.1587135791778564
100
AcDbLine
 10
27.61728227732298
 20
35.58787712723232
 30
0.0
 11
27.61728227732298
 21
33.10196408375405
 31
0.0
  0
LINE
  5
B02
330
6C
100
AcDbEntity
  8
Center Mark (ANSI)
  6
CHAIN
 48
0.1587135791778564
100
AcDbLine
 10
50.11023879906209
 20
34.34492060549318
 30
0.0
 11
47.62432575558383
 21
34.34492060549318
 31
0.0
  0
LINE
  5
B03
330
6C
100
AcDbEntity
  8
Center Mark (ANSI)
  6
CHAIN
 48
0.1587135791778564
100
AcDbLine
 10
48.86728227732296
 20
35.58787712723232
 30
0.0
 11
48.86728227732296
 21
33.10196408375405
 31
0.0
  0
ENDSEC
  0
SECTION
  2
OBJECTS
  0
DICTIONARY
  5
C
330
0
100
AcDbDictionary
281
     1
  3
ACAD_CIP_PREVIOUS_PRODUCT_INFO
350
B04
  3
ACAD_COLOR
350
63
  3
ACAD_GROUP
350
D
  3
ACAD_LAYOUT
350
62
  3
ACAD_MATERIAL
350
10
  3
ACAD_MLEADERSTYLE
350
66
  3
ACAD_MLINESTYLE
350
5F
  3
ACAD_PLOTSETTINGS
350
61
  3
ACAD_PLOTSTYLENAME
350
E
  3
ACAD_SCALELIST
350
42
  3
ACAD_TABLESTYLE
350
64
  3
ACAD_VISUALSTYLE
350
29
  3
ACDB_RECOMPOSE_DATA
350
B14
  3
AcDbVariableDictionary
350
76
  3
DWGPROPS
350
B15
  0
DICTIONARY
  5
B51
330
A34
100
AcDbDictionary
280
     1
281
     1
  3
ACAD_MTEXT_RT
360
B52
  0
DICTIONARY
  5
B53
330
AED
100
AcDbDictionary
280
     1
281
     1
  3
ACAD_MTEXT_RT
360
B54
  0
DICTIONARY
  5
B12
330
AF3
100
AcDbDictionary
280
     1
281
     1
  3
ACAD_MTEXT_2008_RT
360
B13
  0
XRECORD
  5
B04
102
{ACAD_REACTORS
330
C
102
}
330
C
100
AcDbXrecord
280
     1
300
INVNTOR
300
2012
300
85795PDSP_2012_0F
  0
DICTIONARY
  5
63
102
{ACAD_REACTORS
330
C
102
}
330
C
100
AcDbDictionary
281
     1
  0
DICTIONARY
  5
D
102
{ACAD_REACTORS
330
C
102
}
330
C
100
AcDbDictionary
281
     1
  0
DICTIONARY
  5
62
102
{ACAD_REACTORS
330
C
102
}
330
C
100
AcDbDictionary
281
     1
  3
Layout1
350
6B
  3
Layout2
350
73
  3
Model
350
6F
  0
DICTIONARY
  5
10
102
{ACAD_REACTORS
330
C
102
}
330
C
100
AcDbDictionary
281
     1
  3
ByBlock
350
19
  3
ByLayer
350
11
  3
Global
350
21
  0
DICTIONARY
  5
66
102
{ACAD_REACTORS
330
C
102
}
330
C
100
AcDbDictionary
281
     1
  3
Standard
350
67
  0
DICTIONARY
  5
5F
102
{ACAD_REACTORS
330
C
102
}
330
C
100
AcDbDictionary
281
     1
  3
Standard
350
60
  0
DICTIONARY
  5
61
102
{ACAD_REACTORS
330
C
102
}
330
C
100
AcDbDictionary
281
     1
  0
ACDBDICTIONARYWDFLT
  5
E
102
{ACAD_REACTORS
330
C
102
}
330
C
100
AcDbDictionary
281
     1
  3
Normal
350
F
100
AcDbDictionaryWithDefault
340
F
  0
DICTIONARY
  5
42
102
{ACAD_REACTORS
330
C
102
}
330
C
100
AcDbDictionary
281
     1
  3
A0
350
43
  3
A1
350
44
  3
A2
350
45
  3
A3
350
46
  3
A4
350
47
  3
A5
350
48
  3
A6
350
49
  3
A7
350
4A
  3
A8
350
4B
  3
A9
350
4C
  3
B0
350
4D
  3
B1
350
4E
  3
B2
350
4F
  3
B3
350
50
  3
B4
350
51
  3
B5
350
52
  3
B6
350
53
  0
DICTIONARY
  5
64
102
{ACAD_REACTORS
330
C
102
}
330
C
100
AcDbDictionary
281
     1
  3
Standard
350
65
  0
DICTIONARY
  5
29
102
{ACAD_REACTORS
330
C
102
}
330
C
100
AcDbDictionary
281
     1
  3
2dWireframe
350
2F
  3
Basic
350
2E
  3
Brighten
350
35
  3
ColorChange
350
39
  3
Conceptual
350
32
  3
Dim
350
34
  3
EdgeColorOff
350
41
  3
Facepattern
350
38
  3
Flat
350
2A
  3
FlatWithEdges
350
2B
  3
Gouraud
350
2C
  3
GouraudWithEdges
350
2D
  3
Hidden
350
31
  3
JitterOff
350
3F
  3
Linepattern
350
37
  3
OverhangOff
350
40
  3
Realistic
350
33
  3
Shaded
350
3E
  3
Shaded with edges
350
3D
  3
Shades of Gray
350
3A
  3
Sketchy
350
3B
  3
Thicken
350
36
  3
Wireframe
350
30
  3
X-Ray
350
3C
  0
XRECORD
  5
B14
102
{ACAD_REACTORS
330
C
102
}
330
C
100
AcDbXrecord
280
     1
 90
        1
330
65
330
AF3
  0
DICTIONARY
  5
76
102
{ACAD_REACTORS
330
C
102
}
330
C
100
AcDbDictionary
281
     1
  3
CANNOSCALE
350
79
  3
CMLEADERSTYLE
350
78
  3
CTABLESTYLE
350
77
  3
DIMASSOC
350
B0C
  3
HIDETEXT
350
B0B
  3
INDEXCTL
350
B0A
  3
LAYEREVAL
350
B07
  3
LAYERNOTIFY
350
B08
  3
LIGHTINGUNITS
350
B06
  3
MSLTSCALE
350
B05
  3
SORTENTS
350
B09
  3
XCLIPFRAME
350
B0D
  0
XRECORD
  5
B15
102
{ACAD_REACTORS
330
C
102
}
330
C
100
AcDbXrecord
280
     1
  1
DWGPROPS COOKIE
  2

  3

  4
jfielder
  6

  7

  8

  9
-
300
Manager=
301
Company=
302
Category=
303
Part Number=HWDALNP3630-S
304
Description=
305
Project=
306
Designer=jfielder
307
Engineer=
308
Authority=
309
Cost Center=
 40
0.000035625
 41
2455986.408042801
 42
2455986.408042801
  1

 90
       19
300
Vendor=
300
User Status=
300
Design Status=WorkInProgress
300
Checked by=
300
Engr Approved by=
300
Mfg Approved by=
300
DWG. NO=
300
NUMBER OF SHEETS=1
300
DRAWING #=
  0
XRECORD
  5
B52
102
{ACAD_REACTORS
330
B51
102
}
330
B51
100
AcDbXrecord
280
     1
 40
35954.0
  1
\A1;\U+22050.56{\PTYP.\P(6 PL.)}
  0
XRECORD
  5
B54
102
{ACAD_REACTORS
330
B53
102
}
330
B53
100
AcDbXrecord
280
     1
 40
35747.0
  1
\A1;\U+22050.31{\PTYP.\P(2 PL.)}
  0
XRECORD
  5
B13
102
{ACAD_REACTORS
330
B12
102
}
330
B12
100
AcDbXrecord
280
     1
 40
3151114.0
  1
\pxsm0.94;{\fRomanS|b0|i0;\H1.7391;PART#: ALNP3630\P(DATA SUBJECT TO CHANGE WITHOUT NOTICE)\P \P\fRomanS|b0|i0;\H1.0435;THIS DRAWING IS PROPERTY OF HUBBELL INC. WIEGMANN\PALL INFORMATION IS PROPRIETARY AND NOT TO BE DUPLICATED\fRomanS|b0|i0;\H0.8696;
  1
\P}
  0
LAYOUT
  5
6B
102
{ACAD_XDICTIONARY
360
B4B
102
}
102
{ACAD_REACTORS
330
62
102
}
330
62
100
AcDbPlotSettings
  1

  2

  4

  6

 40
0.0
 41
0.0
 42
0.0
 43
0.0
 44
0.0
 45
0.0
 46
0.0
 47
0.0
 48
0.0
 49
0.0
140
0.0
141
0.0
142
1.0
143
1.0
 70
   688
 72
     0
 73
     0
 74
     5
  7

 75
    16
147
1.0
148
0.0
149
0.0
100
AcDbLayout
  1
Layout1
 70
     1
 71
     1
 10
0.0
 20
0.0
 11
12.0
 21
9.0
 12
0.0
 22
0.0
 32
0.0
 14
0.0
 24
0.0
 34
0.0
 15
0.0
 25
0.0
 35
0.0
146
0.0
 13
0.0
 23
0.0
 33
0.0
 16
1.0
 26
0.0
 36
0.0
 17
0.0
 27
1.0
 37
0.0
 76
     0
330
68
  0
LAYOUT
  5
73
102
{ACAD_XDICTIONARY
360
B4F
102
}
102
{ACAD_REACTORS
330
62
102
}
330
62
100
AcDbPlotSettings
  1

  2

  4

  6

 40
0.0
 41
0.0
 42
0.0
 43
0.0
 44
0.0
 45
0.0
 46
0.0
 47
0.0
 48
0.0
 49
0.0
140
0.0
141
0.0
142
1.0
143
1.0
 70
   688
 72
     0
 73
     0
 74
     5
  7

 75
    16
147
1.0
148
0.0
149
0.0
100
AcDbLayout
  1
Layout2
 70
     1
 71
     2
 10
0.0
 20
0.0
 11
12.0
 21
9.0
 12
0.0
 22
0.0
 32
0.0
 14
0.0
 24
0.0
 34
0.0
 15
0.0
 25
0.0
 35
0.0
146
0.0
 13
0.0
 23
0.0
 33
0.0
 16
1.0
 26
0.0
 36
0.0
 17
0.0
 27
1.0
 37
0.0
 76
     0
330
70
  0
LAYOUT
  5
6F
102
{ACAD_XDICTIONARY
360
B4D
102
}
102
{ACAD_REACTORS
330
62
102
}
330
62
100
AcDbPlotSettings
  1

  2

  4

  6

 40
0.0
 41
0.0
 42
0.0
 43
0.0
 44
0.0
 45
0.0
 46
0.0
 47
0.0
 48
0.0
 49
0.0
140
0.0
141
0.0
142
1.0
143
1.0
 70
  1712
 72
     0
 73
     0
 74
     0
  7

 75
     0
147
1.0
148
0.0
149
0.0
100
AcDbLayout
  1
Model
 70
     1
 71
     0
 10
0.0
 20
0.0
 11
12.0
 21
9.0
 12
0.0
 22
0.0
 32
0.0
 14
0.0
 24
0.0
 34
0.0
 15
0.0
 25
0.0
 35
0.0
146
0.0
 13
0.0
 23
0.0
 33
0.0
 16
1.0
 26
0.0
 36
0.0
 17
0.0
 27
1.0
 37
0.0
 76
     0
330
6C
  0
MATERIAL
  5
19
102
{ACAD_XDICTIONARY
360
1A
102
}
102
{ACAD_REACTORS
330
10
102
}
330
10
100
AcDbMaterial
  1
ByBlock
 72
     0
 43
0.0208333333333333
 43
0.0
 43
0.0
 43
0.0
 43
0.0
 43
0.0208333333333333
 43
0.0
 43
0.0
 43
0.0
 43
0.0
 43
1.0
 43
0.0
 43
0.0
 43
0.0
 43
0.0
 43
1.0
 77
     0
 47
0.0208333333333333
 47
0.0
 47
0.0
 47
0.0
 47
0.0
 47
0.0208333333333333
 47
0.0
 47
0.0
 47
0.0
 47
0.0
 47
1.0
 47
0.0
 47
0.0
 47
0.0
 47
0.0
 47
1.0
171
     0
 49
0.0208333333333333
 49
0.0
 49
0.0
 49
0.0
 49
0.0
 49
0.0208333333333333
 49
0.0
 49
0.0
 49
0.0
 49
0.0
 49
1.0
 49
0.0
 49
0.0
 49
0.0
 49
0.0
 49
1.0
175
     0
142
0.0208333333333333
142
0.0
142
0.0
142
0.0
142
0.0
142
0.0208333333333333
142
0.0
142
0.0
142
0.0
142
0.0
142
1.0
142
0.0
142
0.0
142
0.0
142
0.0
142
1.0
179
     0
144
0.0208333333333333
144
0.0
144
0.0
144
0.0
144
0.0
144
0.0208333333333333
144
0.0
144
0.0
144
0.0
144
0.0
144
1.0
144
0.0
144
0.0
144
0.0
144
0.0
144
1.0
147
0.0208333333333333
147
0.0
147
0.0
147
0.0
147
0.0
147
0.0208333333333333
147
0.0
147
0.0
147
0.0
147
0.0
147
1.0
147
0.0
147
0.0
147
0.0
147
0.0
147
1.0
  0
MATERIAL
  5
11
102
{ACAD_XDICTIONARY
360
12
102
}
102
{ACAD_REACTORS
330
10
102
}
330
10
100
AcDbMaterial
  1
ByLayer
 72
     0
 43
0.0208333333333333
 43
0.0
 43
0.0
 43
0.0
 43
0.0
 43
0.0208333333333333
 43
0.0
 43
0.0
 43
0.0
 43
0.0
 43
1.0
 43
0.0
 43
0.0
 43
0.0
 43
0.0
 43
1.0
 77
     0
 47
0.0208333333333333
 47
0.0
 47
0.0
 47
0.0
 47
0.0
 47
0.0208333333333333
 47
0.0
 47
0.0
 47
0.0
 47
0.0
 47
1.0
 47
0.0
 47
0.0
 47
0.0
 47
0.0
 47
1.0
171
     0
 49
0.0208333333333333
 49
0.0
 49
0.0
 49
0.0
 49
0.0
 49
0.0208333333333333
 49
0.0
 49
0.0
 49
0.0
 49
0.0
 49
1.0
 49
0.0
 49
0.0
 49
0.0
 49
0.0
 49
1.0
175
     0
142
0.0208333333333333
142
0.0
142
0.0
142
0.0
142
0.0
142
0.0208333333333333
142
0.0
142
0.0
142
0.0
142
0.0
142
1.0
142
0.0
142
0.0
142
0.0
142
0.0
142
1.0
179
     0
144
0.0208333333333333
144
0.0
144
0.0
144
0.0
144
0.0
144
0.0208333333333333
144
0.0
144
0.0
144
0.0
144
0.0
144
1.0
144
0.0
144
0.0
144
0.0
144
0.0
144
1.0
147
0.0208333333333333
147
0.0
147
0.0
147
0.0
147
0.0
147
0.0208333333333333
147
0.0
147
0.0
147
0.0
147
0.0
147
1.0
147
0.0
147
0.0
147
0.0
147
0.0
147
1.0
  0
MATERIAL
  5
21
102
{ACAD_XDICTIONARY
360
22
102
}
102
{ACAD_REACTORS
330
10
102
}
330
10
100
AcDbMaterial
  1
Global
 72
     0
 43
0.0208333333333333
 43
0.0
 43
0.0
 43
0.0
 43
0.0
 43
0.0208333333333333
 43
0.0
 43
0.0
 43
0.0
 43
0.0
 43
1.0
 43
0.0
 43
0.0
 43
0.0
 43
0.0
 43
1.0
 77
     0
 47
0.0208333333333333
 47
0.0
 47
0.0
 47
0.0
 47
0.0
 47
0.0208333333333333
 47
0.0
 47
0.0
 47
0.0
 47
0.0
 47
1.0
 47
0.0
 47
0.0
 47
0.0
 47
0.0
 47
1.0
171
     0
 49
0.0208333333333333
 49
0.0
 49
0.0
 49
0.0
 49
0.0
 49
0.0208333333333333
 49
0.0
 49
0.0
 49
0.0
 49
0.0
 49
1.0
 49
0.0
 49
0.0
 49
0.0
 49
0.0
 49
1.0
175
     0
142
0.0208333333333333
142
0.0
142
0.0
142
0.0
142
0.0
142
0.0208333333333333
142
0.0
142
0.0
142
0.0
142
0.0
142
1.0
142
0.0
142
0.0
142
0.0
142
0.0
142
1.0
179
     0
144
0.0208333333333333
144
0.0
144
0.0
144
0.0
144
0.0
144
0.0208333333333333
144
0.0
144
0.0
144
0.0
144
0.0
144
1.0
144
0.0
144
0.0
144
0.0
144
0.0
144
1.0
147
0.0208333333333333
147
0.0
147
0.0
147
0.0
147
0.0
147
0.0208333333333333
147
0.0
147
0.0
147
0.0
147
0.0
147
1.0
147
0.0
147
0.0
147
0.0
147
0.0
147
1.0
  0
MLEADERSTYLE
  5
67
102
{ACAD_XDICTIONARY
360
B10
102
}
102
{ACAD_REACTORS
330
66
102
}
330
66
100
AcDbMLeaderStyle
170
     2
171
     1
172
     0
 90
        2
 40
0.0
 41
0.0
173
     1
 91
-1056964608
340
5B
 92
       -2
290
     1
 42
0.09
291
     1
 43
0.36
  3
Standard
 44
0.18
300

342
55
174
     1
178
     6
175
     1
176
     0
 93
-1056964608
 45
0.18
292
     0
297
     0
 46
0.18
 94
-1056964608
 47
1.0
 49
1.0
140
1.0
293
     1
141
0.0
294
     1
177
     0
142
1.0
295
     0
296
     0
143
0.125
1001
ACAD_MLEADERVER
1070
     2
  0
MLINESTYLE
  5
60
102
{ACAD_REACTORS
330
5F
102
}
330
5F
100
AcDbMlineStyle
  2
STANDARD
 70
     0
  3

 62
   256
 51
90.0
 52
90.0
 71
     2
 49
0.5
 62
   256
  6
BYLAYER
 49
-0.5
 62
   256
  6
BYLAYER
  0
ACDBPLACEHOLDER
  5
F
102
{ACAD_REACTORS
330
E
102
}
330
E
  0
SCALE
  5
43
102
{ACAD_REACTORS
330
42
102
}
330
42
100
AcDbScale
 70
     0
300
1:1
140
1.0
141
1.0
290
     1
  0
SCALE
  5
44
102
{ACAD_REACTORS
330
42
102
}
330
42
100
AcDbScale
 70
     0
300
1/128" = 1'-0"
140
0.0078125
141
12.0
290
     0
  0
SCALE
  5
45
102
{ACAD_REACTORS
330
42
102
}
330
42
100
AcDbScale
 70
     0
300
1/64" = 1'-0"
140
0.015625
141
12.0
290
     0
  0
SCALE
  5
46
102
{ACAD_REACTORS
330
42
102
}
330
42
100
AcDbScale
 70
     0
300
1/32" = 1'-0"
140
0.03125
141
12.0
290
     0
  0
SCALE
  5
47
102
{ACAD_REACTORS
330
42
102
}
330
42
100
AcDbScale
 70
     0
300
1/16" = 1'-0"
140
0.0625
141
12.0
290
     0
  0
SCALE
  5
48
102
{ACAD_REACTORS
330
42
102
}
330
42
100
AcDbScale
 70
     0
300
3/32" = 1'-0"
140
0.09375
141
12.0
290
     0
  0
SCALE
  5
49
102
{ACAD_REACTORS
330
42
102
}
330
42
100
AcDbScale
 70
     0
300
1/8" = 1'-0"
140
0.125
141
12.0
290
     0
  0
SCALE
  5
4A
102
{ACAD_REACTORS
330
42
102
}
330
42
100
AcDbScale
 70
     0
300
3/16" = 1'-0"
140
0.1875
141
12.0
290
     0
  0
SCALE
  5
4B
102
{ACAD_REACTORS
330
42
102
}
330
42
100
AcDbScale
 70
     0
300
1/4" = 1'-0"
140
0.25
141
12.0
290
     0
  0
SCALE
  5
4C
102
{ACAD_REACTORS
330
42
102
}
330
42
100
AcDbScale
 70
     0
300
3/8" = 1'-0"
140
0.375
141
12.0
290
     0
  0
SCALE
  5
4D
102
{ACAD_REACTORS
330
42
102
}
330
42
100
AcDbScale
 70
     0
300
1/2" = 1'-0"
140
0.5
141
12.0
290
     0
  0
SCALE
  5
4E
102
{ACAD_REACTORS
330
42
102
}
330
42
100
AcDbScale
 70
     0
300
3/4" = 1'-0"
140
0.75
141
12.0
290
     0
  0
SCALE
  5
4F
102
{ACAD_REACTORS
330
42
102
}
330
42
100
AcDbScale
 70
     0
300
1" = 1'-0"
140
1.0
141
12.0
290
     0
  0
SCALE
  5
50
102
{ACAD_REACTORS
330
42
102
}
330
42
100
AcDbScale
 70
     0
300
1-1/2" = 1'-0"
140
1.5
141
12.0
290
     0
  0
SCALE
  5
51
102
{ACAD_REACTORS
330
42
102
}
330
42
100
AcDbScale
 70
     0
300
3" = 1'-0"
140
3.0
141
12.0
290
     0
  0
SCALE
  5
52
102
{ACAD_REACTORS
330
42
102
}
330
42
100
AcDbScale
 70
     0
300
6" = 1'-0"
140
6.0
141
12.0
290
     0
  0
SCALE
  5
53
102
{ACAD_REACTORS
330
42
102
}
330
42
100
AcDbScale
 70
     0
300
1'-0" = 1'-0"
140
12.0
141
12.0
290
     0
  0
TABLESTYLE
  5
65
102
{ACAD_XDICTIONARY
360
B0E
102
}
102
{ACAD_REACTORS
330
64
102
}
330
64
100
AcDbTableStyle
  3
Standard
 70
     0
 71
     0
 40
0.06
 41
0.06
280
     0
281
     0
  7
Standard
140
0.18
170
     2
 62
     0
 63
     7
283
     0
274
    -2
284
     1
 64
     0
275
    -2
285
     1
 65
     0
276
    -2
286
     1
 66
     0
277
    -2
287
     1
 67
     0
278
    -2
288
     1
 68
     0
279
    -2
289
     1
 69
     0
  7
Standard
140
0.25
170
     5
 62
     0
 63
     7
283
     0
274
    -2
284
     1
 64
     0
275
    -2
285
     1
 65
     0
276
    -2
286
     1
 66
     0
277
    -2
287
     1
 67
     0
278
    -2
288
     1
 68
     0
279
    -2
289
     1
 69
     0
  7
Standard
140
0.18
170
     5
 62
     0
 63
     7
283
     0
274
    -2
284
     1
 64
     0
275
    -2
285
     1
 65
     0
276
    -2
286
     1
 66
     0
277
    -2
287
     1
 67
     0
278
    -2
288
     1
 68
     0
279
    -2
289
     1
 69
     0
  0
VISUALSTYLE
  5
2F
102
{ACAD_XDICTIONARY
360
B23
102
}
102
{ACAD_REACTORS
330
29
102
}
330
29
100
AcDbVisualStyle
  2
2dWireframe
 70
     4
 71
     0
 72
     2
 73
     0
 90
        0
 40
-0.6
 41
-30.0
 62
     5
 63
     7
 74
     1
 91
        4
 64
     7
 65
   257
 75
     1
175
     1
 42
1.0
 92
        0
 66
   257
 43
1.0
 76
     1
 77
     6
 78
     2
 67
     7
 79
     5
170
     0
171
     0
290
     0
174
     0
 93
        1
 44
0.0
173
     0
291
     0
 45
0.0
1001
ACAD
1000
AcDbSavedByObjectVersion
1070
     0
  0
VISUALSTYLE
  5
2E
102
{ACAD_XDICTIONARY
360
B21
102
}
102
{ACAD_REACTORS
330
29
102
}
330
29
100
AcDbVisualStyle
  2
Basic
 70
     7
 71
     1
 72
     0
 73
     1
 90
        0
 40
-0.6
 41
-30.0
 62
     5
 63
     7
 74
     0
 91
        4
 64
     7
 65
   257
 75
     1
175
     1
 42
1.0
 92
        8
 66
     7
 43
1.0
 76
     1
 77
     6
 78
     2
 67
     7
 79
     5
170
     0
171
     0
290
     0
174
     0
 93
        1
 44
0.0
173
     0
291
     1
 45
0.0
1001
ACAD
1000
AcDbSavedByObjectVersion
1070
     0
  0
VISUALSTYLE
  5
35
102
{ACAD_XDICTIONARY
360
B2F
102
}
102
{ACAD_REACTORS
330
29
102
}
330
29
100
AcDbVisualStyle
  2
Brighten
 70
    12
 71
     2
 72
     2
 73
     0
 90
        0
 40
-0.6
 41
-30.0
 62
     5
 63
     7
 74
     1
 91
        4
 64
     7
 65
   257
 75
     1
175
     1
 42
1.0
 92
        8
 66
     7
 43
1.0
 76
     1
 77
     6
 78
     2
 67
     7
 79
     5
170
     0
171
     0
290
     0
174
     0
 93
        1
 44
50.0
173
     0
291
     1
 45
0.0
1001
ACAD
1000
AcDbSavedByObjectVersion
1070
     0
  0
VISUALSTYLE
  5
39
102
{ACAD_XDICTIONARY
360
B37
102
}
102
{ACAD_REACTORS
330
29
102
}
330
29
100
AcDbVisualStyle
  2
ColorChange
 70
    16
 71
     2
 72
     2
 73
     3
 90
        0
 40
-0.6
 41
-30.0
 62
     5
 63
     8
 74
     1
 91
        4
 64
     7
 65
   257
 75
     1
175
     1
 42
1.0
 92
        8
 66
     8
 43
1.0
 76
     1
 77
     6
 78
     2
 67
     7
 79
     5
170
     0
171
     0
290
     0
174
     0
 93
        1
 44
0.0
173
     0
291
     1
 45
0.0
1001
ACAD
1000
AcDbSavedByObjectVersion
1070
     0
  0
VISUALSTYLE
  5
32
102
{ACAD_XDICTIONARY
360
B29
102
}
102
{ACAD_REACTORS
330
29
102
}
330
29
100
AcDbVisualStyle
  2
Conceptual
 70
     9
 71
     3
 72
     2
 73
     0
 90
        0
 40
-0.6
 41
-30.0
 62
     5
 63
     7
 74
     2
 91
        2
 64
     7
 65
   257
 75
     1
175
     1
 42
179.0
 92
        8
 66
     7
 43
1.0
 76
     1
 77
     6
 78
     2
 67
     7
 79
     3
170
     0
171
     0
290
     0
174
     0
 93
        1
 44
0.0
173
     0
291
     0
 45
0.0
1001
ACAD
1000
AcDbSavedByObjectVersion
1070
     0
  0
VISUALSTYLE
  5
34
102
{ACAD_XDICTIONARY
360
B2D
102
}
102
{ACAD_REACTORS
330
29
102
}
330
29
100
AcDbVisualStyle
  2
Dim
 70
    11
 71
     2
 72
     2
 73
     0
 90
        0
 40
-0.6
 41
-30.0
 62
     5
 63
     7
 74
     1
 91
        4
 64
     7
 65
   257
 75
     1
175
     1
 42
1.0
 92
        8
 66
     7
 43
1.0
 76
     1
 77
     6
 78
     2
 67
     7
 79
     5
170
     0
171
     0
290
     0
174
     0
 93
        1
 44
-50.0
173
     0
291
     1
 45
0.0
1001
ACAD
1000
AcDbSavedByObjectVersion
1070
     0
  0
VISUALSTYLE
  5
41
102
{ACAD_XDICTIONARY
360
B47
102
}
102
{ACAD_REACTORS
330
29
102
}
330
29
100
AcDbVisualStyle
  2
EdgeColorOff
 70
    22
 71
     2
 72
     2
 73
     0
 90
        0
 40
-0.6
 41
-30.0
 62
     5
 63
     7
 74
     1
 91
        4
 64
     7
 65
   257
 75
     1
175
     1
 42
1.0
 92
        8
 66
     7
 43
1.0
 76
     1
 77
     6
 78
     2
 67
     7
 79
     5
170
     0
171
     0
290
     0
174
     0
 93
        1
 44
0.0
173
     0
291
     1
 45
0.0
1001
ACAD
1000
AcDbSavedByObjectVersion
1070
     0
  0
VISUALSTYLE
  5
38
102
{ACAD_XDICTIONARY
360
B35
102
}
102
{ACAD_REACTORS
330
29
102
}
330
29
100
AcDbVisualStyle
  2
Facepattern
 70
    15
 71
     2
 72
     2
 73
     0
 90
        0
 40
-0.6
 41
-30.0
 62
     5
 63
     7
 74
     1
 91
        4
 64
     7
 65
   257
 75
     1
175
     1
 42
1.0
 92
        8
 66
     7
 43
1.0
 76
     1
 77
     6
 78
     2
 67
     7
 79
     5
170
     0
171
     0
290
     0
174
     0
 93
        1
 44
0.0
173
     0
291
     1
 45
0.0
1001
ACAD
1000
AcDbSavedByObjectVersion
1070
     0
  0
VISUALSTYLE
  5
2A
102
{ACAD_XDICTIONARY
360
B19
102
}
102
{ACAD_REACTORS
330
29
102
}
330
29
100
AcDbVisualStyle
  2
Flat
 70
     0
 71
     2
 72
     1
 73
     1
 90
        2
 40
-0.6
 41
30.0
 62
     5
 63
     7
 74
     0
 91
        0
 64
     7
 65
   257
 75
     1
175
     1
 42
1.0
 92
        8
 66
     7
 43
1.0
 76
     1
 77
     6
 78
     2
 67
     7
 79
     5
170
     0
171
     0
290
     0
174
     0
 93
       13
 44
0.0
173
     0
291
     1
 45
0.0
1001
ACAD
1000
AcDbSavedByObjectVersion
1070
     0
  0
VISUALSTYLE
  5
2B
102
{ACAD_XDICTIONARY
360
B1B
102
}
102
{ACAD_REACTORS
330
29
102
}
330
29
100
AcDbVisualStyle
  2
FlatWithEdges
 70
     1
 71
     2
 72
     1
 73
     1
 90
        2
 40
-0.6
 41
30.0
 62
     5
 63
     7
 74
     1
 91
        0
 64
     7
 65
   257
 75
     1
175
     1
 42
1.0
 92
        0
 66
   257
 43
1.0
 76
     1
 77
     6
 78
     2
 67
     7
 79
     5
170
     0
171
     0
290
     0
174
     0
 93
       13
 44
0.0
173
     0
291
     1
 45
0.0
1001
ACAD
1000
AcDbSavedByObjectVersion
1070
     0
  0
VISUALSTYLE
  5
2C
102
{ACAD_XDICTIONARY
360
B1D
102
}
102
{ACAD_REACTORS
330
29
102
}
330
29
100
AcDbVisualStyle
  2
Gouraud
 70
     2
 71
     2
 72
     2
 73
     1
 90
        2
 40
-0.6
 41
30.0
 62
     5
 63
     7
 74
     0
 91
        0
 64
     7
 65
   257
 75
     1
175
     1
 42
1.0
 92
        0
 66
     7
 43
1.0
 76
     1
 77
     6
 78
     2
 67
     7
 79
     5
170
     0
171
     0
290
     0
174
     0
 93
       13
 44
0.0
173
     0
291
     1
 45
0.0
1001
ACAD
1000
AcDbSavedByObjectVersion
1070
     0
  0
VISUALSTYLE
  5
2D
102
{ACAD_XDICTIONARY
360
B1F
102
}
102
{ACAD_REACTORS
330
29
102
}
330
29
100
AcDbVisualStyle
  2
GouraudWithEdges
 70
     3
 71
     2
 72
     2
 73
     1
 90
        2
 40
-0.6
 41
30.0
 62
     5
 63
     7
 74
     1
 91
        0
 64
     7
 65
   257
 75
     1
175
     1
 42
1.0
 92
        0
 66
   257
 43
1.0
 76
     1
 77
     6
 78
     2
 67
     7
 79
     5
170
     0
171
     0
290
     0
174
     0
 93
       13
 44
0.0
173
     0
291
     1
 45
0.0
1001
ACAD
1000
AcDbSavedByObjectVersion
1070
     0
  0
VISUALSTYLE
  5
31
102
{ACAD_XDICTIONARY
360
B27
102
}
102
{ACAD_REACTORS
330
29
102
}
330
29
100
AcDbVisualStyle
  2
Hidden
 70
     6
 71
     1
 72
     2
 73
     2
 90
        0
 40
-0.6
 41
-30.0
 62
     5
 63
     7
 74
     2
 91
        2
 64
     7
 65
   257
 75
     2
175
     1
 42
40.0
 92
        0
 66
   257
 43
1.0
 76
     1
 77
     6
 78
     2
 67
     7
 79
     3
170
     0
171
     0
290
     0
174
     0
 93
        1
 44
0.0
173
     0
291
     0
 45
0.0
1001
ACAD
1000
AcDbSavedByObjectVersion
1070
     0
  0
VISUALSTYLE
  5
3F
102
{ACAD_XDICTIONARY
360
B43
102
}
102
{ACAD_REACTORS
330
29
102
}
330
29
100
AcDbVisualStyle
  2
JitterOff
 70
    20
 71
     2
 72
     2
 73
     0
 90
        0
 40
-0.6
 41
-30.0
 62
     5
 63
     7
 74
     1
 91
        4
 64
     7
 65
   257
 75
     1
175
     1
 42
1.0
 92
       10
 66
     7
 43
1.0
 76
     1
 77
     6
 78
     2
 67
     7
 79
     5
170
     0
171
     0
290
     0
174
     0
 93
        1
 44
0.0
173
     0
291
     1
 45
0.0
1001
ACAD
1000
AcDbSavedByObjectVersion
1070
     0
  0
VISUALSTYLE
  5
37
102
{ACAD_XDICTIONARY
360
B33
102
}
102
{ACAD_REACTORS
330
29
102
}
330
29
100
AcDbVisualStyle
  2
Linepattern
 70
    14
 71
     2
 72
     2
 73
     0
 90
        0
 40
-0.6
 41
-30.0
 62
     5
 63
     7
 74
     1
 91
        4
 64
     7
 65
   257
 75
     7
175
     7
 42
1.0
 92
        8
 66
     7
 43
1.0
 76
     1
 77
     6
 78
     2
 67
     7
 79
     5
170
     0
171
     0
290
     0
174
     0
 93
        1
 44
0.0
173
     0
291
     1
 45
0.0
1001
ACAD
1000
AcDbSavedByObjectVersion
1070
     0
  0
VISUALSTYLE
  5
40
102
{ACAD_XDICTIONARY
360
B45
102
}
102
{ACAD_REACTORS
330
29
102
}
330
29
100
AcDbVisualStyle
  2
OverhangOff
 70
    21
 71
     2
 72
     2
 73
     0
 90
        0
 40
-0.6
 41
-30.0
 62
     5
 63
     7
 74
     1
 91
        4
 64
     7
 65
   257
 75
     1
175
     1
 42
1.0
 92
        9
 66
     7
 43
1.0
 76
     1
 77
     6
 78
     2
 67
     7
 79
     5
170
     0
171
     0
290
     0
174
     0
 93
        1
 44
0.0
173
     0
291
     1
 45
0.0
1001
ACAD
1000
AcDbSavedByObjectVersion
1070
     0
  0
VISUALSTYLE
  5
33
102
{ACAD_XDICTIONARY
360
B2B
102
}
102
{ACAD_REACTORS
330
29
102
}
330
29
100
AcDbVisualStyle
  2
Realistic
 70
     8
 71
     2
 72
     3
 73
     0
 90
        2
 40
-0.6
 41
30.0
 62
     5
 63
     7
 74
     0
 91
        0
 64
     7
 65
   257
 75
     1
175
     1
 42
1.0
 92
        8
 66
   257
 43
1.0
 76
     1
 77
     6
 78
     2
 67
     7
 79
     3
170
     0
171
     0
290
     0
174
     0
 93
       13
 44
0.0
173
     0
291
     0
 45
0.0
1001
ACAD
1000
AcDbSavedByObjectVersion
1070
     0
  0
VISUALSTYLE
  5
3E
102
{ACAD_XDICTIONARY
360
B41
102
}
102
{ACAD_REACTORS
330
29
102
}
330
29
100
AcDbVisualStyle
  2
Shaded
 70
    27
 71
     2
 72
     2
 73
     1
 90
        2
 40
-0.6
 41
30.0
 62
     5
 63
     7
 74
     0
 91
        4
 64
     7
 65
   257
 75
     1
175
     1
 42
1.0
 92
        8
 66
   257
 43
1.0
 76
     1
 77
     6
 78
     2
 67
     8
 79
     3
170
     0
171
     0
290
     0
174
     0
 93
        5
 44
0.0
173
     0
291
     0
 45
0.0
1001
ACAD
1000
AcDbSavedByObjectVersion
1070
     0
  0
VISUALSTYLE
  5
3D
102
{ACAD_XDICTIONARY
360
B3F
102
}
102
{ACAD_REACTORS
330
29
102
}
330
29
100
AcDbVisualStyle
  2
Shaded with edges
 70
    26
 71
     2
 72
     2
 73
     1
 90
        2
 40
-0.6
 41
30.0
 62
     5
 63
     7
 74
     1
 91
       10
 64
     7
 65
   257
 75
     2
175
     1
 42
1.0
 92
        8
 66
   257
 43
1.0
 76
     1
 77
     6
 78
     2
 67
     7
 79
     3
170
     0
171
     0
290
     0
174
     0
 93
        5
 44
0.0
173
     0
291
     0
 45
0.0
1001
ACAD
1000
AcDbSavedByObjectVersion
1070
     0
  0
VISUALSTYLE
  5
3A
102
{ACAD_XDICTIONARY
360
B39
102
}
102
{ACAD_REACTORS
330
29
102
}
330
29
100
AcDbVisualStyle
  2
Shades of Gray
 70
    23
 71
     2
 72
     2
 73
     3
 90
        0
 40
-0.6
 41
-30.0
 62
     5
 63
     7
 74
     2
 91
        2
 64
     7
 65
     7
 75
     1
175
     1
 42
40.0
 92
        8
 66
     7
 43
1.0
 76
     1
 77
     6
 78
     2
 67
     7
 79
     3
170
     0
171
     0
290
     0
174
     0
 93
        1
 44
0.0
173
     0
291
     0
 45
0.0
1001
ACAD
1000
AcDbSavedByObjectVersion
1070
     0
  0
VISUALSTYLE
  5
3B
102
{ACAD_XDICTIONARY
360
B3B
102
}
102
{ACAD_REACTORS
330
29
102
}
330
29
100
AcDbVisualStyle
  2
Sketchy
 70
    24
 71
     1
 72
     2
 73
     2
 90
        0
 40
-0.6
 41
-30.0
 62
     5
 63
     7
 74
     2
 91
        2
 64
     7
 65
     7
 75
     1
175
     1
 42
40.0
 92
       11
 66
     7
 43
1.0
 76
     1
 77
     6
 78
     2
 67
     7
 79
     6
170
     0
171
     0
290
     0
174
     0
 93
        1
 44
0.0
173
     0
291
     0
 45
0.0
1001
ACAD
1000
AcDbSavedByObjectVersion
1070
     0
  0
VISUALSTYLE
  5
36
102
{ACAD_XDICTIONARY
360
B31
102
}
102
{ACAD_REACTORS
330
29
102
}
330
29
100
AcDbVisualStyle
  2
Thicken
 70
    13
 71
     2
 72
     2
 73
     0
 90
        0
 40
-0.6
 41
-30.0
 62
     5
 63
     7
 74
     1
 91
        4
 64
     7
 65
   257
 75
     1
175
     1
 42
1.0
 92
       12
 66
     7
 43
1.0
 76
     1
 77
     6
 78
     2
 67
     7
 79
     5
170
     0
171
     0
290
     0
174
     0
 93
        1
 44
0.0
173
     0
291
     1
 45
0.0
1001
ACAD
1000
AcDbSavedByObjectVersion
1070
     0
  0
VISUALSTYLE
  5
30
102
{ACAD_XDICTIONARY
360
B25
102
}
102
{ACAD_REACTORS
330
29
102
}
330
29
100
AcDbVisualStyle
  2
Wireframe
 70
     5
 71
     0
 72
     2
 73
     0
 90
        0
 40
-0.6
 41
-30.0
 62
     5
 63
     7
 74
     1
 91
        4
 64
     7
 65
   257
 75
     1
175
     1
 42
1.0
 92
        0
 66
   257
 43
1.0
 76
     1
 77
     6
 78
     2
 67
     7
 79
     3
170
     0
171
     0
290
     0
174
     0
 93
        1
 44
0.0
173
     0
291
     0
 45
0.0
1001
ACAD
1000
AcDbSavedByObjectVersion
1070
     0
  0
VISUALSTYLE
  5
3C
102
{ACAD_XDICTIONARY
360
B3D
102
}
102
{ACAD_REACTORS
330
29
102
}
330
29
100
AcDbVisualStyle
  2
X-Ray
 70
    25
 71
     2
 72
     2
 73
     1
 90
        1
 40
0.5
 41
-30.0
 62
     5
 63
     7
 74
     1
 91
        0
 64
     7
 65
   257
 75
     1
175
     1
 42
1.0
 92
        8
 66
     7
 43
1.0
 76
     1
 77
     6
 78
     2
 67
     7
 79
     3
170
     0
171
     0
290
     0
174
     0
 93
       13
 44
0.0
173
     0
291
     0
 45
0.0
1001
ACAD
1000
AcDbSavedByObjectVersion
1070
     0
  0
DICTIONARYVAR
  5
79
102
{ACAD_REACTORS
330
76
102
}
330
76
100
DictionaryVariables
280
     0
  1
1:1
  0
DICTIONARYVAR
  5
78
102
{ACAD_REACTORS
330
76
102
}
330
76
100
DictionaryVariables
280
     0
  1
STANDARD
  0
DICTIONARYVAR
  5
77
102
{ACAD_REACTORS
330
76
102
}
330
76
100
DictionaryVariables
280
     0
  1
STANDARD
  0
DICTIONARYVAR
  5
B0C
102
{ACAD_REACTORS
330
76
102
}
330
76
100
DictionaryVariables
280
     0
  1
1
  0
DICTIONARYVAR
  5
B0B
102
{ACAD_REACTORS
330
76
102
}
330
76
100
DictionaryVariables
280
     0
  1
1
  0
DICTIONARYVAR
  5
B0A
102
{ACAD_REACTORS
330
76
102
}
330
76
100
DictionaryVariables
280
     0
  1
0
  0
DICTIONARYVAR
  5
B07
102
{ACAD_REACTORS
330
76
102
}
330
76
100
DictionaryVariables
280
     0
  1
0
  0
DICTIONARYVAR
  5
B08
102
{ACAD_REACTORS
330
76
102
}
330
76
100
DictionaryVariables
280
     0
  1
0
  0
DICTIONARYVAR
  5
B06
102
{ACAD_REACTORS
330
76
102
}
330
76
100
DictionaryVariables
280
     0
  1
2
  0
DICTIONARYVAR
  5
B05
102
{ACAD_REACTORS
330
76
102
}
330
76
100
DictionaryVariables
280
     0
  1
1
  0
DICTIONARYVAR
  5
B09
102
{ACAD_REACTORS
330
76
102
}
330
76
100
DictionaryVariables
280
     0
  1
127
  0
DICTIONARYVAR
  5
B0D
102
{ACAD_REACTORS
330
76
102
}
330
76
100
DictionaryVariables
280
     0
  1
2
  0
DICTIONARY
  5
B4B
330
6B
100
AcDbDictionary
280
     1
281
     1
  3
ACAD_XREC_ROUNDTRIP
360
B4C
  0
DICTIONARY
  5
B4F
330
73
100
AcDbDictionary
280
     1
281
     1
  3
ACAD_XREC_ROUNDTRIP
360
B50
  0
DICTIONARY
  5
B4D
330
6F
100
AcDbDictionary
280
     1
281
     1
  3
ACAD_XREC_ROUNDTRIP
360
B4E
  0
DICTIONARY
  5
1A
330
19
100
AcDbDictionary
280
     1
281
     1
  3
ACAD_XREC_ROUNDTRIP
360
B17
  3
BUMPTILE
360
1C
  3
DIFFUSETILE
360
1B
  3
OPACITYTILE
360
1F
  3
REFLECTIONTILE
360
1E
  3
REFRACTIONTILE
360
20
  3
SPECULARTILE
360
1D
  0
DICTIONARY
  5
12
330
11
100
AcDbDictionary
280
     1
281
     1
  3
ACAD_XREC_ROUNDTRIP
360
B16
  3
BUMPTILE
360
14
  3
DIFFUSETILE
360
13
  3
FBXASSET
360
F5
  3
OPACITYTILE
360
17
  3
REFLECTIONTILE
360
16
  3
REFRACTIONTILE
360
18
  3
SPECULARTILE
360
15
  0
DICTIONARY
  5
22
330
21
100
AcDbDictionary
280
     1
281
     1
  3
ACAD_XREC_ROUNDTRIP
360
B18
  3
BUMPTILE
360
24
  3
DIFFUSETILE
360
23
  3
FBXASSET
360
BA
  3
OPACITYTILE
360
27
  3
REFLECTIONTILE
360
26
  3
REFRACTIONTILE
360
28
  3
SPECULARTILE
360
25
  0
DICTIONARY
  5
B10
330
67
100
AcDbDictionary
280
     1
281
     1
  3
ACAD_XREC_ROUNDTRIP
360
B11
  0
DICTIONARY
  5
B0E
330
65
100
AcDbDictionary
280
     1
281
     1
  3
ACAD_ROUNDTRIP_2008_TABLESTYLE_CELLSTYLEMAP
360
B0F
  3
ACAD_XREC_ROUNDTRIP
360
B49
  0
DICTIONARY
  5
B23
330
2F
100
AcDbDictionary
280
     1
281
     1
  3
ACAD_XREC_ROUNDTRIP
360
B24
  0
DICTIONARY
  5
B21
330
2E
100
AcDbDictionary
280
     1
281
     1
  3
ACAD_XREC_ROUNDTRIP
360
B22
  0
DICTIONARY
  5
B2F
330
35
100
AcDbDictionary
280
     1
281
     1
  3
ACAD_XREC_ROUNDTRIP
360
B30
  0
DICTIONARY
  5
B37
330
39
100
AcDbDictionary
280
     1
281
     1
  3
ACAD_XREC_ROUNDTRIP
360
B38
  0
DICTIONARY
  5
B29
330
32
100
AcDbDictionary
280
     1
281
     1
  3
ACAD_XREC_ROUNDTRIP
360
B2A
  0
DICTIONARY
  5
B2D
330
34
100
AcDbDictionary
280
     1
281
     1
  3
ACAD_XREC_ROUNDTRIP
360
B2E
  0
DICTIONARY
  5
B47
330
41
100
AcDbDictionary
280
     1
281
     1
  3
ACAD_XREC_ROUNDTRIP
360
B48
  0
DICTIONARY
  5
B35
330
38
100
AcDbDictionary
280
     1
281
     1
  3
ACAD_XREC_ROUNDTRIP
360
B36
  0
DICTIONARY
  5
B19
330
2A
100
AcDbDictionary
280
     1
281
     1
  3
ACAD_XREC_ROUNDTRIP
360
B1A
  0
DICTIONARY
  5
B1B
330
2B
100
AcDbDictionary
280
     1
281
     1
  3
ACAD_XREC_ROUNDTRIP
360
B1C
  0
DICTIONARY
  5
B1D
330
2C
100
AcDbDictionary
280
     1
281
     1
  3
ACAD_XREC_ROUNDTRIP
360
B1E
  0
DICTIONARY
  5
B1F
330
2D
100
AcDbDictionary
280
     1
281
     1
  3
ACAD_XREC_ROUNDTRIP
360
B20
  0
DICTIONARY
  5
B27
330
31
100
AcDbDictionary
280
     1
281
     1
  3
ACAD_XREC_ROUNDTRIP
360
B28
  0
DICTIONARY
  5
B43
330
3F
100
AcDbDictionary
280
     1
281
     1
  3
ACAD_XREC_ROUNDTRIP
360
B44
  0
DICTIONARY
  5
B33
330
37
100
AcDbDictionary
280
     1
281
     1
  3
ACAD_XREC_ROUNDTRIP
360
B34
  0
DICTIONARY
  5
B45
330
40
100
AcDbDictionary
280
     1
281
     1
  3
ACAD_XREC_ROUNDTRIP
360
B46
  0
DICTIONARY
  5
B2B
330
33
100
AcDbDictionary
280
     1
281
     1
  3
ACAD_XREC_ROUNDTRIP
360
B2C
  0
DICTIONARY
  5
B41
330
3E
100
AcDbDictionary
280
     1
281
     1
  3
ACAD_XREC_ROUNDTRIP
360
B42
  0
DICTIONARY
  5
B3F
330
3D
100
AcDbDictionary
280
     1
281
     1
  3
ACAD_XREC_ROUNDTRIP
360
B40
  0
DICTIONARY
  5
B39
330
3A
100
AcDbDictionary
280
     1
281
     1
  3
ACAD_XREC_ROUNDTRIP
360
B3A
  0
DICTIONARY
  5
B3B
330
3B
100
AcDbDictionary
280
     1
281
     1
  3
ACAD_XREC_ROUNDTRIP
360
B3C
  0
DICTIONARY
  5
B31
330
36
100
AcDbDictionary
280
     1
281
     1
  3
ACAD_XREC_ROUNDTRIP
360
B32
  0
DICTIONARY
  5
B25
330
30
100
AcDbDictionary
280
     1
281
     1
  3
ACAD_XREC_ROUNDTRIP
360
B26
  0
DICTIONARY
  5
B3D
330
3C
100
AcDbDictionary
280
     1
281
     1
  3
ACAD_XREC_ROUNDTRIP
360
B3E
  0
XRECORD
  5
B4C
102
{ACAD_REACTORS
330
B4B
102
}
330
B4B
100
AcDbXrecord
280
     1
102
SHADEPLOT
 70
     0
102
SHADEPLOTRESLEVEL
 70
     2
102
SHADEPLOTCUSTOMDPI
 70
   300
  0
XRECORD
  5
B50
102
{ACAD_REACTORS
330
B4F
102
}
330
B4F
100
AcDbXrecord
280
     1
102
SHADEPLOT
 70
     0
102
SHADEPLOTRESLEVEL
 70
     2
102
SHADEPLOTCUSTOMDPI
 70
   300
  0
XRECORD
  5
B4E
102
{ACAD_REACTORS
330
B4D
102
}
330
B4D
100
AcDbXrecord
280
     1
102
SHADEPLOT
 70
     0
102
SHADEPLOTRESLEVEL
 70
     2
102
SHADEPLOTCUSTOMDPI
 70
   300
  0
XRECORD
  5
B17
102
{ACAD_REACTORS
330
1A
102
}
330
1A
100
AcDbXrecord
280
     1
102
MATERIAL
148
0.0
149
0.0
149
0.0
 93
        0
 94
      127
282
     0
 72
     0
 77
     0
171
     0
175
     0
179
     0
273
     0
  0
XRECORD
  5
1C
102
{ACAD_REACTORS
330
1A
102
}
330
1A
100
AcDbXrecord
280
     1
270
     1
271
     1
  0
XRECORD
  5
1B
102
{ACAD_REACTORS
330
1A
102
}
330
1A
100
AcDbXrecord
280
     1
270
     1
271
     1
  0
XRECORD
  5
1F
102
{ACAD_REACTORS
330
1A
102
}
330
1A
100
AcDbXrecord
280
     1
270
     1
271
     1
  0
XRECORD
  5
1E
102
{ACAD_REACTORS
330
1A
102
}
330
1A
100
AcDbXrecord
280
     1
270
     1
271
     1
  0
XRECORD
  5
20
102
{ACAD_REACTORS
330
1A
102
}
330
1A
100
AcDbXrecord
280
     1
270
     1
271
     1
  0
XRECORD
  5
1D
102
{ACAD_REACTORS
330
1A
102
}
330
1A
100
AcDbXrecord
280
     1
270
     1
271
     1
  0
XRECORD
  5
B16
102
{ACAD_REACTORS
330
12
102
}
330
12
100
AcDbXrecord
280
     1
102
MATERIAL
148
0.0
149
0.0
149
0.0
 93
        0
 94
      127
282
     0
 72
     0
 77
     0
171
     0
175
     0
179
     0
273
     0
  0
XRECORD
  5
14
102
{ACAD_REACTORS
330
12
102
}
330
12
100
AcDbXrecord
280
     1
270
     1
271
     1
  0
XRECORD
  5
13
102
{ACAD_REACTORS
330
12
102
}
330
12
100
AcDbXrecord
280
     1
270
     1
271
     1
  0
XRECORD
  5
F5
102
{ACAD_REACTORS
330
12
102
}
330
12
100
AcDbXrecord
280
     1
 70
     1
 90
1959938040
 71
     1
  1
5322499A-412E-4AC9-AACC-59E0F726D872
311
504B03040A0000080000F24D5C403DEE336E79000000790000001B0000006175746F6465736B2D64657369676E2D7061636B6167652E786D6C3C3F786D6C2076657273696F6E3D22312E302220656E636F64696E673D227574662D3822203F3E3C666F726D6174733E3C666F726D61743E687474703A2F2F736368656D612E
311
6175746F6465736B2E636F6D2F64657369676E2D7061636B6167652F323030393C2F666F726D61743E3C2F666F726D6174733E504B0304140006080800F24D5C40D486FD9CA0000000F4000000130000005B436F6E74656E745F54797065735D2E786D6C7D8EC10E82300C865F65E91D8A1E8C310C0EEA1BF002731658846E
311
D98AC1B77784ABF1D8FE5FBFBF75BBCE937A534CCEB38643598122B6FEE978D0B0485F9C41B54DDD7D022595594E1A469170414C76A4D9A4D207E29CF43ECE46F218070CC6BECC4078ACAA135ACF422C856C0E68EA1BF5669944DDD7BCDE7B1F8E415D77AECB980613C2E4AC91FC167A2B244592486606FC29C8FD7F045B9A
311
EF7053A7E60B504B0304140006080800F24D5C4068D42ABBEA0000007C01000008000000636F72652E786D6C8D90D18E832010457F85CC3B0A68AD1AA46957FF607F8020B5A4158CC0663F7FB1B5C9EEDB3ECDE4CE3D3393CB4FDFF3037DE9D51B673BA01901A4AD72A3B15307315C710DE824F8EA5CF8650364E5AC3BD864
311
107C5A5D5C7649391BB40D49B56ED4BB28BDD701907AA4A603AF6E7A96998C2139FC3D5BA4BACB4967F4DD25384633A2D71133A67DE66AF40AE2D2F7F440EA33EE6975C1E5702E705DF60D6ECAAAA8D9403F8643CFF30D163C98F97D5FAD5A063D826084324C1866F52769DAF2D816474CAA96109E6FF63F505CC67F42D1D8
311
50B0FDDD17E641D0F4C8732078BE6591CA33A854B7DCC40F504B0304140006080800F24D5C4055019EA25F0000007C00000007000000636E782E786D6C4DCB3B0E80201045D1AD90E915ED2CF8AC45050C11660C8261F98AB1B07AC9C97D42D718D865D3E909258CFD00CCE24AC6E326A164D74DC0B4128928FF326038472B
311
A13128B1252AC747C6BAB984FC68F0B87FE8960A5C09FE86CFB69FBA01504B0304140006080800F24D5C40FD6CCA3566010000020300000C0000006662782F636F72652E786D6C8D52ED8E8230107C95A6FF4BCB878AA6D4E8E11BDC0B54A81C115A525AE2E3DFF2613C2FC61892D2CCECECCE0EF0FDAD6DD0A06C5F1B9DE1
311
306018295D98B2D65586BDBB9014A3BDE0D618F7A70C232D5B95E111C68257D6F86E810AA39DD20E506D4AB580B2EF95C3A868E092E1BEF851AD0CA47750D15F834E165759A9200C80863AC17B67C1009A878C271697F38DD31917DCFBBA5CD8BA8469F5A556168B639E872B961E481EAE8F24391D629226F9966C93759C46
311
A7F0EBB4CA391DC582BBBABDBB2BAC924E9558442C8C088B48947EB3ED2ED9ECE20D61EB1D639C8EE54F22DF951F8A7CAD5D1C2D7667598F45084626E2DFB6109143BD1CC00F159C8E21C26B4AF8396808044276F2DCDCF7B80234A8C2199B00531AFFA006D9780553199A1E4E67163A4F0D60B3977DA2377DDEF7800F2875
311
05D6A483EBD9BB713A9FA72E5174CA92C1DD9036B695CDC3DC6CF1713E06BD9417A631F613355D56A54B9874FC7BC52F504B0304140006080800F24D5C40F57202427D0000009D0000000B0000006662782F636E782E786D6C4DCCD10A83201886E15B91FFDCD51F9A1EA83107DD472C0B99E9703A76F9ABD1C18E3E78F878
311
D5F0D90279BBFCF2296AC04B0BC4C57B9A7D5C35D4B2500964302AA754FE6E40E2B4390D0783516B4EF579D2EC96A986B26BF0F17122E77214DC4ADAE39551265AA4D676487B76EB849502518CD018D5FC4AFB1E61F305504B0304140006080800F24D5C408D6D79F12901000014020000310000006662782F353538463735
311
42382D363141342D343730312D424232312D3634433237423837313137462F636F72652E786D6C8D51CB6EC32010FC15C4A93D6003F1AB1126AA2BE50BFA0304488A1283C5A3CAE7176A476A6FB9B068766676B4CB0EF7F906BEB50FC6D911920A43A0AD74CAD8CB08533CA301820367DEB9F887068115B31E6181216717EF
311
D2B241D2D9A86DCCA8754A6FA008414708E42D7F4618E4979E452552CC8C70AD1621AFE2A22B52E576E67116A2CF01C03AA4BC90B7ED70ECDB69401D796F50D36382A68912D4351FB49F869E90FEC8EA55C8594A466D72A3721C7336DA3F6B52C49C45333FE24BAF45D40A728A094598223A7CE2B77DD3EF773DC2DD1E6356
311
17FA3F515AD493A2646CDCD12DEE2A0B901356AF0DCE944BA7DB238CBE2FCE4750E6BD042D5F21C715A6B46BC990252B352F207B76CDE619A2F379C12FD75366937635EE1ACEEA72A35C7E0F986BB927FF01504B0304140006080800F24D5C407DB3CE0B4D01000033030000300000006662782F35353846373542382D3631
311
41342D343730312D424232312D3634433237423837313137462F636E782E786D6CD593CD6E022114855F85B09F5F276A0D8349177D822EBA45B82A9581093F4D7DFB5E14AD1B175D764326E71ECEB9F9C2B0EDF764C817F8A09D1D6957B79480954E697B18698AFB6A4DC99633EF5C7CB05162C50423CD32E5ECE05D9A8BA4
311
602F9289A81A6D4F45F4105CF21202CAF926314E0A830160AB84224C3B500A14B91BF16B0F1E5741717726F108E4EDF583B8DD27C818589353386B720767F92C4D0F264AA411218C34C8234CA216293A05E1542B1145DDD5B7AE273BFD26917CE15699BC26B97CA4F9A4BC6C542347D6E090B3103DD22BA6789E817231CF46
311
4B11117273315E3D9C256DE372285E8DE03DBABBE5621830EC32E32CEA098A437A101114E57DDBF555DB57FDFABD7DD90CABCD6255B5CB4DDBB226DB39DB3967CA258C01EF66229D8D6023E51D6BF2F819BEE2234A7B64EDFCF90F20114069BDD2B967FC673ECDE57D232E8F7F01FF01504B0304140006080800F24D5C402A
311
D385AC9C0500007B100000340000006662782F35353846373542382D363141342D343730312D424232312D3634433237423837313137462F6F626A656374732E786D6CAD575D739B3814FD2B0CFB0C18DB49E31D42C7B1938EA79BB6534F3BFB90198F0C8268233E4612A9D35FBF472030B876E2DDE90B20215DDD7BEEB91F
311
0ADEEF326E3D532159915FDBBE3BB22D9A4745CCF2F4DAAE54E25CD9D6FB301045A17ACB6C2B2719BDB6F5B41D06A928AAD24CC53421155707B377377F5B32A239B5AD881329AF6D193DD28CB8A452454CE5931B1345DC34D9B9BEDB2C1C8A4D05291F0F849644D05C4153CCE79062354AF9C3E1C8F6C2C0D3FFC3403FCDAA
311
C9E9555E6DCFF07C964B45F2E897C30EC44CFCE9F2767C31732EA6D38933BD1CFBCECDDDCDD2F1DF4D468BCBC56236BF9DE160A90424194D044DECF003B0112C0ABCE65718542C5793B159621CE409FACCB4A7EC706CF981D7ACE9AC33461E533F2AF29C46355640A3B6CF888E6949F3183E675442B31E42A3E1D0D738F67E
311
4FF4D81CD99F3E0F81FE8E9EA056F7F6DDD7B4D8FE0313E4390C12926A0636581A431BAE8EF6086F8B829B7F4C5A19515430C22DCEB68288173BC452BD240C06623493858E066D811DC20BCDEF215D10466FF3FC989649C5B9A6B11DD651B041AC50256BCDD84F2AF6DAF791814EF09566C3953148BD94D40E670D45AE0ED8
311
D40069259CA47039CCD43B27E30343173A4E574B3BFC78B7DDAD75EC1E3FBC14454985D2F401B55AC7B56F8D92D1C93FCB737A837DA0CA1E94AF40FE13427DAF0AFC26D86EBA9B9A539420B94C0A91C137D6C87246788C2CBF7EEAEFDE57E0759B87DE3B85279CADA1FA0D780E6DE8FBB20767183C83F0859818D3D611E148
311
1BF72C07409A24162F30853C9C6C7776B842964356C62EC2431F2643DD677C069E118344519FD47BE7C0F2202D9E91A0015BCD48A8D190DF28B8F7D32FE9AC3ED82C3B05EFC56FA1EB7CB9FEB8AE4442227A6F627A491396338512B7E74D5FA101E6038B9EE8CB8F42C430F457BCD77DBC33739404DA1A730D7CDAE6743DD8
311
9F3C3820C2BEB4D0E92678E30418A10B6B4FFE3D9311E59CE4B4A8DA735FAD1F281B0DC43AD83593BB02B32F2C204DF3E7200651A423C14A0D6257ADBAA4E99EB0EEDBEA13186987372F7F91977EF6DAEE736F54F0426CB62F9B262D1D85FAFB90DB06034F4B01DDEB2069E3DF80BE895992541249F008AEDF578BBEEF745A
311
408A68A536D13285FD082E220C695BB9A8D682A09216F986A16E22EE8E1ED0970F480D036A81A7349694271BC679956D12C6518D3619294FC0F1FFF5DF5659B9215951E5EA84EC81EAA80E43DD07EC953F888A1EED705DBF9D1BE4DE98C627C8A06BC911AC06AEBD988CC7D3D96CEE4CFDF1AD339D2F66CE7CBE583817B3DB
311
D1DDBBF1E5F2EADDB8F553A34918B4A5A61FD1F0124A5B500966DCF76D85F83149C00EEF89920F1F9AF06CDFDF562E7AE1C0C31ED4CB6EE33C7E46DF47E3B705EC571E15B4CA4A4E339A2BA263E85E7FF0AF047DC64099667E9591949E21E5F387F58131983963DF171DEFF4C7C15E33BBD0017954887AACB26D4E183FD898
311
3648BA659E1AFC5A9F74EFA6D0B4433D328E41672A0BCE62E4C1D84A699151856C784611121995A05EBFA78FCDDDE38CDDCF4D87A8C896D35693478226994B8405A855456A386FFD81A64EF755D736CAADFB8487C914B605CE5CDB68D2158BA874B728D0BA15AA85834BFD4E1E8D3FC9538E5EBBD9D48DBB5D1A9B4149EE96
311
9CD33F19BB9A146E0C401A29D137A02182776A65C2A0D6CDFC8FFE93E1AD3A1651F8DC56AAB3653FD119531F83106D8C32B70534314FE6E81D02F575B37CB75E3340E4AC5BD6AB2468A43A8A88B4BE2968FD8C4AF3E5170F1D8AB5FA6C95BC4AE1CBF325398282CC950E70B008AC30324BA240D5C59F0F5F44819B6C66DD31
311
50E061516459919BC1DCDC84ADF523EEB5F103D202D51712F9301EF9E387FA2260EE269B2D91D425B17CC2047C2A5807F1C0F16064735B44056A7E74EB3CED84036EAE9696296953083544E967550D0B5A8E9C5A881E7D99D4B1D25F50BE7A17F0EAA55041A08B0FFF05504B0304140006080000F24D5C4000000000000000
311
0000000000350000006662782F35353846373542382D363141342D343730312D424232312D3634433237423837313137462F76657274696365732E62696E504B0304140006080800F24D5C40F270F1330600000004000000360000006662782F35353846373542382D363141342D343730312D424232312D36344332374238
311
37313137462F747269616E676C65732E62696E636660600000504B0304140006080000F24D5C40000000000000000000000000370000006662782F35353846373542382D363141342D343730312D424232312D3634433237423837313137462F617474726962757465732E62696E504B0304140006080800F24D5C40D5987D
311
FC8F00000041010000360000006662782F35353846373542382D363141342D343730312D424232312D3634433237423837313137462F6469726563746F72792E786D6C858F410EC2201045AF4266AF15DDB800BA74E7C21B903225242D6328188F2FA5C4183471359997F9FF81E89FF3C41E1816475E02DF1F80A11FC8386F
311
25A438EECEC07A250251FC3803E6F58C12560C4AD840E95E91C151A72936F496F35732D860FE635F62C8F2DA16B505C545B74125BAA2FA9E05D7CC053D063734D5C7665FD55B6B8D15D5E9BFEAFD8490FFA45E504B0304140006080800F24D5C40D51D497AFD000000A00100003B0000006662782F35353846373542382D36
311
3141342D343730312D424232312D3634433237423837313137462F7265736F75726365732F636F72652E786D6C8D504B6E833010BD0A9ABDC1064220328E9AC20D7A01CB4C122BC146FE543D7E4DA052BBEB6666F43E9AA7C7CF5FF333FB44E7B5353DB09C428646D9499B5B0F315C490BD95970676DF82583CCC8197B5861
311
10FCE66C5C76485913D084841A3BE10E4AEF3140A69EE9E8C1AB3BCE32973124857FE48B540F79C39CE5894E3AC17D702940B63D59270887DE46A7D0F36263058F514FBB464FE9A7BE6A74202EC3C00EB4EDC8C09A0BA9C7B78AB4F5D091AE6EAAB61CD9FB781878B19A050F7AFEC9A81CCA80138892B292D09294ED07ED4E
311
F5F1541D096D4E94F26295FF31C565FAA7296A13AA728FBBD93C089682BC08C18BB5AFB45E65A6BD762BBE01504B010214000A0000080000F24D5C403DEE336E79000000790000001B00000000000000000000000000000000006175746F6465736B2D64657369676E2D7061636B6167652E786D6C504B0102140014000608
311
0800F24D5C40D486FD9CA0000000F40000001300000000000000000000000000B20000005B436F6E74656E745F54797065735D2E786D6C504B01021400140006080800F24D5C4068D42ABBEA0000007C010000080000000000000000000000000083010000636F72652E786D6C504B01021400140006080800F24D5C405501
311
9EA25F0000007C000000070000000000000000000000000093020000636E782E786D6C504B01021400140006080800F24D5C40FD6CCA3566010000020300000C00000000000000000000000000170300006662782F636F72652E786D6C504B01021400140006080800F24D5C40F57202427D0000009D0000000B0000000000
311
0000000000000000A70400006662782F636E782E786D6C504B01021400140006080800F24D5C408D6D79F1290100001402000031000000000000000000000000004D0500006662782F35353846373542382D363141342D343730312D424232312D3634433237423837313137462F636F72652E786D6C504B01021400140006
311
080800F24D5C407DB3CE0B4D010000330300003000000000000000000000000000C50600006662782F35353846373542382D363141342D343730312D424232312D3634433237423837313137462F636E782E786D6C504B01021400140006080800F24D5C402AD385AC9C0500007B1000003400000000000000000000000000
311
600800006662782F35353846373542382D363141342D343730312D424232312D3634433237423837313137462F6F626A656374732E786D6C504B01021400140006080000F24D5C4000000000000000000000000035000000000000000000000000004E0E00006662782F35353846373542382D363141342D343730312D4242
311
32312D3634433237423837313137462F76657274696365732E62696E504B01021400140006080800F24D5C40F270F13306000000040000003600000000000000000000000000A10E00006662782F35353846373542382D363141342D343730312D424232312D3634433237423837313137462F747269616E676C65732E6269
311
6E504B01021400140006080000F24D5C400000000000000000000000003700000000000000000000000000FB0E00006662782F35353846373542382D363141342D343730312D424232312D3634433237423837313137462F617474726962757465732E62696E504B01021400140006080800F24D5C40D5987DFC8F00000041
311
0100003600000000000000000000000000500F00006662782F35353846373542382D363141342D343730312D424232312D3634433237423837313137462F6469726563746F72792E786D6C504B01021400140006080800F24D5C40D51D497AFD000000A00100003B00000000000000000000000000331000006662782F3535
311
3846373542382D363141342D343730312D424232312D3634433237423837313137462F7265736F75726365732F636F72652E786D6C504B0506000000000E000E0080040000891100000000
310
504B03040A0000080000F24D5C403DEE336E79000000790000001B0000006175746F6465736B2D64657369676E2D7061636B6167652E786D6C3C3F786D6C2076657273696F6E3D22312E302220656E636F64696E673D227574662D3822203F3E3C666F726D6174733E3C666F726D61743E687474703A2F2F736368656D612E
310
6175746F6465736B2E636F6D2F64657369676E2D7061636B6167652F323030393C2F666F726D61743E3C2F666F726D6174733E504B0304140006080800F24D5C40D486FD9CA0000000F4000000130000005B436F6E74656E745F54797065735D2E786D6C7D8EC10E82300C865F65E91D8A1E8C310C0EEA1BF002731658846E
310
D98AC1B77784ABF1D8FE5FBFBF75BBCE937A534CCEB38643598122B6FEE978D0B0485F9C41B54DDD7D022595594E1A469170414C76A4D9A4D207E29CF43ECE46F218070CC6BECC4078ACAA135ACF422C856C0E68EA1BF5669944DDD7BCDE7B1F8E415D77AECB980613C2E4AC91FC167A2B244592486606FC29C8FD7F045B9A
310
EF7053A7E60B504B0304140006080800F24D5C4065866963EA0000007C01000008000000636F72652E786D6C8D904D6EC3201085AF82668F0DB61BFF0813B98D6FD00B20200E4A0C96812AC70F4E1CA9DD7535A337EF9B193D76BCCF37F4A3576F9CED81660490B6D22963A71E6238E306D091B3D5B9F0CB06C88A59F7B0C9
310
C0D9B4BAB8EC927436681B926A9DD2BB28BCD70190BCA5A6072F2F7A1699882139FC355B84BC8A4967F4DD253846A3D0EB8851699F391BBD026F4F9FB4AD87120FC3D0E0AAA2156EBEEA132EDB867C8CD548C7F2C0F20DE62C98F97D5FAE5A04AD801784169814B868BE49DB557557D6981C3A4258BED9FF407151FF84A2B1
310
A12CF6775F98074ED323CF0167F996452ACFA052DD72E30F504B0304140006080800F24D5C4055019EA25F0000007C00000007000000636E782E786D6C4DCB3B0E80201045D1AD90E915ED2CF8AC45050C11660C8261F98AB1B07AC9C97D42D718D865D3E909258CFD00CCE24AC6E326A164D74DC0B4128928FF326038472B
310
A13128B1252AC747C6BAB984FC68F0B87FE8960A5C09FE86CFB69FBA01504B0304140006080800F24D5C401E0B932E66010000020300000C0000006662782F636F72652E786D6C8D52ED8E8230107C95A6FF4BCBC7299A52C39DBEC1BD4085CA35424B4A4B7CFC5B04E37931C69094666667777680EF2E5D8B46E5066D4D81
310
E38861A44C656B6D9A02077F2239463BC19DB5FE4F19464676AAC0138C056F9C0DFD0255D678653CA0C6D66A01E530288F51D5C2A5C043F5A33A19C9E0A1623847BDACCEB251511C010D75820FDE8101340F994E2C4EC70BA7332E7808BA5E585DC3347DD2CA61B1D97FC69B759992B22C7392657146F2AFF59EA49B9C7D1C
310
B2437C48579C4E62C1BDEE6EEE2AA7A4573516098B13C21292E4DF6CB3CDD6DB744DD86ACB18A753F98328F4F59BA2A08D4F93C5EE2C1BB088C1C895F8B72D44E4D12047F04305A75388F0BA26FC18340402217B796C6F7B9C011A55E5ADCB80A96DB853A36C8382A90C5D1F4E67163A5F1BC0664FFB242FFABCEE011F509A
310
06AC490FD763F0D3743E4F5DA2E89523A3BF20635D27DBBBB9D9E2FDBC0F7A2AAF6C6BDD3B6ABAAC4A9730E9F4F78A5F504B0304140006080800F24D5C4077CEB1F47D0000009D0000000B0000006662782F636E782E786D6C4DCC410EC2201404D0AB90BFC78212CB82D250A1F7682C6D88140C82F1F852D3859B99E46532
310
A2FF6C1EBD6D7AB9183AA02702C8867B9C5D583B2879C11C502F458A31FFCD008569B31DEC0C52AC2996E741B35DA6E27355EFC2E340DEB6865CA9C28C8E3506A3B1BA30824746CF83BA19AD3987468AE6F7547B3F965F504B0304140006080800F24D5C40CA215BA62B01000014020000310000006662782F383737453036
310
31412D343146412D344245442D413334302D4634313242414345444438382F636F72652E786D6C8D51CB6E833010FC15E4537A006C437944C651D2245FD01F70C0A156828DFCA8F2F95D1722B5B75CBCD6ECCCEC6897ED1ED33DF996D629A33B44328C12A97B33283D7628F86BDAA064C79935C6FFA1A1448B497628C288B3
310
D19A30AF506FB497DA03AACD20575038273D4AFA3B7C3AE4FA2F39894C040F0C77CB66D1DFC4283392411B789C396F2140B20C892FE24D5D9F7045F66949CEF01C4EC7745F94383D97841EF61FA7E3B16958BE08390B410DAB5C0D10475D95B4AF9A4431675E4DCFF8BD95C2CB01718A094D314D69F389DB6D596F8B3AC5D5
310
16639647FA3F519887174541695FD035EE22738813962F0DCE06132EF76718F9988DF5499CB771B27F431C6798D2F6BD252DCB172A2C003CAB72F574DE5858F0E6760176B11A57256779BC1194DF03428DF7E43F504B0304140006080800F24D5C401B14011C5501000033030000300000006662782F38373745303631412D
310
343146412D344245442D413334302D4634313242414345444438382F636E782E786D6CBD93CD6EC32010845F0571F76F2C278D30917AE813F4D02B864D4A83C1025C356FDF2521692E3954AA7A41D6EC30B3FA84D9EE6B32E4137CD0CE0EB4296B4AC04AA7B43D0C7489FB6243C98E33EF5CBCB35162C504034D32E5ECE0DD
310
326749C15E2C26A26AB43D66D143708B9710504E37897152180C005B2C28C2348252A0C8CD885F7BF0B80A8AE389C477202FCF6FC48D1F206360554AE1AC4A1D9CA53337DD992891468430D020DF6112A558A253108EA51251944D79ED7AB0D34F124917AE958BD724950F349D94E78D4AE4C82A1C7216A2477AD9144F3350
310
2EE6D968292242AECEC68B87B345DBD877D9AB11BC47F7AAED371B0C3BCF388B7A82EC901E440445795B376D51B745BB79AD9FB6DD7ABB5A1775BFAD6B56253B67A373265FC218F06E26D2D9083652DEB02A8D1FE1CB3EA2B447D6CE9F7E011201E4D60B9D5BC65FF269FA55D7FD239FEAFCBE1197C7BF807F03504B030414
310
0006080800F24D5C401BC92D165A070000941B0000340000006662782F38373745303631412D343146412D344245442D413334302D4634313242414345444438382F6F626A656374732E786D6CED59DD739B3810FF5718EED9D8D84E5BDF103A8ED3743CBDB49DFADAB987CC3032C8441721184924F1FDF5B7FA00033109BE
310
E6DEFA6003425AEDFEF6534BF0FE31A3CE3DE682E4ECDCF5BD89EB6016E70961E9B95BCADDE89DEBBC0F039EE7B231CD7518CAF0B9AB86DD3048795E167628C13B5452D919BDBAF8CB113166D875628A843877457C8B33E4A152E60916775E8224F2D2DDA3E77B66629B6CCA5171DB215A208E99044E619C0115C730E5B71F
310
27EE380CC6EA7D18A87F3B6B3668D6BC7FD6584BDDE6923021118B9FB0D421331BC4D2CC9F5F7E989E2D4667F3F96C347F33F5471757179723FFED6CB27AB35A2D961F16C0DE36CFA99529C1056609E86FEF867E30566F6AD12D02C7B88E73C670AC8104A8B4585D82040BD8AA01DFA4FDE82B891AAFB5848DE7B97A6F5968
310
0CCFDA54FA660D03A2451704B1DB551257D7A67CF9F66F105C0C314A2EB0046E85E4A05D0B0F07AF70C3493036A361B03DE882082743127382A843C996230E4A81A96A4A189805968C720E0EA41C2581D69C79DDB62DF0CC975DE71897BB9252E5196EA81D2B02F7C35268CEC83F981FB86F22033C81B42561F29DE552EE0B
310
EC868B60AC07C3405D6653FBD200E9EC284A8546C4BCED08BA52AEBFBE74C34F57DBC78D0A07C7372F785E602E95D1293D6ABEC090ED55A164B7F507694E2D00610CA876E501946F80FC67881E0756406F9C3CCE1FE776AEE488895DCE33D08D33714613F89B38BEFE57F78DBB605C2F6E6BAF0F4F705305D5BB9FC7B32D83
310
C6CAF2DF80330CEEC1E0733EB3AF3631A260CFD7840140CA481C9AC31084F6DDF6D10DD7103821D0C32A44431F440676EFE136185B3207AD54EE65BD8E01A2768FD91025016CDA22818D1E3D7D84ECC1497C505353C43E78CF5EC55C97979B4F9B92EF508CAFAD4F5FE21D614442D63CCE500BF396447778FF90F304047D8A
310
F7A6897766B71280B6C25C019F5620A887C3CEAD0D625897E62ADC042FEC0042A85CDDA07F4D448C29450CE765B56F1DDD94A1D61E6F6B06379C1A8867D38E09737C4F5455014E7398D16214F27ECC49A14074C38F46B23A687A3DD27D5F7F068BACE7F7CC5A3308BD0CD13F75D03A8243CBB22BA42D10B5C0DB43388F739A
310
F368BB8F4CA473A1960036DADEF2A3451462BD5192A2021EA4FDAE0A29A991364AC86E570A88AB4758FCB15E35CD61E2CDFC33A7F9DF71C639445BF05DC4ADDF75F6884886521CED50D2B75D73B79AB6D0247B4873BCA32017B927721F21194D129C9E02CD49C417AF4A3DA5B910846101F9EA28F84D34261E0412A3CD8A65
310
A5D50ED044441996889E828022D303AE4E3BBAC68DA1747899C7DA7A9FD35893E8FF64111C412D99B38840290A39E445C67DEF0C62481B5D8372075FB0B68AB61683965042C4FBE80193F4569E82BA21DF837B0C4792524679816230EB01649FF88A526A87F72D8AEF54FE88E292BE9681084C7711A1B4CC22F81106278F21
310
AE5D07A66751681037B14FE20C8A32244B3E649337679327FB989AA11B021B1BED0885B01D65A8E841BD1510753DE2D4E05BEA3D4ADD965911A12C2FD92043F1665D6FB2E4BB6A556407F2AB4A45281B2BC29660181026EBAC5AC56C30751D58C18D74A0DA4702650535A7B017128F5F7B93A6DCBB01B77EFABA1B6450F8F5
310
68AF1951E7150C96C75661201E908C6FDD70A3AFA30BA8BF139C1C527D556B362B40404C45F29213ABA2EF6B286F6C8DE686D7488A9B8F26EB56D7EF6B0FBA1FC118D640ED522F5C2BA033CC245295C9B5BAA1DF1084E0160D33BE5639F5142ACB24D15523A257A44F9DAD32A2B56946BCE216B33C831FBB212CA665826F50
310
22EEA26B49A30D51AC5B29BD8C54183F2BE0978F9B0E3C303240A4AFAAC0C30F9DB57674A5CAA5A344E46D996D192210045BA2A546375EC152AB914ACBF5559D29A0EE0203B32A9EFF3A5934DB11BF4E16A9358C9F3A595CECFF40FB665FA491CE6365D7271D03EAFCA4A8BCC63140B71D6AAA751631C9DCCA6F9D2982A058
310
45F9C1D55815340CC13E8EFF73D6EECB8266BB0EFFA7656DFF49C5715256694D565DAA2395EBBA99C3CE66D3E97CB1588EE6FEF4C368BE5C2D46CBE56A353A5B7C985CBD9DBEB97CF7B64EC5867818D4C14CE72E783641AD1A564F1603E8CA8A9C92044EF389936288F912CEF403DAE73CC3029267B3D99DD8A6FC80D5F7A6
310
CF29D196E28A935B040D622A20AD8318652CDBE3CE6FD09A9470D03E77A169E4DDC19FB54AD781CC73EE42AB4092180B6F0B6D26D5D0D3C421E5EADC6F894120432C5529D12CAA9FEB550A9B56F8AFA70C490356AE560F030AB702BA5FAD0E85E6CDF2149F2478C58E8324DC6E4B09D59A91E530500BA3B739A8DFC84609BB
310
B35B3F82EB3E2F96EFE9392D44067D3278D6080CD591443CD5FD6EC598656979F9750C7D3667FDC5296899822E87531A710CC65CAA820AAC08ACC2D22C9004535DFD7EF395E7F0892773745574B3CAB32C67F66109E7B1043E11399B5BF8E093DC40D980555B5DDC4C27FEF446B7B36D873DDA22813D550FC140554628113A
310
C60616F9A435651B9763A584CEF4F5A563C327B4018C053DE9EE9ACF5B0E788FFA90A27C457B7825E7B31DEDB19E0AD6C0A1171DFE0B504B0304140006080000F24D5C40000000000000000000000000350000006662782F38373745303631412D343146412D344245442D413334302D4634313242414345444438382F7665
310
7274696365732E62696E504B0304140006080800F24D5C40F270F1330600000004000000360000006662782F38373745303631412D343146412D344245442D413334302D4634313242414345444438382F747269616E676C65732E62696E636660600000504B0304140006080000F24D5C4000000000000000000000000037
310
0000006662782F38373745303631412D343146412D344245442D413334302D4634313242414345444438382F617474726962757465732E62696E504B0304140006080800F24D5C40D5987DFC8F00000041010000360000006662782F38373745303631412D343146412D344245442D413334302D4634313242414345444438
310
382F6469726563746F72792E786D6C858F410EC2201045AF4266AF15DDB800BA74E7C21B903225242D6328188F2FA5C4183471359997F9FF81E89FF3C41E1816475E02DF1F80A11FC8386F25A438EECEC07A250251FC3803E6F58C12560C4AD840E95E91C151A72936F496F35732D860FE635F62C8F2DA16B505C545B74125
310
BAA2FA9E05D7CC053D063734D5C7665FD55B6B8D15D5E9BFEAFD8490FFA45E504B0304140006080800F24D5C40762D47FBFC000000A00100003B0000006662782F38373745303631412D343146412D344245442D413334302D4634313242414345444438382F7265736F75726365732F636F72652E786D6C8D50596E833010
310
BD0A9A7F830D342C328E68C30D7A01CB4CA89560232F558F5F9350A9FDEBCFCCE82D9AA7C7CF5FEB3DFB44E7B53503B09C428646D9599B658018AEA485EC2CB8B336FC924166E48A03EC3008BE381BB70352D6043421A1C6CE7880D27B0C90A97B3A06F0EA035799CB1892C2DFF24DAA9B5C306779A2934E701F5C0A903D9F
310
EC1384436FA353E879F164058F51CF8746CFE9A7BE6A7420BACB2BEB9AB124E338B6A4AE594DDAB7E642AAAEA52F533DB1A93AF162370B1EF4FA93513994016710256525A12529DB77DAF575D3570DA1A79E525EECF23FA6B8CDFF34456D42551E719F360F82A5200F42F062EF2BAD479969EFDD8A6F504B010214000A0000
310
080000F24D5C403DEE336E79000000790000001B00000000000000000000000000000000006175746F6465736B2D64657369676E2D7061636B6167652E786D6C504B01021400140006080800F24D5C40D486FD9CA0000000F40000001300000000000000000000000000B20000005B436F6E74656E745F54797065735D2E78
310
6D6C504B01021400140006080800F24D5C4065866963EA0000007C010000080000000000000000000000000083010000636F72652E786D6C504B01021400140006080800F24D5C4055019EA25F0000007C000000070000000000000000000000000093020000636E782E786D6C504B01021400140006080800F24D5C401E0B
310
932E66010000020300000C00000000000000000000000000170300006662782F636F72652E786D6C504B01021400140006080800F24D5C4077CEB1F47D0000009D0000000B00000000000000000000000000A70400006662782F636E782E786D6C504B01021400140006080800F24D5C40CA215BA62B010000140200003100
310
0000000000000000000000004D0500006662782F38373745303631412D343146412D344245442D413334302D4634313242414345444438382F636F72652E786D6C504B01021400140006080800F24D5C401B14011C55010000330300003000000000000000000000000000C70600006662782F38373745303631412D343146
310
412D344245442D413334302D4634313242414345444438382F636E782E786D6C504B01021400140006080800F24D5C401BC92D165A070000941B000034000000000000000000000000006A0800006662782F38373745303631412D343146412D344245442D413334302D4634313242414345444438382F6F626A656374732E
310
786D6C504B01021400140006080000F24D5C400000000000000000000000003500000000000000000000000000161000006662782F38373745303631412D343146412D344245442D413334302D4634313242414345444438382F76657274696365732E62696E504B01021400140006080800F24D5C40F270F1330600000004
310
0000003600000000000000000000000000691000006662782F38373745303631412D343146412D344245442D413334302D4634313242414345444438382F747269616E676C65732E62696E504B01021400140006080000F24D5C400000000000000000000000003700000000000000000000000000C31000006662782F3837
310
3745303631412D343146412D344245442D413334302D4634313242414345444438382F617474726962757465732E62696E504B01021400140006080800F24D5C40D5987DFC8F000000410100003600000000000000000000000000181100006662782F38373745303631412D343146412D344245442D413334302D46343132
310
42414345444438382F6469726563746F72792E786D6C504B01021400140006080800F24D5C40762D47FBFC000000A00100003B00000000000000000000000000FB1100006662782F38373745303631412D343146412D344245442D413334302D4634313242414345444438382F7265736F75726365732F636F72652E786D6C
310
504B0506000000000E000E0080040000501300000000
  0
XRECORD
  5
17
102
{ACAD_REACTORS
330
12
102
}
330
12
100
AcDbXrecord
280
     1
270
     1
271
     1
  0
XRECORD
  5
16
102
{ACAD_REACTORS
330
12
102
}
330
12
100
AcDbXrecord
280
     1
270
     1
271
     1
  0
XRECORD
  5
18
102
{ACAD_REACTORS
330
12
102
}
330
12
100
AcDbXrecord
280
     1
270
     1
271
     1
  0
XRECORD
  5
15
102
{ACAD_REACTORS
330
12
102
}
330
12
100
AcDbXrecord
280
     1
270
     1
271
     1
  0
XRECORD
  5
B18
102
{ACAD_REACTORS
330
22
102
}
330
22
100
AcDbXrecord
280
     1
102
MATERIAL
148
0.0
149
0.0
149
0.0
 93
        0
 94
      127
282
     0
 72
     0
 77
     0
171
     0
175
     0
179
     0
273
     0
  0
XRECORD
  5
24
102
{ACAD_REACTORS
330
22
102
}
330
22
100
AcDbXrecord
280
     1
270
     1
271
     1
  0
XRECORD
  5
23
102
{ACAD_REACTORS
330
22
102
}
330
22
100
AcDbXrecord
280
     1
270
     1
271
     1
  0
XRECORD
  5
BA
102
{ACAD_REACTORS
330
22
102
}
330
22
100
AcDbXrecord
280
     1
 70
     1
 90
1959938040
 71
     1
  1
45B42E23-E33D-40E8-9C08-5831AA1BB9FE
311
504B03040A0000080000F24D5C403DEE336E79000000790000001B0000006175746F6465736B2D64657369676E2D7061636B6167652E786D6C3C3F786D6C2076657273696F6E3D22312E302220656E636F64696E673D227574662D3822203F3E3C666F726D6174733E3C666F726D61743E687474703A2F2F736368656D612E
311
6175746F6465736B2E636F6D2F64657369676E2D7061636B6167652F323030393C2F666F726D61743E3C2F666F726D6174733E504B0304140006080800F24D5C40D486FD9CA0000000F4000000130000005B436F6E74656E745F54797065735D2E786D6C7D8EC10E82300C865F65E91D8A1E8C310C0EEA1BF002731658846E
311
D98AC1B77784ABF1D8FE5FBFBF75BBCE937A534CCEB38643598122B6FEE978D0B0485F9C41B54DDD7D022595594E1A469170414C76A4D9A4D207E29CF43ECE46F218070CC6BECC4078ACAA135ACF422C856C0E68EA1BF5669944DDD7BCDE7B1F8E415D77AECB980613C2E4AC91FC167A2B244592486606FC29C8FD7F045B9A
311
EF7053A7E60B504B0304140006080800F24D5C4056481EFFEA0000007C01000008000000636F72652E786D6C8D90416EC3201045AF82668F8DED0427162632AE7A825E0001715162B00C543D7E71E248EDAEAB19FDF96F66F4D9E57BBEA32FB306EB5D0F55410019A7BCB66EEA21C52B3E01BA70B67A1F7FD90039399B1E36
311
19389B569F965D52DE45E362569DD766176508260252F7DCF410D4A799652153CC8E702B16A96E723245F5EA329C92D5E879C4EABCCF5EAD5981134A8418C6119F8EE4880F843658D091E2A17D17673188A17D6B59B9C19C453BBFEEABD5C86834F09A54352635AE4F1FE4DC1DDAAEA198D08E10566EF63F505AF43FA1645D
311
6CEAFDDD27168057F991C780B372CB22974750B96EB9F11F504B0304140006080800F24D5C4055019EA25F0000007C00000007000000636E782E786D6C4DCB3B0E80201045D1AD90E915ED2CF8AC45050C11660C8261F98AB1B07AC9C97D42D718D865D3E909258CFD00CCE24AC6E326A164D74DC0B4128928FF326038472B
311
A13128B1252AC747C6BAB984FC68F0B87FE8960A5C09FE86CFB69FBA01504B0304140006080800F24D5C403350ABFB66010000020300000C0000006662782F636F72652E786D6C8D52ED8E8320107C15C27F046DABBD0669B4977B827B01AAD433553008A68F7FEB47E3F5D2348D0992999DDDD9517EBCB50D1A94ED6BA353
311
1C060C23A50B53D6BA4AB17717B2C7E828B835C6FD29C348CB56A57884B1E09535BE5BA0C268A7B403549B522DA0EC7BE5302A1AB8A4B82F7E542B03E91D54F4D7A093C555562A0803A0A14EF0DE593080E621E389C5E57CE374C605F7BE2E17B62E615A7DA995C582C52CCFB3D389EC776C47B62CDE903C3EC5244BBEF28F
311
3CCBB3E433E174140BEEEAF6EEAEB04A3A556211B130222C22D1FE9B7D1CB6C9611313161F18E3742C7F10F9AE7C53E46BED36D1627796F55884606422FE6D0B1139D4CB01FC50C1E91822BCA6841F838640206427CFCD7D8F2B40832A9CB15B604AE3576A908D573095A1E9E17466A1F3D400367BDA277AD1E7750FF88052
311
57604D3AB89EBD1BA7F379EA1245A72C19DC0D69635BD9ACE6668BEBB90E7A2A2F4C63EC3B6ABAAC4A9730E9F8F78A5F504B0304140006080800F24D5C40B46E00637C0000009D0000000B0000006662782F636E782E786D6C4DCCD10AC2201886E15B91FFDCF66B920BD441B60B19CD0DC9E9308D2EBF2D76D0D1070F1FAF
311
EA3E4B206F975F3E450DEC84405C7CA4D1C759432D136D817446E594CADF0D481C16A76167306ACEA9AE078D6E1A6A289B061F9F077294F68C0C2913D853C12F96B6D7BBA537C92C67BC4721111AA39A5F69DB3D6CBE504B0304140006080800F24D5C402968B8622701000014020000310000006662782F32303743333031
311
302D313430452D343236432D383944432D4237314332313245303437302F636F72652E786D6C8D51CB6EC32010FC15C4293DE000A176126122D5CD1FF407884D1294182C1E553EBF4BED48ED2D1716CDCECC8E76E5E131DED1B709D17AD76256518C8CEBFD60DDA5C5399DC916A38392C1FBF4878691D3A3697181B19297E0
311
F3B440BD77C9B804A8F38359401DA34918F577F8B438F65733EA4AE7048C78AB26DDDFF4C554AC8236F0948C294000340F292F569C36DD86324A98A0472278DD91EDEEB3231F0DEB38E3472A1A2AD7B350C99CEDB0C8ED0071ECD99AF0AA49112B99ECF88CDF07A393198A9E714239E1DB2FBADB8B66BFA909ADF7142617FA
311
3F519E861745D9BAB4E14BDC5916B162723D37941C7C3EDD9F61CC63F221A1326F154DFF8615AD28678DA81948662A2C003C6BB178C6E4032C78753B019BBDCFC6B550725D6E04E5F78050CB3DD50F504B0304140006080800F24D5C407CA64A7A4D01000033030000300000006662782F32303743333031302D313430452D
311
343236432D383944432D4237314332313245303437302F636E782E786D6CD593BD6E032110845F05D1DFAF4F17C7E2B094224F90222D86B543CCC1899F287EFB2C3676DCB84899069D668799D5278E6DBF6743BEC007EDEC44BBBAA504AC744ADBC34453DC576B4AB69C79E7E29D8D122B66986896296707EFD25224057B91
311
4C44D5687B2CA287E092971050CE37897152180C005B251461DE8152A0C8CD885F7BF0B80A8ABB13891F405E5FDE89DB7D828C81353985B326777096CFD27467A2441A11C24483FC8059D42245A7201C6B25A2A8BBFADAF560A7DF24922F5C2B93D724974F349F94978D6AE4C81A1C7216A2477AC5144F0B502E96C5682922
311
426ECEC68B87B3A46D1C87E2D508DEA3BB1B57C38061E7196751CF501CD28388A028EFDBAEAFDABEEAD76FEDF36678DAACC6AA1D376DCB9A6CE76CE79C29973006BC5B887436828D9477ACC9E347F88A8F28ED91B5F3A73F804400A5F542E796F19FF934E7F78DB83CFE05FC07504B0304140006080800F24D5C407F78DD33
311
9A0500007A100000340000006662782F32303743333031302D313430452D343236432D383944432D4237314332313245303437302F6F626A656374732E786D6CAD57DB6EDB3810FD1541FBEC8B6CA79B2C1415BE2485B1485BD468B10F010C4AA2146E285120A9D4D9AFDF4389BAB976EA5DF4C5B2A8E170E6CC990BFDF787
311
8C3B2F542A26F25BD71B4F5D87E69188599EDEBAA54E46D7AEF33EF0A510BA27E63A39C9E8AD6B96DDC04FA5280BBB14D384945C1FADDEAFFE72544473EA3A11274ADDBA2A7AA2191993528B98AAE7714C3419A7C961EC8D6BC1A1DA5492E2E948694124CD352CC57A0E2D4E6D94377C9DBA93C09F98EF816F7EADD4FCBCD4
311
A4F267783ECB952679F4C361476AE6DE627337BBBA195D2D16F3D1E2DDCC1BADEE579B91F7FB7CBA7EB75EDF2CEF6E70B0D2129AAC2592266EF001D84816F993FA53E0972CD7F39915B1019A48FAC24CA4DC60E678FEA49669BDB34E9E323F12794EA30A2BA051F96755C7B4A0798C9833AA60590FA1E9F0D53338F63ECFCD
311
BB3DB2BF7C1902FD1D3D458DEDCDB36FA908FF860BEA120649450D036B2CADA33557A71DC2A110DC7E63CAC988A69211EE70164A225FDD00A24624F0076A0C93A5C906E3811B200AF5E7215D90463FE7F9292B939273436337A8B2608F5CA15A5596B17FA8ECACEF23039B102BC3866BEB907E2DA81BDCD414B93E62530DA4
311
93709222E470D3EC9CCF8E1C5D9B3CDD6EDCE0CFFBF0B033B97BFAF0428A824A6DE8036A35816B9E06256B937751E4CC06F7C8940E942F40FE2352BD33057193ECB0382CEC295A925C254266888D33754653FC4C1DAFFA35FF7BFFFC49BB7918BD737822D806AA5F80E7D0877E2C7B7006FE0B082FE4DCBAB68B0847D97860
311
3900322471B8C012EA70121EDC608B2A87AA8C5D84071E5C86B92FF8EB4FAC1A148AEAA4DE3307964765F182020DD82A46C28C9AFCD6C02E4E3F94B3EA602B760EDEAB5F42D7E566F7E7AE940989E883CDE90D4D58CE345A5CC79BBE4103CC071E3DD3D7EF42C670F447BC777DBC337B9402DA0673037CDAD474F3D29D3C38
311
20C2BE549872E3FFE40438611A6B4FFF035311E59CE45494CDB96FF60FB48D1A6293EC86C96D83E91A0B48537F39CA4134E948B2C280D876ABB6688ECF78F775FB118C843C1721E19D50D895DE487021F7E1EBBEAE4A2791FE36A4B6856062B480ED558E34E96F31DFC72C494A851A7802D66FDB753F74A62AA042345AEB64
311
59C07DE4169196B38D5E346B49D04845BE67689B48BB9307F4F503514B804AE1398B15E5C99E715E66FB847134A37D468A3370FC7FFBC3322BF6241365AECFE81E988EE630B47D405EF59DE8E8C90D76D573B442E98D69DC8579206C5AC909AC06A15D5CAD16B3BBD97C74379F6F468BE9DDF5E8663DBD1E5D5DCFBDE5D25B
311
AD6EEEEF9A38D5CA03BFE934FD844694D0D9FC52321BBEAF5BA48FAD016EF040B47AFC506767F3FCBA1D6314F627D88376D96E5CC62F18FB68FC73059DE44945DBACE034A3B92626851ECC1FFE8560CC181853AF6F3392D20BB47CFAB03B72062B17ECFB6CD29D7E3FDA6B57D726214F2AD14F6516E684F1A38D698DE4B8C8
311
538B5F1393F659F799E6D5BCD9C060305582B318653076522A32AA510C2FE84132A30AD4EB8FF4B1BD7A5CB0FBA51E103509396D2C79229891B9425A805A65A487EBCE6F98E9CC5875EBA2DB8E9FF1632B85EB8033B72E6674CD22AAC621FAB399842AE5E0527F90C7DC4FF29463D4AE37B5EFED2E83CDA023B722978C4FD6
311
AFBA825B0750460A8C0D9887109DCA98C0AF6CB3DFA3FFE478638E4334FE86A56E7DE9165A67AA6390A2B553F6B28019E6D91E7D40A2BEED9637AE6406885C74C97A9304B5D6912632AD2E0AC63E6BD272F3798201C5D97E720A5EA688E5E59A469282CCA54970B008ACB03A0BA241D5F51F8F9FA5C0453673EE1928F0B816
311
592672FBB2B4176167F7846B6DFC88B240CD7D443DCEA6DEECB1BA07D8ABC93E248A8E49AC9EB180984AD6423C083C18595F16D181EA0FADDCC404E1889BDB8D635BDA024A2D51FA55D5C0828923A70EB2C7DC254DAEF4058A37AF02934A1426480CF1C1BF504B0304140006080000F24D5C40000000000000000000000000
311
350000006662782F32303743333031302D313430452D343236432D383944432D4237314332313245303437302F76657274696365732E62696E504B0304140006080800F24D5C40F270F1330600000004000000360000006662782F32303743333031302D313430452D343236432D383944432D423731433231324530343730
311
2F747269616E676C65732E62696E636660600000504B0304140006080000F24D5C40000000000000000000000000370000006662782F32303743333031302D313430452D343236432D383944432D4237314332313245303437302F617474726962757465732E62696E504B0304140006080800F24D5C40D5987DFC8F000000
311
41010000360000006662782F32303743333031302D313430452D343236432D383944432D4237314332313245303437302F6469726563746F72792E786D6C858F410EC2201045AF4266AF15DDB800BA74E7C21B903225242D6328188F2FA5C4183471359997F9FF81E89FF3C41E1816475E02DF1F80A11FC8386F25A438EECE
311
C07A250251FC3803E6F58C12560C4AD840E95E91C151A72936F496F35732D860FE635F62C8F2DA16B505C545B74125BAA2FA9E05D7CC053D063734D5C7665FD55B6B8D15D5E9BFEAFD8490FFA45E504B0304140006080800F24D5C4045E33067FC000000A00100003B0000006662782F32303743333031302D313430452D34
311
3236432D383944432D4237314332313245303437302F7265736F75726365732F636F72652E786D6C8D504B6E833010BD0A9ABDC1400209328E70AA9EA017B0CC84580936F2A7EAF16B0295DA5D3733A3F7D13C3D76F99A9FD9273AAFADE9A1CC296468941DB5997A88E1464E905D3873D6865F32C88C9CB1871506CE2667E3
311
B243CA9A802624D4D81177507A8F0132F54C470F5EDD7196B98C2129FC235FA47AC809F3324F74D271E6834B01B2EDC93A813BF4363A859E151BCB598C7ADC357A4C3FF54DA3034E1B2AC47015E474A44772A04D4D44736DC8D0BE8BB318C4D0BEB5AC58CD9C053DFF64540E65C0117845CB8AD08A54A70F7AEE0E6D573784
311
361DA5AC58E57F4C7119FF698ADA84BADAE36E360FBC4C415E0467C5DA575AAF32D35EBBE5DF504B010214000A0000080000F24D5C403DEE336E79000000790000001B00000000000000000000000000000000006175746F6465736B2D64657369676E2D7061636B6167652E786D6C504B01021400140006080800F24D5C40
311
D486FD9CA0000000F40000001300000000000000000000000000B20000005B436F6E74656E745F54797065735D2E786D6C504B01021400140006080800F24D5C4056481EFFEA0000007C010000080000000000000000000000000083010000636F72652E786D6C504B01021400140006080800F24D5C4055019EA25F000000
311
7C000000070000000000000000000000000093020000636E782E786D6C504B01021400140006080800F24D5C403350ABFB66010000020300000C00000000000000000000000000170300006662782F636F72652E786D6C504B01021400140006080800F24D5C40B46E00637C0000009D0000000B0000000000000000000000
311
0000A70400006662782F636E782E786D6C504B01021400140006080800F24D5C402968B862270100001402000031000000000000000000000000004C0500006662782F32303743333031302D313430452D343236432D383944432D4237314332313245303437302F636F72652E786D6C504B01021400140006080800F24D5C
311
407CA64A7A4D010000330300003000000000000000000000000000C20600006662782F32303743333031302D313430452D343236432D383944432D4237314332313245303437302F636E782E786D6C504B01021400140006080800F24D5C407F78DD339A0500007A10000034000000000000000000000000005D0800006662
311
782F32303743333031302D313430452D343236432D383944432D4237314332313245303437302F6F626A656374732E786D6C504B01021400140006080000F24D5C400000000000000000000000003500000000000000000000000000490E00006662782F32303743333031302D313430452D343236432D383944432D423731
311
4332313245303437302F76657274696365732E62696E504B01021400140006080800F24D5C40F270F133060000000400000036000000000000000000000000009C0E00006662782F32303743333031302D313430452D343236432D383944432D4237314332313245303437302F747269616E676C65732E62696E504B010214
311
00140006080000F24D5C400000000000000000000000003700000000000000000000000000F60E00006662782F32303743333031302D313430452D343236432D383944432D4237314332313245303437302F617474726962757465732E62696E504B01021400140006080800F24D5C40D5987DFC8F00000041010000360000
311
00000000000000000000004B0F00006662782F32303743333031302D313430452D343236432D383944432D4237314332313245303437302F6469726563746F72792E786D6C504B01021400140006080800F24D5C4045E33067FC000000A00100003B000000000000000000000000002E1000006662782F3230374333303130
311
2D313430452D343236432D383944432D4237314332313245303437302F7265736F75726365732F636F72652E786D6C504B0506000000000E000E0080040000831100000000
310
504B03040A0000080000F24D5C403DEE336E79000000790000001B0000006175746F6465736B2D64657369676E2D7061636B6167652E786D6C3C3F786D6C2076657273696F6E3D22312E302220656E636F64696E673D227574662D3822203F3E3C666F726D6174733E3C666F726D61743E687474703A2F2F736368656D612E
310
6175746F6465736B2E636F6D2F64657369676E2D7061636B6167652F323030393C2F666F726D61743E3C2F666F726D6174733E504B0304140006080800F24D5C40D486FD9CA0000000F4000000130000005B436F6E74656E745F54797065735D2E786D6C7D8EC10E82300C865F65E91D8A1E8C310C0EEA1BF002731658846E
310
D98AC1B77784ABF1D8FE5FBFBF75BBCE937A534CCEB38643598122B6FEE978D0B0485F9C41B54DDD7D022595594E1A469170414C76A4D9A4D207E29CF43ECE46F218070CC6BECC4078ACAA135ACF422C856C0E68EA1BF5669944DDD7BCDE7B1F8E415D77AECB980613C2E4AC91FC167A2B244592486606FC29C8FD7F045B9A
310
EF7053A7E60B504B0304140006080800F24D5C40D12CBAE3EA0000007C01000008000000636F72652E786D6C8D90D16E842010457F85CC3B8AE85A35C8461BFB05FD0102AC4B760523D0F4F38BBB6ED2BEF5692677EE99995C76FE5EEEE84B6FDE38DB43911140DA4AA78C9D7B88E1821B4067CE36E7C22F1B202B16DDC32E
310
0367F3E6E27A48D2D9A06D48AA754A1FA2F05E0740F29E9A1EBCBCEA45642286E4F0B76C15F226669D15AF2EC1311A859E478C4AFBCCC5E80DF8349EAA9694136EA761C0D558D5781CDE473C0DF4E344EA8AB675C3F21DE62C98E5755F6E5A04AD805352504C28A6CD2769BBEAAD2B6B4CEA8E1096EFF63F505CD53FA1686C
310
28E9F1EE13F3C08BF4C863C059BE6791CA23A854F7DCF80F504B0304140006080800F24D5C4055019EA25F0000007C00000007000000636E782E786D6C4DCB3B0E80201045D1AD90E915ED2CF8AC45050C11660C8261F98AB1B07AC9C97D42D718D865D3E909258CFD00CCE24AC6E326A164D74DC0B4128928FF326038472B
310
A13128B1252AC747C6BAB984FC68F0B87FE8960A5C09FE86CFB69FBA01504B0304140006080800F24D5C402C29C5CC67010000020300000C0000006662782F636F72652E786D6C8D52ED8E8230107C95A6FF4B0B2227A6D4E8C57B827B810A956B84D69496F8F8B77C18CE8B3186A434333BBBB3037C776B1BD42BD7696B0A
310
1C470C23654A5B69531738F833D960B413DC59EBFF94616464AB0A3CC058F0DAD9709DA1D21AAF8C07D4D84ACDA0EC3AE5312A1BB814B82B7F542B23193C547497E82ACB8BAC55144740439DE09D7760004D4386138BF3E9C6E9840B1E82AE665657304D9FB572581C0FEB3467AB23C98FFB3D490F69460EFBCF0339EE93AF
310
35CBD224CF369C0E62C1BD6EEFEE4AA7A4571516098B13C212926CBE59BE4D3FB6AB8CB06CCB18A743F983285CAB3745411BBF4A66BB93ACC322062323F16F5B88C8A34EF6E0870A4E8710E13526FC18340402217B796AEE7B5C00EA55E9AD4B81A96C58A85E3641C15486C687D38985CE6303D8EC699FE4459FD73DE0034A
310
538335E9E17A0A7E98CEA7A9731457E548EF6FC858D7CA663137595CCE65D05379691BEBDE51D379553A874987BF57FC02504B0304140006080800F24D5C408F92F12E7E0000009D0000000B0000006662782F636E782E786D6C4DCCD10A83201886E15B91FFDC956ECB043586E57DC4B290990EA76397BF1A1DECE883878F
310
57749FD5A3B74D2F17830472AA01D9708F930B8B849267DC02EA944831E6BF1BA030AE56C2CEA0C49262791E34D9792C3E6FEA5D781CD85246EA2B35D890738F2F7D63301F08C55A0F9A31DEB01BA7502951FD4ADBEE61F505504B0304140006080800F24D5C4037723CA82A01000014020000310000006662782F38323731
310
303532462D463133442D344436462D394531322D4343454337373936374139322F636F72652E786D6C8D51CB6E833010FC15E4537A3018430D44C65195C717F4071CECA456828DFCA8F2F95D0A91DA5B2E5E6B766676B4CB778FF19E7D6B1F8CB33D2A7382326D07A78CBDF628C50B6E51B613DC3B17FFD05066E5A87B34C3
310
48F0AB77695AA1C1D9A86D04D43AA5575086A023CA863B7C7A14862F3DCA5CA6088C70CB2739DCE455E7650E6DE0091EA28700D932647E9168695392777AC2A7B23AE0FAC04EB83B9614EFF7C77DD374ACF9E8282F16A1E02919B5CA8D8238E662B47FD564160B1ECDF88C3F782DA3564850021309C5B4FD24DDB66EB615C3
310
846D09E1C54CFF274A937A51948C8D155DE32EB28044C98BA521B872E97C7F86D18FC9F998CDF336410F6F48909C50C61A58102F162A2C003C59BD7A86E83C2C78733B03BB5A8D592D7831DF08CAEF01A1CEF7143F504B0304140006080800F24D5C401A01856D5401000033030000300000006662782F3832373130353246
310
2D463133442D344436462D394531322D4343454337373936374139322F636E782E786D6CBD93CD6EC32010845F0571F76F2C378D30917AE813F4D02B864D4283C1025C356FDF2521692E3954AA7A41D6EC30B3FA84D9F66B32E4137CD0CE0EB4296B4AC04AA7B4DD0F7489BB624DC99633EF5CBCB35162C504034D32E56CEF
310
DD326749C14E2C26A26AB43D66D143708B9710504E37897152180C005B2C28C2348252A0C8CD885F3BF0B80A8AE389C40390D79777E2C60F9031B02AA57056A50ECED2999BEE4C944823421868900798442996E8148463A9441465535EBB1EECF49344D2856BE5E23549E5034D27E579A31239B20A879C85E8915E36C5D30C
310
948B79365A8A8890ABB3F1E2E16CD136F65DF66A04EFD1BD6AFBF51AC3CE33CEA29E203BA407114151DED64D5BD46DD1AEDFEAE74DF7B459F545DD6FEA9A55C9CED9E89CC9973006BC9B897436828D9437AC4AE347F8B28F28ED91B5F3A75F804400B9F542E796F1977C9A7ED575FFC8A73ABF6FC4E5F12FE0DF504B030414
310
0006080800F24D5C40184A94A757070000931B0000340000006662782F38323731303532462D463133442D344436462D394531322D4343454337373936374139322F6F626A656374732E786D6CED595B6FA33814FE2B887D0E09B9CCB62BCAA84DDA2A1A756634D919ED432464C021DE1A836CD3CBFEFA3D3686000D2DD9E9
310
BECD430218FBF89CEF5C7DF03E3EA5D47AC05C908C5DD8AE33B12DCCA22C262CB9B00BB91B9DD9D647DFE359261BD36C8BA1145FD86AD8F6BD8467456E8662BC4305959DD19BABBF2C1161866D2BA248880B5B447B9C220715328BB1B87762249193EC9E1CD72927B6C9261CE5FB0ED11C71CC24700AE30CA85825536EFB71
310
628F7D6FACDEFB9EFA37B3668366CDFB678DB5D46D2E091312B1E8054B1D32B3412CCDDCF9EA7ABA381F2DE6F3D968FE61EA8EAE6EAE5623F7F7D964F961B93CBFBC3E07F6C22CA346A618E798C5A0BF67DB77BDB17A538B6E1038C675943186230D2440A5C5EA122458C0560DF826ED475749D478AD256C3CCFD57BC34263
310
78D6A6D2376B18102DBA2088D9AE92B8BA36E5CBC2BF417031C428B9C012B8159283760D3C1CBCC2F627DEB81CF5BDF0A00B22AC1449CC09A2162521471C940253D514DF2B171832CA393890B294045A73E5EBB66D8167BEED3AC7B8DC15942ACFB07DED5801B81F96427346FEC1FCC07D1319E009A42D089367864BF99C63
310
DB3FF7C67AD0F7D46536352F4B20AD1D4589D088946F3B822E95EBAF57B6FFE9267CDAA870707CF39C6739E652199DD2A3E60B0CD95C154A665B7790E6D40210A604D5AC3C80F20D90FF0CD1E3C00AE88D93A7F9D3DCCC951C31B1CB780ABAB126D668027F13CBD5FFEABE71E78DEBC56DEDF5E1096EAAA03AFB793CDB3268
310
AC0CFF0D387DEF010C3EE333F36A13210AF67C471800A48CC4A2190C4168DF854FB6BF86C009811E5621EABB2032B0FB00B7DED8903968A5722FE3750C10357BCC86280960D316096CF4E8E916B20727D1414D4D11FBE05DBC8BB95EAE369F3605DFA108DF199F5EE11D614442D63CCE500BF39644F7F8F931E33108FA12EF
310
4D13EFD46C25006D85B9023EA940500F879D5B1B44B02EC954B8F1DED8018450B9BA41FF8E8808538A18CE8A6ADF3ABA2943AD3DDED40CB63F2D219E4D3B26CCF10351550538CD61468B51C8FB1127B902D1F66F4BC9EAA0E9F448F77DFD192CB29EDF336BCD20F43244FFD441EB080E2DCBAE903640D4028787701E6534E3
310
41F81C9491CE865A02D8687BCB8F165188F5A5921415F020ED775548494A698398EC768580B87A84C51FEB65D31C26CECC5D58CDFF8E33CE21DA82EF226EFCAEB347405294E06087E2BEED9ABBD5B48526D9439AE31D05B9C80391CF0192C124C6C929D09C44FCFC5DA927341382302C205F1D05BF89C6C48140526AB36259
310
69B5033411418A25A2A720A0C8F480ABD38EAE7123281DDEE6B1B6DED734D624FA3F590447504B662C20508A420E799371D759400C69A35BA2DCC117ACADA2ADC5A0059410D173F08849B297A7A05E92EFC13D82234921832C471198F500B22F7C4529B5C37B88A27B953F82A8A0EF652002D35D40282DD2007E84C1C96388
310
6BD781E955141AC4CBD827710A451992051FB2C987C5E4C53E65CDD00D818D8D768442D80E5294F7A0DE0A88BA1EB16AF00DF51EA586459A0728CD0A36C8509C59D79B0CF9AE5A15D981FCAA5211CAC68AB021E87B84C93AAB56311B4C5D075670231DA89E0381D29C96A7B037128F5B7B93A6DCBB01377EFABE1BA450F8F5
310
68AF1951E7150C86C75661201E918CF6B6BFD1D7D115D4DF318E0FA9BEAA359B152020A62279C18951D1F7359437A646B3FD3B24C5F6B6CCBAD5F5FBDA81EE8737863550BBD40BD70AE8143389546572A76EE8370421B845A31C5FAB9C7A0A95CB38D65523A237A44F9DAD32A2B5694A9C7C8F5996C28F6D098B6811E32D8A
310
C57D702769B0218A7523A593920AE35705FC72BBE9C003230344FAAA0A3CFCD8596B4697AA5C3A4A44EE8B34648840106C899694BA717296188D545AAEAFEA4C017517189851F1FCD7C9A2D98EF875B2488C61FCDCC9826621A28768D3C8E69132EB934E01757A5254DEE314A0BB0E35D53A8994B9DC886F7C2980985805F9
310
C1C55815334A827D1CFFE7A4DD9704CBED3AFC9F96B4DD1705C74949A5355935A98E14AEEB560A5B5CCDA7D7D3D9E87A365B8DE693EBB3D1F97272365A9CCDDCCB4BF7EAEAFCE6BA4653FBA9EFD5B14CA72E782E635A35AC9E0C06D094151925311CE6632BC110F2251CE90774CF798A05E4CE66AF3B363DF901AB1FCA36A7
310
4421C515277B04FD612A20AB03464524DBE3D66FD0999470CEBEB0A167E4DCC39FB14ADB82C4736143A74092080B27842E93EAE769E2907175EA37C4001FC4129511CB45F573BD4A61D38AFEF5942159C0C8D56A6140DD9643F3ABD5A0D0BC199EA29304AFD8B19084DBB09050AC95B21C066A61F43607F597B251C2EECDD6
310
4FE0BAAF8BE53A7A4E0B91415F0C5E358292EA48229EE876B762CCB074B9FA3A86369BB5FE62E5B4484097C3298D3806632E543D055604566168E64882A92EFFD87EE5197CE1492D5D146D97599A66CC3C5CC2712C862F44D6660FDF7BE22D540D5875D5C5763A71A75BDDCD360DF62044023BAA1C8281AA8A5022748C0D2C
310
F24567CAF42DC74A099DE9EB9565C2E702886AAB7DD1DC2DBF6E59E03DEA3B8AF215EDE1959CAF36B4C77A2A58038756B4FF2F504B0304140006080000F24D5C40000000000000000000000000350000006662782F38323731303532462D463133442D344436462D394531322D4343454337373936374139322F7665727469
310
6365732E62696E504B0304140006080800F24D5C40F270F1330600000004000000360000006662782F38323731303532462D463133442D344436462D394531322D4343454337373936374139322F747269616E676C65732E62696E636660600000504B0304140006080000F24D5C4000000000000000000000000037000000
310
6662782F38323731303532462D463133442D344436462D394531322D4343454337373936374139322F617474726962757465732E62696E504B0304140006080800F24D5C40D5987DFC8F00000041010000360000006662782F38323731303532462D463133442D344436462D394531322D4343454337373936374139322F64
310
69726563746F72792E786D6C858F410EC2201045AF4266AF15DDB800BA74E7C21B903225242D6328188F2FA5C4183471359997F9FF81E89FF3C41E1816475E02DF1F80A11FC8386F25A438EECEC07A250251FC3803E6F58C12560C4AD840E95E91C151A72936F496F35732D860FE635F62C8F2DA16B505C545B74125BAA2FA
310
9E05D7CC053D063734D5C7665FD55B6B8D15D5E9BFEAFD8490FFA45E504B0304140006080800F24D5C40C287947BFE000000A00100003B0000006662782F38323731303532462D463133442D344436462D394531322D4343454337373936374139322F7265736F75726365732F636F72652E786D6C8D504B6E833010BD0A9A
310
BDC1388406641C419B9EA017B0CC84580976E44FD5E3D74EA8D4EEBA9919BD8FE6E9F1E3D77A2B3ED1796DCD007549A140A3ECACCD32400C677280E228B8B336FC924161E48A036418045F9C8DF70D52D6043421A1C6CEB881D27B0C50A85B3A06F0EA82AB2C650C49E1AFE55DAAAB5CB0ACCB44279DE03EB814A0783EC913
310
84436FA353E879F564058F51CF9B46CFE9A73E6B74204ED3BEE9E8EE8D74A77124CDD4B4641A5F27721AD9FB9EB60DEBDA03AFB259F0A0D79F8CCAA10C388360B4668432C20E1FB4EB9B977ED712DAF694F22ACBFF98E27DFEA7296A13766C8BFBB47910750AF22004AF725F693DCA4C3B772BBE01504B010214000A000008
310
0000F24D5C403DEE336E79000000790000001B00000000000000000000000000000000006175746F6465736B2D64657369676E2D7061636B6167652E786D6C504B01021400140006080800F24D5C40D486FD9CA0000000F40000001300000000000000000000000000B20000005B436F6E74656E745F54797065735D2E786D
310
6C504B01021400140006080800F24D5C40D12CBAE3EA0000007C010000080000000000000000000000000083010000636F72652E786D6C504B01021400140006080800F24D5C4055019EA25F0000007C000000070000000000000000000000000093020000636E782E786D6C504B01021400140006080800F24D5C402C29C5
310
CC67010000020300000C00000000000000000000000000170300006662782F636F72652E786D6C504B01021400140006080800F24D5C408F92F12E7E0000009D0000000B00000000000000000000000000A80400006662782F636E782E786D6C504B01021400140006080800F24D5C4037723CA82A01000014020000310000
310
00000000000000000000004F0500006662782F38323731303532462D463133442D344436462D394531322D4343454337373936374139322F636F72652E786D6C504B01021400140006080800F24D5C401A01856D54010000330300003000000000000000000000000000C80600006662782F38323731303532462D46313344
310
2D344436462D394531322D4343454337373936374139322F636E782E786D6C504B01021400140006080800F24D5C40184A94A757070000931B000034000000000000000000000000006A0800006662782F38323731303532462D463133442D344436462D394531322D4343454337373936374139322F6F626A656374732E78
310
6D6C504B01021400140006080000F24D5C400000000000000000000000003500000000000000000000000000131000006662782F38323731303532462D463133442D344436462D394531322D4343454337373936374139322F76657274696365732E62696E504B01021400140006080800F24D5C40F270F133060000000400
310
00003600000000000000000000000000661000006662782F38323731303532462D463133442D344436462D394531322D4343454337373936374139322F747269616E676C65732E62696E504B01021400140006080000F24D5C400000000000000000000000003700000000000000000000000000C01000006662782F383237
310
31303532462D463133442D344436462D394531322D4343454337373936374139322F617474726962757465732E62696E504B01021400140006080800F24D5C40D5987DFC8F000000410100003600000000000000000000000000151100006662782F38323731303532462D463133442D344436462D394531322D4343454337
310
373936374139322F6469726563746F72792E786D6C504B01021400140006080800F24D5C40C287947BFE000000A00100003B00000000000000000000000000F81100006662782F38323731303532462D463133442D344436462D394531322D4343454337373936374139322F7265736F75726365732F636F72652E786D6C50
310
4B0506000000000E000E00800400004F1300000000
  0
XRECORD
  5
27
102
{ACAD_REACTORS
330
22
102
}
330
22
100
AcDbXrecord
280
     1
270
     1
271
     1
  0
XRECORD
  5
26
102
{ACAD_REACTORS
330
22
102
}
330
22
100
AcDbXrecord
280
     1
270
     1
271
     1
  0
XRECORD
  5
28
102
{ACAD_REACTORS
330
22
102
}
330
22
100
AcDbXrecord
280
     1
270
     1
271
     1
  0
XRECORD
  5
25
102
{ACAD_REACTORS
330
22
102
}
330
22
100
AcDbXrecord
280
     1
270
     1
271
     1
  0
XRECORD
  5
B11
102
{ACAD_REACTORS
330
B10
102
}
330
B10
100
AcDbXrecord
280
     1
102
ACAD_ROUNDTRIP_2012_MLEADER_STYLE
298
     1
  0
CELLSTYLEMAP
  5
B0F
102
{ACAD_REACTORS
330
B0E
102
}
330
B0E
100
AcDbCellStyleMap
 90
        3
300
CELLSTYLE
  1
TABLEFORMAT_BEGIN
 90
        5
170
     1
 91
        0
 92
    32768
 62
   257
 93
        1
300
CONTENTFORMAT
  1
CONTENTFORMAT_BEGIN
 90
        0
 91
        0
 92
      512
 93
        0
300

 40
0.0
140
1.0
 94
        5
 62
     0
340
55
144
0.25
309
CONTENTFORMAT_END
171
     0
 94
        0
309
TABLEFORMAT_END
  1
CELLSTYLE_BEGIN
 90
        1
 91
        1
300
_TITLE
309
CELLSTYLE_END
300
CELLSTYLE
  1
TABLEFORMAT_BEGIN
 90
        5
170
     1
 91
        0
 92
        0
 62
   257
 93
        1
300
CONTENTFORMAT
  1
CONTENTFORMAT_BEGIN
 90
        0
 91
        0
 92
      512
 93
        0
300

 40
0.0
140
1.0
 94
        5
 62
     0
340
55
144
0.18
309
CONTENTFORMAT_END
171
     0
 94
        0
309
TABLEFORMAT_END
  1
CELLSTYLE_BEGIN
 90
        2
 91
        1
300
_HEADER
309
CELLSTYLE_END
300
CELLSTYLE
  1
TABLEFORMAT_BEGIN
 90
        5
170
     1
 91
        0
 92
        0
 62
   257
 93
        1
300
CONTENTFORMAT
  1
CONTENTFORMAT_BEGIN
 90
        0
 91
        0
 92
      512
 93
        0
300

 40
0.0
140
1.0
 94
        2
 62
     0
340
55
144
0.18
309
CONTENTFORMAT_END
171
     0
 94
        0
309
TABLEFORMAT_END
  1
CELLSTYLE_BEGIN
 90
        3
 91
        2
300
_DATA
309
CELLSTYLE_END
  0
XRECORD
  5
B49
102
{ACAD_REACTORS
330
B0E
102
}
330
B0E
100
AcDbXrecord
280
     1
102
ACAD_ROUNDTRIP_PRE2007_TABLESTYLE
 90
      512
 91
        0
  1

 92
      512
 93
        0
  2

 94
      512
 95
        0
  3

  0
XRECORD
  5
B24
102
{ACAD_REACTORS
330
B23
102
}
330
B23
100
AcDbXrecord
280
     1
102
RTVSPropertyOp0
 70
     1
102
RTVSPropertyOp1
 70
     1
102
RTVSPropertyOp2
 70
     1
102
RTVSPropertyOp3
 70
     1
102
RTVSPropertyOp4
 70
     1
102
RTVSPropertyOp5
 70
     1
102
RTVSPropertyOp6
 70
     1
102
RTVSPropertyOp7
 70
     1
102
RTVSPropertyOp8
 70
     1
102
RTVSPropertyOp9
 70
     1
102
RTVSPropertyOp10
 70
     1
102
RTVSPropertyOp11
 70
     1
102
RTVSPropertyOp12
 70
     1
102
RTVSPropertyOp13
 70
     1
102
RTVSPropertyOp14
 70
     1
102
RTVSPropertyOp15
 70
     1
102
RTVSPropertyOp16
 70
     1
102
RTVSPropertyOp17
 70
     1
102
RTVSPropertyOp18
 70
     1
102
RTVSPropertyOp19
 70
     1
102
RTVSPropertyOp20
 70
     1
102
RTVSPropertyOp21
 70
     1
102
RTVSPropertyOp22
 70
     1
102
RTVSPropertyOp23
 70
     1
102
RTVSPropertyOp24
 70
     1
102
RTVSPropertyOp25
 70
     1
102
RTVSPropertyOp26
 70
     1
102
RTVSPropertyOp27
 70
     1
102
RTVSPropertyOp28
 70
     1
102
RTVSPropertyOp29
 70
     1
102
RTVSPropertyOp30
 70
     1
102
RTVSPropertyOp31
 70
     1
102
RTVSPropertyOp32
 70
     1
  0
XRECORD
  5
B22
102
{ACAD_REACTORS
330
B21
102
}
330
B21
100
AcDbXrecord
280
     1
102
RTVSPropertyOp0
 70
     1
102
RTVSPropertyOp1
 70
     1
102
RTVSPropertyOp2
 70
     1
102
RTVSPropertyOp3
 70
     1
102
RTVSPropertyOp4
 70
     1
102
RTVSPropertyOp5
 70
     1
102
RTVSPropertyOp6
 70
     1
102
RTVSPropertyOp7
 70
     1
102
RTVSPropertyOp8
 70
     1
102
RTVSPropertyOp9
 70
     1
102
RTVSPropertyOp10
 70
     1
102
RTVSPropertyOp11
 70
     1
102
RTVSPropertyOp12
 70
     1
102
RTVSPropertyOp13
 70
     1
102
RTVSPropertyOp14
 70
     1
102
RTVSPropertyOp15
 70
     1
102
RTVSPropertyOp16
 70
     1
102
RTVSPropertyOp17
 70
     1
102
RTVSPropertyOp18
 70
     1
102
RTVSPropertyOp19
 70
     1
102
RTVSPropertyOp20
 70
     1
102
RTVSPropertyOp21
 70
     1
102
RTVSPropertyOp22
 70
     1
102
RTVSPropertyOp23
 70
     1
102
RTVSPropertyOp24
 70
     1
102
RTVSPropertyOp25
 70
     1
102
RTVSPropertyOp26
 70
     1
102
RTVSPropertyOp27
 70
     1
102
RTVSPropertyOp28
 70
     1
102
RTVSPropertyOp29
 70
     1
102
RTVSPropertyOp30
 70
     1
102
RTVSPropertyOp31
 70
     1
102
RTVSPropertyOp32
 70
     1
  0
XRECORD
  5
B30
102
{ACAD_REACTORS
330
B2F
102
}
330
B2F
100
AcDbXrecord
280
     1
102
RTVSPropertyOp0
 70
     1
102
RTVSPropertyOp1
 70
     1
102
RTVSPropertyOp2
 70
     1
102
RTVSPropertyOp3
 70
     1
102
RTVSPropertyOp4
 70
     1
102
RTVSPropertyOp5
 70
     1
102
RTVSPropertyOp6
 70
     1
102
RTVSPropertyOp7
 70
     1
102
RTVSPropertyOp8
 70
     1
102
RTVSPropertyOp9
 70
     1
102
RTVSPropertyOp10
 70
     1
102
RTVSPropertyOp11
 70
     1
102
RTVSPropertyOp12
 70
     1
102
RTVSPropertyOp13
 70
     1
102
RTVSPropertyOp14
 70
     1
102
RTVSPropertyOp15
 70
     1
102
RTVSPropertyOp16
 70
     1
102
RTVSPropertyOp17
 70
     1
102
RTVSPropertyOp18
 70
     1
102
RTVSPropertyOp19
 70
     1
102
RTVSPropertyOp20
 70
     1
102
RTVSPropertyOp21
 70
     1
102
RTVSPropertyOp22
 70
     1
102
RTVSPropertyOp23
 70
     1
102
RTVSPropertyOp24
 70
     1
102
RTVSPropertyOp25
 70
     1
102
RTVSPropertyOp26
 70
     1
102
RTVSPropertyOp27
 70
     1
102
RTVSPropertyOp28
 70
     1
102
RTVSPropertyOp29
 70
     1
102
RTVSPropertyOp30
 70
     1
102
RTVSPropertyOp31
 70
     1
102
RTVSPropertyOp32
 70
     1
  0
XRECORD
  5
B38
102
{ACAD_REACTORS
330
B37
102
}
330
B37
100
AcDbXrecord
280
     1
102
RTVSPropertyOp0
 70
     1
102
RTVSPropertyOp1
 70
     1
102
RTVSPropertyOp2
 70
     1
102
RTVSPropertyOp3
 70
     1
102
RTVSPropertyOp4
 70
     1
102
RTVSPropertyOp5
 70
     1
102
RTVSPropertyOp6
 70
     1
102
RTVSPropertyOp7
 70
     1
102
RTVSPropertyOp8
 70
     1
102
RTVSPropertyOp9
 70
     1
102
RTVSPropertyOp10
 70
     1
102
RTVSPropertyOp11
 70
     1
102
RTVSPropertyOp12
 70
     1
102
RTVSPropertyOp13
 70
     1
102
RTVSPropertyOp14
 70
     1
102
RTVSPropertyOp15
 70
     1
102
RTVSPropertyOp16
 70
     1
102
RTVSPropertyOp17
 70
     1
102
RTVSPropertyOp18
 70
     1
102
RTVSPropertyOp19
 70
     1
102
RTVSPropertyOp20
 70
     1
102
RTVSPropertyOp21
 70
     1
102
RTVSPropertyOp22
 70
     1
102
RTVSPropertyOp23
 70
     1
102
RTVSPropertyOp24
 70
     1
102
RTVSPropertyOp25
 70
     1
102
RTVSPropertyOp26
 70
     1
102
RTVSPropertyOp27
 70
     1
102
RTVSPropertyOp28
 70
     1
102
RTVSPropertyOp29
 70
     1
102
RTVSPropertyOp30
 70
     1
102
RTVSPropertyOp31
 70
     1
102
RTVSPropertyOp32
 70
     1
  0
XRECORD
  5
B2A
102
{ACAD_REACTORS
330
B29
102
}
330
B29
100
AcDbXrecord
280
     1
102
RTVSPropertyOp0
 70
     1
102
RTVSPropertyOp1
 70
     1
102
RTVSPropertyOp2
 70
     1
102
RTVSPropertyOp3
 70
     1
102
RTVSPropertyOp4
 70
     1
102
RTVSPropertyOp5
 70
     1
102
RTVSPropertyOp6
 70
     1
102
RTVSPropertyOp7
 70
     1
102
RTVSPropertyOp8
 70
     1
102
RTVSPropertyOp9
 70
     1
102
RTVSPropertyOp10
 70
     1
102
RTVSPropertyOp11
 70
     1
102
RTVSPropertyOp12
 70
     1
102
RTVSPropertyOp13
 70
     1
102
RTVSPropertyOp14
 70
     1
102
RTVSPropertyOp15
 70
     1
102
RTVSPropertyOp16
 70
     1
102
RTVSPropertyOp17
 70
     1
102
RTVSPropertyOp18
 70
     1
102
RTVSPropertyOp19
 70
     1
102
RTVSPropertyOp20
 70
     1
102
RTVSPropertyOp21
 70
     1
102
RTVSPropertyOp22
 70
     1
102
RTVSPropertyOp23
 70
     1
102
RTVSPropertyOp24
 70
     1
102
RTVSPropertyOp25
 70
     1
102
RTVSPropertyOp26
 70
     1
102
RTVSPropertyOp27
 70
     1
102
RTVSPropertyOp28
 70
     1
102
RTVSPropertyOp29
 70
     1
102
RTVSPropertyOp30
 70
     1
102
RTVSPropertyOp31
 70
     1
102
RTVSPropertyOp32
 70
     1
  0
XRECORD
  5
B2E
102
{ACAD_REACTORS
330
B2D
102
}
330
B2D
100
AcDbXrecord
280
     1
102
RTVSPropertyOp0
 70
     1
102
RTVSPropertyOp1
 70
     1
102
RTVSPropertyOp2
 70
     1
102
RTVSPropertyOp3
 70
     1
102
RTVSPropertyOp4
 70
     1
102
RTVSPropertyOp5
 70
     1
102
RTVSPropertyOp6
 70
     1
102
RTVSPropertyOp7
 70
     1
102
RTVSPropertyOp8
 70
     1
102
RTVSPropertyOp9
 70
     1
102
RTVSPropertyOp10
 70
     1
102
RTVSPropertyOp11
 70
     1
102
RTVSPropertyOp12
 70
     1
102
RTVSPropertyOp13
 70
     1
102
RTVSPropertyOp14
 70
     1
102
RTVSPropertyOp15
 70
     1
102
RTVSPropertyOp16
 70
     1
102
RTVSPropertyOp17
 70
     1
102
RTVSPropertyOp18
 70
     1
102
RTVSPropertyOp19
 70
     1
102
RTVSPropertyOp20
 70
     1
102
RTVSPropertyOp21
 70
     1
102
RTVSPropertyOp22
 70
     1
102
RTVSPropertyOp23
 70
     1
102
RTVSPropertyOp24
 70
     1
102
RTVSPropertyOp25
 70
     1
102
RTVSPropertyOp26
 70
     1
102
RTVSPropertyOp27
 70
     1
102
RTVSPropertyOp28
 70
     1
102
RTVSPropertyOp29
 70
     1
102
RTVSPropertyOp30
 70
     1
102
RTVSPropertyOp31
 70
     1
102
RTVSPropertyOp32
 70
     1
  0
XRECORD
  5
B48
102
{ACAD_REACTORS
330
B47
102
}
330
B47
100
AcDbXrecord
280
     1
102
RTVSPropertyOp0
 70
     0
102
RTVSPropertyOp1
 70
     0
102
RTVSPropertyOp2
 70
     0
102
RTVSPropertyOp3
 70
     0
102
RTVSPropertyOp4
 70
     0
102
RTVSPropertyOp5
 70
     0
102
RTVSPropertyOp6
 70
     0
102
RTVSPropertyOp7
 70
     0
102
RTVSPropertyOp8
 70
     0
102
RTVSPropertyOp9
 70
     0
102
RTVSPropertyOp10
 70
     0
102
RTVSPropertyOp11
 70
     0
102
RTVSPropertyOp12
 70
     0
102
RTVSPropertyOp13
 70
     0
102
RTVSPropertyOp14
 70
     2
102
RTVSPropertyOp15
 70
     0
102
RTVSPropertyOp16
 70
     0
102
RTVSPropertyOp17
 70
     0
102
RTVSPropertyOp18
 70
     0
102
RTVSPropertyOp19
 70
     0
102
RTVSPropertyOp20
 70
     0
102
RTVSPropertyOp21
 70
     0
102
RTVSPropertyOp22
 70
     0
102
RTVSPropertyOp23
 70
     0
102
RTVSPropertyOp24
 70
     0
102
RTVSPropertyOp25
 70
     0
102
RTVSPropertyOp26
 70
     0
102
RTVSPropertyOp27
 70
     0
102
RTVSPropertyOp28
 70
     1
102
RTVSPropertyOp29
 70
     1
102
RTVSPropertyOp30
 70
     1
102
RTVSPropertyOp31
 70
     1
102
RTVSPropertyOp32
 70
     1
  0
XRECORD
  5
B36
102
{ACAD_REACTORS
330
B35
102
}
330
B35
100
AcDbXrecord
280
     1
102
RTVSPropertyOp0
 70
     1
102
RTVSPropertyOp1
 70
     1
102
RTVSPropertyOp2
 70
     1
102
RTVSPropertyOp3
 70
     1
102
RTVSPropertyOp4
 70
     1
102
RTVSPropertyOp5
 70
     1
102
RTVSPropertyOp6
 70
     1
102
RTVSPropertyOp7
 70
     1
102
RTVSPropertyOp8
 70
     1
102
RTVSPropertyOp9
 70
     1
102
RTVSPropertyOp10
 70
     1
102
RTVSPropertyOp11
 70
     1
102
RTVSPropertyOp12
 70
     1
102
RTVSPropertyOp13
 70
     1
102
RTVSPropertyOp14
 70
     1
102
RTVSPropertyOp15
 70
     1
102
RTVSPropertyOp16
 70
     1
102
RTVSPropertyOp17
 70
     1
102
RTVSPropertyOp18
 70
     1
102
RTVSPropertyOp19
 70
     1
102
RTVSPropertyOp20
 70
     1
102
RTVSPropertyOp21
 70
     1
102
RTVSPropertyOp22
 70
     1
102
RTVSPropertyOp23
 70
     1
102
RTVSPropertyOp24
 70
     1
102
RTVSPropertyOp25
 70
     1
102
RTVSPropertyOp26
 70
     1
102
RTVSPropertyOp27
 70
     1
102
RTVSPropertyOp28
 70
     1
102
RTVSPropertyOp29
 70
     1
102
RTVSPropertyOp30
 70
     1
102
RTVSPropertyOp31
 70
     1
102
RTVSPropertyOp32
 70
     1
  0
XRECORD
  5
B1A
102
{ACAD_REACTORS
330
B19
102
}
330
B19
100
AcDbXrecord
280
     1
102
RTVSPropertyOp0
 70
     1
102
RTVSPropertyOp1
 70
     1
102
RTVSPropertyOp2
 70
     1
102
RTVSPropertyOp3
 70
     1
102
RTVSPropertyOp4
 70
     1
102
RTVSPropertyOp5
 70
     1
102
RTVSPropertyOp6
 70
     1
102
RTVSPropertyOp7
 70
     1
102
RTVSPropertyOp8
 70
     1
102
RTVSPropertyOp9
 70
     1
102
RTVSPropertyOp10
 70
     1
102
RTVSPropertyOp11
 70
     1
102
RTVSPropertyOp12
 70
     1
102
RTVSPropertyOp13
 70
     1
102
RTVSPropertyOp14
 70
     1
102
RTVSPropertyOp15
 70
     1
102
RTVSPropertyOp16
 70
     1
102
RTVSPropertyOp17
 70
     1
102
RTVSPropertyOp18
 70
     1
102
RTVSPropertyOp19
 70
     1
102
RTVSPropertyOp20
 70
     1
102
RTVSPropertyOp21
 70
     1
102
RTVSPropertyOp22
 70
     1
102
RTVSPropertyOp23
 70
     1
102
RTVSPropertyOp24
 70
     1
102
RTVSPropertyOp25
 70
     1
102
RTVSPropertyOp26
 70
     1
102
RTVSPropertyOp27
 70
     1
102
RTVSPropertyOp28
 70
     1
102
RTVSPropertyOp29
 70
     1
102
RTVSPropertyOp30
 70
     1
102
RTVSPropertyOp31
 70
     1
102
RTVSPropertyOp32
 70
     1
  0
XRECORD
  5
B1C
102
{ACAD_REACTORS
330
B1B
102
}
330
B1B
100
AcDbXrecord
280
     1
102
RTVSPropertyOp0
 70
     1
102
RTVSPropertyOp1
 70
     1
102
RTVSPropertyOp2
 70
     1
102
RTVSPropertyOp3
 70
     1
102
RTVSPropertyOp4
 70
     1
102
RTVSPropertyOp5
 70
     1
102
RTVSPropertyOp6
 70
     1
102
RTVSPropertyOp7
 70
     1
102
RTVSPropertyOp8
 70
     1
102
RTVSPropertyOp9
 70
     1
102
RTVSPropertyOp10
 70
     1
102
RTVSPropertyOp11
 70
     1
102
RTVSPropertyOp12
 70
     1
102
RTVSPropertyOp13
 70
     1
102
RTVSPropertyOp14
 70
     1
102
RTVSPropertyOp15
 70
     1
102
RTVSPropertyOp16
 70
     1
102
RTVSPropertyOp17
 70
     1
102
RTVSPropertyOp18
 70
     1
102
RTVSPropertyOp19
 70
     1
102
RTVSPropertyOp20
 70
     1
102
RTVSPropertyOp21
 70
     1
102
RTVSPropertyOp22
 70
     1
102
RTVSPropertyOp23
 70
     1
102
RTVSPropertyOp24
 70
     1
102
RTVSPropertyOp25
 70
     1
102
RTVSPropertyOp26
 70
     1
102
RTVSPropertyOp27
 70
     1
102
RTVSPropertyOp28
 70
     1
102
RTVSPropertyOp29
 70
     1
102
RTVSPropertyOp30
 70
     1
102
RTVSPropertyOp31
 70
     1
102
RTVSPropertyOp32
 70
     1
  0
XRECORD
  5
B1E
102
{ACAD_REACTORS
330
B1D
102
}
330
B1D
100
AcDbXrecord
280
     1
102
RTVSPropertyOp0
 70
     1
102
RTVSPropertyOp1
 70
     1
102
RTVSPropertyOp2
 70
     1
102
RTVSPropertyOp3
 70
     1
102
RTVSPropertyOp4
 70
     1
102
RTVSPropertyOp5
 70
     1
102
RTVSPropertyOp6
 70
     1
102
RTVSPropertyOp7
 70
     1
102
RTVSPropertyOp8
 70
     1
102
RTVSPropertyOp9
 70
     1
102
RTVSPropertyOp10
 70
     1
102
RTVSPropertyOp11
 70
     1
102
RTVSPropertyOp12
 70
     1
102
RTVSPropertyOp13
 70
     1
102
RTVSPropertyOp14
 70
     1
102
RTVSPropertyOp15
 70
     1
102
RTVSPropertyOp16
 70
     1
102
RTVSPropertyOp17
 70
     1
102
RTVSPropertyOp18
 70
     1
102
RTVSPropertyOp19
 70
     1
102
RTVSPropertyOp20
 70
     1
102
RTVSPropertyOp21
 70
     1
102
RTVSPropertyOp22
 70
     1
102
RTVSPropertyOp23
 70
     1
102
RTVSPropertyOp24
 70
     1
102
RTVSPropertyOp25
 70
     1
102
RTVSPropertyOp26
 70
     1
102
RTVSPropertyOp27
 70
     1
102
RTVSPropertyOp28
 70
     1
102
RTVSPropertyOp29
 70
     1
102
RTVSPropertyOp30
 70
     1
102
RTVSPropertyOp31
 70
     1
102
RTVSPropertyOp32
 70
     1
  0
XRECORD
  5
B20
102
{ACAD_REACTORS
330
B1F
102
}
330
B1F
100
AcDbXrecord
280
     1
102
RTVSPropertyOp0
 70
     1
102
RTVSPropertyOp1
 70
     1
102
RTVSPropertyOp2
 70
     1
102
RTVSPropertyOp3
 70
     1
102
RTVSPropertyOp4
 70
     1
102
RTVSPropertyOp5
 70
     1
102
RTVSPropertyOp6
 70
     1
102
RTVSPropertyOp7
 70
     1
102
RTVSPropertyOp8
 70
     1
102
RTVSPropertyOp9
 70
     1
102
RTVSPropertyOp10
 70
     1
102
RTVSPropertyOp11
 70
     1
102
RTVSPropertyOp12
 70
     1
102
RTVSPropertyOp13
 70
     1
102
RTVSPropertyOp14
 70
     1
102
RTVSPropertyOp15
 70
     1
102
RTVSPropertyOp16
 70
     1
102
RTVSPropertyOp17
 70
     1
102
RTVSPropertyOp18
 70
     1
102
RTVSPropertyOp19
 70
     1
102
RTVSPropertyOp20
 70
     1
102
RTVSPropertyOp21
 70
     1
102
RTVSPropertyOp22
 70
     1
102
RTVSPropertyOp23
 70
     1
102
RTVSPropertyOp24
 70
     1
102
RTVSPropertyOp25
 70
     1
102
RTVSPropertyOp26
 70
     1
102
RTVSPropertyOp27
 70
     1
102
RTVSPropertyOp28
 70
     1
102
RTVSPropertyOp29
 70
     1
102
RTVSPropertyOp30
 70
     1
102
RTVSPropertyOp31
 70
     1
102
RTVSPropertyOp32
 70
     1
  0
XRECORD
  5
B28
102
{ACAD_REACTORS
330
B27
102
}
330
B27
100
AcDbXrecord
280
     1
102
RTVSPropertyOp0
 70
     1
102
RTVSPropertyOp1
 70
     1
102
RTVSPropertyOp2
 70
     1
102
RTVSPropertyOp3
 70
     1
102
RTVSPropertyOp4
 70
     1
102
RTVSPropertyOp5
 70
     1
102
RTVSPropertyOp6
 70
     1
102
RTVSPropertyOp7
 70
     1
102
RTVSPropertyOp8
 70
     1
102
RTVSPropertyOp9
 70
     1
102
RTVSPropertyOp10
 70
     1
102
RTVSPropertyOp11
 70
     1
102
RTVSPropertyOp12
 70
     1
102
RTVSPropertyOp13
 70
     1
102
RTVSPropertyOp14
 70
     1
102
RTVSPropertyOp15
 70
     1
102
RTVSPropertyOp16
 70
     1
102
RTVSPropertyOp17
 70
     1
102
RTVSPropertyOp18
 70
     1
102
RTVSPropertyOp19
 70
     1
102
RTVSPropertyOp20
 70
     1
102
RTVSPropertyOp21
 70
     1
102
RTVSPropertyOp22
 70
     1
102
RTVSPropertyOp23
 70
     1
102
RTVSPropertyOp24
 70
     1
102
RTVSPropertyOp25
 70
     1
102
RTVSPropertyOp26
 70
     1
102
RTVSPropertyOp27
 70
     1
102
RTVSPropertyOp28
 70
     1
102
RTVSPropertyOp29
 70
     1
102
RTVSPropertyOp30
 70
     1
102
RTVSPropertyOp31
 70
     1
102
RTVSPropertyOp32
 70
     1
  0
XRECORD
  5
B44
102
{ACAD_REACTORS
330
B43
102
}
330
B43
100
AcDbXrecord
280
     1
102
RTVSPropertyOp0
 70
     0
102
RTVSPropertyOp1
 70
     0
102
RTVSPropertyOp2
 70
     0
102
RTVSPropertyOp3
 70
     0
102
RTVSPropertyOp4
 70
     0
102
RTVSPropertyOp5
 70
     0
102
RTVSPropertyOp6
 70
     0
102
RTVSPropertyOp7
 70
     0
102
RTVSPropertyOp8
 70
     0
102
RTVSPropertyOp9
 70
     0
102
RTVSPropertyOp10
 70
     0
102
RTVSPropertyOp11
 70
     0
102
RTVSPropertyOp12
 70
     0
102
RTVSPropertyOp13
 70
     0
102
RTVSPropertyOp14
 70
     2
102
RTVSPropertyOp15
 70
     0
102
RTVSPropertyOp16
 70
     0
102
RTVSPropertyOp17
 70
     0
102
RTVSPropertyOp18
 70
     0
102
RTVSPropertyOp19
 70
     0
102
RTVSPropertyOp20
 70
     0
102
RTVSPropertyOp21
 70
     0
102
RTVSPropertyOp22
 70
     0
102
RTVSPropertyOp23
 70
     0
102
RTVSPropertyOp24
 70
     0
102
RTVSPropertyOp25
 70
     0
102
RTVSPropertyOp26
 70
     0
102
RTVSPropertyOp27
 70
     0
102
RTVSPropertyOp28
 70
     1
102
RTVSPropertyOp29
 70
     1
102
RTVSPropertyOp30
 70
     1
102
RTVSPropertyOp31
 70
     1
102
RTVSPropertyOp32
 70
     1
  0
XRECORD
  5
B34
102
{ACAD_REACTORS
330
B33
102
}
330
B33
100
AcDbXrecord
280
     1
102
RTVSPropertyOp0
 70
     1
102
RTVSPropertyOp1
 70
     1
102
RTVSPropertyOp2
 70
     1
102
RTVSPropertyOp3
 70
     1
102
RTVSPropertyOp4
 70
     1
102
RTVSPropertyOp5
 70
     1
102
RTVSPropertyOp6
 70
     1
102
RTVSPropertyOp7
 70
     1
102
RTVSPropertyOp8
 70
     1
102
RTVSPropertyOp9
 70
     1
102
RTVSPropertyOp10
 70
     1
102
RTVSPropertyOp11
 70
     1
102
RTVSPropertyOp12
 70
     1
102
RTVSPropertyOp13
 70
     1
102
RTVSPropertyOp14
 70
     1
102
RTVSPropertyOp15
 70
     1
102
RTVSPropertyOp16
 70
     1
102
RTVSPropertyOp17
 70
     1
102
RTVSPropertyOp18
 70
     1
102
RTVSPropertyOp19
 70
     1
102
RTVSPropertyOp20
 70
     1
102
RTVSPropertyOp21
 70
     1
102
RTVSPropertyOp22
 70
     1
102
RTVSPropertyOp23
 70
     1
102
RTVSPropertyOp24
 70
     1
102
RTVSPropertyOp25
 70
     1
102
RTVSPropertyOp26
 70
     1
102
RTVSPropertyOp27
 70
     1
102
RTVSPropertyOp28
 70
     1
102
RTVSPropertyOp29
 70
     1
102
RTVSPropertyOp30
 70
     1
102
RTVSPropertyOp31
 70
     1
102
RTVSPropertyOp32
 70
     1
  0
XRECORD
  5
B46
102
{ACAD_REACTORS
330
B45
102
}
330
B45
100
AcDbXrecord
280
     1
102
RTVSPropertyOp0
 70
     0
102
RTVSPropertyOp1
 70
     0
102
RTVSPropertyOp2
 70
     0
102
RTVSPropertyOp3
 70
     0
102
RTVSPropertyOp4
 70
     0
102
RTVSPropertyOp5
 70
     0
102
RTVSPropertyOp6
 70
     0
102
RTVSPropertyOp7
 70
     0
102
RTVSPropertyOp8
 70
     0
102
RTVSPropertyOp9
 70
     0
102
RTVSPropertyOp10
 70
     0
102
RTVSPropertyOp11
 70
     0
102
RTVSPropertyOp12
 70
     0
102
RTVSPropertyOp13
 70
     0
102
RTVSPropertyOp14
 70
     2
102
RTVSPropertyOp15
 70
     0
102
RTVSPropertyOp16
 70
     0
102
RTVSPropertyOp17
 70
     0
102
RTVSPropertyOp18
 70
     0
102
RTVSPropertyOp19
 70
     0
102
RTVSPropertyOp20
 70
     0
102
RTVSPropertyOp21
 70
     0
102
RTVSPropertyOp22
 70
     0
102
RTVSPropertyOp23
 70
     0
102
RTVSPropertyOp24
 70
     0
102
RTVSPropertyOp25
 70
     0
102
RTVSPropertyOp26
 70
     0
102
RTVSPropertyOp27
 70
     0
102
RTVSPropertyOp28
 70
     1
102
RTVSPropertyOp29
 70
     1
102
RTVSPropertyOp30
 70
     1
102
RTVSPropertyOp31
 70
     1
102
RTVSPropertyOp32
 70
     1
  0
XRECORD
  5
B2C
102
{ACAD_REACTORS
330
B2B
102
}
330
B2B
100
AcDbXrecord
280
     1
102
RTVSPropertyOp0
 70
     1
102
RTVSPropertyOp1
 70
     1
102
RTVSPropertyOp2
 70
     1
102
RTVSPropertyOp3
 70
     1
102
RTVSPropertyOp4
 70
     1
102
RTVSPropertyOp5
 70
     1
102
RTVSPropertyOp6
 70
     1
102
RTVSPropertyOp7
 70
     1
102
RTVSPropertyOp8
 70
     1
102
RTVSPropertyOp9
 70
     1
102
RTVSPropertyOp10
 70
     1
102
RTVSPropertyOp11
 70
     1
102
RTVSPropertyOp12
 70
     1
102
RTVSPropertyOp13
 70
     1
102
RTVSPropertyOp14
 70
     1
102
RTVSPropertyOp15
 70
     1
102
RTVSPropertyOp16
 70
     1
102
RTVSPropertyOp17
 70
     1
102
RTVSPropertyOp18
 70
     1
102
RTVSPropertyOp19
 70
     1
102
RTVSPropertyOp20
 70
     1
102
RTVSPropertyOp21
 70
     1
102
RTVSPropertyOp22
 70
     1
102
RTVSPropertyOp23
 70
     1
102
RTVSPropertyOp24
 70
     1
102
RTVSPropertyOp25
 70
     1
102
RTVSPropertyOp26
 70
     1
102
RTVSPropertyOp27
 70
     1
102
RTVSPropertyOp28
 70
     1
102
RTVSPropertyOp29
 70
     1
102
RTVSPropertyOp30
 70
     1
102
RTVSPropertyOp31
 70
     1
102
RTVSPropertyOp32
 70
     1
  0
XRECORD
  5
B42
102
{ACAD_REACTORS
330
B41
102
}
330
B41
100
AcDbXrecord
280
     1
102
RTVSPropertyOp0
 70
     1
102
RTVSPropertyOp1
 70
     1
102
RTVSPropertyOp2
 70
     1
102
RTVSPropertyOp3
 70
     1
102
RTVSPropertyOp4
 70
     1
102
RTVSPropertyOp5
 70
     1
102
RTVSPropertyOp6
 70
     1
102
RTVSPropertyOp7
 70
     1
102
RTVSPropertyOp8
 70
     1
102
RTVSPropertyOp9
 70
     1
102
RTVSPropertyOp10
 70
     1
102
RTVSPropertyOp11
 70
     1
102
RTVSPropertyOp12
 70
     1
102
RTVSPropertyOp13
 70
     1
102
RTVSPropertyOp14
 70
     1
102
RTVSPropertyOp15
 70
     1
102
RTVSPropertyOp16
 70
     1
102
RTVSPropertyOp17
 70
     1
102
RTVSPropertyOp18
 70
     1
102
RTVSPropertyOp19
 70
     1
102
RTVSPropertyOp20
 70
     1
102
RTVSPropertyOp21
 70
     1
102
RTVSPropertyOp22
 70
     1
102
RTVSPropertyOp23
 70
     1
102
RTVSPropertyOp24
 70
     1
102
RTVSPropertyOp25
 70
     1
102
RTVSPropertyOp26
 70
     1
102
RTVSPropertyOp27
 70
     1
102
RTVSPropertyOp28
 70
     1
102
RTVSPropertyOp29
 70
     1
102
RTVSPropertyOp30
 70
     1
102
RTVSPropertyOp31
 70
     1
102
RTVSPropertyOp32
 70
     1
  0
XRECORD
  5
B40
102
{ACAD_REACTORS
330
B3F
102
}
330
B3F
100
AcDbXrecord
280
     1
102
RTVSPropertyOp0
 70
     1
102
RTVSPropertyOp1
 70
     1
102
RTVSPropertyOp2
 70
     1
102
RTVSPropertyOp3
 70
     1
102
RTVSPropertyOp4
 70
     1
102
RTVSPropertyOp5
 70
     1
102
RTVSPropertyOp6
 70
     1
102
RTVSPropertyOp7
 70
     1
102
RTVSPropertyOp8
 70
     1
102
RTVSPropertyOp9
 70
     1
102
RTVSPropertyOp10
 70
     1
102
RTVSPropertyOp11
 70
     1
102
RTVSPropertyOp12
 70
     1
102
RTVSPropertyOp13
 70
     1
102
RTVSPropertyOp14
 70
     1
102
RTVSPropertyOp15
 70
     1
102
RTVSPropertyOp16
 70
     1
102
RTVSPropertyOp17
 70
     1
102
RTVSPropertyOp18
 70
     1
102
RTVSPropertyOp19
 70
     1
102
RTVSPropertyOp20
 70
     1
102
RTVSPropertyOp21
 70
     1
102
RTVSPropertyOp22
 70
     1
102
RTVSPropertyOp23
 70
     1
102
RTVSPropertyOp24
 70
     1
102
RTVSPropertyOp25
 70
     1
102
RTVSPropertyOp26
 70
     1
102
RTVSPropertyOp27
 70
     1
102
RTVSPropertyOp28
 70
     1
102
RTVSPropertyOp29
 70
     1
102
RTVSPropertyOp30
 70
     1
102
RTVSPropertyOp31
 70
     1
102
RTVSPropertyOp32
 70
     1
  0
XRECORD
  5
B3A
102
{ACAD_REACTORS
330
B39
102
}
330
B39
100
AcDbXrecord
280
     1
102
RTVSPropertyOp0
 70
     1
102
RTVSPropertyOp1
 70
     1
102
RTVSPropertyOp2
 70
     1
102
RTVSPropertyOp3
 70
     1
102
RTVSPropertyOp4
 70
     1
102
RTVSPropertyOp5
 70
     1
102
RTVSPropertyOp6
 70
     1
102
RTVSPropertyOp7
 70
     1
102
RTVSPropertyOp8
 70
     1
102
RTVSPropertyOp9
 70
     1
102
RTVSPropertyOp10
 70
     1
102
RTVSPropertyOp11
 70
     1
102
RTVSPropertyOp12
 70
     1
102
RTVSPropertyOp13
 70
     1
102
RTVSPropertyOp14
 70
     1
102
RTVSPropertyOp15
 70
     1
102
RTVSPropertyOp16
 70
     1
102
RTVSPropertyOp17
 70
     1
102
RTVSPropertyOp18
 70
     1
102
RTVSPropertyOp19
 70
     1
102
RTVSPropertyOp20
 70
     1
102
RTVSPropertyOp21
 70
     1
102
RTVSPropertyOp22
 70
     1
102
RTVSPropertyOp23
 70
     1
102
RTVSPropertyOp24
 70
     1
102
RTVSPropertyOp25
 70
     1
102
RTVSPropertyOp26
 70
     1
102
RTVSPropertyOp27
 70
     1
102
RTVSPropertyOp28
 70
     1
102
RTVSPropertyOp29
 70
     1
102
RTVSPropertyOp30
 70
     1
102
RTVSPropertyOp31
 70
     1
102
RTVSPropertyOp32
 70
     1
  0
XRECORD
  5
B3C
102
{ACAD_REACTORS
330
B3B
102
}
330
B3B
100
AcDbXrecord
280
     1
102
RTVSPropertyOp0
 70
     1
102
RTVSPropertyOp1
 70
     1
102
RTVSPropertyOp2
 70
     1
102
RTVSPropertyOp3
 70
     1
102
RTVSPropertyOp4
 70
     1
102
RTVSPropertyOp5
 70
     1
102
RTVSPropertyOp6
 70
     1
102
RTVSPropertyOp7
 70
     1
102
RTVSPropertyOp8
 70
     1
102
RTVSPropertyOp9
 70
     1
102
RTVSPropertyOp10
 70
     1
102
RTVSPropertyOp11
 70
     1
102
RTVSPropertyOp12
 70
     1
102
RTVSPropertyOp13
 70
     1
102
RTVSPropertyOp14
 70
     1
102
RTVSPropertyOp15
 70
     1
102
RTVSPropertyOp16
 70
     1
102
RTVSPropertyOp17
 70
     1
102
RTVSPropertyOp18
 70
     1
102
RTVSPropertyOp19
 70
     1
102
RTVSPropertyOp20
 70
     1
102
RTVSPropertyOp21
 70
     1
102
RTVSPropertyOp22
 70
     1
102
RTVSPropertyOp23
 70
     1
102
RTVSPropertyOp24
 70
     1
102
RTVSPropertyOp25
 70
     1
102
RTVSPropertyOp26
 70
     1
102
RTVSPropertyOp27
 70
     1
102
RTVSPropertyOp28
 70
     1
102
RTVSPropertyOp29
 70
     1
102
RTVSPropertyOp30
 70
     1
102
RTVSPropertyOp31
 70
     1
102
RTVSPropertyOp32
 70
     1
  0
XRECORD
  5
B32
102
{ACAD_REACTORS
330
B31
102
}
330
B31
100
AcDbXrecord
280
     1
102
RTVSPropertyOp0
 70
     1
102
RTVSPropertyOp1
 70
     1
102
RTVSPropertyOp2
 70
     1
102
RTVSPropertyOp3
 70
     1
102
RTVSPropertyOp4
 70
     1
102
RTVSPropertyOp5
 70
     1
102
RTVSPropertyOp6
 70
     1
102
RTVSPropertyOp7
 70
     1
102
RTVSPropertyOp8
 70
     1
102
RTVSPropertyOp9
 70
     1
102
RTVSPropertyOp10
 70
     1
102
RTVSPropertyOp11
 70
     1
102
RTVSPropertyOp12
 70
     1
102
RTVSPropertyOp13
 70
     1
102
RTVSPropertyOp14
 70
     1
102
RTVSPropertyOp15
 70
     1
102
RTVSPropertyOp16
 70
     1
102
RTVSPropertyOp17
 70
     1
102
RTVSPropertyOp18
 70
     1
102
RTVSPropertyOp19
 70
     1
102
RTVSPropertyOp20
 70
     1
102
RTVSPropertyOp21
 70
     1
102
RTVSPropertyOp22
 70
     1
102
RTVSPropertyOp23
 70
     1
102
RTVSPropertyOp24
 70
     1
102
RTVSPropertyOp25
 70
     1
102
RTVSPropertyOp26
 70
     1
102
RTVSPropertyOp27
 70
     1
102
RTVSPropertyOp28
 70
     1
102
RTVSPropertyOp29
 70
     1
102
RTVSPropertyOp30
 70
     1
102
RTVSPropertyOp31
 70
     1
102
RTVSPropertyOp32
 70
     1
  0
XRECORD
  5
B26
102
{ACAD_REACTORS
330
B25
102
}
330
B25
100
AcDbXrecord
280
     1
102
RTVSPropertyOp0
 70
     1
102
RTVSPropertyOp1
 70
     1
102
RTVSPropertyOp2
 70
     1
102
RTVSPropertyOp3
 70
     1
102
RTVSPropertyOp4
 70
     1
102
RTVSPropertyOp5
 70
     1
102
RTVSPropertyOp6
 70
     1
102
RTVSPropertyOp7
 70
     1
102
RTVSPropertyOp8
 70
     1
102
RTVSPropertyOp9
 70
     1
102
RTVSPropertyOp10
 70
     1
102
RTVSPropertyOp11
 70
     1
102
RTVSPropertyOp12
 70
     1
102
RTVSPropertyOp13
 70
     1
102
RTVSPropertyOp14
 70
     1
102
RTVSPropertyOp15
 70
     1
102
RTVSPropertyOp16
 70
     1
102
RTVSPropertyOp17
 70
     1
102
RTVSPropertyOp18
 70
     1
102
RTVSPropertyOp19
 70
     1
102
RTVSPropertyOp20
 70
     1
102
RTVSPropertyOp21
 70
     1
102
RTVSPropertyOp22
 70
     1
102
RTVSPropertyOp23
 70
     1
102
RTVSPropertyOp24
 70
     1
102
RTVSPropertyOp25
 70
     1
102
RTVSPropertyOp26
 70
     1
102
RTVSPropertyOp27
 70
     1
102
RTVSPropertyOp28
 70
     1
102
RTVSPropertyOp29
 70
     1
102
RTVSPropertyOp30
 70
     1
102
RTVSPropertyOp31
 70
     1
102
RTVSPropertyOp32
 70
     1
  0
XRECORD
  5
B3E
102
{ACAD_REACTORS
330
B3D
102
}
330
B3D
100
AcDbXrecord
280
     1
102
RTVSPropertyOp0
 70
     1
102
RTVSPropertyOp1
 70
     1
102
RTVSPropertyOp2
 70
     1
102
RTVSPropertyOp3
 70
     1
102
RTVSPropertyOp4
 70
     1
102
RTVSPropertyOp5
 70
     1
102
RTVSPropertyOp6
 70
     1
102
RTVSPropertyOp7
 70
     1
102
RTVSPropertyOp8
 70
     1
102
RTVSPropertyOp9
 70
     1
102
RTVSPropertyOp10
 70
     1
102
RTVSPropertyOp11
 70
     1
102
RTVSPropertyOp12
 70
     1
102
RTVSPropertyOp13
 70
     1
102
RTVSPropertyOp14
 70
     1
102
RTVSPropertyOp15
 70
     1
102
RTVSPropertyOp16
 70
     1
102
RTVSPropertyOp17
 70
     1
102
RTVSPropertyOp18
 70
     1
102
RTVSPropertyOp19
 70
     1
102
RTVSPropertyOp20
 70
     1
102
RTVSPropertyOp21
 70
     1
102
RTVSPropertyOp22
 70
     1
102
RTVSPropertyOp23
 70
     1
102
RTVSPropertyOp24
 70
     1
102
RTVSPropertyOp25
 70
     1
102
RTVSPropertyOp26
 70
     1
102
RTVSPropertyOp27
 70
     1
102
RTVSPropertyOp28
 70
     1
102
RTVSPropertyOp29
 70
     1
102
RTVSPropertyOp30
 70
     1
102
RTVSPropertyOp31
 70
     1
102
RTVSPropertyOp32
 70
     1
  0
ENDSEC
  0
EOF
