  0
SECTION
  2
HEADER
  9
$ACADVER
  1
AC1015
  9
$ACADMAINTVER
 70
    18
  9
$DWGCODEPAGE
  3
ANSI_1252
  9
$INSBASE
 10
0.0
 20
0.0
 30
0.0
  9
$EXTMIN
 10
0.0
 20
0.0
 30
0.0
  9
$EXTMAX
 10
170.0
 20
110.0
 30
0.0
  9
$LIMMIN
 10
0.0
 20
0.0
  9
$LIMMAX
 10
170.0
 20
110.0
  9
$ORTHOMODE
 70
     0
  9
$REGENMODE
 70
     1
  9
$FILLMODE
 70
     1
  9
$QTEXTMODE
 70
     0
  9
$MIRRTEXT
 70
     0
  9
$LTSCALE
 40
10.0
  9
$ATTMODE
 70
     1
  9
$TEXTSIZE
 40
0.2
  9
$TRACEWID
 40
0.05
  9
$TEXTSTYLE
  7
Standard
  9
$CLAYER
  8
0
  9
$CELTYPE
  6
ByLayer
  9
$CECOLOR
 62
   256
  9
$CELTSCALE
 40
1.0
  9
$DISPSILH
 70
     0
  9
$DIMSCALE
 40
1.0
  9
$DIMASZ
 40
0.0708661417322835
  9
$DIMEXO
 40
0.0625
  9
$DIMDLI
 40
0.38
  9
$DIMRND
 40
0.0
  9
$DIMDLE
 40
0.0
  9
$DIMEXE
 40
0.18
  9
$DIMTP
 40
0.0
  9
$DIMTM
 40
0.0
  9
$DIMTXT
 40
0.0708661417322835
  9
$DIMCEN
 40
0.09
  9
$DIMTSZ
 40
0.0
  9
$DIMTOL
 70
     0
  9
$DIMLIM
 70
     0
  9
$DIMTIH
 70
     1
  9
$DIMTOH
 70
     1
  9
$DIMSE1
 70
     0
  9
$DIMSE2
 70
     0
  9
$DIMTAD
 70
     0
  9
$DIMZIN
 70
     0
  9
$DIMBLK
  1

  9
$DIMASO
 70
     1
  9
$DIMSHO
 70
     1
  9
$DIMPOST
  1

  9
$DIMAPOST
  1

  9
$DIMALT
 70
     0
  9
$DIMALTD
 70
     2
  9
$DIMALTF
 40
25.4
  9
$DIMLFAC
 40
1.0
  9
$DIMTOFL
 70
     0
  9
$DIMTVP
 40
0.0
  9
$DIMTIX
 70
     0
  9
$DIMSOXD
 70
     0
  9
$DIMSAH
 70
     0
  9
$DIMBLK1
  1

  9
$DIMBLK2
  1

  9
$DIMSTYLE
  2
Standard
  9
$DIMCLRD
 70
     0
  9
$DIMCLRE
 70
     0
  9
$DIMCLRT
 70
     0
  9
$DIMTFAC
 40
1.0
  9
$DIMGAP
 40
0.09
  9
$DIMJUST
 70
     0
  9
$DIMSD1
 70
     0
  9
$DIMSD2
 70
     0
  9
$DIMTOLJ
 70
     1
  9
$DIMTZIN
 70
     0
  9
$DIMALTZ
 70
     0
  9
$DIMALTTZ
 70
     0
  9
$DIMUPT
 70
     0
  9
$DIMDEC
 70
     4
  9
$DIMTDEC
 70
     4
  9
$DIMALTU
 70
     2
  9
$DIMALTTD
 70
     2
  9
$DIMTXSTY
  7
Standard
  9
$DIMAUNIT
 70
     0
  9
$DIMADEC
 70
     0
  9
$DIMALTRND
 40
0.0
  9
$DIMAZIN
 70
     0
  9
$DIMDSEP
 70
    46
  9
$DIMATFIT
 70
     3
  9
$DIMFRAC
 70
     0
  9
$DIMLDRBLK
  1

  9
$DIMLUNIT
 70
     2
  9
$DIMLWD
 70
    -2
  9
$DIMLWE
 70
    -2
  9
$DIMTMOVE
 70
     0
  9
$LUNITS
 70
     2
  9
$LUPREC
 70
     4
  9
$SKETCHINC
 40
0.1
  9
$FILLETRAD
 40
0.0
  9
$AUNITS
 70
     0
  9
$AUPREC
 70
     0
  9
$MENU
  1
.
  9
$ELEVATION
 40
0.0
  9
$PELEVATION
 40
0.0
  9
$THICKNESS
 40
0.0
  9
$LIMCHECK
 70
     0
  9
$CHAMFERA
 40
0.0
  9
$CHAMFERB
 40
0.0
  9
$CHAMFERC
 40
0.0
  9
$CHAMFERD
 40
0.0
  9
$SKPOLY
 70
     0
  9
$TDCREATE
 40
2455986.455855788
  9
$TDUCREATE
 40
2455986.705855787
  9
$TDUPDATE
 40
2455986.455855972
  9
$TDUUPDATE
 40
2455986.705855973
  9
$TDINDWG
 40
0.0000365394
  9
$TDUSRTIMER
 40
0.0000365394
  9
$USRTIMER
 70
     1
  9
$ANGBASE
 50
0.0
  9
$ANGDIR
 70
     0
  9
$PDMODE
 70
     0
  9
$PDSIZE
 40
0.0
  9
$PLINEWID
 40
0.0
  9
$SPLFRAME
 70
     0
  9
$SPLINETYPE
 70
     6
  9
$SPLINESEGS
 70
     8
  9
$HANDSEED
  5
C5D
  9
$SURFTAB1
 70
     6
  9
$SURFTAB2
 70
     6
  9
$SURFTYPE
 70
     6
  9
$SURFU
 70
     6
  9
$SURFV
 70
     6
  9
$UCSBASE
  2

  9
$UCSNAME
  2

  9
$UCSORG
 10
0.0
 20
0.0
 30
0.0
  9
$UCSXDIR
 10
1.0
 20
0.0
 30
0.0
  9
$UCSYDIR
 10
0.0
 20
1.0
 30
0.0
  9
$UCSORTHOREF
  2

  9
$UCSORTHOVIEW
 70
     0
  9
$UCSORGTOP
 10
0.0
 20
0.0
 30
0.0
  9
$UCSORGBOTTOM
 10
0.0
 20
0.0
 30
0.0
  9
$UCSORGLEFT
 10
0.0
 20
0.0
 30
0.0
  9
$UCSORGRIGHT
 10
0.0
 20
0.0
 30
0.0
  9
$UCSORGFRONT
 10
0.0
 20
0.0
 30
0.0
  9
$UCSORGBACK
 10
0.0
 20
0.0
 30
0.0
  9
$PUCSBASE
  2

  9
$PUCSNAME
  2

  9
$PUCSORG
 10
0.0
 20
0.0
 30
0.0
  9
$PUCSXDIR
 10
1.0
 20
0.0
 30
0.0
  9
$PUCSYDIR
 10
0.0
 20
1.0
 30
0.0
  9
$PUCSORTHOREF
  2

  9
$PUCSORTHOVIEW
 70
     0
  9
$PUCSORGTOP
 10
0.0
 20
0.0
 30
0.0
  9
$PUCSORGBOTTOM
 10
0.0
 20
0.0
 30
0.0
  9
$PUCSORGLEFT
 10
0.0
 20
0.0
 30
0.0
  9
$PUCSORGRIGHT
 10
0.0
 20
0.0
 30
0.0
  9
$PUCSORGFRONT
 10
0.0
 20
0.0
 30
0.0
  9
$PUCSORGBACK
 10
0.0
 20
0.0
 30
0.0
  9
$USERI1
 70
     0
  9
$USERI2
 70
     0
  9
$USERI3
 70
     0
  9
$USERI4
 70
     0
  9
$USERI5
 70
     0
  9
$USERR1
 40
0.0
  9
$USERR2
 40
0.0
  9
$USERR3
 40
0.0
  9
$USERR4
 40
0.0
  9
$USERR5
 40
0.0
  9
$WORLDVIEW
 70
     1
  9
$SHADEDGE
 70
     3
  9
$SHADEDIF
 70
    70
  9
$TILEMODE
 70
     1
  9
$MAXACTVP
 70
    64
  9
$PINSBASE
 10
0.0
 20
0.0
 30
0.0
  9
$PLIMCHECK
 70
     0
  9
$PEXTMIN
 10
0.0
 20
0.0
 30
0.0
  9
$PEXTMAX
 10
170.0
 20
110.0
 30
0.0
  9
$PLIMMIN
 10
0.0
 20
0.0
  9
$PLIMMAX
 10
170.0
 20
110.0
  9
$UNITMODE
 70
     0
  9
$VISRETAIN
 70
     1
  9
$PLINEGEN
 70
     0
  9
$PSLTSCALE
 70
     1
  9
$TREEDEPTH
 70
  3020
  9
$CMLSTYLE
  2
Standard
  9
$CMLJUST
 70
     0
  9
$CMLSCALE
 40
1.0
  9
$PROXYGRAPHICS
 70
     1
  9
$MEASUREMENT
 70
     0
  9
$CELWEIGHT
370
    -1
  9
$ENDCAPS
280
     0
  9
$JOINSTYLE
280
     0
  9
$LWDISPLAY
290
     0
  9
$INSUNITS
 70
     1
  9
$HYPERLINKBASE
  1

  9
$STYLESHEET
  1

  9
$XEDIT
290
     1
  9
$CEPSNTYPE
380
     0
  9
$PSTYLEMODE
290
     1
  9
$FINGERPRINTGUID
  2
{18D61D7A-E099-4EC0-BF0B-B5807C404E74}
  9
$VERSIONGUID
  2
{9CFBDAED-4661-4EE3-A350-0CCBC537B383}
  9
$EXTNAMES
290
     1
  9
$PSVPSCALE
 40
0.0
  9
$OLESTARTUP
290
     0
  0
ENDSEC
  0
SECTION
  2
CLASSES
  0
CLASS
  1
ACDBDICTIONARYWDFLT
  2
AcDbDictionaryWithDefault
  3
ObjectDBX Classes
 90
        0
280
     0
281
     0
  0
CLASS
  1
MATERIAL
  2
AcDbMaterial
  3
ObjectDBX Classes
 90
     1153
280
     0
281
     0
  0
CLASS
  1
VISUALSTYLE
  2
AcDbVisualStyle
  3
ObjectDBX Classes
 90
     4095
280
     0
281
     0
  0
CLASS
  1
SCALE
  2
AcDbScale
  3
ObjectDBX Classes
 90
     1153
280
     0
281
     0
  0
CLASS
  1
TABLESTYLE
  2
AcDbTableStyle
  3
ObjectDBX Classes
 90
     4095
280
     0
281
     0
  0
CLASS
  1
MLEADERSTYLE
  2
AcDbMLeaderStyle
  3
ACDB_MLEADERSTYLE_CLASS
 90
     4095
280
     0
281
     0
  0
CLASS
  1
DICTIONARYVAR
  2
AcDbDictionaryVar
  3
ObjectDBX Classes
 90
        0
280
     0
281
     0
  0
CLASS
  1
CELLSTYLEMAP
  2
AcDbCellStyleMap
  3
ObjectDBX Classes
 90
     1152
280
     0
281
     0
  0
CLASS
  1
ACDBPLACEHOLDER
  2
AcDbPlaceHolder
  3
ObjectDBX Classes
 90
        0
280
     0
281
     0
  0
CLASS
  1
LAYOUT
  2
AcDbLayout
  3
ObjectDBX Classes
 90
        0
280
     0
281
     0
  0
ENDSEC
  0
SECTION
  2
TABLES
  0
TABLE
  2
VPORT
  5
8
330
0
100
AcDbSymbolTable
 70
     1
  0
VPORT
  5
57
330
8
100
AcDbSymbolTableRecord
100
AcDbViewportTableRecord
  2
*Active
 70
     0
 10
0.0
 20
0.0
 11
1.0
 21
1.0
 12
85.0
 22
55.0
 13
0.0
 23
0.0
 14
1.0
 24
1.0
 15
0.0
 25
0.0
 16
0.0
 26
0.0
 36
1.0
 17
0.0
 27
0.0
 37
0.0
 40
110.0
 41
1.545454545454545
 42
50.0
 43
0.0
 44
0.0
 50
0.0
 51
0.0
 71
     0
 72
   100
 73
     1
 74
     1
 75
     0
 76
     0
 77
     0
 78
     0
281
     0
 65
     1
110
0.0
120
0.0
130
0.0
111
1.0
121
0.0
131
0.0
112
0.0
122
1.0
132
0.0
 79
     0
146
0.0
  0
ENDTAB
  0
TABLE
  2
LTYPE
  5
5
330
0
100
AcDbSymbolTable
 70
    59
  0
LTYPE
  5
5B
330
5
100
AcDbSymbolTableRecord
100
AcDbLinetypeTableRecord
  2
ByBlock
 70
     0
  3

 72
    65
 73
     0
 40
0.0
  0
LTYPE
  5
5C
330
5
100
AcDbSymbolTableRecord
100
AcDbLinetypeTableRecord
  2
ByLayer
 70
     0
  3

 72
    65
 73
     0
 40
0.0
  0
LTYPE
  5
5D
330
5
100
AcDbSymbolTableRecord
100
AcDbLinetypeTableRecord
  2
Continuous
 70
     0
  3
Solid line
 72
    65
 73
     0
 40
0.0
  0
LTYPE
  5
7C
330
5
100
AcDbSymbolTableRecord
100
AcDbLinetypeTableRecord
  2
BY_STANDARD
 70
     0
  3
By Standard ____________    ____    ____   _
 72
    65
 73
     6
 40
1.240299999999999
 49
0.6614
 74
     0
 49
-0.0827
 74
     0
 49
0.1654
 74
     0
 49
-0.0827
 74
     0
 49
0.1654
 74
     0
 49
-0.0827
 74
     0
  0
LTYPE
  5
7D
330
5
100
AcDbSymbolTableRecord
100
AcDbLinetypeTableRecord
  2
CHAIN
 70
     0
  3
Chain ____ _ ____ _ ____ _ ____ _ ____ _ ____
 72
    65
 73
     4
 40
0.7087
 49
0.4724000000000001
 74
     0
 49
-0.0591
 74
     0
 49
0.1181
 74
     0
 49
-0.0591
 74
     0
  0
LTYPE
  5
7E
330
5
100
AcDbSymbolTableRecord
100
AcDbLinetypeTableRecord
  2
DASH_DOT
 70
     0
  3
Dash dot __ . __ . __ . __ . __ . __ . __ . __
 72
    65
 73
     4
 40
0.37
 49
0.24
 74
     0
 49
-0.06
 74
     0
 49
0.01
 74
     0
 49
-0.06
 74
     0
  0
LTYPE
  5
7F
330
5
100
AcDbSymbolTableRecord
100
AcDbLinetypeTableRecord
  2
DOUBLE_DASH_DOT
 70
     0
  3
Double-Dash Dot __ __ . __ __ . __ __ . __ _
 72
    65
 73
     6
 40
0.4398
 49
0.24
 74
     0
 49
-0.06
 74
     0
 49
0.0098
 74
     0
 49
-0.06
 74
     0
 49
0.01
 74
     0
 49
-0.06
 74
     0
  0
LTYPE
  5
80
330
5
100
AcDbSymbolTableRecord
100
AcDbLinetypeTableRecord
  2
DASH_TRIPLE_DOT
 70
     0
  3
Dash Triple-Dot _ . . . _ . . . _ . . . _
 72
    65
 73
     8
 40
0.51
 49
0.24
 74
     0
 49
-0.06
 74
     0
 49
0.01
 74
     0
 49
-0.06
 74
     0
 49
0.01
 74
     0
 49
-0.06
 74
     0
 49
0.01
 74
     0
 49
-0.06
 74
     0
  0
LTYPE
  5
81
330
5
100
AcDbSymbolTableRecord
100
AcDbLinetypeTableRecord
  2
DASHED
 70
     0
  3
Dashed __ __ __ __ __ __ __ __ __ __ __ __ __ _
 72
    65
 73
     2
 40
0.2067
 49
0.1654
 74
     0
 49
-0.0413
 74
     0
  0
LTYPE
  5
82
330
5
100
AcDbSymbolTableRecord
100
AcDbLinetypeTableRecord
  2
DASH_DOUBLE_DOT
 70
     0
  3
Dash Double-Dot __ . . __ . . __ . . __ . .
 72
    65
 73
     6
 40
0.4398
 49
0.24
 74
     0
 49
-0.06
 74
     0
 49
0.0098
 74
     0
 49
-0.06
 74
     0
 49
0.01
 74
     0
 49
-0.06
 74
     0
  0
LTYPE
  5
83
330
5
100
AcDbSymbolTableRecord
100
AcDbLinetypeTableRecord
  2
DASHED_SPACE
 70
     0
  3
Dashed Space __ __ __ __ __ __ __ __ __ __ __ _
 72
    65
 73
     2
 40
0.2067
 49
0.1654
 74
     0
 49
-0.0413
 74
     0
  0
LTYPE
  5
84
330
5
100
AcDbSymbolTableRecord
100
AcDbLinetypeTableRecord
  2
DOTTED
 70
     0
  3
Dotted . . . . . . . . . . . . . . . . . . . . 
 72
    65
 73
     2
 40
0.0482
 49
0.0069
 74
     0
 49
-0.0413
 74
     0
  0
LTYPE
  5
85
330
5
100
AcDbSymbolTableRecord
100
AcDbLinetypeTableRecord
  2
DOUBLE_DASH_CHAIN
 70
     0
  3
Double-Dash Chain ______  __  __  ______  __  _
 72
    65
 73
     6
 40
1.240299999999999
 49
0.6614
 74
     0
 49
-0.0827
 74
     0
 49
0.1654
 74
     0
 49
-0.0827
 74
     0
 49
0.1654
 74
     0
 49
-0.0827
 74
     0
  0
LTYPE
  5
87
330
5
100
AcDbSymbolTableRecord
100
AcDbLinetypeTableRecord
  2
DOUBLE_DASH_DOUBLE_DOT
 70
     0
  3
Double-Dash Double-dot _ _ . . _ _ . . _
 72
    65
 73
     8
 40
0.7400000000000001
 49
0.24
 74
     0
 49
-0.06
 74
     0
 49
0.24
 74
     0
 49
-0.06
 74
     0
 49
0.01
 74
     0
 49
-0.06
 74
     0
 49
0.01
 74
     0
 49
-0.06
 74
     0
  0
LTYPE
  5
88
330
5
100
AcDbSymbolTableRecord
100
AcDbLinetypeTableRecord
  2
DOUBLE_DASH_TRIPLE_DOT
 70
     0
  3
Double Dash Triple Dot __ __ . . . __ __ . .
 72
    65
 73
    10
 40
0.8100000000000001
 49
0.24
 74
     0
 49
-0.06
 74
     0
 49
0.24
 74
     0
 49
-0.06
 74
     0
 49
0.01
 74
     0
 49
-0.06
 74
     0
 49
0.01
 74
     0
 49
-0.06
 74
     0
 49
0.01
 74
     0
 49
-0.06
 74
     0
  0
LTYPE
  5
89
330
5
100
AcDbSymbolTableRecord
100
AcDbLinetypeTableRecord
  2
LONG_DASH_DOTTED
 70
     0
  3
Long Dash Dotted ____ . ____ . ____ . ____ . _
 72
    65
 73
     4
 40
0.3543
 49
0.2362
 74
     0
 49
-0.0295
 74
     0
 49
0.0591
 74
     0
 49
-0.0295
 74
     0
  0
LTYPE
  5
8A
330
5
100
AcDbSymbolTableRecord
100
AcDbLinetypeTableRecord
  2
LONG_DASH_DOUBLE_DOT
 70
     0
  3
Long Dash Double Dot ________  .  .  ________  
 72
    65
 73
     6
 40
0.6799999999999999
 49
0.48
 74
     0
 49
-0.06
 74
     0
 49
0.01
 74
     0
 49
-0.06
 74
     0
 49
0.01
 74
     0
 49
-0.06
 74
     0
  0
LTYPE
  5
8B
330
5
100
AcDbSymbolTableRecord
100
AcDbLinetypeTableRecord
  2
LONG_DASH_TRIPLE_DOT
 70
     0
  3
Long Dash Triple Dot ____ ... ____ ... ____
 72
    65
 73
     8
 40
0.3689
 49
0.2362
 74
     0
 49
-0.0295
 74
     0
 49
0.0049
 74
     0
 49
-0.0295
 74
     0
 49
0.0049
 74
     0
 49
-0.0295
 74
     0
 49
0.0049
 74
     0
 49
-0.0295
 74
     0
  0
LTYPE
  5
8C
330
5
100
AcDbSymbolTableRecord
100
AcDbLinetypeTableRecord
  2
BORDER
 70
     0
  3
Border __ __ . __ __ . __ __ . __ __ . __ __ .
 72
    65
 73
     6
 40
1.75
 49
0.5
 74
     0
 49
-0.25
 74
     0
 49
0.5
 74
     0
 49
-0.25
 74
     0
 49
0.0
 74
     0
 49
-0.25
 74
     0
  0
LTYPE
  5
8D
330
5
100
AcDbSymbolTableRecord
100
AcDbLinetypeTableRecord
  2
BORDER2
 70
     0
  3
Border (.5x) __.__.__.__.__.__.__.__.__.__.__.
 72
    65
 73
     6
 40
0.875
 49
0.25
 74
     0
 49
-0.125
 74
     0
 49
0.25
 74
     0
 49
-0.125
 74
     0
 49
0.0
 74
     0
 49
-0.125
 74
     0
  0
LTYPE
  5
8E
330
5
100
AcDbSymbolTableRecord
100
AcDbLinetypeTableRecord
  2
BORDERX2
 70
     0
  3
Border (2x) ____  ____  .  ____  ____  .  ___
 72
    65
 73
     6
 40
3.5
 49
1.0
 74
     0
 49
-0.5
 74
     0
 49
1.0
 74
     0
 49
-0.5
 74
     0
 49
0.0
 74
     0
 49
-0.5
 74
     0
  0
LTYPE
  5
8F
330
5
100
AcDbSymbolTableRecord
100
AcDbLinetypeTableRecord
  2
CENTER
 70
     0
  3
Center ____ _ ____ _ ____ _ ____ _ ____ _ ____
 72
    65
 73
     4
 40
2.0
 49
1.25
 74
     0
 49
-0.25
 74
     0
 49
0.25
 74
     0
 49
-0.25
 74
     0
  0
LTYPE
  5
90
330
5
100
AcDbSymbolTableRecord
100
AcDbLinetypeTableRecord
  2
CENTER2
 70
     0
  3
Center (.5x) ___ _ ___ _ ___ _ ___ _ ___ _ ___
 72
    65
 73
     4
 40
1.125
 49
0.75
 74
     0
 49
-0.125
 74
     0
 49
0.125
 74
     0
 49
-0.125
 74
     0
  0
LTYPE
  5
91
330
5
100
AcDbSymbolTableRecord
100
AcDbLinetypeTableRecord
  2
CENTERX2
 70
     0
  3
Center (2x) ________  __  ________  __  _____
 72
    65
 73
     4
 40
4.0
 49
2.5
 74
     0
 49
-0.5
 74
     0
 49
0.5
 74
     0
 49
-0.5
 74
     0
  0
LTYPE
  5
92
330
5
100
AcDbSymbolTableRecord
100
AcDbLinetypeTableRecord
  2
DASHDOT2
 70
     0
  3
Dash dot (.5x) _._._._._._._._._._._._._._._.
 72
    65
 73
     4
 40
0.5
 49
0.25
 74
     0
 49
-0.125
 74
     0
 49
0.0
 74
     0
 49
-0.125
 74
     0
  0
LTYPE
  5
93
330
5
100
AcDbSymbolTableRecord
100
AcDbLinetypeTableRecord
  2
DASHDOTX2
 70
     0
  3
Dash dot (2x) ____  .  ____  .  ____  .  ___
 72
    65
 73
     4
 40
2.0
 49
1.0
 74
     0
 49
-0.5
 74
     0
 49
0.0
 74
     0
 49
-0.5
 74
     0
  0
LTYPE
  5
95
330
5
100
AcDbSymbolTableRecord
100
AcDbLinetypeTableRecord
  2
DASHED2
 70
     0
  3
Dashed (.5x) _ _ _ _ _ _ _ _ _ _ _ _ _ _ _ _ _
 72
    65
 73
     2
 40
0.375
 49
0.25
 74
     0
 49
-0.125
 74
     0
  0
LTYPE
  5
96
330
5
100
AcDbSymbolTableRecord
100
AcDbLinetypeTableRecord
  2
DASHEDX2
 70
     0
  3
Dashed (2x) ____  ____  ____  ____  ____  ___
 72
    65
 73
     2
 40
1.5
 49
1.0
 74
     0
 49
-0.5
 74
     0
  0
LTYPE
  5
97
330
5
100
AcDbSymbolTableRecord
100
AcDbLinetypeTableRecord
  2
DIVIDE
 70
     0
  3
Divide ____ . . ____ . . ____ . . ____ . . ____
 72
    65
 73
     6
 40
1.25
 49
0.5
 74
     0
 49
-0.25
 74
     0
 49
0.0
 74
     0
 49
-0.25
 74
     0
 49
0.0
 74
     0
 49
-0.25
 74
     0
  0
LTYPE
  5
98
330
5
100
AcDbSymbolTableRecord
100
AcDbLinetypeTableRecord
  2
DIVIDE2
 70
     0
  3
Divide (.5x) __..__..__..__..__..__..__..__.._
 72
    65
 73
     6
 40
0.625
 49
0.25
 74
     0
 49
-0.125
 74
     0
 49
0.0
 74
     0
 49
-0.125
 74
     0
 49
0.0
 74
     0
 49
-0.125
 74
     0
  0
LTYPE
  5
99
330
5
100
AcDbSymbolTableRecord
100
AcDbLinetypeTableRecord
  2
DIVIDEX2
 70
     0
  3
Divide (2x) ________  .  .  ________  .  .  _
 72
    65
 73
     6
 40
2.5
 49
1.0
 74
     0
 49
-0.5
 74
     0
 49
0.0
 74
     0
 49
-0.5
 74
     0
 49
0.0
 74
     0
 49
-0.5
 74
     0
  0
LTYPE
  5
9A
330
5
100
AcDbSymbolTableRecord
100
AcDbLinetypeTableRecord
  2
DOT
 70
     0
  3
Dot . . . . . . . . . . . . . . . . . . . . . .
 72
    65
 73
     2
 40
0.25
 49
0.0
 74
     0
 49
-0.25
 74
     0
  0
LTYPE
  5
9B
330
5
100
AcDbSymbolTableRecord
100
AcDbLinetypeTableRecord
  2
DOT2
 70
     0
  3
Dot (.5x) .....................................
 72
    65
 73
     2
 40
0.125
 49
0.0
 74
     0
 49
-0.125
 74
     0
  0
LTYPE
  5
9C
330
5
100
AcDbSymbolTableRecord
100
AcDbLinetypeTableRecord
  2
DOTX2
 70
     0
  3
Dot (2x) .  .  .  .  .  .  .  .  .  .  .  .  . 
 72
    65
 73
     2
 40
0.5
 49
0.0
 74
     0
 49
-0.5
 74
     0
  0
LTYPE
  5
9D
330
5
100
AcDbSymbolTableRecord
100
AcDbLinetypeTableRecord
  2
HIDDEN
 70
     0
  3
Hidden __ __ __ __ __ __ __ __ __ __ __ __ __ _
 72
    65
 73
     2
 40
0.375
 49
0.25
 74
     0
 49
-0.125
 74
     0
  0
LTYPE
  5
9E
330
5
100
AcDbSymbolTableRecord
100
AcDbLinetypeTableRecord
  2
HIDDEN2
 70
     0
  3
Hidden (.5x) _ _ _ _ _ _ _ _ _ _ _ _ _ _ _ _ _
 72
    65
 73
     2
 40
0.1875
 49
0.125
 74
     0
 49
-0.0625
 74
     0
  0
LTYPE
  5
9F
330
5
100
AcDbSymbolTableRecord
100
AcDbLinetypeTableRecord
  2
HIDDENX2
 70
     0
  3
Hidden (2x) ____ ____ ____ ____ ____ ____ ____
 72
    65
 73
     2
 40
0.75
 49
0.5
 74
     0
 49
-0.25
 74
     0
  0
LTYPE
  5
A0
330
5
100
AcDbSymbolTableRecord
100
AcDbLinetypeTableRecord
  2
PHANTOM
 70
     0
  3
Phantom ______  __  __  ______  __  __  ______
 72
    65
 73
     6
 40
2.5
 49
1.25
 74
     0
 49
-0.25
 74
     0
 49
0.25
 74
     0
 49
-0.25
 74
     0
 49
0.25
 74
     0
 49
-0.25
 74
     0
  0
LTYPE
  5
A1
330
5
100
AcDbSymbolTableRecord
100
AcDbLinetypeTableRecord
  2
PHANTOM2
 70
     0
  3
Phantom (.5x) ___ _ _ ___ _ _ ___ _ _ ___ _ _
 72
    65
 73
     6
 40
1.25
 49
0.625
 74
     0
 49
-0.125
 74
     0
 49
0.125
 74
     0
 49
-0.125
 74
     0
 49
0.125
 74
     0
 49
-0.125
 74
     0
  0
LTYPE
  5
A2
330
5
100
AcDbSymbolTableRecord
100
AcDbLinetypeTableRecord
  2
PHANTOMX2
 70
     0
  3
Phantom (2x) ____________    ____    ____   _
 72
    65
 73
     6
 40
5.0
 49
2.5
 74
     0
 49
-0.5
 74
     0
 49
0.5
 74
     0
 49
-0.5
 74
     0
 49
0.5
 74
     0
 49
-0.5
 74
     0
  0
LTYPE
  5
A3
330
5
100
AcDbSymbolTableRecord
100
AcDbLinetypeTableRecord
  2
ACAD_ISO02W100
 70
     0
  3
ISO dash __ __ __ __ __ __ __ __ __ __ __ __ __
 72
    65
 73
     2
 40
0.59
 49
0.47
 74
     0
 49
-0.12
 74
     0
  0
LTYPE
  5
A4
330
5
100
AcDbSymbolTableRecord
100
AcDbLinetypeTableRecord
  2
ACAD_ISO03W100
 70
     0
  3
ISO dash space __    __    __    __    __    __
 72
    65
 73
     2
 40
1.179999999999999
 49
0.47
 74
     0
 49
-0.71
 74
     0
  0
LTYPE
  5
A5
330
5
100
AcDbSymbolTableRecord
100
AcDbLinetypeTableRecord
  2
ACAD_ISO04W100
 70
     0
  3
ISO long-dash dot ____ . ____ . ____ . ____ . _
 72
    65
 73
     4
 40
1.179999999999999
 49
0.9399999999999998
 74
     0
 49
-0.12
 74
     0
 49
0.0
 74
     0
 49
-0.12
 74
     0
  0
LTYPE
  5
A6
330
5
100
AcDbSymbolTableRecord
100
AcDbLinetypeTableRecord
  2
ACAD_ISO05W100
 70
     0
  3
ISO long-dash double-dot ____ .. ____ .. ____ .
 72
    65
 73
     6
 40
1.299999999999999
 49
0.9399999999999998
 74
     0
 49
-0.12
 74
     0
 49
0.0
 74
     0
 49
-0.12
 74
     0
 49
0.0
 74
     0
 49
-0.12
 74
     0
  0
LTYPE
  5
A7
330
5
100
AcDbSymbolTableRecord
100
AcDbLinetypeTableRecord
  2
ACAD_ISO06W100
 70
     0
  3
ISO long-dash triple-dot ____ ... ____ ... ____
 72
    65
 73
     8
 40
1.419999999999999
 49
0.9399999999999998
 74
     0
 49
-0.12
 74
     0
 49
0.0
 74
     0
 49
-0.12
 74
     0
 49
0.0
 74
     0
 49
-0.12
 74
     0
 49
0.0
 74
     0
 49
-0.12
 74
     0
  0
LTYPE
  5
A8
330
5
100
AcDbSymbolTableRecord
100
AcDbLinetypeTableRecord
  2
ACAD_ISO07W100
 70
     0
  3
ISO dot . . . . . . . . . . . . . . . . . . . .
 72
    65
 73
     2
 40
0.12
 49
0.0
 74
     0
 49
-0.12
 74
     0
  0
LTYPE
  5
A9
330
5
100
AcDbSymbolTableRecord
100
AcDbLinetypeTableRecord
  2
ACAD_ISO08W100
 70
     0
  3
ISO long-dash short-dash ____ __ ____ __ ____ _
 72
    65
 73
     4
 40
0.95
 49
0.47
 74
     0
 49
-0.12
 74
     0
 49
0.24
 74
     0
 49
-0.12
 74
     0
  0
LTYPE
  5
AA
330
5
100
AcDbSymbolTableRecord
100
AcDbLinetypeTableRecord
  2
ACAD_ISO09W100
 70
     0
  3
ISO long-dash double-short-dash ____ __ __ ____
 72
    65
 73
     6
 40
1.31
 49
0.47
 74
     0
 49
-0.12
 74
     0
 49
0.24
 74
     0
 49
-0.12
 74
     0
 49
0.24
 74
     0
 49
-0.12
 74
     0
  0
LTYPE
  5
AB
330
5
100
AcDbSymbolTableRecord
100
AcDbLinetypeTableRecord
  2
ACAD_ISO10W100
 70
     0
  3
ISO dash dot __ . __ . __ . __ . __ . __ . __ .
 72
    65
 73
     4
 40
0.71
 49
0.47
 74
     0
 49
-0.12
 74
     0
 49
0.0
 74
     0
 49
-0.12
 74
     0
  0
LTYPE
  5
AC
330
5
100
AcDbSymbolTableRecord
100
AcDbLinetypeTableRecord
  2
ACAD_ISO11W100
 70
     0
  3
ISO double-dash dot __ __ . __ __ . __ __ . __ 
 72
    65
 73
     6
 40
1.299999999999999
 49
0.47
 74
     0
 49
-0.12
 74
     0
 49
0.47
 74
     0
 49
-0.12
 74
     0
 49
0.0
 74
     0
 49
-0.12
 74
     0
  0
LTYPE
  5
AD
330
5
100
AcDbSymbolTableRecord
100
AcDbLinetypeTableRecord
  2
ACAD_ISO12W100
 70
     0
  3
ISO dash double-dot __ . . __ . . __ . . __ . .
 72
    65
 73
     6
 40
0.8299999999999998
 49
0.47
 74
     0
 49
-0.12
 74
     0
 49
0.0
 74
     0
 49
-0.12
 74
     0
 49
0.0
 74
     0
 49
-0.12
 74
     0
  0
LTYPE
  5
AE
330
5
100
AcDbSymbolTableRecord
100
AcDbLinetypeTableRecord
  2
ACAD_ISO13W100
 70
     0
  3
ISO double-dash double-dot __ __ . . __ __ . . 
 72
    65
 73
     8
 40
1.419999999999999
 49
0.47
 74
     0
 49
-0.12
 74
     0
 49
0.47
 74
     0
 49
-0.12
 74
     0
 49
0.0
 74
     0
 49
-0.12
 74
     0
 49
0.0
 74
     0
 49
-0.12
 74
     0
  0
LTYPE
  5
AF
330
5
100
AcDbSymbolTableRecord
100
AcDbLinetypeTableRecord
  2
ACAD_ISO14W100
 70
     0
  3
ISO dash triple-dot __ . . . __ . . . __ . . . 
 72
    65
 73
     8
 40
0.95
 49
0.47
 74
     0
 49
-0.12
 74
     0
 49
0.0
 74
     0
 49
-0.12
 74
     0
 49
0.0
 74
     0
 49
-0.12
 74
     0
 49
0.0
 74
     0
 49
-0.12
 74
     0
  0
LTYPE
  5
B0
330
5
100
AcDbSymbolTableRecord
100
AcDbLinetypeTableRecord
  2
ACAD_ISO15W100
 70
     0
  3
ISO double-dash triple-dot __ __ . . . __ __ . 
 72
    65
 73
    10
 40
1.539999999999999
 49
0.47
 74
     0
 49
-0.12
 74
     0
 49
0.47
 74
     0
 49
-0.12
 74
     0
 49
0.0
 74
     0
 49
-0.12
 74
     0
 49
0.0
 74
     0
 49
-0.12
 74
     0
 49
0.0
 74
     0
 49
-0.12
 74
     0
  0
LTYPE
  5
B3
330
5
100
AcDbSymbolTableRecord
100
AcDbLinetypeTableRecord
  2
FENCELINE1
 70
     0
  3
Fenceline circle ----0-----0----0-----0----0---
 72
    65
 73
     4
 40
1.45
 49
0.25
 74
     0
 49
-0.1
 74
     4
 75
   133
340
B2
 46
0.1
 50
0.0
 44
-0.1
 45
0.0
 49
-0.1
 74
     0
 49
1.0
 74
     0
  0
LTYPE
  5
B4
330
5
100
AcDbSymbolTableRecord
100
AcDbLinetypeTableRecord
  2
FENCELINE2
 70
     0
  3
Fenceline square ----[]-----[]----[]-----[]----
 72
    65
 73
     4
 40
1.45
 49
0.25
 74
     0
 49
-0.1
 74
     4
 75
   132
340
B2
 46
0.1
 50
0.0
 44
-0.1
 45
0.0
 49
-0.1
 74
     0
 49
1.0
 74
     0
  0
LTYPE
  5
B5
330
5
100
AcDbSymbolTableRecord
100
AcDbLinetypeTableRecord
  2
TRACKS
 70
     0
  3
Tracks -|-|-|-|-|-|-|-|-|-|-|-|-|-|-|-|-|-|-|-|
 72
    65
 73
     2
 40
0.3
 49
0.15
 74
     4
 75
   130
340
B2
 46
0.25
 50
0.0
 44
0.0
 45
0.0
 49
0.15
 74
     0
  0
LTYPE
  5
B6
330
5
100
AcDbSymbolTableRecord
100
AcDbLinetypeTableRecord
  2
BATTING
 70
     0
  3
Batting SSSSSSSSSSSSSSSSSSSSSSSSSSSSSSSSSSSSSSS
 72
    65
 73
     4
 40
0.4001000000000001
 49
0.0001
 74
     0
 49
-0.1
 74
     4
 75
   134
340
B2
 46
0.1
 50
0.0
 44
-0.1
 45
0.0
 49
-0.2
 74
     4
 75
   134
340
B2
 46
0.1
 50
180.0
 44
0.1
 45
0.0
 49
-0.1
 74
     0
  0
LTYPE
  5
B7
330
5
100
AcDbSymbolTableRecord
100
AcDbLinetypeTableRecord
  2
HOT_WATER_SUPPLY
 70
     0
  3
Hot water supply ---- HW ---- HW ---- HW ----
 72
    65
 73
     3
 40
0.9
 49
0.5
 74
     0
 49
-0.2
 74
     2
 75
     0
340
55
 46
0.1
 50
0.0
 44
-0.1
 45
-0.05
  9
HW
 49
-0.2
 74
     0
  0
LTYPE
  5
B8
330
5
100
AcDbSymbolTableRecord
100
AcDbLinetypeTableRecord
  2
GAS_LINE
 70
     0
  3
Gas line ----GAS----GAS----GAS----GAS----GAS---
 72
    65
 73
     3
 40
0.95
 49
0.5
 74
     0
 49
-0.2
 74
     2
 75
     0
340
55
 46
0.1
 50
0.0
 44
-0.1
 45
-0.05
  9
GAS
 49
-0.25
 74
     0
  0
LTYPE
  5
B9
330
5
100
AcDbSymbolTableRecord
100
AcDbLinetypeTableRecord
  2
ZIGZAG
 70
     0
  3
Zig zag /\/\/\/\/\/\/\/\/\/\/\/\/\/\/\/\/\/\/\/
 72
    65
 73
     4
 40
0.8001000000000001
 49
0.0001
 74
     0
 49
-0.2
 74
     4
 75
   131
340
B2
 46
0.2
 50
0.0
 44
-0.2
 45
0.0
 49
-0.4
 74
     4
 75
   131
340
B2
 46
0.2
 50
180.0
 44
0.2
 45
0.0
 49
-0.2
 74
     0
  0
ENDTAB
  0
TABLE
  2
LAYER
  5
2
330
0
100
AcDbSymbolTable
 70
    27
  0
LAYER
  5
54
330
2
100
AcDbSymbolTableRecord
100
AcDbLayerTableRecord
  2
0
 70
     0
 62
     7
  6
Continuous
370
     0
390
F
  0
LAYER
  5
C0
330
2
100
AcDbSymbolTableRecord
100
AcDbLayerTableRecord
  2
Center Mark (ANSI)
 70
     0
 62
     7
  6
Continuous
370
     5
390
F
  0
LAYER
  5
C1
330
2
100
AcDbSymbolTableRecord
100
AcDbLayerTableRecord
  2
Centerline (ANSI)
 70
     0
 62
     7
  6
Continuous
370
     5
390
F
  0
LAYER
  5
C3
330
2
100
AcDbSymbolTableRecord
100
AcDbLayerTableRecord
  2
Dimension (ANSI)
 70
     0
 62
     7
  6
Continuous
370
     5
390
F
  0
LAYER
  5
CC
330
2
100
AcDbSymbolTableRecord
100
AcDbLayerTableRecord
  2
Symbol (ANSI)
 70
     0
 62
     7
  6
Continuous
370
     5
390
F
  0
LAYER
  5
CF
330
2
100
AcDbSymbolTableRecord
100
AcDbLayerTableRecord
  2
Visible (ANSI)
 70
     0
 62
     7
  6
Continuous
370
     5
390
F
  0
LAYER
  5
D0
330
2
100
AcDbSymbolTableRecord
100
AcDbLayerTableRecord
  2
Visible Narrow (ANSI)
 70
     0
 62
     7
  6
Continuous
370
     5
390
F
  0
LAYER
  5
19D
330
2
100
AcDbSymbolTableRecord
100
AcDbLayerTableRecord
  2
Defpoints
 70
     0
 62
     7
  6
Continuous
290
     0
370
    -3
390
F
  0
ENDTAB
  0
TABLE
  2
STYLE
  5
3
330
0
100
AcDbSymbolTable
 70
    10
  0
STYLE
  5
55
330
3
100
AcDbSymbolTableRecord
100
AcDbTextStyleTableRecord
  2
Standard
 70
     0
 40
0.0
 41
1.0
 50
0.0
 71
     0
 42
0.2
  3
txt
  4

  0
STYLE
  5
5A
330
3
100
AcDbSymbolTableRecord
100
AcDbTextStyleTableRecord
  2
Annotative
 70
     0
 40
0.0
 41
1.0
 50
0.0
 71
     0
 42
0.2
  3
txt
  4

1001
AcadAnnotative
1000
AnnotativeData
1002
{
1070
     1
1070
     1
1002
}
  0
STYLE
  5
B2
330
3
100
AcDbSymbolTableRecord
100
AcDbTextStyleTableRecord
  2

 70
     1
 40
0.0
 41
1.0
 50
0.0
 71
     0
 42
0.2
  3
ltypeshp.shx
  4

  0
STYLE
  5
D4
330
3
100
AcDbSymbolTableRecord
100
AcDbTextStyleTableRecord
  2
ITALICC_120
 70
     0
 40
0.0
 41
1.0
 50
0.0
 71
     0
 42
0.2
  3
italicc.shx
  4

  0
STYLE
  5
D5
330
3
100
AcDbSymbolTableRecord
100
AcDbTextStyleTableRecord
  2
Label Text (ANSI)
 70
     0
 40
0.0
 41
1.0
 50
0.0
 71
     0
 42
0.2
  3
TAHOMA.TTF
  4

1001
ACAD
1000
Tahoma
1071
      256
  0
STYLE
  5
D6
330
3
100
AcDbSymbolTableRecord
100
AcDbTextStyleTableRecord
  2
Note Text (ANSI)
 70
     0
 40
0.0
 41
1.0
 50
0.0
 71
     0
 42
0.2
  3
RomanS.shx
  4

  0
STYLE
  5
D7
330
3
100
AcDbSymbolTableRecord
100
AcDbTextStyleTableRecord
  2
ROMANS
 70
     0
 40
0.0
 41
1.0
 50
0.0
 71
     0
 42
0.2
  3
romans.shx
  4

  0
STYLE
  5
D8
330
3
100
AcDbSymbolTableRecord
100
AcDbTextStyleTableRecord
  2
SANSSERIF_114
 70
     0
 40
0.0
 41
1.0
 50
0.0
 71
     0
 42
0.2
  3
TAHOMA.TTF
  4

1001
ACAD
1000
Tahoma
1071
      256
  0
STYLE
  5
D9
330
3
100
AcDbSymbolTableRecord
100
AcDbTextStyleTableRecord
  2
SANSSERIF_117
 70
     0
 40
0.0
 41
1.0
 50
0.0
 71
     0
 42
0.2
  3
TAHOMA.TTF
  4

1001
ACAD
1000
Tahoma
1071
      256
  0
STYLE
  5
12D
330
3
100
AcDbSymbolTableRecord
100
AcDbTextStyleTableRecord
  2
Text Style168
 70
     0
 40
0.0
 41
1.0
 50
0.0
 71
     0
 42
0.2
  3
TAHOMA.TTF
  4

1001
ACAD
1000
Tahoma
1071
      256
  0
ENDTAB
  0
TABLE
  2
VIEW
  5
6
330
0
100
AcDbSymbolTable
 70
     0
  0
ENDTAB
  0
TABLE
  2
UCS
  5
7
330
0
100
AcDbSymbolTable
 70
     0
  0
ENDTAB
  0
TABLE
  2
APPID
  5
9
330
0
100
AcDbSymbolTable
 70
     4
  0
APPID
  5
56
330
9
100
AcDbSymbolTableRecord
100
AcDbRegAppTableRecord
  2
ACAD
 70
     0
  0
APPID
  5
5E
330
9
100
AcDbSymbolTableRecord
100
AcDbRegAppTableRecord
  2
AcadAnnotative
 70
     0
  0
APPID
  5
A20
330
9
100
AcDbSymbolTableRecord
100
AcDbRegAppTableRecord
  2
ACAD_DSTYLE_DIMRADIAL_EXTENSION
 70
     0
  0
APPID
  5
C52
330
9
100
AcDbSymbolTableRecord
100
AcDbRegAppTableRecord
  2
ACAD_MLEADERVER
 70
     0
  0
ENDTAB
  0
TABLE
  2
DIMSTYLE
  5
A
330
0
100
AcDbSymbolTable
 70
    15
100
AcDbDimStyleTable
 71
     2
340
E2
340
58
  0
DIMSTYLE
105
58
330
A
100
AcDbSymbolTableRecord
100
AcDbDimStyleTableRecord
  2
Standard
 70
     0
340
55
  0
DIMSTYLE
105
59
330
A
100
AcDbSymbolTableRecord
100
AcDbDimStyleTableRecord
  2
Annotative
 70
     0
340
55
1001
AcadAnnotative
1000
AnnotativeData
1002
{
1070
     1
1070
     1
1002
}
  0
DIMSTYLE
105
DA
330
A
100
AcDbSymbolTableRecord
100
AcDbDimStyleTableRecord
  2
Architectural (ANSI)
 70
     0
 40
10.0
 41
0.0984251946210861
 43
0.2362204724409449
 44
0.125
 45
0.00000001
 46
0.3937007874015748
 78
     3
 79
     3
140
0.1000000014901161
146
1.200000029802321
147
0.031496062992126
171
     1
176
   256
177
   256
178
   256
272
     2
274
     1
276
     2
277
     4
284
    12
285
     4
286
    12
340
D6
371
    -1
372
    -1
  0
DIMSTYLE
105
DB
330
A
100
AcDbSymbolTableRecord
100
AcDbDimStyleTableRecord
  2
Architectural (ANSI)$7
 70
     0
 40
10.0
 41
0.0984251946210861
 43
0.2362204724409449
 44
0.125
 45
0.00000001
 46
0.3937007874015748
 78
     3
 79
     3
140
0.1000000014901161
146
1.200000029802321
147
0.031496062992126
171
     1
176
   256
177
   256
178
   256
272
     2
274
     1
276
     2
277
     4
284
    12
285
     4
286
    12
340
D6
371
    -1
372
    -1
  0
DIMSTYLE
105
DC
330
A
100
AcDbSymbolTableRecord
100
AcDbDimStyleTableRecord
  2
Default - Fraction (ANSI)
 70
     0
 40
10.0
 41
0.0984251946210861
 43
0.2362204724409449
 44
0.125
 45
0.00000001
 46
0.3937007874015748
 79
     3
140
0.1000000014901161
146
1.200000029802321
147
0.031496062992126
171
     1
176
   256
177
   256
178
   256
272
     2
274
     1
276
     2
277
     5
284
    12
285
     4
286
    12
340
D6
371
    -1
372
    -1
  0
DIMSTYLE
105
DD
330
A
100
AcDbSymbolTableRecord
100
AcDbDimStyleTableRecord
  2
Default - Fraction (ANSI)$7
 70
     0
 40
10.0
 41
0.0984251946210861
 43
0.2362204724409449
 44
0.125
 45
0.00000001
 46
0.3937007874015748
 79
     3
140
0.1000000014901161
146
1.200000029802321
147
0.031496062992126
171
     1
176
   256
177
   256
178
   256
272
     2
274
     1
276
     2
277
     5
284
    12
285
     4
286
    12
340
D6
371
    -1
372
    -1
  0
DIMSTYLE
105
DE
330
A
100
AcDbSymbolTableRecord
100
AcDbDimStyleTableRecord
  2
Default - mm (ANSI)
 70
     0
 40
10.0
 41
0.0984251946210861
 42
0.063
 43
0.2362204724409449
 44
0.125
 45
0.00000001
 46
0.3937007874015748
 73
     0
 78
     4
 79
     1
140
0.1000000014901161
143
1.0
144
25.4
146
1.200000029802321
147
0.031496062992126
171
     1
176
   256
177
   256
178
   256
179
     1
271
     2
272
     2
274
     1
284
     4
285
     4
340
D6
371
    -1
372
    -1
  0
DIMSTYLE
105
DF
330
A
100
AcDbSymbolTableRecord
100
AcDbDimStyleTableRecord
  2
Default - mm (ANSI)$7
 70
     0
 40
10.0
 41
0.0984251946210861
 42
0.063
 43
0.2362204724409449
 44
0.125
 45
0.00000001
 46
0.3937007874015748
 73
     0
 78
     4
 79
     1
140
0.1000000014901161
143
1.0
144
25.4
146
1.200000029802321
147
0.031496062992126
171
     1
176
   256
177
   256
178
   256
179
     1
271
     2
272
     2
274
     1
284
     4
285
     4
340
D6
371
    -1
372
    -1
  0
DIMSTYLE
105
E0
330
A
100
AcDbSymbolTableRecord
100
AcDbDimStyleTableRecord
  2
Default - mm [in] (ANSI)
 70
     0
  4
 in
 40
10.0
 41
0.0984251946210861
 42
0.063
 43
0.25
 44
0.125
 45
0.00000001
 46
0.3937007874015748
 73
     0
 78
     4
 79
     1
140
0.1000000014901161
143
0.03937
144
25.4
146
1.200000029802321
147
0.031496062992126
170
     1
171
     3
176
   256
177
   256
178
   256
179
     1
271
     2
272
     2
274
     3
284
     4
285
     4
286
     4
340
D6
371
    -1
372
    -1
  0
DIMSTYLE
105
E1
330
A
100
AcDbSymbolTableRecord
100
AcDbDimStyleTableRecord
  2
Default - mm [in] (ANSI)$7
 70
     0
  4
 in
 40
10.0
 41
0.0984251946210861
 42
0.063
 43
0.25
 44
0.125
 45
0.00000001
 46
0.3937007874015748
 73
     0
 78
     4
 79
     1
140
0.1000000014901161
143
0.03937
144
25.4
146
1.200000029802321
147
0.031496062992126
170
     1
171
     3
176
   256
177
   256
178
   256
179
     1
271
     2
272
     2
274
     3
284
     4
285
     4
286
     4
340
D6
371
    -1
372
    -1
  0
DIMSTYLE
105
E2
102
{ACAD_REACTORS
330
19B
330
29C
330
3B2
330
49C
330
586
330
684
330
782
330
898
330
987
330
A41
330
B0E
102
}
330
A
100
AcDbSymbolTableRecord
100
AcDbDimStyleTableRecord
  2
Default (ANSI)
 70
     0
 40
10.0
 41
0.0984251946210861
 43
0.2362204724409449
 44
0.125
 45
0.00000001
 46
0.3937007874015748
140
0.1000000014901161
147
0.031496062992126
176
   256
177
   256
178
   256
271
     2
272
     2
340
D7
371
    -1
372
    -1
  0
DIMSTYLE
105
E3
330
A
100
AcDbSymbolTableRecord
100
AcDbDimStyleTableRecord
  2
Default (ANSI)$7
 70
     0
 40
10.0
 41
0.0984251946210861
 43
0.2362204724409449
 44
0.125
 45
0.00000001
 46
0.3937007874015748
140
0.1000000014901161
147
0.031496062992126
176
   256
177
   256
178
   256
271
     2
272
     2
340
D7
371
    -1
372
    -1
  0
DIMSTYLE
105
E4
330
A
100
AcDbSymbolTableRecord
100
AcDbDimStyleTableRecord
  2
Alternate (ANSI)
 70
     0
 40
10.0
 41
0.0979999974370003
340
55
342
E5
  0
DIMSTYLE
105
F7
330
A
100
AcDbSymbolTableRecord
100
AcDbDimStyleTableRecord
  2
Datum (ANSI)
 70
     0
 40
10.0
 41
0.0979999974370003
340
55
342
E5
  0
DIMSTYLE
105
106
330
A
100
AcDbSymbolTableRecord
100
AcDbDimStyleTableRecord
  2
Large (ANSI)
 70
     0
 40
10.0
 41
0.1959999948740005
340
55
342
E5
  0
ENDTAB
  0
TABLE
  2
BLOCK_RECORD
  5
1
330
0
100
AcDbSymbolTable
 70
    15
  0
BLOCK_RECORD
  5
6C
330
1
100
AcDbSymbolTableRecord
100
AcDbBlockTableRecord
  2
*Model_Space
340
6F
  0
BLOCK_RECORD
  5
68
330
1
100
AcDbSymbolTableRecord
100
AcDbBlockTableRecord
  2
*Paper_Space
340
6B
  0
BLOCK_RECORD
  5
70
330
1
100
AcDbSymbolTableRecord
100
AcDbBlockTableRecord
  2
*Paper_Space0
340
73
  0
BLOCK_RECORD
  5
E5
330
1
100
AcDbSymbolTableRecord
100
AcDbBlockTableRecord
  2
_Closed
340
0
  0
BLOCK_RECORD
  5
EC
330
1
100
AcDbSymbolTableRecord
100
AcDbBlockTableRecord
  2
DatumFilled45
340
0
  0
BLOCK_RECORD
  5
F8
330
1
100
AcDbSymbolTableRecord
100
AcDbBlockTableRecord
  2
Filled-1
340
0
  0
BLOCK_RECORD
  5
19E
330
1
100
AcDbSymbolTableRecord
100
AcDbBlockTableRecord
  2
*D4
340
0
  0
BLOCK_RECORD
  5
29D
330
1
100
AcDbSymbolTableRecord
100
AcDbBlockTableRecord
  2
*D5
340
0
  0
BLOCK_RECORD
  5
3B3
330
1
100
AcDbSymbolTableRecord
100
AcDbBlockTableRecord
  2
*D6
340
0
  0
BLOCK_RECORD
  5
49D
330
1
100
AcDbSymbolTableRecord
100
AcDbBlockTableRecord
  2
*D7
340
0
  0
BLOCK_RECORD
  5
587
330
1
100
AcDbSymbolTableRecord
100
AcDbBlockTableRecord
  2
*D8
340
0
  0
BLOCK_RECORD
  5
685
330
1
100
AcDbSymbolTableRecord
100
AcDbBlockTableRecord
  2
*D9
340
0
  0
BLOCK_RECORD
  5
783
330
1
100
AcDbSymbolTableRecord
100
AcDbBlockTableRecord
  2
*D10
340
0
  0
BLOCK_RECORD
  5
899
330
1
100
AcDbSymbolTableRecord
100
AcDbBlockTableRecord
  2
*D11
340
0
  0
BLOCK_RECORD
  5
988
330
1
100
AcDbSymbolTableRecord
100
AcDbBlockTableRecord
  2
*D12
340
0
  0
BLOCK_RECORD
  5
A42
330
1
100
AcDbSymbolTableRecord
100
AcDbBlockTableRecord
  2
*D13
340
0
  0
BLOCK_RECORD
  5
B0F
330
1
100
AcDbSymbolTableRecord
100
AcDbBlockTableRecord
  2
*D14
340
0
  0
ENDTAB
  0
ENDSEC
  0
SECTION
  2
BLOCKS
  0
BLOCK
  5
6D
330
6C
100
AcDbEntity
  8
0
100
AcDbBlockBegin
  2
*Model_Space
 70
     0
 10
0.0
 20
0.0
 30
0.0
  3
*Model_Space
  1

  0
ENDBLK
  5
6E
330
6C
100
AcDbEntity
  8
0
100
AcDbBlockEnd
  0
BLOCK
  5
69
330
68
100
AcDbEntity
 67
     1
  8
0
100
AcDbBlockBegin
  2
*Paper_Space
 70
     0
 10
0.0
 20
0.0
 30
0.0
  3
*Paper_Space
  1

  0
ENDBLK
  5
6A
330
68
100
AcDbEntity
 67
     1
  8
0
100
AcDbBlockEnd
  0
BLOCK
  5
71
330
70
100
AcDbEntity
 67
     1
  8
0
100
AcDbBlockBegin
  2
*Paper_Space0
 70
     0
 10
0.0
 20
0.0
 30
0.0
  3
*Paper_Space0
  1

  0
ENDBLK
  5
72
330
70
100
AcDbEntity
 67
     1
  8
0
100
AcDbBlockEnd
  0
BLOCK
  5
EA
330
E5
100
AcDbEntity
  8
0
100
AcDbBlockBegin
  2
_Closed
 70
     0
 10
0.0
 20
0.0
 30
0.0
  3
_Closed
  1

  0
LINE
  5
E6
330
E5
100
AcDbEntity
  8
0
  6
ByBlock
 62
     0
370
    -2
100
AcDbLine
 10
-1.0
 20
0.1666666666666666
 30
0.0
 11
0.0
 21
0.0
 31
0.0
  0
LINE
  5
E7
330
E5
100
AcDbEntity
  8
0
  6
ByBlock
 62
     0
370
    -2
100
AcDbLine
 10
0.0
 20
0.0
 30
0.0
 11
-1.0
 21
-0.1666666666666666
 31
0.0
  0
LINE
  5
E8
330
E5
100
AcDbEntity
  8
0
  6
ByBlock
 62
     0
370
    -2
100
AcDbLine
 10
-1.0
 20
0.1666666666666666
 30
0.0
 11
-1.0
 21
-0.1666666666666666
 31
0.0
  0
LINE
  5
E9
330
E5
100
AcDbEntity
  8
0
  6
ByBlock
 62
     0
370
    -2
100
AcDbLine
 10
0.0
 20
0.0
 30
0.0
 11
-1.0
 21
0.0
 31
0.0
  0
ENDBLK
  5
EB
330
E5
100
AcDbEntity
  8
0
100
AcDbBlockEnd
  0
BLOCK
  5
ED
330
EC
100
AcDbEntity
  8
0
100
AcDbBlockBegin
  2
DatumFilled45
 70
     0
 10
0.0
 20
0.0
 30
0.0
  3
DatumFilled45
  1

  0
POLYLINE
  5
EF
330
EC
100
AcDbEntity
  8
0
 62
     0
100
AcDb2dPolyline
 66
     1
 10
0.0
 20
0.0
 30
0.0
 70
   128
  0
VERTEX
  5
F0
330
EF
100
AcDbEntity
  8
0
 62
     0
100
AcDbVertex
100
AcDb2dVertex
 10
0.0
 20
0.9999999999999998
 30
0.0
  0
VERTEX
  5
F1
330
EF
100
AcDbEntity
  8
0
 62
     0
100
AcDbVertex
100
AcDb2dVertex
 10
0.0
 20
-0.9999999999999998
 30
0.0
  0
VERTEX
  5
F3
330
EF
100
AcDbEntity
  8
0
 62
     0
100
AcDbVertex
100
AcDb2dVertex
 10
-0.9999999999999998
 20
0.0
 30
0.0
  0
VERTEX
  5
F4
330
EF
100
AcDbEntity
  8
0
 62
     0
100
AcDbVertex
100
AcDb2dVertex
 10
0.0
 20
0.9999999999999998
 30
0.0
  0
SEQEND
  5
F2
330
EF
100
AcDbEntity
  8
0
 62
     0
  0
SOLID
  5
F6
330
EC
100
AcDbEntity
  8
0
 62
     0
100
AcDbTrace
 10
0.0
 20
0.9999999999999998
 30
0.0
 11
0.0
 21
-0.9999999999999998
 31
0.0
 12
-0.9999999999999998
 22
0.0
 32
0.0
 13
0.0
 23
0.9999999999999998
 33
0.0
  0
ENDBLK
  5
EE
330
EC
100
AcDbEntity
  8
0
100
AcDbBlockEnd
  0
BLOCK
  5
F9
330
F8
100
AcDbEntity
  8
0
100
AcDbBlockBegin
  2
Filled-1
 70
     0
 10
0.0
 20
0.0
 30
0.0
  3
Filled-1
  1

  0
LINE
  5
FB
330
F8
100
AcDbEntity
  8
0
 62
     0
100
AcDbLine
 10
-0.9999999999999998
 20
0.0
 30
0.0
 11
0.0
 21
0.0
 31
0.0
  0
POLYLINE
  5
FC
330
F8
100
AcDbEntity
  8
0
 62
     0
100
AcDb2dPolyline
 66
     1
 10
0.0
 20
0.0
 30
0.0
 70
   128
  0
VERTEX
  5
FD
330
FC
100
AcDbEntity
  8
0
 62
     0
100
AcDbVertex
100
AcDb2dVertex
 10
-0.9999999999999998
 20
-0.0994897959183674
 30
0.0
  0
VERTEX
  5
FE
330
FC
100
AcDbEntity
  8
0
 62
     0
100
AcDbVertex
100
AcDb2dVertex
 10
0.0
 20
0.0
 30
0.0
  0
VERTEX
  5
100
330
FC
100
AcDbEntity
  8
0
 62
     0
100
AcDbVertex
100
AcDb2dVertex
 10
-0.9999999999999998
 20
0.0994897959183674
 30
0.0
  0
VERTEX
  5
101
330
FC
100
AcDbEntity
  8
0
 62
     0
100
AcDbVertex
100
AcDb2dVertex
 10
-0.9999999999999998
 20
-0.0994897959183674
 30
0.0
  0
SEQEND
  5
FF
330
FC
100
AcDbEntity
  8
0
 62
     0
  0
SOLID
  5
102
330
F8
100
AcDbEntity
  8
0
 62
     0
100
AcDbTrace
 10
-0.9999999999999998
 20
-0.0994897959183674
 30
0.0
 11
0.0
 21
0.0
 31
0.0
 12
-0.9999999999999998
 22
0.0994897959183674
 32
0.0
 13
-0.9999999999999998
 23
-0.0994897959183674
 33
0.0
  0
LINE
  5
103
330
F8
100
AcDbEntity
  8
0
 62
     0
100
AcDbLine
 10
-0.9999999999999998
 20
-0.0994897959183674
 30
0.0
 11
0.0
 21
0.0
 31
0.0
  0
LINE
  5
104
330
F8
100
AcDbEntity
  8
0
 62
     0
100
AcDbLine
 10
0.0
 20
0.0
 30
0.0
 11
-0.9999999999999998
 21
0.0994897959183674
 31
0.0
  0
LINE
  5
105
330
F8
100
AcDbEntity
  8
0
 62
     0
100
AcDbLine
 10
-0.9999999999999998
 20
0.0994897959183674
 30
0.0
 11
-0.9999999999999998
 21
-0.0994897959183674
 31
0.0
  0
ENDBLK
  5
FA
330
F8
100
AcDbEntity
  8
0
100
AcDbBlockEnd
  0
BLOCK
  5
19F
330
19E
100
AcDbEntity
  8
0
100
AcDbBlockBegin
  2
*D4
 70
     1
 10
0.0
 20
0.0
 30
0.0
  3
*D4
  1

  0
LINE
  5
292
330
19E
100
AcDbEntity
  8
Dimension (ANSI)
100
AcDbLine
 10
55.68179954017288
 20
34.26650773486569
 30
0.0
 11
64.18081528820444
 21
34.26650773486569
 31
0.0
  0
LINE
  5
293
330
19E
100
AcDbEntity
  8
Dimension (ANSI)
100
AcDbLine
 10
55.68179954017289
 20
55.8915077348657
 30
0.0
 11
64.18081528820444
 21
55.8915077348657
 31
0.0
  0
LINE
  5
294
330
19E
100
AcDbEntity
  8
Dimension (ANSI)
100
AcDbLine
 10
62.93081528820443
 20
35.25075968107655
 30
0.0
 11
62.93081528820443
 21
43.43071375174289
 31
0.0
  0
LINE
  5
295
330
19E
100
AcDbEntity
  8
Dimension (ANSI)
100
AcDbLine
 10
62.93081528820444
 20
54.90725578865484
 30
0.0
 11
62.93081528820443
 21
46.72730171798849
 31
0.0
  0
SOLID
  5
296
330
19E
100
AcDbEntity
  8
Dimension (ANSI)
100
AcDbTrace
 10
62.76677329716928
 20
35.25075968107655
 30
0.0
 11
63.09485727923957
 21
35.25075968107655
 31
0.0
 12
62.93081528820443
 22
34.26650773486569
 32
0.0
 13
62.93081528820443
 23
34.26650773486569
 33
0.0
  0
SOLID
  5
297
330
19E
100
AcDbEntity
  8
Dimension (ANSI)
100
AcDbTrace
 10
62.76677329716929
 20
54.90725578865484
 30
0.0
 11
63.09485727923958
 21
54.90725578865484
 31
0.0
 12
62.93081528820444
 22
55.8915077348657
 32
0.0
 13
62.93081528820444
 23
55.8915077348657
 33
0.0
  0
MTEXT
  5
298
330
19E
100
AcDbEntity
  8
Dimension (ANSI)
100
AcDbMText
 10
62.93081528820442
 20
45.0790077348657
 30
0.0
 40
1.000000014901161
 41
0.0
 71
     5
 72
     1
  1
\A1;21.63{\PTYP.}
  7
ROMANS
 73
     1
 44
1.0
1001
ACAD
1000
MTEXTBEGIN
1070
    73
1070
     1
1070
    44
1040
1.0
1070
    74
1070
     0
1000
MTEXTEND
  0
POINT
  5
299
330
19E
100
AcDbEntity
  8
Defpoints
 62
     0
100
AcDbPoint
 10
55.05679954017288
 20
34.26650773486569
 30
0.0
  0
POINT
  5
29A
330
19E
100
AcDbEntity
  8
Defpoints
 62
     0
100
AcDbPoint
 10
55.05679954017289
 20
55.8915077348657
 30
0.0
  0
POINT
  5
29B
330
19E
100
AcDbEntity
  8
Defpoints
 62
     0
100
AcDbPoint
 10
62.93081528820444
 20
55.8915077348657
 30
0.0
  0
ENDBLK
  5
1A0
330
19E
100
AcDbEntity
  8
0
100
AcDbBlockEnd
  0
BLOCK
  5
29E
330
29D
100
AcDbEntity
  8
0
100
AcDbBlockBegin
  2
*D5
 70
     1
 10
0.0
 20
0.0
 30
0.0
  3
*D5
  1

  0
LINE
  5
3A7
330
29D
100
AcDbEntity
  8
Dimension (ANSI)
100
AcDbLine
 10
56.45205099671684
 20
33.3915077348657
 30
0.0
 11
67.00388741085259
 21
33.3915077348657
 31
0.0
  0
LINE
  5
3A8
330
29D
100
AcDbEntity
  8
Dimension (ANSI)
100
AcDbLine
 10
55.68179954017288
 20
34.26650773486569
 30
0.0
 11
67.00388741085259
 21
34.26650773486569
 31
0.0
  0
LINE
  5
3A9
330
29D
100
AcDbEntity
  8
Dimension (ANSI)
100
AcDbLine
 10
65.75388741085259
 20
35.25075968107655
 30
0.0
 11
65.75388741085259
 21
36.23501162728742
 31
0.0
  0
LINE
  5
3AA
330
29D
100
AcDbEntity
  8
Dimension (ANSI)
100
AcDbLine
 10
65.75388741085259
 20
32.40725578865484
 30
0.0
 11
65.75388741085257
 21
28.4562208002185
 31
0.0
  0
LINE
  5
3AB
330
29D
100
AcDbEntity
  8
Dimension (ANSI)
100
AcDbLine
 10
65.75388741085257
 20
28.4562208002185
 30
0.0
 11
64.76963546464171
 21
28.4562208002185
 31
0.0
  0
SOLID
  5
3AC
330
29D
100
AcDbEntity
  8
Dimension (ANSI)
100
AcDbTrace
 10
65.58984541981743
 20
35.25075968107655
 30
0.0
 11
65.91792940188773
 21
35.25075968107655
 31
0.0
 12
65.75388741085259
 22
34.26650773486569
 32
0.0
 13
65.75388741085259
 23
34.26650773486569
 33
0.0
  0
SOLID
  5
3AD
330
29D
100
AcDbEntity
  8
Dimension (ANSI)
100
AcDbTrace
 10
65.58984541981743
 20
32.40725578865484
 30
0.0
 11
65.91792940188773
 21
32.40725578865484
 31
0.0
 12
65.75388741085259
 22
33.3915077348657
 32
0.0
 13
65.75388741085259
 23
33.3915077348657
 33
0.0
  0
MTEXT
  5
3AE
330
29D
100
AcDbEntity
  8
Dimension (ANSI)
100
AcDbMText
 10
62.93086528820439
 20
28.45622080021851
 30
0.0
 40
1.000000014901161
 41
0.0
 71
     5
 72
     1
  1
\A1;0.88{\PTYP.}
  7
ROMANS
 73
     1
 44
1.0
1001
ACAD
1000
MTEXTBEGIN
1070
    73
1070
     1
1070
    44
1040
1.0
1070
    74
1070
     0
1000
MTEXTEND
  0
POINT
  5
3AF
330
29D
100
AcDbEntity
  8
Defpoints
 62
     0
100
AcDbPoint
 10
55.82705099671684
 20
33.3915077348657
 30
0.0
  0
POINT
  5
3B0
330
29D
100
AcDbEntity
  8
Defpoints
 62
     0
100
AcDbPoint
 10
55.05679954017288
 20
34.26650773486569
 30
0.0
  0
POINT
  5
3B1
330
29D
100
AcDbEntity
  8
Defpoints
 62
     0
100
AcDbPoint
 10
65.75388741085259
 20
34.26650773486569
 30
0.0
  0
ENDBLK
  5
29F
330
29D
100
AcDbEntity
  8
0
100
AcDbBlockEnd
  0
BLOCK
  5
3B4
330
3B3
100
AcDbEntity
  8
0
100
AcDbBlockBegin
  2
*D6
 70
     1
 10
0.0
 20
0.0
 30
0.0
  3
*D6
  1

  0
LINE
  5
492
330
3B3
100
AcDbEntity
  8
Dimension (ANSI)
100
AcDbLine
 10
56.45205099671684
 20
33.3915077348657
 30
0.0
 11
73.80933446128378
 21
33.3915077348657
 31
0.0
  0
LINE
  5
493
330
3B3
100
AcDbEntity
  8
Dimension (ANSI)
100
AcDbLine
 10
56.45205099671684
 20
78.39150773486569
 30
0.0
 11
73.80933446128378
 21
78.39150773486569
 31
0.0
  0
LINE
  5
494
330
3B3
100
AcDbEntity
  8
Dimension (ANSI)
100
AcDbLine
 10
72.55933446128378
 20
34.37575968107656
 30
0.0
 11
72.55933446128378
 21
55.07654709749386
 31
0.0
  0
LINE
  5
495
330
3B3
100
AcDbEntity
  8
Dimension (ANSI)
100
AcDbLine
 10
72.55933446128378
 20
77.40725578865483
 30
0.0
 11
72.55933446128378
 21
56.70646837223754
 31
0.0
  0
SOLID
  5
496
330
3B3
100
AcDbEntity
  8
Dimension (ANSI)
100
AcDbTrace
 10
72.39529247024863
 20
34.37575968107656
 30
0.0
 11
72.72337645231893
 21
34.37575968107656
 31
0.0
 12
72.55933446128378
 22
33.3915077348657
 32
0.0
 13
72.55933446128378
 23
33.3915077348657
 33
0.0
  0
SOLID
  5
497
330
3B3
100
AcDbEntity
  8
Dimension (ANSI)
100
AcDbTrace
 10
72.39529247024863
 20
77.40725578865483
 30
0.0
 11
72.72337645231893
 21
77.40725578865483
 31
0.0
 12
72.55933446128378
 22
78.39150773486569
 32
0.0
 13
72.55933446128378
 23
78.39150773486569
 33
0.0
  0
MTEXT
  5
498
330
3B3
100
AcDbEntity
  8
Dimension (ANSI)
100
AcDbMText
 10
70.55933443148145
 20
56.39150774231629
 30
0.0
 40
1.000000014901161
 41
0.0
 71
     1
 72
     1
  1
\A1;45.00
  7
ROMANS
 73
     1
 44
1.0
1001
ACAD
1000
MTEXTBEGIN
1070
    73
1070
     1
1070
    44
1040
1.0
1070
    74
1070
     0
1000
MTEXTEND
  0
POINT
  5
499
330
3B3
100
AcDbEntity
  8
Defpoints
 62
     0
100
AcDbPoint
 10
55.82705099671684
 20
33.3915077348657
 30
0.0
  0
POINT
  5
49A
330
3B3
100
AcDbEntity
  8
Defpoints
 62
     0
100
AcDbPoint
 10
55.82705099671684
 20
78.39150773486569
 30
0.0
  0
POINT
  5
49B
330
3B3
100
AcDbEntity
  8
Defpoints
 62
     0
100
AcDbPoint
 10
72.55933446128378
 20
78.39150773486569
 30
0.0
  0
ENDBLK
  5
3B5
330
3B3
100
AcDbEntity
  8
0
100
AcDbBlockEnd
  0
BLOCK
  5
49E
330
49D
100
AcDbEntity
  8
0
100
AcDbBlockBegin
  2
*D7
 70
     1
 10
0.0
 20
0.0
 30
0.0
  3
*D7
  1

  0
LINE
  5
57C
330
49D
100
AcDbEntity
  8
Dimension (ANSI)
100
AcDbLine
 10
22.93179954017289
 20
78.91175919140964
 30
0.0
 11
22.93179954017289
 21
88.19764774622802
 31
0.0
  0
LINE
  5
57D
330
49D
100
AcDbEntity
  8
Dimension (ANSI)
100
AcDbLine
 10
55.93179954017288
 20
78.91175919140964
 30
0.0
 11
55.93179954017288
 21
88.19764774622802
 31
0.0
  0
LINE
  5
57E
330
49D
100
AcDbEntity
  8
Dimension (ANSI)
100
AcDbLine
 10
23.91605148638375
 20
86.94764774622802
 30
0.0
 11
37.11683888044931
 21
86.94764774622802
 31
0.0
  0
LINE
  5
57F
330
49D
100
AcDbEntity
  8
Dimension (ANSI)
100
AcDbLine
 10
54.94754759396202
 20
86.94764774622802
 30
0.0
 11
41.74676019989647
 21
86.94764774622802
 31
0.0
  0
SOLID
  5
580
330
49D
100
AcDbEntity
  8
Dimension (ANSI)
100
AcDbTrace
 10
23.91605148638375
 20
87.11168973726316
 30
0.0
 11
23.91605148638375
 21
86.78360575519286
 31
0.0
 12
22.93179954017289
 22
86.94764774622802
 32
0.0
 13
22.93179954017289
 23
86.94764774622802
 33
0.0
  0
SOLID
  5
581
330
49D
100
AcDbEntity
  8
Dimension (ANSI)
100
AcDbTrace
 10
54.94754759396202
 20
87.11168973726316
 30
0.0
 11
54.94754759396202
 21
86.78360575519286
 31
0.0
 12
55.93179954017288
 22
86.94764774622802
 32
0.0
 13
55.93179954017288
 23
86.94764774622802
 33
0.0
  0
MTEXT
  5
582
330
49D
100
AcDbEntity
  8
Dimension (ANSI)
100
AcDbMText
 10
37.43179951037057
 20
87.4476477536786
 30
0.0
 40
1.000000014901161
 41
0.0
 71
     1
 72
     1
  1
\A1;33.00
  7
ROMANS
 73
     1
 44
1.0
1001
ACAD
1000
MTEXTBEGIN
1070
    73
1070
     1
1070
    44
1040
1.0
1070
    74
1070
     0
1000
MTEXTEND
  0
POINT
  5
583
330
49D
100
AcDbEntity
  8
Defpoints
 62
     0
100
AcDbPoint
 10
22.93179954017289
 20
78.28675919140964
 30
0.0
  0
POINT
  5
584
330
49D
100
AcDbEntity
  8
Defpoints
 62
     0
100
AcDbPoint
 10
55.93179954017288
 20
78.28675919140964
 30
0.0
  0
POINT
  5
585
330
49D
100
AcDbEntity
  8
Defpoints
 62
     0
100
AcDbPoint
 10
55.93179954017288
 20
86.94764774622802
 30
0.0
  0
ENDBLK
  5
49F
330
49D
100
AcDbEntity
  8
0
100
AcDbBlockEnd
  0
BLOCK
  5
588
330
587
100
AcDbEntity
  8
0
100
AcDbBlockBegin
  2
*D8
 70
     1
 10
0.0
 20
0.0
 30
0.0
  3
*D8
  1

  0
LINE
  5
67A
330
587
100
AcDbEntity
  8
Dimension (ANSI)
100
AcDbLine
 10
55.05679954017287
 20
79.67300773486567
 30
0.0
 11
55.05679954017287
 21
83.68776757738535
 31
0.0
  0
LINE
  5
67B
330
587
100
AcDbEntity
  8
Dimension (ANSI)
100
AcDbLine
 10
55.93179954017288
 20
78.91175919140964
 30
0.0
 11
55.93179954017288
 21
83.68776757738535
 31
0.0
  0
LINE
  5
67C
330
587
100
AcDbEntity
  8
Dimension (ANSI)
100
AcDbLine
 10
54.07254759396201
 20
82.43776757738535
 30
0.0
 11
53.08829564775114
 21
82.43776757738535
 31
0.0
  0
LINE
  5
67D
330
587
100
AcDbEntity
  8
Dimension (ANSI)
100
AcDbLine
 10
56.91605148638374
 20
82.43776757738535
 30
0.0
 11
59.9424964967957
 21
82.43776757738535
 31
0.0
  0
SOLID
  5
67E
330
587
100
AcDbEntity
  8
Dimension (ANSI)
100
AcDbTrace
 10
54.07254759396201
 20
82.60180956842051
 30
0.0
 11
54.07254759396201
 21
82.27372558635021
 31
0.0
 12
55.05679954017287
 22
82.43776757738535
 32
0.0
 13
55.05679954017287
 23
82.43776757738535
 33
0.0
  0
SOLID
  5
67F
330
587
100
AcDbEntity
  8
Dimension (ANSI)
100
AcDbTrace
 10
56.91605148638374
 20
82.60180956842051
 30
0.0
 11
56.91605148638374
 21
82.27372558635021
 31
0.0
 12
55.93179954017288
 22
82.43776757738535
 32
0.0
 13
55.93179954017288
 23
82.43776757738535
 33
0.0
  0
MTEXT
  5
680
330
587
100
AcDbEntity
  8
Dimension (ANSI)
100
AcDbMText
 10
61.78126667323302
 20
82.43776757738535
 30
0.0
 40
1.000000014901161
 41
0.0
 71
     5
 72
     1
  1
\A1;0.88{\PTYP.}
  7
ROMANS
 73
     1
 44
1.0
1001
ACAD
1000
MTEXTBEGIN
1070
    73
1070
     1
1070
    44
1040
1.0
1070
    74
1070
     0
1000
MTEXTEND
  0
POINT
  5
681
330
587
100
AcDbEntity
  8
Defpoints
 62
     0
100
AcDbPoint
 10
55.05679954017287
 20
79.04800773486567
 30
0.0
  0
POINT
  5
682
330
587
100
AcDbEntity
  8
Defpoints
 62
     0
100
AcDbPoint
 10
55.93179954017288
 20
78.28675919140964
 30
0.0
  0
POINT
  5
683
330
587
100
AcDbEntity
  8
Defpoints
 62
     0
100
AcDbPoint
 10
55.93179954017288
 20
82.43776757738535
 30
0.0
  0
ENDBLK
  5
589
330
587
100
AcDbEntity
  8
0
100
AcDbBlockEnd
  0
BLOCK
  5
686
330
685
100
AcDbEntity
  8
0
100
AcDbBlockBegin
  2
*D9
 70
     1
 10
0.0
 20
0.0
 30
0.0
  3
*D9
  1

  0
LINE
  5
778
330
685
100
AcDbEntity
  8
Dimension (ANSI)
100
AcDbLine
 10
55.05679954017288
 20
33.64150773486569
 30
0.0
 11
55.05679954017288
 21
27.7671639028447
 31
0.0
  0
LINE
  5
779
330
685
100
AcDbEntity
  8
Dimension (ANSI)
100
AcDbLine
 10
53.05679954017289
 20
33.64150773486569
 30
0.0
 11
53.05679954017289
 21
27.7671639028447
 31
0.0
  0
LINE
  5
77A
330
685
100
AcDbEntity
  8
Dimension (ANSI)
100
AcDbLine
 10
56.04105148638374
 20
29.0171639028447
 30
0.0
 11
57.0253034325946
 21
29.0171639028447
 31
0.0
  0
LINE
  5
77B
330
685
100
AcDbEntity
  8
Dimension (ANSI)
100
AcDbLine
 10
52.07254759396203
 20
29.0171639028447
 30
0.0
 11
48.75602738923156
 21
29.0171639028447
 31
0.0
  0
SOLID
  5
77C
330
685
100
AcDbEntity
  8
Dimension (ANSI)
100
AcDbTrace
 10
56.04105148638374
 20
29.18120589387984
 30
0.0
 11
56.04105148638374
 21
28.85312191180955
 31
0.0
 12
55.05679954017288
 22
29.0171639028447
 32
0.0
 13
55.05679954017288
 23
29.0171639028447
 33
0.0
  0
SOLID
  5
77D
330
685
100
AcDbEntity
  8
Dimension (ANSI)
100
AcDbTrace
 10
52.07254759396203
 20
29.18120589387984
 30
0.0
 11
52.07254759396203
 21
28.85312191180955
 31
0.0
 12
53.05679954017289
 22
29.0171639028447
 32
0.0
 13
53.05679954017289
 23
29.0171639028447
 33
0.0
  0
MTEXT
  5
77E
330
685
100
AcDbEntity
  8
Dimension (ANSI)
100
AcDbMText
 10
46.91725721279424
 20
29.0171639028447
 30
0.0
 40
1.000000014901161
 41
0.0
 71
     5
 72
     1
  1
\A1;2.00{\PTYP.}
  7
ROMANS
 73
     1
 44
1.0
1001
ACAD
1000
MTEXTBEGIN
1070
    73
1070
     1
1070
    44
1040
1.0
1070
    74
1070
     0
1000
MTEXTEND
  0
POINT
  5
77F
330
685
100
AcDbEntity
  8
Defpoints
 62
     0
100
AcDbPoint
 10
55.05679954017288
 20
34.26650773486569
 30
0.0
  0
POINT
  5
780
330
685
100
AcDbEntity
  8
Defpoints
 62
     0
100
AcDbPoint
 10
53.05679954017289
 20
34.26650773486569
 30
0.0
  0
POINT
  5
781
330
685
100
AcDbEntity
  8
Defpoints
 62
     0
100
AcDbPoint
 10
53.05679954017289
 20
29.0171639028447
 30
0.0
  0
ENDBLK
  5
687
330
685
100
AcDbEntity
  8
0
100
AcDbBlockEnd
  0
BLOCK
  5
784
330
783
100
AcDbEntity
  8
0
100
AcDbBlockBegin
  2
*D10
 70
     1
 10
0.0
 20
0.0
 30
0.0
  3
*D10
  1

  0
LINE
  5
88D
330
783
100
AcDbEntity
  8
Dimension (ANSI)
100
AcDbLine
 10
56.43184954018636
 20
102.1131579600142
 30
0.0
 11
63.38231969394493
 21
102.1131579600142
 31
0.0
  0
LINE
  5
88E
330
783
100
AcDbEntity
  8
Dimension (ANSI)
100
AcDbLine
 10
56.45205099673031
 20
102.9881579600143
 30
0.0
 11
63.38231969394493
 21
102.9881579600143
 31
0.0
  0
LINE
  5
88F
330
783
100
AcDbEntity
  8
Dimension (ANSI)
100
AcDbLine
 10
62.13231969394493
 20
103.9724099062251
 30
0.0
 11
62.13231969394493
 21
104.956661852436
 31
0.0
  0
LINE
  5
890
330
783
100
AcDbEntity
  8
Dimension (ANSI)
100
AcDbLine
 10
62.13231969394493
 20
101.1289060138034
 30
0.0
 11
62.13231969394493
 21
97.73500996083868
 31
0.0
  0
LINE
  5
891
330
783
100
AcDbEntity
  8
Dimension (ANSI)
100
AcDbLine
 10
62.13231969394493
 20
97.73500996083868
 30
0.0
 11
61.14806774773407
 21
97.73500996083868
 31
0.0
  0
SOLID
  5
892
330
783
100
AcDbEntity
  8
Dimension (ANSI)
100
AcDbTrace
 10
61.9682777029098
 20
103.9724099062251
 30
0.0
 11
62.29636168498007
 21
103.9724099062251
 31
0.0
 12
62.13231969394493
 22
102.9881579600143
 32
0.0
 13
62.13231969394493
 23
102.9881579600143
 33
0.0
  0
SOLID
  5
893
330
783
100
AcDbEntity
  8
Dimension (ANSI)
100
AcDbTrace
 10
61.9682777029098
 20
101.1289060138034
 30
0.0
 11
62.29636168498007
 21
101.1289060138034
 31
0.0
 12
62.13231969394493
 22
102.1131579600142
 32
0.0
 13
62.13231969394493
 23
102.1131579600142
 33
0.0
  0
MTEXT
  5
894
330
783
100
AcDbEntity
  8
Dimension (ANSI)
100
AcDbMText
 10
59.30929757129675
 20
97.73500996083869
 30
0.0
 40
1.000000014901161
 41
0.0
 71
     5
 72
     1
  1
\A1;0.88{\PTYP.}
  7
ROMANS
 73
     1
 44
1.0
1001
ACAD
1000
MTEXTBEGIN
1070
    73
1070
     1
1070
    44
1040
1.0
1070
    74
1070
     0
1000
MTEXTEND
  0
POINT
  5
895
330
783
100
AcDbEntity
  8
Defpoints
 62
     0
100
AcDbPoint
 10
55.80684954018636
 20
102.1131579600142
 30
0.0
  0
POINT
  5
896
330
783
100
AcDbEntity
  8
Defpoints
 62
     0
100
AcDbPoint
 10
55.82705099673031
 20
102.9881579600143
 30
0.0
  0
POINT
  5
897
330
783
100
AcDbEntity
  8
Defpoints
 62
     0
100
AcDbPoint
 10
62.13231969394493
 20
102.9881579600143
 30
0.0
  0
ENDBLK
  5
785
330
783
100
AcDbEntity
  8
0
100
AcDbBlockEnd
  0
BLOCK
  5
89A
330
899
100
AcDbEntity
  8
0
100
AcDbBlockBegin
  2
*D11
 70
     1
 10
0.0
 20
0.0
 30
0.0
  3
*D11
  1

  0
LINE
  5
97F
330
899
100
AcDbEntity
  8
Dimension (ANSI)
100
AcDbLine
 10
98.75148180558737
 20
70.78883310313717
 30
0.0
 11
97.7672298593765
 21
70.78883310313717
 31
0.0
  0
LINE
  5
980
330
899
100
AcDbEntity
  8
Dimension (ANSI)
100
AcDbLine
 10
101.5949856980091
 20
70.78883310313717
 30
0.0
 11
103.2631982200217
 21
70.78883310313717
 31
0.0
  0
SOLID
  5
981
330
899
100
AcDbEntity
  8
Dimension (ANSI)
100
AcDbTrace
 10
98.75148180558737
 20
70.95287509417231
 30
0.0
 11
98.75148180558737
 21
70.62479111210201
 31
0.0
 12
99.73573375179823
 22
70.78883310313717
 32
0.0
 13
99.73573375179823
 23
70.78883310313717
 33
0.0
  0
SOLID
  5
982
330
899
100
AcDbEntity
  8
Dimension (ANSI)
100
AcDbTrace
 10
101.5949856980091
 20
70.95287509417231
 30
0.0
 11
101.5949856980091
 21
70.62479111210201
 31
0.0
 12
100.6107337517982
 22
70.78883310313717
 32
0.0
 13
100.6107337517982
 23
70.78883310313717
 33
0.0
  0
MTEXT
  5
983
330
899
100
AcDbEntity
  8
Dimension (ANSI)
100
AcDbMText
 10
105.101968396459
 20
70.78883310313717
 30
0.0
 40
1.000000014901161
 41
0.0
 71
     5
 72
     1
  1
\A1;0.88{\PTYP.}
  7
ROMANS
 73
     1
 44
1.0
1001
ACAD
1000
MTEXTBEGIN
1070
    73
1070
     1
1070
    44
1040
1.0
1070
    74
1070
     0
1000
MTEXTEND
  0
POINT
  5
984
330
899
100
AcDbEntity
  8
Defpoints
 62
     0
100
AcDbPoint
 10
100.6107337517982
 20
70.78883310313717
 30
0.0
  0
POINT
  5
985
330
899
100
AcDbEntity
  8
Defpoints
 62
     0
100
AcDbPoint
 10
99.73573375179823
 20
70.78414203465165
 30
0.0
  0
POINT
  5
986
330
899
100
AcDbEntity
  8
Defpoints
 62
     0
100
AcDbPoint
 10
99.73573375179823
 20
70.78883310313717
 30
0.0
  0
ENDBLK
  5
89B
330
899
100
AcDbEntity
  8
0
100
AcDbBlockEnd
  0
BLOCK
  5
989
330
988
100
AcDbEntity
  8
0
100
AcDbBlockBegin
  2
*D12
 70
     1
 10
0.0
 20
0.0
 30
0.0
  3
*D12
  1

  0
LINE
  5
A39
330
988
100
AcDbEntity
  8
Dimension (ANSI)
100
AcDbLine
 10
17.04496344630315
 20
28.92599922044422
 30
0.0
 11
18.46629102575005
 21
28.92599922044422
 31
0.0
  0
LINE
  5
A3A
330
988
100
AcDbEntity
  8
Dimension (ANSI)
100
AcDbLine
 10
18.46629102575005
 20
28.92599922044422
 30
0.0
 11
22.91177775570698
 21
33.37148595040002
 31
0.0
  0
MTEXT
  5
A3B
102
{ACAD_XDICTIONARY
360
C59
102
}
330
988
100
AcDbEntity
  8
Dimension (ANSI)
100
AcDbMText
 10
14.13476468247173
 20
29.73552304203087
 30
0.0
 40
1.000000014901161
 41
0.0
 71
     2
 72
     1
  1
\A1;\U+22050.56{\PTYP.\P(8 PL.)}
  7
ROMANS
 73
     1
 44
1.0
1001
ACAD
1000
MTEXTBEGIN
1070
    73
1070
     1
1070
    44
1040
1.0
1070
    74
1070
     0
1000
MTEXTEND
  0
SOLID
  5
A3C
330
988
100
AcDbEntity
  8
Dimension (ANSI)
100
AcDbTrace
 10
22.7957825514467
 20
33.48748115466033
 30
0.0
 11
23.02777295996726
 21
33.25549074613971
 31
0.0
 12
23.60774898126882
 22
34.06745717596169
 32
0.0
 13
23.60774898126882
 23
34.06745717596169
 33
0.0
  0
LINE
  5
A3D
330
988
100
AcDbEntity
  8
Dimension (ANSI)
100
AcDbLine
 10
22.90679954017285
 20
34.26650773486568
 30
0.0
 11
24.70679954017286
 21
34.26650773486568
 31
0.0
  0
LINE
  5
A3E
330
988
100
AcDbEntity
  8
Dimension (ANSI)
100
AcDbLine
 10
23.80679954017287
 20
33.3665077348657
 30
0.0
 11
23.80679954017286
 21
35.16650773486568
 31
0.0
  0
POINT
  5
A3F
330
988
100
AcDbEntity
  8
Defpoints
 62
     0
100
AcDbPoint
 10
23.60774898126882
 20
34.06745717596169
 30
0.0
  0
POINT
  5
A40
330
988
100
AcDbEntity
  8
Defpoints
 62
     0
100
AcDbPoint
 10
24.0058500990769
 20
34.46555829376968
 30
0.0
  0
ENDBLK
  5
98A
330
988
100
AcDbEntity
  8
0
100
AcDbBlockEnd
  0
BLOCK
  5
A43
330
A42
100
AcDbEntity
  8
0
100
AcDbBlockBegin
  2
*D13
 70
     1
 10
0.0
 20
0.0
 30
0.0
  3
*D13
  1

  0
LINE
  5
AF2
330
A42
100
AcDbEntity
  8
Dimension (ANSI)
100
AcDbLine
 10
16.37089633943137
 20
42.28108335615828
 30
0.0
 11
17.79222391887861
 21
42.28108335615828
 31
0.0
  0
LINE
  5
AF3
330
A42
100
AcDbEntity
  8
Dimension (ANSI)
100
AcDbLine
 10
17.79222391887861
 20
42.28108335615828
 30
0.0
 11
25.00051965674594
 21
35.07278761829247
 31
0.0
  0
MTEXT
  5
AF4
102
{ACAD_XDICTIONARY
360
C5B
102
}
330
A42
100
AcDbEntity
  8
Dimension (ANSI)
100
AcDbMText
 10
13.46069757559996
 20
43.09060717774493
 30
0.0
 40
1.000000014901161
 41
0.0
 71
     2
 72
     1
  1
\A1;\U+22050.31{\PTYP.\P(2 PL.)}
  7
ROMANS
 73
     1
 44
1.0
1001
ACAD
1000
MTEXTBEGIN
1070
    73
1070
     1
1070
    44
1040
1.0
1070
    74
1070
     0
1000
MTEXTEND
  0
SOLID
  5
AF5
330
A42
100
AcDbEntity
  8
Dimension (ANSI)
100
AcDbTrace
 10
25.11651486100622
 20
35.18878282255278
 30
0.0
 11
24.88452445248566
 21
34.95679241403216
 31
0.0
 12
25.69649088230777
 22
34.37681639273078
 32
0.0
 13
25.69649088230777
 23
34.37681639273078
 33
0.0
  0
LINE
  5
AF6
330
A42
100
AcDbEntity
  8
Dimension (ANSI)
100
AcDbLine
 10
24.90679954017288
 20
34.26650773486569
 30
0.0
 11
26.70679954017288
 21
34.26650773486569
 31
0.0
  0
LINE
  5
AF7
330
A42
100
AcDbEntity
  8
Dimension (ANSI)
100
AcDbLine
 10
25.80679954017289
 20
33.3665077348657
 30
0.0
 11
25.80679954017289
 21
35.1665077348657
 31
0.0
  0
POINT
  5
AF8
330
A42
100
AcDbEntity
  8
Defpoints
 62
     0
100
AcDbPoint
 10
25.69649088230777
 20
34.37681639273078
 30
0.0
  0
POINT
  5
AF9
330
A42
100
AcDbEntity
  8
Defpoints
 62
     0
100
AcDbPoint
 10
25.917108198038
 20
34.15619907700059
 30
0.0
  0
ENDBLK
  5
A44
330
A42
100
AcDbEntity
  8
0
100
AcDbBlockEnd
  0
BLOCK
  5
B10
330
B0F
100
AcDbEntity
  8
0
100
AcDbBlockBegin
  2
*D14
 70
     1
 10
0.0
 20
0.0
 30
0.0
  3
*D14
  1

  0
LINE
  5
C02
330
B0F
100
AcDbEntity
  8
Dimension (ANSI)
100
AcDbLine
 10
39.43179954017288
 20
78.14150773486568
 30
0.0
 11
39.43179954017288
 21
83.68776757738535
 31
0.0
  0
LINE
  5
C03
330
B0F
100
AcDbEntity
  8
Dimension (ANSI)
100
AcDbLine
 10
55.05679954017287
 20
78.14150773486568
 30
0.0
 11
55.05679954017287
 21
83.68776757738535
 31
0.0
  0
LINE
  5
C04
330
B0F
100
AcDbEntity
  8
Dimension (ANSI)
100
AcDbLine
 10
40.41605148638374
 20
82.43776757738535
 30
0.0
 11
45.00076745294223
 21
82.43776757738535
 31
0.0
  0
LINE
  5
C05
330
B0F
100
AcDbEntity
  8
Dimension (ANSI)
100
AcDbLine
 10
54.07254759396201
 20
82.43776757738535
 30
0.0
 11
49.48783162740351
 21
82.43776757738535
 31
0.0
  0
SOLID
  5
C06
330
B0F
100
AcDbEntity
  8
Dimension (ANSI)
100
AcDbTrace
 10
40.41605148638374
 20
82.60180956842051
 30
0.0
 11
40.41605148638374
 21
82.27372558635021
 31
0.0
 12
39.43179954017288
 22
82.43776757738535
 32
0.0
 13
39.43179954017288
 23
82.43776757738535
 33
0.0
  0
SOLID
  5
C07
330
B0F
100
AcDbEntity
  8
Dimension (ANSI)
100
AcDbTrace
 10
54.07254759396201
 20
82.60180956842051
 30
0.0
 11
54.07254759396201
 21
82.27372558635021
 31
0.0
 12
55.05679954017287
 22
82.43776757738535
 32
0.0
 13
55.05679954017287
 23
82.43776757738535
 33
0.0
  0
MTEXT
  5
C08
330
B0F
100
AcDbEntity
  8
Dimension (ANSI)
100
AcDbMText
 10
47.24429954017288
 20
82.43776757738535
 30
0.0
 40
1.000000014901161
 41
0.0
 71
     5
 72
     1
  1
\A1;15.63{\PTYP.}
  7
ROMANS
 73
     1
 44
1.0
1001
ACAD
1000
MTEXTBEGIN
1070
    73
1070
     1
1070
    44
1040
1.0
1070
    74
1070
     0
1000
MTEXTEND
  0
POINT
  5
C09
330
B0F
100
AcDbEntity
  8
Defpoints
 62
     0
100
AcDbPoint
 10
39.43179954017288
 20
77.51650773486568
 30
0.0
  0
POINT
  5
C0A
330
B0F
100
AcDbEntity
  8
Defpoints
 62
     0
100
AcDbPoint
 10
55.05679954017287
 20
77.51650773486568
 30
0.0
  0
POINT
  5
C0B
330
B0F
100
AcDbEntity
  8
Defpoints
 62
     0
100
AcDbPoint
 10
55.05679954017287
 20
82.43776757738535
 30
0.0
  0
ENDBLK
  5
B11
330
B0F
100
AcDbEntity
  8
0
100
AcDbBlockEnd
  0
ENDSEC
  0
SECTION
  2
ENTITIES
  0
CIRCLE
  5
107
330
6C
100
AcDbEntity
  8
Visible (ANSI)
100
AcDbCircle
 10
53.05679954017289
 20
34.26650773486569
 30
0.0
 40
0.156
  0
CIRCLE
  5
108
330
6C
100
AcDbEntity
  8
Visible (ANSI)
100
AcDbCircle
 10
25.80679954017289
 20
34.2665077348657
 30
0.0
 40
0.156
  0
CIRCLE
  5
109
330
6C
100
AcDbEntity
  8
Visible (ANSI)
100
AcDbCircle
 10
39.43179954017288
 20
34.26650773486568
 30
0.0
 40
0.2814999999999999
  0
CIRCLE
  5
10A
330
6C
100
AcDbEntity
  8
Visible (ANSI)
100
AcDbCircle
 10
39.43179954017288
 20
77.51650773486568
 30
0.0
 40
0.2814999999999999
  0
CIRCLE
  5
10B
330
6C
100
AcDbEntity
  8
Visible (ANSI)
100
AcDbCircle
 10
55.05679954017289
 20
55.8915077348657
 30
0.0
 40
0.2814999999999999
  0
CIRCLE
  5
10C
330
6C
100
AcDbEntity
  8
Visible (ANSI)
100
AcDbCircle
 10
23.80679954017288
 20
55.8915077348657
 30
0.0
 40
0.2814999999999999
  0
CIRCLE
  5
10D
330
6C
100
AcDbEntity
  8
Visible (ANSI)
100
AcDbCircle
 10
55.05679954017288
 20
34.26650773486569
 30
0.0
 40
0.2814999999999999
  0
CIRCLE
  5
10E
330
6C
100
AcDbEntity
  8
Visible (ANSI)
100
AcDbCircle
 10
55.05679954017287
 20
77.51650773486568
 30
0.0
 40
0.2814999999999999
  0
CIRCLE
  5
10F
330
6C
100
AcDbEntity
  8
Visible (ANSI)
100
AcDbCircle
 10
23.80679954017288
 20
77.51650773486568
 30
0.0
 40
0.2814999999999999
  0
CIRCLE
  5
110
330
6C
100
AcDbEntity
  8
Visible (ANSI)
100
AcDbCircle
 10
23.80679954017286
 20
34.26650773486569
 30
0.0
 40
0.2814999999999999
  0
SPLINE
  5
111
330
6C
100
AcDbEntity
  8
Visible (ANSI)
100
AcDbSpline
210
0.0
220
0.0
230
1.0
 70
     8
 71
     3
 72
    11
 73
     7
 74
     0
 42
0.0000000001
 43
0.0000000001
 40
0.0
 40
0.0
 40
0.0
 40
0.0
 40
1.483474787624703
 40
1.483474787624703
 40
1.483474787624703
 40
1.570796326794879
 40
1.570796326794879
 40
1.570796326794879
 40
1.570796326794879
 10
55.80684954017288
 20
33.5164577348657
 30
0.0
 10
55.82230240254396
 20
33.51009825317158
 30
0.0
 10
55.83663282088606
 20
33.50373877147748
 30
0.0
 10
55.83798047443354
 20
33.49737928978337
 30
0.0
 10
55.83805980114878
 20
33.4970049526295
 30
0.0
 10
55.83809954017287
 20
33.49663061547561
 30
0.0
 10
55.83809954017287
 20
33.49625627832172
 30
0.0
  0
SPLINE
  5
112
330
6C
100
AcDbEntity
  8
Visible (ANSI)
100
AcDbSpline
210
0.0
220
0.0
230
1.0
 70
     8
 71
     3
 72
    11
 73
     7
 74
     0
 42
0.0000000001
 43
0.0000000001
 40
0.0
 40
0.0
 40
0.0
 40
0.0
 40
1.483474787627715
 40
1.483474787627715
 40
1.483474787627715
 40
1.570796326794647
 40
1.570796326794647
 40
1.570796326794647
 40
1.570796326794647
 10
55.83809954017286
 20
78.28675919140966
 30
0.0
 10
55.83809954017286
 20
78.28039970971554
 30
0.0
 10
55.82496885708653
 20
78.27404022802141
 30
0.0
 10
55.80957487172287
 20
78.2676807463273
 30
0.0
 10
55.80866873802442
 20
78.26730640917344
 30
0.0
 10
55.8077591395392
 20
78.26693207201957
 30
0.0
 10
55.80684954017288
 20
78.2665577348657
 30
0.0
  0
LINE
  5
113
330
6C
100
AcDbEntity
  8
Visible (ANSI)
100
AcDbLine
 10
55.93179954017286
 20
78.28675919140966
 30
0.0
 11
55.83809954017286
 21
78.28675919140966
 31
0.0
  0
SPLINE
  5
114
330
6C
100
AcDbEntity
  8
Visible (ANSI)
100
AcDbSpline
210
0.0
220
0.0
230
1.0
 70
     8
 71
     3
 72
    11
 73
     7
 74
     0
 42
0.0000000001
 43
0.0000000001
 40
0.0
 40
0.0
 40
0.0
 40
0.0
 40
1.0490800057906
 40
1.0490800057906
 40
1.0490800057906
 40
1.570796326794647
 40
1.570796326794647
 40
1.570796326794647
 40
1.570796326794647
 10
55.80684954017288
 20
78.26655773486568
 30
0.0
 10
55.85054372241406
 20
78.27105501729215
 30
0.0
 10
55.89340100906885
 20
78.2755522997186
 30
0.0
 10
55.91517682892893
 20
78.28004958214506
 30
0.0
 10
55.92600612751584
 20
78.2822861185666
 30
0.0
 10
55.93179954017287
 20
78.28452265498812
 30
0.0
 10
55.93179954017287
 20
78.28675919140964
 30
0.0
  0
LINE
  5
115
330
6C
100
AcDbEntity
  8
Visible (ANSI)
100
AcDbLine
 10
55.93179954017289
 20
33.49625627832172
 30
0.0
 11
55.83809954017289
 21
33.49625627832172
 31
0.0
  0
SPLINE
  5
116
330
6C
100
AcDbEntity
  8
Visible (ANSI)
100
AcDbSpline
210
0.0
220
0.0
230
1.0
 70
     8
 71
     3
 72
    11
 73
     7
 74
     0
 42
0.0000000001
 43
0.0000000001
 40
0.0
 40
0.0
 40
0.0
 40
0.0
 40
1.049080005790977
 40
1.049080005790977
 40
1.049080005790977
 40
1.570796326794879
 40
1.570796326794879
 40
1.570796326794879
 40
1.570796326794879
 10
55.80684954017289
 20
33.5164577348657
 30
0.0
 10
55.85054372241408
 20
33.51196045243924
 30
0.0
 10
55.89340100906889
 20
33.50746317001278
 30
0.0
 10
55.91517682892896
 20
33.50296588758631
 30
0.0
 10
55.92600612751585
 20
33.50072935116479
 30
0.0
 10
55.93179954017287
 20
33.49849281474326
 30
0.0
 10
55.93179954017287
 20
33.49625627832172
 30
0.0
  0
SPLINE
  5
117
330
6C
100
AcDbEntity
  8
Visible (ANSI)
100
AcDbSpline
210
0.0
220
0.0
230
1.0
 70
     8
 71
     3
 72
    11
 73
     7
 74
     0
 42
0.0000000001
 43
0.0000000001
 40
0.0
 40
0.0
 40
0.0
 40
0.0
 40
1.483474787626944
 40
1.483474787626944
 40
1.483474787626944
 40
1.570796326794889
 40
1.570796326794889
 40
1.570796326794889
 40
1.570796326794889
 10
23.05674954017288
 20
33.5164577348657
 30
0.0
 10
23.05039005847877
 20
33.50100487249458
 30
0.0
 10
23.04403057678465
 20
33.48667445415248
 30
0.0
 10
23.03767109509054
 20
33.48532680060503
 30
0.0
 10
23.03729675793666
 20
33.48524747388978
 30
0.0
 10
23.03692242078279
 20
33.4852077348657
 30
0.0
 10
23.03654808362892
 20
33.4852077348657
 30
0.0
  0
SPLINE
  5
118
330
6C
100
AcDbEntity
  8
Visible (ANSI)
100
AcDbSpline
210
0.0
220
0.0
230
1.0
 70
     8
 71
     3
 72
    11
 73
     7
 74
     0
 42
0.0000000001
 43
0.0000000001
 40
0.0
 40
0.0
 40
0.0
 40
0.0
 40
1.483474787626946
 40
1.483474787626946
 40
1.483474787626946
 40
1.57079632679489
 40
1.57079632679489
 40
1.57079632679489
 40
1.57079632679489
 10
55.82705099671684
 20
33.4852077348657
 30
0.0
 10
55.82069151502271
 20
33.4852077348657
 30
0.0
 10
55.8143320333286
 20
33.49833841795201
 30
0.0
 10
55.80797255163449
 20
33.51373240331567
 30
0.0
 10
55.80759821448062
 20
33.51463853701414
 30
0.0
 10
55.80722387732675
 20
33.51554813549936
 30
0.0
 10
55.80684954017288
 20
33.5164577348657
 30
0.0
  0
LINE
  5
119
330
6C
100
AcDbEntity
  8
Visible (ANSI)
100
AcDbLine
 10
55.82705099671684
 20
33.3915077348657
 30
0.0
 11
55.82705099671684
 21
33.4852077348657
 31
0.0
  0
SPLINE
  5
11A
330
6C
100
AcDbEntity
  8
Visible (ANSI)
100
AcDbSpline
210
0.0
220
0.0
230
1.0
 70
     8
 71
     3
 72
    11
 73
     7
 74
     0
 42
0.0000000001
 43
0.0000000001
 40
0.0
 40
0.0
 40
0.0
 40
0.0
 40
1.049080005790748
 40
1.049080005790748
 40
1.049080005790748
 40
1.57079632679489
 40
1.57079632679489
 40
1.57079632679489
 40
1.57079632679489
 10
55.80684954017288
 20
33.5164577348657
 30
0.0
 10
55.81134682259933
 20
33.47276355262451
 30
0.0
 10
55.81584410502578
 20
33.42990626596971
 30
0.0
 10
55.82034138745225
 20
33.40813044610963
 30
0.0
 10
55.82257792387378
 20
33.39730114752273
 30
0.0
 10
55.82481446029532
 20
33.3915077348657
 30
0.0
 10
55.82705099671684
 20
33.3915077348657
 30
0.0
  0
LINE
  5
11B
330
6C
100
AcDbEntity
  8
Visible (ANSI)
100
AcDbLine
 10
23.03654808362892
 20
33.3915077348657
 30
0.0
 11
23.03654808362892
 21
33.4852077348657
 31
0.0
  0
SPLINE
  5
11C
330
6C
100
AcDbEntity
  8
Visible (ANSI)
100
AcDbSpline
210
0.0
220
0.0
230
1.0
 70
     8
 71
     3
 72
    11
 73
     7
 74
     0
 42
0.0000000001
 43
0.0000000001
 40
0.0
 40
0.0
 40
0.0
 40
0.0
 40
1.049080005790747
 40
1.049080005790747
 40
1.049080005790747
 40
1.570796326794889
 40
1.570796326794889
 40
1.570796326794889
 40
1.570796326794889
 10
23.05674954017288
 20
33.5164577348657
 30
0.0
 10
23.05225225774643
 20
33.47276355262451
 30
0.0
 10
23.04775497531997
 20
33.42990626596971
 30
0.0
 10
23.04325769289351
 20
33.40813044610963
 30
0.0
 10
23.04102115647198
 20
33.39730114752273
 30
0.0
 10
23.03878462005045
 20
33.3915077348657
 30
0.0
 10
23.03654808362892
 20
33.3915077348657
 30
0.0
  0
SPLINE
  5
11D
330
6C
100
AcDbEntity
  8
Visible (ANSI)
100
AcDbSpline
210
0.0
220
0.0
230
1.0
 70
     8
 71
     3
 72
    11
 73
     7
 74
     0
 42
0.0000000001
 43
0.0000000001
 40
0.0
 40
0.0
 40
0.0
 40
0.0
 40
1.48347478762695
 40
1.48347478762695
 40
1.48347478762695
 40
1.570796326794863
 40
1.570796326794863
 40
1.570796326794863
 40
1.570796326794863
 10
23.05674954017288
 20
78.26655773486568
 30
0.0
 10
23.04129667780176
 20
78.2729172165598
 30
0.0
 10
23.02696625945966
 20
78.27927669825391
 30
0.0
 10
23.0256186059122
 20
78.28563617994802
 30
0.0
 10
23.02553927919697
 20
78.28601051710191
 30
0.0
 10
23.02549954017287
 20
78.28638485425577
 30
0.0
 10
23.02549954017287
 20
78.28675919140964
 30
0.0
  0
SPLINE
  5
11E
330
6C
100
AcDbEntity
  8
Visible (ANSI)
100
AcDbSpline
210
0.0
220
0.0
230
1.0
 70
     8
 71
     3
 72
    11
 73
     7
 74
     0
 42
0.0000000001
 43
0.0000000001
 40
0.0
 40
0.0
 40
0.0
 40
0.0
 40
1.483474787626948
 40
1.483474787626948
 40
1.483474787626948
 40
1.570796326794863
 40
1.570796326794863
 40
1.570796326794863
 40
1.570796326794863
 10
23.02549954017289
 20
33.49625627832173
 30
0.0
 10
23.02549954017289
 20
33.50261576001585
 30
0.0
 10
23.03863022325921
 20
33.50897524170997
 30
0.0
 10
23.05402420862287
 20
33.51533472340409
 30
0.0
 10
23.05493034232133
 20
33.51570906055796
 30
0.0
 10
23.05583994080656
 20
33.51608339771183
 30
0.0
 10
23.05674954017289
 20
33.5164577348657
 30
0.0
  0
LINE
  5
11F
330
6C
100
AcDbEntity
  8
Visible (ANSI)
100
AcDbLine
 10
22.93179954017289
 20
33.49625627832173
 30
0.0
 11
23.02549954017289
 21
33.49625627832173
 31
0.0
  0
SPLINE
  5
120
330
6C
100
AcDbEntity
  8
Visible (ANSI)
100
AcDbSpline
210
0.0
220
0.0
230
1.0
 70
     8
 71
     3
 72
    11
 73
     7
 74
     0
 42
0.0000000001
 43
0.0000000001
 40
0.0
 40
0.0
 40
0.0
 40
0.0
 40
1.049080005790748
 40
1.049080005790748
 40
1.049080005790748
 40
1.570796326794863
 40
1.570796326794863
 40
1.570796326794863
 40
1.570796326794863
 10
23.05674954017289
 20
33.5164577348657
 30
0.0
 10
23.0130553579317
 20
33.51196045243925
 30
0.0
 10
22.97019807127691
 20
33.50746317001279
 30
0.0
 10
22.94842225141682
 20
33.50296588758632
 30
0.0
 10
22.93759295282992
 20
33.50072935116479
 30
0.0
 10
22.93179954017289
 20
33.49849281474326
 30
0.0
 10
22.93179954017289
 20
33.49625627832173
 30
0.0
  0
LINE
  5
121
330
6C
100
AcDbEntity
  8
Visible (ANSI)
100
AcDbLine
 10
22.93179954017288
 20
78.28675919140964
 30
0.0
 11
23.02549954017287
 21
78.28675919140964
 31
0.0
  0
SPLINE
  5
122
330
6C
100
AcDbEntity
  8
Visible (ANSI)
100
AcDbSpline
210
0.0
220
0.0
230
1.0
 70
     8
 71
     3
 72
    11
 73
     7
 74
     0
 42
0.0000000001
 43
0.0000000001
 40
0.0
 40
0.0
 40
0.0
 40
0.0
 40
1.049080005790747
 40
1.049080005790747
 40
1.049080005790747
 40
1.570796326794863
 40
1.570796326794863
 40
1.570796326794863
 40
1.570796326794863
 10
23.05674954017286
 20
78.26655773486568
 30
0.0
 10
23.01305535793168
 20
78.27105501729214
 30
0.0
 10
22.97019807127688
 20
78.2755522997186
 30
0.0
 10
22.9484222514168
 20
78.28004958214505
 30
0.0
 10
22.93759295282991
 20
78.28228611856658
 30
0.0
 10
22.93179954017288
 20
78.28452265498812
 30
0.0
 10
22.93179954017288
 20
78.28675919140964
 30
0.0
  0
SPLINE
  5
123
330
6C
100
AcDbEntity
  8
Visible (ANSI)
100
AcDbSpline
210
0.0
220
0.0
230
1.0
 70
     8
 71
     3
 72
    11
 73
     7
 74
     0
 42
0.0000000001
 43
0.0000000001
 40
0.0
 40
0.0
 40
0.0
 40
0.0
 40
1.483474787626223
 40
1.483474787626223
 40
1.483474787626223
 40
1.57079632679511
 40
1.57079632679511
 40
1.57079632679511
 40
1.57079632679511
 10
55.80684954017286
 20
78.26655773486568
 30
0.0
 10
55.81320902186698
 20
78.28201059723679
 30
0.0
 10
55.8195685035611
 20
78.2963410155789
 30
0.0
 10
55.82592798525523
 20
78.29768866912636
 30
0.0
 10
55.8263023224091
 20
78.29776799584159
 30
0.0
 10
55.82667665956297
 20
78.2978077348657
 30
0.0
 10
55.82705099671684
 20
78.2978077348657
 30
0.0
  0
SPLINE
  5
124
330
6C
100
AcDbEntity
  8
Visible (ANSI)
100
AcDbSpline
210
0.0
220
0.0
230
1.0
 70
     8
 71
     3
 72
    11
 73
     7
 74
     0
 42
0.0000000001
 43
0.0000000001
 40
0.0
 40
0.0
 40
0.0
 40
0.0
 40
1.483474787627828
 40
1.483474787627828
 40
1.483474787627828
 40
1.570796326794879
 40
1.570796326794879
 40
1.570796326794879
 40
1.570796326794879
 10
23.03654808362892
 20
78.29780773486568
 30
0.0
 10
23.04290756532303
 20
78.29780773486568
 30
0.0
 10
23.04926704701715
 20
78.28467705177934
 30
0.0
 10
23.05562652871127
 20
78.26928306641568
 30
0.0
 10
23.05600086586514
 20
78.26837693271723
 30
0.0
 10
23.056375203019
 20
78.26746733423203
 30
0.0
 10
23.05674954017287
 20
78.26655773486568
 30
0.0
  0
LINE
  5
125
330
6C
100
AcDbEntity
  8
Visible (ANSI)
100
AcDbLine
 10
23.03654808362891
 20
78.39150773486567
 30
0.0
 11
23.03654808362891
 21
78.29780773486568
 31
0.0
  0
SPLINE
  5
126
330
6C
100
AcDbEntity
  8
Visible (ANSI)
100
AcDbSpline
210
0.0
220
0.0
230
1.0
 70
     8
 71
     3
 72
    11
 73
     7
 74
     0
 42
0.0000000001
 43
0.0000000001
 40
0.0
 40
0.0
 40
0.0
 40
0.0
 40
1.049080005790959
 40
1.049080005790959
 40
1.049080005790959
 40
1.570796326794879
 40
1.570796326794879
 40
1.570796326794879
 40
1.570796326794879
 10
23.05674954017287
 20
78.26655773486568
 30
0.0
 10
23.05225225774641
 20
78.31025191710688
 30
0.0
 10
23.04775497531995
 20
78.35310920376169
 30
0.0
 10
23.04325769289349
 20
78.37488502362177
 30
0.0
 10
23.04102115647197
 20
78.38571432220866
 30
0.0
 10
23.03878462005044
 20
78.39150773486569
 30
0.0
 10
23.03654808362892
 20
78.39150773486569
 30
0.0
  0
LINE
  5
127
330
6C
100
AcDbEntity
  8
Visible (ANSI)
100
AcDbLine
 10
55.82705099671684
 20
78.39150773486569
 30
0.0
 11
55.82705099671684
 21
78.2978077348657
 31
0.0
  0
SPLINE
  5
128
330
6C
100
AcDbEntity
  8
Visible (ANSI)
100
AcDbSpline
210
0.0
220
0.0
230
1.0
 70
     8
 71
     3
 72
    11
 73
     7
 74
     0
 42
0.0000000001
 43
0.0000000001
 40
0.0
 40
0.0
 40
0.0
 40
0.0
 40
1.049080005790682
 40
1.049080005790682
 40
1.049080005790682
 40
1.57079632679511
 40
1.57079632679511
 40
1.57079632679511
 40
1.57079632679511
 10
55.80684954017286
 20
78.26655773486567
 30
0.0
 10
55.81134682259932
 20
78.31025191710685
 30
0.0
 10
55.81584410502578
 20
78.35310920376166
 30
0.0
 10
55.82034138745225
 20
78.37488502362174
 30
0.0
 10
55.82257792387379
 20
78.38571432220866
 30
0.0
 10
55.82481446029532
 20
78.39150773486569
 30
0.0
 10
55.82705099671684
 20
78.39150773486569
 30
0.0
  0
LINE
  5
129
330
6C
100
AcDbEntity
  8
Visible (ANSI)
100
AcDbLine
 10
55.93179954017286
 20
78.28675919140966
 30
0.0
 11
55.93179954017289
 21
33.49625627832172
 31
0.0
  0
LINE
  5
12A
330
6C
100
AcDbEntity
  8
Visible (ANSI)
100
AcDbLine
 10
55.82705099671684
 20
33.3915077348657
 30
0.0
 11
23.03654808362892
 21
33.3915077348657
 31
0.0
  0
LINE
  5
12B
330
6C
100
AcDbEntity
  8
Visible (ANSI)
100
AcDbLine
 10
22.93179954017289
 20
33.49625627832173
 30
0.0
 11
22.93179954017288
 21
78.28675919140964
 31
0.0
  0
LINE
  5
12C
330
6C
100
AcDbEntity
  8
Visible (ANSI)
100
AcDbLine
 10
23.03654808362891
 20
78.39150773486567
 30
0.0
 11
55.82705099671684
 21
78.39150773486569
 31
0.0
  0
MTEXT
  5
12E
330
6C
100
AcDbEntity
  8
Symbol (ANSI)
100
AcDbMText
 10
34.36265984583008
 20
21.22586602682041
 30
0.0
 40
1.200000014830761
 41
0.0
 71
     7
 72
     1
  1
FRONT VIEW
  7
Text Style168
 73
     1
 44
1.0
1001
ACAD
1000
MTEXTBEGIN
1070
    73
1070
     1
1070
    44
1040
1.0
1070
    74
1070
     0
1000
MTEXTEND
  0
LINE
  5
130
330
6C
100
AcDbEntity
  8
Symbol (ANSI)
370
    30
100
AcDbLine
 10
34.24265953714621
 20
20.98114965307151
 30
0.0
 11
43.89030958000298
 21
20.98114965307151
 31
0.0
  0
LINE
  5
131
330
6C
100
AcDbEntity
  8
Visible (ANSI)
100
AcDbLine
 10
99.86068375179826
 20
33.49625627832172
 30
0.0
 11
100.6107337517982
 21
33.49625627832172
 31
0.0
  0
LINE
  5
132
330
6C
100
AcDbEntity
  8
Visible (ANSI)
100
AcDbLine
 10
99.86068375179826
 20
78.28675919140966
 30
0.0
 11
100.6107337517982
 21
78.28675919140966
 31
0.0
  0
SPLINE
  5
133
330
6C
100
AcDbEntity
  8
Visible (ANSI)
100
AcDbSpline
210
0.0
220
0.0
230
1.0
 70
     8
 71
     3
 72
    11
 73
     7
 74
     0
 42
0.0000000001
 43
0.0000000001
 40
0.0
 40
0.0
 40
0.0
 40
0.0
 40
1.0490800057906
 40
1.0490800057906
 40
1.0490800057906
 40
1.570796326794647
 40
1.570796326794647
 40
1.570796326794647
 40
1.570796326794647
 10
99.73573375179821
 20
78.26655773486568
 30
0.0
 10
99.73573375179823
 20
78.27105501729215
 30
0.0
 10
99.76053123164186
 20
78.2755522997186
 30
0.0
 10
99.79841256254703
 20
78.28004958214506
 30
0.0
 10
99.81725126739842
 20
78.2822861185666
 30
0.0
 10
99.8389542670284
 20
78.28452265498812
 30
0.0
 10
99.86068375179822
 20
78.28675919140964
 30
0.0
  0
SPLINE
  5
134
330
6C
100
AcDbEntity
  8
Visible (ANSI)
100
AcDbSpline
210
0.0
220
0.0
230
1.0
 70
     8
 71
     3
 72
    11
 73
     7
 74
     0
 42
0.0000000001
 43
0.0000000001
 40
0.0
 40
0.0
 40
0.0
 40
0.0
 40
1.049080005790977
 40
1.049080005790977
 40
1.049080005790977
 40
1.570796326794879
 40
1.570796326794879
 40
1.570796326794879
 40
1.570796326794879
 10
99.73573375179821
 20
33.5164577348657
 30
0.0
 10
99.73573375179825
 20
33.51196045243924
 30
0.0
 10
99.76053123164188
 20
33.50746317001278
 30
0.0
 10
99.79841256254708
 20
33.50296588758631
 30
0.0
 10
99.81725126739847
 20
33.50072935116479
 30
0.0
 10
99.83895426702845
 20
33.49849281474326
 30
0.0
 10
99.86068375179826
 20
33.49625627832172
 30
0.0
  0
SPLINE
  5
135
330
6C
100
AcDbEntity
  8
Visible (ANSI)
100
AcDbSpline
210
0.0
220
0.0
230
1.0
 70
     8
 71
     3
 72
     8
 73
     4
 74
     0
 42
0.0000000001
 43
0.0000000001
 40
0.0
 40
0.0
 40
0.0
 40
0.0
 40
0.9756948527142602
 40
0.9756948527142602
 40
0.9756948527142602
 40
0.9756948527142602
 10
99.86068375179822
 20
33.4852077348657
 30
0.0
 10
99.85052026374912
 20
33.4852077348657
 30
0.0
 10
99.84084232393795
 20
33.49088782213128
 30
0.0
 10
99.83502434328144
 20
33.49915608969273
 30
0.0
  0
LINE
  5
136
330
6C
100
AcDbEntity
  8
Visible (ANSI)
100
AcDbLine
 10
99.86068375179822
 20
33.3915077348657
 30
0.0
 11
100.6107337517982
 21
33.3915077348657
 31
0.0
  0
LINE
  5
137
330
6C
100
AcDbEntity
  8
Visible (ANSI)
100
AcDbLine
 10
100.6107337517982
 20
33.4852077348657
 30
0.0
 11
99.86068375179822
 21
33.4852077348657
 31
0.0
  0
LINE
  5
138
330
6C
100
AcDbEntity
  8
Visible (ANSI)
100
AcDbLine
 10
99.86068375179822
 20
33.3915077348657
 30
0.0
 11
99.86068375179822
 21
33.4852077348657
 31
0.0
  0
LINE
  5
139
330
6C
100
AcDbEntity
  8
Visible (ANSI)
100
AcDbLine
 10
100.6107337517982
 20
33.3915077348657
 30
0.0
 11
100.6107337517982
 21
33.4852077348657
 31
0.0
  0
SPLINE
  5
13A
330
6C
100
AcDbEntity
  8
Visible (ANSI)
100
AcDbSpline
210
0.0
220
0.0
230
1.0
 70
     8
 71
     3
 72
    11
 73
     7
 74
     0
 42
0.0000000001
 43
0.0000000001
 40
0.0
 40
0.0
 40
0.0
 40
0.0
 40
1.049080005790748
 40
1.049080005790748
 40
1.049080005790748
 40
1.57079632679489
 40
1.57079632679489
 40
1.57079632679489
 40
1.57079632679489
 10
99.73573375179821
 20
33.5164577348657
 30
0.0
 10
99.73573375179821
 20
33.47276355262451
 30
0.0
 10
99.76053123164184
 20
33.42990626596971
 30
0.0
 10
99.79841256254701
 20
33.40813044610963
 30
0.0
 10
99.8172512673984
 20
33.39730114752273
 30
0.0
 10
99.8389542670284
 20
33.3915077348657
 30
0.0
 10
99.86068375179822
 20
33.3915077348657
 30
0.0
  0
SPLINE
  5
13B
330
6C
100
AcDbEntity
  8
Visible (ANSI)
100
AcDbSpline
210
0.0
220
0.0
230
1.0
 70
     8
 71
     3
 72
    11
 73
     7
 74
     0
 42
0.0000000001
 43
0.0000000001
 40
0.595101474080496
 40
0.595101474080496
 40
0.595101474080496
 40
0.595101474080496
 40
1.483474787626223
 40
1.483474787626223
 40
1.483474787626223
 40
1.57079632679511
 40
1.57079632679511
 40
1.57079632679511
 40
1.57079632679511
 10
99.83507134287414
 20
78.28384712252878
 30
0.0
 10
99.84033281772351
 20
78.29141875660983
 30
0.0
 10
99.84873978984055
 20
78.29688163185316
 30
0.0
 10
99.85795842024817
 20
78.29768866912636
 30
0.0
 10
99.85886455394664
 20
78.29776799584159
 30
0.0
 10
99.85977415243189
 20
78.2978077348657
 30
0.0
 10
99.86068375179822
 20
78.2978077348657
 30
0.0
  0
LINE
  5
13C
330
6C
100
AcDbEntity
  8
Visible (ANSI)
100
AcDbLine
 10
99.86068375179822
 20
78.39150773486569
 30
0.0
 11
100.6107337517982
 21
78.39150773486574
 31
0.0
  0
LINE
  5
13D
330
6C
100
AcDbEntity
  8
Visible (ANSI)
100
AcDbLine
 10
99.86068375179822
 20
78.39150773486569
 30
0.0
 11
99.86068375179822
 21
78.2978077348657
 31
0.0
  0
SPLINE
  5
13E
330
6C
100
AcDbEntity
  8
Visible (ANSI)
100
AcDbSpline
210
0.0
220
0.0
230
1.0
 70
     8
 71
     3
 72
    11
 73
     7
 74
     0
 42
0.0000000001
 43
0.0000000001
 40
0.0
 40
0.0
 40
0.0
 40
0.0
 40
1.049080005790682
 40
1.049080005790682
 40
1.049080005790682
 40
1.57079632679511
 40
1.57079632679511
 40
1.57079632679511
 40
1.57079632679511
 10
99.73573375179821
 20
78.26655773486567
 30
0.0
 10
99.73573375179821
 20
78.31025191710685
 30
0.0
 10
99.76053123164183
 20
78.35310920376166
 30
0.0
 10
99.79841256254701
 20
78.37488502362174
 30
0.0
 10
99.8172512673984
 20
78.38571432220866
 30
0.0
 10
99.8389542670284
 20
78.39150773486569
 30
0.0
 10
99.86068375179824
 20
78.39150773486569
 30
0.0
  0
LINE
  5
13F
330
6C
100
AcDbEntity
  8
Visible (ANSI)
100
AcDbLine
 10
99.86068375179822
 20
78.2978077348657
 30
0.0
 11
100.6107337517982
 21
78.29780773486574
 31
0.0
  0
LINE
  5
140
330
6C
100
AcDbEntity
  8
Visible (ANSI)
100
AcDbLine
 10
100.6107337517982
 20
78.39150773486574
 30
0.0
 11
100.6107337517982
 21
78.29780773486574
 31
0.0
  0
LINE
  5
141
330
6C
100
AcDbEntity
  8
Visible (ANSI)
100
AcDbLine
 10
100.6107337517982
 20
33.49625627832172
 30
0.0
 11
100.6107337517982
 21
78.28675919140966
 31
0.0
  0
LINE
  5
142
330
6C
100
AcDbEntity
  8
Visible (ANSI)
100
AcDbLine
 10
99.73573375179821
 20
33.5164577348657
 30
0.0
 11
99.73573375179821
 21
78.26655773486568
 31
0.0
  0
MTEXT
  5
143
330
6C
100
AcDbEntity
  8
Symbol (ANSI)
100
AcDbMText
 10
96.95722555894173
 20
22.57604469338976
 30
0.0
 40
1.200000014830761
 41
0.0
 71
     7
 72
     1
  1
SIDE VIEW
  7
Text Style168
 73
     1
 44
1.0
1001
ACAD
1000
MTEXTBEGIN
1070
    73
1070
     1
1070
    44
1040
1.0
1070
    74
1070
     0
1000
MTEXTEND
  0
LINE
  5
144
330
6C
100
AcDbEntity
  8
Symbol (ANSI)
370
    30
100
AcDbLine
 10
96.89578540089557
 20
22.32743853174269
 30
0.0
 11
105.0050236049505
 21
22.32743853174269
 31
0.0
  0
SPLINE
  5
145
330
6C
100
AcDbEntity
  8
Visible (ANSI)
100
AcDbSpline
210
0.0
220
0.0
230
1.0
 70
     8
 71
     3
 72
     8
 73
     4
 74
     0
 42
0.0000000001
 43
0.0000000001
 40
0.0
 40
0.0
 40
0.0
 40
0.0
 40
0.9756948527135934
 40
0.9756948527135934
 40
0.9756948527135934
 40
0.9756948527135934
 10
55.83809954018634
 20
102.2381079600142
 30
0.0
 10
55.83809954018634
 20
102.2279444719651
 30
0.0
 10
55.83241945292077
 20
102.218266532154
 30
0.0
 10
55.82415118535931
 20
102.2124485514975
 30
0.0
  0
LINE
  5
146
330
6C
100
AcDbEntity
  8
Visible (ANSI)
100
AcDbLine
 10
55.93179954018633
 20
102.2381079600142
 30
0.0
 11
55.93179954018631
 21
102.9881579600142
 31
0.0
  0
LINE
  5
147
330
6C
100
AcDbEntity
  8
Visible (ANSI)
100
AcDbLine
 10
55.8380995401863
 20
102.9881579600142
 30
0.0
 11
55.83809954018634
 21
102.2381079600142
 31
0.0
  0
LINE
  5
148
330
6C
100
AcDbEntity
  8
Visible (ANSI)
100
AcDbLine
 10
55.93179954018633
 20
102.2381079600142
 30
0.0
 11
55.83809954018634
 21
102.2381079600142
 31
0.0
  0
LINE
  5
149
330
6C
100
AcDbEntity
  8
Visible (ANSI)
100
AcDbLine
 10
55.93179954018631
 20
102.9881579600142
 30
0.0
 11
55.8380995401863
 21
102.9881579600142
 31
0.0
  0
SPLINE
  5
14A
330
6C
100
AcDbEntity
  8
Visible (ANSI)
100
AcDbSpline
210
0.0
220
0.0
230
1.0
 70
     8
 71
     3
 72
    11
 73
     7
 74
     0
 42
0.0000000001
 43
0.0000000001
 40
0.0
 40
0.0
 40
0.0
 40
0.0
 40
1.0490800057906
 40
1.0490800057906
 40
1.0490800057906
 40
1.570796326794647
 40
1.570796326794647
 40
1.570796326794647
 40
1.570796326794647
 10
55.80684954018636
 20
102.1131579600142
 30
0.0
 10
55.85054372242754
 20
102.1131579600142
 30
0.0
 10
55.89340100908233
 20
102.1379554398579
 30
0.0
 10
55.91517682894242
 20
102.175836770763
 30
0.0
 10
55.92600612752931
 20
102.1946754756144
 30
0.0
 10
55.93179954018634
 20
102.2163784752444
 30
0.0
 10
55.93179954018635
 20
102.2381079600142
 30
0.0
  0
SPLINE
  5
14B
330
6C
100
AcDbEntity
  8
Visible (ANSI)
100
AcDbSpline
210
0.0
220
0.0
230
1.0
 70
     8
 71
     3
 72
    11
 73
     7
 74
     0
 42
0.0000000001
 43
0.0000000001
 40
0.595101474080435
 40
0.595101474080435
 40
0.595101474080435
 40
0.595101474080435
 40
1.48347478762695
 40
1.48347478762695
 40
1.48347478762695
 40
1.570796326794863
 40
1.570796326794863
 40
1.570796326794863
 40
1.570796326794863
 10
23.03946015252327
 20
102.2124955510901
 30
0.0
 10
23.03188851844222
 20
102.2177570259395
 30
0.0
 10
23.02642564319888
 20
102.2261639980566
 30
0.0
 10
23.02561860592568
 20
102.2353826284642
 30
0.0
 10
23.02553927921045
 20
102.2362887621627
 30
0.0
 10
23.02549954018635
 20
102.2371983606479
 30
0.0
 10
23.02549954018635
 20
102.2381079600142
 30
0.0
  0
LINE
  5
14C
330
6C
100
AcDbEntity
  8
Visible (ANSI)
100
AcDbLine
 10
22.93179954018635
 20
102.2381079600142
 30
0.0
 11
22.93179954018635
 21
102.9881579600143
 31
0.0
  0
LINE
  5
14D
330
6C
100
AcDbEntity
  8
Visible (ANSI)
100
AcDbLine
 10
22.93179954018635
 20
102.2381079600142
 30
0.0
 11
23.02549954018635
 21
102.2381079600142
 31
0.0
  0
SPLINE
  5
14E
330
6C
100
AcDbEntity
  8
Visible (ANSI)
100
AcDbSpline
210
0.0
220
0.0
230
1.0
 70
     8
 71
     3
 72
    11
 73
     7
 74
     0
 42
0.0000000001
 43
0.0000000001
 40
0.0
 40
0.0
 40
0.0
 40
0.0
 40
1.049080005790747
 40
1.049080005790747
 40
1.049080005790747
 40
1.570796326794863
 40
1.570796326794863
 40
1.570796326794863
 40
1.570796326794863
 10
23.05674954018634
 20
102.1131579600142
 30
0.0
 10
23.01305535794516
 20
102.1131579600142
 30
0.0
 10
22.97019807129036
 20
102.1379554398579
 30
0.0
 10
22.94842225143028
 20
102.175836770763
 30
0.0
 10
22.93759295284338
 20
102.1946754756144
 30
0.0
 10
22.93179954018635
 20
102.2163784752444
 30
0.0
 10
22.93179954018635
 20
102.2381079600142
 30
0.0
  0
LINE
  5
14F
330
6C
100
AcDbEntity
  8
Visible (ANSI)
100
AcDbLine
 10
23.02549954018635
 20
102.2381079600142
 30
0.0
 11
23.02549954018635
 21
102.9881579600143
 31
0.0
  0
LINE
  5
150
330
6C
100
AcDbEntity
  8
Visible (ANSI)
100
AcDbLine
 10
22.93179954018635
 20
102.9881579600143
 30
0.0
 11
23.02549954018635
 21
102.9881579600143
 31
0.0
  0
LINE
  5
151
330
6C
100
AcDbEntity
  8
Visible (ANSI)
100
AcDbLine
 10
55.82705099673033
 20
102.2381079600143
 30
0.0
 11
55.82705099673031
 21
102.9881579600143
 31
0.0
  0
LINE
  5
152
330
6C
100
AcDbEntity
  8
Visible (ANSI)
100
AcDbLine
 10
23.03654808364239
 20
102.2381079600142
 30
0.0
 11
23.03654808364238
 21
102.9881579600143
 31
0.0
  0
SPLINE
  5
153
330
6C
100
AcDbEntity
  8
Visible (ANSI)
100
AcDbSpline
210
0.0
220
0.0
230
1.0
 70
     8
 71
     3
 72
    11
 73
     7
 74
     0
 42
0.0000000001
 43
0.0000000001
 40
0.0
 40
0.0
 40
0.0
 40
0.0
 40
1.049080005790959
 40
1.049080005790959
 40
1.049080005790959
 40
1.570796326794879
 40
1.570796326794879
 40
1.570796326794879
 40
1.570796326794879
 10
23.05674954018634
 20
102.1131579600142
 30
0.0
 10
23.05225225775989
 20
102.1131579600142
 30
0.0
 10
23.04775497533343
 20
102.1379554398579
 30
0.0
 10
23.04325769290697
 20
102.1758367707631
 30
0.0
 10
23.04102115648545
 20
102.1946754756145
 30
0.0
 10
23.03878462006391
 20
102.2163784752444
 30
0.0
 10
23.03654808364239
 20
102.2381079600143
 30
0.0
  0
SPLINE
  5
154
330
6C
100
AcDbEntity
  8
Visible (ANSI)
100
AcDbSpline
210
0.0
220
0.0
230
1.0
 70
     8
 71
     3
 72
    11
 73
     7
 74
     0
 42
0.0000000001
 43
0.0000000001
 40
0.0
 40
0.0
 40
0.0
 40
0.0
 40
1.049080005790682
 40
1.049080005790682
 40
1.049080005790682
 40
1.57079632679511
 40
1.57079632679511
 40
1.57079632679511
 40
1.57079632679511
 10
55.80684954018634
 20
102.1131579600142
 30
0.0
 10
55.8113468226128
 20
102.1131579600142
 30
0.0
 10
55.81584410503927
 20
102.1379554398579
 30
0.0
 10
55.82034138746573
 20
102.175836770763
 30
0.0
 10
55.82257792388727
 20
102.1946754756144
 30
0.0
 10
55.82481446030879
 20
102.2163784752444
 30
0.0
 10
55.82705099673033
 20
102.2381079600143
 30
0.0
  0
LINE
  5
155
330
6C
100
AcDbEntity
  8
Visible (ANSI)
100
AcDbLine
 10
55.82705099673031
 20
102.9881579600143
 30
0.0
 11
23.03654808364238
 21
102.9881579600143
 31
0.0
  0
LINE
  5
156
330
6C
100
AcDbEntity
  8
Visible (ANSI)
100
AcDbLine
 10
55.80684954018636
 20
102.1131579600142
 30
0.0
 11
23.05674954018634
 21
102.1131579600142
 31
0.0
  0
MTEXT
  5
157
330
6C
100
AcDbEntity
  8
Symbol (ANSI)
100
AcDbMText
 10
35.64510215087823
 20
96.70908047511266
 30
0.0
 40
1.200000014830761
 41
0.0
 71
     7
 72
     1
  1
TOP VIEW
  7
Text Style168
 73
     1
 44
1.0
1001
ACAD
1000
MTEXTBEGIN
1070
    73
1070
     1
1070
    44
1040
1.0
1070
    74
1070
     0
1000
MTEXTEND
  0
LINE
  5
158
330
6C
100
AcDbEntity
  8
Symbol (ANSI)
370
    30
100
AcDbLine
 10
35.6460621533477
 20
96.46436410136375
 30
0.0
 11
43.21753692702501
 21
96.46436410136375
 31
0.0
  0
ELLIPSE
  5
159
330
6C
100
AcDbEntity
  8
Visible (ANSI)
100
AcDbEllipse
 10
148.510075513885
 20
34.8264496312071
 30
0.0
 11
-0.0700641225064511
 21
0.1216683144347821
 31
0.0
210
0.0
220
0.0
230
1.0
 40
0.5780931159158114
 41
0.0
 42
6.283185307179586
  0
ELLIPSE
  5
15A
330
6C
100
AcDbEntity
  8
Visible (ANSI)
100
AcDbEllipse
 10
148.5697058287424
 20
34.8607884457512
 30
0.0
 11
0.0700641225064562
 21
-0.1216683144347743
 31
0.0
210
0.0
220
0.0
230
1.0
 40
0.5780931159158113
 41
3.579337952255983
 42
5.845440008512193
  0
ELLIPSE
  5
15B
330
6C
100
AcDbEntity
  8
Visible (ANSI)
100
AcDbEllipse
 10
131.1682817052822
 20
44.81292451196261
 30
0.0
 11
-0.0700641225064511
 21
0.1216683144347821
 31
0.0
210
0.0
220
0.0
230
1.0
 40
0.5780931159158114
 41
0.0
 42
6.283185307179586
  0
ELLIPSE
  5
15C
330
6C
100
AcDbEntity
  8
Visible (ANSI)
100
AcDbEllipse
 10
131.2279120201397
 20
44.84726332650672
 30
0.0
 11
0.0700641225064584
 21
-0.1216683144347782
 31
0.0
210
0.0
220
0.0
230
0.9999999999999998
 40
0.5780931159158114
 41
3.579337952256326
 42
5.845440008512506
  0
ELLIPSE
  5
15D
330
6C
100
AcDbEntity
  8
Visible (ANSI)
100
AcDbEllipse
 10
139.8391786095836
 20
39.81968707158485
 30
0.0
 11
-0.12642981080491
 21
0.2195489135473793
 31
0.0
210
0.0
220
0.0
230
1.0
 40
0.5780931159158114
 41
0.0
 42
6.283185307179586
  0
ELLIPSE
  5
15E
330
6C
100
AcDbEntity
  8
Visible (ANSI)
100
AcDbEllipse
 10
139.898808924441
 20
39.85402588612896
 30
0.0
 11
-0.1264298108049102
 21
0.2195489135473795
 31
0.0
210
0.0
220
0.0
230
1.0
 40
0.5780931159158112
 41
0.2371295998375711
 42
2.904463053752299
  0
ELLIPSE
  5
15F
330
6C
100
AcDbEntity
  8
Visible (ANSI)
100
AcDbEllipse
 10
139.8391786095836
 20
71.64270890608062
 30
0.0
 11
-0.12642981080491
 21
0.2195489135473793
 31
0.0
210
0.0
220
0.0
230
1.0
 40
0.5780931159158114
 41
0.0
 42
6.283185307179586
  0
ELLIPSE
  5
160
330
6C
100
AcDbEntity
  8
Visible (ANSI)
100
AcDbEllipse
 10
139.898808924441
 20
71.67704772062474
 30
0.0
 11
-0.1264298108049102
 21
0.2195489135473796
 31
0.0
210
0.0
220
0.0
230
0.9999999999999998
 40
0.5780931159158113
 41
0.2371295998375427
 42
2.904463053752282
  0
ELLIPSE
  5
161
330
6C
100
AcDbEntity
  8
Visible (ANSI)
100
AcDbEllipse
 10
149.7828677200209
 20
50.0050082636289
 30
0.0
 11
-0.12642981080491
 21
0.2195489135473793
 31
0.0
210
0.0
220
0.0
230
1.0
 40
0.5780931159158114
 41
0.0
 42
6.283185307179586
  0
ELLIPSE
  5
162
330
6C
100
AcDbEntity
  8
Visible (ANSI)
100
AcDbEllipse
 10
149.8424980348784
 20
50.03934707817301
 30
0.0
 11
-0.12642981080491
 21
0.2195489135473792
 31
0.0
210
0.0
220
0.0
230
1.0
 40
0.5780931159158114
 41
0.237129599837571
 42
2.904463053752299
  0
ELLIPSE
  5
163
330
6C
100
AcDbEntity
  8
Visible (ANSI)
100
AcDbEllipse
 10
129.8954894991463
 20
61.45738771403661
 30
0.0
 11
-0.12642981080491
 21
0.2195489135473793
 31
0.0
210
0.0
220
0.0
230
1.0
 40
0.5780931159158114
 41
0.0
 42
6.283185307179586
  0
ELLIPSE
  5
164
330
6C
100
AcDbEntity
  8
Visible (ANSI)
100
AcDbEllipse
 10
129.9551198140037
 20
61.49172652858072
 30
0.0
 11
-0.1264298108049102
 21
0.2195489135473797
 31
0.0
210
0.0
220
0.0
230
0.9999999999999998
 40
0.5780931159158112
 41
0.2371295998375714
 42
2.904463053752299
  0
ELLIPSE
  5
165
330
6C
100
AcDbEntity
  8
Visible (ANSI)
100
AcDbEllipse
 10
149.7828677200209
 20
34.09349734638101
 30
0.0
 11
-0.12642981080491
 21
0.2195489135473793
 31
0.0
210
0.0
220
0.0
230
1.0
 40
0.5780931159158114
 41
0.0
 42
6.283185307179586
  0
ELLIPSE
  5
166
330
6C
100
AcDbEntity
  8
Visible (ANSI)
100
AcDbEllipse
 10
149.8424980348784
 20
34.12783616092512
 30
0.0
 11
-0.1264298108049106
 21
0.2195489135473802
 31
0.0
210
0.0
220
0.0
230
0.9999999999999998
 40
0.5780931159158111
 41
0.2371295998375711
 42
2.904463053752299
  0
ELLIPSE
  5
167
330
6C
100
AcDbEntity
  8
Visible (ANSI)
100
AcDbEllipse
 10
149.7828677200209
 20
65.91651918087677
 30
0.0
 11
-0.12642981080491
 21
0.2195489135473793
 31
0.0
210
0.0
220
0.0
230
1.0
 40
0.5780931159158114
 41
0.0
 42
6.283185307179586
  0
ELLIPSE
  5
168
330
6C
100
AcDbEntity
  8
Visible (ANSI)
100
AcDbEllipse
 10
149.8424980348784
 20
65.95085799542089
 30
0.0
 11
-0.1264298108049091
 21
0.2195489135473777
 31
0.0
210
0.0
220
0.0
230
0.9999999999999998
 40
0.5780931159158114
 41
0.2371295998376004
 42
2.904463053752317
  0
ELLIPSE
  5
169
330
6C
100
AcDbEntity
  8
Visible (ANSI)
100
AcDbEllipse
 10
129.8954894991463
 20
77.36889863128448
 30
0.0
 11
-0.12642981080491
 21
0.2195489135473793
 31
0.0
210
0.0
220
0.0
230
1.0
 40
0.5780931159158114
 41
0.0
 42
6.283185307179586
  0
ELLIPSE
  5
16A
330
6C
100
AcDbEntity
  8
Visible (ANSI)
100
AcDbEllipse
 10
129.9551198140037
 20
77.40323744582861
 30
0.0
 11
-0.12642981080491
 21
0.2195489135473794
 31
0.0
210
0.0
220
0.0
230
0.9999999999999998
 40
0.5780931159158113
 41
0.2371295998375427
 42
2.904463053752282
  0
ELLIPSE
  5
16B
330
6C
100
AcDbEntity
  8
Visible (ANSI)
100
AcDbEllipse
 10
129.8954894991463
 20
45.54587679678871
 30
0.0
 11
-0.12642981080491
 21
0.2195489135473793
 31
0.0
210
0.0
220
0.0
230
1.0
 40
0.5780931159158114
 41
0.0
 42
6.283185307179586
  0
ELLIPSE
  5
16C
330
6C
100
AcDbEntity
  8
Visible (ANSI)
100
AcDbEllipse
 10
129.9551198140037
 20
45.58021561133283
 30
0.0
 11
-0.12642981080491
 21
0.2195489135473792
 31
0.0
210
0.0
220
0.0
230
0.9999999999999998
 40
0.5780931159158113
 41
0.2371295998375706
 42
2.904463053752298
  0
SPLINE
  5
16D
330
6C
100
AcDbEntity
  8
Visible (ANSI)
100
AcDbSpline
210
0.0
220
0.0
230
1.0
 70
     8
 71
     3
 72
    11
 73
     7
 74
     0
 42
0.0000000001
 43
0.0000000001
 40
0.0
 40
0.0
 40
0.0
 40
0.0
 40
1.483474787627715
 40
1.483474787627715
 40
1.483474787627715
 40
1.570796326794647
 40
1.570796326794647
 40
1.570796326794647
 40
1.570796326794647
 10
150.3596016884263
 20
66.24272774213697
 30
0.0
 10
150.349767547032
 20
66.2323853783689
 30
0.0
 10
150.332291409097
 20
66.22726644564338
 30
0.0
 10
150.321637095335
 20
66.22773483276539
 30
0.0
 10
150.321009952168
 20
66.22776240336164
 30
0.0
 10
150.3204057974766
 20
66.22780575166391
 30
0.0
 10
150.3198269319845
 20
66.22786366369334
 30
0.0
  0
LINE
  5
16E
330
6C
100
AcDbEntity
  8
Visible (ANSI)
100
AcDbLine
 10
150.4192320032838
 20
33.25187673843115
 30
0.0
 11
150.8965609003898
 21
33.52675216904815
 31
0.0
  0
LINE
  5
16F
330
6C
100
AcDbEntity
  8
Visible (ANSI)
100
AcDbLine
 10
150.4192320032837
 20
66.20838892759287
 30
0.0
 11
150.8965609003897
 21
66.48326435820988
 31
0.0
  0
LINE
  5
170
330
6C
100
AcDbEntity
  8
Visible (ANSI)
100
AcDbLine
 10
150.8369305855322
 20
66.51760317275396
 30
0.0
 11
150.3596016884263
 21
66.24272774213697
 31
0.0
  0
LINE
  5
171
330
6C
100
AcDbEntity
  8
Visible (ANSI)
100
AcDbLine
 10
150.4192320032837
 20
66.20838892759287
 30
0.0
 11
150.3596016884263
 21
66.24272774213697
 31
0.0
  0
LINE
  5
172
330
6C
100
AcDbEntity
  8
Visible (ANSI)
100
AcDbLine
 10
150.8965609003897
 20
66.48326435820988
 30
0.0
 11
150.8369305855322
 21
66.51760317275396
 31
0.0
  0
LINE
  5
173
330
6C
100
AcDbEntity
  8
Visible (ANSI)
100
AcDbLine
 10
150.2601966171271
 20
66.19352484914923
 30
0.0
 11
150.3198269319845
 21
66.22786366369332
 31
0.0
  0
SPLINE
  5
174
330
6C
100
AcDbEntity
  8
Visible (ANSI)
100
AcDbSpline
210
0.0
220
0.0
230
1.0
 70
     8
 71
     3
 72
    11
 73
     7
 74
     0
 42
0.0000000001
 43
0.0000000001
 40
0.0
 40
0.0
 40
0.0
 40
0.0
 40
1.0490800057906
 40
1.0490800057906
 40
1.0490800057906
 40
1.570796326794647
 40
1.570796326794647
 40
1.570796326794647
 40
1.570796326794647
 10
150.2601966171271
 20
66.19352484914923
 30
0.0
 10
150.2880034244321
 20
66.1808210400812
 30
0.0
 10
150.3310586541856
 20
66.17751161803394
 30
0.0
 10
150.3690242324528
 20
66.18672296987894
 30
0.0
 10
150.3879048342267
 20
66.1913038527187
 30
0.0
 10
150.4054034438546
 20
66.19877996330886
 30
0.0
 10
150.4192320032837
 20
66.20838892759286
 30
0.0
  0
SPLINE
  5
175
330
6C
100
AcDbEntity
  8
Visible (ANSI)
100
AcDbSpline
210
0.0
220
0.0
230
1.0
 70
     8
 71
     3
 72
    11
 73
     7
 74
     0
 42
0.0000000001
 43
0.0000000001
 40
0.0
 40
0.0
 40
0.0
 40
0.0
 40
1.049080005790977
 40
1.049080005790977
 40
1.049080005790977
 40
1.570796326794879
 40
1.570796326794879
 40
1.570796326794879
 40
1.570796326794879
 10
150.2601966171271
 20
33.26674081687477
 30
0.0
 10
150.2880034244321
 20
33.2474188752355
 30
0.0
 10
150.3310586541857
 20
33.237491320617
 30
0.0
 10
150.3690242324529
 20
33.24008453989079
 30
0.0
 10
150.3879048342268
 20
33.24137416967269
 30
0.0
 10
150.4054034438546
 20
33.24555902720501
 30
0.0
 10
150.4192320032838
 20
33.25187673843115
 30
0.0
  0
LINE
  5
176
330
6C
100
AcDbEntity
  8
Visible (ANSI)
100
AcDbLine
 10
150.3525704384263
 20
33.21319139707977
 30
0.0
 11
150.8298993355323
 21
33.48806682769676
 31
0.0
  0
LINE
  5
177
330
6C
100
AcDbEntity
  8
Visible (ANSI)
100
AcDbLine
 10
150.3525704384263
 20
33.21319139707977
 30
0.0
 11
150.3525704384263
 21
33.23968184364494
 31
0.0
  0
LINE
  5
178
330
6C
100
AcDbEntity
  8
Visible (ANSI)
100
AcDbLine
 10
150.8298993355323
 20
33.48806682769676
 30
0.0
 11
150.8298993355323
 21
33.48836432691898
 31
0.0
  0
SPLINE
  5
179
330
6C
100
AcDbEntity
  8
Visible (ANSI)
100
AcDbSpline
210
0.0
220
0.0
230
1.0
 70
     8
 71
     3
 72
    11
 73
     7
 74
     0
 42
0.0000000001
 43
0.0000000001
 40
0.0
 40
0.0
 40
0.0
 40
0.0
 40
1.049080005790748
 40
1.049080005790748
 40
1.049080005790748
 40
1.57079632679489
 40
1.57079632679489
 40
1.57079632679489
 40
1.57079632679489
 10
150.2601966171271
 20
33.26674081687477
 30
0.0
 10
150.2630586701377
 20
33.23294282240251
 30
0.0
 10
150.2817017426867
 20
33.20884829410732
 30
0.0
 10
150.3086713270643
 20
33.205060268386
 30
0.0
 10
150.3220835284816
 20
33.20317645129647
 30
0.0
 10
150.3373185559341
 20
33.20604769656482
 30
0.0
 10
150.3525704384263
 20
33.21319139707977
 30
0.0
  0
SPLINE
  5
17A
330
6C
100
AcDbEntity
  8
Visible (ANSI)
100
AcDbSpline
210
0.0
220
0.0
230
1.0
 70
     8
 71
     3
 72
     8
 73
     4
 74
     0
 42
0.0000000001
 43
0.0000000001
 40
0.0
 40
0.0
 40
0.0
 40
0.0
 40
0.7873318718204798
 40
0.7873318718204798
 40
0.7873318718204798
 40
0.7873318718204798
 10
129.4181606020401
 20
45.26887112851627
 30
0.0
 10
129.4160126385467
 20
45.24597967958697
 30
0.0
 10
129.4227532779104
 20
45.22855367330381
 30
0.0
 10
129.4352313878449
 20
45.22107517228219
 30
0.0
  0
LINE
  5
17B
330
6C
100
AcDbEntity
  8
Visible (ANSI)
100
AcDbLine
 10
129.8327407908712
 20
45.49942517209596
 30
0.0
 11
129.9621510640036
 21
45.57394759210695
 31
0.0
  0
LINE
  5
17C
330
6C
100
AcDbEntity
  8
Visible (ANSI)
100
AcDbLine
 10
129.4181606020401
 20
78.30210162722339
 30
0.0
 11
129.4828398304683
 21
78.33934791772451
 31
0.0
  0
LINE
  5
17D
330
6C
100
AcDbEntity
  8
Visible (ANSI)
100
AcDbLine
 10
129.9551198140036
 20
45.58612605413457
 30
0.0
 11
129.8256700490182
 21
45.51158089227791
 31
0.0
  0
SPLINE
  5
17E
330
6C
100
AcDbEntity
  8
Visible (ANSI)
100
AcDbSpline
210
0.0
220
0.0
230
1.0
 70
     8
 71
     3
 72
     8
 73
     4
 74
     0
 42
0.0000000001
 43
0.0000000001
 40
0.0
 40
0.0
 40
0.0
 40
0.0
 40
0.7853981633975997
 40
0.7853981633975997
 40
0.7853981633975997
 40
0.7853981633975997
 10
129.4181606020401
 20
45.26887112851627
 30
0.0
 10
129.397342918673
 20
45.27838188866336
 30
0.0
 10
129.3856687421627
 20
45.29281424133176
 30
0.0
 10
129.3854161491809
 20
45.30725377147838
 30
0.0
  0
LINE
  5
17F
330
6C
100
AcDbEntity
  8
Visible (ANSI)
100
AcDbLine
 10
129.4181606020401
 20
78.30210162722339
 30
0.0
 11
129.4407892031136
 21
78.2890706825183
 31
0.0
  0
SPLINE
  5
180
330
6C
100
AcDbEntity
  8
Visible (ANSI)
100
AcDbSpline
210
0.0
220
0.0
230
1.0
 70
     8
 71
     3
 72
    11
 73
     7
 74
     0
 42
0.0000000001
 43
0.0000000001
 40
0.0
 40
0.0
 40
0.0
 40
0.0
 40
1.049080005790747
 40
1.049080005790747
 40
1.049080005790747
 40
1.570796326794863
 40
1.570796326794863
 40
1.570796326794863
 40
1.570796326794863
 10
129.4181606020401
 20
78.19565516079073
 30
0.0
 10
129.3903537947351
 20
78.21497710243
 30
0.0
 10
129.3788606040583
 20
78.24308002655782
 30
0.0
 10
129.3891100885253
 20
78.26825201532324
 30
0.0
 10
129.3942072434599
 20
78.28077025730533
 30
0.0
 10
129.4043320426109
 20
78.29249266293939
 30
0.0
 10
129.4181606020401
 20
78.30210162722339
 30
0.0
  0
SPLINE
  5
181
330
6C
100
AcDbEntity
  8
Visible (ANSI)
100
AcDbSpline
210
0.0
220
0.0
230
1.0
 70
     8
 71
     3
 72
    11
 73
     7
 74
     0
 42
0.0000000001
 43
0.0000000001
 40
0.0
 40
0.0
 40
0.0
 40
0.0
 40
1.483474787626223
 40
1.483474787626223
 40
1.483474787626223
 40
1.57079632679511
 40
1.57079632679511
 40
1.57079632679511
 40
1.57079632679511
 10
150.3198269319845
 20
66.22786366369332
 30
0.0
 10
150.3238740813522
 20
66.2369031642562
 30
0.0
 10
150.3362775462666
 20
66.24992886110395
 30
0.0
 10
150.3501213679304
 20
66.2542313844121
 30
0.0
 10
150.3509362545909
 20
66.25448464315347
 30
0.0
 10
150.3517533462282
 20
66.25471004333377
 30
0.0
 10
150.3525704384263
 20
66.25490620416456
 30
0.0
  0
LINE
  5
182
330
6C
100
AcDbEntity
  8
Visible (ANSI)
100
AcDbLine
 10
150.3525704384263
 20
66.32384995320255
 30
0.0
 11
150.8298993355323
 21
66.59872538381958
 31
0.0
  0
LINE
  5
183
330
6C
100
AcDbEntity
  8
Visible (ANSI)
100
AcDbLine
 10
129.4848221668976
 20
78.34078696857476
 30
0.0
 11
129.9621510640035
 21
78.61566239919179
 31
0.0
  0
SPLINE
  5
184
330
6C
100
AcDbEntity
  8
Visible (ANSI)
100
AcDbSpline
210
0.0
220
0.0
230
1.0
 70
     8
 71
     3
 72
    11
 73
     7
 74
     0
 42
0.0000000001
 43
0.0000000001
 40
0.0
 40
0.0
 40
0.0
 40
0.0
 40
1.049080005790959
 40
1.049080005790959
 40
1.049080005790959
 40
1.570796326794879
 40
1.570796326794879
 40
1.570796326794879
 40
1.570796326794879
 10
129.4181606020401
 20
78.19565516079072
 30
0.0
 10
129.4152985490295
 20
78.229453155263
 30
0.0
 10
129.4282175155573
 20
78.27172305306752
 30
0.0
 10
129.4494629939138
 20
78.30327628682805
 30
0.0
 10
129.460028549205
 20
78.31896797568155
 30
0.0
 10
129.4724169305314
 20
78.33200399357957
 30
0.0
 10
129.4848221668976
 20
78.34078696857478
 30
0.0
  0
LINE
  5
185
330
6C
100
AcDbEntity
  8
Visible (ANSI)
100
AcDbLine
 10
150.3525704384263
 20
66.32384995320255
 30
0.0
 11
150.3525704384263
 21
66.25490620416458
 31
0.0
  0
SPLINE
  5
186
330
6C
100
AcDbEntity
  8
Visible (ANSI)
100
AcDbSpline
210
0.0
220
0.0
230
1.0
 70
     8
 71
     3
 72
    11
 73
     7
 74
     0
 42
0.0000000001
 43
0.0000000001
 40
0.0
 40
0.0
 40
0.0
 40
0.0
 40
1.049080005790682
 40
1.049080005790682
 40
1.049080005790682
 40
1.57079632679511
 40
1.57079632679511
 40
1.57079632679511
 40
1.57079632679511
 10
150.2601966171271
 20
66.19352484914921
 30
0.0
 10
150.2630586701377
 20
66.22402655019148
 30
0.0
 10
150.2817017426866
 20
66.26300015456601
 30
0.0
 10
150.3086713270643
 20
66.29125709489655
 30
0.0
 10
150.3220835284816
 20
66.30530950926983
 30
0.0
 10
150.3373185559341
 20
66.3167062526876
 30
0.0
 10
150.3525704384263
 20
66.32384995320255
 30
0.0
  0
LINE
  5
187
330
6C
100
AcDbEntity
  8
Visible (ANSI)
100
AcDbLine
 10
150.3525704384263
 20
66.25490620416458
 30
0.0
 11
150.8298993355323
 21
66.52978163478161
 31
0.0
  0
LINE
  5
188
330
6C
100
AcDbEntity
  8
Visible (ANSI)
100
AcDbLine
 10
150.8298993355323
 20
66.59872538381958
 30
0.0
 11
150.8298993355323
 21
66.52978163478161
 31
0.0
  0
LINE
  5
189
330
6C
100
AcDbEntity
  8
Visible Narrow (ANSI)
100
AcDbLine
 10
150.4192320032837
 20
66.20838892759287
 30
0.0
 11
150.4192320032838
 21
33.25187673843115
 31
0.0
  0
LINE
  5
18A
330
6C
100
AcDbEntity
  8
Visible Narrow (ANSI)
100
AcDbLine
 10
150.2601966171271
 20
33.26674081687477
 30
0.0
 11
150.2601966171271
 21
66.19352484914923
 31
0.0
  0
LINE
  5
18B
330
6C
100
AcDbEntity
  8
Visible Narrow (ANSI)
100
AcDbLine
 10
129.4181606020401
 20
45.26887112851628
 30
0.0
 11
150.2601966171271
 21
33.26674081687477
 31
0.0
  0
LINE
  5
18C
330
6C
100
AcDbEntity
  8
Visible Narrow (ANSI)
100
AcDbLine
 10
129.4181606020401
 20
78.19565516079073
 30
0.0
 11
129.4181606020401
 21
45.26887112851628
 31
0.0
  0
LINE
  5
18D
330
6C
100
AcDbEntity
  8
Visible Narrow (ANSI)
100
AcDbLine
 10
129.4848221668976
 20
78.34078696857476
 30
0.0
 11
150.3525704384263
 21
66.32384995320255
 31
0.0
  0
LINE
  5
18E
330
6C
100
AcDbEntity
  8
Visible Narrow (ANSI)
100
AcDbLine
 10
150.2601966171271
 20
66.19352484914923
 30
0.0
 11
129.4181606020401
 21
78.19565516079073
 31
0.0
  0
LINE
  5
18F
330
6C
100
AcDbEntity
  8
Visible (ANSI)
100
AcDbLine
 10
129.4351157372846
 20
45.22092147193195
 30
0.0
 11
150.2900395333319
 21
33.21136958082471
 31
0.0
  0
LINE
  5
190
330
6C
100
AcDbEntity
  8
Visible (ANSI)
100
AcDbLine
 10
129.3852232951184
 20
78.24887839400706
 30
0.0
 11
129.3852232951185
 21
45.30723028328899
 31
0.0
  0
LINE
  5
191
330
6C
100
AcDbEntity
  8
Visible (ANSI)
100
AcDbLine
 10
150.8965609003898
 20
33.52675216904815
 30
0.0
 11
150.8965609003897
 21
66.48326435820988
 31
0.0
  0
LINE
  5
192
330
6C
100
AcDbEntity
  8
Visible (ANSI)
100
AcDbLine
 10
129.9621510640036
 20
45.57394759210695
 30
0.0
 11
130.0651628799836
 21
45.51462703253513
 31
0.0
  0
LINE
  5
193
330
6C
100
AcDbEntity
  8
Visible (ANSI)
100
AcDbLine
 10
131.1286527810644
 20
44.90220392911821
 30
0.0
 11
131.2492262845619
 21
44.8327702663004
 31
0.0
  0
LINE
  5
194
330
6C
100
AcDbEntity
  8
Visible (ANSI)
100
AcDbLine
 10
139.719673702355
 20
39.95496400818488
 30
0.0
 11
140.0088519904209
 21
39.78843730733128
 31
0.0
  0
LINE
  5
195
330
6C
100
AcDbEntity
  8
Visible (ANSI)
100
AcDbLine
 10
148.4704465896671
 20
34.9157290483627
 30
0.0
 11
148.5910200931646
 21
34.84629538554488
 31
0.0
  0
LINE
  5
196
330
6C
100
AcDbEntity
  8
Visible (ANSI)
100
AcDbLine
 10
149.6633628127923
 20
34.22877428298103
 30
0.0
 11
149.9525411008582
 21
34.06224758212743
 31
0.0
  0
LINE
  5
197
330
6C
100
AcDbEntity
  8
Visible (ANSI)
100
AcDbLine
 10
129.9551198140036
 20
77.52987432916492
 30
0.0
 11
129.9551198140036
 21
77.19611188174981
 31
0.0
  0
LINE
  5
198
330
6C
100
AcDbEntity
  8
Visible (ANSI)
100
AcDbLine
 10
129.9551198140036
 20
61.61836341191705
 30
0.0
 11
129.9551198140036
 21
61.28460096450195
 31
0.0
  0
LINE
  5
199
330
6C
100
AcDbEntity
  8
Visible (ANSI)
100
AcDbLine
 10
129.9551198140036
 20
45.70685249466914
 30
0.0
 11
129.9551198140036
 21
45.58612605413457
 31
0.0
  0
LINE
  5
19A
330
6C
100
AcDbEntity
  8
Visible (ANSI)
100
AcDbLine
 10
150.8298993355323
 20
66.59872538381958
 30
0.0
 11
129.9621510640035
 21
78.61566239919179
 31
0.0
  0
DIMENSION
  5
19B
330
6C
100
AcDbEntity
  8
Dimension (ANSI)
100
AcDbDimension
  2
*D4
 10
62.93081528820444
 20
55.8915077348657
 30
0.0
 11
62.93081528820442
 21
45.0790077348657
 31
0.0
 70
   160
  1
<>{\PTYP.}
 71
     5
 42
21.62500000000001
  3
Default (ANSI)
100
AcDbAlignedDimension
 13
55.05679954017288
 23
34.26650773486569
 33
0.0
 14
55.05679954017289
 24
55.8915077348657
 34
0.0
 50
90.0
100
AcDbRotatedDimension
1001
ACAD
1000
DSTYLE
1002
{
1070
   289
1070
     1
1070
   271
1070
     2
1070
   272
1070
     2
1070
    48
1040
0.0
1070
    47
1040
0.0
1002
}
  0
DIMENSION
  5
29C
330
6C
100
AcDbEntity
  8
Dimension (ANSI)
100
AcDbDimension
  2
*D5
 10
65.75388741085259
 20
34.26650773486569
 30
0.0
 11
62.93086528820439
 21
28.45622080021851
 31
0.0
 70
   160
  1
<>{\PTYP.}
 71
     5
 42
0.8749999999999928
  3
Default (ANSI)
100
AcDbAlignedDimension
 13
55.82705099671684
 23
33.3915077348657
 33
0.0
 14
55.05679954017288
 24
34.26650773486569
 34
0.0
 50
90.0
100
AcDbRotatedDimension
1001
ACAD
1000
DSTYLE
1002
{
1070
   289
1070
     1
1070
   271
1070
     2
1070
   272
1070
     2
1070
    48
1040
0.0
1070
    47
1040
0.0
1002
}
  0
DIMENSION
  5
3B2
330
6C
100
AcDbEntity
  8
Dimension (ANSI)
100
AcDbDimension
  2
*D6
 10
72.55933446128378
 20
78.39150773486569
 30
0.0
 11
72.55933446128377
 21
55.89150773486571
 31
0.0
 70
   160
  1
<>
 42
45.0
  3
Default (ANSI)
100
AcDbAlignedDimension
 13
55.82705099671684
 23
33.3915077348657
 33
0.0
 14
55.82705099671684
 24
78.39150773486569
 34
0.0
 50
90.0
100
AcDbRotatedDimension
1001
ACAD
1000
DSTYLE
1002
{
1070
   289
1070
     1
1070
   271
1070
     2
1070
   272
1070
     2
1070
    48
1040
0.0
1070
    47
1040
0.0
1002
}
  0
DIMENSION
  5
49C
330
6C
100
AcDbEntity
  8
Dimension (ANSI)
100
AcDbDimension
  2
*D7
 10
55.93179954017288
 20
86.94764774622802
 30
0.0
 11
39.43179954017289
 21
86.94764774622802
 31
0.0
 70
   160
  1
<>
 42
32.99999999999999
  3
Default (ANSI)
100
AcDbAlignedDimension
 13
22.93179954017289
 23
78.28675919140964
 33
0.0
 14
55.93179954017288
 24
78.28675919140964
 34
0.0
100
AcDbRotatedDimension
1001
ACAD
1000
DSTYLE
1002
{
1070
   289
1070
     1
1070
    73
1070
     0
1070
    74
1070
     0
1070
   271
1070
     2
1070
   272
1070
     2
1070
    48
1040
0.0
1070
    47
1040
0.0
1002
}
  0
DIMENSION
  5
586
330
6C
100
AcDbEntity
  8
Dimension (ANSI)
100
AcDbDimension
  2
*D8
 10
55.93179954017288
 20
82.43776757738535
 30
0.0
 11
61.78126667323302
 21
82.43776757738535
 31
0.0
 70
   160
  1
<>{\PTYP.}
 71
     5
 42
0.8750000000000142
  3
Default (ANSI)
100
AcDbAlignedDimension
 13
55.05679954017287
 23
79.04800773486567
 33
0.0
 14
55.93179954017288
 24
78.28675919140964
 34
0.0
 50
180.0
100
AcDbRotatedDimension
1001
ACAD
1000
DSTYLE
1002
{
1070
   289
1070
     1
1070
    73
1070
     0
1070
    74
1070
     0
1070
   271
1070
     2
1070
   272
1070
     2
1070
    48
1040
0.0
1070
    47
1040
0.0
1002
}
  0
DIMENSION
  5
684
330
6C
100
AcDbEntity
  8
Dimension (ANSI)
100
AcDbDimension
  2
*D9
 10
53.05679954017289
 20
29.0171639028447
 30
0.0
 11
46.91725721279424
 21
29.0171639028447
 31
0.0
 70
   160
  1
<>{\PTYP.}
 71
     5
 42
1.999999999999985
  3
Default (ANSI)
100
AcDbAlignedDimension
 13
55.05679954017288
 23
34.26650773486569
 33
0.0
 14
53.05679954017289
 24
34.26650773486569
 34
0.0
 50
180.0
100
AcDbRotatedDimension
1001
ACAD
1000
DSTYLE
1002
{
1070
   289
1070
     1
1070
    73
1070
     0
1070
    74
1070
     0
1070
   271
1070
     2
1070
   272
1070
     2
1070
    48
1040
0.0
1070
    47
1040
0.0
1002
}
  0
DIMENSION
  5
782
330
6C
100
AcDbEntity
  8
Dimension (ANSI)
100
AcDbDimension
  2
*D10
 10
62.13231969394493
 20
102.9881579600143
 30
0.0
 11
59.30929757129675
 21
97.73500996083869
 31
0.0
 70
   160
  1
<>{\PTYP.}
 71
     5
 42
0.8750000000000426
  3
Default (ANSI)
100
AcDbAlignedDimension
 13
55.80684954018636
 23
102.1131579600142
 33
0.0
 14
55.82705099673031
 24
102.9881579600143
 34
0.0
 50
90.0
100
AcDbRotatedDimension
1001
ACAD
1000
DSTYLE
1002
{
1070
   289
1070
     1
1070
   271
1070
     2
1070
   272
1070
     2
1070
    48
1040
0.0
1070
    47
1040
0.0
1002
}
  0
DIMENSION
  5
898
330
6C
100
AcDbEntity
  8
Dimension (ANSI)
100
AcDbDimension
  2
*D11
 10
99.73573375179823
 20
70.78883310313717
 30
0.0
 11
105.101968396459
 21
70.78883310313717
 31
0.0
 70
   160
  1
<>{\PTYP.}
 71
     5
 42
0.8750000000000284
  3
Default (ANSI)
100
AcDbAlignedDimension
 13
100.6107337517982
 23
70.78883310313717
 33
0.0
 14
99.73573375179823
 24
70.78414203465165
 34
0.0
100
AcDbRotatedDimension
1001
ACAD
1000
DSTYLE
1002
{
1070
   289
1070
     1
1070
    73
1070
     0
1070
    74
1070
     0
1070
   271
1070
     2
1070
    76
1070
     1
1070
    75
1070
     1
1070
   272
1070
     2
1070
    48
1040
0.0
1070
    47
1040
0.0
1002
}
  0
DIMENSION
  5
987
330
6C
100
AcDbEntity
  8
Dimension (ANSI)
100
AcDbDimension
  2
*D12
 10
24.0058500990769
 20
34.46555829376968
 30
0.0
 11
14.13476468247173
 21
28.92599922044422
 31
0.0
 70
   163
  1
<>{\PTYP.\P(8 PL.)}
 71
     2
 42
0.5629999999999999
  3
Default (ANSI)
100
AcDbDiametricDimension
 15
23.60774898126882
 25
34.06745717596169
 35
0.0
 40
0.0
1001
ACAD_DSTYLE_DIMRADIAL_EXTENSION
1070
   387
1070
     1
1070
   388
1040
0.0
1070
   390
1040
0.0
1001
ACAD
1000
DSTYLE
1002
{
1070
   145
1040
-0.3333333333333334
1070
   144
1040
0.9999999999999829
1070
   271
1070
     2
1070
   272
1070
     2
1070
    48
1040
0.0
1070
    47
1040
0.0
1002
}
  0
DIMENSION
  5
A41
330
6C
100
AcDbEntity
  8
Dimension (ANSI)
100
AcDbDimension
  2
*D13
 10
25.917108198038
 20
34.15619907700059
 30
0.0
 11
13.46069757559996
 21
42.28108335615828
 31
0.0
 70
   163
  1
<>{\PTYP.\P(2 PL.)}
 71
     2
 42
0.312
  3
Default (ANSI)
100
AcDbDiametricDimension
 15
25.69649088230777
 25
34.37681639273078
 35
0.0
 40
0.0
1001
ACAD_DSTYLE_DIMRADIAL_EXTENSION
1070
   387
1070
     1
1070
   388
1040
0.0
1070
   390
1040
0.0
1001
ACAD
1000
DSTYLE
1002
{
1070
   145
1040
-0.3333333333333334
1070
   144
1040
0.9999999999999621
1070
   271
1070
     2
1070
   272
1070
     2
1070
    48
1040
0.0
1070
    47
1040
0.0
1002
}
  0
MTEXT
  5
AFA
102
{ACAD_XDICTIONARY
360
C1A
102
}
330
6C
100
AcDbEntity
  8
Symbol (ANSI)
100
AcDbMText
 10
83.60097749958631
 20
9.881504310635682
 30
0.0
 40
1.000000031914297
 41
91.6360131255473
 71
     4
 72
     1
  3
{\fRomanS|b0|i0|c0|p2;\H2x;PART#: ALNP4836\P(DATA SUBJECT TO CHANGE WITHOUT NOTICE)\H1.4011x; \H0.71374x;\P \H1.1072x; \H0.9032x;\P\H0.6x;THIS DRAWING IS PROPERTY OF HUBBELL INC. WIEGMANN\H1.2422x; \H0.80502x;\PALL INFORMATION IS PROPRIETARY AND NOT 
  1
TO BE DUPLICATED\H1.0095x; \H0.82551x;\P\H1.0785x; }
  7
Note Text (ANSI)
 73
     1
 44
0.9303776025772094
1001
ACAD
1000
MTEXTBEGIN
1070
    73
1070
     1
1070
    44
1040
0.9303776025772094
1070
    74
1070
     0
1000
MTEXTEND
  0
LINE
  5
AFC
330
6C
100
AcDbEntity
  8
Center Mark (ANSI)
  6
CHAIN
 48
0.170057401061058
100
AcDbLine
 10
25.33829954017288
 20
77.51650773486568
 30
0.0
 11
22.27529954017288
 21
77.51650773486568
 31
0.0
  0
LINE
  5
AFD
330
6C
100
AcDbEntity
  8
Center Mark (ANSI)
  6
CHAIN
 48
0.170057401061058
100
AcDbLine
 10
56.58829954017287
 20
77.51650773486568
 30
0.0
 11
53.52529954017287
 21
77.51650773486568
 31
0.0
  0
LINE
  5
AFE
330
6C
100
AcDbEntity
  8
Centerline (ANSI)
  6
CHAIN
 48
0.9524481296539306
100
AcDbLine
 10
22.27529954017288
 20
77.51650773486568
 30
0.0
 11
56.58829954017287
 21
77.51650773486568
 31
0.0
  0
LINE
  5
AFF
330
6C
100
AcDbEntity
  8
Center Mark (ANSI)
  6
CHAIN
 48
0.170057401061058
100
AcDbLine
 10
25.33829954017287
 20
34.26650773486569
 30
0.0
 11
22.27529954017287
 21
34.26650773486569
 31
0.0
  0
LINE
  5
B00
330
6C
100
AcDbEntity
  8
Center Mark (ANSI)
  6
CHAIN
 48
0.170057401061058
100
AcDbLine
 10
56.58829954017288
 20
34.26650773486569
 30
0.0
 11
53.52529954017287
 21
34.26650773486569
 31
0.0
  0
LINE
  5
B01
330
6C
100
AcDbEntity
  8
Centerline (ANSI)
  6
CHAIN
 48
0.9524481296539306
100
AcDbLine
 10
22.27529954017287
 20
34.26650773486569
 30
0.0
 11
56.58829954017288
 21
34.26650773486569
 31
0.0
  0
LINE
  5
B02
330
6C
100
AcDbEntity
  8
Centerline (ANSI)
  6
CHAIN
 48
0.9524481296539306
100
AcDbLine
 10
23.80679954017288
 20
79.04800773486567
 30
0.0
 11
23.80679954017287
 21
32.73500773486569
 31
0.0
  0
LINE
  5
B03
330
6C
100
AcDbEntity
  8
Center Mark (ANSI)
  6
CHAIN
 48
0.170057401061058
100
AcDbLine
 10
23.80679954017288
 20
57.4230077348657
 30
0.0
 11
23.80679954017288
 21
54.3600077348657
 31
0.0
  0
LINE
  5
B04
330
6C
100
AcDbEntity
  8
Center Mark (ANSI)
  6
CHAIN
 48
0.170057401061058
100
AcDbLine
 10
55.05679954017289
 20
57.4230077348657
 30
0.0
 11
55.05679954017289
 21
54.3600077348657
 31
0.0
  0
LINE
  5
B05
330
6C
100
AcDbEntity
  8
Centerline (ANSI)
  6
CHAIN
 48
0.9524481296539306
100
AcDbLine
 10
22.27529954017288
 20
55.8915077348657
 30
0.0
 11
56.58829954017289
 21
55.8915077348657
 31
0.0
  0
LINE
  5
B06
330
6C
100
AcDbEntity
  8
Centerline (ANSI)
  6
CHAIN
 48
0.9524481296539306
100
AcDbLine
 10
55.05679954017287
 20
79.04800773486567
 30
0.0
 11
55.05679954017288
 21
32.73500773486569
 31
0.0
  0
LINE
  5
B07
330
6C
100
AcDbEntity
  8
Center Mark (ANSI)
  6
CHAIN
 48
0.1561137139797211
100
AcDbLine
 10
27.21279954017289
 20
34.2665077348657
 30
0.0
 11
24.40079954017289
 21
34.2665077348657
 31
0.0
  0
LINE
  5
B08
330
6C
100
AcDbEntity
  8
Center Mark (ANSI)
  6
CHAIN
 48
0.1561137139797211
100
AcDbLine
 10
25.80679954017289
 20
35.6725077348657
 30
0.0
 11
25.80679954017289
 21
32.86050773486569
 31
0.0
  0
LINE
  5
B09
330
6C
100
AcDbEntity
  8
Center Mark (ANSI)
  6
CHAIN
 48
0.1561137139797211
100
AcDbLine
 10
54.46279954017288
 20
34.26650773486569
 30
0.0
 11
51.65079954017288
 21
34.26650773486569
 31
0.0
  0
LINE
  5
B0A
330
6C
100
AcDbEntity
  8
Center Mark (ANSI)
  6
CHAIN
 48
0.1561137139797211
100
AcDbLine
 10
53.05679954017289
 20
35.67250773486569
 30
0.0
 11
53.05679954017289
 21
32.86050773486568
 31
0.0
  0
LINE
  5
B0B
330
6C
100
AcDbEntity
  8
Center Mark (ANSI)
  6
CHAIN
 48
0.170057401061058
100
AcDbLine
 10
40.96329954017287
 20
77.51650773486568
 30
0.0
 11
37.90029954017287
 21
77.51650773486568
 31
0.0
  0
LINE
  5
B0C
330
6C
100
AcDbEntity
  8
Center Mark (ANSI)
  6
CHAIN
 48
0.170057401061058
100
AcDbLine
 10
40.96329954017288
 20
34.26650773486568
 30
0.0
 11
37.90029954017288
 21
34.26650773486568
 31
0.0
  0
LINE
  5
B0D
330
6C
100
AcDbEntity
  8
Centerline (ANSI)
  6
CHAIN
 48
0.9524481296539306
100
AcDbLine
 10
39.43179954017287
 20
79.04800773486567
 30
0.0
 11
39.43179954017288
 21
32.73500773486568
 31
0.0
  0
DIMENSION
  5
B0E
330
6C
100
AcDbEntity
  8
Dimension (ANSI)
100
AcDbDimension
  2
*D14
 10
55.05679954017287
 20
82.43776757738535
 30
0.0
 11
47.24429954017288
 21
82.43776757738535
 31
0.0
 70
   160
  1
<>{\PTYP.}
 71
     5
 42
15.62499999999999
  3
Default (ANSI)
100
AcDbAlignedDimension
 13
39.43179954017288
 23
77.51650773486568
 33
0.0
 14
55.05679954017287
 24
77.51650773486568
 34
0.0
 50
180.0
100
AcDbRotatedDimension
1001
ACAD
1000
DSTYLE
1002
{
1070
   289
1070
     1
1070
    73
1070
     0
1070
    74
1070
     0
1070
   271
1070
     2
1070
   272
1070
     2
1070
    48
1040
0.0
1070
    47
1040
0.0
1002
}
  0
ENDSEC
  0
SECTION
  2
OBJECTS
  0
DICTIONARY
  5
C
330
0
100
AcDbDictionary
281
     1
  3
ACAD_CIP_PREVIOUS_PRODUCT_INFO
350
C0C
  3
ACAD_COLOR
350
63
  3
ACAD_GROUP
350
D
  3
ACAD_LAYOUT
350
62
  3
ACAD_MATERIAL
350
10
  3
ACAD_MLEADERSTYLE
350
66
  3
ACAD_MLINESTYLE
350
5F
  3
ACAD_PLOTSETTINGS
350
61
  3
ACAD_PLOTSTYLENAME
350
E
  3
ACAD_SCALELIST
350
42
  3
ACAD_TABLESTYLE
350
64
  3
ACAD_VISUALSTYLE
350
29
  3
ACDB_RECOMPOSE_DATA
350
C1C
  3
AcDbVariableDictionary
350
76
  3
DWGPROPS
350
C1D
  0
DICTIONARY
  5
C59
330
A3B
100
AcDbDictionary
280
     1
281
     1
  3
ACAD_MTEXT_RT
360
C5A
  0
DICTIONARY
  5
C5B
330
AF4
100
AcDbDictionary
280
     1
281
     1
  3
ACAD_MTEXT_RT
360
C5C
  0
DICTIONARY
  5
C1A
330
AFA
100
AcDbDictionary
280
     1
281
     1
  3
ACAD_MTEXT_2008_RT
360
C1B
  0
XRECORD
  5
C0C
102
{ACAD_REACTORS
330
C
102
}
330
C
100
AcDbXrecord
280
     1
300
INVNTOR
300
2012
300
85795PDSP_2012_0F
  0
DICTIONARY
  5
63
102
{ACAD_REACTORS
330
C
102
}
330
C
100
AcDbDictionary
281
     1
  0
DICTIONARY
  5
D
102
{ACAD_REACTORS
330
C
102
}
330
C
100
AcDbDictionary
281
     1
  0
DICTIONARY
  5
62
102
{ACAD_REACTORS
330
C
102
}
330
C
100
AcDbDictionary
281
     1
  3
Layout1
350
6B
  3
Layout2
350
73
  3
Model
350
6F
  0
DICTIONARY
  5
10
102
{ACAD_REACTORS
330
C
102
}
330
C
100
AcDbDictionary
281
     1
  3
ByBlock
350
19
  3
ByLayer
350
11
  3
Global
350
21
  0
DICTIONARY
  5
66
102
{ACAD_REACTORS
330
C
102
}
330
C
100
AcDbDictionary
281
     1
  3
Standard
350
67
  0
DICTIONARY
  5
5F
102
{ACAD_REACTORS
330
C
102
}
330
C
100
AcDbDictionary
281
     1
  3
Standard
350
60
  0
DICTIONARY
  5
61
102
{ACAD_REACTORS
330
C
102
}
330
C
100
AcDbDictionary
281
     1
  0
ACDBDICTIONARYWDFLT
  5
E
102
{ACAD_REACTORS
330
C
102
}
330
C
100
AcDbDictionary
281
     1
  3
Normal
350
F
100
AcDbDictionaryWithDefault
340
F
  0
DICTIONARY
  5
42
102
{ACAD_REACTORS
330
C
102
}
330
C
100
AcDbDictionary
281
     1
  3
A0
350
43
  3
A1
350
44
  3
A2
350
45
  3
A3
350
46
  3
A4
350
47
  3
A5
350
48
  3
A6
350
49
  3
A7
350
4A
  3
A8
350
4B
  3
A9
350
4C
  3
B0
350
4D
  3
B1
350
4E
  3
B2
350
4F
  3
B3
350
50
  3
B4
350
51
  3
B5
350
52
  3
B6
350
53
  0
DICTIONARY
  5
64
102
{ACAD_REACTORS
330
C
102
}
330
C
100
AcDbDictionary
281
     1
  3
Standard
350
65
  0
DICTIONARY
  5
29
102
{ACAD_REACTORS
330
C
102
}
330
C
100
AcDbDictionary
281
     1
  3
2dWireframe
350
2F
  3
Basic
350
2E
  3
Brighten
350
35
  3
ColorChange
350
39
  3
Conceptual
350
32
  3
Dim
350
34
  3
EdgeColorOff
350
41
  3
Facepattern
350
38
  3
Flat
350
2A
  3
FlatWithEdges
350
2B
  3
Gouraud
350
2C
  3
GouraudWithEdges
350
2D
  3
Hidden
350
31
  3
JitterOff
350
3F
  3
Linepattern
350
37
  3
OverhangOff
350
40
  3
Realistic
350
33
  3
Shaded
350
3E
  3
Shaded with edges
350
3D
  3
Shades of Gray
350
3A
  3
Sketchy
350
3B
  3
Thicken
350
36
  3
Wireframe
350
30
  3
X-Ray
350
3C
  0
XRECORD
  5
C1C
102
{ACAD_REACTORS
330
C
102
}
330
C
100
AcDbXrecord
280
     1
 90
        1
330
65
330
AFA
  0
DICTIONARY
  5
76
102
{ACAD_REACTORS
330
C
102
}
330
C
100
AcDbDictionary
281
     1
  3
CANNOSCALE
350
79
  3
CMLEADERSTYLE
350
78
  3
CTABLESTYLE
350
77
  3
DIMASSOC
350
C14
  3
HIDETEXT
350
C13
  3
INDEXCTL
350
C12
  3
LAYEREVAL
350
C0F
  3
LAYERNOTIFY
350
C10
  3
LIGHTINGUNITS
350
C0E
  3
MSLTSCALE
350
C0D
  3
SORTENTS
350
C11
  3
XCLIPFRAME
350
C15
  0
XRECORD
  5
C1D
102
{ACAD_REACTORS
330
C
102
}
330
C
100
AcDbXrecord
280
     1
  1
DWGPROPS COOKIE
  2

  3

  4
jfielder
  6

  7

  8

  9
-
300
Manager=
301
Company=
302
Category=
303
Part Number=HWDALNP4836-S
304
Description=
305
Project=
306
Designer=jfielder
307
Engineer=
308
Authority=
309
Cost Center=
 40
0.0000363541666667
 41
2455986.455855788
 42
2455986.455855972
  1

 90
       19
300
Vendor=
300
User Status=
300
Design Status=WorkInProgress
300
Checked by=
300
Engr Approved by=
300
Mfg Approved by=
300
DWG. NO=
300
NUMBER OF SHEETS=1
300
DRAWING #=
  0
XRECORD
  5
C5A
102
{ACAD_REACTORS
330
C59
102
}
330
C59
100
AcDbXrecord
280
     1
 40
36006.0
  1
\A1;\U+22050.56{\PTYP.\P(8 PL.)}
  0
XRECORD
  5
C5C
102
{ACAD_REACTORS
330
C5B
102
}
330
C5B
100
AcDbXrecord
280
     1
 40
35747.0
  1
\A1;\U+22050.31{\PTYP.\P(2 PL.)}
  0
XRECORD
  5
C1B
102
{ACAD_REACTORS
330
C1A
102
}
330
C1A
100
AcDbXrecord
280
     1
 40
3079044.0
  1
\pxsm0.94;{\fRomanS|b0|i0;\H2.0000;PART#: ALNP4836\P(DATA SUBJECT TO CHANGE WITHOUT NOTICE)\P \P\fRomanS|b0|i0;\H1.2000;THIS DRAWING IS PROPERTY OF HUBBELL INC. WIEGMANN\PALL INFORMATION IS PROPRIETARY AND NOT TO BE DUPLICATED\fRomanS|b0|i0;\H1.0000;
  1
\P}
  0
LAYOUT
  5
6B
102
{ACAD_XDICTIONARY
360
C53
102
}
102
{ACAD_REACTORS
330
62
102
}
330
62
100
AcDbPlotSettings
  1

  2

  4

  6

 40
0.0
 41
0.0
 42
0.0
 43
0.0
 44
0.0
 45
0.0
 46
0.0
 47
0.0
 48
0.0
 49
0.0
140
0.0
141
0.0
142
1.0
143
1.0
 70
   688
 72
     0
 73
     0
 74
     5
  7

 75
    16
147
1.0
148
0.0
149
0.0
100
AcDbLayout
  1
Layout1
 70
     1
 71
     1
 10
0.0
 20
0.0
 11
12.0
 21
9.0
 12
0.0
 22
0.0
 32
0.0
 14
0.0
 24
0.0
 34
0.0
 15
0.0
 25
0.0
 35
0.0
146
0.0
 13
0.0
 23
0.0
 33
0.0
 16
1.0
 26
0.0
 36
0.0
 17
0.0
 27
1.0
 37
0.0
 76
     0
330
68
  0
LAYOUT
  5
73
102
{ACAD_XDICTIONARY
360
C57
102
}
102
{ACAD_REACTORS
330
62
102
}
330
62
100
AcDbPlotSettings
  1

  2

  4

  6

 40
0.0
 41
0.0
 42
0.0
 43
0.0
 44
0.0
 45
0.0
 46
0.0
 47
0.0
 48
0.0
 49
0.0
140
0.0
141
0.0
142
1.0
143
1.0
 70
   688
 72
     0
 73
     0
 74
     5
  7

 75
    16
147
1.0
148
0.0
149
0.0
100
AcDbLayout
  1
Layout2
 70
     1
 71
     2
 10
0.0
 20
0.0
 11
12.0
 21
9.0
 12
0.0
 22
0.0
 32
0.0
 14
0.0
 24
0.0
 34
0.0
 15
0.0
 25
0.0
 35
0.0
146
0.0
 13
0.0
 23
0.0
 33
0.0
 16
1.0
 26
0.0
 36
0.0
 17
0.0
 27
1.0
 37
0.0
 76
     0
330
70
  0
LAYOUT
  5
6F
102
{ACAD_XDICTIONARY
360
C55
102
}
102
{ACAD_REACTORS
330
62
102
}
330
62
100
AcDbPlotSettings
  1

  2

  4

  6

 40
0.0
 41
0.0
 42
0.0
 43
0.0
 44
0.0
 45
0.0
 46
0.0
 47
0.0
 48
0.0
 49
0.0
140
0.0
141
0.0
142
1.0
143
1.0
 70
  1712
 72
     0
 73
     0
 74
     0
  7

 75
     0
147
1.0
148
0.0
149
0.0
100
AcDbLayout
  1
Model
 70
     1
 71
     0
 10
0.0
 20
0.0
 11
12.0
 21
9.0
 12
0.0
 22
0.0
 32
0.0
 14
0.0
 24
0.0
 34
0.0
 15
0.0
 25
0.0
 35
0.0
146
0.0
 13
0.0
 23
0.0
 33
0.0
 16
1.0
 26
0.0
 36
0.0
 17
0.0
 27
1.0
 37
0.0
 76
     0
330
6C
  0
MATERIAL
  5
19
102
{ACAD_XDICTIONARY
360
1A
102
}
102
{ACAD_REACTORS
330
10
102
}
330
10
100
AcDbMaterial
  1
ByBlock
 72
     0
 43
0.0208333333333333
 43
0.0
 43
0.0
 43
0.0
 43
0.0
 43
0.0208333333333333
 43
0.0
 43
0.0
 43
0.0
 43
0.0
 43
1.0
 43
0.0
 43
0.0
 43
0.0
 43
0.0
 43
1.0
 77
     0
 47
0.0208333333333333
 47
0.0
 47
0.0
 47
0.0
 47
0.0
 47
0.0208333333333333
 47
0.0
 47
0.0
 47
0.0
 47
0.0
 47
1.0
 47
0.0
 47
0.0
 47
0.0
 47
0.0
 47
1.0
171
     0
 49
0.0208333333333333
 49
0.0
 49
0.0
 49
0.0
 49
0.0
 49
0.0208333333333333
 49
0.0
 49
0.0
 49
0.0
 49
0.0
 49
1.0
 49
0.0
 49
0.0
 49
0.0
 49
0.0
 49
1.0
175
     0
142
0.0208333333333333
142
0.0
142
0.0
142
0.0
142
0.0
142
0.0208333333333333
142
0.0
142
0.0
142
0.0
142
0.0
142
1.0
142
0.0
142
0.0
142
0.0
142
0.0
142
1.0
179
     0
144
0.0208333333333333
144
0.0
144
0.0
144
0.0
144
0.0
144
0.0208333333333333
144
0.0
144
0.0
144
0.0
144
0.0
144
1.0
144
0.0
144
0.0
144
0.0
144
0.0
144
1.0
147
0.0208333333333333
147
0.0
147
0.0
147
0.0
147
0.0
147
0.0208333333333333
147
0.0
147
0.0
147
0.0
147
0.0
147
1.0
147
0.0
147
0.0
147
0.0
147
0.0
147
1.0
  0
MATERIAL
  5
11
102
{ACAD_XDICTIONARY
360
12
102
}
102
{ACAD_REACTORS
330
10
102
}
330
10
100
AcDbMaterial
  1
ByLayer
 72
     0
 43
0.0208333333333333
 43
0.0
 43
0.0
 43
0.0
 43
0.0
 43
0.0208333333333333
 43
0.0
 43
0.0
 43
0.0
 43
0.0
 43
1.0
 43
0.0
 43
0.0
 43
0.0
 43
0.0
 43
1.0
 77
     0
 47
0.0208333333333333
 47
0.0
 47
0.0
 47
0.0
 47
0.0
 47
0.0208333333333333
 47
0.0
 47
0.0
 47
0.0
 47
0.0
 47
1.0
 47
0.0
 47
0.0
 47
0.0
 47
0.0
 47
1.0
171
     0
 49
0.0208333333333333
 49
0.0
 49
0.0
 49
0.0
 49
0.0
 49
0.0208333333333333
 49
0.0
 49
0.0
 49
0.0
 49
0.0
 49
1.0
 49
0.0
 49
0.0
 49
0.0
 49
0.0
 49
1.0
175
     0
142
0.0208333333333333
142
0.0
142
0.0
142
0.0
142
0.0
142
0.0208333333333333
142
0.0
142
0.0
142
0.0
142
0.0
142
1.0
142
0.0
142
0.0
142
0.0
142
0.0
142
1.0
179
     0
144
0.0208333333333333
144
0.0
144
0.0
144
0.0
144
0.0
144
0.0208333333333333
144
0.0
144
0.0
144
0.0
144
0.0
144
1.0
144
0.0
144
0.0
144
0.0
144
0.0
144
1.0
147
0.0208333333333333
147
0.0
147
0.0
147
0.0
147
0.0
147
0.0208333333333333
147
0.0
147
0.0
147
0.0
147
0.0
147
1.0
147
0.0
147
0.0
147
0.0
147
0.0
147
1.0
  0
MATERIAL
  5
21
102
{ACAD_XDICTIONARY
360
22
102
}
102
{ACAD_REACTORS
330
10
102
}
330
10
100
AcDbMaterial
  1
Global
 72
     0
 43
0.0208333333333333
 43
0.0
 43
0.0
 43
0.0
 43
0.0
 43
0.0208333333333333
 43
0.0
 43
0.0
 43
0.0
 43
0.0
 43
1.0
 43
0.0
 43
0.0
 43
0.0
 43
0.0
 43
1.0
 77
     0
 47
0.0208333333333333
 47
0.0
 47
0.0
 47
0.0
 47
0.0
 47
0.0208333333333333
 47
0.0
 47
0.0
 47
0.0
 47
0.0
 47
1.0
 47
0.0
 47
0.0
 47
0.0
 47
0.0
 47
1.0
171
     0
 49
0.0208333333333333
 49
0.0
 49
0.0
 49
0.0
 49
0.0
 49
0.0208333333333333
 49
0.0
 49
0.0
 49
0.0
 49
0.0
 49
1.0
 49
0.0
 49
0.0
 49
0.0
 49
0.0
 49
1.0
175
     0
142
0.0208333333333333
142
0.0
142
0.0
142
0.0
142
0.0
142
0.0208333333333333
142
0.0
142
0.0
142
0.0
142
0.0
142
1.0
142
0.0
142
0.0
142
0.0
142
0.0
142
1.0
179
     0
144
0.0208333333333333
144
0.0
144
0.0
144
0.0
144
0.0
144
0.0208333333333333
144
0.0
144
0.0
144
0.0
144
0.0
144
1.0
144
0.0
144
0.0
144
0.0
144
0.0
144
1.0
147
0.0208333333333333
147
0.0
147
0.0
147
0.0
147
0.0
147
0.0208333333333333
147
0.0
147
0.0
147
0.0
147
0.0
147
1.0
147
0.0
147
0.0
147
0.0
147
0.0
147
1.0
  0
MLEADERSTYLE
  5
67
102
{ACAD_XDICTIONARY
360
C18
102
}
102
{ACAD_REACTORS
330
66
102
}
330
66
100
AcDbMLeaderStyle
170
     2
171
     1
172
     0
 90
        2
 40
0.0
 41
0.0
173
     1
 91
-1056964608
340
5B
 92
       -2
290
     1
 42
0.09
291
     1
 43
0.36
  3
Standard
 44
0.18
300

342
55
174
     1
178
     6
175
     1
176
     0
 93
-1056964608
 45
0.18
292
     0
297
     0
 46
0.18
 94
-1056964608
 47
1.0
 49
1.0
140
1.0
293
     1
141
0.0
294
     1
177
     0
142
1.0
295
     0
296
     0
143
0.125
1001
ACAD_MLEADERVER
1070
     2
  0
MLINESTYLE
  5
60
102
{ACAD_REACTORS
330
5F
102
}
330
5F
100
AcDbMlineStyle
  2
STANDARD
 70
     0
  3

 62
   256
 51
90.0
 52
90.0
 71
     2
 49
0.5
 62
   256
  6
BYLAYER
 49
-0.5
 62
   256
  6
BYLAYER
  0
ACDBPLACEHOLDER
  5
F
102
{ACAD_REACTORS
330
E
102
}
330
E
  0
SCALE
  5
43
102
{ACAD_REACTORS
330
42
102
}
330
42
100
AcDbScale
 70
     0
300
1:1
140
1.0
141
1.0
290
     1
  0
SCALE
  5
44
102
{ACAD_REACTORS
330
42
102
}
330
42
100
AcDbScale
 70
     0
300
1/128" = 1'-0"
140
0.0078125
141
12.0
290
     0
  0
SCALE
  5
45
102
{ACAD_REACTORS
330
42
102
}
330
42
100
AcDbScale
 70
     0
300
1/64" = 1'-0"
140
0.015625
141
12.0
290
     0
  0
SCALE
  5
46
102
{ACAD_REACTORS
330
42
102
}
330
42
100
AcDbScale
 70
     0
300
1/32" = 1'-0"
140
0.03125
141
12.0
290
     0
  0
SCALE
  5
47
102
{ACAD_REACTORS
330
42
102
}
330
42
100
AcDbScale
 70
     0
300
1/16" = 1'-0"
140
0.0625
141
12.0
290
     0
  0
SCALE
  5
48
102
{ACAD_REACTORS
330
42
102
}
330
42
100
AcDbScale
 70
     0
300
3/32" = 1'-0"
140
0.09375
141
12.0
290
     0
  0
SCALE
  5
49
102
{ACAD_REACTORS
330
42
102
}
330
42
100
AcDbScale
 70
     0
300
1/8" = 1'-0"
140
0.125
141
12.0
290
     0
  0
SCALE
  5
4A
102
{ACAD_REACTORS
330
42
102
}
330
42
100
AcDbScale
 70
     0
300
3/16" = 1'-0"
140
0.1875
141
12.0
290
     0
  0
SCALE
  5
4B
102
{ACAD_REACTORS
330
42
102
}
330
42
100
AcDbScale
 70
     0
300
1/4" = 1'-0"
140
0.25
141
12.0
290
     0
  0
SCALE
  5
4C
102
{ACAD_REACTORS
330
42
102
}
330
42
100
AcDbScale
 70
     0
300
3/8" = 1'-0"
140
0.375
141
12.0
290
     0
  0
SCALE
  5
4D
102
{ACAD_REACTORS
330
42
102
}
330
42
100
AcDbScale
 70
     0
300
1/2" = 1'-0"
140
0.5
141
12.0
290
     0
  0
SCALE
  5
4E
102
{ACAD_REACTORS
330
42
102
}
330
42
100
AcDbScale
 70
     0
300
3/4" = 1'-0"
140
0.75
141
12.0
290
     0
  0
SCALE
  5
4F
102
{ACAD_REACTORS
330
42
102
}
330
42
100
AcDbScale
 70
     0
300
1" = 1'-0"
140
1.0
141
12.0
290
     0
  0
SCALE
  5
50
102
{ACAD_REACTORS
330
42
102
}
330
42
100
AcDbScale
 70
     0
300
1-1/2" = 1'-0"
140
1.5
141
12.0
290
     0
  0
SCALE
  5
51
102
{ACAD_REACTORS
330
42
102
}
330
42
100
AcDbScale
 70
     0
300
3" = 1'-0"
140
3.0
141
12.0
290
     0
  0
SCALE
  5
52
102
{ACAD_REACTORS
330
42
102
}
330
42
100
AcDbScale
 70
     0
300
6" = 1'-0"
140
6.0
141
12.0
290
     0
  0
SCALE
  5
53
102
{ACAD_REACTORS
330
42
102
}
330
42
100
AcDbScale
 70
     0
300
1'-0" = 1'-0"
140
12.0
141
12.0
290
     0
  0
TABLESTYLE
  5
65
102
{ACAD_XDICTIONARY
360
C16
102
}
102
{ACAD_REACTORS
330
64
102
}
330
64
100
AcDbTableStyle
  3
Standard
 70
     0
 71
     0
 40
0.06
 41
0.06
280
     0
281
     0
  7
Standard
140
0.18
170
     2
 62
     0
 63
     7
283
     0
274
    -2
284
     1
 64
     0
275
    -2
285
     1
 65
     0
276
    -2
286
     1
 66
     0
277
    -2
287
     1
 67
     0
278
    -2
288
     1
 68
     0
279
    -2
289
     1
 69
     0
  7
Standard
140
0.25
170
     5
 62
     0
 63
     7
283
     0
274
    -2
284
     1
 64
     0
275
    -2
285
     1
 65
     0
276
    -2
286
     1
 66
     0
277
    -2
287
     1
 67
     0
278
    -2
288
     1
 68
     0
279
    -2
289
     1
 69
     0
  7
Standard
140
0.18
170
     5
 62
     0
 63
     7
283
     0
274
    -2
284
     1
 64
     0
275
    -2
285
     1
 65
     0
276
    -2
286
     1
 66
     0
277
    -2
287
     1
 67
     0
278
    -2
288
     1
 68
     0
279
    -2
289
     1
 69
     0
  0
VISUALSTYLE
  5
2F
102
{ACAD_XDICTIONARY
360
C2B
102
}
102
{ACAD_REACTORS
330
29
102
}
330
29
100
AcDbVisualStyle
  2
2dWireframe
 70
     4
 71
     0
 72
     2
 73
     0
 90
        0
 40
-0.6
 41
-30.0
 62
     5
 63
     7
 74
     1
 91
        4
 64
     7
 65
   257
 75
     1
175
     1
 42
1.0
 92
        0
 66
   257
 43
1.0
 76
     1
 77
     6
 78
     2
 67
     7
 79
     5
170
     0
171
     0
290
     0
174
     0
 93
        1
 44
0.0
173
     0
291
     0
 45
0.0
1001
ACAD
1000
AcDbSavedByObjectVersion
1070
     0
  0
VISUALSTYLE
  5
2E
102
{ACAD_XDICTIONARY
360
C29
102
}
102
{ACAD_REACTORS
330
29
102
}
330
29
100
AcDbVisualStyle
  2
Basic
 70
     7
 71
     1
 72
     0
 73
     1
 90
        0
 40
-0.6
 41
-30.0
 62
     5
 63
     7
 74
     0
 91
        4
 64
     7
 65
   257
 75
     1
175
     1
 42
1.0
 92
        8
 66
     7
 43
1.0
 76
     1
 77
     6
 78
     2
 67
     7
 79
     5
170
     0
171
     0
290
     0
174
     0
 93
        1
 44
0.0
173
     0
291
     1
 45
0.0
1001
ACAD
1000
AcDbSavedByObjectVersion
1070
     0
  0
VISUALSTYLE
  5
35
102
{ACAD_XDICTIONARY
360
C37
102
}
102
{ACAD_REACTORS
330
29
102
}
330
29
100
AcDbVisualStyle
  2
Brighten
 70
    12
 71
     2
 72
     2
 73
     0
 90
        0
 40
-0.6
 41
-30.0
 62
     5
 63
     7
 74
     1
 91
        4
 64
     7
 65
   257
 75
     1
175
     1
 42
1.0
 92
        8
 66
     7
 43
1.0
 76
     1
 77
     6
 78
     2
 67
     7
 79
     5
170
     0
171
     0
290
     0
174
     0
 93
        1
 44
50.0
173
     0
291
     1
 45
0.0
1001
ACAD
1000
AcDbSavedByObjectVersion
1070
     0
  0
VISUALSTYLE
  5
39
102
{ACAD_XDICTIONARY
360
C3F
102
}
102
{ACAD_REACTORS
330
29
102
}
330
29
100
AcDbVisualStyle
  2
ColorChange
 70
    16
 71
     2
 72
     2
 73
     3
 90
        0
 40
-0.6
 41
-30.0
 62
     5
 63
     8
 74
     1
 91
        4
 64
     7
 65
   257
 75
     1
175
     1
 42
1.0
 92
        8
 66
     8
 43
1.0
 76
     1
 77
     6
 78
     2
 67
     7
 79
     5
170
     0
171
     0
290
     0
174
     0
 93
        1
 44
0.0
173
     0
291
     1
 45
0.0
1001
ACAD
1000
AcDbSavedByObjectVersion
1070
     0
  0
VISUALSTYLE
  5
32
102
{ACAD_XDICTIONARY
360
C31
102
}
102
{ACAD_REACTORS
330
29
102
}
330
29
100
AcDbVisualStyle
  2
Conceptual
 70
     9
 71
     3
 72
     2
 73
     0
 90
        0
 40
-0.6
 41
-30.0
 62
     5
 63
     7
 74
     2
 91
        2
 64
     7
 65
   257
 75
     1
175
     1
 42
179.0
 92
        8
 66
     7
 43
1.0
 76
     1
 77
     6
 78
     2
 67
     7
 79
     3
170
     0
171
     0
290
     0
174
     0
 93
        1
 44
0.0
173
     0
291
     0
 45
0.0
1001
ACAD
1000
AcDbSavedByObjectVersion
1070
     0
  0
VISUALSTYLE
  5
34
102
{ACAD_XDICTIONARY
360
C35
102
}
102
{ACAD_REACTORS
330
29
102
}
330
29
100
AcDbVisualStyle
  2
Dim
 70
    11
 71
     2
 72
     2
 73
     0
 90
        0
 40
-0.6
 41
-30.0
 62
     5
 63
     7
 74
     1
 91
        4
 64
     7
 65
   257
 75
     1
175
     1
 42
1.0
 92
        8
 66
     7
 43
1.0
 76
     1
 77
     6
 78
     2
 67
     7
 79
     5
170
     0
171
     0
290
     0
174
     0
 93
        1
 44
-50.0
173
     0
291
     1
 45
0.0
1001
ACAD
1000
AcDbSavedByObjectVersion
1070
     0
  0
VISUALSTYLE
  5
41
102
{ACAD_XDICTIONARY
360
C4F
102
}
102
{ACAD_REACTORS
330
29
102
}
330
29
100
AcDbVisualStyle
  2
EdgeColorOff
 70
    22
 71
     2
 72
     2
 73
     0
 90
        0
 40
-0.6
 41
-30.0
 62
     5
 63
     7
 74
     1
 91
        4
 64
     7
 65
   257
 75
     1
175
     1
 42
1.0
 92
        8
 66
     7
 43
1.0
 76
     1
 77
     6
 78
     2
 67
     7
 79
     5
170
     0
171
     0
290
     0
174
     0
 93
        1
 44
0.0
173
     0
291
     1
 45
0.0
1001
ACAD
1000
AcDbSavedByObjectVersion
1070
     0
  0
VISUALSTYLE
  5
38
102
{ACAD_XDICTIONARY
360
C3D
102
}
102
{ACAD_REACTORS
330
29
102
}
330
29
100
AcDbVisualStyle
  2
Facepattern
 70
    15
 71
     2
 72
     2
 73
     0
 90
        0
 40
-0.6
 41
-30.0
 62
     5
 63
     7
 74
     1
 91
        4
 64
     7
 65
   257
 75
     1
175
     1
 42
1.0
 92
        8
 66
     7
 43
1.0
 76
     1
 77
     6
 78
     2
 67
     7
 79
     5
170
     0
171
     0
290
     0
174
     0
 93
        1
 44
0.0
173
     0
291
     1
 45
0.0
1001
ACAD
1000
AcDbSavedByObjectVersion
1070
     0
  0
VISUALSTYLE
  5
2A
102
{ACAD_XDICTIONARY
360
C21
102
}
102
{ACAD_REACTORS
330
29
102
}
330
29
100
AcDbVisualStyle
  2
Flat
 70
     0
 71
     2
 72
     1
 73
     1
 90
        2
 40
-0.6
 41
30.0
 62
     5
 63
     7
 74
     0
 91
        0
 64
     7
 65
   257
 75
     1
175
     1
 42
1.0
 92
        8
 66
     7
 43
1.0
 76
     1
 77
     6
 78
     2
 67
     7
 79
     5
170
     0
171
     0
290
     0
174
     0
 93
       13
 44
0.0
173
     0
291
     1
 45
0.0
1001
ACAD
1000
AcDbSavedByObjectVersion
1070
     0
  0
VISUALSTYLE
  5
2B
102
{ACAD_XDICTIONARY
360
C23
102
}
102
{ACAD_REACTORS
330
29
102
}
330
29
100
AcDbVisualStyle
  2
FlatWithEdges
 70
     1
 71
     2
 72
     1
 73
     1
 90
        2
 40
-0.6
 41
30.0
 62
     5
 63
     7
 74
     1
 91
        0
 64
     7
 65
   257
 75
     1
175
     1
 42
1.0
 92
        0
 66
   257
 43
1.0
 76
     1
 77
     6
 78
     2
 67
     7
 79
     5
170
     0
171
     0
290
     0
174
     0
 93
       13
 44
0.0
173
     0
291
     1
 45
0.0
1001
ACAD
1000
AcDbSavedByObjectVersion
1070
     0
  0
VISUALSTYLE
  5
2C
102
{ACAD_XDICTIONARY
360
C25
102
}
102
{ACAD_REACTORS
330
29
102
}
330
29
100
AcDbVisualStyle
  2
Gouraud
 70
     2
 71
     2
 72
     2
 73
     1
 90
        2
 40
-0.6
 41
30.0
 62
     5
 63
     7
 74
     0
 91
        0
 64
     7
 65
   257
 75
     1
175
     1
 42
1.0
 92
        0
 66
     7
 43
1.0
 76
     1
 77
     6
 78
     2
 67
     7
 79
     5
170
     0
171
     0
290
     0
174
     0
 93
       13
 44
0.0
173
     0
291
     1
 45
0.0
1001
ACAD
1000
AcDbSavedByObjectVersion
1070
     0
  0
VISUALSTYLE
  5
2D
102
{ACAD_XDICTIONARY
360
C27
102
}
102
{ACAD_REACTORS
330
29
102
}
330
29
100
AcDbVisualStyle
  2
GouraudWithEdges
 70
     3
 71
     2
 72
     2
 73
     1
 90
        2
 40
-0.6
 41
30.0
 62
     5
 63
     7
 74
     1
 91
        0
 64
     7
 65
   257
 75
     1
175
     1
 42
1.0
 92
        0
 66
   257
 43
1.0
 76
     1
 77
     6
 78
     2
 67
     7
 79
     5
170
     0
171
     0
290
     0
174
     0
 93
       13
 44
0.0
173
     0
291
     1
 45
0.0
1001
ACAD
1000
AcDbSavedByObjectVersion
1070
     0
  0
VISUALSTYLE
  5
31
102
{ACAD_XDICTIONARY
360
C2F
102
}
102
{ACAD_REACTORS
330
29
102
}
330
29
100
AcDbVisualStyle
  2
Hidden
 70
     6
 71
     1
 72
     2
 73
     2
 90
        0
 40
-0.6
 41
-30.0
 62
     5
 63
     7
 74
     2
 91
        2
 64
     7
 65
   257
 75
     2
175
     1
 42
40.0
 92
        0
 66
   257
 43
1.0
 76
     1
 77
     6
 78
     2
 67
     7
 79
     3
170
     0
171
     0
290
     0
174
     0
 93
        1
 44
0.0
173
     0
291
     0
 45
0.0
1001
ACAD
1000
AcDbSavedByObjectVersion
1070
     0
  0
VISUALSTYLE
  5
3F
102
{ACAD_XDICTIONARY
360
C4B
102
}
102
{ACAD_REACTORS
330
29
102
}
330
29
100
AcDbVisualStyle
  2
JitterOff
 70
    20
 71
     2
 72
     2
 73
     0
 90
        0
 40
-0.6
 41
-30.0
 62
     5
 63
     7
 74
     1
 91
        4
 64
     7
 65
   257
 75
     1
175
     1
 42
1.0
 92
       10
 66
     7
 43
1.0
 76
     1
 77
     6
 78
     2
 67
     7
 79
     5
170
     0
171
     0
290
     0
174
     0
 93
        1
 44
0.0
173
     0
291
     1
 45
0.0
1001
ACAD
1000
AcDbSavedByObjectVersion
1070
     0
  0
VISUALSTYLE
  5
37
102
{ACAD_XDICTIONARY
360
C3B
102
}
102
{ACAD_REACTORS
330
29
102
}
330
29
100
AcDbVisualStyle
  2
Linepattern
 70
    14
 71
     2
 72
     2
 73
     0
 90
        0
 40
-0.6
 41
-30.0
 62
     5
 63
     7
 74
     1
 91
        4
 64
     7
 65
   257
 75
     7
175
     7
 42
1.0
 92
        8
 66
     7
 43
1.0
 76
     1
 77
     6
 78
     2
 67
     7
 79
     5
170
     0
171
     0
290
     0
174
     0
 93
        1
 44
0.0
173
     0
291
     1
 45
0.0
1001
ACAD
1000
AcDbSavedByObjectVersion
1070
     0
  0
VISUALSTYLE
  5
40
102
{ACAD_XDICTIONARY
360
C4D
102
}
102
{ACAD_REACTORS
330
29
102
}
330
29
100
AcDbVisualStyle
  2
OverhangOff
 70
    21
 71
     2
 72
     2
 73
     0
 90
        0
 40
-0.6
 41
-30.0
 62
     5
 63
     7
 74
     1
 91
        4
 64
     7
 65
   257
 75
     1
175
     1
 42
1.0
 92
        9
 66
     7
 43
1.0
 76
     1
 77
     6
 78
     2
 67
     7
 79
     5
170
     0
171
     0
290
     0
174
     0
 93
        1
 44
0.0
173
     0
291
     1
 45
0.0
1001
ACAD
1000
AcDbSavedByObjectVersion
1070
     0
  0
VISUALSTYLE
  5
33
102
{ACAD_XDICTIONARY
360
C33
102
}
102
{ACAD_REACTORS
330
29
102
}
330
29
100
AcDbVisualStyle
  2
Realistic
 70
     8
 71
     2
 72
     3
 73
     0
 90
        2
 40
-0.6
 41
30.0
 62
     5
 63
     7
 74
     0
 91
        0
 64
     7
 65
   257
 75
     1
175
     1
 42
1.0
 92
        8
 66
   257
 43
1.0
 76
     1
 77
     6
 78
     2
 67
     7
 79
     3
170
     0
171
     0
290
     0
174
     0
 93
       13
 44
0.0
173
     0
291
     0
 45
0.0
1001
ACAD
1000
AcDbSavedByObjectVersion
1070
     0
  0
VISUALSTYLE
  5
3E
102
{ACAD_XDICTIONARY
360
C49
102
}
102
{ACAD_REACTORS
330
29
102
}
330
29
100
AcDbVisualStyle
  2
Shaded
 70
    27
 71
     2
 72
     2
 73
     1
 90
        2
 40
-0.6
 41
30.0
 62
     5
 63
     7
 74
     0
 91
        4
 64
     7
 65
   257
 75
     1
175
     1
 42
1.0
 92
        8
 66
   257
 43
1.0
 76
     1
 77
     6
 78
     2
 67
     8
 79
     3
170
     0
171
     0
290
     0
174
     0
 93
        5
 44
0.0
173
     0
291
     0
 45
0.0
1001
ACAD
1000
AcDbSavedByObjectVersion
1070
     0
  0
VISUALSTYLE
  5
3D
102
{ACAD_XDICTIONARY
360
C47
102
}
102
{ACAD_REACTORS
330
29
102
}
330
29
100
AcDbVisualStyle
  2
Shaded with edges
 70
    26
 71
     2
 72
     2
 73
     1
 90
        2
 40
-0.6
 41
30.0
 62
     5
 63
     7
 74
     1
 91
       10
 64
     7
 65
   257
 75
     2
175
     1
 42
1.0
 92
        8
 66
   257
 43
1.0
 76
     1
 77
     6
 78
     2
 67
     7
 79
     3
170
     0
171
     0
290
     0
174
     0
 93
        5
 44
0.0
173
     0
291
     0
 45
0.0
1001
ACAD
1000
AcDbSavedByObjectVersion
1070
     0
  0
VISUALSTYLE
  5
3A
102
{ACAD_XDICTIONARY
360
C41
102
}
102
{ACAD_REACTORS
330
29
102
}
330
29
100
AcDbVisualStyle
  2
Shades of Gray
 70
    23
 71
     2
 72
     2
 73
     3
 90
        0
 40
-0.6
 41
-30.0
 62
     5
 63
     7
 74
     2
 91
        2
 64
     7
 65
     7
 75
     1
175
     1
 42
40.0
 92
        8
 66
     7
 43
1.0
 76
     1
 77
     6
 78
     2
 67
     7
 79
     3
170
     0
171
     0
290
     0
174
     0
 93
        1
 44
0.0
173
     0
291
     0
 45
0.0
1001
ACAD
1000
AcDbSavedByObjectVersion
1070
     0
  0
VISUALSTYLE
  5
3B
102
{ACAD_XDICTIONARY
360
C43
102
}
102
{ACAD_REACTORS
330
29
102
}
330
29
100
AcDbVisualStyle
  2
Sketchy
 70
    24
 71
     1
 72
     2
 73
     2
 90
        0
 40
-0.6
 41
-30.0
 62
     5
 63
     7
 74
     2
 91
        2
 64
     7
 65
     7
 75
     1
175
     1
 42
40.0
 92
       11
 66
     7
 43
1.0
 76
     1
 77
     6
 78
     2
 67
     7
 79
     6
170
     0
171
     0
290
     0
174
     0
 93
        1
 44
0.0
173
     0
291
     0
 45
0.0
1001
ACAD
1000
AcDbSavedByObjectVersion
1070
     0
  0
VISUALSTYLE
  5
36
102
{ACAD_XDICTIONARY
360
C39
102
}
102
{ACAD_REACTORS
330
29
102
}
330
29
100
AcDbVisualStyle
  2
Thicken
 70
    13
 71
     2
 72
     2
 73
     0
 90
        0
 40
-0.6
 41
-30.0
 62
     5
 63
     7
 74
     1
 91
        4
 64
     7
 65
   257
 75
     1
175
     1
 42
1.0
 92
       12
 66
     7
 43
1.0
 76
     1
 77
     6
 78
     2
 67
     7
 79
     5
170
     0
171
     0
290
     0
174
     0
 93
        1
 44
0.0
173
     0
291
     1
 45
0.0
1001
ACAD
1000
AcDbSavedByObjectVersion
1070
     0
  0
VISUALSTYLE
  5
30
102
{ACAD_XDICTIONARY
360
C2D
102
}
102
{ACAD_REACTORS
330
29
102
}
330
29
100
AcDbVisualStyle
  2
Wireframe
 70
     5
 71
     0
 72
     2
 73
     0
 90
        0
 40
-0.6
 41
-30.0
 62
     5
 63
     7
 74
     1
 91
        4
 64
     7
 65
   257
 75
     1
175
     1
 42
1.0
 92
        0
 66
   257
 43
1.0
 76
     1
 77
     6
 78
     2
 67
     7
 79
     3
170
     0
171
     0
290
     0
174
     0
 93
        1
 44
0.0
173
     0
291
     0
 45
0.0
1001
ACAD
1000
AcDbSavedByObjectVersion
1070
     0
  0
VISUALSTYLE
  5
3C
102
{ACAD_XDICTIONARY
360
C45
102
}
102
{ACAD_REACTORS
330
29
102
}
330
29
100
AcDbVisualStyle
  2
X-Ray
 70
    25
 71
     2
 72
     2
 73
     1
 90
        1
 40
0.5
 41
-30.0
 62
     5
 63
     7
 74
     1
 91
        0
 64
     7
 65
   257
 75
     1
175
     1
 42
1.0
 92
        8
 66
     7
 43
1.0
 76
     1
 77
     6
 78
     2
 67
     7
 79
     3
170
     0
171
     0
290
     0
174
     0
 93
       13
 44
0.0
173
     0
291
     0
 45
0.0
1001
ACAD
1000
AcDbSavedByObjectVersion
1070
     0
  0
DICTIONARYVAR
  5
79
102
{ACAD_REACTORS
330
76
102
}
330
76
100
DictionaryVariables
280
     0
  1
1:1
  0
DICTIONARYVAR
  5
78
102
{ACAD_REACTORS
330
76
102
}
330
76
100
DictionaryVariables
280
     0
  1
STANDARD
  0
DICTIONARYVAR
  5
77
102
{ACAD_REACTORS
330
76
102
}
330
76
100
DictionaryVariables
280
     0
  1
STANDARD
  0
DICTIONARYVAR
  5
C14
102
{ACAD_REACTORS
330
76
102
}
330
76
100
DictionaryVariables
280
     0
  1
1
  0
DICTIONARYVAR
  5
C13
102
{ACAD_REACTORS
330
76
102
}
330
76
100
DictionaryVariables
280
     0
  1
1
  0
DICTIONARYVAR
  5
C12
102
{ACAD_REACTORS
330
76
102
}
330
76
100
DictionaryVariables
280
     0
  1
0
  0
DICTIONARYVAR
  5
C0F
102
{ACAD_REACTORS
330
76
102
}
330
76
100
DictionaryVariables
280
     0
  1
0
  0
DICTIONARYVAR
  5
C10
102
{ACAD_REACTORS
330
76
102
}
330
76
100
DictionaryVariables
280
     0
  1
0
  0
DICTIONARYVAR
  5
C0E
102
{ACAD_REACTORS
330
76
102
}
330
76
100
DictionaryVariables
280
     0
  1
2
  0
DICTIONARYVAR
  5
C0D
102
{ACAD_REACTORS
330
76
102
}
330
76
100
DictionaryVariables
280
     0
  1
1
  0
DICTIONARYVAR
  5
C11
102
{ACAD_REACTORS
330
76
102
}
330
76
100
DictionaryVariables
280
     0
  1
127
  0
DICTIONARYVAR
  5
C15
102
{ACAD_REACTORS
330
76
102
}
330
76
100
DictionaryVariables
280
     0
  1
2
  0
DICTIONARY
  5
C53
330
6B
100
AcDbDictionary
280
     1
281
     1
  3
ACAD_XREC_ROUNDTRIP
360
C54
  0
DICTIONARY
  5
C57
330
73
100
AcDbDictionary
280
     1
281
     1
  3
ACAD_XREC_ROUNDTRIP
360
C58
  0
DICTIONARY
  5
C55
330
6F
100
AcDbDictionary
280
     1
281
     1
  3
ACAD_XREC_ROUNDTRIP
360
C56
  0
DICTIONARY
  5
1A
330
19
100
AcDbDictionary
280
     1
281
     1
  3
ACAD_XREC_ROUNDTRIP
360
C1F
  3
BUMPTILE
360
1C
  3
DIFFUSETILE
360
1B
  3
OPACITYTILE
360
1F
  3
REFLECTIONTILE
360
1E
  3
REFRACTIONTILE
360
20
  3
SPECULARTILE
360
1D
  0
DICTIONARY
  5
12
330
11
100
AcDbDictionary
280
     1
281
     1
  3
ACAD_XREC_ROUNDTRIP
360
C1E
  3
BUMPTILE
360
14
  3
DIFFUSETILE
360
13
  3
FBXASSET
360
F5
  3
OPACITYTILE
360
17
  3
REFLECTIONTILE
360
16
  3
REFRACTIONTILE
360
18
  3
SPECULARTILE
360
15
  0
DICTIONARY
  5
22
330
21
100
AcDbDictionary
280
     1
281
     1
  3
ACAD_XREC_ROUNDTRIP
360
C20
  3
BUMPTILE
360
24
  3
DIFFUSETILE
360
23
  3
FBXASSET
360
BA
  3
OPACITYTILE
360
27
  3
REFLECTIONTILE
360
26
  3
REFRACTIONTILE
360
28
  3
SPECULARTILE
360
25
  0
DICTIONARY
  5
C18
330
67
100
AcDbDictionary
280
     1
281
     1
  3
ACAD_XREC_ROUNDTRIP
360
C19
  0
DICTIONARY
  5
C16
330
65
100
AcDbDictionary
280
     1
281
     1
  3
ACAD_ROUNDTRIP_2008_TABLESTYLE_CELLSTYLEMAP
360
C17
  3
ACAD_XREC_ROUNDTRIP
360
C51
  0
DICTIONARY
  5
C2B
330
2F
100
AcDbDictionary
280
     1
281
     1
  3
ACAD_XREC_ROUNDTRIP
360
C2C
  0
DICTIONARY
  5
C29
330
2E
100
AcDbDictionary
280
     1
281
     1
  3
ACAD_XREC_ROUNDTRIP
360
C2A
  0
DICTIONARY
  5
C37
330
35
100
AcDbDictionary
280
     1
281
     1
  3
ACAD_XREC_ROUNDTRIP
360
C38
  0
DICTIONARY
  5
C3F
330
39
100
AcDbDictionary
280
     1
281
     1
  3
ACAD_XREC_ROUNDTRIP
360
C40
  0
DICTIONARY
  5
C31
330
32
100
AcDbDictionary
280
     1
281
     1
  3
ACAD_XREC_ROUNDTRIP
360
C32
  0
DICTIONARY
  5
C35
330
34
100
AcDbDictionary
280
     1
281
     1
  3
ACAD_XREC_ROUNDTRIP
360
C36
  0
DICTIONARY
  5
C4F
330
41
100
AcDbDictionary
280
     1
281
     1
  3
ACAD_XREC_ROUNDTRIP
360
C50
  0
DICTIONARY
  5
C3D
330
38
100
AcDbDictionary
280
     1
281
     1
  3
ACAD_XREC_ROUNDTRIP
360
C3E
  0
DICTIONARY
  5
C21
330
2A
100
AcDbDictionary
280
     1
281
     1
  3
ACAD_XREC_ROUNDTRIP
360
C22
  0
DICTIONARY
  5
C23
330
2B
100
AcDbDictionary
280
     1
281
     1
  3
ACAD_XREC_ROUNDTRIP
360
C24
  0
DICTIONARY
  5
C25
330
2C
100
AcDbDictionary
280
     1
281
     1
  3
ACAD_XREC_ROUNDTRIP
360
C26
  0
DICTIONARY
  5
C27
330
2D
100
AcDbDictionary
280
     1
281
     1
  3
ACAD_XREC_ROUNDTRIP
360
C28
  0
DICTIONARY
  5
C2F
330
31
100
AcDbDictionary
280
     1
281
     1
  3
ACAD_XREC_ROUNDTRIP
360
C30
  0
DICTIONARY
  5
C4B
330
3F
100
AcDbDictionary
280
     1
281
     1
  3
ACAD_XREC_ROUNDTRIP
360
C4C
  0
DICTIONARY
  5
C3B
330
37
100
AcDbDictionary
280
     1
281
     1
  3
ACAD_XREC_ROUNDTRIP
360
C3C
  0
DICTIONARY
  5
C4D
330
40
100
AcDbDictionary
280
     1
281
     1
  3
ACAD_XREC_ROUNDTRIP
360
C4E
  0
DICTIONARY
  5
C33
330
33
100
AcDbDictionary
280
     1
281
     1
  3
ACAD_XREC_ROUNDTRIP
360
C34
  0
DICTIONARY
  5
C49
330
3E
100
AcDbDictionary
280
     1
281
     1
  3
ACAD_XREC_ROUNDTRIP
360
C4A
  0
DICTIONARY
  5
C47
330
3D
100
AcDbDictionary
280
     1
281
     1
  3
ACAD_XREC_ROUNDTRIP
360
C48
  0
DICTIONARY
  5
C41
330
3A
100
AcDbDictionary
280
     1
281
     1
  3
ACAD_XREC_ROUNDTRIP
360
C42
  0
DICTIONARY
  5
C43
330
3B
100
AcDbDictionary
280
     1
281
     1
  3
ACAD_XREC_ROUNDTRIP
360
C44
  0
DICTIONARY
  5
C39
330
36
100
AcDbDictionary
280
     1
281
     1
  3
ACAD_XREC_ROUNDTRIP
360
C3A
  0
DICTIONARY
  5
C2D
330
30
100
AcDbDictionary
280
     1
281
     1
  3
ACAD_XREC_ROUNDTRIP
360
C2E
  0
DICTIONARY
  5
C45
330
3C
100
AcDbDictionary
280
     1
281
     1
  3
ACAD_XREC_ROUNDTRIP
360
C46
  0
XRECORD
  5
C54
102
{ACAD_REACTORS
330
C53
102
}
330
C53
100
AcDbXrecord
280
     1
102
SHADEPLOT
 70
     0
102
SHADEPLOTRESLEVEL
 70
     2
102
SHADEPLOTCUSTOMDPI
 70
   300
  0
XRECORD
  5
C58
102
{ACAD_REACTORS
330
C57
102
}
330
C57
100
AcDbXrecord
280
     1
102
SHADEPLOT
 70
     0
102
SHADEPLOTRESLEVEL
 70
     2
102
SHADEPLOTCUSTOMDPI
 70
   300
  0
XRECORD
  5
C56
102
{ACAD_REACTORS
330
C55
102
}
330
C55
100
AcDbXrecord
280
     1
102
SHADEPLOT
 70
     0
102
SHADEPLOTRESLEVEL
 70
     2
102
SHADEPLOTCUSTOMDPI
 70
   300
  0
XRECORD
  5
C1F
102
{ACAD_REACTORS
330
1A
102
}
330
1A
100
AcDbXrecord
280
     1
102
MATERIAL
148
0.0
149
0.0
149
0.0
 93
        0
 94
      127
282
     0
 72
     0
 77
     0
171
     0
175
     0
179
     0
273
     0
  0
XRECORD
  5
1C
102
{ACAD_REACTORS
330
1A
102
}
330
1A
100
AcDbXrecord
280
     1
270
     1
271
     1
  0
XRECORD
  5
1B
102
{ACAD_REACTORS
330
1A
102
}
330
1A
100
AcDbXrecord
280
     1
270
     1
271
     1
  0
XRECORD
  5
1F
102
{ACAD_REACTORS
330
1A
102
}
330
1A
100
AcDbXrecord
280
     1
270
     1
271
     1
  0
XRECORD
  5
1E
102
{ACAD_REACTORS
330
1A
102
}
330
1A
100
AcDbXrecord
280
     1
270
     1
271
     1
  0
XRECORD
  5
20
102
{ACAD_REACTORS
330
1A
102
}
330
1A
100
AcDbXrecord
280
     1
270
     1
271
     1
  0
XRECORD
  5
1D
102
{ACAD_REACTORS
330
1A
102
}
330
1A
100
AcDbXrecord
280
     1
270
     1
271
     1
  0
XRECORD
  5
C1E
102
{ACAD_REACTORS
330
12
102
}
330
12
100
AcDbXrecord
280
     1
102
MATERIAL
148
0.0
149
0.0
149
0.0
 93
        0
 94
      127
282
     0
 72
     0
 77
     0
171
     0
175
     0
179
     0
273
     0
  0
XRECORD
  5
14
102
{ACAD_REACTORS
330
12
102
}
330
12
100
AcDbXrecord
280
     1
270
     1
271
     1
  0
XRECORD
  5
13
102
{ACAD_REACTORS
330
12
102
}
330
12
100
AcDbXrecord
280
     1
270
     1
271
     1
  0
XRECORD
  5
F5
102
{ACAD_REACTORS
330
12
102
}
330
12
100
AcDbXrecord
280
     1
 70
     1
 90
1959938040
 71
     1
  1
8E92A110-894E-4936-8DC1-669EC6599AFC
311
504B03040A00000800000E575C403DEE336E79000000790000001B0000006175746F6465736B2D64657369676E2D7061636B6167652E786D6C3C3F786D6C2076657273696F6E3D22312E302220656E636F64696E673D227574662D3822203F3E3C666F726D6174733E3C666F726D61743E687474703A2F2F736368656D612E
311
6175746F6465736B2E636F6D2F64657369676E2D7061636B6167652F323030393C2F666F726D61743E3C2F666F726D6174733E504B03041400060808000E575C40D486FD9CA0000000F4000000130000005B436F6E74656E745F54797065735D2E786D6C7D8EC10E82300C865F65E91D8A1E8C310C0EEA1BF002731658846E
311
D98AC1B77784ABF1D8FE5FBFBF75BBCE937A534CCEB38643598122B6FEE978D0B0485F9C41B54DDD7D022595594E1A469170414C76A4D9A4D207E29CF43ECE46F218070CC6BECC4078ACAA135ACF422C856C0E68EA1BF5669944DDD7BCDE7B1F8E415D77AECB980613C2E4AC91FC167A2B244592486606FC29C8FD7F045B9A
311
EF7053A7E60B504B03041400060808000E575C40DA9D63F6EA0000007C01000008000000636F72652E786D6C8D90416EC3201045AF82668F0D248E1D0B13D5B572825E0001715162B00C44397E71E248EDAEAB19FDF96F66F4F9E931DDD0DD2CC17AD7012D0820E394D7D68D1DA478C10DA093E08BF7F1970D909393E96095
311
41F071F169DE24E55D342E66D5796D36518660222075CB4D07417D9B491632C5EC08D76296EA2A4753D07797E194AC46AF2356E77DF662CD02A262F5673D9C2BDC9FF735DEEFC8809B9A12DCD3811D1B42FAEAF8C1CB15163CDAE97D5F2D4646A341304219260CB3E68B92B63AB4ACC1E4D012C2CBD5FE074AB3FE2794AC8B
311
3BB6BDFBC202089A1F790E042FD72C72790695EB9A9BF801504B03041400060808000E575C4055019EA25F0000007C00000007000000636E782E786D6C4DCB3B0E80201045D1AD90E915ED2CF8AC45050C11660C8261F98AB1B07AC9C97D42D718D865D3E909258CFD00CCE24AC6E326A164D74DC0B4128928FF326038472B
311
A13128B1252AC747C6BAB984FC68F0B87FE8960A5C09FE86CFB69FBA01504B03041400060808000E575C405213C1D966010000020300000C0000006662782F636F72652E786D6C8D52ED8E8230107C95A6FF4B4B15E14CA939CFF804F702152A4784969496F8F8B77C18CF8B3186A434333BBBB30362776D1B3468D7D7D6E4
311
388E1846DA14B6AC4D95E3E0CF24C3682785B3D6FF29C3C8A856E77884B11495B3A15BA0C21AAF8D07D4D8522FA0EA7BED312A1AB8E4B82F7E74AB22153C54F497A853C545553A8A23A0A14E8ADE3B3080E621E389E5F9741574C6A508A12E17B62E615A7DAEB5C332E1E9577A3826647F5CA764BD620792A53123FBF8C03F
311
32C6F6C9C7A7A0A3580A5FB7377785D3CAEB124BCE624E18273CFB8ED936D96C7946D866CB98A063F9832874E59BA2501BBFE28BDD59D66319839189F8B72D44E451AF06F043A5A06388F09A127E0C1A028190BD3A35B73D2E000DBAF0D6AD81296DB853836A8286A90C4D8FA0330B9DA706B0D9D33EFC459FD73DE0032A53
311
8135E5E17A0A7E9C2EE6A94B149D7664F05764AC6B557337375BBC9FF7414FE5856DAC7B474D9755E912261DFF5EF90B504B03041400060808000E575C40F485DD597E0000009D0000000B0000006662782F636E782E786D6C4DCCD10A83201886E15B91FFDCA5CD2D0533DCC2FB886521990EA76397BF1A1DECE883878F57
311
769FD5A3B74D2F17430BF44400D9F088A30B730B254F9803EA944C31E6BF1BA030ACB6859D41C939C5F23C68B4D3507CDED4BBB01CD853C3B8AE35AECF971A334E0C168DD09850D6989BB8D2DEDCA152B2FA95B6DDC3EA0B504B03041400060808000E575C40586F45172A01000013020000310000006662782F4431463438
311
4132412D323335322D343830462D393739412D3031343746423936314446432F636F72652E786D6C8D514B6EC32014BC0A62952EB081388E1D61A2B4914FD00B10202E4A0C169F2AC72FAE1DA9DD65C343F366E60D3C767C8C77F0AD7D30CE76901418026DA553C60E1D4CF18A1A088E9C79E7E21F1A04568CBA83330C391B
311
BC4BD30A4967A3B631A3D629BD8222041D2190F77CE960905F7A1485483133C2AD9884BC894117A4C8EDCCE32C449F038065C87C427E267DD59CE809D1ED8EA2AAC13D6AF7ED096152EDFBF7B626E7FE83958B90B3948C5AE546E538E66AB47FD564167316CDF88C2FBD16512BC8292614618A68F349F061571F6883707DC0
311
989533FD9F284DEA455132366EE91A779105C8092B970667CAA5CBFD19463F26E72398E76D82966F90E302538AF74DCBCA8599DF9F2DEB6AB50CD1F9FCBF9BDB2593C96EF1AD2BCECA7945B9FCEE2FD7799DFC07504B03041400060808000E575C400AF660364C01000033030000300000006662782F44314634384132412D
311
323335322D343830462D393739412D3031343746423936314446432F636E782E786D6CD593BD6E032110845F05D1DF6F9C936571584A912748919683B58DCDC1899F287EFB2C3676DCB84899069D668799D5278E6DBF6743BEC007EDEC48BBBAA504AC744ADBFD4853DC556B4AB69C79E7E2838D122B6618699629677BEFD2
311
5224053B914C44D5687B2AA287E092971050CE37897152180C005B2514619E402950E46EC4AF1D785C05C5E94CE201C8FBDB2771D311640CACC9299C35B983B37C96A6071325D28810461AE40166518B149D8270AA9588A2EEEA5BD7939D7E9348BE70AB4C5E935C3ED27C525E36AA91236B70C859881EE915533C2F40B958
311
16A3A58808B9B918AF1ECE92B6715815AF46F01EDDDDF0B25A61D865C659D4331487F4202228CAFBB6EBABB6AFFAF547D76E5E874DBFAEDA61D3B6ACC976CE26E74CB98431E0DD42A4B3116CA4BC634D1E3FC3577C44698FAC9D3FFF01240228AD573AF78CFFCCA7B9BC6FC4E5F12FE03F504B03041400060808000E575C40
311
2EED14C99C0500007B100000340000006662782F44314634384132412D323335322D343830462D393739412D3031343746423936314446432F6F626A656374732E786D6CAD575D6FA33814FD2B887D868424ED362BCA284DDA2A9AEDCC68A219ED43A5C880A1DE9A0FD9A693EEAFDF63300432499B5DCD0B60635FDF7BEEB9
311
1FF63FEC326EBD502159915FDB9E3BB62D9A4745CCF2F4DAAE54E25CD9D687C01745A17ACB6C2B2719BDB6F5B41DF8A928AAD24CC53421155707B377377F5932A239B5AD881329AF6D193DD18CB8A452454CE5B31B1345DC34D9B99EDB2C1C8A4D05299F0E849644D05C4153CCE79062354A79C3E1D81E05FE48FF0F7CFD34
311
ABA6A7578D6A7B86E7B35C2A92473F1D762066EACD56B7938BB973319B4D9DD9E5C4736EEE6E568EF7FB74BCBC5C2EE78BDB390E964A4092D144D0C40EEE818D60913F6A7E057EC572359D9825C64123415F98F6941D4C2CCF1F356B3AEB8C91C7D48F8A3CA7518D15D0A8ED33A2635AD23C86CF1995D0AC87D07838F4348E
311
BDDF533D3647F6A7CF43A0BFA327A8D5BD7DF7352DC2BF61823C87414252CDC0064B6368C3D5F11EE1B028B8F9C7A49511450523DCE22C1444BCDA0196EA25813F10A3992C7434680BEC005E687E0FE982307A9FE7C7B44C2ACE358DEDA08E822D62852A596BC6FEA162AF7D1F19E8045F69365C1983D46B49ED60DE50E4EA
311
804D0D9056C2490A97C34CBD733A393074A9E374BDB2838F77E16EA363F7F8E1A5284A2A94A60FA8D53AAE7D6B948C4EDE599ED31BEC0355F6A07C05F29F10EA7B55E037C176B3DDCC9CA204C96552880CBEB1C69633C6636C79F5537FF7BEFC51B779E8BD5378C2D91AAA5F80E7D086BE2F7B7006FE0B085F88A9316D1311
311
8EB4F1C07200A44962F10253C8C349B8B38335B21CB23276111E783019EABEE0D31F19314814F549BD770E2C0FD2E219091AB0D58C841A0DF98D827B3FFD94CEEA83CDB253F05EFC12BA2E569B8F9B4A2424A20F26A6573461395328717BDEF4151A603EB0E899BEFE28440C437FC67BD3C73B334749A0AD31D7C0A76D4ED7
311
83FDC9830322EC4B0B9D6EFC774E8011BAB0F6E43F301951CE494E8BAA3DF7CDFA81B2D140AC835D33B92B30FBC202D2347F0E6210453A12ACD42076D5AA4B9AEE09EBBEAD3F81917670F3FA2779ED67AF709F7BA38217621BBE6E9BB47414EAEF436E1B0C465A0AE85E07491BFF06F46DCC92A49248824770FDBE5EF67DA7
311
D30252442BB5899619EC4770116148DBCA45B5160495B4C8B70C75137177F480BE7C406A18500B3CA5B1A43CD932CEAB6C9B308E6AB4CD4879028EFFAF7F5865E596644595AB13B207AAA33A0C751FB057FE202A7AB2834DFD766E907B631A9F2083AE2547B01AB8F6EA763E5978DED8B99ACF6E9DD97C7AE95CAD969E7379
311
39BF5D5E5ECCE78B3B986E34AA9BA8C06F4B4D3FA2E1259436BF12CCB8EFDB1AF16392801D3C10251FEF9BF06CDFDFD62E7A617F843DA897DDC645FC82BE8FC6EF0BD8AF3C2A689D959C66345744C7D083FEE05F09FA8C8132CDFC3A23293D43CAE7FBCD8131983963DF171DEFF4C7C15E33BBD4017954887AAAB230278C1F
311
6C4C1B24DD324F0D7EAD4FBA775368DAA11E19C7A03395056731F2606CA5B4C8A842363CA308898C4A50AFDFD3C7E6EE71C6EE97A6435424E4B4D5E489A049E61261019257911ACE5BBFA1A9D37DD5B58D72EB3EE36132856D8133D7369A74C5222ADD10055AB742B57070A9DFC983B3244F397AED665337EE76696C0625B9
311
5B724EFF64EC6A52B8310069A444DF808608DEA99509FC5A37F33FFA4F86B7EA5844E133AC5467CB7EA233A63E0621DA18656E0B68629ECDD13B04EADB66796EBD6680C859B7AC3749D048751411697D53D0FA199516AB2F237428D6FAB355F22A852FCF97E4080A32573AC0C122B0C2C82C890255977F3C7E11056EB29975
311
C74081C7659165456E060B7313B6364FB8D7C68F480B545F48E4E364EC4D1EEB8B80B99B6C4322A94B62F98C09F854B00EE281E3C1C8E6B6880AD4FCE8D68DB4130EB8B95E59A6A4CD20D410A59F55352C6839726A217AF46552C74A7F41F9E65D60542F850A025D7CF02F504B03041400060800000E575C40000000000000
311
000000000000350000006662782F44314634384132412D323335322D343830462D393739412D3031343746423936314446432F76657274696365732E62696E504B03041400060808000E575C40F270F1330600000004000000360000006662782F44314634384132412D323335322D343830462D393739412D303134374642
311
3936314446432F747269616E676C65732E62696E636660600000504B03041400060800000E575C40000000000000000000000000370000006662782F44314634384132412D323335322D343830462D393739412D3031343746423936314446432F617474726962757465732E62696E504B03041400060808000E575C40D598
311
7DFC8F00000041010000360000006662782F44314634384132412D323335322D343830462D393739412D3031343746423936314446432F6469726563746F72792E786D6C858F410EC2201045AF4266AF15DDB800BA74E7C21B903225242D6328188F2FA5C4183471359997F9FF81E89FF3C41E1816475E02DF1F80A11FC838
311
6F25A438EECEC07A250251FC3803E6F58C12560C4AD840E95E91C151A72936F496F35732D860FE635F62C8F2DA16B505C545B74125BAA2FA9E05D7CC053D063734D5C7665FD55B6B8D15D5E9BFEAFD8490FFA45E504B03041400060808000E575C40C9364D6EFC000000A00100003B0000006662782F44314634384132412D
311
323335322D343830462D393739412D3031343746423936314446432F7265736F75726365732F636F72652E786D6C8D50596EC32010BD0A9A7F6C208B1D0B13358D72825E00E189831283C552F5F8C5892BB57FFD9919BD45F3F4E4F16B7A904F0CD17AD703AF181074C60FD68D3DE474A52D90A392C1FBF44B06C4E9097B58
311
6050720C3ECF2B64BC4BE852419D1F7005758C98809847397A88E68693AE744E4511EFD5ACCD5D8F58F1AAD045A7644CA10420AF27CB041530FA1C0C4659BF582573B6C3AAB143F969AF1603A89D68DE9BF3654B4F976D43B71B76A66DC3193DF1B338B48C9D768737592F6625939D7E329A803AE1004A302E281354B41F9C
311
75BB7D275ACAF61D63B25EE47F4C791EFE69CAD6A58D58E3BE6C11142F419E8492F5D25759CF32CB5EBA55DF504B010214000A00000800000E575C403DEE336E79000000790000001B00000000000000000000000000000000006175746F6465736B2D64657369676E2D7061636B6167652E786D6C504B0102140014000608
311
08000E575C40D486FD9CA0000000F40000001300000000000000000000000000B20000005B436F6E74656E745F54797065735D2E786D6C504B010214001400060808000E575C40DA9D63F6EA0000007C010000080000000000000000000000000083010000636F72652E786D6C504B010214001400060808000E575C405501
311
9EA25F0000007C000000070000000000000000000000000093020000636E782E786D6C504B010214001400060808000E575C405213C1D966010000020300000C00000000000000000000000000170300006662782F636F72652E786D6C504B010214001400060808000E575C40F485DD597E0000009D0000000B0000000000
311
0000000000000000A70400006662782F636E782E786D6C504B010214001400060808000E575C40586F45172A0100001302000031000000000000000000000000004E0500006662782F44314634384132412D323335322D343830462D393739412D3031343746423936314446432F636F72652E786D6C504B01021400140006
311
0808000E575C400AF660364C010000330300003000000000000000000000000000C70600006662782F44314634384132412D323335322D343830462D393739412D3031343746423936314446432F636E782E786D6C504B010214001400060808000E575C402EED14C99C0500007B1000003400000000000000000000000000
311
610800006662782F44314634384132412D323335322D343830462D393739412D3031343746423936314446432F6F626A656374732E786D6C504B010214001400060800000E575C4000000000000000000000000035000000000000000000000000004F0E00006662782F44314634384132412D323335322D343830462D3937
311
39412D3031343746423936314446432F76657274696365732E62696E504B010214001400060808000E575C40F270F13306000000040000003600000000000000000000000000A20E00006662782F44314634384132412D323335322D343830462D393739412D3031343746423936314446432F747269616E676C65732E6269
311
6E504B010214001400060800000E575C400000000000000000000000003700000000000000000000000000FC0E00006662782F44314634384132412D323335322D343830462D393739412D3031343746423936314446432F617474726962757465732E62696E504B010214001400060808000E575C40D5987DFC8F00000041
311
0100003600000000000000000000000000510F00006662782F44314634384132412D323335322D343830462D393739412D3031343746423936314446432F6469726563746F72792E786D6C504B010214001400060808000E575C40C9364D6EFC000000A00100003B00000000000000000000000000341000006662782F4431
311
4634384132412D323335322D343830462D393739412D3031343746423936314446432F7265736F75726365732F636F72652E786D6C504B0506000000000E000E0080040000891100000000
310
504B03040A00000800000E575C403DEE336E79000000790000001B0000006175746F6465736B2D64657369676E2D7061636B6167652E786D6C3C3F786D6C2076657273696F6E3D22312E302220656E636F64696E673D227574662D3822203F3E3C666F726D6174733E3C666F726D61743E687474703A2F2F736368656D612E
310
6175746F6465736B2E636F6D2F64657369676E2D7061636B6167652F323030393C2F666F726D61743E3C2F666F726D6174733E504B03041400060808000E575C40D486FD9CA0000000F4000000130000005B436F6E74656E745F54797065735D2E786D6C7D8EC10E82300C865F65E91D8A1E8C310C0EEA1BF002731658846E
310
D98AC1B77784ABF1D8FE5FBFBF75BBCE937A534CCEB38643598122B6FEE978D0B0485F9C41B54DDD7D022595594E1A469170414C76A4D9A4D207E29CF43ECE46F218070CC6BECC4078ACAA135ACF422C856C0E68EA1BF5669944DDD7BCDE7B1F8E415D77AECB980613C2E4AC91FC167A2B244592486606FC29C8FD7F045B9A
310
EF7053A7E60B504B03041400060808000E575C405A358E50EB0000007C01000008000000636F72652E786D6C8D904D6EC3201085AF62CD1E1B48EC120B13D54E7D825E0001715062B00C543D7E717EA476D7D58CDEBC6F66F4F8F17BBE155F660DD6BB0E4889A1304E796DDDD4418A67C4A0380ABE7A1F7FD9A07072361D6C
310
32083EAD3E2D4F4979178D8B59755E9BA7284330110A75CB4D07415DCC2C4B996276846BB94875959329C9ABCB704A56178F2356E77DF66CCD0A62DC9D860323231AFA9EA2FD071BD16118DF513F3427F6360E75BDA7BCDA60C1A39D5FF7D56A64341A04C584224C11659F04B775D3528670D362CCABCDFE074A8BFE2794AC
310
8B3BFA7CF7810510243F721F085E6D59E4720F2AD72D37F103504B03041400060808000E575C4055019EA25F0000007C00000007000000636E782E786D6C4DCB3B0E80201045D1AD90E915ED2CF8AC45050C11660C8261F98AB1B07AC9C97D42D718D865D3E909258CFD00CCE24AC6E326A164D74DC0B4128928FF32603847
310
2BA13128B1252AC747C6BAB984FC68F0B87FE8960A5C09FE86CFB69FBA01504B03041400060808000E575C40B2F8D72967010000020300000C0000006662782F636F72652E786D6C8D52ED8E8320107C15C27F44E9C7D90669AEF67C827B01AAD433553008A68F7FEB47E3F5D2348D0992999DDDD9517EB83535EA95ED2AA3
310
131C0521464AE7A6A8749960EF2E24C6E820B835C6FD29C348CB46257880B1E0A535BE9DA1DC68A7B403549B42CDA0EC3AE530CA6BB824B8CB7F542303E91D5474D7A095F955962A8802A0A14EF0CE593080A621C389C5E57CE374C205F7BE2A66B62A605A75A994C5225B9DD25D1C65243D1E19597FC519D9A5D92739A6DB
310
53FC91A59BCD9A713A880577557377975B259D2AB06061C448C8088BBFA370BFD9EE594CC2ED3E0C391DCA1F44BE2DDE14F94ABB159BED4EB20E8B088C8CC4BF6D2122873AD9831F2A381D4284D798F063D0100884ECE4B9BEEF7105A857B933760D4C61FC42F5B2F60AA686687C389D58E83C3680CD9EF6612FFABCEE011F
310
50EA12AC4907D7B377C3743E4D9DA3689525BDBB216D6C23EBC5DC64713997414FE5B9A98D7D474DE755E91C261DFE5EF10B504B03041400060808000E575C40BA4197F97E0000009D0000000B0000006662782F636E782E786D6C4DCCD10A83201886E15B91FFDC55D3CA400D6D741FB12C64A6C3E9D8E5AF46073BFAE0E1
310
E3E5FD6773E86DE2CB062FA0BA94808CBF87D9FA55404E0B66807AC96308E9EF06C84F9B11703048BEC6909F27CD6699B24BBB3AEB1F27EAB1A64DA30826B76B85E94029EEEA52E171E8986E09539AB650485EFC4AFB1E61F905504B03041400060808000E575C406F27E7512B01000014020000310000006662782F424635
310
34363641332D334432312D344334342D393530412D4643393842373338414234372F636F72652E786D6C8D51CB6EC32010FC15C4293D60634C881361A22455BEA03FE002495162B07854F9FC42ED48ED2D1716CDCECC8E76F9FE31DEC1B7F6C138DBC3A6C210682B9D32F6DAC3142FA883602FB8772EFEA141608751F7B0C0
310
50F0AB77695A20E96CD43666D43AA5177008414708E43D7F7A18E4971E876A483133C2AD9A06791BAEBA6AAADCCE3CC143F43900988794178AE3794D193BB4A87D270DA2274AD1768D0FE87CDA76C74DDB1D8E74C3EB5928784A462D72A3721C7331DABF6A52C48247333EE34BAF87A81514043704618248F7D1E0DD9AED48
310
8730DB61CCEB42FF274A937A51948C8D2D59E2CEB20045C3EBB921B872E9F3FE0CA31F93F3119479ABA0E51B14B8C284B066D366C94CCD0BC89E8C2E9E213A9F17BCBA7D66766115634605AFCB8D72F93D60AEE59EE207504B03041400060808000E575C406C51AF215401000033030000300000006662782F424635343636
310
41332D334432312D344334342D393530412D4643393842373338414234372F636E782E786D6CBD93CD6EC32010845F0571F76F52CB8A30917AE813F4D02B814D4A83C1E2A76ADEBE4B42D25C72A854F582ACD96166F509B3EDD76CC827F8A09D9D6857B79480954E697B98688AFB6AA464CB99772EDED928B1628689669972
310
76F02E2D4552B017C944548DB6C7227A082E790901E57C93182785C100B0554211E61D28058ADC8CF8B5078FABA0B83B91F80EE4E5F98DB8DD07C818589353386B720767F92C4D77264AA411214C34C87798452D52740AC2B156228ABAABAF5D0F76FA4922F9C2B532794D72F944F34979D9A8468EACC12167217AA4574CF1
310
B400E562598C962222E4E66CBC78384BDAC6615DBC1AC17B74AFFA611C31EC3CE32CEA198A437A101114E57DDBF555DB57FDF8DAB59BA761D38F553B6CDA9635D9CED9CE39532E610C78B710E96C041B29EF5893C78FF0151F51DA236BE74FBF0089004AEB85CE2DE32FF974C36ABDFE473ECDF97D232E8F7F01FF06504B03
310
041400060808000E575C40F54AC0AC5A070000941B0000340000006662782F42463534363641332D334432312D344334342D393530412D4643393842373338414234372F6F626A656374732E786D6CED59DD73A33610FF5718FA6C6C62278D3B849BC4496E3C6DEE6ECEBD9B3E78869141266A84602491C4FDEBBBFA000331
310
09EEA56FF76003425AEDFEF6534BF0E139A3CE23E682E4ECC2F5BD89EB6016E70961E9855BCAEDE8DC753E8401CF73D998E63A0C65F8C255C36E18A43C2F0B3B94E02D2AA9EC8CDE5EFDE5881833EC3A3145425CB822BEC719F25029F3048B072F411279E9F6D9F33D33B14D36E5A8B8EF102D10C74C02A730CE808A6398F2
310
DB8F13771C0663F53E0CD4BF9D351D346BD63F6BACA56E7349989088C52F58EA90990E6269EACFAE6F4E4EE7A3D3D96C3A9A9D9DF8A3ABDBABEB91FFEB74B2385B2CE6973773606F93E7D4CA94E002B304F4B773433F18AB37B5E81681435CC7396338D64002545AAC2E4182056CD5806FD27EF495448DD75AC2C6F34CBDB7
310
2C3486A76D2A7DB38601D1A20B82D8ED2A89AB6B53BE7CF337082E861825175802B74272D0AE85878357B8E124189BD130D8EC7541849321893941D4A164C31107A5C05435250CCC024B46390707528E92406BCEBC6EDB1678E6DBAE7388CB6D49A9F20C37D48E1581FB61293467E41FCCF7DC3791019E40DA9230796EB994
310
BB02BBE13C18EBC1305097E9897D698074B614A5422362DE76045D28D75F5EBBE1EFB79BE7950A0787372F785E602E95D1293D6ABEC090ED55A164B7F507694E2D00610CA876E51E94AF80FC27881E7B56406F9C3CCF9E6776AEE488896DCE33D08D33714613F89B38BEFE57F78DBB605C2F6E6BAF0F4F705305D5F98FE3D9
310
96416365F96FC019068F60F0399FDA57AB1851B0E73BC2002065240ECD610842FB76F3EC864B089C10E86115A2A10F2203BB8F701B8C2D99BD562AF7B25EC70051BBC774889200366D91C0468F9E3E42F6E024DEABA929621FBCA7EF62AE97D7ABDF5725DFA218DF599FBEC65BC28884AC7998A116E62D891EF0EE29E70908
310
FA12EF5513EFCC6E25006D85B9023EAD40500FFB9D5B1BC4B02ECD55B809DED8018450B9BA41FF8E8818538A18CECB6ADF3ABA2943AD3DDED60C6E7862209E9E744C98E347A2AA0A709AFD8C16A390F7634E0A05A21B7E3492D541D3EB91EEDBF21358643DBF67D69241E86588FEA983D6011C5A965D216D81A805DEECC379
310
9CD39C479B5D64229D0BB504B0D1F696EF2DA210EB8D921415F020ED775548498DB45142B6DB52405C3DC0E2F7E5A2690E136FEA9F3ACDFF8E33CE20DA82EF226EFDAEB347443294E2688B92BEED9ABBD5B48526D9439AE32D05B9C82391BB08C96892E0F418688E223E7F57EA29CD85200C0BC85707C16FA231F12090186D
310
562C2BAD76802622CAB044F4180414991E7075DAD1356E0CA5C3DB3CD6D6FB9AC69A44FF278BE0086AC99C45044A51C8216F32EE7BA71043DAE81A943BF882B555B4B518B4841222DE454F98A4F7F218D40DF91EDC6338929432CA0B1483590F20FBC25794523BBC6F50FCA0F2471497F4BD0C4460BA8D08A56516C18F3038
310
790C71ED3A30BD8A4283B8897D126750942159F2219B9C9D4E5EEC636A866E086C6CB42514C27694A1A207F55640D4F58853836FA9F7287553664584B2BC64830CC59B76BDC992EFAA55911DC8AF2A15A16CAC085B82614098ACB36A15B3C1D475600537D2816A17099415D49CC2DE483C7EED4D9A72EF06DCFAE9FB6E9041
310
E1D7A3BD66449D5530581E5B8581784232BE77C395BE8EAEA0FE4E70B24FF555ADD9AC00013115C94B4EAC8ABE2DA1BCB1359A1BDE2129D61F4DD6ADAEDF961E743F8231AC81DAA55EB85440679849A42A933B7543BF2208C12D1A667CA972EA31542E9344578D88DE923E75B6CA88D6A619F18A7BCCF20C7E6C4D584CCB04
310
AF51221EA23B49A31551AC5B29BD8C5418BF2AE0E78FAB0E3C303240A42FAAC0C34F9DB57674A1CAA58344E47D996D182210045BA2A546375EC152AB914ACBF5559D29A0EE0203B32A9EFD3C5934DB113F4F16A9358C1F3A595CEDFE40BB665FA491CE6365D7471D03EAFCA4A8BCC73140B71D6AAA751631C9DCCA6F9D2982
310
A05845F9C1D55815340CC13E8EFF73D6EECB8266BB0EFFC7656DFF45C5715456694D565DAA0395EBB299C3CE6FE62797BE3F199DCF6737A3D97C7A363ABF5EF8A3B3B3F9CDE2EC743EBFBC5DD4686A470D833A98E9DC05CF26A855C3EAC962005D59915392C0693E71520C315FC2997E40FB9C675840F26C36BB13DB941FB0
310
FAD1F43925DA505C71728FA0414C05A475C0A88C657BDCF9055A93120EDA172E348DBC07F8B356E93A90792E5C6815481263E16DA0CDA41A7A9A38A45C9DFB2D31C007B154A544B3A87EAE57296C5AE1BF9E32240D58B95A3D0C28DC0AE87EB53A149A37CB537C94E0153B0E9270BB2925546B4696FD402D8CDE66AF7E231B
310
25ECC16EFD0CAEFBBA58BEA7E7B41019F4C9E0552330544712F154F7BB156396A5CBEB2F63E8B339CBCF4E41CB1474399CD2886330E6521554604560159666812498EAE2B7F5179EC3279ECCD155D17A916759CEECC3259CC712F844E4ACEEE1834FB286B201ABB6BA589F4CFC93B56E67DB0E7BB441027BAA1E8281AA8C50
310
22748C0D2CF2456BCA362EC74A099DE9CB6BC7864F6803180B7AD1DD359FB71CF01EF52145F98AF6F04ACE573BDA633D15AC81432F3AFC17504B03041400060800000E575C40000000000000000000000000350000006662782F42463534363641332D334432312D344334342D393530412D4643393842373338414234372F
310
76657274696365732E62696E504B03041400060808000E575C40F270F1330600000004000000360000006662782F42463534363641332D334432312D344334342D393530412D4643393842373338414234372F747269616E676C65732E62696E636660600000504B03041400060800000E575C400000000000000000000000
310
00370000006662782F42463534363641332D334432312D344334342D393530412D4643393842373338414234372F617474726962757465732E62696E504B03041400060808000E575C40D5987DFC8F00000041010000360000006662782F42463534363641332D334432312D344334342D393530412D464339384237333841
310
4234372F6469726563746F72792E786D6C858F410EC2201045AF4266AF15DDB800BA74E7C21B903225242D6328188F2FA5C4183471359997F9FF81E89FF3C41E1816475E02DF1F80A11FC8386F25A438EECEC07A250251FC3803E6F58C12560C4AD840E95E91C151A72936F496F35732D860FE635F62C8F2DA16B505C545B7
310
4125BAA2FA9E05D7CC053D063734D5C7665FD55B6B8D15D5E9BFEAFD8490FFA45E504B03041400060808000E575C4032DFD361FE000000A00100003B0000006662782F42463534363641332D334432312D344334342D393530412D4643393842373338414234372F7265736F75726365732F636F72652E786D6C8D504B6EC2
310
3010BD4A347B278E8134448E5109E404BD80E50C60416CE44FD5E3D726A9D4EEBA9919BD8FE6E9F1C3D7FC283ED1796D4D0F7549A140A3ECA4CDB587182EA485E220B8B336FC924161E48C3D641804BF3A1B9F2BA4AC096842428D9D7005A5F718A0508F74F4E0D50D6759CA1892C2DFCBA7547779C5B22E139D7482FBE052
310
80627992270887DE46A7D0F36A61058F514FAB464FE9A7BE687420C6CD69D8B7F5990CC72323DB733B92FD30BE93E3D09CDAB771D8EDB68C57D92C78D0F34F46E550069C40305A33421961ED474DBB5DD3B196D0A6A3945759FEC7149FD33F4D519BB0616BDCC5E641D429C88B10BCCA7DA5F52A33EDDCADF806504B010214
310
000A00000800000E575C403DEE336E79000000790000001B00000000000000000000000000000000006175746F6465736B2D64657369676E2D7061636B6167652E786D6C504B010214001400060808000E575C40D486FD9CA0000000F40000001300000000000000000000000000B20000005B436F6E74656E745F54797065
310
735D2E786D6C504B010214001400060808000E575C405A358E50EB0000007C010000080000000000000000000000000083010000636F72652E786D6C504B010214001400060808000E575C4055019EA25F0000007C000000070000000000000000000000000094020000636E782E786D6C504B010214001400060808000E57
310
5C40B2F8D72967010000020300000C00000000000000000000000000180300006662782F636F72652E786D6C504B010214001400060808000E575C40BA4197F97E0000009D0000000B00000000000000000000000000A90400006662782F636E782E786D6C504B010214001400060808000E575C406F27E7512B0100001402
310
00003100000000000000000000000000500500006662782F42463534363641332D334432312D344334342D393530412D4643393842373338414234372F636F72652E786D6C504B010214001400060808000E575C406C51AF2154010000330300003000000000000000000000000000CA0600006662782F4246353436364133
310
2D334432312D344334342D393530412D4643393842373338414234372F636E782E786D6C504B010214001400060808000E575C40F54AC0AC5A070000941B000034000000000000000000000000006C0800006662782F42463534363641332D334432312D344334342D393530412D4643393842373338414234372F6F626A65
310
6374732E786D6C504B010214001400060800000E575C400000000000000000000000003500000000000000000000000000181000006662782F42463534363641332D334432312D344334342D393530412D4643393842373338414234372F76657274696365732E62696E504B010214001400060808000E575C40F270F13306
310
0000000400000036000000000000000000000000006B1000006662782F42463534363641332D334432312D344334342D393530412D4643393842373338414234372F747269616E676C65732E62696E504B010214001400060800000E575C400000000000000000000000003700000000000000000000000000C51000006662
310
782F42463534363641332D334432312D344334342D393530412D4643393842373338414234372F617474726962757465732E62696E504B010214001400060808000E575C40D5987DFC8F0000004101000036000000000000000000000000001A1100006662782F42463534363641332D334432312D344334342D393530412D
310
4643393842373338414234372F6469726563746F72792E786D6C504B010214001400060808000E575C4032DFD361FE000000A00100003B00000000000000000000000000FD1100006662782F42463534363641332D334432312D344334342D393530412D4643393842373338414234372F7265736F75726365732F636F7265
310
2E786D6C504B0506000000000E000E0080040000541300000000
  0
XRECORD
  5
17
102
{ACAD_REACTORS
330
12
102
}
330
12
100
AcDbXrecord
280
     1
270
     1
271
     1
  0
XRECORD
  5
16
102
{ACAD_REACTORS
330
12
102
}
330
12
100
AcDbXrecord
280
     1
270
     1
271
     1
  0
XRECORD
  5
18
102
{ACAD_REACTORS
330
12
102
}
330
12
100
AcDbXrecord
280
     1
270
     1
271
     1
  0
XRECORD
  5
15
102
{ACAD_REACTORS
330
12
102
}
330
12
100
AcDbXrecord
280
     1
270
     1
271
     1
  0
XRECORD
  5
C20
102
{ACAD_REACTORS
330
22
102
}
330
22
100
AcDbXrecord
280
     1
102
MATERIAL
148
0.0
149
0.0
149
0.0
 93
        0
 94
      127
282
     0
 72
     0
 77
     0
171
     0
175
     0
179
     0
273
     0
  0
XRECORD
  5
24
102
{ACAD_REACTORS
330
22
102
}
330
22
100
AcDbXrecord
280
     1
270
     1
271
     1
  0
XRECORD
  5
23
102
{ACAD_REACTORS
330
22
102
}
330
22
100
AcDbXrecord
280
     1
270
     1
271
     1
  0
XRECORD
  5
BA
102
{ACAD_REACTORS
330
22
102
}
330
22
100
AcDbXrecord
280
     1
 70
     1
 90
1959938040
 71
     1
  1
A494B968-8E09-4BB7-93D2-1A4BFF34AE5E
311
504B03040A00000800000D575C403DEE336E79000000790000001B0000006175746F6465736B2D64657369676E2D7061636B6167652E786D6C3C3F786D6C2076657273696F6E3D22312E302220656E636F64696E673D227574662D3822203F3E3C666F726D6174733E3C666F726D61743E687474703A2F2F736368656D612E
311
6175746F6465736B2E636F6D2F64657369676E2D7061636B6167652F323030393C2F666F726D61743E3C2F666F726D6174733E504B03041400060808000D575C40D486FD9CA0000000F4000000130000005B436F6E74656E745F54797065735D2E786D6C7D8EC10E82300C865F65E91D8A1E8C310C0EEA1BF002731658846E
311
D98AC1B77784ABF1D8FE5FBFBF75BBCE937A534CCEB38643598122B6FEE978D0B0485F9C41B54DDD7D022595594E1A469170414C76A4D9A4D207E29CF43ECE46F218070CC6BECC4078ACAA135ACF422C856C0E68EA1BF5669944DDD7BCDE7B1F8E415D77AECB980613C2E4AC91FC167A2B244592486606FC29C8FD7F045B9A
311
EF7053A7E60B504B03041400060808000D575C40BABBC68CEA0000007C01000008000000636F72652E786D6C8D90416EC3201045AF82D86303B11DC7C24469434ED00B20202E4A0C9681AAC72F248ED4EEBA9AD19FFF66469F1DBFE73BF8326BB0DE8D90541802E394D7D64D234CF18A7A088E9CADDEC75F36089C9CCD088B
311
0C399B569F964D52DE45E362569DD7661365082642A0EEB91961509F6696954C313BC2AD5AA4BAC9C954E4D5653825ABC1F388D5799FBD5AB342FEDEB797FE2CCEE87C69046A9ABD40277C681079EBC4EE24447BE808AB0BCC59B4F3EBBE5A8D8C46434E31A1085344FB0F8287B61BE81EE16EC098D5C5FE074A8BFE2794AC
311
8B3BBABDFBC402E4E591C780B3BA6491CB23A85C4B6EFC07504B03041400060808000D575C4055019EA25F0000007C00000007000000636E782E786D6C4DCB3B0E80201045D1AD90E915ED2CF8AC45050C11660C8261F98AB1B07AC9C97D42D718D865D3E909258CFD00CCE24AC6E326A164D74DC0B4128928FF326038472B
311
A13128B1252AC747C6BAB984FC68F0B87FE8960A5C09FE86CFB69FBA01504B03041400060808000D575C40F792798167010000020300000C0000006662782F636F72652E786D6C8D52ED8E8230107C95A6FF4B0B227AA6D478273EC1BD4085CA11A125A5253EFE2D1F86F3628C2129CDCCCEEEEC00DFDF9A1AF5CA7695D129
311
0E038691D2B9292A5DA6D8BB0BD962B417DC1AE3FE9461A465A3523CC058F0D21ADFCE506EB453DA01AA4DA16650769D7218E5355C52DCE53FAA9181F40E2ABA6BD0CAFC2A4B158401D0502778E72C1840D390E1C4E272BE713AE1827B5F15335B1530ADBA54CA62F1B55D9FB6C7EC488EA7382371BCC9C8817DC424FC4CB2
311
D521CBD61F49C8E92016DC55CDDD5D6E9574AAC0226261445844A2ED77C876EB64176D084B768C713A943F887C5BBC29F29576AB68B63BC93A2C062323F16F5B88C8A14EF6E0870A4E8710E13526FC18340402213B79AEEF7B5C01EA55EE8C8D81298C5FA85ED65EC15486C687D38985CE6303D8EC699FE8459FD73DE0034A
311
5D8235E9E07AF66E98CEA7A97314ADB2A47737A48D6D64BD989B2C2EE732E8A93C37B5B1EFA8E9BC2A9DC3A4C3DF2B7E01504B03041400060808000D575C40D75915787D0000009D0000000B0000006662782F636E782E786D6C4DCCD10A83201886E15B91FFDC95E99F0ED45807DD472C0B59E9703A76F9ABD1C18E3E78F8
311
7875F7D956F276E9E56330C02E351017EE71F2613150F24C1590CEEA1463FEBB0109E3E60C1C0C562F2996E749939BC7B2E65D571F1E27DE86862363489914920A5435ED1B94F48AD80B35F056B51C2AABAB5F69DF236CBF504B03041400060808000D575C406C1470FC2901000014020000310000006662782F4146323335
311
3131352D313734372D343538302D423235372D3935354234384633363836332F636F72652E786D6C8D51CB6EC32010FC15C4A93D600336D889305173C817F407884D5294182C1E553EBF503B527BCB8545B333B3A35D7178CC77F0AD7D30CE0E905418026D4737197B1D608A17D4437090C23B17FFD020B06AD6032C3094E2
311
EA5D5A366874366A1B336ADDA4375085A02304E33D7F0618C62F3DAB4AA59819E1562D6ABCA9ABAE4895DB992745883E0700EB90F242F971A20D238421D2B51D6A598FD191B20EED183BB6FDA9E13D6F44BD0AA548C94C9BDC4C398EB918ED5F35296229A2999FF147AF55D4139414138A3045B4FF2478CFF89E7608F33DC6
311
A22EF47FA2B44C2F8A92B1B1A15BDC5516A024A25E1B524C2E9DEFCF30FAB1381F4199F716F4F80E25AE3025BCE57827EA959A17903D79BB7986E87C5EF0DBED9CD984ADC6BC95A22E37CAE5F780B9967BCA1F504B03041400060808000D575C40C63F4F834D01000033030000300000006662782F41463233353131352D31
311
3734372D343538302D423235372D3935354234384633363836332F636E782E786D6CD593BD6E032110845F05D1DF6F9C8B6571584A912748919683B54DCCC1899F287EFB2C3676DCB84899069D668799D5278E6DBF6743BEC007EDEC48BBBAA504AC744ADBFD4853DC556B4AB69C79E7E29D8D122B6618699629677BEFD252
311
24053B914C44D5687B2CA287E092971050CE37897152180C005B2514619E402950E466C4AF1D785C05C5E944E201C8DBEB0771D327C818589353386B720767F92C4D77264AA411218C34C803CCA216293A05E1582B1145DDD5D7AE073BFD26917CE15A99BC26B97CA4F9A4BC6C542347D6E090B3103DD22BA6785A8072B12C
311
464B11117273365E3C9C256DE3B02A5E8DE03DBABBE169B5C2B0F38CB3A867280EE941445094F76DD7576D5FF5EBF7AEDD3C0F9BFEA56A874DDBB226DB399B9C33E512C680770B91CE46B091F28E3579FC085FF111A53DB276FEF4079008A0B45EE8DC32FE339FE6FCBE1197C7BF80FF00504B03041400060808000D575C40
311
7D818E3D9B0500007A100000340000006662782F41463233353131352D313734372D343538302D423235372D3935354234384633363836332F6F626A656374732E786D6CAD57DB6EDB3810FD1541FBEC8B6CA78D178A0A5F92C228D206355AEC4300839228851B4A14482A75F6EBF750A264C9B553EFA22F96450D873367CE
311
5CE87FD867DC79A1523191DFB8DE70EC3A348F44CCF2F4C62D7532B8769D0F812F85D01D31D7C949466F5CB3EC067E2A4559D8A59826A4E4FA68F56EF997A3229A53D7893851EAC655D113CDC890945AC4543D0F63A2C9304DF6436F580BF6D5A692144F474A0B2269AE6129D67368716AA3BCFEEBD81D05FEC87C0F7CF36B
311
A5A6E7A546953FFDF359AE34C9A39F0E3B5233F566EBDBC9D57C70359B4D07B377136FB0BC5BAE07DEFBE978F56EB59A2F6EE7385869094DD612491337F8086C248BFC51FD29F04B96EBE9C48AD8008D247D6126526E30713C7F54CBB4DE59274F991F893CA7518515D0A8FCB3AA635AD03C46CC1955B0AC83D0B8FFEA191C
311
3B9FA7E6DD1ED95DBE0C81EE8E8EA2C6F6E6D9B554847FC305750983A4A286813596D6D19AABE303C2A110DC7E63CAC988A69211EE70164A225FDD00A24624F07B6A0C93A5C906E3811B200AF5E73E5D9046BFE6F9292B939273436337A8B260875CA15A5596B17FA83C58DF4506362156860DD7D621FD5A503798D714B93E
311
62530DA493709222E470D3EC9C4E8E1C5D993CDDACDDE0D35DB8DF9ADC3D7D78214541A536F401B59AC0354F8392B5C9BB287266837B64CA0194AF40FE3352FD600AE226D97EB69FD953B424B94A84CC101B67EC0CC6F8193B5EF56BFE77FEF9A376733F7AE7F044B00D54BF01CFBE0FDD5876E00CFC17105EC8A9756D1B11
311
8EB271CF72006448E2708125D4E124DCBBC106550E5519BB080F3CB80C735FF0D71F59352814D5499D670E2C8FCAE205051AB0558C841935F9AD818738FD54CEAA83ADD83978AF7E0B5D17EBEDA76D291312D17B9BD36B9AB09C69B4B8036FBA06F530EF79F44C5F7F0819C3D19FF1DE76F1CEEC510A681BCC0DF06953D3CD
311
CBE1E4DE0111F6A5C2941BFF1727C009D3583BFAEF998A28E724A7A26CCE7DB37FA06DD4109B64374C6E1BCCA1B18034F597A31C44938E242B0C886DB76A8BE6F08C77DF369FC148C87311127E100A0FA537125CC85DF8BAABABD249A4BFF7A96D2118192D607B95234DFA5BCC77314B9252A1069E80F5FB66D50D9DA90AA8
311
108DD63A5966701FB945A4E56CA317CD5A12345291EF18DA26D2EEE4015DFD40D412A05278CE624579B2639C97D92E611CCD689791E20C1CFFDFFEB0CC8A1DC94499EB33BA7BA6A339F46DEF9157FD203A7A72836DF51C2C517A631A1FC2DC1336ADE40456BDD02E66F3D972FEEE7A707D3B9E0F66CBE5FBC17CBA9E0CBCC5
311
6C7977379D2D6EAF6E9B38D5CA03BFE934DD844694D0D9FC52321BBE6F1BA48FAD016E704FB47AFC586767F3FCB6196214F647D88376D96E5CC42F18FB68FC6B0507C9938A3659C16946734D4C0ADD9B3FFC2BC198D133A65EDF6424A51768F9F2717BE40C562ED8F760D29DFE38DA6B575726214F2AD14F6516E684F1A38D
311
698DE4B0C8538B5F1393F659F799E6D5BCD9C060305582B318653076522A32AA510C2FE84132A30AD4EB8EF4B1BD7A5CB0FBA51E103509396D2C79229891B9425A805A65A4FBEBCE1F98E9CC5875E3A2DB0E9FF1632B85EB8033372E6674CD22AA8621FAB399842AE5E0527790C7DC4FF29463D4AE37B5EFED2E834DAF23B7
311
22978C4FD6AFBA825B0750460A8C0D9887109DCA98C0AF6CB3DFA3FFE478638E4334FE86A56E7D392CB4CE54C720456BA7EC650133CCB33D7A8F447DDB2D6F58C9F410B9E892F526096AAD034D645A5D148C7DD6A4C5FA618401C5D97C710A5EA688E5E59A069282CCA54970B008ACB03A0BA241D5D59F8F0F52E0229B3977
311
0C14785C892C13B97D59D88BB0B37DC2B5367E4459A0E63EA21E27636FF258DD03ECD564171245872456CF58404C256B21EE051E8CAC2F8BE840F587566E648270C4CDCDDAB12D6D06A59628DDAA6A60C1C4915307D963EE922657BA02C59B578151250A132486F8E05F504B03041400060800000D575C4000000000000000
311
0000000000350000006662782F41463233353131352D313734372D343538302D423235372D3935354234384633363836332F76657274696365732E62696E504B03041400060808000D575C40F270F1330600000004000000360000006662782F41463233353131352D313734372D343538302D423235372D39353542343846
311
33363836332F747269616E676C65732E62696E636660600000504B03041400060800000D575C40000000000000000000000000370000006662782F41463233353131352D313734372D343538302D423235372D3935354234384633363836332F617474726962757465732E62696E504B03041400060808000D575C40D5987D
311
FC8F00000041010000360000006662782F41463233353131352D313734372D343538302D423235372D3935354234384633363836332F6469726563746F72792E786D6C858F410EC2201045AF4266AF15DDB800BA74E7C21B903225242D6328188F2FA5C4183471359997F9FF81E89FF3C41E1816475E02DF1F80A11FC8386F
311
25A438EECEC07A250251FC3803E6F58C12560C4AD840E95E91C151A72936F496F35732D860FE635F62C8F2DA16B505C545B74125BAA2FA9E05D7CC053D063734D5C7665FD55B6B8D15D5E9BFEAFD8490FFA45E504B03041400060808000D575C4065D50C34FD000000A00100003B0000006662782F41463233353131352D31
311
3734372D343538302D423235372D3935354234384633363836332F7265736F75726365732F636F72652E786D6C8D504B6E833010BD0A9ABDC1102004194769424ED00B586642AD041BF953F5F8B5132AB5BB6E6646EFA3797AECF8B53CB24FB44E193D409953C8504B33293D0F10FC8D74901D39B3C6F85F32C8B458708004
311
0367B33561DD2069B447ED23AACD841B289C430F997CC46300273F7011B9083E2ADC3D5F85BC8B19F3328F74D471E6BC8D01B2D79334815B742658898E152F96B310D4B469D4147FAA9B420BFCDC35D7EE329EC9E55A8FA4AEF72339D1434DCAB776DC9DC6B139B4252B929933AF969F8CD2A2F03801AF6859115A91AA7B2F
311
69DFB47DB527B4ED29654592FF318575FAA72928ED77D516F76573C0539027C15991FA8AEB5966DCA95BFE0D504B010214000A00000800000D575C403DEE336E79000000790000001B00000000000000000000000000000000006175746F6465736B2D64657369676E2D7061636B6167652E786D6C504B0102140014000608
311
08000D575C40D486FD9CA0000000F40000001300000000000000000000000000B20000005B436F6E74656E745F54797065735D2E786D6C504B010214001400060808000D575C40BABBC68CEA0000007C010000080000000000000000000000000083010000636F72652E786D6C504B010214001400060808000D575C405501
311
9EA25F0000007C000000070000000000000000000000000093020000636E782E786D6C504B010214001400060808000D575C40F792798167010000020300000C00000000000000000000000000170300006662782F636F72652E786D6C504B010214001400060808000D575C40D75915787D0000009D0000000B0000000000
311
0000000000000000A80400006662782F636E782E786D6C504B010214001400060808000D575C406C1470FC290100001402000031000000000000000000000000004E0500006662782F41463233353131352D313734372D343538302D423235372D3935354234384633363836332F636F72652E786D6C504B01021400140006
311
0808000D575C40C63F4F834D010000330300003000000000000000000000000000C60600006662782F41463233353131352D313734372D343538302D423235372D3935354234384633363836332F636E782E786D6C504B010214001400060808000D575C407D818E3D9B0500007A1000003400000000000000000000000000
311
610800006662782F41463233353131352D313734372D343538302D423235372D3935354234384633363836332F6F626A656374732E786D6C504B010214001400060800000D575C4000000000000000000000000035000000000000000000000000004E0E00006662782F41463233353131352D313734372D343538302D4232
311
35372D3935354234384633363836332F76657274696365732E62696E504B010214001400060808000D575C40F270F13306000000040000003600000000000000000000000000A10E00006662782F41463233353131352D313734372D343538302D423235372D3935354234384633363836332F747269616E676C65732E6269
311
6E504B010214001400060800000D575C400000000000000000000000003700000000000000000000000000FB0E00006662782F41463233353131352D313734372D343538302D423235372D3935354234384633363836332F617474726962757465732E62696E504B010214001400060808000D575C40D5987DFC8F00000041
311
0100003600000000000000000000000000500F00006662782F41463233353131352D313734372D343538302D423235372D3935354234384633363836332F6469726563746F72792E786D6C504B010214001400060808000D575C4065D50C34FD000000A00100003B00000000000000000000000000331000006662782F4146
311
3233353131352D313734372D343538302D423235372D3935354234384633363836332F7265736F75726365732F636F72652E786D6C504B0506000000000E000E0080040000891100000000
310
504B03040A00000800000D575C403DEE336E79000000790000001B0000006175746F6465736B2D64657369676E2D7061636B6167652E786D6C3C3F786D6C2076657273696F6E3D22312E302220656E636F64696E673D227574662D3822203F3E3C666F726D6174733E3C666F726D61743E687474703A2F2F736368656D612E
310
6175746F6465736B2E636F6D2F64657369676E2D7061636B6167652F323030393C2F666F726D61743E3C2F666F726D6174733E504B03041400060808000D575C40D486FD9CA0000000F4000000130000005B436F6E74656E745F54797065735D2E786D6C7D8EC10E82300C865F65E91D8A1E8C310C0EEA1BF002731658846E
310
D98AC1B77784ABF1D8FE5FBFBF75BBCE937A534CCEB38643598122B6FEE978D0B0485F9C41B54DDD7D022595594E1A469170414C76A4D9A4D207E29CF43ECE46F218070CC6BECC4078ACAA135ACF422C856C0E68EA1BF5669944DDD7BCDE7B1F8E415D77AECB980613C2E4AC91FC167A2B244592486606FC29C8FD7F045B9A
310
EF7053A7E60B504B03041400060808000D575C405E44882EEA0000007C01000008000000636F72652E786D6C8D904D6EC3201085AF82668F8DA9837F84898A259FA0174098A428315806AA1EBF3871A476D7D58CDEBC6F66F4F8F97BB9A32FB305EBDD0055410019A7FD6CDD7580142FB80574167CF33EFEB201726A3103EC
310
32087EDD7C5A0F497B178D8B59757E3687A842301190BEE76680A03FCDA20A956276845BB12A7D53575354AF2EC329D9193D8FD839EFB3176B36105D2D47D64D0D66F5C470CD588BE5F83EE15176CD74AA25E9A4E4E50E0B1EEDF2BAAF37A3A299415052514C28A6ED4745FA13EB698309EB09E1E56EFF03A575FE2794AC8B
310
6FF478F7890510557EE43110BCDCB3C8E51154AE7B6EE207504B03041400060808000D575C4055019EA25F0000007C00000007000000636E782E786D6C4DCB3B0E80201045D1AD90E915ED2CF8AC45050C11660C8261F98AB1B07AC9C97D42D718D865D3E909258CFD00CCE24AC6E326A164D74DC0B4128928FF326038472B
310
A13128B1252AC747C6BAB984FC68F0B87FE8960A5C09FE86CFB69FBA01504B03041400060808000D575C402A6D884A66010000020300000C0000006662782F636F72652E786D6C8D52ED8E8320107C15C27F043D6B6B833467139FE05E802AF54C150C82E9E3DFFAD178BD34CDC504C9CCCEEEEC283FDDBB168DCA0E8DD119
310
0E038691D2A5A91A5D67D8BB2B39607412DC1AE37E9561A465A7323CC158F0DA1ADFAF5069B453DA01AA4DA556500E837218952D5C323C94DFAA9381F40E2A865BD0CBF2266B158401D05027F8E02C1840CB90E9C4E27AB973BAE0827BDF542BDB5430ADB936CA6291C6F939498B3D49E2222171921C487EFE2CC8394FF7C5
310
2ECE599AE79C4E62C15DD33DDC955649A72A2C2216468445243A7C85ECB84B8ED19EB0E4C818A753F993C8F7D53F45BED1EE235AED2EB2018B108CCCC49F6D2122870639821F2A389D4284D79CF073D0100884ECE4A57DEC71036854A5333606A6327EA346D97A0553199A1F4E17163ACF0D60B3977DA2377DDEF7800F2875
310
0DD6A483EBC5BB693A5FA6AE51F4CA92D1DD9136B693ED666EB1B89DDBA097F2D2B4C6FE474DD755E91A269DFE5EF103504B03041400060808000D575C409C5025837D0000009D0000000B0000006662782F636E782E786D6C4DCCD10A83201886E15B91FFDC95CED0811A4AEC3E6259C84CC3E9D8E5AF46073BFAE0E1E395
310
FD670DE8EDF2CBA7A8805C5A402E3ED2E4E3A2A096190B40BD9639A5F2770314C7D5293818B45C72AADB49939BC71ACAAEC1C7E789DDC0881046E0FB951ACC0867D81ADBE1D6DE38B59C0E841968B46C7EA57D8FB0FE02504B03041400060808000D575C40FE5C93EE2901000014020000310000006662782F354434313838
310
41382D463332412D343137342D424142352D3042393732423732443134412F636F72652E786D6C8D51CB6EC32010FC15C4293D6003F1AB1126B215F50BFA030E901425068B4795CF2FD48ED4DE7261D1ECCCEC68971D1FF31D7C2BE7B5353D240586401961A536D71EC670411D0447CE9CB5E10F0D0233CDAA8719869C5D9D
310
8DCB06096B823221A1C64AB58193F72A4020EEE9D3432FBED43C15530C89E16FC53289DB74550529523BF138F3C1A500601D925FC8EB5345BA6EE8D0C79E0EA8226D85C661AC111EDF5B3AB6F444AA8195AB90B318B5DCE45AA638FAA2957BD5248B390B7A7EC6174E4D4149C8292614618A68F749F0A16E0EB445B83960CC
310
CA4CFF278A8B7C5114B5097BBAC55D651E72C2CAB5C199B4F17C7F86518FC5BA00F2BC9D57E20D725C605AD38ED28A952B352D207936D5E6E9837569C1BBDB39B1F79B71537156E61BA5F27BC054F33DF90F504B03041400060808000D575C40A09880945401000033030000300000006662782F35443431383841382D4633
310
32412D343137342D424142352D3042393732423732443134412F636E782E786D6CBD93CD6EC32010845F0571F76F52D78A30917AE813F4D02B864D4283C1025C356FDF2521692E3954AA7A41D6EC30B3FA84D9F66B32E4137CD0CE0EB4296B4AC04AA7B4DD0F7489BBA2A764CB99772EDED928B1628281269972B6F76E99B3
310
A4602716135135DA1EB3E821B8C54B0828A79BC438290C06802D1614611A412950E466C4AF1D785C05C5F144E201C8EBCB3B71E307C81858955238AB520767E9CC4D77264AA411210C34C8034CA2144B740AC2B154228AB229AF5D0F76FA4922E9C2B572F19AA4F281A693F2BC51891C598543CE42F4482F9BE26906CAC53C
310
1B2D4544C8D5D978F170B6681BBB75F66A04EFD1BD6ABBBEC7B0F38CB3A827C80EE941445094B775D316755BB4FD5B536F9EBA4DFB5CD4DDA6AE5995EC9C8DCE997C0963C0BB99486723D84879C3AA347E842FFB88D21E593B7FFA054804905B2F746E197FC9A7E956EBF53FF2A9CEEF1B7179FC0BF837504B030414000608
310
08000D575C40241930B259070000931B0000340000006662782F35443431383841382D463332412D343137342D424142352D3042393732423732443134412F6F626A656374732E786D6CED595B6FA33814FE2B887D0E0949DA695694512EED285A756634D919ED4324E48043BC3506D9A697FDF57B6C0C011A5AB2D37D9B87
310
0430F6F139DFB9FAE07D7C4AA8F580B92029BBB65D67645B98856944587C6DE7723FB8B2AD8FBEC7D354D6A6D9164309BEB6D5B0ED7B314FF3CC0C45788F722A5BA3B78BBF2C1162866D2BA448886B5B84079C2007E5328DB0B87722249113EF9F1CD7292636C9C61C658716D10C71CC24700AE30CA85805536EF371640F7D
310
6FA8DEFB9EFA37B326BD664DBB670DB5D44D2E091312B1F0054B2D32935E2C4DDCE9EA667C311B5C4CA793C1F472EC0E16B78BD5C0FD30192D2F97CBD9FC6606ECEDD2941A99229C611681FE9E6DDFF586EA4D25BA41E014D761CA180E3590009516AB4D9060015BD5E01B351F5D2551EDB596B0F63C55EF0D0BB5E149934A
310
D7AC7E4034E8822066BB52E2F25A972FDDFD0D828B3E46C90596C0AD901CB46BE0E1E015B63FF286C5A8EFED8EBA20C24A90C49C206A51B2E388835260AA9AE27BC5024346390707529692406BAE78DDB42DF0CCB75DE71497FB9C52E519B6AF1D2B00F7C35268CEC83F981FB9AF23033C81B43961F2CA70299F336CFB336F
310
A8077D4F5D2663F3B200D2DA53140B8D48F1B625E852B9FE7A65FB7FDCEE9E362A1C9CDE3CE36986B95446A7F4A8F9024336578592D9D6EDA539B500842940352B8FA07C03E43F43F438B2027AE3E469FA34357325474CEC539E806EAC913518C1DFC872F5BFBAAFDD79C36A71537B5D78829B2AA8AE7E1ECFA60C1A2BC37F
310
0D4EDF7B00834FF9C4BCDA8488823DDF1106002923B1680A4310DAF7BB27DB5F43E084400FAB10F55D1019D87D805B6F68C81CB552BA97F13A06889A3D267D9404B0698B04363AF4F409B20727E1514D7511BBE0BD7817739DAF367F6C72BE4721BE333EBDC27BC28884AC799AA106E60D89EEF1F363CA2310F425DE9B3ADE
310
89D94A00DA0A73057C5C82A01E8E3B373608615D9CAA70E3BDB10308A172758DFE1D1121A614319CE6E5BE557453865A79BCA9196C7F5C403C19B74C98E307A2AA0A709AE38C06A390F7434E3205A2ED7F2A24AB82A6D321DDF7F567B0C86A7EC7AC3583D0CB10FD5307AD1338342CBB44DA005109BC3B86F330A5290F76CF
310
4111E96CA825808DA6B7FC681085585F284951010FD27E578694B8903688C87E9F0B88AB2758FCB15ED6CD61E44CDC0BABFEDF72C629445BF05DC48DDFB5F6084882621CEC51D4B55D7DB78AB6D0243B4873BCA720177920F23940321845383E079AB388CFDE957A4C532108C302F2D549F0EB688C1C082485364B9695565B
310
4013112458227A0E028A4C07B83AEDE81A3784D2E16D1E2BEB7D4D6375A2FF93457004B564CA0202A528E4903719779D0B88214D740B945BF882B595B4B518348712227C0E1E31890FF21CD40BF21DB8877024C96590662804B3EE41F685AF28A5B678DFA1F05EE58F20CCE97B1988C0741F104AF324801F6170F2E8E3DA55
310
607A15851AF122F6499C40518664CEFB6C7279317AB14F5133B443606DA33DA110B68304651DA83702A2AE47AC0A7C43BD43A9BB3CC90294A439EB6528CEA4ED4D867C5BAD8A6C4F7E55A908656349D810F43DC2649555CB980DA6AE032BB8910E54CF814049468B53D81B89C7ADBC4953EEDC801B3F7DDF0D1228FC3AB457
310
8FA8D31206C363A330108F488607DBDFE8EB6001F57784A363AA2F6BCD7A050888A9489E736254F47D0DE58DA9D16CFF0E49B1FD5464DDF2FA7DED40F7C31BC21AA85DAA856B0574829944AA32B95337F41B8210DCA0518CAF554E3D87CA3C8A74D588E82DE95267A38C686C9A10273B609626F0635BC2429A47788B22711F
310
DC491A6C8862DD48E924A4C4F85501BF7CDAB4E081911E227D55051E7E6CAD35A34B552E9D24220F79B2638840106C881617BA7132161B8D945AAEAEEA4C017517189851F1F4D7C9A2DE8EF875B2888D61FCDCC982A63B448FD1A696CD4365D6679D02AAF4A4A8BCC72940771D2AAA55122972B911DFF8520031B10CF2BD8B
310
B132661404BB38FECF49BB2B0916DBB5F83F2F69BB2F0A8EB3924A63B26A529D285CD7F514369FCEA68BD9E5D5E0EA66341B4C178B0F83D964351EB8F3E9E2F676329DDF5CDC54686A3FF5BD2A96E9D405CF454C2B87D593C1009AB222A52482C37C64C51842BE84237D8FEE394FB080DC59EF7547A627DF63F543D1E69468
310
4771C9C901417F980AC8EA80511ECAE6B8F51B7426259CB3AF6DE81939F7F067ACD2B620F15CDBD0299024C4C2D9419749F5F33471C8B83AF51B62800F62B1CA88C5A2EAB95AA5B06944FF6A4A9F2C60E46AB430A06ECBA0F9D5685068DE0C4FE1598297EC5848C2ED2E9750AC15B21C072A61F43647F517B251C2EECDD64F
310
E0BAAF8BE53A7A4E03915E5F0C5E358282EA40221EEB76B762CCB0345F7D1D429BCD5A7FB1329AC7A0CBFE94061C8331E7AA9E022B02AB30343324C15497BF6FBFF214BEF024962E8AB6CB344952661EE6701C8BE00B91B539C0F79E680B5503565D75B11D8FDCF15677B34D833DD821811D550EC140594528115AC60616F9
310
A23365FA9643A584D6F4F5CA32E1F302886AAB7DD1DC2DBE6E59E03DEA3B8AF215EDE1A59CAF36B4877A2A58038756B4FF2F504B03041400060800000D575C40000000000000000000000000350000006662782F35443431383841382D463332412D343137342D424142352D3042393732423732443134412F766572746963
310
65732E62696E504B03041400060808000D575C40F270F1330600000004000000360000006662782F35443431383841382D463332412D343137342D424142352D3042393732423732443134412F747269616E676C65732E62696E636660600000504B03041400060800000D575C400000000000000000000000003700000066
310
62782F35443431383841382D463332412D343137342D424142352D3042393732423732443134412F617474726962757465732E62696E504B03041400060808000D575C40D5987DFC8F00000041010000360000006662782F35443431383841382D463332412D343137342D424142352D3042393732423732443134412F6469
310
726563746F72792E786D6C858F410EC2201045AF4266AF15DDB800BA74E7C21B903225242D6328188F2FA5C4183471359997F9FF81E89FF3C41E1816475E02DF1F80A11FC8386F25A438EECEC07A250251FC3803E6F58C12560C4AD840E95E91C151A72936F496F35732D860FE635F62C8F2DA16B505C545B74125BAA2FA9E
310
05D7CC053D063734D5C7665FD55B6B8D15D5E9BFEAFD8490FFA45E504B03041400060808000D575C404DEFA6B6FB000000A00100003B0000006662782F35443431383841382D463332412D343137342D424142352D3042393732423732443134412F7265736F75726365732F636F72652E786D6C8D504B6E833010BD0A9ABD
310
C150E200328E0A1227E8052C3349AC041BF953F5F835814AEDAE9B99D1FB689E1EBF7C2DCFEC139DD7D6F450E6143234CACEDADC7A88E14A1AC82E823B6BC32F1964462ED8C30683E03767E37A40CA9A802624D4D8190F507A8F0132F54C470F5EDD7191B98C2129FC235FA57AC81BE6659EE8A413DC07970264FB936D8270
310
E86D740A3D2F7656F018F57C68F49C7EEAAB4607A2AD8791B51323AC4EA366AC21C3F83E917168CFD3A91E683B0CBCD8CC8207BDFC64540E65C0194445CB8AD08A54CD4749BB13EBAA33A1ACA394179BFC8F29AEF33F4D519BF0561D71779B0751A6202F42F062EB2BAD5799696FDD8A6F504B010214000A00000800000D57
310
5C403DEE336E79000000790000001B00000000000000000000000000000000006175746F6465736B2D64657369676E2D7061636B6167652E786D6C504B010214001400060808000D575C40D486FD9CA0000000F40000001300000000000000000000000000B20000005B436F6E74656E745F54797065735D2E786D6C504B01
310
0214001400060808000D575C405E44882EEA0000007C010000080000000000000000000000000083010000636F72652E786D6C504B010214001400060808000D575C4055019EA25F0000007C000000070000000000000000000000000093020000636E782E786D6C504B010214001400060808000D575C402A6D884A660100
310
00020300000C00000000000000000000000000170300006662782F636F72652E786D6C504B010214001400060808000D575C409C5025837D0000009D0000000B00000000000000000000000000A70400006662782F636E782E786D6C504B010214001400060808000D575C40FE5C93EE290100001402000031000000000000
310
000000000000004D0500006662782F35443431383841382D463332412D343137342D424142352D3042393732423732443134412F636F72652E786D6C504B010214001400060808000D575C40A098809454010000330300003000000000000000000000000000C50600006662782F35443431383841382D463332412D343137
310
342D424142352D3042393732423732443134412F636E782E786D6C504B010214001400060808000D575C40241930B259070000931B00003400000000000000000000000000670800006662782F35443431383841382D463332412D343137342D424142352D3042393732423732443134412F6F626A656374732E786D6C504B
310
010214001400060800000D575C400000000000000000000000003500000000000000000000000000121000006662782F35443431383841382D463332412D343137342D424142352D3042393732423732443134412F76657274696365732E62696E504B010214001400060808000D575C40F270F13306000000040000003600
310
000000000000000000000000651000006662782F35443431383841382D463332412D343137342D424142352D3042393732423732443134412F747269616E676C65732E62696E504B010214001400060800000D575C400000000000000000000000003700000000000000000000000000BF1000006662782F35443431383841
310
382D463332412D343137342D424142352D3042393732423732443134412F617474726962757465732E62696E504B010214001400060808000D575C40D5987DFC8F000000410100003600000000000000000000000000141100006662782F35443431383841382D463332412D343137342D424142352D304239373242373244
310
3134412F6469726563746F72792E786D6C504B010214001400060808000D575C404DEFA6B6FB000000A00100003B00000000000000000000000000F71100006662782F35443431383841382D463332412D343137342D424142352D3042393732423732443134412F7265736F75726365732F636F72652E786D6C504B050600
310
0000000E000E00800400004B1300000000
  0
XRECORD
  5
27
102
{ACAD_REACTORS
330
22
102
}
330
22
100
AcDbXrecord
280
     1
270
     1
271
     1
  0
XRECORD
  5
26
102
{ACAD_REACTORS
330
22
102
}
330
22
100
AcDbXrecord
280
     1
270
     1
271
     1
  0
XRECORD
  5
28
102
{ACAD_REACTORS
330
22
102
}
330
22
100
AcDbXrecord
280
     1
270
     1
271
     1
  0
XRECORD
  5
25
102
{ACAD_REACTORS
330
22
102
}
330
22
100
AcDbXrecord
280
     1
270
     1
271
     1
  0
XRECORD
  5
C19
102
{ACAD_REACTORS
330
C18
102
}
330
C18
100
AcDbXrecord
280
     1
102
ACAD_ROUNDTRIP_2012_MLEADER_STYLE
298
     1
  0
CELLSTYLEMAP
  5
C17
102
{ACAD_REACTORS
330
C16
102
}
330
C16
100
AcDbCellStyleMap
 90
        3
300
CELLSTYLE
  1
TABLEFORMAT_BEGIN
 90
        5
170
     1
 91
        0
 92
    32768
 62
   257
 93
        1
300
CONTENTFORMAT
  1
CONTENTFORMAT_BEGIN
 90
        0
 91
        0
 92
      512
 93
        0
300

 40
0.0
140
1.0
 94
        5
 62
     0
340
55
144
0.25
309
CONTENTFORMAT_END
171
     0
 94
        0
309
TABLEFORMAT_END
  1
CELLSTYLE_BEGIN
 90
        1
 91
        1
300
_TITLE
309
CELLSTYLE_END
300
CELLSTYLE
  1
TABLEFORMAT_BEGIN
 90
        5
170
     1
 91
        0
 92
        0
 62
   257
 93
        1
300
CONTENTFORMAT
  1
CONTENTFORMAT_BEGIN
 90
        0
 91
        0
 92
      512
 93
        0
300

 40
0.0
140
1.0
 94
        5
 62
     0
340
55
144
0.18
309
CONTENTFORMAT_END
171
     0
 94
        0
309
TABLEFORMAT_END
  1
CELLSTYLE_BEGIN
 90
        2
 91
        1
300
_HEADER
309
CELLSTYLE_END
300
CELLSTYLE
  1
TABLEFORMAT_BEGIN
 90
        5
170
     1
 91
        0
 92
        0
 62
   257
 93
        1
300
CONTENTFORMAT
  1
CONTENTFORMAT_BEGIN
 90
        0
 91
        0
 92
      512
 93
        0
300

 40
0.0
140
1.0
 94
        2
 62
     0
340
55
144
0.18
309
CONTENTFORMAT_END
171
     0
 94
        0
309
TABLEFORMAT_END
  1
CELLSTYLE_BEGIN
 90
        3
 91
        2
300
_DATA
309
CELLSTYLE_END
  0
XRECORD
  5
C51
102
{ACAD_REACTORS
330
C16
102
}
330
C16
100
AcDbXrecord
280
     1
102
ACAD_ROUNDTRIP_PRE2007_TABLESTYLE
 90
      512
 91
        0
  1

 92
      512
 93
        0
  2

 94
      512
 95
        0
  3

  0
XRECORD
  5
C2C
102
{ACAD_REACTORS
330
C2B
102
}
330
C2B
100
AcDbXrecord
280
     1
102
RTVSPropertyOp0
 70
     1
102
RTVSPropertyOp1
 70
     1
102
RTVSPropertyOp2
 70
     1
102
RTVSPropertyOp3
 70
     1
102
RTVSPropertyOp4
 70
     1
102
RTVSPropertyOp5
 70
     1
102
RTVSPropertyOp6
 70
     1
102
RTVSPropertyOp7
 70
     1
102
RTVSPropertyOp8
 70
     1
102
RTVSPropertyOp9
 70
     1
102
RTVSPropertyOp10
 70
     1
102
RTVSPropertyOp11
 70
     1
102
RTVSPropertyOp12
 70
     1
102
RTVSPropertyOp13
 70
     1
102
RTVSPropertyOp14
 70
     1
102
RTVSPropertyOp15
 70
     1
102
RTVSPropertyOp16
 70
     1
102
RTVSPropertyOp17
 70
     1
102
RTVSPropertyOp18
 70
     1
102
RTVSPropertyOp19
 70
     1
102
RTVSPropertyOp20
 70
     1
102
RTVSPropertyOp21
 70
     1
102
RTVSPropertyOp22
 70
     1
102
RTVSPropertyOp23
 70
     1
102
RTVSPropertyOp24
 70
     1
102
RTVSPropertyOp25
 70
     1
102
RTVSPropertyOp26
 70
     1
102
RTVSPropertyOp27
 70
     1
102
RTVSPropertyOp28
 70
     1
102
RTVSPropertyOp29
 70
     1
102
RTVSPropertyOp30
 70
     1
102
RTVSPropertyOp31
 70
     1
102
RTVSPropertyOp32
 70
     1
  0
XRECORD
  5
C2A
102
{ACAD_REACTORS
330
C29
102
}
330
C29
100
AcDbXrecord
280
     1
102
RTVSPropertyOp0
 70
     1
102
RTVSPropertyOp1
 70
     1
102
RTVSPropertyOp2
 70
     1
102
RTVSPropertyOp3
 70
     1
102
RTVSPropertyOp4
 70
     1
102
RTVSPropertyOp5
 70
     1
102
RTVSPropertyOp6
 70
     1
102
RTVSPropertyOp7
 70
     1
102
RTVSPropertyOp8
 70
     1
102
RTVSPropertyOp9
 70
     1
102
RTVSPropertyOp10
 70
     1
102
RTVSPropertyOp11
 70
     1
102
RTVSPropertyOp12
 70
     1
102
RTVSPropertyOp13
 70
     1
102
RTVSPropertyOp14
 70
     1
102
RTVSPropertyOp15
 70
     1
102
RTVSPropertyOp16
 70
     1
102
RTVSPropertyOp17
 70
     1
102
RTVSPropertyOp18
 70
     1
102
RTVSPropertyOp19
 70
     1
102
RTVSPropertyOp20
 70
     1
102
RTVSPropertyOp21
 70
     1
102
RTVSPropertyOp22
 70
     1
102
RTVSPropertyOp23
 70
     1
102
RTVSPropertyOp24
 70
     1
102
RTVSPropertyOp25
 70
     1
102
RTVSPropertyOp26
 70
     1
102
RTVSPropertyOp27
 70
     1
102
RTVSPropertyOp28
 70
     1
102
RTVSPropertyOp29
 70
     1
102
RTVSPropertyOp30
 70
     1
102
RTVSPropertyOp31
 70
     1
102
RTVSPropertyOp32
 70
     1
  0
XRECORD
  5
C38
102
{ACAD_REACTORS
330
C37
102
}
330
C37
100
AcDbXrecord
280
     1
102
RTVSPropertyOp0
 70
     1
102
RTVSPropertyOp1
 70
     1
102
RTVSPropertyOp2
 70
     1
102
RTVSPropertyOp3
 70
     1
102
RTVSPropertyOp4
 70
     1
102
RTVSPropertyOp5
 70
     1
102
RTVSPropertyOp6
 70
     1
102
RTVSPropertyOp7
 70
     1
102
RTVSPropertyOp8
 70
     1
102
RTVSPropertyOp9
 70
     1
102
RTVSPropertyOp10
 70
     1
102
RTVSPropertyOp11
 70
     1
102
RTVSPropertyOp12
 70
     1
102
RTVSPropertyOp13
 70
     1
102
RTVSPropertyOp14
 70
     1
102
RTVSPropertyOp15
 70
     1
102
RTVSPropertyOp16
 70
     1
102
RTVSPropertyOp17
 70
     1
102
RTVSPropertyOp18
 70
     1
102
RTVSPropertyOp19
 70
     1
102
RTVSPropertyOp20
 70
     1
102
RTVSPropertyOp21
 70
     1
102
RTVSPropertyOp22
 70
     1
102
RTVSPropertyOp23
 70
     1
102
RTVSPropertyOp24
 70
     1
102
RTVSPropertyOp25
 70
     1
102
RTVSPropertyOp26
 70
     1
102
RTVSPropertyOp27
 70
     1
102
RTVSPropertyOp28
 70
     1
102
RTVSPropertyOp29
 70
     1
102
RTVSPropertyOp30
 70
     1
102
RTVSPropertyOp31
 70
     1
102
RTVSPropertyOp32
 70
     1
  0
XRECORD
  5
C40
102
{ACAD_REACTORS
330
C3F
102
}
330
C3F
100
AcDbXrecord
280
     1
102
RTVSPropertyOp0
 70
     1
102
RTVSPropertyOp1
 70
     1
102
RTVSPropertyOp2
 70
     1
102
RTVSPropertyOp3
 70
     1
102
RTVSPropertyOp4
 70
     1
102
RTVSPropertyOp5
 70
     1
102
RTVSPropertyOp6
 70
     1
102
RTVSPropertyOp7
 70
     1
102
RTVSPropertyOp8
 70
     1
102
RTVSPropertyOp9
 70
     1
102
RTVSPropertyOp10
 70
     1
102
RTVSPropertyOp11
 70
     1
102
RTVSPropertyOp12
 70
     1
102
RTVSPropertyOp13
 70
     1
102
RTVSPropertyOp14
 70
     1
102
RTVSPropertyOp15
 70
     1
102
RTVSPropertyOp16
 70
     1
102
RTVSPropertyOp17
 70
     1
102
RTVSPropertyOp18
 70
     1
102
RTVSPropertyOp19
 70
     1
102
RTVSPropertyOp20
 70
     1
102
RTVSPropertyOp21
 70
     1
102
RTVSPropertyOp22
 70
     1
102
RTVSPropertyOp23
 70
     1
102
RTVSPropertyOp24
 70
     1
102
RTVSPropertyOp25
 70
     1
102
RTVSPropertyOp26
 70
     1
102
RTVSPropertyOp27
 70
     1
102
RTVSPropertyOp28
 70
     1
102
RTVSPropertyOp29
 70
     1
102
RTVSPropertyOp30
 70
     1
102
RTVSPropertyOp31
 70
     1
102
RTVSPropertyOp32
 70
     1
  0
XRECORD
  5
C32
102
{ACAD_REACTORS
330
C31
102
}
330
C31
100
AcDbXrecord
280
     1
102
RTVSPropertyOp0
 70
     1
102
RTVSPropertyOp1
 70
     1
102
RTVSPropertyOp2
 70
     1
102
RTVSPropertyOp3
 70
     1
102
RTVSPropertyOp4
 70
     1
102
RTVSPropertyOp5
 70
     1
102
RTVSPropertyOp6
 70
     1
102
RTVSPropertyOp7
 70
     1
102
RTVSPropertyOp8
 70
     1
102
RTVSPropertyOp9
 70
     1
102
RTVSPropertyOp10
 70
     1
102
RTVSPropertyOp11
 70
     1
102
RTVSPropertyOp12
 70
     1
102
RTVSPropertyOp13
 70
     1
102
RTVSPropertyOp14
 70
     1
102
RTVSPropertyOp15
 70
     1
102
RTVSPropertyOp16
 70
     1
102
RTVSPropertyOp17
 70
     1
102
RTVSPropertyOp18
 70
     1
102
RTVSPropertyOp19
 70
     1
102
RTVSPropertyOp20
 70
     1
102
RTVSPropertyOp21
 70
     1
102
RTVSPropertyOp22
 70
     1
102
RTVSPropertyOp23
 70
     1
102
RTVSPropertyOp24
 70
     1
102
RTVSPropertyOp25
 70
     1
102
RTVSPropertyOp26
 70
     1
102
RTVSPropertyOp27
 70
     1
102
RTVSPropertyOp28
 70
     1
102
RTVSPropertyOp29
 70
     1
102
RTVSPropertyOp30
 70
     1
102
RTVSPropertyOp31
 70
     1
102
RTVSPropertyOp32
 70
     1
  0
XRECORD
  5
C36
102
{ACAD_REACTORS
330
C35
102
}
330
C35
100
AcDbXrecord
280
     1
102
RTVSPropertyOp0
 70
     1
102
RTVSPropertyOp1
 70
     1
102
RTVSPropertyOp2
 70
     1
102
RTVSPropertyOp3
 70
     1
102
RTVSPropertyOp4
 70
     1
102
RTVSPropertyOp5
 70
     1
102
RTVSPropertyOp6
 70
     1
102
RTVSPropertyOp7
 70
     1
102
RTVSPropertyOp8
 70
     1
102
RTVSPropertyOp9
 70
     1
102
RTVSPropertyOp10
 70
     1
102
RTVSPropertyOp11
 70
     1
102
RTVSPropertyOp12
 70
     1
102
RTVSPropertyOp13
 70
     1
102
RTVSPropertyOp14
 70
     1
102
RTVSPropertyOp15
 70
     1
102
RTVSPropertyOp16
 70
     1
102
RTVSPropertyOp17
 70
     1
102
RTVSPropertyOp18
 70
     1
102
RTVSPropertyOp19
 70
     1
102
RTVSPropertyOp20
 70
     1
102
RTVSPropertyOp21
 70
     1
102
RTVSPropertyOp22
 70
     1
102
RTVSPropertyOp23
 70
     1
102
RTVSPropertyOp24
 70
     1
102
RTVSPropertyOp25
 70
     1
102
RTVSPropertyOp26
 70
     1
102
RTVSPropertyOp27
 70
     1
102
RTVSPropertyOp28
 70
     1
102
RTVSPropertyOp29
 70
     1
102
RTVSPropertyOp30
 70
     1
102
RTVSPropertyOp31
 70
     1
102
RTVSPropertyOp32
 70
     1
  0
XRECORD
  5
C50
102
{ACAD_REACTORS
330
C4F
102
}
330
C4F
100
AcDbXrecord
280
     1
102
RTVSPropertyOp0
 70
     0
102
RTVSPropertyOp1
 70
     0
102
RTVSPropertyOp2
 70
     0
102
RTVSPropertyOp3
 70
     0
102
RTVSPropertyOp4
 70
     0
102
RTVSPropertyOp5
 70
     0
102
RTVSPropertyOp6
 70
     0
102
RTVSPropertyOp7
 70
     0
102
RTVSPropertyOp8
 70
     0
102
RTVSPropertyOp9
 70
     0
102
RTVSPropertyOp10
 70
     0
102
RTVSPropertyOp11
 70
     0
102
RTVSPropertyOp12
 70
     0
102
RTVSPropertyOp13
 70
     0
102
RTVSPropertyOp14
 70
     2
102
RTVSPropertyOp15
 70
     0
102
RTVSPropertyOp16
 70
     0
102
RTVSPropertyOp17
 70
     0
102
RTVSPropertyOp18
 70
     0
102
RTVSPropertyOp19
 70
     0
102
RTVSPropertyOp20
 70
     0
102
RTVSPropertyOp21
 70
     0
102
RTVSPropertyOp22
 70
     0
102
RTVSPropertyOp23
 70
     0
102
RTVSPropertyOp24
 70
     0
102
RTVSPropertyOp25
 70
     0
102
RTVSPropertyOp26
 70
     0
102
RTVSPropertyOp27
 70
     0
102
RTVSPropertyOp28
 70
     1
102
RTVSPropertyOp29
 70
     1
102
RTVSPropertyOp30
 70
     1
102
RTVSPropertyOp31
 70
     1
102
RTVSPropertyOp32
 70
     1
  0
XRECORD
  5
C3E
102
{ACAD_REACTORS
330
C3D
102
}
330
C3D
100
AcDbXrecord
280
     1
102
RTVSPropertyOp0
 70
     1
102
RTVSPropertyOp1
 70
     1
102
RTVSPropertyOp2
 70
     1
102
RTVSPropertyOp3
 70
     1
102
RTVSPropertyOp4
 70
     1
102
RTVSPropertyOp5
 70
     1
102
RTVSPropertyOp6
 70
     1
102
RTVSPropertyOp7
 70
     1
102
RTVSPropertyOp8
 70
     1
102
RTVSPropertyOp9
 70
     1
102
RTVSPropertyOp10
 70
     1
102
RTVSPropertyOp11
 70
     1
102
RTVSPropertyOp12
 70
     1
102
RTVSPropertyOp13
 70
     1
102
RTVSPropertyOp14
 70
     1
102
RTVSPropertyOp15
 70
     1
102
RTVSPropertyOp16
 70
     1
102
RTVSPropertyOp17
 70
     1
102
RTVSPropertyOp18
 70
     1
102
RTVSPropertyOp19
 70
     1
102
RTVSPropertyOp20
 70
     1
102
RTVSPropertyOp21
 70
     1
102
RTVSPropertyOp22
 70
     1
102
RTVSPropertyOp23
 70
     1
102
RTVSPropertyOp24
 70
     1
102
RTVSPropertyOp25
 70
     1
102
RTVSPropertyOp26
 70
     1
102
RTVSPropertyOp27
 70
     1
102
RTVSPropertyOp28
 70
     1
102
RTVSPropertyOp29
 70
     1
102
RTVSPropertyOp30
 70
     1
102
RTVSPropertyOp31
 70
     1
102
RTVSPropertyOp32
 70
     1
  0
XRECORD
  5
C22
102
{ACAD_REACTORS
330
C21
102
}
330
C21
100
AcDbXrecord
280
     1
102
RTVSPropertyOp0
 70
     1
102
RTVSPropertyOp1
 70
     1
102
RTVSPropertyOp2
 70
     1
102
RTVSPropertyOp3
 70
     1
102
RTVSPropertyOp4
 70
     1
102
RTVSPropertyOp5
 70
     1
102
RTVSPropertyOp6
 70
     1
102
RTVSPropertyOp7
 70
     1
102
RTVSPropertyOp8
 70
     1
102
RTVSPropertyOp9
 70
     1
102
RTVSPropertyOp10
 70
     1
102
RTVSPropertyOp11
 70
     1
102
RTVSPropertyOp12
 70
     1
102
RTVSPropertyOp13
 70
     1
102
RTVSPropertyOp14
 70
     1
102
RTVSPropertyOp15
 70
     1
102
RTVSPropertyOp16
 70
     1
102
RTVSPropertyOp17
 70
     1
102
RTVSPropertyOp18
 70
     1
102
RTVSPropertyOp19
 70
     1
102
RTVSPropertyOp20
 70
     1
102
RTVSPropertyOp21
 70
     1
102
RTVSPropertyOp22
 70
     1
102
RTVSPropertyOp23
 70
     1
102
RTVSPropertyOp24
 70
     1
102
RTVSPropertyOp25
 70
     1
102
RTVSPropertyOp26
 70
     1
102
RTVSPropertyOp27
 70
     1
102
RTVSPropertyOp28
 70
     1
102
RTVSPropertyOp29
 70
     1
102
RTVSPropertyOp30
 70
     1
102
RTVSPropertyOp31
 70
     1
102
RTVSPropertyOp32
 70
     1
  0
XRECORD
  5
C24
102
{ACAD_REACTORS
330
C23
102
}
330
C23
100
AcDbXrecord
280
     1
102
RTVSPropertyOp0
 70
     1
102
RTVSPropertyOp1
 70
     1
102
RTVSPropertyOp2
 70
     1
102
RTVSPropertyOp3
 70
     1
102
RTVSPropertyOp4
 70
     1
102
RTVSPropertyOp5
 70
     1
102
RTVSPropertyOp6
 70
     1
102
RTVSPropertyOp7
 70
     1
102
RTVSPropertyOp8
 70
     1
102
RTVSPropertyOp9
 70
     1
102
RTVSPropertyOp10
 70
     1
102
RTVSPropertyOp11
 70
     1
102
RTVSPropertyOp12
 70
     1
102
RTVSPropertyOp13
 70
     1
102
RTVSPropertyOp14
 70
     1
102
RTVSPropertyOp15
 70
     1
102
RTVSPropertyOp16
 70
     1
102
RTVSPropertyOp17
 70
     1
102
RTVSPropertyOp18
 70
     1
102
RTVSPropertyOp19
 70
     1
102
RTVSPropertyOp20
 70
     1
102
RTVSPropertyOp21
 70
     1
102
RTVSPropertyOp22
 70
     1
102
RTVSPropertyOp23
 70
     1
102
RTVSPropertyOp24
 70
     1
102
RTVSPropertyOp25
 70
     1
102
RTVSPropertyOp26
 70
     1
102
RTVSPropertyOp27
 70
     1
102
RTVSPropertyOp28
 70
     1
102
RTVSPropertyOp29
 70
     1
102
RTVSPropertyOp30
 70
     1
102
RTVSPropertyOp31
 70
     1
102
RTVSPropertyOp32
 70
     1
  0
XRECORD
  5
C26
102
{ACAD_REACTORS
330
C25
102
}
330
C25
100
AcDbXrecord
280
     1
102
RTVSPropertyOp0
 70
     1
102
RTVSPropertyOp1
 70
     1
102
RTVSPropertyOp2
 70
     1
102
RTVSPropertyOp3
 70
     1
102
RTVSPropertyOp4
 70
     1
102
RTVSPropertyOp5
 70
     1
102
RTVSPropertyOp6
 70
     1
102
RTVSPropertyOp7
 70
     1
102
RTVSPropertyOp8
 70
     1
102
RTVSPropertyOp9
 70
     1
102
RTVSPropertyOp10
 70
     1
102
RTVSPropertyOp11
 70
     1
102
RTVSPropertyOp12
 70
     1
102
RTVSPropertyOp13
 70
     1
102
RTVSPropertyOp14
 70
     1
102
RTVSPropertyOp15
 70
     1
102
RTVSPropertyOp16
 70
     1
102
RTVSPropertyOp17
 70
     1
102
RTVSPropertyOp18
 70
     1
102
RTVSPropertyOp19
 70
     1
102
RTVSPropertyOp20
 70
     1
102
RTVSPropertyOp21
 70
     1
102
RTVSPropertyOp22
 70
     1
102
RTVSPropertyOp23
 70
     1
102
RTVSPropertyOp24
 70
     1
102
RTVSPropertyOp25
 70
     1
102
RTVSPropertyOp26
 70
     1
102
RTVSPropertyOp27
 70
     1
102
RTVSPropertyOp28
 70
     1
102
RTVSPropertyOp29
 70
     1
102
RTVSPropertyOp30
 70
     1
102
RTVSPropertyOp31
 70
     1
102
RTVSPropertyOp32
 70
     1
  0
XRECORD
  5
C28
102
{ACAD_REACTORS
330
C27
102
}
330
C27
100
AcDbXrecord
280
     1
102
RTVSPropertyOp0
 70
     1
102
RTVSPropertyOp1
 70
     1
102
RTVSPropertyOp2
 70
     1
102
RTVSPropertyOp3
 70
     1
102
RTVSPropertyOp4
 70
     1
102
RTVSPropertyOp5
 70
     1
102
RTVSPropertyOp6
 70
     1
102
RTVSPropertyOp7
 70
     1
102
RTVSPropertyOp8
 70
     1
102
RTVSPropertyOp9
 70
     1
102
RTVSPropertyOp10
 70
     1
102
RTVSPropertyOp11
 70
     1
102
RTVSPropertyOp12
 70
     1
102
RTVSPropertyOp13
 70
     1
102
RTVSPropertyOp14
 70
     1
102
RTVSPropertyOp15
 70
     1
102
RTVSPropertyOp16
 70
     1
102
RTVSPropertyOp17
 70
     1
102
RTVSPropertyOp18
 70
     1
102
RTVSPropertyOp19
 70
     1
102
RTVSPropertyOp20
 70
     1
102
RTVSPropertyOp21
 70
     1
102
RTVSPropertyOp22
 70
     1
102
RTVSPropertyOp23
 70
     1
102
RTVSPropertyOp24
 70
     1
102
RTVSPropertyOp25
 70
     1
102
RTVSPropertyOp26
 70
     1
102
RTVSPropertyOp27
 70
     1
102
RTVSPropertyOp28
 70
     1
102
RTVSPropertyOp29
 70
     1
102
RTVSPropertyOp30
 70
     1
102
RTVSPropertyOp31
 70
     1
102
RTVSPropertyOp32
 70
     1
  0
XRECORD
  5
C30
102
{ACAD_REACTORS
330
C2F
102
}
330
C2F
100
AcDbXrecord
280
     1
102
RTVSPropertyOp0
 70
     1
102
RTVSPropertyOp1
 70
     1
102
RTVSPropertyOp2
 70
     1
102
RTVSPropertyOp3
 70
     1
102
RTVSPropertyOp4
 70
     1
102
RTVSPropertyOp5
 70
     1
102
RTVSPropertyOp6
 70
     1
102
RTVSPropertyOp7
 70
     1
102
RTVSPropertyOp8
 70
     1
102
RTVSPropertyOp9
 70
     1
102
RTVSPropertyOp10
 70
     1
102
RTVSPropertyOp11
 70
     1
102
RTVSPropertyOp12
 70
     1
102
RTVSPropertyOp13
 70
     1
102
RTVSPropertyOp14
 70
     1
102
RTVSPropertyOp15
 70
     1
102
RTVSPropertyOp16
 70
     1
102
RTVSPropertyOp17
 70
     1
102
RTVSPropertyOp18
 70
     1
102
RTVSPropertyOp19
 70
     1
102
RTVSPropertyOp20
 70
     1
102
RTVSPropertyOp21
 70
     1
102
RTVSPropertyOp22
 70
     1
102
RTVSPropertyOp23
 70
     1
102
RTVSPropertyOp24
 70
     1
102
RTVSPropertyOp25
 70
     1
102
RTVSPropertyOp26
 70
     1
102
RTVSPropertyOp27
 70
     1
102
RTVSPropertyOp28
 70
     1
102
RTVSPropertyOp29
 70
     1
102
RTVSPropertyOp30
 70
     1
102
RTVSPropertyOp31
 70
     1
102
RTVSPropertyOp32
 70
     1
  0
XRECORD
  5
C4C
102
{ACAD_REACTORS
330
C4B
102
}
330
C4B
100
AcDbXrecord
280
     1
102
RTVSPropertyOp0
 70
     0
102
RTVSPropertyOp1
 70
     0
102
RTVSPropertyOp2
 70
     0
102
RTVSPropertyOp3
 70
     0
102
RTVSPropertyOp4
 70
     0
102
RTVSPropertyOp5
 70
     0
102
RTVSPropertyOp6
 70
     0
102
RTVSPropertyOp7
 70
     0
102
RTVSPropertyOp8
 70
     0
102
RTVSPropertyOp9
 70
     0
102
RTVSPropertyOp10
 70
     0
102
RTVSPropertyOp11
 70
     0
102
RTVSPropertyOp12
 70
     0
102
RTVSPropertyOp13
 70
     0
102
RTVSPropertyOp14
 70
     2
102
RTVSPropertyOp15
 70
     0
102
RTVSPropertyOp16
 70
     0
102
RTVSPropertyOp17
 70
     0
102
RTVSPropertyOp18
 70
     0
102
RTVSPropertyOp19
 70
     0
102
RTVSPropertyOp20
 70
     0
102
RTVSPropertyOp21
 70
     0
102
RTVSPropertyOp22
 70
     0
102
RTVSPropertyOp23
 70
     0
102
RTVSPropertyOp24
 70
     0
102
RTVSPropertyOp25
 70
     0
102
RTVSPropertyOp26
 70
     0
102
RTVSPropertyOp27
 70
     0
102
RTVSPropertyOp28
 70
     1
102
RTVSPropertyOp29
 70
     1
102
RTVSPropertyOp30
 70
     1
102
RTVSPropertyOp31
 70
     1
102
RTVSPropertyOp32
 70
     1
  0
XRECORD
  5
C3C
102
{ACAD_REACTORS
330
C3B
102
}
330
C3B
100
AcDbXrecord
280
     1
102
RTVSPropertyOp0
 70
     1
102
RTVSPropertyOp1
 70
     1
102
RTVSPropertyOp2
 70
     1
102
RTVSPropertyOp3
 70
     1
102
RTVSPropertyOp4
 70
     1
102
RTVSPropertyOp5
 70
     1
102
RTVSPropertyOp6
 70
     1
102
RTVSPropertyOp7
 70
     1
102
RTVSPropertyOp8
 70
     1
102
RTVSPropertyOp9
 70
     1
102
RTVSPropertyOp10
 70
     1
102
RTVSPropertyOp11
 70
     1
102
RTVSPropertyOp12
 70
     1
102
RTVSPropertyOp13
 70
     1
102
RTVSPropertyOp14
 70
     1
102
RTVSPropertyOp15
 70
     1
102
RTVSPropertyOp16
 70
     1
102
RTVSPropertyOp17
 70
     1
102
RTVSPropertyOp18
 70
     1
102
RTVSPropertyOp19
 70
     1
102
RTVSPropertyOp20
 70
     1
102
RTVSPropertyOp21
 70
     1
102
RTVSPropertyOp22
 70
     1
102
RTVSPropertyOp23
 70
     1
102
RTVSPropertyOp24
 70
     1
102
RTVSPropertyOp25
 70
     1
102
RTVSPropertyOp26
 70
     1
102
RTVSPropertyOp27
 70
     1
102
RTVSPropertyOp28
 70
     1
102
RTVSPropertyOp29
 70
     1
102
RTVSPropertyOp30
 70
     1
102
RTVSPropertyOp31
 70
     1
102
RTVSPropertyOp32
 70
     1
  0
XRECORD
  5
C4E
102
{ACAD_REACTORS
330
C4D
102
}
330
C4D
100
AcDbXrecord
280
     1
102
RTVSPropertyOp0
 70
     0
102
RTVSPropertyOp1
 70
     0
102
RTVSPropertyOp2
 70
     0
102
RTVSPropertyOp3
 70
     0
102
RTVSPropertyOp4
 70
     0
102
RTVSPropertyOp5
 70
     0
102
RTVSPropertyOp6
 70
     0
102
RTVSPropertyOp7
 70
     0
102
RTVSPropertyOp8
 70
     0
102
RTVSPropertyOp9
 70
     0
102
RTVSPropertyOp10
 70
     0
102
RTVSPropertyOp11
 70
     0
102
RTVSPropertyOp12
 70
     0
102
RTVSPropertyOp13
 70
     0
102
RTVSPropertyOp14
 70
     2
102
RTVSPropertyOp15
 70
     0
102
RTVSPropertyOp16
 70
     0
102
RTVSPropertyOp17
 70
     0
102
RTVSPropertyOp18
 70
     0
102
RTVSPropertyOp19
 70
     0
102
RTVSPropertyOp20
 70
     0
102
RTVSPropertyOp21
 70
     0
102
RTVSPropertyOp22
 70
     0
102
RTVSPropertyOp23
 70
     0
102
RTVSPropertyOp24
 70
     0
102
RTVSPropertyOp25
 70
     0
102
RTVSPropertyOp26
 70
     0
102
RTVSPropertyOp27
 70
     0
102
RTVSPropertyOp28
 70
     1
102
RTVSPropertyOp29
 70
     1
102
RTVSPropertyOp30
 70
     1
102
RTVSPropertyOp31
 70
     1
102
RTVSPropertyOp32
 70
     1
  0
XRECORD
  5
C34
102
{ACAD_REACTORS
330
C33
102
}
330
C33
100
AcDbXrecord
280
     1
102
RTVSPropertyOp0
 70
     1
102
RTVSPropertyOp1
 70
     1
102
RTVSPropertyOp2
 70
     1
102
RTVSPropertyOp3
 70
     1
102
RTVSPropertyOp4
 70
     1
102
RTVSPropertyOp5
 70
     1
102
RTVSPropertyOp6
 70
     1
102
RTVSPropertyOp7
 70
     1
102
RTVSPropertyOp8
 70
     1
102
RTVSPropertyOp9
 70
     1
102
RTVSPropertyOp10
 70
     1
102
RTVSPropertyOp11
 70
     1
102
RTVSPropertyOp12
 70
     1
102
RTVSPropertyOp13
 70
     1
102
RTVSPropertyOp14
 70
     1
102
RTVSPropertyOp15
 70
     1
102
RTVSPropertyOp16
 70
     1
102
RTVSPropertyOp17
 70
     1
102
RTVSPropertyOp18
 70
     1
102
RTVSPropertyOp19
 70
     1
102
RTVSPropertyOp20
 70
     1
102
RTVSPropertyOp21
 70
     1
102
RTVSPropertyOp22
 70
     1
102
RTVSPropertyOp23
 70
     1
102
RTVSPropertyOp24
 70
     1
102
RTVSPropertyOp25
 70
     1
102
RTVSPropertyOp26
 70
     1
102
RTVSPropertyOp27
 70
     1
102
RTVSPropertyOp28
 70
     1
102
RTVSPropertyOp29
 70
     1
102
RTVSPropertyOp30
 70
     1
102
RTVSPropertyOp31
 70
     1
102
RTVSPropertyOp32
 70
     1
  0
XRECORD
  5
C4A
102
{ACAD_REACTORS
330
C49
102
}
330
C49
100
AcDbXrecord
280
     1
102
RTVSPropertyOp0
 70
     1
102
RTVSPropertyOp1
 70
     1
102
RTVSPropertyOp2
 70
     1
102
RTVSPropertyOp3
 70
     1
102
RTVSPropertyOp4
 70
     1
102
RTVSPropertyOp5
 70
     1
102
RTVSPropertyOp6
 70
     1
102
RTVSPropertyOp7
 70
     1
102
RTVSPropertyOp8
 70
     1
102
RTVSPropertyOp9
 70
     1
102
RTVSPropertyOp10
 70
     1
102
RTVSPropertyOp11
 70
     1
102
RTVSPropertyOp12
 70
     1
102
RTVSPropertyOp13
 70
     1
102
RTVSPropertyOp14
 70
     1
102
RTVSPropertyOp15
 70
     1
102
RTVSPropertyOp16
 70
     1
102
RTVSPropertyOp17
 70
     1
102
RTVSPropertyOp18
 70
     1
102
RTVSPropertyOp19
 70
     1
102
RTVSPropertyOp20
 70
     1
102
RTVSPropertyOp21
 70
     1
102
RTVSPropertyOp22
 70
     1
102
RTVSPropertyOp23
 70
     1
102
RTVSPropertyOp24
 70
     1
102
RTVSPropertyOp25
 70
     1
102
RTVSPropertyOp26
 70
     1
102
RTVSPropertyOp27
 70
     1
102
RTVSPropertyOp28
 70
     1
102
RTVSPropertyOp29
 70
     1
102
RTVSPropertyOp30
 70
     1
102
RTVSPropertyOp31
 70
     1
102
RTVSPropertyOp32
 70
     1
  0
XRECORD
  5
C48
102
{ACAD_REACTORS
330
C47
102
}
330
C47
100
AcDbXrecord
280
     1
102
RTVSPropertyOp0
 70
     1
102
RTVSPropertyOp1
 70
     1
102
RTVSPropertyOp2
 70
     1
102
RTVSPropertyOp3
 70
     1
102
RTVSPropertyOp4
 70
     1
102
RTVSPropertyOp5
 70
     1
102
RTVSPropertyOp6
 70
     1
102
RTVSPropertyOp7
 70
     1
102
RTVSPropertyOp8
 70
     1
102
RTVSPropertyOp9
 70
     1
102
RTVSPropertyOp10
 70
     1
102
RTVSPropertyOp11
 70
     1
102
RTVSPropertyOp12
 70
     1
102
RTVSPropertyOp13
 70
     1
102
RTVSPropertyOp14
 70
     1
102
RTVSPropertyOp15
 70
     1
102
RTVSPropertyOp16
 70
     1
102
RTVSPropertyOp17
 70
     1
102
RTVSPropertyOp18
 70
     1
102
RTVSPropertyOp19
 70
     1
102
RTVSPropertyOp20
 70
     1
102
RTVSPropertyOp21
 70
     1
102
RTVSPropertyOp22
 70
     1
102
RTVSPropertyOp23
 70
     1
102
RTVSPropertyOp24
 70
     1
102
RTVSPropertyOp25
 70
     1
102
RTVSPropertyOp26
 70
     1
102
RTVSPropertyOp27
 70
     1
102
RTVSPropertyOp28
 70
     1
102
RTVSPropertyOp29
 70
     1
102
RTVSPropertyOp30
 70
     1
102
RTVSPropertyOp31
 70
     1
102
RTVSPropertyOp32
 70
     1
  0
XRECORD
  5
C42
102
{ACAD_REACTORS
330
C41
102
}
330
C41
100
AcDbXrecord
280
     1
102
RTVSPropertyOp0
 70
     1
102
RTVSPropertyOp1
 70
     1
102
RTVSPropertyOp2
 70
     1
102
RTVSPropertyOp3
 70
     1
102
RTVSPropertyOp4
 70
     1
102
RTVSPropertyOp5
 70
     1
102
RTVSPropertyOp6
 70
     1
102
RTVSPropertyOp7
 70
     1
102
RTVSPropertyOp8
 70
     1
102
RTVSPropertyOp9
 70
     1
102
RTVSPropertyOp10
 70
     1
102
RTVSPropertyOp11
 70
     1
102
RTVSPropertyOp12
 70
     1
102
RTVSPropertyOp13
 70
     1
102
RTVSPropertyOp14
 70
     1
102
RTVSPropertyOp15
 70
     1
102
RTVSPropertyOp16
 70
     1
102
RTVSPropertyOp17
 70
     1
102
RTVSPropertyOp18
 70
     1
102
RTVSPropertyOp19
 70
     1
102
RTVSPropertyOp20
 70
     1
102
RTVSPropertyOp21
 70
     1
102
RTVSPropertyOp22
 70
     1
102
RTVSPropertyOp23
 70
     1
102
RTVSPropertyOp24
 70
     1
102
RTVSPropertyOp25
 70
     1
102
RTVSPropertyOp26
 70
     1
102
RTVSPropertyOp27
 70
     1
102
RTVSPropertyOp28
 70
     1
102
RTVSPropertyOp29
 70
     1
102
RTVSPropertyOp30
 70
     1
102
RTVSPropertyOp31
 70
     1
102
RTVSPropertyOp32
 70
     1
  0
XRECORD
  5
C44
102
{ACAD_REACTORS
330
C43
102
}
330
C43
100
AcDbXrecord
280
     1
102
RTVSPropertyOp0
 70
     1
102
RTVSPropertyOp1
 70
     1
102
RTVSPropertyOp2
 70
     1
102
RTVSPropertyOp3
 70
     1
102
RTVSPropertyOp4
 70
     1
102
RTVSPropertyOp5
 70
     1
102
RTVSPropertyOp6
 70
     1
102
RTVSPropertyOp7
 70
     1
102
RTVSPropertyOp8
 70
     1
102
RTVSPropertyOp9
 70
     1
102
RTVSPropertyOp10
 70
     1
102
RTVSPropertyOp11
 70
     1
102
RTVSPropertyOp12
 70
     1
102
RTVSPropertyOp13
 70
     1
102
RTVSPropertyOp14
 70
     1
102
RTVSPropertyOp15
 70
     1
102
RTVSPropertyOp16
 70
     1
102
RTVSPropertyOp17
 70
     1
102
RTVSPropertyOp18
 70
     1
102
RTVSPropertyOp19
 70
     1
102
RTVSPropertyOp20
 70
     1
102
RTVSPropertyOp21
 70
     1
102
RTVSPropertyOp22
 70
     1
102
RTVSPropertyOp23
 70
     1
102
RTVSPropertyOp24
 70
     1
102
RTVSPropertyOp25
 70
     1
102
RTVSPropertyOp26
 70
     1
102
RTVSPropertyOp27
 70
     1
102
RTVSPropertyOp28
 70
     1
102
RTVSPropertyOp29
 70
     1
102
RTVSPropertyOp30
 70
     1
102
RTVSPropertyOp31
 70
     1
102
RTVSPropertyOp32
 70
     1
  0
XRECORD
  5
C3A
102
{ACAD_REACTORS
330
C39
102
}
330
C39
100
AcDbXrecord
280
     1
102
RTVSPropertyOp0
 70
     1
102
RTVSPropertyOp1
 70
     1
102
RTVSPropertyOp2
 70
     1
102
RTVSPropertyOp3
 70
     1
102
RTVSPropertyOp4
 70
     1
102
RTVSPropertyOp5
 70
     1
102
RTVSPropertyOp6
 70
     1
102
RTVSPropertyOp7
 70
     1
102
RTVSPropertyOp8
 70
     1
102
RTVSPropertyOp9
 70
     1
102
RTVSPropertyOp10
 70
     1
102
RTVSPropertyOp11
 70
     1
102
RTVSPropertyOp12
 70
     1
102
RTVSPropertyOp13
 70
     1
102
RTVSPropertyOp14
 70
     1
102
RTVSPropertyOp15
 70
     1
102
RTVSPropertyOp16
 70
     1
102
RTVSPropertyOp17
 70
     1
102
RTVSPropertyOp18
 70
     1
102
RTVSPropertyOp19
 70
     1
102
RTVSPropertyOp20
 70
     1
102
RTVSPropertyOp21
 70
     1
102
RTVSPropertyOp22
 70
     1
102
RTVSPropertyOp23
 70
     1
102
RTVSPropertyOp24
 70
     1
102
RTVSPropertyOp25
 70
     1
102
RTVSPropertyOp26
 70
     1
102
RTVSPropertyOp27
 70
     1
102
RTVSPropertyOp28
 70
     1
102
RTVSPropertyOp29
 70
     1
102
RTVSPropertyOp30
 70
     1
102
RTVSPropertyOp31
 70
     1
102
RTVSPropertyOp32
 70
     1
  0
XRECORD
  5
C2E
102
{ACAD_REACTORS
330
C2D
102
}
330
C2D
100
AcDbXrecord
280
     1
102
RTVSPropertyOp0
 70
     1
102
RTVSPropertyOp1
 70
     1
102
RTVSPropertyOp2
 70
     1
102
RTVSPropertyOp3
 70
     1
102
RTVSPropertyOp4
 70
     1
102
RTVSPropertyOp5
 70
     1
102
RTVSPropertyOp6
 70
     1
102
RTVSPropertyOp7
 70
     1
102
RTVSPropertyOp8
 70
     1
102
RTVSPropertyOp9
 70
     1
102
RTVSPropertyOp10
 70
     1
102
RTVSPropertyOp11
 70
     1
102
RTVSPropertyOp12
 70
     1
102
RTVSPropertyOp13
 70
     1
102
RTVSPropertyOp14
 70
     1
102
RTVSPropertyOp15
 70
     1
102
RTVSPropertyOp16
 70
     1
102
RTVSPropertyOp17
 70
     1
102
RTVSPropertyOp18
 70
     1
102
RTVSPropertyOp19
 70
     1
102
RTVSPropertyOp20
 70
     1
102
RTVSPropertyOp21
 70
     1
102
RTVSPropertyOp22
 70
     1
102
RTVSPropertyOp23
 70
     1
102
RTVSPropertyOp24
 70
     1
102
RTVSPropertyOp25
 70
     1
102
RTVSPropertyOp26
 70
     1
102
RTVSPropertyOp27
 70
     1
102
RTVSPropertyOp28
 70
     1
102
RTVSPropertyOp29
 70
     1
102
RTVSPropertyOp30
 70
     1
102
RTVSPropertyOp31
 70
     1
102
RTVSPropertyOp32
 70
     1
  0
XRECORD
  5
C46
102
{ACAD_REACTORS
330
C45
102
}
330
C45
100
AcDbXrecord
280
     1
102
RTVSPropertyOp0
 70
     1
102
RTVSPropertyOp1
 70
     1
102
RTVSPropertyOp2
 70
     1
102
RTVSPropertyOp3
 70
     1
102
RTVSPropertyOp4
 70
     1
102
RTVSPropertyOp5
 70
     1
102
RTVSPropertyOp6
 70
     1
102
RTVSPropertyOp7
 70
     1
102
RTVSPropertyOp8
 70
     1
102
RTVSPropertyOp9
 70
     1
102
RTVSPropertyOp10
 70
     1
102
RTVSPropertyOp11
 70
     1
102
RTVSPropertyOp12
 70
     1
102
RTVSPropertyOp13
 70
     1
102
RTVSPropertyOp14
 70
     1
102
RTVSPropertyOp15
 70
     1
102
RTVSPropertyOp16
 70
     1
102
RTVSPropertyOp17
 70
     1
102
RTVSPropertyOp18
 70
     1
102
RTVSPropertyOp19
 70
     1
102
RTVSPropertyOp20
 70
     1
102
RTVSPropertyOp21
 70
     1
102
RTVSPropertyOp22
 70
     1
102
RTVSPropertyOp23
 70
     1
102
RTVSPropertyOp24
 70
     1
102
RTVSPropertyOp25
 70
     1
102
RTVSPropertyOp26
 70
     1
102
RTVSPropertyOp27
 70
     1
102
RTVSPropertyOp28
 70
     1
102
RTVSPropertyOp29
 70
     1
102
RTVSPropertyOp30
 70
     1
102
RTVSPropertyOp31
 70
     1
102
RTVSPropertyOp32
 70
     1
  0
ENDSEC
  0
EOF
