  0
SECTION
  2
HEADER
  9
$ACADVER
  1
AC1018
  9
$ACADMAINTVER
 70
   104
  9
$DWGCODEPAGE
  3
ANSI_1252
  9
$AUTHOR
  1
PS
  9
$REVISIONNUMBER
  1
-
  9
$CUSTOMPROPERTYTAG
  1
Manager
  9
$CUSTOMPROPERTY
  1

  9
$CUSTOMPROPERTYTAG
  1
Company
  9
$CUSTOMPROPERTY
  1

  9
$CUSTOMPROPERTYTAG
  1
Category
  9
$CUSTOMPROPERTY
  1

  9
$CUSTOMPROPERTYTAG
  1
Part Number
  9
$CUSTOMPROPERTY
  1
FK0610-S
  9
$CUSTOMPROPERTYTAG
  1
Description
  9
$CUSTOMPROPERTY
  1

  9
$CUSTOMPROPERTYTAG
  1
Project
  9
$CUSTOMPROPERTY
  1

  9
$CUSTOMPROPERTYTAG
  1
Designer
  9
$CUSTOMPROPERTY
  1
PS
  9
$CUSTOMPROPERTYTAG
  1
Engineer
  9
$CUSTOMPROPERTY
  1

  9
$CUSTOMPROPERTYTAG
  1
Authority
  9
$CUSTOMPROPERTY
  1

  9
$CUSTOMPROPERTYTAG
  1
Cost Center
  9
$CUSTOMPROPERTY
  1

  9
$CUSTOMPROPERTYTAG
  1
Vendor
  9
$CUSTOMPROPERTY
  1

  9
$CUSTOMPROPERTYTAG
  1
User Status
  9
$CUSTOMPROPERTY
  1

  9
$CUSTOMPROPERTYTAG
  1
Design Status
  9
$CUSTOMPROPERTY
  1
WorkInProgress
  9
$CUSTOMPROPERTYTAG
  1
Checked by
  9
$CUSTOMPROPERTY
  1
NJ
  9
$CUSTOMPROPERTYTAG
  1
Date Checked
  9
$CUSTOMPROPERTY
  1
05/02/2013
  9
$CUSTOMPROPERTYTAG
  1
Engr Approved by
  9
$CUSTOMPROPERTY
  1

  9
$CUSTOMPROPERTYTAG
  1
Date Eng Approved
  9
$CUSTOMPROPERTY
  1
05/02/2013
  9
$CUSTOMPROPERTYTAG
  1
Mfg Approved by
  9
$CUSTOMPROPERTY
  1

  9
$CUSTOMPROPERTYTAG
  1
Date Mfg Approved
  9
$CUSTOMPROPERTY
  1
05/02/2013
  9
$CUSTOMPROPERTYTAG
  1
DWG. NO
  9
$CUSTOMPROPERTY
  1

  9
$CUSTOMPROPERTYTAG
  1
NUMBER OF SHEETS
  9
$CUSTOMPROPERTY
  1
1
  9
$CUSTOMPROPERTYTAG
  1
DRAWING #
  9
$CUSTOMPROPERTY
  1

  9
$INSBASE
 10
0.0
 20
0.0
 30
0.0
  9
$EXTMIN
 10
0.0
 20
0.0
 30
0.0
  9
$EXTMAX
 10
85.0
 20
55.0
 30
0.0
  9
$LIMMIN
 10
0.0
 20
0.0
  9
$LIMMAX
 10
85.0
 20
55.0
  9
$ORTHOMODE
 70
     0
  9
$REGENMODE
 70
     1
  9
$FILLMODE
 70
     1
  9
$QTEXTMODE
 70
     0
  9
$MIRRTEXT
 70
     0
  9
$LTSCALE
 40
5.0
  9
$ATTMODE
 70
     1
  9
$TEXTSIZE
 40
0.2
  9
$TRACEWID
 40
0.05
  9
$TEXTSTYLE
  7
Standard
  9
$CLAYER
  8
0
  9
$CELTYPE
  6
ByLayer
  9
$CECOLOR
 62
   256
  9
$CELTSCALE
 40
1.0
  9
$DISPSILH
 70
     0
  9
$DIMSCALE
 40
1.0
  9
$DIMASZ
 40
0.0708661417322835
  9
$DIMEXO
 40
0.0625
  9
$DIMDLI
 40
0.38
  9
$DIMRND
 40
0.0
  9
$DIMDLE
 40
0.0
  9
$DIMEXE
 40
0.18
  9
$DIMTP
 40
0.0
  9
$DIMTM
 40
0.0
  9
$DIMTXT
 40
0.0708661417322835
  9
$DIMCEN
 40
0.09
  9
$DIMTSZ
 40
0.0
  9
$DIMTOL
 70
     0
  9
$DIMLIM
 70
     0
  9
$DIMTIH
 70
     1
  9
$DIMTOH
 70
     1
  9
$DIMSE1
 70
     0
  9
$DIMSE2
 70
     0
  9
$DIMTAD
 70
     0
  9
$DIMZIN
 70
     0
  9
$DIMBLK
  1

  9
$DIMASO
 70
     1
  9
$DIMSHO
 70
     1
  9
$DIMPOST
  1

  9
$DIMAPOST
  1

  9
$DIMALT
 70
     0
  9
$DIMALTD
 70
     2
  9
$DIMALTF
 40
25.4
  9
$DIMLFAC
 40
1.0
  9
$DIMTOFL
 70
     0
  9
$DIMTVP
 40
0.0
  9
$DIMTIX
 70
     0
  9
$DIMSOXD
 70
     0
  9
$DIMSAH
 70
     0
  9
$DIMBLK1
  1

  9
$DIMBLK2
  1

  9
$DIMSTYLE
  2
Standard
  9
$DIMCLRD
 70
     0
  9
$DIMCLRE
 70
     0
  9
$DIMCLRT
 70
     0
  9
$DIMTFAC
 40
1.0
  9
$DIMGAP
 40
0.09
  9
$DIMJUST
 70
     0
  9
$DIMSD1
 70
     0
  9
$DIMSD2
 70
     0
  9
$DIMTOLJ
 70
     1
  9
$DIMTZIN
 70
     0
  9
$DIMALTZ
 70
     0
  9
$DIMALTTZ
 70
     0
  9
$DIMUPT
 70
     0
  9
$DIMDEC
 70
     4
  9
$DIMTDEC
 70
     4
  9
$DIMALTU
 70
     2
  9
$DIMALTTD
 70
     2
  9
$DIMTXSTY
  7
Standard
  9
$DIMAUNIT
 70
     0
  9
$DIMADEC
 70
     0
  9
$DIMALTRND
 40
0.0
  9
$DIMAZIN
 70
     0
  9
$DIMDSEP
 70
    46
  9
$DIMATFIT
 70
     3
  9
$DIMFRAC
 70
     0
  9
$DIMLDRBLK
  1

  9
$DIMLUNIT
 70
     2
  9
$DIMLWD
 70
    -2
  9
$DIMLWE
 70
    -2
  9
$DIMTMOVE
 70
     0
  9
$LUNITS
 70
     2
  9
$LUPREC
 70
     4
  9
$SKETCHINC
 40
0.1
  9
$FILLETRAD
 40
0.0
  9
$AUNITS
 70
     0
  9
$AUPREC
 70
     0
  9
$MENU
  1
.
  9
$ELEVATION
 40
0.0
  9
$PELEVATION
 40
0.0
  9
$THICKNESS
 40
0.0
  9
$LIMCHECK
 70
     0
  9
$CHAMFERA
 40
0.0
  9
$CHAMFERB
 40
0.0
  9
$CHAMFERC
 40
0.0
  9
$CHAMFERD
 40
0.0
  9
$SKPOLY
 70
     0
  9
$TDCREATE
 40
2456423.580964838
  9
$TDUCREATE
 40
2456423.351798171
  9
$TDUPDATE
 40
2456423.580966597
  9
$TDUUPDATE
 40
2456423.351799930
  9
$TDINDWG
 40
0.0000757986
  9
$TDUSRTIMER
 40
0.0000757986
  9
$USRTIMER
 70
     1
  9
$ANGBASE
 50
0.0
  9
$ANGDIR
 70
     0
  9
$PDMODE
 70
     0
  9
$PDSIZE
 40
0.0
  9
$PLINEWID
 40
0.0
  9
$SPLFRAME
 70
     0
  9
$SPLINETYPE
 70
     6
  9
$SPLINESEGS
 70
     8
  9
$HANDSEED
  5
1590
  9
$SURFTAB1
 70
     6
  9
$SURFTAB2
 70
     6
  9
$SURFTYPE
 70
     6
  9
$SURFU
 70
     6
  9
$SURFV
 70
     6
  9
$UCSBASE
  2

  9
$UCSNAME
  2

  9
$UCSORG
 10
0.0
 20
0.0
 30
0.0
  9
$UCSXDIR
 10
1.0
 20
0.0
 30
0.0
  9
$UCSYDIR
 10
0.0
 20
1.0
 30
0.0
  9
$UCSORTHOREF
  2

  9
$UCSORTHOVIEW
 70
     0
  9
$UCSORGTOP
 10
0.0
 20
0.0
 30
0.0
  9
$UCSORGBOTTOM
 10
0.0
 20
0.0
 30
0.0
  9
$UCSORGLEFT
 10
0.0
 20
0.0
 30
0.0
  9
$UCSORGRIGHT
 10
0.0
 20
0.0
 30
0.0
  9
$UCSORGFRONT
 10
0.0
 20
0.0
 30
0.0
  9
$UCSORGBACK
 10
0.0
 20
0.0
 30
0.0
  9
$PUCSBASE
  2

  9
$PUCSNAME
  2

  9
$PUCSORG
 10
0.0
 20
0.0
 30
0.0
  9
$PUCSXDIR
 10
1.0
 20
0.0
 30
0.0
  9
$PUCSYDIR
 10
0.0
 20
1.0
 30
0.0
  9
$PUCSORTHOREF
  2

  9
$PUCSORTHOVIEW
 70
     0
  9
$PUCSORGTOP
 10
0.0
 20
0.0
 30
0.0
  9
$PUCSORGBOTTOM
 10
0.0
 20
0.0
 30
0.0
  9
$PUCSORGLEFT
 10
0.0
 20
0.0
 30
0.0
  9
$PUCSORGRIGHT
 10
0.0
 20
0.0
 30
0.0
  9
$PUCSORGFRONT
 10
0.0
 20
0.0
 30
0.0
  9
$PUCSORGBACK
 10
0.0
 20
0.0
 30
0.0
  9
$USERI1
 70
     0
  9
$USERI2
 70
     0
  9
$USERI3
 70
     0
  9
$USERI4
 70
     0
  9
$USERI5
 70
     0
  9
$USERR1
 40
0.0
  9
$USERR2
 40
0.0
  9
$USERR3
 40
0.0
  9
$USERR4
 40
0.0
  9
$USERR5
 40
0.0
  9
$WORLDVIEW
 70
     1
  9
$SHADEDGE
 70
     3
  9
$SHADEDIF
 70
    70
  9
$TILEMODE
 70
     1
  9
$MAXACTVP
 70
    64
  9
$PINSBASE
 10
0.0
 20
0.0
 30
0.0
  9
$PLIMCHECK
 70
     0
  9
$PEXTMIN
 10
0.0
 20
0.0
 30
0.0
  9
$PEXTMAX
 10
85.0
 20
55.0
 30
0.0
  9
$PLIMMIN
 10
0.0
 20
0.0
  9
$PLIMMAX
 10
85.0
 20
55.0
  9
$UNITMODE
 70
     0
  9
$VISRETAIN
 70
     1
  9
$PLINEGEN
 70
     0
  9
$PSLTSCALE
 70
     1
  9
$TREEDEPTH
 70
  3020
  9
$CMLSTYLE
  2
Standard
  9
$CMLJUST
 70
     0
  9
$CMLSCALE
 40
1.0
  9
$PROXYGRAPHICS
 70
     1
  9
$MEASUREMENT
 70
     0
  9
$CELWEIGHT
370
    -1
  9
$ENDCAPS
280
     0
  9
$JOINSTYLE
280
     0
  9
$LWDISPLAY
290
     0
  9
$INSUNITS
 70
     1
  9
$HYPERLINKBASE
  1

  9
$STYLESHEET
  1

  9
$XEDIT
290
     1
  9
$CEPSNTYPE
380
     0
  9
$PSTYLEMODE
290
     1
  9
$FINGERPRINTGUID
  2
{C496211C-5AFF-4A12-AE34-B6FC78944848}
  9
$VERSIONGUID
  2
{41D02509-1B81-499C-A752-8CB6F738AF41}
  9
$EXTNAMES
290
     1
  9
$PSVPSCALE
 40
0.0
  9
$OLESTARTUP
290
     0
  9
$SORTENTS
280
   127
  9
$INDEXCTL
280
     0
  9
$HIDETEXT
280
     1
  9
$XCLIPFRAME
290
     0
  9
$HALOGAP
280
     0
  9
$OBSCOLOR
 70
   257
  9
$OBSLTYPE
280
     0
  9
$INTERSECTIONDISPLAY
280
     0
  9
$INTERSECTIONCOLOR
 70
   257
  9
$DIMASSOC
280
     1
  9
$PROJECTNAME
  1

  0
ENDSEC
  0
SECTION
  2
CLASSES
  0
CLASS
  1
ACDBDICTIONARYWDFLT
  2
AcDbDictionaryWithDefault
  3
ObjectDBX Classes
 90
        0
 91
        1
280
     0
281
     0
  0
CLASS
  1
MATERIAL
  2
AcDbMaterial
  3
ObjectDBX Classes
 90
     1153
 91
        3
280
     0
281
     0
  0
CLASS
  1
VISUALSTYLE
  2
AcDbVisualStyle
  3
ObjectDBX Classes
 90
     4095
 91
       24
280
     0
281
     0
  0
CLASS
  1
SCALE
  2
AcDbScale
  3
ObjectDBX Classes
 90
     1153
 91
       17
280
     0
281
     0
  0
CLASS
  1
TABLESTYLE
  2
AcDbTableStyle
  3
ObjectDBX Classes
 90
     4095
 91
        1
280
     0
281
     0
  0
CLASS
  1
MLEADERSTYLE
  2
AcDbMLeaderStyle
  3
ACDB_MLEADERSTYLE_CLASS
 90
     4095
 91
        1
280
     0
281
     0
  0
CLASS
  1
DICTIONARYVAR
  2
AcDbDictionaryVar
  3
ObjectDBX Classes
 90
        0
 91
        8
280
     0
281
     0
  0
CLASS
  1
CELLSTYLEMAP
  2
AcDbCellStyleMap
  3
ObjectDBX Classes
 90
     1152
 91
        1
280
     0
281
     0
  0
ENDSEC
  0
SECTION
  2
TABLES
  0
TABLE
  2
VPORT
  5
8
330
0
100
AcDbSymbolTable
 70
     1
  0
VPORT
  5
57
330
8
100
AcDbSymbolTableRecord
100
AcDbViewportTableRecord
  2
*Active
 70
     0
 10
0.0
 20
0.0
 11
1.0
 21
1.0
 12
42.5
 22
27.5
 13
0.0
 23
0.0
 14
1.0
 24
1.0
 15
0.0
 25
0.0
 16
0.0
 26
0.0
 36
1.0
 17
0.0
 27
0.0
 37
0.0
 40
55.0
 41
1.545454545454545
 42
50.0
 43
0.0
 44
0.0
 50
0.0
 51
0.0
 71
     0
 72
   100
 73
     1
 74
     1
 75
     0
 76
     0
 77
     0
 78
     0
281
     0
 65
     1
110
0.0
120
0.0
130
0.0
111
1.0
121
0.0
131
0.0
112
0.0
122
1.0
132
0.0
 79
     0
146
0.0
  0
ENDTAB
  0
TABLE
  2
LTYPE
  5
5
330
0
100
AcDbSymbolTable
 70
    59
  0
LTYPE
  5
5B
330
5
100
AcDbSymbolTableRecord
100
AcDbLinetypeTableRecord
  2
ByBlock
 70
     0
  3

 72
    65
 73
     0
 40
0.0
  0
LTYPE
  5
5C
330
5
100
AcDbSymbolTableRecord
100
AcDbLinetypeTableRecord
  2
ByLayer
 70
     0
  3

 72
    65
 73
     0
 40
0.0
  0
LTYPE
  5
5D
330
5
100
AcDbSymbolTableRecord
100
AcDbLinetypeTableRecord
  2
Continuous
 70
     0
  3
Solid line
 72
    65
 73
     0
 40
0.0
  0
LTYPE
  5
7C
330
5
100
AcDbSymbolTableRecord
100
AcDbLinetypeTableRecord
  2
BY_STANDARD
 70
     0
  3
By Standard ____________    ____    ____   _
 72
    65
 73
     6
 40
1.240299999999999
 49
0.6614
 74
     0
 49
-0.0827
 74
     0
 49
0.1654
 74
     0
 49
-0.0827
 74
     0
 49
0.1654
 74
     0
 49
-0.0827
 74
     0
  0
LTYPE
  5
7D
330
5
100
AcDbSymbolTableRecord
100
AcDbLinetypeTableRecord
  2
CHAIN
 70
     0
  3
Chain ____ _ ____ _ ____ _ ____ _ ____ _ ____
 72
    65
 73
     4
 40
0.7087
 49
0.4724000000000001
 74
     0
 49
-0.0591
 74
     0
 49
0.1181
 74
     0
 49
-0.0591
 74
     0
  0
LTYPE
  5
7E
330
5
100
AcDbSymbolTableRecord
100
AcDbLinetypeTableRecord
  2
DASH_DOT
 70
     0
  3
Dash dot __ . __ . __ . __ . __ . __ . __ . __
 72
    65
 73
     4
 40
0.37
 49
0.24
 74
     0
 49
-0.06
 74
     0
 49
0.01
 74
     0
 49
-0.06
 74
     0
  0
LTYPE
  5
7F
330
5
100
AcDbSymbolTableRecord
100
AcDbLinetypeTableRecord
  2
DOUBLE_DASH_DOT
 70
     0
  3
Double-Dash Dot __ __ . __ __ . __ __ . __ _
 72
    65
 73
     6
 40
0.4398
 49
0.24
 74
     0
 49
-0.06
 74
     0
 49
0.0098
 74
     0
 49
-0.06
 74
     0
 49
0.01
 74
     0
 49
-0.06
 74
     0
  0
LTYPE
  5
80
330
5
100
AcDbSymbolTableRecord
100
AcDbLinetypeTableRecord
  2
DASH_TRIPLE_DOT
 70
     0
  3
Dash Triple-Dot _ . . . _ . . . _ . . . _
 72
    65
 73
     8
 40
0.51
 49
0.24
 74
     0
 49
-0.06
 74
     0
 49
0.01
 74
     0
 49
-0.06
 74
     0
 49
0.01
 74
     0
 49
-0.06
 74
     0
 49
0.01
 74
     0
 49
-0.06
 74
     0
  0
LTYPE
  5
81
330
5
100
AcDbSymbolTableRecord
100
AcDbLinetypeTableRecord
  2
DASHED
 70
     0
  3
Dashed __ __ __ __ __ __ __ __ __ __ __ __ __ _
 72
    65
 73
     2
 40
0.2067
 49
0.1654
 74
     0
 49
-0.0413
 74
     0
  0
LTYPE
  5
82
330
5
100
AcDbSymbolTableRecord
100
AcDbLinetypeTableRecord
  2
DASH_DOUBLE_DOT
 70
     0
  3
Dash Double-Dot __ . . __ . . __ . . __ . .
 72
    65
 73
     6
 40
0.4398
 49
0.24
 74
     0
 49
-0.06
 74
     0
 49
0.0098
 74
     0
 49
-0.06
 74
     0
 49
0.01
 74
     0
 49
-0.06
 74
     0
  0
LTYPE
  5
83
330
5
100
AcDbSymbolTableRecord
100
AcDbLinetypeTableRecord
  2
DASHED_SPACE
 70
     0
  3
Dashed Space __ __ __ __ __ __ __ __ __ __ __ _
 72
    65
 73
     2
 40
0.2067
 49
0.1654
 74
     0
 49
-0.0413
 74
     0
  0
LTYPE
  5
84
330
5
100
AcDbSymbolTableRecord
100
AcDbLinetypeTableRecord
  2
DOTTED
 70
     0
  3
Dotted . . . . . . . . . . . . . . . . . . . . 
 72
    65
 73
     2
 40
0.0482
 49
0.0069
 74
     0
 49
-0.0413
 74
     0
  0
LTYPE
  5
85
330
5
100
AcDbSymbolTableRecord
100
AcDbLinetypeTableRecord
  2
DOUBLE_DASH_CHAIN
 70
     0
  3
Double-Dash Chain ______  __  __  ______  __  _
 72
    65
 73
     6
 40
1.240299999999999
 49
0.6614
 74
     0
 49
-0.0827
 74
     0
 49
0.1654
 74
     0
 49
-0.0827
 74
     0
 49
0.1654
 74
     0
 49
-0.0827
 74
     0
  0
LTYPE
  5
87
330
5
100
AcDbSymbolTableRecord
100
AcDbLinetypeTableRecord
  2
DOUBLE_DASH_DOUBLE_DOT
 70
     0
  3
Double-Dash Double-dot _ _ . . _ _ . . _
 72
    65
 73
     8
 40
0.7400000000000001
 49
0.24
 74
     0
 49
-0.06
 74
     0
 49
0.24
 74
     0
 49
-0.06
 74
     0
 49
0.01
 74
     0
 49
-0.06
 74
     0
 49
0.01
 74
     0
 49
-0.06
 74
     0
  0
LTYPE
  5
88
330
5
100
AcDbSymbolTableRecord
100
AcDbLinetypeTableRecord
  2
DOUBLE_DASH_TRIPLE_DOT
 70
     0
  3
Double Dash Triple Dot __ __ . . . __ __ . .
 72
    65
 73
    10
 40
0.8100000000000001
 49
0.24
 74
     0
 49
-0.06
 74
     0
 49
0.24
 74
     0
 49
-0.06
 74
     0
 49
0.01
 74
     0
 49
-0.06
 74
     0
 49
0.01
 74
     0
 49
-0.06
 74
     0
 49
0.01
 74
     0
 49
-0.06
 74
     0
  0
LTYPE
  5
89
330
5
100
AcDbSymbolTableRecord
100
AcDbLinetypeTableRecord
  2
LONG_DASH_DOTTED
 70
     0
  3
Long Dash Dotted ____ . ____ . ____ . ____ . _
 72
    65
 73
     4
 40
0.3543
 49
0.2362
 74
     0
 49
-0.0295
 74
     0
 49
0.0591
 74
     0
 49
-0.0295
 74
     0
  0
LTYPE
  5
8A
330
5
100
AcDbSymbolTableRecord
100
AcDbLinetypeTableRecord
  2
LONG_DASH_DOUBLE_DOT
 70
     0
  3
Long Dash Double Dot ________  .  .  ________  
 72
    65
 73
     6
 40
0.6799999999999999
 49
0.48
 74
     0
 49
-0.06
 74
     0
 49
0.01
 74
     0
 49
-0.06
 74
     0
 49
0.01
 74
     0
 49
-0.06
 74
     0
  0
LTYPE
  5
8B
330
5
100
AcDbSymbolTableRecord
100
AcDbLinetypeTableRecord
  2
LONG_DASH_TRIPLE_DOT
 70
     0
  3
Long Dash Triple Dot ____ ... ____ ... ____
 72
    65
 73
     8
 40
0.3689
 49
0.2362
 74
     0
 49
-0.0295
 74
     0
 49
0.0049
 74
     0
 49
-0.0295
 74
     0
 49
0.0049
 74
     0
 49
-0.0295
 74
     0
 49
0.0049
 74
     0
 49
-0.0295
 74
     0
  0
LTYPE
  5
8C
330
5
100
AcDbSymbolTableRecord
100
AcDbLinetypeTableRecord
  2
BORDER
 70
     0
  3
Border __ __ . __ __ . __ __ . __ __ . __ __ .
 72
    65
 73
     6
 40
1.75
 49
0.5
 74
     0
 49
-0.25
 74
     0
 49
0.5
 74
     0
 49
-0.25
 74
     0
 49
0.0
 74
     0
 49
-0.25
 74
     0
  0
LTYPE
  5
8D
330
5
100
AcDbSymbolTableRecord
100
AcDbLinetypeTableRecord
  2
BORDER2
 70
     0
  3
Border (.5x) __.__.__.__.__.__.__.__.__.__.__.
 72
    65
 73
     6
 40
0.875
 49
0.25
 74
     0
 49
-0.125
 74
     0
 49
0.25
 74
     0
 49
-0.125
 74
     0
 49
0.0
 74
     0
 49
-0.125
 74
     0
  0
LTYPE
  5
8E
330
5
100
AcDbSymbolTableRecord
100
AcDbLinetypeTableRecord
  2
BORDERX2
 70
     0
  3
Border (2x) ____  ____  .  ____  ____  .  ___
 72
    65
 73
     6
 40
3.5
 49
1.0
 74
     0
 49
-0.5
 74
     0
 49
1.0
 74
     0
 49
-0.5
 74
     0
 49
0.0
 74
     0
 49
-0.5
 74
     0
  0
LTYPE
  5
8F
330
5
100
AcDbSymbolTableRecord
100
AcDbLinetypeTableRecord
  2
CENTER
 70
     0
  3
Center ____ _ ____ _ ____ _ ____ _ ____ _ ____
 72
    65
 73
     4
 40
2.0
 49
1.25
 74
     0
 49
-0.25
 74
     0
 49
0.25
 74
     0
 49
-0.25
 74
     0
  0
LTYPE
  5
90
330
5
100
AcDbSymbolTableRecord
100
AcDbLinetypeTableRecord
  2
CENTER2
 70
     0
  3
Center (.5x) ___ _ ___ _ ___ _ ___ _ ___ _ ___
 72
    65
 73
     4
 40
1.125
 49
0.75
 74
     0
 49
-0.125
 74
     0
 49
0.125
 74
     0
 49
-0.125
 74
     0
  0
LTYPE
  5
91
330
5
100
AcDbSymbolTableRecord
100
AcDbLinetypeTableRecord
  2
CENTERX2
 70
     0
  3
Center (2x) ________  __  ________  __  _____
 72
    65
 73
     4
 40
4.0
 49
2.5
 74
     0
 49
-0.5
 74
     0
 49
0.5
 74
     0
 49
-0.5
 74
     0
  0
LTYPE
  5
92
330
5
100
AcDbSymbolTableRecord
100
AcDbLinetypeTableRecord
  2
DASHDOT2
 70
     0
  3
Dash dot (.5x) _._._._._._._._._._._._._._._.
 72
    65
 73
     4
 40
0.5
 49
0.25
 74
     0
 49
-0.125
 74
     0
 49
0.0
 74
     0
 49
-0.125
 74
     0
  0
LTYPE
  5
93
330
5
100
AcDbSymbolTableRecord
100
AcDbLinetypeTableRecord
  2
DASHDOTX2
 70
     0
  3
Dash dot (2x) ____  .  ____  .  ____  .  ___
 72
    65
 73
     4
 40
2.0
 49
1.0
 74
     0
 49
-0.5
 74
     0
 49
0.0
 74
     0
 49
-0.5
 74
     0
  0
LTYPE
  5
95
330
5
100
AcDbSymbolTableRecord
100
AcDbLinetypeTableRecord
  2
DASHED2
 70
     0
  3
Dashed (.5x) _ _ _ _ _ _ _ _ _ _ _ _ _ _ _ _ _
 72
    65
 73
     2
 40
0.375
 49
0.25
 74
     0
 49
-0.125
 74
     0
  0
LTYPE
  5
96
330
5
100
AcDbSymbolTableRecord
100
AcDbLinetypeTableRecord
  2
DASHEDX2
 70
     0
  3
Dashed (2x) ____  ____  ____  ____  ____  ___
 72
    65
 73
     2
 40
1.5
 49
1.0
 74
     0
 49
-0.5
 74
     0
  0
LTYPE
  5
97
330
5
100
AcDbSymbolTableRecord
100
AcDbLinetypeTableRecord
  2
DIVIDE
 70
     0
  3
Divide ____ . . ____ . . ____ . . ____ . . ____
 72
    65
 73
     6
 40
1.25
 49
0.5
 74
     0
 49
-0.25
 74
     0
 49
0.0
 74
     0
 49
-0.25
 74
     0
 49
0.0
 74
     0
 49
-0.25
 74
     0
  0
LTYPE
  5
98
330
5
100
AcDbSymbolTableRecord
100
AcDbLinetypeTableRecord
  2
DIVIDE2
 70
     0
  3
Divide (.5x) __..__..__..__..__..__..__..__.._
 72
    65
 73
     6
 40
0.625
 49
0.25
 74
     0
 49
-0.125
 74
     0
 49
0.0
 74
     0
 49
-0.125
 74
     0
 49
0.0
 74
     0
 49
-0.125
 74
     0
  0
LTYPE
  5
99
330
5
100
AcDbSymbolTableRecord
100
AcDbLinetypeTableRecord
  2
DIVIDEX2
 70
     0
  3
Divide (2x) ________  .  .  ________  .  .  _
 72
    65
 73
     6
 40
2.5
 49
1.0
 74
     0
 49
-0.5
 74
     0
 49
0.0
 74
     0
 49
-0.5
 74
     0
 49
0.0
 74
     0
 49
-0.5
 74
     0
  0
LTYPE
  5
9A
330
5
100
AcDbSymbolTableRecord
100
AcDbLinetypeTableRecord
  2
DOT
 70
     0
  3
Dot . . . . . . . . . . . . . . . . . . . . . .
 72
    65
 73
     2
 40
0.25
 49
0.0
 74
     0
 49
-0.25
 74
     0
  0
LTYPE
  5
9B
330
5
100
AcDbSymbolTableRecord
100
AcDbLinetypeTableRecord
  2
DOT2
 70
     0
  3
Dot (.5x) .....................................
 72
    65
 73
     2
 40
0.125
 49
0.0
 74
     0
 49
-0.125
 74
     0
  0
LTYPE
  5
9C
330
5
100
AcDbSymbolTableRecord
100
AcDbLinetypeTableRecord
  2
DOTX2
 70
     0
  3
Dot (2x) .  .  .  .  .  .  .  .  .  .  .  .  . 
 72
    65
 73
     2
 40
0.5
 49
0.0
 74
     0
 49
-0.5
 74
     0
  0
LTYPE
  5
9D
330
5
100
AcDbSymbolTableRecord
100
AcDbLinetypeTableRecord
  2
HIDDEN
 70
     0
  3
Hidden __ __ __ __ __ __ __ __ __ __ __ __ __ _
 72
    65
 73
     2
 40
0.375
 49
0.25
 74
     0
 49
-0.125
 74
     0
  0
LTYPE
  5
9E
330
5
100
AcDbSymbolTableRecord
100
AcDbLinetypeTableRecord
  2
HIDDEN2
 70
     0
  3
Hidden (.5x) _ _ _ _ _ _ _ _ _ _ _ _ _ _ _ _ _
 72
    65
 73
     2
 40
0.1875
 49
0.125
 74
     0
 49
-0.0625
 74
     0
  0
LTYPE
  5
9F
330
5
100
AcDbSymbolTableRecord
100
AcDbLinetypeTableRecord
  2
HIDDENX2
 70
     0
  3
Hidden (2x) ____ ____ ____ ____ ____ ____ ____
 72
    65
 73
     2
 40
0.75
 49
0.5
 74
     0
 49
-0.25
 74
     0
  0
LTYPE
  5
A0
330
5
100
AcDbSymbolTableRecord
100
AcDbLinetypeTableRecord
  2
PHANTOM
 70
     0
  3
Phantom ______  __  __  ______  __  __  ______
 72
    65
 73
     6
 40
2.5
 49
1.25
 74
     0
 49
-0.25
 74
     0
 49
0.25
 74
     0
 49
-0.25
 74
     0
 49
0.25
 74
     0
 49
-0.25
 74
     0
  0
LTYPE
  5
A1
330
5
100
AcDbSymbolTableRecord
100
AcDbLinetypeTableRecord
  2
PHANTOM2
 70
     0
  3
Phantom (.5x) ___ _ _ ___ _ _ ___ _ _ ___ _ _
 72
    65
 73
     6
 40
1.25
 49
0.625
 74
     0
 49
-0.125
 74
     0
 49
0.125
 74
     0
 49
-0.125
 74
     0
 49
0.125
 74
     0
 49
-0.125
 74
     0
  0
LTYPE
  5
A2
330
5
100
AcDbSymbolTableRecord
100
AcDbLinetypeTableRecord
  2
PHANTOMX2
 70
     0
  3
Phantom (2x) ____________    ____    ____   _
 72
    65
 73
     6
 40
5.0
 49
2.5
 74
     0
 49
-0.5
 74
     0
 49
0.5
 74
     0
 49
-0.5
 74
     0
 49
0.5
 74
     0
 49
-0.5
 74
     0
  0
LTYPE
  5
A3
330
5
100
AcDbSymbolTableRecord
100
AcDbLinetypeTableRecord
  2
ACAD_ISO02W100
 70
     0
  3
ISO dash __ __ __ __ __ __ __ __ __ __ __ __ __
 72
    65
 73
     2
 40
0.59
 49
0.47
 74
     0
 49
-0.12
 74
     0
  0
LTYPE
  5
A4
330
5
100
AcDbSymbolTableRecord
100
AcDbLinetypeTableRecord
  2
ACAD_ISO03W100
 70
     0
  3
ISO dash space __    __    __    __    __    __
 72
    65
 73
     2
 40
1.179999999999999
 49
0.47
 74
     0
 49
-0.71
 74
     0
  0
LTYPE
  5
A5
330
5
100
AcDbSymbolTableRecord
100
AcDbLinetypeTableRecord
  2
ACAD_ISO04W100
 70
     0
  3
ISO long-dash dot ____ . ____ . ____ . ____ . _
 72
    65
 73
     4
 40
1.179999999999999
 49
0.9399999999999998
 74
     0
 49
-0.12
 74
     0
 49
0.0
 74
     0
 49
-0.12
 74
     0
  0
LTYPE
  5
A6
330
5
100
AcDbSymbolTableRecord
100
AcDbLinetypeTableRecord
  2
ACAD_ISO05W100
 70
     0
  3
ISO long-dash double-dot ____ .. ____ .. ____ .
 72
    65
 73
     6
 40
1.299999999999999
 49
0.9399999999999998
 74
     0
 49
-0.12
 74
     0
 49
0.0
 74
     0
 49
-0.12
 74
     0
 49
0.0
 74
     0
 49
-0.12
 74
     0
  0
LTYPE
  5
A7
330
5
100
AcDbSymbolTableRecord
100
AcDbLinetypeTableRecord
  2
ACAD_ISO06W100
 70
     0
  3
ISO long-dash triple-dot ____ ... ____ ... ____
 72
    65
 73
     8
 40
1.419999999999999
 49
0.9399999999999998
 74
     0
 49
-0.12
 74
     0
 49
0.0
 74
     0
 49
-0.12
 74
     0
 49
0.0
 74
     0
 49
-0.12
 74
     0
 49
0.0
 74
     0
 49
-0.12
 74
     0
  0
LTYPE
  5
A8
330
5
100
AcDbSymbolTableRecord
100
AcDbLinetypeTableRecord
  2
ACAD_ISO07W100
 70
     0
  3
ISO dot . . . . . . . . . . . . . . . . . . . .
 72
    65
 73
     2
 40
0.12
 49
0.0
 74
     0
 49
-0.12
 74
     0
  0
LTYPE
  5
A9
330
5
100
AcDbSymbolTableRecord
100
AcDbLinetypeTableRecord
  2
ACAD_ISO08W100
 70
     0
  3
ISO long-dash short-dash ____ __ ____ __ ____ _
 72
    65
 73
     4
 40
0.95
 49
0.47
 74
     0
 49
-0.12
 74
     0
 49
0.24
 74
     0
 49
-0.12
 74
     0
  0
LTYPE
  5
AA
330
5
100
AcDbSymbolTableRecord
100
AcDbLinetypeTableRecord
  2
ACAD_ISO09W100
 70
     0
  3
ISO long-dash double-short-dash ____ __ __ ____
 72
    65
 73
     6
 40
1.31
 49
0.47
 74
     0
 49
-0.12
 74
     0
 49
0.24
 74
     0
 49
-0.12
 74
     0
 49
0.24
 74
     0
 49
-0.12
 74
     0
  0
LTYPE
  5
AB
330
5
100
AcDbSymbolTableRecord
100
AcDbLinetypeTableRecord
  2
ACAD_ISO10W100
 70
     0
  3
ISO dash dot __ . __ . __ . __ . __ . __ . __ .
 72
    65
 73
     4
 40
0.71
 49
0.47
 74
     0
 49
-0.12
 74
     0
 49
0.0
 74
     0
 49
-0.12
 74
     0
  0
LTYPE
  5
AC
330
5
100
AcDbSymbolTableRecord
100
AcDbLinetypeTableRecord
  2
ACAD_ISO11W100
 70
     0
  3
ISO double-dash dot __ __ . __ __ . __ __ . __ 
 72
    65
 73
     6
 40
1.299999999999999
 49
0.47
 74
     0
 49
-0.12
 74
     0
 49
0.47
 74
     0
 49
-0.12
 74
     0
 49
0.0
 74
     0
 49
-0.12
 74
     0
  0
LTYPE
  5
AD
330
5
100
AcDbSymbolTableRecord
100
AcDbLinetypeTableRecord
  2
ACAD_ISO12W100
 70
     0
  3
ISO dash double-dot __ . . __ . . __ . . __ . .
 72
    65
 73
     6
 40
0.8299999999999998
 49
0.47
 74
     0
 49
-0.12
 74
     0
 49
0.0
 74
     0
 49
-0.12
 74
     0
 49
0.0
 74
     0
 49
-0.12
 74
     0
  0
LTYPE
  5
AE
330
5
100
AcDbSymbolTableRecord
100
AcDbLinetypeTableRecord
  2
ACAD_ISO13W100
 70
     0
  3
ISO double-dash double-dot __ __ . . __ __ . . 
 72
    65
 73
     8
 40
1.419999999999999
 49
0.47
 74
     0
 49
-0.12
 74
     0
 49
0.47
 74
     0
 49
-0.12
 74
     0
 49
0.0
 74
     0
 49
-0.12
 74
     0
 49
0.0
 74
     0
 49
-0.12
 74
     0
  0
LTYPE
  5
AF
330
5
100
AcDbSymbolTableRecord
100
AcDbLinetypeTableRecord
  2
ACAD_ISO14W100
 70
     0
  3
ISO dash triple-dot __ . . . __ . . . __ . . . 
 72
    65
 73
     8
 40
0.95
 49
0.47
 74
     0
 49
-0.12
 74
     0
 49
0.0
 74
     0
 49
-0.12
 74
     0
 49
0.0
 74
     0
 49
-0.12
 74
     0
 49
0.0
 74
     0
 49
-0.12
 74
     0
  0
LTYPE
  5
B0
330
5
100
AcDbSymbolTableRecord
100
AcDbLinetypeTableRecord
  2
ACAD_ISO15W100
 70
     0
  3
ISO double-dash triple-dot __ __ . . . __ __ . 
 72
    65
 73
    10
 40
1.539999999999999
 49
0.47
 74
     0
 49
-0.12
 74
     0
 49
0.47
 74
     0
 49
-0.12
 74
     0
 49
0.0
 74
     0
 49
-0.12
 74
     0
 49
0.0
 74
     0
 49
-0.12
 74
     0
 49
0.0
 74
     0
 49
-0.12
 74
     0
  0
LTYPE
  5
B3
330
5
100
AcDbSymbolTableRecord
100
AcDbLinetypeTableRecord
  2
FENCELINE1
 70
     0
  3
Fenceline circle ----0-----0----0-----0----0---
 72
    65
 73
     4
 40
1.45
 49
0.25
 74
     0
 49
-0.1
 74
     4
 75
   133
340
B2
 46
0.1
 50
0.0
 44
-0.1
 45
0.0
 49
-0.1
 74
     0
 49
1.0
 74
     0
  0
LTYPE
  5
B4
330
5
100
AcDbSymbolTableRecord
100
AcDbLinetypeTableRecord
  2
FENCELINE2
 70
     0
  3
Fenceline square ----[]-----[]----[]-----[]----
 72
    65
 73
     4
 40
1.45
 49
0.25
 74
     0
 49
-0.1
 74
     4
 75
   132
340
B2
 46
0.1
 50
0.0
 44
-0.1
 45
0.0
 49
-0.1
 74
     0
 49
1.0
 74
     0
  0
LTYPE
  5
B5
330
5
100
AcDbSymbolTableRecord
100
AcDbLinetypeTableRecord
  2
TRACKS
 70
     0
  3
Tracks -|-|-|-|-|-|-|-|-|-|-|-|-|-|-|-|-|-|-|-|
 72
    65
 73
     2
 40
0.3
 49
0.15
 74
     4
 75
   130
340
B2
 46
0.25
 50
0.0
 44
0.0
 45
0.0
 49
0.15
 74
     0
  0
LTYPE
  5
B6
330
5
100
AcDbSymbolTableRecord
100
AcDbLinetypeTableRecord
  2
BATTING
 70
     0
  3
Batting SSSSSSSSSSSSSSSSSSSSSSSSSSSSSSSSSSSSSSS
 72
    65
 73
     4
 40
0.4001000000000001
 49
0.0001
 74
     0
 49
-0.1
 74
     4
 75
   134
340
B2
 46
0.1
 50
0.0
 44
-0.1
 45
0.0
 49
-0.2
 74
     4
 75
   134
340
B2
 46
0.1
 50
180.0
 44
0.1
 45
0.0
 49
-0.1
 74
     0
  0
LTYPE
  5
B7
330
5
100
AcDbSymbolTableRecord
100
AcDbLinetypeTableRecord
  2
HOT_WATER_SUPPLY
 70
     0
  3
Hot water supply ---- HW ---- HW ---- HW ----
 72
    65
 73
     3
 40
0.9
 49
0.5
 74
     0
 49
-0.2
 74
     2
 75
     0
340
55
 46
0.1
 50
0.0
 44
-0.1
 45
-0.05
  9
HW
 49
-0.2
 74
     0
  0
LTYPE
  5
B8
330
5
100
AcDbSymbolTableRecord
100
AcDbLinetypeTableRecord
  2
GAS_LINE
 70
     0
  3
Gas line ----GAS----GAS----GAS----GAS----GAS---
 72
    65
 73
     3
 40
0.95
 49
0.5
 74
     0
 49
-0.2
 74
     2
 75
     0
340
55
 46
0.1
 50
0.0
 44
-0.1
 45
-0.05
  9
GAS
 49
-0.25
 74
     0
  0
LTYPE
  5
B9
330
5
100
AcDbSymbolTableRecord
100
AcDbLinetypeTableRecord
  2
ZIGZAG
 70
     0
  3
Zig zag /\/\/\/\/\/\/\/\/\/\/\/\/\/\/\/\/\/\/\/
 72
    65
 73
     4
 40
0.8001000000000001
 49
0.0001
 74
     0
 49
-0.2
 74
     4
 75
   131
340
B2
 46
0.2
 50
0.0
 44
-0.2
 45
0.0
 49
-0.4
 74
     4
 75
   131
340
B2
 46
0.2
 50
180.0
 44
0.2
 45
0.0
 49
-0.2
 74
     0
  0
ENDTAB
  0
TABLE
  2
LAYER
  5
2
330
0
100
AcDbSymbolTable
 70
    27
  0
LAYER
  5
54
330
2
100
AcDbSymbolTableRecord
100
AcDbLayerTableRecord
  2
0
 70
     0
 62
     7
  6
Continuous
370
     0
390
F
  0
LAYER
  5
C0
330
2
100
AcDbSymbolTableRecord
100
AcDbLayerTableRecord
  2
Center Mark (ANSI)
 70
     0
 62
     7
  6
Continuous
370
     5
390
F
  0
LAYER
  5
C1
330
2
100
AcDbSymbolTableRecord
100
AcDbLayerTableRecord
  2
Centerline (ANSI)
 70
     0
 62
     7
  6
Continuous
370
     5
390
F
  0
LAYER
  5
C3
330
2
100
AcDbSymbolTableRecord
100
AcDbLayerTableRecord
  2
Dimension (ANSI)
 70
     0
 62
     7
  6
Continuous
370
     5
390
F
  0
LAYER
  5
CC
330
2
100
AcDbSymbolTableRecord
100
AcDbLayerTableRecord
  2
Symbol (ANSI)
 70
     0
 62
     7
  6
Continuous
370
     5
390
F
  0
LAYER
  5
CF
330
2
100
AcDbSymbolTableRecord
100
AcDbLayerTableRecord
  2
Visible (ANSI)
 70
     0
 62
     7
  6
Continuous
370
     5
390
F
  0
LAYER
  5
D0
330
2
100
AcDbSymbolTableRecord
100
AcDbLayerTableRecord
  2
Visible Narrow (ANSI)
 70
     0
 62
     7
  6
Continuous
370
     5
390
F
  0
LAYER
  5
2AD
330
2
100
AcDbSymbolTableRecord
100
AcDbLayerTableRecord
  2
Defpoints
 70
     0
 62
     7
  6
Continuous
290
     0
370
    -3
390
F
  0
ENDTAB
  0
TABLE
  2
STYLE
  5
3
330
0
100
AcDbSymbolTable
 70
    10
  0
STYLE
  5
55
330
3
100
AcDbSymbolTableRecord
100
AcDbTextStyleTableRecord
  2
Standard
 70
     0
 40
0.0
 41
1.0
 50
0.0
 71
     0
 42
0.2
  3
txt
  4

  0
STYLE
  5
5A
330
3
100
AcDbSymbolTableRecord
100
AcDbTextStyleTableRecord
  2
Annotative
 70
     0
 40
0.0
 41
1.0
 50
0.0
 71
     0
 42
0.2
  3
txt
  4

1001
AcadAnnotative
1000
AnnotativeData
1002
{
1070
     1
1070
     1
1002
}
  0
STYLE
  5
B2
330
3
100
AcDbSymbolTableRecord
100
AcDbTextStyleTableRecord
  2

 70
     1
 40
0.0
 41
1.0
 50
0.0
 71
     0
 42
0.2
  3
ltypeshp.shx
  4

  0
STYLE
  5
D4
330
3
100
AcDbSymbolTableRecord
100
AcDbTextStyleTableRecord
  2
ITALICC_120
 70
     0
 40
0.0
 41
1.0
 50
0.0
 71
     0
 42
0.2
  3
italicc.shx
  4

  0
STYLE
  5
D5
330
3
100
AcDbSymbolTableRecord
100
AcDbTextStyleTableRecord
  2
Label Text (ANSI)
 70
     0
 40
0.0
 41
1.0
 50
0.0
 71
     0
 42
0.2
  3
tahoma.ttf
  4

1001
ACAD
1000
Tahoma
1071
      256
  0
STYLE
  5
D6
330
3
100
AcDbSymbolTableRecord
100
AcDbTextStyleTableRecord
  2
Note Text (ANSI)
 70
     0
 40
0.0
 41
1.0
 50
0.0
 71
     0
 42
0.2
  3
RomanS.shx
  4

  0
STYLE
  5
D7
330
3
100
AcDbSymbolTableRecord
100
AcDbTextStyleTableRecord
  2
ROMANS
 70
     0
 40
0.0
 41
1.0
 50
0.0
 71
     0
 42
0.2
  3
romans.shx
  4

  0
STYLE
  5
D8
330
3
100
AcDbSymbolTableRecord
100
AcDbTextStyleTableRecord
  2
SANSSERIF_114
 70
     0
 40
0.0
 41
1.0
 50
0.0
 71
     0
 42
0.2
  3
tahoma.ttf
  4

1001
ACAD
1000
Tahoma
1071
      256
  0
STYLE
  5
D9
330
3
100
AcDbSymbolTableRecord
100
AcDbTextStyleTableRecord
  2
SANSSERIF_117
 70
     0
 40
0.0
 41
1.0
 50
0.0
 71
     0
 42
0.2
  3
tahoma.ttf
  4

1001
ACAD
1000
Tahoma
1071
      256
  0
STYLE
  5
15E
330
3
100
AcDbSymbolTableRecord
100
AcDbTextStyleTableRecord
  2
Text Style168
 70
     0
 40
0.0
 41
1.0
 50
0.0
 71
     0
 42
0.2
  3
tahoma.ttf
  4

1001
ACAD
1000
Tahoma
1071
      256
  0
ENDTAB
  0
TABLE
  2
VIEW
  5
6
330
0
100
AcDbSymbolTable
 70
     0
  0
ENDTAB
  0
TABLE
  2
UCS
  5
7
330
0
100
AcDbSymbolTable
 70
     0
  0
ENDTAB
  0
TABLE
  2
APPID
  5
9
330
0
100
AcDbSymbolTable
 70
     5
  0
APPID
  5
56
330
9
100
AcDbSymbolTableRecord
100
AcDbRegAppTableRecord
  2
ACAD
 70
     0
  0
APPID
  5
5E
330
9
100
AcDbSymbolTableRecord
100
AcDbRegAppTableRecord
  2
AcadAnnotative
 70
     0
  0
APPID
  5
612
330
9
100
AcDbSymbolTableRecord
100
AcDbRegAppTableRecord
  2
ACAD_DSTYLE_DIMANGULAR_EXTENSION
 70
     0
  0
APPID
  5
EDF
330
9
100
AcDbSymbolTableRecord
100
AcDbRegAppTableRecord
  2
ACAD_DSTYLE_DIMRADIAL_EXTENSION
 70
     0
  0
APPID
  5
158B
330
9
100
AcDbSymbolTableRecord
100
AcDbRegAppTableRecord
  2
ACAD_MLEADERVER
 70
     0
  0
ENDTAB
  0
TABLE
  2
DIMSTYLE
  5
A
330
0
100
AcDbSymbolTable
 70
    15
100
AcDbDimStyleTable
 71
     2
340
E2
340
58
  0
DIMSTYLE
105
58
330
A
100
AcDbSymbolTableRecord
100
AcDbDimStyleTableRecord
  2
Standard
 70
     0
340
55
  0
DIMSTYLE
105
59
330
A
100
AcDbSymbolTableRecord
100
AcDbDimStyleTableRecord
  2
Annotative
 70
     0
340
55
1001
AcadAnnotative
1000
AnnotativeData
1002
{
1070
     1
1070
     1
1002
}
  0
DIMSTYLE
105
DA
330
A
100
AcDbSymbolTableRecord
100
AcDbDimStyleTableRecord
  2
Architectural (ANSI)
 70
     0
 40
5.0
 41
0.0984251946210861
 43
0.2362204724409449
 44
0.125
 45
0.00000001
 46
0.3937007874015748
 78
     3
 79
     3
140
0.1000000014901161
146
1.200000047683715
147
0.031496062992126
171
     1
176
   256
177
   256
178
   256
272
     2
274
     1
276
     2
277
     4
284
    12
285
     4
286
    12
340
D6
371
    -1
372
    -1
  0
DIMSTYLE
105
DB
330
A
100
AcDbSymbolTableRecord
100
AcDbDimStyleTableRecord
  2
Architectural (ANSI)$7
 70
     0
 40
5.0
 41
0.0984251946210861
 43
0.2362204724409449
 44
0.125
 45
0.00000001
 46
0.3937007874015748
 78
     3
 79
     3
140
0.1000000014901161
146
1.200000047683715
147
0.031496062992126
171
     1
176
   256
177
   256
178
   256
272
     2
274
     1
276
     2
277
     4
284
    12
285
     4
286
    12
340
D6
371
    -1
372
    -1
  0
DIMSTYLE
105
DC
330
A
100
AcDbSymbolTableRecord
100
AcDbDimStyleTableRecord
  2
Default - Fraction (ANSI)
 70
     0
 40
5.0
 41
0.0984251946210861
 43
0.2362204724409449
 44
0.125
 45
0.00000001
 46
0.3937007874015748
 79
     3
140
0.1000000014901161
146
1.200000047683715
147
0.031496062992126
171
     1
176
   256
177
   256
178
   256
272
     2
274
     1
276
     2
277
     5
284
    12
285
     4
286
    12
340
D6
371
    -1
372
    -1
  0
DIMSTYLE
105
DD
330
A
100
AcDbSymbolTableRecord
100
AcDbDimStyleTableRecord
  2
Default - Fraction (ANSI)$7
 70
     0
 40
5.0
 41
0.0984251946210861
 43
0.2362204724409449
 44
0.125
 45
0.00000001
 46
0.3937007874015748
 79
     3
140
0.1000000014901161
146
1.200000047683715
147
0.031496062992126
171
     1
176
   256
177
   256
178
   256
272
     2
274
     1
276
     2
277
     5
284
    12
285
     4
286
    12
340
D6
371
    -1
372
    -1
  0
DIMSTYLE
105
DE
330
A
100
AcDbSymbolTableRecord
100
AcDbDimStyleTableRecord
  2
Default - mm (ANSI)
 70
     0
 40
5.0
 41
0.0984251946210861
 42
0.063
 43
0.2362204724409449
 44
0.125
 45
0.00000001
 46
0.3937007874015748
 73
     0
 78
     4
 79
     1
140
0.1000000014901161
143
1.0
144
25.4
146
1.200000047683715
147
0.031496062992126
171
     1
176
   256
177
   256
178
   256
179
     1
271
     2
272
     2
274
     1
284
     4
285
     4
340
D6
371
    -1
372
    -1
  0
DIMSTYLE
105
DF
330
A
100
AcDbSymbolTableRecord
100
AcDbDimStyleTableRecord
  2
Default - mm (ANSI)$7
 70
     0
 40
5.0
 41
0.0984251946210861
 42
0.063
 43
0.2362204724409449
 44
0.125
 45
0.00000001
 46
0.3937007874015748
 73
     0
 78
     4
 79
     1
140
0.1000000014901161
143
1.0
144
25.4
146
1.200000047683715
147
0.031496062992126
171
     1
176
   256
177
   256
178
   256
179
     1
271
     2
272
     2
274
     1
284
     4
285
     4
340
D6
371
    -1
372
    -1
  0
DIMSTYLE
105
E0
330
A
100
AcDbSymbolTableRecord
100
AcDbDimStyleTableRecord
  2
Default - mm [in] (ANSI)
 70
     0
  4
 in
 40
5.0
 41
0.0984251946210861
 42
0.063
 43
0.25
 44
0.125
 45
0.00000001
 46
0.3937007874015748
 73
     0
 78
     4
 79
     1
140
0.1000000014901161
143
0.03937
144
25.4
146
1.200000047683715
147
0.031496062992126
170
     1
171
     3
176
   256
177
   256
178
   256
179
     1
271
     2
272
     2
274
     3
284
     4
285
     4
286
     4
340
D6
371
    -1
372
    -1
  0
DIMSTYLE
105
E1
330
A
100
AcDbSymbolTableRecord
100
AcDbDimStyleTableRecord
  2
Default - mm [in] (ANSI)$7
 70
     0
  4
 in
 40
5.0
 41
0.0984251946210861
 42
0.063
 43
0.25
 44
0.125
 45
0.00000001
 46
0.3937007874015748
 73
     0
 78
     4
 79
     1
140
0.1000000014901161
143
0.03937
144
25.4
146
1.200000047683715
147
0.031496062992126
170
     1
171
     3
176
   256
177
   256
178
   256
179
     1
271
     2
272
     2
274
     3
284
     4
285
     4
286
     4
340
D6
371
    -1
372
    -1
  0
DIMSTYLE
105
E2
102
{ACAD_REACTORS
330
2AB
330
3AC
330
4AA
330
594
330
6B8
330
7A7
330
899
330
991
330
A7B
330
B72
330
C5C
330
D48
330
E46
330
F05
330
FEF
330
10D9
330
11C3
330
12B5
330
139F
330
1458
102
}
330
A
100
AcDbSymbolTableRecord
100
AcDbDimStyleTableRecord
  2
Default (ANSI)
 70
     0
 40
5.0
 41
0.0984251946210861
 43
0.2362204724409449
 44
0.125
 45
0.00000001
 46
0.3937007874015748
140
0.1000000014901161
147
0.031496062992126
176
   256
177
   256
178
   256
271
     2
272
     2
340
D7
371
    -1
372
    -1
  0
DIMSTYLE
105
E3
330
A
100
AcDbSymbolTableRecord
100
AcDbDimStyleTableRecord
  2
Default (ANSI)$7
 70
     0
 40
5.0
 41
0.0984251946210861
 43
0.2362204724409449
 44
0.125
 45
0.00000001
 46
0.3937007874015748
140
0.1000000014901161
147
0.031496062992126
176
   256
177
   256
178
   256
271
     2
272
     2
340
D7
371
    -1
372
    -1
  0
DIMSTYLE
105
E4
330
A
100
AcDbSymbolTableRecord
100
AcDbDimStyleTableRecord
  2
Alternate (ANSI)
 70
     0
 40
5.0
 41
0.0979999974370003
340
55
342
E5
  0
DIMSTYLE
105
F7
330
A
100
AcDbSymbolTableRecord
100
AcDbDimStyleTableRecord
  2
Datum (ANSI)
 70
     0
 40
5.0
 41
0.0979999974370003
340
55
342
E5
  0
DIMSTYLE
105
106
330
A
100
AcDbSymbolTableRecord
100
AcDbDimStyleTableRecord
  2
Large (ANSI)
 70
     0
 40
5.0
 41
0.1959999948740005
340
55
342
E5
  0
ENDTAB
  0
TABLE
  2
BLOCK_RECORD
  5
1
330
0
100
AcDbSymbolTable
 70
    24
  0
BLOCK_RECORD
  5
6C
330
1
100
AcDbSymbolTableRecord
100
AcDbBlockTableRecord
  2
*Model_Space
340
6F
  0
BLOCK_RECORD
  5
68
330
1
100
AcDbSymbolTableRecord
100
AcDbBlockTableRecord
  2
*Paper_Space
340
6B
  0
BLOCK_RECORD
  5
70
330
1
100
AcDbSymbolTableRecord
100
AcDbBlockTableRecord
  2
*Paper_Space0
340
73
  0
BLOCK_RECORD
  5
E5
330
1
100
AcDbSymbolTableRecord
100
AcDbBlockTableRecord
  2
_Closed
340
0
  0
BLOCK_RECORD
  5
EC
330
1
100
AcDbSymbolTableRecord
100
AcDbBlockTableRecord
  2
DatumFilled45
340
0
  0
BLOCK_RECORD
  5
F8
330
1
100
AcDbSymbolTableRecord
100
AcDbBlockTableRecord
  2
Filled-1
340
0
  0
BLOCK_RECORD
  5
2AE
330
1
100
AcDbSymbolTableRecord
100
AcDbBlockTableRecord
  2
*D4
340
0
  0
BLOCK_RECORD
  5
3AD
330
1
100
AcDbSymbolTableRecord
100
AcDbBlockTableRecord
  2
*D5
340
0
  0
BLOCK_RECORD
  5
4AB
330
1
100
AcDbSymbolTableRecord
100
AcDbBlockTableRecord
  2
*D6
340
0
  0
BLOCK_RECORD
  5
595
330
1
100
AcDbSymbolTableRecord
100
AcDbBlockTableRecord
  2
*D7
340
0
  0
BLOCK_RECORD
  5
6B9
330
1
100
AcDbSymbolTableRecord
100
AcDbBlockTableRecord
  2
*D8
340
0
  0
BLOCK_RECORD
  5
7A8
330
1
100
AcDbSymbolTableRecord
100
AcDbBlockTableRecord
  2
*D9
340
0
  0
BLOCK_RECORD
  5
89A
330
1
100
AcDbSymbolTableRecord
100
AcDbBlockTableRecord
  2
*D10
340
0
  0
BLOCK_RECORD
  5
992
330
1
100
AcDbSymbolTableRecord
100
AcDbBlockTableRecord
  2
*D11
340
0
  0
BLOCK_RECORD
  5
A7C
330
1
100
AcDbSymbolTableRecord
100
AcDbBlockTableRecord
  2
*D12
340
0
  0
BLOCK_RECORD
  5
B73
330
1
100
AcDbSymbolTableRecord
100
AcDbBlockTableRecord
  2
*D13
340
0
  0
BLOCK_RECORD
  5
C5D
330
1
100
AcDbSymbolTableRecord
100
AcDbBlockTableRecord
  2
*D14
340
0
  0
BLOCK_RECORD
  5
D49
330
1
100
AcDbSymbolTableRecord
100
AcDbBlockTableRecord
  2
*D15
340
0
  0
BLOCK_RECORD
  5
E47
330
1
100
AcDbSymbolTableRecord
100
AcDbBlockTableRecord
  2
*D16
340
0
  0
BLOCK_RECORD
  5
F06
330
1
100
AcDbSymbolTableRecord
100
AcDbBlockTableRecord
  2
*D17
340
0
  0
BLOCK_RECORD
  5
FF0
330
1
100
AcDbSymbolTableRecord
100
AcDbBlockTableRecord
  2
*D18
340
0
  0
BLOCK_RECORD
  5
10DA
330
1
100
AcDbSymbolTableRecord
100
AcDbBlockTableRecord
  2
*D19
340
0
  0
BLOCK_RECORD
  5
11C4
330
1
100
AcDbSymbolTableRecord
100
AcDbBlockTableRecord
  2
*D20
340
0
  0
BLOCK_RECORD
  5
12B6
330
1
100
AcDbSymbolTableRecord
100
AcDbBlockTableRecord
  2
*D21
340
0
  0
BLOCK_RECORD
  5
13A0
330
1
100
AcDbSymbolTableRecord
100
AcDbBlockTableRecord
  2
*D22
340
0
  0
BLOCK_RECORD
  5
1459
330
1
100
AcDbSymbolTableRecord
100
AcDbBlockTableRecord
  2
*D23
340
0
  0
ENDTAB
  0
ENDSEC
  0
SECTION
  2
BLOCKS
  0
BLOCK
  5
6D
330
6C
100
AcDbEntity
  8
0
100
AcDbBlockBegin
  2
*Model_Space
 70
     0
 10
0.0
 20
0.0
 30
0.0
  3
*Model_Space
  1

  0
ENDBLK
  5
6E
330
6C
100
AcDbEntity
  8
0
100
AcDbBlockEnd
  0
BLOCK
  5
69
330
68
100
AcDbEntity
 67
     1
  8
0
100
AcDbBlockBegin
  2
*Paper_Space
 70
     0
 10
0.0
 20
0.0
 30
0.0
  3
*Paper_Space
  1

  0
ENDBLK
  5
6A
330
68
100
AcDbEntity
 67
     1
  8
0
100
AcDbBlockEnd
  0
BLOCK
  5
71
330
70
100
AcDbEntity
 67
     1
  8
0
100
AcDbBlockBegin
  2
*Paper_Space0
 70
     0
 10
0.0
 20
0.0
 30
0.0
  3
*Paper_Space0
  1

  0
ENDBLK
  5
72
330
70
100
AcDbEntity
 67
     1
  8
0
100
AcDbBlockEnd
  0
BLOCK
  5
EA
330
E5
100
AcDbEntity
  8
0
100
AcDbBlockBegin
  2
_Closed
 70
     0
 10
0.0
 20
0.0
 30
0.0
  3
_Closed
  1

  0
LINE
  5
E6
330
E5
100
AcDbEntity
  8
0
  6
ByBlock
 62
     0
370
    -2
100
AcDbLine
 10
-1.0
 20
0.1666666666666666
 30
0.0
 11
0.0
 21
0.0
 31
0.0
  0
LINE
  5
E7
330
E5
100
AcDbEntity
  8
0
  6
ByBlock
 62
     0
370
    -2
100
AcDbLine
 10
0.0
 20
0.0
 30
0.0
 11
-1.0
 21
-0.1666666666666666
 31
0.0
  0
LINE
  5
E8
330
E5
100
AcDbEntity
  8
0
  6
ByBlock
 62
     0
370
    -2
100
AcDbLine
 10
-1.0
 20
0.1666666666666666
 30
0.0
 11
-1.0
 21
-0.1666666666666666
 31
0.0
  0
LINE
  5
E9
330
E5
100
AcDbEntity
  8
0
  6
ByBlock
 62
     0
370
    -2
100
AcDbLine
 10
0.0
 20
0.0
 30
0.0
 11
-1.0
 21
0.0
 31
0.0
  0
ENDBLK
  5
EB
330
E5
100
AcDbEntity
  8
0
100
AcDbBlockEnd
  0
BLOCK
  5
ED
330
EC
100
AcDbEntity
  8
0
100
AcDbBlockBegin
  2
DatumFilled45
 70
     0
 10
0.0
 20
0.0
 30
0.0
  3
DatumFilled45
  1

  0
POLYLINE
  5
EF
330
EC
100
AcDbEntity
  8
0
 62
     0
100
AcDb2dPolyline
 66
     1
 10
0.0
 20
0.0
 30
0.0
 70
   128
  0
VERTEX
  5
F0
330
EF
100
AcDbEntity
  8
0
 62
     0
100
AcDbVertex
100
AcDb2dVertex
 10
0.0
 20
0.9999999999999998
 30
0.0
  0
VERTEX
  5
F1
330
EF
100
AcDbEntity
  8
0
 62
     0
100
AcDbVertex
100
AcDb2dVertex
 10
0.0
 20
-0.9999999999999998
 30
0.0
  0
VERTEX
  5
F3
330
EF
100
AcDbEntity
  8
0
 62
     0
100
AcDbVertex
100
AcDb2dVertex
 10
-0.9999999999999998
 20
0.0
 30
0.0
  0
VERTEX
  5
F4
330
EF
100
AcDbEntity
  8
0
 62
     0
100
AcDbVertex
100
AcDb2dVertex
 10
0.0
 20
0.9999999999999998
 30
0.0
  0
SEQEND
  5
F2
330
EF
100
AcDbEntity
  8
0
 62
     0
  0
SOLID
  5
F6
330
EC
100
AcDbEntity
  8
0
 62
     0
100
AcDbTrace
 10
0.0
 20
0.9999999999999998
 30
0.0
 11
0.0
 21
-0.9999999999999998
 31
0.0
 12
-0.9999999999999998
 22
0.0
 32
0.0
 13
0.0
 23
0.9999999999999998
 33
0.0
  0
ENDBLK
  5
EE
330
EC
100
AcDbEntity
  8
0
100
AcDbBlockEnd
  0
BLOCK
  5
F9
330
F8
100
AcDbEntity
  8
0
100
AcDbBlockBegin
  2
Filled-1
 70
     0
 10
0.0
 20
0.0
 30
0.0
  3
Filled-1
  1

  0
LINE
  5
FB
330
F8
100
AcDbEntity
  8
0
 62
     0
100
AcDbLine
 10
-0.9999999999999998
 20
0.0
 30
0.0
 11
0.0
 21
0.0
 31
0.0
  0
POLYLINE
  5
FC
330
F8
100
AcDbEntity
  8
0
 62
     0
100
AcDb2dPolyline
 66
     1
 10
0.0
 20
0.0
 30
0.0
 70
   128
  0
VERTEX
  5
FD
330
FC
100
AcDbEntity
  8
0
 62
     0
100
AcDbVertex
100
AcDb2dVertex
 10
-0.9999999999999998
 20
-0.0994897959183674
 30
0.0
  0
VERTEX
  5
FE
330
FC
100
AcDbEntity
  8
0
 62
     0
100
AcDbVertex
100
AcDb2dVertex
 10
0.0
 20
0.0
 30
0.0
  0
VERTEX
  5
100
330
FC
100
AcDbEntity
  8
0
 62
     0
100
AcDbVertex
100
AcDb2dVertex
 10
-0.9999999999999998
 20
0.0994897959183674
 30
0.0
  0
VERTEX
  5
101
330
FC
100
AcDbEntity
  8
0
 62
     0
100
AcDbVertex
100
AcDb2dVertex
 10
-0.9999999999999998
 20
-0.0994897959183674
 30
0.0
  0
SEQEND
  5
FF
330
FC
100
AcDbEntity
  8
0
 62
     0
  0
SOLID
  5
102
330
F8
100
AcDbEntity
  8
0
 62
     0
100
AcDbTrace
 10
-0.9999999999999998
 20
-0.0994897959183674
 30
0.0
 11
0.0
 21
0.0
 31
0.0
 12
-0.9999999999999998
 22
0.0994897959183674
 32
0.0
 13
-0.9999999999999998
 23
-0.0994897959183674
 33
0.0
  0
LINE
  5
103
330
F8
100
AcDbEntity
  8
0
 62
     0
100
AcDbLine
 10
-0.9999999999999998
 20
-0.0994897959183674
 30
0.0
 11
0.0
 21
0.0
 31
0.0
  0
LINE
  5
104
330
F8
100
AcDbEntity
  8
0
 62
     0
100
AcDbLine
 10
0.0
 20
0.0
 30
0.0
 11
-0.9999999999999998
 21
0.0994897959183674
 31
0.0
  0
LINE
  5
105
330
F8
100
AcDbEntity
  8
0
 62
     0
100
AcDbLine
 10
-0.9999999999999998
 20
0.0994897959183674
 30
0.0
 11
-0.9999999999999998
 21
-0.0994897959183674
 31
0.0
  0
ENDBLK
  5
FA
330
F8
100
AcDbEntity
  8
0
100
AcDbBlockEnd
  0
BLOCK
  5
2AF
330
2AE
100
AcDbEntity
  8
0
100
AcDbBlockBegin
  2
*D4
 70
     1
 10
0.0
 20
0.0
 30
0.0
  3
*D4
  1

  0
LINE
  5
3A2
330
2AE
100
AcDbEntity
  8
Dimension (ANSI)
440
 16777216
100
AcDbLine
 10
31.90643069254198
 20
33.30834708193492
 30
0.0
 11
28.28561376340807
 21
33.30834708193492
 31
0.0
  0
LINE
  5
3A3
330
2AE
100
AcDbEntity
  8
Dimension (ANSI)
440
 16777216
100
AcDbLine
 10
32.06268069254193
 20
27.30847322313314
 30
0.0
 11
28.28561376340807
 21
27.30847322313314
 31
0.0
  0
LINE
  5
3A4
330
2AE
100
AcDbEntity
  8
Dimension (ANSI)
440
 16777216
100
AcDbLine
 10
28.91061376340807
 20
32.81622110882949
 30
0.0
 11
28.91061376340807
 21
31.13255714409539
 31
0.0
  0
LINE
  5
3A5
330
2AE
100
AcDbEntity
  8
Dimension (ANSI)
440
 16777216
100
AcDbLine
 10
28.91061376340807
 20
27.80059919623857
 30
0.0
 11
28.91061376340807
 21
29.48426316097258
 31
0.0
  0
SOLID
  5
3A6
330
2AE
100
AcDbEntity
  8
Dimension (ANSI)
440
 16777216
100
AcDbTrace
 10
28.8285927678905
 20
32.81622110882949
 30
0.0
 11
28.99263475892564
 21
32.81622110882949
 31
0.0
 12
28.91061376340807
 22
33.30834708193492
 32
0.0
 13
28.91061376340807
 23
33.30834708193492
 33
0.0
  0
SOLID
  5
3A7
330
2AE
100
AcDbEntity
  8
Dimension (ANSI)
440
 16777216
100
AcDbTrace
 10
28.8285927678905
 20
27.80059919623857
 30
0.0
 11
28.99263475892564
 21
27.80059919623857
 31
0.0
 12
28.91061376340807
 22
27.30847322313314
 32
0.0
 13
28.91061376340807
 23
27.30847322313314
 33
0.0
  0
MTEXT
  5
3A8
330
2AE
100
AcDbEntity
  8
Dimension (ANSI)
440
 16777216
100
AcDbMText
 10
28.91061376340807
 20
30.30841015253399
 30
0.0
 40
0.5000000074505806
 41
0.0
 71
     5
 72
     1
  1
\A1;6.00{\PHEIGHT}
  7
ROMANS
 73
     1
 44
1.0
  0
POINT
  5
3A9
330
2AE
100
AcDbEntity
  8
Defpoints
 62
     0
440
 16777216
100
AcDbPoint
 10
32.21893069254198
 20
33.30834708193492
 30
0.0
  0
POINT
  5
3AA
330
2AE
100
AcDbEntity
  8
Defpoints
 62
     0
440
 16777216
100
AcDbPoint
 10
32.37518069254193
 20
27.30847322313314
 30
0.0
  0
POINT
  5
3AB
330
2AE
100
AcDbEntity
  8
Defpoints
 62
     0
440
 16777216
100
AcDbPoint
 10
28.91061376340807
 20
27.30847322313314
 30
0.0
  0
ENDBLK
  5
2B0
330
2AE
100
AcDbEntity
  8
0
100
AcDbBlockEnd
  0
BLOCK
  5
3AE
330
3AD
100
AcDbEntity
  8
0
100
AcDbBlockBegin
  2
*D5
 70
     1
 10
0.0
 20
0.0
 30
0.0
  3
*D5
  1

  0
LINE
  5
4A0
330
3AD
100
AcDbEntity
  8
Dimension (ANSI)
440
 16777216
100
AcDbLine
 10
32.00018069254197
 20
33.40209708193492
 30
0.0
 11
32.00018069254197
 21
36.09113393619307
 31
0.0
  0
LINE
  5
4A1
330
3AD
100
AcDbEntity
  8
Dimension (ANSI)
440
 16777216
100
AcDbLine
 10
42.1251806925419
 20
33.40209708193493
 30
0.0
 11
42.1251806925419
 21
36.09113393619307
 31
0.0
  0
LINE
  5
4A2
330
3AD
100
AcDbEntity
  8
Dimension (ANSI)
440
 16777216
100
AcDbLine
 10
32.49230666564741
 20
35.46613393619307
 30
0.0
 11
35.893295600598
 21
35.46613393619307
 31
0.0
  0
LINE
  5
4A3
330
3AD
100
AcDbEntity
  8
Dimension (ANSI)
440
 16777216
100
AcDbLine
 10
41.63305471943647
 20
35.46613393619307
 30
0.0
 11
38.2320657844859
 21
35.46613393619307
 31
0.0
  0
SOLID
  5
4A4
330
3AD
100
AcDbEntity
  8
Dimension (ANSI)
440
 16777216
100
AcDbTrace
 10
32.49230666564741
 20
35.54815493171064
 30
0.0
 11
32.49230666564741
 21
35.38411294067549
 31
0.0
 12
32.00018069254197
 22
35.46613393619307
 32
0.0
 13
32.00018069254197
 23
35.46613393619307
 33
0.0
  0
SOLID
  5
4A5
330
3AD
100
AcDbEntity
  8
Dimension (ANSI)
440
 16777216
100
AcDbTrace
 10
41.63305471943647
 20
35.54815493171064
 30
0.0
 11
41.63305471943647
 21
35.38411294067549
 31
0.0
 12
42.1251806925419
 22
35.46613393619307
 32
0.0
 13
42.1251806925419
 23
35.46613393619307
 33
0.0
  0
MTEXT
  5
4A6
330
3AD
100
AcDbEntity
  8
Dimension (ANSI)
440
 16777216
100
AcDbMText
 10
37.06268069254195
 20
35.46613393619307
 30
0.0
 40
0.5000000074505806
 41
0.0
 71
     5
 72
     1
  1
\A1;10.13{\PWIDTH}
  7
ROMANS
 73
     1
 44
1.0
  0
POINT
  5
4A7
330
3AD
100
AcDbEntity
  8
Defpoints
 62
     0
440
 16777216
100
AcDbPoint
 10
32.00018069254197
 20
33.08959708193492
 30
0.0
  0
POINT
  5
4A8
330
3AD
100
AcDbEntity
  8
Defpoints
 62
     0
440
 16777216
100
AcDbPoint
 10
42.1251806925419
 20
33.08959708193493
 30
0.0
  0
POINT
  5
4A9
330
3AD
100
AcDbEntity
  8
Defpoints
 62
     0
440
 16777216
100
AcDbPoint
 10
42.1251806925419
 20
35.46613393619307
 30
0.0
  0
ENDBLK
  5
3AF
330
3AD
100
AcDbEntity
  8
0
100
AcDbBlockEnd
  0
BLOCK
  5
4AC
330
4AB
100
AcDbEntity
  8
0
100
AcDbBlockBegin
  2
*D6
 70
     1
 10
0.0
 20
0.0
 30
0.0
  3
*D6
  1

  0
LINE
  5
58A
330
4AB
100
AcDbEntity
  8
Dimension (ANSI)
440
 16777216
100
AcDbLine
 10
10.90175760643695
 20
33.40209708193492
 30
0.0
 11
10.90175760643695
 21
36.90455230310585
 31
0.0
  0
LINE
  5
58B
330
4AB
100
AcDbEntity
  8
Dimension (ANSI)
440
 16777216
100
AcDbLine
 10
18.90175760643695
 20
33.62084708193492
 30
0.0
 11
18.90175760643695
 21
36.90455230310585
 31
0.0
  0
LINE
  5
58C
330
4AB
100
AcDbEntity
  8
Dimension (ANSI)
440
 16777216
100
AcDbLine
 10
11.39388357954238
 20
36.27955230310585
 30
0.0
 11
13.98237251821829
 21
36.27955230310585
 31
0.0
  0
LINE
  5
58D
330
4AB
100
AcDbEntity
  8
Dimension (ANSI)
440
 16777216
100
AcDbLine
 10
18.40963163333152
 20
36.27955230310585
 30
0.0
 11
15.8211426946556
 21
36.27955230310585
 31
0.0
  0
SOLID
  5
58E
330
4AB
100
AcDbEntity
  8
Dimension (ANSI)
440
 16777216
100
AcDbTrace
 10
11.39388357954238
 20
36.36157329862343
 30
0.0
 11
11.39388357954238
 21
36.19753130758828
 31
0.0
 12
10.90175760643695
 22
36.27955230310585
 32
0.0
 13
10.90175760643695
 23
36.27955230310585
 33
0.0
  0
SOLID
  5
58F
330
4AB
100
AcDbEntity
  8
Dimension (ANSI)
440
 16777216
100
AcDbTrace
 10
18.40963163333152
 20
36.36157329862343
 30
0.0
 11
18.40963163333152
 21
36.19753130758828
 31
0.0
 12
18.90175760643695
 22
36.27955230310585
 32
0.0
 13
18.90175760643695
 23
36.27955230310585
 33
0.0
  0
MTEXT
  5
590
330
4AB
100
AcDbEntity
  8
Dimension (ANSI)
440
 16777216
100
AcDbMText
 10
14.13985283317892
 20
36.52955230683114
 30
0.0
 40
0.5000000074505806
 41
0.0
 71
     1
 72
     1
  1
\A1;8.00
  7
ROMANS
 73
     1
 44
1.0
  0
POINT
  5
591
330
4AB
100
AcDbEntity
  8
Defpoints
 62
     0
440
 16777216
100
AcDbPoint
 10
10.90175760643695
 20
33.08959708193492
 30
0.0
  0
POINT
  5
592
330
4AB
100
AcDbEntity
  8
Defpoints
 62
     0
440
 16777216
100
AcDbPoint
 10
18.90175760643695
 20
33.30834708193492
 30
0.0
  0
POINT
  5
593
330
4AB
100
AcDbEntity
  8
Defpoints
 62
     0
440
 16777216
100
AcDbPoint
 10
18.90175760643695
 20
36.27955230310585
 30
0.0
  0
ENDBLK
  5
4AD
330
4AB
100
AcDbEntity
  8
0
100
AcDbBlockEnd
  0
BLOCK
  5
596
330
595
100
AcDbEntity
  8
0
100
AcDbBlockBegin
  2
*D7
 70
     1
 10
0.0
 20
0.0
 30
0.0
  3
*D7
  1

  0
LINE
  5
6AD
330
595
100
AcDbEntity
  8
Dimension (ANSI)
440
 16777216
100
AcDbLine
 10
19.60243328211256
 20
33.30834708193493
 30
0.0
 11
23.21345777674368
 21
33.3083470819349
 31
0.0
  0
LINE
  5
6AE
330
595
100
AcDbEntity
  8
Dimension (ANSI)
440
 16777216
100
AcDbLine
 10
19.1817677233318
 20
33.89900132608426
 30
0.0
 11
20.36233839907488
 21
37.31158843565398
 31
0.0
  0
ARC
  5
6AF
330
595
100
AcDbEntity
  8
Dimension (ANSI)
440
 16777216
100
AcDbCircle
 10
18.97743328211257
 20
33.30834708193493
 30
0.0
 40
3.611024494631101
100
AcDbArc
 50
7.814571252432552
 51
27.85728080605905
  0
ARC
  5
6B0
330
595
100
AcDbEntity
  8
Dimension (ANSI)
440
 16777216
100
AcDbCircle
 10
18.97743328211257
 20
33.30834708193493
 30
0.0
 40
3.611024494631101
100
AcDbArc
 50
43.8646851601148
 51
63.10257465626289
  0
SOLID
  5
6B1
330
595
100
AcDbEntity
  8
Dimension (ANSI)
440
 16777216
100
AcDbTrace
 10
22.63675360071244
 20
33.80491825558259
 30
0.0
 11
22.47309290526082
 21
33.79374008099691
 31
0.0
 12
22.58845777674367
 22
33.3083470819349
 32
0.0
 13
22.58845777674367
 23
33.3083470819349
 33
0.0
  0
SOLID
  5
6B2
330
595
100
AcDbEntity
  8
Dimension (ANSI)
440
 16777216
100
AcDbTrace
 10
20.57900622733654
 20
36.45321697838119
 30
0.0
 11
20.6430765521614
 21
36.60422945567898
 31
0.0
 12
20.15800395785563
 22
36.72093419150464
 32
0.0
 13
20.15800395785563
 23
36.72093419150464
 33
0.0
  0
MTEXT
  5
6B3
330
595
100
AcDbEntity
  8
Dimension (ANSI)
440
 16777216
100
AcDbMText
 10
21.41873974701219
 20
35.65315355322149
 30
0.0
 40
0.5000000074505806
 41
0.0
 71
     1
 72
     1
  1
\A1;71\U+00B0
  7
ROMANS
 73
     1
 44
1.0
  0
POINT
  5
6B4
330
595
100
AcDbEntity
  8
Defpoints
 62
     0
440
 16777216
100
AcDbPoint
 10
18.97743328211257
 20
33.30834708193493
 30
0.0
  0
POINT
  5
6B5
330
595
100
AcDbEntity
  8
Defpoints
 62
     0
440
 16777216
100
AcDbPoint
 10
19.28993328211256
 20
33.30834708193493
 30
0.0
  0
POINT
  5
6B6
330
595
100
AcDbEntity
  8
Defpoints
 62
     0
440
 16777216
100
AcDbPoint
 10
19.07960050272219
 20
33.60367420400959
 30
0.0
  0
POINT
  5
6B7
330
595
100
AcDbEntity
  8
Defpoints
 62
     0
440
 16777216
100
AcDbPoint
 10
22.28545551248158
 20
34.75627208835282
 30
0.0
  0
ENDBLK
  5
597
330
595
100
AcDbEntity
  8
0
100
AcDbBlockEnd
  0
BLOCK
  5
6BA
330
6B9
100
AcDbEntity
  8
0
100
AcDbBlockBegin
  2
*D8
 70
     1
 10
0.0
 20
0.0
 30
0.0
  3
*D8
  1

  0
LINE
  5
79F
330
6B9
100
AcDbEntity
  8
Dimension (ANSI)
440
 16777216
100
AcDbLine
 10
40.38305471943956
 20
42.59495345029606
 30
0.0
 11
39.89092874633413
 21
42.59495345029606
 31
0.0
  0
LINE
  5
7A0
330
6B9
100
AcDbEntity
  8
Dimension (ANSI)
440
 16777216
100
AcDbLine
 10
42.61730666565042
 20
42.59495345029606
 30
0.0
 11
43.7612457531272
 21
42.59495345029606
 31
0.0
  0
SOLID
  5
7A1
330
6B9
100
AcDbEntity
  8
Dimension (ANSI)
440
 16777216
100
AcDbTrace
 10
40.38305471943956
 20
42.67697444581363
 30
0.0
 11
40.38305471943956
 21
42.51293245477849
 31
0.0
 12
40.87518069254499
 22
42.59495345029606
 32
0.0
 13
40.87518069254499
 23
42.59495345029606
 33
0.0
  0
SOLID
  5
7A2
330
6B9
100
AcDbEntity
  8
Dimension (ANSI)
440
 16777216
100
AcDbTrace
 10
42.61730666565042
 20
42.67697444581363
 30
0.0
 11
42.61730666565042
 21
42.51293245477849
 31
0.0
 12
42.12518069254499
 22
42.59495345029606
 32
0.0
 13
42.12518069254499
 23
42.59495345029606
 33
0.0
  0
MTEXT
  5
7A3
330
6B9
100
AcDbEntity
  8
Dimension (ANSI)
440
 16777216
100
AcDbMText
 10
45.21634513504291
 20
42.59495345029606
 30
0.0
 40
0.5000000074505806
 41
0.0
 71
     5
 72
     1
  1
\A1;1.25{\P(2 PL.)}
  7
ROMANS
 73
     1
 44
1.0
  0
POINT
  5
7A4
330
6B9
100
AcDbEntity
  8
Defpoints
 62
     0
440
 16777216
100
AcDbPoint
 10
40.87518069254499
 20
42.80649397455728
 30
0.0
  0
POINT
  5
7A5
330
6B9
100
AcDbEntity
  8
Defpoints
 62
     0
440
 16777216
100
AcDbPoint
 10
42.12518069254499
 20
42.80649397455728
 30
0.0
  0
POINT
  5
7A6
330
6B9
100
AcDbEntity
  8
Defpoints
 62
     0
440
 16777216
100
AcDbPoint
 10
42.12518069254499
 20
42.59495345029606
 30
0.0
  0
ENDBLK
  5
6BB
330
6B9
100
AcDbEntity
  8
0
100
AcDbBlockEnd
  0
BLOCK
  5
7A9
330
7A8
100
AcDbEntity
  8
0
100
AcDbBlockBegin
  2
*D9
 70
     1
 10
0.0
 20
0.0
 30
0.0
  3
*D9
  1

  0
LINE
  5
888
330
7A8
100
AcDbEntity
  8
Dimension (ANSI)
440
 16777216
100
AcDbLine
 10
35.17078051861798
 20
41.9561488907124
 30
0.0
 11
35.17078051861798
 21
42.44827486381783
 31
0.0
  0
LINE
  5
889
330
7A8
100
AcDbEntity
  8
Dimension (ANSI)
440
 16777216
100
AcDbLine
 10
35.17078051861798
 20
39.72189694450161
 30
0.0
 11
35.17078051861798
 21
39.22977097139618
 31
0.0
  0
SOLID
  5
88A
330
7A8
100
AcDbEntity
  8
Dimension (ANSI)
440
 16777216
100
AcDbTrace
 10
35.0887595231004
 20
41.9561488907124
 30
0.0
 11
35.25280151413555
 21
41.9561488907124
 31
0.0
 12
35.17078051861798
 22
41.46402291760697
 32
0.0
 13
35.17078051861798
 23
41.46402291760697
 33
0.0
  0
SOLID
  5
88B
330
7A8
100
AcDbEntity
  8
Dimension (ANSI)
440
 16777216
100
AcDbTrace
 10
35.0887595231004
 20
39.72189694450161
 30
0.0
 11
35.25280151413555
 21
39.72189694450161
 31
0.0
 12
35.17078051861798
 22
40.21402291760703
 32
0.0
 13
35.17078051861798
 23
40.21402291760703
 33
0.0
  0
MTEXT
  5
88C
330
7A8
100
AcDbEntity
  8
Dimension (ANSI)
440
 16777216
100
AcDbMText
 10
34.44459003160641
 20
41.0890229213323
 30
0.0
 40
0.5000000074505806
 41
0.0
 71
     1
 72
     1
  1
\A1;1.25
  7
ROMANS
 73
     1
 44
1.0
  0
POINT
  5
88D
330
7A8
100
AcDbEntity
  8
Defpoints
 62
     0
440
 16777216
100
AcDbPoint
 10
34.82864645433337
 20
41.46402291760697
 30
0.0
  0
POINT
  5
88E
330
7A8
100
AcDbEntity
  8
Defpoints
 62
     0
440
 16777216
100
AcDbPoint
 10
34.99016441143758
 20
40.21402291760703
 30
0.0
  0
POINT
  5
88F
330
7A8
100
AcDbEntity
  8
Defpoints
 62
     0
440
 16777216
100
AcDbPoint
 10
35.17078051861798
 20
40.21402291760703
 30
0.0
  0
ENDBLK
  5
7AA
330
7A8
100
AcDbEntity
  8
0
100
AcDbBlockEnd
  0
BLOCK
  5
89B
330
89A
100
AcDbEntity
  8
0
100
AcDbBlockBegin
  2
*D10
 70
     1
 10
0.0
 20
0.0
 30
0.0
  3
*D10
  1

  0
LINE
  5
986
330
89A
100
AcDbEntity
  8
Dimension (ANSI)
440
 16777216
100
AcDbLine
 10
31.90643069253878
 20
19.5253071310184
 30
0.0
 11
29.52169834585752
 21
19.5253071310184
 31
0.0
  0
LINE
  5
987
330
89A
100
AcDbEntity
  8
Dimension (ANSI)
440
 16777216
100
AcDbLine
 10
31.46893069253878
 20
17.52530713101846
 30
0.0
 11
29.52169834585752
 21
17.52530713101846
 31
0.0
  0
LINE
  5
988
330
89A
100
AcDbEntity
  8
Dimension (ANSI)
440
 16777216
100
AcDbLine
 10
30.14669834585752
 20
19.03318115791297
 30
0.0
 11
30.14669834585752
 21
18.01743310412389
 31
0.0
  0
LINE
  5
989
330
89A
100
AcDbEntity
  8
Dimension (ANSI)
440
 16777216
100
AcDbLine
 10
30.14669834585752
 20
17.52530713101846
 30
0.0
 11
30.14669834585752
 21
16.66888054194024
 31
0.0
  0
LINE
  5
98A
330
89A
100
AcDbEntity
  8
Dimension (ANSI)
440
 16777216
100
AcDbLine
 10
30.14669834585752
 20
16.66888054194024
 30
0.0
 11
29.65457237275209
 21
16.66888054194024
 31
0.0
  0
SOLID
  5
98B
330
89A
100
AcDbEntity
  8
Dimension (ANSI)
440
 16777216
100
AcDbTrace
 10
30.06467735033995
 20
19.03318115791297
 30
0.0
 11
30.22871934137509
 21
19.03318115791297
 31
0.0
 12
30.14669834585752
 22
19.5253071310184
 32
0.0
 13
30.14669834585752
 23
19.5253071310184
 33
0.0
  0
SOLID
  5
98C
330
89A
100
AcDbEntity
  8
Dimension (ANSI)
440
 16777216
100
AcDbTrace
 10
30.06467735033995
 20
18.01743310412389
 30
0.0
 11
30.22871934137509
 21
18.01743310412389
 31
0.0
 12
30.14669834585752
 22
17.52530713101846
 32
0.0
 13
30.14669834585752
 23
17.52530713101846
 33
0.0
  0
MTEXT
  5
98D
330
89A
100
AcDbEntity
  8
Dimension (ANSI)
440
 16777216
100
AcDbMText
 10
27.9732825112754
 20
16.91888054566554
 30
0.0
 40
0.5000000074505806
 41
0.0
 71
     1
 72
     1
  1
\A1;2.00
  7
ROMANS
 73
     1
 44
1.0
  0
POINT
  5
98E
330
89A
100
AcDbEntity
  8
Defpoints
 62
     0
440
 16777216
100
AcDbPoint
 10
32.21893069253879
 20
19.5253071310184
 30
0.0
  0
POINT
  5
98F
330
89A
100
AcDbEntity
  8
Defpoints
 62
     0
440
 16777216
100
AcDbPoint
 10
31.78143069253878
 20
17.52530713101846
 30
0.0
  0
POINT
  5
990
330
89A
100
AcDbEntity
  8
Defpoints
 62
     0
440
 16777216
100
AcDbPoint
 10
30.14669834585752
 20
17.52530713101846
 30
0.0
  0
ENDBLK
  5
89C
330
89A
100
AcDbEntity
  8
0
100
AcDbBlockEnd
  0
BLOCK
  5
993
330
992
100
AcDbEntity
  8
0
100
AcDbBlockBegin
  2
*D11
 70
     1
 10
0.0
 20
0.0
 30
0.0
  3
*D11
  1

  0
LINE
  5
A71
330
992
100
AcDbEntity
  8
Dimension (ANSI)
440
 16777216
100
AcDbLine
 10
31.90643069253878
 20
19.5253071310184
 30
0.0
 11
25.71790623647866
 21
19.5253071310184
 31
0.0
  0
LINE
  5
A72
330
992
100
AcDbEntity
  8
Dimension (ANSI)
440
 16777216
100
AcDbLine
 10
31.46893069253878
 20
12.52530713101846
 30
0.0
 11
25.71790623647866
 21
12.52530713101846
 31
0.0
  0
LINE
  5
A73
330
992
100
AcDbEntity
  8
Dimension (ANSI)
440
 16777216
100
AcDbLine
 10
26.34290623647866
 20
19.03318115791297
 30
0.0
 11
26.34290623647866
 21
16.43278744970434
 31
0.0
  0
LINE
  5
A74
330
992
100
AcDbEntity
  8
Dimension (ANSI)
440
 16777216
100
AcDbLine
 10
26.34290623647866
 20
13.01743310412389
 30
0.0
 11
26.34290623647866
 21
15.6178268123325
 31
0.0
  0
SOLID
  5
A75
330
992
100
AcDbEntity
  8
Dimension (ANSI)
440
 16777216
100
AcDbTrace
 10
26.26088524096108
 20
19.03318115791297
 30
0.0
 11
26.42492723199623
 21
19.03318115791297
 31
0.0
 12
26.34290623647866
 22
19.5253071310184
 32
0.0
 13
26.34290623647866
 23
19.5253071310184
 33
0.0
  0
SOLID
  5
A76
330
992
100
AcDbEntity
  8
Dimension (ANSI)
440
 16777216
100
AcDbTrace
 10
26.26088524096108
 20
13.01743310412389
 30
0.0
 11
26.42492723199623
 21
13.01743310412389
 31
0.0
 12
26.34290623647866
 22
12.52530713101846
 32
0.0
 13
26.34290623647866
 23
12.52530713101846
 33
0.0
  0
MTEXT
  5
A77
330
992
100
AcDbEntity
  8
Dimension (ANSI)
440
 16777216
100
AcDbMText
 10
25.58100146322062
 20
16.27530713474372
 30
0.0
 40
0.5000000074505806
 41
0.0
 71
     1
 72
     1
  1
\A1;7.00
  7
ROMANS
 73
     1
 44
1.0
  0
POINT
  5
A78
330
992
100
AcDbEntity
  8
Defpoints
 62
     0
440
 16777216
100
AcDbPoint
 10
32.21893069253879
 20
19.5253071310184
 30
0.0
  0
POINT
  5
A79
330
992
100
AcDbEntity
  8
Defpoints
 62
     0
440
 16777216
100
AcDbPoint
 10
31.78143069253878
 20
12.52530713101846
 30
0.0
  0
POINT
  5
A7A
330
992
100
AcDbEntity
  8
Defpoints
 62
     0
440
 16777216
100
AcDbPoint
 10
26.34290623647866
 20
12.52530713101846
 30
0.0
  0
ENDBLK
  5
994
330
992
100
AcDbEntity
  8
0
100
AcDbBlockEnd
  0
BLOCK
  5
A7D
330
A7C
100
AcDbEntity
  8
0
100
AcDbBlockBegin
  2
*D12
 70
     1
 10
0.0
 20
0.0
 30
0.0
  3
*D12
  1

  0
LINE
  5
B69
330
A7C
100
AcDbEntity
  8
Dimension (ANSI)
440
 16777216
100
AcDbLine
 10
34.24682089645371
 20
18.34568115791304
 30
0.0
 11
34.24682089645371
 21
17.85355518480761
 31
0.0
  0
LINE
  5
B6A
330
A7C
100
AcDbEntity
  8
Dimension (ANSI)
440
 16777216
100
AcDbLine
 10
34.24682089645371
 20
20.01743310412384
 30
0.0
 11
34.24682089645371
 21
20.75521321383436
 31
0.0
  0
LINE
  5
B6B
330
A7C
100
AcDbEntity
  8
Dimension (ANSI)
440
 16777216
100
AcDbLine
 10
34.24682089645371
 20
20.75521321383436
 30
0.0
 11
34.73894686955914
 21
20.75521321383436
 31
0.0
  0
SOLID
  5
B6C
330
A7C
100
AcDbEntity
  8
Dimension (ANSI)
440
 16777216
100
AcDbTrace
 10
34.16479990093614
 20
18.34568115791304
 30
0.0
 11
34.32884189197129
 21
18.34568115791304
 31
0.0
 12
34.24682089645371
 22
18.83780713101847
 32
0.0
 13
34.24682089645371
 23
18.83780713101847
 33
0.0
  0
SOLID
  5
B6D
330
A7C
100
AcDbEntity
  8
Dimension (ANSI)
440
 16777216
100
AcDbTrace
 10
34.16479990093614
 20
20.01743310412384
 30
0.0
 11
34.32884189197129
 21
20.01743310412384
 31
0.0
 12
34.24682089645371
 22
19.5253071310184
 32
0.0
 13
34.24682089645371
 23
19.5253071310184
 33
0.0
  0
MTEXT
  5
B6E
330
A7C
100
AcDbEntity
  8
Dimension (ANSI)
440
 16777216
100
AcDbMText
 10
34.89642718451977
 20
21.00521321755966
 30
0.0
 40
0.5000000074505806
 41
0.0
 71
     1
 72
     1
  1
\A1;0.69
  7
ROMANS
 73
     1
 44
1.0
  0
POINT
  5
B6F
330
A7C
100
AcDbEntity
  8
Defpoints
 62
     0
440
 16777216
100
AcDbPoint
 10
41.90643069253877
 20
19.5253071310184
 30
0.0
  0
POINT
  5
B70
330
A7C
100
AcDbEntity
  8
Defpoints
 62
     0
440
 16777216
100
AcDbPoint
 10
40.78143069253877
 20
18.83780713101847
 30
0.0
  0
POINT
  5
B71
330
A7C
100
AcDbEntity
  8
Defpoints
 62
     0
440
 16777216
100
AcDbPoint
 10
34.24682089645371
 20
18.83780713101847
 30
0.0
  0
ENDBLK
  5
A7E
330
A7C
100
AcDbEntity
  8
0
100
AcDbBlockEnd
  0
BLOCK
  5
B74
330
B73
100
AcDbEntity
  8
0
100
AcDbBlockBegin
  2
*D13
 70
     1
 10
0.0
 20
0.0
 30
0.0
  3
*D13
  1

  0
LINE
  5
C52
330
B73
100
AcDbEntity
  8
Dimension (ANSI)
440
 16777216
100
AcDbLine
 10
42.12518069253877
 20
19.6190571310184
 30
0.0
 11
42.12518069253877
 21
22.54153955469897
 31
0.0
  0
LINE
  5
C53
330
B73
100
AcDbEntity
  8
Dimension (ANSI)
440
 16777216
100
AcDbLine
 10
39.87518069253877
 20
20.05655713101847
 30
0.0
 11
39.87518069253877
 21
22.54153955469897
 31
0.0
  0
LINE
  5
C54
330
B73
100
AcDbEntity
  8
Dimension (ANSI)
440
 16777216
100
AcDbLine
 10
40.3673066656442
 20
21.91653955469897
 30
0.0
 11
41.63305471943334
 21
21.91653955469897
 31
0.0
  0
LINE
  5
C55
330
B73
100
AcDbEntity
  8
Dimension (ANSI)
440
 16777216
100
AcDbLine
 10
42.12518069253877
 20
21.91653955469897
 30
0.0
 11
42.95928694239854
 21
21.91653955469897
 31
0.0
  0
SOLID
  5
C56
330
B73
100
AcDbEntity
  8
Dimension (ANSI)
440
 16777216
100
AcDbTrace
 10
40.3673066656442
 20
21.99856055021653
 30
0.0
 11
40.3673066656442
 21
21.83451855918139
 31
0.0
 12
39.87518069253877
 22
21.91653955469897
 32
0.0
 13
39.87518069253877
 23
21.91653955469897
 33
0.0
  0
SOLID
  5
C57
330
B73
100
AcDbEntity
  8
Dimension (ANSI)
440
 16777216
100
AcDbTrace
 10
41.63305471943334
 20
21.99856055021653
 30
0.0
 11
41.63305471943334
 21
21.83451855918139
 31
0.0
 12
42.12518069253877
 22
21.91653955469897
 32
0.0
 13
42.12518069253877
 23
21.91653955469897
 33
0.0
  0
MTEXT
  5
C58
330
B73
100
AcDbEntity
  8
Dimension (ANSI)
440
 16777216
100
AcDbMText
 10
43.11676725735917
 20
22.16653955842426
 30
0.0
 40
0.5000000074505806
 41
0.0
 71
     1
 72
     1
  1
\A1;2.25
  7
ROMANS
 73
     1
 44
1.0
  0
POINT
  5
C59
330
B73
100
AcDbEntity
  8
Defpoints
 62
     0
440
 16777216
100
AcDbPoint
 10
42.12518069253877
 20
19.3065571310184
 30
0.0
  0
POINT
  5
C5A
330
B73
100
AcDbEntity
  8
Defpoints
 62
     0
440
 16777216
100
AcDbPoint
 10
39.87518069253877
 20
19.74405713101847
 30
0.0
  0
POINT
  5
C5B
330
B73
100
AcDbEntity
  8
Defpoints
 62
     0
440
 16777216
100
AcDbPoint
 10
39.87518069253877
 20
21.91653955469897
 30
0.0
  0
ENDBLK
  5
B75
330
B73
100
AcDbEntity
  8
0
100
AcDbBlockEnd
  0
BLOCK
  5
C5E
330
C5D
100
AcDbEntity
  8
0
100
AcDbBlockBegin
  2
*D14
 70
     1
 10
0.0
 20
0.0
 30
0.0
  3
*D14
  1

  0
LINE
  5
D3C
330
C5D
100
AcDbEntity
  8
Dimension (ANSI)
440
 16777216
100
AcDbLine
 10
32.00018069253879
 20
19.6190571310184
 30
0.0
 11
32.00018069253879
 21
22.54153955469897
 31
0.0
  0
LINE
  5
D3D
330
C5D
100
AcDbEntity
  8
Dimension (ANSI)
440
 16777216
100
AcDbLine
 10
34.25018069253879
 20
20.05655713101847
 30
0.0
 11
34.25018069253879
 21
22.54153955469897
 31
0.0
  0
LINE
  5
D3E
330
C5D
100
AcDbEntity
  8
Dimension (ANSI)
440
 16777216
100
AcDbLine
 10
33.75805471943336
 20
21.91653955469897
 30
0.0
 11
32.49230666564422
 21
21.91653955469897
 31
0.0
  0
LINE
  5
D3F
330
C5D
100
AcDbEntity
  8
Dimension (ANSI)
440
 16777216
100
AcDbLine
 10
32.00018069253879
 20
21.91653955469897
 30
0.0
 11
31.16607444267901
 21
21.91653955469897
 31
0.0
  0
SOLID
  5
D40
330
C5D
100
AcDbEntity
  8
Dimension (ANSI)
440
 16777216
100
AcDbTrace
 10
33.75805471943336
 20
21.99856055021653
 30
0.0
 11
33.75805471943336
 21
21.83451855918139
 31
0.0
 12
34.25018069253879
 22
21.91653955469897
 32
0.0
 13
34.25018069253879
 23
21.91653955469897
 33
0.0
  0
SOLID
  5
D41
330
C5D
100
AcDbEntity
  8
Dimension (ANSI)
440
 16777216
100
AcDbTrace
 10
32.49230666564422
 20
21.99856055021653
 30
0.0
 11
32.49230666564422
 21
21.83451855918139
 31
0.0
 12
32.00018069253879
 22
21.91653955469897
 32
0.0
 13
32.00018069253879
 23
21.91653955469897
 33
0.0
  0
MTEXT
  5
D42
330
C5D
100
AcDbEntity
  8
Dimension (ANSI)
440
 16777216
100
AcDbMText
 10
29.48478458120232
 20
22.16653955842426
 30
0.0
 40
0.5000000074505806
 41
0.0
 71
     1
 72
     1
  1
\A1;2.25
  7
ROMANS
 73
     1
 44
1.0
  0
POINT
  5
D43
330
C5D
100
AcDbEntity
  8
Defpoints
 62
     0
440
 16777216
100
AcDbPoint
 10
32.00018069253879
 20
19.3065571310184
 30
0.0
  0
POINT
  5
D44
330
C5D
100
AcDbEntity
  8
Defpoints
 62
     0
440
 16777216
100
AcDbPoint
 10
34.25018069253879
 20
19.74405713101847
 30
0.0
  0
POINT
  5
D45
330
C5D
100
AcDbEntity
  8
Defpoints
 62
     0
440
 16777216
100
AcDbPoint
 10
34.25018069253879
 20
21.91653955469897
 30
0.0
  0
ENDBLK
  5
C5F
330
C5D
100
AcDbEntity
  8
0
100
AcDbBlockEnd
  0
BLOCK
  5
D4A
330
D49
100
AcDbEntity
  8
0
100
AcDbBlockBegin
  2
*D15
 70
     1
 10
0.0
 20
0.0
 30
0.0
  3
*D15
  1

  0
LINE
  5
E3C
330
D49
100
AcDbEntity
  8
Dimension (ANSI)
440
 16777216
100
AcDbLine
 10
32.00018069253879
 20
11.2128071310184
 30
0.0
 11
32.00018069253879
 21
10.14701026901846
 31
0.0
  0
LINE
  5
E3D
330
D49
100
AcDbEntity
  8
Dimension (ANSI)
440
 16777216
100
AcDbLine
 10
32.68768069253878
 20
11.30655713101846
 30
0.0
 11
32.68768069253878
 21
10.14701026901846
 31
0.0
  0
LINE
  5
E3E
330
D49
100
AcDbEntity
  8
Dimension (ANSI)
440
 16777216
100
AcDbLine
 10
33.17980666564421
 20
10.77201026901846
 30
0.0
 11
33.67193263874964
 21
10.77201026901846
 31
0.0
  0
LINE
  5
E3F
330
D49
100
AcDbEntity
  8
Dimension (ANSI)
440
 16777216
100
AcDbLine
 10
31.50805471943336
 20
10.77201026901846
 30
0.0
 11
30.36411563195658
 21
10.77201026901846
 31
0.0
  0
SOLID
  5
E40
330
D49
100
AcDbEntity
  8
Dimension (ANSI)
440
 16777216
100
AcDbTrace
 10
33.17980666564421
 20
10.85403126453603
 30
0.0
 11
33.17980666564421
 21
10.68998927350088
 31
0.0
 12
32.68768069253878
 22
10.77201026901846
 32
0.0
 13
32.68768069253878
 23
10.77201026901846
 33
0.0
  0
SOLID
  5
E41
330
D49
100
AcDbEntity
  8
Dimension (ANSI)
440
 16777216
100
AcDbTrace
 10
31.50805471943336
 20
10.85403126453603
 30
0.0
 11
31.50805471943336
 21
10.68998927350088
 31
0.0
 12
32.00018069253879
 22
10.77201026901846
 32
0.0
 13
32.00018069253879
 23
10.77201026901846
 33
0.0
  0
MTEXT
  5
E42
330
D49
100
AcDbEntity
  8
Dimension (ANSI)
440
 16777216
100
AcDbMText
 10
28.90901625004087
 20
10.77201026901846
 30
0.0
 40
0.5000000074505806
 41
0.0
 71
     5
 72
     1
  1
\A1;0.69{\P(2 PL.)}
  7
ROMANS
 73
     1
 44
1.0
  0
POINT
  5
E43
330
D49
100
AcDbEntity
  8
Defpoints
 62
     0
440
 16777216
100
AcDbPoint
 10
32.00018069253879
 20
11.5253071310184
 30
0.0
  0
POINT
  5
E44
330
D49
100
AcDbEntity
  8
Defpoints
 62
     0
440
 16777216
100
AcDbPoint
 10
32.68768069253878
 20
11.61905713101846
 30
0.0
  0
POINT
  5
E45
330
D49
100
AcDbEntity
  8
Defpoints
 62
     0
440
 16777216
100
AcDbPoint
 10
32.68768069253878
 20
10.77201026901846
 30
0.0
  0
ENDBLK
  5
D4B
330
D49
100
AcDbEntity
  8
0
100
AcDbBlockEnd
  0
BLOCK
  5
E48
330
E47
100
AcDbEntity
  8
0
100
AcDbBlockBegin
  2
*D16
 70
     1
 10
0.0
 20
0.0
 30
0.0
  3
*D16
  1

  0
LINE
  5
EF8
330
E47
100
AcDbEntity
  8
Dimension (ANSI)
440
 16777216
100
AcDbLine
 10
44.26303522773838
 20
15.22429250181856
 30
0.0
 11
43.55237143801468
 21
15.22429250181856
 31
0.0
  0
LINE
  5
EF9
330
E47
100
AcDbEntity
  8
Dimension (ANSI)
440
 16777216
100
AcDbLine
 10
43.55237143801468
 20
15.22429250181856
 30
0.0
 11
41.91466011470864
 21
13.13407722440611
 31
0.0
  0
MTEXT
  5
EFA
102
{ACAD_XDICTIONARY
360
158C
102
}
330
E47
100
AcDbEntity
  8
Dimension (ANSI)
440
 16777216
100
AcDbMText
 10
45.7181346096541
 20
15.22429250181856
 30
0.0
 40
0.5000000074505806
 41
0.0
 71
     5
 72
     1
  1
\A1;\U+22050.563{\P(6 PL.)}
  7
ROMANS
 73
     1
 44
1.0
  0
SOLID
  5
EFB
330
E47
100
AcDbEntity
  8
Dimension (ANSI)
440
 16777216
100
AcDbTrace
 10
41.85009652489283
 20
13.18466365120016
 30
0.0
 11
41.97922370452444
 21
13.08349079761206
 31
0.0
 12
41.61114155394434
 22
12.74669568551127
 32
0.0
 13
41.61114155394434
 23
12.74669568551127
 33
0.0
  0
LINE
  5
EFC
330
E47
100
AcDbEntity
  8
Dimension (ANSI)
440
 16777216
100
AcDbLine
 10
40.98768069253869
 20
12.52530713101846
 30
0.0
 11
41.88768069253869
 21
12.52530713101847
 31
0.0
  0
LINE
  5
EFD
330
E47
100
AcDbEntity
  8
Dimension (ANSI)
440
 16777216
100
AcDbLine
 10
41.43768069253868
 20
12.07530713101847
 30
0.0
 11
41.43768069253868
 21
12.97530713101846
 31
0.0
  0
POINT
  5
EFE
330
E47
100
AcDbEntity
  8
Defpoints
 62
     0
440
 16777216
100
AcDbPoint
 10
41.61114155394434
 20
12.74669568551127
 30
0.0
  0
POINT
  5
EFF
330
E47
100
AcDbEntity
  8
Defpoints
 62
     0
440
 16777216
100
AcDbPoint
 10
41.26421983113303
 20
12.30391857652566
 30
0.0
  0
ENDBLK
  5
E49
330
E47
100
AcDbEntity
  8
0
100
AcDbBlockEnd
  0
BLOCK
  5
F07
330
F06
100
AcDbEntity
  8
0
100
AcDbBlockBegin
  2
*D17
 70
     1
 10
0.0
 20
0.0
 30
0.0
  3
*D17
  1

  0
LINE
  5
FE5
330
F06
100
AcDbEntity
  8
Dimension (ANSI)
440
 16777216
100
AcDbLine
 10
32.00018069254502
 20
48.52652291760869
 30
0.0
 11
32.00018069254502
 21
50.04513355714363
 31
0.0
  0
LINE
  5
FE6
330
F06
100
AcDbEntity
  8
Dimension (ANSI)
440
 16777216
100
AcDbLine
 10
34.12518069254498
 20
48.18277291760697
 30
0.0
 11
34.12518069254498
 21
50.04513355714363
 31
0.0
  0
LINE
  5
FE7
330
F06
100
AcDbEntity
  8
Dimension (ANSI)
440
 16777216
100
AcDbLine
 10
33.63305471943955
 20
49.42013355714363
 30
0.0
 11
32.49230666565045
 21
49.42013355714363
 31
0.0
  0
LINE
  5
FE8
330
F06
100
AcDbEntity
  8
Dimension (ANSI)
440
 16777216
100
AcDbLine
 10
32.00018069254502
 20
49.42013355714363
 30
0.0
 11
31.16607444268524
 21
49.42013355714363
 31
0.0
  0
SOLID
  5
FE9
330
F06
100
AcDbEntity
  8
Dimension (ANSI)
440
 16777216
100
AcDbTrace
 10
33.63305471943955
 20
49.50215455266121
 30
0.0
 11
33.63305471943955
 21
49.33811256162606
 31
0.0
 12
34.12518069254498
 22
49.42013355714363
 32
0.0
 13
34.12518069254498
 23
49.42013355714363
 33
0.0
  0
SOLID
  5
FEA
330
F06
100
AcDbEntity
  8
Dimension (ANSI)
440
 16777216
100
AcDbTrace
 10
32.49230666565045
 20
49.50215455266121
 30
0.0
 11
32.49230666565045
 21
49.33811256162606
 31
0.0
 12
32.00018069254502
 22
49.42013355714363
 32
0.0
 13
32.00018069254502
 23
49.42013355714363
 33
0.0
  0
MTEXT
  5
FEB
330
F06
100
AcDbEntity
  8
Dimension (ANSI)
440
 16777216
100
AcDbMText
 10
29.48478458120856
 20
49.67013356086892
 30
0.0
 40
0.5000000074505806
 41
0.0
 71
     1
 72
     1
  1
\A1;2.13
  7
ROMANS
 73
     1
 44
1.0
  0
POINT
  5
FEC
330
F06
100
AcDbEntity
  8
Defpoints
 62
     0
440
 16777216
100
AcDbPoint
 10
32.00018069254502
 20
48.21402291760869
 30
0.0
  0
POINT
  5
FED
330
F06
100
AcDbEntity
  8
Defpoints
 62
     0
440
 16777216
100
AcDbPoint
 10
34.12518069254498
 20
47.87027291760696
 30
0.0
  0
POINT
  5
FEE
330
F06
100
AcDbEntity
  8
Defpoints
 62
     0
440
 16777216
100
AcDbPoint
 10
34.12518069254498
 20
49.42013355714363
 30
0.0
  0
ENDBLK
  5
F08
330
F06
100
AcDbEntity
  8
0
100
AcDbBlockEnd
  0
BLOCK
  5
FF1
330
FF0
100
AcDbEntity
  8
0
100
AcDbBlockBegin
  2
*D18
 70
     1
 10
0.0
 20
0.0
 30
0.0
  3
*D18
  1

  0
LINE
  5
10CF
330
FF0
100
AcDbEntity
  8
Dimension (ANSI)
440
 16777216
100
AcDbLine
 10
32.00018069254502
 20
48.52652291760869
 30
0.0
 11
32.00018069254502
 21
51.3296399039325
 31
0.0
  0
LINE
  5
10D0
330
FF0
100
AcDbEntity
  8
Dimension (ANSI)
440
 16777216
100
AcDbLine
 10
37.06268069254498
 20
45.18277291760701
 30
0.0
 11
37.06268069254498
 21
51.3296399039325
 31
0.0
  0
LINE
  5
10D1
330
FF0
100
AcDbEntity
  8
Dimension (ANSI)
440
 16777216
100
AcDbLine
 10
32.49230666565045
 20
50.7046399039325
 30
0.0
 11
33.61204560432634
 21
50.7046399039325
 31
0.0
  0
LINE
  5
10D2
330
FF0
100
AcDbEntity
  8
Dimension (ANSI)
440
 16777216
100
AcDbLine
 10
36.57055471943955
 20
50.7046399039325
 30
0.0
 11
35.45081578076366
 21
50.7046399039325
 31
0.0
  0
SOLID
  5
10D3
330
FF0
100
AcDbEntity
  8
Dimension (ANSI)
440
 16777216
100
AcDbTrace
 10
32.49230666565045
 20
50.78666089945007
 30
0.0
 11
32.49230666565045
 21
50.62261890841492
 31
0.0
 12
32.00018069254502
 22
50.7046399039325
 32
0.0
 13
32.00018069254502
 23
50.7046399039325
 33
0.0
  0
SOLID
  5
10D4
330
FF0
100
AcDbEntity
  8
Dimension (ANSI)
440
 16777216
100
AcDbTrace
 10
36.57055471943955
 20
50.78666089945007
 30
0.0
 11
36.57055471943955
 21
50.62261890841492
 31
0.0
 12
37.06268069254498
 22
50.7046399039325
 32
0.0
 13
37.06268069254498
 23
50.7046399039325
 33
0.0
  0
MTEXT
  5
10D5
330
FF0
100
AcDbEntity
  8
Dimension (ANSI)
440
 16777216
100
AcDbMText
 10
33.76952591928698
 20
50.95463990765779
 30
0.0
 40
0.5000000074505806
 41
0.0
 71
     1
 72
     1
  1
\A1;5.06
  7
ROMANS
 73
     1
 44
1.0
  0
POINT
  5
10D6
330
FF0
100
AcDbEntity
  8
Defpoints
 62
     0
440
 16777216
100
AcDbPoint
 10
32.00018069254502
 20
48.21402291760869
 30
0.0
  0
POINT
  5
10D7
330
FF0
100
AcDbEntity
  8
Defpoints
 62
     0
440
 16777216
100
AcDbPoint
 10
37.06268069254498
 20
44.87027291760701
 30
0.0
  0
POINT
  5
10D8
330
FF0
100
AcDbEntity
  8
Defpoints
 62
     0
440
 16777216
100
AcDbPoint
 10
37.06268069254498
 20
50.7046399039325
 30
0.0
  0
ENDBLK
  5
FF2
330
FF0
100
AcDbEntity
  8
0
100
AcDbBlockEnd
  0
BLOCK
  5
10DB
330
10DA
100
AcDbEntity
  8
0
100
AcDbBlockBegin
  2
*D19
 70
     1
 10
0.0
 20
0.0
 30
0.0
  3
*D19
  1

  0
LINE
  5
11B9
330
10DA
100
AcDbEntity
  8
Dimension (ANSI)
440
 16777216
100
AcDbLine
 10
42.12518069254494
 20
48.52652291760869
 30
0.0
 11
42.12518069254494
 21
50.04513355714363
 31
0.0
  0
LINE
  5
11BA
330
10DA
100
AcDbEntity
  8
Dimension (ANSI)
440
 16777216
100
AcDbLine
 10
40.00018069254497
 20
48.18277291760697
 30
0.0
 11
40.00018069254497
 21
50.04513355714363
 31
0.0
  0
LINE
  5
11BB
330
10DA
100
AcDbEntity
  8
Dimension (ANSI)
440
 16777216
100
AcDbLine
 10
40.49230666565041
 20
49.42013355714363
 30
0.0
 11
41.63305471943951
 21
49.42013355714363
 31
0.0
  0
LINE
  5
11BC
330
10DA
100
AcDbEntity
  8
Dimension (ANSI)
440
 16777216
100
AcDbLine
 10
42.12518069254494
 20
49.42013355714363
 30
0.0
 11
42.95928694240472
 21
49.42013355714363
 31
0.0
  0
SOLID
  5
11BD
330
10DA
100
AcDbEntity
  8
Dimension (ANSI)
440
 16777216
100
AcDbTrace
 10
40.49230666565041
 20
49.50215455266121
 30
0.0
 11
40.49230666565041
 21
49.33811256162606
 31
0.0
 12
40.00018069254497
 22
49.42013355714363
 32
0.0
 13
40.00018069254497
 23
49.42013355714363
 33
0.0
  0
SOLID
  5
11BE
330
10DA
100
AcDbEntity
  8
Dimension (ANSI)
440
 16777216
100
AcDbTrace
 10
41.63305471943951
 20
49.50215455266121
 30
0.0
 11
41.63305471943951
 21
49.33811256162606
 31
0.0
 12
42.12518069254494
 22
49.42013355714363
 32
0.0
 13
42.12518069254494
 23
49.42013355714363
 33
0.0
  0
MTEXT
  5
11BF
330
10DA
100
AcDbEntity
  8
Dimension (ANSI)
440
 16777216
100
AcDbMText
 10
43.11676725736535
 20
49.67013356086892
 30
0.0
 40
0.5000000074505806
 41
0.0
 71
     1
 72
     1
  1
\A1;2.13
  7
ROMANS
 73
     1
 44
1.0
  0
POINT
  5
11C0
330
10DA
100
AcDbEntity
  8
Defpoints
 62
     0
440
 16777216
100
AcDbPoint
 10
42.12518069254494
 20
48.21402291760869
 30
0.0
  0
POINT
  5
11C1
330
10DA
100
AcDbEntity
  8
Defpoints
 62
     0
440
 16777216
100
AcDbPoint
 10
40.00018069254497
 20
47.87027291760696
 30
0.0
  0
POINT
  5
11C2
330
10DA
100
AcDbEntity
  8
Defpoints
 62
     0
440
 16777216
100
AcDbPoint
 10
40.00018069254497
 20
49.42013355714363
 30
0.0
  0
ENDBLK
  5
10DC
330
10DA
100
AcDbEntity
  8
0
100
AcDbBlockEnd
  0
BLOCK
  5
11C5
330
11C4
100
AcDbEntity
  8
0
100
AcDbBlockBegin
  2
*D20
 70
     1
 10
0.0
 20
0.0
 30
0.0
  3
*D20
  1

  0
LINE
  5
12AB
330
11C4
100
AcDbEntity
  8
Dimension (ANSI)
440
 16777216
100
AcDbLine
 10
31.68768069254501
 20
48.21402291760869
 30
0.0
 11
28.05260068882692
 21
48.21402291760869
 31
0.0
  0
LINE
  5
12AC
330
11C4
100
AcDbEntity
  8
Dimension (ANSI)
440
 16777216
100
AcDbLine
 10
32.90643069254499
 20
46.96402291760697
 30
0.0
 11
28.05260068882692
 21
46.96402291760697
 31
0.0
  0
LINE
  5
12AD
330
11C4
100
AcDbEntity
  8
Dimension (ANSI)
440
 16777216
100
AcDbLine
 10
28.67760068882692
 20
48.70614889071412
 30
0.0
 11
28.67760068882692
 21
49.19827486381955
 31
0.0
  0
LINE
  5
12AE
330
11C4
100
AcDbEntity
  8
Dimension (ANSI)
440
 16777216
100
AcDbLine
 10
28.67760068882692
 20
46.47189694450154
 30
0.0
 11
28.67760068882692
 21
45.97977097139611
 31
0.0
  0
SOLID
  5
12AF
330
11C4
100
AcDbEntity
  8
Dimension (ANSI)
440
 16777216
100
AcDbTrace
 10
28.59557969330936
 20
48.70614889071412
 30
0.0
 11
28.7596216843445
 21
48.70614889071412
 31
0.0
 12
28.67760068882692
 22
48.21402291760869
 32
0.0
 13
28.67760068882692
 23
48.21402291760869
 33
0.0
  0
SOLID
  5
12B0
330
11C4
100
AcDbEntity
  8
Dimension (ANSI)
440
 16777216
100
AcDbTrace
 10
28.59557969330936
 20
46.47189694450154
 30
0.0
 11
28.7596216843445
 21
46.47189694450154
 31
0.0
 12
28.67760068882692
 22
46.96402291760697
 32
0.0
 13
28.67760068882692
 23
46.96402291760697
 33
0.0
  0
MTEXT
  5
12B1
330
11C4
100
AcDbEntity
  8
Dimension (ANSI)
440
 16777216
100
AcDbMText
 10
27.95141020181536
 20
47.83902292133312
 30
0.0
 40
0.5000000074505806
 41
0.0
 71
     1
 72
     1
  1
\A1;1.25
  7
ROMANS
 73
     1
 44
1.0
  0
POINT
  5
12B2
330
11C4
100
AcDbEntity
  8
Defpoints
 62
     0
440
 16777216
100
AcDbPoint
 10
32.00018069254502
 20
48.21402291760869
 30
0.0
  0
POINT
  5
12B3
330
11C4
100
AcDbEntity
  8
Defpoints
 62
     0
440
 16777216
100
AcDbPoint
 10
33.21893069254499
 20
46.96402291760697
 30
0.0
  0
POINT
  5
12B4
330
11C4
100
AcDbEntity
  8
Defpoints
 62
     0
440
 16777216
100
AcDbPoint
 10
28.67760068882692
 20
46.96402291760697
 30
0.0
  0
ENDBLK
  5
11C6
330
11C4
100
AcDbEntity
  8
0
100
AcDbBlockEnd
  0
BLOCK
  5
12B7
330
12B6
100
AcDbEntity
  8
0
100
AcDbBlockBegin
  2
*D21
 70
     1
 10
0.0
 20
0.0
 30
0.0
  3
*D21
  1

  0
LINE
  5
1395
330
12B6
100
AcDbEntity
  8
Dimension (ANSI)
440
 16777216
100
AcDbLine
 10
31.68768069254501
 20
48.21402291760869
 30
0.0
 11
26.37062023651054
 21
48.21402291760869
 31
0.0
  0
LINE
  5
1396
330
12B6
100
AcDbEntity
  8
Dimension (ANSI)
440
 16777216
100
AcDbLine
 10
35.84393069254498
 20
43.96402291760701
 30
0.0
 11
26.37062023651054
 21
43.96402291760701
 31
0.0
  0
LINE
  5
1397
330
12B6
100
AcDbEntity
  8
Dimension (ANSI)
440
 16777216
100
AcDbLine
 10
26.99562023651054
 20
47.72189694450326
 30
0.0
 11
26.99562023651054
 21
46.49650323629376
 31
0.0
  0
LINE
  5
1398
330
12B6
100
AcDbEntity
  8
Dimension (ANSI)
440
 16777216
100
AcDbLine
 10
26.99562023651054
 20
44.45614889071244
 30
0.0
 11
26.99562023651054
 21
45.68154259892192
 31
0.0
  0
SOLID
  5
1399
330
12B6
100
AcDbEntity
  8
Dimension (ANSI)
440
 16777216
100
AcDbTrace
 10
26.91359924099297
 20
47.72189694450326
 30
0.0
 11
27.07764123202811
 21
47.72189694450326
 31
0.0
 12
26.99562023651054
 22
48.21402291760869
 32
0.0
 13
26.99562023651054
 23
48.21402291760869
 33
0.0
  0
SOLID
  5
139A
330
12B6
100
AcDbEntity
  8
Dimension (ANSI)
440
 16777216
100
AcDbTrace
 10
26.91359924099297
 20
44.45614889071244
 30
0.0
 11
27.07764123202811
 21
44.45614889071244
 31
0.0
 12
26.99562023651054
 22
43.96402291760701
 32
0.0
 13
26.99562023651054
 23
43.96402291760701
 33
0.0
  0
MTEXT
  5
139B
330
12B6
100
AcDbEntity
  8
Dimension (ANSI)
440
 16777216
100
AcDbMText
 10
26.2337154632525
 20
46.33902292133314
 30
0.0
 40
0.5000000074505806
 41
0.0
 71
     1
 72
     1
  1
\A1;4.25
  7
ROMANS
 73
     1
 44
1.0
  0
POINT
  5
139C
330
12B6
100
AcDbEntity
  8
Defpoints
 62
     0
440
 16777216
100
AcDbPoint
 10
32.00018069254502
 20
48.21402291760869
 30
0.0
  0
POINT
  5
139D
330
12B6
100
AcDbEntity
  8
Defpoints
 62
     0
440
 16777216
100
AcDbPoint
 10
36.15643069254498
 20
43.96402291760701
 30
0.0
  0
POINT
  5
139E
330
12B6
100
AcDbEntity
  8
Defpoints
 62
     0
440
 16777216
100
AcDbPoint
 10
26.99562023651054
 20
43.96402291760701
 30
0.0
  0
ENDBLK
  5
12B8
330
12B6
100
AcDbEntity
  8
0
100
AcDbBlockEnd
  0
BLOCK
  5
13A1
330
13A0
100
AcDbEntity
  8
0
100
AcDbBlockBegin
  2
*D22
 70
     1
 10
0.0
 20
0.0
 30
0.0
  3
*D22
  1

  0
LINE
  5
1450
330
13A0
100
AcDbEntity
  8
Dimension (ANSI)
440
 16777216
100
AcDbLine
 10
43.54350234805238
 20
46.13151497786711
 30
0.0
 11
42.83283855832885
 21
46.13151497786711
 31
0.0
  0
LINE
  5
1451
330
13A0
100
AcDbEntity
  8
Dimension (ANSI)
440
 16777216
100
AcDbLine
 10
42.83283855832885
 20
46.13151497786711
 30
0.0
 11
37.786663148402
 21
44.23597842754945
 31
0.0
  0
MTEXT
  5
1452
102
{ACAD_XDICTIONARY
360
158E
102
}
330
13A0
100
AcDbEntity
  8
Dimension (ANSI)
440
 16777216
100
AcDbMText
 10
44.99860172996809
 20
46.13151497786711
 30
0.0
 40
0.5000000074505806
 41
0.0
 71
     5
 72
     1
  1
\A1;\U+22050.563{\P(3 PL.)}
  7
ROMANS
 73
     1
 44
1.0
  0
SOLID
  5
1453
330
13A0
100
AcDbEntity
  8
Dimension (ANSI)
440
 16777216
100
AcDbTrace
 10
37.75782069345425
 20
44.31276095484753
 30
0.0
 11
37.81550560334976
 21
44.15919590025137
 31
0.0
 12
37.32596798461352
 22
44.06292369786294
 32
0.0
 13
37.32596798461352
 23
44.06292369786294
 33
0.0
  0
LINE
  5
1454
330
13A0
100
AcDbEntity
  8
Dimension (ANSI)
440
 16777216
100
AcDbLine
 10
36.61268069254499
 20
43.96402291760701
 30
0.0
 11
37.512680692545
 21
43.96402291760701
 31
0.0
  0
LINE
  5
1455
330
13A0
100
AcDbEntity
  8
Dimension (ANSI)
440
 16777216
100
AcDbLine
 10
37.062680692545
 20
43.51402291760701
 30
0.0
 11
37.062680692545
 21
44.41402291760701
 31
0.0
  0
POINT
  5
1456
330
13A0
100
AcDbEntity
  8
Defpoints
 62
     0
440
 16777216
100
AcDbPoint
 10
37.32596798461352
 20
44.06292369786294
 30
0.0
  0
POINT
  5
1457
330
13A0
100
AcDbEntity
  8
Defpoints
 62
     0
440
 16777216
100
AcDbPoint
 10
36.79939340047648
 20
43.86512213735108
 30
0.0
  0
ENDBLK
  5
13A2
330
13A0
100
AcDbEntity
  8
0
100
AcDbBlockEnd
  0
BLOCK
  5
145A
330
1459
100
AcDbEntity
  8
0
100
AcDbBlockBegin
  2
*D23
 70
     1
 10
0.0
 20
0.0
 30
0.0
  3
*D23
  1

  0
LINE
  5
1538
330
1459
100
AcDbEntity
  8
Dimension (ANSI)
440
 16777216
100
AcDbLine
 10
10.90175760643695
 20
27.21459708193493
 30
0.0
 11
10.90175760643695
 21
24.52074849858103
 31
0.0
  0
LINE
  5
1539
330
1459
100
AcDbEntity
  8
Dimension (ANSI)
440
 16777216
100
AcDbLine
 10
18.65175760643699
 20
26.99597322313314
 30
0.0
 11
18.65175760643699
 21
24.52074849858103
 31
0.0
  0
LINE
  5
153A
330
1459
100
AcDbEntity
  8
Dimension (ANSI)
440
 16777216
100
AcDbLine
 10
11.39388357954238
 20
25.14574849858103
 30
0.0
 11
13.70422480598112
 21
25.14574849858103
 31
0.0
  0
LINE
  5
153B
330
1459
100
AcDbEntity
  8
Dimension (ANSI)
440
 16777216
100
AcDbLine
 10
18.15963163333156
 20
25.14574849858103
 30
0.0
 11
15.54299498241843
 21
25.14574849858103
 31
0.0
  0
SOLID
  5
153C
330
1459
100
AcDbEntity
  8
Dimension (ANSI)
440
 16777216
100
AcDbTrace
 10
11.39388357954238
 20
25.22776949409861
 30
0.0
 11
11.39388357954238
 21
25.06372750306347
 31
0.0
 12
10.90175760643695
 22
25.14574849858103
 32
0.0
 13
10.90175760643695
 23
25.14574849858103
 33
0.0
  0
SOLID
  5
153D
330
1459
100
AcDbEntity
  8
Dimension (ANSI)
440
 16777216
100
AcDbTrace
 10
18.15963163333156
 20
25.22776949409861
 30
0.0
 11
18.15963163333156
 21
25.06372750306347
 31
0.0
 12
18.65175760643699
 22
25.14574849858103
 32
0.0
 13
18.65175760643699
 23
25.14574849858103
 33
0.0
  0
MTEXT
  5
153E
330
1459
100
AcDbEntity
  8
Dimension (ANSI)
440
 16777216
100
AcDbMText
 10
13.86170512094175
 20
25.39574850230633
 30
0.0
 40
0.5000000074505806
 41
0.0
 71
     1
 72
     1
  1
\A1;7.75
  7
ROMANS
 73
     1
 44
1.0
  0
POINT
  5
153F
330
1459
100
AcDbEntity
  8
Defpoints
 62
     0
440
 16777216
100
AcDbPoint
 10
10.90175760643695
 20
27.52709708193493
 30
0.0
  0
POINT
  5
1540
330
1459
100
AcDbEntity
  8
Defpoints
 62
     0
440
 16777216
100
AcDbPoint
 10
18.65175760643699
 20
27.30847322313314
 30
0.0
  0
POINT
  5
1541
330
1459
100
AcDbEntity
  8
Defpoints
 62
     0
440
 16777216
100
AcDbPoint
 10
18.65175760643699
 20
25.14574849858103
 30
0.0
  0
ENDBLK
  5
145B
330
1459
100
AcDbEntity
  8
0
100
AcDbBlockEnd
  0
ENDSEC
  0
SECTION
  2
ENTITIES
  0
SPLINE
  5
107
330
6C
100
AcDbEntity
  8
Visible (ANSI)
100
AcDbSpline
210
0.0
220
0.0
230
1.0
 70
     8
 71
     3
 72
    11
 73
     7
 74
     0
 42
0.0000000001
 43
0.0000000001
 40
0.0
 40
0.0
 40
0.0
 40
0.0
 40
0.9120227246349411
 40
0.9120227246349411
 40
0.9120227246349411
 40
1.570796326794897
 40
1.570796326794897
 40
1.570796326794897
 40
1.570796326794897
 10
41.90643069254192
 20
27.30834708193493
 30
0.0
 10
41.97293234954655
 20
27.30834708193493
 30
0.0
 10
42.03869702065139
 20
27.34060404900126
 30
0.0
 10
42.07940584681634
 20
27.39318980616643
 30
0.0
 10
42.10881070628748
 20
27.43117362798827
 30
0.0
 10
42.12518069254191
 20
27.47906150677743
 30
0.0
 10
42.12518069254191
 20
27.52709708193493
 30
0.0
  0
LINE
  5
108
330
6C
100
AcDbEntity
  8
Visible (ANSI)
100
AcDbLine
 10
41.90643069254192
 20
27.43334708193493
 30
0.0
 11
41.90643069254192
 21
27.30834708193493
 31
0.0
  0
LINE
  5
109
330
6C
100
AcDbEntity
  8
Visible (ANSI)
100
AcDbLine
 10
42.04569126774734
 20
27.52709708193493
 30
0.0
 11
42.12518069254191
 21
27.52709708193493
 31
0.0
  0
LINE
  5
10A
330
6C
100
AcDbEntity
  8
Visible (ANSI)
100
AcDbLine
 10
42.00018069254192
 20
27.52709708193493
 30
0.0
 11
42.04569126774734
 21
27.52709708193493
 31
0.0
  0
SPLINE
  5
10B
330
6C
100
AcDbEntity
  8
Visible (ANSI)
100
AcDbSpline
210
0.0
220
0.0
230
1.0
 70
     8
 71
     3
 72
    11
 73
     7
 74
     0
 42
0.0000000001
 43
0.0000000001
 40
0.0
 40
0.0
 40
0.0
 40
0.0
 40
1.127197082403416
 40
1.127197082403416
 40
1.127197082403416
 40
1.570796326794897
 40
1.570796326794897
 40
1.570796326794897
 40
1.570796326794897
 10
42.00018069254192
 20
27.52709708193493
 30
0.0
 10
42.00018069254192
 20
27.49187217310982
 30
0.0
 10
41.97848313430529
 20
27.45753917557145
 30
0.0
 10
41.94666754767864
 20
27.44242088699971
 30
0.0
 10
41.9341467823149
 20
27.43647120748793
 30
0.0
 10
41.92029316892916
 20
27.43334708193493
 30
0.0
 10
41.90643069254192
 20
27.43334708193493
 30
0.0
  0
LINE
  5
10C
330
6C
100
AcDbEntity
  8
Visible Narrow (ANSI)
100
AcDbLine
 10
32.21893069254198
 20
27.52709708193493
 30
0.0
 11
32.25018069254193
 21
27.52709708193493
 31
0.0
  0
LINE
  5
10D
330
6C
100
AcDbEntity
  8
Visible Narrow (ANSI)
100
AcDbLine
 10
41.87518069254194
 20
27.52709708193493
 30
0.0
 11
41.90643069254198
 21
27.52709708193493
 31
0.0
  0
SPLINE
  5
10E
330
6C
100
AcDbEntity
  8
Visible (ANSI)
100
AcDbSpline
210
0.0
220
0.0
230
1.0
 70
     8
 71
     3
 72
    11
 73
     7
 74
     0
 42
0.0000000001
 43
0.0000000001
 40
0.0
 40
0.0
 40
0.0
 40
0.0
 40
0.9120227246349474
 40
0.9120227246349474
 40
0.9120227246349474
 40
1.570796326794896
 40
1.570796326794896
 40
1.570796326794896
 40
1.570796326794896
 10
32.00018069254197
 20
27.52709708193493
 30
0.0
 10
32.00018069254197
 20
27.46059542493029
 30
0.0
 10
32.03243765960831
 20
27.39483075382544
 30
0.0
 10
32.08502341677347
 20
27.3541219276605
 30
0.0
 10
32.12300723859532
 20
27.32471706818936
 30
0.0
 10
32.17089511738449
 20
27.30834708193492
 30
0.0
 10
32.21893069254198
 20
27.30834708193492
 30
0.0
  0
LINE
  5
10F
330
6C
100
AcDbEntity
  8
Visible (ANSI)
100
AcDbLine
 10
32.21893069254198
 20
27.43334708193492
 30
0.0
 11
32.21893069254198
 21
27.30834708193492
 31
0.0
  0
SPLINE
  5
110
330
6C
100
AcDbEntity
  8
Visible (ANSI)
100
AcDbSpline
210
0.0
220
0.0
230
1.0
 70
     8
 71
     3
 72
    11
 73
     7
 74
     0
 42
0.0000000001
 43
0.0000000001
 40
0.0
 40
0.0
 40
0.0
 40
0.0
 40
1.127197082403386
 40
1.127197082403386
 40
1.127197082403386
 40
1.570796326794896
 40
1.570796326794896
 40
1.570796326794896
 40
1.570796326794896
 10
32.12518069254198
 20
27.52709708193493
 30
0.0
 10
32.12518069254198
 20
27.49187217310982
 30
0.0
 10
32.14687825077859
 20
27.45753917557144
 30
0.0
 10
32.17869383740526
 20
27.44242088699971
 30
0.0
 10
32.191214602769
 20
27.43647120748793
 30
0.0
 10
32.20506821615475
 20
27.43334708193492
 30
0.0
 10
32.21893069254198
 20
27.43334708193492
 30
0.0
  0
LINE
  5
111
330
6C
100
AcDbEntity
  8
Visible (ANSI)
100
AcDbLine
 10
32.07967011733657
 20
27.52709708193493
 30
0.0
 11
32.12518069254198
 21
27.52709708193493
 31
0.0
  0
LINE
  5
112
330
6C
100
AcDbEntity
  8
Visible (ANSI)
100
AcDbLine
 10
32.00018069254197
 20
27.52709708193493
 30
0.0
 11
32.07967011733657
 21
27.52709708193493
 31
0.0
  0
LINE
  5
113
330
6C
100
AcDbEntity
  8
Visible (ANSI)
100
AcDbLine
 10
41.90643069254192
 20
27.43334708193493
 30
0.0
 11
41.87518069254194
 21
27.43334708193493
 31
0.0
  0
LINE
  5
114
330
6C
100
AcDbEntity
  8
Visible (ANSI)
100
AcDbLine
 10
40.87518069254191
 20
27.30834708193493
 30
0.0
 11
41.90643069254192
 21
27.30834708193493
 31
0.0
  0
LINE
  5
115
330
6C
100
AcDbEntity
  8
Visible (ANSI)
100
AcDbLine
 10
40.87518069254191
 20
27.30847322313314
 30
0.0
 11
40.87518069254191
 21
27.30834708193493
 31
0.0
  0
LINE
  5
116
330
6C
100
AcDbEntity
  8
Visible (ANSI)
100
AcDbLine
 10
33.27227777945406
 20
27.30834708193492
 30
0.0
 11
40.85308360562988
 21
27.30834708193492
 31
0.0
  0
LINE
  5
117
330
6C
100
AcDbEntity
  8
Visible (ANSI)
100
AcDbLine
 10
32.21893069254198
 20
27.43334708193492
 30
0.0
 11
32.25018069254194
 21
27.43334708193492
 31
0.0
  0
LINE
  5
118
330
6C
100
AcDbEntity
  8
Visible (ANSI)
100
AcDbLine
 10
32.21893069254198
 20
27.30834708193492
 30
0.0
 11
33.25018069254198
 21
27.30834708193492
 31
0.0
  0
LINE
  5
119
330
6C
100
AcDbEntity
  8
Visible (ANSI)
100
AcDbLine
 10
33.25018069254198
 20
27.30847322313314
 30
0.0
 11
33.25018069254198
 21
27.30834708193492
 31
0.0
  0
LINE
  5
11A
330
6C
100
AcDbEntity
  8
Visible (ANSI)
100
AcDbLine
 10
32.12518069254198
 20
27.52709708193493
 30
0.0
 11
32.21893069254198
 21
27.52709708193493
 31
0.0
  0
LINE
  5
11B
330
6C
100
AcDbEntity
  8
Visible (ANSI)
100
AcDbLine
 10
41.90643069254198
 20
27.52709708193493
 30
0.0
 11
42.00018069254197
 21
27.52709708193493
 31
0.0
  0
SPLINE
  5
11C
330
6C
100
AcDbEntity
  8
Visible (ANSI)
100
AcDbSpline
210
0.0
220
0.0
230
1.0
 70
     8
 71
     3
 72
     8
 73
     4
 74
     0
 42
0.0000000001
 43
0.0000000001
 40
0.0
 40
0.0
 40
0.0
 40
0.0
 40
0.4429110440736485
 40
0.4429110440736485
 40
0.4429110440736485
 40
0.4429110440736485
 10
32.21893069254198
 20
27.52709708193493
 30
0.0
 10
32.22100756774815
 20
27.49480148497122
 30
0.0
 10
32.22308444295432
 20
27.46267970045654
 30
0.0
 10
32.2251613181605
 20
27.43351705254498
 30
0.0
  0
SPLINE
  5
11D
330
6C
100
AcDbEntity
  8
Visible (ANSI)
100
AcDbSpline
210
0.0
220
0.0
230
1.0
 70
     8
 71
     3
 72
     8
 73
     4
 74
     0
 42
0.0000000001
 43
0.0000000001
 40
1.127885282721276
 40
1.127885282721276
 40
1.127885282721276
 40
1.127885282721276
 40
1.570796326794896
 40
1.570796326794896
 40
1.570796326794896
 40
1.570796326794896
 10
41.90020006692345
 20
27.43337560562339
 30
0.0
 10
41.90227694212962
 20
27.46257265017988
 30
0.0
 10
41.9043538173358
 20
27.49480148497122
 30
0.0
 10
41.90643069254198
 20
27.52709708193493
 30
0.0
  0
LINE
  5
11E
330
6C
100
AcDbEntity
  8
Visible (ANSI)
100
AcDbLine
 10
40.85308360562988
 20
27.30834708193492
 30
0.0
 11
40.87518069254191
 21
27.30834708193492
 31
0.0
  0
LINE
  5
11F
330
6C
100
AcDbEntity
  8
Visible (ANSI)
100
AcDbLine
 10
40.85308360562988
 20
27.30847322313314
 30
0.0
 11
40.85308360562988
 21
27.30834708193492
 31
0.0
  0
SPLINE
  5
120
330
6C
100
AcDbEntity
  8
Visible (ANSI)
100
AcDbSpline
210
0.0
220
0.0
230
1.0
 70
     8
 71
     3
 72
    11
 73
     7
 74
     0
 42
0.0000000001
 43
0.0000000001
 40
0.0
 40
0.0
 40
0.0
 40
0.0
 40
1.12719708240338
 40
1.12719708240338
 40
1.12719708240338
 40
1.570796326794896
 40
1.570796326794896
 40
1.570796326794896
 40
1.570796326794896
 10
41.90643069254198
 20
27.52709708193493
 30
0.0
 10
41.90114509918357
 20
27.49187217310982
 30
0.0
 10
41.89585950582517
 20
27.45753917557145
 30
0.0
 10
41.89057391246678
 20
27.44242088699971
 30
0.0
 10
41.88849381018782
 20
27.43647120748793
 30
0.0
 10
41.88641370790885
 20
27.43334708193492
 30
0.0
 10
41.88433360562989
 20
27.43334708193492
 30
0.0
  0
SPLINE
  5
121
330
6C
100
AcDbEntity
  8
Visible (ANSI)
100
AcDbSpline
210
0.0
220
0.0
230
1.0
 70
     8
 71
     3
 72
    11
 73
     7
 74
     0
 42
0.0000000001
 43
0.0000000001
 40
0.0
 40
0.0
 40
0.0
 40
0.0
 40
1.127197082403391
 40
1.127197082403391
 40
1.127197082403391
 40
1.570796326794895
 40
1.570796326794895
 40
1.570796326794895
 40
1.570796326794895
 10
32.21893069254198
 20
27.52709708193493
 30
0.0
 10
32.22421628590038
 20
27.49187217310982
 30
0.0
 10
32.22950187925877
 20
27.45753917557145
 30
0.0
 10
32.23478747261717
 20
27.44242088699971
 30
0.0
 10
32.23686757489613
 20
27.43647120748793
 30
0.0
 10
32.23894767717509
 20
27.43334708193492
 30
0.0
 10
32.24102777945406
 20
27.43334708193492
 30
0.0
  0
LINE
  5
122
330
6C
100
AcDbEntity
  8
Visible (ANSI)
100
AcDbLine
 10
33.25018069254198
 20
27.30834708193492
 30
0.0
 11
33.27227777945406
 21
27.30834708193492
 31
0.0
  0
LINE
  5
123
330
6C
100
AcDbEntity
  8
Visible (ANSI)
100
AcDbLine
 10
33.27227777945406
 20
27.30847322313314
 30
0.0
 11
33.27227777945406
 21
27.30834708193492
 31
0.0
  0
LINE
  5
124
330
6C
100
AcDbEntity
  8
Visible (ANSI)
100
AcDbLine
 10
32.00018069254197
 20
27.52709708193493
 30
0.0
 11
32.00018069254197
 21
33.08959708193492
 31
0.0
  0
LINE
  5
125
330
6C
100
AcDbEntity
  8
Visible (ANSI)
100
AcDbLine
 10
42.00018069254192
 20
27.52709708193493
 30
0.0
 11
42.0001806925419
 21
33.08959708193493
 31
0.0
  0
LINE
  5
126
330
6C
100
AcDbEntity
  8
Visible (ANSI)
100
AcDbLine
 10
42.1251806925419
 20
33.08959708193493
 30
0.0
 11
42.12518069254191
 21
27.52709708193493
 31
0.0
  0
LINE
  5
127
330
6C
100
AcDbEntity
  8
Visible (ANSI)
100
AcDbLine
 10
42.0001806925419
 20
33.08959708193493
 30
0.0
 11
42.1251806925419
 21
33.08959708193493
 31
0.0
  0
LINE
  5
128
330
6C
100
AcDbEntity
  8
Visible (ANSI)
100
AcDbLine
 10
32.12518069254198
 20
33.08959708193492
 30
0.0
 11
32.12518069254198
 21
27.52709708193493
 31
0.0
  0
LINE
  5
129
330
6C
100
AcDbEntity
  8
Visible (ANSI)
100
AcDbLine
 10
32.00018069254197
 20
33.08959708193492
 30
0.0
 11
32.12518069254198
 21
33.08959708193492
 31
0.0
  0
LINE
  5
12A
330
6C
100
AcDbEntity
  8
Visible Narrow (ANSI)
100
AcDbLine
 10
32.21893069254198
 20
33.08959708193493
 30
0.0
 11
32.21893069254198
 21
27.52709708193493
 31
0.0
  0
LINE
  5
12B
330
6C
100
AcDbEntity
  8
Visible Narrow (ANSI)
100
AcDbLine
 10
41.90643069254198
 20
27.52709708193493
 30
0.0
 11
41.90643069254197
 21
33.08959708193493
 31
0.0
  0
LINE
  5
12C
330
6C
100
AcDbEntity
  8
Visible (ANSI)
100
AcDbLine
 10
32.21893069254198
 20
33.08959708193493
 30
0.0
 11
32.12518069254198
 21
33.08959708193493
 31
0.0
  0
LINE
  5
12D
330
6C
100
AcDbEntity
  8
Visible (ANSI)
100
AcDbLine
 10
32.75018069254198
 20
33.18334708193493
 30
0.0
 11
32.21893069254198
 21
33.18334708193492
 31
0.0
  0
LINE
  5
12E
330
6C
100
AcDbEntity
  8
Visible (ANSI)
100
AcDbLine
 10
32.75018069254198
 20
33.30834708193493
 30
0.0
 11
32.21893069254198
 21
33.30834708193492
 31
0.0
  0
LINE
  5
12F
330
6C
100
AcDbEntity
  8
Visible (ANSI)
100
AcDbLine
 10
41.9064306925419
 20
33.30834708193493
 30
0.0
 11
41.3751806925419
 21
33.30834708193492
 31
0.0
  0
LINE
  5
130
330
6C
100
AcDbEntity
  8
Visible (ANSI)
100
AcDbLine
 10
41.3751806925419
 20
33.18334708193493
 30
0.0
 11
41.9064306925419
 21
33.18334708193493
 31
0.0
  0
LINE
  5
131
330
6C
100
AcDbEntity
  8
Visible (ANSI)
100
AcDbLine
 10
40.85308360562987
 20
33.18334708193493
 30
0.0
 11
33.27227777945405
 21
33.18334708193493
 31
0.0
  0
LINE
  5
132
330
6C
100
AcDbEntity
  8
Visible (ANSI)
100
AcDbLine
 10
40.85308360562987
 20
33.30834708193493
 30
0.0
 11
33.27227777945405
 21
33.30834708193493
 31
0.0
  0
LINE
  5
133
330
6C
100
AcDbEntity
  8
Visible (ANSI)
100
AcDbLine
 10
42.00018069254197
 20
33.08959708193493
 30
0.0
 11
41.90643069254198
 21
33.08959708193493
 31
0.0
  0
LINE
  5
134
330
6C
100
AcDbEntity
  8
Visible (ANSI)
100
AcDbLine
 10
33.25018069254197
 20
33.30834708193493
 30
0.0
 11
32.75018069254198
 21
33.30834708193493
 31
0.0
  0
LINE
  5
135
330
6C
100
AcDbEntity
  8
Visible (ANSI)
100
AcDbLine
 10
32.75018069254198
 20
33.30834708193493
 30
0.0
 11
32.75018069254198
 21
33.18334708193493
 31
0.0
  0
LINE
  5
136
330
6C
100
AcDbEntity
  8
Visible (ANSI)
100
AcDbLine
 10
32.75018069254198
 20
33.18334708193493
 30
0.0
 11
33.25018069254197
 21
33.18334708193493
 31
0.0
  0
LINE
  5
137
330
6C
100
AcDbEntity
  8
Visible (ANSI)
100
AcDbLine
 10
33.25018069254197
 20
33.18334708193493
 30
0.0
 11
33.25018069254197
 21
33.30834708193493
 31
0.0
  0
LINE
  5
138
330
6C
100
AcDbEntity
  8
Visible (ANSI)
100
AcDbLine
 10
41.3751806925419
 20
33.30834708193492
 30
0.0
 11
40.87518069254191
 21
33.30834708193492
 31
0.0
  0
LINE
  5
139
330
6C
100
AcDbEntity
  8
Visible (ANSI)
100
AcDbLine
 10
40.87518069254191
 20
33.30834708193492
 30
0.0
 11
40.87518069254191
 21
33.18334708193493
 31
0.0
  0
LINE
  5
13A
330
6C
100
AcDbEntity
  8
Visible (ANSI)
100
AcDbLine
 10
40.87518069254191
 20
33.18334708193493
 30
0.0
 11
41.3751806925419
 21
33.18334708193493
 31
0.0
  0
LINE
  5
13B
330
6C
100
AcDbEntity
  8
Visible (ANSI)
100
AcDbLine
 10
41.3751806925419
 20
33.18334708193493
 30
0.0
 11
41.3751806925419
 21
33.30834708193492
 31
0.0
  0
ARC
  5
13C
330
6C
100
AcDbEntity
  8
Visible (ANSI)
100
AcDbCircle
 10
32.21893069254198
 20
33.08959708193492
 30
0.0
 40
0.0937500000000008
100
AcDbArc
 50
90.0
 51
180.0
  0
ARC
  5
13D
330
6C
100
AcDbEntity
  8
Visible (ANSI)
100
AcDbCircle
 10
32.21893069254198
 20
33.08959708193492
 30
0.0
 40
0.2187499999999996
100
AcDbArc
 50
90.0
 51
180.0
  0
ARC
  5
13E
330
6C
100
AcDbEntity
  8
Visible (ANSI)
100
AcDbCircle
 10
41.9064306925419
 20
33.08959708193493
 30
0.0
 40
0.2187499999999968
100
AcDbArc
 50
0.0
 51
90.00000000000184
  0
ARC
  5
13F
330
6C
100
AcDbEntity
  8
Visible (ANSI)
100
AcDbCircle
 10
41.9064306925419
 20
33.08959708193493
 30
0.0
 40
0.0937500000000001
100
AcDbArc
 50
0.0
 51
90.0
  0
LINE
  5
140
330
6C
100
AcDbEntity
  8
Visible Narrow (ANSI)
100
AcDbLine
 10
41.90643069254197
 20
33.08959708193493
 30
0.0
 11
32.21893069254198
 21
33.08959708193493
 31
0.0
  0
SPLINE
  5
141
330
6C
100
AcDbEntity
  8
Visible (ANSI)
100
AcDbSpline
210
0.0
220
0.0
230
1.0
 70
     8
 71
     3
 72
     8
 73
     4
 74
     0
 42
0.0000000001
 43
0.0000000001
 40
0.0
 40
0.0
 40
0.0
 40
0.0
 40
0.4429110440736347
 40
0.4429110440736347
 40
0.4429110440736347
 40
0.4429110440736347
 10
41.90643069254197
 20
33.08959708193493
 30
0.0
 10
41.90435381733579
 20
33.12189267889863
 30
0.0
 10
41.90227694212961
 20
33.15401446341331
 30
0.0
 10
41.90020006692345
 20
33.18317711132487
 30
0.0
  0
SPLINE
  5
142
330
6C
100
AcDbEntity
  8
Visible (ANSI)
100
AcDbSpline
210
0.0
220
0.0
230
1.0
 70
     8
 71
     3
 72
     8
 73
     4
 74
     0
 42
0.0000000001
 43
0.0000000001
 40
1.127885282721269
 40
1.127885282721269
 40
1.127885282721269
 40
1.127885282721269
 40
1.570796326794894
 40
1.570796326794894
 40
1.570796326794894
 40
1.570796326794894
 10
32.2251613181605
 20
33.18331855824645
 30
0.0
 10
32.22308444295432
 20
33.15412151368996
 30
0.0
 10
32.22100756774815
 20
33.12189267889863
 30
0.0
 10
32.21893069254198
 20
33.08959708193493
 30
0.0
  0
LINE
  5
143
330
6C
100
AcDbEntity
  8
Visible (ANSI)
100
AcDbLine
 10
40.87518069254191
 20
33.18334708193493
 30
0.0
 11
40.85308360562987
 21
33.18334708193493
 31
0.0
  0
LINE
  5
144
330
6C
100
AcDbEntity
  8
Visible (ANSI)
100
AcDbLine
 10
33.25018069254197
 20
33.18334708193493
 30
0.0
 11
33.27227777945405
 21
33.18334708193493
 31
0.0
  0
LINE
  5
145
330
6C
100
AcDbEntity
  8
Visible (ANSI)
100
AcDbLine
 10
33.27227777945405
 20
33.30834708193493
 30
0.0
 11
33.25018069254197
 21
33.30834708193493
 31
0.0
  0
LINE
  5
146
330
6C
100
AcDbEntity
  8
Visible (ANSI)
100
AcDbLine
 10
33.27227777945405
 20
33.18334708193493
 30
0.0
 11
33.27227777945405
 21
33.30834708193493
 31
0.0
  0
SPLINE
  5
147
330
6C
100
AcDbEntity
  8
Visible (ANSI)
100
AcDbSpline
210
0.0
220
0.0
230
1.0
 70
     8
 71
     3
 72
    11
 73
     7
 74
     0
 42
0.0000000001
 43
0.0000000001
 40
0.0
 40
0.0
 40
0.0
 40
0.0
 40
1.127197082403416
 40
1.127197082403416
 40
1.127197082403416
 40
1.570796326794894
 40
1.570796326794894
 40
1.570796326794894
 40
1.570796326794894
 10
32.21893069254198
 20
33.08959708193493
 30
0.0
 10
32.22421628590038
 20
33.12482199076003
 30
0.0
 10
32.22950187925877
 20
33.1591549882984
 30
0.0
 10
32.23478747261717
 20
33.17427327687014
 30
0.0
 10
32.23686757489613
 20
33.18022295638192
 30
0.0
 10
32.23894767717509
 20
33.18334708193493
 30
0.0
 10
32.24102777945405
 20
33.18334708193493
 30
0.0
  0
SPLINE
  5
148
330
6C
100
AcDbEntity
  8
Visible (ANSI)
100
AcDbSpline
210
0.0
220
0.0
230
1.0
 70
     8
 71
     3
 72
    11
 73
     7
 74
     0
 42
0.0000000001
 43
0.0000000001
 40
0.0
 40
0.0
 40
0.0
 40
0.0
 40
1.127197082403315
 40
1.127197082403315
 40
1.127197082403315
 40
1.570796326794894
 40
1.570796326794894
 40
1.570796326794894
 40
1.570796326794894
 10
41.90643069254197
 20
33.08959708193493
 30
0.0
 10
41.90114509918357
 20
33.12482199076003
 30
0.0
 10
41.89585950582517
 20
33.1591549882984
 30
0.0
 10
41.89057391246677
 20
33.17427327687013
 30
0.0
 10
41.88849381018782
 20
33.18022295638192
 30
0.0
 10
41.88641370790885
 20
33.18334708193493
 30
0.0
 10
41.88433360562988
 20
33.18334708193493
 30
0.0
  0
LINE
  5
149
330
6C
100
AcDbEntity
  8
Visible (ANSI)
100
AcDbLine
 10
40.87518069254191
 20
33.30834708193493
 30
0.0
 11
40.85308360562987
 21
33.30834708193493
 31
0.0
  0
LINE
  5
14A
330
6C
100
AcDbEntity
  8
Visible (ANSI)
100
AcDbLine
 10
40.85308360562987
 20
33.18334708193493
 30
0.0
 11
40.85308360562987
 21
33.30834708193493
 31
0.0
  0
LINE
  5
14B
330
6C
100
AcDbEntity
  8
Visible (ANSI)
100
AcDbLine
 10
41.75018069254194
 20
27.43347322313314
 30
0.0
 11
41.87518069254193
 21
27.43347322313314
 31
0.0
  0
LINE
  5
14C
330
6C
100
AcDbEntity
  8
Visible Narrow (ANSI)
100
AcDbLine
 10
41.75018069254194
 20
27.43347322313314
 30
0.0
 11
41.75018069254194
 21
27.30847322313314
 31
0.0
  0
LINE
  5
14D
330
6C
100
AcDbEntity
  8
Visible (ANSI)
100
AcDbLine
 10
41.87518069254193
 20
27.30847322313314
 30
0.0
 11
41.75018069254194
 21
27.30847322313314
 31
0.0
  0
LINE
  5
14E
330
6C
100
AcDbEntity
  8
Visible (ANSI)
100
AcDbLine
 10
41.87518069254194
 20
27.30847322313314
 30
0.0
 11
41.87518069254194
 21
27.43347322313314
 31
0.0
  0
LINE
  5
14F
330
6C
100
AcDbEntity
  8
Visible (ANSI)
100
AcDbLine
 10
32.37518069254193
 20
27.30847322313314
 30
0.0
 11
32.25018069254193
 21
27.30847322313314
 31
0.0
  0
LINE
  5
150
330
6C
100
AcDbEntity
  8
Visible (ANSI)
100
AcDbLine
 10
32.25018069254193
 20
27.43347322313314
 30
0.0
 11
32.37518069254193
 21
27.43347322313314
 31
0.0
  0
LINE
  5
151
330
6C
100
AcDbEntity
  8
Visible (ANSI)
100
AcDbLine
 10
32.25018069254194
 20
27.43347322313314
 30
0.0
 11
32.25018069254194
 21
27.30847322313314
 31
0.0
  0
LINE
  5
152
330
6C
100
AcDbEntity
  8
Visible Narrow (ANSI)
100
AcDbLine
 10
32.37518069254193
 20
27.30847322313314
 30
0.0
 11
32.37518069254193
 21
27.43347322313314
 31
0.0
  0
LINE
  5
153
330
6C
100
AcDbEntity
  8
Visible (ANSI)
100
AcDbLine
 10
41.87518069254194
 20
27.55834708193493
 30
0.0
 11
41.87518069254194
 21
27.49427669031949
 31
0.0
  0
LINE
  5
154
330
6C
100
AcDbEntity
  8
Visible (ANSI)
100
AcDbLine
 10
32.25018069254193
 20
27.55834708193493
 30
0.0
 11
32.25018069254193
 21
27.49427669031949
 31
0.0
  0
LINE
  5
155
330
6C
100
AcDbEntity
  8
Visible (ANSI)
100
AcDbLine
 10
41.87518069254194
 20
27.55834708193493
 30
0.0
 11
32.25018069254193
 21
27.55834708193493
 31
0.0
  0
LINE
  5
156
330
6C
100
AcDbEntity
  8
Visible Narrow (ANSI)
100
AcDbLine
 10
41.87518069254194
 20
27.49427669031949
 30
0.0
 11
32.25018069254193
 21
27.49427669031949
 31
0.0
  0
LINE
  5
157
330
6C
100
AcDbEntity
  8
Visible (ANSI)
100
AcDbLine
 10
41.87518069254194
 20
27.4609319623969
 30
0.0
 11
41.87518069254194
 21
27.49427669031949
 31
0.0
  0
LINE
  5
158
330
6C
100
AcDbEntity
  8
Visible (ANSI)
100
AcDbLine
 10
32.25018069254193
 20
27.49427669031949
 30
0.0
 11
32.25018069254194
 21
27.46093196239689
 31
0.0
  0
LINE
  5
159
330
6C
100
AcDbEntity
  8
Visible (ANSI)
100
AcDbLine
 10
41.87518069254194
 20
27.43347322313314
 30
0.0
 11
41.87518069254194
 21
27.4609319623969
 31
0.0
  0
LINE
  5
15A
330
6C
100
AcDbEntity
  8
Visible (ANSI)
100
AcDbLine
 10
32.25018069254194
 20
27.43347322313314
 30
0.0
 11
32.25018069254194
 21
27.46093196239689
 31
0.0
  0
LINE
  5
15B
330
6C
100
AcDbEntity
  8
Visible Narrow (ANSI)
100
AcDbLine
 10
41.87518069254194
 20
27.4609319623969
 30
0.0
 11
32.25018069254194
 21
27.46093196239689
 31
0.0
  0
LINE
  5
15C
330
6C
100
AcDbEntity
  8
Visible (ANSI)
100
AcDbLine
 10
32.37518069254193
 20
27.30847322313314
 30
0.0
 11
41.75018069254194
 21
27.30847322313314
 31
0.0
  0
LINE
  5
15D
330
6C
100
AcDbEntity
  8
Visible (ANSI)
100
AcDbLine
 10
41.75018069254194
 20
27.43347322313314
 30
0.0
 11
32.37518069254193
 21
27.43347322313314
 31
0.0
  0
MTEXT
  5
15F
330
6C
100
AcDbEntity
  8
Symbol (ANSI)
100
AcDbMText
 10
34.64216764661598
 20
23.91259291644642
 30
0.0
 40
0.600000007415381
 41
0.0
 71
     7
 72
     1
  1
FRONT VIEW
  7
Text Style168
 73
     1
 44
1.0
  0
LINE
  5
161
330
6C
100
AcDbEntity
  8
Symbol (ANSI)
370
    30
100
AcDbLine
 10
34.58216749227404
 20
23.79023472957197
 30
0.0
 11
39.40599251370242
 21
23.79023472957197
 31
0.0
  0
SPLINE
  5
162
330
6C
100
AcDbEntity
  8
Visible (ANSI)
100
AcDbSpline
210
0.0
220
0.0
230
1.0
 70
     8
 71
     3
 72
    11
 73
     7
 74
     0
 42
0.0000000001
 43
0.0000000001
 40
0.0
 40
0.0
 40
0.0
 40
0.0
 40
0.9120227246349509
 40
0.9120227246349509
 40
0.9120227246349509
 40
1.570796326794895
 40
1.570796326794895
 40
1.570796326794895
 40
1.570796326794895
 10
10.90175760643695
 20
27.52709708193493
 30
0.0
 10
10.90175760643695
 20
27.46059542493029
 30
0.0
 10
10.93401457350328
 20
27.39483075382544
 30
0.0
 10
10.98660033066845
 20
27.3541219276605
 30
0.0
 10
11.02458415249029
 20
27.32471706818936
 30
0.0
 10
11.07247203127945
 20
27.30834708193492
 30
0.0
 10
11.12050760643695
 20
27.30834708193492
 30
0.0
  0
LINE
  5
163
330
6C
100
AcDbEntity
  8
Visible (ANSI)
100
AcDbLine
 10
11.12050760643695
 20
27.43334708193492
 30
0.0
 11
11.12673823205548
 21
27.43334708193492
 31
0.0
  0
LINE
  5
164
330
6C
100
AcDbEntity
  8
Visible (ANSI)
100
AcDbLine
 10
11.12050760643695
 20
27.43334708193492
 30
0.0
 11
11.12050760643695
 21
27.30834708193492
 31
0.0
  0
SPLINE
  5
165
330
6C
100
AcDbEntity
  8
Visible (ANSI)
100
AcDbSpline
210
0.0
220
0.0
230
1.0
 70
     8
 71
     3
 72
    11
 73
     7
 74
     0
 42
0.0000000001
 43
0.0000000001
 40
0.0
 40
0.0
 40
0.0
 40
0.0
 40
1.127197082403391
 40
1.127197082403391
 40
1.127197082403391
 40
1.570796326794895
 40
1.570796326794895
 40
1.570796326794895
 40
1.570796326794895
 10
11.02675760643694
 20
27.52709708193493
 30
0.0
 10
11.02675760643695
 20
27.49187217310982
 30
0.0
 10
11.04845516467356
 20
27.45753917557145
 30
0.0
 10
11.08027075130022
 20
27.44242088699971
 30
0.0
 10
11.09279151666396
 20
27.43647120748793
 30
0.0
 10
11.10664513004971
 20
27.43334708193492
 30
0.0
 10
11.12050760643695
 20
27.43334708193492
 30
0.0
  0
LINE
  5
166
330
6C
100
AcDbEntity
  8
Visible (ANSI)
100
AcDbLine
 10
11.12050760643695
 20
27.30834708193492
 30
0.0
 11
11.14260469334904
 21
27.30834708193492
 31
0.0
  0
SPLINE
  5
167
330
6C
100
AcDbEntity
  8
Visible (ANSI)
100
AcDbSpline
210
0.0
220
0.0
230
1.0
 70
     8
 71
     3
 72
    11
 73
     7
 74
     0
 42
0.0000000001
 43
0.0000000001
 40
0.0
 40
0.0
 40
0.0
 40
0.0
 40
0.912022724634949
 40
0.912022724634949
 40
0.912022724634949
 40
1.570796326794896
 40
1.570796326794896
 40
1.570796326794896
 40
1.570796326794896
 10
11.14260469334902
 20
27.30834708193492
 30
0.0
 10
11.13832808428809
 20
27.30834708193492
 30
0.0
 10
11.13405147522716
 20
27.34060404900125
 30
0.0
 10
11.12977486616624
 20
27.39318980616642
 30
0.0
 10
11.12668577958978
 20
27.43117362798827
 30
0.0
 10
11.12359669301333
 20
27.47906150677743
 30
0.0
 10
11.12050760643688
 20
27.52709708193493
 30
0.0
  0
LINE
  5
168
330
6C
100
AcDbEntity
  8
Visible (ANSI)
100
AcDbLine
 10
16.90175760643686
 20
27.30834708193492
 30
0.0
 11
11.14260469334902
 21
27.30834708193492
 31
0.0
  0
SPLINE
  5
169
330
6C
100
AcDbEntity
  8
Visible (ANSI)
100
AcDbSpline
210
0.0
220
0.0
230
1.0
 70
     8
 71
     3
 72
    11
 73
     7
 74
     0
 42
0.0000000001
 43
0.0000000001
 40
0.0
 40
0.0
 40
0.0
 40
0.0
 40
0.9120227246349474
 40
0.9120227246349474
 40
0.9120227246349474
 40
1.570796326794896
 40
1.570796326794896
 40
1.570796326794896
 40
1.570796326794896
 10
16.97743328211247
 20
27.52709708193493
 30
0.0
 10
16.96278722122794
 20
27.46059542493029
 30
0.0
 10
16.94814116034341
 20
27.39483075382544
 30
0.0
 10
16.93349509945889
 20
27.3541219276605
 30
0.0
 10
16.92291593511822
 20
27.32471706818936
 30
0.0
 10
16.91233677077754
 20
27.30834708193492
 30
0.0
 10
16.90175760643686
 20
27.30834708193492
 30
0.0
  0
LINE
  5
16A
330
6C
100
AcDbEntity
  8
Visible Narrow (ANSI)
100
AcDbLine
 10
11.12050760643688
 20
27.52709708193493
 30
0.0
 11
16.97743328211247
 21
27.52709708193493
 31
0.0
  0
LINE
  5
16B
330
6C
100
AcDbEntity
  8
Visible (ANSI)
100
AcDbLine
 10
11.12050760643688
 20
27.52709708193493
 30
0.0
 11
10.90175760643695
 21
27.52709708193493
 31
0.0
  0
LINE
  5
16C
330
6C
100
AcDbEntity
  8
Visible (ANSI)
100
AcDbLine
 10
16.97743328211247
 20
27.52709708193493
 30
0.0
 11
18.90175760643688
 21
33.08959708193492
 31
0.0
  0
LINE
  5
16D
330
6C
100
AcDbEntity
  8
Visible Narrow (ANSI)
100
AcDbLine
 10
18.90175760643688
 20
33.08959708193492
 30
0.0
 11
11.12050760643688
 21
33.08959708193493
 31
0.0
  0
LINE
  5
16E
330
6C
100
AcDbEntity
  8
Visible (ANSI)
100
AcDbLine
 10
18.90175760643688
 20
33.08959708193492
 30
0.0
 11
18.90175760643695
 21
33.30834708193492
 31
0.0
  0
LINE
  5
16F
330
6C
100
AcDbEntity
  8
Visible (ANSI)
100
AcDbLine
 10
11.14260469334902
 20
33.30834708193492
 30
0.0
 11
18.90175760643695
 21
33.30834708193492
 31
0.0
  0
LINE
  5
170
330
6C
100
AcDbEntity
  8
Visible Narrow (ANSI)
100
AcDbLine
 10
11.12050760643688
 20
33.08959708193493
 30
0.0
 11
11.12050760643688
 21
27.52709708193493
 31
0.0
  0
LINE
  5
171
330
6C
100
AcDbEntity
  8
Visible (ANSI)
100
AcDbLine
 10
10.90175760643695
 20
27.52709708193493
 30
0.0
 11
10.90175760643695
 21
33.08959708193493
 31
0.0
  0
SPLINE
  5
172
330
6C
100
AcDbEntity
  8
Visible (ANSI)
100
AcDbSpline
210
0.0
220
0.0
230
1.0
 70
     8
 71
     3
 72
    11
 73
     7
 74
     0
 42
0.0000000001
 43
0.0000000001
 40
0.0
 40
0.0
 40
0.0
 40
0.0
 40
0.9120227246349584
 40
0.9120227246349584
 40
0.9120227246349584
 40
1.570796326794894
 40
1.570796326794894
 40
1.570796326794894
 40
1.570796326794894
 10
11.12050760643695
 20
33.30834708193492
 30
0.0
 10
11.05400594943231
 20
33.30834708193492
 30
0.0
 10
10.98824127832747
 20
33.27609011486859
 30
0.0
 10
10.94753245216252
 20
33.22350435770342
 30
0.0
 10
10.91812759269138
 20
33.18552053588157
 30
0.0
 10
10.90175760643695
 20
33.13763265709242
 30
0.0
 10
10.90175760643695
 20
33.08959708193493
 30
0.0
  0
LINE
  5
173
330
6C
100
AcDbEntity
  8
Visible (ANSI)
100
AcDbLine
 10
11.12050760643695
 20
33.18334708193493
 30
0.0
 11
11.12673823205548
 21
33.18334708193493
 31
0.0
  0
LINE
  5
174
330
6C
100
AcDbEntity
  8
Visible (ANSI)
100
AcDbLine
 10
11.14260469334904
 20
33.30834708193492
 30
0.0
 11
11.12050760643695
 21
33.30834708193492
 31
0.0
  0
LINE
  5
175
330
6C
100
AcDbEntity
  8
Visible (ANSI)
100
AcDbLine
 10
11.12050760643695
 20
33.18334708193493
 30
0.0
 11
11.12050760643695
 21
33.30834708193492
 31
0.0
  0
SPLINE
  5
176
330
6C
100
AcDbEntity
  8
Visible (ANSI)
100
AcDbSpline
210
0.0
220
0.0
230
1.0
 70
     8
 71
     3
 72
    11
 73
     7
 74
     0
 42
0.0000000001
 43
0.0000000001
 40
0.0
 40
0.0
 40
0.0
 40
0.0
 40
1.127197082403416
 40
1.127197082403416
 40
1.127197082403416
 40
1.570796326794894
 40
1.570796326794894
 40
1.570796326794894
 40
1.570796326794894
 10
11.02675760643694
 20
33.08959708193493
 30
0.0
 10
11.02675760643695
 20
33.12482199076003
 30
0.0
 10
11.04845516467356
 20
33.1591549882984
 30
0.0
 10
11.08027075130023
 20
33.17427327687014
 30
0.0
 10
11.09279151666396
 20
33.18022295638192
 30
0.0
 10
11.10664513004972
 20
33.18334708193493
 30
0.0
 10
11.12050760643695
 20
33.18334708193493
 30
0.0
  0
SPLINE
  5
177
330
6C
100
AcDbEntity
  8
Visible (ANSI)
100
AcDbSpline
210
0.0
220
0.0
230
1.0
 70
     8
 71
     3
 72
    11
 73
     7
 74
     0
 42
0.0000000001
 43
0.0000000001
 40
0.0
 40
0.0
 40
0.0
 40
0.0
 40
0.9120227246349571
 40
0.9120227246349571
 40
0.9120227246349571
 40
1.570796326794894
 40
1.570796326794894
 40
1.570796326794894
 40
1.570796326794894
 10
11.12050760643688
 20
33.08959708193492
 30
0.0
 10
11.12478421549779
 20
33.15609873893956
 30
0.0
 10
11.12906082455871
 20
33.2218634100444
 30
0.0
 10
11.13333743361964
 20
33.26257223620934
 30
0.0
 10
11.1364265201961
 20
33.29197709568049
 30
0.0
 10
11.13951560677256
 20
33.30834708193492
 30
0.0
 10
11.14260469334902
 20
33.30834708193492
 30
0.0
  0
LINE
  5
178
330
6C
100
AcDbEntity
  8
Visible (ANSI)
100
AcDbLine
 10
10.90175760643695
 20
33.08959708193493
 30
0.0
 11
11.12050760643688
 21
33.08959708193493
 31
0.0
  0
LINE
  5
179
330
6C
100
AcDbEntity
  8
Visible (ANSI)
100
AcDbLine
 10
18.65175760643699
 20
27.30847322313314
 30
0.0
 11
18.52675760643695
 21
27.30847322313314
 31
0.0
  0
LINE
  5
17A
330
6C
100
AcDbEntity
  8
Visible (ANSI)
100
AcDbLine
 10
18.52675760643695
 20
27.43347322313314
 30
0.0
 11
18.65175760643699
 21
27.43347322313314
 31
0.0
  0
LINE
  5
17B
330
6C
100
AcDbEntity
  8
Visible Narrow (ANSI)
100
AcDbLine
 10
18.52675760643696
 20
27.43347322313314
 30
0.0
 11
18.52675760643696
 21
27.30847322313314
 31
0.0
  0
LINE
  5
17C
330
6C
100
AcDbEntity
  8
Visible (ANSI)
100
AcDbLine
 10
18.65175760643699
 20
27.30847322313314
 30
0.0
 11
18.65175760643699
 21
27.43347322313314
 31
0.0
  0
LINE
  5
17D
330
6C
100
AcDbEntity
  8
Visible (ANSI)
100
AcDbLine
 10
17.15186682320607
 20
27.30847322313314
 30
0.0
 11
18.52675760643696
 21
27.30847322313314
 31
0.0
  0
LINE
  5
17E
330
6C
100
AcDbEntity
  8
Visible (ANSI)
100
AcDbLine
 10
18.52675760643696
 20
27.43347322313314
 30
0.0
 11
17.15186682320607
 21
27.43347322313314
 31
0.0
  0
ARC
  5
17F
330
6C
100
AcDbEntity
  8
Visible (ANSI)
100
AcDbCircle
 10
17.15186682320607
 20
27.52722322313314
 30
0.0
 40
0.0937499999999998
100
AcDbArc
 50
225.0000000000015
 51
270.0000000000021
  0
ARC
  5
180
330
6C
100
AcDbEntity
  8
Visible (ANSI)
100
AcDbCircle
 10
17.15186682320607
 20
27.52722322313314
 30
0.0
 40
0.2187499999999991
100
AcDbArc
 50
225.0000000000013
 51
270.0000000000009
  0
LINE
  5
181
330
6C
100
AcDbEntity
  8
Visible (ANSI)
100
AcDbLine
 10
17.05223083454724
 20
27.49427669031949
 30
0.0
 11
17.08557556246983
 21
27.46093196239689
 31
0.0
  0
LINE
  5
182
330
6C
100
AcDbEntity
  8
Visible (ANSI)
100
AcDbLine
 10
16.99718721482151
 20
27.37254361474858
 30
0.0
 11
16.96384248689892
 21
27.40588834267117
 31
0.0
  0
ARC
  5
183
330
6C
100
AcDbEntity
  8
Visible (ANSI)
100
AcDbCircle
 10
16.89755122616267
 20
27.33959708193493
 30
0.0
 40
0.2187500000000092
100
AcDbArc
 50
45.0
 51
67.19732762770457
  0
ARC
  5
184
330
6C
100
AcDbEntity
  8
Visible (ANSI)
100
AcDbCircle
 10
16.89755122616269
 20
27.33959708193495
 30
0.0
 40
0.0937499999999814
100
AcDbArc
 50
44.99999999999849
 51
54.65453320231189
  0
MTEXT
  5
185
330
6C
100
AcDbEntity
  8
Symbol (ANSI)
100
AcDbMText
 10
12.38713256078891
 20
23.19483685756025
 30
0.0
 40
0.600000007415381
 41
0.0
 71
     7
 72
     1
  1
LEFT VIEW
  7
Text Style168
 73
     1
 44
1.0
  0
LINE
  5
186
330
6C
100
AcDbEntity
  8
Symbol (ANSI)
370
    30
100
AcDbLine
 10
12.32713240644697
 20
23.05983685589179
 30
0.0
 11
16.37737549502652
 21
23.05983685589179
 31
0.0
  0
LINE
  5
187
330
6C
100
AcDbEntity
  8
Visible (ANSI)
100
AcDbLine
 10
61.4055190300295
 20
27.30834708193492
 30
0.0
 11
55.64636611694158
 21
27.30834708193493
 31
0.0
  0
LINE
  5
188
330
6C
100
AcDbEntity
  8
Visible Narrow (ANSI)
100
AcDbLine
 10
55.57069044126596
 20
27.52709708193493
 30
0.0
 11
61.42761611694164
 21
27.52709708193493
 31
0.0
  0
SPLINE
  5
189
330
6C
100
AcDbEntity
  8
Visible (ANSI)
100
AcDbSpline
210
0.0
220
0.0
230
1.0
 70
     8
 71
     3
 72
    11
 73
     7
 74
     0
 42
0.0000000001
 43
0.0000000001
 40
0.0
 40
0.0
 40
0.0
 40
0.0
 40
0.9120227246349411
 40
0.9120227246349411
 40
0.9120227246349411
 40
1.570796326794897
 40
1.570796326794897
 40
1.570796326794897
 40
1.570796326794897
 10
55.64636611694158
 20
27.30834708193493
 30
0.0
 10
55.63172005605707
 20
27.30834708193493
 30
0.0
 10
55.61707399517255
 20
27.34060404900126
 30
0.0
 10
55.60242793428803
 20
27.39318980616643
 30
0.0
 10
55.59184876994734
 20
27.43117362798827
 30
0.0
 10
55.58126960560667
 20
27.47906150677743
 30
0.0
 10
55.57069044126596
 20
27.52709708193493
 30
0.0
  0
SPLINE
  5
18A
330
6C
100
AcDbEntity
  8
Visible (ANSI)
100
AcDbSpline
210
0.0
220
0.0
230
1.0
 70
     8
 71
     3
 72
    11
 73
     7
 74
     0
 42
0.0000000001
 43
0.0000000001
 40
0.0
 40
0.0
 40
0.0
 40
0.0
 40
0.9120227246349427
 40
0.9120227246349427
 40
0.9120227246349427
 40
1.570796326794897
 40
1.570796326794897
 40
1.570796326794897
 40
1.570796326794897
 10
61.42761611694164
 20
27.52709708193493
 30
0.0
 10
61.42333950788074
 20
27.46059542493029
 30
0.0
 10
61.41906289881981
 20
27.39483075382544
 30
0.0
 10
61.41478628975889
 20
27.3541219276605
 30
0.0
 10
61.41169720318242
 20
27.32471706818936
 30
0.0
 10
61.40860811660597
 20
27.30834708193492
 30
0.0
 10
61.4055190300295
 20
27.30834708193492
 30
0.0
  0
SPLINE
  5
18B
330
6C
100
AcDbEntity
  8
Visible (ANSI)
100
AcDbSpline
210
0.0
220
0.0
230
1.0
 70
     8
 71
     3
 72
    11
 73
     7
 74
     0
 42
0.0000000001
 43
0.0000000001
 40
0.0
 40
0.0
 40
0.0
 40
0.0
 40
0.9120227246349481
 40
0.9120227246349481
 40
0.9120227246349481
 40
1.570796326794896
 40
1.570796326794896
 40
1.570796326794896
 40
1.570796326794896
 10
61.42761611694158
 20
27.30834708193492
 30
0.0
 10
61.49411777394621
 20
27.30834708193492
 30
0.0
 10
61.55988244505106
 20
27.34060404900125
 30
0.0
 10
61.600591271216
 20
27.39318980616642
 30
0.0
 10
61.62999613068715
 20
27.43117362798827
 30
0.0
 10
61.64636611694159
 20
27.47906150677743
 30
0.0
 10
61.64636611694159
 20
27.52709708193493
 30
0.0
  0
LINE
  5
18C
330
6C
100
AcDbEntity
  8
Visible (ANSI)
100
AcDbLine
 10
61.42761611694158
 20
27.43334708193492
 30
0.0
 11
61.42138549132305
 21
27.43334708193492
 31
0.0
  0
LINE
  5
18D
330
6C
100
AcDbEntity
  8
Visible (ANSI)
100
AcDbLine
 10
61.40551903002949
 20
27.30834708193492
 30
0.0
 11
61.42761611694158
 21
27.30834708193492
 31
0.0
  0
LINE
  5
18E
330
6C
100
AcDbEntity
  8
Visible (ANSI)
100
AcDbLine
 10
61.42761611694158
 20
27.43334708193492
 30
0.0
 11
61.42761611694158
 21
27.30834708193492
 31
0.0
  0
SPLINE
  5
18F
330
6C
100
AcDbEntity
  8
Visible (ANSI)
100
AcDbSpline
210
0.0
220
0.0
230
1.0
 70
     8
 71
     3
 72
    11
 73
     7
 74
     0
 42
0.0000000001
 43
0.0000000001
 40
0.0
 40
0.0
 40
0.0
 40
0.0
 40
1.12719708240338
 40
1.12719708240338
 40
1.12719708240338
 40
1.570796326794896
 40
1.570796326794896
 40
1.570796326794896
 40
1.570796326794896
 10
61.52136611694158
 20
27.52709708193493
 30
0.0
 10
61.52136611694158
 20
27.49187217310982
 30
0.0
 10
61.49966855870497
 20
27.45753917557145
 30
0.0
 10
61.46785297207831
 20
27.44242088699971
 30
0.0
 10
61.45533220671456
 20
27.43647120748793
 30
0.0
 10
61.44147859332881
 20
27.43334708193492
 30
0.0
 10
61.42761611694158
 20
27.43334708193492
 30
0.0
  0
LINE
  5
190
330
6C
100
AcDbEntity
  8
Visible (ANSI)
100
AcDbLine
 10
61.64636611694159
 20
27.52709708193493
 30
0.0
 11
61.42761611694164
 21
27.52709708193493
 31
0.0
  0
LINE
  5
191
330
6C
100
AcDbEntity
  8
Visible (ANSI)
100
AcDbLine
 10
61.64636611694159
 20
33.08959708193493
 30
0.0
 11
61.64636611694159
 21
27.52709708193493
 31
0.0
  0
LINE
  5
192
330
6C
100
AcDbEntity
  8
Visible Narrow (ANSI)
100
AcDbLine
 10
61.42761611694164
 20
27.52709708193493
 30
0.0
 11
61.42761611694164
 21
33.08959708193493
 31
0.0
  0
LINE
  5
193
330
6C
100
AcDbEntity
  8
Visible (ANSI)
100
AcDbLine
 10
61.42761611694164
 20
33.08959708193493
 30
0.0
 11
61.64636611694159
 21
33.08959708193493
 31
0.0
  0
LINE
  5
194
330
6C
100
AcDbEntity
  8
Visible (ANSI)
100
AcDbLine
 10
53.64636611694165
 20
33.08959708193493
 30
0.0
 11
55.57069044126596
 21
27.52709708193493
 31
0.0
  0
LINE
  5
195
330
6C
100
AcDbEntity
  8
Visible (ANSI)
100
AcDbLine
 10
53.64636611694159
 20
33.30834708193493
 30
0.0
 11
53.64636611694165
 21
33.08959708193493
 31
0.0
  0
LINE
  5
196
330
6C
100
AcDbEntity
  8
Visible (ANSI)
100
AcDbLine
 10
53.64636611694159
 20
33.30834708193493
 30
0.0
 11
61.4055190300295
 21
33.30834708193493
 31
0.0
  0
LINE
  5
197
330
6C
100
AcDbEntity
  8
Visible Narrow (ANSI)
100
AcDbLine
 10
61.42761611694164
 20
33.08959708193493
 30
0.0
 11
53.64636611694165
 21
33.08959708193493
 31
0.0
  0
SPLINE
  5
198
330
6C
100
AcDbEntity
  8
Visible (ANSI)
100
AcDbSpline
210
0.0
220
0.0
230
1.0
 70
     8
 71
     3
 72
    11
 73
     7
 74
     0
 42
0.0000000001
 43
0.0000000001
 40
0.0
 40
0.0
 40
0.0
 40
0.0
 40
0.9120227246349593
 40
0.9120227246349593
 40
0.9120227246349593
 40
1.570796326794894
 40
1.570796326794894
 40
1.570796326794894
 40
1.570796326794894
 10
61.64636611694159
 20
33.08959708193493
 30
0.0
 10
61.64636611694159
 20
33.15609873893956
 30
0.0
 10
61.61410914987525
 20
33.2218634100444
 30
0.0
 10
61.56152339271008
 20
33.26257223620935
 30
0.0
 10
61.52353957088823
 20
33.29197709568049
 30
0.0
 10
61.47565169209907
 20
33.30834708193493
 30
0.0
 10
61.42761611694158
 20
33.30834708193493
 30
0.0
  0
LINE
  5
199
330
6C
100
AcDbEntity
  8
Visible (ANSI)
100
AcDbLine
 10
61.42761611694158
 20
33.18334708193493
 30
0.0
 11
61.42138549132305
 21
33.18334708193493
 31
0.0
  0
LINE
  5
19A
330
6C
100
AcDbEntity
  8
Visible (ANSI)
100
AcDbLine
 10
61.42761611694158
 20
33.18334708193493
 30
0.0
 11
61.42761611694158
 21
33.30834708193493
 31
0.0
  0
SPLINE
  5
19B
330
6C
100
AcDbEntity
  8
Visible (ANSI)
100
AcDbSpline
210
0.0
220
0.0
230
1.0
 70
     8
 71
     3
 72
    11
 73
     7
 74
     0
 42
0.0000000001
 43
0.0000000001
 40
0.0
 40
0.0
 40
0.0
 40
0.0
 40
1.127197082403315
 40
1.127197082403315
 40
1.127197082403315
 40
1.570796326794894
 40
1.570796326794894
 40
1.570796326794894
 40
1.570796326794894
 10
61.52136611694158
 20
33.08959708193493
 30
0.0
 10
61.52136611694158
 20
33.12482199076003
 30
0.0
 10
61.49966855870498
 20
33.1591549882984
 30
0.0
 10
61.46785297207831
 20
33.17427327687013
 30
0.0
 10
61.45533220671456
 20
33.18022295638192
 30
0.0
 10
61.44147859332881
 20
33.18334708193493
 30
0.0
 10
61.42761611694158
 20
33.18334708193493
 30
0.0
  0
LINE
  5
19C
330
6C
100
AcDbEntity
  8
Visible (ANSI)
100
AcDbLine
 10
61.42761611694158
 20
33.30834708193493
 30
0.0
 11
61.40551903002949
 21
33.30834708193493
 31
0.0
  0
SPLINE
  5
19D
330
6C
100
AcDbEntity
  8
Visible (ANSI)
100
AcDbSpline
210
0.0
220
0.0
230
1.0
 70
     8
 71
     3
 72
    11
 73
     7
 74
     0
 42
0.0000000001
 43
0.0000000001
 40
0.0
 40
0.0
 40
0.0
 40
0.0
 40
0.9120227246349079
 40
0.9120227246349079
 40
0.9120227246349079
 40
1.570796326794882
 40
1.570796326794882
 40
1.570796326794882
 40
1.570796326794882
 10
61.4055190300295
 20
33.30834708193492
 30
0.0
 10
61.40979563909042
 20
33.30834708193492
 30
0.0
 10
61.41407224815136
 20
33.27609011486859
 30
0.0
 10
61.41834885721229
 20
33.22350435770343
 30
0.0
 10
61.42143794378874
 20
33.18552053588158
 30
0.0
 10
61.42452703036519
 20
33.13763265709242
 30
0.0
 10
61.42761611694164
 20
33.08959708193493
 30
0.0
  0
LINE
  5
19E
330
6C
100
AcDbEntity
  8
Visible (ANSI)
100
AcDbLine
 10
53.89636611694154
 20
27.43347322313314
 30
0.0
 11
54.02136611694157
 21
27.43347322313314
 31
0.0
  0
LINE
  5
19F
330
6C
100
AcDbEntity
  8
Visible (ANSI)
100
AcDbLine
 10
53.89636611694154
 20
27.43347322313314
 30
0.0
 11
53.89636611694154
 21
27.30847322313314
 31
0.0
  0
LINE
  5
1A0
330
6C
100
AcDbEntity
  8
Visible (ANSI)
100
AcDbLine
 10
54.02136611694157
 20
27.30847322313314
 30
0.0
 11
53.89636611694154
 21
27.30847322313314
 31
0.0
  0
LINE
  5
1A1
330
6C
100
AcDbEntity
  8
Visible Narrow (ANSI)
100
AcDbLine
 10
54.02136611694158
 20
27.30847322313314
 30
0.0
 11
54.02136611694158
 21
27.43347322313314
 31
0.0
  0
LINE
  5
1A2
330
6C
100
AcDbEntity
  8
Visible (ANSI)
100
AcDbLine
 10
54.02136611694158
 20
27.30847322313314
 30
0.0
 11
55.39625690017246
 21
27.30847322313314
 31
0.0
  0
LINE
  5
1A3
330
6C
100
AcDbEntity
  8
Visible (ANSI)
100
AcDbLine
 10
55.39625690017246
 20
27.43347322313314
 30
0.0
 11
54.02136611694158
 21
27.43347322313314
 31
0.0
  0
ARC
  5
1A4
330
6C
100
AcDbEntity
  8
Visible (ANSI)
100
AcDbCircle
 10
55.39625690017246
 20
27.52722322313314
 30
0.0
 40
0.2187500000000007
100
AcDbArc
 50
270.0
 51
315.0000000000007
  0
ARC
  5
1A5
330
6C
100
AcDbEntity
  8
Visible (ANSI)
100
AcDbCircle
 10
55.39625690017246
 20
27.52722322313314
 30
0.0
 40
0.0937499999999999
100
AcDbArc
 50
270.0
 51
315.0
  0
LINE
  5
1A6
330
6C
100
AcDbEntity
  8
Visible (ANSI)
100
AcDbLine
 10
55.58428123647961
 20
27.40588834267117
 30
0.0
 11
55.55093650855702
 21
27.37254361474858
 31
0.0
  0
LINE
  5
1A7
330
6C
100
AcDbEntity
  8
Visible (ANSI)
100
AcDbLine
 10
55.4625481609087
 20
27.4609319623969
 30
0.0
 11
55.49589288883129
 21
27.49427669031949
 31
0.0
  0
ARC
  5
1A8
330
6C
100
AcDbEntity
  8
Visible (ANSI)
100
AcDbCircle
 10
55.65057249721583
 20
27.33959708193496
 30
0.0
 40
0.0937499999999733
100
AcDbArc
 50
125.345466797744
 51
135.0000000000015
  0
ARC
  5
1A9
330
6C
100
AcDbEntity
  8
Visible (ANSI)
100
AcDbCircle
 10
55.65057249721585
 20
27.33959708193494
 30
0.0
 40
0.2187499999999936
100
AcDbArc
 50
112.8026723723152
 51
135.0
  0
MTEXT
  5
1AA
330
6C
100
AcDbEntity
  8
Symbol (ANSI)
100
AcDbMText
 10
55.30060099038538
 20
23.91551025874504
 30
0.0
 40
0.600000007415381
 41
0.0
 71
     7
 72
     1
  1
RIGHT VIEW
  7
Text Style168
 73
     1
 44
1.0
  0
LINE
  5
1AB
330
6C
100
AcDbEntity
  8
Symbol (ANSI)
370
    30
100
AcDbLine
 10
55.24060083604345
 20
23.79217962443771
 30
0.0
 11
59.91515517652614
 21
23.79217962443771
 31
0.0
  0
CIRCLE
  5
1AC
330
6C
100
AcDbEntity
  8
Visible (ANSI)
100
AcDbCircle
 10
34.25018069253879
 20
18.83780713101847
 30
0.0
 40
0.28125
  0
CIRCLE
  5
1AD
330
6C
100
AcDbEntity
  8
Visible (ANSI)
100
AcDbCircle
 10
39.87518069253877
 20
18.83780713101847
 30
0.0
 40
0.28125
  0
CIRCLE
  5
1AE
330
6C
100
AcDbEntity
  8
Visible (ANSI)
100
AcDbCircle
 10
32.68768069253878
 20
17.52530713101846
 30
0.0
 40
0.28125
  0
CIRCLE
  5
1AF
330
6C
100
AcDbEntity
  8
Visible (ANSI)
100
AcDbCircle
 10
32.68768069253878
 20
12.52530713101846
 30
0.0
 40
0.28125
  0
CIRCLE
  5
1B0
330
6C
100
AcDbEntity
  8
Visible (ANSI)
100
AcDbCircle
 10
41.43768069253876
 20
17.52530713101847
 30
0.0
 40
0.28125
  0
CIRCLE
  5
1B1
330
6C
100
AcDbEntity
  8
Visible (ANSI)
100
AcDbCircle
 10
41.43768069253872
 20
12.52530713101847
 30
0.0
 40
0.28125
  0
LINE
  5
1B2
330
6C
100
AcDbEntity
  8
Visible (ANSI)
100
AcDbLine
 10
32.00018069253879
 20
11.5253071310184
 30
0.0
 11
32.00018069253879
 21
19.3065571310184
 31
0.0
  0
LINE
  5
1B3
330
6C
100
AcDbEntity
  8
Visible (ANSI)
100
AcDbLine
 10
32.00018069253879
 20
11.5253071310184
 30
0.0
 11
32.21893069253879
 21
11.52530713101846
 31
0.0
  0
LINE
  5
1B4
330
6C
100
AcDbEntity
  8
Visible (ANSI)
100
AcDbLine
 10
41.90643069253869
 20
11.52530713101846
 30
0.0
 11
42.1251806925387
 21
11.5253071310184
 31
0.0
  0
LINE
  5
1B5
330
6C
100
AcDbEntity
  8
Visible Narrow (ANSI)
100
AcDbLine
 10
41.88433360562669
 20
19.30655713101847
 30
0.0
 11
32.24102777945085
 21
19.30655713101847
 31
0.0
  0
LINE
  5
1B6
330
6C
100
AcDbEntity
  8
Visible (ANSI)
100
AcDbLine
 10
32.21893069253878
 20
19.5253071310184
 30
0.0
 11
41.90643069253877
 21
19.5253071310184
 31
0.0
  0
LINE
  5
1B7
330
6C
100
AcDbEntity
  8
Visible Narrow (ANSI)
100
AcDbLine
 10
32.21893069253878
 20
19.28446004410639
 30
0.0
 11
32.21893069253878
 21
11.52530713101846
 31
0.0
  0
LINE
  5
1B8
330
6C
100
AcDbEntity
  8
Visible Narrow (ANSI)
100
AcDbLine
 10
41.90643069253869
 20
11.52530713101846
 30
0.0
 11
41.90643069253876
 21
19.28446004410638
 31
0.0
  0
LINE
  5
1B9
330
6C
100
AcDbEntity
  8
Visible (ANSI)
100
AcDbLine
 10
42.12518069253877
 20
19.3065571310184
 30
0.0
 11
42.1251806925387
 21
11.5253071310184
 31
0.0
  0
ARC
  5
1BA
330
6C
100
AcDbEntity
  8
Visible (ANSI)
100
AcDbCircle
 10
41.90643069253876
 20
19.3065571310184
 30
0.0
 40
0.2187500000000003
100
AcDbArc
 50
0.0
 51
89.99999999999815
  0
ARC
  5
1BB
330
6C
100
AcDbEntity
  8
Visible (ANSI)
100
AcDbCircle
 10
32.21893069253878
 20
19.3065571310184
 30
0.0
 40
0.09375
100
AcDbArc
 50
90.0
 51
180.0
  0
LINE
  5
1BC
330
6C
100
AcDbEntity
  8
Visible (ANSI)
100
AcDbLine
 10
32.75018069253878
 20
11.52530713101846
 30
0.0
 11
32.21893069253878
 21
11.52530713101846
 31
0.0
  0
LINE
  5
1BD
330
6C
100
AcDbEntity
  8
Visible (ANSI)
100
AcDbLine
 10
41.90643069253869
 20
11.52530713101846
 30
0.0
 11
41.37518069253871
 21
11.52530713101847
 31
0.0
  0
LINE
  5
1BE
330
6C
100
AcDbEntity
  8
Visible (ANSI)
100
AcDbLine
 10
40.85308360562668
 20
18.27530713101846
 30
0.0
 11
33.27227777945085
 21
18.27530713101847
 31
0.0
  0
LINE
  5
1BF
330
6C
100
AcDbEntity
  8
Visible (ANSI)
100
AcDbLine
 10
33.25018069253878
 20
18.25321004410639
 30
0.0
 11
33.25018069253878
 21
12.02530713101846
 31
0.0
  0
LINE
  5
1C0
330
6C
100
AcDbEntity
  8
Visible (ANSI)
100
AcDbLine
 10
40.87518069253871
 20
12.02530713101847
 30
0.0
 11
40.87518069253877
 21
18.25321004410638
 31
0.0
  0
ARC
  5
1C1
330
6C
100
AcDbEntity
  8
Visible (ANSI)
100
AcDbCircle
 10
32.21893069253878
 20
19.3065571310184
 30
0.0
 40
0.21875
100
AcDbArc
 50
90.0
 51
180.0
  0
ARC
  5
1C2
330
6C
100
AcDbEntity
  8
Visible (ANSI)
100
AcDbCircle
 10
41.90643069253876
 20
19.3065571310184
 30
0.0
 40
0.0937500000000015
100
AcDbArc
 50
0.0
 51
89.99999999999571
  0
LINE
  5
1C3
330
6C
100
AcDbEntity
  8
Visible (ANSI)
100
AcDbLine
 10
33.25018069253878
 20
12.02530713101846
 30
0.0
 11
32.75018069253878
 21
11.52530713101846
 31
0.0
  0
LINE
  5
1C4
330
6C
100
AcDbEntity
  8
Visible (ANSI)
100
AcDbLine
 10
41.37518069253871
 20
11.52530713101847
 30
0.0
 11
40.87518069253871
 21
12.02530713101847
 31
0.0
  0
SPLINE
  5
1C5
330
6C
100
AcDbEntity
  8
Visible (ANSI)
100
AcDbSpline
210
0.0
220
0.0
230
1.0
 70
     8
 71
     3
 72
    11
 73
     7
 74
     0
 42
0.0000000001
 43
0.0000000001
 40
0.0
 40
0.0
 40
0.0
 40
0.0
 40
0.9120227246349593
 40
0.9120227246349593
 40
0.9120227246349593
 40
1.570796326794894
 40
1.570796326794894
 40
1.570796326794894
 40
1.570796326794894
 10
41.90643069253877
 20
19.5253071310184
 30
0.0
 10
41.90215408347786
 20
19.52530713101842
 30
0.0
 10
41.89787747441695
 20
19.4930501639521
 30
0.0
 10
41.89360086535604
 20
19.44046440678695
 30
0.0
 10
41.89051177877959
 20
19.40248058496511
 30
0.0
 10
41.88742269220314
 20
19.35459270617596
 30
0.0
 10
41.88433360562669
 20
19.30655713101847
 30
0.0
  0
SPLINE
  5
1C6
330
6C
100
AcDbEntity
  8
Visible (ANSI)
100
AcDbSpline
210
0.0
220
0.0
230
1.0
 70
     8
 71
     3
 72
    11
 73
     7
 74
     0
 42
0.0000000001
 43
0.0000000001
 40
0.0
 40
0.0
 40
0.0
 40
0.0
 40
0.9120227246349584
 40
0.9120227246349584
 40
0.9120227246349584
 40
1.570796326794894
 40
1.570796326794894
 40
1.570796326794894
 40
1.570796326794894
 10
32.24102777945085
 20
19.30655713101847
 30
0.0
 10
32.23675117038995
 20
19.3730587880231
 30
0.0
 10
32.23247456132904
 20
19.43882345912793
 30
0.0
 10
32.22819795226813
 20
19.47953228529286
 30
0.0
 10
32.22510886569168
 20
19.508937144764
 30
0.0
 10
32.22201977911523
 20
19.52530713101841
 30
0.0
 10
32.21893069253878
 20
19.5253071310184
 30
0.0
  0
LINE
  5
1C7
330
6C
100
AcDbEntity
  8
Visible (ANSI)
100
AcDbLine
 10
33.27227777945085
 20
18.27530713101847
 30
0.0
 11
32.24102777945085
 21
19.30655713101847
 31
0.0
  0
SPLINE
  5
1C8
330
6C
100
AcDbEntity
  8
Visible (ANSI)
100
AcDbSpline
210
0.0
220
0.0
230
1.0
 70
    24
 71
     3
 72
     8
 73
     4
 74
     0
 42
0.0000000001
 43
0.0000000001
 40
-0.0000000000000001
 40
-0.0000000000000001
 40
-0.0000000000000001
 40
-0.0000000000000001
 40
0.3175
 40
0.3175
 40
0.3175
 40
0.3175
 10
32.21893069253878
 20
19.4003071310184
 30
0.0
 10
32.21893069253878
 20
19.44197379768507
 30
0.0
 10
32.21893069253878
 20
19.48364046435173
 30
0.0
 10
32.21893069253878
 20
19.5253071310184
 30
0.0
  0
SPLINE
  5
1C9
330
6C
100
AcDbEntity
  8
Visible (ANSI)
100
AcDbSpline
210
0.0
220
0.0
230
1.0
 70
     8
 71
     3
 72
    11
 73
     7
 74
     0
 42
0.0000000001
 43
0.0000000001
 40
0.0
 40
0.0
 40
0.0
 40
0.0
 40
1.127197082403416
 40
1.127197082403416
 40
1.127197082403416
 40
1.570796326794894
 40
1.570796326794894
 40
1.570796326794894
 40
1.570796326794894
 10
32.21893069253878
 20
19.4003071310184
 30
0.0
 10
32.22421628589718
 20
19.40030713101841
 30
0.0
 10
32.22950187925558
 20
19.37860957278181
 30
0.0
 10
32.23478747261398
 20
19.34679398615515
 30
0.0
 10
32.23686757489293
 20
19.33427322079142
 30
0.0
 10
32.23894767717189
 20
19.32041960740566
 30
0.0
 10
32.24102777945085
 20
19.30655713101843
 30
0.0
  0
SPLINE
  5
1CA
330
6C
100
AcDbEntity
  8
Visible (ANSI)
100
AcDbSpline
210
0.0
220
0.0
230
1.0
 70
     8
 71
     3
 72
    11
 73
     7
 74
     0
 42
0.0000000001
 43
0.0000000001
 40
0.0
 40
0.0
 40
0.0
 40
0.0
 40
1.127197082403315
 40
1.127197082403315
 40
1.127197082403315
 40
1.570796326794894
 40
1.570796326794894
 40
1.570796326794894
 40
1.570796326794894
 10
41.90643069253877
 20
19.4003071310184
 30
0.0
 10
41.90114509918038
 20
19.40030713101841
 30
0.0
 10
41.89585950582197
 20
19.37860957278181
 30
0.0
 10
41.89057391246358
 20
19.34679398615515
 30
0.0
 10
41.88849381018461
 20
19.33427322079142
 30
0.0
 10
41.88641370790565
 20
19.32041960740567
 30
0.0
 10
41.88433360562669
 20
19.30655713101843
 30
0.0
  0
SPLINE
  5
1CB
330
6C
100
AcDbEntity
  8
Visible (ANSI)
100
AcDbSpline
210
0.0
220
0.0
230
1.0
 70
    24
 71
     3
 72
     8
 73
     4
 74
     0
 42
0.0000000001
 43
0.0000000001
 40
-0.3175000000000002
 40
-0.3175000000000002
 40
-0.3175000000000002
 40
-0.3175000000000002
 40
0.0
 40
0.0
 40
0.0
 40
0.0
 10
41.90643069253877
 20
19.5253071310184
 30
0.0
 10
41.90643069253877
 20
19.48364046435173
 30
0.0
 10
41.90643069253877
 20
19.44197379768507
 30
0.0
 10
41.90643069253877
 20
19.4003071310184
 30
0.0
  0
LINE
  5
1CC
330
6C
100
AcDbEntity
  8
Visible (ANSI)
100
AcDbLine
 10
41.88433360562669
 20
19.30655713101847
 30
0.0
 11
40.85308360562668
 21
18.27530713101846
 31
0.0
  0
SPLINE
  5
1CD
330
6C
100
AcDbEntity
  8
Visible (ANSI)
100
AcDbSpline
210
0.0
220
0.0
230
1.0
 70
     8
 71
     3
 72
    11
 73
     7
 74
     0
 42
0.0000000001
 43
0.0000000001
 40
0.0
 40
0.0
 40
0.0
 40
0.0
 40
0.9120227246349571
 40
0.9120227246349571
 40
0.9120227246349571
 40
1.570796326794894
 40
1.570796326794894
 40
1.570796326794894
 40
1.570796326794894
 10
32.00018069253879
 20
19.3065571310184
 30
0.0
 10
32.00018069253879
 20
19.30228052195751
 30
0.0
 10
32.03243765960511
 20
19.29800391289662
 30
0.0
 10
32.08502341677028
 20
19.29372730383572
 30
0.0
 10
32.12300723859212
 20
19.29063821725928
 30
0.0
 10
32.17089511738129
 20
19.28754913068283
 30
0.0
 10
32.21893069253878
 20
19.28446004410639
 30
0.0
  0
SPLINE
  5
1CE
330
6C
100
AcDbEntity
  8
Visible (ANSI)
100
AcDbSpline
210
0.0
220
0.0
230
1.0
 70
     8
 71
     3
 72
    11
 73
     7
 74
     0
 42
0.0000000001
 43
0.0000000001
 40
0.0
 40
0.0
 40
0.0
 40
0.0
 40
1.127197082403361
 40
1.127197082403361
 40
1.127197082403361
 40
1.570796326794894
 40
1.570796326794894
 40
1.570796326794894
 40
1.570796326794894
 10
32.12518069253878
 20
19.3065571310184
 30
0.0
 10
32.12518069253878
 20
19.30127153766001
 30
0.0
 10
32.14687825077539
 20
19.29598594430162
 30
0.0
 10
32.17869383740205
 20
19.29070035094323
 30
0.0
 10
32.19121460276579
 20
19.28862024866427
 30
0.0
 10
32.20506821615155
 20
19.28654014638531
 30
0.0
 10
32.21893069253878
 20
19.28446004410635
 30
0.0
  0
SPLINE
  5
1CF
330
6C
100
AcDbEntity
  8
Visible (ANSI)
100
AcDbSpline
210
0.0
220
0.0
230
1.0
 70
    24
 71
     3
 72
     8
 73
     4
 74
     0
 42
0.0000000001
 43
0.0000000001
 40
-0.3175000000000002
 40
-0.3175000000000002
 40
-0.3175000000000002
 40
-0.3175000000000002
 40
0.0
 40
0.0
 40
0.0
 40
0.0
 10
32.00018069253879
 20
19.3065571310184
 30
0.0
 10
32.04184735920545
 20
19.3065571310184
 30
0.0
 10
32.08351402587211
 20
19.3065571310184
 30
0.0
 10
32.12518069253878
 20
19.3065571310184
 30
0.0
  0
LINE
  5
1D0
330
6C
100
AcDbEntity
  8
Visible (ANSI)
100
AcDbLine
 10
32.21893069253878
 20
19.28446004410639
 30
0.0
 11
33.25018069253878
 21
18.25321004410639
 31
0.0
  0
SPLINE
  5
1D1
330
6C
100
AcDbEntity
  8
Visible (ANSI)
100
AcDbSpline
210
0.0
220
0.0
230
1.0
 70
     8
 71
     3
 72
    11
 73
     7
 74
     0
 42
0.0000000001
 43
0.0000000001
 40
0.0
 40
0.0
 40
0.0
 40
0.0
 40
0.9120227246349079
 40
0.9120227246349079
 40
0.9120227246349079
 40
1.570796326794882
 40
1.570796326794882
 40
1.570796326794882
 40
1.570796326794882
 10
41.90643069253877
 20
19.28446004410638
 30
0.0
 10
41.97293234954339
 20
19.28873665316729
 30
0.0
 10
42.03869702064824
 20
19.2930132622282
 30
0.0
 10
42.07940584681319
 20
19.29728987128909
 30
0.0
 10
42.10881070628434
 20
19.30037895786553
 30
0.0
 10
42.12518069253877
 20
19.30346804444196
 30
0.0
 10
42.12518069253877
 20
19.3065571310184
 30
0.0
  0
LINE
  5
1D2
330
6C
100
AcDbEntity
  8
Visible (ANSI)
100
AcDbLine
 10
40.87518069253877
 20
18.25321004410638
 30
0.0
 11
41.90643069253876
 21
19.28446004410638
 31
0.0
  0
SPLINE
  5
1D3
330
6C
100
AcDbEntity
  8
Visible (ANSI)
100
AcDbSpline
210
0.0
220
0.0
230
1.0
 70
    24
 71
     3
 72
     8
 73
     4
 74
     0
 42
0.0000000001
 43
0.0000000001
 40
0.0
 40
0.0
 40
0.0
 40
0.0
 40
0.3175000000000061
 40
0.3175000000000061
 40
0.3175000000000061
 40
0.3175000000000061
 10
42.00018069253877
 20
19.3065571310184
 30
0.0
 10
42.04184735920544
 20
19.3065571310184
 30
0.0
 10
42.08351402587211
 20
19.3065571310184
 30
0.0
 10
42.12518069253877
 20
19.3065571310184
 30
0.0
  0
SPLINE
  5
1D4
330
6C
100
AcDbEntity
  8
Visible (ANSI)
100
AcDbSpline
210
0.0
220
0.0
230
1.0
 70
     8
 71
     3
 72
    11
 73
     7
 74
     0
 42
0.0000000001
 43
0.0000000001
 40
0.0
 40
0.0
 40
0.0
 40
0.0
 40
1.127197082403437
 40
1.127197082403437
 40
1.127197082403437
 40
1.570796326794882
 40
1.570796326794882
 40
1.570796326794882
 40
1.570796326794882
 10
42.00018069253878
 20
19.3065571310184
 30
0.0
 10
42.00018069253878
 20
19.30127153766001
 30
0.0
 10
41.97848313430216
 20
19.29598594430162
 30
0.0
 10
41.94666754767549
 20
19.29070035094323
 30
0.0
 10
41.93414678231175
 20
19.28862024866427
 30
0.0
 10
41.920293168926
 20
19.28654014638531
 30
0.0
 10
41.90643069253876
 20
19.28446004410634
 30
0.0
  0
CIRCLE
  5
1D5
330
6C
100
AcDbEntity
  8
Visible (ANSI)
100
AcDbCircle
 10
37.06268069253874
 20
15.77530713101675
 30
0.0
 40
0.28125
  0
CIRCLE
  5
1D6
330
6C
100
AcDbEntity
  8
Visible (ANSI)
100
AcDbCircle
 10
34.12518069253874
 20
12.77530713101672
 30
0.0
 40
0.28125
  0
CIRCLE
  5
1D7
330
6C
100
AcDbEntity
  8
Visible (ANSI)
100
AcDbCircle
 10
40.00018069253875
 20
12.77530713101672
 30
0.0
 40
0.28125
  0
LINE
  5
1D8
330
6C
100
AcDbEntity
  8
Visible (ANSI)
100
AcDbLine
 10
41.87518069253875
 20
19.25321004410465
 30
0.0
 11
41.87518069253875
 21
19.27540429452192
 31
0.0
  0
LINE
  5
1D9
330
6C
100
AcDbEntity
  8
Visible (ANSI)
100
AcDbLine
 10
32.25018069253874
 20
19.27540429452192
 30
0.0
 11
32.25018069253874
 21
19.25321004410472
 31
0.0
  0
ARC
  5
1DA
330
6C
100
AcDbEntity
  8
Visible (ANSI)
100
AcDbCircle
 10
32.37518069253873
 20
19.27540429452192
 30
0.0
 40
0.1249999999999851
100
AcDbArc
 50
170.6375988628184
 51
180.0
  0
ARC
  5
1DB
330
6C
100
AcDbEntity
  8
Visible (ANSI)
100
AcDbCircle
 10
41.75018069253833
 20
19.27540429452188
 30
0.0
 40
0.1250000000004065
100
AcDbArc
 50
0.0
 51
9.362401137138123
  0
LINE
  5
1DC
330
6C
100
AcDbEntity
  8
Visible Narrow (ANSI)
100
AcDbLine
 10
40.87518069253873
 20
13.52951351129102
 30
0.0
 11
33.25018069253878
 21
13.52951351129103
 31
0.0
  0
LINE
  5
1DD
330
6C
100
AcDbEntity
  8
Visible Narrow (ANSI)
100
AcDbLine
 10
40.87518069253873
 20
13.37483390290646
 30
0.0
 11
33.25018069253878
 21
13.37483390290646
 31
0.0
  0
LINE
  5
1DE
330
6C
100
AcDbEntity
  8
Visible Narrow (ANSI)
100
AcDbLine
 10
40.87518069253872
 20
13.34148917498385
 30
0.0
 11
33.25018069253878
 21
13.34148917498385
 31
0.0
  0
LINE
  5
1DF
330
6C
100
AcDbEntity
  8
Visible Narrow (ANSI)
100
AcDbLine
 10
40.87518069253872
 20
13.27519791424761
 30
0.0
 11
33.25018069253878
 21
13.27519791424761
 31
0.0
  0
LINE
  5
1E0
330
6C
100
AcDbEntity
  8
Visible (ANSI)
100
AcDbLine
 10
41.12518069253872
 20
11.77530713101672
 30
0.0
 11
33.00018069253878
 21
11.77530713101672
 31
0.0
  0
MTEXT
  5
1E1
330
6C
100
AcDbEntity
  8
Symbol (ANSI)
100
AcDbMText
 10
34.36336149077337
 20
9.364590421313824
 30
0.0
 40
0.600000007415381
 41
0.0
 71
     7
 72
     1
  1
BOTTOM VIEW
  7
Text Style168
 73
     1
 44
1.0
  0
LINE
  5
1E2
330
6C
100
AcDbEntity
  8
Symbol (ANSI)
370
    30
100
AcDbLine
 10
34.30336133643145
 20
9.242232234439374
 30
0.0
 11
39.82200004864611
 21
9.242232234439374
 31
0.0
  0
LINE
  5
1E3
330
6C
100
AcDbEntity
  8
Visible Narrow (ANSI)
100
AcDbLine
 10
41.90643069254501
 20
40.45487000451905
 30
0.0
 11
41.90643069254496
 21
46.21402291760698
 31
0.0
  0
LINE
  5
1E4
330
6C
100
AcDbEntity
  8
Visible (ANSI)
100
AcDbLine
 10
42.12518069254495
 20
46.28969859328272
 30
0.0
 11
42.12518069254501
 21
40.43277291760704
 31
0.0
  0
SPLINE
  5
1E5
330
6C
100
AcDbEntity
  8
Visible (ANSI)
100
AcDbSpline
210
0.0
220
0.0
230
1.0
 70
     8
 71
     3
 72
    11
 73
     7
 74
     0
 42
0.0000000001
 43
0.0000000001
 40
0.0
 40
0.0
 40
0.0
 40
0.0
 40
0.9120227246349411
 40
0.9120227246349411
 40
0.9120227246349411
 40
1.570796326794897
 40
1.570796326794897
 40
1.570796326794897
 40
1.570796326794897
 10
41.90643069254496
 20
46.21402291760698
 30
0.0
 10
41.97293234954959
 20
46.2286689784915
 30
0.0
 10
42.03869702065443
 20
46.24331503937605
 30
0.0
 10
42.07940584681938
 20
46.2579611002606
 30
0.0
 10
42.10881070629052
 20
46.2685402646013
 30
0.0
 10
42.12518069254495
 20
46.27911942894201
 30
0.0
 10
42.12518069254495
 20
46.28969859328271
 30
0.0
  0
LINE
  5
1E6
330
6C
100
AcDbEntity
  8
Visible (ANSI)
100
AcDbLine
 10
42.04569126775037
 20
46.28969859328271
 30
0.0
 11
42.12518069254495
 21
46.28969859328272
 31
0.0
  0
LINE
  5
1E7
330
6C
100
AcDbEntity
  8
Visible (ANSI)
100
AcDbLine
 10
42.00018069254496
 20
46.28969859328271
 30
0.0
 11
42.04569126775037
 21
46.28969859328271
 31
0.0
  0
SPLINE
  5
1E8
330
6C
100
AcDbEntity
  8
Visible (ANSI)
100
AcDbSpline
210
0.0
220
0.0
230
1.0
 70
     8
 71
     3
 72
    11
 73
     7
 74
     0
 42
0.0000000001
 43
0.0000000001
 40
0.0
 40
0.0
 40
0.0
 40
0.0
 40
1.127197082403416
 40
1.127197082403416
 40
1.127197082403416
 40
1.570796326794897
 40
1.570796326794897
 40
1.570796326794897
 40
1.570796326794897
 10
42.00018069254496
 20
46.28969859328271
 30
0.0
 10
42.00018069254496
 20
46.27159707382292
 30
0.0
 10
41.97848313430835
 20
46.25349555436311
 30
0.0
 10
41.94666754768168
 20
46.23539403490332
 30
0.0
 10
41.93414678231794
 20
46.22827032913789
 30
0.0
 10
41.92029316893219
 20
46.22114662337245
 30
0.0
 10
41.90643069254496
 20
46.21402291760701
 30
0.0
  0
LINE
  5
1E9
330
6C
100
AcDbEntity
  8
Visible Narrow (ANSI)
100
AcDbLine
 10
32.2410277794571
 20
40.43277291760698
 30
0.0
 11
41.88433360563293
 21
40.43277291760698
 31
0.0
  0
LINE
  5
1EA
330
6C
100
AcDbEntity
  8
Visible (ANSI)
100
AcDbLine
 10
41.90643069254502
 20
40.21402291760703
 30
0.0
 11
32.21893069254502
 21
40.21402291760703
 31
0.0
  0
LINE
  5
1EB
330
6C
100
AcDbEntity
  8
Visible Narrow (ANSI)
100
AcDbLine
 10
32.21893069254502
 20
46.21402291760689
 30
0.0
 11
32.21893069254502
 21
40.45487000451905
 31
0.0
  0
SPLINE
  5
1EC
330
6C
100
AcDbEntity
  8
Visible (ANSI)
100
AcDbSpline
210
0.0
220
0.0
230
1.0
 70
     8
 71
     3
 72
    11
 73
     7
 74
     0
 42
0.0000000001
 43
0.0000000001
 40
0.0
 40
0.0
 40
0.0
 40
0.0
 40
0.9120227246349474
 40
0.9120227246349474
 40
0.9120227246349474
 40
1.570796326794896
 40
1.570796326794896
 40
1.570796326794896
 40
1.570796326794896
 10
32.00018069254502
 20
46.28969859328263
 30
0.0
 10
32.00018069254502
 20
46.27505253239807
 30
0.0
 10
32.03243765961135
 20
46.26040647151351
 30
0.0
 10
32.08502341677652
 20
46.24576041062897
 30
0.0
 10
32.12300723859836
 20
46.23518124628827
 30
0.0
 10
32.17089511738752
 20
46.22460208194758
 30
0.0
 10
32.21893069254502
 20
46.21402291760689
 30
0.0
  0
LINE
  5
1ED
330
6C
100
AcDbEntity
  8
Visible (ANSI)
100
AcDbLine
 10
32.00018069254502
 20
40.43277291760704
 30
0.0
 11
32.00018069254502
 21
46.28969859328263
 31
0.0
  0
SPLINE
  5
1EE
330
6C
100
AcDbEntity
  8
Visible (ANSI)
100
AcDbSpline
210
0.0
220
0.0
230
1.0
 70
     8
 71
     3
 72
    11
 73
     7
 74
     0
 42
0.0000000001
 43
0.0000000001
 40
0.0
 40
0.0
 40
0.0
 40
0.0
 40
1.127197082403386
 40
1.127197082403386
 40
1.127197082403386
 40
1.570796326794896
 40
1.570796326794896
 40
1.570796326794896
 40
1.570796326794896
 10
32.12518069254502
 20
46.28969859328263
 30
0.0
 10
32.12518069254502
 20
46.27159707382283
 30
0.0
 10
32.14687825078164
 20
46.25349555436303
 30
0.0
 10
32.1786938374083
 20
46.23539403490323
 30
0.0
 10
32.19121460277204
 20
46.22827032913781
 30
0.0
 10
32.20506821615778
 20
46.22114662337236
 30
0.0
 10
32.21893069254502
 20
46.21402291760692
 30
0.0
  0
LINE
  5
1EF
330
6C
100
AcDbEntity
  8
Visible (ANSI)
100
AcDbLine
 10
32.07967011733961
 20
46.28969859328263
 30
0.0
 11
32.12518069254502
 21
46.28969859328263
 31
0.0
  0
LINE
  5
1F0
330
6C
100
AcDbEntity
  8
Visible (ANSI)
100
AcDbLine
 10
32.00018069254502
 20
46.28969859328263
 30
0.0
 11
32.07967011733961
 21
46.28969859328263
 31
0.0
  0
SPLINE
  5
1F1
330
6C
100
AcDbEntity
  8
Visible (ANSI)
100
AcDbSpline
210
0.0
220
0.0
230
1.0
 70
     8
 71
     3
 72
    11
 73
     7
 74
     0
 42
0.0000000001
 43
0.0000000001
 40
0.0
 40
0.0
 40
0.0
 40
0.0
 40
0.9120227246349427
 40
0.9120227246349427
 40
0.9120227246349427
 40
1.570796326794897
 40
1.570796326794897
 40
1.570796326794897
 40
1.570796326794897
 10
42.12518069254501
 20
40.43277291760704
 30
0.0
 10
42.12518069254501
 20
40.43704952666793
 30
0.0
 10
42.09292372547867
 20
40.44132613572882
 30
0.0
 10
42.04033796831351
 20
40.44560274478971
 30
0.0
 10
42.00235414649166
 20
40.44869183136616
 30
0.0
 10
41.95446626770251
 20
40.45178091794261
 30
0.0
 10
41.90643069254501
 20
40.45487000451905
 30
0.0
  0
SPLINE
  5
1F2
330
6C
100
AcDbEntity
  8
Visible (ANSI)
100
AcDbSpline
210
0.0
220
0.0
230
1.0
 70
     8
 71
     3
 72
    11
 73
     7
 74
     0
 42
0.0000000001
 43
0.0000000001
 40
0.0
 40
0.0
 40
0.0
 40
0.0
 40
1.127197082403416
 40
1.127197082403416
 40
1.127197082403416
 40
1.570796326794897
 40
1.570796326794897
 40
1.570796326794897
 40
1.570796326794897
 10
42.00018069254501
 20
40.43277291760704
 30
0.0
 10
42.00018069254501
 20
40.43805851096542
 30
0.0
 10
41.9784831343084
 20
40.44334410432382
 30
0.0
 10
41.94666754768173
 20
40.4486296976822
 30
0.0
 10
41.93414678231799
 20
40.45070979996117
 30
0.0
 10
41.92029316893225
 20
40.45278990224013
 30
0.0
 10
41.90643069254501
 20
40.45487000451909
 30
0.0
  0
SPLINE
  5
1F3
330
6C
100
AcDbEntity
  8
Visible (ANSI)
100
AcDbSpline
210
0.0
220
0.0
230
1.0
 70
    24
 71
     3
 72
     8
 73
     4
 74
     0
 42
0.0000000001
 43
0.0000000001
 40
-0.317499999999999
 40
-0.317499999999999
 40
-0.317499999999999
 40
-0.317499999999999
 40
0.0000000000000036
 40
0.0000000000000036
 40
0.0000000000000036
 40
0.0000000000000036
 10
42.12518069254501
 20
40.43277291760704
 30
0.0
 10
42.08351402587834
 20
40.43277291760704
 30
0.0
 10
42.04184735921168
 20
40.43277291760704
 30
0.0
 10
42.00018069254501
 20
40.43277291760704
 30
0.0
  0
LINE
  5
1F4
330
6C
100
AcDbEntity
  8
Visible (ANSI)
100
AcDbLine
 10
41.90643069254501
 20
40.45487000451905
 30
0.0
 11
40.875180692545
 21
41.48612000451906
 31
0.0
  0
SPLINE
  5
1F5
330
6C
100
AcDbEntity
  8
Visible (ANSI)
100
AcDbSpline
210
0.0
220
0.0
230
1.0
 70
     8
 71
     3
 72
    11
 73
     7
 74
     0
 42
0.0000000001
 43
0.0000000001
 40
0.0
 40
0.0
 40
0.0
 40
0.0
 40
0.9120227246349509
 40
0.9120227246349509
 40
0.9120227246349509
 40
1.570796326794895
 40
1.570796326794895
 40
1.570796326794895
 40
1.570796326794895
 10
32.21893069254502
 20
40.21402291760703
 30
0.0
 10
32.22320730160593
 20
40.21402291760701
 30
0.0
 10
32.22748391066684
 20
40.24627988467333
 30
0.0
 10
32.23176051972775
 20
40.29886564183849
 30
0.0
 10
32.23484960630421
 20
40.33684946366032
 30
0.0
 10
32.23793869288066
 20
40.38473734244948
 30
0.0
 10
32.2410277794571
 20
40.43277291760698
 30
0.0
  0
SPLINE
  5
1F6
330
6C
100
AcDbEntity
  8
Visible (ANSI)
100
AcDbSpline
210
0.0
220
0.0
230
1.0
 70
     8
 71
     3
 72
    11
 73
     7
 74
     0
 42
0.0000000001
 43
0.0000000001
 40
0.0
 40
0.0
 40
0.0
 40
0.0
 40
0.9120227246349481
 40
0.9120227246349481
 40
0.9120227246349481
 40
1.570796326794896
 40
1.570796326794896
 40
1.570796326794896
 40
1.570796326794896
 10
41.88433360563293
 20
40.43277291760698
 30
0.0
 10
41.88861021469384
 20
40.36627126060234
 30
0.0
 10
41.89288682375475
 20
40.3005065894975
 30
0.0
 10
41.89716343281567
 20
40.25979776333257
 30
0.0
 10
41.90025251939212
 20
40.23039290386144
 30
0.0
 10
41.90334160596857
 20
40.21402291760702
 30
0.0
 10
41.90643069254502
 20
40.21402291760703
 30
0.0
  0
LINE
  5
1F7
330
6C
100
AcDbEntity
  8
Visible (ANSI)
100
AcDbLine
 10
40.85308360563292
 20
41.46402291760697
 30
0.0
 11
41.88433360563293
 21
40.43277291760698
 31
0.0
  0
SPLINE
  5
1F8
330
6C
100
AcDbEntity
  8
Visible (ANSI)
100
AcDbSpline
210
0.0
220
0.0
230
1.0
 70
    24
 71
     3
 72
     8
 73
     4
 74
     0
 42
0.0000000001
 43
0.0000000001
 40
0.0
 40
0.0
 40
0.0
 40
0.0
 40
0.3175000000000001
 40
0.3175000000000001
 40
0.3175000000000001
 40
0.3175000000000001
 10
41.90643069254502
 20
40.33902291760703
 30
0.0
 10
41.90643069254502
 20
40.29735625094037
 30
0.0
 10
41.90643069254502
 20
40.25568958427371
 30
0.0
 10
41.90643069254502
 20
40.21402291760703
 30
0.0
  0
SPLINE
  5
1F9
330
6C
100
AcDbEntity
  8
Visible (ANSI)
100
AcDbSpline
210
0.0
220
0.0
230
1.0
 70
     8
 71
     3
 72
    11
 73
     7
 74
     0
 42
0.0000000001
 43
0.0000000001
 40
0.0
 40
0.0
 40
0.0
 40
0.0
 40
1.12719708240338
 40
1.12719708240338
 40
1.12719708240338
 40
1.570796326794896
 40
1.570796326794896
 40
1.570796326794896
 40
1.570796326794896
 10
41.90643069254502
 20
40.33902291760703
 30
0.0
 10
41.90114509918662
 20
40.33902291760703
 30
0.0
 10
41.89585950582822
 20
40.36072047584362
 30
0.0
 10
41.89057391246982
 20
40.39253606247029
 30
0.0
 10
41.88849381019085
 20
40.40505682783402
 30
0.0
 10
41.8864137079119
 20
40.41891044121977
 30
0.0
 10
41.88433360563293
 20
40.43277291760701
 30
0.0
  0
SPLINE
  5
1FA
330
6C
100
AcDbEntity
  8
Visible (ANSI)
100
AcDbSpline
210
0.0
220
0.0
230
1.0
 70
     8
 71
     3
 72
    11
 73
     7
 74
     0
 42
0.0000000001
 43
0.0000000001
 40
0.0
 40
0.0
 40
0.0
 40
0.0
 40
1.127197082403391
 40
1.127197082403391
 40
1.127197082403391
 40
1.570796326794895
 40
1.570796326794895
 40
1.570796326794895
 40
1.570796326794895
 10
32.21893069254502
 20
40.33902291760703
 30
0.0
 10
32.22421628590342
 20
40.33902291760703
 30
0.0
 10
32.22950187926182
 20
40.36072047584362
 30
0.0
 10
32.23478747262021
 20
40.39253606247029
 30
0.0
 10
32.23686757489918
 20
40.40505682783402
 30
0.0
 10
32.23894767717813
 20
40.41891044121977
 30
0.0
 10
32.2410277794571
 20
40.43277291760701
 30
0.0
  0
SPLINE
  5
1FB
330
6C
100
AcDbEntity
  8
Visible (ANSI)
100
AcDbSpline
210
0.0
220
0.0
230
1.0
 70
    24
 71
     3
 72
     8
 73
     4
 74
     0
 42
0.0000000001
 43
0.0000000001
 40
-0.3175000000000001
 40
-0.3175000000000001
 40
-0.3175000000000001
 40
-0.3175000000000001
 40
0.0000000000000001
 40
0.0000000000000001
 40
0.0000000000000001
 40
0.0000000000000001
 10
32.21893069254502
 20
40.21402291760703
 30
0.0
 10
32.21893069254502
 20
40.25568958427371
 30
0.0
 10
32.21893069254502
 20
40.29735625094037
 30
0.0
 10
32.21893069254502
 20
40.33902291760703
 30
0.0
  0
LINE
  5
1FC
330
6C
100
AcDbEntity
  8
Visible (ANSI)
100
AcDbLine
 10
32.2410277794571
 20
40.43277291760698
 30
0.0
 11
33.2722777794571
 21
41.46402291760697
 31
0.0
  0
SPLINE
  5
1FD
330
6C
100
AcDbEntity
  8
Visible (ANSI)
100
AcDbSpline
210
0.0
220
0.0
230
1.0
 70
     8
 71
     3
 72
    11
 73
     7
 74
     0
 42
0.0000000001
 43
0.0000000001
 40
0.0
 40
0.0
 40
0.0
 40
0.0
 40
0.912022724634949
 40
0.912022724634949
 40
0.912022724634949
 40
1.570796326794896
 40
1.570796326794896
 40
1.570796326794896
 40
1.570796326794896
 10
32.21893069254502
 20
40.45487000451905
 30
0.0
 10
32.15242903554039
 20
40.45059339545814
 30
0.0
 10
32.08666436443555
 20
40.44631678639724
 30
0.0
 10
32.0459555382706
 20
40.44204017733634
 30
0.0
 10
32.01655067879946
 20
40.4389510907599
 30
0.0
 10
32.00018069254502
 20
40.43586200418348
 30
0.0
 10
32.00018069254502
 20
40.43277291760704
 30
0.0
  0
LINE
  5
1FE
330
6C
100
AcDbEntity
  8
Visible (ANSI)
100
AcDbLine
 10
33.25018069254503
 20
41.48612000451906
 30
0.0
 11
32.21893069254502
 21
40.45487000451905
 31
0.0
  0
SPLINE
  5
1FF
330
6C
100
AcDbEntity
  8
Visible (ANSI)
100
AcDbSpline
210
0.0
220
0.0
230
1.0
 70
    24
 71
     3
 72
     8
 73
     4
 74
     0
 42
0.0000000001
 43
0.0000000001
 40
0.0
 40
0.0
 40
0.0
 40
0.0
 40
0.3175000000000001
 40
0.3175000000000001
 40
0.3175000000000001
 40
0.3175000000000001
 10
32.12518069254502
 20
40.43277291760704
 30
0.0
 10
32.08351402587835
 20
40.43277291760704
 30
0.0
 10
32.04184735921169
 20
40.43277291760704
 30
0.0
 10
32.00018069254502
 20
40.43277291760704
 30
0.0
  0
SPLINE
  5
200
330
6C
100
AcDbEntity
  8
Visible (ANSI)
100
AcDbSpline
210
0.0
220
0.0
230
1.0
 70
     8
 71
     3
 72
    11
 73
     7
 74
     0
 42
0.0000000001
 43
0.0000000001
 40
0.0
 40
0.0
 40
0.0
 40
0.0
 40
1.127197082403386
 40
1.127197082403386
 40
1.127197082403386
 40
1.570796326794896
 40
1.570796326794896
 40
1.570796326794896
 40
1.570796326794896
 10
32.12518069254502
 20
40.43277291760704
 30
0.0
 10
32.12518069254502
 20
40.43805851096542
 30
0.0
 10
32.14687825078163
 20
40.44334410432381
 30
0.0
 10
32.1786938374083
 20
40.4486296976822
 30
0.0
 10
32.19121460277204
 20
40.45070979996117
 30
0.0
 10
32.20506821615778
 20
40.45278990224013
 30
0.0
 10
32.21893069254502
 20
40.45487000451909
 30
0.0
  0
LINE
  5
201
330
6C
100
AcDbEntity
  8
Visible (ANSI)
100
AcDbLine
 10
40.87518069254495
 20
46.21402291760696
 30
0.0
 11
41.90643069254496
 21
46.21402291760698
 31
0.0
  0
LINE
  5
202
330
6C
100
AcDbEntity
  8
Visible (ANSI)
100
AcDbLine
 10
40.875180692545
 20
41.48612000451906
 30
0.0
 11
40.87518069254495
 21
46.21402291760696
 31
0.0
  0
LINE
  5
203
330
6C
100
AcDbEntity
  8
Visible (ANSI)
100
AcDbLine
 10
33.2722777794571
 20
41.46402291760697
 30
0.0
 11
40.85308360563292
 21
41.46402291760697
 31
0.0
  0
LINE
  5
204
330
6C
100
AcDbEntity
  8
Visible (ANSI)
100
AcDbLine
 10
32.21893069254502
 20
46.21402291760689
 30
0.0
 11
33.25018069254503
 21
46.21402291760688
 31
0.0
  0
LINE
  5
205
330
6C
100
AcDbEntity
  8
Visible (ANSI)
100
AcDbLine
 10
33.25018069254503
 20
46.21402291760688
 30
0.0
 11
33.25018069254503
 21
41.48612000451906
 31
0.0
  0
ARC
  5
206
330
6C
100
AcDbEntity
  8
Visible (ANSI)
100
AcDbCircle
 10
32.21893069254502
 20
40.43277291760704
 30
0.0
 40
0.09375
100
AcDbArc
 50
180.0
 51
270.0
  0
ARC
  5
207
330
6C
100
AcDbEntity
  8
Visible (ANSI)
100
AcDbCircle
 10
32.21893069254502
 20
40.43277291760704
 30
0.0
 40
0.21875
100
AcDbArc
 50
180.0
 51
270.0
  0
ARC
  5
208
330
6C
100
AcDbEntity
  8
Visible (ANSI)
100
AcDbCircle
 10
41.90643069254501
 20
40.43277291760704
 30
0.0
 40
0.0937500000000008
100
AcDbArc
 50
270.0000000000043
 51
0.0
  0
ARC
  5
209
330
6C
100
AcDbEntity
  8
Visible (ANSI)
100
AcDbCircle
 10
41.90643069254501
 20
40.43277291760704
 30
0.0
 40
0.2187500000000011
100
AcDbArc
 50
270.0000000000018
 51
0.0
  0
LINE
  5
20A
330
6C
100
AcDbEntity
  8
Visible (ANSI)
100
AcDbLine
 10
32.00018069254502
 20
46.28969859328263
 30
0.0
 11
32.00018069254502
 21
48.21402291760869
 31
0.0
  0
LINE
  5
20B
330
6C
100
AcDbEntity
  8
Visible (ANSI)
100
AcDbLine
 10
42.00018069254496
 20
46.28969859328271
 30
0.0
 11
42.00018069254494
 21
48.21402291760868
 31
0.0
  0
LINE
  5
20C
330
6C
100
AcDbEntity
  8
Visible (ANSI)
100
AcDbLine
 10
42.12518069254494
 20
48.21402291760869
 30
0.0
 11
42.12518069254495
 21
46.28969859328272
 31
0.0
  0
LINE
  5
20D
330
6C
100
AcDbEntity
  8
Visible (ANSI)
100
AcDbLine
 10
42.00018069254494
 20
48.21402291760868
 30
0.0
 11
42.12518069254494
 21
48.21402291760869
 31
0.0
  0
LINE
  5
20E
330
6C
100
AcDbEntity
  8
Visible (ANSI)
100
AcDbLine
 10
32.12518069254502
 20
48.21402291760869
 30
0.0
 11
32.12518069254502
 21
46.28969859328263
 31
0.0
  0
LINE
  5
20F
330
6C
100
AcDbEntity
  8
Visible (ANSI)
100
AcDbLine
 10
32.00018069254502
 20
48.21402291760869
 30
0.0
 11
32.12518069254502
 21
48.21402291760869
 31
0.0
  0
LINE
  5
210
330
6C
100
AcDbEntity
  8
Visible (ANSI)
100
AcDbLine
 10
32.75018069254502
 20
48.21402291760872
 30
0.0
 11
33.00018069254502
 21
47.96402291760871
 31
0.0
  0
LINE
  5
211
330
6C
100
AcDbEntity
  8
Visible (ANSI)
100
AcDbLine
 10
41.12518069254496
 20
47.96402291760871
 30
0.0
 11
41.37518069254494
 21
48.21402291760872
 31
0.0
  0
LINE
  5
212
330
6C
100
AcDbEntity
  8
Visible (ANSI)
100
AcDbLine
 10
32.75018069254502
 20
48.21402291760872
 30
0.0
 11
32.21893069254502
 21
48.21402291760872
 31
0.0
  0
LINE
  5
213
330
6C
100
AcDbEntity
  8
Visible (ANSI)
100
AcDbLine
 10
41.37518069254494
 20
48.21402291760872
 30
0.0
 11
41.90643069254494
 21
48.21402291760872
 31
0.0
  0
LINE
  5
214
330
6C
100
AcDbEntity
  8
Visible Narrow (ANSI)
100
AcDbLine
 10
32.21893069254502
 20
48.21402291760872
 30
0.0
 11
32.21893069254502
 21
46.21402291760864
 31
0.0
  0
LINE
  5
215
330
6C
100
AcDbEntity
  8
Visible (ANSI)
100
AcDbLine
 10
32.21893069254502
 20
48.21402291760872
 30
0.0
 11
32.12518069254502
 21
48.21402291760869
 31
0.0
  0
LINE
  5
216
330
6C
100
AcDbEntity
  8
Visible (ANSI)
100
AcDbLine
 10
41.90643069254494
 20
48.21402291760872
 30
0.0
 11
42.00018069254494
 21
48.21402291760868
 31
0.0
  0
LINE
  5
217
330
6C
100
AcDbEntity
  8
Visible Narrow (ANSI)
100
AcDbLine
 10
41.90643069254496
 20
46.21402291760872
 30
0.0
 11
41.90643069254494
 21
48.21402291760872
 31
0.0
  0
CIRCLE
  5
218
330
6C
100
AcDbEntity
  8
Visible (ANSI)
100
AcDbCircle
 10
37.06268069254498
 20
43.96402291760701
 30
0.0
 40
0.28125
  0
CIRCLE
  5
219
330
6C
100
AcDbEntity
  8
Visible (ANSI)
100
AcDbCircle
 10
34.12518069254498
 20
46.96402291760697
 30
0.0
 40
0.28125
  0
CIRCLE
  5
21A
330
6C
100
AcDbEntity
  8
Visible (ANSI)
100
AcDbCircle
 10
40.00018069254497
 20
46.96402291760697
 30
0.0
 40
0.28125
  0
ARC
  5
21B
330
6C
100
AcDbEntity
  8
Visible (ANSI)
100
AcDbCircle
 10
41.75018069254497
 20
47.83902291760697
 30
0.0
 40
0.1249999999999989
100
AcDbArc
 50
0.0
 51
90.0
  0
ARC
  5
21C
330
6C
100
AcDbEntity
  8
Visible (ANSI)
100
AcDbCircle
 10
32.37518069254498
 20
47.83902291760697
 30
0.0
 40
0.125
100
AcDbArc
 50
90.0
 51
180.0
  0
ARC
  5
21D
330
6C
100
AcDbEntity
  8
Visible (ANSI)
100
AcDbCircle
 10
32.37518069254497
 20
40.46392575410185
 30
0.0
 40
0.1249999999999834
100
AcDbArc
 50
180.0
 51
189.3624011371815
  0
ARC
  5
21E
330
6C
100
AcDbEntity
  8
Visible (ANSI)
100
AcDbCircle
 10
41.75018069254504
 20
40.46392575410185
 30
0.0
 40
0.1249999999999367
100
AcDbArc
 50
350.6375988628475
 51
0.0
  0
LINE
  5
21F
330
6C
100
AcDbEntity
  8
Visible (ANSI)
100
AcDbLine
 10
41.87518069254498
 20
47.83902291760697
 30
0.0
 11
41.87518069254498
 21
46.46413213437609
 31
0.0
  0
LINE
  5
220
330
6C
100
AcDbEntity
  8
Visible (ANSI)
100
AcDbLine
 10
32.37518069254498
 20
47.96402291760697
 30
0.0
 11
41.75018069254497
 21
47.96402291760697
 31
0.0
  0
LINE
  5
221
330
6C
100
AcDbEntity
  8
Visible (ANSI)
100
AcDbLine
 10
32.25018069254498
 20
46.46413213437609
 30
0.0
 11
32.25018069254498
 21
47.83902291760697
 31
0.0
  0
LINE
  5
222
330
6C
100
AcDbEntity
  8
Visible (ANSI)
100
AcDbLine
 10
41.87518069254498
 20
46.30945252599155
 30
0.0
 11
41.87518069254498
 21
46.46413213437609
 31
0.0
  0
LINE
  5
223
330
6C
100
AcDbEntity
  8
Visible Narrow (ANSI)
100
AcDbLine
 10
32.25018069254498
 20
46.46413213437609
 30
0.0
 11
41.87518069254498
 21
46.46413213437609
 31
0.0
  0
LINE
  5
224
330
6C
100
AcDbEntity
  8
Visible (ANSI)
100
AcDbLine
 10
32.25018069254498
 20
46.30945252599155
 30
0.0
 11
32.25018069254498
 21
46.46413213437609
 31
0.0
  0
LINE
  5
225
330
6C
100
AcDbEntity
  8
Visible Narrow (ANSI)
100
AcDbLine
 10
32.25018069254498
 20
46.30945252599155
 30
0.0
 11
41.87518069254498
 21
46.30945252599155
 31
0.0
  0
LINE
  5
226
330
6C
100
AcDbEntity
  8
Visible (ANSI)
100
AcDbLine
 10
41.87518069254498
 20
46.27610779806896
 30
0.0
 11
41.87518069254498
 21
46.30945252599155
 31
0.0
  0
LINE
  5
227
330
6C
100
AcDbEntity
  8
Visible (ANSI)
100
AcDbLine
 10
32.25018069254498
 20
46.30945252599155
 30
0.0
 11
32.25018069254498
 21
46.27610779806897
 31
0.0
  0
LINE
  5
228
330
6C
100
AcDbEntity
  8
Visible (ANSI)
100
AcDbLine
 10
41.87518069254498
 20
46.27610779806896
 30
0.0
 11
41.87518069254498
 21
46.21402291760701
 31
0.0
  0
LINE
  5
229
330
6C
100
AcDbEntity
  8
Visible (ANSI)
100
AcDbLine
 10
32.25018069254498
 20
46.27610779806896
 30
0.0
 11
32.25018069254498
 21
46.21402291760692
 31
0.0
  0
LINE
  5
22A
330
6C
100
AcDbEntity
  8
Visible Narrow (ANSI)
100
AcDbLine
 10
33.25018069254503
 20
46.20981653733274
 30
0.0
 11
40.87518069254495
 21
46.20981653733275
 31
0.0
  0
LINE
  5
22B
330
6C
100
AcDbEntity
  8
Visible Narrow (ANSI)
100
AcDbLine
 10
32.25018069254498
 20
46.27610779806897
 30
0.0
 11
41.87518069254498
 21
46.27610779806896
 31
0.0
  0
LINE
  5
22C
330
6C
100
AcDbEntity
  8
Visible (ANSI)
100
AcDbLine
 10
41.87518069254498
 20
40.46392575410185
 30
0.0
 11
41.87518069254498
 21
40.48612000451913
 31
0.0
  0
LINE
  5
22D
330
6C
100
AcDbEntity
  8
Visible (ANSI)
100
AcDbLine
 10
32.25018069254498
 20
40.48612000451905
 30
0.0
 11
32.25018069254498
 21
40.46392575410185
 31
0.0
  0
MTEXT
  5
22E
330
6C
100
AcDbEntity
  8
Symbol (ANSI)
100
AcDbMText
 10
35.11830487982653
 20
37.54280989666296
 30
0.0
 40
0.600000007415381
 41
0.0
 71
     7
 72
     1
  1
TOP VIEW
  7
Text Style168
 73
     1
 44
1.0
  0
LINE
  5
22F
330
6C
100
AcDbEntity
  8
Symbol (ANSI)
370
    30
100
AcDbLine
 10
35.11878488106127
 20
37.42045170978851
 30
0.0
 11
38.90452226789993
 21
37.42045170978851
 31
0.0
  0
ELLIPSE
  5
230
330
6C
100
AcDbEntity
  8
Visible (ANSI)
100
AcDbEllipse
 10
74.44550534011956
 20
46.5692380601109
 30
0.0
 11
-0.28125
 21
0.000000000000018
 31
0.0
210
0.0
220
0.0
230
1.0
 40
0.5758617009853086
 41
0.0
 42
6.283185307179586
  0
ELLIPSE
  5
231
330
6C
100
AcDbEntity
  8
Visible (ANSI)
100
AcDbEllipse
 10
74.44550534011956
 20
46.46704466950558
 30
0.0
 11
0.2812500000000012
 21
-0.000000000000002
 31
0.0
210
0.0
220
0.0
230
1.0
 40
0.575861700985307
 41
0.320970292825657
 42
2.820622360764159
  0
ELLIPSE
  5
232
330
6C
100
AcDbEntity
  8
Visible (ANSI)
100
AcDbEllipse
 10
78.42298098429449
 20
44.27876217002936
 30
0.0
 11
-0.28125
 21
0.000000000000018
 31
0.0
210
0.0
220
0.0
230
1.0
 40
0.5758617009853086
 41
0.0
 42
6.283185307179586
  0
ELLIPSE
  5
233
330
6C
100
AcDbEntity
  8
Visible (ANSI)
100
AcDbEllipse
 10
78.42298098429449
 20
44.17656877942405
 30
0.0
 11
0.2812500000000004
 21
-0.0000000000000011
 31
0.0
210
0.0
220
0.0
230
1.0
 40
0.5758617009853074
 41
0.3209702928256516
 42
2.820622360764154
  0
ELLIPSE
  5
234
330
6C
100
AcDbEntity
  8
Visible (ANSI)
100
AcDbEllipse
 10
72.41257334420821
 20
46.67103698855881
 30
0.0
 11
-0.28125
 21
0.0000000000000136
 31
0.0
210
0.0
220
0.0
230
1.0
 40
0.575861700985305
 41
0.0
 42
6.283185307179586
  0
ELLIPSE
  5
235
330
6C
100
AcDbEntity
  8
Visible (ANSI)
100
AcDbEllipse
 10
72.41257334420821
 20
46.56884359795348
 30
0.0
 11
0.2812500000000005
 21
0.0000000000000031
 31
0.0
210
0.0
220
0.0
230
1.0
 40
0.5758617009853034
 41
0.3209702928256706
 42
2.820622360764127
  0
ELLIPSE
  5
236
330
6C
100
AcDbEntity
  8
Visible (ANSI)
100
AcDbEllipse
 10
68.877039438276
 20
44.63505841959683
 30
0.0
 11
-0.28125
 21
0.0000000000000136
 31
0.0
210
0.0
220
0.0
230
1.0
 40
0.575861700985305
 41
0.0
 42
6.283185307179586
  0
ELLIPSE
  5
237
330
6C
100
AcDbEntity
  8
Visible (ANSI)
100
AcDbEllipse
 10
68.877039438276
 20
44.53286502899152
 30
0.0
 11
0.2812499999999996
 21
0.000000000000003
 31
0.0
210
0.0
220
0.0
230
1.0
 40
0.5758617009853032
 41
0.3209702928256711
 42
2.820622360764128
  0
ELLIPSE
  5
238
330
6C
100
AcDbEntity
  8
Visible (ANSI)
100
AcDbEllipse
 10
78.59975767959141
 20
43.10807449287643
 30
0.0
 11
-0.28125
 21
0.0000000000000162
 31
0.0
210
0.0
220
0.0
230
1.0
 40
0.5758617009853105
 41
0.0
 42
6.283185307179586
  0
ELLIPSE
  5
239
330
6C
100
AcDbEntity
  8
Visible (ANSI)
100
AcDbEllipse
 10
78.59975767959141
 20
43.0058811022711
 30
0.0
 11
0.2812500000000051
 21
0.0000000000000002
 31
0.0
210
0.0
220
0.0
230
1.0
 40
0.5758617009853104
 41
0.3209702928256676
 42
2.820622360764163
  0
ELLIPSE
  5
23A
330
6C
100
AcDbEntity
  8
Visible (ANSI)
100
AcDbEllipse
 10
75.06422377365916
 20
41.07209592391447
 30
0.0
 11
-0.28125
 21
0.0000000000000162
 31
0.0
210
0.0
220
0.0
230
1.0
 40
0.5758617009853105
 41
0.0
 42
6.283185307179586
  0
ELLIPSE
  5
23B
330
6C
100
AcDbEntity
  8
Visible (ANSI)
100
AcDbEllipse
 10
75.06422377365916
 20
40.96990253330915
 30
0.0
 11
0.281250000000007
 21
0.0000000000000003
 31
0.0
210
0.0
220
0.0
230
1.0
 40
0.5758617009853103
 41
0.3209702928256677
 42
2.820622360764163
  0
SPLINE
  5
23C
330
6C
100
AcDbEntity
  8
Visible (ANSI)
100
AcDbSpline
210
0.0
220
0.0
230
1.0
 70
     8
 71
     3
 72
     8
 73
     4
 74
     0
 42
0.0000000001
 43
0.0000000001
 40
0.0
 40
0.0
 40
0.0
 40
0.0
 40
0.7873318718203365
 40
0.7873318718203365
 40
0.7873318718203365
 40
0.7873318718203365
 10
80.3454275456456
 20
38.827000489341
 30
0.0
 10
80.34281696732781
 20
38.77856209105447
 30
0.0
 10
80.32320779981555
 20
38.74036156025086
 30
0.0
 10
80.29202649046398
 20
38.72206524964713
 30
0.0
  0
SPLINE
  5
23D
330
6C
100
AcDbEntity
  8
Visible (ANSI)
100
AcDbSpline
210
0.0
220
0.0
230
1.0
 70
     8
 71
     3
 72
     8
 73
     4
 74
     0
 42
0.0000000001
 43
0.0000000001
 40
0.0
 40
0.0
 40
0.0
 40
0.0
 40
0.2101164220635605
 40
0.2101164220635605
 40
0.2101164220635605
 40
0.2101164220635605
 10
73.40694225525155
 20
42.89895762726374
 30
0.0
 10
73.40763894415147
 20
42.89318830341064
 30
0.0
 10
73.40780252388906
 20
42.88713731938201
 30
0.0
 10
73.40748602870452
 20
42.88093224086786
 30
0.0
  0
SPLINE
  5
23E
330
6C
100
AcDbEntity
  8
Visible (ANSI)
100
AcDbSpline
210
0.0
220
0.0
230
1.0
 70
     8
 71
     3
 72
     8
 73
     4
 74
     0
 42
0.0000000001
 43
0.0000000001
 40
0.0
 40
0.0
 40
0.0
 40
0.0
 40
0.7825528965235863
 40
0.7825528965235863
 40
0.7825528965235863
 40
0.7825528965235863
 10
73.27435973377908
 20
42.89895762726373
 30
0.0
 10
73.27176500124339
 20
42.87747048671619
 30
0.0
 10
73.27656501978665
 20
42.85207644110282
 30
0.0
 10
73.28601999818324
 20
42.82936563590137
 30
0.0
  0
LINE
  5
23F
330
6C
100
AcDbEntity
  8
Visible Narrow (ANSI)
100
AcDbLine
 10
76.2039556834703
 20
36.44208545820526
 30
0.0
 11
80.3454275456456
 21
38.827000489341
 31
0.0
  0
SPLINE
  5
240
330
6C
100
AcDbEntity
  8
Visible (ANSI)
100
AcDbSpline
210
0.0
220
0.0
230
1.0
 70
     8
 71
     3
 72
    11
 73
     7
 74
     0
 42
0.0000000001
 43
0.0000000001
 40
0.0
 40
0.0
 40
0.0
 40
0.0
 40
0.9120227246349411
 40
0.9120227246349411
 40
0.9120227246349411
 40
1.570796326794897
 40
1.570796326794897
 40
1.570796326794897
 40
1.570796326794897
 10
76.10278685852685
 20
36.3831358978115
 30
0.0
 10
76.13945430218585
 20
36.350092894903
 30
0.0
 10
76.17560061811747
 20
36.34372158017524
 30
0.0
 10
76.19402977618372
 20
36.36417264200929
 30
0.0
 10
76.20734155287102
 20
36.37894488321393
 30
0.0
 10
76.21143628231489
 20
36.40712190222013
 30
0.0
 10
76.2039556834703
 20
36.44208545820526
 30
0.0
  0
LINE
  5
241
330
6C
100
AcDbEntity
  8
Visible Narrow (ANSI)
100
AcDbLine
 10
76.10278685852685
 20
36.48532928841682
 30
0.0
 11
76.11569858757661
 21
36.49276465867008
 31
0.0
  0
LINE
  5
242
330
6C
100
AcDbEntity
  8
Visible (ANSI)
100
AcDbLine
 10
76.10278685852685
 20
36.48532928841682
 30
0.0
 11
76.10278685852685
 21
36.3831358978115
 31
0.0
  0
LINE
  5
243
330
6C
100
AcDbEntity
  8
Visible (ANSI)
100
AcDbLine
 10
76.14774817216542
 20
36.47445321127344
 30
0.0
 11
76.2039556834703
 21
36.44208545820526
 31
0.0
  0
LINE
  5
244
330
6C
100
AcDbEntity
  8
Visible (ANSI)
100
AcDbLine
 10
76.11556733582196
 20
36.49298492242929
 30
0.0
 11
76.14774817216542
 21
36.47445321127344
 31
0.0
  0
SPLINE
  5
245
330
6C
100
AcDbEntity
  8
Visible (ANSI)
100
AcDbSpline
210
0.0
220
0.0
230
1.0
 70
     8
 71
     3
 72
    11
 73
     7
 74
     0
 42
0.0000000001
 43
0.0000000001
 40
0.0
 40
0.0
 40
0.0
 40
0.0
 40
1.127197082403416
 40
1.127197082403416
 40
1.127197082403416
 40
1.570796326794897
 40
1.570796326794897
 40
1.570796326794897
 40
1.570796326794897
 10
76.11556733582196
 20
36.49298492242929
 30
0.0
 10
76.12836704298176
 20
36.47155776063364
 30
0.0
 10
76.12582425957725
 20
36.45969493105978
 30
0.0
 10
76.11612694968591
 20
36.46766104934874
 30
0.0
 10
76.11231065224548
 20
36.47079605041367
 30
0.0
 10
76.1075518889304
 20
36.47678380499538
 30
0.0
 10
76.10278685852685
 20
36.48532928841682
 30
0.0
  0
LINE
  5
246
330
6C
100
AcDbEntity
  8
Visible Narrow (ANSI)
100
AcDbLine
 10
73.40694225525155
 20
42.89895762726374
 30
0.0
 11
73.43660705313337
 21
42.88187480629613
 31
0.0
  0
SPLINE
  5
247
330
6C
100
AcDbEntity
  8
Visible (ANSI)
100
AcDbSpline
210
0.0
220
0.0
230
1.0
 70
     8
 71
     3
 72
    11
 73
     7
 74
     0
 42
0.0000000001
 43
0.0000000001
 40
0.0
 40
0.0
 40
0.0
 40
0.0
 40
0.9120227246349474
 40
0.9120227246349474
 40
0.9120227246349474
 40
1.045025571118816
 40
1.045025571118816
 40
1.045025571118816
 40
1.045025571118816
 10
69.04449952395554
 20
40.56494206035203
 30
0.0
 10
69.05485585292467
 20
40.51653763508676
 30
0.0
 10
69.08802130204691
 20
40.45560083179555
 30
0.0
 10
69.13556137650136
 20
40.40687056630064
 30
0.0
 10
69.14249427965575
 20
40.39976409422963
 30
0.0
 10
69.14971264436498
 20
40.39292761506298
 30
0.0
 10
69.15715969694345
 20
40.38641626128689
 30
0.0
  0
SPLINE
  5
248
330
6C
100
AcDbEntity
  8
Visible (ANSI)
100
AcDbSpline
210
0.0
220
0.0
230
1.0
 70
     8
 71
     3
 72
     8
 73
     4
 74
     0
 42
0.0000000001
 43
0.0000000001
 40
0.0
 40
0.0
 40
0.0
 40
0.0
 40
1.015883259286887
 40
1.015883259286887
 40
1.015883259286887
 40
1.015883259286887
 10
69.13288787160387
 20
40.514042596128
 30
0.0
 10
69.14442357235258
 20
40.49473142570177
 30
0.0
 10
69.16842115870347
 20
40.4688362062022
 30
0.0
 10
69.1988867544147
 20
40.4507742830242
 30
0.0
  0
LINE
  5
249
330
6C
100
AcDbEntity
  8
Visible (ANSI)
100
AcDbLine
 10
69.10070703526042
 20
40.53257430728386
 30
0.0
 11
69.13288787160387
 21
40.514042596128
 31
0.0
  0
LINE
  5
24A
330
6C
100
AcDbEntity
  8
Visible (ANSI)
100
AcDbLine
 10
69.04449952395554
 20
40.56494206035203
 30
0.0
 11
69.10070703526042
 21
40.53257430728386
 31
0.0
  0
LINE
  5
24B
330
6C
100
AcDbEntity
  8
Visible Narrow (ANSI)
100
AcDbLine
 10
69.13288787160387
 20
40.514042596128
 30
0.0
 11
73.27435973377908
 21
42.89895762726373
 31
0.0
  0
LINE
  5
24C
330
6C
100
AcDbEntity
  8
Visible (ANSI)
100
AcDbLine
 10
76.18526063684554
 20
36.35703973350001
 30
0.0
 11
80.29207949859173
 21
38.72199942886438
 31
0.0
  0
LINE
  5
24D
330
6C
100
AcDbEntity
  8
Visible (ANSI)
100
AcDbLine
 10
76.10278685852685
 20
36.48532928841682
 30
0.0
 11
76.08068977161479
 21
36.49805415447282
 31
0.0
  0
LINE
  5
24E
330
6C
100
AcDbEntity
  8
Visible (ANSI)
100
AcDbLine
 10
76.02414427655945
 20
36.4284231488331
 30
0.0
 11
76.10278685852685
 21
36.3831358978115
 31
0.0
  0
ELLIPSE
  5
24F
330
6C
100
AcDbEntity
  8
Visible (ANSI)
100
AcDbEllipse
 10
73.34065099451532
 20
42.86078302909571
 30
0.0
 11
0.09375
 21
-0.0000000000000055
 31
0.0
210
0.0
220
0.0
230
1.0
 40
0.5758617009853117
 41
0.7853981633978915
 42
2.356194490192745
  0
ELLIPSE
  5
250
330
6C
100
AcDbEntity
  8
Visible (ANSI)
100
AcDbEllipse
 10
80.19074793726103
 20
38.91607455173306
 30
0.0
 11
0.2187499999999983
 21
0.0000000000000001
 31
0.0
210
0.0
220
0.0
230
1.0
 40
0.5758617009853121
 41
5.497787143782263
 42
6.283185307179585
  0
LINE
  5
251
330
6C
100
AcDbEntity
  8
Visible (ANSI)
100
AcDbLine
 10
69.04449952395554
 20
40.56494206035203
 30
0.0
 11
67.68379674502373
 21
44.32897132547732
 31
0.0
  0
LINE
  5
252
330
6C
100
AcDbEntity
  8
Visible (ANSI)
100
AcDbLine
 10
76.11556733582196
 20
36.49298492242929
 30
0.0
 11
74.75486455689021
 21
40.25701418755462
 31
0.0
  0
LINE
  5
253
330
6C
100
AcDbEntity
  8
Visible (ANSI)
100
AcDbLine
 10
74.84325290453854
 20
40.20611472333058
 30
0.0
 11
76.2039556834703
 21
36.44208545820526
 31
0.0
  0
LINE
  5
254
330
6C
100
AcDbEntity
  8
Visible (ANSI)
100
AcDbLine
 10
74.75486455689021
 20
40.25701418755462
 30
0.0
 11
74.84325290453854
 21
40.20611472333058
 31
0.0
  0
LINE
  5
255
330
6C
100
AcDbEntity
  8
Visible (ANSI)
100
AcDbLine
 10
67.77218509267206
 20
44.27807186125328
 30
0.0
 11
69.13288787160387
 21
40.514042596128
 31
0.0
  0
LINE
  5
256
330
6C
100
AcDbEntity
  8
Visible (ANSI)
100
AcDbLine
 10
67.68379674502373
 20
44.32897132547732
 30
0.0
 11
67.77218509267206
 21
44.27807186125328
 31
0.0
  0
ELLIPSE
  5
257
330
6C
100
AcDbEntity
  8
Visible (ANSI)
100
AcDbEllipse
 10
80.19074793726101
 20
43.46368043366968
 30
0.0
 11
0.2187500000000003
 21
0.0
 31
0.0
210
0.0
220
0.0
230
1.0
 40
0.5758617009853121
 41
5.497787143782263
 42
7.068583470577162
  0
ELLIPSE
  5
258
330
6C
100
AcDbEntity
  8
Visible (ANSI)
100
AcDbEllipse
 10
73.34065099451532
 20
47.40838891103233
 30
0.0
 11
-0.0937500000000002
 21
0.0
 31
0.0
210
0.0
220
0.0
230
1.0
 40
0.5758617009853119
 41
4.544940901164612
 42
4.879837059604009
  0
LINE
  5
259
330
6C
100
AcDbEntity
  8
Visible (ANSI)
100
AcDbLine
 10
68.21412683091373
 20
44.1002195830871
 30
0.0
 11
67.83847635340833
 21
44.31654230603925
 31
0.0
  0
LINE
  5
25A
330
6C
100
AcDbEntity
  8
Visible (ANSI)
100
AcDbLine
 10
73.32502599451554
 20
46.63619495521174
 30
0.0
 11
68.92123361210026
 21
44.10021958308717
 31
0.0
  0
LINE
  5
25B
330
6C
100
AcDbEntity
  8
Visible (ANSI)
100
AcDbLine
 10
68.21412683091373
 20
44.20241297369242
 30
0.0
 11
67.83847635340831
 21
44.41873569664457
 31
0.0
  0
LINE
  5
25C
330
6C
100
AcDbEntity
  8
Visible (ANSI)
100
AcDbLine
 10
74.68857329615395
 20
40.47402721928195
 30
0.0
 11
74.31292281864855
 21
40.69034994223409
 31
0.0
  0
LINE
  5
25D
330
6C
100
AcDbEntity
  8
Visible (ANSI)
100
AcDbLine
 10
74.31292281864855
 20
40.58815655162877
 30
0.0
 11
74.68857329615395
 21
40.37183382867663
 31
0.0
  0
LINE
  5
25E
330
6C
100
AcDbEntity
  8
Visible (ANSI)
100
AcDbLine
 10
78.64360935611395
 20
43.59142217192619
 30
0.0
 11
73.35627599451554
 21
46.63619495521174
 31
0.0
  0
LINE
  5
25F
330
6C
100
AcDbEntity
  8
Visible (ANSI)
100
AcDbLine
 10
78.71671520106374
 20
43.65151670630676
 30
0.0
 11
73.35627599451554
 21
46.73838834581706
 31
0.0
  0
LINE
  5
260
330
6C
100
AcDbEntity
  8
Visible (ANSI)
100
AcDbLine
 10
73.32502599451554
 20
46.73838834581706
 30
0.0
 11
68.92123361210026
 21
44.20241297369249
 31
0.0
  0
LINE
  5
261
330
6C
100
AcDbEntity
  8
Visible (ANSI)
100
AcDbLine
 10
74.31292281864845
 20
41.09754565602642
 30
0.0
 11
78.71671520106374
 21
43.63352102815097
 31
0.0
  0
ELLIPSE
  5
262
330
6C
100
AcDbEntity
  8
Visible (ANSI)
100
AcDbEllipse
 10
73.34065099451532
 20
47.40838891103233
 30
0.0
 11
0.2187499999999991
 21
0.0
 31
0.0
210
0.0
220
0.0
230
1.0
 40
0.5758617009853118
 41
1.499306876909336
 42
1.642285776680392
  0
LINE
  5
263
330
6C
100
AcDbEntity
  8
Visible Narrow (ANSI)
100
AcDbLine
 10
80.3454275456456
 20
38.827000489341
 30
0.0
 11
80.3454275456456
 21
43.37460637127763
 31
0.0
  0
LINE
  5
264
330
6C
100
AcDbEntity
  8
Visible Narrow (ANSI)
100
AcDbLine
 10
73.40694225525155
 20
46.60701819612175
 30
0.0
 11
73.40694225525155
 21
42.89895762726374
 31
0.0
  0
LINE
  5
265
330
6C
100
AcDbEntity
  8
Visible Narrow (ANSI)
100
AcDbLine
 10
73.27435973377908
 20
42.89895762726373
 30
0.0
 11
73.27435973377908
 21
46.60701819612146
 31
0.0
  0
LINE
  5
266
330
6C
100
AcDbEntity
  8
Visible (ANSI)
100
AcDbLine
 10
80.40949793726101
 20
43.46368043366968
 30
0.0
 11
80.40949793726101
 21
38.91607455173306
 31
0.0
  0
LINE
  5
267
330
6C
100
AcDbEntity
  8
Visible (ANSI)
100
AcDbLine
 10
68.92123361210026
 20
44.20241297369249
 30
0.0
 11
68.21412683091373
 21
44.20241297369242
 31
0.0
  0
LINE
  5
268
330
6C
100
AcDbEntity
  8
Visible (ANSI)
100
AcDbLine
 10
68.21412683091373
 20
44.20241297369242
 30
0.0
 11
68.21412683091373
 21
44.1002195830871
 31
0.0
  0
LINE
  5
269
330
6C
100
AcDbEntity
  8
Visible (ANSI)
100
AcDbLine
 10
68.21412683091373
 20
44.1002195830871
 30
0.0
 11
68.92123361210026
 21
44.10021958308717
 31
0.0
  0
LINE
  5
26A
330
6C
100
AcDbEntity
  8
Visible (ANSI)
100
AcDbLine
 10
68.92123361210026
 20
44.10021958308717
 30
0.0
 11
68.92123361210026
 21
44.20241297369249
 31
0.0
  0
LINE
  5
26B
330
6C
100
AcDbEntity
  8
Visible (ANSI)
100
AcDbLine
 10
74.31292281864855
 20
40.69034994223409
 30
0.0
 11
74.31292281864845
 21
41.09754565602642
 31
0.0
  0
LINE
  5
26C
330
6C
100
AcDbEntity
  8
Visible (ANSI)
100
AcDbLine
 10
74.31292281864855
 20
40.58815655162877
 30
0.0
 11
74.31292281864855
 21
40.69034994223409
 31
0.0
  0
ELLIPSE
  5
26D
330
6C
100
AcDbEntity
  8
Visible (ANSI)
100
AcDbEllipse
 10
67.83847635340833
 20
44.23989726308525
 30
0.0
 11
-0.0467842698360383
 21
0.0812421971386108
 31
0.0
210
0.0
220
0.0
230
1.0
 40
0.5780931159158107
 41
5.499720852205022
 42
7.070517178999803
  0
ELLIPSE
  5
26E
330
6C
100
AcDbEntity
  8
Visible (ANSI)
100
AcDbEllipse
 10
67.83847635340833
 20
44.23989726308525
 30
0.0
 11
-0.1091632962840883
 21
0.1895651266567566
 31
0.0
210
0.0
220
0.0
230
1.0
 40
0.5780931159158106
 41
5.499720852205022
 42
7.070517178999896
  0
ELLIPSE
  5
26F
330
6C
100
AcDbEntity
  8
Visible (ANSI)
100
AcDbEllipse
 10
74.68857329615396
 20
40.29518878572264
 30
0.0
 11
-0.1091632962840962
 21
0.1895651266567489
 31
0.0
210
0.0
220
0.0
230
1.0
 40
0.5780931159158106
 41
3.928924525409867
 42
5.499720852204772
  0
ELLIPSE
  5
270
330
6C
100
AcDbEntity
  8
Visible (ANSI)
100
AcDbEllipse
 10
74.68857329615395
 20
40.29518878572264
 30
0.0
 11
0.0467842698360328
 21
-0.0812421971386132
 31
0.0
210
0.0
220
0.0
230
1.0
 40
0.5780931159158253
 41
0.7873318718206681
 42
2.358128198615419
  0
LINE
  5
271
330
6C
100
AcDbEntity
  8
Visible Narrow (ANSI)
100
AcDbLine
 10
80.17512293726101
 20
43.65151670630688
 30
0.0
 11
73.35627599451533
 21
47.57822950551374
 31
0.0
  0
LINE
  5
272
330
6C
100
AcDbEntity
  8
Visible Narrow (ANSI)
100
AcDbLine
 10
73.32502599451533
 20
47.57822950551374
 30
0.0
 11
67.83847635340831
 21
44.41873569664457
 31
0.0
  0
LINE
  5
273
330
6C
100
AcDbEntity
  8
Visible Narrow (ANSI)
100
AcDbLine
 10
67.83873322638442
 20
44.31639438273029
 30
0.0
 11
67.77218509267206
 21
44.27807186125328
 31
0.0
  0
LINE
  5
274
330
6C
100
AcDbEntity
  8
Visible Narrow (ANSI)
100
AcDbLine
 10
74.68857329615395
 20
40.47402721928195
 30
0.0
 11
80.17512293726101
 21
43.63352102815109
 31
0.0
  0
LINE
  5
275
330
6C
100
AcDbEntity
  8
Visible Narrow (ANSI)
100
AcDbLine
 10
80.3454275456456
 20
43.37460637127763
 30
0.0
 11
74.84325290453854
 21
40.20611472333058
 31
0.0
  0
LINE
  5
276
330
6C
100
AcDbEntity
  8
Visible (ANSI)
100
AcDbLine
 10
73.45764602575274
 20
47.59344404147721
 30
0.0
 11
80.29207949859168
 21
43.65775555653838
 31
0.0
  0
LINE
  5
277
330
6C
100
AcDbEntity
  8
Visible (ANSI)
100
AcDbLine
 10
67.72931305712423
 20
44.42946238974202
 30
0.0
 11
73.22365596327786
 21
47.59344404147717
 31
0.0
  0
SPLINE
  5
278
330
6C
100
AcDbEntity
  8
Visible (ANSI)
100
AcDbSpline
210
0.0
220
0.0
230
1.0
 70
     8
 71
     3
 72
    11
 73
     7
 74
     0
 42
0.0000000001
 43
0.0000000001
 40
0.0
 40
0.0
 40
0.0
 40
0.0
 40
0.9120227246349593
 40
0.9120227246349593
 40
0.9120227246349593
 40
1.570796326794894
 40
1.570796326794894
 40
1.570796326794894
 40
1.570796326794894
 10
80.34542754564554
 20
43.55275449606176
 30
0.0
 10
80.34240352637809
 20
43.60886415142234
 30
0.0
 10
80.31657038695753
 20
43.65123638735013
 30
0.0
 10
80.27636262220475
 20
43.66484649309199
 30
0.0
 10
80.24731969015327
 20
43.67467736478316
 30
0.0
 10
80.21127353225894
 20
43.6698187238071
 30
0.0
 10
80.17512293726101
 20
43.65151670630688
 30
0.0
  0
SPLINE
  5
279
330
6C
100
AcDbEntity
  8
Visible (ANSI)
100
AcDbSpline
210
0.0
220
0.0
230
1.0
 70
     8
 71
     3
 72
     8
 73
     4
 74
     0
 42
0.0000000001
 43
0.0000000001
 40
0.0
 40
0.0
 40
0.0
 40
0.0
 40
0.7834644549744113
 40
0.7834644549744113
 40
0.7834644549744113
 40
0.7834644549744113
 10
73.35627599451533
 20
47.57822950551374
 30
0.0
 10
73.394073564526
 20
47.60298757371719
 30
0.0
 10
73.43148656803002
 20
47.60806325426197
 30
0.0
 10
73.45761393544508
 20
47.59336102134856
 30
0.0
  0
LINE
  5
27A
330
6C
100
AcDbEntity
  8
Visible (ANSI)
100
AcDbLine
 10
73.35627599451554
 20
46.73838834581706
 30
0.0
 11
73.35627599451533
 21
47.57822950551374
 31
0.0
  0
LINE
  5
27B
330
6C
100
AcDbEntity
  8
Visible (ANSI)
100
AcDbLine
 10
73.35627599451554
 20
46.63619495521174
 30
0.0
 11
73.35627599451554
 21
46.73838834581706
 31
0.0
  0
LINE
  5
27C
330
6C
100
AcDbEntity
  8
Visible (ANSI)
100
AcDbLine
 10
80.17512293726101
 20
43.63352102815109
 30
0.0
 11
80.17512293726101
 21
43.65151670630688
 31
0.0
  0
SPLINE
  5
27D
330
6C
100
AcDbEntity
  8
Visible (ANSI)
100
AcDbSpline
210
0.0
220
0.0
230
1.0
 70
    24
 71
     3
 72
     8
 73
     4
 74
     0
 42
0.0000000001
 43
0.0000000001
 40
-0.3175000000000002
 40
-0.3175000000000002
 40
-0.3175000000000002
 40
-0.3175000000000002
 40
-0.1275259911872244
 40
-0.1275259911872244
 40
-0.1275259911872244
 40
-0.1275259911872244
 10
80.34542754564554
 20
43.55275449606176
 30
0.0
 10
80.32779868608116
 20
43.54260271100658
 30
0.0
 10
80.31016982651676
 20
43.53245092595139
 30
0.0
 10
80.29254096695236
 20
43.52229914089622
 30
0.0
  0
LINE
  5
27E
330
6C
100
AcDbEntity
  8
Visible (ANSI)
100
AcDbLine
 10
80.17512293726101
 20
43.65151670630688
 30
0.0
 11
78.71671520106374
 21
43.65151670630676
 31
0.0
  0
LINE
  5
27F
330
6C
100
AcDbEntity
  8
Visible (ANSI)
100
AcDbLine
 10
78.71671520106374
 20
43.63352102815097
 30
0.0
 11
78.71671520106374
 21
43.65151670630676
 31
0.0
  0
SPLINE
  5
280
330
6C
100
AcDbEntity
  8
Visible (ANSI)
100
AcDbSpline
210
0.0
220
0.0
230
1.0
 70
     8
 71
     3
 72
    11
 73
     7
 74
     0
 42
0.0000000001
 43
0.0000000001
 40
0.7873318718203435
 40
0.7873318718203435
 40
0.7873318718203435
 40
0.7873318718203435
 40
0.9120227246349571
 40
0.9120227246349571
 40
0.9120227246349571
 40
1.570796326794894
 40
1.570796326794894
 40
1.570796326794894
 40
1.570796326794894
 10
73.22370897140562
 20
47.59337822069442
 30
0.0
 10
73.22782031720173
 20
47.59579966344921
 30
0.0
 10
73.23222190968666
 20
47.59772187848224
 30
0.0
 10
73.23689219396682
 20
47.59910646917961
 30
0.0
 10
73.26156649788654
 20
47.60642161524387
 30
0.0
 10
73.29324402764914
 20
47.59904724864088
 30
0.0
 10
73.32502599451533
 20
47.57822950551374
 30
0.0
  0
LINE
  5
281
330
6C
100
AcDbEntity
  8
Visible (ANSI)
100
AcDbLine
 10
73.32502599451533
 20
47.57822950551374
 30
0.0
 11
73.32502599451554
 21
46.73838834581706
 31
0.0
  0
LINE
  5
282
330
6C
100
AcDbEntity
  8
Visible (ANSI)
100
AcDbLine
 10
73.32502599451554
 20
46.63619495521174
 30
0.0
 11
73.32502599451554
 21
46.73838834581706
 31
0.0
  0
SPLINE
  5
283
330
6C
100
AcDbEntity
  8
Visible (ANSI)
100
AcDbSpline
210
0.0
220
0.0
230
1.0
 70
     8
 71
     3
 72
    11
 73
     7
 74
     0
 42
0.0000000001
 43
0.0000000001
 40
0.0
 40
0.0
 40
0.0
 40
0.0
 40
0.9120227246349079
 40
0.9120227246349079
 40
0.9120227246349079
 40
1.570796326794882
 40
1.570796326794882
 40
1.570796326794882
 40
1.570796326794882
 10
80.17512293726101
 20
43.63352102815109
 30
0.0
 10
80.22517072915659
 20
43.60818325533788
 30
0.0
 10
80.27469739332479
 20
43.55677398934298
 30
0.0
 10
80.30650689962762
 20
43.49894761211623
 30
0.0
 10
80.32948358922539
 20
43.4571783778674
 30
0.0
 10
80.34324323157973
 20
43.41261985482433
 30
0.0
 10
80.34542754564558
 20
43.37460637127763
 30
0.0
  0
LINE
  5
284
330
6C
100
AcDbEntity
  8
Visible (ANSI)
100
AcDbLine
 10
78.71671520106374
 20
43.63352102815097
 30
0.0
 11
80.17512293726101
 21
43.63352102815109
 31
0.0
  0
ELLIPSE
  5
285
330
6C
100
AcDbEntity
  8
Visible (ANSI)
100
AcDbEllipse
 10
74.26872864482352
 20
39.47606727373634
 30
0.0
 11
0.28125
 21
-0.0000000000000169
 31
0.0
210
0.0
220
0.0
230
1.0
 40
0.5758617009853113
 41
0.0
 42
6.283185307179586
  0
ELLIPSE
  5
286
330
6C
100
AcDbEntity
  8
Visible (ANSI)
100
AcDbEllipse
 10
74.26872864482352
 20
39.37387388313103
 30
0.0
 11
0.2812499999999998
 21
-0.0000000000000001
 31
0.0
210
0.0
220
0.0
230
1.0
 40
0.5758617009853113
 41
0.3209702928256437
 42
2.82062236076415
  0
ELLIPSE
  5
287
330
6C
100
AcDbEntity
  8
Visible (ANSI)
100
AcDbEllipse
 10
70.07028213152839
 20
39.34852727739257
 30
0.0
 11
0.28125
 21
-0.0000000000000168
 31
0.0
210
0.0
220
0.0
230
1.0
 40
0.5758617009853115
 41
0.0
 42
6.283185307179586
  0
ELLIPSE
  5
288
330
6C
100
AcDbEntity
  8
Visible (ANSI)
100
AcDbEllipse
 10
70.07028213152839
 20
39.24633388678725
 30
0.0
 11
0.2812500000000001
 21
0.0
 31
0.0
210
0.0
220
0.0
230
1.0
 40
0.5758617009853113
 41
0.3209702928256429
 42
2.820622360764149
  0
ELLIPSE
  5
289
330
6C
100
AcDbEntity
  8
Visible (ANSI)
100
AcDbEllipse
 10
74.22453447099998
 20
36.95625245886296
 30
0.0
 11
0.28125
 21
-0.0000000000000168
 31
0.0
210
0.0
220
0.0
230
1.0
 40
0.5758617009853115
 41
0.0
 42
6.283185307179586
  0
ELLIPSE
  5
28A
330
6C
100
AcDbEntity
  8
Visible (ANSI)
100
AcDbEllipse
 10
74.22453447099998
 20
36.85405906825764
 30
0.0
 11
0.2812499999999995
 21
0.0
 31
0.0
210
0.0
220
0.0
230
1.0
 40
0.5758617009853113
 41
0.3209702928256437
 42
2.82062236076415
  0
ELLIPSE
  5
28B
330
6C
100
AcDbEntity
  8
Visible (ANSI)
100
AcDbEllipse
 10
74.84325290453849
 20
35.88736371015813
 30
0.0
 11
-0.1249999999999982
 21
0.0000000000000075
 31
0.0
210
0.0
220
0.0
230
1.0
 40
0.5758617009853115
 41
0.7853981633977903
 42
2.356194490192645
  0
LINE
  5
28C
330
6C
100
AcDbEntity
  8
Visible Narrow (ANSI)
100
AcDbLine
 10
74.75486455689019
 20
35.83646424593408
 30
0.0
 11
74.75486455689019
 21
35.73427085532877
 31
0.0
  0
ELLIPSE
  5
28D
330
6C
100
AcDbEntity
  8
Visible (ANSI)
100
AcDbEllipse
 10
74.84325290453849
 20
35.78517031955282
 30
0.0
 11
0.1249999999999989
 21
0.0000000000000074
 31
0.0
210
0.0
220
0.0
230
1.0
 40
0.5758617009853113
 41
3.926990816987237
 42
5.497787143782091
  0
LINE
  5
28E
330
6C
100
AcDbEntity
  8
Visible Narrow (ANSI)
100
AcDbLine
 10
74.9316412521868
 20
35.73427085532878
 30
0.0
 11
74.9316412521868
 21
35.8364642459341
 31
0.0
  0
ELLIPSE
  5
28F
330
6C
100
AcDbEntity
  8
Visible (ANSI)
100
AcDbEllipse
 10
68.21412683091361
 20
39.60263013635538
 30
0.0
 11
-0.1249999999999999
 21
0.0000000000000001
 31
0.0
210
0.0
220
0.0
230
1.0
 40
0.5758617009853115
 41
0.0000000000000054
 42
0.7853981633976204
  0
ELLIPSE
  5
290
330
6C
100
AcDbEntity
  8
Visible (ANSI)
100
AcDbEllipse
 10
68.21412683091361
 20
39.7048235269607
 30
0.0
 11
-0.125
 21
0.0
 31
0.0
210
0.0
220
0.0
230
1.0
 40
0.5758617009853117
 41
5.497787143782264
 42
7.068583470577203
  0
LINE
  5
291
330
6C
100
AcDbEntity
  8
Visible Narrow (ANSI)
100
AcDbLine
 10
68.12573848326531
 20
39.55173067213133
 30
0.0
 11
68.12573848326531
 21
39.65392406273665
 31
0.0
  0
ELLIPSE
  5
292
330
6C
100
AcDbEntity
  8
Visible (ANSI)
100
AcDbEllipse
 10
73.429108047137
 20
42.81002174497384
 30
0.0
 11
0.1249999999999988
 21
-0.0000000000000074
 31
0.0
210
0.0
220
0.0
230
1.0
 40
0.5758617009853114
 41
0.8248293379544371
 42
2.356194490192644
  0
LINE
  5
293
330
6C
100
AcDbEntity
  8
Visible (ANSI)
100
AcDbLine
 10
68.08912683091361
 20
39.60263013635538
 30
0.0
 11
68.08912683091361
 21
39.7048235269607
 31
0.0
  0
LINE
  5
294
330
6C
100
AcDbEntity
  8
Visible (ANSI)
100
AcDbLine
 10
74.9316412521868
 20
35.73427085532878
 30
0.0
 11
75.90383584840012
 21
36.29412048919307
 31
0.0
  0
LINE
  5
295
330
6C
100
AcDbEntity
  8
Visible (ANSI)
100
AcDbLine
 10
75.90383584840012
 20
36.39631387979838
 30
0.0
 11
74.9316412521868
 21
35.8364642459341
 31
0.0
  0
LINE
  5
296
330
6C
100
AcDbEntity
  8
Visible (ANSI)
100
AcDbLine
 10
68.12573848326531
 20
39.55173067213133
 30
0.0
 11
74.75486455689019
 21
35.73427085532877
 31
0.0
  0
LINE
  5
297
330
6C
100
AcDbEntity
  8
Visible (ANSI)
100
AcDbLine
 10
68.12573848326528
 20
39.75572299118473
 30
0.0
 11
69.09793307947859
 21
40.31557262504901
 31
0.0
  0
LINE
  5
298
330
6C
100
AcDbEntity
  8
Visible (ANSI)
100
AcDbLine
 10
74.75486455689019
 20
35.83646424593408
 30
0.0
 11
68.12573848326531
 21
39.65392406273665
 31
0.0
  0
ELLIPSE
  5
299
330
6C
100
AcDbEntity
  8
Visible (ANSI)
100
AcDbEllipse
 10
75.90383584840012
 20
36.47295892275237
 30
0.0
 11
0.1091632962840289
 21
0.189565126656792
 31
0.0
210
0.0
220
0.0
230
1.0
 40
0.5780931159156393
 41
3.925057108564034
 42
4.710455271961552
  0
ELLIPSE
  5
29A
330
6C
100
AcDbEntity
  8
Visible (ANSI)
100
AcDbEllipse
 10
75.90383584840012
 20
36.47295892275237
 30
0.0
 11
0.0467842698360122
 21
0.0812421971386248
 31
0.0
210
0.0
220
0.0
230
1.0
 40
0.5780931159156392
 41
3.925057108563823
 42
4.710455271961501
  0
ELLIPSE
  5
29B
330
6C
100
AcDbEntity
  8
Visible (ANSI)
100
AcDbEllipse
 10
69.09793307947859
 20
40.392217668003
 30
0.0
 11
0.0467842698360122
 21
0.0812421971386248
 31
0.0
210
0.0
220
0.0
230
0.9999999999999998
 40
0.5780931159156392
 41
3.925057108563823
 42
4.710455271961501
  0
LINE
  5
29C
330
6C
100
AcDbEntity
  8
Visible Narrow (ANSI)
100
AcDbLine
 10
75.95071084840011
 20
36.44575621036896
 30
0.0
 11
69.14480807947858
 21
40.36501495561959
 31
0.0
  0
LINE
  5
29D
330
6C
100
AcDbEntity
  8
Visible Narrow (ANSI)
100
AcDbLine
 10
75.90383584840012
 20
36.39631387979838
 30
0.0
 11
69.09793307947859
 21
40.31557262504901
 31
0.0
  0
LINE
  5
29E
330
6C
100
AcDbEntity
  8
Visible (ANSI)
100
AcDbLine
 10
76.03678913163098
 20
36.45032464392051
 30
0.0
 11
76.01321084840009
 21
36.40948592719109
 31
0.0
  0
LINE
  5
29F
330
6C
100
AcDbEntity
  8
Visible (ANSI)
100
AcDbLine
 10
75.95071084840011
 20
36.44575621036896
 30
0.0
 11
75.97428913163099
 21
36.48659492709839
 31
0.0
  0
LINE
  5
2A0
330
6C
100
AcDbEntity
  8
Visible (ANSI)
100
AcDbLine
 10
69.16838636270945
 20
40.40585367234903
 30
0.0
 11
69.14480807947858
 21
40.36501495561959
 31
0.0
  0
ELLIPSE
  5
2A1
330
6C
100
AcDbEntity
  8
Visible (ANSI)
100
AcDbEllipse
 10
76.08366413163098
 20
36.4231219315371
 30
0.0
 11
0.0467842698360167
 21
0.0812421971386214
 31
0.0
210
0.0
220
0.0
230
1.0
 40
0.5780931159156393
 41
0.8283475791859835
 42
1.568862618371882
  0
ELLIPSE
  5
2A2
330
6C
100
AcDbEntity
  8
Visible (ANSI)
100
AcDbEllipse
 10
76.08366413163098
 20
36.4231219315371
 30
0.0
 11
0.1091632962840405
 21
0.1895651266567861
 31
0.0
210
0.0
220
0.0
230
1.0
 40
0.5780931159156392
 41
0.8232884296044691
 42
1.568862618371881
  0
ELLIPSE
  5
2A3
330
6C
100
AcDbEntity
  8
Visible (ANSI)
100
AcDbEllipse
 10
69.27776136270944
 20
40.34238067678773
 30
0.0
 11
0.1091632962840405
 21
0.1895651266567861
 31
0.0
210
0.0
220
0.0
230
1.0
 40
0.5780931159156416
 41
0.7834644549744123
 42
1.568862618371881
  0
LINE
  5
2A4
330
6C
100
AcDbEntity
  8
Visible Narrow (ANSI)
100
AcDbLine
 10
76.07420295349005
 20
36.60740869523394
 30
0.0
 11
69.27776136270944
 21
40.52121911034704
 31
0.0
  0
LINE
  5
2A5
330
6C
100
AcDbEntity
  8
Visible Narrow (ANSI)
100
AcDbLine
 10
75.97428913163099
 20
36.48659492709839
 30
0.0
 11
69.16838636270945
 21
40.40585367234903
 31
0.0
  0
LINE
  5
2A6
330
6C
100
AcDbEntity
  8
Visible (ANSI)
100
AcDbLine
 10
76.10804096639125
 20
36.51380466002078
 30
0.0
 11
76.08366413163096
 21
36.49976697449108
 31
0.0
  0
LINE
  5
2A7
330
6C
100
AcDbEntity
  8
Visible (ANSI)
100
AcDbLine
 10
73.34071969948867
 20
42.86092120919788
 30
0.0
 11
69.27776136270944
 21
40.52121911034704
 31
0.0
  0
LINE
  5
2A8
330
6C
100
AcDbEntity
  8
Visible Narrow (ANSI)
100
AcDbLine
 10
76.08068977161479
 20
36.49805415447282
 30
0.0
 11
76.08068977161479
 21
36.49797696691023
 31
0.0
  0
LINE
  5
2A9
330
6C
100
AcDbEntity
  8
Visible Narrow (ANSI)
100
AcDbLine
 10
73.5139433365331
 20
42.86288815024103
 30
0.0
 11
75.44621646220744
 21
41.75016606132234
 31
0.0
  0
LINE
  5
2AA
330
6C
100
AcDbEntity
  8
Visible Narrow (ANSI)
100
AcDbLine
 10
76.08366413163096
 20
36.49976697449107
 30
0.0
 11
76.08068977161479
 21
36.49805415447282
 31
0.0
  0
DIMENSION
  5
2AB
330
6C
100
AcDbEntity
  8
Dimension (ANSI)
100
AcDbDimension
  2
*D4
 10
28.91061376340807
 20
27.30847322313314
 30
0.0
 11
28.91061376340807
 21
30.30841015253399
 31
0.0
 70
   160
  1
<>{\PHEIGHT}
 71
     5
 42
5.99987385880178
  3
Default (ANSI)
100
AcDbAlignedDimension
 13
32.21893069254198
 23
33.30834708193492
 33
0.0
 14
32.37518069254193
 24
27.30847322313314
 34
0.0
 50
90.0
100
AcDbRotatedDimension
1001
ACAD
1000
DSTYLE
1002
{
1070
   289
1070
     1
1070
   271
1070
     2
1070
   272
1070
     2
1070
    48
1040
0.0
1070
    47
1040
0.0
1002
}
  0
DIMENSION
  5
3AC
330
6C
100
AcDbEntity
  8
Dimension (ANSI)
100
AcDbDimension
  2
*D5
 10
42.1251806925419
 20
35.46613393619307
 30
0.0
 11
37.06268069254195
 21
35.46613393619307
 31
0.0
 70
   160
  1
<>{\PWIDTH}
 71
     5
 42
10.12499999999993
  3
Default (ANSI)
100
AcDbAlignedDimension
 13
32.00018069254197
 23
33.08959708193492
 33
0.0
 14
42.1251806925419
 24
33.08959708193493
 34
0.0
100
AcDbRotatedDimension
1001
ACAD
1000
DSTYLE
1002
{
1070
   289
1070
     1
1070
    73
1070
     0
1070
    74
1070
     0
1070
   271
1070
     2
1070
   272
1070
     2
1070
    48
1040
0.0
1070
    47
1040
0.0
1002
}
  0
DIMENSION
  5
4AA
330
6C
100
AcDbEntity
  8
Dimension (ANSI)
100
AcDbDimension
  2
*D6
 10
18.90175760643695
 20
36.27955230310585
 30
0.0
 11
14.90175760643695
 21
36.27955230310585
 31
0.0
 70
   160
  1
<>
 42
8.000000000000003
  3
Default (ANSI)
100
AcDbAlignedDimension
 13
10.90175760643695
 23
33.08959708193492
 33
0.0
 14
18.90175760643695
 24
33.30834708193492
 34
0.0
100
AcDbRotatedDimension
1001
ACAD
1000
DSTYLE
1002
{
1070
   289
1070
     1
1070
    73
1070
     0
1070
    74
1070
     0
1070
   271
1070
     2
1070
   272
1070
     2
1070
    48
1040
0.0
1070
    47
1040
0.0
1002
}
  0
DIMENSION
  5
594
330
6C
100
AcDbEntity
  8
Dimension (ANSI)
100
AcDbDimension
  2
*D7
 10
22.28545551248158
 20
34.75627208835282
 30
0.0
 11
21.91873975446278
 21
35.40315354949621
 31
0.0
 70
   165
  1
<>
 42
1.237737692223977
  3
Default (ANSI)
100
AcDb3PointAngularDimension
 13
19.28993328211256
 23
33.30834708193493
 33
0.0
 14
19.07960050272219
 24
33.60367420400959
 34
0.0
 15
18.97743328211257
 25
33.30834708193493
 35
0.0
1001
ACAD_DSTYLE_DIMANGULAR_EXTENSION
1070
   387
1070
     1
1001
ACAD
1000
DSTYLE
1002
{
1070
   179
1070
     0
1070
   272
1070
     0
1070
    48
1040
0.0
1070
    47
1040
0.0
1002
}
  0
DIMENSION
  5
6B8
330
6C
100
AcDbEntity
  8
Dimension (ANSI)
100
AcDbDimension
  2
*D8
 10
42.12518069254499
 20
42.59495345029606
 30
0.0
 11
45.21634513504291
 21
42.59495345029606
 31
0.0
 70
   160
  1
<>{\P(2 PL.)}
 71
     5
 42
1.250000000000007
  3
Default (ANSI)
100
AcDbAlignedDimension
 13
40.87518069254499
 23
42.80649397455728
 33
0.0
 14
42.12518069254499
 24
42.80649397455728
 34
0.0
100
AcDbRotatedDimension
1001
ACAD
1000
DSTYLE
1002
{
1070
   289
1070
     1
1070
    73
1070
     0
1070
    74
1070
     0
1070
   271
1070
     2
1070
    76
1070
     1
1070
    75
1070
     1
1070
   272
1070
     2
1070
    48
1040
0.0
1070
    47
1040
0.0
1002
}
  0
DIMENSION
  5
7A7
330
6C
100
AcDbEntity
  8
Dimension (ANSI)
100
AcDbDimension
  2
*D9
 10
35.17078051861798
 20
40.21402291760703
 30
0.0
 11
35.17078051861797
 21
40.83902291760701
 31
0.0
 70
   160
  1
<>
 42
1.249999999999936
  3
Default (ANSI)
100
AcDbAlignedDimension
 13
34.82864645433337
 23
41.46402291760697
 33
0.0
 14
34.99016441143758
 24
40.21402291760703
 34
0.0
 50
270.0
100
AcDbRotatedDimension
1001
ACAD
1000
DSTYLE
1002
{
1070
   289
1070
     1
1070
   271
1070
     2
1070
    76
1070
     1
1070
    75
1070
     1
1070
   272
1070
     2
1070
    48
1040
0.0
1070
    47
1040
0.0
1002
}
  0
LINE
  5
890
330
6C
100
AcDbEntity
  8
Center Mark (ANSI)
  6
CHAIN
 48
0.2012779265642166
100
AcDbLine
 10
32.68768069253878
 20
13.43155713101846
 30
0.0
 11
32.68768069253878
 21
11.61905713101846
 31
0.0
  0
LINE
  5
891
330
6C
100
AcDbEntity
  8
Center Mark (ANSI)
  6
CHAIN
 48
0.2012779265642166
100
AcDbLine
 10
32.68768069253878
 20
18.43155713101846
 30
0.0
 11
32.68768069253878
 21
16.61905713101846
 31
0.0
  0
LINE
  5
892
330
6C
100
AcDbEntity
  8
Centerline (ANSI)
  6
CHAIN
 48
0.9524481296539306
100
AcDbLine
 10
32.68768069253878
 20
11.61905713101846
 30
0.0
 11
32.68768069253878
 21
18.43155713101846
 31
0.0
  0
LINE
  5
893
330
6C
100
AcDbEntity
  8
Center Mark (ANSI)
  6
CHAIN
 48
0.2012779265642166
100
AcDbLine
 10
34.25018069253879
 20
19.74405713101847
 30
0.0
 11
34.25018069253879
 21
17.93155713101846
 31
0.0
  0
LINE
  5
894
330
6C
100
AcDbEntity
  8
Center Mark (ANSI)
  6
CHAIN
 48
0.2012779265642166
100
AcDbLine
 10
39.87518069253877
 20
19.74405713101847
 30
0.0
 11
39.87518069253877
 21
17.93155713101846
 31
0.0
  0
LINE
  5
895
330
6C
100
AcDbEntity
  8
Centerline (ANSI)
  6
CHAIN
 48
0.9524481296539306
100
AcDbLine
 10
33.34393069253879
 20
18.83780713101847
 30
0.0
 11
40.78143069253877
 21
18.83780713101847
 31
0.0
  0
LINE
  5
896
330
6C
100
AcDbEntity
  8
Center Mark (ANSI)
  6
CHAIN
 48
0.2012779265642166
100
AcDbLine
 10
41.43768069253876
 20
18.43155713101847
 30
0.0
 11
41.43768069253876
 21
16.61905713101847
 31
0.0
  0
LINE
  5
897
330
6C
100
AcDbEntity
  8
Center Mark (ANSI)
  6
CHAIN
 48
0.2012779265642166
100
AcDbLine
 10
41.43768069253872
 20
13.43155713101847
 30
0.0
 11
41.43768069253872
 21
11.61905713101847
 31
0.0
  0
LINE
  5
898
330
6C
100
AcDbEntity
  8
Centerline (ANSI)
  6
CHAIN
 48
0.9524481296539306
100
AcDbLine
 10
41.43768069253876
 20
18.43155713101847
 30
0.0
 11
41.43768069253871
 21
11.61905713101847
 31
0.0
  0
DIMENSION
  5
899
330
6C
100
AcDbEntity
  8
Dimension (ANSI)
100
AcDbDimension
  2
*D10
 10
30.14669834585752
 20
17.52530713101846
 30
0.0
 11
28.73518728453343
 21
16.66888054194025
 31
0.0
 70
   160
  1
<>
 42
1.999999999999939
  3
Default (ANSI)
100
AcDbAlignedDimension
 13
32.21893069253879
 23
19.5253071310184
 33
0.0
 14
31.78143069253878
 24
17.52530713101846
 34
0.0
 50
270.0
100
AcDbRotatedDimension
1001
ACAD
1000
DSTYLE
1002
{
1070
   289
1070
     2
1070
   271
1070
     2
1070
   272
1070
     2
1070
    48
1040
0.0
1070
    47
1040
0.0
1002
}
  0
DIMENSION
  5
991
330
6C
100
AcDbEntity
  8
Dimension (ANSI)
100
AcDbDimension
  2
*D11
 10
26.34290623647866
 20
12.52530713101846
 30
0.0
 11
26.34290623647865
 21
16.02530713101843
 31
0.0
 70
   160
  1
<>
 42
6.999999999999937
  3
Default (ANSI)
100
AcDbAlignedDimension
 13
32.21893069253879
 23
19.5253071310184
 33
0.0
 14
31.78143069253878
 24
12.52530713101846
 34
0.0
 50
270.0
100
AcDbRotatedDimension
1001
ACAD
1000
DSTYLE
1002
{
1070
   289
1070
     1
1070
   271
1070
     2
1070
   272
1070
     2
1070
    48
1040
0.0
1070
    47
1040
0.0
1002
}
  0
DIMENSION
  5
A7B
330
6C
100
AcDbEntity
  8
Dimension (ANSI)
100
AcDbDimension
  2
*D12
 10
34.24682089645371
 20
18.83780713101847
 30
0.0
 11
35.64642719569564
 21
20.75521321383437
 31
0.0
 70
   160
  1
<>
 42
0.6874999999999325
  3
Default (ANSI)
100
AcDbAlignedDimension
 13
41.90643069253877
 23
19.5253071310184
 33
0.0
 14
40.78143069253877
 24
18.83780713101847
 34
0.0
 50
270.0
100
AcDbRotatedDimension
1001
ACAD
1000
DSTYLE
1002
{
1070
   289
1070
     1
1070
   271
1070
     2
1070
    76
1070
     1
1070
    75
1070
     1
1070
   272
1070
     2
1070
    48
1040
0.0
1070
    47
1040
0.0
1002
}
  0
DIMENSION
  5
B72
330
6C
100
AcDbEntity
  8
Dimension (ANSI)
100
AcDbDimension
  2
*D13
 10
39.87518069253877
 20
21.91653955469897
 30
0.0
 11
43.8786720306172
 21
21.91653955469897
 31
0.0
 70
   160
  1
<>
 42
2.25
  3
Default (ANSI)
100
AcDbAlignedDimension
 13
42.12518069253877
 23
19.3065571310184
 33
0.0
 14
39.87518069253877
 24
19.74405713101847
 34
0.0
 50
180.0
100
AcDbRotatedDimension
1001
ACAD
1000
DSTYLE
1002
{
1070
   289
1070
     2
1070
    73
1070
     0
1070
    74
1070
     0
1070
   271
1070
     2
1070
   272
1070
     2
1070
    48
1040
0.0
1070
    47
1040
0.0
1002
}
  0
DIMENSION
  5
C5C
330
6C
100
AcDbEntity
  8
Dimension (ANSI)
100
AcDbDimension
  2
*D14
 10
34.25018069253879
 20
21.91653955469897
 30
0.0
 11
30.24668935446035
 21
21.91653955469897
 31
0.0
 70
   160
  1
<>
 42
2.25
  3
Default (ANSI)
100
AcDbAlignedDimension
 13
32.00018069253879
 23
19.3065571310184
 33
0.0
 14
34.25018069253879
 24
19.74405713101847
 34
0.0
100
AcDbRotatedDimension
1001
ACAD
1000
DSTYLE
1002
{
1070
   289
1070
     2
1070
    73
1070
     0
1070
    74
1070
     0
1070
   271
1070
     2
1070
   272
1070
     2
1070
    48
1040
0.0
1070
    47
1040
0.0
1002
}
  0
LINE
  5
D46
330
6C
100
AcDbEntity
  8
Centerline (ANSI)
  6
CHAIN
 48
0.9524481296539306
100
AcDbLine
 10
31.78143069253878
 20
17.52530713101846
 30
0.0
 11
42.34393069253876
 21
17.52530713101847
 31
0.0
  0
LINE
  5
D47
330
6C
100
AcDbEntity
  8
Centerline (ANSI)
  6
CHAIN
 48
0.9524481296539306
100
AcDbLine
 10
31.78143069253878
 20
12.52530713101846
 30
0.0
 11
42.34393069253871
 21
12.52530713101847
 31
0.0
  0
DIMENSION
  5
D48
330
6C
100
AcDbEntity
  8
Dimension (ANSI)
100
AcDbDimension
  2
*D15
 10
32.68768069253878
 20
10.77201026901846
 30
0.0
 11
28.90901625004087
 21
10.77201026901846
 31
0.0
 70
   160
  1
<>{\P(2 PL.)}
 71
     5
 42
0.6874999999999929
  3
Default (ANSI)
100
AcDbAlignedDimension
 13
32.00018069253879
 23
11.5253071310184
 33
0.0
 14
32.68768069253878
 24
11.61905713101846
 34
0.0
100
AcDbRotatedDimension
1001
ACAD
1000
DSTYLE
1002
{
1070
   289
1070
     1
1070
    73
1070
     0
1070
    74
1070
     0
1070
   271
1070
     2
1070
   272
1070
     2
1070
    48
1040
0.0
1070
    47
1040
0.0
1002
}
  0
DIMENSION
  5
E46
330
6C
100
AcDbEntity
  8
Dimension (ANSI)
100
AcDbDimension
  2
*D16
 10
41.26421983113303
 20
12.30391857652566
 30
0.0
 11
45.7181346096541
 21
15.22429250181856
 31
0.0
 70
   163
  1
<>{\P(6 PL.)}
 71
     5
 42
0.5624999999999858
  3
Default (ANSI)
100
AcDbDiametricDimension
 15
41.61114155394434
 25
12.74669568551127
 35
0.0
 40
0.0
1001
ACAD
1000
DSTYLE
1002
{
1070
   144
1040
0.9999999999999495
1070
   271
1070
     3
1070
   272
1070
     2
1070
    48
1040
0.0
1070
    47
1040
0.0
1002
}
1001
ACAD_DSTYLE_DIMRADIAL_EXTENSION
1070
   387
1070
     1
1070
   388
1040
0.0
1070
   390
1040
0.0
  0
LINE
  5
F00
330
6C
100
AcDbEntity
  8
Center Mark (ANSI)
  6
CHAIN
 48
0.2012779265642166
100
AcDbLine
 10
34.12518069254498
 20
47.87027291760696
 30
0.0
 11
34.12518069254498
 21
46.05777291760698
 31
0.0
  0
LINE
  5
F01
330
6C
100
AcDbEntity
  8
Center Mark (ANSI)
  6
CHAIN
 48
0.2012779265642166
100
AcDbLine
 10
40.00018069254497
 20
47.87027291760696
 30
0.0
 11
40.00018069254497
 21
46.05777291760698
 31
0.0
  0
LINE
  5
F02
330
6C
100
AcDbEntity
  8
Centerline (ANSI)
  6
CHAIN
 48
0.9524481296539306
100
AcDbLine
 10
33.21893069254499
 20
46.96402291760697
 30
0.0
 11
40.90643069254498
 21
46.96402291760697
 31
0.0
  0
LINE
  5
F03
330
6C
100
AcDbEntity
  8
Center Mark (ANSI)
  6
CHAIN
 48
0.2012779265642166
100
AcDbLine
 10
37.96893069254498
 20
43.96402291760701
 30
0.0
 11
36.15643069254498
 21
43.96402291760701
 31
0.0
  0
LINE
  5
F04
330
6C
100
AcDbEntity
  8
Center Mark (ANSI)
  6
CHAIN
 48
0.2012779265642166
100
AcDbLine
 10
37.06268069254498
 20
44.87027291760701
 30
0.0
 11
37.06268069254498
 21
43.057772917607
 31
0.0
  0
DIMENSION
  5
F05
330
6C
100
AcDbEntity
  8
Dimension (ANSI)
100
AcDbDimension
  2
*D17
 10
34.12518069254498
 20
49.42013355714363
 30
0.0
 11
30.24668935446659
 21
49.42013355714363
 31
0.0
 70
   160
  1
<>
 42
2.124999999999964
  3
Default (ANSI)
100
AcDbAlignedDimension
 13
32.00018069254502
 23
48.21402291760869
 33
0.0
 14
34.12518069254498
 24
47.87027291760696
 34
0.0
 50
180.0
100
AcDbRotatedDimension
1001
ACAD
1000
DSTYLE
1002
{
1070
   289
1070
     2
1070
    73
1070
     0
1070
    74
1070
     0
1070
   271
1070
     2
1070
   272
1070
     2
1070
    48
1040
0.0
1070
    47
1040
0.0
1002
}
  0
DIMENSION
  5
FEF
330
6C
100
AcDbEntity
  8
Dimension (ANSI)
100
AcDbDimension
  2
*D18
 10
37.06268069254498
 20
50.7046399039325
 30
0.0
 11
34.531430692545
 21
50.7046399039325
 31
0.0
 70
   160
  1
<>
 42
5.062499999999964
  3
Default (ANSI)
100
AcDbAlignedDimension
 13
32.00018069254502
 23
48.21402291760869
 33
0.0
 14
37.06268069254498
 24
44.87027291760701
 34
0.0
 50
180.0
100
AcDbRotatedDimension
1001
ACAD
1000
DSTYLE
1002
{
1070
   289
1070
     1
1070
    73
1070
     0
1070
    74
1070
     0
1070
   271
1070
     2
1070
   272
1070
     2
1070
    48
1040
0.0
1070
    47
1040
0.0
1002
}
  0
DIMENSION
  5
10D9
330
6C
100
AcDbEntity
  8
Dimension (ANSI)
100
AcDbDimension
  2
*D19
 10
40.00018069254497
 20
49.42013355714363
 30
0.0
 11
43.87867203062337
 21
49.42013355714363
 31
0.0
 70
   160
  1
<>
 42
2.124999999999964
  3
Default (ANSI)
100
AcDbAlignedDimension
 13
42.12518069254494
 23
48.21402291760869
 33
0.0
 14
40.00018069254497
 24
47.87027291760696
 34
0.0
 50
180.0
100
AcDbRotatedDimension
1001
ACAD
1000
DSTYLE
1002
{
1070
   289
1070
     2
1070
    73
1070
     0
1070
    74
1070
     0
1070
   271
1070
     2
1070
   272
1070
     2
1070
    48
1040
0.0
1070
    47
1040
0.0
1002
}
  0
DIMENSION
  5
11C3
330
6C
100
AcDbEntity
  8
Dimension (ANSI)
100
AcDbDimension
  2
*D20
 10
28.67760068882692
 20
46.96402291760697
 30
0.0
 11
28.67760068882692
 21
47.58902291760783
 31
0.0
 70
   160
  1
<>
 42
1.250000000001726
  3
Default (ANSI)
100
AcDbAlignedDimension
 13
32.00018069254502
 23
48.21402291760869
 33
0.0
 14
33.21893069254499
 24
46.96402291760697
 34
0.0
 50
90.0
100
AcDbRotatedDimension
1001
ACAD
1000
DSTYLE
1002
{
1070
   289
1070
     1
1070
   271
1070
     2
1070
   272
1070
     2
1070
    48
1040
0.0
1070
    47
1040
0.0
1002
}
  0
DIMENSION
  5
12B5
330
6C
100
AcDbEntity
  8
Dimension (ANSI)
100
AcDbDimension
  2
*D21
 10
26.99562023651054
 20
43.96402291760701
 30
0.0
 11
26.99562023651053
 21
46.08902291760785
 31
0.0
 70
   160
  1
<>
 42
4.250000000001683
  3
Default (ANSI)
100
AcDbAlignedDimension
 13
32.00018069254502
 23
48.21402291760869
 33
0.0
 14
36.15643069254498
 24
43.96402291760701
 34
0.0
 50
90.0
100
AcDbRotatedDimension
1001
ACAD
1000
DSTYLE
1002
{
1070
   289
1070
     1
1070
   271
1070
     2
1070
   272
1070
     2
1070
    48
1040
0.0
1070
    47
1040
0.0
1002
}
  0
DIMENSION
  5
139F
330
6C
100
AcDbEntity
  8
Dimension (ANSI)
100
AcDbDimension
  2
*D22
 10
36.79939340047648
 20
43.86512213735108
 30
0.0
 11
44.99860172996809
 21
46.13151497786711
 31
0.0
 70
   163
  1
<>{\P(3 PL.)}
 71
     5
 42
0.5625
  3
Default (ANSI)
100
AcDbDiametricDimension
 15
37.32596798461352
 25
44.06292369786294
 35
0.0
 40
0.0
1001
ACAD
1000
DSTYLE
1002
{
1070
   144
1040
0.9999999999999621
1070
   271
1070
     3
1070
   272
1070
     3
1070
    48
1040
0.0
1070
    47
1040
0.0
1002
}
1001
ACAD_DSTYLE_DIMRADIAL_EXTENSION
1070
   387
1070
     1
1070
   388
1040
0.0
1070
   390
1040
0.0
  0
DIMENSION
  5
1458
330
6C
100
AcDbEntity
  8
Dimension (ANSI)
100
AcDbDimension
  2
*D23
 10
18.65175760643699
 20
25.14574849858103
 30
0.0
 11
14.62360989419978
 21
25.14574849858103
 31
0.0
 70
   160
  1
<>
 42
7.750000000000046
  3
Default (ANSI)
100
AcDbAlignedDimension
 13
10.90175760643695
 23
27.52709708193493
 33
0.0
 14
18.65175760643699
 24
27.30847322313314
 34
0.0
100
AcDbRotatedDimension
1001
ACAD
1000
DSTYLE
1002
{
1070
   289
1070
     1
1070
    73
1070
     0
1070
    74
1070
     0
1070
   271
1070
     2
1070
   272
1070
     2
1070
    48
1040
0.0
1070
    47
1040
0.0
1002
}
  0
LINE
  5
1542
330
6C
100
AcDbEntity
  8
Center Mark (ANSI)
  6
CHAIN
 48
0.2012779265642166
100
AcDbLine
 10
37.96893069253874
 20
15.77530713101675
 30
0.0
 11
36.15643069253874
 21
15.77530713101675
 31
0.0
  0
LINE
  5
1543
330
6C
100
AcDbEntity
  8
Center Mark (ANSI)
  6
CHAIN
 48
0.2012779265642166
100
AcDbLine
 10
37.06268069253874
 20
16.68155713101675
 30
0.0
 11
37.06268069253874
 21
14.86905713101676
 31
0.0
  0
LINE
  5
1544
330
6C
100
AcDbEntity
  8
Center Mark (ANSI)
  6
CHAIN
 48
0.2012779265642166
100
AcDbLine
 10
35.03143069253874
 20
12.77530713101672
 30
0.0
 11
33.21893069253875
 21
12.77530713101672
 31
0.0
  0
LINE
  5
1545
330
6C
100
AcDbEntity
  8
Center Mark (ANSI)
  6
CHAIN
 48
0.2012779265642166
100
AcDbLine
 10
34.12518069253874
 20
13.68155713101672
 30
0.0
 11
34.12518069253874
 21
11.86905713101672
 31
0.0
  0
LINE
  5
1546
330
6C
100
AcDbEntity
  8
Center Mark (ANSI)
  6
CHAIN
 48
0.2012779265642166
100
AcDbLine
 10
40.90643069253874
 20
12.77530713101672
 30
0.0
 11
39.09393069253875
 21
12.77530713101672
 31
0.0
  0
LINE
  5
1547
330
6C
100
AcDbEntity
  8
Center Mark (ANSI)
  6
CHAIN
 48
0.2012779265642166
100
AcDbLine
 10
40.00018069253875
 20
13.68155713101672
 30
0.0
 11
40.00018069253875
 21
11.86905713101672
 31
0.0
  0
MTEXT
  5
1548
102
{ACAD_XDICTIONARY
360
1554
102
}
330
6C
100
AcDbEntity
  8
Symbol (ANSI)
100
AcDbMText
 10
47.40302980805116
 20
4.877824585628501
 30
0.0
 40
0.500000015957149
 41
36.91693553774376
 71
     4
 72
     1
  3
{\fRomanS|b0|i0|c0|p2;\H2x;PART#: FK0610\P(DATA SUBJECT TO CHANGE WITHOUT NOTICE)\H1.6157x; \H0.61894x;\P \H1.352x; \H0.73963x;\P\H0.6x;THIS DRAWING IS PROPERTY OF HUBBELL INC. WIEGMANN\H1.5633x; \H0.63966x;\PALL INFORMATION IS PROPRIETARY AND NOT TO
  1
 BE DUPLICATED\H1.234x; \H0.81039x;\P\H1.2571x; }
  7
Note Text (ANSI)
 73
     1
 44
0.8026435375213623
  0
ENDSEC
  0
SECTION
  2
OBJECTS
  0
DICTIONARY
  5
C
330
0
100
AcDbDictionary
281
     1
  3
ACAD_CIP_PREVIOUS_PRODUCT_INFO
350
154A
  3
ACAD_COLOR
350
63
  3
ACAD_GROUP
350
D
  3
ACAD_LAYOUT
350
62
  3
ACAD_MATERIAL
350
10
  3
ACAD_MLEADERSTYLE
350
66
  3
ACAD_MLINESTYLE
350
5F
  3
ACAD_PLOTSETTINGS
350
61
  3
ACAD_PLOTSTYLENAME
350
E
  3
ACAD_SCALELIST
350
42
  3
ACAD_TABLESTYLE
350
64
  3
ACAD_VISUALSTYLE
350
29
  3
ACDB_RECOMPOSE_DATA
350
1556
  3
AcDbVariableDictionary
350
76
  0
DICTIONARY
  5
158C
330
EFA
100
AcDbDictionary
280
     1
281
     1
  3
ACAD_MTEXT_2008_RT
360
158D
  0
DICTIONARY
  5
158E
330
1452
100
AcDbDictionary
280
     1
281
     1
  3
ACAD_MTEXT_2008_RT
360
158F
  0
DICTIONARY
  5
1554
330
1548
100
AcDbDictionary
280
     1
281
     1
  3
ACAD_MTEXT_2008_RT
360
1555
  0
XRECORD
  5
154A
102
{ACAD_REACTORS
330
C
102
}
330
C
100
AcDbXrecord
280
     1
300
INVPROSA
300
2012
300
INVPROSA_F_S
  0
DICTIONARY
  5
63
102
{ACAD_REACTORS
330
C
102
}
330
C
100
AcDbDictionary
281
     1
  0
DICTIONARY
  5
D
102
{ACAD_REACTORS
330
C
102
}
330
C
100
AcDbDictionary
281
     1
  0
DICTIONARY
  5
62
102
{ACAD_REACTORS
330
C
102
}
330
C
100
AcDbDictionary
281
     1
  3
Layout1
350
6B
  3
Layout2
350
73
  3
Model
350
6F
  0
DICTIONARY
  5
10
102
{ACAD_REACTORS
330
C
102
}
330
C
100
AcDbDictionary
281
     1
  3
ByBlock
350
19
  3
ByLayer
350
11
  3
Global
350
21
  0
DICTIONARY
  5
66
102
{ACAD_REACTORS
330
C
102
}
330
C
100
AcDbDictionary
281
     1
  3
Standard
350
67
  0
DICTIONARY
  5
5F
102
{ACAD_REACTORS
330
C
102
}
330
C
100
AcDbDictionary
281
     1
  3
Standard
350
60
  0
DICTIONARY
  5
61
102
{ACAD_REACTORS
330
C
102
}
330
C
100
AcDbDictionary
281
     1
  0
ACDBDICTIONARYWDFLT
  5
E
102
{ACAD_REACTORS
330
C
102
}
330
C
100
AcDbDictionary
281
     1
  3
Normal
350
F
100
AcDbDictionaryWithDefault
340
F
  0
DICTIONARY
  5
42
102
{ACAD_REACTORS
330
C
102
}
330
C
100
AcDbDictionary
281
     1
  3
A0
350
43
  3
A1
350
44
  3
A2
350
45
  3
A3
350
46
  3
A4
350
47
  3
A5
350
48
  3
A6
350
49
  3
A7
350
4A
  3
A8
350
4B
  3
A9
350
4C
  3
B0
350
4D
  3
B1
350
4E
  3
B2
350
4F
  3
B3
350
50
  3
B4
350
51
  3
B5
350
52
  3
B6
350
53
  0
DICTIONARY
  5
64
102
{ACAD_REACTORS
330
C
102
}
330
C
100
AcDbDictionary
281
     1
  3
Standard
350
65
  0
DICTIONARY
  5
29
102
{ACAD_REACTORS
330
C
102
}
330
C
100
AcDbDictionary
281
     1
  3
2dWireframe
350
2F
  3
Basic
350
2E
  3
Brighten
350
35
  3
ColorChange
350
39
  3
Conceptual
350
32
  3
Dim
350
34
  3
EdgeColorOff
350
41
  3
Facepattern
350
38
  3
Flat
350
2A
  3
FlatWithEdges
350
2B
  3
Gouraud
350
2C
  3
GouraudWithEdges
350
2D
  3
Hidden
350
31
  3
JitterOff
350
3F
  3
Linepattern
350
37
  3
OverhangOff
350
40
  3
Realistic
350
33
  3
Shaded
350
3E
  3
Shaded with edges
350
3D
  3
Shades of Gray
350
3A
  3
Sketchy
350
3B
  3
Thicken
350
36
  3
Wireframe
350
30
  3
X-Ray
350
3C
  0
XRECORD
  5
1556
102
{ACAD_REACTORS
330
C
102
}
330
C
100
AcDbXrecord
280
     1
 90
        1
330
65
330
899
330
B72
330
C5C
330
F05
330
10D9
330
1548
  0
DICTIONARY
  5
76
102
{ACAD_REACTORS
330
C
102
}
330
C
100
AcDbDictionary
281
     1
  3
CANNOSCALE
350
79
  3
CMLEADERSTYLE
350
78
  3
CTABLESTYLE
350
77
  3
LAYEREVAL
350
154D
  3
LAYERNOTIFY
350
154E
  3
LIGHTINGUNITS
350
154C
  3
MSLTSCALE
350
154B
  3
XCLIPFRAME
350
154F
  0
XRECORD
  5
158D
102
{ACAD_REACTORS
330
158C
102
}
330
158C
100
AcDbXrecord
280
     1
 40
24491.0
  1
\A1;\U+22050.563{\P(6 PL.)}
  0
XRECORD
  5
158F
102
{ACAD_REACTORS
330
158E
102
}
330
158E
100
AcDbXrecord
280
     1
 40
24428.0
  1
\A1;\U+22050.563{\P(3 PL.)}
  0
XRECORD
  5
1555
102
{ACAD_REACTORS
330
1554
102
}
330
1554
100
AcDbXrecord
280
     1
 40
3027314.0
  1
\pxsm0.94;{\fRomanS|b0|i0;\H1.0000;PART#: FK0610\P(DATA SUBJECT TO CHANGE WITHOUT NOTICE)\P \P\fRomanS|b0|i0;\H0.6000;THIS DRAWING IS PROPERTY OF HUBBELL INC. WIEGMANN\PALL INFORMATION IS PROPRIETARY AND NOT TO BE DUPLICATED\P}
  0
LAYOUT
  5
6B
102
{ACAD_REACTORS
330
62
102
}
330
62
100
AcDbPlotSettings
  1

  2

  4

  6

 40
0.0
 41
0.0
 42
0.0
 43
0.0
 44
0.0
 45
0.0
 46
0.0
 47
0.0
 48
0.0
 49
0.0
140
0.0
141
0.0
142
1.0
143
1.0
 70
   688
 72
     0
 73
     0
 74
     5
  7

 75
    16
147
1.0
 76
     0
 77
     2
 78
   300
148
0.0
149
0.0
100
AcDbLayout
  1
Layout1
 70
     1
 71
     1
 10
0.0
 20
0.0
 11
12.0
 21
9.0
 12
0.0
 22
0.0
 32
0.0
 14
0.0
 24
0.0
 34
0.0
 15
0.0
 25
0.0
 35
0.0
146
0.0
 13
0.0
 23
0.0
 33
0.0
 16
1.0
 26
0.0
 36
0.0
 17
0.0
 27
1.0
 37
0.0
 76
     0
330
68
  0
LAYOUT
  5
73
102
{ACAD_REACTORS
330
62
102
}
330
62
100
AcDbPlotSettings
  1

  2

  4

  6

 40
0.0
 41
0.0
 42
0.0
 43
0.0
 44
0.0
 45
0.0
 46
0.0
 47
0.0
 48
0.0
 49
0.0
140
0.0
141
0.0
142
1.0
143
1.0
 70
   688
 72
     0
 73
     0
 74
     5
  7

 75
    16
147
1.0
 76
     0
 77
     2
 78
   300
148
0.0
149
0.0
100
AcDbLayout
  1
Layout2
 70
     1
 71
     2
 10
0.0
 20
0.0
 11
12.0
 21
9.0
 12
0.0
 22
0.0
 32
0.0
 14
0.0
 24
0.0
 34
0.0
 15
0.0
 25
0.0
 35
0.0
146
0.0
 13
0.0
 23
0.0
 33
0.0
 16
1.0
 26
0.0
 36
0.0
 17
0.0
 27
1.0
 37
0.0
 76
     0
330
70
  0
LAYOUT
  5
6F
102
{ACAD_REACTORS
330
62
102
}
330
62
100
AcDbPlotSettings
  1

  2

  4

  6

 40
0.0
 41
0.0
 42
0.0
 43
0.0
 44
0.0
 45
0.0
 46
0.0
 47
0.0
 48
0.0
 49
0.0
140
0.0
141
0.0
142
1.0
143
1.0
 70
  1712
 72
     0
 73
     0
 74
     0
  7

 75
     0
147
1.0
 76
     0
 77
     2
 78
   300
148
0.0
149
0.0
100
AcDbLayout
  1
Model
 70
     1
 71
     0
 10
0.0
 20
0.0
 11
12.0
 21
9.0
 12
0.0
 22
0.0
 32
0.0
 14
0.0
 24
0.0
 34
0.0
 15
0.0
 25
0.0
 35
0.0
146
0.0
 13
0.0
 23
0.0
 33
0.0
 16
1.0
 26
0.0
 36
0.0
 17
0.0
 27
1.0
 37
0.0
 76
     0
330
6C
  0
MATERIAL
  5
19
102
{ACAD_XDICTIONARY
360
1A
102
}
102
{ACAD_REACTORS
330
10
102
}
330
10
100
AcDbMaterial
  1
ByBlock
 72
     0
 43
0.0208333333333333
 43
0.0
 43
0.0
 43
0.0
 43
0.0
 43
0.0208333333333333
 43
0.0
 43
0.0
 43
0.0
 43
0.0
 43
1.0
 43
0.0
 43
0.0
 43
0.0
 43
0.0
 43
1.0
 77
     0
 47
0.0208333333333333
 47
0.0
 47
0.0
 47
0.0
 47
0.0
 47
0.0208333333333333
 47
0.0
 47
0.0
 47
0.0
 47
0.0
 47
1.0
 47
0.0
 47
0.0
 47
0.0
 47
0.0
 47
1.0
171
     0
 49
0.0208333333333333
 49
0.0
 49
0.0
 49
0.0
 49
0.0
 49
0.0208333333333333
 49
0.0
 49
0.0
 49
0.0
 49
0.0
 49
1.0
 49
0.0
 49
0.0
 49
0.0
 49
0.0
 49
1.0
175
     0
142
0.0208333333333333
142
0.0
142
0.0
142
0.0
142
0.0
142
0.0208333333333333
142
0.0
142
0.0
142
0.0
142
0.0
142
1.0
142
0.0
142
0.0
142
0.0
142
0.0
142
1.0
179
     0
144
0.0208333333333333
144
0.0
144
0.0
144
0.0
144
0.0
144
0.0208333333333333
144
0.0
144
0.0
144
0.0
144
0.0
144
1.0
144
0.0
144
0.0
144
0.0
144
0.0
144
1.0
147
0.0208333333333333
147
0.0
147
0.0
147
0.0
147
0.0
147
0.0208333333333333
147
0.0
147
0.0
147
0.0
147
0.0
147
1.0
147
0.0
147
0.0
147
0.0
147
0.0
147
1.0
  0
MATERIAL
  5
11
102
{ACAD_XDICTIONARY
360
12
102
}
102
{ACAD_REACTORS
330
10
102
}
330
10
100
AcDbMaterial
  1
ByLayer
 72
     0
 43
0.0208333333333333
 43
0.0
 43
0.0
 43
0.0
 43
0.0
 43
0.0208333333333333
 43
0.0
 43
0.0
 43
0.0
 43
0.0
 43
1.0
 43
0.0
 43
0.0
 43
0.0
 43
0.0
 43
1.0
 77
     0
 47
0.0208333333333333
 47
0.0
 47
0.0
 47
0.0
 47
0.0
 47
0.0208333333333333
 47
0.0
 47
0.0
 47
0.0
 47
0.0
 47
1.0
 47
0.0
 47
0.0
 47
0.0
 47
0.0
 47
1.0
171
     0
 49
0.0208333333333333
 49
0.0
 49
0.0
 49
0.0
 49
0.0
 49
0.0208333333333333
 49
0.0
 49
0.0
 49
0.0
 49
0.0
 49
1.0
 49
0.0
 49
0.0
 49
0.0
 49
0.0
 49
1.0
175
     0
142
0.0208333333333333
142
0.0
142
0.0
142
0.0
142
0.0
142
0.0208333333333333
142
0.0
142
0.0
142
0.0
142
0.0
142
1.0
142
0.0
142
0.0
142
0.0
142
0.0
142
1.0
179
     0
144
0.0208333333333333
144
0.0
144
0.0
144
0.0
144
0.0
144
0.0208333333333333
144
0.0
144
0.0
144
0.0
144
0.0
144
1.0
144
0.0
144
0.0
144
0.0
144
0.0
144
1.0
147
0.0208333333333333
147
0.0
147
0.0
147
0.0
147
0.0
147
0.0208333333333333
147
0.0
147
0.0
147
0.0
147
0.0
147
1.0
147
0.0
147
0.0
147
0.0
147
0.0
147
1.0
  0
MATERIAL
  5
21
102
{ACAD_XDICTIONARY
360
22
102
}
102
{ACAD_REACTORS
330
10
102
}
330
10
100
AcDbMaterial
  1
Global
 72
     0
 43
0.0208333333333333
 43
0.0
 43
0.0
 43
0.0
 43
0.0
 43
0.0208333333333333
 43
0.0
 43
0.0
 43
0.0
 43
0.0
 43
1.0
 43
0.0
 43
0.0
 43
0.0
 43
0.0
 43
1.0
 77
     0
 47
0.0208333333333333
 47
0.0
 47
0.0
 47
0.0
 47
0.0
 47
0.0208333333333333
 47
0.0
 47
0.0
 47
0.0
 47
0.0
 47
1.0
 47
0.0
 47
0.0
 47
0.0
 47
0.0
 47
1.0
171
     0
 49
0.0208333333333333
 49
0.0
 49
0.0
 49
0.0
 49
0.0
 49
0.0208333333333333
 49
0.0
 49
0.0
 49
0.0
 49
0.0
 49
1.0
 49
0.0
 49
0.0
 49
0.0
 49
0.0
 49
1.0
175
     0
142
0.0208333333333333
142
0.0
142
0.0
142
0.0
142
0.0
142
0.0208333333333333
142
0.0
142
0.0
142
0.0
142
0.0
142
1.0
142
0.0
142
0.0
142
0.0
142
0.0
142
1.0
179
     0
144
0.0208333333333333
144
0.0
144
0.0
144
0.0
144
0.0
144
0.0208333333333333
144
0.0
144
0.0
144
0.0
144
0.0
144
1.0
144
0.0
144
0.0
144
0.0
144
0.0
144
1.0
147
0.0208333333333333
147
0.0
147
0.0
147
0.0
147
0.0
147
0.0208333333333333
147
0.0
147
0.0
147
0.0
147
0.0
147
1.0
147
0.0
147
0.0
147
0.0
147
0.0
147
1.0
  0
MLEADERSTYLE
  5
67
102
{ACAD_XDICTIONARY
360
1552
102
}
102
{ACAD_REACTORS
330
66
102
}
330
66
100
AcDbMLeaderStyle
170
     2
171
     1
172
     0
 90
        2
 40
0.0
 41
0.0
173
     1
 91
-1056964608
340
5B
 92
       -2
290
     1
 42
0.09
291
     1
 43
0.36
  3
Standard
 44
0.18
300

342
55
174
     1
178
     6
175
     1
176
     0
 93
-1056964608
 45
0.18
292
     0
297
     0
 46
0.18
 94
-1056964608
 47
1.0
 49
1.0
140
1.0
293
     1
141
0.0
294
     1
177
     0
142
1.0
295
     0
296
     0
143
0.125
1001
ACAD_MLEADERVER
1070
     2
  0
MLINESTYLE
  5
60
102
{ACAD_REACTORS
330
5F
102
}
330
5F
100
AcDbMlineStyle
  2
STANDARD
 70
     0
  3

 62
   256
 51
90.0
 52
90.0
 71
     2
 49
0.5
 62
   256
  6
BYLAYER
 49
-0.5
 62
   256
  6
BYLAYER
  0
ACDBPLACEHOLDER
  5
F
102
{ACAD_REACTORS
330
E
102
}
330
E
  0
SCALE
  5
43
102
{ACAD_REACTORS
330
42
102
}
330
42
100
AcDbScale
 70
     0
300
1:1
140
1.0
141
1.0
290
     1
  0
SCALE
  5
44
102
{ACAD_REACTORS
330
42
102
}
330
42
100
AcDbScale
 70
     0
300
1/128" = 1'-0"
140
0.0078125
141
12.0
290
     0
  0
SCALE
  5
45
102
{ACAD_REACTORS
330
42
102
}
330
42
100
AcDbScale
 70
     0
300
1/64" = 1'-0"
140
0.015625
141
12.0
290
     0
  0
SCALE
  5
46
102
{ACAD_REACTORS
330
42
102
}
330
42
100
AcDbScale
 70
     0
300
1/32" = 1'-0"
140
0.03125
141
12.0
290
     0
  0
SCALE
  5
47
102
{ACAD_REACTORS
330
42
102
}
330
42
100
AcDbScale
 70
     0
300
1/16" = 1'-0"
140
0.0625
141
12.0
290
     0
  0
SCALE
  5
48
102
{ACAD_REACTORS
330
42
102
}
330
42
100
AcDbScale
 70
     0
300
3/32" = 1'-0"
140
0.09375
141
12.0
290
     0
  0
SCALE
  5
49
102
{ACAD_REACTORS
330
42
102
}
330
42
100
AcDbScale
 70
     0
300
1/8" = 1'-0"
140
0.125
141
12.0
290
     0
  0
SCALE
  5
4A
102
{ACAD_REACTORS
330
42
102
}
330
42
100
AcDbScale
 70
     0
300
3/16" = 1'-0"
140
0.1875
141
12.0
290
     0
  0
SCALE
  5
4B
102
{ACAD_REACTORS
330
42
102
}
330
42
100
AcDbScale
 70
     0
300
1/4" = 1'-0"
140
0.25
141
12.0
290
     0
  0
SCALE
  5
4C
102
{ACAD_REACTORS
330
42
102
}
330
42
100
AcDbScale
 70
     0
300
3/8" = 1'-0"
140
0.375
141
12.0
290
     0
  0
SCALE
  5
4D
102
{ACAD_REACTORS
330
42
102
}
330
42
100
AcDbScale
 70
     0
300
1/2" = 1'-0"
140
0.5
141
12.0
290
     0
  0
SCALE
  5
4E
102
{ACAD_REACTORS
330
42
102
}
330
42
100
AcDbScale
 70
     0
300
3/4" = 1'-0"
140
0.75
141
12.0
290
     0
  0
SCALE
  5
4F
102
{ACAD_REACTORS
330
42
102
}
330
42
100
AcDbScale
 70
     0
300
1" = 1'-0"
140
1.0
141
12.0
290
     0
  0
SCALE
  5
50
102
{ACAD_REACTORS
330
42
102
}
330
42
100
AcDbScale
 70
     0
300
1-1/2" = 1'-0"
140
1.5
141
12.0
290
     0
  0
SCALE
  5
51
102
{ACAD_REACTORS
330
42
102
}
330
42
100
AcDbScale
 70
     0
300
3" = 1'-0"
140
3.0
141
12.0
290
     0
  0
SCALE
  5
52
102
{ACAD_REACTORS
330
42
102
}
330
42
100
AcDbScale
 70
     0
300
6" = 1'-0"
140
6.0
141
12.0
290
     0
  0
SCALE
  5
53
102
{ACAD_REACTORS
330
42
102
}
330
42
100
AcDbScale
 70
     0
300
1'-0" = 1'-0"
140
12.0
141
12.0
290
     0
  0
TABLESTYLE
  5
65
102
{ACAD_XDICTIONARY
360
1550
102
}
102
{ACAD_REACTORS
330
64
102
}
330
64
100
AcDbTableStyle
  3
Standard
 70
     0
 71
     0
 40
0.06
 41
0.06
280
     0
281
     0
  7
Standard
140
0.18
170
     2
 62
     0
 63
     7
283
     0
274
    -2
284
     1
 64
     0
275
    -2
285
     1
 65
     0
276
    -2
286
     1
 66
     0
277
    -2
287
     1
 67
     0
278
    -2
288
     1
 68
     0
279
    -2
289
     1
 69
     0
  7
Standard
140
0.25
170
     5
 62
     0
 63
     7
283
     0
274
    -2
284
     1
 64
     0
275
    -2
285
     1
 65
     0
276
    -2
286
     1
 66
     0
277
    -2
287
     1
 67
     0
278
    -2
288
     1
 68
     0
279
    -2
289
     1
 69
     0
  7
Standard
140
0.18
170
     5
 62
     0
 63
     7
283
     0
274
    -2
284
     1
 64
     0
275
    -2
285
     1
 65
     0
276
    -2
286
     1
 66
     0
277
    -2
287
     1
 67
     0
278
    -2
288
     1
 68
     0
279
    -2
289
     1
 69
     0
  0
VISUALSTYLE
  5
2F
102
{ACAD_XDICTIONARY
360
1564
102
}
102
{ACAD_REACTORS
330
29
102
}
330
29
100
AcDbVisualStyle
  2
2dWireframe
 70
     4
 71
     0
 72
     2
 73
     0
 90
        0
 40
-0.6
 41
-30.0
 62
     5
 63
     7
421
 16777215
 74
     1
 91
        4
 64
     7
 65
   257
 75
     1
175
     1
 42
1.0
 92
        0
 66
   257
 43
1.0
 76
     1
 77
     6
 78
     2
 67
     7
 79
     5
170
     0
171
     0
290
     0
174
     0
 93
        1
 44
0.0
173
     0
291
     0
 45
0.0
1001
ACAD
1000
AcDbSavedByObjectVersion
1070
     0
  0
VISUALSTYLE
  5
2E
102
{ACAD_XDICTIONARY
360
1562
102
}
102
{ACAD_REACTORS
330
29
102
}
330
29
100
AcDbVisualStyle
  2
Basic
 70
     7
 71
     1
 72
     0
 73
     1
 90
        0
 40
-0.6
 41
-30.0
 62
     5
 63
     7
421
 16777215
 74
     0
 91
        4
 64
     7
 65
   257
 75
     1
175
     1
 42
1.0
 92
        8
 66
     7
 43
1.0
 76
     1
 77
     6
 78
     2
 67
     7
 79
     5
170
     0
171
     0
290
     0
174
     0
 93
        1
 44
0.0
173
     0
291
     1
 45
0.0
1001
ACAD
1000
AcDbSavedByObjectVersion
1070
     0
  0
VISUALSTYLE
  5
35
102
{ACAD_XDICTIONARY
360
1570
102
}
102
{ACAD_REACTORS
330
29
102
}
330
29
100
AcDbVisualStyle
  2
Brighten
 70
    12
 71
     2
 72
     2
 73
     0
 90
        0
 40
-0.6
 41
-30.0
 62
     5
 63
     7
421
 16777215
 74
     1
 91
        4
 64
     7
 65
   257
 75
     1
175
     1
 42
1.0
 92
        8
 66
     7
 43
1.0
 76
     1
 77
     6
 78
     2
 67
     7
 79
     5
170
     0
171
     0
290
     0
174
     0
 93
        1
 44
50.0
173
     0
291
     1
 45
0.0
1001
ACAD
1000
AcDbSavedByObjectVersion
1070
     0
  0
VISUALSTYLE
  5
39
102
{ACAD_XDICTIONARY
360
1578
102
}
102
{ACAD_REACTORS
330
29
102
}
330
29
100
AcDbVisualStyle
  2
ColorChange
 70
    16
 71
     2
 72
     2
 73
     3
 90
        0
 40
-0.6
 41
-30.0
 62
     5
 63
     8
421
  8421504
 74
     1
 91
        4
 64
     7
 65
   257
 75
     1
175
     1
 42
1.0
 92
        8
 66
     8
424
  8421504
 43
1.0
 76
     1
 77
     6
 78
     2
 67
     7
 79
     5
170
     0
171
     0
290
     0
174
     0
 93
        1
 44
0.0
173
     0
291
     1
 45
0.0
1001
ACAD
1000
AcDbSavedByObjectVersion
1070
     0
  0
VISUALSTYLE
  5
32
102
{ACAD_XDICTIONARY
360
156A
102
}
102
{ACAD_REACTORS
330
29
102
}
330
29
100
AcDbVisualStyle
  2
Conceptual
 70
     9
 71
     3
 72
     2
 73
     0
 90
        0
 40
-0.6
 41
-30.0
 62
     5
 63
     7
421
 16777215
 74
     2
 91
        2
 64
     7
 65
   257
 75
     1
175
     1
 42
179.0
 92
        8
 66
     7
 43
1.0
 76
     1
 77
     6
 78
     2
 67
     7
 79
     3
170
     0
171
     0
290
     0
174
     0
 93
        1
 44
0.0
173
     0
291
     0
 45
0.0
1001
ACAD
1000
AcDbSavedByObjectVersion
1070
     0
  0
VISUALSTYLE
  5
34
102
{ACAD_XDICTIONARY
360
156E
102
}
102
{ACAD_REACTORS
330
29
102
}
330
29
100
AcDbVisualStyle
  2
Dim
 70
    11
 71
     2
 72
     2
 73
     0
 90
        0
 40
-0.6
 41
-30.0
 62
     5
 63
     7
421
 16777215
 74
     1
 91
        4
 64
     7
 65
   257
 75
     1
175
     1
 42
1.0
 92
        8
 66
     7
 43
1.0
 76
     1
 77
     6
 78
     2
 67
     7
 79
     5
170
     0
171
     0
290
     0
174
     0
 93
        1
 44
-50.0
173
     0
291
     1
 45
0.0
1001
ACAD
1000
AcDbSavedByObjectVersion
1070
     0
  0
VISUALSTYLE
  5
41
102
{ACAD_XDICTIONARY
360
1588
102
}
102
{ACAD_REACTORS
330
29
102
}
330
29
100
AcDbVisualStyle
  2
EdgeColorOff
 70
    22
 71
     2
 72
     2
 73
     0
 90
        0
 40
-0.6
 41
-30.0
 62
     5
 63
     7
421
 16777215
 74
     1
 91
        4
 64
     7
 65
   257
 75
     1
175
     1
 42
1.0
 92
        8
 66
     7
 43
1.0
 76
     1
 77
     6
 78
     2
 67
     7
 79
     5
170
     0
171
     0
290
     0
174
     0
 93
        1
 44
0.0
173
     0
291
     1
 45
0.0
1001
ACAD
1000
AcDbSavedByObjectVersion
1070
     0
  0
VISUALSTYLE
  5
38
102
{ACAD_XDICTIONARY
360
1576
102
}
102
{ACAD_REACTORS
330
29
102
}
330
29
100
AcDbVisualStyle
  2
Facepattern
 70
    15
 71
     2
 72
     2
 73
     0
 90
        0
 40
-0.6
 41
-30.0
 62
     5
 63
     7
421
 16777215
 74
     1
 91
        4
 64
     7
 65
   257
 75
     1
175
     1
 42
1.0
 92
        8
 66
     7
 43
1.0
 76
     1
 77
     6
 78
     2
 67
     7
 79
     5
170
     0
171
     0
290
     0
174
     0
 93
        1
 44
0.0
173
     0
291
     1
 45
0.0
1001
ACAD
1000
AcDbSavedByObjectVersion
1070
     0
  0
VISUALSTYLE
  5
2A
102
{ACAD_XDICTIONARY
360
155A
102
}
102
{ACAD_REACTORS
330
29
102
}
330
29
100
AcDbVisualStyle
  2
Flat
 70
     0
 71
     2
 72
     1
 73
     1
 90
        2
 40
-0.6
 41
30.0
 62
     5
 63
     7
421
 16777215
 74
     0
 91
        0
 64
     7
 65
   257
 75
     1
175
     1
 42
1.0
 92
        8
 66
     7
 43
1.0
 76
     1
 77
     6
 78
     2
 67
     7
 79
     5
170
     0
171
     0
290
     0
174
     0
 93
       13
 44
0.0
173
     0
291
     1
 45
0.0
1001
ACAD
1000
AcDbSavedByObjectVersion
1070
     0
  0
VISUALSTYLE
  5
2B
102
{ACAD_XDICTIONARY
360
155C
102
}
102
{ACAD_REACTORS
330
29
102
}
330
29
100
AcDbVisualStyle
  2
FlatWithEdges
 70
     1
 71
     2
 72
     1
 73
     1
 90
        2
 40
-0.6
 41
30.0
 62
     5
 63
     7
421
 16777215
 74
     1
 91
        0
 64
     7
 65
   257
 75
     1
175
     1
 42
1.0
 92
        0
 66
   257
 43
1.0
 76
     1
 77
     6
 78
     2
 67
     7
 79
     5
170
     0
171
     0
290
     0
174
     0
 93
       13
 44
0.0
173
     0
291
     1
 45
0.0
1001
ACAD
1000
AcDbSavedByObjectVersion
1070
     0
  0
VISUALSTYLE
  5
2C
102
{ACAD_XDICTIONARY
360
155E
102
}
102
{ACAD_REACTORS
330
29
102
}
330
29
100
AcDbVisualStyle
  2
Gouraud
 70
     2
 71
     2
 72
     2
 73
     1
 90
        2
 40
-0.6
 41
30.0
 62
     5
 63
     7
421
 16777215
 74
     0
 91
        0
 64
     7
 65
   257
 75
     1
175
     1
 42
1.0
 92
        0
 66
     7
 43
1.0
 76
     1
 77
     6
 78
     2
 67
     7
 79
     5
170
     0
171
     0
290
     0
174
     0
 93
       13
 44
0.0
173
     0
291
     1
 45
0.0
1001
ACAD
1000
AcDbSavedByObjectVersion
1070
     0
  0
VISUALSTYLE
  5
2D
102
{ACAD_XDICTIONARY
360
1560
102
}
102
{ACAD_REACTORS
330
29
102
}
330
29
100
AcDbVisualStyle
  2
GouraudWithEdges
 70
     3
 71
     2
 72
     2
 73
     1
 90
        2
 40
-0.6
 41
30.0
 62
     5
 63
     7
421
 16777215
 74
     1
 91
        0
 64
     7
 65
   257
 75
     1
175
     1
 42
1.0
 92
        0
 66
   257
 43
1.0
 76
     1
 77
     6
 78
     2
 67
     7
 79
     5
170
     0
171
     0
290
     0
174
     0
 93
       13
 44
0.0
173
     0
291
     1
 45
0.0
1001
ACAD
1000
AcDbSavedByObjectVersion
1070
     0
  0
VISUALSTYLE
  5
31
102
{ACAD_XDICTIONARY
360
1568
102
}
102
{ACAD_REACTORS
330
29
102
}
330
29
100
AcDbVisualStyle
  2
Hidden
 70
     6
 71
     1
 72
     2
 73
     2
 90
        0
 40
-0.6
 41
-30.0
 62
     5
 63
     7
421
 16777215
 74
     2
 91
        2
 64
     7
 65
   257
 75
     2
175
     1
 42
40.0
 92
        0
 66
   257
 43
1.0
 76
     1
 77
     6
 78
     2
 67
     7
 79
     3
170
     0
171
     0
290
     0
174
     0
 93
        1
 44
0.0
173
     0
291
     0
 45
0.0
1001
ACAD
1000
AcDbSavedByObjectVersion
1070
     0
  0
VISUALSTYLE
  5
3F
102
{ACAD_XDICTIONARY
360
1584
102
}
102
{ACAD_REACTORS
330
29
102
}
330
29
100
AcDbVisualStyle
  2
JitterOff
 70
    20
 71
     2
 72
     2
 73
     0
 90
        0
 40
-0.6
 41
-30.0
 62
     5
 63
     7
421
 16777215
 74
     1
 91
        4
 64
     7
 65
   257
 75
     1
175
     1
 42
1.0
 92
       10
 66
     7
 43
1.0
 76
     1
 77
     6
 78
     2
 67
     7
 79
     5
170
     0
171
     0
290
     0
174
     0
 93
        1
 44
0.0
173
     0
291
     1
 45
0.0
1001
ACAD
1000
AcDbSavedByObjectVersion
1070
     0
  0
VISUALSTYLE
  5
37
102
{ACAD_XDICTIONARY
360
1574
102
}
102
{ACAD_REACTORS
330
29
102
}
330
29
100
AcDbVisualStyle
  2
Linepattern
 70
    14
 71
     2
 72
     2
 73
     0
 90
        0
 40
-0.6
 41
-30.0
 62
     5
 63
     7
421
 16777215
 74
     1
 91
        4
 64
     7
 65
   257
 75
     7
175
     7
 42
1.0
 92
        8
 66
     7
 43
1.0
 76
     1
 77
     6
 78
     2
 67
     7
 79
     5
170
     0
171
     0
290
     0
174
     0
 93
        1
 44
0.0
173
     0
291
     1
 45
0.0
1001
ACAD
1000
AcDbSavedByObjectVersion
1070
     0
  0
VISUALSTYLE
  5
40
102
{ACAD_XDICTIONARY
360
1586
102
}
102
{ACAD_REACTORS
330
29
102
}
330
29
100
AcDbVisualStyle
  2
OverhangOff
 70
    21
 71
     2
 72
     2
 73
     0
 90
        0
 40
-0.6
 41
-30.0
 62
     5
 63
     7
421
 16777215
 74
     1
 91
        4
 64
     7
 65
   257
 75
     1
175
     1
 42
1.0
 92
        9
 66
     7
 43
1.0
 76
     1
 77
     6
 78
     2
 67
     7
 79
     5
170
     0
171
     0
290
     0
174
     0
 93
        1
 44
0.0
173
     0
291
     1
 45
0.0
1001
ACAD
1000
AcDbSavedByObjectVersion
1070
     0
  0
VISUALSTYLE
  5
33
102
{ACAD_XDICTIONARY
360
156C
102
}
102
{ACAD_REACTORS
330
29
102
}
330
29
100
AcDbVisualStyle
  2
Realistic
 70
     8
 71
     2
 72
     3
 73
     0
 90
        2
 40
-0.6
 41
30.0
 62
     5
 63
     7
421
 16777215
 74
     0
 91
        0
 64
     7
 65
   257
 75
     1
175
     1
 42
1.0
 92
        8
 66
   257
 43
1.0
 76
     1
 77
     6
 78
     2
 67
     7
 79
     3
170
     0
171
     0
290
     0
174
     0
 93
       13
 44
0.0
173
     0
291
     0
 45
0.0
1001
ACAD
1000
AcDbSavedByObjectVersion
1070
     0
  0
VISUALSTYLE
  5
3E
102
{ACAD_XDICTIONARY
360
1582
102
}
102
{ACAD_REACTORS
330
29
102
}
330
29
100
AcDbVisualStyle
  2
Shaded
 70
    27
 71
     2
 72
     2
 73
     1
 90
        2
 40
-0.6
 41
30.0
 62
     5
 63
     7
421
 16777215
 74
     0
 91
        4
 64
     7
 65
   257
 75
     1
175
     1
 42
1.0
 92
        8
 66
   257
 43
1.0
 76
     1
 77
     6
 78
     2
 67
     8
425
  7895160
 79
     3
170
     0
171
     0
290
     0
174
     0
 93
        5
 44
0.0
173
     0
291
     0
 45
0.0
1001
ACAD
1000
AcDbSavedByObjectVersion
1070
     0
  0
VISUALSTYLE
  5
3D
102
{ACAD_XDICTIONARY
360
1580
102
}
102
{ACAD_REACTORS
330
29
102
}
330
29
100
AcDbVisualStyle
  2
Shaded with edges
 70
    26
 71
     2
 72
     2
 73
     1
 90
        2
 40
-0.6
 41
30.0
 62
     5
 63
     7
421
 16777215
 74
     1
 91
       10
 64
     7
 65
   257
 75
     2
175
     1
 42
1.0
 92
        8
 66
   257
 43
1.0
 76
     1
 77
     6
 78
     2
 67
     7
 79
     3
170
     0
171
     0
290
     0
174
     0
 93
        5
 44
0.0
173
     0
291
     0
 45
0.0
1001
ACAD
1000
AcDbSavedByObjectVersion
1070
     0
  0
VISUALSTYLE
  5
3A
102
{ACAD_XDICTIONARY
360
157A
102
}
102
{ACAD_REACTORS
330
29
102
}
330
29
100
AcDbVisualStyle
  2
Shades of Gray
 70
    23
 71
     2
 72
     2
 73
     3
 90
        0
 40
-0.6
 41
-30.0
 62
     5
 63
     7
421
 16777215
 74
     2
 91
        2
 64
     7
 65
     7
 75
     1
175
     1
 42
40.0
 92
        8
 66
     7
 43
1.0
 76
     1
 77
     6
 78
     2
 67
     7
 79
     3
170
     0
171
     0
290
     0
174
     0
 93
        1
 44
0.0
173
     0
291
     0
 45
0.0
1001
ACAD
1000
AcDbSavedByObjectVersion
1070
     0
  0
VISUALSTYLE
  5
3B
102
{ACAD_XDICTIONARY
360
157C
102
}
102
{ACAD_REACTORS
330
29
102
}
330
29
100
AcDbVisualStyle
  2
Sketchy
 70
    24
 71
     1
 72
     2
 73
     2
 90
        0
 40
-0.6
 41
-30.0
 62
     5
 63
     7
421
 16777215
 74
     2
 91
        2
 64
     7
 65
     7
 75
     1
175
     1
 42
40.0
 92
       11
 66
     7
 43
1.0
 76
     1
 77
     6
 78
     2
 67
     7
 79
     6
170
     0
171
     0
290
     0
174
     0
 93
        1
 44
0.0
173
     0
291
     0
 45
0.0
1001
ACAD
1000
AcDbSavedByObjectVersion
1070
     0
  0
VISUALSTYLE
  5
36
102
{ACAD_XDICTIONARY
360
1572
102
}
102
{ACAD_REACTORS
330
29
102
}
330
29
100
AcDbVisualStyle
  2
Thicken
 70
    13
 71
     2
 72
     2
 73
     0
 90
        0
 40
-0.6
 41
-30.0
 62
     5
 63
     7
421
 16777215
 74
     1
 91
        4
 64
     7
 65
   257
 75
     1
175
     1
 42
1.0
 92
       12
 66
     7
 43
1.0
 76
     1
 77
     6
 78
     2
 67
     7
 79
     5
170
     0
171
     0
290
     0
174
     0
 93
        1
 44
0.0
173
     0
291
     1
 45
0.0
1001
ACAD
1000
AcDbSavedByObjectVersion
1070
     0
  0
VISUALSTYLE
  5
30
102
{ACAD_XDICTIONARY
360
1566
102
}
102
{ACAD_REACTORS
330
29
102
}
330
29
100
AcDbVisualStyle
  2
Wireframe
 70
     5
 71
     0
 72
     2
 73
     0
 90
        0
 40
-0.6
 41
-30.0
 62
     5
 63
     7
421
 16777215
 74
     1
 91
        4
 64
     7
 65
   257
 75
     1
175
     1
 42
1.0
 92
        0
 66
   257
 43
1.0
 76
     1
 77
     6
 78
     2
 67
     7
 79
     3
170
     0
171
     0
290
     0
174
     0
 93
        1
 44
0.0
173
     0
291
     0
 45
0.0
1001
ACAD
1000
AcDbSavedByObjectVersion
1070
     0
  0
VISUALSTYLE
  5
3C
102
{ACAD_XDICTIONARY
360
157E
102
}
102
{ACAD_REACTORS
330
29
102
}
330
29
100
AcDbVisualStyle
  2
X-Ray
 70
    25
 71
     2
 72
     2
 73
     1
 90
        1
 40
0.5
 41
-30.0
 62
     5
 63
     7
421
 16777215
 74
     1
 91
        0
 64
     7
 65
   257
 75
     1
175
     1
 42
1.0
 92
        8
 66
     7
 43
1.0
 76
     1
 77
     6
 78
     2
 67
     7
 79
     3
170
     0
171
     0
290
     0
174
     0
 93
       13
 44
0.0
173
     0
291
     0
 45
0.0
1001
ACAD
1000
AcDbSavedByObjectVersion
1070
     0
  0
DICTIONARYVAR
  5
79
102
{ACAD_REACTORS
330
76
102
}
330
76
100
DictionaryVariables
280
     0
  1
1:1
  0
DICTIONARYVAR
  5
78
102
{ACAD_REACTORS
330
76
102
}
330
76
100
DictionaryVariables
280
     0
  1
STANDARD
  0
DICTIONARYVAR
  5
77
102
{ACAD_REACTORS
330
76
102
}
330
76
100
DictionaryVariables
280
     0
  1
STANDARD
  0
DICTIONARYVAR
  5
154D
102
{ACAD_REACTORS
330
76
102
}
330
76
100
DictionaryVariables
280
     0
  1
0
  0
DICTIONARYVAR
  5
154E
102
{ACAD_REACTORS
330
76
102
}
330
76
100
DictionaryVariables
280
     0
  1
0
  0
DICTIONARYVAR
  5
154C
102
{ACAD_REACTORS
330
76
102
}
330
76
100
DictionaryVariables
280
     0
  1
2
  0
DICTIONARYVAR
  5
154B
102
{ACAD_REACTORS
330
76
102
}
330
76
100
DictionaryVariables
280
     0
  1
1
  0
DICTIONARYVAR
  5
154F
102
{ACAD_REACTORS
330
76
102
}
330
76
100
DictionaryVariables
280
     0
  1
2
  0
DICTIONARY
  5
1A
330
19
100
AcDbDictionary
280
     1
281
     1
  3
ACAD_XREC_ROUNDTRIP
360
1558
  3
BUMPTILE
360
1C
  3
DIFFUSETILE
360
1B
  3
OPACITYTILE
360
1F
  3
REFLECTIONTILE
360
1E
  3
REFRACTIONTILE
360
20
  3
SPECULARTILE
360
1D
  0
DICTIONARY
  5
12
330
11
100
AcDbDictionary
280
     1
281
     1
  3
ACAD_XREC_ROUNDTRIP
360
1557
  3
BUMPTILE
360
14
  3
DIFFUSETILE
360
13
  3
FBXASSET
360
F5
  3
OPACITYTILE
360
17
  3
REFLECTIONTILE
360
16
  3
REFRACTIONTILE
360
18
  3
SPECULARTILE
360
15
  0
DICTIONARY
  5
22
330
21
100
AcDbDictionary
280
     1
281
     1
  3
ACAD_XREC_ROUNDTRIP
360
1559
  3
BUMPTILE
360
24
  3
DIFFUSETILE
360
23
  3
FBXASSET
360
BA
  3
OPACITYTILE
360
27
  3
REFLECTIONTILE
360
26
  3
REFRACTIONTILE
360
28
  3
SPECULARTILE
360
25
  0
DICTIONARY
  5
1552
330
67
100
AcDbDictionary
280
     1
281
     1
  3
ACAD_XREC_ROUNDTRIP
360
1553
  0
DICTIONARY
  5
1550
330
65
100
AcDbDictionary
280
     1
281
     1
  3
ACAD_ROUNDTRIP_2008_TABLESTYLE_CELLSTYLEMAP
360
1551
  3
ACAD_XREC_ROUNDTRIP
360
158A
  0
DICTIONARY
  5
1564
330
2F
100
AcDbDictionary
280
     1
281
     1
  3
ACAD_XREC_ROUNDTRIP
360
1565
  0
DICTIONARY
  5
1562
330
2E
100
AcDbDictionary
280
     1
281
     1
  3
ACAD_XREC_ROUNDTRIP
360
1563
  0
DICTIONARY
  5
1570
330
35
100
AcDbDictionary
280
     1
281
     1
  3
ACAD_XREC_ROUNDTRIP
360
1571
  0
DICTIONARY
  5
1578
330
39
100
AcDbDictionary
280
     1
281
     1
  3
ACAD_XREC_ROUNDTRIP
360
1579
  0
DICTIONARY
  5
156A
330
32
100
AcDbDictionary
280
     1
281
     1
  3
ACAD_XREC_ROUNDTRIP
360
156B
  0
DICTIONARY
  5
156E
330
34
100
AcDbDictionary
280
     1
281
     1
  3
ACAD_XREC_ROUNDTRIP
360
156F
  0
DICTIONARY
  5
1588
330
41
100
AcDbDictionary
280
     1
281
     1
  3
ACAD_XREC_ROUNDTRIP
360
1589
  0
DICTIONARY
  5
1576
330
38
100
AcDbDictionary
280
     1
281
     1
  3
ACAD_XREC_ROUNDTRIP
360
1577
  0
DICTIONARY
  5
155A
330
2A
100
AcDbDictionary
280
     1
281
     1
  3
ACAD_XREC_ROUNDTRIP
360
155B
  0
DICTIONARY
  5
155C
330
2B
100
AcDbDictionary
280
     1
281
     1
  3
ACAD_XREC_ROUNDTRIP
360
155D
  0
DICTIONARY
  5
155E
330
2C
100
AcDbDictionary
280
     1
281
     1
  3
ACAD_XREC_ROUNDTRIP
360
155F
  0
DICTIONARY
  5
1560
330
2D
100
AcDbDictionary
280
     1
281
     1
  3
ACAD_XREC_ROUNDTRIP
360
1561
  0
DICTIONARY
  5
1568
330
31
100
AcDbDictionary
280
     1
281
     1
  3
ACAD_XREC_ROUNDTRIP
360
1569
  0
DICTIONARY
  5
1584
330
3F
100
AcDbDictionary
280
     1
281
     1
  3
ACAD_XREC_ROUNDTRIP
360
1585
  0
DICTIONARY
  5
1574
330
37
100
AcDbDictionary
280
     1
281
     1
  3
ACAD_XREC_ROUNDTRIP
360
1575
  0
DICTIONARY
  5
1586
330
40
100
AcDbDictionary
280
     1
281
     1
  3
ACAD_XREC_ROUNDTRIP
360
1587
  0
DICTIONARY
  5
156C
330
33
100
AcDbDictionary
280
     1
281
     1
  3
ACAD_XREC_ROUNDTRIP
360
156D
  0
DICTIONARY
  5
1582
330
3E
100
AcDbDictionary
280
     1
281
     1
  3
ACAD_XREC_ROUNDTRIP
360
1583
  0
DICTIONARY
  5
1580
330
3D
100
AcDbDictionary
280
     1
281
     1
  3
ACAD_XREC_ROUNDTRIP
360
1581
  0
DICTIONARY
  5
157A
330
3A
100
AcDbDictionary
280
     1
281
     1
  3
ACAD_XREC_ROUNDTRIP
360
157B
  0
DICTIONARY
  5
157C
330
3B
100
AcDbDictionary
280
     1
281
     1
  3
ACAD_XREC_ROUNDTRIP
360
157D
  0
DICTIONARY
  5
1572
330
36
100
AcDbDictionary
280
     1
281
     1
  3
ACAD_XREC_ROUNDTRIP
360
1573
  0
DICTIONARY
  5
1566
330
30
100
AcDbDictionary
280
     1
281
     1
  3
ACAD_XREC_ROUNDTRIP
360
1567
  0
DICTIONARY
  5
157E
330
3C
100
AcDbDictionary
280
     1
281
     1
  3
ACAD_XREC_ROUNDTRIP
360
157F
  0
XRECORD
  5
1558
102
{ACAD_REACTORS
330
1A
102
}
330
1A
100
AcDbXrecord
280
     1
102
MATERIAL
148
0.0
149
0.0
149
0.0
 93
        0
 94
      127
282
     0
 72
     0
 77
     0
171
     0
175
     0
179
     0
273
     0
  0
XRECORD
  5
1C
102
{ACAD_REACTORS
330
1A
102
}
330
1A
100
AcDbXrecord
280
     1
270
     1
271
     1
  0
XRECORD
  5
1B
102
{ACAD_REACTORS
330
1A
102
}
330
1A
100
AcDbXrecord
280
     1
270
     1
271
     1
  0
XRECORD
  5
1F
102
{ACAD_REACTORS
330
1A
102
}
330
1A
100
AcDbXrecord
280
     1
270
     1
271
     1
  0
XRECORD
  5
1E
102
{ACAD_REACTORS
330
1A
102
}
330
1A
100
AcDbXrecord
280
     1
270
     1
271
     1
  0
XRECORD
  5
20
102
{ACAD_REACTORS
330
1A
102
}
330
1A
100
AcDbXrecord
280
     1
270
     1
271
     1
  0
XRECORD
  5
1D
102
{ACAD_REACTORS
330
1A
102
}
330
1A
100
AcDbXrecord
280
     1
270
     1
271
     1
  0
XRECORD
  5
1557
102
{ACAD_REACTORS
330
12
102
}
330
12
100
AcDbXrecord
280
     1
102
MATERIAL
148
0.0
149
0.0
149
0.0
 93
        0
 94
      127
282
     0
 72
     0
 77
     0
171
     0
175
     0
179
     0
273
     0
  0
XRECORD
  5
14
102
{ACAD_REACTORS
330
12
102
}
330
12
100
AcDbXrecord
280
     1
270
     1
271
     1
  0
XRECORD
  5
13
102
{ACAD_REACTORS
330
12
102
}
330
12
100
AcDbXrecord
280
     1
270
     1
271
     1
  0
XRECORD
  5
F5
102
{ACAD_REACTORS
330
12
102
}
330
12
100
AcDbXrecord
280
     1
 70
     1
 90
1959938040
 71
     1
  1
77DDE923-49C7-449E-86E8-6EFDC5B2E683
311
504B03040A0000080000146FAA423DEE336E79000000790000001B0000006175746F6465736B2D64657369676E2D7061636B6167652E786D6C3C3F786D6C2076657273696F6E3D22312E302220656E636F64696E673D227574662D3822203F3E3C666F726D6174733E3C666F726D61743E687474703A2F2F736368656D612E
311
6175746F6465736B2E636F6D2F64657369676E2D7061636B6167652F323030393C2F666F726D61743E3C2F666F726D6174733E504B0304140006080800146FAA42D486FD9CA0000000F4000000130000005B436F6E74656E745F54797065735D2E786D6C7D8EC10E82300C865F65E91D8A1E8C310C0EEA1BF002731658846E
311
D98AC1B77784ABF1D8FE5FBFBF75BBCE937A534CCEB38643598122B6FEE978D0B0485F9C41B54DDD7D022595594E1A469170414C76A4D9A4D207E29CF43ECE46F218070CC6BECC4078ACAA135ACF422C856C0E68EA1BF5669944DDD7BCDE7B1F8E415D77AECB980613C2E4AC91FC167A2B244592486606FC29C8FD7F045B9A
311
EF7053A7E60B504B0304140006080800146FAA42F4171D31EC0000007C01000008000000636F72652E786D6C8D90416EC3201045AF82665B61430C496A612227714ED00B204C5C94182C03558F5F9C3852BBEB6A467FFE9B197D71F81EEFE8CBCCC17AD7002D0820E3B4EFAD1B1A48F18AF7800E52CCDEC75F36404E8DA681
311
45062986D9A76995B477D1B89855E77BB38A2A041301E97B6E1A08FAD38CAA50296647B81593D237359882BEBA0CA7647BF43C62FBBCCF5EAD9941EE58C709651DDE9F2E0433CE8EB86D39C5BB6D773C5DCEEF8CB767512EB014D18EAFFB7A362A9A1EE486D00A138E29F9A055CDB735236F84D71511E562FF03A5A9FF2794
311
AC8BD5667DF7890590343FF21848512E59E4F2082AD72537F903504B0304140006080800146FAA4255019EA25F0000007C00000007000000636E782E786D6C4DCB3B0E80201045D1AD90E915ED2CF8AC45050C11660C8261F98AB1B07AC9C97D42D718D865D3E909258CFD00CCE24AC6E326A164D74DC0B4128928FF326038
311
472BA13128B1252AC747C6BAB984FC68F0B87FE8960A5C09FE86CFB69FBA01504B0304140006080800146FAA42EB24120E68010000020300000C0000006662782F636F72652E786D6C8D52ED8E8320107C15C2DF8B0255DB5E8334FD7C827B01AAD433553008A68F7FEB47E3F5D234171324333BBBB3A37C7BAF2BD429DB96
311
46A798851423A5339397BA48B177D7608DD156706B8CFB55869196B54A710F63C10B6B7C334199D14E6907A836B99A40D9B6CA6194557049719B7DAB5A86D23BA8686F6123B39B2C54C842A0A14EF0D6593080C621FD89C5F572E764C405F7BECC27B6CC615A792D95C562159F12CAE253B03E9C691027F13ED8ED1216AC96
311
A7FDE17CFC8C93DD91935E2CB82BEB87BBCC2AE9548EC582B228A049C0E8178B36C97213D30F9A6C22CA495FFE24F24DFE4F912FB58B1693DD51D662C1C0C840FCD9162272A8951DF82182933E44780D093F070D8140C84E5EAAC71E37803A953963636072E367AA9395573095A2E1E16464A1F3D000367BD967F1A6CFFB1E
311
F001A52EC09A7470BD78D74FE7E3D4298A46D9A07377A48DAD65359B1B2DCEE73CE8A53C3395B1FF51936955328549FABF57FC00504B0304140006080800146FAA42B055250F7D0000009D0000000B0000006662782F636E782E786D6C4DCCD10A83201886E15B91FFDC653551418D16791FB12C64A6C3E9D8E5AF46073BFA
311
E0E1E395DD67F3E86DD3CBC5A0A0BE104036DCE3ECC2AAA0E40573409D9629C6FC770314A6CD2A3818B45C532CCF9366BB4CC5E75DBD0B8F134D7BA34C50818786517C1D39C5DC0C0C1B267A62046523A9A1D2B2FA95F63DC2FA0B504B0304140006080800146FAA42C8C3BE7A2E01000015020000310000006662782F4633
311
4235373935392D433237352D344538352D384643372D4637394130463935374530312F636F72652E786D6C8D515B6EC32010BC0AE22B55850DB189E30813B5517C825EC00192A0C460F1A872FC42ED48ED5F7E58343B333BB06CFF18EFE05B39AFADE920293004CA082BB5B974308633DA42B0E7CC591BFED02030C3A83A98
311
61C8D9C5D9382D90B0262813126AAC540B3878AF0204E29E2E1DF4E2AAC6A11862480C7F2BA641DC868B2A4891DA89C7990F2E0500F3907C42DE579FB469698B0EEB86A2FAB8A568DB1F1AD437ED07EE5BDA1C3161E52CE42C462D17B996298E3E6BE55E35C962CE821E9FF18553435012F2352615C21411FC45AA1DDDEC6A
311
FC8EE9AEC2ACCCF47FA238C91745519B50AD97B8B3CC439E5E33373893369EEECF30EA315917409EB7F24ABC418E0B8C5B4C5A5257AC9CB9E90792E9A65E4C7DB02EFDF0EA764A744259999D373567655E522ABF1B4C352F94FF00504B0304140006080800146FAA42A4E83BAF4E01000033030000300000006662782F4633
311
4235373935392D433237352D344538352D384643372D4637394130463935374530312F636E782E786D6CD593CD6EC32010845F0571ADFC573B51156122F5D027E8A1570C9B840683C54FD5BC7D9784A4B9E4D0632FC89A1D66569F30DB7ECF867C810FDAD99176754B0958E994B6FB91A6B8AB5E28D972E69D8B77364AAC98
311
61A459A69CEDBD4B4B9114EC44321155A3EDB1881E824B5E424039DF24C6496130006C9550847902A540919B11BF76E0711514A7138907206FAF1FC44D9F2063604D4EE1ACC91D9CE5B334DD992891468430D2200F308B5AA4E8148463AD441475575FBB1EECF49B44F2856B65F29AE4F291E693F2B2518D1C598343CE42F4
311
48AF98E26901CAC5B2182D4544C8CDD978F17096B48DEBA1783582F7E8EED6FD3060D879C659D4331487F4202228CA9FDBAEAFDA55D5B5EF5DBF59AD3743FBD4AE367DCB9A6CE76C72CE944B1803DE2D443A1BC146CA3BD6E4F1237CC54794F6C8DAF9D31F402280D27AA173CBF8CF7C9AF3FB465C1EFF02FE03504B030414
311
0006080800146FAA428BDBB728A505000081100000340000006662782F46334235373935392D433237352D344538352D384643372D4637394130463935374530312F6F626A656374732E786D6CAD575B6FDB3614FE2B82F6B23DF822DB49EC41D190D84E6174698B1A2DF660C0A0254AE1425D4052A9B35FBF8F22254BAE9D
311
7A435F74E1E5F09CEF7CE742FF8F7DCA9D172A24CBB35BD7EB0F5D8766611EB12CB9754B15F7A6AEF347E08B3C57AD65AE939194DEBA7AD80DFC44E4656187221A9392ABA3D187FBBF1C19D28CBA4EC88994B7AE0C9F684AFAA4547944E5733F228AF49378DFF7FA6661576C2248F17424B42082660A9A623C8314C728E575
311
7F87EE20F0077A3EF0F5D3AE1A9F5F35A8ECE99ECF32A948167E77D89198B137592C4757B3DED56432EE4DAE475EEFFEE17ED1F36EC6C3F9F57C3EBB5BCE70B0540292AC2682C66EF00ED80816FA033315F825CBD478649758070D047D61DA536E30723C7F60D634D659234FA91FE65946C30A2BA051D9674547B4A059049F
311
332AA1590BA161F7D7D338B6A6C7FADF1ED91EBE0C81F68E96A05AF7FADDD634DFFD0D13E4250C12926A061A2CADA186ABC303C2BB3CE7768E4927258A0A46B8C3D94E10F1EA0658AA97047E478C66B2D0D1A02D700378C14C77E98230FA31CF4F6919979C6B1ABB4115055BC40A55B2D28CFD43C541FB3632D009BED26C98
311
5A83D46B41DD606628323D629301D2893949E07298A9778E474786CE759CAE166EF0FE61B75FEBD83D7D7821F2820AA5E9036AD58EABDF1A25AB937791E7F406F7489503289F81FC0784FA4115F84DB0FD643FB1A728413219E722856F9CA1D31BE23174BCEAA9BF5B5FFEA0D9DCF5DE393CE16C0DD54FC0B36B43DB972D38
311
03FF0584CFC5D89AB60E0947DA78641900D22471788E21E4E178B7778315B21CB23276111E783019EABEE0D31F58314814D549AD77062C8FD2E205091AB0558C841A86FC56C1839FBE4B67D5C176D93978AF7E0A5DEF16EBF7EB52C424A48F36A61734661953287107DEB415EA60DEB1E899BE7ECB450443BFC77BDDC63BB5
311
4749A0AD31D7C027754ED73F87933B0784D897E43ADDF83F380146E8C2DA92FFC86448392719CDCBFADC37EB07CA86815807BB667253600E8505A43133473188221D0A5668109B6AD524CDFE19EBBEAC3E80916E70FFFA27796D67AFDD21F78639CFC576F7BA3569E924D45FBBDCB6180CB414D0BD0A923AFE2DE8DB88C571
311
2991044FE0FA75356FFB4EA705A4885AAA899609EC47701161495BCB45B516049534CFB60C75137177F280B67C406A1950093CA7B1A43CDE32CECB741B338E6AB44D4971068EFFAFFFAE4C8B2D49F33253676477544775E8EADE61AFFC4654F8E406EBEADDBB47EE8D6874860CBA969CC0AAE3DA9B9BC562391BA1759ACD6F
311
7A93C96CD99B5E2FA7BDEBE5C3627E753F5A5E4FC7B59F8C26815F979A7644C34B286D7E299875DF9715E2C726013778244A6EDE99F0ACDF5F567DF4C2FE007B502F9B8D77D10BFA3E1AFD58C061E54941ABB4E034A599223A861EF507FF4CD067749431E3AB9424F402291FDFAD8F8CC1C805FB3EE978A7DF8EF6DAD1B90E
311
C89342D45399EE32C2F8D1C6C420D92FB2C4E257FBA4799B4253FFEA3FEB1874A632E72C421E8C9C84E62955C886171421915209EAB57BFAC8DE3D2ED8FD623A4445769CD69A3C1134C95C222C40AD3254DD71E7173475BAAFBA75516EFBCF78D84CE13AE0CCAD8B265DB190CAFE0E055AB742957070A9DDC9A3F12759C2D1
311
6B9B4DCD7FB34B63D329C9CD924BFA276B9749E1D600A491027D031A2278A75226F02BDDEC7CF89F0CAFD57188C2E7AE548D2D8781C698EA1884A831CADE16D0C43CDBA3F708D4B7CDF2FAD59A0E2217DDB2DE248191DA534424D54D41EB6755BA5B7C1AA04371561F9D8297097C79B9A49EA02073A9031C2C022BACCC8228
311
5075FEFBE693C871934D9D07060A38BFEEA7D7BF6DE6799AE69919DADCD9FBB0B37EC2ED36DA2039507D2D919BD1D01B6DAAEB80BDA16C7744D23E89E43306E059C11AA03BEE072FCD9D1175C84C34EB06DA15470C5D2D1C5BD826106AE9D2CEAD1A1C341E19751043FA4AA923A6BDA078F34630A8964205815E3EF817504B
311
0304140006080000146FAA42000000000000000000000000350000006662782F46334235373935392D433237352D344538352D384643372D4637394130463935374530312F76657274696365732E62696E504B0304140006080800146FAA42F270F1330600000004000000360000006662782F46334235373935392D433237
311
352D344538352D384643372D4637394130463935374530312F747269616E676C65732E62696E636660600000504B0304140006080000146FAA42000000000000000000000000370000006662782F46334235373935392D433237352D344538352D384643372D4637394130463935374530312F617474726962757465732E62
311
696E504B0304140006080800146FAA42D5987DFC8F00000041010000360000006662782F46334235373935392D433237352D344538352D384643372D4637394130463935374530312F6469726563746F72792E786D6C858F410EC2201045AF4266AF15DDB800BA74E7C21B903225242D6328188F2FA5C4183471359997F9FF
311
81E89FF3C41E1816475E02DF1F80A11FC8386F25A438EECEC07A250251FC3803E6F58C12560C4AD840E95E91C151A72936F496F35732D860FE635F62C8F2DA16B505C545B74125BAA2FA9E05D7CC053D063734D5C7665FD55B6B8D15D5E9BFEAFD8490FFA45E504B0304140006080800146FAA42E7BC33A9FE000000A00100
311
003B0000006662782F46334235373935392D433237352D344538352D384643372D4637394130463935374530312F7265736F75726365732F636F72652E786D6C8D50596E833010BD0A9ADFCA60079C4DC61109C9097A01CB4CA89560475EAA1EBF26A152FBD79F99D15B344F4F1CBEA67BF1893E18675B60258502AD7683B1
311
630B295EC9168A8314DEB9F84B06855513B630C320C5E85D7A2C907636A28D19B56EC0055421608442DFF3D142D01F38A952A59815E1563E94BEA9114B56663AEBA408D1E700C5EBC93C417A0C2E798D41542F568A94CCB068CC907F9AAB410F72D39C39654D4FB6A70B250D6F8EA4EB38239BF5F978BAF4BB8677BDA866B3
311
14D14C3F19B547157100B9A2AC26941346DF59BDE7EB7D43DF28DFD75454B3FC8F293D867F9A92B1B15E2D715FB60092E5204F428A6AEE2BAF679979CFDDCA6F504B010214000A0000080000146FAA423DEE336E79000000790000001B00000000000000000000000000000000006175746F6465736B2D64657369676E2D70
311
61636B6167652E786D6C504B01021400140006080800146FAA42D486FD9CA0000000F40000001300000000000000000000000000B20000005B436F6E74656E745F54797065735D2E786D6C504B01021400140006080800146FAA42F4171D31EC0000007C010000080000000000000000000000000083010000636F72652E78
311
6D6C504B01021400140006080800146FAA4255019EA25F0000007C000000070000000000000000000000000095020000636E782E786D6C504B01021400140006080800146FAA42EB24120E68010000020300000C00000000000000000000000000190300006662782F636F72652E786D6C504B01021400140006080800146F
311
AA42B055250F7D0000009D0000000B00000000000000000000000000AB0400006662782F636E782E786D6C504B01021400140006080800146FAA42C8C3BE7A2E010000150200003100000000000000000000000000510500006662782F46334235373935392D433237352D344538352D384643372D46373941304639353745
311
30312F636F72652E786D6C504B01021400140006080800146FAA42A4E83BAF4E010000330300003000000000000000000000000000CE0600006662782F46334235373935392D433237352D344538352D384643372D4637394130463935374530312F636E782E786D6C504B01021400140006080800146FAA428BDBB728A505
311
00008110000034000000000000000000000000006A0800006662782F46334235373935392D433237352D344538352D384643372D4637394130463935374530312F6F626A656374732E786D6C504B01021400140006080000146FAA420000000000000000000000003500000000000000000000000000610E00006662782F46
311
334235373935392D433237352D344538352D384643372D4637394130463935374530312F76657274696365732E62696E504B01021400140006080800146FAA42F270F13306000000040000003600000000000000000000000000B40E00006662782F46334235373935392D433237352D344538352D384643372D4637394130
311
463935374530312F747269616E676C65732E62696E504B01021400140006080000146FAA4200000000000000000000000037000000000000000000000000000E0F00006662782F46334235373935392D433237352D344538352D384643372D4637394130463935374530312F617474726962757465732E62696E504B010214
311
00140006080800146FAA42D5987DFC8F000000410100003600000000000000000000000000630F00006662782F46334235373935392D433237352D344538352D384643372D4637394130463935374530312F6469726563746F72792E786D6C504B01021400140006080800146FAA42E7BC33A9FE000000A00100003B000000
311
00000000000000000000461000006662782F46334235373935392D433237352D344538352D384643372D4637394130463935374530312F7265736F75726365732F636F72652E786D6C504B0506000000000E000E00800400009D1100000000
310
504B03040A0000080000146FAA423DEE336E79000000790000001B0000006175746F6465736B2D64657369676E2D7061636B6167652E786D6C3C3F786D6C2076657273696F6E3D22312E302220656E636F64696E673D227574662D3822203F3E3C666F726D6174733E3C666F726D61743E687474703A2F2F736368656D612E
310
6175746F6465736B2E636F6D2F64657369676E2D7061636B6167652F323030393C2F666F726D61743E3C2F666F726D6174733E504B0304140006080800146FAA42D486FD9CA0000000F4000000130000005B436F6E74656E745F54797065735D2E786D6C7D8EC10E82300C865F65E91D8A1E8C310C0EEA1BF002731658846E
310
D98AC1B77784ABF1D8FE5FBFBF75BBCE937A534CCEB38643598122B6FEE978D0B0485F9C41B54DDD7D022595594E1A469170414C76A4D9A4D207E29CF43ECE46F218070CC6BECC4078ACAA135ACF422C856C0E68EA1BF5669944DDD7BCDE7B1F8E415D77AECB980613C2E4AC91FC167A2B244592486606FC29C8FD7F045B9A
310
EF7053A7E60B504B0304140006080800146FAA42B02E9EB0EB0000007C01000008000000636F72652E786D6C8D90416EC3201045AF82D856D86063A75898C86ED313F402088883128365A0EAF18B13476A775DCDE8CF7F33A3CF8FDFF30D7C993558EF7A480A0C8171CA6BEBA61EA67846AF101C055FBD8FBF6C1038399B1E
310
6E32147C5A7D5A764979178D8B59755E9B5D9421980881BAE5A687415DCC2C0B996276846BB14875959329C8B3CB704A5683C711ABF33E7BB66685A23A8C43C52845989203A2ACA5687CFB6068786FC6A1A127C6DA132F3758F068E7E77DB51A198DCE3C2635C20D22F893D45DD37614BFE0A6AB312F37FB1F282DFA9F50B2
310
2ED6D5FEEE030B5090FCC87D2078B96591CB3DA85CB7DCC40F504B0304140006080800146FAA4255019EA25F0000007C00000007000000636E782E786D6C4DCB3B0E80201045D1AD90E915ED2CF8AC45050C11660C8261F98AB1B07AC9C97D42D718D865D3E909258CFD00CCE24AC6E326A164D74DC0B4128928FF32603847
310
2BA13128B1252AC747C6BAB984FC68F0B87FE8960A5C09FE86CFB69FBA01504B0304140006080800146FAA4210A2CA2E68010000020300000C0000006662782F636F72652E786D6C8D525B6E833010BC8AE5DF0A6C5E49898CA3A44D4FD00B38E0502B602363A31CBFCB234A5345518464AC999DDDD901B6BDB40D1AA4ED95
310
D1058E428A91D4A5A994AE0BECDD2978C768CB9935C6FD29C3488B561678843167B535BE5BA0D26827B503549B4A2EA0E87BE9302A1BB814B82F7F642B42E11D54F4E7B013E559D4328C42A0A18EB3DE593080E621E389F9E9786164C639F35E550BAB2A98A64E4A5ACCE3F57E17E7691AD0345A0769BE4A83FDC7571EEC3E
310
B3FD2E4B0F79BE3A30328A3973AABDBA2BAD144E56A0A75112D02C88E877946CB2D526A56F34DB249491B1FC4EE4BBEA459157DA25F1627796F59847606422FE6D0B1139D48B01FC10CEC81822BCA684EF8386402064278ECD758F3340832C9DB1293095F1376A108D973095A2E9616466A1F3D400367BD8277ED2E7790FF8
310
8042D7604D38B81EBD1BA7B379EA1245276D30B80BD2C6B6A2B9999B2DDECEDBA087F2D234C6BEA226CBAA6409938C7F2FFF05504B0304140006080800146FAA4255ED690D7D0000009D0000000B0000006662782F636E782E786D6C4DCCD10A83201886E15B91FFDC65D1A6821A49761FB12C64A6C3E9D8E5AF46073BFAE0
310
E1E315DD67F3E86DD3CBC520A1BE104036DCE3ECC22AA1E40533409D1229C6FC770314A6CD4A38189458532CCF9366BB4CC5E75DBD0B8F136BDAB4BA360C1B7AD5B83594614E6E231E38A79AF43D1B460D9512D5AFB4EF11565F504B0304140006080800146FAA423A4E68452B01000013020000310000006662782F313732
310
34423145382D453735422D344537382D393036462D4439393742304141384446422F636F72652E786D6C8D515B6EC32010BC0AE22B55850DF13BC244B1929CA0177081A42831583CAA1CBF503B52FB971F16CDCECC0E2CDD3FA63BF896D629A37B48320C81D4DC08A5AF3D0CFE825A08F68C5A63FC1F1A047A9C640F130C19
310
BD5A13E615E2467BA97D44B511720547E7A48780DFE3A5878E7FC969CCC6E023C3DDB279E4B7F12A3392C576E431EABC8D01C032249D9091665B0EE4D4A253530DA83C352DEA707D46C7AE6B067C38B4C7F340F345C868084AAC7225621C7551D2BE6A92C48C7A353DE3732B472F05645B4C0A842B44F007297655BD2BF13B
310
AE7605A679A2FF138559BC280A4AFB62BBC65D642E66A5F9D2605498F0797F86918FD9580FD2BC8D93FC0D329C61D29655D7D07C61C6F747CBBA5C2D9D3736FEEFE6F619C905597CEB92D13CAD2896DFFDC59AD6C97E00504B0304140006080800146FAA42C24FF4B85601000033030000300000006662782F313732344231
310
45382D453735422D344537382D393036462D4439393742304141384446422F636E782E786D6CBD93CD6EC32010845F0571ADFC173B56146122F5D027E8A1570C9B94068305B86ADEBE4B42D25C72A854F582ACD96166F509B3DDD764C827F8A09D1D6853D69480954E697B18E812F7C586921D67DEB97867A3C48A09069A64
310
CAD9C1BB65CE9282BD584C44D5687BCCA287E0162F21A09C6E12E3A4301800B65850846904A540919B11BFF6E0711514C71389EF405E9EDF881B3F40C6C0AA94C259953A384B676EBA3351228D0861A041BEC3244AB144A7201C4B25A2289BF2DAF560A79F24922E5C2B17AF492A1F683A29CF1B95C8915538E42C448FF4B2
310
299E66A05CCCB3D15244845C9D8D170F678BB6B1EFB25723788FEE76D56F3618769E7116F504D9213D88088AF255DDB445BD2E9AFAB569B7EB7EDBD54FF57ADBD6AC4A76CE46E74CBE8431E0DD4CA4B3116CA4BC61551A3FC2977D44698FAC9D3FFD022402C8AD173AB78CBFE4D3F46DD7FD239FEAFCBE1197C7BF807F0350
310
4B0304140006080800146FAA42046DCE4C640700009A1B0000340000006662782F31373234423145382D453735422D344537382D393036462D4439393742304141384446422F6F626A656374732E786D6CED59DD73A33610FF5718FAD23E181BDBC9251D4227B1931B4F9BF6A6EEDDF4C1338C0C3251230423895CDCBFBEAB
310
0F301093E05EFAD6071B10D26AF7B79F5A829F9E33EA3C612E48CEAE5CDF9BB80E66719E10965EB9A5DC8D2E5CE7A730E0792E1BD35C87A10C5FB96AD80D8394E765618712BC4325959DD1BB9B3F1D1163865D27A648882B57C40F38431E2A659E60F1E82548222FDD3D7BBE6726B6C9A61C150F1DA205E29849E014C61950
310
710C537EFB71E28EC360ACDE8781FAB7B3668366CDFB678DB5D46D2E091312B1F8054B1D32B3412CCDFCF9F2767A76393A9BCF67A3F9F9D41FDDDCDD2C47FE87D96471BE585C5EDF5E027BDB3CA756A604179825A0BFBD1BFAC158BDA945B7081CE33ACE19C3B10612A0D2627509122C60AB067C93F6A3AF246ABCD612369E
310
E7EABD65A1313C6B53E99B350C88165D10C46E57495C5D9BF2E5DBBF407031C428B9C012B8159283762D3C1CBCC20D27C1D88C86C1F6A00B229C0C49CC09A20E255B8E382805A6AA296160165832CA3938907294045A73E675DBB6C033DF769D635CEE4A4A9567B8A176AC08DC0F4BA139237F637EE0BE890CF004D29684C9
310
0BCBA5DC17D80D2F83B11E0C0375994DED4B03A4B3A328151A11F3B623E842B9FE6AE9863FDF6D9FD72A1C1CDFBCE07981B95446A7F4A8F90243B6578592DDD61FA439B5008431A0DA9507507E07E47F85E8716005F4C6C9F3FC796EE74A8E98D8E53C03DD3813673481BF89E3EB7F75DFB80BC6F5E2B6F6FAF0043755505D
310
7C3B9E6D19345696FF069C61F004069FF3997DB58E11057BBE270C005246E2D01C8620B4EFB6CF6EB882C009811E56211AFA2032B0FB04B7C1D8923968A5722FEB750C10B57BCC86280960D316096CF4E8E923640F4EE2839A9A22F6C17BF62EE67ABD5CFFBC2EF90EC5F8DEFAF412EF082312B2E671865A98B7247AC4FBAF
310
394F40D09778AF9B7867762B01682BCC15F06905827A38ECDCDA20867569AEC24DF0C60E2084CAD50DFAF744C49852C4705E56FBD6D14D196AEDF1B66670C3A9817836ED9830C74F445515E03487192D4621EFC79C140A4437FC6824AB83A6D723DDE7D5AF6091F5FC9E592B06A19721FA870E5A477068597685B405A21678
310
7B08E7714E731E6DF79189742ED412C046DB5BBEB48842AC374A5254C083B4DF55212535D24609D9ED4A0171F5088B5F568BA6394CBC997FE634FF3BCE3887680BBE8BB8F5BBCE1E11C9508AA31D4AFAB66BEE56D3169A640F698E7714E4224F44EE2324A34982D353A03989F8E5BB524F692E04615840BE3A0A7E138D8907
310
81C468B3625969B5033411518625A2A720A0C8F480ABD38EAE7163281DDEE6B1B6DED734D624FA1F590447504BE62C22508A420E799371DF3B8318D246D7A0DCC117ACADA2ADC5A0259410F13EFA8A49FA204F41DD90EFC13D86234929A3BC403198F500B22F7C4529B5C3FB16C58F2A7F447149DFCB4004A6BB88505A6611
310
FC088393C710D7AE03D3AB2834889BD8277106451992251FB2C9F9D9E4C53EA666E886C0C6463B42216C47192A7A506F05445D8F3835F8967A8F52B765564428CB4B36C850BC59D79B2CF9AE5A15D981FCAA5211CAC68AB025180684C93AAB56311B4C5D075670231DA8F691405941CD29EC8DC4E3D7DEA429F76EC0AD9FBE
310
EF0619147E3DDA6B46D4790583E5B1551888AF48C60F6EB8D6D7D10DD4DF094E0EA9BEAA359B152020A62279C98955D1E7159437B64673C37B24C5E6A3C9BAD5F5F3CA83EE4730863550BBD40B570AE80C3389546572AF6EE8EF0842708B86195FA99C7A0A95EB24D15523A277A44F9DAD32A2B56946BCE201B33C831FDB10
310
16D332C11B9488C7E85ED2684D14EB564A2F2315C6AF0AF8DBC775071E181920D22755E0E1AF9DB57674A1CAA5A344E443996D192210045BA2A546375EC152AB914ACBF5559D29A0EE0203B32A9EFF7FB268B623FE3F59A4D630BEE96471B3FF05ED9B7D91463A8F955D9F740CA8F393A2F21EC700DD76A8A9D659C424732B
310
BF75A608826215E507576355D03004FB38FED759BB2F0B9AED3AFC9F96B5FD1715C74959A5355975A98E54AEAB660EFBF061B9BCBD9C426FF672F161349F5FDE8E2ECE6F2F46E7B777CBC5D9CDF4F6FCE2504668470D833A98E9DC05CF26A855C3EAC962005D59915392C0693E71520C315FC2997E40FB9C675840F26C36BB
310
13DB941FB0FAC9F43925DA525C71F280A0414C05A475C0A88C657BDCF90E5A93120EDA572E348DBC47F8B356E93A9079AE5C6815481263E16DA1CDA41A7A9A38A45C9DFB2D31C007B154A544B3A87EAE57296C5AE1BF9E32240D58B95A3D0C28DC0AE87EB53A149A37CB537C92E0153B0E9270BB2D25546B4696C3402D8CDE
310
E6A07E231B25ECD16EFD0CAEFBBA58BEA7E7B41019F4C9E0552330544712F154F7BB156396A5EBE5A731F4D99CD56F4E41CB1474399CD2886330E6521554604560159666812498EAE2C7CD279EC3279ECCD15591F3FDF3C5F90F9B459E653933439B6B389525F0A1C8593FC0679F6403C50356CD75B1994EFCE94637B56D9F
310
3DDA22813D5515C140554C28413A260776F9A24165DB9763A58ACEF4D5D2B141149A01C68E5EF478CD472E077C487D4E511EA3FDBC92F6D5BEF6584F059BE0D0910EFF01504B0304140006080000146FAA42000000000000000000000000350000006662782F31373234423145382D453735422D344537382D393036462D44
310
39393742304141384446422F76657274696365732E62696E504B0304140006080800146FAA42F270F1330600000004000000360000006662782F31373234423145382D453735422D344537382D393036462D4439393742304141384446422F747269616E676C65732E62696E636660600000504B0304140006080000146FAA
310
42000000000000000000000000370000006662782F31373234423145382D453735422D344537382D393036462D4439393742304141384446422F617474726962757465732E62696E504B0304140006080800146FAA42D5987DFC8F00000041010000360000006662782F31373234423145382D453735422D344537382D3930
310
36462D4439393742304141384446422F6469726563746F72792E786D6C858F410EC2201045AF4266AF15DDB800BA74E7C21B903225242D6328188F2FA5C4183471359997F9FF81E89FF3C41E1816475E02DF1F80A11FC8386F25A438EECEC07A250251FC3803E6F58C12560C4AD840E95E91C151A72936F496F35732D860FE
310
635F62C8F2DA16B505C545B74125BAA2FA9E05D7CC053D063734D5C7665FD55B6B8D15D5E9BFEAFD8490FFA45E504B0304140006080800146FAA426F405408FF000000A00100003B0000006662782F31373234423145382D453735422D344537382D393036462D4439393742304141384446422F7265736F75726365732F63
310
6F72652E786D6C8D905D6EC3201084AF8278AD6C83FF525B98C86ED313F402086F5C94182C7EAA1EBF10BB52FBD61716CDCCA71D2D3B7FAD77F409D629A3074C738211686966A59701077FCD9E313A73668DF1BF621869B1C280938C395BAC09DB2149A33D681F556D663844E11C788CE43D7E06ECE407AC2217C1C784BBE5
310
9B9037B1404EF368C71C67CEDB5800ED4BD28BB905678295E058B1BB9C85A0E623A3E6B8535D1558CCCBD334965D5D65A4A6A7ACEEDA3A9B5EDEBA6C7C6DA6B1A92F5DD75E589160CEBC5A7F3A4A0BC2C31C794223DB6494BCD3AA6FDABE264FA4E92BC28A14FF03856DFE271494F65579D4DD3187398D451E066745BA571C
310
8F63C6996ECBBF01504B010214000A0000080000146FAA423DEE336E79000000790000001B00000000000000000000000000000000006175746F6465736B2D64657369676E2D7061636B6167652E786D6C504B01021400140006080800146FAA42D486FD9CA0000000F40000001300000000000000000000000000B2000000
310
5B436F6E74656E745F54797065735D2E786D6C504B01021400140006080800146FAA42B02E9EB0EB0000007C010000080000000000000000000000000083010000636F72652E786D6C504B01021400140006080800146FAA4255019EA25F0000007C000000070000000000000000000000000094020000636E782E786D6C50
310
4B01021400140006080800146FAA4210A2CA2E68010000020300000C00000000000000000000000000180300006662782F636F72652E786D6C504B01021400140006080800146FAA4255ED690D7D0000009D0000000B00000000000000000000000000AA0400006662782F636E782E786D6C504B0102140014000608080014
310
6FAA423A4E68452B010000130200003100000000000000000000000000500500006662782F31373234423145382D453735422D344537382D393036462D4439393742304141384446422F636F72652E786D6C504B01021400140006080800146FAA42C24FF4B856010000330300003000000000000000000000000000CA0600
310
006662782F31373234423145382D453735422D344537382D393036462D4439393742304141384446422F636E782E786D6C504B01021400140006080800146FAA42046DCE4C640700009A1B000034000000000000000000000000006E0800006662782F31373234423145382D453735422D344537382D393036462D44393937
310
42304141384446422F6F626A656374732E786D6C504B01021400140006080000146FAA420000000000000000000000003500000000000000000000000000241000006662782F31373234423145382D453735422D344537382D393036462D4439393742304141384446422F76657274696365732E62696E504B010214001400
310
06080800146FAA42F270F13306000000040000003600000000000000000000000000771000006662782F31373234423145382D453735422D344537382D393036462D4439393742304141384446422F747269616E676C65732E62696E504B01021400140006080000146FAA4200000000000000000000000037000000000000
310
00000000000000D11000006662782F31373234423145382D453735422D344537382D393036462D4439393742304141384446422F617474726962757465732E62696E504B01021400140006080800146FAA42D5987DFC8F000000410100003600000000000000000000000000261100006662782F31373234423145382D4537
310
35422D344537382D393036462D4439393742304141384446422F6469726563746F72792E786D6C504B01021400140006080800146FAA426F405408FF000000A00100003B00000000000000000000000000091200006662782F31373234423145382D453735422D344537382D393036462D4439393742304141384446422F72
310
65736F75726365732F636F72652E786D6C504B0506000000000E000E0080040000611300000000
  0
XRECORD
  5
17
102
{ACAD_REACTORS
330
12
102
}
330
12
100
AcDbXrecord
280
     1
270
     1
271
     1
  0
XRECORD
  5
16
102
{ACAD_REACTORS
330
12
102
}
330
12
100
AcDbXrecord
280
     1
270
     1
271
     1
  0
XRECORD
  5
18
102
{ACAD_REACTORS
330
12
102
}
330
12
100
AcDbXrecord
280
     1
270
     1
271
     1
  0
XRECORD
  5
15
102
{ACAD_REACTORS
330
12
102
}
330
12
100
AcDbXrecord
280
     1
270
     1
271
     1
  0
XRECORD
  5
1559
102
{ACAD_REACTORS
330
22
102
}
330
22
100
AcDbXrecord
280
     1
102
MATERIAL
148
0.0
149
0.0
149
0.0
 93
        0
 94
      127
282
     0
 72
     0
 77
     0
171
     0
175
     0
179
     0
273
     0
  0
XRECORD
  5
24
102
{ACAD_REACTORS
330
22
102
}
330
22
100
AcDbXrecord
280
     1
270
     1
271
     1
  0
XRECORD
  5
23
102
{ACAD_REACTORS
330
22
102
}
330
22
100
AcDbXrecord
280
     1
270
     1
271
     1
  0
XRECORD
  5
BA
102
{ACAD_REACTORS
330
22
102
}
330
22
100
AcDbXrecord
280
     1
 70
     1
 90
1959938040
 71
     1
  1
5DB7FDCA-DF71-466C-A4A5-B102B63C6E36
311
504B03040A0000080000126FAA423DEE336E79000000790000001B0000006175746F6465736B2D64657369676E2D7061636B6167652E786D6C3C3F786D6C2076657273696F6E3D22312E302220656E636F64696E673D227574662D3822203F3E3C666F726D6174733E3C666F726D61743E687474703A2F2F736368656D612E
311
6175746F6465736B2E636F6D2F64657369676E2D7061636B6167652F323030393C2F666F726D61743E3C2F666F726D6174733E504B0304140006080800126FAA42D486FD9CA0000000F4000000130000005B436F6E74656E745F54797065735D2E786D6C7D8EC10E82300C865F65E91D8A1E8C310C0EEA1BF002731658846E
311
D98AC1B77784ABF1D8FE5FBFBF75BBCE937A534CCEB38643598122B6FEE978D0B0485F9C41B54DDD7D022595594E1A469170414C76A4D9A4D207E29CF43ECE46F218070CC6BECC4078ACAA135ACF422C856C0E68EA1BF5669944DDD7BCDE7B1F8E415D77AECB980613C2E4AC91FC167A2B244592486606FC29C8FD7F045B9A
311
EF7053A7E60B504B0304140006080800126FAA422B654C54EA0000007C01000008000000636F72652E786D6C8D90D18E832010457F85CCEB0605D16A0CD2D8267EC1FE0001DA925630029BFDFCC5D626BB6FFB34933BF7CC4C2E3F7ECF0FF465D660BD1B8016049071CA6BEBAE03A478C11DA0A3E0ABF7F1970D9093B31960
311
9341F0EBEAD3B24BCABB685CCCAAF3DAECA20CC14440EA919B0182BA99591632C5EC08F76291EA2EAFA6A0EF2EC329598D5E47ACCEFBECC59A15C4A923E3A1651366A46971DDD40C8FE713C1637D9EBA7A9A2861152F3758F068E7F77DB51A198D065111CA306930259F94F5CDA167ED07697A4678B9D9FF4069D1FF849275
311
9155FBBB2F2C80A0F991E740F072CB22976750B96EB9891F504B0304140006080800126FAA4255019EA25F0000007C00000007000000636E782E786D6C4DCB3B0E80201045D1AD90E915ED2CF8AC45050C11660C8261F98AB1B07AC9C97D42D718D865D3E909258CFD00CCE24AC6E326A164D74DC0B4128928FF326038472B
311
A13128B1252AC747C6BAB984FC68F0B87FE8960A5C09FE86CFB69FBA01504B0304140006080800126FAA42EE684F2D66010000020300000C0000006662782F636F72652E786D6C8D52ED8A8330107C9590BF87261A6D4B89296DC127B8174835F5A49A484CA48F7FEB47F17A945284186676766747F9E1DE366850B6AF8DCE
311
7014528C942E4C59EB2AC3DE5D831D4607C1AD31EE4F19465AB62AC3238C05AFACF1DD0215463BA51DA0DA946A0165DF2B8751D1C025C37DF1A35A194AEFA0A2BF859D2C6EB2526114020D7582F7CE8201340F194F2CAE973B27332EB8F775B9B07509D3EA6BAD2C16A71D3D6EB62C0F184DB74192262C389E4F343826E77C
311
97E4794459CCC92816DCD5EDC35D619574AAC422A6110B681A44F43B62FB74B367DB2F9AEE19E5642C7F12F9AEFC50E46BED58BCD89D653D16111899887FDB42440EF572003F4470328608AF29E1E7A0211008D9C94BF3D8E306D0A00A676C024C69FC4A0DB2F10AA652343D9CCC2C749E1AC0662FFBC46FFABCEF011F50EA
311
0AAC4907D78B77E3743E4F5DA2E8940D067747DAD85636ABB9D9E27AAE835ECA0BD318FB899A2CAB92254C32FEBDE217504B0304140006080800126FAA42D27CA0AB7D0000009D0000000B0000006662782F636E782E786D6C4DCCD10AC2201886E15B91FFDCA66B4E037584D87D8CE686E4344CA3CB6F8B1D74F4C1C3C72B
311
87CF1AD0DBE5974F51013D11402EDED3E4E3A2A096190B40839639A5F2770314C7D529D819B45C72AACF8326378F35944D838F8F036F8453D67283A9B10C77E4DC63C16C8F0D25FCCA84B8D8CE42A365F32B6DBB87F517504B0304140006080800126FAA42FD8E70002C01000015020000310000006662782F463037313532
311
37432D314345352D343033362D383545362D4331303741353838394534452F636F72652E786D6C8D515B6EC32010BC8AC557AA0A1B8CB19D081355917B825E801892A2C460F1A872FC42ED4AED5F7E58343B333BDA65C7C77C2FBE94F3DA9A01E012814299C94A6DAE0388E1027B501C3973D6863F34501831AB0164187076
311
75362E1B3459139409093556AA0D14DEAB008AE99E3E03F0D3A79A452962480C7F2B1731DDC45595B84CEDC4E3CC07970214EB90FC02FE8E3A4CEBEE04F169A4B041A4853D1D5B78C2A87BA37DBF1F9B9155AB90B318B5DCE45AA638FAA2957BD6248B390B7AFE8D3F3925829280D708138828C4E80393036D0FA47B45F440
311
10AB32FD9F282EF24951D426907A8BBBCA3CE098556B833369E3F9FE1B463D16EB4291E7EDBC9A5E00472542FB9AE0BEE958B572D3069269DB6CA63E589736BCBB9D131DD3D5B96D38ABF29152F9B960AAF9A0FC1B504B0304140006080800126FAA422A8CE6BF4E01000033030000300000006662782F4630373135323743
311
2D314345352D343033362D383545362D4331303741353838394534452F636E782E786D6CD593CD6E022114855F85B06DE6AFA3B6310C265DF409BAE89681ABA20C4CF869EADBF7A268DDB8E8B21B3239F770CECD17866DBE2743BEC007EDEC40BBBAA504AC744ADBDD4053DC56AF946C38F3CEC53B1B25564C30D02C53CE76
311
DEA5B9480AB6229988AAD1F658440FC1252F21A09C6F12E3A4301800B64A28C2348252A0C8CD885F5BF0B80A8AE389C43D90F7B74FE2C603C818589353386B720767F92C4D77264AA411210C34C83D4CA216293A05E1582B1145DDD5D7AE073BFD26917CE15A99BC26B97CA0F9A4BC6C542347D6E090B3103DD22BA6789A81
311
7231CF464B11117273365E3C9C256DE36A51BC1AC17B7477AB7EB1C0B0F38CB3A827280EE9414450943FB75D5FB5CBAA6B3FBA7EBD5CADFB97A776B9EE5BD6643B67A373A65CC218F06E26D2D9083652DEB1268F1FE12B3EA2B447D6CE9FFE00120194D60B9D5BC67FE6D39CDF37E2F2F817F01F504B030414000608080012
311
6FAA42ACFAF6B9A405000080100000340000006662782F46303731353237432D314345352D343033362D383545362D4331303741353838394534452F6F626A656374732E786D6CAD57DB6EDB3810FD1541FBB2FBE08B6C274D168A0A5F9AC228D216355AEC8301839228851BEA02924A9DFDFA3D14295972EDD4BBE88B6551
311
C3E1CC993317FA6FF719779EA990ACC8EF5C6F38761D9A4745CCF2F4CEAD5432B8719DB7812F8A4275C45C272719BD73F5B21BF8A928AAD22EC53421155747ABF78BBF1C19D19CBA4EC4899477AE8C1E694686A452454CE5D330268A0CD3643FF48646B0AF3615A47C3C525A124173054BB19E438B638CF2FAAF637714F823
311
FD3DF0F5AF959A9E971AD5FEF4CF67B954248F7E38EC48CDD49BADDE4DAE6E0757B3D97430BB9E7883C5FD6235F0DE4CC7CBEBE5F276FEEE16074B25A0C95A2268E206EF818D60913F329F02BF62B99A4EAC880DD048D067A623E50613C7F34746A6F5CE3A79CAFCA8C8731AD558018DDA3FAB3AA625CD63C49C5109CB3A08
311
8DFBAF9EC6B1F379AADFED91DDE5CB10E8EEE8286A6C6F9E5D4B8BF06FB8202F6190905433D060691D355C1D1F100E8B82DB6F4C3A19515430C21DCE4241C48B1B40548B047E4F8D66B2D0D9A03D700344C17CEED30569F4739E9FB232A938D73476833A0B76C815AA646D19FB878A83F55D64601362A5D970631D522F2575
311
835B43919B233619209D84931421879B7AE77472E4E852E7E97AE5061FEEC3FD46E7EEE9C34B519454284D1F50AB095CF3D428599BBC8B22A737B847A61C40F902E43F22D50FA6206E82ED67FB993D450992CBA4101962E38C9DC1183F63C7AB7FF5FFCE3F7FD46EEE47EF1C9E08B686EA17E0D9F7A11BCB0E9C81FF0CC217
311
626A5DDB4484A36C3CB01C00699238BCC012EA7012EEDD608D2A87AA8C5D84071E5C86B9CFF8EB8FAC1A148AFAA4CE3307964765F182020DD86A46C20C437E6BE0214E3F94B3FA602B760EDEAB5F42D7F96AF36153898444F4C1E6F48A262C670A2DEEC09BAE413DCC7B1E3DD197EF8588E1E88F786FBA7867F62809B435E6
311
1AF8B4A9E9FAE57072EF8008FBD242971BFF2727C009DD583BFA1F988C28E724A745D59CFB6AFF40DB3010EB64D74C6E1BCCA1B18034E6CB510EA2494782951AC4B65BB5457378C6BBAFEB8F6024E47911127E100A0FA5372A782176E1CBCE54A593487FEB53DB4230D25AC0F63A479AF4B798EF62962495440D3C01EBB7F5
311
B21B3A5D1550211AAD265966701FB94584E56CA317CD5A1034D222DF31B44DA4DDC903BAFA81A82540ADF09CC592F264C738AFB25DC2389AD12E23E51938FEBFFD6195953B921555AECEE8EE998EE6D0B7BD475EF99DA8E8D10D36F573B040E98D697C08734F58B7921358F5427BB55ABCB95F2DE783D5FD1B0FE3D3F57230
311
9FCDAF060B6F3C595C4F97D7EFA6D74D9C8CF2C06F3A4D37A111257436BF12CC86EFEB1AE9636B801B3C1025B7EF4D7636CFAFEB2146617F843D6897EDC679FC8CB18FC63F5770903CA9689D959C66345744A7D083FEC3BF108C193D63CCFA3A2329BD40CBA7F79B2367B072C1BECF3ADDE9F7A3BD7675A913F2A412F55865
311
614E183FDA981A2487659E5AFC9A98B44FD3679A57FD660383C154169CC52883B193D222A30AC5F0821E24322A41BDEE481FDBABC705BB9FCD80A848C86963C923C18CCC25D202D4AA22D55F777EC34CA7C7AA3B17DD76F8841F5B295C079CB97331A32B1651390CD19FF524542B0797BA833CE67E92A71CA3B6D9D4BEB7BB
311
3436BD8EDC8A5C323E59BF4C05B70EA08C94181B300F213AB531815FDB66BF47FFC9F1C61C8728FC0D2BD5FA7258689DA98F418A1AA7EC650133CC933D7A8F447DDD2D6F58CBF410B9E892F52A098CD6812222AD2F0ADA3E6BD27CF5798401C5597F724A5EA588E5E59A068282CC954E70B008ACB03A4BA240D5E59FDBCFA2
311
C0453673EE1928E0FCBEBFB9FE63BB2CB2ACC8CDD2766EAFC3CEE61197DB788BE240F5AD446E27636FB2AD6F03F682B20B89A44312CB272C20B282B540F7C20F5E9A2B23FA90F9D0CA8D74288E18BA5E39B6B1CDA0D4D2A55B5B3538983B72EA2087F48D52674C57A07CF54230AA456182C0281FFC0B504B03041400060800
311
00126FAA42000000000000000000000000350000006662782F46303731353237432D314345352D343033362D383545362D4331303741353838394534452F76657274696365732E62696E504B0304140006080800126FAA42F270F1330600000004000000360000006662782F46303731353237432D314345352D343033362D
311
383545362D4331303741353838394534452F747269616E676C65732E62696E636660600000504B0304140006080000126FAA42000000000000000000000000370000006662782F46303731353237432D314345352D343033362D383545362D4331303741353838394534452F617474726962757465732E62696E504B030414
311
0006080800126FAA42D5987DFC8F00000041010000360000006662782F46303731353237432D314345352D343033362D383545362D4331303741353838394534452F6469726563746F72792E786D6C858F410EC2201045AF4266AF15DDB800BA74E7C21B903225242D6328188F2FA5C4183471359997F9FF81E89FF3C41E18
311
16475E02DF1F80A11FC8386F25A438EECEC07A250251FC3803E6F58C12560C4AD840E95E91C151A72936F496F35732D860FE635F62C8F2DA16B505C545B74125BAA2FA9E05D7CC053D063734D5C7665FD55B6B8D15D5E9BFEAFD8490FFA45E504B0304140006080800126FAA42438F1165FE000000A00100003B0000006662
311
782F46303731353237432D314345352D343033362D383545362D4331303741353838394534452F7265736F75726365732F636F72652E786D6C8D504B6AC33010BD8A996D912D5976128CACE084E604BD8090278E482C197D4A8F5F3971A1DD753333BC0FF378E2F8353F8A4FF4C138DB032B291468B51B8D9D7A48F14A0E50
311
1CA5F0CEC55F3228AC9AB18715062926EFD2B241DAD9883666D4BA1137508580110AFDC8470F41DF7056A54A312BC2BD5C94BEAB094B56663AEBA408D1E700C5EBC93A417A0C2E798D41542F568A94CCB869CC987F9AAB410FF274A0C36ECFDF09A7ED9E346DC3C9703E513234E7CBA1B95C18E5B5A856B314D1CC3F19B547
311
1571045953C6096D09A31F8C77EDAEE3FB37DA769C8A6A95FF31A565FCA729191B79BDC57DD9024896833C0929AAB5AFBC9E65E6BD762BBF01504B010214000A0000080000126FAA423DEE336E79000000790000001B00000000000000000000000000000000006175746F6465736B2D64657369676E2D7061636B6167652E
311
786D6C504B01021400140006080800126FAA42D486FD9CA0000000F40000001300000000000000000000000000B20000005B436F6E74656E745F54797065735D2E786D6C504B01021400140006080800126FAA422B654C54EA0000007C010000080000000000000000000000000083010000636F72652E786D6C504B010214
311
00140006080800126FAA4255019EA25F0000007C000000070000000000000000000000000093020000636E782E786D6C504B01021400140006080800126FAA42EE684F2D66010000020300000C00000000000000000000000000170300006662782F636F72652E786D6C504B01021400140006080800126FAA42D27CA0AB7D
311
0000009D0000000B00000000000000000000000000A70400006662782F636E782E786D6C504B01021400140006080800126FAA42FD8E70002C0100001502000031000000000000000000000000004D0500006662782F46303731353237432D314345352D343033362D383545362D4331303741353838394534452F636F7265
311
2E786D6C504B01021400140006080800126FAA422A8CE6BF4E010000330300003000000000000000000000000000C80600006662782F46303731353237432D314345352D343033362D383545362D4331303741353838394534452F636E782E786D6C504B01021400140006080800126FAA42ACFAF6B9A40500008010000034
311
00000000000000000000000000640800006662782F46303731353237432D314345352D343033362D383545362D4331303741353838394534452F6F626A656374732E786D6C504B01021400140006080000126FAA4200000000000000000000000035000000000000000000000000005A0E00006662782F4630373135323743
311
2D314345352D343033362D383545362D4331303741353838394534452F76657274696365732E62696E504B01021400140006080800126FAA42F270F13306000000040000003600000000000000000000000000AD0E00006662782F46303731353237432D314345352D343033362D383545362D433130374135383839453445
311
2F747269616E676C65732E62696E504B01021400140006080000126FAA420000000000000000000000003700000000000000000000000000070F00006662782F46303731353237432D314345352D343033362D383545362D4331303741353838394534452F617474726962757465732E62696E504B01021400140006080800
311
126FAA42D5987DFC8F0000004101000036000000000000000000000000005C0F00006662782F46303731353237432D314345352D343033362D383545362D4331303741353838394534452F6469726563746F72792E786D6C504B01021400140006080800126FAA42438F1165FE000000A00100003B00000000000000000000
311
0000003F1000006662782F46303731353237432D314345352D343033362D383545362D4331303741353838394534452F7265736F75726365732F636F72652E786D6C504B0506000000000E000E0080040000961100000000
310
504B03040A0000080000126FAA423DEE336E79000000790000001B0000006175746F6465736B2D64657369676E2D7061636B6167652E786D6C3C3F786D6C2076657273696F6E3D22312E302220656E636F64696E673D227574662D3822203F3E3C666F726D6174733E3C666F726D61743E687474703A2F2F736368656D612E
310
6175746F6465736B2E636F6D2F64657369676E2D7061636B6167652F323030393C2F666F726D61743E3C2F666F726D6174733E504B0304140006080800126FAA42D486FD9CA0000000F4000000130000005B436F6E74656E745F54797065735D2E786D6C7D8EC10E82300C865F65E91D8A1E8C310C0EEA1BF002731658846E
310
D98AC1B77784ABF1D8FE5FBFBF75BBCE937A534CCEB38643598122B6FEE978D0B0485F9C41B54DDD7D022595594E1A469170414C76A4D9A4D207E29CF43ECE46F218070CC6BECC4078ACAA135ACF422C856C0E68EA1BF5669944DDD7BCDE7B1F8E415D77AECB980613C2E4AC91FC167A2B244592486606FC29C8FD7F045B9A
310
EF7053A7E60B504B0304140006080800126FAA42985A18AFEA0000007C01000008000000636F72652E786D6C8D90518E83201445B742F89DA02045AD419A6A6607B30102D421AD6004265D7EB1B5C9CCDF7CBD97CB3DBC9BCB4FF7F9067ECC1AAC773D240586C038E5B575530F53BCA0168293E0ABF7F1970D022767D3C34D
310
86824FAB4FCB2E29EFA27131ABCE6BB38B3204132150B7BCF430A86F33CB42A6981DE15A2C525DE5640AF2DE329C92D5E075C4EAFC9FBD58B342413E8FD578660CB5840DE830560C1D075AA3A1A9715B9DDB661C0FBCDC60C1A39DDFF7D56A64341A8A0A138A3043047F11DAB1BAA3CD07661DC5BCDCEC7FA0B4E87F42C9BA
310
48AB3DEE0B0B396B0EF27C10BCDCBAC8E359549E5B6FE201504B0304140006080800126FAA4255019EA25F0000007C00000007000000636E782E786D6C4DCB3B0E80201045D1AD90E915ED2CF8AC45050C11660C8261F98AB1B07AC9C97D42D718D865D3E909258CFD00CCE24AC6E326A164D74DC0B4128928FF326038472B
310
A13128B1252AC747C6BAB984FC68F0B87FE8960A5C09FE86CFB69FBA01504B0304140006080800126FAA42BA6E2DD167010000020300000C0000006662782F636F72652E786D6C8D525B6E833010BC8AE5DF0ACC232424328E12D41BF4028E71280AD8C80F94E37779443455145548C69AD9D99D1DA0C77BD7A2411ADB6855
310
E0388C30924AE8AA517581BDBB06394647468DD6EE5719468A77B2C0238C19AD8DF6FD0209AD9C540E50A52BB980DC5AE930122D5C0A6CC5B7EC78C8BD830A7B0B7B2E6EBC96611C020D758C5A67C0009A878C2766D7CB9D921967D4FBA65AD8A68269CDB59106B3F8739F94A72C0BF2383B079B32C982FD39DD06E7DD36CA
310
9353BE2BCB0D25A39851D7740F77C248EE64855912C5691065411C7DC5E921DB1ED2DD47941DD28892B1FC49E4FBEA9F22DF2897268BDD5966C12B1899883FDB42440E593E801FC228194384D794F073D0100884ECF8A57DEC71036890C269B301A6D27EA506DE7A095323343D94CC2C749E1AC0662FFB246FFABCEF011F90
310
AB1AAC7107D78B77E3743A4F5DA2E8A5090677474A9B8EB7ABB9D9E27AAE835ECA856EB5F98F9A2CAB92254C32FEBDEC07504B0304140006080800126FAA42E0BF521C7E0000009D0000000B0000006662782F636E782E786D6C4DCCD10A83201886E15B91FFDC5568EA811ACECDFB8865212B8DA66397BF1A1DECE883878F
310
57769F65466FBFBD428A0A9A4B0DC8C7471A429C14943C6201A8D3724B29FFDD00C57EF10A0E062DA72D95F5A4C18F7D99F3AE7388CF132DB38699C6E1BBE004D3DA712CAEB4C5B79653C309239638A8B4AC7EA57D8FB0FE02504B0304140006080800126FAA42CD7DC7412B01000014020000310000006662782F43364341
310
364131462D453837332D343046372D384234352D4435373441373336334333462F636F72652E786D6C8D515B6EC32010BC0AE22B55850DC18F28C24469DA9CA01720405294182C1E558E5FA81DA9FDCB0F8B66676647BB6C771F6FE05BFB609C1D20A93004DA4AA78CBD0C30C533DA40B0E3CC3B17FFD020B062D4032C30E4
310
ECE25D9A16483A1BB58D19B54EE9051421E80881BCE5CF0083FCD2A3A8448A9911AED524E4555C7445AADCCE3CCE42F4390098879417F24377D8777B72441F9B9EA2061F7BB4796B5AF4DEF6CDBEA71D3DD023AB6721672919B5C88DCA71CCD968FFAC49117316CDF8882FBD16512BC8D79850845B44F027A1DBB6DBD2FE15
310
B75B8A595DE8FF4469524F8A92B191AE97B8B32C404E583D3738532E9D6E8F30FA3E391F4199B70A5ABE408E2BDCB76B4C1BCAEA999A17903DBB66F10CD1F9BCE0D5F594D97431EE1ACEEA72A35C7E0F986BB927FF01504B0304140006080800126FAA424C2B29A85601000033030000300000006662782F43364341364131
310
462D453837332D343046372D384234352D4435373441373336334333462F636E782E786D6CBD93CD6EC32010845F0571ADFC17276E146122F5D027E8A1570C9B84068305B86ADEBE4B42D25C72A854F582ACD96166F509B3EDD768C827F8A09DED6953D69480954E69BBEFE91C77C59A922D67DEB97867A3C48A117A9A64CA
310
D9DEBB79CA92829D984D44D5687BCCA287E0662F21A09C6E12E3A4301800B69851847100A540919B11BF76E07115148713890720AF2FEFC40D1F206360554AE1AC4A1D9CA53337DD9928914684D0D3200F308A52CCD12908C7528928CAA6BC763DD8E92789A40BD7CAD96B92CA7B9A4ECAF346257264150E390BD123BD6C8A
310
A7092817D364B41411215767E3C5C3D9AC6DEC96D9AB11BC4777BBE8D66B0C3BCF388B7A84EC901E440445F9A26EDAA25E154DFDD6B49B55B7699F9FEAD5A6AD5995EC9C0DCE997C0963C0BB89486723D84879C3AA347E842FFB88D21E593B7FFA054804905B2F746E197FC9A7E9DAE5F21FF954E7F78DB83CFE05FC1B504B
310
0304140006080800126FAA42EC6CDE1562070000991B0000340000006662782F43364341364131462D453837332D343046372D384234352D4435373441373336334333462F6F626A656374732E786D6CED59DD739B3810FF5718EEE5EEC1D8C44E9ADC106E12BBE9783A693BF5B5730F9E616490892E423092489CFBEB6FF5
310
010662127CCDBDF5C10684B4DAFDEDA796E08F5D469D07CC05C9D9A5EB7B13D7C12CCE13C2D24BB794DBD1B9EBFC11063CCF65639AEB3094E14B570DBB6190F2BC2CEC5082B7A8A4B2337A73FD972362CCB0EBC4140971E98AF80E67C843A5CC132CEEBD0449E4A5DB9DE77B66629B6CCA5171D7215A208E99044E619C0115
310
C730E5B71F27EE380CC6EA7D18A87F3B6B3A68D6AC7FD6584BDDE6923021118B9FB1D421331DC4D2D49F2DDE9F9C5E8C4E67B3E9687676E28FAE6FAE1723FFDD74323F9BCF2FAEDE5F007B9B3CA756A604179825A0BF2737F483B17A538B6E1138C4759C3386630D2440A5C5EA122458C0560DF826ED475F49D478AD256C3C
310
CFD47BCB426378DAA6D2376B18102DBA2088DDAE92B8BA36E5CB377F83E0628851728125702B2407ED5A783878851B4E82B1190D83CD5E17443819929813441D4A361C71500A4C5553C2C02CB06494737020E52809B4E6CCEBB66D8167BEEE3A87B8DC96942ACF7043ED5811B81F96427346FEC17CCF7D1319E009A42D0993
310
E7964BF9546037BC08C67A300CD4657A625F1A209D2D45A9D08898B71D41E7CAF5970B37FC78B3D9AD543838BC79C1F30273A98C4EE951F305866CAF0A25BBAD3F48736A01086340B52BF7A07C05E43F41F4D8B3027AE36437DBCDEC5CC91113DB9C67A01B67E28C26F037717CFDAFEE1B77C1B85EDCD65E1F9EE0A60AAAF3
310
1FC7B32D83C6CAF2DF80330C1EC0E0733EB5AF5631A260CFB7840140CA481C9AC31084F6ED66E7864B089C10E86115A2A10F2203BB0F701B8C2D99BD562AF7B25EC70051BBC774889200366D91C0468F9E3E40F6E024DEABA929621FBCA76F62AE578BD5C755C9B728C6B7D6A717784B189190350F33D4C2BC25D13D7E7ACC
310
7902823EC77BD5C43BB35B09405B61AE804F2B10D4C37EE7D60631AC4B73156E825776002154AE6ED0BF2522C6942286F3B2DAB78E6ECA506B8FB735831B9E1888A7271D13E6F881A8AA029C663FA3C528E4FD98934281E8861F8C6475D0F47AA4FBB6FC041659CFEF99B564107A19A27FEAA0750087966557485B206A8137
310
FB701EE734E7D1E6293291CE855A02D8687BCBF7165188F546498A0A7890F6BB2AA4A446DA2821DB6D2920AE1E60F1FB72DE34878937F54F9DE67FC71967106DC17711B77ED7D92322194A71B44549DF76CDDD6ADA4293EC21CDF196825CE481C8A708C96892E0F418688E227EF1A6D4539A0B41181690AF0E82DF4463E241
310
2031DAAC58565AED004D44946189E8310828323DE0EAB4A36BDC184A87D779ACADF7258D3589FE4F16C111D492398B0894A290435E65DCF74E2186B4D1352877F0056BAB686B3168092544FC143D6292DEC9635037E47B708FE14852CA282F500C663D80EC335F514AEDF0BE41F1BDCA1F515CD2B7321081E9362294965904
310
3FC2E0E431C4B5EBC0F4220A0DE226F6499C41518664C9876C72763A79B68FA919BA21B0B1D1965008DB51868A1ED45B0151D7234E0DBEA5DEA3D44D991511CAF2920D32146FDAF5264BBEAB56457620BFAA5484B2B1226C09860161B2CEAA55CC0653D78115DC4807AAA748A0ACA0E614F64AE2F16B6FD2947B37E0D64FDF
310
76830C0ABF1EED3523EAAC82C1F2D82A0CC42392F19D1BAEF475740DF57782937DAAAF6ACD66050888A9485E726255F46D09E58DADD1DCF01649B1FE60B26E75FDB6F4A0FB118C610DD42EF5C2A5023AC34C225599DCAA1BFA1541086ED130E34B95538FA1729524BA6A44F486F4A9B35546B436CD8857DC619667F0636BC2
310
625A26788D12711FDD4A1AAD8862DD4AE965A4C2F845013F7F5875E0819101227D51051E7EECACB5A373552E1D2422EFCA6CC3108120D8122D35BAF10A965A8D545AAEAFEA4C017517189855F1ECE7C9A2D98EF879B248AD61FCD8C982E61B44F7D1A691CD6365D6479D02EAF4A4A8BCC52940771D6AAA751231B9DC8A6F7D
310
2982985805F9C1C55815330CC13E8EFF73D2EE4B8266BB0EFFC7256DFF59C1715452694D564DAA0385EBB299C24E17D7EF6E16F3ABD1E2E69D0FFDD9B3F9E86A76753ABAF62727D767D3F9D9FBE9598DA6F6D330A863994E5DF06C625A35AC9E2C06D094153925091CE61327C510F2251CE90774CF798605E4CE66AF3BB13D
310
F901AB1F4C9B53A20DC515277708FAC3544056078CCA58B6C79D5FA03329E19C7DE942CFC8BB873F6B95AE0389E7D2854E81243116DE06BA4CAA9FA78943C6D5A9DF12037C104B5546348BEAE77A95C2A615FDEB2943B28095ABD5C280BAAD80E657AB41A179B33CC547095EB1E32009B79B5242B16664D90FD4C2E86DF6EA
310
37B251C2EEEDD63B70DD97C5F23D3DA785C8A02F062F1A81A13A9288A7BADDAD18B32C5D2DBE8CA1CDE62C3F3B052D53D0E5704A238EC1984B554F81158155589A059260AAF3DFD75F780E5F7832471745CEAFBBF3B3DFD6F33CCB726686D65770284BE03B91B3BA83AF3EC91A6A07AC7AEB627D32F14FD6BAA76DDBECD106
310
09ECA9A20806AA5A4209D23139B0CB67FD29DBBD1C2B5574A62F178E0DA2D00B3076F4ACC56BBE7139E043EA6B8AF218EDE795B42FB6B5C77A2AD804878674F82F504B0304140006080000126FAA42000000000000000000000000350000006662782F43364341364131462D453837332D343046372D384234352D44353734
310
41373336334333462F76657274696365732E62696E504B0304140006080800126FAA42F270F1330600000004000000360000006662782F43364341364131462D453837332D343046372D384234352D4435373441373336334333462F747269616E676C65732E62696E636660600000504B0304140006080000126FAA420000
310
00000000000000000000370000006662782F43364341364131462D453837332D343046372D384234352D4435373441373336334333462F617474726962757465732E62696E504B0304140006080800126FAA42D5987DFC8F00000041010000360000006662782F43364341364131462D453837332D343046372D384234352D
310
4435373441373336334333462F6469726563746F72792E786D6C858F410EC2201045AF4266AF15DDB800BA74E7C21B903225242D6328188F2FA5C4183471359997F9FF81E89FF3C41E1816475E02DF1F80A11FC8386F25A438EECEC07A250251FC3803E6F58C12560C4AD840E95E91C151A72936F496F35732D860FE635F62
310
C8F2DA16B505C545B74125BAA2FA9E05D7CC053D063734D5C7665FD55B6B8D15D5E9BFEAFD8490FFA45E504B0304140006080800126FAA428BF13637FD000000A00100003B0000006662782F43364341364131462D453837332D343046372D384234352D4435373441373336334333462F7265736F75726365732F636F7265
310
2E786D6C8D50596E833010BD0AF26F65B0D942907114506FD00B586642AC041B79A97AFCDA814AED5F7F66466FD13C3D76F95A9FD92758A78C1E10CD09CA404B332BBD0C28F81BEE5076E1CC1AE37FC950A6C50A034A30E26CB1266C07248DF6A07D44B599E1008573E051269FF11890937758452E828F0AF7C837211F6281
310
9CE6918E3ACE9CB73140B63F4913710BCE042BC1B16267390B41CD8746CDF1A7BA29B088D3F773395D9B1A77B419713D950D3E8F558BC7534BBAF2DA9DA6A966453273E6D5FA93515A101E66C44B422B4C1A4CC907ADFAA6EDABD31B69FA8AB022C9FF98C236FFD31494F65579C4DD6D2E668D415E046745EA2BAE579971A7
310
6EF937504B010214000A0000080000126FAA423DEE336E79000000790000001B00000000000000000000000000000000006175746F6465736B2D64657369676E2D7061636B6167652E786D6C504B01021400140006080800126FAA42D486FD9CA0000000F40000001300000000000000000000000000B20000005B436F6E74
310
656E745F54797065735D2E786D6C504B01021400140006080800126FAA42985A18AFEA0000007C010000080000000000000000000000000083010000636F72652E786D6C504B01021400140006080800126FAA4255019EA25F0000007C000000070000000000000000000000000093020000636E782E786D6C504B01021400
310
140006080800126FAA42BA6E2DD167010000020300000C00000000000000000000000000170300006662782F636F72652E786D6C504B01021400140006080800126FAA42E0BF521C7E0000009D0000000B00000000000000000000000000A80400006662782F636E782E786D6C504B01021400140006080800126FAA42CD7D
310
C7412B0100001402000031000000000000000000000000004F0500006662782F43364341364131462D453837332D343046372D384234352D4435373441373336334333462F636F72652E786D6C504B01021400140006080800126FAA424C2B29A856010000330300003000000000000000000000000000C90600006662782F
310
43364341364131462D453837332D343046372D384234352D4435373441373336334333462F636E782E786D6C504B01021400140006080800126FAA42EC6CDE1562070000991B000034000000000000000000000000006D0800006662782F43364341364131462D453837332D343046372D384234352D443537344137333633
310
4333462F6F626A656374732E786D6C504B01021400140006080000126FAA420000000000000000000000003500000000000000000000000000211000006662782F43364341364131462D453837332D343046372D384234352D4435373441373336334333462F76657274696365732E62696E504B0102140014000608080012
310
6FAA42F270F13306000000040000003600000000000000000000000000741000006662782F43364341364131462D453837332D343046372D384234352D4435373441373336334333462F747269616E676C65732E62696E504B01021400140006080000126FAA42000000000000000000000000370000000000000000000000
310
0000CE1000006662782F43364341364131462D453837332D343046372D384234352D4435373441373336334333462F617474726962757465732E62696E504B01021400140006080800126FAA42D5987DFC8F000000410100003600000000000000000000000000231100006662782F43364341364131462D453837332D3430
310
46372D384234352D4435373441373336334333462F6469726563746F72792E786D6C504B01021400140006080800126FAA428BF13637FD000000A00100003B00000000000000000000000000061200006662782F43364341364131462D453837332D343046372D384234352D4435373441373336334333462F7265736F7572
310
6365732F636F72652E786D6C504B0506000000000E000E00800400005C1300000000
  0
XRECORD
  5
27
102
{ACAD_REACTORS
330
22
102
}
330
22
100
AcDbXrecord
280
     1
270
     1
271
     1
  0
XRECORD
  5
26
102
{ACAD_REACTORS
330
22
102
}
330
22
100
AcDbXrecord
280
     1
270
     1
271
     1
  0
XRECORD
  5
28
102
{ACAD_REACTORS
330
22
102
}
330
22
100
AcDbXrecord
280
     1
270
     1
271
     1
  0
XRECORD
  5
25
102
{ACAD_REACTORS
330
22
102
}
330
22
100
AcDbXrecord
280
     1
270
     1
271
     1
  0
XRECORD
  5
1553
102
{ACAD_REACTORS
330
1552
102
}
330
1552
100
AcDbXrecord
280
     1
102
ACAD_ROUNDTRIP_2012_MLEADER_STYLE
298
     1
  0
CELLSTYLEMAP
  5
1551
102
{ACAD_REACTORS
330
1550
102
}
330
1550
100
AcDbCellStyleMap
 90
        3
300
CELLSTYLE
  1
TABLEFORMAT_BEGIN
 90
        5
170
     1
 91
        0
 92
    32768
 62
   257
 93
        1
300
CONTENTFORMAT
  1
CONTENTFORMAT_BEGIN
 90
        0
 91
        0
 92
      512
 93
        0
300

 40
0.0
140
1.0
 94
        5
 62
     0
340
55
144
0.25
309
CONTENTFORMAT_END
171
     0
 94
        0
309
TABLEFORMAT_END
  1
CELLSTYLE_BEGIN
 90
        1
 91
        1
300
_TITLE
309
CELLSTYLE_END
300
CELLSTYLE
  1
TABLEFORMAT_BEGIN
 90
        5
170
     1
 91
        0
 92
        0
 62
   257
 93
        1
300
CONTENTFORMAT
  1
CONTENTFORMAT_BEGIN
 90
        0
 91
        0
 92
      512
 93
        0
300

 40
0.0
140
1.0
 94
        5
 62
     0
340
55
144
0.18
309
CONTENTFORMAT_END
171
     0
 94
        0
309
TABLEFORMAT_END
  1
CELLSTYLE_BEGIN
 90
        2
 91
        1
300
_HEADER
309
CELLSTYLE_END
300
CELLSTYLE
  1
TABLEFORMAT_BEGIN
 90
        5
170
     1
 91
        0
 92
        0
 62
   257
 93
        1
300
CONTENTFORMAT
  1
CONTENTFORMAT_BEGIN
 90
        0
 91
        0
 92
      512
 93
        0
300

 40
0.0
140
1.0
 94
        2
 62
     0
340
55
144
0.18
309
CONTENTFORMAT_END
171
     0
 94
        0
309
TABLEFORMAT_END
  1
CELLSTYLE_BEGIN
 90
        3
 91
        2
300
_DATA
309
CELLSTYLE_END
  0
XRECORD
  5
158A
102
{ACAD_REACTORS
330
1550
102
}
330
1550
100
AcDbXrecord
280
     1
102
ACAD_ROUNDTRIP_PRE2007_TABLESTYLE
 90
      512
 91
        0
  1

 92
      512
 93
        0
  2

 94
      512
 95
        0
  3

  0
XRECORD
  5
1565
102
{ACAD_REACTORS
330
1564
102
}
330
1564
100
AcDbXrecord
280
     1
102
RTVSPropertyOp0
 70
     1
102
RTVSPropertyOp1
 70
     1
102
RTVSPropertyOp2
 70
     1
102
RTVSPropertyOp3
 70
     1
102
RTVSPropertyOp4
 70
     1
102
RTVSPropertyOp5
 70
     1
102
RTVSPropertyOp6
 70
     1
102
RTVSPropertyOp7
 70
     1
102
RTVSPropertyOp8
 70
     1
102
RTVSPropertyOp9
 70
     1
102
RTVSPropertyOp10
 70
     1
102
RTVSPropertyOp11
 70
     1
102
RTVSPropertyOp12
 70
     1
102
RTVSPropertyOp13
 70
     1
102
RTVSPropertyOp14
 70
     1
102
RTVSPropertyOp15
 70
     1
102
RTVSPropertyOp16
 70
     1
102
RTVSPropertyOp17
 70
     1
102
RTVSPropertyOp18
 70
     1
102
RTVSPropertyOp19
 70
     1
102
RTVSPropertyOp20
 70
     1
102
RTVSPropertyOp21
 70
     1
102
RTVSPropertyOp22
 70
     1
102
RTVSPropertyOp23
 70
     1
102
RTVSPropertyOp24
 70
     1
102
RTVSPropertyOp25
 70
     1
102
RTVSPropertyOp26
 70
     1
102
RTVSPropertyOp27
 70
     1
102
RTVSPropertyOp28
 70
     1
102
RTVSPropertyOp29
 70
     1
102
RTVSPropertyOp30
 70
     1
102
RTVSPropertyOp31
 70
     1
102
RTVSPropertyOp32
 70
     1
  0
XRECORD
  5
1563
102
{ACAD_REACTORS
330
1562
102
}
330
1562
100
AcDbXrecord
280
     1
102
RTVSPropertyOp0
 70
     1
102
RTVSPropertyOp1
 70
     1
102
RTVSPropertyOp2
 70
     1
102
RTVSPropertyOp3
 70
     1
102
RTVSPropertyOp4
 70
     1
102
RTVSPropertyOp5
 70
     1
102
RTVSPropertyOp6
 70
     1
102
RTVSPropertyOp7
 70
     1
102
RTVSPropertyOp8
 70
     1
102
RTVSPropertyOp9
 70
     1
102
RTVSPropertyOp10
 70
     1
102
RTVSPropertyOp11
 70
     1
102
RTVSPropertyOp12
 70
     1
102
RTVSPropertyOp13
 70
     1
102
RTVSPropertyOp14
 70
     1
102
RTVSPropertyOp15
 70
     1
102
RTVSPropertyOp16
 70
     1
102
RTVSPropertyOp17
 70
     1
102
RTVSPropertyOp18
 70
     1
102
RTVSPropertyOp19
 70
     1
102
RTVSPropertyOp20
 70
     1
102
RTVSPropertyOp21
 70
     1
102
RTVSPropertyOp22
 70
     1
102
RTVSPropertyOp23
 70
     1
102
RTVSPropertyOp24
 70
     1
102
RTVSPropertyOp25
 70
     1
102
RTVSPropertyOp26
 70
     1
102
RTVSPropertyOp27
 70
     1
102
RTVSPropertyOp28
 70
     1
102
RTVSPropertyOp29
 70
     1
102
RTVSPropertyOp30
 70
     1
102
RTVSPropertyOp31
 70
     1
102
RTVSPropertyOp32
 70
     1
  0
XRECORD
  5
1571
102
{ACAD_REACTORS
330
1570
102
}
330
1570
100
AcDbXrecord
280
     1
102
RTVSPropertyOp0
 70
     1
102
RTVSPropertyOp1
 70
     1
102
RTVSPropertyOp2
 70
     1
102
RTVSPropertyOp3
 70
     1
102
RTVSPropertyOp4
 70
     1
102
RTVSPropertyOp5
 70
     1
102
RTVSPropertyOp6
 70
     1
102
RTVSPropertyOp7
 70
     1
102
RTVSPropertyOp8
 70
     1
102
RTVSPropertyOp9
 70
     1
102
RTVSPropertyOp10
 70
     1
102
RTVSPropertyOp11
 70
     1
102
RTVSPropertyOp12
 70
     1
102
RTVSPropertyOp13
 70
     1
102
RTVSPropertyOp14
 70
     1
102
RTVSPropertyOp15
 70
     1
102
RTVSPropertyOp16
 70
     1
102
RTVSPropertyOp17
 70
     1
102
RTVSPropertyOp18
 70
     1
102
RTVSPropertyOp19
 70
     1
102
RTVSPropertyOp20
 70
     1
102
RTVSPropertyOp21
 70
     1
102
RTVSPropertyOp22
 70
     1
102
RTVSPropertyOp23
 70
     1
102
RTVSPropertyOp24
 70
     1
102
RTVSPropertyOp25
 70
     1
102
RTVSPropertyOp26
 70
     1
102
RTVSPropertyOp27
 70
     1
102
RTVSPropertyOp28
 70
     1
102
RTVSPropertyOp29
 70
     1
102
RTVSPropertyOp30
 70
     1
102
RTVSPropertyOp31
 70
     1
102
RTVSPropertyOp32
 70
     1
  0
XRECORD
  5
1579
102
{ACAD_REACTORS
330
1578
102
}
330
1578
100
AcDbXrecord
280
     1
102
RTVSPropertyOp0
 70
     1
102
RTVSPropertyOp1
 70
     1
102
RTVSPropertyOp2
 70
     1
102
RTVSPropertyOp3
 70
     1
102
RTVSPropertyOp4
 70
     1
102
RTVSPropertyOp5
 70
     1
102
RTVSPropertyOp6
 70
     1
102
RTVSPropertyOp7
 70
     1
102
RTVSPropertyOp8
 70
     1
102
RTVSPropertyOp9
 70
     1
102
RTVSPropertyOp10
 70
     1
102
RTVSPropertyOp11
 70
     1
102
RTVSPropertyOp12
 70
     1
102
RTVSPropertyOp13
 70
     1
102
RTVSPropertyOp14
 70
     1
102
RTVSPropertyOp15
 70
     1
102
RTVSPropertyOp16
 70
     1
102
RTVSPropertyOp17
 70
     1
102
RTVSPropertyOp18
 70
     1
102
RTVSPropertyOp19
 70
     1
102
RTVSPropertyOp20
 70
     1
102
RTVSPropertyOp21
 70
     1
102
RTVSPropertyOp22
 70
     1
102
RTVSPropertyOp23
 70
     1
102
RTVSPropertyOp24
 70
     1
102
RTVSPropertyOp25
 70
     1
102
RTVSPropertyOp26
 70
     1
102
RTVSPropertyOp27
 70
     1
102
RTVSPropertyOp28
 70
     1
102
RTVSPropertyOp29
 70
     1
102
RTVSPropertyOp30
 70
     1
102
RTVSPropertyOp31
 70
     1
102
RTVSPropertyOp32
 70
     1
  0
XRECORD
  5
156B
102
{ACAD_REACTORS
330
156A
102
}
330
156A
100
AcDbXrecord
280
     1
102
RTVSPropertyOp0
 70
     1
102
RTVSPropertyOp1
 70
     1
102
RTVSPropertyOp2
 70
     1
102
RTVSPropertyOp3
 70
     1
102
RTVSPropertyOp4
 70
     1
102
RTVSPropertyOp5
 70
     1
102
RTVSPropertyOp6
 70
     1
102
RTVSPropertyOp7
 70
     1
102
RTVSPropertyOp8
 70
     1
102
RTVSPropertyOp9
 70
     1
102
RTVSPropertyOp10
 70
     1
102
RTVSPropertyOp11
 70
     1
102
RTVSPropertyOp12
 70
     1
102
RTVSPropertyOp13
 70
     1
102
RTVSPropertyOp14
 70
     1
102
RTVSPropertyOp15
 70
     1
102
RTVSPropertyOp16
 70
     1
102
RTVSPropertyOp17
 70
     1
102
RTVSPropertyOp18
 70
     1
102
RTVSPropertyOp19
 70
     1
102
RTVSPropertyOp20
 70
     1
102
RTVSPropertyOp21
 70
     1
102
RTVSPropertyOp22
 70
     1
102
RTVSPropertyOp23
 70
     1
102
RTVSPropertyOp24
 70
     1
102
RTVSPropertyOp25
 70
     1
102
RTVSPropertyOp26
 70
     1
102
RTVSPropertyOp27
 70
     1
102
RTVSPropertyOp28
 70
     1
102
RTVSPropertyOp29
 70
     1
102
RTVSPropertyOp30
 70
     1
102
RTVSPropertyOp31
 70
     1
102
RTVSPropertyOp32
 70
     1
  0
XRECORD
  5
156F
102
{ACAD_REACTORS
330
156E
102
}
330
156E
100
AcDbXrecord
280
     1
102
RTVSPropertyOp0
 70
     1
102
RTVSPropertyOp1
 70
     1
102
RTVSPropertyOp2
 70
     1
102
RTVSPropertyOp3
 70
     1
102
RTVSPropertyOp4
 70
     1
102
RTVSPropertyOp5
 70
     1
102
RTVSPropertyOp6
 70
     1
102
RTVSPropertyOp7
 70
     1
102
RTVSPropertyOp8
 70
     1
102
RTVSPropertyOp9
 70
     1
102
RTVSPropertyOp10
 70
     1
102
RTVSPropertyOp11
 70
     1
102
RTVSPropertyOp12
 70
     1
102
RTVSPropertyOp13
 70
     1
102
RTVSPropertyOp14
 70
     1
102
RTVSPropertyOp15
 70
     1
102
RTVSPropertyOp16
 70
     1
102
RTVSPropertyOp17
 70
     1
102
RTVSPropertyOp18
 70
     1
102
RTVSPropertyOp19
 70
     1
102
RTVSPropertyOp20
 70
     1
102
RTVSPropertyOp21
 70
     1
102
RTVSPropertyOp22
 70
     1
102
RTVSPropertyOp23
 70
     1
102
RTVSPropertyOp24
 70
     1
102
RTVSPropertyOp25
 70
     1
102
RTVSPropertyOp26
 70
     1
102
RTVSPropertyOp27
 70
     1
102
RTVSPropertyOp28
 70
     1
102
RTVSPropertyOp29
 70
     1
102
RTVSPropertyOp30
 70
     1
102
RTVSPropertyOp31
 70
     1
102
RTVSPropertyOp32
 70
     1
  0
XRECORD
  5
1589
102
{ACAD_REACTORS
330
1588
102
}
330
1588
100
AcDbXrecord
280
     1
102
RTVSPropertyOp0
 70
     0
102
RTVSPropertyOp1
 70
     0
102
RTVSPropertyOp2
 70
     0
102
RTVSPropertyOp3
 70
     0
102
RTVSPropertyOp4
 70
     0
102
RTVSPropertyOp5
 70
     0
102
RTVSPropertyOp6
 70
     0
102
RTVSPropertyOp7
 70
     0
102
RTVSPropertyOp8
 70
     0
102
RTVSPropertyOp9
 70
     0
102
RTVSPropertyOp10
 70
     0
102
RTVSPropertyOp11
 70
     0
102
RTVSPropertyOp12
 70
     0
102
RTVSPropertyOp13
 70
     0
102
RTVSPropertyOp14
 70
     2
102
RTVSPropertyOp15
 70
     0
102
RTVSPropertyOp16
 70
     0
102
RTVSPropertyOp17
 70
     0
102
RTVSPropertyOp18
 70
     0
102
RTVSPropertyOp19
 70
     0
102
RTVSPropertyOp20
 70
     0
102
RTVSPropertyOp21
 70
     0
102
RTVSPropertyOp22
 70
     0
102
RTVSPropertyOp23
 70
     0
102
RTVSPropertyOp24
 70
     0
102
RTVSPropertyOp25
 70
     0
102
RTVSPropertyOp26
 70
     0
102
RTVSPropertyOp27
 70
     0
102
RTVSPropertyOp28
 70
     1
102
RTVSPropertyOp29
 70
     1
102
RTVSPropertyOp30
 70
     1
102
RTVSPropertyOp31
 70
     1
102
RTVSPropertyOp32
 70
     1
  0
XRECORD
  5
1577
102
{ACAD_REACTORS
330
1576
102
}
330
1576
100
AcDbXrecord
280
     1
102
RTVSPropertyOp0
 70
     1
102
RTVSPropertyOp1
 70
     1
102
RTVSPropertyOp2
 70
     1
102
RTVSPropertyOp3
 70
     1
102
RTVSPropertyOp4
 70
     1
102
RTVSPropertyOp5
 70
     1
102
RTVSPropertyOp6
 70
     1
102
RTVSPropertyOp7
 70
     1
102
RTVSPropertyOp8
 70
     1
102
RTVSPropertyOp9
 70
     1
102
RTVSPropertyOp10
 70
     1
102
RTVSPropertyOp11
 70
     1
102
RTVSPropertyOp12
 70
     1
102
RTVSPropertyOp13
 70
     1
102
RTVSPropertyOp14
 70
     1
102
RTVSPropertyOp15
 70
     1
102
RTVSPropertyOp16
 70
     1
102
RTVSPropertyOp17
 70
     1
102
RTVSPropertyOp18
 70
     1
102
RTVSPropertyOp19
 70
     1
102
RTVSPropertyOp20
 70
     1
102
RTVSPropertyOp21
 70
     1
102
RTVSPropertyOp22
 70
     1
102
RTVSPropertyOp23
 70
     1
102
RTVSPropertyOp24
 70
     1
102
RTVSPropertyOp25
 70
     1
102
RTVSPropertyOp26
 70
     1
102
RTVSPropertyOp27
 70
     1
102
RTVSPropertyOp28
 70
     1
102
RTVSPropertyOp29
 70
     1
102
RTVSPropertyOp30
 70
     1
102
RTVSPropertyOp31
 70
     1
102
RTVSPropertyOp32
 70
     1
  0
XRECORD
  5
155B
102
{ACAD_REACTORS
330
155A
102
}
330
155A
100
AcDbXrecord
280
     1
102
RTVSPropertyOp0
 70
     1
102
RTVSPropertyOp1
 70
     1
102
RTVSPropertyOp2
 70
     1
102
RTVSPropertyOp3
 70
     1
102
RTVSPropertyOp4
 70
     1
102
RTVSPropertyOp5
 70
     1
102
RTVSPropertyOp6
 70
     1
102
RTVSPropertyOp7
 70
     1
102
RTVSPropertyOp8
 70
     1
102
RTVSPropertyOp9
 70
     1
102
RTVSPropertyOp10
 70
     1
102
RTVSPropertyOp11
 70
     1
102
RTVSPropertyOp12
 70
     1
102
RTVSPropertyOp13
 70
     1
102
RTVSPropertyOp14
 70
     1
102
RTVSPropertyOp15
 70
     1
102
RTVSPropertyOp16
 70
     1
102
RTVSPropertyOp17
 70
     1
102
RTVSPropertyOp18
 70
     1
102
RTVSPropertyOp19
 70
     1
102
RTVSPropertyOp20
 70
     1
102
RTVSPropertyOp21
 70
     1
102
RTVSPropertyOp22
 70
     1
102
RTVSPropertyOp23
 70
     1
102
RTVSPropertyOp24
 70
     1
102
RTVSPropertyOp25
 70
     1
102
RTVSPropertyOp26
 70
     1
102
RTVSPropertyOp27
 70
     1
102
RTVSPropertyOp28
 70
     1
102
RTVSPropertyOp29
 70
     1
102
RTVSPropertyOp30
 70
     1
102
RTVSPropertyOp31
 70
     1
102
RTVSPropertyOp32
 70
     1
  0
XRECORD
  5
155D
102
{ACAD_REACTORS
330
155C
102
}
330
155C
100
AcDbXrecord
280
     1
102
RTVSPropertyOp0
 70
     1
102
RTVSPropertyOp1
 70
     1
102
RTVSPropertyOp2
 70
     1
102
RTVSPropertyOp3
 70
     1
102
RTVSPropertyOp4
 70
     1
102
RTVSPropertyOp5
 70
     1
102
RTVSPropertyOp6
 70
     1
102
RTVSPropertyOp7
 70
     1
102
RTVSPropertyOp8
 70
     1
102
RTVSPropertyOp9
 70
     1
102
RTVSPropertyOp10
 70
     1
102
RTVSPropertyOp11
 70
     1
102
RTVSPropertyOp12
 70
     1
102
RTVSPropertyOp13
 70
     1
102
RTVSPropertyOp14
 70
     1
102
RTVSPropertyOp15
 70
     1
102
RTVSPropertyOp16
 70
     1
102
RTVSPropertyOp17
 70
     1
102
RTVSPropertyOp18
 70
     1
102
RTVSPropertyOp19
 70
     1
102
RTVSPropertyOp20
 70
     1
102
RTVSPropertyOp21
 70
     1
102
RTVSPropertyOp22
 70
     1
102
RTVSPropertyOp23
 70
     1
102
RTVSPropertyOp24
 70
     1
102
RTVSPropertyOp25
 70
     1
102
RTVSPropertyOp26
 70
     1
102
RTVSPropertyOp27
 70
     1
102
RTVSPropertyOp28
 70
     1
102
RTVSPropertyOp29
 70
     1
102
RTVSPropertyOp30
 70
     1
102
RTVSPropertyOp31
 70
     1
102
RTVSPropertyOp32
 70
     1
  0
XRECORD
  5
155F
102
{ACAD_REACTORS
330
155E
102
}
330
155E
100
AcDbXrecord
280
     1
102
RTVSPropertyOp0
 70
     1
102
RTVSPropertyOp1
 70
     1
102
RTVSPropertyOp2
 70
     1
102
RTVSPropertyOp3
 70
     1
102
RTVSPropertyOp4
 70
     1
102
RTVSPropertyOp5
 70
     1
102
RTVSPropertyOp6
 70
     1
102
RTVSPropertyOp7
 70
     1
102
RTVSPropertyOp8
 70
     1
102
RTVSPropertyOp9
 70
     1
102
RTVSPropertyOp10
 70
     1
102
RTVSPropertyOp11
 70
     1
102
RTVSPropertyOp12
 70
     1
102
RTVSPropertyOp13
 70
     1
102
RTVSPropertyOp14
 70
     1
102
RTVSPropertyOp15
 70
     1
102
RTVSPropertyOp16
 70
     1
102
RTVSPropertyOp17
 70
     1
102
RTVSPropertyOp18
 70
     1
102
RTVSPropertyOp19
 70
     1
102
RTVSPropertyOp20
 70
     1
102
RTVSPropertyOp21
 70
     1
102
RTVSPropertyOp22
 70
     1
102
RTVSPropertyOp23
 70
     1
102
RTVSPropertyOp24
 70
     1
102
RTVSPropertyOp25
 70
     1
102
RTVSPropertyOp26
 70
     1
102
RTVSPropertyOp27
 70
     1
102
RTVSPropertyOp28
 70
     1
102
RTVSPropertyOp29
 70
     1
102
RTVSPropertyOp30
 70
     1
102
RTVSPropertyOp31
 70
     1
102
RTVSPropertyOp32
 70
     1
  0
XRECORD
  5
1561
102
{ACAD_REACTORS
330
1560
102
}
330
1560
100
AcDbXrecord
280
     1
102
RTVSPropertyOp0
 70
     1
102
RTVSPropertyOp1
 70
     1
102
RTVSPropertyOp2
 70
     1
102
RTVSPropertyOp3
 70
     1
102
RTVSPropertyOp4
 70
     1
102
RTVSPropertyOp5
 70
     1
102
RTVSPropertyOp6
 70
     1
102
RTVSPropertyOp7
 70
     1
102
RTVSPropertyOp8
 70
     1
102
RTVSPropertyOp9
 70
     1
102
RTVSPropertyOp10
 70
     1
102
RTVSPropertyOp11
 70
     1
102
RTVSPropertyOp12
 70
     1
102
RTVSPropertyOp13
 70
     1
102
RTVSPropertyOp14
 70
     1
102
RTVSPropertyOp15
 70
     1
102
RTVSPropertyOp16
 70
     1
102
RTVSPropertyOp17
 70
     1
102
RTVSPropertyOp18
 70
     1
102
RTVSPropertyOp19
 70
     1
102
RTVSPropertyOp20
 70
     1
102
RTVSPropertyOp21
 70
     1
102
RTVSPropertyOp22
 70
     1
102
RTVSPropertyOp23
 70
     1
102
RTVSPropertyOp24
 70
     1
102
RTVSPropertyOp25
 70
     1
102
RTVSPropertyOp26
 70
     1
102
RTVSPropertyOp27
 70
     1
102
RTVSPropertyOp28
 70
     1
102
RTVSPropertyOp29
 70
     1
102
RTVSPropertyOp30
 70
     1
102
RTVSPropertyOp31
 70
     1
102
RTVSPropertyOp32
 70
     1
  0
XRECORD
  5
1569
102
{ACAD_REACTORS
330
1568
102
}
330
1568
100
AcDbXrecord
280
     1
102
RTVSPropertyOp0
 70
     1
102
RTVSPropertyOp1
 70
     1
102
RTVSPropertyOp2
 70
     1
102
RTVSPropertyOp3
 70
     1
102
RTVSPropertyOp4
 70
     1
102
RTVSPropertyOp5
 70
     1
102
RTVSPropertyOp6
 70
     1
102
RTVSPropertyOp7
 70
     1
102
RTVSPropertyOp8
 70
     1
102
RTVSPropertyOp9
 70
     1
102
RTVSPropertyOp10
 70
     1
102
RTVSPropertyOp11
 70
     1
102
RTVSPropertyOp12
 70
     1
102
RTVSPropertyOp13
 70
     1
102
RTVSPropertyOp14
 70
     1
102
RTVSPropertyOp15
 70
     1
102
RTVSPropertyOp16
 70
     1
102
RTVSPropertyOp17
 70
     1
102
RTVSPropertyOp18
 70
     1
102
RTVSPropertyOp19
 70
     1
102
RTVSPropertyOp20
 70
     1
102
RTVSPropertyOp21
 70
     1
102
RTVSPropertyOp22
 70
     1
102
RTVSPropertyOp23
 70
     1
102
RTVSPropertyOp24
 70
     1
102
RTVSPropertyOp25
 70
     1
102
RTVSPropertyOp26
 70
     1
102
RTVSPropertyOp27
 70
     1
102
RTVSPropertyOp28
 70
     1
102
RTVSPropertyOp29
 70
     1
102
RTVSPropertyOp30
 70
     1
102
RTVSPropertyOp31
 70
     1
102
RTVSPropertyOp32
 70
     1
  0
XRECORD
  5
1585
102
{ACAD_REACTORS
330
1584
102
}
330
1584
100
AcDbXrecord
280
     1
102
RTVSPropertyOp0
 70
     0
102
RTVSPropertyOp1
 70
     0
102
RTVSPropertyOp2
 70
     0
102
RTVSPropertyOp3
 70
     0
102
RTVSPropertyOp4
 70
     0
102
RTVSPropertyOp5
 70
     0
102
RTVSPropertyOp6
 70
     0
102
RTVSPropertyOp7
 70
     0
102
RTVSPropertyOp8
 70
     0
102
RTVSPropertyOp9
 70
     0
102
RTVSPropertyOp10
 70
     0
102
RTVSPropertyOp11
 70
     0
102
RTVSPropertyOp12
 70
     0
102
RTVSPropertyOp13
 70
     0
102
RTVSPropertyOp14
 70
     2
102
RTVSPropertyOp15
 70
     0
102
RTVSPropertyOp16
 70
     0
102
RTVSPropertyOp17
 70
     0
102
RTVSPropertyOp18
 70
     0
102
RTVSPropertyOp19
 70
     0
102
RTVSPropertyOp20
 70
     0
102
RTVSPropertyOp21
 70
     0
102
RTVSPropertyOp22
 70
     0
102
RTVSPropertyOp23
 70
     0
102
RTVSPropertyOp24
 70
     0
102
RTVSPropertyOp25
 70
     0
102
RTVSPropertyOp26
 70
     0
102
RTVSPropertyOp27
 70
     0
102
RTVSPropertyOp28
 70
     1
102
RTVSPropertyOp29
 70
     1
102
RTVSPropertyOp30
 70
     1
102
RTVSPropertyOp31
 70
     1
102
RTVSPropertyOp32
 70
     1
  0
XRECORD
  5
1575
102
{ACAD_REACTORS
330
1574
102
}
330
1574
100
AcDbXrecord
280
     1
102
RTVSPropertyOp0
 70
     1
102
RTVSPropertyOp1
 70
     1
102
RTVSPropertyOp2
 70
     1
102
RTVSPropertyOp3
 70
     1
102
RTVSPropertyOp4
 70
     1
102
RTVSPropertyOp5
 70
     1
102
RTVSPropertyOp6
 70
     1
102
RTVSPropertyOp7
 70
     1
102
RTVSPropertyOp8
 70
     1
102
RTVSPropertyOp9
 70
     1
102
RTVSPropertyOp10
 70
     1
102
RTVSPropertyOp11
 70
     1
102
RTVSPropertyOp12
 70
     1
102
RTVSPropertyOp13
 70
     1
102
RTVSPropertyOp14
 70
     1
102
RTVSPropertyOp15
 70
     1
102
RTVSPropertyOp16
 70
     1
102
RTVSPropertyOp17
 70
     1
102
RTVSPropertyOp18
 70
     1
102
RTVSPropertyOp19
 70
     1
102
RTVSPropertyOp20
 70
     1
102
RTVSPropertyOp21
 70
     1
102
RTVSPropertyOp22
 70
     1
102
RTVSPropertyOp23
 70
     1
102
RTVSPropertyOp24
 70
     1
102
RTVSPropertyOp25
 70
     1
102
RTVSPropertyOp26
 70
     1
102
RTVSPropertyOp27
 70
     1
102
RTVSPropertyOp28
 70
     1
102
RTVSPropertyOp29
 70
     1
102
RTVSPropertyOp30
 70
     1
102
RTVSPropertyOp31
 70
     1
102
RTVSPropertyOp32
 70
     1
  0
XRECORD
  5
1587
102
{ACAD_REACTORS
330
1586
102
}
330
1586
100
AcDbXrecord
280
     1
102
RTVSPropertyOp0
 70
     0
102
RTVSPropertyOp1
 70
     0
102
RTVSPropertyOp2
 70
     0
102
RTVSPropertyOp3
 70
     0
102
RTVSPropertyOp4
 70
     0
102
RTVSPropertyOp5
 70
     0
102
RTVSPropertyOp6
 70
     0
102
RTVSPropertyOp7
 70
     0
102
RTVSPropertyOp8
 70
     0
102
RTVSPropertyOp9
 70
     0
102
RTVSPropertyOp10
 70
     0
102
RTVSPropertyOp11
 70
     0
102
RTVSPropertyOp12
 70
     0
102
RTVSPropertyOp13
 70
     0
102
RTVSPropertyOp14
 70
     2
102
RTVSPropertyOp15
 70
     0
102
RTVSPropertyOp16
 70
     0
102
RTVSPropertyOp17
 70
     0
102
RTVSPropertyOp18
 70
     0
102
RTVSPropertyOp19
 70
     0
102
RTVSPropertyOp20
 70
     0
102
RTVSPropertyOp21
 70
     0
102
RTVSPropertyOp22
 70
     0
102
RTVSPropertyOp23
 70
     0
102
RTVSPropertyOp24
 70
     0
102
RTVSPropertyOp25
 70
     0
102
RTVSPropertyOp26
 70
     0
102
RTVSPropertyOp27
 70
     0
102
RTVSPropertyOp28
 70
     1
102
RTVSPropertyOp29
 70
     1
102
RTVSPropertyOp30
 70
     1
102
RTVSPropertyOp31
 70
     1
102
RTVSPropertyOp32
 70
     1
  0
XRECORD
  5
156D
102
{ACAD_REACTORS
330
156C
102
}
330
156C
100
AcDbXrecord
280
     1
102
RTVSPropertyOp0
 70
     1
102
RTVSPropertyOp1
 70
     1
102
RTVSPropertyOp2
 70
     1
102
RTVSPropertyOp3
 70
     1
102
RTVSPropertyOp4
 70
     1
102
RTVSPropertyOp5
 70
     1
102
RTVSPropertyOp6
 70
     1
102
RTVSPropertyOp7
 70
     1
102
RTVSPropertyOp8
 70
     1
102
RTVSPropertyOp9
 70
     1
102
RTVSPropertyOp10
 70
     1
102
RTVSPropertyOp11
 70
     1
102
RTVSPropertyOp12
 70
     1
102
RTVSPropertyOp13
 70
     1
102
RTVSPropertyOp14
 70
     1
102
RTVSPropertyOp15
 70
     1
102
RTVSPropertyOp16
 70
     1
102
RTVSPropertyOp17
 70
     1
102
RTVSPropertyOp18
 70
     1
102
RTVSPropertyOp19
 70
     1
102
RTVSPropertyOp20
 70
     1
102
RTVSPropertyOp21
 70
     1
102
RTVSPropertyOp22
 70
     1
102
RTVSPropertyOp23
 70
     1
102
RTVSPropertyOp24
 70
     1
102
RTVSPropertyOp25
 70
     1
102
RTVSPropertyOp26
 70
     1
102
RTVSPropertyOp27
 70
     1
102
RTVSPropertyOp28
 70
     1
102
RTVSPropertyOp29
 70
     1
102
RTVSPropertyOp30
 70
     1
102
RTVSPropertyOp31
 70
     1
102
RTVSPropertyOp32
 70
     1
  0
XRECORD
  5
1583
102
{ACAD_REACTORS
330
1582
102
}
330
1582
100
AcDbXrecord
280
     1
102
RTVSPropertyOp0
 70
     1
102
RTVSPropertyOp1
 70
     1
102
RTVSPropertyOp2
 70
     1
102
RTVSPropertyOp3
 70
     1
102
RTVSPropertyOp4
 70
     1
102
RTVSPropertyOp5
 70
     1
102
RTVSPropertyOp6
 70
     1
102
RTVSPropertyOp7
 70
     1
102
RTVSPropertyOp8
 70
     1
102
RTVSPropertyOp9
 70
     1
102
RTVSPropertyOp10
 70
     1
102
RTVSPropertyOp11
 70
     1
102
RTVSPropertyOp12
 70
     1
102
RTVSPropertyOp13
 70
     1
102
RTVSPropertyOp14
 70
     1
102
RTVSPropertyOp15
 70
     1
102
RTVSPropertyOp16
 70
     1
102
RTVSPropertyOp17
 70
     1
102
RTVSPropertyOp18
 70
     1
102
RTVSPropertyOp19
 70
     1
102
RTVSPropertyOp20
 70
     1
102
RTVSPropertyOp21
 70
     1
102
RTVSPropertyOp22
 70
     1
102
RTVSPropertyOp23
 70
     1
102
RTVSPropertyOp24
 70
     1
102
RTVSPropertyOp25
 70
     1
102
RTVSPropertyOp26
 70
     1
102
RTVSPropertyOp27
 70
     1
102
RTVSPropertyOp28
 70
     1
102
RTVSPropertyOp29
 70
     1
102
RTVSPropertyOp30
 70
     1
102
RTVSPropertyOp31
 70
     1
102
RTVSPropertyOp32
 70
     1
  0
XRECORD
  5
1581
102
{ACAD_REACTORS
330
1580
102
}
330
1580
100
AcDbXrecord
280
     1
102
RTVSPropertyOp0
 70
     1
102
RTVSPropertyOp1
 70
     1
102
RTVSPropertyOp2
 70
     1
102
RTVSPropertyOp3
 70
     1
102
RTVSPropertyOp4
 70
     1
102
RTVSPropertyOp5
 70
     1
102
RTVSPropertyOp6
 70
     1
102
RTVSPropertyOp7
 70
     1
102
RTVSPropertyOp8
 70
     1
102
RTVSPropertyOp9
 70
     1
102
RTVSPropertyOp10
 70
     1
102
RTVSPropertyOp11
 70
     1
102
RTVSPropertyOp12
 70
     1
102
RTVSPropertyOp13
 70
     1
102
RTVSPropertyOp14
 70
     1
102
RTVSPropertyOp15
 70
     1
102
RTVSPropertyOp16
 70
     1
102
RTVSPropertyOp17
 70
     1
102
RTVSPropertyOp18
 70
     1
102
RTVSPropertyOp19
 70
     1
102
RTVSPropertyOp20
 70
     1
102
RTVSPropertyOp21
 70
     1
102
RTVSPropertyOp22
 70
     1
102
RTVSPropertyOp23
 70
     1
102
RTVSPropertyOp24
 70
     1
102
RTVSPropertyOp25
 70
     1
102
RTVSPropertyOp26
 70
     1
102
RTVSPropertyOp27
 70
     1
102
RTVSPropertyOp28
 70
     1
102
RTVSPropertyOp29
 70
     1
102
RTVSPropertyOp30
 70
     1
102
RTVSPropertyOp31
 70
     1
102
RTVSPropertyOp32
 70
     1
  0
XRECORD
  5
157B
102
{ACAD_REACTORS
330
157A
102
}
330
157A
100
AcDbXrecord
280
     1
102
RTVSPropertyOp0
 70
     1
102
RTVSPropertyOp1
 70
     1
102
RTVSPropertyOp2
 70
     1
102
RTVSPropertyOp3
 70
     1
102
RTVSPropertyOp4
 70
     1
102
RTVSPropertyOp5
 70
     1
102
RTVSPropertyOp6
 70
     1
102
RTVSPropertyOp7
 70
     1
102
RTVSPropertyOp8
 70
     1
102
RTVSPropertyOp9
 70
     1
102
RTVSPropertyOp10
 70
     1
102
RTVSPropertyOp11
 70
     1
102
RTVSPropertyOp12
 70
     1
102
RTVSPropertyOp13
 70
     1
102
RTVSPropertyOp14
 70
     1
102
RTVSPropertyOp15
 70
     1
102
RTVSPropertyOp16
 70
     1
102
RTVSPropertyOp17
 70
     1
102
RTVSPropertyOp18
 70
     1
102
RTVSPropertyOp19
 70
     1
102
RTVSPropertyOp20
 70
     1
102
RTVSPropertyOp21
 70
     1
102
RTVSPropertyOp22
 70
     1
102
RTVSPropertyOp23
 70
     1
102
RTVSPropertyOp24
 70
     1
102
RTVSPropertyOp25
 70
     1
102
RTVSPropertyOp26
 70
     1
102
RTVSPropertyOp27
 70
     1
102
RTVSPropertyOp28
 70
     1
102
RTVSPropertyOp29
 70
     1
102
RTVSPropertyOp30
 70
     1
102
RTVSPropertyOp31
 70
     1
102
RTVSPropertyOp32
 70
     1
  0
XRECORD
  5
157D
102
{ACAD_REACTORS
330
157C
102
}
330
157C
100
AcDbXrecord
280
     1
102
RTVSPropertyOp0
 70
     1
102
RTVSPropertyOp1
 70
     1
102
RTVSPropertyOp2
 70
     1
102
RTVSPropertyOp3
 70
     1
102
RTVSPropertyOp4
 70
     1
102
RTVSPropertyOp5
 70
     1
102
RTVSPropertyOp6
 70
     1
102
RTVSPropertyOp7
 70
     1
102
RTVSPropertyOp8
 70
     1
102
RTVSPropertyOp9
 70
     1
102
RTVSPropertyOp10
 70
     1
102
RTVSPropertyOp11
 70
     1
102
RTVSPropertyOp12
 70
     1
102
RTVSPropertyOp13
 70
     1
102
RTVSPropertyOp14
 70
     1
102
RTVSPropertyOp15
 70
     1
102
RTVSPropertyOp16
 70
     1
102
RTVSPropertyOp17
 70
     1
102
RTVSPropertyOp18
 70
     1
102
RTVSPropertyOp19
 70
     1
102
RTVSPropertyOp20
 70
     1
102
RTVSPropertyOp21
 70
     1
102
RTVSPropertyOp22
 70
     1
102
RTVSPropertyOp23
 70
     1
102
RTVSPropertyOp24
 70
     1
102
RTVSPropertyOp25
 70
     1
102
RTVSPropertyOp26
 70
     1
102
RTVSPropertyOp27
 70
     1
102
RTVSPropertyOp28
 70
     1
102
RTVSPropertyOp29
 70
     1
102
RTVSPropertyOp30
 70
     1
102
RTVSPropertyOp31
 70
     1
102
RTVSPropertyOp32
 70
     1
  0
XRECORD
  5
1573
102
{ACAD_REACTORS
330
1572
102
}
330
1572
100
AcDbXrecord
280
     1
102
RTVSPropertyOp0
 70
     1
102
RTVSPropertyOp1
 70
     1
102
RTVSPropertyOp2
 70
     1
102
RTVSPropertyOp3
 70
     1
102
RTVSPropertyOp4
 70
     1
102
RTVSPropertyOp5
 70
     1
102
RTVSPropertyOp6
 70
     1
102
RTVSPropertyOp7
 70
     1
102
RTVSPropertyOp8
 70
     1
102
RTVSPropertyOp9
 70
     1
102
RTVSPropertyOp10
 70
     1
102
RTVSPropertyOp11
 70
     1
102
RTVSPropertyOp12
 70
     1
102
RTVSPropertyOp13
 70
     1
102
RTVSPropertyOp14
 70
     1
102
RTVSPropertyOp15
 70
     1
102
RTVSPropertyOp16
 70
     1
102
RTVSPropertyOp17
 70
     1
102
RTVSPropertyOp18
 70
     1
102
RTVSPropertyOp19
 70
     1
102
RTVSPropertyOp20
 70
     1
102
RTVSPropertyOp21
 70
     1
102
RTVSPropertyOp22
 70
     1
102
RTVSPropertyOp23
 70
     1
102
RTVSPropertyOp24
 70
     1
102
RTVSPropertyOp25
 70
     1
102
RTVSPropertyOp26
 70
     1
102
RTVSPropertyOp27
 70
     1
102
RTVSPropertyOp28
 70
     1
102
RTVSPropertyOp29
 70
     1
102
RTVSPropertyOp30
 70
     1
102
RTVSPropertyOp31
 70
     1
102
RTVSPropertyOp32
 70
     1
  0
XRECORD
  5
1567
102
{ACAD_REACTORS
330
1566
102
}
330
1566
100
AcDbXrecord
280
     1
102
RTVSPropertyOp0
 70
     1
102
RTVSPropertyOp1
 70
     1
102
RTVSPropertyOp2
 70
     1
102
RTVSPropertyOp3
 70
     1
102
RTVSPropertyOp4
 70
     1
102
RTVSPropertyOp5
 70
     1
102
RTVSPropertyOp6
 70
     1
102
RTVSPropertyOp7
 70
     1
102
RTVSPropertyOp8
 70
     1
102
RTVSPropertyOp9
 70
     1
102
RTVSPropertyOp10
 70
     1
102
RTVSPropertyOp11
 70
     1
102
RTVSPropertyOp12
 70
     1
102
RTVSPropertyOp13
 70
     1
102
RTVSPropertyOp14
 70
     1
102
RTVSPropertyOp15
 70
     1
102
RTVSPropertyOp16
 70
     1
102
RTVSPropertyOp17
 70
     1
102
RTVSPropertyOp18
 70
     1
102
RTVSPropertyOp19
 70
     1
102
RTVSPropertyOp20
 70
     1
102
RTVSPropertyOp21
 70
     1
102
RTVSPropertyOp22
 70
     1
102
RTVSPropertyOp23
 70
     1
102
RTVSPropertyOp24
 70
     1
102
RTVSPropertyOp25
 70
     1
102
RTVSPropertyOp26
 70
     1
102
RTVSPropertyOp27
 70
     1
102
RTVSPropertyOp28
 70
     1
102
RTVSPropertyOp29
 70
     1
102
RTVSPropertyOp30
 70
     1
102
RTVSPropertyOp31
 70
     1
102
RTVSPropertyOp32
 70
     1
  0
XRECORD
  5
157F
102
{ACAD_REACTORS
330
157E
102
}
330
157E
100
AcDbXrecord
280
     1
102
RTVSPropertyOp0
 70
     1
102
RTVSPropertyOp1
 70
     1
102
RTVSPropertyOp2
 70
     1
102
RTVSPropertyOp3
 70
     1
102
RTVSPropertyOp4
 70
     1
102
RTVSPropertyOp5
 70
     1
102
RTVSPropertyOp6
 70
     1
102
RTVSPropertyOp7
 70
     1
102
RTVSPropertyOp8
 70
     1
102
RTVSPropertyOp9
 70
     1
102
RTVSPropertyOp10
 70
     1
102
RTVSPropertyOp11
 70
     1
102
RTVSPropertyOp12
 70
     1
102
RTVSPropertyOp13
 70
     1
102
RTVSPropertyOp14
 70
     1
102
RTVSPropertyOp15
 70
     1
102
RTVSPropertyOp16
 70
     1
102
RTVSPropertyOp17
 70
     1
102
RTVSPropertyOp18
 70
     1
102
RTVSPropertyOp19
 70
     1
102
RTVSPropertyOp20
 70
     1
102
RTVSPropertyOp21
 70
     1
102
RTVSPropertyOp22
 70
     1
102
RTVSPropertyOp23
 70
     1
102
RTVSPropertyOp24
 70
     1
102
RTVSPropertyOp25
 70
     1
102
RTVSPropertyOp26
 70
     1
102
RTVSPropertyOp27
 70
     1
102
RTVSPropertyOp28
 70
     1
102
RTVSPropertyOp29
 70
     1
102
RTVSPropertyOp30
 70
     1
102
RTVSPropertyOp31
 70
     1
102
RTVSPropertyOp32
 70
     1
  0
ENDSEC
  0
EOF
