  0
SECTION
  2
HEADER
  9
$ACADVER
  1
AC1018
  9
$ACADMAINTVER
 70
   104
  9
$DWGCODEPAGE
  3
ANSI_1252
  9
$AUTHOR
  1
PS
  9
$REVISIONNUMBER
  1
-
  9
$CUSTOMPROPERTYTAG
  1
Manager
  9
$CUSTOMPROPERTY
  1

  9
$CUSTOMPROPERTYTAG
  1
Company
  9
$CUSTOMPROPERTY
  1

  9
$CUSTOMPROPERTYTAG
  1
Category
  9
$CUSTOMPROPERTY
  1

  9
$CUSTOMPROPERTYTAG
  1
Part Number
  9
$CUSTOMPROPERTY
  1
FK0618-S
  9
$CUSTOMPROPERTYTAG
  1
Description
  9
$CUSTOMPROPERTY
  1

  9
$CUSTOMPROPERTYTAG
  1
Project
  9
$CUSTOMPROPERTY
  1

  9
$CUSTOMPROPERTYTAG
  1
Designer
  9
$CUSTOMPROPERTY
  1
PS
  9
$CUSTOMPROPERTYTAG
  1
Engineer
  9
$CUSTOMPROPERTY
  1

  9
$CUSTOMPROPERTYTAG
  1
Authority
  9
$CUSTOMPROPERTY
  1

  9
$CUSTOMPROPERTYTAG
  1
Cost Center
  9
$CUSTOMPROPERTY
  1

  9
$CUSTOMPROPERTYTAG
  1
Vendor
  9
$CUSTOMPROPERTY
  1

  9
$CUSTOMPROPERTYTAG
  1
User Status
  9
$CUSTOMPROPERTY
  1

  9
$CUSTOMPROPERTYTAG
  1
Design Status
  9
$CUSTOMPROPERTY
  1
WorkInProgress
  9
$CUSTOMPROPERTYTAG
  1
Checked by
  9
$CUSTOMPROPERTY
  1
NJ
  9
$CUSTOMPROPERTYTAG
  1
Date Checked
  9
$CUSTOMPROPERTY
  1
05/02/2013
  9
$CUSTOMPROPERTYTAG
  1
Engr Approved by
  9
$CUSTOMPROPERTY
  1

  9
$CUSTOMPROPERTYTAG
  1
Date Eng Approved
  9
$CUSTOMPROPERTY
  1
05/02/2013
  9
$CUSTOMPROPERTYTAG
  1
Mfg Approved by
  9
$CUSTOMPROPERTY
  1

  9
$CUSTOMPROPERTYTAG
  1
Date Mfg Approved
  9
$CUSTOMPROPERTY
  1
05/02/2013
  9
$CUSTOMPROPERTYTAG
  1
DWG. NO
  9
$CUSTOMPROPERTY
  1

  9
$CUSTOMPROPERTYTAG
  1
NUMBER OF SHEETS
  9
$CUSTOMPROPERTY
  1
1
  9
$CUSTOMPROPERTYTAG
  1
DRAWING #
  9
$CUSTOMPROPERTY
  1

  9
$INSBASE
 10
0.0
 20
0.0
 30
0.0
  9
$EXTMIN
 10
0.0
 20
0.0
 30
0.0
  9
$EXTMAX
 10
85.0
 20
55.0
 30
0.0
  9
$LIMMIN
 10
0.0
 20
0.0
  9
$LIMMAX
 10
85.0
 20
55.0
  9
$ORTHOMODE
 70
     0
  9
$REGENMODE
 70
     1
  9
$FILLMODE
 70
     1
  9
$QTEXTMODE
 70
     0
  9
$MIRRTEXT
 70
     0
  9
$LTSCALE
 40
5.0
  9
$ATTMODE
 70
     1
  9
$TEXTSIZE
 40
0.2
  9
$TRACEWID
 40
0.05
  9
$TEXTSTYLE
  7
Standard
  9
$CLAYER
  8
0
  9
$CELTYPE
  6
ByLayer
  9
$CECOLOR
 62
   256
  9
$CELTSCALE
 40
1.0
  9
$DISPSILH
 70
     0
  9
$DIMSCALE
 40
1.0
  9
$DIMASZ
 40
0.0708661417322835
  9
$DIMEXO
 40
0.0625
  9
$DIMDLI
 40
0.38
  9
$DIMRND
 40
0.0
  9
$DIMDLE
 40
0.0
  9
$DIMEXE
 40
0.18
  9
$DIMTP
 40
0.0
  9
$DIMTM
 40
0.0
  9
$DIMTXT
 40
0.0708661417322835
  9
$DIMCEN
 40
0.09
  9
$DIMTSZ
 40
0.0
  9
$DIMTOL
 70
     0
  9
$DIMLIM
 70
     0
  9
$DIMTIH
 70
     1
  9
$DIMTOH
 70
     1
  9
$DIMSE1
 70
     0
  9
$DIMSE2
 70
     0
  9
$DIMTAD
 70
     0
  9
$DIMZIN
 70
     0
  9
$DIMBLK
  1

  9
$DIMASO
 70
     1
  9
$DIMSHO
 70
     1
  9
$DIMPOST
  1

  9
$DIMAPOST
  1

  9
$DIMALT
 70
     0
  9
$DIMALTD
 70
     2
  9
$DIMALTF
 40
25.4
  9
$DIMLFAC
 40
1.0
  9
$DIMTOFL
 70
     0
  9
$DIMTVP
 40
0.0
  9
$DIMTIX
 70
     0
  9
$DIMSOXD
 70
     0
  9
$DIMSAH
 70
     0
  9
$DIMBLK1
  1

  9
$DIMBLK2
  1

  9
$DIMSTYLE
  2
Standard
  9
$DIMCLRD
 70
     0
  9
$DIMCLRE
 70
     0
  9
$DIMCLRT
 70
     0
  9
$DIMTFAC
 40
1.0
  9
$DIMGAP
 40
0.09
  9
$DIMJUST
 70
     0
  9
$DIMSD1
 70
     0
  9
$DIMSD2
 70
     0
  9
$DIMTOLJ
 70
     1
  9
$DIMTZIN
 70
     0
  9
$DIMALTZ
 70
     0
  9
$DIMALTTZ
 70
     0
  9
$DIMUPT
 70
     0
  9
$DIMDEC
 70
     4
  9
$DIMTDEC
 70
     4
  9
$DIMALTU
 70
     2
  9
$DIMALTTD
 70
     2
  9
$DIMTXSTY
  7
Standard
  9
$DIMAUNIT
 70
     0
  9
$DIMADEC
 70
     0
  9
$DIMALTRND
 40
0.0
  9
$DIMAZIN
 70
     0
  9
$DIMDSEP
 70
    46
  9
$DIMATFIT
 70
     3
  9
$DIMFRAC
 70
     0
  9
$DIMLDRBLK
  1

  9
$DIMLUNIT
 70
     2
  9
$DIMLWD
 70
    -2
  9
$DIMLWE
 70
    -2
  9
$DIMTMOVE
 70
     0
  9
$LUNITS
 70
     2
  9
$LUPREC
 70
     4
  9
$SKETCHINC
 40
0.1
  9
$FILLETRAD
 40
0.0
  9
$AUNITS
 70
     0
  9
$AUPREC
 70
     0
  9
$MENU
  1
.
  9
$ELEVATION
 40
0.0
  9
$PELEVATION
 40
0.0
  9
$THICKNESS
 40
0.0
  9
$LIMCHECK
 70
     0
  9
$CHAMFERA
 40
0.0
  9
$CHAMFERB
 40
0.0
  9
$CHAMFERC
 40
0.0
  9
$CHAMFERD
 40
0.0
  9
$SKPOLY
 70
     0
  9
$TDCREATE
 40
2456423.585240903
  9
$TDUCREATE
 40
2456423.356074236
  9
$TDUPDATE
 40
2456423.585240915
  9
$TDUUPDATE
 40
2456423.356074248
  9
$TDINDWG
 40
0.0000471528
  9
$TDUSRTIMER
 40
0.0000471528
  9
$USRTIMER
 70
     1
  9
$ANGBASE
 50
0.0
  9
$ANGDIR
 70
     0
  9
$PDMODE
 70
     0
  9
$PDSIZE
 40
0.0
  9
$PLINEWID
 40
0.0
  9
$SPLFRAME
 70
     0
  9
$SPLINETYPE
 70
     6
  9
$SPLINESEGS
 70
     8
  9
$HANDSEED
  5
1587
  9
$SURFTAB1
 70
     6
  9
$SURFTAB2
 70
     6
  9
$SURFTYPE
 70
     6
  9
$SURFU
 70
     6
  9
$SURFV
 70
     6
  9
$UCSBASE
  2

  9
$UCSNAME
  2

  9
$UCSORG
 10
0.0
 20
0.0
 30
0.0
  9
$UCSXDIR
 10
1.0
 20
0.0
 30
0.0
  9
$UCSYDIR
 10
0.0
 20
1.0
 30
0.0
  9
$UCSORTHOREF
  2

  9
$UCSORTHOVIEW
 70
     0
  9
$UCSORGTOP
 10
0.0
 20
0.0
 30
0.0
  9
$UCSORGBOTTOM
 10
0.0
 20
0.0
 30
0.0
  9
$UCSORGLEFT
 10
0.0
 20
0.0
 30
0.0
  9
$UCSORGRIGHT
 10
0.0
 20
0.0
 30
0.0
  9
$UCSORGFRONT
 10
0.0
 20
0.0
 30
0.0
  9
$UCSORGBACK
 10
0.0
 20
0.0
 30
0.0
  9
$PUCSBASE
  2

  9
$PUCSNAME
  2

  9
$PUCSORG
 10
0.0
 20
0.0
 30
0.0
  9
$PUCSXDIR
 10
1.0
 20
0.0
 30
0.0
  9
$PUCSYDIR
 10
0.0
 20
1.0
 30
0.0
  9
$PUCSORTHOREF
  2

  9
$PUCSORTHOVIEW
 70
     0
  9
$PUCSORGTOP
 10
0.0
 20
0.0
 30
0.0
  9
$PUCSORGBOTTOM
 10
0.0
 20
0.0
 30
0.0
  9
$PUCSORGLEFT
 10
0.0
 20
0.0
 30
0.0
  9
$PUCSORGRIGHT
 10
0.0
 20
0.0
 30
0.0
  9
$PUCSORGFRONT
 10
0.0
 20
0.0
 30
0.0
  9
$PUCSORGBACK
 10
0.0
 20
0.0
 30
0.0
  9
$USERI1
 70
     0
  9
$USERI2
 70
     0
  9
$USERI3
 70
     0
  9
$USERI4
 70
     0
  9
$USERI5
 70
     0
  9
$USERR1
 40
0.0
  9
$USERR2
 40
0.0
  9
$USERR3
 40
0.0
  9
$USERR4
 40
0.0
  9
$USERR5
 40
0.0
  9
$WORLDVIEW
 70
     1
  9
$SHADEDGE
 70
     3
  9
$SHADEDIF
 70
    70
  9
$TILEMODE
 70
     1
  9
$MAXACTVP
 70
    64
  9
$PINSBASE
 10
0.0
 20
0.0
 30
0.0
  9
$PLIMCHECK
 70
     0
  9
$PEXTMIN
 10
0.0
 20
0.0
 30
0.0
  9
$PEXTMAX
 10
85.0
 20
55.0
 30
0.0
  9
$PLIMMIN
 10
0.0
 20
0.0
  9
$PLIMMAX
 10
85.0
 20
55.0
  9
$UNITMODE
 70
     0
  9
$VISRETAIN
 70
     1
  9
$PLINEGEN
 70
     0
  9
$PSLTSCALE
 70
     1
  9
$TREEDEPTH
 70
  3020
  9
$CMLSTYLE
  2
Standard
  9
$CMLJUST
 70
     0
  9
$CMLSCALE
 40
1.0
  9
$PROXYGRAPHICS
 70
     1
  9
$MEASUREMENT
 70
     0
  9
$CELWEIGHT
370
    -1
  9
$ENDCAPS
280
     0
  9
$JOINSTYLE
280
     0
  9
$LWDISPLAY
290
     0
  9
$INSUNITS
 70
     1
  9
$HYPERLINKBASE
  1

  9
$STYLESHEET
  1

  9
$XEDIT
290
     1
  9
$CEPSNTYPE
380
     0
  9
$PSTYLEMODE
290
     1
  9
$FINGERPRINTGUID
  2
{26ACB270-95B5-4509-A343-B4300DD120E9}
  9
$VERSIONGUID
  2
{A0DECA79-550F-4E50-9F36-A6A42EA7D3D9}
  9
$EXTNAMES
290
     1
  9
$PSVPSCALE
 40
0.0
  9
$OLESTARTUP
290
     0
  9
$SORTENTS
280
   127
  9
$INDEXCTL
280
     0
  9
$HIDETEXT
280
     1
  9
$XCLIPFRAME
290
     0
  9
$HALOGAP
280
     0
  9
$OBSCOLOR
 70
   257
  9
$OBSLTYPE
280
     0
  9
$INTERSECTIONDISPLAY
280
     0
  9
$INTERSECTIONCOLOR
 70
   257
  9
$DIMASSOC
280
     1
  9
$PROJECTNAME
  1

  0
ENDSEC
  0
SECTION
  2
CLASSES
  0
CLASS
  1
ACDBDICTIONARYWDFLT
  2
AcDbDictionaryWithDefault
  3
ObjectDBX Classes
 90
        0
 91
        1
280
     0
281
     0
  0
CLASS
  1
MATERIAL
  2
AcDbMaterial
  3
ObjectDBX Classes
 90
     1153
 91
        3
280
     0
281
     0
  0
CLASS
  1
VISUALSTYLE
  2
AcDbVisualStyle
  3
ObjectDBX Classes
 90
     4095
 91
       24
280
     0
281
     0
  0
CLASS
  1
SCALE
  2
AcDbScale
  3
ObjectDBX Classes
 90
     1153
 91
       17
280
     0
281
     0
  0
CLASS
  1
TABLESTYLE
  2
AcDbTableStyle
  3
ObjectDBX Classes
 90
     4095
 91
        1
280
     0
281
     0
  0
CLASS
  1
MLEADERSTYLE
  2
AcDbMLeaderStyle
  3
ACDB_MLEADERSTYLE_CLASS
 90
     4095
 91
        1
280
     0
281
     0
  0
CLASS
  1
DICTIONARYVAR
  2
AcDbDictionaryVar
  3
ObjectDBX Classes
 90
        0
 91
        8
280
     0
281
     0
  0
CLASS
  1
CELLSTYLEMAP
  2
AcDbCellStyleMap
  3
ObjectDBX Classes
 90
     1152
 91
        1
280
     0
281
     0
  0
ENDSEC
  0
SECTION
  2
TABLES
  0
TABLE
  2
VPORT
  5
8
330
0
100
AcDbSymbolTable
 70
     1
  0
VPORT
  5
57
330
8
100
AcDbSymbolTableRecord
100
AcDbViewportTableRecord
  2
*Active
 70
     0
 10
0.0
 20
0.0
 11
1.0
 21
1.0
 12
42.5
 22
27.5
 13
0.0
 23
0.0
 14
1.0
 24
1.0
 15
0.0
 25
0.0
 16
0.0
 26
0.0
 36
1.0
 17
0.0
 27
0.0
 37
0.0
 40
55.0
 41
1.545454545454545
 42
50.0
 43
0.0
 44
0.0
 50
0.0
 51
0.0
 71
     0
 72
   100
 73
     1
 74
     1
 75
     0
 76
     0
 77
     0
 78
     0
281
     0
 65
     1
110
0.0
120
0.0
130
0.0
111
1.0
121
0.0
131
0.0
112
0.0
122
1.0
132
0.0
 79
     0
146
0.0
  0
ENDTAB
  0
TABLE
  2
LTYPE
  5
5
330
0
100
AcDbSymbolTable
 70
    59
  0
LTYPE
  5
5B
330
5
100
AcDbSymbolTableRecord
100
AcDbLinetypeTableRecord
  2
ByBlock
 70
     0
  3

 72
    65
 73
     0
 40
0.0
  0
LTYPE
  5
5C
330
5
100
AcDbSymbolTableRecord
100
AcDbLinetypeTableRecord
  2
ByLayer
 70
     0
  3

 72
    65
 73
     0
 40
0.0
  0
LTYPE
  5
5D
330
5
100
AcDbSymbolTableRecord
100
AcDbLinetypeTableRecord
  2
Continuous
 70
     0
  3
Solid line
 72
    65
 73
     0
 40
0.0
  0
LTYPE
  5
7C
330
5
100
AcDbSymbolTableRecord
100
AcDbLinetypeTableRecord
  2
BY_STANDARD
 70
     0
  3
By Standard ____________    ____    ____   _
 72
    65
 73
     6
 40
1.240299999999999
 49
0.6614
 74
     0
 49
-0.0827
 74
     0
 49
0.1654
 74
     0
 49
-0.0827
 74
     0
 49
0.1654
 74
     0
 49
-0.0827
 74
     0
  0
LTYPE
  5
7D
330
5
100
AcDbSymbolTableRecord
100
AcDbLinetypeTableRecord
  2
CHAIN
 70
     0
  3
Chain ____ _ ____ _ ____ _ ____ _ ____ _ ____
 72
    65
 73
     4
 40
0.7087
 49
0.4724000000000001
 74
     0
 49
-0.0591
 74
     0
 49
0.1181
 74
     0
 49
-0.0591
 74
     0
  0
LTYPE
  5
7E
330
5
100
AcDbSymbolTableRecord
100
AcDbLinetypeTableRecord
  2
DASH_DOT
 70
     0
  3
Dash dot __ . __ . __ . __ . __ . __ . __ . __
 72
    65
 73
     4
 40
0.37
 49
0.24
 74
     0
 49
-0.06
 74
     0
 49
0.01
 74
     0
 49
-0.06
 74
     0
  0
LTYPE
  5
7F
330
5
100
AcDbSymbolTableRecord
100
AcDbLinetypeTableRecord
  2
DOUBLE_DASH_DOT
 70
     0
  3
Double-Dash Dot __ __ . __ __ . __ __ . __ _
 72
    65
 73
     6
 40
0.4398
 49
0.24
 74
     0
 49
-0.06
 74
     0
 49
0.0098
 74
     0
 49
-0.06
 74
     0
 49
0.01
 74
     0
 49
-0.06
 74
     0
  0
LTYPE
  5
80
330
5
100
AcDbSymbolTableRecord
100
AcDbLinetypeTableRecord
  2
DASH_TRIPLE_DOT
 70
     0
  3
Dash Triple-Dot _ . . . _ . . . _ . . . _
 72
    65
 73
     8
 40
0.51
 49
0.24
 74
     0
 49
-0.06
 74
     0
 49
0.01
 74
     0
 49
-0.06
 74
     0
 49
0.01
 74
     0
 49
-0.06
 74
     0
 49
0.01
 74
     0
 49
-0.06
 74
     0
  0
LTYPE
  5
81
330
5
100
AcDbSymbolTableRecord
100
AcDbLinetypeTableRecord
  2
DASHED
 70
     0
  3
Dashed __ __ __ __ __ __ __ __ __ __ __ __ __ _
 72
    65
 73
     2
 40
0.2067
 49
0.1654
 74
     0
 49
-0.0413
 74
     0
  0
LTYPE
  5
82
330
5
100
AcDbSymbolTableRecord
100
AcDbLinetypeTableRecord
  2
DASH_DOUBLE_DOT
 70
     0
  3
Dash Double-Dot __ . . __ . . __ . . __ . .
 72
    65
 73
     6
 40
0.4398
 49
0.24
 74
     0
 49
-0.06
 74
     0
 49
0.0098
 74
     0
 49
-0.06
 74
     0
 49
0.01
 74
     0
 49
-0.06
 74
     0
  0
LTYPE
  5
83
330
5
100
AcDbSymbolTableRecord
100
AcDbLinetypeTableRecord
  2
DASHED_SPACE
 70
     0
  3
Dashed Space __ __ __ __ __ __ __ __ __ __ __ _
 72
    65
 73
     2
 40
0.2067
 49
0.1654
 74
     0
 49
-0.0413
 74
     0
  0
LTYPE
  5
84
330
5
100
AcDbSymbolTableRecord
100
AcDbLinetypeTableRecord
  2
DOTTED
 70
     0
  3
Dotted . . . . . . . . . . . . . . . . . . . . 
 72
    65
 73
     2
 40
0.0482
 49
0.0069
 74
     0
 49
-0.0413
 74
     0
  0
LTYPE
  5
85
330
5
100
AcDbSymbolTableRecord
100
AcDbLinetypeTableRecord
  2
DOUBLE_DASH_CHAIN
 70
     0
  3
Double-Dash Chain ______  __  __  ______  __  _
 72
    65
 73
     6
 40
1.240299999999999
 49
0.6614
 74
     0
 49
-0.0827
 74
     0
 49
0.1654
 74
     0
 49
-0.0827
 74
     0
 49
0.1654
 74
     0
 49
-0.0827
 74
     0
  0
LTYPE
  5
87
330
5
100
AcDbSymbolTableRecord
100
AcDbLinetypeTableRecord
  2
DOUBLE_DASH_DOUBLE_DOT
 70
     0
  3
Double-Dash Double-dot _ _ . . _ _ . . _
 72
    65
 73
     8
 40
0.7400000000000001
 49
0.24
 74
     0
 49
-0.06
 74
     0
 49
0.24
 74
     0
 49
-0.06
 74
     0
 49
0.01
 74
     0
 49
-0.06
 74
     0
 49
0.01
 74
     0
 49
-0.06
 74
     0
  0
LTYPE
  5
88
330
5
100
AcDbSymbolTableRecord
100
AcDbLinetypeTableRecord
  2
DOUBLE_DASH_TRIPLE_DOT
 70
     0
  3
Double Dash Triple Dot __ __ . . . __ __ . .
 72
    65
 73
    10
 40
0.8100000000000001
 49
0.24
 74
     0
 49
-0.06
 74
     0
 49
0.24
 74
     0
 49
-0.06
 74
     0
 49
0.01
 74
     0
 49
-0.06
 74
     0
 49
0.01
 74
     0
 49
-0.06
 74
     0
 49
0.01
 74
     0
 49
-0.06
 74
     0
  0
LTYPE
  5
89
330
5
100
AcDbSymbolTableRecord
100
AcDbLinetypeTableRecord
  2
LONG_DASH_DOTTED
 70
     0
  3
Long Dash Dotted ____ . ____ . ____ . ____ . _
 72
    65
 73
     4
 40
0.3543
 49
0.2362
 74
     0
 49
-0.0295
 74
     0
 49
0.0591
 74
     0
 49
-0.0295
 74
     0
  0
LTYPE
  5
8A
330
5
100
AcDbSymbolTableRecord
100
AcDbLinetypeTableRecord
  2
LONG_DASH_DOUBLE_DOT
 70
     0
  3
Long Dash Double Dot ________  .  .  ________  
 72
    65
 73
     6
 40
0.6799999999999999
 49
0.48
 74
     0
 49
-0.06
 74
     0
 49
0.01
 74
     0
 49
-0.06
 74
     0
 49
0.01
 74
     0
 49
-0.06
 74
     0
  0
LTYPE
  5
8B
330
5
100
AcDbSymbolTableRecord
100
AcDbLinetypeTableRecord
  2
LONG_DASH_TRIPLE_DOT
 70
     0
  3
Long Dash Triple Dot ____ ... ____ ... ____
 72
    65
 73
     8
 40
0.3689
 49
0.2362
 74
     0
 49
-0.0295
 74
     0
 49
0.0049
 74
     0
 49
-0.0295
 74
     0
 49
0.0049
 74
     0
 49
-0.0295
 74
     0
 49
0.0049
 74
     0
 49
-0.0295
 74
     0
  0
LTYPE
  5
8C
330
5
100
AcDbSymbolTableRecord
100
AcDbLinetypeTableRecord
  2
BORDER
 70
     0
  3
Border __ __ . __ __ . __ __ . __ __ . __ __ .
 72
    65
 73
     6
 40
1.75
 49
0.5
 74
     0
 49
-0.25
 74
     0
 49
0.5
 74
     0
 49
-0.25
 74
     0
 49
0.0
 74
     0
 49
-0.25
 74
     0
  0
LTYPE
  5
8D
330
5
100
AcDbSymbolTableRecord
100
AcDbLinetypeTableRecord
  2
BORDER2
 70
     0
  3
Border (.5x) __.__.__.__.__.__.__.__.__.__.__.
 72
    65
 73
     6
 40
0.875
 49
0.25
 74
     0
 49
-0.125
 74
     0
 49
0.25
 74
     0
 49
-0.125
 74
     0
 49
0.0
 74
     0
 49
-0.125
 74
     0
  0
LTYPE
  5
8E
330
5
100
AcDbSymbolTableRecord
100
AcDbLinetypeTableRecord
  2
BORDERX2
 70
     0
  3
Border (2x) ____  ____  .  ____  ____  .  ___
 72
    65
 73
     6
 40
3.5
 49
1.0
 74
     0
 49
-0.5
 74
     0
 49
1.0
 74
     0
 49
-0.5
 74
     0
 49
0.0
 74
     0
 49
-0.5
 74
     0
  0
LTYPE
  5
8F
330
5
100
AcDbSymbolTableRecord
100
AcDbLinetypeTableRecord
  2
CENTER
 70
     0
  3
Center ____ _ ____ _ ____ _ ____ _ ____ _ ____
 72
    65
 73
     4
 40
2.0
 49
1.25
 74
     0
 49
-0.25
 74
     0
 49
0.25
 74
     0
 49
-0.25
 74
     0
  0
LTYPE
  5
90
330
5
100
AcDbSymbolTableRecord
100
AcDbLinetypeTableRecord
  2
CENTER2
 70
     0
  3
Center (.5x) ___ _ ___ _ ___ _ ___ _ ___ _ ___
 72
    65
 73
     4
 40
1.125
 49
0.75
 74
     0
 49
-0.125
 74
     0
 49
0.125
 74
     0
 49
-0.125
 74
     0
  0
LTYPE
  5
91
330
5
100
AcDbSymbolTableRecord
100
AcDbLinetypeTableRecord
  2
CENTERX2
 70
     0
  3
Center (2x) ________  __  ________  __  _____
 72
    65
 73
     4
 40
4.0
 49
2.5
 74
     0
 49
-0.5
 74
     0
 49
0.5
 74
     0
 49
-0.5
 74
     0
  0
LTYPE
  5
92
330
5
100
AcDbSymbolTableRecord
100
AcDbLinetypeTableRecord
  2
DASHDOT2
 70
     0
  3
Dash dot (.5x) _._._._._._._._._._._._._._._.
 72
    65
 73
     4
 40
0.5
 49
0.25
 74
     0
 49
-0.125
 74
     0
 49
0.0
 74
     0
 49
-0.125
 74
     0
  0
LTYPE
  5
93
330
5
100
AcDbSymbolTableRecord
100
AcDbLinetypeTableRecord
  2
DASHDOTX2
 70
     0
  3
Dash dot (2x) ____  .  ____  .  ____  .  ___
 72
    65
 73
     4
 40
2.0
 49
1.0
 74
     0
 49
-0.5
 74
     0
 49
0.0
 74
     0
 49
-0.5
 74
     0
  0
LTYPE
  5
95
330
5
100
AcDbSymbolTableRecord
100
AcDbLinetypeTableRecord
  2
DASHED2
 70
     0
  3
Dashed (.5x) _ _ _ _ _ _ _ _ _ _ _ _ _ _ _ _ _
 72
    65
 73
     2
 40
0.375
 49
0.25
 74
     0
 49
-0.125
 74
     0
  0
LTYPE
  5
96
330
5
100
AcDbSymbolTableRecord
100
AcDbLinetypeTableRecord
  2
DASHEDX2
 70
     0
  3
Dashed (2x) ____  ____  ____  ____  ____  ___
 72
    65
 73
     2
 40
1.5
 49
1.0
 74
     0
 49
-0.5
 74
     0
  0
LTYPE
  5
97
330
5
100
AcDbSymbolTableRecord
100
AcDbLinetypeTableRecord
  2
DIVIDE
 70
     0
  3
Divide ____ . . ____ . . ____ . . ____ . . ____
 72
    65
 73
     6
 40
1.25
 49
0.5
 74
     0
 49
-0.25
 74
     0
 49
0.0
 74
     0
 49
-0.25
 74
     0
 49
0.0
 74
     0
 49
-0.25
 74
     0
  0
LTYPE
  5
98
330
5
100
AcDbSymbolTableRecord
100
AcDbLinetypeTableRecord
  2
DIVIDE2
 70
     0
  3
Divide (.5x) __..__..__..__..__..__..__..__.._
 72
    65
 73
     6
 40
0.625
 49
0.25
 74
     0
 49
-0.125
 74
     0
 49
0.0
 74
     0
 49
-0.125
 74
     0
 49
0.0
 74
     0
 49
-0.125
 74
     0
  0
LTYPE
  5
99
330
5
100
AcDbSymbolTableRecord
100
AcDbLinetypeTableRecord
  2
DIVIDEX2
 70
     0
  3
Divide (2x) ________  .  .  ________  .  .  _
 72
    65
 73
     6
 40
2.5
 49
1.0
 74
     0
 49
-0.5
 74
     0
 49
0.0
 74
     0
 49
-0.5
 74
     0
 49
0.0
 74
     0
 49
-0.5
 74
     0
  0
LTYPE
  5
9A
330
5
100
AcDbSymbolTableRecord
100
AcDbLinetypeTableRecord
  2
DOT
 70
     0
  3
Dot . . . . . . . . . . . . . . . . . . . . . .
 72
    65
 73
     2
 40
0.25
 49
0.0
 74
     0
 49
-0.25
 74
     0
  0
LTYPE
  5
9B
330
5
100
AcDbSymbolTableRecord
100
AcDbLinetypeTableRecord
  2
DOT2
 70
     0
  3
Dot (.5x) .....................................
 72
    65
 73
     2
 40
0.125
 49
0.0
 74
     0
 49
-0.125
 74
     0
  0
LTYPE
  5
9C
330
5
100
AcDbSymbolTableRecord
100
AcDbLinetypeTableRecord
  2
DOTX2
 70
     0
  3
Dot (2x) .  .  .  .  .  .  .  .  .  .  .  .  . 
 72
    65
 73
     2
 40
0.5
 49
0.0
 74
     0
 49
-0.5
 74
     0
  0
LTYPE
  5
9D
330
5
100
AcDbSymbolTableRecord
100
AcDbLinetypeTableRecord
  2
HIDDEN
 70
     0
  3
Hidden __ __ __ __ __ __ __ __ __ __ __ __ __ _
 72
    65
 73
     2
 40
0.375
 49
0.25
 74
     0
 49
-0.125
 74
     0
  0
LTYPE
  5
9E
330
5
100
AcDbSymbolTableRecord
100
AcDbLinetypeTableRecord
  2
HIDDEN2
 70
     0
  3
Hidden (.5x) _ _ _ _ _ _ _ _ _ _ _ _ _ _ _ _ _
 72
    65
 73
     2
 40
0.1875
 49
0.125
 74
     0
 49
-0.0625
 74
     0
  0
LTYPE
  5
9F
330
5
100
AcDbSymbolTableRecord
100
AcDbLinetypeTableRecord
  2
HIDDENX2
 70
     0
  3
Hidden (2x) ____ ____ ____ ____ ____ ____ ____
 72
    65
 73
     2
 40
0.75
 49
0.5
 74
     0
 49
-0.25
 74
     0
  0
LTYPE
  5
A0
330
5
100
AcDbSymbolTableRecord
100
AcDbLinetypeTableRecord
  2
PHANTOM
 70
     0
  3
Phantom ______  __  __  ______  __  __  ______
 72
    65
 73
     6
 40
2.5
 49
1.25
 74
     0
 49
-0.25
 74
     0
 49
0.25
 74
     0
 49
-0.25
 74
     0
 49
0.25
 74
     0
 49
-0.25
 74
     0
  0
LTYPE
  5
A1
330
5
100
AcDbSymbolTableRecord
100
AcDbLinetypeTableRecord
  2
PHANTOM2
 70
     0
  3
Phantom (.5x) ___ _ _ ___ _ _ ___ _ _ ___ _ _
 72
    65
 73
     6
 40
1.25
 49
0.625
 74
     0
 49
-0.125
 74
     0
 49
0.125
 74
     0
 49
-0.125
 74
     0
 49
0.125
 74
     0
 49
-0.125
 74
     0
  0
LTYPE
  5
A2
330
5
100
AcDbSymbolTableRecord
100
AcDbLinetypeTableRecord
  2
PHANTOMX2
 70
     0
  3
Phantom (2x) ____________    ____    ____   _
 72
    65
 73
     6
 40
5.0
 49
2.5
 74
     0
 49
-0.5
 74
     0
 49
0.5
 74
     0
 49
-0.5
 74
     0
 49
0.5
 74
     0
 49
-0.5
 74
     0
  0
LTYPE
  5
A3
330
5
100
AcDbSymbolTableRecord
100
AcDbLinetypeTableRecord
  2
ACAD_ISO02W100
 70
     0
  3
ISO dash __ __ __ __ __ __ __ __ __ __ __ __ __
 72
    65
 73
     2
 40
0.59
 49
0.47
 74
     0
 49
-0.12
 74
     0
  0
LTYPE
  5
A4
330
5
100
AcDbSymbolTableRecord
100
AcDbLinetypeTableRecord
  2
ACAD_ISO03W100
 70
     0
  3
ISO dash space __    __    __    __    __    __
 72
    65
 73
     2
 40
1.179999999999999
 49
0.47
 74
     0
 49
-0.71
 74
     0
  0
LTYPE
  5
A5
330
5
100
AcDbSymbolTableRecord
100
AcDbLinetypeTableRecord
  2
ACAD_ISO04W100
 70
     0
  3
ISO long-dash dot ____ . ____ . ____ . ____ . _
 72
    65
 73
     4
 40
1.179999999999999
 49
0.9399999999999998
 74
     0
 49
-0.12
 74
     0
 49
0.0
 74
     0
 49
-0.12
 74
     0
  0
LTYPE
  5
A6
330
5
100
AcDbSymbolTableRecord
100
AcDbLinetypeTableRecord
  2
ACAD_ISO05W100
 70
     0
  3
ISO long-dash double-dot ____ .. ____ .. ____ .
 72
    65
 73
     6
 40
1.299999999999999
 49
0.9399999999999998
 74
     0
 49
-0.12
 74
     0
 49
0.0
 74
     0
 49
-0.12
 74
     0
 49
0.0
 74
     0
 49
-0.12
 74
     0
  0
LTYPE
  5
A7
330
5
100
AcDbSymbolTableRecord
100
AcDbLinetypeTableRecord
  2
ACAD_ISO06W100
 70
     0
  3
ISO long-dash triple-dot ____ ... ____ ... ____
 72
    65
 73
     8
 40
1.419999999999999
 49
0.9399999999999998
 74
     0
 49
-0.12
 74
     0
 49
0.0
 74
     0
 49
-0.12
 74
     0
 49
0.0
 74
     0
 49
-0.12
 74
     0
 49
0.0
 74
     0
 49
-0.12
 74
     0
  0
LTYPE
  5
A8
330
5
100
AcDbSymbolTableRecord
100
AcDbLinetypeTableRecord
  2
ACAD_ISO07W100
 70
     0
  3
ISO dot . . . . . . . . . . . . . . . . . . . .
 72
    65
 73
     2
 40
0.12
 49
0.0
 74
     0
 49
-0.12
 74
     0
  0
LTYPE
  5
A9
330
5
100
AcDbSymbolTableRecord
100
AcDbLinetypeTableRecord
  2
ACAD_ISO08W100
 70
     0
  3
ISO long-dash short-dash ____ __ ____ __ ____ _
 72
    65
 73
     4
 40
0.95
 49
0.47
 74
     0
 49
-0.12
 74
     0
 49
0.24
 74
     0
 49
-0.12
 74
     0
  0
LTYPE
  5
AA
330
5
100
AcDbSymbolTableRecord
100
AcDbLinetypeTableRecord
  2
ACAD_ISO09W100
 70
     0
  3
ISO long-dash double-short-dash ____ __ __ ____
 72
    65
 73
     6
 40
1.31
 49
0.47
 74
     0
 49
-0.12
 74
     0
 49
0.24
 74
     0
 49
-0.12
 74
     0
 49
0.24
 74
     0
 49
-0.12
 74
     0
  0
LTYPE
  5
AB
330
5
100
AcDbSymbolTableRecord
100
AcDbLinetypeTableRecord
  2
ACAD_ISO10W100
 70
     0
  3
ISO dash dot __ . __ . __ . __ . __ . __ . __ .
 72
    65
 73
     4
 40
0.71
 49
0.47
 74
     0
 49
-0.12
 74
     0
 49
0.0
 74
     0
 49
-0.12
 74
     0
  0
LTYPE
  5
AC
330
5
100
AcDbSymbolTableRecord
100
AcDbLinetypeTableRecord
  2
ACAD_ISO11W100
 70
     0
  3
ISO double-dash dot __ __ . __ __ . __ __ . __ 
 72
    65
 73
     6
 40
1.299999999999999
 49
0.47
 74
     0
 49
-0.12
 74
     0
 49
0.47
 74
     0
 49
-0.12
 74
     0
 49
0.0
 74
     0
 49
-0.12
 74
     0
  0
LTYPE
  5
AD
330
5
100
AcDbSymbolTableRecord
100
AcDbLinetypeTableRecord
  2
ACAD_ISO12W100
 70
     0
  3
ISO dash double-dot __ . . __ . . __ . . __ . .
 72
    65
 73
     6
 40
0.8299999999999998
 49
0.47
 74
     0
 49
-0.12
 74
     0
 49
0.0
 74
     0
 49
-0.12
 74
     0
 49
0.0
 74
     0
 49
-0.12
 74
     0
  0
LTYPE
  5
AE
330
5
100
AcDbSymbolTableRecord
100
AcDbLinetypeTableRecord
  2
ACAD_ISO13W100
 70
     0
  3
ISO double-dash double-dot __ __ . . __ __ . . 
 72
    65
 73
     8
 40
1.419999999999999
 49
0.47
 74
     0
 49
-0.12
 74
     0
 49
0.47
 74
     0
 49
-0.12
 74
     0
 49
0.0
 74
     0
 49
-0.12
 74
     0
 49
0.0
 74
     0
 49
-0.12
 74
     0
  0
LTYPE
  5
AF
330
5
100
AcDbSymbolTableRecord
100
AcDbLinetypeTableRecord
  2
ACAD_ISO14W100
 70
     0
  3
ISO dash triple-dot __ . . . __ . . . __ . . . 
 72
    65
 73
     8
 40
0.95
 49
0.47
 74
     0
 49
-0.12
 74
     0
 49
0.0
 74
     0
 49
-0.12
 74
     0
 49
0.0
 74
     0
 49
-0.12
 74
     0
 49
0.0
 74
     0
 49
-0.12
 74
     0
  0
LTYPE
  5
B0
330
5
100
AcDbSymbolTableRecord
100
AcDbLinetypeTableRecord
  2
ACAD_ISO15W100
 70
     0
  3
ISO double-dash triple-dot __ __ . . . __ __ . 
 72
    65
 73
    10
 40
1.539999999999999
 49
0.47
 74
     0
 49
-0.12
 74
     0
 49
0.47
 74
     0
 49
-0.12
 74
     0
 49
0.0
 74
     0
 49
-0.12
 74
     0
 49
0.0
 74
     0
 49
-0.12
 74
     0
 49
0.0
 74
     0
 49
-0.12
 74
     0
  0
LTYPE
  5
B3
330
5
100
AcDbSymbolTableRecord
100
AcDbLinetypeTableRecord
  2
FENCELINE1
 70
     0
  3
Fenceline circle ----0-----0----0-----0----0---
 72
    65
 73
     4
 40
1.45
 49
0.25
 74
     0
 49
-0.1
 74
     4
 75
   133
340
B2
 46
0.1
 50
0.0
 44
-0.1
 45
0.0
 49
-0.1
 74
     0
 49
1.0
 74
     0
  0
LTYPE
  5
B4
330
5
100
AcDbSymbolTableRecord
100
AcDbLinetypeTableRecord
  2
FENCELINE2
 70
     0
  3
Fenceline square ----[]-----[]----[]-----[]----
 72
    65
 73
     4
 40
1.45
 49
0.25
 74
     0
 49
-0.1
 74
     4
 75
   132
340
B2
 46
0.1
 50
0.0
 44
-0.1
 45
0.0
 49
-0.1
 74
     0
 49
1.0
 74
     0
  0
LTYPE
  5
B5
330
5
100
AcDbSymbolTableRecord
100
AcDbLinetypeTableRecord
  2
TRACKS
 70
     0
  3
Tracks -|-|-|-|-|-|-|-|-|-|-|-|-|-|-|-|-|-|-|-|
 72
    65
 73
     2
 40
0.3
 49
0.15
 74
     4
 75
   130
340
B2
 46
0.25
 50
0.0
 44
0.0
 45
0.0
 49
0.15
 74
     0
  0
LTYPE
  5
B6
330
5
100
AcDbSymbolTableRecord
100
AcDbLinetypeTableRecord
  2
BATTING
 70
     0
  3
Batting SSSSSSSSSSSSSSSSSSSSSSSSSSSSSSSSSSSSSSS
 72
    65
 73
     4
 40
0.4001000000000001
 49
0.0001
 74
     0
 49
-0.1
 74
     4
 75
   134
340
B2
 46
0.1
 50
0.0
 44
-0.1
 45
0.0
 49
-0.2
 74
     4
 75
   134
340
B2
 46
0.1
 50
180.0
 44
0.1
 45
0.0
 49
-0.1
 74
     0
  0
LTYPE
  5
B7
330
5
100
AcDbSymbolTableRecord
100
AcDbLinetypeTableRecord
  2
HOT_WATER_SUPPLY
 70
     0
  3
Hot water supply ---- HW ---- HW ---- HW ----
 72
    65
 73
     3
 40
0.9
 49
0.5
 74
     0
 49
-0.2
 74
     2
 75
     0
340
55
 46
0.1
 50
0.0
 44
-0.1
 45
-0.05
  9
HW
 49
-0.2
 74
     0
  0
LTYPE
  5
B8
330
5
100
AcDbSymbolTableRecord
100
AcDbLinetypeTableRecord
  2
GAS_LINE
 70
     0
  3
Gas line ----GAS----GAS----GAS----GAS----GAS---
 72
    65
 73
     3
 40
0.95
 49
0.5
 74
     0
 49
-0.2
 74
     2
 75
     0
340
55
 46
0.1
 50
0.0
 44
-0.1
 45
-0.05
  9
GAS
 49
-0.25
 74
     0
  0
LTYPE
  5
B9
330
5
100
AcDbSymbolTableRecord
100
AcDbLinetypeTableRecord
  2
ZIGZAG
 70
     0
  3
Zig zag /\/\/\/\/\/\/\/\/\/\/\/\/\/\/\/\/\/\/\/
 72
    65
 73
     4
 40
0.8001000000000001
 49
0.0001
 74
     0
 49
-0.2
 74
     4
 75
   131
340
B2
 46
0.2
 50
0.0
 44
-0.2
 45
0.0
 49
-0.4
 74
     4
 75
   131
340
B2
 46
0.2
 50
180.0
 44
0.2
 45
0.0
 49
-0.2
 74
     0
  0
ENDTAB
  0
TABLE
  2
LAYER
  5
2
330
0
100
AcDbSymbolTable
 70
    27
  0
LAYER
  5
54
330
2
100
AcDbSymbolTableRecord
100
AcDbLayerTableRecord
  2
0
 70
     0
 62
     7
  6
Continuous
370
     0
390
F
  0
LAYER
  5
C0
330
2
100
AcDbSymbolTableRecord
100
AcDbLayerTableRecord
  2
Center Mark (ANSI)
 70
     0
 62
     7
  6
Continuous
370
     5
390
F
  0
LAYER
  5
C1
330
2
100
AcDbSymbolTableRecord
100
AcDbLayerTableRecord
  2
Centerline (ANSI)
 70
     0
 62
     7
  6
Continuous
370
     5
390
F
  0
LAYER
  5
C3
330
2
100
AcDbSymbolTableRecord
100
AcDbLayerTableRecord
  2
Dimension (ANSI)
 70
     0
 62
     7
  6
Continuous
370
     5
390
F
  0
LAYER
  5
CC
330
2
100
AcDbSymbolTableRecord
100
AcDbLayerTableRecord
  2
Symbol (ANSI)
 70
     0
 62
     7
  6
Continuous
370
     5
390
F
  0
LAYER
  5
CF
330
2
100
AcDbSymbolTableRecord
100
AcDbLayerTableRecord
  2
Visible (ANSI)
 70
     0
 62
     7
  6
Continuous
370
     5
390
F
  0
LAYER
  5
D0
330
2
100
AcDbSymbolTableRecord
100
AcDbLayerTableRecord
  2
Visible Narrow (ANSI)
 70
     0
 62
     7
  6
Continuous
370
     5
390
F
  0
LAYER
  5
2AD
330
2
100
AcDbSymbolTableRecord
100
AcDbLayerTableRecord
  2
Defpoints
 70
     0
 62
     7
  6
Continuous
290
     0
370
    -3
390
F
  0
ENDTAB
  0
TABLE
  2
STYLE
  5
3
330
0
100
AcDbSymbolTable
 70
    10
  0
STYLE
  5
55
330
3
100
AcDbSymbolTableRecord
100
AcDbTextStyleTableRecord
  2
Standard
 70
     0
 40
0.0
 41
1.0
 50
0.0
 71
     0
 42
0.2
  3
txt
  4

  0
STYLE
  5
5A
330
3
100
AcDbSymbolTableRecord
100
AcDbTextStyleTableRecord
  2
Annotative
 70
     0
 40
0.0
 41
1.0
 50
0.0
 71
     0
 42
0.2
  3
txt
  4

1001
AcadAnnotative
1000
AnnotativeData
1002
{
1070
     1
1070
     1
1002
}
  0
STYLE
  5
B2
330
3
100
AcDbSymbolTableRecord
100
AcDbTextStyleTableRecord
  2

 70
     1
 40
0.0
 41
1.0
 50
0.0
 71
     0
 42
0.2
  3
ltypeshp.shx
  4

  0
STYLE
  5
D4
330
3
100
AcDbSymbolTableRecord
100
AcDbTextStyleTableRecord
  2
ITALICC_120
 70
     0
 40
0.0
 41
1.0
 50
0.0
 71
     0
 42
0.2
  3
italicc.shx
  4

  0
STYLE
  5
D5
330
3
100
AcDbSymbolTableRecord
100
AcDbTextStyleTableRecord
  2
Label Text (ANSI)
 70
     0
 40
0.0
 41
1.0
 50
0.0
 71
     0
 42
0.2
  3
tahoma.ttf
  4

1001
ACAD
1000
Tahoma
1071
      256
  0
STYLE
  5
D6
330
3
100
AcDbSymbolTableRecord
100
AcDbTextStyleTableRecord
  2
Note Text (ANSI)
 70
     0
 40
0.0
 41
1.0
 50
0.0
 71
     0
 42
0.2
  3
RomanS.shx
  4

  0
STYLE
  5
D7
330
3
100
AcDbSymbolTableRecord
100
AcDbTextStyleTableRecord
  2
ROMANS
 70
     0
 40
0.0
 41
1.0
 50
0.0
 71
     0
 42
0.2
  3
romans.shx
  4

  0
STYLE
  5
D8
330
3
100
AcDbSymbolTableRecord
100
AcDbTextStyleTableRecord
  2
SANSSERIF_114
 70
     0
 40
0.0
 41
1.0
 50
0.0
 71
     0
 42
0.2
  3
tahoma.ttf
  4

1001
ACAD
1000
Tahoma
1071
      256
  0
STYLE
  5
D9
330
3
100
AcDbSymbolTableRecord
100
AcDbTextStyleTableRecord
  2
SANSSERIF_117
 70
     0
 40
0.0
 41
1.0
 50
0.0
 71
     0
 42
0.2
  3
tahoma.ttf
  4

1001
ACAD
1000
Tahoma
1071
      256
  0
STYLE
  5
15E
330
3
100
AcDbSymbolTableRecord
100
AcDbTextStyleTableRecord
  2
Text Style168
 70
     0
 40
0.0
 41
1.0
 50
0.0
 71
     0
 42
0.2
  3
tahoma.ttf
  4

1001
ACAD
1000
Tahoma
1071
      256
  0
ENDTAB
  0
TABLE
  2
VIEW
  5
6
330
0
100
AcDbSymbolTable
 70
     0
  0
ENDTAB
  0
TABLE
  2
UCS
  5
7
330
0
100
AcDbSymbolTable
 70
     0
  0
ENDTAB
  0
TABLE
  2
APPID
  5
9
330
0
100
AcDbSymbolTable
 70
     5
  0
APPID
  5
56
330
9
100
AcDbSymbolTableRecord
100
AcDbRegAppTableRecord
  2
ACAD
 70
     0
  0
APPID
  5
5E
330
9
100
AcDbSymbolTableRecord
100
AcDbRegAppTableRecord
  2
AcadAnnotative
 70
     0
  0
APPID
  5
612
330
9
100
AcDbSymbolTableRecord
100
AcDbRegAppTableRecord
  2
ACAD_DSTYLE_DIMANGULAR_EXTENSION
 70
     0
  0
APPID
  5
EEC
330
9
100
AcDbSymbolTableRecord
100
AcDbRegAppTableRecord
  2
ACAD_DSTYLE_DIMRADIAL_EXTENSION
 70
     0
  0
APPID
  5
1582
330
9
100
AcDbSymbolTableRecord
100
AcDbRegAppTableRecord
  2
ACAD_MLEADERVER
 70
     0
  0
ENDTAB
  0
TABLE
  2
DIMSTYLE
  5
A
330
0
100
AcDbSymbolTable
 70
    15
100
AcDbDimStyleTable
 71
     2
340
E2
340
58
  0
DIMSTYLE
105
58
330
A
100
AcDbSymbolTableRecord
100
AcDbDimStyleTableRecord
  2
Standard
 70
     0
340
55
  0
DIMSTYLE
105
59
330
A
100
AcDbSymbolTableRecord
100
AcDbDimStyleTableRecord
  2
Annotative
 70
     0
340
55
1001
AcadAnnotative
1000
AnnotativeData
1002
{
1070
     1
1070
     1
1002
}
  0
DIMSTYLE
105
DA
330
A
100
AcDbSymbolTableRecord
100
AcDbDimStyleTableRecord
  2
Architectural (ANSI)
 70
     0
 40
5.0
 41
0.0984251946210861
 43
0.2362204724409449
 44
0.125
 45
0.00000001
 46
0.3937007874015748
 78
     3
 79
     3
140
0.1000000014901161
146
1.200000047683715
147
0.031496062992126
171
     1
176
   256
177
   256
178
   256
272
     2
274
     1
276
     2
277
     4
284
    12
285
     4
286
    12
340
D6
371
    -1
372
    -1
  0
DIMSTYLE
105
DB
330
A
100
AcDbSymbolTableRecord
100
AcDbDimStyleTableRecord
  2
Architectural (ANSI)$7
 70
     0
 40
5.0
 41
0.0984251946210861
 43
0.2362204724409449
 44
0.125
 45
0.00000001
 46
0.3937007874015748
 78
     3
 79
     3
140
0.1000000014901161
146
1.200000047683715
147
0.031496062992126
171
     1
176
   256
177
   256
178
   256
272
     2
274
     1
276
     2
277
     4
284
    12
285
     4
286
    12
340
D6
371
    -1
372
    -1
  0
DIMSTYLE
105
DC
330
A
100
AcDbSymbolTableRecord
100
AcDbDimStyleTableRecord
  2
Default - Fraction (ANSI)
 70
     0
 40
5.0
 41
0.0984251946210861
 43
0.2362204724409449
 44
0.125
 45
0.00000001
 46
0.3937007874015748
 79
     3
140
0.1000000014901161
146
1.200000047683715
147
0.031496062992126
171
     1
176
   256
177
   256
178
   256
272
     2
274
     1
276
     2
277
     5
284
    12
285
     4
286
    12
340
D6
371
    -1
372
    -1
  0
DIMSTYLE
105
DD
330
A
100
AcDbSymbolTableRecord
100
AcDbDimStyleTableRecord
  2
Default - Fraction (ANSI)$7
 70
     0
 40
5.0
 41
0.0984251946210861
 43
0.2362204724409449
 44
0.125
 45
0.00000001
 46
0.3937007874015748
 79
     3
140
0.1000000014901161
146
1.200000047683715
147
0.031496062992126
171
     1
176
   256
177
   256
178
   256
272
     2
274
     1
276
     2
277
     5
284
    12
285
     4
286
    12
340
D6
371
    -1
372
    -1
  0
DIMSTYLE
105
DE
330
A
100
AcDbSymbolTableRecord
100
AcDbDimStyleTableRecord
  2
Default - mm (ANSI)
 70
     0
 40
5.0
 41
0.0984251946210861
 42
0.063
 43
0.2362204724409449
 44
0.125
 45
0.00000001
 46
0.3937007874015748
 73
     0
 78
     4
 79
     1
140
0.1000000014901161
143
1.0
144
25.4
146
1.200000047683715
147
0.031496062992126
171
     1
176
   256
177
   256
178
   256
179
     1
271
     2
272
     2
274
     1
284
     4
285
     4
340
D6
371
    -1
372
    -1
  0
DIMSTYLE
105
DF
330
A
100
AcDbSymbolTableRecord
100
AcDbDimStyleTableRecord
  2
Default - mm (ANSI)$7
 70
     0
 40
5.0
 41
0.0984251946210861
 42
0.063
 43
0.2362204724409449
 44
0.125
 45
0.00000001
 46
0.3937007874015748
 73
     0
 78
     4
 79
     1
140
0.1000000014901161
143
1.0
144
25.4
146
1.200000047683715
147
0.031496062992126
171
     1
176
   256
177
   256
178
   256
179
     1
271
     2
272
     2
274
     1
284
     4
285
     4
340
D6
371
    -1
372
    -1
  0
DIMSTYLE
105
E0
330
A
100
AcDbSymbolTableRecord
100
AcDbDimStyleTableRecord
  2
Default - mm [in] (ANSI)
 70
     0
  4
 in
 40
5.0
 41
0.0984251946210861
 42
0.063
 43
0.25
 44
0.125
 45
0.00000001
 46
0.3937007874015748
 73
     0
 78
     4
 79
     1
140
0.1000000014901161
143
0.03937
144
25.4
146
1.200000047683715
147
0.031496062992126
170
     1
171
     3
176
   256
177
   256
178
   256
179
     1
271
     2
272
     2
274
     3
284
     4
285
     4
286
     4
340
D6
371
    -1
372
    -1
  0
DIMSTYLE
105
E1
330
A
100
AcDbSymbolTableRecord
100
AcDbDimStyleTableRecord
  2
Default - mm [in] (ANSI)$7
 70
     0
  4
 in
 40
5.0
 41
0.0984251946210861
 42
0.063
 43
0.25
 44
0.125
 45
0.00000001
 46
0.3937007874015748
 73
     0
 78
     4
 79
     1
140
0.1000000014901161
143
0.03937
144
25.4
146
1.200000047683715
147
0.031496062992126
170
     1
171
     3
176
   256
177
   256
178
   256
179
     1
271
     2
272
     2
274
     3
284
     4
285
     4
286
     4
340
D6
371
    -1
372
    -1
  0
DIMSTYLE
105
E2
102
{ACAD_REACTORS
330
2AB
330
3AC
330
4AA
330
594
330
6B8
330
7A7
330
8A6
330
99E
330
A88
330
B7F
330
C69
330
D55
330
E53
330
F12
330
FFC
330
10E6
330
11D0
330
12C2
330
13AC
330
144F
102
}
330
A
100
AcDbSymbolTableRecord
100
AcDbDimStyleTableRecord
  2
Default (ANSI)
 70
     0
 40
5.0
 41
0.0984251946210861
 43
0.2362204724409449
 44
0.125
 45
0.00000001
 46
0.3937007874015748
140
0.1000000014901161
147
0.031496062992126
176
   256
177
   256
178
   256
271
     2
272
     2
340
D7
371
    -1
372
    -1
  0
DIMSTYLE
105
E3
330
A
100
AcDbSymbolTableRecord
100
AcDbDimStyleTableRecord
  2
Default (ANSI)$7
 70
     0
 40
5.0
 41
0.0984251946210861
 43
0.2362204724409449
 44
0.125
 45
0.00000001
 46
0.3937007874015748
140
0.1000000014901161
147
0.031496062992126
176
   256
177
   256
178
   256
271
     2
272
     2
340
D7
371
    -1
372
    -1
  0
DIMSTYLE
105
E4
330
A
100
AcDbSymbolTableRecord
100
AcDbDimStyleTableRecord
  2
Alternate (ANSI)
 70
     0
 40
5.0
 41
0.0979999974370003
340
55
342
E5
  0
DIMSTYLE
105
F7
330
A
100
AcDbSymbolTableRecord
100
AcDbDimStyleTableRecord
  2
Datum (ANSI)
 70
     0
 40
5.0
 41
0.0979999974370003
340
55
342
E5
  0
DIMSTYLE
105
106
330
A
100
AcDbSymbolTableRecord
100
AcDbDimStyleTableRecord
  2
Large (ANSI)
 70
     0
 40
5.0
 41
0.1959999948740005
340
55
342
E5
  0
ENDTAB
  0
TABLE
  2
BLOCK_RECORD
  5
1
330
0
100
AcDbSymbolTable
 70
    24
  0
BLOCK_RECORD
  5
6C
330
1
100
AcDbSymbolTableRecord
100
AcDbBlockTableRecord
  2
*Model_Space
340
6F
  0
BLOCK_RECORD
  5
68
330
1
100
AcDbSymbolTableRecord
100
AcDbBlockTableRecord
  2
*Paper_Space
340
6B
  0
BLOCK_RECORD
  5
70
330
1
100
AcDbSymbolTableRecord
100
AcDbBlockTableRecord
  2
*Paper_Space0
340
73
  0
BLOCK_RECORD
  5
E5
330
1
100
AcDbSymbolTableRecord
100
AcDbBlockTableRecord
  2
_Closed
340
0
  0
BLOCK_RECORD
  5
EC
330
1
100
AcDbSymbolTableRecord
100
AcDbBlockTableRecord
  2
DatumFilled45
340
0
  0
BLOCK_RECORD
  5
F8
330
1
100
AcDbSymbolTableRecord
100
AcDbBlockTableRecord
  2
Filled-1
340
0
  0
BLOCK_RECORD
  5
2AE
330
1
100
AcDbSymbolTableRecord
100
AcDbBlockTableRecord
  2
*D4
340
0
  0
BLOCK_RECORD
  5
3AD
330
1
100
AcDbSymbolTableRecord
100
AcDbBlockTableRecord
  2
*D5
340
0
  0
BLOCK_RECORD
  5
4AB
330
1
100
AcDbSymbolTableRecord
100
AcDbBlockTableRecord
  2
*D6
340
0
  0
BLOCK_RECORD
  5
595
330
1
100
AcDbSymbolTableRecord
100
AcDbBlockTableRecord
  2
*D7
340
0
  0
BLOCK_RECORD
  5
6B9
330
1
100
AcDbSymbolTableRecord
100
AcDbBlockTableRecord
  2
*D8
340
0
  0
BLOCK_RECORD
  5
7A8
330
1
100
AcDbSymbolTableRecord
100
AcDbBlockTableRecord
  2
*D9
340
0
  0
BLOCK_RECORD
  5
8A7
330
1
100
AcDbSymbolTableRecord
100
AcDbBlockTableRecord
  2
*D10
340
0
  0
BLOCK_RECORD
  5
99F
330
1
100
AcDbSymbolTableRecord
100
AcDbBlockTableRecord
  2
*D11
340
0
  0
BLOCK_RECORD
  5
A89
330
1
100
AcDbSymbolTableRecord
100
AcDbBlockTableRecord
  2
*D12
340
0
  0
BLOCK_RECORD
  5
B80
330
1
100
AcDbSymbolTableRecord
100
AcDbBlockTableRecord
  2
*D13
340
0
  0
BLOCK_RECORD
  5
C6A
330
1
100
AcDbSymbolTableRecord
100
AcDbBlockTableRecord
  2
*D14
340
0
  0
BLOCK_RECORD
  5
D56
330
1
100
AcDbSymbolTableRecord
100
AcDbBlockTableRecord
  2
*D15
340
0
  0
BLOCK_RECORD
  5
E54
330
1
100
AcDbSymbolTableRecord
100
AcDbBlockTableRecord
  2
*D16
340
0
  0
BLOCK_RECORD
  5
F13
330
1
100
AcDbSymbolTableRecord
100
AcDbBlockTableRecord
  2
*D17
340
0
  0
BLOCK_RECORD
  5
FFD
330
1
100
AcDbSymbolTableRecord
100
AcDbBlockTableRecord
  2
*D18
340
0
  0
BLOCK_RECORD
  5
10E7
330
1
100
AcDbSymbolTableRecord
100
AcDbBlockTableRecord
  2
*D19
340
0
  0
BLOCK_RECORD
  5
11D1
330
1
100
AcDbSymbolTableRecord
100
AcDbBlockTableRecord
  2
*D20
340
0
  0
BLOCK_RECORD
  5
12C3
330
1
100
AcDbSymbolTableRecord
100
AcDbBlockTableRecord
  2
*D21
340
0
  0
BLOCK_RECORD
  5
13AD
330
1
100
AcDbSymbolTableRecord
100
AcDbBlockTableRecord
  2
*D22
340
0
  0
BLOCK_RECORD
  5
1450
330
1
100
AcDbSymbolTableRecord
100
AcDbBlockTableRecord
  2
*D23
340
0
  0
ENDTAB
  0
ENDSEC
  0
SECTION
  2
BLOCKS
  0
BLOCK
  5
6D
330
6C
100
AcDbEntity
  8
0
100
AcDbBlockBegin
  2
*Model_Space
 70
     0
 10
0.0
 20
0.0
 30
0.0
  3
*Model_Space
  1

  0
ENDBLK
  5
6E
330
6C
100
AcDbEntity
  8
0
100
AcDbBlockEnd
  0
BLOCK
  5
69
330
68
100
AcDbEntity
 67
     1
  8
0
100
AcDbBlockBegin
  2
*Paper_Space
 70
     0
 10
0.0
 20
0.0
 30
0.0
  3
*Paper_Space
  1

  0
ENDBLK
  5
6A
330
68
100
AcDbEntity
 67
     1
  8
0
100
AcDbBlockEnd
  0
BLOCK
  5
71
330
70
100
AcDbEntity
 67
     1
  8
0
100
AcDbBlockBegin
  2
*Paper_Space0
 70
     0
 10
0.0
 20
0.0
 30
0.0
  3
*Paper_Space0
  1

  0
ENDBLK
  5
72
330
70
100
AcDbEntity
 67
     1
  8
0
100
AcDbBlockEnd
  0
BLOCK
  5
EA
330
E5
100
AcDbEntity
  8
0
100
AcDbBlockBegin
  2
_Closed
 70
     0
 10
0.0
 20
0.0
 30
0.0
  3
_Closed
  1

  0
LINE
  5
E6
330
E5
100
AcDbEntity
  8
0
  6
ByBlock
 62
     0
370
    -2
100
AcDbLine
 10
-1.0
 20
0.1666666666666666
 30
0.0
 11
0.0
 21
0.0
 31
0.0
  0
LINE
  5
E7
330
E5
100
AcDbEntity
  8
0
  6
ByBlock
 62
     0
370
    -2
100
AcDbLine
 10
0.0
 20
0.0
 30
0.0
 11
-1.0
 21
-0.1666666666666666
 31
0.0
  0
LINE
  5
E8
330
E5
100
AcDbEntity
  8
0
  6
ByBlock
 62
     0
370
    -2
100
AcDbLine
 10
-1.0
 20
0.1666666666666666
 30
0.0
 11
-1.0
 21
-0.1666666666666666
 31
0.0
  0
LINE
  5
E9
330
E5
100
AcDbEntity
  8
0
  6
ByBlock
 62
     0
370
    -2
100
AcDbLine
 10
0.0
 20
0.0
 30
0.0
 11
-1.0
 21
0.0
 31
0.0
  0
ENDBLK
  5
EB
330
E5
100
AcDbEntity
  8
0
100
AcDbBlockEnd
  0
BLOCK
  5
ED
330
EC
100
AcDbEntity
  8
0
100
AcDbBlockBegin
  2
DatumFilled45
 70
     0
 10
0.0
 20
0.0
 30
0.0
  3
DatumFilled45
  1

  0
POLYLINE
  5
EF
330
EC
100
AcDbEntity
  8
0
 62
     0
100
AcDb2dPolyline
 66
     1
 10
0.0
 20
0.0
 30
0.0
 70
   128
  0
VERTEX
  5
F0
330
EF
100
AcDbEntity
  8
0
 62
     0
100
AcDbVertex
100
AcDb2dVertex
 10
0.0
 20
0.9999999999999998
 30
0.0
  0
VERTEX
  5
F1
330
EF
100
AcDbEntity
  8
0
 62
     0
100
AcDbVertex
100
AcDb2dVertex
 10
0.0
 20
-0.9999999999999998
 30
0.0
  0
VERTEX
  5
F3
330
EF
100
AcDbEntity
  8
0
 62
     0
100
AcDbVertex
100
AcDb2dVertex
 10
-0.9999999999999998
 20
0.0
 30
0.0
  0
VERTEX
  5
F4
330
EF
100
AcDbEntity
  8
0
 62
     0
100
AcDbVertex
100
AcDb2dVertex
 10
0.0
 20
0.9999999999999998
 30
0.0
  0
SEQEND
  5
F2
330
EF
100
AcDbEntity
  8
0
 62
     0
  0
SOLID
  5
F6
330
EC
100
AcDbEntity
  8
0
 62
     0
100
AcDbTrace
 10
0.0
 20
0.9999999999999998
 30
0.0
 11
0.0
 21
-0.9999999999999998
 31
0.0
 12
-0.9999999999999998
 22
0.0
 32
0.0
 13
0.0
 23
0.9999999999999998
 33
0.0
  0
ENDBLK
  5
EE
330
EC
100
AcDbEntity
  8
0
100
AcDbBlockEnd
  0
BLOCK
  5
F9
330
F8
100
AcDbEntity
  8
0
100
AcDbBlockBegin
  2
Filled-1
 70
     0
 10
0.0
 20
0.0
 30
0.0
  3
Filled-1
  1

  0
LINE
  5
FB
330
F8
100
AcDbEntity
  8
0
 62
     0
100
AcDbLine
 10
-0.9999999999999998
 20
0.0
 30
0.0
 11
0.0
 21
0.0
 31
0.0
  0
POLYLINE
  5
FC
330
F8
100
AcDbEntity
  8
0
 62
     0
100
AcDb2dPolyline
 66
     1
 10
0.0
 20
0.0
 30
0.0
 70
   128
  0
VERTEX
  5
FD
330
FC
100
AcDbEntity
  8
0
 62
     0
100
AcDbVertex
100
AcDb2dVertex
 10
-0.9999999999999998
 20
-0.0994897959183674
 30
0.0
  0
VERTEX
  5
FE
330
FC
100
AcDbEntity
  8
0
 62
     0
100
AcDbVertex
100
AcDb2dVertex
 10
0.0
 20
0.0
 30
0.0
  0
VERTEX
  5
100
330
FC
100
AcDbEntity
  8
0
 62
     0
100
AcDbVertex
100
AcDb2dVertex
 10
-0.9999999999999998
 20
0.0994897959183674
 30
0.0
  0
VERTEX
  5
101
330
FC
100
AcDbEntity
  8
0
 62
     0
100
AcDbVertex
100
AcDb2dVertex
 10
-0.9999999999999998
 20
-0.0994897959183674
 30
0.0
  0
SEQEND
  5
FF
330
FC
100
AcDbEntity
  8
0
 62
     0
  0
SOLID
  5
102
330
F8
100
AcDbEntity
  8
0
 62
     0
100
AcDbTrace
 10
-0.9999999999999998
 20
-0.0994897959183674
 30
0.0
 11
0.0
 21
0.0
 31
0.0
 12
-0.9999999999999998
 22
0.0994897959183674
 32
0.0
 13
-0.9999999999999998
 23
-0.0994897959183674
 33
0.0
  0
LINE
  5
103
330
F8
100
AcDbEntity
  8
0
 62
     0
100
AcDbLine
 10
-0.9999999999999998
 20
-0.0994897959183674
 30
0.0
 11
0.0
 21
0.0
 31
0.0
  0
LINE
  5
104
330
F8
100
AcDbEntity
  8
0
 62
     0
100
AcDbLine
 10
0.0
 20
0.0
 30
0.0
 11
-0.9999999999999998
 21
0.0994897959183674
 31
0.0
  0
LINE
  5
105
330
F8
100
AcDbEntity
  8
0
 62
     0
100
AcDbLine
 10
-0.9999999999999998
 20
0.0994897959183674
 30
0.0
 11
-0.9999999999999998
 21
-0.0994897959183674
 31
0.0
  0
ENDBLK
  5
FA
330
F8
100
AcDbEntity
  8
0
100
AcDbBlockEnd
  0
BLOCK
  5
2AF
330
2AE
100
AcDbEntity
  8
0
100
AcDbBlockBegin
  2
*D4
 70
     1
 10
0.0
 20
0.0
 30
0.0
  3
*D4
  1

  0
LINE
  5
3A2
330
2AE
100
AcDbEntity
  8
Dimension (ANSI)
440
 16777216
100
AcDbLine
 10
27.90643069254187
 20
33.30834708193495
 30
0.0
 11
24.28561376340797
 21
33.30834708193495
 31
0.0
  0
LINE
  5
3A3
330
2AE
100
AcDbEntity
  8
Dimension (ANSI)
440
 16777216
100
AcDbLine
 10
28.06268069254183
 20
27.30847322313317
 30
0.0
 11
24.28561376340797
 21
27.30847322313317
 31
0.0
  0
LINE
  5
3A4
330
2AE
100
AcDbEntity
  8
Dimension (ANSI)
440
 16777216
100
AcDbLine
 10
24.91061376340797
 20
32.81622110882952
 30
0.0
 11
24.91061376340797
 21
31.13255714409542
 31
0.0
  0
LINE
  5
3A5
330
2AE
100
AcDbEntity
  8
Dimension (ANSI)
440
 16777216
100
AcDbLine
 10
24.91061376340797
 20
27.8005991962386
 30
0.0
 11
24.91061376340797
 21
29.48426316097261
 31
0.0
  0
SOLID
  5
3A6
330
2AE
100
AcDbEntity
  8
Dimension (ANSI)
440
 16777216
100
AcDbTrace
 10
24.8285927678904
 20
32.81622110882952
 30
0.0
 11
24.99263475892555
 21
32.81622110882952
 31
0.0
 12
24.91061376340797
 22
33.30834708193495
 32
0.0
 13
24.91061376340797
 23
33.30834708193495
 33
0.0
  0
SOLID
  5
3A7
330
2AE
100
AcDbEntity
  8
Dimension (ANSI)
440
 16777216
100
AcDbTrace
 10
24.8285927678904
 20
27.8005991962386
 30
0.0
 11
24.99263475892555
 21
27.8005991962386
 31
0.0
 12
24.91061376340797
 22
27.30847322313317
 32
0.0
 13
24.91061376340797
 23
27.30847322313317
 33
0.0
  0
MTEXT
  5
3A8
330
2AE
100
AcDbEntity
  8
Dimension (ANSI)
440
 16777216
100
AcDbMText
 10
24.91061376340797
 20
30.30841015253402
 30
0.0
 40
0.5000000074505806
 41
0.0
 71
     5
 72
     1
  1
\A1;6.00{\PHEIGHT}
  7
ROMANS
 73
     1
 44
1.0
  0
POINT
  5
3A9
330
2AE
100
AcDbEntity
  8
Defpoints
 62
     0
440
 16777216
100
AcDbPoint
 10
28.21893069254187
 20
33.30834708193495
 30
0.0
  0
POINT
  5
3AA
330
2AE
100
AcDbEntity
  8
Defpoints
 62
     0
440
 16777216
100
AcDbPoint
 10
28.37518069254183
 20
27.30847322313317
 30
0.0
  0
POINT
  5
3AB
330
2AE
100
AcDbEntity
  8
Defpoints
 62
     0
440
 16777216
100
AcDbPoint
 10
24.91061376340797
 20
27.30847322313317
 30
0.0
  0
ENDBLK
  5
2B0
330
2AE
100
AcDbEntity
  8
0
100
AcDbBlockEnd
  0
BLOCK
  5
3AE
330
3AD
100
AcDbEntity
  8
0
100
AcDbBlockBegin
  2
*D5
 70
     1
 10
0.0
 20
0.0
 30
0.0
  3
*D5
  1

  0
LINE
  5
4A0
330
3AD
100
AcDbEntity
  8
Dimension (ANSI)
440
 16777216
100
AcDbLine
 10
28.00018069254188
 20
33.40209708193496
 30
0.0
 11
28.00018069254188
 21
36.30129142651066
 31
0.0
  0
LINE
  5
4A1
330
3AD
100
AcDbEntity
  8
Dimension (ANSI)
440
 16777216
100
AcDbLine
 10
46.12518069254192
 20
33.40209708193496
 30
0.0
 11
46.12518069254192
 21
36.30129142651066
 31
0.0
  0
LINE
  5
4A2
330
3AD
100
AcDbEntity
  8
Dimension (ANSI)
440
 16777216
100
AcDbLine
 10
28.49230666564731
 20
35.67629142651066
 30
0.0
 11
35.69213127459241
 21
35.67629142651066
 31
0.0
  0
LINE
  5
4A3
330
3AD
100
AcDbEntity
  8
Dimension (ANSI)
440
 16777216
100
AcDbLine
 10
45.63305471943649
 20
35.67629142651066
 30
0.0
 11
38.03090145848031
 21
35.67629142651066
 31
0.0
  0
SOLID
  5
4A4
330
3AD
100
AcDbEntity
  8
Dimension (ANSI)
440
 16777216
100
AcDbTrace
 10
28.49230666564731
 20
35.75831242202824
 30
0.0
 11
28.49230666564731
 21
35.59427043099308
 31
0.0
 12
28.00018069254188
 22
35.67629142651066
 32
0.0
 13
28.00018069254188
 23
35.67629142651066
 33
0.0
  0
SOLID
  5
4A5
330
3AD
100
AcDbEntity
  8
Dimension (ANSI)
440
 16777216
100
AcDbTrace
 10
45.63305471943649
 20
35.75831242202824
 30
0.0
 11
45.63305471943649
 21
35.59427043099308
 31
0.0
 12
46.12518069254192
 22
35.67629142651066
 32
0.0
 13
46.12518069254192
 23
35.67629142651066
 33
0.0
  0
MTEXT
  5
4A6
330
3AD
100
AcDbEntity
  8
Dimension (ANSI)
440
 16777216
100
AcDbMText
 10
36.86151636653637
 20
35.67629142651066
 30
0.0
 40
0.5000000074505806
 41
0.0
 71
     5
 72
     1
  1
\A1;18.13{\PWIDTH}
  7
ROMANS
 73
     1
 44
1.0
  0
POINT
  5
4A7
330
3AD
100
AcDbEntity
  8
Defpoints
 62
     0
440
 16777216
100
AcDbPoint
 10
28.00018069254188
 20
33.08959708193496
 30
0.0
  0
POINT
  5
4A8
330
3AD
100
AcDbEntity
  8
Defpoints
 62
     0
440
 16777216
100
AcDbPoint
 10
46.12518069254192
 20
33.08959708193496
 30
0.0
  0
POINT
  5
4A9
330
3AD
100
AcDbEntity
  8
Defpoints
 62
     0
440
 16777216
100
AcDbPoint
 10
46.12518069254192
 20
35.67629142651066
 30
0.0
  0
ENDBLK
  5
3AF
330
3AD
100
AcDbEntity
  8
0
100
AcDbBlockEnd
  0
BLOCK
  5
4AC
330
4AB
100
AcDbEntity
  8
0
100
AcDbBlockBegin
  2
*D6
 70
     1
 10
0.0
 20
0.0
 30
0.0
  3
*D6
  1

  0
LINE
  5
58A
330
4AB
100
AcDbEntity
  8
Dimension (ANSI)
440
 16777216
100
AcDbLine
 10
10.90175760643572
 20
33.40209708193496
 30
0.0
 11
10.90175760643572
 21
36.90455230310589
 31
0.0
  0
LINE
  5
58B
330
4AB
100
AcDbEntity
  8
Dimension (ANSI)
440
 16777216
100
AcDbLine
 10
18.90175760643572
 20
33.62084708193495
 30
0.0
 11
18.90175760643572
 21
36.90455230310589
 31
0.0
  0
LINE
  5
58C
330
4AB
100
AcDbEntity
  8
Dimension (ANSI)
440
 16777216
100
AcDbLine
 10
11.39388357954115
 20
36.27955230310589
 30
0.0
 11
13.98237251821706
 21
36.27955230310589
 31
0.0
  0
LINE
  5
58D
330
4AB
100
AcDbEntity
  8
Dimension (ANSI)
440
 16777216
100
AcDbLine
 10
18.40963163333029
 20
36.27955230310589
 30
0.0
 11
15.82114269465438
 21
36.27955230310589
 31
0.0
  0
SOLID
  5
58E
330
4AB
100
AcDbEntity
  8
Dimension (ANSI)
440
 16777216
100
AcDbTrace
 10
11.39388357954115
 20
36.36157329862346
 30
0.0
 11
11.39388357954115
 21
36.19753130758831
 31
0.0
 12
10.90175760643572
 22
36.27955230310589
 32
0.0
 13
10.90175760643572
 23
36.27955230310589
 33
0.0
  0
SOLID
  5
58F
330
4AB
100
AcDbEntity
  8
Dimension (ANSI)
440
 16777216
100
AcDbTrace
 10
18.40963163333029
 20
36.36157329862346
 30
0.0
 11
18.40963163333029
 21
36.19753130758831
 31
0.0
 12
18.90175760643572
 22
36.27955230310589
 32
0.0
 13
18.90175760643572
 23
36.27955230310589
 33
0.0
  0
MTEXT
  5
590
330
4AB
100
AcDbEntity
  8
Dimension (ANSI)
440
 16777216
100
AcDbMText
 10
14.13985283317769
 20
36.52955230683118
 30
0.0
 40
0.5000000074505806
 41
0.0
 71
     1
 72
     1
  1
\A1;8.00
  7
ROMANS
 73
     1
 44
1.0
  0
POINT
  5
591
330
4AB
100
AcDbEntity
  8
Defpoints
 62
     0
440
 16777216
100
AcDbPoint
 10
10.90175760643572
 20
33.08959708193496
 30
0.0
  0
POINT
  5
592
330
4AB
100
AcDbEntity
  8
Defpoints
 62
     0
440
 16777216
100
AcDbPoint
 10
18.90175760643572
 20
33.30834708193495
 30
0.0
  0
POINT
  5
593
330
4AB
100
AcDbEntity
  8
Defpoints
 62
     0
440
 16777216
100
AcDbPoint
 10
18.90175760643572
 20
36.27955230310589
 30
0.0
  0
ENDBLK
  5
4AD
330
4AB
100
AcDbEntity
  8
0
100
AcDbBlockEnd
  0
BLOCK
  5
596
330
595
100
AcDbEntity
  8
0
100
AcDbBlockBegin
  2
*D7
 70
     1
 10
0.0
 20
0.0
 30
0.0
  3
*D7
  1

  0
LINE
  5
6AD
330
595
100
AcDbEntity
  8
Dimension (ANSI)
440
 16777216
100
AcDbLine
 10
19.60243328211133
 20
33.30834708193494
 30
0.0
 11
23.21345777674341
 21
33.30834708193491
 31
0.0
  0
LINE
  5
6AE
330
595
100
AcDbEntity
  8
Dimension (ANSI)
440
 16777216
100
AcDbLine
 10
19.18176772333054
 20
33.89900132608429
 30
0.0
 11
20.3623383990738
 21
37.31158843565498
 31
0.0
  0
ARC
  5
6AF
330
595
100
AcDbEntity
  8
Dimension (ANSI)
440
 16777216
100
AcDbCircle
 10
18.97743328211133
 20
33.30834708193495
 30
0.0
 40
3.611024494632085
100
AcDbArc
 50
7.814571252430363
 51
27.85728080605025
  0
ARC
  5
6B0
330
595
100
AcDbEntity
  8
Dimension (ANSI)
440
 16777216
100
AcDbCircle
 10
18.97743328211133
 20
33.30834708193495
 30
0.0
 40
3.611024494632085
100
AcDbArc
 50
43.8646851600992
 51
63.10257465626735
  0
SOLID
  5
6B1
330
595
100
AcDbEntity
  8
Dimension (ANSI)
440
 16777216
100
AcDbTrace
 10
22.63675360071219
 20
33.8049182555826
 30
0.0
 11
22.47309290526057
 21
33.79374008099693
 31
0.0
 12
22.58845777674341
 22
33.30834708193491
 32
0.0
 13
22.58845777674341
 23
33.30834708193491
 33
0.0
  0
SOLID
  5
6B2
330
595
100
AcDbEntity
  8
Dimension (ANSI)
440
 16777216
100
AcDbTrace
 10
20.57900622733552
 20
36.45321697838222
 30
0.0
 11
20.64307655216036
 21
36.60422945568
 31
0.0
 12
20.15800395785459
 22
36.72093419150563
 32
0.0
 13
20.15800395785459
 23
36.72093419150563
 33
0.0
  0
MTEXT
  5
6B3
330
595
100
AcDbEntity
  8
Dimension (ANSI)
440
 16777216
100
AcDbMText
 10
21.41873974701219
 20
35.65315355322149
 30
0.0
 40
0.5000000074505806
 41
0.0
 71
     1
 72
     1
  1
\A1;71\U+00B0
  7
ROMANS
 73
     1
 44
1.0
  0
POINT
  5
6B4
330
595
100
AcDbEntity
  8
Defpoints
 62
     0
440
 16777216
100
AcDbPoint
 10
18.97743328211133
 20
33.30834708193495
 30
0.0
  0
POINT
  5
6B5
330
595
100
AcDbEntity
  8
Defpoints
 62
     0
440
 16777216
100
AcDbPoint
 10
19.28993328211133
 20
33.30834708193495
 30
0.0
  0
POINT
  5
6B6
330
595
100
AcDbEntity
  8
Defpoints
 62
     0
440
 16777216
100
AcDbPoint
 10
19.07960050272093
 20
33.60367420400962
 30
0.0
  0
POINT
  5
6B7
330
595
100
AcDbEntity
  8
Defpoints
 62
     0
440
 16777216
100
AcDbPoint
 10
22.28545551248122
 20
34.75627208835327
 30
0.0
  0
ENDBLK
  5
597
330
595
100
AcDbEntity
  8
0
100
AcDbBlockEnd
  0
BLOCK
  5
6BA
330
6B9
100
AcDbEntity
  8
0
100
AcDbBlockBegin
  2
*D8
 70
     1
 10
0.0
 20
0.0
 30
0.0
  3
*D8
  1

  0
LINE
  5
79F
330
6B9
100
AcDbEntity
  8
Dimension (ANSI)
440
 16777216
100
AcDbLine
 10
44.38305471943958
 20
42.59495345029599
 30
0.0
 11
43.89092874633415
 21
42.59495345029599
 31
0.0
  0
LINE
  5
7A0
330
6B9
100
AcDbEntity
  8
Dimension (ANSI)
440
 16777216
100
AcDbLine
 10
46.61730666565037
 20
42.59495345029599
 30
0.0
 11
47.76124575312713
 21
42.59495345029599
 31
0.0
  0
SOLID
  5
7A1
330
6B9
100
AcDbEntity
  8
Dimension (ANSI)
440
 16777216
100
AcDbTrace
 10
44.38305471943958
 20
42.67697444581357
 30
0.0
 11
44.38305471943958
 21
42.51293245477842
 31
0.0
 12
44.87518069254501
 22
42.59495345029599
 32
0.0
 13
44.87518069254501
 23
42.59495345029599
 33
0.0
  0
SOLID
  5
7A2
330
6B9
100
AcDbEntity
  8
Dimension (ANSI)
440
 16777216
100
AcDbTrace
 10
46.61730666565037
 20
42.67697444581357
 30
0.0
 11
46.61730666565037
 21
42.51293245477842
 31
0.0
 12
46.12518069254494
 22
42.59495345029599
 32
0.0
 13
46.12518069254494
 23
42.59495345029599
 33
0.0
  0
MTEXT
  5
7A3
330
6B9
100
AcDbEntity
  8
Dimension (ANSI)
440
 16777216
100
AcDbMText
 10
49.21634513504284
 20
42.59495345029599
 30
0.0
 40
0.5000000074505806
 41
0.0
 71
     5
 72
     1
  1
\A1;1.25{\P(2 PL.)}
  7
ROMANS
 73
     1
 44
1.0
  0
POINT
  5
7A4
330
6B9
100
AcDbEntity
  8
Defpoints
 62
     0
440
 16777216
100
AcDbPoint
 10
44.87518069254501
 20
42.80649397455722
 30
0.0
  0
POINT
  5
7A5
330
6B9
100
AcDbEntity
  8
Defpoints
 62
     0
440
 16777216
100
AcDbPoint
 10
46.12518069254494
 20
42.80649397455723
 30
0.0
  0
POINT
  5
7A6
330
6B9
100
AcDbEntity
  8
Defpoints
 62
     0
440
 16777216
100
AcDbPoint
 10
46.12518069254494
 20
42.59495345029599
 30
0.0
  0
ENDBLK
  5
6BB
330
6B9
100
AcDbEntity
  8
0
100
AcDbBlockEnd
  0
BLOCK
  5
7A9
330
7A8
100
AcDbEntity
  8
0
100
AcDbBlockBegin
  2
*D9
 70
     1
 10
0.0
 20
0.0
 30
0.0
  3
*D9
  1

  0
LINE
  5
894
330
7A8
100
AcDbEntity
  8
Dimension (ANSI)
440
 16777216
100
AcDbLine
 10
34.18900814926736
 20
41.95614889071236
 30
0.0
 11
34.18900814926736
 21
42.44827486381779
 31
0.0
  0
LINE
  5
895
330
7A8
100
AcDbEntity
  8
Dimension (ANSI)
440
 16777216
100
AcDbLine
 10
34.18900814926736
 20
39.72189694450157
 30
0.0
 11
34.18900814926736
 21
38.82343549278713
 31
0.0
  0
LINE
  5
896
330
7A8
100
AcDbEntity
  8
Dimension (ANSI)
440
 16777216
100
AcDbLine
 10
34.18900814926736
 20
38.82343549278713
 30
0.0
 11
33.69688217616193
 21
38.82343549278713
 31
0.0
  0
SOLID
  5
897
330
7A8
100
AcDbEntity
  8
Dimension (ANSI)
440
 16777216
100
AcDbTrace
 10
34.10698715374979
 20
41.95614889071236
 30
0.0
 11
34.27102914478493
 21
41.95614889071236
 31
0.0
 12
34.18900814926736
 22
41.46402291760693
 32
0.0
 13
34.18900814926736
 23
41.46402291760693
 33
0.0
  0
SOLID
  5
898
330
7A8
100
AcDbEntity
  8
Dimension (ANSI)
440
 16777216
100
AcDbTrace
 10
34.10698715374979
 20
39.72189694450157
 30
0.0
 11
34.27102914478493
 21
39.72189694450157
 31
0.0
 12
34.18900814926736
 22
40.214022917607
 32
0.0
 13
34.18900814926736
 23
40.214022917607
 33
0.0
  0
MTEXT
  5
899
330
7A8
100
AcDbEntity
  8
Dimension (ANSI)
440
 16777216
100
AcDbMText
 10
32.08702088717818
 20
39.07343549651243
 30
0.0
 40
0.5000000074505806
 41
0.0
 71
     1
 72
     1
  1
\A1;1.25
  7
ROMANS
 73
     1
 44
1.0
  0
POINT
  5
89A
330
7A8
100
AcDbEntity
  8
Defpoints
 62
     0
440
 16777216
100
AcDbPoint
 10
32.47107730990514
 20
41.46402291760693
 30
0.0
  0
POINT
  5
89B
330
7A8
100
AcDbEntity
  8
Defpoints
 62
     0
440
 16777216
100
AcDbPoint
 10
33.27866709542617
 20
40.214022917607
 30
0.0
  0
POINT
  5
89C
330
7A8
100
AcDbEntity
  8
Defpoints
 62
     0
440
 16777216
100
AcDbPoint
 10
34.18900814926736
 20
40.214022917607
 30
0.0
  0
ENDBLK
  5
7AA
330
7A8
100
AcDbEntity
  8
0
100
AcDbBlockEnd
  0
BLOCK
  5
8A8
330
8A7
100
AcDbEntity
  8
0
100
AcDbBlockBegin
  2
*D10
 70
     1
 10
0.0
 20
0.0
 30
0.0
  3
*D10
  1

  0
LINE
  5
993
330
8A7
100
AcDbEntity
  8
Dimension (ANSI)
440
 16777216
100
AcDbLine
 10
27.90643069253868
 20
19.52530713101844
 30
0.0
 11
25.52169834585742
 21
19.52530713101844
 31
0.0
  0
LINE
  5
994
330
8A7
100
AcDbEntity
  8
Dimension (ANSI)
440
 16777216
100
AcDbLine
 10
27.46893069253868
 20
17.52530713101851
 30
0.0
 11
25.52169834585742
 21
17.52530713101851
 31
0.0
  0
LINE
  5
995
330
8A7
100
AcDbEntity
  8
Dimension (ANSI)
440
 16777216
100
AcDbLine
 10
26.14669834585742
 20
19.03318115791301
 30
0.0
 11
26.14669834585742
 21
18.01743310412394
 31
0.0
  0
LINE
  5
996
330
8A7
100
AcDbEntity
  8
Dimension (ANSI)
440
 16777216
100
AcDbLine
 10
26.14669834585742
 20
17.52530713101851
 30
0.0
 11
26.14669834585742
 21
16.66888054194029
 31
0.0
  0
LINE
  5
997
330
8A7
100
AcDbEntity
  8
Dimension (ANSI)
440
 16777216
100
AcDbLine
 10
26.14669834585742
 20
16.66888054194029
 30
0.0
 11
25.65457237275199
 21
16.66888054194029
 31
0.0
  0
SOLID
  5
998
330
8A7
100
AcDbEntity
  8
Dimension (ANSI)
440
 16777216
100
AcDbTrace
 10
26.06467735033985
 20
19.03318115791301
 30
0.0
 11
26.22871934137499
 21
19.03318115791301
 31
0.0
 12
26.14669834585742
 22
19.52530713101844
 32
0.0
 13
26.14669834585742
 23
19.52530713101844
 33
0.0
  0
SOLID
  5
999
330
8A7
100
AcDbEntity
  8
Dimension (ANSI)
440
 16777216
100
AcDbTrace
 10
26.06467735033985
 20
18.01743310412394
 30
0.0
 11
26.22871934137499
 21
18.01743310412394
 31
0.0
 12
26.14669834585742
 22
17.52530713101851
 32
0.0
 13
26.14669834585742
 23
17.52530713101851
 33
0.0
  0
MTEXT
  5
99A
330
8A7
100
AcDbEntity
  8
Dimension (ANSI)
440
 16777216
100
AcDbMText
 10
23.9732825112753
 20
16.91888054566559
 30
0.0
 40
0.5000000074505806
 41
0.0
 71
     1
 72
     1
  1
\A1;2.00
  7
ROMANS
 73
     1
 44
1.0
  0
POINT
  5
99B
330
8A7
100
AcDbEntity
  8
Defpoints
 62
     0
440
 16777216
100
AcDbPoint
 10
28.21893069253868
 20
19.52530713101844
 30
0.0
  0
POINT
  5
99C
330
8A7
100
AcDbEntity
  8
Defpoints
 62
     0
440
 16777216
100
AcDbPoint
 10
27.78143069253868
 20
17.52530713101851
 30
0.0
  0
POINT
  5
99D
330
8A7
100
AcDbEntity
  8
Defpoints
 62
     0
440
 16777216
100
AcDbPoint
 10
26.14669834585742
 20
17.52530713101851
 30
0.0
  0
ENDBLK
  5
8A9
330
8A7
100
AcDbEntity
  8
0
100
AcDbBlockEnd
  0
BLOCK
  5
9A0
330
99F
100
AcDbEntity
  8
0
100
AcDbBlockBegin
  2
*D11
 70
     1
 10
0.0
 20
0.0
 30
0.0
  3
*D11
  1

  0
LINE
  5
A7E
330
99F
100
AcDbEntity
  8
Dimension (ANSI)
440
 16777216
100
AcDbLine
 10
27.90643069253868
 20
19.52530713101844
 30
0.0
 11
21.71790623647855
 21
19.52530713101845
 31
0.0
  0
LINE
  5
A7F
330
99F
100
AcDbEntity
  8
Dimension (ANSI)
440
 16777216
100
AcDbLine
 10
27.46893069253868
 20
12.5253071310185
 30
0.0
 11
21.71790623647855
 21
12.5253071310185
 31
0.0
  0
LINE
  5
A80
330
99F
100
AcDbEntity
  8
Dimension (ANSI)
440
 16777216
100
AcDbLine
 10
22.34290623647855
 20
19.03318115791302
 30
0.0
 11
22.34290623647855
 21
16.43278744970439
 31
0.0
  0
LINE
  5
A81
330
99F
100
AcDbEntity
  8
Dimension (ANSI)
440
 16777216
100
AcDbLine
 10
22.34290623647855
 20
13.01743310412393
 30
0.0
 11
22.34290623647855
 21
15.61782681233255
 31
0.0
  0
SOLID
  5
A82
330
99F
100
AcDbEntity
  8
Dimension (ANSI)
440
 16777216
100
AcDbTrace
 10
22.26088524096098
 20
19.03318115791302
 30
0.0
 11
22.42492723199612
 21
19.03318115791302
 31
0.0
 12
22.34290623647855
 22
19.52530713101845
 32
0.0
 13
22.34290623647855
 23
19.52530713101845
 33
0.0
  0
SOLID
  5
A83
330
99F
100
AcDbEntity
  8
Dimension (ANSI)
440
 16777216
100
AcDbTrace
 10
22.26088524096098
 20
13.01743310412393
 30
0.0
 11
22.42492723199612
 21
13.01743310412393
 31
0.0
 12
22.34290623647855
 22
12.5253071310185
 32
0.0
 13
22.34290623647855
 23
12.5253071310185
 33
0.0
  0
MTEXT
  5
A84
330
99F
100
AcDbEntity
  8
Dimension (ANSI)
440
 16777216
100
AcDbMText
 10
21.58100146322052
 20
16.27530713474376
 30
0.0
 40
0.5000000074505806
 41
0.0
 71
     1
 72
     1
  1
\A1;7.00
  7
ROMANS
 73
     1
 44
1.0
  0
POINT
  5
A85
330
99F
100
AcDbEntity
  8
Defpoints
 62
     0
440
 16777216
100
AcDbPoint
 10
28.21893069253868
 20
19.52530713101844
 30
0.0
  0
POINT
  5
A86
330
99F
100
AcDbEntity
  8
Defpoints
 62
     0
440
 16777216
100
AcDbPoint
 10
27.78143069253868
 20
12.5253071310185
 30
0.0
  0
POINT
  5
A87
330
99F
100
AcDbEntity
  8
Defpoints
 62
     0
440
 16777216
100
AcDbPoint
 10
22.34290623647855
 20
12.5253071310185
 30
0.0
  0
ENDBLK
  5
9A1
330
99F
100
AcDbEntity
  8
0
100
AcDbBlockEnd
  0
BLOCK
  5
A8A
330
A89
100
AcDbEntity
  8
0
100
AcDbBlockBegin
  2
*D12
 70
     1
 10
0.0
 20
0.0
 30
0.0
  3
*D12
  1

  0
LINE
  5
B76
330
A89
100
AcDbEntity
  8
Dimension (ANSI)
440
 16777216
100
AcDbLine
 10
38.24682089645362
 20
18.34568115791308
 30
0.0
 11
38.24682089645362
 21
17.85355518480765
 31
0.0
  0
LINE
  5
B77
330
A89
100
AcDbEntity
  8
Dimension (ANSI)
440
 16777216
100
AcDbLine
 10
38.24682089645362
 20
20.01743310412388
 30
0.0
 11
38.24682089645362
 21
20.75521321383441
 31
0.0
  0
LINE
  5
B78
330
A89
100
AcDbEntity
  8
Dimension (ANSI)
440
 16777216
100
AcDbLine
 10
38.24682089645362
 20
20.75521321383441
 30
0.0
 11
38.73894686955905
 21
20.75521321383441
 31
0.0
  0
SOLID
  5
B79
330
A89
100
AcDbEntity
  8
Dimension (ANSI)
440
 16777216
100
AcDbTrace
 10
38.16479990093604
 20
18.34568115791308
 30
0.0
 11
38.3288418919712
 21
18.34568115791308
 31
0.0
 12
38.24682089645362
 22
18.83780713101851
 32
0.0
 13
38.24682089645362
 23
18.83780713101851
 33
0.0
  0
SOLID
  5
B7A
330
A89
100
AcDbEntity
  8
Dimension (ANSI)
440
 16777216
100
AcDbTrace
 10
38.16479990093604
 20
20.01743310412388
 30
0.0
 11
38.3288418919712
 21
20.01743310412388
 31
0.0
 12
38.24682089645362
 22
19.52530713101845
 32
0.0
 13
38.24682089645362
 23
19.52530713101845
 33
0.0
  0
MTEXT
  5
B7B
330
A89
100
AcDbEntity
  8
Dimension (ANSI)
440
 16777216
100
AcDbMText
 10
38.89642718451968
 20
21.0052132175597
 30
0.0
 40
0.5000000074505806
 41
0.0
 71
     1
 72
     1
  1
\A1;0.69
  7
ROMANS
 73
     1
 44
1.0
  0
POINT
  5
B7C
330
A89
100
AcDbEntity
  8
Defpoints
 62
     0
440
 16777216
100
AcDbPoint
 10
45.90643069253867
 20
19.52530713101844
 30
0.0
  0
POINT
  5
B7D
330
A89
100
AcDbEntity
  8
Defpoints
 62
     0
440
 16777216
100
AcDbPoint
 10
44.78143069253868
 20
18.83780713101851
 30
0.0
  0
POINT
  5
B7E
330
A89
100
AcDbEntity
  8
Defpoints
 62
     0
440
 16777216
100
AcDbPoint
 10
38.24682089645362
 20
18.83780713101851
 30
0.0
  0
ENDBLK
  5
A8B
330
A89
100
AcDbEntity
  8
0
100
AcDbBlockEnd
  0
BLOCK
  5
B81
330
B80
100
AcDbEntity
  8
0
100
AcDbBlockBegin
  2
*D13
 70
     1
 10
0.0
 20
0.0
 30
0.0
  3
*D13
  1

  0
LINE
  5
C5F
330
B80
100
AcDbEntity
  8
Dimension (ANSI)
440
 16777216
100
AcDbLine
 10
46.12518069253868
 20
19.61905713101845
 30
0.0
 11
46.12518069253868
 21
22.54153955469902
 31
0.0
  0
LINE
  5
C60
330
B80
100
AcDbEntity
  8
Dimension (ANSI)
440
 16777216
100
AcDbLine
 10
43.87518069253868
 20
20.05655713101851
 30
0.0
 11
43.87518069253868
 21
22.54153955469902
 31
0.0
  0
LINE
  5
C61
330
B80
100
AcDbEntity
  8
Dimension (ANSI)
440
 16777216
100
AcDbLine
 10
44.36730666564411
 20
21.91653955469902
 30
0.0
 11
45.63305471943325
 21
21.91653955469902
 31
0.0
  0
LINE
  5
C62
330
B80
100
AcDbEntity
  8
Dimension (ANSI)
440
 16777216
100
AcDbLine
 10
46.12518069253868
 20
21.91653955469902
 30
0.0
 11
46.95928694239846
 21
21.91653955469902
 31
0.0
  0
SOLID
  5
C63
330
B80
100
AcDbEntity
  8
Dimension (ANSI)
440
 16777216
100
AcDbTrace
 10
44.36730666564411
 20
21.99856055021659
 30
0.0
 11
44.36730666564411
 21
21.83451855918145
 31
0.0
 12
43.87518069253868
 22
21.91653955469902
 32
0.0
 13
43.87518069253868
 23
21.91653955469902
 33
0.0
  0
SOLID
  5
C64
330
B80
100
AcDbEntity
  8
Dimension (ANSI)
440
 16777216
100
AcDbTrace
 10
45.63305471943325
 20
21.99856055021659
 30
0.0
 11
45.63305471943325
 21
21.83451855918145
 31
0.0
 12
46.12518069253868
 22
21.91653955469902
 32
0.0
 13
46.12518069253868
 23
21.91653955469902
 33
0.0
  0
MTEXT
  5
C65
330
B80
100
AcDbEntity
  8
Dimension (ANSI)
440
 16777216
100
AcDbMText
 10
47.11676725735909
 20
22.16653955842431
 30
0.0
 40
0.5000000074505806
 41
0.0
 71
     1
 72
     1
  1
\A1;2.25
  7
ROMANS
 73
     1
 44
1.0
  0
POINT
  5
C66
330
B80
100
AcDbEntity
  8
Defpoints
 62
     0
440
 16777216
100
AcDbPoint
 10
46.12518069253868
 20
19.30655713101845
 30
0.0
  0
POINT
  5
C67
330
B80
100
AcDbEntity
  8
Defpoints
 62
     0
440
 16777216
100
AcDbPoint
 10
43.87518069253868
 20
19.74405713101851
 30
0.0
  0
POINT
  5
C68
330
B80
100
AcDbEntity
  8
Defpoints
 62
     0
440
 16777216
100
AcDbPoint
 10
43.87518069253868
 20
21.91653955469902
 30
0.0
  0
ENDBLK
  5
B82
330
B80
100
AcDbEntity
  8
0
100
AcDbBlockEnd
  0
BLOCK
  5
C6B
330
C6A
100
AcDbEntity
  8
0
100
AcDbBlockBegin
  2
*D14
 70
     1
 10
0.0
 20
0.0
 30
0.0
  3
*D14
  1

  0
LINE
  5
D49
330
C6A
100
AcDbEntity
  8
Dimension (ANSI)
440
 16777216
100
AcDbLine
 10
28.00018069253868
 20
19.61905713101845
 30
0.0
 11
28.00018069253868
 21
22.54153955469901
 31
0.0
  0
LINE
  5
D4A
330
C6A
100
AcDbEntity
  8
Dimension (ANSI)
440
 16777216
100
AcDbLine
 10
30.25018069253868
 20
20.05655713101851
 30
0.0
 11
30.25018069253868
 21
22.54153955469901
 31
0.0
  0
LINE
  5
D4B
330
C6A
100
AcDbEntity
  8
Dimension (ANSI)
440
 16777216
100
AcDbLine
 10
29.75805471943325
 20
21.91653955469901
 30
0.0
 11
28.49230666564411
 21
21.91653955469901
 31
0.0
  0
LINE
  5
D4C
330
C6A
100
AcDbEntity
  8
Dimension (ANSI)
440
 16777216
100
AcDbLine
 10
28.00018069253868
 20
21.91653955469901
 30
0.0
 11
27.1660744426789
 21
21.91653955469901
 31
0.0
  0
SOLID
  5
D4D
330
C6A
100
AcDbEntity
  8
Dimension (ANSI)
440
 16777216
100
AcDbTrace
 10
29.75805471943325
 20
21.99856055021658
 30
0.0
 11
29.75805471943325
 21
21.83451855918144
 31
0.0
 12
30.25018069253868
 22
21.91653955469901
 32
0.0
 13
30.25018069253868
 23
21.91653955469901
 33
0.0
  0
SOLID
  5
D4E
330
C6A
100
AcDbEntity
  8
Dimension (ANSI)
440
 16777216
100
AcDbTrace
 10
28.49230666564411
 20
21.99856055021658
 30
0.0
 11
28.49230666564411
 21
21.83451855918144
 31
0.0
 12
28.00018069253868
 22
21.91653955469901
 32
0.0
 13
28.00018069253868
 23
21.91653955469901
 33
0.0
  0
MTEXT
  5
D4F
330
C6A
100
AcDbEntity
  8
Dimension (ANSI)
440
 16777216
100
AcDbMText
 10
25.48478458120222
 20
22.1665395584243
 30
0.0
 40
0.5000000074505806
 41
0.0
 71
     1
 72
     1
  1
\A1;2.25
  7
ROMANS
 73
     1
 44
1.0
  0
POINT
  5
D50
330
C6A
100
AcDbEntity
  8
Defpoints
 62
     0
440
 16777216
100
AcDbPoint
 10
28.00018069253868
 20
19.30655713101845
 30
0.0
  0
POINT
  5
D51
330
C6A
100
AcDbEntity
  8
Defpoints
 62
     0
440
 16777216
100
AcDbPoint
 10
30.25018069253868
 20
19.74405713101851
 30
0.0
  0
POINT
  5
D52
330
C6A
100
AcDbEntity
  8
Defpoints
 62
     0
440
 16777216
100
AcDbPoint
 10
30.25018069253868
 20
21.91653955469901
 30
0.0
  0
ENDBLK
  5
C6C
330
C6A
100
AcDbEntity
  8
0
100
AcDbBlockEnd
  0
BLOCK
  5
D57
330
D56
100
AcDbEntity
  8
0
100
AcDbBlockBegin
  2
*D15
 70
     1
 10
0.0
 20
0.0
 30
0.0
  3
*D15
  1

  0
LINE
  5
E49
330
D56
100
AcDbEntity
  8
Dimension (ANSI)
440
 16777216
100
AcDbLine
 10
28.00018069253868
 20
11.21280713101844
 30
0.0
 11
28.00018069253868
 21
10.1470102690185
 31
0.0
  0
LINE
  5
E4A
330
D56
100
AcDbEntity
  8
Dimension (ANSI)
440
 16777216
100
AcDbLine
 10
28.68768069253868
 20
11.30655713101851
 30
0.0
 11
28.68768069253868
 21
10.1470102690185
 31
0.0
  0
LINE
  5
E4B
330
D56
100
AcDbEntity
  8
Dimension (ANSI)
440
 16777216
100
AcDbLine
 10
29.17980666564411
 20
10.7720102690185
 30
0.0
 11
29.67193263874954
 21
10.7720102690185
 31
0.0
  0
LINE
  5
E4C
330
D56
100
AcDbEntity
  8
Dimension (ANSI)
440
 16777216
100
AcDbLine
 10
27.50805471943325
 20
10.7720102690185
 30
0.0
 11
26.36411563195647
 21
10.7720102690185
 31
0.0
  0
SOLID
  5
E4D
330
D56
100
AcDbEntity
  8
Dimension (ANSI)
440
 16777216
100
AcDbTrace
 10
29.17980666564411
 20
10.85403126453607
 30
0.0
 11
29.17980666564411
 21
10.68998927350093
 31
0.0
 12
28.68768069253868
 22
10.7720102690185
 32
0.0
 13
28.68768069253868
 23
10.7720102690185
 33
0.0
  0
SOLID
  5
E4E
330
D56
100
AcDbEntity
  8
Dimension (ANSI)
440
 16777216
100
AcDbTrace
 10
27.50805471943325
 20
10.85403126453607
 30
0.0
 11
27.50805471943325
 21
10.68998927350093
 31
0.0
 12
28.00018069253868
 22
10.7720102690185
 32
0.0
 13
28.00018069253868
 23
10.7720102690185
 33
0.0
  0
MTEXT
  5
E4F
330
D56
100
AcDbEntity
  8
Dimension (ANSI)
440
 16777216
100
AcDbMText
 10
24.90901625004076
 20
10.7720102690185
 30
0.0
 40
0.5000000074505806
 41
0.0
 71
     5
 72
     1
  1
\A1;0.69{\P(2 PL.)}
  7
ROMANS
 73
     1
 44
1.0
  0
POINT
  5
E50
330
D56
100
AcDbEntity
  8
Defpoints
 62
     0
440
 16777216
100
AcDbPoint
 10
28.00018069253868
 20
11.52530713101844
 30
0.0
  0
POINT
  5
E51
330
D56
100
AcDbEntity
  8
Defpoints
 62
     0
440
 16777216
100
AcDbPoint
 10
28.68768069253868
 20
11.61905713101851
 30
0.0
  0
POINT
  5
E52
330
D56
100
AcDbEntity
  8
Defpoints
 62
     0
440
 16777216
100
AcDbPoint
 10
28.68768069253868
 20
10.7720102690185
 30
0.0
  0
ENDBLK
  5
D58
330
D56
100
AcDbEntity
  8
0
100
AcDbBlockEnd
  0
BLOCK
  5
E55
330
E54
100
AcDbEntity
  8
0
100
AcDbBlockBegin
  2
*D16
 70
     1
 10
0.0
 20
0.0
 30
0.0
  3
*D16
  1

  0
LINE
  5
F05
330
E54
100
AcDbEntity
  8
Dimension (ANSI)
440
 16777216
100
AcDbLine
 10
48.2630352277384
 20
15.22429250181857
 30
0.0
 11
47.55237143801498
 21
15.22429250181857
 31
0.0
  0
LINE
  5
F06
330
E54
100
AcDbEntity
  8
Dimension (ANSI)
440
 16777216
100
AcDbLine
 10
47.55237143801498
 20
15.22429250181857
 30
0.0
 11
45.91466011470873
 21
13.13407722440609
 31
0.0
  0
MTEXT
  5
F07
102
{ACAD_XDICTIONARY
360
1583
102
}
330
E54
100
AcDbEntity
  8
Dimension (ANSI)
440
 16777216
100
AcDbMText
 10
49.7181346096541
 20
15.22429250181857
 30
0.0
 40
0.5000000074505806
 41
0.0
 71
     5
 72
     1
  1
\A1;\U+22050.563{\P(6 PL.)}
  7
ROMANS
 73
     1
 44
1.0
  0
SOLID
  5
F08
330
E54
100
AcDbEntity
  8
Dimension (ANSI)
440
 16777216
100
AcDbTrace
 10
45.85009652489293
 20
13.18466365120015
 30
0.0
 11
45.97922370452454
 21
13.08349079761204
 31
0.0
 12
45.61114155394441
 22
12.74669568551128
 32
0.0
 13
45.61114155394441
 23
12.74669568551128
 33
0.0
  0
LINE
  5
F09
330
E54
100
AcDbEntity
  8
Dimension (ANSI)
440
 16777216
100
AcDbLine
 10
44.98768069253873
 20
12.52530713101849
 30
0.0
 11
45.88768069253874
 21
12.52530713101849
 31
0.0
  0
LINE
  5
F0A
330
E54
100
AcDbEntity
  8
Dimension (ANSI)
440
 16777216
100
AcDbLine
 10
45.43768069253874
 20
12.07530713101849
 30
0.0
 11
45.43768069253874
 21
12.97530713101848
 31
0.0
  0
POINT
  5
F0B
330
E54
100
AcDbEntity
  8
Defpoints
 62
     0
440
 16777216
100
AcDbPoint
 10
45.61114155394441
 20
12.74669568551128
 30
0.0
  0
POINT
  5
F0C
330
E54
100
AcDbEntity
  8
Defpoints
 62
     0
440
 16777216
100
AcDbPoint
 10
45.26421983113308
 20
12.30391857652569
 30
0.0
  0
ENDBLK
  5
E56
330
E54
100
AcDbEntity
  8
0
100
AcDbBlockEnd
  0
BLOCK
  5
F14
330
F13
100
AcDbEntity
  8
0
100
AcDbBlockBegin
  2
*D17
 70
     1
 10
0.0
 20
0.0
 30
0.0
  3
*D17
  1

  0
LINE
  5
FF2
330
F13
100
AcDbEntity
  8
Dimension (ANSI)
440
 16777216
100
AcDbLine
 10
28.00018069254491
 20
48.52652291760865
 30
0.0
 11
28.00018069254491
 21
50.04513355714358
 31
0.0
  0
LINE
  5
FF3
330
F13
100
AcDbEntity
  8
Dimension (ANSI)
440
 16777216
100
AcDbLine
 10
30.12518069254488
 20
48.18277291760693
 30
0.0
 11
30.12518069254488
 21
50.04513355714358
 31
0.0
  0
LINE
  5
FF4
330
F13
100
AcDbEntity
  8
Dimension (ANSI)
440
 16777216
100
AcDbLine
 10
29.63305471943945
 20
49.42013355714358
 30
0.0
 11
28.49230666565035
 21
49.42013355714358
 31
0.0
  0
LINE
  5
FF5
330
F13
100
AcDbEntity
  8
Dimension (ANSI)
440
 16777216
100
AcDbLine
 10
28.00018069254491
 20
49.42013355714358
 30
0.0
 11
27.16607444268515
 21
49.42013355714358
 31
0.0
  0
SOLID
  5
FF6
330
F13
100
AcDbEntity
  8
Dimension (ANSI)
440
 16777216
100
AcDbTrace
 10
29.63305471943945
 20
49.50215455266116
 30
0.0
 11
29.63305471943945
 21
49.33811256162601
 31
0.0
 12
30.12518069254488
 22
49.42013355714358
 32
0.0
 13
30.12518069254488
 23
49.42013355714358
 33
0.0
  0
SOLID
  5
FF7
330
F13
100
AcDbEntity
  8
Dimension (ANSI)
440
 16777216
100
AcDbTrace
 10
28.49230666565035
 20
49.50215455266116
 30
0.0
 11
28.49230666565035
 21
49.33811256162601
 31
0.0
 12
28.00018069254491
 22
49.42013355714358
 32
0.0
 13
28.00018069254491
 23
49.42013355714358
 33
0.0
  0
MTEXT
  5
FF8
330
F13
100
AcDbEntity
  8
Dimension (ANSI)
440
 16777216
100
AcDbMText
 10
25.48478458120846
 20
49.67013356086887
 30
0.0
 40
0.5000000074505806
 41
0.0
 71
     1
 72
     1
  1
\A1;2.13
  7
ROMANS
 73
     1
 44
1.0
  0
POINT
  5
FF9
330
F13
100
AcDbEntity
  8
Defpoints
 62
     0
440
 16777216
100
AcDbPoint
 10
28.00018069254491
 20
48.21402291760865
 30
0.0
  0
POINT
  5
FFA
330
F13
100
AcDbEntity
  8
Defpoints
 62
     0
440
 16777216
100
AcDbPoint
 10
30.12518069254488
 20
47.87027291760693
 30
0.0
  0
POINT
  5
FFB
330
F13
100
AcDbEntity
  8
Defpoints
 62
     0
440
 16777216
100
AcDbPoint
 10
30.12518069254488
 20
49.42013355714358
 30
0.0
  0
ENDBLK
  5
F15
330
F13
100
AcDbEntity
  8
0
100
AcDbBlockEnd
  0
BLOCK
  5
FFE
330
FFD
100
AcDbEntity
  8
0
100
AcDbBlockBegin
  2
*D18
 70
     1
 10
0.0
 20
0.0
 30
0.0
  3
*D18
  1

  0
LINE
  5
10DC
330
FFD
100
AcDbEntity
  8
Dimension (ANSI)
440
 16777216
100
AcDbLine
 10
28.00018069254491
 20
48.52652291760865
 30
0.0
 11
28.00018069254491
 21
51.23052996145929
 31
0.0
  0
LINE
  5
10DD
330
FFD
100
AcDbEntity
  8
Dimension (ANSI)
440
 16777216
100
AcDbLine
 10
37.06268069254488
 20
45.18277291760696
 30
0.0
 11
37.06268069254488
 21
51.23052996145929
 31
0.0
  0
LINE
  5
10DE
330
FFD
100
AcDbEntity
  8
Dimension (ANSI)
440
 16777216
100
AcDbLine
 10
28.49230666565035
 20
50.60552996145929
 30
0.0
 11
31.61204560432624
 21
50.60552996145929
 31
0.0
  0
LINE
  5
10DF
330
FFD
100
AcDbEntity
  8
Dimension (ANSI)
440
 16777216
100
AcDbLine
 10
36.57055471943945
 20
50.60552996145929
 30
0.0
 11
33.45081578076355
 21
50.60552996145929
 31
0.0
  0
SOLID
  5
10E0
330
FFD
100
AcDbEntity
  8
Dimension (ANSI)
440
 16777216
100
AcDbTrace
 10
28.49230666565035
 20
50.68755095697687
 30
0.0
 11
28.49230666565035
 21
50.52350896594172
 31
0.0
 12
28.00018069254491
 22
50.60552996145929
 32
0.0
 13
28.00018069254491
 23
50.60552996145929
 33
0.0
  0
SOLID
  5
10E1
330
FFD
100
AcDbEntity
  8
Dimension (ANSI)
440
 16777216
100
AcDbTrace
 10
36.57055471943945
 20
50.68755095697687
 30
0.0
 11
36.57055471943945
 21
50.52350896594172
 31
0.0
 12
37.06268069254488
 22
50.60552996145929
 32
0.0
 13
37.06268069254488
 23
50.60552996145929
 33
0.0
  0
MTEXT
  5
10E2
330
FFD
100
AcDbEntity
  8
Dimension (ANSI)
440
 16777216
100
AcDbMText
 10
31.76952591928687
 20
50.85552996518458
 30
0.0
 40
0.5000000074505806
 41
0.0
 71
     1
 72
     1
  1
\A1;9.06
  7
ROMANS
 73
     1
 44
1.0
  0
POINT
  5
10E3
330
FFD
100
AcDbEntity
  8
Defpoints
 62
     0
440
 16777216
100
AcDbPoint
 10
28.00018069254491
 20
48.21402291760865
 30
0.0
  0
POINT
  5
10E4
330
FFD
100
AcDbEntity
  8
Defpoints
 62
     0
440
 16777216
100
AcDbPoint
 10
37.06268069254488
 20
44.87027291760696
 30
0.0
  0
POINT
  5
10E5
330
FFD
100
AcDbEntity
  8
Defpoints
 62
     0
440
 16777216
100
AcDbPoint
 10
37.06268069254488
 20
50.60552996145929
 30
0.0
  0
ENDBLK
  5
FFF
330
FFD
100
AcDbEntity
  8
0
100
AcDbBlockEnd
  0
BLOCK
  5
10E8
330
10E7
100
AcDbEntity
  8
0
100
AcDbBlockBegin
  2
*D19
 70
     1
 10
0.0
 20
0.0
 30
0.0
  3
*D19
  1

  0
LINE
  5
11C6
330
10E7
100
AcDbEntity
  8
Dimension (ANSI)
440
 16777216
100
AcDbLine
 10
46.12518069254496
 20
48.52652291760865
 30
0.0
 11
46.12518069254496
 21
50.04513355714358
 31
0.0
  0
LINE
  5
11C7
330
10E7
100
AcDbEntity
  8
Dimension (ANSI)
440
 16777216
100
AcDbLine
 10
44.00018069254488
 20
48.18277291760693
 30
0.0
 11
44.00018069254488
 21
50.04513355714358
 31
0.0
  0
LINE
  5
11C8
330
10E7
100
AcDbEntity
  8
Dimension (ANSI)
440
 16777216
100
AcDbLine
 10
44.49230666565031
 20
49.42013355714358
 30
0.0
 11
45.63305471943953
 21
49.42013355714358
 31
0.0
  0
LINE
  5
11C9
330
10E7
100
AcDbEntity
  8
Dimension (ANSI)
440
 16777216
100
AcDbLine
 10
46.12518069254496
 20
49.42013355714358
 30
0.0
 11
46.95928694240474
 21
49.42013355714358
 31
0.0
  0
SOLID
  5
11CA
330
10E7
100
AcDbEntity
  8
Dimension (ANSI)
440
 16777216
100
AcDbTrace
 10
44.49230666565031
 20
49.50215455266116
 30
0.0
 11
44.49230666565031
 21
49.33811256162601
 31
0.0
 12
44.00018069254488
 22
49.42013355714358
 32
0.0
 13
44.00018069254488
 23
49.42013355714358
 33
0.0
  0
SOLID
  5
11CB
330
10E7
100
AcDbEntity
  8
Dimension (ANSI)
440
 16777216
100
AcDbTrace
 10
45.63305471943953
 20
49.50215455266116
 30
0.0
 11
45.63305471943953
 21
49.33811256162601
 31
0.0
 12
46.12518069254496
 22
49.42013355714358
 32
0.0
 13
46.12518069254496
 23
49.42013355714358
 33
0.0
  0
MTEXT
  5
11CC
330
10E7
100
AcDbEntity
  8
Dimension (ANSI)
440
 16777216
100
AcDbMText
 10
47.11676725736537
 20
49.67013356086887
 30
0.0
 40
0.5000000074505806
 41
0.0
 71
     1
 72
     1
  1
\A1;2.13
  7
ROMANS
 73
     1
 44
1.0
  0
POINT
  5
11CD
330
10E7
100
AcDbEntity
  8
Defpoints
 62
     0
440
 16777216
100
AcDbPoint
 10
46.12518069254496
 20
48.21402291760865
 30
0.0
  0
POINT
  5
11CE
330
10E7
100
AcDbEntity
  8
Defpoints
 62
     0
440
 16777216
100
AcDbPoint
 10
44.00018069254488
 20
47.87027291760693
 30
0.0
  0
POINT
  5
11CF
330
10E7
100
AcDbEntity
  8
Defpoints
 62
     0
440
 16777216
100
AcDbPoint
 10
44.00018069254488
 20
49.42013355714358
 30
0.0
  0
ENDBLK
  5
10E9
330
10E7
100
AcDbEntity
  8
0
100
AcDbBlockEnd
  0
BLOCK
  5
11D2
330
11D1
100
AcDbEntity
  8
0
100
AcDbBlockBegin
  2
*D20
 70
     1
 10
0.0
 20
0.0
 30
0.0
  3
*D20
  1

  0
LINE
  5
12B8
330
11D1
100
AcDbEntity
  8
Dimension (ANSI)
440
 16777216
100
AcDbLine
 10
27.68768069254492
 20
48.21402291760865
 30
0.0
 11
24.05260068882682
 21
48.21402291760865
 31
0.0
  0
LINE
  5
12B9
330
11D1
100
AcDbEntity
  8
Dimension (ANSI)
440
 16777216
100
AcDbLine
 10
28.90643069254488
 20
46.96402291760692
 30
0.0
 11
24.05260068882682
 21
46.96402291760692
 31
0.0
  0
LINE
  5
12BA
330
11D1
100
AcDbEntity
  8
Dimension (ANSI)
440
 16777216
100
AcDbLine
 10
24.67760068882682
 20
48.70614889071408
 30
0.0
 11
24.67760068882682
 21
49.19827486381951
 31
0.0
  0
LINE
  5
12BB
330
11D1
100
AcDbEntity
  8
Dimension (ANSI)
440
 16777216
100
AcDbLine
 10
24.67760068882682
 20
46.47189694450149
 30
0.0
 11
24.67760068882682
 21
45.97977097139606
 31
0.0
  0
SOLID
  5
12BC
330
11D1
100
AcDbEntity
  8
Dimension (ANSI)
440
 16777216
100
AcDbTrace
 10
24.59557969330925
 20
48.70614889071408
 30
0.0
 11
24.75962168434439
 21
48.70614889071408
 31
0.0
 12
24.67760068882682
 22
48.21402291760865
 32
0.0
 13
24.67760068882682
 23
48.21402291760865
 33
0.0
  0
SOLID
  5
12BD
330
11D1
100
AcDbEntity
  8
Dimension (ANSI)
440
 16777216
100
AcDbTrace
 10
24.59557969330925
 20
46.47189694450149
 30
0.0
 11
24.75962168434439
 21
46.47189694450149
 31
0.0
 12
24.67760068882682
 22
46.96402291760692
 32
0.0
 13
24.67760068882682
 23
46.96402291760692
 33
0.0
  0
MTEXT
  5
12BE
330
11D1
100
AcDbEntity
  8
Dimension (ANSI)
440
 16777216
100
AcDbMText
 10
23.95141020181526
 20
47.83902292133308
 30
0.0
 40
0.5000000074505806
 41
0.0
 71
     1
 72
     1
  1
\A1;1.25
  7
ROMANS
 73
     1
 44
1.0
  0
POINT
  5
12BF
330
11D1
100
AcDbEntity
  8
Defpoints
 62
     0
440
 16777216
100
AcDbPoint
 10
28.00018069254491
 20
48.21402291760865
 30
0.0
  0
POINT
  5
12C0
330
11D1
100
AcDbEntity
  8
Defpoints
 62
     0
440
 16777216
100
AcDbPoint
 10
29.21893069254488
 20
46.96402291760692
 30
0.0
  0
POINT
  5
12C1
330
11D1
100
AcDbEntity
  8
Defpoints
 62
     0
440
 16777216
100
AcDbPoint
 10
24.67760068882682
 20
46.96402291760692
 30
0.0
  0
ENDBLK
  5
11D3
330
11D1
100
AcDbEntity
  8
0
100
AcDbBlockEnd
  0
BLOCK
  5
12C4
330
12C3
100
AcDbEntity
  8
0
100
AcDbBlockBegin
  2
*D21
 70
     1
 10
0.0
 20
0.0
 30
0.0
  3
*D21
  1

  0
LINE
  5
13A2
330
12C3
100
AcDbEntity
  8
Dimension (ANSI)
440
 16777216
100
AcDbLine
 10
27.68768069254492
 20
48.21402291760865
 30
0.0
 11
21.80225503415702
 21
48.21402291760865
 31
0.0
  0
LINE
  5
13A3
330
12C3
100
AcDbEntity
  8
Dimension (ANSI)
440
 16777216
100
AcDbLine
 10
35.84393069254488
 20
43.96402291760696
 30
0.0
 11
21.80225503415702
 21
43.96402291760696
 31
0.0
  0
LINE
  5
13A4
330
12C3
100
AcDbEntity
  8
Dimension (ANSI)
440
 16777216
100
AcDbLine
 10
22.42725503415702
 20
47.72189694450321
 30
0.0
 11
22.42725503415702
 21
46.60840826638199
 31
0.0
  0
LINE
  5
13A5
330
12C3
100
AcDbEntity
  8
Dimension (ANSI)
440
 16777216
100
AcDbLine
 10
22.42725503415702
 20
44.45614889071239
 30
0.0
 11
22.42725503415702
 21
45.79344762901015
 31
0.0
  0
SOLID
  5
13A6
330
12C3
100
AcDbEntity
  8
Dimension (ANSI)
440
 16777216
100
AcDbTrace
 10
22.34523403863944
 20
47.72189694450321
 30
0.0
 11
22.50927602967458
 21
47.72189694450321
 31
0.0
 12
22.42725503415702
 22
48.21402291760865
 32
0.0
 13
22.42725503415702
 23
48.21402291760865
 33
0.0
  0
SOLID
  5
13A7
330
12C3
100
AcDbEntity
  8
Dimension (ANSI)
440
 16777216
100
AcDbTrace
 10
22.34523403863944
 20
44.45614889071239
 30
0.0
 11
22.50927602967458
 21
44.45614889071239
 31
0.0
 12
22.42725503415702
 22
43.96402291760696
 32
0.0
 13
22.42725503415702
 23
43.96402291760696
 33
0.0
  0
MTEXT
  5
13A8
330
12C3
100
AcDbEntity
  8
Dimension (ANSI)
440
 16777216
100
AcDbMText
 10
21.66535026089898
 20
46.45092795142137
 30
0.0
 40
0.5000000074505806
 41
0.0
 71
     1
 72
     1
  1
\A1;4.25
  7
ROMANS
 73
     1
 44
1.0
  0
POINT
  5
13A9
330
12C3
100
AcDbEntity
  8
Defpoints
 62
     0
440
 16777216
100
AcDbPoint
 10
28.00018069254491
 20
48.21402291760865
 30
0.0
  0
POINT
  5
13AA
330
12C3
100
AcDbEntity
  8
Defpoints
 62
     0
440
 16777216
100
AcDbPoint
 10
36.15643069254488
 20
43.96402291760696
 30
0.0
  0
POINT
  5
13AB
330
12C3
100
AcDbEntity
  8
Defpoints
 62
     0
440
 16777216
100
AcDbPoint
 10
22.42725503415702
 20
43.96402291760696
 30
0.0
  0
ENDBLK
  5
12C5
330
12C3
100
AcDbEntity
  8
0
100
AcDbBlockEnd
  0
BLOCK
  5
13AE
330
13AD
100
AcDbEntity
  8
0
100
AcDbBlockBegin
  2
*D22
 70
     1
 10
0.0
 20
0.0
 30
0.0
  3
*D22
  1

  0
LINE
  5
1448
330
13AD
100
AcDbEntity
  8
Dimension (ANSI)
440
 16777216
100
AcDbLine
 10
47.52086697060982
 20
45.95265844105985
 30
0.0
 11
37.82244310011357
 21
44.1084925677837
 31
0.0
  0
MTEXT
  5
1449
102
{ACAD_XDICTIONARY
360
1585
102
}
330
13AD
100
AcDbEntity
  8
Dimension (ANSI)
440
 16777216
100
AcDbMText
 10
48.97596635252553
 20
45.95265844105985
 30
0.0
 40
0.5000000074505806
 41
0.0
 71
     5
 72
     1
  1
\A1;\U+22050.563{\P(3 PL.)}
  7
ROMANS
 73
     1
 44
1.0
  0
SOLID
  5
144A
330
13AD
100
AcDbEntity
  8
Dimension (ANSI)
440
 16777216
100
AcDbTrace
 10
37.80712125803204
 20
44.18906976592885
 30
0.0
 11
37.8377649421951
 21
44.02791536963856
 31
0.0
 12
37.33897991124269
 22
44.01656151529452
 32
0.0
 13
37.33897991124269
 23
44.01656151529452
 33
0.0
  0
LINE
  5
144B
330
13AD
100
AcDbEntity
  8
Dimension (ANSI)
440
 16777216
100
AcDbLine
 10
36.61268069254487
 20
43.96402291760696
 30
0.0
 11
37.51268069254488
 21
43.96402291760696
 31
0.0
  0
LINE
  5
144C
330
13AD
100
AcDbEntity
  8
Dimension (ANSI)
440
 16777216
100
AcDbLine
 10
37.06268069254488
 20
43.51402291760696
 30
0.0
 11
37.06268069254488
 21
44.41402291760697
 31
0.0
  0
POINT
  5
144D
330
13AD
100
AcDbEntity
  8
Defpoints
 62
     0
440
 16777216
100
AcDbPoint
 10
37.33897991124269
 20
44.01656151529452
 30
0.0
  0
POINT
  5
144E
330
13AD
100
AcDbEntity
  8
Defpoints
 62
     0
440
 16777216
100
AcDbPoint
 10
36.78638147384705
 20
43.91148431991942
 30
0.0
  0
ENDBLK
  5
13AF
330
13AD
100
AcDbEntity
  8
0
100
AcDbBlockEnd
  0
BLOCK
  5
1451
330
1450
100
AcDbEntity
  8
0
100
AcDbBlockBegin
  2
*D23
 70
     1
 10
0.0
 20
0.0
 30
0.0
  3
*D23
  1

  0
LINE
  5
152F
330
1450
100
AcDbEntity
  8
Dimension (ANSI)
440
 16777216
100
AcDbLine
 10
10.90175760643572
 20
27.21459708193496
 30
0.0
 11
10.90175760643572
 21
24.52074849858107
 31
0.0
  0
LINE
  5
1530
330
1450
100
AcDbEntity
  8
Dimension (ANSI)
440
 16777216
100
AcDbLine
 10
18.65175760643576
 20
26.99597322313317
 30
0.0
 11
18.65175760643576
 21
24.52074849858107
 31
0.0
  0
LINE
  5
1531
330
1450
100
AcDbEntity
  8
Dimension (ANSI)
440
 16777216
100
AcDbLine
 10
11.39388357954115
 20
25.14574849858107
 30
0.0
 11
13.70422480597989
 21
25.14574849858107
 31
0.0
  0
LINE
  5
1532
330
1450
100
AcDbEntity
  8
Dimension (ANSI)
440
 16777216
100
AcDbLine
 10
18.15963163333033
 20
25.14574849858107
 30
0.0
 11
15.5429949824172
 21
25.14574849858107
 31
0.0
  0
SOLID
  5
1533
330
1450
100
AcDbEntity
  8
Dimension (ANSI)
440
 16777216
100
AcDbTrace
 10
11.39388357954115
 20
25.22776949409863
 30
0.0
 11
11.39388357954115
 21
25.06372750306349
 31
0.0
 12
10.90175760643572
 22
25.14574849858107
 32
0.0
 13
10.90175760643572
 23
25.14574849858107
 33
0.0
  0
SOLID
  5
1534
330
1450
100
AcDbEntity
  8
Dimension (ANSI)
440
 16777216
100
AcDbTrace
 10
18.15963163333033
 20
25.22776949409863
 30
0.0
 11
18.15963163333033
 21
25.06372750306349
 31
0.0
 12
18.65175760643576
 22
25.14574849858107
 32
0.0
 13
18.65175760643576
 23
25.14574849858107
 33
0.0
  0
MTEXT
  5
1535
330
1450
100
AcDbEntity
  8
Dimension (ANSI)
440
 16777216
100
AcDbMText
 10
13.86170512094052
 20
25.39574850230636
 30
0.0
 40
0.5000000074505806
 41
0.0
 71
     1
 72
     1
  1
\A1;7.75
  7
ROMANS
 73
     1
 44
1.0
  0
POINT
  5
1536
330
1450
100
AcDbEntity
  8
Defpoints
 62
     0
440
 16777216
100
AcDbPoint
 10
10.90175760643572
 20
27.52709708193496
 30
0.0
  0
POINT
  5
1537
330
1450
100
AcDbEntity
  8
Defpoints
 62
     0
440
 16777216
100
AcDbPoint
 10
18.65175760643576
 20
27.30847322313317
 30
0.0
  0
POINT
  5
1538
330
1450
100
AcDbEntity
  8
Defpoints
 62
     0
440
 16777216
100
AcDbPoint
 10
18.65175760643576
 20
25.14574849858107
 30
0.0
  0
ENDBLK
  5
1452
330
1450
100
AcDbEntity
  8
0
100
AcDbBlockEnd
  0
ENDSEC
  0
SECTION
  2
ENTITIES
  0
SPLINE
  5
107
330
6C
100
AcDbEntity
  8
Visible (ANSI)
100
AcDbSpline
210
0.0
220
0.0
230
1.0
 70
     8
 71
     3
 72
    11
 73
     7
 74
     0
 42
0.0000000001
 43
0.0000000001
 40
0.0
 40
0.0
 40
0.0
 40
0.0
 40
0.9120227246348024
 40
0.9120227246348024
 40
0.9120227246348024
 40
1.570796326794897
 40
1.570796326794897
 40
1.570796326794897
 40
1.570796326794897
 10
45.90643069254197
 20
27.30834708193488
 30
0.0
 10
45.97293234954662
 20
27.30834708193488
 30
0.0
 10
46.03869702065148
 20
27.34060404900122
 30
0.0
 10
46.07940584681643
 20
27.39318980616639
 30
0.0
 10
46.1088107062876
 20
27.43117362798825
 30
0.0
 10
46.12518069254205
 20
27.47906150677744
 30
0.0
 10
46.12518069254205
 20
27.52709708193496
 30
0.0
  0
LINE
  5
108
330
6C
100
AcDbEntity
  8
Visible (ANSI)
100
AcDbLine
 10
45.90643069254197
 20
27.43334708193489
 30
0.0
 11
45.90643069254197
 21
27.30834708193489
 31
0.0
  0
LINE
  5
109
330
6C
100
AcDbEntity
  8
Visible (ANSI)
100
AcDbLine
 10
46.04569126774738
 20
27.52709708193496
 30
0.0
 11
46.12518069254191
 21
27.52709708193496
 31
0.0
  0
LINE
  5
10A
330
6C
100
AcDbEntity
  8
Visible (ANSI)
100
AcDbLine
 10
46.00018069254192
 20
27.52709708193496
 30
0.0
 11
46.04569126774738
 21
27.52709708193496
 31
0.0
  0
SPLINE
  5
10B
330
6C
100
AcDbEntity
  8
Visible (ANSI)
100
AcDbSpline
210
0.0
220
0.0
230
1.0
 70
     8
 71
     3
 72
    11
 73
     7
 74
     0
 42
0.0000000001
 43
0.0000000001
 40
0.0
 40
0.0
 40
0.0
 40
0.0
 40
1.12719708240312
 40
1.12719708240312
 40
1.12719708240312
 40
1.570796326794897
 40
1.570796326794897
 40
1.570796326794897
 40
1.570796326794897
 10
46.00018069254205
 20
27.52709708193496
 30
0.0
 10
46.00018069254205
 20
27.49187217310983
 30
0.0
 10
45.97848313430543
 20
27.45753917557145
 30
0.0
 10
45.94666754767875
 20
27.44242088699969
 30
0.0
 10
45.93414678231501
 20
27.4364712074879
 30
0.0
 10
45.92029316892924
 20
27.43334708193489
 30
0.0
 10
45.90643069254197
 20
27.43334708193489
 30
0.0
  0
LINE
  5
10C
330
6C
100
AcDbEntity
  8
Visible Narrow (ANSI)
100
AcDbLine
 10
28.21893069254187
 20
27.52709708193496
 30
0.0
 11
28.25018069254184
 21
27.52709708193496
 31
0.0
  0
LINE
  5
10D
330
6C
100
AcDbEntity
  8
Visible Narrow (ANSI)
100
AcDbLine
 10
45.87518069254183
 20
27.52709708193496
 30
0.0
 11
45.90643069254187
 21
27.52709708193496
 31
0.0
  0
SPLINE
  5
10E
330
6C
100
AcDbEntity
  8
Visible (ANSI)
100
AcDbSpline
210
0.0
220
0.0
230
1.0
 70
     8
 71
     3
 72
    11
 73
     7
 74
     0
 42
0.0000000001
 43
0.0000000001
 40
0.0
 40
0.0
 40
0.0
 40
0.0
 40
0.912022724634949
 40
0.912022724634949
 40
0.912022724634949
 40
1.570796326794896
 40
1.570796326794896
 40
1.570796326794896
 40
1.570796326794896
 10
28.00018069254188
 20
27.52709708193496
 30
0.0
 10
28.00018069254188
 20
27.46059542493032
 30
0.0
 10
28.03243765960821
 20
27.39483075382548
 30
0.0
 10
28.08502341677338
 20
27.35412192766053
 30
0.0
 10
28.12300723859522
 20
27.32471706818939
 30
0.0
 10
28.17089511738439
 20
27.30834708193495
 30
0.0
 10
28.21893069254188
 20
27.30834708193495
 30
0.0
  0
LINE
  5
10F
330
6C
100
AcDbEntity
  8
Visible (ANSI)
100
AcDbLine
 10
28.21893069254188
 20
27.43334708193496
 30
0.0
 11
28.21893069254188
 21
27.30834708193495
 31
0.0
  0
SPLINE
  5
110
330
6C
100
AcDbEntity
  8
Visible (ANSI)
100
AcDbSpline
210
0.0
220
0.0
230
1.0
 70
     8
 71
     3
 72
    11
 73
     7
 74
     0
 42
0.0000000001
 43
0.0000000001
 40
0.0
 40
0.0
 40
0.0
 40
0.0
 40
1.127197082403386
 40
1.127197082403386
 40
1.127197082403386
 40
1.570796326794896
 40
1.570796326794896
 40
1.570796326794896
 40
1.570796326794896
 10
28.12518069254188
 20
27.52709708193496
 30
0.0
 10
28.12518069254188
 20
27.49187217310985
 30
0.0
 10
28.14687825077849
 20
27.45753917557147
 30
0.0
 10
28.17869383740515
 20
27.44242088699974
 30
0.0
 10
28.19121460276889
 20
27.43647120748796
 30
0.0
 10
28.20506821615465
 20
27.43334708193496
 30
0.0
 10
28.21893069254188
 20
27.43334708193496
 30
0.0
  0
LINE
  5
111
330
6C
100
AcDbEntity
  8
Visible (ANSI)
100
AcDbLine
 10
28.07967011733646
 20
27.52709708193496
 30
0.0
 11
28.12518069254188
 21
27.52709708193496
 31
0.0
  0
LINE
  5
112
330
6C
100
AcDbEntity
  8
Visible (ANSI)
100
AcDbLine
 10
28.00018069254188
 20
27.52709708193496
 30
0.0
 11
28.07967011733646
 21
27.52709708193496
 31
0.0
  0
LINE
  5
113
330
6C
100
AcDbEntity
  8
Visible (ANSI)
100
AcDbLine
 10
45.90643069254197
 20
27.43334708193489
 30
0.0
 11
45.87518069254183
 21
27.43334708193489
 31
0.0
  0
LINE
  5
114
330
6C
100
AcDbEntity
  8
Visible (ANSI)
100
AcDbLine
 10
44.87518069254199
 20
27.30834708193489
 30
0.0
 11
45.90643069254197
 21
27.30834708193489
 31
0.0
  0
LINE
  5
115
330
6C
100
AcDbEntity
  8
Visible (ANSI)
100
AcDbLine
 10
44.87518069254199
 20
27.30847322313318
 30
0.0
 11
44.87518069254199
 21
27.30834708193489
 31
0.0
  0
LINE
  5
116
330
6C
100
AcDbEntity
  8
Visible (ANSI)
100
AcDbLine
 10
29.27227777945395
 20
27.30834708193496
 30
0.0
 11
44.85308360562982
 21
27.30834708193496
 31
0.0
  0
LINE
  5
117
330
6C
100
AcDbEntity
  8
Visible (ANSI)
100
AcDbLine
 10
28.21893069254188
 20
27.43334708193496
 30
0.0
 11
28.25018069254184
 21
27.43334708193496
 31
0.0
  0
LINE
  5
118
330
6C
100
AcDbEntity
  8
Visible (ANSI)
100
AcDbLine
 10
28.21893069254188
 20
27.30834708193495
 30
0.0
 11
29.25018069254188
 21
27.30834708193496
 31
0.0
  0
LINE
  5
119
330
6C
100
AcDbEntity
  8
Visible (ANSI)
100
AcDbLine
 10
29.25018069254188
 20
27.30847322313318
 30
0.0
 11
29.25018069254188
 21
27.30834708193496
 31
0.0
  0
LINE
  5
11A
330
6C
100
AcDbEntity
  8
Visible (ANSI)
100
AcDbLine
 10
28.12518069254188
 20
27.52709708193496
 30
0.0
 11
28.21893069254187
 21
27.52709708193496
 31
0.0
  0
LINE
  5
11B
330
6C
100
AcDbEntity
  8
Visible (ANSI)
100
AcDbLine
 10
45.90643069254187
 20
27.52709708193496
 30
0.0
 11
46.00018069254187
 21
27.52709708193496
 31
0.0
  0
SPLINE
  5
11C
330
6C
100
AcDbEntity
  8
Visible (ANSI)
100
AcDbSpline
210
0.0
220
0.0
230
1.0
 70
     8
 71
     3
 72
     8
 73
     4
 74
     0
 42
0.0000000001
 43
0.0000000001
 40
0.0
 40
0.0
 40
0.0
 40
0.0
 40
0.4429110440736485
 40
0.4429110440736485
 40
0.4429110440736485
 40
0.4429110440736485
 10
28.21893069254187
 20
27.52709708193496
 30
0.0
 10
28.22100756774805
 20
27.49480148497125
 30
0.0
 10
28.22308444295423
 20
27.46267970045658
 30
0.0
 10
28.2251613181604
 20
27.43351705254501
 30
0.0
  0
SPLINE
  5
11D
330
6C
100
AcDbEntity
  8
Visible (ANSI)
100
AcDbSpline
210
0.0
220
0.0
230
1.0
 70
     8
 71
     3
 72
     8
 73
     4
 74
     0
 42
0.0000000001
 43
0.0000000001
 40
1.127885282720923
 40
1.127885282720923
 40
1.127885282720923
 40
1.127885282720923
 40
1.570796326794897
 40
1.570796326794897
 40
1.570796326794897
 40
1.570796326794897
 10
45.90020006692334
 20
27.43337560562335
 30
0.0
 10
45.90227694212952
 20
27.46257265017986
 30
0.0
 10
45.90435381733569
 20
27.49480148497123
 30
0.0
 10
45.90643069254187
 20
27.52709708193496
 30
0.0
  0
LINE
  5
11E
330
6C
100
AcDbEntity
  8
Visible (ANSI)
100
AcDbLine
 10
44.85308360562982
 20
27.30834708193496
 30
0.0
 11
44.87518069254195
 21
27.30834708193496
 31
0.0
  0
LINE
  5
11F
330
6C
100
AcDbEntity
  8
Visible (ANSI)
100
AcDbLine
 10
44.85308360562982
 20
27.30847322313318
 30
0.0
 11
44.85308360562982
 21
27.30834708193496
 31
0.0
  0
SPLINE
  5
120
330
6C
100
AcDbEntity
  8
Visible (ANSI)
100
AcDbSpline
210
0.0
220
0.0
230
1.0
 70
     8
 71
     3
 72
    11
 73
     7
 74
     0
 42
0.0000000001
 43
0.0000000001
 40
0.0
 40
0.0
 40
0.0
 40
0.0
 40
1.12719708240338
 40
1.12719708240338
 40
1.12719708240338
 40
1.570796326794897
 40
1.570796326794897
 40
1.570796326794897
 40
1.570796326794897
 10
45.90643069254187
 20
27.52709708193496
 30
0.0
 10
45.90114509918348
 20
27.49187217310985
 30
0.0
 10
45.89585950582508
 20
27.45753917557148
 30
0.0
 10
45.89057391246668
 20
27.44242088699974
 30
0.0
 10
45.88849381018772
 20
27.43647120748796
 30
0.0
 10
45.88641370790876
 20
27.43334708193496
 30
0.0
 10
45.88433360562979
 20
27.43334708193496
 30
0.0
  0
SPLINE
  5
121
330
6C
100
AcDbEntity
  8
Visible (ANSI)
100
AcDbSpline
210
0.0
220
0.0
230
1.0
 70
     8
 71
     3
 72
    11
 73
     7
 74
     0
 42
0.0000000001
 43
0.0000000001
 40
0.0
 40
0.0
 40
0.0
 40
0.0
 40
1.127197082403383
 40
1.127197082403383
 40
1.127197082403383
 40
1.570796326794896
 40
1.570796326794896
 40
1.570796326794896
 40
1.570796326794896
 10
28.21893069254187
 20
27.52709708193496
 30
0.0
 10
28.22421628590028
 20
27.49187217310985
 30
0.0
 10
28.22950187925867
 20
27.45753917557148
 30
0.0
 10
28.23478747261707
 20
27.44242088699974
 30
0.0
 10
28.23686757489603
 20
27.43647120748796
 30
0.0
 10
28.23894767717499
 20
27.43334708193496
 30
0.0
 10
28.24102777945395
 20
27.43334708193496
 30
0.0
  0
LINE
  5
122
330
6C
100
AcDbEntity
  8
Visible (ANSI)
100
AcDbLine
 10
29.25018069254188
 20
27.30834708193496
 30
0.0
 11
29.27227777945395
 21
27.30834708193496
 31
0.0
  0
LINE
  5
123
330
6C
100
AcDbEntity
  8
Visible (ANSI)
100
AcDbLine
 10
29.27227777945395
 20
27.30847322313318
 30
0.0
 11
29.27227777945395
 21
27.30834708193496
 31
0.0
  0
LINE
  5
124
330
6C
100
AcDbEntity
  8
Visible (ANSI)
100
AcDbLine
 10
28.00018069254188
 20
27.52709708193496
 30
0.0
 11
28.00018069254188
 21
33.08959708193496
 31
0.0
  0
LINE
  5
125
330
6C
100
AcDbEntity
  8
Visible (ANSI)
100
AcDbLine
 10
46.00018069254192
 20
27.52709708193496
 30
0.0
 11
46.00018069254192
 21
33.08959708193496
 31
0.0
  0
LINE
  5
126
330
6C
100
AcDbEntity
  8
Visible (ANSI)
100
AcDbLine
 10
46.12518069254192
 20
33.08959708193496
 30
0.0
 11
46.12518069254191
 21
27.52709708193496
 31
0.0
  0
LINE
  5
127
330
6C
100
AcDbEntity
  8
Visible (ANSI)
100
AcDbLine
 10
46.00018069254192
 20
33.08959708193496
 30
0.0
 11
46.12518069254192
 21
33.08959708193496
 31
0.0
  0
LINE
  5
128
330
6C
100
AcDbEntity
  8
Visible (ANSI)
100
AcDbLine
 10
28.12518069254188
 20
33.08959708193496
 30
0.0
 11
28.12518069254188
 21
27.52709708193496
 31
0.0
  0
LINE
  5
129
330
6C
100
AcDbEntity
  8
Visible (ANSI)
100
AcDbLine
 10
28.00018069254188
 20
33.08959708193496
 30
0.0
 11
28.12518069254188
 21
33.08959708193496
 31
0.0
  0
LINE
  5
12A
330
6C
100
AcDbEntity
  8
Visible Narrow (ANSI)
100
AcDbLine
 10
28.21893069254187
 20
33.08959708193496
 30
0.0
 11
28.21893069254187
 21
27.52709708193496
 31
0.0
  0
LINE
  5
12B
330
6C
100
AcDbEntity
  8
Visible Narrow (ANSI)
100
AcDbLine
 10
45.90643069254187
 20
27.52709708193496
 30
0.0
 11
45.90643069254187
 21
33.08959708193496
 31
0.0
  0
LINE
  5
12C
330
6C
100
AcDbEntity
  8
Visible (ANSI)
100
AcDbLine
 10
28.21893069254187
 20
33.08959708193496
 30
0.0
 11
28.12518069254188
 21
33.08959708193496
 31
0.0
  0
LINE
  5
12D
330
6C
100
AcDbEntity
  8
Visible (ANSI)
100
AcDbLine
 10
28.75018069254188
 20
33.18334708193496
 30
0.0
 11
28.21893069254187
 21
33.18334708193495
 31
0.0
  0
LINE
  5
12E
330
6C
100
AcDbEntity
  8
Visible (ANSI)
100
AcDbLine
 10
28.75018069254187
 20
33.30834708193496
 30
0.0
 11
28.21893069254187
 21
33.30834708193495
 31
0.0
  0
LINE
  5
12F
330
6C
100
AcDbEntity
  8
Visible (ANSI)
100
AcDbLine
 10
45.90643069254229
 20
33.30834708193514
 30
0.0
 11
45.37518069254266
 21
33.30834708193514
 31
0.0
  0
LINE
  5
130
330
6C
100
AcDbEntity
  8
Visible (ANSI)
100
AcDbLine
 10
45.37518069254266
 20
33.18334708193515
 30
0.0
 11
45.90643069254229
 21
33.18334708193514
 31
0.0
  0
LINE
  5
131
330
6C
100
AcDbEntity
  8
Visible (ANSI)
100
AcDbLine
 10
44.85308360562985
 20
33.18334708193497
 30
0.0
 11
29.27227777945395
 21
33.18334708193496
 31
0.0
  0
LINE
  5
132
330
6C
100
AcDbEntity
  8
Visible (ANSI)
100
AcDbLine
 10
44.85308360562985
 20
33.30834708193496
 30
0.0
 11
29.27227777945395
 21
33.30834708193496
 31
0.0
  0
LINE
  5
133
330
6C
100
AcDbEntity
  8
Visible (ANSI)
100
AcDbLine
 10
46.00018069254187
 20
33.08959708193496
 30
0.0
 11
45.90643069254187
 21
33.08959708193496
 31
0.0
  0
LINE
  5
134
330
6C
100
AcDbEntity
  8
Visible (ANSI)
100
AcDbLine
 10
29.25018069254187
 20
33.30834708193496
 30
0.0
 11
28.75018069254187
 21
33.30834708193496
 31
0.0
  0
LINE
  5
135
330
6C
100
AcDbEntity
  8
Visible (ANSI)
100
AcDbLine
 10
28.75018069254187
 20
33.30834708193496
 30
0.0
 11
28.75018069254188
 21
33.18334708193496
 31
0.0
  0
LINE
  5
136
330
6C
100
AcDbEntity
  8
Visible (ANSI)
100
AcDbLine
 10
28.75018069254188
 20
33.18334708193496
 30
0.0
 11
29.25018069254188
 21
33.18334708193497
 31
0.0
  0
LINE
  5
137
330
6C
100
AcDbEntity
  8
Visible (ANSI)
100
AcDbLine
 10
29.25018069254188
 20
33.18334708193497
 30
0.0
 11
29.25018069254187
 21
33.30834708193496
 31
0.0
  0
LINE
  5
138
330
6C
100
AcDbEntity
  8
Visible (ANSI)
100
AcDbLine
 10
45.37518069254266
 20
33.30834708193514
 30
0.0
 11
44.87518069254264
 21
33.30834708193513
 31
0.0
  0
LINE
  5
139
330
6C
100
AcDbEntity
  8
Visible (ANSI)
100
AcDbLine
 10
44.87518069254264
 20
33.30834708193513
 30
0.0
 11
44.87518069254264
 21
33.18334708193512
 31
0.0
  0
LINE
  5
13A
330
6C
100
AcDbEntity
  8
Visible (ANSI)
100
AcDbLine
 10
44.87518069254264
 20
33.18334708193512
 30
0.0
 11
45.37518069254266
 21
33.18334708193515
 31
0.0
  0
LINE
  5
13B
330
6C
100
AcDbEntity
  8
Visible (ANSI)
100
AcDbLine
 10
45.37518069254266
 20
33.18334708193515
 30
0.0
 11
45.37518069254266
 21
33.30834708193514
 31
0.0
  0
ARC
  5
13C
330
6C
100
AcDbEntity
  8
Visible (ANSI)
100
AcDbCircle
 10
28.21893069254187
 20
33.08959708193496
 30
0.0
 40
0.0937500000000008
100
AcDbArc
 50
90.00000000000211
 51
180.0
  0
ARC
  5
13D
330
6C
100
AcDbEntity
  8
Visible (ANSI)
100
AcDbCircle
 10
28.21893069254187
 20
33.08959708193496
 30
0.0
 40
0.2187499999999996
100
AcDbArc
 50
90.0000000000009
 51
180.0
  0
ARC
  5
13E
330
6C
100
AcDbEntity
  8
Visible (ANSI)
100
AcDbCircle
 10
45.90643069254229
 20
33.08959708193496
 30
0.0
 40
0.2187500000001842
100
AcDbArc
 50
0.0
 51
90.0
  0
ARC
  5
13F
330
6C
100
AcDbEntity
  8
Visible (ANSI)
100
AcDbCircle
 10
45.90643069254229
 20
33.08959708193496
 30
0.0
 40
0.0937500000001812
100
AcDbArc
 50
0.0
 51
90.0
  0
LINE
  5
140
330
6C
100
AcDbEntity
  8
Visible Narrow (ANSI)
100
AcDbLine
 10
45.90643069254187
 20
33.08959708193496
 30
0.0
 11
28.21893069254187
 21
33.08959708193496
 31
0.0
  0
SPLINE
  5
141
330
6C
100
AcDbEntity
  8
Visible (ANSI)
100
AcDbSpline
210
0.0
220
0.0
230
1.0
 70
     8
 71
     3
 72
     8
 73
     4
 74
     0
 42
0.0000000001
 43
0.0000000001
 40
0.0
 40
0.0
 40
0.0
 40
0.0
 40
0.4429110440745779
 40
0.4429110440745779
 40
0.4429110440745779
 40
0.4429110440745779
 10
45.90643069254187
 20
33.08959708193496
 30
0.0
 10
45.90435381733569
 20
33.12189267889873
 30
0.0
 10
45.90227694212951
 20
33.15401446341347
 30
0.0
 10
45.90020006692333
 20
33.18317711132509
 30
0.0
  0
SPLINE
  5
142
330
6C
100
AcDbEntity
  8
Visible (ANSI)
100
AcDbSpline
210
0.0
220
0.0
230
1.0
 70
     8
 71
     3
 72
     8
 73
     4
 74
     0
 42
0.0000000001
 43
0.0000000001
 40
1.127885282721266
 40
1.127885282721266
 40
1.127885282721266
 40
1.127885282721266
 40
1.5707963267949
 40
1.5707963267949
 40
1.5707963267949
 40
1.5707963267949
 10
28.2251613181604
 20
33.18331855824649
 30
0.0
 10
28.22308444295423
 20
33.15412151368999
 30
0.0
 10
28.22100756774805
 20
33.12189267889865
 30
0.0
 10
28.21893069254187
 20
33.08959708193496
 30
0.0
  0
LINE
  5
143
330
6C
100
AcDbEntity
  8
Visible (ANSI)
100
AcDbLine
 10
44.87518069254231
 20
33.18334708193497
 30
0.0
 11
44.85308360562985
 21
33.18334708193497
 31
0.0
  0
LINE
  5
144
330
6C
100
AcDbEntity
  8
Visible (ANSI)
100
AcDbLine
 10
29.25018069254187
 20
33.18334708193496
 30
0.0
 11
29.27227777945395
 21
33.18334708193496
 31
0.0
  0
LINE
  5
145
330
6C
100
AcDbEntity
  8
Visible (ANSI)
100
AcDbLine
 10
29.27227777945395
 20
33.30834708193496
 30
0.0
 11
29.25018069254187
 21
33.30834708193496
 31
0.0
  0
LINE
  5
146
330
6C
100
AcDbEntity
  8
Visible (ANSI)
100
AcDbLine
 10
29.27227777945395
 20
33.18334708193496
 30
0.0
 11
29.27227777945395
 21
33.30834708193496
 31
0.0
  0
SPLINE
  5
147
330
6C
100
AcDbEntity
  8
Visible (ANSI)
100
AcDbSpline
210
0.0
220
0.0
230
1.0
 70
     8
 71
     3
 72
    11
 73
     7
 74
     0
 42
0.0000000001
 43
0.0000000001
 40
0.0
 40
0.0
 40
0.0
 40
0.0
 40
1.127197082403319
 40
1.127197082403319
 40
1.127197082403319
 40
1.5707963267949
 40
1.5707963267949
 40
1.5707963267949
 40
1.5707963267949
 10
28.21893069254187
 20
33.08959708193496
 30
0.0
 10
28.22421628590027
 20
33.12482199076006
 30
0.0
 10
28.22950187925867
 20
33.15915498829844
 30
0.0
 10
28.23478747261706
 20
33.17427327687017
 30
0.0
 10
28.23686757489603
 20
33.18022295638195
 30
0.0
 10
28.23894767717499
 20
33.18334708193495
 30
0.0
 10
28.24102777945395
 20
33.18334708193495
 30
0.0
  0
SPLINE
  5
148
330
6C
100
AcDbEntity
  8
Visible (ANSI)
100
AcDbSpline
210
0.0
220
0.0
230
1.0
 70
     8
 71
     3
 72
    11
 73
     7
 74
     0
 42
0.0000000001
 43
0.0000000001
 40
0.0
 40
0.0
 40
0.0
 40
0.0
 40
1.127197082403368
 40
1.127197082403368
 40
1.127197082403368
 40
1.5707963267949
 40
1.5707963267949
 40
1.5707963267949
 40
1.5707963267949
 10
45.90643069254187
 20
33.08959708193496
 30
0.0
 10
45.90114509918348
 20
33.12482199076006
 30
0.0
 10
45.89585950582508
 20
33.15915498829844
 30
0.0
 10
45.89057391246668
 20
33.17427327687017
 30
0.0
 10
45.88849381018772
 20
33.18022295638196
 30
0.0
 10
45.88641370790876
 20
33.18334708193495
 30
0.0
 10
45.88433360562979
 20
33.18334708193495
 30
0.0
  0
LINE
  5
149
330
6C
100
AcDbEntity
  8
Visible (ANSI)
100
AcDbLine
 10
44.87518069254231
 20
33.30834708193496
 30
0.0
 11
44.85308360562985
 21
33.30834708193496
 31
0.0
  0
LINE
  5
14A
330
6C
100
AcDbEntity
  8
Visible (ANSI)
100
AcDbLine
 10
44.85308360562985
 20
33.18334708193497
 30
0.0
 11
44.85308360562985
 21
33.30834708193496
 31
0.0
  0
LINE
  5
14B
330
6C
100
AcDbEntity
  8
Visible (ANSI)
100
AcDbLine
 10
45.75018069254183
 20
27.43347322313317
 30
0.0
 11
45.87518069254183
 21
27.43347322313317
 31
0.0
  0
LINE
  5
14C
330
6C
100
AcDbEntity
  8
Visible Narrow (ANSI)
100
AcDbLine
 10
45.75018069254183
 20
27.43347322313317
 30
0.0
 11
45.75018069254183
 21
27.30847322313318
 31
0.0
  0
LINE
  5
14D
330
6C
100
AcDbEntity
  8
Visible (ANSI)
100
AcDbLine
 10
45.87518069254183
 20
27.30847322313318
 30
0.0
 11
45.75018069254183
 21
27.30847322313318
 31
0.0
  0
LINE
  5
14E
330
6C
100
AcDbEntity
  8
Visible (ANSI)
100
AcDbLine
 10
45.87518069254183
 20
27.30847322313318
 30
0.0
 11
45.87518069254183
 21
27.43347322313317
 31
0.0
  0
LINE
  5
14F
330
6C
100
AcDbEntity
  8
Visible (ANSI)
100
AcDbLine
 10
28.37518069254183
 20
27.30847322313317
 30
0.0
 11
28.25018069254184
 21
27.30847322313317
 31
0.0
  0
LINE
  5
150
330
6C
100
AcDbEntity
  8
Visible (ANSI)
100
AcDbLine
 10
28.25018069254184
 20
27.43347322313317
 30
0.0
 11
28.37518069254183
 21
27.43347322313317
 31
0.0
  0
LINE
  5
151
330
6C
100
AcDbEntity
  8
Visible (ANSI)
100
AcDbLine
 10
28.25018069254184
 20
27.43347322313317
 30
0.0
 11
28.25018069254184
 21
27.30847322313317
 31
0.0
  0
LINE
  5
152
330
6C
100
AcDbEntity
  8
Visible Narrow (ANSI)
100
AcDbLine
 10
28.37518069254183
 20
27.30847322313317
 30
0.0
 11
28.37518069254183
 21
27.43347322313317
 31
0.0
  0
LINE
  5
153
330
6C
100
AcDbEntity
  8
Visible (ANSI)
100
AcDbLine
 10
45.87518069254183
 20
27.55834708193497
 30
0.0
 11
45.87518069254183
 21
27.49427669031953
 31
0.0
  0
LINE
  5
154
330
6C
100
AcDbEntity
  8
Visible (ANSI)
100
AcDbLine
 10
28.25018069254184
 20
27.55834708193497
 30
0.0
 11
28.25018069254184
 21
27.49427669031952
 31
0.0
  0
LINE
  5
155
330
6C
100
AcDbEntity
  8
Visible (ANSI)
100
AcDbLine
 10
45.87518069254183
 20
27.55834708193497
 30
0.0
 11
28.25018069254184
 21
27.55834708193497
 31
0.0
  0
LINE
  5
156
330
6C
100
AcDbEntity
  8
Visible Narrow (ANSI)
100
AcDbLine
 10
45.87518069254183
 20
27.49427669031953
 30
0.0
 11
28.25018069254183
 21
27.49427669031952
 31
0.0
  0
LINE
  5
157
330
6C
100
AcDbEntity
  8
Visible (ANSI)
100
AcDbLine
 10
45.87518069254183
 20
27.46093196239693
 30
0.0
 11
45.87518069254183
 21
27.49427669031953
 31
0.0
  0
LINE
  5
158
330
6C
100
AcDbEntity
  8
Visible (ANSI)
100
AcDbLine
 10
28.25018069254183
 20
27.49427669031952
 30
0.0
 11
28.25018069254184
 21
27.46093196239693
 31
0.0
  0
LINE
  5
159
330
6C
100
AcDbEntity
  8
Visible (ANSI)
100
AcDbLine
 10
45.87518069254183
 20
27.43347322313317
 30
0.0
 11
45.87518069254183
 21
27.46093196239693
 31
0.0
  0
LINE
  5
15A
330
6C
100
AcDbEntity
  8
Visible (ANSI)
100
AcDbLine
 10
28.25018069254184
 20
27.43347322313317
 30
0.0
 11
28.25018069254184
 21
27.46093196239693
 31
0.0
  0
LINE
  5
15B
330
6C
100
AcDbEntity
  8
Visible Narrow (ANSI)
100
AcDbLine
 10
45.87518069254183
 20
27.46093196239693
 30
0.0
 11
28.25018069254184
 21
27.46093196239693
 31
0.0
  0
LINE
  5
15C
330
6C
100
AcDbEntity
  8
Visible (ANSI)
100
AcDbLine
 10
28.37518069254183
 20
27.30847322313317
 30
0.0
 11
45.75018069254183
 21
27.30847322313318
 31
0.0
  0
LINE
  5
15D
330
6C
100
AcDbEntity
  8
Visible (ANSI)
100
AcDbLine
 10
45.75018069254183
 20
27.43347322313317
 30
0.0
 11
28.37518069254183
 21
27.43347322313317
 31
0.0
  0
MTEXT
  5
15F
330
6C
100
AcDbEntity
  8
Symbol (ANSI)
100
AcDbMText
 10
34.64216764661598
 20
23.91259291644642
 30
0.0
 40
0.600000007415381
 41
0.0
 71
     7
 72
     1
  1
FRONT VIEW
  7
Text Style168
 73
     1
 44
1.0
  0
LINE
  5
161
330
6C
100
AcDbEntity
  8
Symbol (ANSI)
370
    30
100
AcDbLine
 10
34.58216749227404
 20
23.79023472957197
 30
0.0
 11
39.40599251370242
 21
23.79023472957197
 31
0.0
  0
SPLINE
  5
162
330
6C
100
AcDbEntity
  8
Visible (ANSI)
100
AcDbSpline
210
0.0
220
0.0
230
1.0
 70
     8
 71
     3
 72
    11
 73
     7
 74
     0
 42
0.0000000001
 43
0.0000000001
 40
0.0
 40
0.0
 40
0.0
 40
0.0
 40
0.9120227246349479
 40
0.9120227246349479
 40
0.9120227246349479
 40
1.570796326794896
 40
1.570796326794896
 40
1.570796326794896
 40
1.570796326794896
 10
10.90175760643572
 20
27.52709708193496
 30
0.0
 10
10.90175760643572
 20
27.46059542493032
 30
0.0
 10
10.93401457350205
 20
27.39483075382548
 30
0.0
 10
10.98660033066722
 20
27.35412192766053
 30
0.0
 10
11.02458415248906
 20
27.32471706818939
 30
0.0
 10
11.07247203127823
 20
27.30834708193496
 30
0.0
 10
11.12050760643572
 20
27.30834708193496
 30
0.0
  0
LINE
  5
163
330
6C
100
AcDbEntity
  8
Visible (ANSI)
100
AcDbLine
 10
11.12050760643572
 20
27.43334708193496
 30
0.0
 11
11.12673823205425
 21
27.43334708193496
 31
0.0
  0
LINE
  5
164
330
6C
100
AcDbEntity
  8
Visible (ANSI)
100
AcDbLine
 10
11.12050760643572
 20
27.43334708193496
 30
0.0
 11
11.12050760643572
 21
27.30834708193496
 31
0.0
  0
SPLINE
  5
165
330
6C
100
AcDbEntity
  8
Visible (ANSI)
100
AcDbSpline
210
0.0
220
0.0
230
1.0
 70
     8
 71
     3
 72
    11
 73
     7
 74
     0
 42
0.0000000001
 43
0.0000000001
 40
0.0
 40
0.0
 40
0.0
 40
0.0
 40
1.127197082403383
 40
1.127197082403383
 40
1.127197082403383
 40
1.570796326794896
 40
1.570796326794896
 40
1.570796326794896
 40
1.570796326794896
 10
11.02675760643571
 20
27.52709708193496
 30
0.0
 10
11.02675760643572
 20
27.49187217310985
 30
0.0
 10
11.04845516467233
 20
27.45753917557148
 30
0.0
 10
11.08027075129899
 20
27.44242088699974
 30
0.0
 10
11.09279151666273
 20
27.43647120748796
 30
0.0
 10
11.10664513004849
 20
27.43334708193496
 30
0.0
 10
11.12050760643572
 20
27.43334708193496
 30
0.0
  0
LINE
  5
166
330
6C
100
AcDbEntity
  8
Visible (ANSI)
100
AcDbLine
 10
11.12050760643572
 20
27.30834708193496
 30
0.0
 11
11.14260469334781
 21
27.30834708193496
 31
0.0
  0
SPLINE
  5
167
330
6C
100
AcDbEntity
  8
Visible (ANSI)
100
AcDbSpline
210
0.0
220
0.0
230
1.0
 70
     8
 71
     3
 72
    11
 73
     7
 74
     0
 42
0.0000000001
 43
0.0000000001
 40
0.0
 40
0.0
 40
0.0
 40
0.0
 40
0.912022724634949
 40
0.912022724634949
 40
0.912022724634949
 40
1.570796326794896
 40
1.570796326794896
 40
1.570796326794896
 40
1.570796326794896
 10
11.14260469334779
 20
27.30834708193496
 30
0.0
 10
11.13832808428687
 20
27.30834708193496
 30
0.0
 10
11.13405147522593
 20
27.34060404900129
 30
0.0
 10
11.12977486616501
 20
27.39318980616646
 30
0.0
 10
11.12668577958855
 20
27.4311736279883
 30
0.0
 10
11.1235966930121
 20
27.47906150677746
 30
0.0
 10
11.12050760643565
 20
27.52709708193496
 30
0.0
  0
LINE
  5
168
330
6C
100
AcDbEntity
  8
Visible (ANSI)
100
AcDbLine
 10
16.90175760643582
 20
27.30834708193495
 30
0.0
 11
11.14260469334779
 21
27.30834708193496
 31
0.0
  0
SPLINE
  5
169
330
6C
100
AcDbEntity
  8
Visible (ANSI)
100
AcDbSpline
210
0.0
220
0.0
230
1.0
 70
     8
 71
     3
 72
    11
 73
     7
 74
     0
 42
0.0000000001
 43
0.0000000001
 40
0.0
 40
0.0
 40
0.0
 40
0.0
 40
0.912022724634949
 40
0.912022724634949
 40
0.912022724634949
 40
1.570796326794896
 40
1.570796326794896
 40
1.570796326794896
 40
1.570796326794896
 10
16.97743328211143
 20
27.52709708193496
 30
0.0
 10
16.9627872212269
 20
27.46059542493032
 30
0.0
 10
16.94814116034237
 20
27.39483075382548
 30
0.0
 10
16.93349509945785
 20
27.35412192766053
 30
0.0
 10
16.92291593511717
 20
27.32471706818939
 30
0.0
 10
16.9123367707765
 20
27.30834708193495
 30
0.0
 10
16.90175760643582
 20
27.30834708193495
 30
0.0
  0
LINE
  5
16A
330
6C
100
AcDbEntity
  8
Visible Narrow (ANSI)
100
AcDbLine
 10
11.12050760643565
 20
27.52709708193496
 30
0.0
 11
16.97743328211143
 21
27.52709708193496
 31
0.0
  0
LINE
  5
16B
330
6C
100
AcDbEntity
  8
Visible (ANSI)
100
AcDbLine
 10
11.12050760643565
 20
27.52709708193496
 30
0.0
 11
10.90175760643572
 21
27.52709708193496
 31
0.0
  0
LINE
  5
16C
330
6C
100
AcDbEntity
  8
Visible (ANSI)
100
AcDbLine
 10
16.97743328211143
 20
27.52709708193496
 30
0.0
 11
18.90175760643565
 21
33.08959708193496
 31
0.0
  0
LINE
  5
16D
330
6C
100
AcDbEntity
  8
Visible Narrow (ANSI)
100
AcDbLine
 10
18.90175760643565
 20
33.08959708193496
 30
0.0
 11
11.12050760643565
 21
33.08959708193496
 31
0.0
  0
LINE
  5
16E
330
6C
100
AcDbEntity
  8
Visible (ANSI)
100
AcDbLine
 10
18.90175760643565
 20
33.08959708193496
 30
0.0
 11
18.90175760643572
 21
33.30834708193496
 31
0.0
  0
LINE
  5
16F
330
6C
100
AcDbEntity
  8
Visible (ANSI)
100
AcDbLine
 10
11.14260469334779
 20
33.30834708193496
 30
0.0
 11
18.90175760643572
 21
33.30834708193495
 31
0.0
  0
LINE
  5
170
330
6C
100
AcDbEntity
  8
Visible Narrow (ANSI)
100
AcDbLine
 10
11.12050760643565
 20
33.08959708193496
 30
0.0
 11
11.12050760643565
 21
27.52709708193496
 31
0.0
  0
LINE
  5
171
330
6C
100
AcDbEntity
  8
Visible (ANSI)
100
AcDbLine
 10
10.90175760643572
 20
27.52709708193496
 30
0.0
 11
10.90175760643572
 21
33.08959708193496
 31
0.0
  0
SPLINE
  5
172
330
6C
100
AcDbEntity
  8
Visible (ANSI)
100
AcDbSpline
210
0.0
220
0.0
230
1.0
 70
     8
 71
     3
 72
    11
 73
     7
 74
     0
 42
0.0000000001
 43
0.0000000001
 40
0.0
 40
0.0
 40
0.0
 40
0.0
 40
0.9120227246349598
 40
0.9120227246349598
 40
0.9120227246349598
 40
1.5707963267949
 40
1.5707963267949
 40
1.5707963267949
 40
1.5707963267949
 10
11.12050760643572
 20
33.30834708193496
 30
0.0
 10
11.05400594943109
 20
33.30834708193496
 30
0.0
 10
10.98824127832624
 20
33.27609011486862
 30
0.0
 10
10.9475324521613
 20
33.22350435770345
 30
0.0
 10
10.91812759269015
 20
33.1855205358816
 30
0.0
 10
10.90175760643572
 20
33.13763265709245
 30
0.0
 10
10.90175760643572
 20
33.08959708193496
 30
0.0
  0
LINE
  5
173
330
6C
100
AcDbEntity
  8
Visible (ANSI)
100
AcDbLine
 10
11.12050760643572
 20
33.18334708193495
 30
0.0
 11
11.12673823205425
 21
33.18334708193495
 31
0.0
  0
LINE
  5
174
330
6C
100
AcDbEntity
  8
Visible (ANSI)
100
AcDbLine
 10
11.14260469334781
 20
33.30834708193496
 30
0.0
 11
11.12050760643572
 21
33.30834708193496
 31
0.0
  0
LINE
  5
175
330
6C
100
AcDbEntity
  8
Visible (ANSI)
100
AcDbLine
 10
11.12050760643572
 20
33.18334708193495
 30
0.0
 11
11.12050760643572
 21
33.30834708193496
 31
0.0
  0
SPLINE
  5
176
330
6C
100
AcDbEntity
  8
Visible (ANSI)
100
AcDbSpline
210
0.0
220
0.0
230
1.0
 70
     8
 71
     3
 72
    11
 73
     7
 74
     0
 42
0.0000000001
 43
0.0000000001
 40
0.0
 40
0.0
 40
0.0
 40
0.0
 40
1.127197082403319
 40
1.127197082403319
 40
1.127197082403319
 40
1.5707963267949
 40
1.5707963267949
 40
1.5707963267949
 40
1.5707963267949
 10
11.02675760643571
 20
33.08959708193496
 30
0.0
 10
11.02675760643572
 20
33.12482199076006
 30
0.0
 10
11.04845516467233
 20
33.15915498829844
 30
0.0
 10
11.08027075129899
 20
33.17427327687017
 30
0.0
 10
11.09279151666273
 20
33.18022295638195
 30
0.0
 10
11.10664513004849
 20
33.18334708193495
 30
0.0
 10
11.12050760643572
 20
33.18334708193495
 30
0.0
  0
SPLINE
  5
177
330
6C
100
AcDbEntity
  8
Visible (ANSI)
100
AcDbSpline
210
0.0
220
0.0
230
1.0
 70
     8
 71
     3
 72
    11
 73
     7
 74
     0
 42
0.0000000001
 43
0.0000000001
 40
0.0
 40
0.0
 40
0.0
 40
0.0
 40
0.9120227246349571
 40
0.9120227246349571
 40
0.9120227246349571
 40
1.570796326794894
 40
1.570796326794894
 40
1.570796326794894
 40
1.570796326794894
 10
11.12050760643565
 20
33.08959708193496
 30
0.0
 10
11.12478421549656
 20
33.15609873893958
 30
0.0
 10
11.12906082455748
 20
33.22186341004443
 30
0.0
 10
11.13333743361841
 20
33.26257223620937
 30
0.0
 10
11.13642652019487
 20
33.29197709568052
 30
0.0
 10
11.13951560677133
 20
33.30834708193496
 30
0.0
 10
11.14260469334779
 20
33.30834708193496
 30
0.0
  0
LINE
  5
178
330
6C
100
AcDbEntity
  8
Visible (ANSI)
100
AcDbLine
 10
10.90175760643572
 20
33.08959708193496
 30
0.0
 11
11.12050760643565
 21
33.08959708193496
 31
0.0
  0
LINE
  5
179
330
6C
100
AcDbEntity
  8
Visible (ANSI)
100
AcDbLine
 10
18.65175760643576
 20
27.30847322313317
 30
0.0
 11
18.52675760643572
 21
27.30847322313317
 31
0.0
  0
LINE
  5
17A
330
6C
100
AcDbEntity
  8
Visible (ANSI)
100
AcDbLine
 10
18.52675760643572
 20
27.43347322313317
 30
0.0
 11
18.65175760643576
 21
27.43347322313317
 31
0.0
  0
LINE
  5
17B
330
6C
100
AcDbEntity
  8
Visible Narrow (ANSI)
100
AcDbLine
 10
18.52675760643572
 20
27.43347322313317
 30
0.0
 11
18.52675760643572
 21
27.30847322313317
 31
0.0
  0
LINE
  5
17C
330
6C
100
AcDbEntity
  8
Visible (ANSI)
100
AcDbLine
 10
18.65175760643576
 20
27.30847322313317
 30
0.0
 11
18.65175760643576
 21
27.43347322313317
 31
0.0
  0
LINE
  5
17D
330
6C
100
AcDbEntity
  8
Visible (ANSI)
100
AcDbLine
 10
17.15186682320484
 20
27.30847322313317
 30
0.0
 11
18.52675760643572
 21
27.30847322313317
 31
0.0
  0
LINE
  5
17E
330
6C
100
AcDbEntity
  8
Visible (ANSI)
100
AcDbLine
 10
18.52675760643572
 20
27.43347322313317
 30
0.0
 11
17.15186682320484
 21
27.43347322313317
 31
0.0
  0
ARC
  5
17F
330
6C
100
AcDbEntity
  8
Visible (ANSI)
100
AcDbCircle
 10
17.15186682320483
 20
27.52722322313317
 30
0.0
 40
0.0937500000000001
100
AcDbArc
 50
225.0000000000015
 51
270.0000000000021
  0
ARC
  5
180
330
6C
100
AcDbEntity
  8
Visible (ANSI)
100
AcDbCircle
 10
17.15186682320483
 20
27.52722322313317
 30
0.0
 40
0.2187500000000002
100
AcDbArc
 50
225.0000000000013
 51
270.0000000000009
  0
LINE
  5
181
330
6C
100
AcDbEntity
  8
Visible (ANSI)
100
AcDbLine
 10
17.05223083454601
 20
27.49427669031952
 30
0.0
 11
17.0855755624686
 21
27.46093196239693
 31
0.0
  0
LINE
  5
182
330
6C
100
AcDbEntity
  8
Visible (ANSI)
100
AcDbLine
 10
16.99718721482028
 20
27.37254361474861
 30
0.0
 11
16.96384248689769
 21
27.4058883426712
 31
0.0
  0
ARC
  5
183
330
6C
100
AcDbEntity
  8
Visible (ANSI)
100
AcDbCircle
 10
16.89755122616144
 20
27.33959708193496
 30
0.0
 40
0.2187500000000078
100
AcDbArc
 50
45.00000000000063
 51
67.19732762765899
  0
ARC
  5
184
330
6C
100
AcDbEntity
  8
Visible (ANSI)
100
AcDbCircle
 10
16.89755122616145
 20
27.33959708193497
 30
0.0
 40
0.0937499999999996
100
AcDbArc
 50
45.0
 51
54.65453320219186
  0
MTEXT
  5
185
330
6C
100
AcDbEntity
  8
Symbol (ANSI)
100
AcDbMText
 10
12.38713256078891
 20
23.19483685756025
 30
0.0
 40
0.600000007415381
 41
0.0
 71
     7
 72
     1
  1
LEFT VIEW
  7
Text Style168
 73
     1
 44
1.0
  0
LINE
  5
186
330
6C
100
AcDbEntity
  8
Symbol (ANSI)
370
    30
100
AcDbLine
 10
12.32713240644697
 20
23.05983685589179
 30
0.0
 11
16.37737549502652
 21
23.05983685589179
 31
0.0
  0
LINE
  5
187
330
6C
100
AcDbEntity
  8
Visible (ANSI)
100
AcDbLine
 10
61.40551903003074
 20
27.30834708193503
 30
0.0
 11
55.64636611694282
 21
27.30834708193489
 31
0.0
  0
LINE
  5
188
330
6C
100
AcDbEntity
  8
Visible Narrow (ANSI)
100
AcDbLine
 10
55.5706904412672
 20
27.52709708193496
 30
0.0
 11
61.42761611694288
 21
27.52709708193496
 31
0.0
  0
SPLINE
  5
189
330
6C
100
AcDbEntity
  8
Visible (ANSI)
100
AcDbSpline
210
0.0
220
0.0
230
1.0
 70
     8
 71
     3
 72
    11
 73
     7
 74
     0
 42
0.0000000001
 43
0.0000000001
 40
0.0
 40
0.0
 40
0.0
 40
0.0
 40
0.9120227246348024
 40
0.9120227246348024
 40
0.9120227246348024
 40
1.570796326794897
 40
1.570796326794897
 40
1.570796326794897
 40
1.570796326794897
 10
55.64636611694282
 20
27.30834708193488
 30
0.0
 10
55.6317200560583
 20
27.30834708193488
 30
0.0
 10
55.61707399517379
 20
27.34060404900122
 30
0.0
 10
55.60242793428927
 20
27.39318980616639
 30
0.0
 10
55.59184876994859
 20
27.43117362798825
 30
0.0
 10
55.5812696056079
 20
27.47906150677744
 30
0.0
 10
55.5706904412672
 20
27.52709708193496
 30
0.0
  0
SPLINE
  5
18A
330
6C
100
AcDbEntity
  8
Visible (ANSI)
100
AcDbSpline
210
0.0
220
0.0
230
1.0
 70
     8
 71
     3
 72
    11
 73
     7
 74
     0
 42
0.0000000001
 43
0.0000000001
 40
0.0
 40
0.0
 40
0.0
 40
0.0
 40
0.9120227246349417
 40
0.9120227246349417
 40
0.9120227246349417
 40
1.570796326794896
 40
1.570796326794896
 40
1.570796326794896
 40
1.570796326794896
 10
61.42761611694289
 20
27.52709708193496
 30
0.0
 10
61.42333950788198
 20
27.46059542493034
 30
0.0
 10
61.41906289882104
 20
27.39483075382552
 30
0.0
 10
61.41478628976012
 20
27.35412192766059
 30
0.0
 10
61.41169720318366
 20
27.32471706818945
 30
0.0
 10
61.4086081166072
 20
27.30834708193502
 30
0.0
 10
61.40551903003074
 20
27.30834708193502
 30
0.0
  0
SPLINE
  5
18B
330
6C
100
AcDbEntity
  8
Visible (ANSI)
100
AcDbSpline
210
0.0
220
0.0
230
1.0
 70
     8
 71
     3
 72
    11
 73
     7
 74
     0
 42
0.0000000001
 43
0.0000000001
 40
0.0
 40
0.0
 40
0.0
 40
0.0
 40
0.9120227246349513
 40
0.9120227246349513
 40
0.9120227246349513
 40
1.570796326794897
 40
1.570796326794897
 40
1.570796326794897
 40
1.570796326794897
 10
61.42761611694281
 20
27.30834708193496
 30
0.0
 10
61.49411777394744
 20
27.30834708193496
 30
0.0
 10
61.55988244505229
 20
27.34060404900129
 30
0.0
 10
61.60059127121723
 20
27.39318980616646
 30
0.0
 10
61.62999613068838
 20
27.4311736279883
 30
0.0
 10
61.64636611694281
 20
27.47906150677746
 30
0.0
 10
61.64636611694281
 20
27.52709708193496
 30
0.0
  0
LINE
  5
18C
330
6C
100
AcDbEntity
  8
Visible (ANSI)
100
AcDbLine
 10
61.42761611694281
 20
27.43334708193496
 30
0.0
 11
61.42138549132428
 21
27.43334708193496
 31
0.0
  0
LINE
  5
18D
330
6C
100
AcDbEntity
  8
Visible (ANSI)
100
AcDbLine
 10
61.40551903003072
 20
27.30834708193496
 30
0.0
 11
61.42761611694281
 21
27.30834708193496
 31
0.0
  0
LINE
  5
18E
330
6C
100
AcDbEntity
  8
Visible (ANSI)
100
AcDbLine
 10
61.42761611694281
 20
27.43334708193496
 30
0.0
 11
61.42761611694281
 21
27.30834708193496
 31
0.0
  0
SPLINE
  5
18F
330
6C
100
AcDbEntity
  8
Visible (ANSI)
100
AcDbSpline
210
0.0
220
0.0
230
1.0
 70
     8
 71
     3
 72
    11
 73
     7
 74
     0
 42
0.0000000001
 43
0.0000000001
 40
0.0
 40
0.0
 40
0.0
 40
0.0
 40
1.12719708240338
 40
1.12719708240338
 40
1.12719708240338
 40
1.570796326794897
 40
1.570796326794897
 40
1.570796326794897
 40
1.570796326794897
 10
61.52136611694281
 20
27.52709708193496
 30
0.0
 10
61.52136611694281
 20
27.49187217310985
 30
0.0
 10
61.4996685587062
 20
27.45753917557148
 30
0.0
 10
61.46785297207953
 20
27.44242088699974
 30
0.0
 10
61.4553322067158
 20
27.43647120748796
 30
0.0
 10
61.44147859333005
 20
27.43334708193496
 30
0.0
 10
61.42761611694281
 20
27.43334708193496
 30
0.0
  0
LINE
  5
190
330
6C
100
AcDbEntity
  8
Visible (ANSI)
100
AcDbLine
 10
61.64636611694281
 20
27.52709708193496
 30
0.0
 11
61.42761611694288
 21
27.52709708193496
 31
0.0
  0
LINE
  5
191
330
6C
100
AcDbEntity
  8
Visible (ANSI)
100
AcDbLine
 10
61.64636611694281
 20
33.08959708193496
 30
0.0
 11
61.64636611694281
 21
27.52709708193496
 31
0.0
  0
LINE
  5
192
330
6C
100
AcDbEntity
  8
Visible Narrow (ANSI)
100
AcDbLine
 10
61.42761611694288
 20
27.52709708193496
 30
0.0
 11
61.42761611694289
 21
33.08959708193496
 31
0.0
  0
LINE
  5
193
330
6C
100
AcDbEntity
  8
Visible (ANSI)
100
AcDbLine
 10
61.42761611694289
 20
33.08959708193496
 30
0.0
 11
61.64636611694282
 21
33.08959708193496
 31
0.0
  0
LINE
  5
194
330
6C
100
AcDbEntity
  8
Visible (ANSI)
100
AcDbLine
 10
53.64636611694288
 20
33.08959708193496
 30
0.0
 11
55.5706904412672
 21
27.52709708193496
 31
0.0
  0
LINE
  5
195
330
6C
100
AcDbEntity
  8
Visible (ANSI)
100
AcDbLine
 10
53.64636611694282
 20
33.30834708193514
 30
0.0
 11
53.64636611694289
 21
33.08959708193496
 31
0.0
  0
LINE
  5
196
330
6C
100
AcDbEntity
  8
Visible (ANSI)
100
AcDbLine
 10
53.64636611694281
 20
33.30834708193514
 30
0.0
 11
61.40551903003093
 21
33.30834708193477
 31
0.0
  0
LINE
  5
197
330
6C
100
AcDbEntity
  8
Visible Narrow (ANSI)
100
AcDbLine
 10
61.42761611694289
 20
33.08959708193496
 30
0.0
 11
53.64636611694288
 21
33.08959708193496
 31
0.0
  0
SPLINE
  5
198
330
6C
100
AcDbEntity
  8
Visible (ANSI)
100
AcDbSpline
210
0.0
220
0.0
230
1.0
 70
     8
 71
     3
 72
    11
 73
     7
 74
     0
 42
0.0000000001
 43
0.0000000001
 40
0.0
 40
0.0
 40
0.0
 40
0.0
 40
0.9120227246349598
 40
0.9120227246349598
 40
0.9120227246349598
 40
1.5707963267949
 40
1.5707963267949
 40
1.5707963267949
 40
1.5707963267949
 10
61.64636611694281
 20
33.08959708193496
 30
0.0
 10
61.64636611694281
 20
33.15609873893959
 30
0.0
 10
61.61410914987648
 20
33.22186341004444
 30
0.0
 10
61.5615233927113
 20
33.26257223620937
 30
0.0
 10
61.52353957088946
 20
33.29197709568052
 30
0.0
 10
61.47565169210031
 20
33.30834708193496
 30
0.0
 10
61.42761611694281
 20
33.30834708193496
 30
0.0
  0
LINE
  5
199
330
6C
100
AcDbEntity
  8
Visible (ANSI)
100
AcDbLine
 10
61.42761611694281
 20
33.18334708193496
 30
0.0
 11
61.42138549132433
 21
33.18334708193496
 31
0.0
  0
LINE
  5
19A
330
6C
100
AcDbEntity
  8
Visible (ANSI)
100
AcDbLine
 10
61.42761611694281
 20
33.18334708193496
 30
0.0
 11
61.42761611694281
 21
33.30834708193496
 31
0.0
  0
SPLINE
  5
19B
330
6C
100
AcDbEntity
  8
Visible (ANSI)
100
AcDbSpline
210
0.0
220
0.0
230
1.0
 70
     8
 71
     3
 72
    11
 73
     7
 74
     0
 42
0.0000000001
 43
0.0000000001
 40
0.0
 40
0.0
 40
0.0
 40
0.0
 40
1.127197082403368
 40
1.127197082403368
 40
1.127197082403368
 40
1.5707963267949
 40
1.5707963267949
 40
1.5707963267949
 40
1.5707963267949
 10
61.52136611694281
 20
33.08959708193496
 30
0.0
 10
61.52136611694281
 20
33.12482199076006
 30
0.0
 10
61.4996685587062
 20
33.15915498829844
 30
0.0
 10
61.46785297207953
 20
33.17427327687017
 30
0.0
 10
61.4553322067158
 20
33.18022295638196
 30
0.0
 10
61.44147859333005
 20
33.18334708193495
 30
0.0
 10
61.42761611694281
 20
33.18334708193495
 30
0.0
  0
LINE
  5
19C
330
6C
100
AcDbEntity
  8
Visible (ANSI)
100
AcDbLine
 10
61.42761611694281
 20
33.30834708193496
 30
0.0
 11
61.40551903003093
 21
33.30834708193496
 31
0.0
  0
SPLINE
  5
19D
330
6C
100
AcDbEntity
  8
Visible (ANSI)
100
AcDbSpline
210
0.0
220
0.0
230
1.0
 70
     8
 71
     3
 72
    11
 73
     7
 74
     0
 42
0.0000000001
 43
0.0000000001
 40
0.0
 40
0.0
 40
0.0
 40
0.0
 40
0.9120227246351873
 40
0.9120227246351873
 40
0.9120227246351873
 40
1.570796326794929
 40
1.570796326794929
 40
1.570796326794929
 40
1.570796326794929
 10
61.40551903003093
 20
33.30834708193478
 30
0.0
 10
61.40979563909183
 20
33.30834708193478
 30
0.0
 10
61.41407224815273
 20
33.27609011486846
 30
0.0
 10
61.41834885721361
 20
33.22350435770331
 30
0.0
 10
61.42143794379004
 20
33.18552053588151
 30
0.0
 10
61.42452703036647
 20
33.13763265709241
 30
0.0
 10
61.42761611694289
 20
33.08959708193496
 30
0.0
  0
LINE
  5
19E
330
6C
100
AcDbEntity
  8
Visible (ANSI)
100
AcDbLine
 10
53.89636611694277
 20
27.43347322313317
 30
0.0
 11
54.02136611694281
 21
27.43347322313317
 31
0.0
  0
LINE
  5
19F
330
6C
100
AcDbEntity
  8
Visible (ANSI)
100
AcDbLine
 10
53.89636611694277
 20
27.43347322313317
 30
0.0
 11
53.89636611694277
 21
27.30847322313318
 31
0.0
  0
LINE
  5
1A0
330
6C
100
AcDbEntity
  8
Visible (ANSI)
100
AcDbLine
 10
54.02136611694281
 20
27.30847322313318
 30
0.0
 11
53.89636611694277
 21
27.30847322313318
 31
0.0
  0
LINE
  5
1A1
330
6C
100
AcDbEntity
  8
Visible Narrow (ANSI)
100
AcDbLine
 10
54.02136611694281
 20
27.30847322313318
 30
0.0
 11
54.02136611694281
 21
27.43347322313317
 31
0.0
  0
LINE
  5
1A2
330
6C
100
AcDbEntity
  8
Visible (ANSI)
100
AcDbLine
 10
54.02136611694281
 20
27.30847322313318
 30
0.0
 11
55.3962569001737
 21
27.30847322313318
 31
0.0
  0
LINE
  5
1A3
330
6C
100
AcDbEntity
  8
Visible (ANSI)
100
AcDbLine
 10
55.3962569001737
 20
27.43347322313317
 30
0.0
 11
54.02136611694281
 21
27.43347322313317
 31
0.0
  0
ARC
  5
1A4
330
6C
100
AcDbEntity
  8
Visible (ANSI)
100
AcDbCircle
 10
55.3962569001737
 20
27.52722322313317
 30
0.0
 40
0.2187499999999989
100
AcDbArc
 50
269.9999999999982
 51
314.9999999999987
  0
ARC
  5
1A5
330
6C
100
AcDbEntity
  8
Visible (ANSI)
100
AcDbCircle
 10
55.3962569001737
 20
27.52722322313317
 30
0.0
 40
0.0937499999999997
100
AcDbArc
 50
269.9999999999957
 51
314.999999999997
  0
LINE
  5
1A6
330
6C
100
AcDbEntity
  8
Visible (ANSI)
100
AcDbLine
 10
55.58428123648084
 20
27.40588834267121
 30
0.0
 11
55.55093650855825
 21
27.37254361474861
 31
0.0
  0
LINE
  5
1A7
330
6C
100
AcDbEntity
  8
Visible (ANSI)
100
AcDbLine
 10
55.46254816090993
 20
27.46093196239693
 30
0.0
 11
55.49589288883253
 21
27.49427669031953
 31
0.0
  0
ARC
  5
1A8
330
6C
100
AcDbEntity
  8
Visible (ANSI)
100
AcDbCircle
 10
55.65057249721709
 20
27.33959708193497
 30
0.0
 40
0.0937500000000043
100
AcDbArc
 50
125.3454667977505
 51
135.000000000003
  0
ARC
  5
1A9
330
6C
100
AcDbEntity
  8
Visible (ANSI)
100
AcDbCircle
 10
55.65057249721709
 20
27.33959708193497
 30
0.0
 40
0.218750000000007
100
AcDbArc
 50
112.8026723723155
 51
134.9999999999994
  0
MTEXT
  5
1AA
330
6C
100
AcDbEntity
  8
Symbol (ANSI)
100
AcDbMText
 10
55.30060099038538
 20
23.91551025874504
 30
0.0
 40
0.600000007415381
 41
0.0
 71
     7
 72
     1
  1
RIGHT VIEW
  7
Text Style168
 73
     1
 44
1.0
  0
LINE
  5
1AB
330
6C
100
AcDbEntity
  8
Symbol (ANSI)
370
    30
100
AcDbLine
 10
55.24060083604345
 20
23.79217962443771
 30
0.0
 11
59.91515517652614
 21
23.79217962443771
 31
0.0
  0
CIRCLE
  5
1AC
330
6C
100
AcDbEntity
  8
Visible (ANSI)
100
AcDbCircle
 10
30.25018069253868
 20
18.83780713101851
 30
0.0
 40
0.28125
  0
CIRCLE
  5
1AD
330
6C
100
AcDbEntity
  8
Visible (ANSI)
100
AcDbCircle
 10
43.87518069253868
 20
18.83780713101851
 30
0.0
 40
0.28125
  0
CIRCLE
  5
1AE
330
6C
100
AcDbEntity
  8
Visible (ANSI)
100
AcDbCircle
 10
28.68768069253868
 20
17.5253071310185
 30
0.0
 40
0.28125
  0
CIRCLE
  5
1AF
330
6C
100
AcDbEntity
  8
Visible (ANSI)
100
AcDbCircle
 10
28.68768069253868
 20
12.5253071310185
 30
0.0
 40
0.28125
  0
CIRCLE
  5
1B0
330
6C
100
AcDbEntity
  8
Visible (ANSI)
100
AcDbCircle
 10
45.4376806925387
 20
17.52530713101847
 30
0.0
 40
0.28125
  0
CIRCLE
  5
1B1
330
6C
100
AcDbEntity
  8
Visible (ANSI)
100
AcDbCircle
 10
45.43768069253872
 20
12.52530713101848
 30
0.0
 40
0.28125
  0
LINE
  5
1B2
330
6C
100
AcDbEntity
  8
Visible (ANSI)
100
AcDbLine
 10
28.00018069253868
 20
11.52530713101844
 30
0.0
 11
28.00018069253868
 21
19.30655713101844
 31
0.0
  0
LINE
  5
1B3
330
6C
100
AcDbEntity
  8
Visible (ANSI)
100
AcDbLine
 10
28.00018069253868
 20
11.52530713101844
 30
0.0
 11
28.21893069253868
 21
11.5253071310185
 31
0.0
  0
LINE
  5
1B4
330
6C
100
AcDbEntity
  8
Visible (ANSI)
100
AcDbLine
 10
45.9064306925391
 20
11.52530713101851
 30
0.0
 11
46.12518069253928
 21
11.52530713101845
 31
0.0
  0
LINE
  5
1B5
330
6C
100
AcDbEntity
  8
Visible Narrow (ANSI)
100
AcDbLine
 10
45.8843336056266
 20
19.30655713101851
 30
0.0
 11
28.24102777945076
 21
19.30655713101851
 31
0.0
  0
LINE
  5
1B6
330
6C
100
AcDbEntity
  8
Visible (ANSI)
100
AcDbLine
 10
28.21893069253868
 20
19.52530713101844
 30
0.0
 11
45.90643069253867
 21
19.52530713101844
 31
0.0
  0
LINE
  5
1B7
330
6C
100
AcDbEntity
  8
Visible Narrow (ANSI)
100
AcDbLine
 10
28.21893069253868
 20
19.28446004410643
 30
0.0
 11
28.21893069253868
 21
11.5253071310185
 31
0.0
  0
LINE
  5
1B8
330
6C
100
AcDbEntity
  8
Visible Narrow (ANSI)
100
AcDbLine
 10
45.9064306925391
 20
11.5253071310185
 30
0.0
 11
45.90643069253904
 21
19.28446004410663
 31
0.0
  0
LINE
  5
1B9
330
6C
100
AcDbEntity
  8
Visible (ANSI)
100
AcDbLine
 10
46.12518069253868
 20
19.30655713101845
 30
0.0
 11
46.12518069253872
 21
11.52530713101844
 31
0.0
  0
ARC
  5
1BA
330
6C
100
AcDbEntity
  8
Visible (ANSI)
100
AcDbCircle
 10
45.90643069253867
 20
19.30655713101845
 30
0.0
 40
0.2187499999999999
100
AcDbArc
 50
0.0
 51
90.0
  0
ARC
  5
1BB
330
6C
100
AcDbEntity
  8
Visible (ANSI)
100
AcDbCircle
 10
28.21893069253868
 20
19.30655713101844
 30
0.0
 40
0.09375
100
AcDbArc
 50
90.0
 51
180.0
  0
LINE
  5
1BC
330
6C
100
AcDbEntity
  8
Visible (ANSI)
100
AcDbLine
 10
28.75018069253868
 20
11.5253071310185
 30
0.0
 11
28.21893069253868
 21
11.5253071310185
 31
0.0
  0
LINE
  5
1BD
330
6C
100
AcDbEntity
  8
Visible (ANSI)
100
AcDbLine
 10
45.9064306925391
 20
11.5253071310185
 30
0.0
 11
45.37518069253947
 21
11.52530713101847
 31
0.0
  0
LINE
  5
1BE
330
6C
100
AcDbEntity
  8
Visible (ANSI)
100
AcDbLine
 10
44.85308360562665
 20
18.2753071310185
 30
0.0
 11
29.27227777945076
 21
18.27530713101851
 31
0.0
  0
LINE
  5
1BF
330
6C
100
AcDbEntity
  8
Visible (ANSI)
100
AcDbLine
 10
29.25018069253867
 20
18.25321004410643
 30
0.0
 11
29.25018069253868
 21
12.02530713101851
 31
0.0
  0
LINE
  5
1C0
330
6C
100
AcDbEntity
  8
Visible (ANSI)
100
AcDbLine
 10
44.87518069253944
 20
12.02530713101845
 30
0.0
 11
44.87518069253911
 21
18.25321004410662
 31
0.0
  0
ARC
  5
1C1
330
6C
100
AcDbEntity
  8
Visible (ANSI)
100
AcDbCircle
 10
28.21893069253868
 20
19.30655713101844
 30
0.0
 40
0.21875
100
AcDbArc
 50
90.0
 51
180.0
  0
ARC
  5
1C2
330
6C
100
AcDbEntity
  8
Visible (ANSI)
100
AcDbCircle
 10
45.90643069253867
 20
19.30655713101844
 30
0.0
 40
0.0937500000000071
100
AcDbArc
 50
0.0
 51
89.99999999999571
  0
LINE
  5
1C3
330
6C
100
AcDbEntity
  8
Visible (ANSI)
100
AcDbLine
 10
29.25018069253868
 20
12.02530713101851
 30
0.0
 11
28.75018069253868
 21
11.5253071310185
 31
0.0
  0
LINE
  5
1C4
330
6C
100
AcDbEntity
  8
Visible (ANSI)
100
AcDbLine
 10
45.37518069253947
 20
11.52530713101847
 30
0.0
 11
44.87518069253944
 21
12.02530713101845
 31
0.0
  0
SPLINE
  5
1C5
330
6C
100
AcDbEntity
  8
Visible (ANSI)
100
AcDbSpline
210
0.0
220
0.0
230
1.0
 70
     8
 71
     3
 72
    11
 73
     7
 74
     0
 42
0.0000000001
 43
0.0000000001
 40
0.0
 40
0.0
 40
0.0
 40
0.0
 40
0.9120227246349598
 40
0.9120227246349598
 40
0.9120227246349598
 40
1.5707963267949
 40
1.5707963267949
 40
1.5707963267949
 40
1.5707963267949
 10
45.90643069253867
 20
19.52530713101844
 30
0.0
 10
45.90215408347777
 20
19.52530713101846
 30
0.0
 10
45.89787747441685
 20
19.49305016395214
 30
0.0
 10
45.89360086535594
 20
19.44046440678699
 30
0.0
 10
45.89051177877951
 20
19.40248058496515
 30
0.0
 10
45.88742269220304
 20
19.354592706176
 30
0.0
 10
45.8843336056266
 20
19.3065571310185
 30
0.0
  0
SPLINE
  5
1C6
330
6C
100
AcDbEntity
  8
Visible (ANSI)
100
AcDbSpline
210
0.0
220
0.0
230
1.0
 70
     8
 71
     3
 72
    11
 73
     7
 74
     0
 42
0.0000000001
 43
0.0000000001
 40
0.0
 40
0.0
 40
0.0
 40
0.0
 40
0.9120227246349598
 40
0.9120227246349598
 40
0.9120227246349598
 40
1.5707963267949
 40
1.5707963267949
 40
1.5707963267949
 40
1.5707963267949
 10
28.24102777945076
 20
19.30655713101851
 30
0.0
 10
28.23675117038984
 20
19.37305878802314
 30
0.0
 10
28.23247456132893
 20
19.43882345912797
 30
0.0
 10
28.22819795226802
 20
19.4795322852929
 30
0.0
 10
28.22510886569158
 20
19.50893714476404
 30
0.0
 10
28.22201977911513
 20
19.52530713101845
 30
0.0
 10
28.21893069253868
 20
19.52530713101844
 30
0.0
  0
LINE
  5
1C7
330
6C
100
AcDbEntity
  8
Visible (ANSI)
100
AcDbLine
 10
29.27227777945076
 20
18.27530713101851
 30
0.0
 11
28.24102777945076
 21
19.30655713101851
 31
0.0
  0
SPLINE
  5
1C8
330
6C
100
AcDbEntity
  8
Visible (ANSI)
100
AcDbSpline
210
0.0
220
0.0
230
1.0
 70
    24
 71
     3
 72
     8
 73
     4
 74
     0
 42
0.0000000001
 43
0.0000000001
 40
0.0
 40
0.0
 40
0.0
 40
0.0
 40
0.3175000000000027
 40
0.3175000000000027
 40
0.3175000000000027
 40
0.3175000000000027
 10
28.21893069253868
 20
19.40030713101844
 30
0.0
 10
28.21893069253868
 20
19.4419737976851
 30
0.0
 10
28.21893069253868
 20
19.48364046435177
 30
0.0
 10
28.21893069253868
 20
19.52530713101844
 30
0.0
  0
SPLINE
  5
1C9
330
6C
100
AcDbEntity
  8
Visible (ANSI)
100
AcDbSpline
210
0.0
220
0.0
230
1.0
 70
     8
 71
     3
 72
    11
 73
     7
 74
     0
 42
0.0000000001
 43
0.0000000001
 40
0.0
 40
0.0
 40
0.0
 40
0.0
 40
1.127197082403319
 40
1.127197082403319
 40
1.127197082403319
 40
1.5707963267949
 40
1.5707963267949
 40
1.5707963267949
 40
1.5707963267949
 10
28.21893069253868
 20
19.40030713101844
 30
0.0
 10
28.22421628589708
 20
19.40030713101845
 30
0.0
 10
28.22950187925547
 20
19.37860957278185
 30
0.0
 10
28.23478747261387
 20
19.3467939861552
 30
0.0
 10
28.23686757489283
 20
19.33427322079146
 30
0.0
 10
28.2389476771718
 20
19.32041960740571
 30
0.0
 10
28.24102777945075
 20
19.30655713101847
 30
0.0
  0
SPLINE
  5
1CA
330
6C
100
AcDbEntity
  8
Visible (ANSI)
100
AcDbSpline
210
0.0
220
0.0
230
1.0
 70
     8
 71
     3
 72
    11
 73
     7
 74
     0
 42
0.0000000001
 43
0.0000000001
 40
0.0
 40
0.0
 40
0.0
 40
0.0
 40
1.127197082403368
 40
1.127197082403368
 40
1.127197082403368
 40
1.5707963267949
 40
1.5707963267949
 40
1.5707963267949
 40
1.5707963267949
 10
45.90643069253867
 20
19.40030713101844
 30
0.0
 10
45.90114509918028
 20
19.40030713101845
 30
0.0
 10
45.89585950582188
 20
19.37860957278185
 30
0.0
 10
45.89057391246348
 20
19.34679398615519
 30
0.0
 10
45.88849381018452
 20
19.33427322079146
 30
0.0
 10
45.88641370790557
 20
19.32041960740571
 30
0.0
 10
45.8843336056266
 20
19.30655713101847
 30
0.0
  0
SPLINE
  5
1CB
330
6C
100
AcDbEntity
  8
Visible (ANSI)
100
AcDbSpline
210
0.0
220
0.0
230
1.0
 70
    24
 71
     3
 72
     8
 73
     4
 74
     0
 42
0.0000000001
 43
0.0000000001
 40
-0.3175000000000039
 40
-0.3175000000000039
 40
-0.3175000000000039
 40
-0.3175000000000039
 40
0.0
 40
0.0
 40
0.0
 40
0.0
 10
45.90643069253867
 20
19.52530713101844
 30
0.0
 10
45.90643069253867
 20
19.48364046435177
 30
0.0
 10
45.90643069253867
 20
19.44197379768511
 30
0.0
 10
45.90643069253867
 20
19.40030713101844
 30
0.0
  0
LINE
  5
1CC
330
6C
100
AcDbEntity
  8
Visible (ANSI)
100
AcDbLine
 10
45.8843336056266
 20
19.30655713101851
 30
0.0
 11
44.85308360562665
 21
18.2753071310185
 31
0.0
  0
SPLINE
  5
1CD
330
6C
100
AcDbEntity
  8
Visible (ANSI)
100
AcDbSpline
210
0.0
220
0.0
230
1.0
 70
     8
 71
     3
 72
    11
 73
     7
 74
     0
 42
0.0000000001
 43
0.0000000001
 40
0.0
 40
0.0
 40
0.0
 40
0.0
 40
0.9120227246349571
 40
0.9120227246349571
 40
0.9120227246349571
 40
1.570796326794894
 40
1.570796326794894
 40
1.570796326794894
 40
1.570796326794894
 10
28.00018069253868
 20
19.30655713101844
 30
0.0
 10
28.00018069253868
 20
19.30228052195755
 30
0.0
 10
28.03243765960501
 20
19.29800391289666
 30
0.0
 10
28.08502341677018
 20
19.29372730383576
 30
0.0
 10
28.12300723859202
 20
19.29063821725932
 30
0.0
 10
28.17089511738118
 20
19.28754913068287
 30
0.0
 10
28.21893069253868
 20
19.28446004410643
 30
0.0
  0
SPLINE
  5
1CE
330
6C
100
AcDbEntity
  8
Visible (ANSI)
100
AcDbSpline
210
0.0
220
0.0
230
1.0
 70
     8
 71
     3
 72
    11
 73
     7
 74
     0
 42
0.0000000001
 43
0.0000000001
 40
0.0
 40
0.0
 40
0.0
 40
0.0
 40
1.127197082403361
 40
1.127197082403361
 40
1.127197082403361
 40
1.570796326794894
 40
1.570796326794894
 40
1.570796326794894
 40
1.570796326794894
 10
28.12518069253868
 20
19.30655713101844
 30
0.0
 10
28.12518069253868
 20
19.30127153766006
 30
0.0
 10
28.14687825077529
 20
19.29598594430166
 30
0.0
 10
28.17869383740195
 20
19.29070035094327
 30
0.0
 10
28.19121460276569
 20
19.28862024866431
 30
0.0
 10
28.20506821615144
 20
19.28654014638535
 30
0.0
 10
28.21893069253868
 20
19.28446004410639
 30
0.0
  0
SPLINE
  5
1CF
330
6C
100
AcDbEntity
  8
Visible (ANSI)
100
AcDbSpline
210
0.0
220
0.0
230
1.0
 70
    24
 71
     3
 72
     8
 73
     4
 74
     0
 42
0.0000000001
 43
0.0000000001
 40
-0.3175000000000002
 40
-0.3175000000000002
 40
-0.3175000000000002
 40
-0.3175000000000002
 40
0.0
 40
0.0
 40
0.0
 40
0.0
 10
28.00018069253868
 20
19.30655713101844
 30
0.0
 10
28.04184735920534
 20
19.30655713101844
 30
0.0
 10
28.08351402587201
 20
19.30655713101844
 30
0.0
 10
28.12518069253868
 20
19.30655713101844
 30
0.0
  0
LINE
  5
1D0
330
6C
100
AcDbEntity
  8
Visible (ANSI)
100
AcDbLine
 10
28.21893069253868
 20
19.28446004410643
 30
0.0
 11
29.25018069253867
 21
18.25321004410643
 31
0.0
  0
SPLINE
  5
1D1
330
6C
100
AcDbEntity
  8
Visible (ANSI)
100
AcDbSpline
210
0.0
220
0.0
230
1.0
 70
     8
 71
     3
 72
    11
 73
     7
 74
     0
 42
0.0000000001
 43
0.0000000001
 40
0.0
 40
0.0
 40
0.0
 40
0.0
 40
0.9120227246351873
 40
0.9120227246351873
 40
0.9120227246351873
 40
1.570796326794929
 40
1.570796326794929
 40
1.570796326794929
 40
1.570796326794929
 10
45.90643069253903
 20
19.28446004410663
 30
0.0
 10
45.97293234954364
 20
19.2887366531675
 30
0.0
 10
46.03869702064844
 20
19.29301326222837
 30
0.0
 10
46.07940584681336
 20
19.29728987128923
 30
0.0
 10
46.10881070628447
 20
19.30037895786563
 30
0.0
 10
46.12518069253887
 20
19.30346804444204
 30
0.0
 10
46.12518069253887
 20
19.30655713101845
 30
0.0
  0
LINE
  5
1D2
330
6C
100
AcDbEntity
  8
Visible (ANSI)
100
AcDbLine
 10
44.87518069253911
 20
18.25321004410662
 30
0.0
 11
45.90643069253904
 21
19.28446004410663
 31
0.0
  0
SPLINE
  5
1D3
330
6C
100
AcDbEntity
  8
Visible (ANSI)
100
AcDbSpline
210
0.0
220
0.0
230
1.0
 70
    24
 71
     3
 72
     8
 73
     4
 74
     0
 42
0.0000000001
 43
0.0000000001
 40
-0.0000000000000071
 40
-0.0000000000000071
 40
-0.0000000000000071
 40
-0.0000000000000071
 40
0.3175000000000026
 40
0.3175000000000026
 40
0.3175000000000026
 40
0.3175000000000026
 10
46.00018069253887
 20
19.30655713101845
 30
0.0
 10
46.04184735920553
 20
19.30655713101845
 30
0.0
 10
46.08351402587221
 20
19.30655713101845
 30
0.0
 10
46.12518069253887
 20
19.30655713101845
 30
0.0
  0
SPLINE
  5
1D4
330
6C
100
AcDbEntity
  8
Visible (ANSI)
100
AcDbSpline
210
0.0
220
0.0
230
1.0
 70
     8
 71
     3
 72
    11
 73
     7
 74
     0
 42
0.0000000001
 43
0.0000000001
 40
0.0
 40
0.0
 40
0.0
 40
0.0
 40
1.127197082403691
 40
1.127197082403691
 40
1.127197082403691
 40
1.570796326794929
 40
1.570796326794929
 40
1.570796326794929
 40
1.570796326794929
 10
46.00018069253887
 20
19.30655713101845
 30
0.0
 10
46.00018069253887
 20
19.30127153766011
 30
0.0
 10
45.97848313430229
 20
19.29598594430176
 30
0.0
 10
45.94666754767566
 20
19.29070035094341
 30
0.0
 10
45.93414678231197
 20
19.28862024866447
 30
0.0
 10
45.92029316892624
 20
19.28654014638553
 30
0.0
 10
45.90643069253904
 20
19.28446004410659
 30
0.0
  0
CIRCLE
  5
1D5
330
6C
100
AcDbEntity
  8
Visible (ANSI)
100
AcDbCircle
 10
37.06268069253864
 20
15.7753071310168
 30
0.0
 40
0.28125
  0
CIRCLE
  5
1D6
330
6C
100
AcDbEntity
  8
Visible (ANSI)
100
AcDbCircle
 10
30.12518069253864
 20
12.77530713101677
 30
0.0
 40
0.28125
  0
CIRCLE
  5
1D7
330
6C
100
AcDbEntity
  8
Visible (ANSI)
100
AcDbCircle
 10
44.00018069253864
 20
12.77530713101677
 30
0.0
 40
0.28125
  0
LINE
  5
1D8
330
6C
100
AcDbEntity
  8
Visible (ANSI)
100
AcDbLine
 10
45.87518069253863
 20
19.25321004410451
 30
0.0
 11
45.87518069253864
 21
19.27540429452196
 31
0.0
  0
LINE
  5
1D9
330
6C
100
AcDbEntity
  8
Visible (ANSI)
100
AcDbLine
 10
28.25018069253864
 20
19.27540429452196
 30
0.0
 11
28.25018069253864
 21
19.25321004410476
 31
0.0
  0
ARC
  5
1DA
330
6C
100
AcDbEntity
  8
Visible (ANSI)
100
AcDbCircle
 10
28.37518069253863
 20
19.27540429452196
 30
0.0
 40
0.1249999999999896
100
AcDbArc
 50
170.6375988628174
 51
180.0
  0
ARC
  5
1DB
330
6C
100
AcDbEntity
  8
Visible (ANSI)
100
AcDbCircle
 10
45.75018069253885
 20
19.275404294522
 30
0.0
 40
0.1249999999997884
100
AcDbArc
 50
0.0
 51
9.362401137146001
  0
LINE
  5
1DC
330
6C
100
AcDbEntity
  8
Visible Narrow (ANSI)
100
AcDbLine
 10
44.87518069253936
 20
13.52951351129108
 30
0.0
 11
29.25018069253868
 21
13.52951351129108
 31
0.0
  0
LINE
  5
1DD
330
6C
100
AcDbEntity
  8
Visible Narrow (ANSI)
100
AcDbLine
 10
44.87518069253937
 20
13.3748339029065
 30
0.0
 11
29.25018069253868
 21
13.3748339029065
 31
0.0
  0
LINE
  5
1DE
330
6C
100
AcDbEntity
  8
Visible Narrow (ANSI)
100
AcDbLine
 10
44.87518069253936
 20
13.3414891749839
 30
0.0
 11
29.25018069253868
 21
13.3414891749839
 31
0.0
  0
LINE
  5
1DF
330
6C
100
AcDbEntity
  8
Visible Narrow (ANSI)
100
AcDbLine
 10
44.87518069253938
 20
13.27519791424765
 30
0.0
 11
29.25018069253868
 21
13.27519791424765
 31
0.0
  0
LINE
  5
1E0
330
6C
100
AcDbEntity
  8
Visible (ANSI)
100
AcDbLine
 10
45.12518069253942
 20
11.77530713101677
 30
0.0
 11
29.00018069253868
 21
11.77530713101677
 31
0.0
  0
MTEXT
  5
1E1
330
6C
100
AcDbEntity
  8
Symbol (ANSI)
100
AcDbMText
 10
34.36336149077337
 20
9.364590421313824
 30
0.0
 40
0.600000007415381
 41
0.0
 71
     7
 72
     1
  1
BOTTOM VIEW
  7
Text Style168
 73
     1
 44
1.0
  0
LINE
  5
1E2
330
6C
100
AcDbEntity
  8
Symbol (ANSI)
370
    30
100
AcDbLine
 10
34.30336133643145
 20
9.242232234439374
 30
0.0
 11
39.82200004864611
 21
9.242232234439374
 31
0.0
  0
LINE
  5
1E3
330
6C
100
AcDbEntity
  8
Visible Narrow (ANSI)
100
AcDbLine
 10
45.90643069254499
 20
40.45487000451902
 30
0.0
 11
45.90643069254503
 21
46.21402291760693
 31
0.0
  0
LINE
  5
1E4
330
6C
100
AcDbEntity
  8
Visible (ANSI)
100
AcDbLine
 10
46.12518069254496
 20
46.28969859328267
 30
0.0
 11
46.12518069254491
 21
40.43277291760699
 31
0.0
  0
SPLINE
  5
1E5
330
6C
100
AcDbEntity
  8
Visible (ANSI)
100
AcDbSpline
210
0.0
220
0.0
230
1.0
 70
     8
 71
     3
 72
    11
 73
     7
 74
     0
 42
0.0000000001
 43
0.0000000001
 40
0.0
 40
0.0
 40
0.0
 40
0.0
 40
0.9120227246348024
 40
0.9120227246348024
 40
0.9120227246348024
 40
1.570796326794897
 40
1.570796326794897
 40
1.570796326794897
 40
1.570796326794897
 10
45.90643069254503
 20
46.21402291760693
 30
0.0
 10
45.97293234954967
 20
46.22866897849146
 30
0.0
 10
46.03869702065452
 20
46.24331503937599
 30
0.0
 10
46.07940584681947
 20
46.25796110026055
 30
0.0
 10
46.10881070629065
 20
46.26854026460125
 30
0.0
 10
46.12518069254509
 20
46.27911942894196
 30
0.0
 10
46.12518069254509
 20
46.28969859328267
 30
0.0
  0
LINE
  5
1E6
330
6C
100
AcDbEntity
  8
Visible (ANSI)
100
AcDbLine
 10
46.04569126775043
 20
46.28969859328267
 30
0.0
 11
46.12518069254496
 21
46.28969859328267
 31
0.0
  0
LINE
  5
1E7
330
6C
100
AcDbEntity
  8
Visible (ANSI)
100
AcDbLine
 10
46.00018069254495
 20
46.28969859328267
 30
0.0
 11
46.04569126775043
 21
46.28969859328267
 31
0.0
  0
SPLINE
  5
1E8
330
6C
100
AcDbEntity
  8
Visible (ANSI)
100
AcDbSpline
210
0.0
220
0.0
230
1.0
 70
     8
 71
     3
 72
    11
 73
     7
 74
     0
 42
0.0000000001
 43
0.0000000001
 40
0.0
 40
0.0
 40
0.0
 40
0.0
 40
1.12719708240312
 40
1.12719708240312
 40
1.12719708240312
 40
1.570796326794897
 40
1.570796326794897
 40
1.570796326794897
 40
1.570796326794897
 10
46.00018069254509
 20
46.28969859328267
 30
0.0
 10
46.00018069254509
 20
46.27159707382287
 30
0.0
 10
45.97848313430847
 20
46.25349555436308
 30
0.0
 10
45.94666754768179
 20
46.23539403490329
 30
0.0
 10
45.93414678231805
 20
46.22827032913785
 30
0.0
 10
45.92029316893227
 20
46.22114662337241
 30
0.0
 10
45.90643069254503
 20
46.21402291760697
 30
0.0
  0
LINE
  5
1E9
330
6C
100
AcDbEntity
  8
Visible Narrow (ANSI)
100
AcDbLine
 10
28.241027779457
 20
40.43277291760693
 30
0.0
 11
45.88433360563285
 21
40.43277291760693
 31
0.0
  0
LINE
  5
1EA
330
6C
100
AcDbEntity
  8
Visible (ANSI)
100
AcDbLine
 10
45.90643069254491
 20
40.214022917607
 30
0.0
 11
28.21893069254492
 21
40.214022917607
 31
0.0
  0
LINE
  5
1EB
330
6C
100
AcDbEntity
  8
Visible Narrow (ANSI)
100
AcDbLine
 10
28.21893069254492
 20
46.21402291760703
 30
0.0
 11
28.21893069254492
 21
40.45487000451902
 31
0.0
  0
SPLINE
  5
1EC
330
6C
100
AcDbEntity
  8
Visible (ANSI)
100
AcDbSpline
210
0.0
220
0.0
230
1.0
 70
     8
 71
     3
 72
    11
 73
     7
 74
     0
 42
0.0000000001
 43
0.0000000001
 40
0.0
 40
0.0
 40
0.0
 40
0.0
 40
0.912022724634949
 40
0.912022724634949
 40
0.912022724634949
 40
1.570796326794896
 40
1.570796326794896
 40
1.570796326794896
 40
1.570796326794896
 10
28.00018069254491
 20
46.28969859328278
 30
0.0
 10
28.00018069254491
 20
46.27505253239822
 30
0.0
 10
28.03243765961125
 20
46.26040647151366
 30
0.0
 10
28.08502341677642
 20
46.24576041062912
 30
0.0
 10
28.12300723859826
 20
46.23518124628842
 30
0.0
 10
28.17089511738743
 20
46.22460208194772
 30
0.0
 10
28.21893069254492
 20
46.21402291760703
 30
0.0
  0
LINE
  5
1ED
330
6C
100
AcDbEntity
  8
Visible (ANSI)
100
AcDbLine
 10
28.00018069254491
 20
40.43277291760699
 30
0.0
 11
28.00018069254491
 21
46.28969859328278
 31
0.0
  0
SPLINE
  5
1EE
330
6C
100
AcDbEntity
  8
Visible (ANSI)
100
AcDbSpline
210
0.0
220
0.0
230
1.0
 70
     8
 71
     3
 72
    11
 73
     7
 74
     0
 42
0.0000000001
 43
0.0000000001
 40
0.0
 40
0.0
 40
0.0
 40
0.0
 40
1.127197082403386
 40
1.127197082403386
 40
1.127197082403386
 40
1.570796326794896
 40
1.570796326794896
 40
1.570796326794896
 40
1.570796326794896
 10
28.12518069254492
 20
46.28969859328278
 30
0.0
 10
28.12518069254492
 20
46.27159707382297
 30
0.0
 10
28.14687825078153
 20
46.25349555436318
 30
0.0
 10
28.1786938374082
 20
46.23539403490338
 30
0.0
 10
28.19121460277193
 20
46.22827032913794
 30
0.0
 10
28.20506821615769
 20
46.22114662337251
 30
0.0
 10
28.21893069254492
 20
46.21402291760706
 30
0.0
  0
LINE
  5
1EF
330
6C
100
AcDbEntity
  8
Visible (ANSI)
100
AcDbLine
 10
28.07967011733951
 20
46.28969859328278
 30
0.0
 11
28.12518069254492
 21
46.28969859328278
 31
0.0
  0
LINE
  5
1F0
330
6C
100
AcDbEntity
  8
Visible (ANSI)
100
AcDbLine
 10
28.00018069254491
 20
46.28969859328278
 30
0.0
 11
28.07967011733951
 21
46.28969859328278
 31
0.0
  0
SPLINE
  5
1F1
330
6C
100
AcDbEntity
  8
Visible (ANSI)
100
AcDbSpline
210
0.0
220
0.0
230
1.0
 70
     8
 71
     3
 72
    11
 73
     7
 74
     0
 42
0.0000000001
 43
0.0000000001
 40
0.0
 40
0.0
 40
0.0
 40
0.0
 40
0.9120227246349417
 40
0.9120227246349417
 40
0.9120227246349417
 40
1.570796326794896
 40
1.570796326794896
 40
1.570796326794896
 40
1.570796326794896
 10
46.12518069254492
 20
40.43277291760698
 30
0.0
 10
46.12518069254492
 20
40.43704952666788
 30
0.0
 10
46.0929237254786
 20
40.44132613572878
 30
0.0
 10
46.04033796831344
 20
40.44560274478968
 30
0.0
 10
46.00235414649161
 20
40.44869183136611
 30
0.0
 10
45.95446626770247
 20
40.45178091794256
 30
0.0
 10
45.90643069254499
 20
40.45487000451902
 30
0.0
  0
SPLINE
  5
1F2
330
6C
100
AcDbEntity
  8
Visible (ANSI)
100
AcDbSpline
210
0.0
220
0.0
230
1.0
 70
     8
 71
     3
 72
    11
 73
     7
 74
     0
 42
0.0000000001
 43
0.0000000001
 40
0.0
 40
0.0
 40
0.0
 40
0.0
 40
1.127197082403322
 40
1.127197082403322
 40
1.127197082403322
 40
1.570796326794896
 40
1.570796326794896
 40
1.570796326794896
 40
1.570796326794896
 10
46.00018069254492
 20
40.43277291760698
 30
0.0
 10
46.00018069254492
 20
40.43805851096538
 30
0.0
 10
45.97848313430833
 20
40.44334410432377
 30
0.0
 10
45.94666754768169
 20
40.44862969768217
 30
0.0
 10
45.93414678231796
 20
40.45070979996112
 30
0.0
 10
45.92029316893222
 20
40.45278990224008
 30
0.0
 10
45.90643069254499
 20
40.45487000451905
 30
0.0
  0
SPLINE
  5
1F3
330
6C
100
AcDbEntity
  8
Visible (ANSI)
100
AcDbSpline
210
0.0
220
0.0
230
1.0
 70
    24
 71
     3
 72
     8
 73
     4
 74
     0
 42
0.0000000001
 43
0.0000000001
 40
-0.3175000000000026
 40
-0.3175000000000026
 40
-0.3175000000000026
 40
-0.3175000000000026
 40
0.0
 40
0.0
 40
0.0
 40
0.0
 10
46.12518069254492
 20
40.43277291760698
 30
0.0
 10
46.08351402587825
 20
40.43277291760698
 30
0.0
 10
46.04184735921158
 20
40.43277291760698
 30
0.0
 10
46.00018069254492
 20
40.43277291760698
 30
0.0
  0
LINE
  5
1F4
330
6C
100
AcDbEntity
  8
Visible (ANSI)
100
AcDbLine
 10
45.90643069254499
 20
40.45487000451902
 30
0.0
 11
44.87518069254499
 21
41.48612000451898
 31
0.0
  0
SPLINE
  5
1F5
330
6C
100
AcDbEntity
  8
Visible (ANSI)
100
AcDbSpline
210
0.0
220
0.0
230
1.0
 70
     8
 71
     3
 72
    11
 73
     7
 74
     0
 42
0.0000000001
 43
0.0000000001
 40
0.0
 40
0.0
 40
0.0
 40
0.0
 40
0.9120227246349479
 40
0.9120227246349479
 40
0.9120227246349479
 40
1.570796326794896
 40
1.570796326794896
 40
1.570796326794896
 40
1.570796326794896
 10
28.21893069254492
 20
40.214022917607
 30
0.0
 10
28.22320730160583
 20
40.21402291760697
 30
0.0
 10
28.22748391066674
 20
40.24627988467329
 30
0.0
 10
28.23176051972765
 20
40.29886564183844
 30
0.0
 10
28.2348496063041
 20
40.33684946366028
 30
0.0
 10
28.23793869288055
 20
40.38473734244943
 30
0.0
 10
28.241027779457
 20
40.43277291760693
 30
0.0
  0
SPLINE
  5
1F6
330
6C
100
AcDbEntity
  8
Visible (ANSI)
100
AcDbSpline
210
0.0
220
0.0
230
1.0
 70
     8
 71
     3
 72
    11
 73
     7
 74
     0
 42
0.0000000001
 43
0.0000000001
 40
0.0
 40
0.0
 40
0.0
 40
0.0
 40
0.9120227246349513
 40
0.9120227246349513
 40
0.9120227246349513
 40
1.570796326794897
 40
1.570796326794897
 40
1.570796326794897
 40
1.570796326794897
 10
45.88433360563285
 20
40.43277291760693
 30
0.0
 10
45.88861021469375
 20
40.36627126060229
 30
0.0
 10
45.89288682375467
 20
40.30050658949746
 30
0.0
 10
45.89716343281557
 20
40.25979776333254
 30
0.0
 10
45.90025251939201
 20
40.23039290386139
 30
0.0
 10
45.90334160596847
 20
40.21402291760698
 30
0.0
 10
45.90643069254491
 20
40.214022917607
 30
0.0
  0
LINE
  5
1F7
330
6C
100
AcDbEntity
  8
Visible (ANSI)
100
AcDbLine
 10
44.85308360563287
 20
41.46402291760693
 30
0.0
 11
45.88433360563285
 21
40.43277291760693
 31
0.0
  0
SPLINE
  5
1F8
330
6C
100
AcDbEntity
  8
Visible (ANSI)
100
AcDbSpline
210
0.0
220
0.0
230
1.0
 70
    24
 71
     3
 72
     8
 73
     4
 74
     0
 42
0.0000000001
 43
0.0000000001
 40
0.0
 40
0.0
 40
0.0
 40
0.0
 40
0.3175000000000001
 40
0.3175000000000001
 40
0.3175000000000001
 40
0.3175000000000001
 10
45.90643069254491
 20
40.33902291760699
 30
0.0
 10
45.90643069254491
 20
40.29735625094033
 30
0.0
 10
45.90643069254491
 20
40.25568958427366
 30
0.0
 10
45.90643069254491
 20
40.214022917607
 30
0.0
  0
SPLINE
  5
1F9
330
6C
100
AcDbEntity
  8
Visible (ANSI)
100
AcDbSpline
210
0.0
220
0.0
230
1.0
 70
     8
 71
     3
 72
    11
 73
     7
 74
     0
 42
0.0000000001
 43
0.0000000001
 40
0.0
 40
0.0
 40
0.0
 40
0.0
 40
1.12719708240338
 40
1.12719708240338
 40
1.12719708240338
 40
1.570796326794897
 40
1.570796326794897
 40
1.570796326794897
 40
1.570796326794897
 10
45.90643069254491
 20
40.33902291760699
 30
0.0
 10
45.90114509918651
 20
40.33902291760698
 30
0.0
 10
45.89585950582812
 20
40.36072047584359
 30
0.0
 10
45.89057391246972
 20
40.39253606247024
 30
0.0
 10
45.88849381019076
 20
40.40505682783398
 30
0.0
 10
45.8864137079118
 20
40.41891044121973
 30
0.0
 10
45.88433360563285
 20
40.43277291760697
 30
0.0
  0
SPLINE
  5
1FA
330
6C
100
AcDbEntity
  8
Visible (ANSI)
100
AcDbSpline
210
0.0
220
0.0
230
1.0
 70
     8
 71
     3
 72
    11
 73
     7
 74
     0
 42
0.0000000001
 43
0.0000000001
 40
0.0
 40
0.0
 40
0.0
 40
0.0
 40
1.127197082403383
 40
1.127197082403383
 40
1.127197082403383
 40
1.570796326794896
 40
1.570796326794896
 40
1.570796326794896
 40
1.570796326794896
 10
28.21893069254492
 20
40.33902291760699
 30
0.0
 10
28.22421628590332
 20
40.33902291760698
 30
0.0
 10
28.22950187926172
 20
40.36072047584359
 30
0.0
 10
28.23478747262011
 20
40.39253606247024
 30
0.0
 10
28.23686757489907
 20
40.40505682783398
 30
0.0
 10
28.23894767717803
 20
40.41891044121973
 30
0.0
 10
28.241027779457
 20
40.43277291760697
 30
0.0
  0
SPLINE
  5
1FB
330
6C
100
AcDbEntity
  8
Visible (ANSI)
100
AcDbSpline
210
0.0
220
0.0
230
1.0
 70
    24
 71
     3
 72
     8
 73
     4
 74
     0
 42
0.0000000001
 43
0.0000000001
 40
-0.3175
 40
-0.3175
 40
-0.3175
 40
-0.3175
 40
0.0000000000000001
 40
0.0000000000000001
 40
0.0000000000000001
 40
0.0000000000000001
 10
28.21893069254492
 20
40.214022917607
 30
0.0
 10
28.21893069254492
 20
40.25568958427366
 30
0.0
 10
28.21893069254492
 20
40.29735625094033
 30
0.0
 10
28.21893069254492
 20
40.33902291760699
 30
0.0
  0
LINE
  5
1FC
330
6C
100
AcDbEntity
  8
Visible (ANSI)
100
AcDbLine
 10
28.241027779457
 20
40.43277291760693
 30
0.0
 11
29.272277779457
 21
41.46402291760693
 31
0.0
  0
SPLINE
  5
1FD
330
6C
100
AcDbEntity
  8
Visible (ANSI)
100
AcDbSpline
210
0.0
220
0.0
230
1.0
 70
     8
 71
     3
 72
    11
 73
     7
 74
     0
 42
0.0000000001
 43
0.0000000001
 40
0.0
 40
0.0
 40
0.0
 40
0.0
 40
0.912022724634949
 40
0.912022724634949
 40
0.912022724634949
 40
1.570796326794896
 40
1.570796326794896
 40
1.570796326794896
 40
1.570796326794896
 10
28.21893069254492
 20
40.45487000451902
 30
0.0
 10
28.15242903554029
 20
40.4505933954581
 30
0.0
 10
28.08666436443544
 20
40.4463167863972
 30
0.0
 10
28.0459555382705
 20
40.4420401773363
 30
0.0
 10
28.01655067879935
 20
40.43895109075987
 30
0.0
 10
28.00018069254491
 20
40.43586200418343
 30
0.0
 10
28.00018069254491
 20
40.43277291760699
 30
0.0
  0
LINE
  5
1FE
330
6C
100
AcDbEntity
  8
Visible (ANSI)
100
AcDbLine
 10
29.25018069254491
 20
41.48612000451901
 30
0.0
 11
28.21893069254492
 21
40.45487000451902
 31
0.0
  0
SPLINE
  5
1FF
330
6C
100
AcDbEntity
  8
Visible (ANSI)
100
AcDbSpline
210
0.0
220
0.0
230
1.0
 70
    24
 71
     3
 72
     8
 73
     4
 74
     0
 42
0.0000000001
 43
0.0000000001
 40
0.0
 40
0.0
 40
0.0
 40
0.0
 40
0.3175000000000001
 40
0.3175000000000001
 40
0.3175000000000001
 40
0.3175000000000001
 10
28.12518069254492
 20
40.43277291760699
 30
0.0
 10
28.08351402587825
 20
40.43277291760699
 30
0.0
 10
28.04184735921158
 20
40.43277291760699
 30
0.0
 10
28.00018069254491
 20
40.43277291760699
 30
0.0
  0
SPLINE
  5
200
330
6C
100
AcDbEntity
  8
Visible (ANSI)
100
AcDbSpline
210
0.0
220
0.0
230
1.0
 70
     8
 71
     3
 72
    11
 73
     7
 74
     0
 42
0.0000000001
 43
0.0000000001
 40
0.0
 40
0.0
 40
0.0
 40
0.0
 40
1.127197082403387
 40
1.127197082403387
 40
1.127197082403387
 40
1.570796326794896
 40
1.570796326794896
 40
1.570796326794896
 40
1.570796326794896
 10
28.12518069254492
 20
40.43277291760699
 30
0.0
 10
28.12518069254492
 20
40.43805851096538
 30
0.0
 10
28.14687825078153
 20
40.44334410432377
 30
0.0
 10
28.17869383740819
 20
40.44862969768217
 30
0.0
 10
28.19121460277193
 20
40.45070979996112
 30
0.0
 10
28.20506821615768
 20
40.45278990224009
 30
0.0
 10
28.21893069254492
 20
40.45487000451905
 30
0.0
  0
LINE
  5
201
330
6C
100
AcDbEntity
  8
Visible (ANSI)
100
AcDbLine
 10
44.87518069254503
 20
46.21402291760694
 30
0.0
 11
45.90643069254503
 21
46.21402291760693
 31
0.0
  0
LINE
  5
202
330
6C
100
AcDbEntity
  8
Visible (ANSI)
100
AcDbLine
 10
44.87518069254499
 20
41.48612000451898
 30
0.0
 11
44.87518069254503
 21
46.21402291760694
 31
0.0
  0
LINE
  5
203
330
6C
100
AcDbEntity
  8
Visible (ANSI)
100
AcDbLine
 10
29.272277779457
 20
41.46402291760693
 30
0.0
 11
44.85308360563287
 21
41.46402291760693
 31
0.0
  0
LINE
  5
204
330
6C
100
AcDbEntity
  8
Visible (ANSI)
100
AcDbLine
 10
28.21893069254492
 20
46.21402291760703
 30
0.0
 11
29.25018069254492
 21
46.21402291760703
 31
0.0
  0
LINE
  5
205
330
6C
100
AcDbEntity
  8
Visible (ANSI)
100
AcDbLine
 10
29.25018069254492
 20
46.21402291760703
 30
0.0
 11
29.25018069254491
 21
41.48612000451901
 31
0.0
  0
ARC
  5
206
330
6C
100
AcDbEntity
  8
Visible (ANSI)
100
AcDbCircle
 10
28.21893069254492
 20
40.43277291760699
 30
0.0
 40
0.09375
100
AcDbArc
 50
180.0
 51
270.0
  0
ARC
  5
207
330
6C
100
AcDbEntity
  8
Visible (ANSI)
100
AcDbCircle
 10
28.21893069254492
 20
40.43277291760699
 30
0.0
 40
0.21875
100
AcDbArc
 50
180.0
 51
270.0
  0
ARC
  5
208
330
6C
100
AcDbEntity
  8
Visible (ANSI)
100
AcDbCircle
 10
45.90643069254491
 20
40.43277291760699
 30
0.0
 40
0.0937500000000066
100
AcDbArc
 50
270.0000000000043
 51
0.0
  0
ARC
  5
209
330
6C
100
AcDbEntity
  8
Visible (ANSI)
100
AcDbCircle
 10
45.90643069254491
 20
40.43277291760699
 30
0.0
 40
0.2187500000000024
100
AcDbArc
 50
269.9999999999982
 51
0.0
  0
LINE
  5
20A
330
6C
100
AcDbEntity
  8
Visible (ANSI)
100
AcDbLine
 10
28.00018069254491
 20
46.28969859328278
 30
0.0
 11
28.00018069254491
 21
48.21402291760865
 31
0.0
  0
LINE
  5
20B
330
6C
100
AcDbEntity
  8
Visible (ANSI)
100
AcDbLine
 10
46.00018069254495
 20
46.28969859328267
 30
0.0
 11
46.00018069254496
 21
48.21402291760865
 31
0.0
  0
LINE
  5
20C
330
6C
100
AcDbEntity
  8
Visible (ANSI)
100
AcDbLine
 10
46.12518069254496
 20
48.21402291760865
 30
0.0
 11
46.12518069254496
 21
46.28969859328267
 31
0.0
  0
LINE
  5
20D
330
6C
100
AcDbEntity
  8
Visible (ANSI)
100
AcDbLine
 10
46.00018069254496
 20
48.21402291760865
 30
0.0
 11
46.12518069254496
 21
48.21402291760865
 31
0.0
  0
LINE
  5
20E
330
6C
100
AcDbEntity
  8
Visible (ANSI)
100
AcDbLine
 10
28.12518069254492
 20
48.21402291760865
 30
0.0
 11
28.12518069254492
 21
46.28969859328278
 31
0.0
  0
LINE
  5
20F
330
6C
100
AcDbEntity
  8
Visible (ANSI)
100
AcDbLine
 10
28.00018069254491
 20
48.21402291760865
 30
0.0
 11
28.12518069254492
 21
48.21402291760865
 31
0.0
  0
LINE
  5
210
330
6C
100
AcDbEntity
  8
Visible (ANSI)
100
AcDbLine
 10
28.75018069254492
 20
48.21402291760868
 30
0.0
 11
29.00018069254492
 21
47.96402291760867
 31
0.0
  0
LINE
  5
211
330
6C
100
AcDbEntity
  8
Visible (ANSI)
100
AcDbLine
 10
45.12518069254564
 20
47.96402291760867
 30
0.0
 11
45.37518069254571
 21
48.21402291760868
 31
0.0
  0
LINE
  5
212
330
6C
100
AcDbEntity
  8
Visible (ANSI)
100
AcDbLine
 10
28.75018069254492
 20
48.21402291760868
 30
0.0
 11
28.21893069254492
 21
48.21402291760868
 31
0.0
  0
LINE
  5
213
330
6C
100
AcDbEntity
  8
Visible (ANSI)
100
AcDbLine
 10
45.37518069254571
 20
48.21402291760868
 30
0.0
 11
45.90643069254533
 21
48.21402291760868
 31
0.0
  0
LINE
  5
214
330
6C
100
AcDbEntity
  8
Visible Narrow (ANSI)
100
AcDbLine
 10
28.21893069254492
 20
48.21402291760868
 30
0.0
 11
28.21893069254492
 21
46.21402291760877
 31
0.0
  0
LINE
  5
215
330
6C
100
AcDbEntity
  8
Visible (ANSI)
100
AcDbLine
 10
28.21893069254491
 20
48.21402291760868
 30
0.0
 11
28.12518069254492
 21
48.21402291760865
 31
0.0
  0
LINE
  5
216
330
6C
100
AcDbEntity
  8
Visible (ANSI)
100
AcDbLine
 10
45.90643069254533
 20
48.21402291760868
 30
0.0
 11
46.00018069254551
 21
48.21402291760865
 31
0.0
  0
LINE
  5
217
330
6C
100
AcDbEntity
  8
Visible Narrow (ANSI)
100
AcDbLine
 10
45.90643069254531
 20
46.21402291760867
 30
0.0
 11
45.90643069254533
 21
48.21402291760868
 31
0.0
  0
CIRCLE
  5
218
330
6C
100
AcDbEntity
  8
Visible (ANSI)
100
AcDbCircle
 10
37.06268069254488
 20
43.96402291760696
 30
0.0
 40
0.28125
  0
CIRCLE
  5
219
330
6C
100
AcDbEntity
  8
Visible (ANSI)
100
AcDbCircle
 10
30.12518069254488
 20
46.96402291760692
 30
0.0
 40
0.28125
  0
CIRCLE
  5
21A
330
6C
100
AcDbEntity
  8
Visible (ANSI)
100
AcDbCircle
 10
44.00018069254488
 20
46.96402291760692
 30
0.0
 40
0.28125
  0
ARC
  5
21B
330
6C
100
AcDbEntity
  8
Visible (ANSI)
100
AcDbCircle
 10
45.75018069254487
 20
47.83902291760692
 30
0.0
 40
0.1250000000000016
100
AcDbArc
 50
0.0
 51
90.0
  0
ARC
  5
21C
330
6C
100
AcDbEntity
  8
Visible (ANSI)
100
AcDbCircle
 10
28.37518069254488
 20
47.83902291760692
 30
0.0
 40
0.125
100
AcDbArc
 50
90.0
 51
180.0
  0
ARC
  5
21D
330
6C
100
AcDbEntity
  8
Visible (ANSI)
100
AcDbCircle
 10
28.37518069254487
 20
40.46392575410179
 30
0.0
 40
0.1249999999999911
100
AcDbArc
 50
180.0
 51
189.3624011371809
  0
ARC
  5
21E
330
6C
100
AcDbEntity
  8
Visible (ANSI)
100
AcDbCircle
 10
45.75018069254508
 20
40.46392575410176
 30
0.0
 40
0.1249999999997884
100
AcDbArc
 50
350.6375988628529
 51
0.0
  0
LINE
  5
21F
330
6C
100
AcDbEntity
  8
Visible (ANSI)
100
AcDbLine
 10
45.87518069254488
 20
47.83902291760692
 30
0.0
 11
45.87518069254488
 21
46.46413213437604
 31
0.0
  0
LINE
  5
220
330
6C
100
AcDbEntity
  8
Visible (ANSI)
100
AcDbLine
 10
28.37518069254488
 20
47.96402291760692
 30
0.0
 11
45.75018069254487
 21
47.96402291760692
 31
0.0
  0
LINE
  5
221
330
6C
100
AcDbEntity
  8
Visible (ANSI)
100
AcDbLine
 10
28.25018069254488
 20
46.46413213437604
 30
0.0
 11
28.25018069254488
 21
47.83902291760692
 31
0.0
  0
LINE
  5
222
330
6C
100
AcDbEntity
  8
Visible (ANSI)
100
AcDbLine
 10
45.87518069254487
 20
46.3094525259915
 30
0.0
 11
45.87518069254487
 21
46.46413213437604
 31
0.0
  0
LINE
  5
223
330
6C
100
AcDbEntity
  8
Visible Narrow (ANSI)
100
AcDbLine
 10
28.25018069254488
 20
46.46413213437604
 30
0.0
 11
45.87518069254488
 21
46.46413213437604
 31
0.0
  0
LINE
  5
224
330
6C
100
AcDbEntity
  8
Visible (ANSI)
100
AcDbLine
 10
28.25018069254488
 20
46.3094525259915
 30
0.0
 11
28.25018069254488
 21
46.46413213437604
 31
0.0
  0
LINE
  5
225
330
6C
100
AcDbEntity
  8
Visible Narrow (ANSI)
100
AcDbLine
 10
28.25018069254488
 20
46.3094525259915
 30
0.0
 11
45.87518069254487
 21
46.3094525259915
 31
0.0
  0
LINE
  5
226
330
6C
100
AcDbEntity
  8
Visible (ANSI)
100
AcDbLine
 10
45.87518069254487
 20
46.27610779806891
 30
0.0
 11
45.87518069254487
 21
46.3094525259915
 31
0.0
  0
LINE
  5
227
330
6C
100
AcDbEntity
  8
Visible (ANSI)
100
AcDbLine
 10
28.25018069254488
 20
46.3094525259915
 30
0.0
 11
28.25018069254488
 21
46.27610779806891
 31
0.0
  0
LINE
  5
228
330
6C
100
AcDbEntity
  8
Visible (ANSI)
100
AcDbLine
 10
45.87518069254487
 20
46.27610779806891
 30
0.0
 11
45.87518069254487
 21
46.21402291760696
 31
0.0
  0
LINE
  5
229
330
6C
100
AcDbEntity
  8
Visible (ANSI)
100
AcDbLine
 10
28.25018069254488
 20
46.27610779806891
 30
0.0
 11
28.25018069254488
 21
46.21402291760706
 31
0.0
  0
LINE
  5
22A
330
6C
100
AcDbEntity
  8
Visible Narrow (ANSI)
100
AcDbLine
 10
29.25018069254492
 20
46.20981653733268
 30
0.0
 11
44.87518069254504
 21
46.20981653733268
 31
0.0
  0
LINE
  5
22B
330
6C
100
AcDbEntity
  8
Visible Narrow (ANSI)
100
AcDbLine
 10
28.25018069254488
 20
46.27610779806891
 30
0.0
 11
45.87518069254487
 21
46.27610779806891
 31
0.0
  0
LINE
  5
22C
330
6C
100
AcDbEntity
  8
Visible (ANSI)
100
AcDbLine
 10
45.87518069254488
 20
40.46392575410179
 30
0.0
 11
45.87518069254488
 21
40.48612000451916
 31
0.0
  0
LINE
  5
22D
330
6C
100
AcDbEntity
  8
Visible (ANSI)
100
AcDbLine
 10
28.25018069254488
 20
40.486120004519
 30
0.0
 11
28.25018069254488
 21
40.46392575410179
 31
0.0
  0
MTEXT
  5
22E
330
6C
100
AcDbEntity
  8
Symbol (ANSI)
100
AcDbMText
 10
35.11830487982653
 20
37.54280989666296
 30
0.0
 40
0.600000007415381
 41
0.0
 71
     7
 72
     1
  1
TOP VIEW
  7
Text Style168
 73
     1
 44
1.0
  0
LINE
  5
22F
330
6C
100
AcDbEntity
  8
Symbol (ANSI)
370
    30
100
AcDbLine
 10
35.11878488106127
 20
37.42045170978851
 30
0.0
 11
38.90452226789993
 21
37.42045170978851
 31
0.0
  0
ELLIPSE
  5
230
330
6C
100
AcDbEntity
  8
Visible (ANSI)
100
AcDbEllipse
 10
69.70913754172324
 20
47.31743294344471
 30
0.0
 11
-0.28125
 21
0.0000000000000179
 31
0.0
210
0.0
220
0.0
230
1.0
 40
0.5758617009853088
 41
0.0
 42
6.283185307179586
  0
ELLIPSE
  5
231
330
6C
100
AcDbEntity
  8
Visible (ANSI)
100
AcDbEllipse
 10
69.70913754172324
 20
47.21523955283939
 30
0.0
 11
0.2812499999999994
 21
-0.0000000000000016
 31
0.0
210
0.0
220
0.0
230
1.0
 40
0.5758617009853103
 41
0.3209702928256531
 42
2.820622360764158
  0
ELLIPSE
  5
232
330
6C
100
AcDbEntity
  8
Visible (ANSI)
100
AcDbEllipse
 10
79.34346743539139
 20
41.76939134302499
 30
0.0
 11
-0.28125
 21
0.0000000000000179
 31
0.0
210
0.0
220
0.0
230
1.0
 40
0.5758617009853088
 41
0.0
 42
6.283185307179586
  0
ELLIPSE
  5
233
330
6C
100
AcDbEntity
  8
Visible (ANSI)
100
AcDbEllipse
 10
79.34346743539139
 20
41.66719795241967
 30
0.0
 11
0.2812500000000004
 21
-0.0000000000000015
 31
0.0
210
0.0
220
0.0
230
1.0
 40
0.57586170098531
 41
0.3209702928256526
 42
2.820622360764157
  0
ELLIPSE
  5
234
330
6C
100
AcDbEntity
  8
Visible (ANSI)
100
AcDbEllipse
 10
67.67620554581188
 20
47.41923187189263
 30
0.0
 11
-0.28125
 21
0.0000000000000136
 31
0.0
210
0.0
220
0.0
230
1.0
 40
0.575861700985305
 41
0.0
 42
6.283185307179586
  0
ELLIPSE
  5
235
330
6C
100
AcDbEntity
  8
Visible (ANSI)
100
AcDbEllipse
 10
67.67620554581188
 20
47.3170384812873
 30
0.0
 11
0.2812500000000005
 21
0.0000000000000031
 31
0.0
210
0.0
220
0.0
230
1.0
 40
0.5758617009853034
 41
0.3209702928256704
 42
2.820622360764127
  0
ELLIPSE
  5
236
330
6C
100
AcDbEntity
  8
Visible (ANSI)
100
AcDbEllipse
 10
64.14067163987967
 20
45.38325330293065
 30
0.0
 11
-0.28125
 21
0.0000000000000136
 31
0.0
210
0.0
220
0.0
230
1.0
 40
0.575861700985305
 41
0.0
 42
6.283185307179586
  0
ELLIPSE
  5
237
330
6C
100
AcDbEntity
  8
Visible (ANSI)
100
AcDbEllipse
 10
64.14067163987967
 20
45.28105991232534
 30
0.0
 11
0.2812499999999997
 21
0.000000000000003
 31
0.0
210
0.0
220
0.0
230
1.0
 40
0.5758617009853032
 41
0.3209702928256715
 42
2.820622360764128
  0
ELLIPSE
  5
238
330
6C
100
AcDbEntity
  8
Visible (ANSI)
100
AcDbEllipse
 10
79.52024413068831
 20
40.59870366587193
 30
0.0
 11
-0.28125
 21
0.0000000000000297
 31
0.0
210
0.0
220
0.0
230
1.0
 40
0.5758617009852883
 41
0.0
 42
6.283185307179586
  0
ELLIPSE
  5
239
330
6C
100
AcDbEntity
  8
Visible (ANSI)
100
AcDbEllipse
 10
79.5202441306883
 20
40.49651027526661
 30
0.0
 11
0.2812499999999983
 21
-0.0000000000000124
 31
0.0
210
0.0
220
0.0
230
1.0
 40
0.5758617009852911
 41
0.3209702928256433
 42
2.820622360764128
  0
ELLIPSE
  5
23A
330
6C
100
AcDbEntity
  8
Visible (ANSI)
100
AcDbEllipse
 10
75.98471022475611
 20
38.56272509691015
 30
0.0
 11
-0.28125
 21
0.0000000000000297
 31
0.0
210
0.0
220
0.0
230
1.0
 40
0.5758617009852883
 41
0.0
 42
6.283185307179586
  0
ELLIPSE
  5
23B
330
6C
100
AcDbEntity
  8
Visible (ANSI)
100
AcDbEllipse
 10
75.98471022475611
 20
38.46053170630483
 30
0.0
 11
0.2812499999999982
 21
-0.0000000000000132
 31
0.0
210
0.0
220
0.0
230
1.0
 40
0.5758617009852905
 41
0.3209702928256485
 42
2.820622360764133
  0
SPLINE
  5
23C
330
6C
100
AcDbEntity
  8
Visible (ANSI)
100
AcDbSpline
210
0.0
220
0.0
230
1.0
 70
     8
 71
     3
 72
     8
 73
     4
 74
     0
 42
0.0000000001
 43
0.0000000001
 40
0.0
 40
0.0
 40
0.0
 40
0.0
 40
0.7873318718203289
 40
0.7873318718203289
 40
0.7873318718203289
 40
0.7873318718203289
 10
81.26591399674248
 20
36.31762966233662
 30
0.0
 10
81.2633034184247
 20
36.26919126405011
 30
0.0
 10
81.24369425091247
 20
36.23099073324651
 30
0.0
 10
81.21251294156088
 20
36.21269442264278
 30
0.0
  0
SPLINE
  5
23D
330
6C
100
AcDbEntity
  8
Visible (ANSI)
100
AcDbSpline
210
0.0
220
0.0
230
1.0
 70
     8
 71
     3
 72
     8
 73
     4
 74
     0
 42
0.0000000001
 43
0.0000000001
 40
0.0
 40
0.0
 40
0.0
 40
0.0
 40
0.2101164220635534
 40
0.2101164220635534
 40
0.2101164220635534
 40
0.2101164220635534
 10
68.67057445685522
 20
43.64715251059755
 30
0.0
 10
68.67127114575514
 20
43.64138318674445
 30
0.0
 10
68.67143472549273
 20
43.63533220271582
 30
0.0
 10
68.67111823030819
 20
43.62912712420167
 30
0.0
  0
SPLINE
  5
23E
330
6C
100
AcDbEntity
  8
Visible (ANSI)
100
AcDbSpline
210
0.0
220
0.0
230
1.0
 70
     8
 71
     3
 72
     8
 73
     4
 74
     0
 42
0.0000000001
 43
0.0000000001
 40
0.0
 40
0.0
 40
0.0
 40
0.0
 40
0.7825528965235753
 40
0.7825528965235753
 40
0.7825528965235753
 40
0.7825528965235753
 10
68.53799193538275
 20
43.64715251059754
 30
0.0
 10
68.53539720284707
 20
43.62566537005
 30
0.0
 10
68.54019722139032
 20
43.60027132443664
 30
0.0
 10
68.54965219978691
 20
43.57756051923519
 30
0.0
  0
LINE
  5
23F
330
6C
100
AcDbEntity
  8
Visible Narrow (ANSI)
100
AcDbLine
 10
77.12444213456726
 20
33.93271463120085
 30
0.0
 11
81.26591399674248
 21
36.31762966233662
 31
0.0
  0
SPLINE
  5
240
330
6C
100
AcDbEntity
  8
Visible (ANSI)
100
AcDbSpline
210
0.0
220
0.0
230
1.0
 70
     8
 71
     3
 72
    11
 73
     7
 74
     0
 42
0.0000000001
 43
0.0000000001
 40
0.0
 40
0.0
 40
0.0
 40
0.0
 40
0.9120227246348024
 40
0.9120227246348024
 40
0.9120227246348024
 40
1.570796326794897
 40
1.570796326794897
 40
1.570796326794897
 40
1.570796326794897
 10
77.02327330962386
 20
33.873765070807
 30
0.0
 10
77.05994075328286
 20
33.8407220678985
 30
0.0
 10
77.0960870692145
 20
33.83435075317073
 30
0.0
 10
77.11451622728077
 20
33.85480181500478
 30
0.0
 10
77.12782800396809
 20
33.86957405620942
 30
0.0
 10
77.13192273341196
 20
33.89775107521564
 30
0.0
 10
77.12444213456736
 20
33.93271463120079
 30
0.0
  0
LINE
  5
241
330
6C
100
AcDbEntity
  8
Visible Narrow (ANSI)
100
AcDbLine
 10
77.02327330962386
 20
33.97595846141232
 30
0.0
 11
77.03618503867367
 21
33.9833938316656
 31
0.0
  0
LINE
  5
242
330
6C
100
AcDbEntity
  8
Visible (ANSI)
100
AcDbLine
 10
77.02327330962386
 20
33.97595846141232
 30
0.0
 11
77.02327330962386
 21
33.87376507080701
 31
0.0
  0
LINE
  5
243
330
6C
100
AcDbEntity
  8
Visible (ANSI)
100
AcDbLine
 10
77.06823462326243
 20
33.96508238426899
 30
0.0
 11
77.12444213456726
 21
33.93271463120085
 31
0.0
  0
LINE
  5
244
330
6C
100
AcDbEntity
  8
Visible (ANSI)
100
AcDbLine
 10
77.03605378691893
 20
33.98361409542488
 30
0.0
 11
77.06823462326243
 21
33.96508238426899
 31
0.0
  0
SPLINE
  5
245
330
6C
100
AcDbEntity
  8
Visible (ANSI)
100
AcDbSpline
210
0.0
220
0.0
230
1.0
 70
     8
 71
     3
 72
    11
 73
     7
 74
     0
 42
0.0000000001
 43
0.0000000001
 40
0.0
 40
0.0
 40
0.0
 40
0.0
 40
1.12719708240312
 40
1.12719708240312
 40
1.12719708240312
 40
1.570796326794897
 40
1.570796326794897
 40
1.570796326794897
 40
1.570796326794897
 10
77.03605378691901
 20
33.98361409542483
 30
0.0
 10
77.04885349407881
 20
33.96218693362917
 30
0.0
 10
77.04631071067429
 20
33.95032410405529
 30
0.0
 10
77.03661340078294
 20
33.95829022234423
 30
0.0
 10
77.0327971033425
 20
33.96142522340916
 30
0.0
 10
77.0280383400274
 20
33.96741297799088
 30
0.0
 10
77.02327330962386
 20
33.97595846141232
 30
0.0
  0
LINE
  5
246
330
6C
100
AcDbEntity
  8
Visible Narrow (ANSI)
100
AcDbLine
 10
68.67057445685522
 20
43.64715251059755
 30
0.0
 11
68.70023925473704
 21
43.63006968962994
 31
0.0
  0
SPLINE
  5
247
330
6C
100
AcDbEntity
  8
Visible (ANSI)
100
AcDbSpline
210
0.0
220
0.0
230
1.0
 70
     8
 71
     3
 72
    11
 73
     7
 74
     0
 42
0.0000000001
 43
0.0000000001
 40
0.0
 40
0.0
 40
0.0
 40
0.0
 40
0.912022724634949
 40
0.912022724634949
 40
0.912022724634949
 40
1.045025571119163
 40
1.045025571119163
 40
1.045025571119163
 40
1.045025571119163
 10
64.30813172555907
 20
41.31313694368578
 30
0.0
 10
64.3184880545282
 20
41.2647325184205
 30
0.0
 10
64.35165350365045
 20
41.20379571512929
 30
0.0
 10
64.39919357810488
 20
41.15506544963437
 30
0.0
 10
64.40612648125931
 20
41.14795897756335
 30
0.0
 10
64.41334484596857
 20
41.14112249839668
 30
0.0
 10
64.42079189854705
 20
41.13461114462057
 30
0.0
  0
SPLINE
  5
248
330
6C
100
AcDbEntity
  8
Visible (ANSI)
100
AcDbSpline
210
0.0
220
0.0
230
1.0
 70
     8
 71
     3
 72
     8
 73
     4
 74
     0
 42
0.0000000001
 43
0.0000000001
 40
0.0
 40
0.0
 40
0.0
 40
0.0
 40
1.015883259287435
 40
1.015883259287435
 40
1.015883259287435
 40
1.015883259287435
 10
64.39652007320741
 20
41.26223747946173
 30
0.0
 10
64.40805577395612
 20
41.24292630903551
 30
0.0
 10
64.43205336030704
 20
41.2170310895359
 30
0.0
 10
64.46251895601829
 20
41.19896916635791
 30
0.0
  0
LINE
  5
249
330
6C
100
AcDbEntity
  8
Visible (ANSI)
100
AcDbLine
 10
64.36433923686395
 20
41.2807691906176
 30
0.0
 11
64.39652007320741
 21
41.26223747946173
 31
0.0
  0
LINE
  5
24A
330
6C
100
AcDbEntity
  8
Visible (ANSI)
100
AcDbLine
 10
64.30813172555907
 20
41.31313694368578
 30
0.0
 11
64.36433923686395
 21
41.2807691906176
 31
0.0
  0
LINE
  5
24B
330
6C
100
AcDbEntity
  8
Visible Narrow (ANSI)
100
AcDbLine
 10
64.39652007320741
 20
41.26223747946173
 30
0.0
 11
68.53799193538275
 21
43.64715251059754
 31
0.0
  0
LINE
  5
24C
330
6C
100
AcDbEntity
  8
Visible (ANSI)
100
AcDbLine
 10
77.10574708794251
 20
33.84766890649562
 30
0.0
 11
81.21256594968865
 21
36.21262860186003
 31
0.0
  0
LINE
  5
24D
330
6C
100
AcDbEntity
  8
Visible (ANSI)
100
AcDbLine
 10
77.02327330962386
 20
33.97595846141232
 30
0.0
 11
77.00117622271168
 21
33.98868332746838
 31
0.0
  0
LINE
  5
24E
330
6C
100
AcDbEntity
  8
Visible (ANSI)
100
AcDbLine
 10
76.94463072765632
 20
33.9190523218287
 30
0.0
 11
77.02327330962386
 21
33.87376507080701
 31
0.0
  0
ELLIPSE
  5
24F
330
6C
100
AcDbEntity
  8
Visible (ANSI)
100
AcDbEllipse
 10
68.60428319611898
 20
43.60897791242952
 30
0.0
 11
0.09375
 21
-0.0000000000000055
 31
0.0
210
0.0
220
0.0
230
1.0
 40
0.5758617009853115
 41
0.7853981633978915
 42
2.356194490192745
  0
ELLIPSE
  5
250
330
6C
100
AcDbEntity
  8
Visible (ANSI)
100
AcDbEllipse
 10
81.11123438835791
 20
36.40670372472868
 30
0.0
 11
0.2187499999999913
 21
0.0000000000000001
 31
0.0
210
0.0
220
0.0
230
1.0
 40
0.5758617009853123
 41
5.497787143782263
 42
6.283185307179585
  0
LINE
  5
251
330
6C
100
AcDbEntity
  8
Visible (ANSI)
100
AcDbLine
 10
64.30813172555907
 20
41.31313694368578
 30
0.0
 11
62.94742894662739
 21
45.07716620881113
 31
0.0
  0
LINE
  5
252
330
6C
100
AcDbEntity
  8
Visible (ANSI)
100
AcDbLine
 10
77.03605378691893
 20
33.98361409542488
 30
0.0
 11
75.67535100798719
 21
37.7476433605502
 31
0.0
  0
LINE
  5
253
330
6C
100
AcDbEntity
  8
Visible (ANSI)
100
AcDbLine
 10
75.76373935563552
 20
37.69674389632617
 30
0.0
 11
77.12444213456726
 21
33.93271463120085
 31
0.0
  0
LINE
  5
254
330
6C
100
AcDbEntity
  8
Visible (ANSI)
100
AcDbLine
 10
75.67535100798719
 20
37.7476433605502
 30
0.0
 11
75.76373935563552
 21
37.69674389632617
 31
0.0
  0
LINE
  5
255
330
6C
100
AcDbEntity
  8
Visible (ANSI)
100
AcDbLine
 10
63.03581729427573
 20
45.02626674458709
 30
0.0
 11
64.39652007320741
 21
41.26223747946173
 31
0.0
  0
LINE
  5
256
330
6C
100
AcDbEntity
  8
Visible (ANSI)
100
AcDbLine
 10
62.94742894662739
 20
45.07716620881113
 30
0.0
 11
63.03581729427573
 21
45.02626674458709
 31
0.0
  0
ELLIPSE
  5
257
330
6C
100
AcDbEntity
  8
Visible (ANSI)
100
AcDbEllipse
 10
81.11123438835791
 20
40.95430960666531
 30
0.0
 11
0.2187499999999999
 21
0.0
 31
0.0
210
0.0
220
0.0
230
1.0
 40
0.5758617009853119
 41
5.497787143782347
 42
7.068583470577201
  0
ELLIPSE
  5
258
330
6C
100
AcDbEntity
  8
Visible (ANSI)
100
AcDbEllipse
 10
68.60428319611898
 20
48.15658379436615
 30
0.0
 11
-0.0937499999999993
 21
0.0
 31
0.0
210
0.0
220
0.0
230
1.0
 40
0.5758617009853121
 41
4.544940901164612
 42
4.879837059604009
  0
LINE
  5
259
330
6C
100
AcDbEntity
  8
Visible (ANSI)
100
AcDbLine
 10
63.47775903251739
 20
44.84841446642092
 30
0.0
 11
63.10210855501197
 21
45.06473718937306
 31
0.0
  0
LINE
  5
25A
330
6C
100
AcDbEntity
  8
Visible (ANSI)
100
AcDbLine
 10
68.5886581961192
 20
47.38438983854556
 30
0.0
 11
64.18486581370394
 21
44.84841446642099
 31
0.0
  0
LINE
  5
25B
330
6C
100
AcDbEntity
  8
Visible (ANSI)
100
AcDbLine
 10
63.47775903251739
 20
44.95060785702624
 30
0.0
 11
63.10210855501197
 21
45.16693057997838
 31
0.0
  0
LINE
  5
25C
330
6C
100
AcDbEntity
  8
Visible (ANSI)
100
AcDbLine
 10
75.6090597472512
 20
37.96465639227753
 30
0.0
 11
75.23340926974602
 21
38.18097911522951
 31
0.0
  0
LINE
  5
25D
330
6C
100
AcDbEntity
  8
Visible (ANSI)
100
AcDbLine
 10
75.23340926974604
 20
38.07878572462421
 30
0.0
 11
75.6090597472512
 21
37.86246300167221
 31
0.0
  0
LINE
  5
25E
330
6C
100
AcDbEntity
  8
Visible (ANSI)
100
AcDbLine
 10
79.56409580721126
 20
41.08205134492158
 30
0.0
 11
68.61990819611921
 21
47.38438983854555
 31
0.0
  0
LINE
  5
25F
330
6C
100
AcDbEntity
  8
Visible (ANSI)
100
AcDbLine
 10
79.6372016521607
 20
41.14214587930236
 30
0.0
 11
68.61990819611921
 21
47.48658322915086
 31
0.0
  0
LINE
  5
260
330
6C
100
AcDbEntity
  8
Visible (ANSI)
100
AcDbLine
 10
68.5886581961192
 20
47.48658322915087
 30
0.0
 11
64.18486581370394
 21
44.9506078570263
 31
0.0
  0
LINE
  5
261
330
6C
100
AcDbEntity
  8
Visible (ANSI)
100
AcDbLine
 10
75.23340926974589
 20
38.58817482902182
 30
0.0
 11
79.63720165216109
 21
41.12415020114639
 31
0.0
  0
ELLIPSE
  5
262
330
6C
100
AcDbEntity
  8
Visible (ANSI)
100
AcDbEllipse
 10
68.60428319611898
 20
48.15658379436615
 30
0.0
 11
0.2187500000000012
 21
0.0
 31
0.0
210
0.0
220
0.0
230
1.0
 40
0.5758617009853121
 41
1.49930687690934
 42
1.642285776680388
  0
LINE
  5
263
330
6C
100
AcDbEntity
  8
Visible Narrow (ANSI)
100
AcDbLine
 10
81.26591399674248
 20
36.31762966233662
 30
0.0
 11
81.2659139967425
 21
40.86523554427325
 31
0.0
  0
LINE
  5
264
330
6C
100
AcDbEntity
  8
Visible Narrow (ANSI)
100
AcDbLine
 10
68.67057445685522
 20
47.35521307945556
 30
0.0
 11
68.67057445685522
 21
43.64715251059755
 31
0.0
  0
LINE
  5
265
330
6C
100
AcDbEntity
  8
Visible Narrow (ANSI)
100
AcDbLine
 10
68.53799193538275
 20
43.64715251059754
 30
0.0
 11
68.53799193538275
 21
47.35521307945528
 31
0.0
  0
LINE
  5
266
330
6C
100
AcDbEntity
  8
Visible (ANSI)
100
AcDbLine
 10
81.32998438835789
 20
40.95430960666531
 30
0.0
 11
81.32998438835791
 21
36.40670372472868
 31
0.0
  0
LINE
  5
267
330
6C
100
AcDbEntity
  8
Visible (ANSI)
100
AcDbLine
 10
64.18486581370394
 20
44.9506078570263
 30
0.0
 11
63.47775903251739
 21
44.95060785702624
 31
0.0
  0
LINE
  5
268
330
6C
100
AcDbEntity
  8
Visible (ANSI)
100
AcDbLine
 10
63.47775903251739
 20
44.95060785702624
 30
0.0
 11
63.47775903251739
 21
44.84841446642092
 31
0.0
  0
LINE
  5
269
330
6C
100
AcDbEntity
  8
Visible (ANSI)
100
AcDbLine
 10
63.47775903251739
 20
44.84841446642092
 30
0.0
 11
64.18486581370394
 21
44.84841446642099
 31
0.0
  0
LINE
  5
26A
330
6C
100
AcDbEntity
  8
Visible (ANSI)
100
AcDbLine
 10
64.18486581370394
 20
44.84841446642099
 30
0.0
 11
64.18486581370394
 21
44.9506078570263
 31
0.0
  0
LINE
  5
26B
330
6C
100
AcDbEntity
  8
Visible (ANSI)
100
AcDbLine
 10
75.23340926974602
 20
38.18097911522951
 30
0.0
 11
75.23340926974589
 21
38.58817482902182
 31
0.0
  0
LINE
  5
26C
330
6C
100
AcDbEntity
  8
Visible (ANSI)
100
AcDbLine
 10
75.23340926974604
 20
38.07878572462421
 30
0.0
 11
75.23340926974602
 21
38.18097911522951
 31
0.0
  0
ELLIPSE
  5
26D
330
6C
100
AcDbEntity
  8
Visible (ANSI)
100
AcDbEllipse
 10
63.10210855501199
 20
44.98809214641907
 30
0.0
 11
-0.0467842698360383
 21
0.0812421971386108
 31
0.0
210
0.0
220
0.0
230
1.0
 40
0.5780931159158106
 41
5.499720852205022
 42
7.070517178999803
  0
ELLIPSE
  5
26E
330
6C
100
AcDbEntity
  8
Visible (ANSI)
100
AcDbEllipse
 10
63.10210855501199
 20
44.98809214641907
 30
0.0
 11
-0.1091632962840884
 21
0.1895651266567567
 31
0.0
210
0.0
220
0.0
230
1.0
 40
0.5780931159158105
 41
5.499720852205022
 42
7.070517178999919
  0
ELLIPSE
  5
26F
330
6C
100
AcDbEntity
  8
Visible (ANSI)
100
AcDbEllipse
 10
75.6090597472512
 20
37.78581795871807
 30
0.0
 11
-0.1091632962841932
 21
0.1895651266569094
 31
0.0
210
0.0
220
0.0
230
0.9999999999999998
 40
0.5780931159158204
 41
3.928924525409851
 42
5.49972085220476
  0
ELLIPSE
  5
270
330
6C
100
AcDbEntity
  8
Visible (ANSI)
100
AcDbEllipse
 10
75.6090597472512
 20
37.78581795871807
 30
0.0
 11
0.0467842698361235
 21
-0.08124219713877
 31
0.0
210
0.0
220
0.0
230
1.0
 40
0.5780931159158105
 41
0.7873318718205127
 42
2.358128198615402
  0
LINE
  5
271
330
6C
100
AcDbEntity
  8
Visible Narrow (ANSI)
100
AcDbLine
 10
81.09560938835791
 20
41.14214587930251
 30
0.0
 11
68.619908196119
 21
48.32642438884755
 31
0.0
  0
LINE
  5
272
330
6C
100
AcDbEntity
  8
Visible Narrow (ANSI)
100
AcDbLine
 10
68.58865819611899
 20
48.32642438884755
 30
0.0
 11
63.10210855501197
 21
45.16693057997838
 31
0.0
  0
LINE
  5
273
330
6C
100
AcDbEntity
  8
Visible Narrow (ANSI)
100
AcDbLine
 10
63.10236542798808
 20
45.0645892660641
 30
0.0
 11
63.03581729427573
 21
45.02626674458709
 31
0.0
  0
LINE
  5
274
330
6C
100
AcDbEntity
  8
Visible Narrow (ANSI)
100
AcDbLine
 10
75.6090597472512
 20
37.96465639227753
 30
0.0
 11
81.09560938835832
 21
41.12415020114649
 31
0.0
  0
LINE
  5
275
330
6C
100
AcDbEntity
  8
Visible Narrow (ANSI)
100
AcDbLine
 10
81.2659139967425
 20
40.86523554427325
 30
0.0
 11
75.76373935563552
 21
37.69674389632617
 31
0.0
  0
LINE
  5
276
330
6C
100
AcDbEntity
  8
Visible (ANSI)
100
AcDbLine
 10
68.72127822735641
 20
48.34163892481101
 30
0.0
 11
81.21256594968858
 21
41.148384729534
 31
0.0
  0
LINE
  5
277
330
6C
100
AcDbEntity
  8
Visible (ANSI)
100
AcDbLine
 10
62.99294525872789
 20
45.17765727307582
 30
0.0
 11
68.48728816488153
 21
48.34163892481099
 31
0.0
  0
SPLINE
  5
278
330
6C
100
AcDbEntity
  8
Visible (ANSI)
100
AcDbSpline
210
0.0
220
0.0
230
1.0
 70
     8
 71
     3
 72
    11
 73
     7
 74
     0
 42
0.0000000001
 43
0.0000000001
 40
0.0
 40
0.0
 40
0.0
 40
0.0
 40
0.9120227246349598
 40
0.9120227246349598
 40
0.9120227246349598
 40
1.5707963267949
 40
1.5707963267949
 40
1.5707963267949
 40
1.5707963267949
 10
81.26591399674245
 20
41.04338366905739
 30
0.0
 10
81.26288997747499
 20
41.09949332441796
 30
0.0
 10
81.23705683805441
 20
41.14186556034575
 30
0.0
 10
81.19684907330166
 20
41.15547566608761
 30
0.0
 10
81.16780614125017
 20
41.16530653777879
 30
0.0
 10
81.13175998335584
 20
41.16044789680272
 30
0.0
 10
81.09560938835791
 20
41.1421458793025
 30
0.0
  0
SPLINE
  5
279
330
6C
100
AcDbEntity
  8
Visible (ANSI)
100
AcDbSpline
210
0.0
220
0.0
230
1.0
 70
     8
 71
     3
 72
     8
 73
     4
 74
     0
 42
0.0000000001
 43
0.0000000001
 40
0.0
 40
0.0
 40
0.0
 40
0.0
 40
0.783464454974423
 40
0.783464454974423
 40
0.783464454974423
 40
0.783464454974423
 10
68.619908196119
 20
48.32642438884755
 30
0.0
 10
68.65770576612966
 20
48.35118245705101
 30
0.0
 10
68.69511876963369
 20
48.35625813759578
 30
0.0
 10
68.72124613704873
 20
48.34155590468237
 30
0.0
  0
LINE
  5
27A
330
6C
100
AcDbEntity
  8
Visible (ANSI)
100
AcDbLine
 10
68.61990819611921
 20
47.48658322915086
 30
0.0
 11
68.619908196119
 21
48.32642438884755
 31
0.0
  0
LINE
  5
27B
330
6C
100
AcDbEntity
  8
Visible (ANSI)
100
AcDbLine
 10
68.61990819611921
 20
47.38438983854555
 30
0.0
 11
68.61990819611921
 21
47.48658322915086
 31
0.0
  0
LINE
  5
27C
330
6C
100
AcDbEntity
  8
Visible (ANSI)
100
AcDbLine
 10
81.09560938835791
 20
41.1241502011465
 30
0.0
 11
81.09560938835791
 21
41.14214587930251
 31
0.0
  0
SPLINE
  5
27D
330
6C
100
AcDbEntity
  8
Visible (ANSI)
100
AcDbSpline
210
0.0
220
0.0
230
1.0
 70
    24
 71
     3
 72
     8
 73
     4
 74
     0
 42
0.0000000001
 43
0.0000000001
 40
-0.3175000000000039
 40
-0.3175000000000039
 40
-0.3175000000000039
 40
-0.3175000000000039
 40
-0.1275259911876155
 40
-0.1275259911876155
 40
-0.1275259911876155
 40
-0.1275259911876155
 10
81.26591399674245
 20
41.04338366905739
 30
0.0
 10
81.24828513717808
 20
41.03323188400223
 30
0.0
 10
81.23065627761373
 20
41.02308009894706
 30
0.0
 10
81.21302741804937
 20
41.0129283138919
 30
0.0
  0
LINE
  5
27E
330
6C
100
AcDbEntity
  8
Visible (ANSI)
100
AcDbLine
 10
81.09560938835791
 20
41.14214587930251
 30
0.0
 11
79.6372016521607
 21
41.14214587930236
 31
0.0
  0
LINE
  5
27F
330
6C
100
AcDbEntity
  8
Visible (ANSI)
100
AcDbLine
 10
79.6372016521607
 20
41.12415020114639
 30
0.0
 11
79.6372016521607
 21
41.14214587930236
 31
0.0
  0
SPLINE
  5
280
330
6C
100
AcDbEntity
  8
Visible (ANSI)
100
AcDbSpline
210
0.0
220
0.0
230
1.0
 70
     8
 71
     3
 72
    11
 73
     7
 74
     0
 42
0.0000000001
 43
0.0000000001
 40
0.7873318718203436
 40
0.7873318718203436
 40
0.7873318718203436
 40
0.7873318718203436
 40
0.9120227246349571
 40
0.9120227246349571
 40
0.9120227246349571
 40
1.570796326794894
 40
1.570796326794894
 40
1.570796326794894
 40
1.570796326794894
 10
68.48734117300928
 20
48.34157310402823
 30
0.0
 10
68.4914525188054
 20
48.34399454678303
 30
0.0
 10
68.49585411129033
 20
48.34591676181606
 30
0.0
 10
68.5005243955705
 20
48.34730135251342
 30
0.0
 10
68.52519869949022
 20
48.35461649857769
 30
0.0
 10
68.5568762292528
 20
48.34724213197469
 30
0.0
 10
68.58865819611899
 20
48.32642438884755
 30
0.0
  0
LINE
  5
281
330
6C
100
AcDbEntity
  8
Visible (ANSI)
100
AcDbLine
 10
68.58865819611899
 20
48.32642438884755
 30
0.0
 11
68.5886581961192
 21
47.48658322915087
 31
0.0
  0
LINE
  5
282
330
6C
100
AcDbEntity
  8
Visible (ANSI)
100
AcDbLine
 10
68.5886581961192
 20
47.38438983854556
 30
0.0
 11
68.5886581961192
 21
47.48658322915087
 31
0.0
  0
SPLINE
  5
283
330
6C
100
AcDbEntity
  8
Visible (ANSI)
100
AcDbSpline
210
0.0
220
0.0
230
1.0
 70
     8
 71
     3
 72
    11
 73
     7
 74
     0
 42
0.0000000001
 43
0.0000000001
 40
0.0
 40
0.0
 40
0.0
 40
0.0
 40
0.9120227246351873
 40
0.9120227246351873
 40
0.9120227246351873
 40
1.570796326794929
 40
1.570796326794929
 40
1.570796326794929
 40
1.570796326794929
 10
81.09560938835832
 20
41.1241502011465
 30
0.0
 10
81.14565718025383
 20
41.0988124283333
 30
0.0
 10
81.19518384442198
 20
41.04740316233841
 30
0.0
 10
81.22699335072477
 20
40.98957678511166
 30
0.0
 10
81.24997004032248
 20
40.94780755086286
 30
0.0
 10
81.26372968267679
 20
40.90324902781984
 30
0.0
 10
81.26591399674262
 20
40.86523554427317
 30
0.0
  0
LINE
  5
284
330
6C
100
AcDbEntity
  8
Visible (ANSI)
100
AcDbLine
 10
79.63720165216109
 20
41.12415020114639
 30
0.0
 11
81.09560938835832
 21
41.1241502011465
 31
0.0
  0
ELLIPSE
  5
285
330
6C
100
AcDbEntity
  8
Visible (ANSI)
100
AcDbEllipse
 10
72.36078797117381
 20
38.59547930190107
 30
0.0
 11
0.28125
 21
-0.0000000000000169
 31
0.0
210
0.0
220
0.0
230
1.0
 40
0.5758617009853113
 41
0.0
 42
6.283185307179586
  0
ELLIPSE
  5
286
330
6C
100
AcDbEntity
  8
Visible (ANSI)
100
AcDbEllipse
 10
72.36078797117381
 20
38.49328591129575
 30
0.0
 11
0.2812500000000003
 21
-0.0000000000000001
 31
0.0
210
0.0
220
0.0
230
1.0
 40
0.5758617009853113
 41
0.3209702928256442
 42
2.820622360764151
  0
ELLIPSE
  5
287
330
6C
100
AcDbEntity
  8
Visible (ANSI)
100
AcDbEllipse
 10
65.33391433313207
 20
40.09672216072638
 30
0.0
 11
0.28125
 21
-0.0000000000000168
 31
0.0
210
0.0
220
0.0
230
1.0
 40
0.5758617009853114
 41
0.0
 42
6.283185307179586
  0
ELLIPSE
  5
288
330
6C
100
AcDbEntity
  8
Visible (ANSI)
100
AcDbEllipse
 10
65.33391433313207
 20
39.99452877012107
 30
0.0
 11
0.2812500000000003
 21
-0.0000000000000001
 31
0.0
210
0.0
220
0.0
230
1.0
 40
0.5758617009853117
 41
0.3209702928256437
 42
2.82062236076415
  0
ELLIPSE
  5
289
330
6C
100
AcDbEntity
  8
Visible (ANSI)
100
AcDbEllipse
 10
75.14502092209689
 20
34.44688163185859
 30
0.0
 11
0.28125
 21
-0.0000000000000168
 31
0.0
210
0.0
220
0.0
230
1.0
 40
0.5758617009853114
 41
0.0
 42
6.283185307179586
  0
ELLIPSE
  5
28A
330
6C
100
AcDbEntity
  8
Visible (ANSI)
100
AcDbEllipse
 10
75.14502092209689
 20
34.34468824125327
 30
0.0
 11
0.2812499999999992
 21
-0.0000000000000001
 31
0.0
210
0.0
220
0.0
230
1.0
 40
0.5758617009853114
 41
0.3209702928256439
 42
2.82062236076415
  0
ELLIPSE
  5
28B
330
6C
100
AcDbEntity
  8
Visible (ANSI)
100
AcDbEllipse
 10
75.76373935563539
 20
33.37799288315376
 30
0.0
 11
-0.1250000000000038
 21
0.0000000000000075
 31
0.0
210
0.0
220
0.0
230
1.0
 40
0.5758617009853117
 41
0.7853981633978595
 42
2.356194490192645
  0
LINE
  5
28C
330
6C
100
AcDbEntity
  8
Visible Narrow (ANSI)
100
AcDbLine
 10
75.67535100798707
 20
33.32709341892972
 30
0.0
 11
75.67535100798707
 21
33.2249000283244
 31
0.0
  0
ELLIPSE
  5
28D
330
6C
100
AcDbEntity
  8
Visible (ANSI)
100
AcDbEllipse
 10
75.76373935563539
 20
33.27579949254845
 30
0.0
 11
0.1250000000000016
 21
0.0000000000000074
 31
0.0
210
0.0
220
0.0
230
1.0
 40
0.5758617009853115
 41
3.926990816987237
 42
5.497787143782091
  0
LINE
  5
28E
330
6C
100
AcDbEntity
  8
Visible Narrow (ANSI)
100
AcDbLine
 10
75.85212770328372
 20
33.22490002832442
 30
0.0
 11
75.85212770328372
 21
33.32709341892973
 31
0.0
  0
ELLIPSE
  5
28F
330
6C
100
AcDbEntity
  8
Visible (ANSI)
100
AcDbEllipse
 10
63.47775903251729
 20
40.35082501968918
 30
0.0
 11
-0.1250000000000001
 21
0.0000000000000001
 31
0.0
210
0.0
220
0.0
230
1.0
 40
0.5758617009853115
 41
0.000000000000004
 42
0.7853981633976196
  0
ELLIPSE
  5
290
330
6C
100
AcDbEntity
  8
Visible (ANSI)
100
AcDbEllipse
 10
63.47775903251729
 20
40.45301841029451
 30
0.0
 11
-0.125
 21
0.0
 31
0.0
210
0.0
220
0.0
230
1.0
 40
0.5758617009853115
 41
5.497787143782264
 42
7.068583470577204
  0
LINE
  5
291
330
6C
100
AcDbEntity
  8
Visible Narrow (ANSI)
100
AcDbLine
 10
63.38937068486899
 20
40.29992555546514
 30
0.0
 11
63.38937068486899
 21
40.40211894607046
 31
0.0
  0
ELLIPSE
  5
292
330
6C
100
AcDbEntity
  8
Visible (ANSI)
100
AcDbEllipse
 10
68.69274024874069
 20
43.55821662830765
 30
0.0
 11
0.1249999999999989
 21
-0.0000000000000075
 31
0.0
210
0.0
220
0.0
230
1.0
 40
0.5758617009853117
 41
0.8248293379544371
 42
2.356194490192645
  0
LINE
  5
293
330
6C
100
AcDbEntity
  8
Visible (ANSI)
100
AcDbLine
 10
63.3527590325173
 20
40.35082501968918
 30
0.0
 11
63.3527590325173
 21
40.45301841029451
 31
0.0
  0
LINE
  5
294
330
6C
100
AcDbEntity
  8
Visible (ANSI)
100
AcDbLine
 10
75.85212770328372
 20
33.22490002832442
 30
0.0
 11
76.82432229949701
 21
33.78474966218869
 31
0.0
  0
LINE
  5
295
330
6C
100
AcDbEntity
  8
Visible (ANSI)
100
AcDbLine
 10
76.82432229949701
 20
33.886943052794
 30
0.0
 11
75.85212770328372
 21
33.32709341892973
 31
0.0
  0
LINE
  5
296
330
6C
100
AcDbEntity
  8
Visible (ANSI)
100
AcDbLine
 10
63.38937068486899
 20
40.29992555546514
 30
0.0
 11
75.67535100798707
 21
33.2249000283244
 31
0.0
  0
LINE
  5
297
330
6C
100
AcDbEntity
  8
Visible (ANSI)
100
AcDbLine
 10
63.38937068486896
 20
40.50391787451854
 30
0.0
 11
64.36156528108227
 21
41.06376750838283
 31
0.0
  0
LINE
  5
298
330
6C
100
AcDbEntity
  8
Visible (ANSI)
100
AcDbLine
 10
75.67535100798707
 20
33.32709341892972
 30
0.0
 11
63.38937068486899
 21
40.40211894607046
 31
0.0
  0
ELLIPSE
  5
299
330
6C
100
AcDbEntity
  8
Visible (ANSI)
100
AcDbEllipse
 10
76.82432229949701
 20
33.963588095748
 30
0.0
 11
0.109163296284028
 21
0.1895651266567907
 31
0.0
210
0.0
220
0.0
230
0.9999999999999998
 40
0.5780931159156393
 41
3.925057108563944
 42
4.710455271961552
  0
ELLIPSE
  5
29A
330
6C
100
AcDbEntity
  8
Visible (ANSI)
100
AcDbEllipse
 10
76.82432229949701
 20
33.963588095748
 30
0.0
 11
0.0467842698360121
 21
0.0812421971386247
 31
0.0
210
0.0
220
0.0
230
0.9999999999999998
 40
0.5780931159156392
 41
3.925057108563825
 42
4.710455271961501
  0
ELLIPSE
  5
29B
330
6C
100
AcDbEntity
  8
Visible (ANSI)
100
AcDbEllipse
 10
64.36156528108227
 20
41.14041255133681
 30
0.0
 11
0.0467842698360123
 21
0.0812421971386251
 31
0.0
210
0.0
220
0.0
230
1.0
 40
0.578093115915639
 41
3.925057108563825
 42
4.710455271961501
  0
LINE
  5
29C
330
6C
100
AcDbEntity
  8
Visible Narrow (ANSI)
100
AcDbLine
 10
76.87119729949701
 20
33.93638538336459
 30
0.0
 11
64.40844028108225
 21
41.11320983895341
 31
0.0
  0
LINE
  5
29D
330
6C
100
AcDbEntity
  8
Visible Narrow (ANSI)
100
AcDbLine
 10
76.82432229949701
 20
33.886943052794
 30
0.0
 11
64.36156528108227
 21
41.06376750838283
 31
0.0
  0
LINE
  5
29E
330
6C
100
AcDbEntity
  8
Visible (ANSI)
100
AcDbLine
 10
76.95727558272789
 20
33.94095381691613
 30
0.0
 11
76.933697299497
 21
33.90011510018671
 31
0.0
  0
LINE
  5
29F
330
6C
100
AcDbEntity
  8
Visible (ANSI)
100
AcDbLine
 10
76.87119729949701
 20
33.93638538336459
 30
0.0
 11
76.8947755827279
 21
33.97722410009402
 31
0.0
  0
LINE
  5
2A0
330
6C
100
AcDbEntity
  8
Visible (ANSI)
100
AcDbLine
 10
64.43201856431314
 20
41.15404855568283
 30
0.0
 11
64.40844028108225
 21
41.11320983895341
 31
0.0
  0
ELLIPSE
  5
2A1
330
6C
100
AcDbEntity
  8
Visible (ANSI)
100
AcDbEllipse
 10
77.00415058272787
 20
33.91375110453273
 30
0.0
 11
0.046784269836017
 21
0.081242197138622
 31
0.0
210
0.0
220
0.0
230
1.0
 40
0.5780931159156393
 41
0.8283475791859826
 42
1.568862618371882
  0
ELLIPSE
  5
2A2
330
6C
100
AcDbEntity
  8
Visible (ANSI)
100
AcDbEllipse
 10
77.00415058272787
 20
33.91375110453273
 30
0.0
 11
0.1091632962840403
 21
0.1895651266567857
 31
0.0
210
0.0
220
0.0
230
1.0
 40
0.5780931159156393
 41
0.8232884296041085
 42
1.568862618371881
  0
ELLIPSE
  5
2A3
330
6C
100
AcDbEntity
  8
Visible (ANSI)
100
AcDbEllipse
 10
64.54139356431312
 20
41.09057556012154
 30
0.0
 11
0.1091632962840403
 21
0.1895651266567859
 31
0.0
210
0.0
220
0.0
230
1.0
 40
0.5780931159156393
 41
0.7834644549744141
 42
1.568862618371881
  0
LINE
  5
2A4
330
6C
100
AcDbEntity
  8
Visible Narrow (ANSI)
100
AcDbLine
 10
76.99468940458702
 20
34.09803786822955
 30
0.0
 11
64.54139356431312
 21
41.26941399368085
 31
0.0
  0
LINE
  5
2A5
330
6C
100
AcDbEntity
  8
Visible Narrow (ANSI)
100
AcDbLine
 10
76.8947755827279
 20
33.97722410009402
 30
0.0
 11
64.43201856431314
 21
41.15404855568283
 31
0.0
  0
LINE
  5
2A6
330
6C
100
AcDbEntity
  8
Visible (ANSI)
100
AcDbLine
 10
77.02852741748819
 20
34.00443383301644
 30
0.0
 11
77.00415058272787
 21
33.99039614748672
 31
0.0
  0
LINE
  5
2A7
330
6C
100
AcDbEntity
  8
Visible (ANSI)
100
AcDbLine
 10
68.60435190109235
 20
43.60911609253169
 30
0.0
 11
64.54139356431312
 21
41.26941399368085
 31
0.0
  0
LINE
  5
2A8
330
6C
100
AcDbEntity
  8
Visible Narrow (ANSI)
100
AcDbLine
 10
77.00117622271168
 20
33.98868332746838
 30
0.0
 11
77.00117622271168
 21
33.98860613990585
 31
0.0
  0
LINE
  5
2A9
330
6C
100
AcDbEntity
  8
Visible Narrow (ANSI)
100
AcDbLine
 10
68.77757553813677
 20
43.61108303357485
 30
0.0
 11
76.36670291330479
 21
39.2407952343177
 31
0.0
  0
LINE
  5
2AA
330
6C
100
AcDbEntity
  8
Visible Narrow (ANSI)
100
AcDbLine
 10
77.00415058272786
 20
33.99039614748665
 30
0.0
 11
77.00117622271168
 21
33.98868332746839
 31
0.0
  0
DIMENSION
  5
2AB
330
6C
100
AcDbEntity
  8
Dimension (ANSI)
100
AcDbDimension
  2
*D4
 10
24.91061376340797
 20
27.30847322313317
 30
0.0
 11
24.91061376340797
 21
30.30841015253402
 31
0.0
 70
   160
  1
<>{\PHEIGHT}
 71
     5
 42
5.999873858801777
  3
Default (ANSI)
100
AcDbAlignedDimension
 13
28.21893069254187
 23
33.30834708193495
 33
0.0
 14
28.37518069254183
 24
27.30847322313317
 34
0.0
 50
90.0
100
AcDbRotatedDimension
1001
ACAD
1000
DSTYLE
1002
{
1070
   289
1070
     1
1070
   271
1070
     2
1070
   272
1070
     2
1070
    48
1040
0.0
1070
    47
1040
0.0
1002
}
  0
DIMENSION
  5
3AC
330
6C
100
AcDbEntity
  8
Dimension (ANSI)
100
AcDbDimension
  2
*D5
 10
46.12518069254192
 20
35.67629142651066
 30
0.0
 11
36.86151636653637
 21
35.67629142651066
 31
0.0
 70
   160
  1
<>{\PWIDTH}
 71
     5
 42
18.12500000000005
  3
Default (ANSI)
100
AcDbAlignedDimension
 13
28.00018069254188
 23
33.08959708193496
 33
0.0
 14
46.12518069254192
 24
33.08959708193496
 34
0.0
100
AcDbRotatedDimension
1001
ACAD
1000
DSTYLE
1002
{
1070
   289
1070
     1
1070
    73
1070
     0
1070
    74
1070
     0
1070
   271
1070
     2
1070
   272
1070
     2
1070
    48
1040
0.0
1070
    47
1040
0.0
1002
}
  0
DIMENSION
  5
4AA
330
6C
100
AcDbEntity
  8
Dimension (ANSI)
100
AcDbDimension
  2
*D6
 10
18.90175760643572
 20
36.27955230310589
 30
0.0
 11
14.90175760643572
 21
36.27955230310589
 31
0.0
 70
   160
  1
<>
 42
8.000000000000001
  3
Default (ANSI)
100
AcDbAlignedDimension
 13
10.90175760643572
 23
33.08959708193496
 33
0.0
 14
18.90175760643572
 24
33.30834708193495
 34
0.0
100
AcDbRotatedDimension
1001
ACAD
1000
DSTYLE
1002
{
1070
   289
1070
     1
1070
    73
1070
     0
1070
    74
1070
     0
1070
   271
1070
     2
1070
   272
1070
     2
1070
    48
1040
0.0
1070
    47
1040
0.0
1002
}
  0
DIMENSION
  5
594
330
6C
100
AcDbEntity
  8
Dimension (ANSI)
100
AcDbDimension
  2
*D7
 10
22.28545551248122
 20
34.75627208835327
 30
0.0
 11
21.91873975446277
 21
35.4031535494962
 31
0.0
 70
   165
  1
<>
 42
1.237737692224018
  3
Default (ANSI)
100
AcDb3PointAngularDimension
 13
19.28993328211133
 23
33.30834708193495
 33
0.0
 14
19.07960050272093
 24
33.60367420400962
 34
0.0
 15
18.97743328211133
 25
33.30834708193495
 35
0.0
1001
ACAD_DSTYLE_DIMANGULAR_EXTENSION
1070
   387
1070
     1
1001
ACAD
1000
DSTYLE
1002
{
1070
   179
1070
     0
1070
   272
1070
     0
1070
    48
1040
0.0
1070
    47
1040
0.0
1002
}
  0
DIMENSION
  5
6B8
330
6C
100
AcDbEntity
  8
Dimension (ANSI)
100
AcDbDimension
  2
*D8
 10
46.12518069254494
 20
42.59495345029599
 30
0.0
 11
49.21634513504284
 21
42.59495345029599
 31
0.0
 70
   160
  1
<>{\P(2 PL.)}
 71
     5
 42
1.249999999999928
  3
Default (ANSI)
100
AcDbAlignedDimension
 13
44.87518069254501
 23
42.80649397455722
 33
0.0
 14
46.12518069254494
 24
42.80649397455723
 34
0.0
100
AcDbRotatedDimension
1001
ACAD
1000
DSTYLE
1002
{
1070
   289
1070
     1
1070
    73
1070
     0
1070
    74
1070
     0
1070
   271
1070
     2
1070
    76
1070
     1
1070
    75
1070
     1
1070
   272
1070
     2
1070
    48
1040
0.0
1070
    47
1040
0.0
1002
}
  0
DIMENSION
  5
7A7
330
6C
100
AcDbEntity
  8
Dimension (ANSI)
100
AcDbDimension
  2
*D9
 10
34.18900814926736
 20
40.214022917607
 30
0.0
 11
32.81321137418974
 21
38.82343549278714
 31
0.0
 70
   160
  1
<>
 42
1.249999999999928
  3
Default (ANSI)
100
AcDbAlignedDimension
 13
32.47107730990514
 23
41.46402291760693
 33
0.0
 14
33.27866709542617
 24
40.214022917607
 34
0.0
 50
270.0
100
AcDbRotatedDimension
1001
ACAD
1000
DSTYLE
1002
{
1070
   289
1070
     1
1070
   271
1070
     2
1070
    76
1070
     1
1070
    75
1070
     1
1070
   272
1070
     2
1070
    48
1040
0.0
1070
    47
1040
0.0
1002
}
  0
LINE
  5
89D
330
6C
100
AcDbEntity
  8
Center Mark (ANSI)
  6
CHAIN
 48
0.2012779265642166
100
AcDbLine
 10
28.68768069253868
 20
13.43155713101851
 30
0.0
 11
28.68768069253868
 21
11.61905713101851
 31
0.0
  0
LINE
  5
89E
330
6C
100
AcDbEntity
  8
Center Mark (ANSI)
  6
CHAIN
 48
0.2012779265642166
100
AcDbLine
 10
28.68768069253868
 20
18.43155713101851
 30
0.0
 11
28.68768069253868
 21
16.61905713101851
 31
0.0
  0
LINE
  5
89F
330
6C
100
AcDbEntity
  8
Centerline (ANSI)
  6
CHAIN
 48
0.9524481296539306
100
AcDbLine
 10
28.68768069253868
 20
11.61905713101851
 30
0.0
 11
28.68768069253868
 21
18.43155713101851
 31
0.0
  0
LINE
  5
8A0
330
6C
100
AcDbEntity
  8
Center Mark (ANSI)
  6
CHAIN
 48
0.2012779265642166
100
AcDbLine
 10
30.25018069253868
 20
19.74405713101851
 30
0.0
 11
30.25018069253868
 21
17.93155713101851
 31
0.0
  0
LINE
  5
8A1
330
6C
100
AcDbEntity
  8
Center Mark (ANSI)
  6
CHAIN
 48
0.2012779265642166
100
AcDbLine
 10
43.87518069253868
 20
19.74405713101851
 30
0.0
 11
43.87518069253868
 21
17.93155713101851
 31
0.0
  0
LINE
  5
8A2
330
6C
100
AcDbEntity
  8
Centerline (ANSI)
  6
CHAIN
 48
0.9524481296539306
100
AcDbLine
 10
29.34393069253868
 20
18.83780713101851
 30
0.0
 11
44.78143069253868
 21
18.83780713101851
 31
0.0
  0
LINE
  5
8A3
330
6C
100
AcDbEntity
  8
Center Mark (ANSI)
  6
CHAIN
 48
0.2012779265642166
100
AcDbLine
 10
45.4376806925387
 20
18.43155713101848
 30
0.0
 11
45.4376806925387
 21
16.61905713101848
 31
0.0
  0
LINE
  5
8A4
330
6C
100
AcDbEntity
  8
Center Mark (ANSI)
  6
CHAIN
 48
0.2012779265642166
100
AcDbLine
 10
45.43768069253872
 20
13.43155713101848
 30
0.0
 11
45.43768069253872
 21
11.61905713101848
 31
0.0
  0
LINE
  5
8A5
330
6C
100
AcDbEntity
  8
Centerline (ANSI)
  6
CHAIN
 48
0.9524481296539306
100
AcDbLine
 10
45.43768069253869
 20
18.43155713101848
 30
0.0
 11
45.43768069253873
 21
11.61905713101848
 31
0.0
  0
DIMENSION
  5
8A6
330
6C
100
AcDbEntity
  8
Dimension (ANSI)
100
AcDbDimension
  2
*D10
 10
26.14669834585742
 20
17.52530713101851
 30
0.0
 11
24.73518728453333
 21
16.6688805419403
 31
0.0
 70
   160
  1
<>
 42
1.999999999999936
  3
Default (ANSI)
100
AcDbAlignedDimension
 13
28.21893069253868
 23
19.52530713101844
 33
0.0
 14
27.78143069253868
 24
17.52530713101851
 34
0.0
 50
270.0
100
AcDbRotatedDimension
1001
ACAD
1000
DSTYLE
1002
{
1070
   289
1070
     2
1070
   271
1070
     2
1070
   272
1070
     2
1070
    48
1040
0.0
1070
    47
1040
0.0
1002
}
  0
DIMENSION
  5
99E
330
6C
100
AcDbEntity
  8
Dimension (ANSI)
100
AcDbDimension
  2
*D11
 10
22.34290623647855
 20
12.5253071310185
 30
0.0
 11
22.34290623647855
 21
16.02530713101847
 31
0.0
 70
   160
  1
<>
 42
6.999999999999939
  3
Default (ANSI)
100
AcDbAlignedDimension
 13
28.21893069253868
 23
19.52530713101844
 33
0.0
 14
27.78143069253868
 24
12.5253071310185
 34
0.0
 50
270.0
100
AcDbRotatedDimension
1001
ACAD
1000
DSTYLE
1002
{
1070
   289
1070
     1
1070
   271
1070
     2
1070
   272
1070
     2
1070
    48
1040
0.0
1070
    47
1040
0.0
1002
}
  0
DIMENSION
  5
A88
330
6C
100
AcDbEntity
  8
Dimension (ANSI)
100
AcDbDimension
  2
*D12
 10
38.24682089645362
 20
18.83780713101851
 30
0.0
 11
39.64642719569555
 21
20.75521321383441
 31
0.0
 70
   160
  1
<>
 42
0.6874999999999325
  3
Default (ANSI)
100
AcDbAlignedDimension
 13
45.90643069253867
 23
19.52530713101844
 33
0.0
 14
44.78143069253868
 24
18.83780713101851
 34
0.0
 50
270.0
100
AcDbRotatedDimension
1001
ACAD
1000
DSTYLE
1002
{
1070
   289
1070
     1
1070
   271
1070
     2
1070
    76
1070
     1
1070
    75
1070
     1
1070
   272
1070
     2
1070
    48
1040
0.0
1070
    47
1040
0.0
1002
}
  0
DIMENSION
  5
B7F
330
6C
100
AcDbEntity
  8
Dimension (ANSI)
100
AcDbDimension
  2
*D13
 10
43.87518069253868
 20
21.91653955469902
 30
0.0
 11
47.87867203061711
 21
21.91653955469902
 31
0.0
 70
   160
  1
<>
 42
2.25
  3
Default (ANSI)
100
AcDbAlignedDimension
 13
46.12518069253868
 23
19.30655713101845
 33
0.0
 14
43.87518069253868
 24
19.74405713101851
 34
0.0
 50
180.0
100
AcDbRotatedDimension
1001
ACAD
1000
DSTYLE
1002
{
1070
   289
1070
     2
1070
    73
1070
     0
1070
    74
1070
     0
1070
   271
1070
     2
1070
   272
1070
     2
1070
    48
1040
0.0
1070
    47
1040
0.0
1002
}
  0
DIMENSION
  5
C69
330
6C
100
AcDbEntity
  8
Dimension (ANSI)
100
AcDbDimension
  2
*D14
 10
30.25018069253868
 20
21.91653955469901
 30
0.0
 11
26.24668935446024
 21
21.91653955469901
 31
0.0
 70
   160
  1
<>
 42
2.25
  3
Default (ANSI)
100
AcDbAlignedDimension
 13
28.00018069253868
 23
19.30655713101845
 33
0.0
 14
30.25018069253868
 24
19.74405713101851
 34
0.0
100
AcDbRotatedDimension
1001
ACAD
1000
DSTYLE
1002
{
1070
   289
1070
     2
1070
    73
1070
     0
1070
    74
1070
     0
1070
   271
1070
     2
1070
   272
1070
     2
1070
    48
1040
0.0
1070
    47
1040
0.0
1002
}
  0
LINE
  5
D53
330
6C
100
AcDbEntity
  8
Centerline (ANSI)
  6
CHAIN
 48
0.9524481296539306
100
AcDbLine
 10
27.78143069253868
 20
17.52530713101851
 30
0.0
 11
46.3439306925387
 21
17.52530713101848
 31
0.0
  0
LINE
  5
D54
330
6C
100
AcDbEntity
  8
Centerline (ANSI)
  6
CHAIN
 48
0.9524481296539306
100
AcDbLine
 10
27.78143069253868
 20
12.52530713101851
 30
0.0
 11
46.34393069253873
 21
12.52530713101848
 31
0.0
  0
DIMENSION
  5
D55
330
6C
100
AcDbEntity
  8
Dimension (ANSI)
100
AcDbDimension
  2
*D15
 10
28.68768069253868
 20
10.7720102690185
 30
0.0
 11
24.90901625004076
 21
10.7720102690185
 31
0.0
 70
   160
  1
<>{\P(2 PL.)}
 71
     5
 42
0.6874999999999965
  3
Default (ANSI)
100
AcDbAlignedDimension
 13
28.00018069253868
 23
11.52530713101844
 33
0.0
 14
28.68768069253868
 24
11.61905713101851
 34
0.0
100
AcDbRotatedDimension
1001
ACAD
1000
DSTYLE
1002
{
1070
   289
1070
     1
1070
    73
1070
     0
1070
    74
1070
     0
1070
   271
1070
     2
1070
   272
1070
     2
1070
    48
1040
0.0
1070
    47
1040
0.0
1002
}
  0
DIMENSION
  5
E53
330
6C
100
AcDbEntity
  8
Dimension (ANSI)
100
AcDbDimension
  2
*D16
 10
45.26421983113308
 20
12.30391857652569
 30
0.0
 11
49.7181346096541
 21
15.22429250181857
 31
0.0
 70
   163
  1
<>{\P(6 PL.)}
 71
     5
 42
0.5625
  3
Default (ANSI)
100
AcDbDiametricDimension
 15
45.61114155394441
 25
12.74669568551128
 35
0.0
 40
0.0
1001
ACAD
1000
DSTYLE
1002
{
1070
   144
1040
0.9999999999999747
1070
   271
1070
     3
1070
   272
1070
     2
1070
    48
1040
0.0
1070
    47
1040
0.0
1002
}
1001
ACAD_DSTYLE_DIMRADIAL_EXTENSION
1070
   387
1070
     1
1070
   388
1040
0.0
1070
   390
1040
0.0
  0
LINE
  5
F0D
330
6C
100
AcDbEntity
  8
Center Mark (ANSI)
  6
CHAIN
 48
0.2012779265642166
100
AcDbLine
 10
30.12518069254488
 20
47.87027291760693
 30
0.0
 11
30.12518069254488
 21
46.05777291760693
 31
0.0
  0
LINE
  5
F0E
330
6C
100
AcDbEntity
  8
Center Mark (ANSI)
  6
CHAIN
 48
0.2012779265642166
100
AcDbLine
 10
44.00018069254488
 20
47.87027291760693
 30
0.0
 11
44.00018069254488
 21
46.05777291760693
 31
0.0
  0
LINE
  5
F0F
330
6C
100
AcDbEntity
  8
Centerline (ANSI)
  6
CHAIN
 48
0.9524481296539306
100
AcDbLine
 10
29.21893069254488
 20
46.96402291760692
 30
0.0
 11
44.90643069254487
 21
46.96402291760692
 31
0.0
  0
LINE
  5
F10
330
6C
100
AcDbEntity
  8
Center Mark (ANSI)
  6
CHAIN
 48
0.2012779265642166
100
AcDbLine
 10
37.96893069254488
 20
43.96402291760696
 30
0.0
 11
36.15643069254488
 21
43.96402291760696
 31
0.0
  0
LINE
  5
F11
330
6C
100
AcDbEntity
  8
Center Mark (ANSI)
  6
CHAIN
 48
0.2012779265642166
100
AcDbLine
 10
37.06268069254488
 20
44.87027291760696
 30
0.0
 11
37.06268069254488
 21
43.05777291760697
 31
0.0
  0
DIMENSION
  5
F12
330
6C
100
AcDbEntity
  8
Dimension (ANSI)
100
AcDbDimension
  2
*D17
 10
30.12518069254488
 20
49.42013355714358
 30
0.0
 11
26.24668935446649
 21
49.42013355714358
 31
0.0
 70
   160
  1
<>
 42
2.124999999999964
  3
Default (ANSI)
100
AcDbAlignedDimension
 13
28.00018069254491
 23
48.21402291760865
 33
0.0
 14
30.12518069254488
 24
47.87027291760693
 34
0.0
 50
180.0
100
AcDbRotatedDimension
1001
ACAD
1000
DSTYLE
1002
{
1070
   289
1070
     2
1070
    73
1070
     0
1070
    74
1070
     0
1070
   271
1070
     2
1070
   272
1070
     2
1070
    48
1040
0.0
1070
    47
1040
0.0
1002
}
  0
DIMENSION
  5
FFC
330
6C
100
AcDbEntity
  8
Dimension (ANSI)
100
AcDbDimension
  2
*D18
 10
37.06268069254488
 20
50.60552996145929
 30
0.0
 11
32.5314306925449
 21
50.60552996145929
 31
0.0
 70
   160
  1
<>
 42
9.062499999999964
  3
Default (ANSI)
100
AcDbAlignedDimension
 13
28.00018069254491
 23
48.21402291760865
 33
0.0
 14
37.06268069254488
 24
44.87027291760696
 34
0.0
 50
180.0
100
AcDbRotatedDimension
1001
ACAD
1000
DSTYLE
1002
{
1070
   289
1070
     1
1070
    73
1070
     0
1070
    74
1070
     0
1070
   271
1070
     2
1070
   272
1070
     2
1070
    48
1040
0.0
1070
    47
1040
0.0
1002
}
  0
DIMENSION
  5
10E6
330
6C
100
AcDbEntity
  8
Dimension (ANSI)
100
AcDbDimension
  2
*D19
 10
44.00018069254488
 20
49.42013355714358
 30
0.0
 11
47.87867203062339
 21
49.42013355714358
 31
0.0
 70
   160
  1
<>
 42
2.125000000000085
  3
Default (ANSI)
100
AcDbAlignedDimension
 13
46.12518069254496
 23
48.21402291760865
 33
0.0
 14
44.00018069254488
 24
47.87027291760693
 34
0.0
 50
180.0
100
AcDbRotatedDimension
1001
ACAD
1000
DSTYLE
1002
{
1070
   289
1070
     2
1070
    73
1070
     0
1070
    74
1070
     0
1070
   271
1070
     2
1070
   272
1070
     2
1070
    48
1040
0.0
1070
    47
1040
0.0
1002
}
  0
DIMENSION
  5
11D0
330
6C
100
AcDbEntity
  8
Dimension (ANSI)
100
AcDbDimension
  2
*D20
 10
24.67760068882682
 20
46.96402291760692
 30
0.0
 11
24.67760068882681
 21
47.58902291760779
 31
0.0
 70
   160
  1
<>
 42
1.250000000001719
  3
Default (ANSI)
100
AcDbAlignedDimension
 13
28.00018069254491
 23
48.21402291760865
 33
0.0
 14
29.21893069254488
 24
46.96402291760692
 34
0.0
 50
90.0
100
AcDbRotatedDimension
1001
ACAD
1000
DSTYLE
1002
{
1070
   289
1070
     1
1070
   271
1070
     2
1070
   272
1070
     2
1070
    48
1040
0.0
1070
    47
1040
0.0
1002
}
  0
DIMENSION
  5
12C2
330
6C
100
AcDbEntity
  8
Dimension (ANSI)
100
AcDbDimension
  2
*D21
 10
22.42725503415702
 20
43.96402291760696
 30
0.0
 11
22.42725503415701
 21
46.20092794769608
 31
0.0
 70
   160
  1
<>
 42
4.250000000001676
  3
Default (ANSI)
100
AcDbAlignedDimension
 13
28.00018069254491
 23
48.21402291760865
 33
0.0
 14
36.15643069254488
 24
43.96402291760696
 34
0.0
 50
90.0
100
AcDbRotatedDimension
1001
ACAD
1000
DSTYLE
1002
{
1070
   289
1070
     1
1070
   271
1070
     2
1070
   272
1070
     2
1070
    48
1040
0.0
1070
    47
1040
0.0
1002
}
  0
DIMENSION
  5
13AC
330
6C
100
AcDbEntity
  8
Dimension (ANSI)
100
AcDbDimension
  2
*D22
 10
36.78638147384705
 20
43.91148431991942
 30
0.0
 11
47.52086697060982
 21
45.95265844105985
 31
0.0
 70
   163
  1
<>{\P(3 PL.)}
 71
     5
 42
0.5625
  3
Default (ANSI)
100
AcDbDiametricDimension
 15
37.33897991124269
 25
44.01656151529452
 35
0.0
 40
0.0
1001
ACAD
1000
DSTYLE
1002
{
1070
   144
1040
1.0
1070
   271
1070
     3
1070
   272
1070
     3
1070
    48
1040
0.0
1070
    47
1040
0.0
1002
}
1001
ACAD_DSTYLE_DIMRADIAL_EXTENSION
1070
   387
1070
     1
1070
   388
1040
0.0
1070
   390
1040
0.0
  0
DIMENSION
  5
144F
330
6C
100
AcDbEntity
  8
Dimension (ANSI)
100
AcDbDimension
  2
*D23
 10
18.65175760643576
 20
25.14574849858107
 30
0.0
 11
14.62360989419854
 21
25.14574849858107
 31
0.0
 70
   160
  1
<>
 42
7.750000000000047
  3
Default (ANSI)
100
AcDbAlignedDimension
 13
10.90175760643572
 23
27.52709708193496
 33
0.0
 14
18.65175760643576
 24
27.30847322313317
 34
0.0
100
AcDbRotatedDimension
1001
ACAD
1000
DSTYLE
1002
{
1070
   289
1070
     1
1070
    73
1070
     0
1070
    74
1070
     0
1070
   271
1070
     2
1070
   272
1070
     2
1070
    48
1040
0.0
1070
    47
1040
0.0
1002
}
  0
LINE
  5
1539
330
6C
100
AcDbEntity
  8
Center Mark (ANSI)
  6
CHAIN
 48
0.2012779265642166
100
AcDbLine
 10
37.96893069253864
 20
15.7753071310168
 30
0.0
 11
36.15643069253864
 21
15.7753071310168
 31
0.0
  0
LINE
  5
153A
330
6C
100
AcDbEntity
  8
Center Mark (ANSI)
  6
CHAIN
 48
0.2012779265642166
100
AcDbLine
 10
37.06268069253864
 20
16.6815571310168
 30
0.0
 11
37.06268069253864
 21
14.8690571310168
 31
0.0
  0
LINE
  5
153B
330
6C
100
AcDbEntity
  8
Center Mark (ANSI)
  6
CHAIN
 48
0.2012779265642166
100
AcDbLine
 10
31.03143069253865
 20
12.77530713101677
 30
0.0
 11
29.21893069253864
 21
12.77530713101677
 31
0.0
  0
LINE
  5
153C
330
6C
100
AcDbEntity
  8
Center Mark (ANSI)
  6
CHAIN
 48
0.2012779265642166
100
AcDbLine
 10
30.12518069253864
 20
13.68155713101677
 30
0.0
 11
30.12518069253864
 21
11.86905713101676
 31
0.0
  0
LINE
  5
153D
330
6C
100
AcDbEntity
  8
Center Mark (ANSI)
  6
CHAIN
 48
0.2012779265642166
100
AcDbLine
 10
44.90643069253863
 20
12.77530713101677
 30
0.0
 11
43.09393069253864
 21
12.77530713101677
 31
0.0
  0
LINE
  5
153E
330
6C
100
AcDbEntity
  8
Center Mark (ANSI)
  6
CHAIN
 48
0.2012779265642166
100
AcDbLine
 10
44.00018069253864
 20
13.68155713101677
 30
0.0
 11
44.00018069253864
 21
11.86905713101676
 31
0.0
  0
MTEXT
  5
153F
102
{ACAD_XDICTIONARY
360
154B
102
}
330
6C
100
AcDbEntity
  8
Symbol (ANSI)
100
AcDbMText
 10
47.40302980805117
 20
5.184263968066328
 30
0.0
 40
0.500000015957149
 41
36.91693553774376
 71
     4
 72
     1
  3
{\fRomanS|b0|i0|c0|p2;\H2x;PART#: FK0618\P(DATA SUBJECT TO CHANGE WITHOUT NOTICE)\H1.6157x; \H0.61894x;\P \H1.352x; \H0.73963x;\P\H0.6x;THIS DRAWING IS PROPERTY OF HUBBELL INC. WIEGMANN\H1.5633x; \H0.63966x;\PALL INFORMATION IS PROPRIETARY AND NOT TO
  1
 BE DUPLICATED\H1.234x; \H0.81039x;\P\H1.2571x; }
  7
Note Text (ANSI)
 73
     1
 44
0.8026435375213623
  0
ENDSEC
  0
SECTION
  2
OBJECTS
  0
DICTIONARY
  5
C
330
0
100
AcDbDictionary
281
     1
  3
ACAD_CIP_PREVIOUS_PRODUCT_INFO
350
1541
  3
ACAD_COLOR
350
63
  3
ACAD_GROUP
350
D
  3
ACAD_LAYOUT
350
62
  3
ACAD_MATERIAL
350
10
  3
ACAD_MLEADERSTYLE
350
66
  3
ACAD_MLINESTYLE
350
5F
  3
ACAD_PLOTSETTINGS
350
61
  3
ACAD_PLOTSTYLENAME
350
E
  3
ACAD_SCALELIST
350
42
  3
ACAD_TABLESTYLE
350
64
  3
ACAD_VISUALSTYLE
350
29
  3
ACDB_RECOMPOSE_DATA
350
154D
  3
AcDbVariableDictionary
350
76
  0
DICTIONARY
  5
1583
330
F07
100
AcDbDictionary
280
     1
281
     1
  3
ACAD_MTEXT_2008_RT
360
1584
  0
DICTIONARY
  5
1585
330
1449
100
AcDbDictionary
280
     1
281
     1
  3
ACAD_MTEXT_2008_RT
360
1586
  0
DICTIONARY
  5
154B
330
153F
100
AcDbDictionary
280
     1
281
     1
  3
ACAD_MTEXT_2008_RT
360
154C
  0
XRECORD
  5
1541
102
{ACAD_REACTORS
330
C
102
}
330
C
100
AcDbXrecord
280
     1
300
INVPROSA
300
2012
300
INVPROSA_F_S
  0
DICTIONARY
  5
63
102
{ACAD_REACTORS
330
C
102
}
330
C
100
AcDbDictionary
281
     1
  0
DICTIONARY
  5
D
102
{ACAD_REACTORS
330
C
102
}
330
C
100
AcDbDictionary
281
     1
  0
DICTIONARY
  5
62
102
{ACAD_REACTORS
330
C
102
}
330
C
100
AcDbDictionary
281
     1
  3
Layout1
350
6B
  3
Layout2
350
73
  3
Model
350
6F
  0
DICTIONARY
  5
10
102
{ACAD_REACTORS
330
C
102
}
330
C
100
AcDbDictionary
281
     1
  3
ByBlock
350
19
  3
ByLayer
350
11
  3
Global
350
21
  0
DICTIONARY
  5
66
102
{ACAD_REACTORS
330
C
102
}
330
C
100
AcDbDictionary
281
     1
  3
Standard
350
67
  0
DICTIONARY
  5
5F
102
{ACAD_REACTORS
330
C
102
}
330
C
100
AcDbDictionary
281
     1
  3
Standard
350
60
  0
DICTIONARY
  5
61
102
{ACAD_REACTORS
330
C
102
}
330
C
100
AcDbDictionary
281
     1
  0
ACDBDICTIONARYWDFLT
  5
E
102
{ACAD_REACTORS
330
C
102
}
330
C
100
AcDbDictionary
281
     1
  3
Normal
350
F
100
AcDbDictionaryWithDefault
340
F
  0
DICTIONARY
  5
42
102
{ACAD_REACTORS
330
C
102
}
330
C
100
AcDbDictionary
281
     1
  3
A0
350
43
  3
A1
350
44
  3
A2
350
45
  3
A3
350
46
  3
A4
350
47
  3
A5
350
48
  3
A6
350
49
  3
A7
350
4A
  3
A8
350
4B
  3
A9
350
4C
  3
B0
350
4D
  3
B1
350
4E
  3
B2
350
4F
  3
B3
350
50
  3
B4
350
51
  3
B5
350
52
  3
B6
350
53
  0
DICTIONARY
  5
64
102
{ACAD_REACTORS
330
C
102
}
330
C
100
AcDbDictionary
281
     1
  3
Standard
350
65
  0
DICTIONARY
  5
29
102
{ACAD_REACTORS
330
C
102
}
330
C
100
AcDbDictionary
281
     1
  3
2dWireframe
350
2F
  3
Basic
350
2E
  3
Brighten
350
35
  3
ColorChange
350
39
  3
Conceptual
350
32
  3
Dim
350
34
  3
EdgeColorOff
350
41
  3
Facepattern
350
38
  3
Flat
350
2A
  3
FlatWithEdges
350
2B
  3
Gouraud
350
2C
  3
GouraudWithEdges
350
2D
  3
Hidden
350
31
  3
JitterOff
350
3F
  3
Linepattern
350
37
  3
OverhangOff
350
40
  3
Realistic
350
33
  3
Shaded
350
3E
  3
Shaded with edges
350
3D
  3
Shades of Gray
350
3A
  3
Sketchy
350
3B
  3
Thicken
350
36
  3
Wireframe
350
30
  3
X-Ray
350
3C
  0
XRECORD
  5
154D
102
{ACAD_REACTORS
330
C
102
}
330
C
100
AcDbXrecord
280
     1
 90
        1
330
65
330
8A6
330
B7F
330
C69
330
F12
330
10E6
330
153F
  0
DICTIONARY
  5
76
102
{ACAD_REACTORS
330
C
102
}
330
C
100
AcDbDictionary
281
     1
  3
CANNOSCALE
350
79
  3
CMLEADERSTYLE
350
78
  3
CTABLESTYLE
350
77
  3
LAYEREVAL
350
1544
  3
LAYERNOTIFY
350
1545
  3
LIGHTINGUNITS
350
1543
  3
MSLTSCALE
350
1542
  3
XCLIPFRAME
350
1546
  0
XRECORD
  5
1584
102
{ACAD_REACTORS
330
1583
102
}
330
1583
100
AcDbXrecord
280
     1
 40
24491.0
  1
\A1;\U+22050.563{\P(6 PL.)}
  0
XRECORD
  5
1586
102
{ACAD_REACTORS
330
1585
102
}
330
1585
100
AcDbXrecord
280
     1
 40
24428.0
  1
\A1;\U+22050.563{\P(3 PL.)}
  0
XRECORD
  5
154C
102
{ACAD_REACTORS
330
154B
102
}
330
154B
100
AcDbXrecord
280
     1
 40
3027634.0
  1
\pxsm0.94;{\fRomanS|b0|i0;\H1.0000;PART#: FK0618\P(DATA SUBJECT TO CHANGE WITHOUT NOTICE)\P \P\fRomanS|b0|i0;\H0.6000;THIS DRAWING IS PROPERTY OF HUBBELL INC. WIEGMANN\PALL INFORMATION IS PROPRIETARY AND NOT TO BE DUPLICATED\P}
  0
LAYOUT
  5
6B
102
{ACAD_REACTORS
330
62
102
}
330
62
100
AcDbPlotSettings
  1

  2

  4

  6

 40
0.0
 41
0.0
 42
0.0
 43
0.0
 44
0.0
 45
0.0
 46
0.0
 47
0.0
 48
0.0
 49
0.0
140
0.0
141
0.0
142
1.0
143
1.0
 70
   688
 72
     0
 73
     0
 74
     5
  7

 75
    16
147
1.0
 76
     0
 77
     2
 78
   300
148
0.0
149
0.0
100
AcDbLayout
  1
Layout1
 70
     1
 71
     1
 10
0.0
 20
0.0
 11
12.0
 21
9.0
 12
0.0
 22
0.0
 32
0.0
 14
0.0
 24
0.0
 34
0.0
 15
0.0
 25
0.0
 35
0.0
146
0.0
 13
0.0
 23
0.0
 33
0.0
 16
1.0
 26
0.0
 36
0.0
 17
0.0
 27
1.0
 37
0.0
 76
     0
330
68
  0
LAYOUT
  5
73
102
{ACAD_REACTORS
330
62
102
}
330
62
100
AcDbPlotSettings
  1

  2

  4

  6

 40
0.0
 41
0.0
 42
0.0
 43
0.0
 44
0.0
 45
0.0
 46
0.0
 47
0.0
 48
0.0
 49
0.0
140
0.0
141
0.0
142
1.0
143
1.0
 70
   688
 72
     0
 73
     0
 74
     5
  7

 75
    16
147
1.0
 76
     0
 77
     2
 78
   300
148
0.0
149
0.0
100
AcDbLayout
  1
Layout2
 70
     1
 71
     2
 10
0.0
 20
0.0
 11
12.0
 21
9.0
 12
0.0
 22
0.0
 32
0.0
 14
0.0
 24
0.0
 34
0.0
 15
0.0
 25
0.0
 35
0.0
146
0.0
 13
0.0
 23
0.0
 33
0.0
 16
1.0
 26
0.0
 36
0.0
 17
0.0
 27
1.0
 37
0.0
 76
     0
330
70
  0
LAYOUT
  5
6F
102
{ACAD_REACTORS
330
62
102
}
330
62
100
AcDbPlotSettings
  1

  2

  4

  6

 40
0.0
 41
0.0
 42
0.0
 43
0.0
 44
0.0
 45
0.0
 46
0.0
 47
0.0
 48
0.0
 49
0.0
140
0.0
141
0.0
142
1.0
143
1.0
 70
  1712
 72
     0
 73
     0
 74
     0
  7

 75
     0
147
1.0
 76
     0
 77
     2
 78
   300
148
0.0
149
0.0
100
AcDbLayout
  1
Model
 70
     1
 71
     0
 10
0.0
 20
0.0
 11
12.0
 21
9.0
 12
0.0
 22
0.0
 32
0.0
 14
0.0
 24
0.0
 34
0.0
 15
0.0
 25
0.0
 35
0.0
146
0.0
 13
0.0
 23
0.0
 33
0.0
 16
1.0
 26
0.0
 36
0.0
 17
0.0
 27
1.0
 37
0.0
 76
     0
330
6C
  0
MATERIAL
  5
19
102
{ACAD_XDICTIONARY
360
1A
102
}
102
{ACAD_REACTORS
330
10
102
}
330
10
100
AcDbMaterial
  1
ByBlock
 72
     0
 43
0.0208333333333333
 43
0.0
 43
0.0
 43
0.0
 43
0.0
 43
0.0208333333333333
 43
0.0
 43
0.0
 43
0.0
 43
0.0
 43
1.0
 43
0.0
 43
0.0
 43
0.0
 43
0.0
 43
1.0
 77
     0
 47
0.0208333333333333
 47
0.0
 47
0.0
 47
0.0
 47
0.0
 47
0.0208333333333333
 47
0.0
 47
0.0
 47
0.0
 47
0.0
 47
1.0
 47
0.0
 47
0.0
 47
0.0
 47
0.0
 47
1.0
171
     0
 49
0.0208333333333333
 49
0.0
 49
0.0
 49
0.0
 49
0.0
 49
0.0208333333333333
 49
0.0
 49
0.0
 49
0.0
 49
0.0
 49
1.0
 49
0.0
 49
0.0
 49
0.0
 49
0.0
 49
1.0
175
     0
142
0.0208333333333333
142
0.0
142
0.0
142
0.0
142
0.0
142
0.0208333333333333
142
0.0
142
0.0
142
0.0
142
0.0
142
1.0
142
0.0
142
0.0
142
0.0
142
0.0
142
1.0
179
     0
144
0.0208333333333333
144
0.0
144
0.0
144
0.0
144
0.0
144
0.0208333333333333
144
0.0
144
0.0
144
0.0
144
0.0
144
1.0
144
0.0
144
0.0
144
0.0
144
0.0
144
1.0
147
0.0208333333333333
147
0.0
147
0.0
147
0.0
147
0.0
147
0.0208333333333333
147
0.0
147
0.0
147
0.0
147
0.0
147
1.0
147
0.0
147
0.0
147
0.0
147
0.0
147
1.0
  0
MATERIAL
  5
11
102
{ACAD_XDICTIONARY
360
12
102
}
102
{ACAD_REACTORS
330
10
102
}
330
10
100
AcDbMaterial
  1
ByLayer
 72
     0
 43
0.0208333333333333
 43
0.0
 43
0.0
 43
0.0
 43
0.0
 43
0.0208333333333333
 43
0.0
 43
0.0
 43
0.0
 43
0.0
 43
1.0
 43
0.0
 43
0.0
 43
0.0
 43
0.0
 43
1.0
 77
     0
 47
0.0208333333333333
 47
0.0
 47
0.0
 47
0.0
 47
0.0
 47
0.0208333333333333
 47
0.0
 47
0.0
 47
0.0
 47
0.0
 47
1.0
 47
0.0
 47
0.0
 47
0.0
 47
0.0
 47
1.0
171
     0
 49
0.0208333333333333
 49
0.0
 49
0.0
 49
0.0
 49
0.0
 49
0.0208333333333333
 49
0.0
 49
0.0
 49
0.0
 49
0.0
 49
1.0
 49
0.0
 49
0.0
 49
0.0
 49
0.0
 49
1.0
175
     0
142
0.0208333333333333
142
0.0
142
0.0
142
0.0
142
0.0
142
0.0208333333333333
142
0.0
142
0.0
142
0.0
142
0.0
142
1.0
142
0.0
142
0.0
142
0.0
142
0.0
142
1.0
179
     0
144
0.0208333333333333
144
0.0
144
0.0
144
0.0
144
0.0
144
0.0208333333333333
144
0.0
144
0.0
144
0.0
144
0.0
144
1.0
144
0.0
144
0.0
144
0.0
144
0.0
144
1.0
147
0.0208333333333333
147
0.0
147
0.0
147
0.0
147
0.0
147
0.0208333333333333
147
0.0
147
0.0
147
0.0
147
0.0
147
1.0
147
0.0
147
0.0
147
0.0
147
0.0
147
1.0
  0
MATERIAL
  5
21
102
{ACAD_XDICTIONARY
360
22
102
}
102
{ACAD_REACTORS
330
10
102
}
330
10
100
AcDbMaterial
  1
Global
 72
     0
 43
0.0208333333333333
 43
0.0
 43
0.0
 43
0.0
 43
0.0
 43
0.0208333333333333
 43
0.0
 43
0.0
 43
0.0
 43
0.0
 43
1.0
 43
0.0
 43
0.0
 43
0.0
 43
0.0
 43
1.0
 77
     0
 47
0.0208333333333333
 47
0.0
 47
0.0
 47
0.0
 47
0.0
 47
0.0208333333333333
 47
0.0
 47
0.0
 47
0.0
 47
0.0
 47
1.0
 47
0.0
 47
0.0
 47
0.0
 47
0.0
 47
1.0
171
     0
 49
0.0208333333333333
 49
0.0
 49
0.0
 49
0.0
 49
0.0
 49
0.0208333333333333
 49
0.0
 49
0.0
 49
0.0
 49
0.0
 49
1.0
 49
0.0
 49
0.0
 49
0.0
 49
0.0
 49
1.0
175
     0
142
0.0208333333333333
142
0.0
142
0.0
142
0.0
142
0.0
142
0.0208333333333333
142
0.0
142
0.0
142
0.0
142
0.0
142
1.0
142
0.0
142
0.0
142
0.0
142
0.0
142
1.0
179
     0
144
0.0208333333333333
144
0.0
144
0.0
144
0.0
144
0.0
144
0.0208333333333333
144
0.0
144
0.0
144
0.0
144
0.0
144
1.0
144
0.0
144
0.0
144
0.0
144
0.0
144
1.0
147
0.0208333333333333
147
0.0
147
0.0
147
0.0
147
0.0
147
0.0208333333333333
147
0.0
147
0.0
147
0.0
147
0.0
147
1.0
147
0.0
147
0.0
147
0.0
147
0.0
147
1.0
  0
MLEADERSTYLE
  5
67
102
{ACAD_XDICTIONARY
360
1549
102
}
102
{ACAD_REACTORS
330
66
102
}
330
66
100
AcDbMLeaderStyle
170
     2
171
     1
172
     0
 90
        2
 40
0.0
 41
0.0
173
     1
 91
-1056964608
340
5B
 92
       -2
290
     1
 42
0.09
291
     1
 43
0.36
  3
Standard
 44
0.18
300

342
55
174
     1
178
     6
175
     1
176
     0
 93
-1056964608
 45
0.18
292
     0
297
     0
 46
0.18
 94
-1056964608
 47
1.0
 49
1.0
140
1.0
293
     1
141
0.0
294
     1
177
     0
142
1.0
295
     0
296
     0
143
0.125
1001
ACAD_MLEADERVER
1070
     2
  0
MLINESTYLE
  5
60
102
{ACAD_REACTORS
330
5F
102
}
330
5F
100
AcDbMlineStyle
  2
STANDARD
 70
     0
  3

 62
   256
 51
90.0
 52
90.0
 71
     2
 49
0.5
 62
   256
  6
BYLAYER
 49
-0.5
 62
   256
  6
BYLAYER
  0
ACDBPLACEHOLDER
  5
F
102
{ACAD_REACTORS
330
E
102
}
330
E
  0
SCALE
  5
43
102
{ACAD_REACTORS
330
42
102
}
330
42
100
AcDbScale
 70
     0
300
1:1
140
1.0
141
1.0
290
     1
  0
SCALE
  5
44
102
{ACAD_REACTORS
330
42
102
}
330
42
100
AcDbScale
 70
     0
300
1/128" = 1'-0"
140
0.0078125
141
12.0
290
     0
  0
SCALE
  5
45
102
{ACAD_REACTORS
330
42
102
}
330
42
100
AcDbScale
 70
     0
300
1/64" = 1'-0"
140
0.015625
141
12.0
290
     0
  0
SCALE
  5
46
102
{ACAD_REACTORS
330
42
102
}
330
42
100
AcDbScale
 70
     0
300
1/32" = 1'-0"
140
0.03125
141
12.0
290
     0
  0
SCALE
  5
47
102
{ACAD_REACTORS
330
42
102
}
330
42
100
AcDbScale
 70
     0
300
1/16" = 1'-0"
140
0.0625
141
12.0
290
     0
  0
SCALE
  5
48
102
{ACAD_REACTORS
330
42
102
}
330
42
100
AcDbScale
 70
     0
300
3/32" = 1'-0"
140
0.09375
141
12.0
290
     0
  0
SCALE
  5
49
102
{ACAD_REACTORS
330
42
102
}
330
42
100
AcDbScale
 70
     0
300
1/8" = 1'-0"
140
0.125
141
12.0
290
     0
  0
SCALE
  5
4A
102
{ACAD_REACTORS
330
42
102
}
330
42
100
AcDbScale
 70
     0
300
3/16" = 1'-0"
140
0.1875
141
12.0
290
     0
  0
SCALE
  5
4B
102
{ACAD_REACTORS
330
42
102
}
330
42
100
AcDbScale
 70
     0
300
1/4" = 1'-0"
140
0.25
141
12.0
290
     0
  0
SCALE
  5
4C
102
{ACAD_REACTORS
330
42
102
}
330
42
100
AcDbScale
 70
     0
300
3/8" = 1'-0"
140
0.375
141
12.0
290
     0
  0
SCALE
  5
4D
102
{ACAD_REACTORS
330
42
102
}
330
42
100
AcDbScale
 70
     0
300
1/2" = 1'-0"
140
0.5
141
12.0
290
     0
  0
SCALE
  5
4E
102
{ACAD_REACTORS
330
42
102
}
330
42
100
AcDbScale
 70
     0
300
3/4" = 1'-0"
140
0.75
141
12.0
290
     0
  0
SCALE
  5
4F
102
{ACAD_REACTORS
330
42
102
}
330
42
100
AcDbScale
 70
     0
300
1" = 1'-0"
140
1.0
141
12.0
290
     0
  0
SCALE
  5
50
102
{ACAD_REACTORS
330
42
102
}
330
42
100
AcDbScale
 70
     0
300
1-1/2" = 1'-0"
140
1.5
141
12.0
290
     0
  0
SCALE
  5
51
102
{ACAD_REACTORS
330
42
102
}
330
42
100
AcDbScale
 70
     0
300
3" = 1'-0"
140
3.0
141
12.0
290
     0
  0
SCALE
  5
52
102
{ACAD_REACTORS
330
42
102
}
330
42
100
AcDbScale
 70
     0
300
6" = 1'-0"
140
6.0
141
12.0
290
     0
  0
SCALE
  5
53
102
{ACAD_REACTORS
330
42
102
}
330
42
100
AcDbScale
 70
     0
300
1'-0" = 1'-0"
140
12.0
141
12.0
290
     0
  0
TABLESTYLE
  5
65
102
{ACAD_XDICTIONARY
360
1547
102
}
102
{ACAD_REACTORS
330
64
102
}
330
64
100
AcDbTableStyle
  3
Standard
 70
     0
 71
     0
 40
0.06
 41
0.06
280
     0
281
     0
  7
Standard
140
0.18
170
     2
 62
     0
 63
     7
283
     0
274
    -2
284
     1
 64
     0
275
    -2
285
     1
 65
     0
276
    -2
286
     1
 66
     0
277
    -2
287
     1
 67
     0
278
    -2
288
     1
 68
     0
279
    -2
289
     1
 69
     0
  7
Standard
140
0.25
170
     5
 62
     0
 63
     7
283
     0
274
    -2
284
     1
 64
     0
275
    -2
285
     1
 65
     0
276
    -2
286
     1
 66
     0
277
    -2
287
     1
 67
     0
278
    -2
288
     1
 68
     0
279
    -2
289
     1
 69
     0
  7
Standard
140
0.18
170
     5
 62
     0
 63
     7
283
     0
274
    -2
284
     1
 64
     0
275
    -2
285
     1
 65
     0
276
    -2
286
     1
 66
     0
277
    -2
287
     1
 67
     0
278
    -2
288
     1
 68
     0
279
    -2
289
     1
 69
     0
  0
VISUALSTYLE
  5
2F
102
{ACAD_XDICTIONARY
360
155B
102
}
102
{ACAD_REACTORS
330
29
102
}
330
29
100
AcDbVisualStyle
  2
2dWireframe
 70
     4
 71
     0
 72
     2
 73
     0
 90
        0
 40
-0.6
 41
-30.0
 62
     5
 63
     7
421
 16777215
 74
     1
 91
        4
 64
     7
 65
   257
 75
     1
175
     1
 42
1.0
 92
        0
 66
   257
 43
1.0
 76
     1
 77
     6
 78
     2
 67
     7
 79
     5
170
     0
171
     0
290
     0
174
     0
 93
        1
 44
0.0
173
     0
291
     0
 45
0.0
1001
ACAD
1000
AcDbSavedByObjectVersion
1070
     0
  0
VISUALSTYLE
  5
2E
102
{ACAD_XDICTIONARY
360
1559
102
}
102
{ACAD_REACTORS
330
29
102
}
330
29
100
AcDbVisualStyle
  2
Basic
 70
     7
 71
     1
 72
     0
 73
     1
 90
        0
 40
-0.6
 41
-30.0
 62
     5
 63
     7
421
 16777215
 74
     0
 91
        4
 64
     7
 65
   257
 75
     1
175
     1
 42
1.0
 92
        8
 66
     7
 43
1.0
 76
     1
 77
     6
 78
     2
 67
     7
 79
     5
170
     0
171
     0
290
     0
174
     0
 93
        1
 44
0.0
173
     0
291
     1
 45
0.0
1001
ACAD
1000
AcDbSavedByObjectVersion
1070
     0
  0
VISUALSTYLE
  5
35
102
{ACAD_XDICTIONARY
360
1567
102
}
102
{ACAD_REACTORS
330
29
102
}
330
29
100
AcDbVisualStyle
  2
Brighten
 70
    12
 71
     2
 72
     2
 73
     0
 90
        0
 40
-0.6
 41
-30.0
 62
     5
 63
     7
421
 16777215
 74
     1
 91
        4
 64
     7
 65
   257
 75
     1
175
     1
 42
1.0
 92
        8
 66
     7
 43
1.0
 76
     1
 77
     6
 78
     2
 67
     7
 79
     5
170
     0
171
     0
290
     0
174
     0
 93
        1
 44
50.0
173
     0
291
     1
 45
0.0
1001
ACAD
1000
AcDbSavedByObjectVersion
1070
     0
  0
VISUALSTYLE
  5
39
102
{ACAD_XDICTIONARY
360
156F
102
}
102
{ACAD_REACTORS
330
29
102
}
330
29
100
AcDbVisualStyle
  2
ColorChange
 70
    16
 71
     2
 72
     2
 73
     3
 90
        0
 40
-0.6
 41
-30.0
 62
     5
 63
     8
421
  8421504
 74
     1
 91
        4
 64
     7
 65
   257
 75
     1
175
     1
 42
1.0
 92
        8
 66
     8
424
  8421504
 43
1.0
 76
     1
 77
     6
 78
     2
 67
     7
 79
     5
170
     0
171
     0
290
     0
174
     0
 93
        1
 44
0.0
173
     0
291
     1
 45
0.0
1001
ACAD
1000
AcDbSavedByObjectVersion
1070
     0
  0
VISUALSTYLE
  5
32
102
{ACAD_XDICTIONARY
360
1561
102
}
102
{ACAD_REACTORS
330
29
102
}
330
29
100
AcDbVisualStyle
  2
Conceptual
 70
     9
 71
     3
 72
     2
 73
     0
 90
        0
 40
-0.6
 41
-30.0
 62
     5
 63
     7
421
 16777215
 74
     2
 91
        2
 64
     7
 65
   257
 75
     1
175
     1
 42
179.0
 92
        8
 66
     7
 43
1.0
 76
     1
 77
     6
 78
     2
 67
     7
 79
     3
170
     0
171
     0
290
     0
174
     0
 93
        1
 44
0.0
173
     0
291
     0
 45
0.0
1001
ACAD
1000
AcDbSavedByObjectVersion
1070
     0
  0
VISUALSTYLE
  5
34
102
{ACAD_XDICTIONARY
360
1565
102
}
102
{ACAD_REACTORS
330
29
102
}
330
29
100
AcDbVisualStyle
  2
Dim
 70
    11
 71
     2
 72
     2
 73
     0
 90
        0
 40
-0.6
 41
-30.0
 62
     5
 63
     7
421
 16777215
 74
     1
 91
        4
 64
     7
 65
   257
 75
     1
175
     1
 42
1.0
 92
        8
 66
     7
 43
1.0
 76
     1
 77
     6
 78
     2
 67
     7
 79
     5
170
     0
171
     0
290
     0
174
     0
 93
        1
 44
-50.0
173
     0
291
     1
 45
0.0
1001
ACAD
1000
AcDbSavedByObjectVersion
1070
     0
  0
VISUALSTYLE
  5
41
102
{ACAD_XDICTIONARY
360
157F
102
}
102
{ACAD_REACTORS
330
29
102
}
330
29
100
AcDbVisualStyle
  2
EdgeColorOff
 70
    22
 71
     2
 72
     2
 73
     0
 90
        0
 40
-0.6
 41
-30.0
 62
     5
 63
     7
421
 16777215
 74
     1
 91
        4
 64
     7
 65
   257
 75
     1
175
     1
 42
1.0
 92
        8
 66
     7
 43
1.0
 76
     1
 77
     6
 78
     2
 67
     7
 79
     5
170
     0
171
     0
290
     0
174
     0
 93
        1
 44
0.0
173
     0
291
     1
 45
0.0
1001
ACAD
1000
AcDbSavedByObjectVersion
1070
     0
  0
VISUALSTYLE
  5
38
102
{ACAD_XDICTIONARY
360
156D
102
}
102
{ACAD_REACTORS
330
29
102
}
330
29
100
AcDbVisualStyle
  2
Facepattern
 70
    15
 71
     2
 72
     2
 73
     0
 90
        0
 40
-0.6
 41
-30.0
 62
     5
 63
     7
421
 16777215
 74
     1
 91
        4
 64
     7
 65
   257
 75
     1
175
     1
 42
1.0
 92
        8
 66
     7
 43
1.0
 76
     1
 77
     6
 78
     2
 67
     7
 79
     5
170
     0
171
     0
290
     0
174
     0
 93
        1
 44
0.0
173
     0
291
     1
 45
0.0
1001
ACAD
1000
AcDbSavedByObjectVersion
1070
     0
  0
VISUALSTYLE
  5
2A
102
{ACAD_XDICTIONARY
360
1551
102
}
102
{ACAD_REACTORS
330
29
102
}
330
29
100
AcDbVisualStyle
  2
Flat
 70
     0
 71
     2
 72
     1
 73
     1
 90
        2
 40
-0.6
 41
30.0
 62
     5
 63
     7
421
 16777215
 74
     0
 91
        0
 64
     7
 65
   257
 75
     1
175
     1
 42
1.0
 92
        8
 66
     7
 43
1.0
 76
     1
 77
     6
 78
     2
 67
     7
 79
     5
170
     0
171
     0
290
     0
174
     0
 93
       13
 44
0.0
173
     0
291
     1
 45
0.0
1001
ACAD
1000
AcDbSavedByObjectVersion
1070
     0
  0
VISUALSTYLE
  5
2B
102
{ACAD_XDICTIONARY
360
1553
102
}
102
{ACAD_REACTORS
330
29
102
}
330
29
100
AcDbVisualStyle
  2
FlatWithEdges
 70
     1
 71
     2
 72
     1
 73
     1
 90
        2
 40
-0.6
 41
30.0
 62
     5
 63
     7
421
 16777215
 74
     1
 91
        0
 64
     7
 65
   257
 75
     1
175
     1
 42
1.0
 92
        0
 66
   257
 43
1.0
 76
     1
 77
     6
 78
     2
 67
     7
 79
     5
170
     0
171
     0
290
     0
174
     0
 93
       13
 44
0.0
173
     0
291
     1
 45
0.0
1001
ACAD
1000
AcDbSavedByObjectVersion
1070
     0
  0
VISUALSTYLE
  5
2C
102
{ACAD_XDICTIONARY
360
1555
102
}
102
{ACAD_REACTORS
330
29
102
}
330
29
100
AcDbVisualStyle
  2
Gouraud
 70
     2
 71
     2
 72
     2
 73
     1
 90
        2
 40
-0.6
 41
30.0
 62
     5
 63
     7
421
 16777215
 74
     0
 91
        0
 64
     7
 65
   257
 75
     1
175
     1
 42
1.0
 92
        0
 66
     7
 43
1.0
 76
     1
 77
     6
 78
     2
 67
     7
 79
     5
170
     0
171
     0
290
     0
174
     0
 93
       13
 44
0.0
173
     0
291
     1
 45
0.0
1001
ACAD
1000
AcDbSavedByObjectVersion
1070
     0
  0
VISUALSTYLE
  5
2D
102
{ACAD_XDICTIONARY
360
1557
102
}
102
{ACAD_REACTORS
330
29
102
}
330
29
100
AcDbVisualStyle
  2
GouraudWithEdges
 70
     3
 71
     2
 72
     2
 73
     1
 90
        2
 40
-0.6
 41
30.0
 62
     5
 63
     7
421
 16777215
 74
     1
 91
        0
 64
     7
 65
   257
 75
     1
175
     1
 42
1.0
 92
        0
 66
   257
 43
1.0
 76
     1
 77
     6
 78
     2
 67
     7
 79
     5
170
     0
171
     0
290
     0
174
     0
 93
       13
 44
0.0
173
     0
291
     1
 45
0.0
1001
ACAD
1000
AcDbSavedByObjectVersion
1070
     0
  0
VISUALSTYLE
  5
31
102
{ACAD_XDICTIONARY
360
155F
102
}
102
{ACAD_REACTORS
330
29
102
}
330
29
100
AcDbVisualStyle
  2
Hidden
 70
     6
 71
     1
 72
     2
 73
     2
 90
        0
 40
-0.6
 41
-30.0
 62
     5
 63
     7
421
 16777215
 74
     2
 91
        2
 64
     7
 65
   257
 75
     2
175
     1
 42
40.0
 92
        0
 66
   257
 43
1.0
 76
     1
 77
     6
 78
     2
 67
     7
 79
     3
170
     0
171
     0
290
     0
174
     0
 93
        1
 44
0.0
173
     0
291
     0
 45
0.0
1001
ACAD
1000
AcDbSavedByObjectVersion
1070
     0
  0
VISUALSTYLE
  5
3F
102
{ACAD_XDICTIONARY
360
157B
102
}
102
{ACAD_REACTORS
330
29
102
}
330
29
100
AcDbVisualStyle
  2
JitterOff
 70
    20
 71
     2
 72
     2
 73
     0
 90
        0
 40
-0.6
 41
-30.0
 62
     5
 63
     7
421
 16777215
 74
     1
 91
        4
 64
     7
 65
   257
 75
     1
175
     1
 42
1.0
 92
       10
 66
     7
 43
1.0
 76
     1
 77
     6
 78
     2
 67
     7
 79
     5
170
     0
171
     0
290
     0
174
     0
 93
        1
 44
0.0
173
     0
291
     1
 45
0.0
1001
ACAD
1000
AcDbSavedByObjectVersion
1070
     0
  0
VISUALSTYLE
  5
37
102
{ACAD_XDICTIONARY
360
156B
102
}
102
{ACAD_REACTORS
330
29
102
}
330
29
100
AcDbVisualStyle
  2
Linepattern
 70
    14
 71
     2
 72
     2
 73
     0
 90
        0
 40
-0.6
 41
-30.0
 62
     5
 63
     7
421
 16777215
 74
     1
 91
        4
 64
     7
 65
   257
 75
     7
175
     7
 42
1.0
 92
        8
 66
     7
 43
1.0
 76
     1
 77
     6
 78
     2
 67
     7
 79
     5
170
     0
171
     0
290
     0
174
     0
 93
        1
 44
0.0
173
     0
291
     1
 45
0.0
1001
ACAD
1000
AcDbSavedByObjectVersion
1070
     0
  0
VISUALSTYLE
  5
40
102
{ACAD_XDICTIONARY
360
157D
102
}
102
{ACAD_REACTORS
330
29
102
}
330
29
100
AcDbVisualStyle
  2
OverhangOff
 70
    21
 71
     2
 72
     2
 73
     0
 90
        0
 40
-0.6
 41
-30.0
 62
     5
 63
     7
421
 16777215
 74
     1
 91
        4
 64
     7
 65
   257
 75
     1
175
     1
 42
1.0
 92
        9
 66
     7
 43
1.0
 76
     1
 77
     6
 78
     2
 67
     7
 79
     5
170
     0
171
     0
290
     0
174
     0
 93
        1
 44
0.0
173
     0
291
     1
 45
0.0
1001
ACAD
1000
AcDbSavedByObjectVersion
1070
     0
  0
VISUALSTYLE
  5
33
102
{ACAD_XDICTIONARY
360
1563
102
}
102
{ACAD_REACTORS
330
29
102
}
330
29
100
AcDbVisualStyle
  2
Realistic
 70
     8
 71
     2
 72
     3
 73
     0
 90
        2
 40
-0.6
 41
30.0
 62
     5
 63
     7
421
 16777215
 74
     0
 91
        0
 64
     7
 65
   257
 75
     1
175
     1
 42
1.0
 92
        8
 66
   257
 43
1.0
 76
     1
 77
     6
 78
     2
 67
     7
 79
     3
170
     0
171
     0
290
     0
174
     0
 93
       13
 44
0.0
173
     0
291
     0
 45
0.0
1001
ACAD
1000
AcDbSavedByObjectVersion
1070
     0
  0
VISUALSTYLE
  5
3E
102
{ACAD_XDICTIONARY
360
1579
102
}
102
{ACAD_REACTORS
330
29
102
}
330
29
100
AcDbVisualStyle
  2
Shaded
 70
    27
 71
     2
 72
     2
 73
     1
 90
        2
 40
-0.6
 41
30.0
 62
     5
 63
     7
421
 16777215
 74
     0
 91
        4
 64
     7
 65
   257
 75
     1
175
     1
 42
1.0
 92
        8
 66
   257
 43
1.0
 76
     1
 77
     6
 78
     2
 67
     8
425
  7895160
 79
     3
170
     0
171
     0
290
     0
174
     0
 93
        5
 44
0.0
173
     0
291
     0
 45
0.0
1001
ACAD
1000
AcDbSavedByObjectVersion
1070
     0
  0
VISUALSTYLE
  5
3D
102
{ACAD_XDICTIONARY
360
1577
102
}
102
{ACAD_REACTORS
330
29
102
}
330
29
100
AcDbVisualStyle
  2
Shaded with edges
 70
    26
 71
     2
 72
     2
 73
     1
 90
        2
 40
-0.6
 41
30.0
 62
     5
 63
     7
421
 16777215
 74
     1
 91
       10
 64
     7
 65
   257
 75
     2
175
     1
 42
1.0
 92
        8
 66
   257
 43
1.0
 76
     1
 77
     6
 78
     2
 67
     7
 79
     3
170
     0
171
     0
290
     0
174
     0
 93
        5
 44
0.0
173
     0
291
     0
 45
0.0
1001
ACAD
1000
AcDbSavedByObjectVersion
1070
     0
  0
VISUALSTYLE
  5
3A
102
{ACAD_XDICTIONARY
360
1571
102
}
102
{ACAD_REACTORS
330
29
102
}
330
29
100
AcDbVisualStyle
  2
Shades of Gray
 70
    23
 71
     2
 72
     2
 73
     3
 90
        0
 40
-0.6
 41
-30.0
 62
     5
 63
     7
421
 16777215
 74
     2
 91
        2
 64
     7
 65
     7
 75
     1
175
     1
 42
40.0
 92
        8
 66
     7
 43
1.0
 76
     1
 77
     6
 78
     2
 67
     7
 79
     3
170
     0
171
     0
290
     0
174
     0
 93
        1
 44
0.0
173
     0
291
     0
 45
0.0
1001
ACAD
1000
AcDbSavedByObjectVersion
1070
     0
  0
VISUALSTYLE
  5
3B
102
{ACAD_XDICTIONARY
360
1573
102
}
102
{ACAD_REACTORS
330
29
102
}
330
29
100
AcDbVisualStyle
  2
Sketchy
 70
    24
 71
     1
 72
     2
 73
     2
 90
        0
 40
-0.6
 41
-30.0
 62
     5
 63
     7
421
 16777215
 74
     2
 91
        2
 64
     7
 65
     7
 75
     1
175
     1
 42
40.0
 92
       11
 66
     7
 43
1.0
 76
     1
 77
     6
 78
     2
 67
     7
 79
     6
170
     0
171
     0
290
     0
174
     0
 93
        1
 44
0.0
173
     0
291
     0
 45
0.0
1001
ACAD
1000
AcDbSavedByObjectVersion
1070
     0
  0
VISUALSTYLE
  5
36
102
{ACAD_XDICTIONARY
360
1569
102
}
102
{ACAD_REACTORS
330
29
102
}
330
29
100
AcDbVisualStyle
  2
Thicken
 70
    13
 71
     2
 72
     2
 73
     0
 90
        0
 40
-0.6
 41
-30.0
 62
     5
 63
     7
421
 16777215
 74
     1
 91
        4
 64
     7
 65
   257
 75
     1
175
     1
 42
1.0
 92
       12
 66
     7
 43
1.0
 76
     1
 77
     6
 78
     2
 67
     7
 79
     5
170
     0
171
     0
290
     0
174
     0
 93
        1
 44
0.0
173
     0
291
     1
 45
0.0
1001
ACAD
1000
AcDbSavedByObjectVersion
1070
     0
  0
VISUALSTYLE
  5
30
102
{ACAD_XDICTIONARY
360
155D
102
}
102
{ACAD_REACTORS
330
29
102
}
330
29
100
AcDbVisualStyle
  2
Wireframe
 70
     5
 71
     0
 72
     2
 73
     0
 90
        0
 40
-0.6
 41
-30.0
 62
     5
 63
     7
421
 16777215
 74
     1
 91
        4
 64
     7
 65
   257
 75
     1
175
     1
 42
1.0
 92
        0
 66
   257
 43
1.0
 76
     1
 77
     6
 78
     2
 67
     7
 79
     3
170
     0
171
     0
290
     0
174
     0
 93
        1
 44
0.0
173
     0
291
     0
 45
0.0
1001
ACAD
1000
AcDbSavedByObjectVersion
1070
     0
  0
VISUALSTYLE
  5
3C
102
{ACAD_XDICTIONARY
360
1575
102
}
102
{ACAD_REACTORS
330
29
102
}
330
29
100
AcDbVisualStyle
  2
X-Ray
 70
    25
 71
     2
 72
     2
 73
     1
 90
        1
 40
0.5
 41
-30.0
 62
     5
 63
     7
421
 16777215
 74
     1
 91
        0
 64
     7
 65
   257
 75
     1
175
     1
 42
1.0
 92
        8
 66
     7
 43
1.0
 76
     1
 77
     6
 78
     2
 67
     7
 79
     3
170
     0
171
     0
290
     0
174
     0
 93
       13
 44
0.0
173
     0
291
     0
 45
0.0
1001
ACAD
1000
AcDbSavedByObjectVersion
1070
     0
  0
DICTIONARYVAR
  5
79
102
{ACAD_REACTORS
330
76
102
}
330
76
100
DictionaryVariables
280
     0
  1
1:1
  0
DICTIONARYVAR
  5
78
102
{ACAD_REACTORS
330
76
102
}
330
76
100
DictionaryVariables
280
     0
  1
STANDARD
  0
DICTIONARYVAR
  5
77
102
{ACAD_REACTORS
330
76
102
}
330
76
100
DictionaryVariables
280
     0
  1
STANDARD
  0
DICTIONARYVAR
  5
1544
102
{ACAD_REACTORS
330
76
102
}
330
76
100
DictionaryVariables
280
     0
  1
0
  0
DICTIONARYVAR
  5
1545
102
{ACAD_REACTORS
330
76
102
}
330
76
100
DictionaryVariables
280
     0
  1
0
  0
DICTIONARYVAR
  5
1543
102
{ACAD_REACTORS
330
76
102
}
330
76
100
DictionaryVariables
280
     0
  1
2
  0
DICTIONARYVAR
  5
1542
102
{ACAD_REACTORS
330
76
102
}
330
76
100
DictionaryVariables
280
     0
  1
1
  0
DICTIONARYVAR
  5
1546
102
{ACAD_REACTORS
330
76
102
}
330
76
100
DictionaryVariables
280
     0
  1
2
  0
DICTIONARY
  5
1A
330
19
100
AcDbDictionary
280
     1
281
     1
  3
ACAD_XREC_ROUNDTRIP
360
154F
  3
BUMPTILE
360
1C
  3
DIFFUSETILE
360
1B
  3
OPACITYTILE
360
1F
  3
REFLECTIONTILE
360
1E
  3
REFRACTIONTILE
360
20
  3
SPECULARTILE
360
1D
  0
DICTIONARY
  5
12
330
11
100
AcDbDictionary
280
     1
281
     1
  3
ACAD_XREC_ROUNDTRIP
360
154E
  3
BUMPTILE
360
14
  3
DIFFUSETILE
360
13
  3
FBXASSET
360
F5
  3
OPACITYTILE
360
17
  3
REFLECTIONTILE
360
16
  3
REFRACTIONTILE
360
18
  3
SPECULARTILE
360
15
  0
DICTIONARY
  5
22
330
21
100
AcDbDictionary
280
     1
281
     1
  3
ACAD_XREC_ROUNDTRIP
360
1550
  3
BUMPTILE
360
24
  3
DIFFUSETILE
360
23
  3
FBXASSET
360
BA
  3
OPACITYTILE
360
27
  3
REFLECTIONTILE
360
26
  3
REFRACTIONTILE
360
28
  3
SPECULARTILE
360
25
  0
DICTIONARY
  5
1549
330
67
100
AcDbDictionary
280
     1
281
     1
  3
ACAD_XREC_ROUNDTRIP
360
154A
  0
DICTIONARY
  5
1547
330
65
100
AcDbDictionary
280
     1
281
     1
  3
ACAD_ROUNDTRIP_2008_TABLESTYLE_CELLSTYLEMAP
360
1548
  3
ACAD_XREC_ROUNDTRIP
360
1581
  0
DICTIONARY
  5
155B
330
2F
100
AcDbDictionary
280
     1
281
     1
  3
ACAD_XREC_ROUNDTRIP
360
155C
  0
DICTIONARY
  5
1559
330
2E
100
AcDbDictionary
280
     1
281
     1
  3
ACAD_XREC_ROUNDTRIP
360
155A
  0
DICTIONARY
  5
1567
330
35
100
AcDbDictionary
280
     1
281
     1
  3
ACAD_XREC_ROUNDTRIP
360
1568
  0
DICTIONARY
  5
156F
330
39
100
AcDbDictionary
280
     1
281
     1
  3
ACAD_XREC_ROUNDTRIP
360
1570
  0
DICTIONARY
  5
1561
330
32
100
AcDbDictionary
280
     1
281
     1
  3
ACAD_XREC_ROUNDTRIP
360
1562
  0
DICTIONARY
  5
1565
330
34
100
AcDbDictionary
280
     1
281
     1
  3
ACAD_XREC_ROUNDTRIP
360
1566
  0
DICTIONARY
  5
157F
330
41
100
AcDbDictionary
280
     1
281
     1
  3
ACAD_XREC_ROUNDTRIP
360
1580
  0
DICTIONARY
  5
156D
330
38
100
AcDbDictionary
280
     1
281
     1
  3
ACAD_XREC_ROUNDTRIP
360
156E
  0
DICTIONARY
  5
1551
330
2A
100
AcDbDictionary
280
     1
281
     1
  3
ACAD_XREC_ROUNDTRIP
360
1552
  0
DICTIONARY
  5
1553
330
2B
100
AcDbDictionary
280
     1
281
     1
  3
ACAD_XREC_ROUNDTRIP
360
1554
  0
DICTIONARY
  5
1555
330
2C
100
AcDbDictionary
280
     1
281
     1
  3
ACAD_XREC_ROUNDTRIP
360
1556
  0
DICTIONARY
  5
1557
330
2D
100
AcDbDictionary
280
     1
281
     1
  3
ACAD_XREC_ROUNDTRIP
360
1558
  0
DICTIONARY
  5
155F
330
31
100
AcDbDictionary
280
     1
281
     1
  3
ACAD_XREC_ROUNDTRIP
360
1560
  0
DICTIONARY
  5
157B
330
3F
100
AcDbDictionary
280
     1
281
     1
  3
ACAD_XREC_ROUNDTRIP
360
157C
  0
DICTIONARY
  5
156B
330
37
100
AcDbDictionary
280
     1
281
     1
  3
ACAD_XREC_ROUNDTRIP
360
156C
  0
DICTIONARY
  5
157D
330
40
100
AcDbDictionary
280
     1
281
     1
  3
ACAD_XREC_ROUNDTRIP
360
157E
  0
DICTIONARY
  5
1563
330
33
100
AcDbDictionary
280
     1
281
     1
  3
ACAD_XREC_ROUNDTRIP
360
1564
  0
DICTIONARY
  5
1579
330
3E
100
AcDbDictionary
280
     1
281
     1
  3
ACAD_XREC_ROUNDTRIP
360
157A
  0
DICTIONARY
  5
1577
330
3D
100
AcDbDictionary
280
     1
281
     1
  3
ACAD_XREC_ROUNDTRIP
360
1578
  0
DICTIONARY
  5
1571
330
3A
100
AcDbDictionary
280
     1
281
     1
  3
ACAD_XREC_ROUNDTRIP
360
1572
  0
DICTIONARY
  5
1573
330
3B
100
AcDbDictionary
280
     1
281
     1
  3
ACAD_XREC_ROUNDTRIP
360
1574
  0
DICTIONARY
  5
1569
330
36
100
AcDbDictionary
280
     1
281
     1
  3
ACAD_XREC_ROUNDTRIP
360
156A
  0
DICTIONARY
  5
155D
330
30
100
AcDbDictionary
280
     1
281
     1
  3
ACAD_XREC_ROUNDTRIP
360
155E
  0
DICTIONARY
  5
1575
330
3C
100
AcDbDictionary
280
     1
281
     1
  3
ACAD_XREC_ROUNDTRIP
360
1576
  0
XRECORD
  5
154F
102
{ACAD_REACTORS
330
1A
102
}
330
1A
100
AcDbXrecord
280
     1
102
MATERIAL
148
0.0
149
0.0
149
0.0
 93
        0
 94
      127
282
     0
 72
     0
 77
     0
171
     0
175
     0
179
     0
273
     0
  0
XRECORD
  5
1C
102
{ACAD_REACTORS
330
1A
102
}
330
1A
100
AcDbXrecord
280
     1
270
     1
271
     1
  0
XRECORD
  5
1B
102
{ACAD_REACTORS
330
1A
102
}
330
1A
100
AcDbXrecord
280
     1
270
     1
271
     1
  0
XRECORD
  5
1F
102
{ACAD_REACTORS
330
1A
102
}
330
1A
100
AcDbXrecord
280
     1
270
     1
271
     1
  0
XRECORD
  5
1E
102
{ACAD_REACTORS
330
1A
102
}
330
1A
100
AcDbXrecord
280
     1
270
     1
271
     1
  0
XRECORD
  5
20
102
{ACAD_REACTORS
330
1A
102
}
330
1A
100
AcDbXrecord
280
     1
270
     1
271
     1
  0
XRECORD
  5
1D
102
{ACAD_REACTORS
330
1A
102
}
330
1A
100
AcDbXrecord
280
     1
270
     1
271
     1
  0
XRECORD
  5
154E
102
{ACAD_REACTORS
330
12
102
}
330
12
100
AcDbXrecord
280
     1
102
MATERIAL
148
0.0
149
0.0
149
0.0
 93
        0
 94
      127
282
     0
 72
     0
 77
     0
171
     0
175
     0
179
     0
273
     0
  0
XRECORD
  5
14
102
{ACAD_REACTORS
330
12
102
}
330
12
100
AcDbXrecord
280
     1
270
     1
271
     1
  0
XRECORD
  5
13
102
{ACAD_REACTORS
330
12
102
}
330
12
100
AcDbXrecord
280
     1
270
     1
271
     1
  0
XRECORD
  5
F5
102
{ACAD_REACTORS
330
12
102
}
330
12
100
AcDbXrecord
280
     1
 70
     1
 90
1959938040
 71
     1
  1
2DD4E622-B158-4E5D-A805-C54C73A0A2DC
311
504B03040A00000800005770AA423DEE336E79000000790000001B0000006175746F6465736B2D64657369676E2D7061636B6167652E786D6C3C3F786D6C2076657273696F6E3D22312E302220656E636F64696E673D227574662D3822203F3E3C666F726D6174733E3C666F726D61743E687474703A2F2F736368656D612E
311
6175746F6465736B2E636F6D2F64657369676E2D7061636B6167652F323030393C2F666F726D61743E3C2F666F726D6174733E504B03041400060808005770AA42D486FD9CA0000000F4000000130000005B436F6E74656E745F54797065735D2E786D6C7D8EC10E82300C865F65E91D8A1E8C310C0EEA1BF002731658846E
311
D98AC1B77784ABF1D8FE5FBFBF75BBCE937A534CCEB38643598122B6FEE978D0B0485F9C41B54DDD7D022595594E1A469170414C76A4D9A4D207E29CF43ECE46F218070CC6BECC4078ACAA135ACF422C856C0E68EA1BF5669944DDD7BCDE7B1F8E415D77AECB980613C2E4AC91FC167A2B244592486606FC29C8FD7F045B9A
311
EF7053A7E60B504B03041400060808005770AA42AA2E083DEB0000007C01000008000000636F72652E786D6C8D90416EC3201045AF82665B61834D5ADBC24449DD9CA01740405C94182C03558E5F9C3852BBEB6A467FFE9B197DBEBF4D57F46D9660BDEB8116049071CA6BEBC61E523CE306D05EF0C5FBF8CB06C8C9C9F4B0
311
CA20F8B8F8346F92F22E1A17B3EABC369B2843301190BAE6A687A0BECC240B996276844B314B7591A329E8B3CB704A56A3C711ABF33E7BB6660131B46D533142707B186ACC6AFA8A8FC3D062D61E3E06C29AD33B39F17285058F767ADE578B91D1681015A135263B4CC927651DA93AF6F642765D4D78B9DAFF4069D6FF8492
311
75B1AEB6771F580041F323F781E0E59A452EF7A0725D73133F504B03041400060808005770AA4255019EA25F0000007C00000007000000636E782E786D6C4DCB3B0E80201045D1AD90E915ED2CF8AC45050C11660C8261F98AB1B07AC9C97D42D718D865D3E909258CFD00CCE24AC6E326A164D74DC0B4128928FF32603847
311
2BA13128B1252AC747C6BAB984FC68F0B87FE8960A5C09FE86CFB69FBA01504B03041400060808005770AA42C623DA4668010000020300000C0000006662782F636F72652E786D6C8D525B6E833010BC8AE5DF0A6C1E6943641CA5A539412FE08043AD808D8C8D72FC2E8F88A68AA20AC958333BBBB3036C7F6D1B3448DB2B
311
A3731C851423A94B53295DE7D8BB73B0C568CF9935C6FD2AC3488B56E678843167B535BE5BA0D26827B503549B4A2EA0E87BE9302A1BB8E4B82FBF652B42E11D54F497B013E545D4328C42A0A18EB3DE593080E621E389F9F9746564C639F35E550BAB2A98A6CE4A5ACC8B2CDBC629A541762892204DA2D7E0BD28B220CD0E
311
9F054DB7C70F7A64641473E6547B73575A299CAC308F699404741344F42B4A7734DEA56F2F74B34B282363F99DC877D53F455E6997C48BDD59D6631E819189F8B32D44E4502F06F04338236388F09A12BE0F1A0281909D3835B73D2E000DB274C6A6C054C6AFD4201A2F612A45D3C3C8CC42E7A9016CF6B04FFCA4CFF31EF0
311
0185AEC19A70703D79374E67F3D4258A4EDA607057A48D6D45B39A9B2DAEE73AE8A1BC348DB1FF51936555B28449C6BF97FF00504B03041400060808005770AA423F2746A57E0000009D0000000B0000006662782F636E782E786D6C4DCCD10E82201886E15B61FF398995011BE04CF03E5CA2632234C2D6E5A7CD838EBEED
311
D9B757D49FC5A3B74D2F178384F24400D9F088830B9384358F9801AA954831E6BF1BA0D02F56C2CEA0C494E2FA3C68B063BFFABCA977613EB0E39A6A6A1A7C23C4E02B332D6655D9E10BD7F78AD0D69C1B0E8512C5AFB4ED1E565F504B03041400060808005770AA42A6E1E2BC2C01000015020000310000006662782F4639
311
4437443745412D363030452D343845432D383531462D3339444235303743453241392F636F72652E786D6C8D515B6EC32010BC0AE22B55850D7E3BC24469E29CA0172036495162B07854397EA176A4F62F3F2C9A9D991DEDD2DD63BA836F61ACD4AA8324C1100835E851AA6B07BDBBA006821DA3466BF7870681E293E86084
311
21A357A3FDBC4283564E281750A547B182DC5AE12018EEE1D3413B7C898927DCBBC0B0B764E6C38D5F454292D00E3C46AD3321005886C417B2537BAC8F75BF4715C63D2A9AFE809A929C50DE1E3F4A5C1FFA6CDFD2741132EABD1C57B91C431C7991C2BC6A12C58C3A393DE30F46702746C8324C72844B44F02729B638DB16
311
F53B2EB739A669A4FF13F9797C51E4A57279B6C65D64163242D3A5C1E8A8FDF9FE0C231EB3360EC4791B2B8637C870827153D64D9505CDC20D1B08A655B19A5AA74DD8F0E6760E74522ECE55C1681A8F14CAEF05438D07653F504B03041400060808005770AA42EC45CE944E01000033030000300000006662782F46394437
311
443745412D363030452D343845432D383531462D3339444235303743453241392F636E782E786D6CD593CD6E022114855F85B06DE64F47DB1806932EFA045D74CBC055A90C4CF869EADBF7A268DDB8E8B21B3239F770CECD17866DBF2743BEC007EDEC40BBBAA504AC744ADBFD4053DC552F946C39F3CEC53B1B25564C30D0
311
2C53CEF6DEA5B9480A76229988AAD1F658440FC1252F21A09C6F12E3A4301800B64A28C2348252A0C8CD885F3BF0B80A8AE389C40390B7D70FE2C64F9031B026A770D6E40ECEF2599AEE4C944823421868900798442D52740AC2B156228ABAABAF5D0F76FA4D22F9C2B532794D72F940F34979D9A8468EACC12167217AA457
311
4CF13403E5629E8D962222E4E66CBC78384BDAC6755FBC1AC17B7477EB65DF63D879C659D4131487F4202228CA176DB7ACDA55D5B5EF5DBF69179BFEF9A95D6D962D6BB29DB3D139532E610C783713E96C041B29EF5893C78FF0151F51DA236BE74F7F0089004AEB85CE2DE33FF369CEEF1B7179FC0BF80F504B0304140006
311
0808005770AA421A237B35A505000081100000340000006662782F46394437443745412D363030452D343845432D383531462D3339444235303743453241392F6F626A656374732E786D6CAD57D96EDB3814FD1541F332F360CBF29226034585632785D1A62D6AA49807030625510A27D402924A9DF9FA3994285972ECD433
311
E88B162E97F79E7BEE42EFFD2EE5D6331592E5D9B5ED0E47B645B3308F58965CDBA58A0797B6F5DEF7449EABCE32DBCA484AAF6D3D6CFB5E22F2B23043118D49C9D5C1E8DDCD5F960C69466D2BE444CA6B5B868F34254352AA3CA2F2691811458649BC1BBAC37A615F6C2248F17820B42082660A9A623C8314AB56CAEDFF8E
311
6CC7F71C3DEF7BFA69564D4EAF722A7BFAE7B34C2A9285AF0E3B103371A7CBDBF1EC6A309B4E2783E9C5D81DDCDCDD2C07EEBBC96871B1585CCD6FAF70B05402928C2682C6B6FF01D808167A4E3DE57B25CBD4646C96180739823E33ED29DB1F5BAEE7D46B5AEB8C91C7D40FF32CA3618515D0A8EC33A2235AD02C82CF1995
311
D0AC83D0A8FFEB6A1C3BD313FD6F8EEC0E9F874077474750A37BF3EE6A9A077FC304790E8384A49A813596C6D09AABA33DC2419E7333C7A49512450523DCE22C1044BCD83E96EA25BED713A3992C7434680B6C1F5EA8A7FB744118FD9CE7C7B48C4BCE358D6DBF8A822D62852A5969C6FEA162AF7D1719E8045F69365C1A83
311
D44B416DFFAAA6C8E5019B6A20AD9893042E87997AE7647C60E842C7E96A69FB1FEF82DD5AC7EEF1C30B911754284D1F50AB715CF3D628199DDCB33CA737D807AAEC41F906E43F23D4F7AAC06F82EDA6BBA939450992C93817297C638DACC1088F91E5564FFDDDF9F29C7673DF7BA7F084B33554BF00CFBE0D5D5F76E0F4BD
311
67103E171363DA3A241C69E39E65004893C4E239869087E36067FB2B64396465EC22DC776132D47DC6A7E718314814D5499D77062C0FD2E219091AB0558C841A35F98D827B3FBD4A67D5C166D9297867BF84AEF3E5FAE3BA143109E9BD89E9258D59C6144ADC9E375D857A98F72C7AA22F3F7211C1D0D778AFBB78A7E62809
311
B435E61AF8A4C9E9FA677F72EF8010FB925CA71BEF2727C0085D583BF2EF990C29E724A379D99CFB66FD40D9A821D6C1AE99DC16987D610169EA99831844910E052B34886DB56A93E6F084750FABCF60A4EDDFBC7C222FDDEC15EC736F98F35C6C83976D9D968E42FDBDCF6D8381A3A580EE559034F16F40DF462C8E4B8924
311
7804D7EFAB45D7773A2D20453452EB6899C27E04171186B48D5C546B415049F36CCB50371177470FE8CA07A4860195C0531A4BCAE32DE3BC4CB731E3A846DB941427E0F8FFFA07655A6C499A97993A21BBA73AAA435FF71E7BE50FA2C247DB5F57EFC10D726F44A31364D0B5E408563DD78E97CBE9EDC5783CB871679783E9
311
ED6C39985F8E6683C56CBA7837998FE6E3254C371A554D94EF35A5A61BD1F0124A9B570A66DCF7B042FC982460FBF744C9CD873A3C9BF7C36A885ED873B007F5B2DD388F9ED1F7D1E8E702F62B8F0A5AA505A729CD14D13174AF3FF837823EA3A74C3DBE4A4942CF90F2E5C3FAC0188C9CB1EFAB8E77FAE360AF195DE8803C
311
2A443D96699011C60F36263592C3224B0C7E8D4FDA775D689A5FFD671C83CE54E69C45C8839195D03CA50AD9F08C2224522A41BD6E4F1F99BBC719BB9FEB0E519180D34693478226994B8405485E86AA3F6EFD86A64EF755D736CAEDF0090F93296C0B9CB9B6D1A42B1652390C50A0752B54090797BA9D3C384BB284A3D7AE
311
37B5FFED2E8D4DAF24B74BCEE99F8C5D750A3706208D14E81BD010C13B9532BE57E966E6C3FF6478A38E45143E8352B5B6EC075A63AA6310A2B551E6B68026E6C91CBD43A0BE6D963BACD6F41039EB96F526096AA903454452DD14B47E46A5F9F2AB830EC55A7DB10A5E26F0E5F992068282CCA50E70B008AC30320BA240D5
311
C59F9BAF22C74D36B5EE182860FDBEBBBCF863B3C8D334CFEAA1CDDCDC87ADF5236EB7D106C981EA6B89DC8C47EE78535D07CC0D651B10498724924F188067056B81EEB91FBCACEF8CA843F544BBCED1AE3860E86A6999C236855043976E6ED5E0A0F1C8A88518D2574A1D31DD05C59B3702A75A0A15047A79FF5F504B0304
311
1400060800005770AA42000000000000000000000000350000006662782F46394437443745412D363030452D343845432D383531462D3339444235303743453241392F76657274696365732E62696E504B03041400060808005770AA42F270F1330600000004000000360000006662782F46394437443745412D363030452D
311
343845432D383531462D3339444235303743453241392F747269616E676C65732E62696E636660600000504B03041400060800005770AA42000000000000000000000000370000006662782F46394437443745412D363030452D343845432D383531462D3339444235303743453241392F617474726962757465732E62696E
311
504B03041400060808005770AA42D5987DFC8F00000041010000360000006662782F46394437443745412D363030452D343845432D383531462D3339444235303743453241392F6469726563746F72792E786D6C858F410EC2201045AF4266AF15DDB800BA74E7C21B903225242D6328188F2FA5C4183471359997F9FF81E8
311
9FF3C41E1816475E02DF1F80A11FC8386F25A438EECEC07A250251FC3803E6F58C12560C4AD840E95E91C151A72936F496F35732D860FE635F62C8F2DA16B505C545B74125BAA2FA9E05D7CC053D063734D5C7665FD55B6B8D15D5E9BFEAFD8490FFA45E504B03041400060808005770AA4216BBC378FE000000A00100003B
311
0000006662782F46394437443745412D363030452D343845432D383531462D3339444235303743453241392F7265736F75726365732F636F72652E786D6C8D504B6E833010BD0A9A6D65B081B4011947692927E8052C332156828DFCA97AFC9A40A576D7CDCCE87D344F8F9FBEE67BF689CE6B6B3A6039850C8DB2A3365307
311
315CC811B293E0CEDAF04B0699913376B0C220F8E46C5C76485913D084841A3BE20E4AEF3140A6EEE9E8C0AB2BCE3297312485BFE58B54373961CEF244279DE03EB81420DB9EAC1384436FA353E879B1B182C7A8C75DA3C7F4535F343A107DD31CCB6A184873EE2B5257EC99BCF67D43EAE6FCDED3FA38BCD18117AB59F0A0
311
E79F8CCAA10C38822829AB083D10463F58DDD2B2AD5F9EE8A1AD282F56F91F535CC67F9AA236A12AF7B89BCD836029C88310BC58FB4AEB5166DA6BB7E21B504B010214000A00000800005770AA423DEE336E79000000790000001B00000000000000000000000000000000006175746F6465736B2D64657369676E2D706163
311
6B6167652E786D6C504B010214001400060808005770AA42D486FD9CA0000000F40000001300000000000000000000000000B20000005B436F6E74656E745F54797065735D2E786D6C504B010214001400060808005770AA42AA2E083DEB0000007C010000080000000000000000000000000083010000636F72652E786D6C
311
504B010214001400060808005770AA4255019EA25F0000007C000000070000000000000000000000000094020000636E782E786D6C504B010214001400060808005770AA42C623DA4668010000020300000C00000000000000000000000000180300006662782F636F72652E786D6C504B010214001400060808005770AA42
311
3F2746A57E0000009D0000000B00000000000000000000000000AA0400006662782F636E782E786D6C504B010214001400060808005770AA42A6E1E2BC2C010000150200003100000000000000000000000000510500006662782F46394437443745412D363030452D343845432D383531462D333944423530374345324139
311
2F636F72652E786D6C504B010214001400060808005770AA42EC45CE944E010000330300003000000000000000000000000000CC0600006662782F46394437443745412D363030452D343845432D383531462D3339444235303743453241392F636E782E786D6C504B010214001400060808005770AA421A237B35A5050000
311
811000003400000000000000000000000000680800006662782F46394437443745412D363030452D343845432D383531462D3339444235303743453241392F6F626A656374732E786D6C504B010214001400060800005770AA4200000000000000000000000035000000000000000000000000005F0E00006662782F463944
311
37443745412D363030452D343845432D383531462D3339444235303743453241392F76657274696365732E62696E504B010214001400060808005770AA42F270F13306000000040000003600000000000000000000000000B20E00006662782F46394437443745412D363030452D343845432D383531462D33394442353037
311
43453241392F747269616E676C65732E62696E504B010214001400060800005770AA4200000000000000000000000037000000000000000000000000000C0F00006662782F46394437443745412D363030452D343845432D383531462D3339444235303743453241392F617474726962757465732E62696E504B0102140014
311
00060808005770AA42D5987DFC8F000000410100003600000000000000000000000000610F00006662782F46394437443745412D363030452D343845432D383531462D3339444235303743453241392F6469726563746F72792E786D6C504B010214001400060808005770AA4216BBC378FE000000A00100003B0000000000
311
0000000000000000441000006662782F46394437443745412D363030452D343845432D383531462D3339444235303743453241392F7265736F75726365732F636F72652E786D6C504B0506000000000E000E00800400009B1100000000
310
504B03040A00000800005770AA423DEE336E79000000790000001B0000006175746F6465736B2D64657369676E2D7061636B6167652E786D6C3C3F786D6C2076657273696F6E3D22312E302220656E636F64696E673D227574662D3822203F3E3C666F726D6174733E3C666F726D61743E687474703A2F2F736368656D612E
310
6175746F6465736B2E636F6D2F64657369676E2D7061636B6167652F323030393C2F666F726D61743E3C2F666F726D6174733E504B03041400060808005770AA42D486FD9CA0000000F4000000130000005B436F6E74656E745F54797065735D2E786D6C7D8EC10E82300C865F65E91D8A1E8C310C0EEA1BF002731658846E
310
D98AC1B77784ABF1D8FE5FBFBF75BBCE937A534CCEB38643598122B6FEE978D0B0485F9C41B54DDD7D022595594E1A469170414C76A4D9A4D207E29CF43ECE46F218070CC6BECC4078ACAA135ACF422C856C0E68EA1BF5669944DDD7BCDE7B1F8E415D77AECB980613C2E4AC91FC167A2B244592486606FC29C8FD7F045B9A
310
EF7053A7E60B504B03041400060808005770AA42D519F45FEC0000007C01000008000000636F72652E786D6C8D90416EC3201045AF82665B61834D9AC4C244B6139FA0174098B828315806AA1EBF3871A476D7D58CFEFC3733FAFCF43DDDD1975EBC71B6069A1140DA2A37183BD610C3151F009D045F9C0BBF6C80AC9C740D
310
AB0C828F8B8BF326296783B621A9D60D7A13A5F73A0052F7D4D4E0D5A79E642663480E7FCB66A96E72D4197D75098ED10CE879C40C699FB91ABD8068C9A5B9B0BEC5FBBEEC3163CD3B3EB203C5B43FB75D579C9B8E1E78BEC2820733BDEEAB45CBA0071005A125263B4CC9076515292AB67F23BBAA243C5FED7FA0380FFF84
310
A2B1A12CB6779F980741D3238F81E0F99A452A8FA0525D73133F504B03041400060808005770AA4255019EA25F0000007C00000007000000636E782E786D6C4DCB3B0E80201045D1AD90E915ED2CF8AC45050C11660C8261F98AB1B07AC9C97D42D718D865D3E909258CFD00CCE24AC6E326A164D74DC0B4128928FF326038
310
472BA13128B1252AC747C6BAB984FC68F0B87FE8960A5C09FE86CFB69FBA01504B03041400060808005770AA42DA8810A768010000020300000C0000006662782F636F72652E786D6C8D52ED8E8320107C15C2DF8B026AAFBD0669FAE513DC0B50A59EA98241307DFC5B3F9A5E2F4DD3982099D9D99D1DE59B6B53A35ED9AE
310
323AC52CA418299D9BA2D2658ABD3B072B8C36825B63DC9F328CB46C548A07180B5E5AE3DB19CA8D764A3B40B529D40CCAAE530EA3BC864B8ABBFC47353294DE414577095B995F64A94216020D758277CE8201340D194E2CCEA72B27132EB8F75531B35501D3AA73A52C163B7ADC1E936C172CB3380B9264FB197C252B16B0
310
ECB0DBEFA3C376CF569C0C62C15DD5DCDCE55649A70A2C22CAE2802E0246BF59B2A6D13A597ED0C53AA69C0CE50F22DF166F8A7CA55D1CCD7627598705032323F16F5B88C8A14EF6E087084E8610E13526FC18340402213B79AA6F7B5C00EA55EE8C4D80298CBF53BDACBD82A9148D0F27130B9DC706B0D9D33ED18B3EAF7B
310
C00794BA046BD2C1F5E4DD309D4F53E7285A6583DE5D9136B691F5DDDC64F17EDE073D95E7A636F61D35995725739864F87BC52F504B03041400060808005770AA42D5E292787E0000009D0000000B0000006662782F636E782E786D6C4DCCDF0A83201C86E15B91DFB9CB4AFA036AA4B9FB886521950EA76397BF1A1DECE8
310
83878F97759F7D436F135ED63B0EF98D0032EEE127EB160E29CEB801D40916BC8F7F37406EDC0D879341B025F8F4BC6832F398B678E866DD7AA1566D41EBB2C78A9604D3A26A703F488DB5CA492DDBFB20AB0232C1B25FE9D8332CBE504B03041400060808005770AA4258FFFCEE2D01000015020000310000006662782F45
310
433932343733412D433433302D343236382D414442452D4543313037423946444236322F636F72652E786D6C8D515B6EC32010BC0AE22B55850D36719C0813E5D513F4020E901425068B4795E3176A476AFFF2C3A2D999D9D12EDB3E863BF856CE6B6B3A480A0C8132C24A6DAE1D8CE1825A08B69C396BC31F1A04A61F5407
310
330C39BB3A1BC71912D6046542428D956A067BEF558040DCD3A7835E7CA9A12FFA1812C3DF8AB117B7FEAA0A52A476E271E6834B01C03424BF909F0EEB8AAEEA1D3AD01A235A352DDA1DF727743A10BCDAAF3F8EFBA662E524E42C462D67B996298EBE68E55E35C962CE821E9EF185537D5012F20A931AE12522F893D00DAE
310
3674F58E979B1AB332D3FF89E2285F14456D425DCD712799879CB0726A70266D3CDF9F61D463B42E803C6FE19578831C1718B7EBA62578C9CA899B36904C1B3A9BFA605DDAF0E2764EF47A766E2867653E522ABF174C351F94FF00504B03041400060808005770AA428AE201835601000033030000300000006662782F4543
310
3932343733412D433433302D343236382D414442452D4543313037423946444236322F636E782E786D6CBD93CD6EC23010845FC5F2B5CA1F091421C7483DF4097AE8D5B1177049ECC83F5579FBAEC1502E1C2A55BD58D1EC7866F5C961DBAF69249FE0BCB6A6A74D595302465AA5CDBEA731EC8A35255BCE9CB5E1CE468911
310
13F434C994B3BDB371CE92829D88634075D4E6984507DE4627C1A39C6E92D14A3162009822A208D3004A812237237EEDC0E12A280E27120E405E5FDE891D3E4006CFAA94C259953A384B676EBA33512247E17D4FBD3CC0244A118355E08FA51241944D79ED7AB0D34F124917AE95D16992CA7B9A4ECAF346257264150E39F3
310
C121BD6C0AA7192817F33C6A290242AECEC68B87B3A84D5875D9AB11BC4377BB58ADD718769E7116F404D9211D88008AF245DDB445BD2C9AFAADE936F562D33D3FD5CB4D5BB32AD9391BAC1DF3258C01676722AD096002E50DABD2F811BEEC234A3B646DDDE9172011406EBDD0B965FC259F66D576DD3FF2A9CEEF1B7139FC
310
0BF837504B03041400060808005770AA4204816EEC630700009A1B0000340000006662782F45433932343733412D433433302D343236382D414442452D4543313037423946444236322F6F626A656374732E786D6CED595B73A33614FE2B0C7D691F8C8D2F69D22174127B77C7B34DBB537777FAE019460699A81182914436
310
EEAFEFD1050CC424B89BBEF5C106847474CE77AE3A043F3F65D479C45C909C5DBBBE37711DCCE23C212CBD764BB91F5DBACECF61C0F35C36A6B90E4319BE76D5B01B0629CFCBC20E25788F4A2A3BA3EF6FFF74448C19769D982221AE5D11DFE30C79A8947982C583972089BC74FFE4F99E99D8269B7254DC77881688632681
310
53186740C5314CF9EDC7893B0E83B17A1F06EADFCE9A0D9A35EF9F35D652B7B9244C48C4E2672C75C8CC06B134F3E7AB77D3C5D568319FCF46F38BA93FBA7D7FBB1AF93FCE26CB8BE5F2EAE6DD15B0B7CB736A654A70815902FA3BB8A11F8CD59B5A748BC029AEE39C311C6B20012A2D569720C102B66AC037693FFA4AA2C6
310
6B2D61E379AEDE5B161AC3B33695BE59C38068D10541EC7695C4D5B5295FBEFB0B0417438C920B2C815B213968D7C2C3C12BDC70128CCD6818EC8EBA20C2C990C49C20EA50B2E388835260AA9A1206668125A39C8303294749A035675EB76D0B3CF375D739C5E5BEA45479861B6AC78AC0FDB0149A33F237E647EE9BC8004F
310
206D4998BCB45CCA4381DDF02A18EBC1305097D9D4BE34403A7B8A52A111316F3B822E95EBAF576EF8F1FDEE69A3C2C1E9CD0B9E17984B65744A8F9A2F30647B5528D96DFD419A530B401803AA5D7904E57740FE57881E4756406F9C3CCD9FE676AEE488897DCE33D08D33714613F89B38BEFE57F78DBB605C2F6E6BAF0F4F
310
705305D5E5B7E3D996416365F96FC019068F60F0399FD9579B1851B0E73BC2002065240ECD610842FB7EF7E4866B089C10E86115A2A10F2203BB8F701B8C2D99A3562AF7B25EC70051BBC76C889200366D91C0468F9E3E40F6E0243EAAA929621FBC8B3731D79BD5E6E3A6E47B14E33BEBD32BBC278C48C89AA7196A61DE92
310
E8011FBEE63C01419FE3BD69E29DD9AD04A0AD3057C0A71508EAE1B8736B8318D6A5B90A37C12B3B80102A5737E8DF1111634A11C37959ED5B473765A8B5C7DB9AC10DA706E2D9B463C21C3F12555580D31C67B41885BC1F73522810DDF08391AC0E9A5E8F749FD7BF8245D6F37B66AD19845E86E81F3A689DC0A165D915D2
310
16885AE0DD319CC739CD79B43B4426D2B9504B001B6D6FF9D2220AB1DE284951010FD27E578594D4481B2564BF2F05C4D5132C7E592F9BE630F166FEC269FE779C710ED1167C1771EB779D3D2292A114477B94F46DD7DCADA62D34C91ED21CEF29C8451E893C4448469304A7E7407316F1AB37A59ED25C08C2B0807C7512FC
310
261A130F0289D166C5B2D26A076822A20C4B44CF414091E90157A71D5DE3C6503ABCCE636DBD2F69AC49F43FB2088EA096CC5944A014851CF22AE3BEB78018D246D7A0DCC117ACADA2ADC5A0259410F121FA8A497A2FCF41DD90EFC13D86234929A3BC403198F500B2CF7C4529B5C3FB0EC50F2A7F447149DFCA4004A6FB88
310
505A6611FC088393C710D7AE03D38B2834889BD8277106451992251FB2C9C562F26C1F533374436063A33DA110B6A30C153DA8B702A2AE479C1A7C4BBD47A9BB322B2294E5251B6428DEACEB4D967C57AD8AEC407E55A908656345D8120C03C2649D55AB980DA6AE032BB8910E548748A0ACA0E614F64AE2F16B6FD2947B37
310
E0D64FDF76830C0ABF1EED3523EABC82C1F2D82A0CC45724E37B37DCE8EBE816EAEF0427C7545FD59ACD0A10105391BCE4C4AAE8F31ACA1B5BA3B9E11D9262FBC164DDEAFA79ED41F72318C31AA85DEA856B0574869944AA32B95337F4770421B845C38CAF554E3D87CA4D92E8AA11D1F7A44F9DAD32A2B56946BCE21EB33C
310
831FDB1216D332C15B948887E84ED2684314EB564A2F2315C62F0AF8DB874D071E181920D22755E0E1AF9DB57674A9CAA59344E47D99ED182210045BA2A546375EC152AB914ACBF5559D29A0EE0203B32A9EFF7FB268B623FE3F59A4D630BEE964717BF8051D9A7D91463A8F955D9F750CA8F393A2F216C700DD76A8A9D659
310
C424732BBF75A608826215E507576355D03004FB38FED759BB2F0B9AED3AFC9F97B5FD6715C75959A5355975A94E54AEEB660E9BAE56F37717D3E9E8D65F5C8EE6EF16ABD1CDE564315A2EE6CB1F6737939BE96A59A3A91D350CEA60A673173C9BA0560DAB278B017465454E4902A7F9C44931C47C0967FA01ED739E6101C9
310
B3D9EC4E6C537EC0EA47D3E794684771C5C93D8206311590D601A33296ED71E73B684D4A38685FBBD034F21EE0CF5AA5EB40E6B976A15520498C85B78336936AE869E2907275EEB7C4001FC4529512CDA2FAB95EA5B06985FF7ACA903460E56AF530A0702BA0FBD5EA5068DE2C4FF1598257EC3848C2EDAE9450AD19598E03
310
B5307A9BA3FA8D6C94B007BBF513B8EECB62F99E9ED34264D02783178DC0501D49C453DDEF568C59966E569FC6D06773D6BF39052D53D0E5704A238EC1984B555081158155589A059260AACB9FB69F780E9F7832475745CEF74F97173F6C977996E5CC0C6D6FE05496C0872267730F9F7D922D140F5835D7C5763AF1A75BDD
310
D4B67DF6688704F6545504035531A104E9981CD8E5B306956D5F8E952A3AD3D72BC706516806183B7AD6E3351FB91CF021F53945798CF6F34ADA17FBDA633D156C8243473AFC07504B03041400060800005770AA42000000000000000000000000350000006662782F45433932343733412D433433302D343236382D414442
310
452D4543313037423946444236322F76657274696365732E62696E504B03041400060808005770AA42F270F1330600000004000000360000006662782F45433932343733412D433433302D343236382D414442452D4543313037423946444236322F747269616E676C65732E62696E636660600000504B0304140006080000
310
5770AA42000000000000000000000000370000006662782F45433932343733412D433433302D343236382D414442452D4543313037423946444236322F617474726962757465732E62696E504B03041400060808005770AA42D5987DFC8F00000041010000360000006662782F45433932343733412D433433302D34323638
310
2D414442452D4543313037423946444236322F6469726563746F72792E786D6C858F410EC2201045AF4266AF15DDB800BA74E7C21B903225242D6328188F2FA5C4183471359997F9FF81E89FF3C41E1816475E02DF1F80A11FC8386F25A438EECEC07A250251FC3803E6F58C12560C4AD840E95E91C151A72936F496F35732
310
D860FE635F62C8F2DA16B505C545B74125BAA2FA9E05D7CC053D063734D5C7665FD55B6B8D15D5E9BFEAFD8490FFA45E504B03041400060808005770AA42BDF3A96EFF000000A00100003B0000006662782F45433932343733412D433433302D343236382D414442452D4543313037423946444236322F7265736F75726365
310
732F636F72652E786D6C8D50596E833010BD0A9ADFCA60036952641C918513F4029699502BC18EBC543D7EED844AED5F7F66466FD13C3DBEFF5A6EC5273AAFADE98195140A34CA4EDACC3DC470213B28F6823B6BC32F1914462ED8438641F0D9D9785F21654D4013126AEC842B28BDC70085BAA5A307AF3E7091A58C2129FC
310
B5BC4B75953396AC4C74D209EE834B018AE7933C4138F4363A859E574F56F018F5B46AF4947EEA8B4607E240CFC3B91D07B21D9B91B4EDF04ADEDA1D236C3C1D8EC7FA341CD98E57D92C78D0CB4F46E550069C40D49435846E08A3EFACED68DDB5DB17BAE91ACAAB2CFF638AF7E99FA6A84D68EA35EED3E641B014E441085E
310
E5BED27A949976EE567C03504B010214000A00000800005770AA423DEE336E79000000790000001B00000000000000000000000000000000006175746F6465736B2D64657369676E2D7061636B6167652E786D6C504B010214001400060808005770AA42D486FD9CA0000000F40000001300000000000000000000000000B2
310
0000005B436F6E74656E745F54797065735D2E786D6C504B010214001400060808005770AA42D519F45FEC0000007C010000080000000000000000000000000083010000636F72652E786D6C504B010214001400060808005770AA4255019EA25F0000007C000000070000000000000000000000000095020000636E782E78
310
6D6C504B010214001400060808005770AA42DA8810A768010000020300000C00000000000000000000000000190300006662782F636F72652E786D6C504B010214001400060808005770AA42D5E292787E0000009D0000000B00000000000000000000000000AB0400006662782F636E782E786D6C504B0102140014000608
310
08005770AA4258FFFCEE2D010000150200003100000000000000000000000000520500006662782F45433932343733412D433433302D343236382D414442452D4543313037423946444236322F636F72652E786D6C504B010214001400060808005770AA428AE2018356010000330300003000000000000000000000000000
310
CE0600006662782F45433932343733412D433433302D343236382D414442452D4543313037423946444236322F636E782E786D6C504B010214001400060808005770AA4204816EEC630700009A1B00003400000000000000000000000000720800006662782F45433932343733412D433433302D343236382D414442452D45
310
43313037423946444236322F6F626A656374732E786D6C504B010214001400060800005770AA420000000000000000000000003500000000000000000000000000271000006662782F45433932343733412D433433302D343236382D414442452D4543313037423946444236322F76657274696365732E62696E504B010214
310
001400060808005770AA42F270F133060000000400000036000000000000000000000000007A1000006662782F45433932343733412D433433302D343236382D414442452D4543313037423946444236322F747269616E676C65732E62696E504B010214001400060800005770AA4200000000000000000000000037000000
310
00000000000000000000D41000006662782F45433932343733412D433433302D343236382D414442452D4543313037423946444236322F617474726962757465732E62696E504B010214001400060808005770AA42D5987DFC8F000000410100003600000000000000000000000000291100006662782F4543393234373341
310
2D433433302D343236382D414442452D4543313037423946444236322F6469726563746F72792E786D6C504B010214001400060808005770AA42BDF3A96EFF000000A00100003B000000000000000000000000000C1200006662782F45433932343733412D433433302D343236382D414442452D4543313037423946444236
310
322F7265736F75726365732F636F72652E786D6C504B0506000000000E000E0080040000641300000000
  0
XRECORD
  5
17
102
{ACAD_REACTORS
330
12
102
}
330
12
100
AcDbXrecord
280
     1
270
     1
271
     1
  0
XRECORD
  5
16
102
{ACAD_REACTORS
330
12
102
}
330
12
100
AcDbXrecord
280
     1
270
     1
271
     1
  0
XRECORD
  5
18
102
{ACAD_REACTORS
330
12
102
}
330
12
100
AcDbXrecord
280
     1
270
     1
271
     1
  0
XRECORD
  5
15
102
{ACAD_REACTORS
330
12
102
}
330
12
100
AcDbXrecord
280
     1
270
     1
271
     1
  0
XRECORD
  5
1550
102
{ACAD_REACTORS
330
22
102
}
330
22
100
AcDbXrecord
280
     1
102
MATERIAL
148
0.0
149
0.0
149
0.0
 93
        0
 94
      127
282
     0
 72
     0
 77
     0
171
     0
175
     0
179
     0
273
     0
  0
XRECORD
  5
24
102
{ACAD_REACTORS
330
22
102
}
330
22
100
AcDbXrecord
280
     1
270
     1
271
     1
  0
XRECORD
  5
23
102
{ACAD_REACTORS
330
22
102
}
330
22
100
AcDbXrecord
280
     1
270
     1
271
     1
  0
XRECORD
  5
BA
102
{ACAD_REACTORS
330
22
102
}
330
22
100
AcDbXrecord
280
     1
 70
     1
 90
1959938040
 71
     1
  1
C65608E4-0037-4D5A-951F-166B291D04B7
311
504B03040A00000800005670AA423DEE336E79000000790000001B0000006175746F6465736B2D64657369676E2D7061636B6167652E786D6C3C3F786D6C2076657273696F6E3D22312E302220656E636F64696E673D227574662D3822203F3E3C666F726D6174733E3C666F726D61743E687474703A2F2F736368656D612E
311
6175746F6465736B2E636F6D2F64657369676E2D7061636B6167652F323030393C2F666F726D61743E3C2F666F726D6174733E504B03041400060808005670AA42D486FD9CA0000000F4000000130000005B436F6E74656E745F54797065735D2E786D6C7D8EC10E82300C865F65E91D8A1E8C310C0EEA1BF002731658846E
311
D98AC1B77784ABF1D8FE5FBFBF75BBCE937A534CCEB38643598122B6FEE978D0B0485F9C41B54DDD7D022595594E1A469170414C76A4D9A4D207E29CF43ECE46F218070CC6BECC4078ACAA135ACF422C856C0E68EA1BF5669944DDD7BCDE7B1F8E415D77AECB980613C2E4AC91FC167A2B244592486606FC29C8FD7F045B9A
311
EF7053A7E60B504B03041400060808005670AA42B5D06F76EA0000007C01000008000000636F72652E786D6C8D904D6EC3201085AF82665BE1F0635BAE858952C53D412F8080B828315806AA1EBF3871A476D7D58CDEBC6F66F4C4F17BBEA12FBB4617FC00B42280ACD7C1383F0D90D30577808E52AC21A45F36405ECD7680
311
4D0629A635E4659774F0C9FA54541F8CDD4515A34D80F4AD340344FD696755A99C8A235EAB45E9AB9A6C459F5D817376063D8E3853F6B98BB32BC8761C4FE7B7538B477A1E71DDB10E774DC370D772FEFACEEA9613220E1B2C4572F3F3BE5EAD4AD6806484724C1A4CC907AD7BC2FABA79214DCF0BB4D9FF407931FF84B2F3
311
89B3FDDD071641D2F2C87D20C561CBA2947B50A56EB9C91F504B03041400060808005670AA4255019EA25F0000007C00000007000000636E782E786D6C4DCB3B0E80201045D1AD90E915ED2CF8AC45050C11660C8261F98AB1B07AC9C97D42D718D865D3E909258CFD00CCE24AC6E326A164D74DC0B4128928FF326038472B
311
A13128B1252AC747C6BAB984FC68F0B87FE8960A5C09FE86CFB69FBA01504B03041400060808005670AA426F715E0D66010000020300000C0000006662782F636F72652E786D6C8D525B6E833010BC8AE5DF0A304FD1C8384A157A825EC0310E45011BF98172FC2E8F284D15451592B16676766707E8FE3AF46892C6765A55
311
380E09465209DD74AAADB077E7A0C468CFA8D1DAFD2AC348F14156788631A3ADD17EDC20A19593CA01AA742337905B2B1D46A2874B85ADF896030FB97750612FE1C8C585B7328C43A0A18E51EB0C1840EB90F9C4EC7CBAD268C519F5BE6B36B66B605A77EEA4C1ACA8EBC3F1E35004757CAC83AC4CCAA0CCF324288B347DFF
311
4CB222258446B39851D70D3777C248EE64835942E23420791093AF38DB916497E56F24DFA5209ACB1F447E6CFE29F29D7269B2D95D6516B3188C2CC49F6D2122872C9FC04FC468348708AF25E1C7A0211008D9F1537FDBE302D02485D32603A6D1FE4E4DBCF712A612B43C345A59E8BC3480CD9EF6495EF479DD033E20572D
311
58E30EAE27EFE6E9749DBA45314A134CEE8A943603EFEFE6568BF7F33EE8A95CE85E9BFFA8A36DD5680B339AFF5EF603504B03041400060808005670AA42621B2CC27E0000009D0000000B0000006662782F636E782E786D6C4DCCD10A83201886E15B91FFFC5FCA645BA04699DD472C0B99E9703A76F9ABD1C18E3E78F878
311
45F3593D79DBF472314860270AC4867B9C5C5824943CE30D48A3448A31FFDD808471B5127606259614CBF3A0C9CE63F17953EFC2E340A3B966A63778D59A22AF5B831D6B3BA4BCD7FC72666CA807A894A87EA56DF7B0FA02504B03041400060808005670AA420B660DB22D01000015020000310000006662782F4543344331
311
4544452D374343302D343941452D423141422D3034444334363331314639462F636F72652E786D6C8D515B6EC32010BC8AC557AA0A1B62EC3C848912C739412F4030495062B07854397EA176A4F62F3F2C9A9D991DEDD2DD737864DFD23A657403708E4026B530BDD2D706047F816B90ED18B5C6F83F3490693EC806241830
311
7AB5268C33248CF652FB886AD3CB19E4CE490F32F1889F0638719303CF79F091E1EEF9C8C59D5F658EF3D88E3C469DB73140360D492F605D4B5ADC1D3BB86A5B04C966DFC103DE1F2022C796D425C6A7CD89169390D110543FCB551FE3A88B92F65D932466D4ABE1155F58C9BDEC015B225C4254418CBE30D9A2E596549FA8
311
DA96881689FE4F14C6FE4D5150DA97CB39EE247380615A4C0D467B13CE8F5718F91C8DF5599AB770527C00867284D6355AE192D062E2C60D44D39ACCA6CE1B1B37BCB89F231D5793734D182DD29162F9BD60ACE9A0EC07504B03041400060808005670AA42EE6FC6774E01000033030000300000006662782F454334433145
311
44452D374343302D343941452D423141422D3034444334363331314639462F636E782E786D6CD593CD6E022114855F85B06DE64F47D31806932EFA045D74CBC055510626FC34F5ED7B51B46E5C74D90D999C7B38E7E60BC3B6DF93215FE0837676A05DDD5202563AA5ED7EA029EEAA574AB69C79E7E2838D122B2618689629
311
677BEFD25C24053B914C44D5687B2AA287E092971050CE37897152180C005B2514611A412950E46EC4AF1D785C05C5F14CE201C8FBDB2771E311640CACC9299C35B983B37C96A6071325D28810061AE40126518B149D8270AA9588A2EEEA5BD7939D7E9348BE70AB4C5E935C3ED07C525E36AA91236B70C859881EE915533C
311
CF40B99867A3A58808B9B918AF1ECE92B671DD17AF46F01EDDDD7AD9F71876997116F504C5213D88088AF245DB2DAB765575ED47D76FDAC5A65FBDB4ABCDB2654DB673363A67CA258C01EF66229D8D6023E51D6BF2F819BEE2234A7B64EDFCF90F20114069BDD2B967FC673ECDE57D232E8F7F01FF01504B03041400060808
311
005670AA42CBA41A47A505000080100000340000006662782F45433443314544452D374343302D343941452D423141422D3034444334363331314639462F6F626A656374732E786D6CAD57DB6EDB3810FD1541FBB2FBE08B6CC74D168A8AC46E0AA3485BD468B10F060C4AA2146E285120A9D4D9AFDF43899225C74EBC8BBE
311
5816351CCE9C3973A1FF7E9771E7894AC5447EED7AC3B1EBD03C1231CBD36BB7D4C9E0D275DE07BE144277C45C272719BD76CDB21BF8A914656197629A9092EB83D5BBDBBF1C15D19CBA4EC48952D7AE8A1E684686A4D422A6EA7118134D8669B21B7AC35AB0AF3695A47838505A1049730D4BB19E438B531BE5F55FC7EE28
311
F047E67BE09B5F2B353D2D35AAFCE99FCF72A5491EBD38EC40CDD49B2D3F4C2EAE0617B3D974309B4FBCC1EDDDED72E0BD9B8E17F3C5E2EAE6C3150E565A4293B544D2C40D3E021BC9227F547F0AFC92E57A3AB122364023499F9889941B4C1CCF1FD532AD77D6C963E64722CF69546105342AFFACEA9816348F117346152C
311
EB2034EEBF7A06C7CEE7A979B7477697CF43A0BBA3A3A8B1BD79762D15E1DF70419DC320A9A861608DA575B4E6EA788F702804B7DF987232A2A964843B9C8592C8673780A81109FC9E1AC36469B2C178E0068842FDB94F17A4D1DB3C3F666552726E68EC0655166C912B54ABCA32F60F957BEBBBC8C026C4CAB0E1D23AA49F
311
0BEA065735452E0FD85403E9249CA40839DC343BA793034717264F574B37F87417EED626778F1F5E485150A90D7D40AD2670CDD3A0646DF2CE8A9CD9E01E98B207E51B90FF8C54DF9B82B849B69BED66F6142D49AE122133C4C6193B83317EC68E57FD9AFF9D7FFEA8DDDC8FDE293C116C03D52FC0B3EF4337961D3803FF09
311
8417726A5D5B4784A36CDCB31C001992385C6009753809776EB042954355C62EC2030F2EC3DC27FCF547560D0A457552E79903CB83B2784681066C152361464D7E6BE03E4E2FCA5975B0153B05EFC52FA1EBCD72FD695DCA8444F4DEE6F492262C671A2D6ECF9BAE413DCC7B1E3DD2E79F42C670F425DEEB2EDE993D4A016D
311
83B9013E6D6ABA79D99FDC3B20C2BE549872E3BF71029C308DB5A3FF9EA988724E722ACAE6DC57FB07DA460DB14976C3E4B6C1EC1B0B48537F39C84134E948B2C280D876ABB6680E4F78F77DF5198C843C1721E17BA1705F7A23C185DC86CFDBBA2A1D45FA479FDA168291D102B65739D2A4BFC57C1BB32429156AE011587F
311
AC16DDD099AA800AD168AD936506F7915B445ACE367AD1AC25412315F996A16D22ED8E1ED0D50F442D012A85A72C5694275BC679996D13C6D18CB619294EC0F1FFED0FCBACD8924C94B93EA1BB673A9A43DFF61E79D54FA2A307375857CFC12D4A6F4CE37D987BC2A6951CC1AA17DAC5FC623EBEFC301B8CC7D37783D9F2E2
311
667075E1DD0DBCF9FC7672E52DC7B3DB774D9C6AE581DF749A6E42234AE86C7E29990DDFF715D2C7D60037B8275A6D3ED6D9D93CBFAF861885FD11F6A05DB61B6FE2278C7D347E5BC15EF2A8A25556709AD15C139342F7E60FFF463066F48CA9D7571949E9195ABE7C5C1F38839533F67D35E94E7F1EECB5AB0B93904795E8
311
87320B73C2F8C1C6B4467258E4A9C5AF8949FBACFB4CF36ADE6C6030982AC1598C32183B291519D5288667F420995105EA7547FAD85E3DCED8FD540F889A849C36963C10CCC85C212D40AD32D2FD75E737CC7466ACBA76D16D878FF8B195C275C0996B1733BA661155C310FDD94C42957270A93BC863EE2779CA316AD79BDA
311
F77697C1A6D7915B9173C627EB575DC1AD03282305C606CC43884E654CE057B6D9EFD17F72BC31C7211A7FC352B7BEEC175A67AA6390A2B553F6B28019E6D11EBD43A2BEEE9637AC647A889C75C97A9504B5D6812632AD2E0AC63E6BD2CDF2EB08038AB3FAE214BC4C11CBF3350D2405994B93E06011586175164483AA8B3F
311
375FA5C0453673EE1828E0FCBEBB9CFFB159882C1379BDB4B9B1D76167FD80CB6DBC4171A0E656A23693B137D954B7017B41D98644D12189D523161059C95AA07BE1072FEB2B23FA50FDA1951B99501C3074B5746C639B41A9A54BB7B61A703077E4D4410E991BA5C998AE40F1EA85605489C20489513EF817504B03041400
311
060800005670AA42000000000000000000000000350000006662782F45433443314544452D374343302D343941452D423141422D3034444334363331314639462F76657274696365732E62696E504B03041400060808005670AA42F270F1330600000004000000360000006662782F45433443314544452D374343302D3439
311
41452D423141422D3034444334363331314639462F747269616E676C65732E62696E636660600000504B03041400060800005670AA42000000000000000000000000370000006662782F45433443314544452D374343302D343941452D423141422D3034444334363331314639462F617474726962757465732E62696E504B
311
03041400060808005670AA42D5987DFC8F00000041010000360000006662782F45433443314544452D374343302D343941452D423141422D3034444334363331314639462F6469726563746F72792E786D6C858F410EC2201045AF4266AF15DDB800BA74E7C21B903225242D6328188F2FA5C4183471359997F9FF81E89FF3
311
C41E1816475E02DF1F80A11FC8386F25A438EECEC07A250251FC3803E6F58C12560C4AD840E95E91C151A72936F496F35732D860FE635F62C8F2DA16B505C545B74125BAA2FA9E05D7CC053D063734D5C7665FD55B6B8D15D5E9BFEAFD8490FFA45E504B03041400060808005670AA42DD3A3247FC000000A00100003B0000
311
006662782F45433443314544452D374343302D343941452D423141422D3034444334363331314639462F7265736F75726365732F636F72652E786D6C8D50596AC33010BD8A99DF225BF2866B648594B827E805843C714462C968293D7EE5D885F6AF3F33C35B98C7E3A7AFE5917DA2F3DA9A01584E2143A3ECA4CD3C400C57
311
D2417612DC591B7EC9203372C1013618049F9D8DEB01296B029A905063273C40E93D06C8D4231D037875C345E63286A4F0F77C95EA2E67CC599EE8A413DC07970264FB936D8270E86D740A3D2F7656F018F57468F4947EEAAB4607A21DC7F3E5EDDC90915D4652776547BAA62949D756D5EB7B59B715A5BCD8CC8207BDFC64
311
540E65C00944495945684318FD60754FCBBE6E5E68D357C9B4C9FF98E23AFDD314B5095579C4DD6D1E044B419E84E0C5D6575ACF32D3DEBA15DF504B010214000A00000800005670AA423DEE336E79000000790000001B00000000000000000000000000000000006175746F6465736B2D64657369676E2D7061636B616765
311
2E786D6C504B010214001400060808005670AA42D486FD9CA0000000F40000001300000000000000000000000000B20000005B436F6E74656E745F54797065735D2E786D6C504B010214001400060808005670AA42B5D06F76EA0000007C010000080000000000000000000000000083010000636F72652E786D6C504B0102
311
14001400060808005670AA4255019EA25F0000007C000000070000000000000000000000000093020000636E782E786D6C504B010214001400060808005670AA426F715E0D66010000020300000C00000000000000000000000000170300006662782F636F72652E786D6C504B010214001400060808005670AA42621B2CC2
311
7E0000009D0000000B00000000000000000000000000A70400006662782F636E782E786D6C504B010214001400060808005670AA420B660DB22D0100001502000031000000000000000000000000004E0500006662782F45433443314544452D374343302D343941452D423141422D3034444334363331314639462F636F72
311
652E786D6C504B010214001400060808005670AA42EE6FC6774E010000330300003000000000000000000000000000CA0600006662782F45433443314544452D374343302D343941452D423141422D3034444334363331314639462F636E782E786D6C504B010214001400060808005670AA42CBA41A47A505000080100000
311
3400000000000000000000000000660800006662782F45433443314544452D374343302D343941452D423141422D3034444334363331314639462F6F626A656374732E786D6C504B010214001400060800005670AA4200000000000000000000000035000000000000000000000000005D0E00006662782F45433443314544
311
452D374343302D343941452D423141422D3034444334363331314639462F76657274696365732E62696E504B010214001400060808005670AA42F270F13306000000040000003600000000000000000000000000B00E00006662782F45433443314544452D374343302D343941452D423141422D3034444334363331314639
311
462F747269616E676C65732E62696E504B010214001400060800005670AA4200000000000000000000000037000000000000000000000000000A0F00006662782F45433443314544452D374343302D343941452D423141422D3034444334363331314639462F617474726962757465732E62696E504B010214001400060808
311
005670AA42D5987DFC8F0000004101000036000000000000000000000000005F0F00006662782F45433443314544452D374343302D343941452D423141422D3034444334363331314639462F6469726563746F72792E786D6C504B010214001400060808005670AA42DD3A3247FC000000A00100003B000000000000000000
311
00000000421000006662782F45433443314544452D374343302D343941452D423141422D3034444334363331314639462F7265736F75726365732F636F72652E786D6C504B0506000000000E000E0080040000971100000000
310
504B03040A00000800005670AA423DEE336E79000000790000001B0000006175746F6465736B2D64657369676E2D7061636B6167652E786D6C3C3F786D6C2076657273696F6E3D22312E302220656E636F64696E673D227574662D3822203F3E3C666F726D6174733E3C666F726D61743E687474703A2F2F736368656D612E
310
6175746F6465736B2E636F6D2F64657369676E2D7061636B6167652F323030393C2F666F726D61743E3C2F666F726D6174733E504B03041400060808005670AA42D486FD9CA0000000F4000000130000005B436F6E74656E745F54797065735D2E786D6C7D8EC10E82300C865F65E91D8A1E8C310C0EEA1BF002731658846E
310
D98AC1B77784ABF1D8FE5FBFBF75BBCE937A534CCEB38643598122B6FEE978D0B0485F9C41B54DDD7D022595594E1A469170414C76A4D9A4D207E29CF43ECE46F218070CC6BECC4078ACAA135ACF422C856C0E68EA1BF5669944DDD7BCDE7B1F8E415D77AECB980613C2E4AC91FC167A2B244592486606FC29C8FD7F045B9A
310
EF7053A7E60B504B03041400060808005670AA42B0F60A67EB0000007C01000008000000636F72652E786D6C8D904D6EC3201085AF82D856D8FCD82EB13051D3FA06BD0002E2A0C46019A87AFCE2C491DA5D57337AF3BE99D113C7EFF906BEEC1A5DF003241586C07A1D8CF3D300733A230EC1518A3584F4CB068157B31DE0
310
264329A635E4659774F0C9FA54541F8CDD4515A34D10E85B690618F5C5CEAA52391547BC568BD25735D98A3CBB02E7EC0C781C71A6EC7367675728BB8E8DEF1D1DD12BE7236A3E30419C328E3839358C1DDEC6C3898A7A83A5486E7EDED7AB55C91A2829260CE11611FC499A1ED3BE695F70DB332CEACDFE07CA8BF927949D
310
4F8CEEEF3EB00825298FDC0752D45B16A5DC832A75CB4DFE00504B03041400060808005670AA4255019EA25F0000007C00000007000000636E782E786D6C4DCB3B0E80201045D1AD90E915ED2CF8AC45050C11660C8261F98AB1B07AC9C97D42D718D865D3E909258CFD00CCE24AC6E326A164D74DC0B4128928FF32603847
310
2BA13128B1252AC747C6BAB984FC68F0B87FE8960A5C09FE86CFB69FBA01504B03041400060808005670AA421FF87F1467010000020300000C0000006662782F636F72652E786D6C8D525B6E833010BC8AE5DFCAD83C9292C8386A5A6ED00B38E05014B091B1518EDFE511D154511421196B66677776801FAE6D830665FBDA
310
E80C8701C348E9C294B5AE32ECDD99A4181D04B7C6B83F651869D9AA0C8F3016BCB2C6770B5418ED9476806A53AA05947DAF1C464503970CF7C58F6A6520BD838AFE1274B2B8C84A05610034D409DE3B0B06D03C643CB1389FAE9CCEB8E0DED7E5C2D6254CABCFB5B2586CB771FEB98D72F29EA63949BE5848D2284E491A1E
310
9338DE7DE4BB63C4E92816DCD5EDCD5D619574AAC42262614CD88684EC3B4CF62CDA279B37B6D9C78CD3B1FC4EE4BBF24591AFB58BA3C5EE2CEBB108C1C844FCDB162272A89703F8A182D33144784D09DF070D8140C84E9E9ADB1E17800655386313604AE3576A908D573095A1E9E17466A1F3D400367BD8277AD2E7790FF8
310
805257604D3AB89EBC1BA7F379EA1245A72C19DC1569635BD9ACE6668BEBB90E7A282F4C63EC2B6ABAAC4A9730E9F8F78A5F504B03041400060808005670AA42DC54EDE57E0000009D0000000B0000006662782F636E782E786D6C4DCC4D0E83201845D1AD906F4EFD010B03C0080DFB30150DA94243A1E9F2AB8D838E5E72
310
F27245FFD956F476E9E56390D05C6A402EDCE3E4C322A1E4197340BD1229C6FC770314C6CD4938189458522CCF9326378F65CDBBAE3E3C4EA4E6A63BCE0C66B51E3065CD150FC4726C35B19D312D692D854A89EA57DAF708AB2F504B03041400060808005670AA4207F518342C01000014020000310000006662782F344344
310
42353837432D373042412D343731362D413346382D4642334635434332333246342F636F72652E786D6C8D515B6EC32010BC8AC557AACAF662E3C48D3051E2CA27E80528901425068B4795E317D78ED4FEE58745B333B3A35D7AB88FB7EC5B39AFADE9102E0065CA082BB5B974288673DEA2ECC0A8B336FCA1A1CCF0517568
310
8611A31767E3B442C29AA04C48A8B152AD20F75E0594895BFA74C88B2F35F282C79018FE5A4C5C5CF94515B848EDC463D407970264CB90F9458CF4EFA7A6DDF5F90E4EC79CECF0363FD6439B0FA77A68FABEAAAB81D07211321AA396AB5CCB14479FB572CF9ACC6246831E1FF185533C28895805B8CEA1C9317C60B2876A4F
310
9A5768F635D072A6FF13C5493E298ADA84BA5AE32E328F18A6E5D26054DAF8797B8451F7C9BA90CDF3365E8917C4A0000CF006D0D272A1A60524CF2D593D7DB02E2D7873FD4CEC7A35DE1246CBF946A9FC1E30D5F99EEC07504B03041400060808005670AA4288C809605601000033030000300000006662782F3443444235
310
3837432D373042412D343731362D413346382D4642334635434332333246342F636E782E786D6CBD93CD6E022114855F85B06DE6CF198D310C265DF409BAE816E16AA90C4CF869EADBF7A268DDB868D2744326E71ECEB9F9C2B0EDD764C827F8A09D1D6957B79480954E697B18698AFB6A4DC99633EF5CBCB35162C50423CD
310
32E5ECE05D9A8BA4602F9289A81A6D8F45F4105CF21202CAF926314E0A830160AB84224C3B500A14B919F16B0F1E5741717722F11DC8CBF31B71BB0F9031B026A770D6E40ECEF2599AEE4C94482342186990EF30895AA4E8148463AD441475575FBB1EECF49344F2856B65F29AE4F291E693F2B2518D1C598343CE42F448AF
310
98E26906CAC53C1B2D4544C8CDD978F17096B48DABA1783582F7E8EE17ABF51AC3CE33CEA29EA038A407114151BE68BBBE6A9755D7BE76C3A65D6C86E553BBDCF42D6BB29DB39D73A65CC218F06E26D2D9083652DEB1268F1FE12B3EA2B447D6CE9F7E01120194D60B9D5BC65FF2E956FD30FC239FE6FCBE1197C7BF807F03
310
504B03041400060808005670AA4204A42E6E61070000991B0000340000006662782F34434442353837432D373042412D343731362D413346382D4642334635434332333246342F6F626A656374732E786D6CED59DD73A33610FF5718FAD23E18436CE7920EA193D8971BCF4DDA9BBAD7E98367181964A246084612B9A47F7D
310
571F602026C16DFAD6071B10D26AF7B79F5AC29F9E72EA3C622E48C1AEDCC0F35D07B3A44809CBAEDC4AEE2717AEF35314F2A290AD69AEC3508EAF5C35EC4661C68BAAB44329DEA38ACADEE8EDCD1F8E4830C3AE935024C4952B927B9C230F55B248B178F052249197ED9FBCC03313BB64338ECAFB1ED11271CC24700AE30C
310
A83886A9A0FBE8BBD3289CAAF751A8FEEDACD9A859F3E159532D75974BC284442C79C1528FCC6C144BB360BEFA78B6B89C2CE6F3D9647E7E164C6E6E6F5693E0C3CC5F9E2F9797D71F2F81BD5D51502B538A4BCC52D0DFB31B05E154BD6944B7081CE33A2918C3890612A0D262F509122C60AB167C7EF7315012B55E6B095B
310
CF73F5DEB2D01A9E75A90CCD1A0744872E0862B7AB25AEAF6DF98ADD9F20B81863945C6009DC0AC941BB161E0E5EE1467E3835A351B83BE882082747127382A843C98E230E4A81A96A4A149A05968C720E0EA41C2581D69C79DDB52DF0CCB75DE71897FB8A52E5196EA41D2B06F7C35268CEC85F981FB86F23033C81B41561
310
F2C272299F4BEC4697E1540F46A1BACCCEEC4B03A4B3A728131A11F3B627E852B9FE7AE5469F6F774F1B150E8E6F5EF2A2C45C2AA3537AD47C8121DBAB42C96E1B8CD29C5A00C21850EDCA0328BF02F23F43F438B0027AE3E469FE34B77325474CEC0B9E836E1CDF99F8F0E73B81FE57F7ADBB70DA2CEE6A6F084F705305D5
310
C5BFC7B32B83C6CAF2DF82330A1FC1E00B3EB3AF3609A260CF77840140CA481C5AC01084F6FDEEC98DD6103821D0C32A44A3004406761FE1369C5A3207ADD4EE65BD8E01A2768FD91825016CDA22818D013D7D82ECC1497250535BC4217817EF62AED7ABCDE74DC5F728C177D6A757784F189190358F33D4C1BC23D1037EFE
310
56F014047D89F7A68D776EB71280B6C25C019FD520A887C3CE9D0D125897152ADC846FEC0042A85CDDA27F47448229450C1755BD6F13DD94A1361E6F6B06373A3310CFCE7A26CCF12351550538CD61468751C8FB0927A502D18D3E19C99AA0E90D48F775FD335864337F60D69A41E86588FEA683D6111C3A965D236D816804
310
DE1DC27952D082C7BBE7D8443A176A0960A3EB2DBF778842AC374A5254C083B4DFD5212533D2C629D9EF2B0171F5088BBFAF976D73F0BD59B070DAFF3D679C43B405DF45DCFA5D6F8F98E428C3F11EA543DBB5776B680B4D728034C77B0A729147229F6324633FC5D929D09C44FCF25DA967B41082302C205F1D05BF8D86EF
310
412031DAAC59565AED014D449C6389E82908283203E0EAB4A36BDC044A87B7796CACF7358DB589FE4716C111D492058B0994A29043DE643CF0161043BAE81A947BF882B5D5B4B518B4821222798EBF6192DDCB535037E407704FE04852C9B8285102663D82EC0B5F514AEDF1BE43C983CA1F7152D1F7321081E93E26945679
310
0C3FC2E0E431C6B59BC0F42A0A2DE226F6499C43518664C5C76C72BEF05FEC636A867E086C6DB42714C2769CA37200F54E40D4F588D3806FA90F287557E5658CF2A262A30CC59BF5BDC992EFAB55911DC9AF2A15A16CAC095B825148986CB26A1DB3C1D475600537D281EA3916282FA93985BD917882C69B34E5C10DB8F5D3
310
F7DD2087C26F407BED883AAF61B03C760A03F10DC9E4DE8D36FA3AB981FA3BC5E921D5D7B566BB0204C45424AF38B12AFABA86F2C6D6686E7487A4D87E3259B7BE7E5D7BD0FD08A7B0066A9766E15A019D632691AA4CEED40DFD154108EED030E36B95534FA1729DA6BA6A44F4960CA9B353467436CD8957DE6356E4F0635B
310
C2125AA5788B52F110DF491A6F8862DD4AE9E5A4C6F855017FF9B4E9C103232344FAA20A3CFCADB7D68E2E55B9749488BCAFF21D4304826047B4CCE8C62B596635526BB9B9AA3305D45D606056C5F3FF4F16ED76C4FF278BCC1AC6BF3B59D06287E821DAB4B279A2CCFAA45340939E1495F73805E8AE4343B5492226975BF1
310
AD2FC51013EB203FBA18AB63862138C4F13F4EDA4349D06CD7E3FFB4A41DBC28384E4A2A9DC9AA4975A4705DB753D8F27C71EE5F7C9C4F7C7FF661325F2DAE27978BE076129C9FDF9C5D062B7F7EF3A14153FB691436B14CA72E783631AD1E564F160368CA8A8292140EF3A9936108F9128EF423BAE73CC7027267BBD79DDA
310
9EFC88D58FA6CD29D18EE29A937B04FD612A20AB03465522BBE3CE77D0999470CEBE72A167E43DC09FB54AD781C473E542A74092040B6F075D26D5CFD3C421E3EAD46F89013E88652A239A45CD73B34A61D389FECD943159C0CAD5696140DD5642F3ABD3A0D0BC599E929304AFD9719084DB5D25A15833B21C061A61F43607
310
F51BD928610F76EB2770DDD7C50A3C3DA783C8A82F06AF1A81A13A918867BADDAD18B32C5DAFBE4CA1CDE6AC7F714A5A65A0CBF194261C833157AA9E022B02ABB0344B24C154973F6EBFF002BEF0E48E2E8A9CEF9F2ECE7FD82E8B3C2F9819DA5EC3A12C85EF44CEE61EBEFAA45BA81DB0EAAD8BED991F9C6D754FDBB6D9E3
310
1D12D85345110CD4B58412A4677260972FFA53B67B3955AAE84D5FAF1C1B44A11760ECE8458BD77CE372C087D4D714E531DACF6B695F6D6B4FF554B0090E0DE9E86F504B03041400060800005670AA42000000000000000000000000350000006662782F34434442353837432D373042412D343731362D413346382D464233
310
4635434332333246342F76657274696365732E62696E504B03041400060808005670AA42F270F1330600000004000000360000006662782F34434442353837432D373042412D343731362D413346382D4642334635434332333246342F747269616E676C65732E62696E636660600000504B03041400060800005670AA4200
310
0000000000000000000000370000006662782F34434442353837432D373042412D343731362D413346382D4642334635434332333246342F617474726962757465732E62696E504B03041400060808005670AA42D5987DFC8F00000041010000360000006662782F34434442353837432D373042412D343731362D41334638
310
2D4642334635434332333246342F6469726563746F72792E786D6C858F410EC2201045AF4266AF15DDB800BA74E7C21B903225242D6328188F2FA5C4183471359997F9FF81E89FF3C41E1816475E02DF1F80A11FC8386F25A438EECEC07A250251FC3803E6F58C12560C4AD840E95E91C151A72936F496F35732D860FE635F
310
62C8F2DA16B505C545B74125BAA2FA9E05D7CC053D063734D5C7665FD55B6B8D15D5E9BFEAFD8490FFA45E504B03041400060808005670AA42A35D24FFFE000000A00100003B0000006662782F34434442353837432D373042412D343731362D413346382D4642334635434332333246342F7265736F75726365732F636F72
310
652E786D6C8D50596EC23010BD4A34BF95132F8186C8312A851BF4029633040B62232F558F5F0752A9FDEBCFCCE82D9AA727F75FF3ADFAC410AD7703B09A4285CEF8D1BA69809CCEA4836AAF64F03EFD9241E5F48C032C302839059FEF2B64BC4BE852419D1F7105758C98A032B7720C10CD05675DEB9C8A225EEBBB36573D
310
61CDEA42179D92318512A07A3E5926A880D1E76030CAE6C92A99B31D578D1DCB4F7BB618406DB7E2F4BEE547F2DA7527D21E29231D171DE9D8A11562F776DA1DB86C16B392C9CE3F194D409D7004C52913846E08A31FACED29EFDBCD0BDDF482CA6691FF31E5FBF84F53B62E09BEC67DDA222856823C08259BA5AFB21E6596
310
BD74ABBE01504B010214000A00000800005670AA423DEE336E79000000790000001B00000000000000000000000000000000006175746F6465736B2D64657369676E2D7061636B6167652E786D6C504B010214001400060808005670AA42D486FD9CA0000000F40000001300000000000000000000000000B20000005B436F
310
6E74656E745F54797065735D2E786D6C504B010214001400060808005670AA42B0F60A67EB0000007C010000080000000000000000000000000083010000636F72652E786D6C504B010214001400060808005670AA4255019EA25F0000007C000000070000000000000000000000000094020000636E782E786D6C504B0102
310
14001400060808005670AA421FF87F1467010000020300000C00000000000000000000000000180300006662782F636F72652E786D6C504B010214001400060808005670AA42DC54EDE57E0000009D0000000B00000000000000000000000000A90400006662782F636E782E786D6C504B010214001400060808005670AA42
310
07F518342C010000140200003100000000000000000000000000500500006662782F34434442353837432D373042412D343731362D413346382D4642334635434332333246342F636F72652E786D6C504B010214001400060808005670AA4288C8096056010000330300003000000000000000000000000000CB0600006662
310
782F34434442353837432D373042412D343731362D413346382D4642334635434332333246342F636E782E786D6C504B010214001400060808005670AA4204A42E6E61070000991B000034000000000000000000000000006F0800006662782F34434442353837432D373042412D343731362D413346382D46423346354343
310
32333246342F6F626A656374732E786D6C504B010214001400060800005670AA420000000000000000000000003500000000000000000000000000221000006662782F34434442353837432D373042412D343731362D413346382D4642334635434332333246342F76657274696365732E62696E504B010214001400060808
310
005670AA42F270F13306000000040000003600000000000000000000000000751000006662782F34434442353837432D373042412D343731362D413346382D4642334635434332333246342F747269616E676C65732E62696E504B010214001400060800005670AA4200000000000000000000000037000000000000000000
310
00000000CF1000006662782F34434442353837432D373042412D343731362D413346382D4642334635434332333246342F617474726962757465732E62696E504B010214001400060808005670AA42D5987DFC8F000000410100003600000000000000000000000000241100006662782F34434442353837432D373042412D
310
343731362D413346382D4642334635434332333246342F6469726563746F72792E786D6C504B010214001400060808005670AA42A35D24FFFE000000A00100003B00000000000000000000000000071200006662782F34434442353837432D373042412D343731362D413346382D4642334635434332333246342F7265736F
310
75726365732F636F72652E786D6C504B0506000000000E000E00800400005E1300000000
  0
XRECORD
  5
27
102
{ACAD_REACTORS
330
22
102
}
330
22
100
AcDbXrecord
280
     1
270
     1
271
     1
  0
XRECORD
  5
26
102
{ACAD_REACTORS
330
22
102
}
330
22
100
AcDbXrecord
280
     1
270
     1
271
     1
  0
XRECORD
  5
28
102
{ACAD_REACTORS
330
22
102
}
330
22
100
AcDbXrecord
280
     1
270
     1
271
     1
  0
XRECORD
  5
25
102
{ACAD_REACTORS
330
22
102
}
330
22
100
AcDbXrecord
280
     1
270
     1
271
     1
  0
XRECORD
  5
154A
102
{ACAD_REACTORS
330
1549
102
}
330
1549
100
AcDbXrecord
280
     1
102
ACAD_ROUNDTRIP_2012_MLEADER_STYLE
298
     1
  0
CELLSTYLEMAP
  5
1548
102
{ACAD_REACTORS
330
1547
102
}
330
1547
100
AcDbCellStyleMap
 90
        3
300
CELLSTYLE
  1
TABLEFORMAT_BEGIN
 90
        5
170
     1
 91
        0
 92
    32768
 62
   257
 93
        1
300
CONTENTFORMAT
  1
CONTENTFORMAT_BEGIN
 90
        0
 91
        0
 92
      512
 93
        0
300

 40
0.0
140
1.0
 94
        5
 62
     0
340
55
144
0.25
309
CONTENTFORMAT_END
171
     0
 94
        0
309
TABLEFORMAT_END
  1
CELLSTYLE_BEGIN
 90
        1
 91
        1
300
_TITLE
309
CELLSTYLE_END
300
CELLSTYLE
  1
TABLEFORMAT_BEGIN
 90
        5
170
     1
 91
        0
 92
        0
 62
   257
 93
        1
300
CONTENTFORMAT
  1
CONTENTFORMAT_BEGIN
 90
        0
 91
        0
 92
      512
 93
        0
300

 40
0.0
140
1.0
 94
        5
 62
     0
340
55
144
0.18
309
CONTENTFORMAT_END
171
     0
 94
        0
309
TABLEFORMAT_END
  1
CELLSTYLE_BEGIN
 90
        2
 91
        1
300
_HEADER
309
CELLSTYLE_END
300
CELLSTYLE
  1
TABLEFORMAT_BEGIN
 90
        5
170
     1
 91
        0
 92
        0
 62
   257
 93
        1
300
CONTENTFORMAT
  1
CONTENTFORMAT_BEGIN
 90
        0
 91
        0
 92
      512
 93
        0
300

 40
0.0
140
1.0
 94
        2
 62
     0
340
55
144
0.18
309
CONTENTFORMAT_END
171
     0
 94
        0
309
TABLEFORMAT_END
  1
CELLSTYLE_BEGIN
 90
        3
 91
        2
300
_DATA
309
CELLSTYLE_END
  0
XRECORD
  5
1581
102
{ACAD_REACTORS
330
1547
102
}
330
1547
100
AcDbXrecord
280
     1
102
ACAD_ROUNDTRIP_PRE2007_TABLESTYLE
 90
      512
 91
        0
  1

 92
      512
 93
        0
  2

 94
      512
 95
        0
  3

  0
XRECORD
  5
155C
102
{ACAD_REACTORS
330
155B
102
}
330
155B
100
AcDbXrecord
280
     1
102
RTVSPropertyOp0
 70
     1
102
RTVSPropertyOp1
 70
     1
102
RTVSPropertyOp2
 70
     1
102
RTVSPropertyOp3
 70
     1
102
RTVSPropertyOp4
 70
     1
102
RTVSPropertyOp5
 70
     1
102
RTVSPropertyOp6
 70
     1
102
RTVSPropertyOp7
 70
     1
102
RTVSPropertyOp8
 70
     1
102
RTVSPropertyOp9
 70
     1
102
RTVSPropertyOp10
 70
     1
102
RTVSPropertyOp11
 70
     1
102
RTVSPropertyOp12
 70
     1
102
RTVSPropertyOp13
 70
     1
102
RTVSPropertyOp14
 70
     1
102
RTVSPropertyOp15
 70
     1
102
RTVSPropertyOp16
 70
     1
102
RTVSPropertyOp17
 70
     1
102
RTVSPropertyOp18
 70
     1
102
RTVSPropertyOp19
 70
     1
102
RTVSPropertyOp20
 70
     1
102
RTVSPropertyOp21
 70
     1
102
RTVSPropertyOp22
 70
     1
102
RTVSPropertyOp23
 70
     1
102
RTVSPropertyOp24
 70
     1
102
RTVSPropertyOp25
 70
     1
102
RTVSPropertyOp26
 70
     1
102
RTVSPropertyOp27
 70
     1
102
RTVSPropertyOp28
 70
     1
102
RTVSPropertyOp29
 70
     1
102
RTVSPropertyOp30
 70
     1
102
RTVSPropertyOp31
 70
     1
102
RTVSPropertyOp32
 70
     1
  0
XRECORD
  5
155A
102
{ACAD_REACTORS
330
1559
102
}
330
1559
100
AcDbXrecord
280
     1
102
RTVSPropertyOp0
 70
     1
102
RTVSPropertyOp1
 70
     1
102
RTVSPropertyOp2
 70
     1
102
RTVSPropertyOp3
 70
     1
102
RTVSPropertyOp4
 70
     1
102
RTVSPropertyOp5
 70
     1
102
RTVSPropertyOp6
 70
     1
102
RTVSPropertyOp7
 70
     1
102
RTVSPropertyOp8
 70
     1
102
RTVSPropertyOp9
 70
     1
102
RTVSPropertyOp10
 70
     1
102
RTVSPropertyOp11
 70
     1
102
RTVSPropertyOp12
 70
     1
102
RTVSPropertyOp13
 70
     1
102
RTVSPropertyOp14
 70
     1
102
RTVSPropertyOp15
 70
     1
102
RTVSPropertyOp16
 70
     1
102
RTVSPropertyOp17
 70
     1
102
RTVSPropertyOp18
 70
     1
102
RTVSPropertyOp19
 70
     1
102
RTVSPropertyOp20
 70
     1
102
RTVSPropertyOp21
 70
     1
102
RTVSPropertyOp22
 70
     1
102
RTVSPropertyOp23
 70
     1
102
RTVSPropertyOp24
 70
     1
102
RTVSPropertyOp25
 70
     1
102
RTVSPropertyOp26
 70
     1
102
RTVSPropertyOp27
 70
     1
102
RTVSPropertyOp28
 70
     1
102
RTVSPropertyOp29
 70
     1
102
RTVSPropertyOp30
 70
     1
102
RTVSPropertyOp31
 70
     1
102
RTVSPropertyOp32
 70
     1
  0
XRECORD
  5
1568
102
{ACAD_REACTORS
330
1567
102
}
330
1567
100
AcDbXrecord
280
     1
102
RTVSPropertyOp0
 70
     1
102
RTVSPropertyOp1
 70
     1
102
RTVSPropertyOp2
 70
     1
102
RTVSPropertyOp3
 70
     1
102
RTVSPropertyOp4
 70
     1
102
RTVSPropertyOp5
 70
     1
102
RTVSPropertyOp6
 70
     1
102
RTVSPropertyOp7
 70
     1
102
RTVSPropertyOp8
 70
     1
102
RTVSPropertyOp9
 70
     1
102
RTVSPropertyOp10
 70
     1
102
RTVSPropertyOp11
 70
     1
102
RTVSPropertyOp12
 70
     1
102
RTVSPropertyOp13
 70
     1
102
RTVSPropertyOp14
 70
     1
102
RTVSPropertyOp15
 70
     1
102
RTVSPropertyOp16
 70
     1
102
RTVSPropertyOp17
 70
     1
102
RTVSPropertyOp18
 70
     1
102
RTVSPropertyOp19
 70
     1
102
RTVSPropertyOp20
 70
     1
102
RTVSPropertyOp21
 70
     1
102
RTVSPropertyOp22
 70
     1
102
RTVSPropertyOp23
 70
     1
102
RTVSPropertyOp24
 70
     1
102
RTVSPropertyOp25
 70
     1
102
RTVSPropertyOp26
 70
     1
102
RTVSPropertyOp27
 70
     1
102
RTVSPropertyOp28
 70
     1
102
RTVSPropertyOp29
 70
     1
102
RTVSPropertyOp30
 70
     1
102
RTVSPropertyOp31
 70
     1
102
RTVSPropertyOp32
 70
     1
  0
XRECORD
  5
1570
102
{ACAD_REACTORS
330
156F
102
}
330
156F
100
AcDbXrecord
280
     1
102
RTVSPropertyOp0
 70
     1
102
RTVSPropertyOp1
 70
     1
102
RTVSPropertyOp2
 70
     1
102
RTVSPropertyOp3
 70
     1
102
RTVSPropertyOp4
 70
     1
102
RTVSPropertyOp5
 70
     1
102
RTVSPropertyOp6
 70
     1
102
RTVSPropertyOp7
 70
     1
102
RTVSPropertyOp8
 70
     1
102
RTVSPropertyOp9
 70
     1
102
RTVSPropertyOp10
 70
     1
102
RTVSPropertyOp11
 70
     1
102
RTVSPropertyOp12
 70
     1
102
RTVSPropertyOp13
 70
     1
102
RTVSPropertyOp14
 70
     1
102
RTVSPropertyOp15
 70
     1
102
RTVSPropertyOp16
 70
     1
102
RTVSPropertyOp17
 70
     1
102
RTVSPropertyOp18
 70
     1
102
RTVSPropertyOp19
 70
     1
102
RTVSPropertyOp20
 70
     1
102
RTVSPropertyOp21
 70
     1
102
RTVSPropertyOp22
 70
     1
102
RTVSPropertyOp23
 70
     1
102
RTVSPropertyOp24
 70
     1
102
RTVSPropertyOp25
 70
     1
102
RTVSPropertyOp26
 70
     1
102
RTVSPropertyOp27
 70
     1
102
RTVSPropertyOp28
 70
     1
102
RTVSPropertyOp29
 70
     1
102
RTVSPropertyOp30
 70
     1
102
RTVSPropertyOp31
 70
     1
102
RTVSPropertyOp32
 70
     1
  0
XRECORD
  5
1562
102
{ACAD_REACTORS
330
1561
102
}
330
1561
100
AcDbXrecord
280
     1
102
RTVSPropertyOp0
 70
     1
102
RTVSPropertyOp1
 70
     1
102
RTVSPropertyOp2
 70
     1
102
RTVSPropertyOp3
 70
     1
102
RTVSPropertyOp4
 70
     1
102
RTVSPropertyOp5
 70
     1
102
RTVSPropertyOp6
 70
     1
102
RTVSPropertyOp7
 70
     1
102
RTVSPropertyOp8
 70
     1
102
RTVSPropertyOp9
 70
     1
102
RTVSPropertyOp10
 70
     1
102
RTVSPropertyOp11
 70
     1
102
RTVSPropertyOp12
 70
     1
102
RTVSPropertyOp13
 70
     1
102
RTVSPropertyOp14
 70
     1
102
RTVSPropertyOp15
 70
     1
102
RTVSPropertyOp16
 70
     1
102
RTVSPropertyOp17
 70
     1
102
RTVSPropertyOp18
 70
     1
102
RTVSPropertyOp19
 70
     1
102
RTVSPropertyOp20
 70
     1
102
RTVSPropertyOp21
 70
     1
102
RTVSPropertyOp22
 70
     1
102
RTVSPropertyOp23
 70
     1
102
RTVSPropertyOp24
 70
     1
102
RTVSPropertyOp25
 70
     1
102
RTVSPropertyOp26
 70
     1
102
RTVSPropertyOp27
 70
     1
102
RTVSPropertyOp28
 70
     1
102
RTVSPropertyOp29
 70
     1
102
RTVSPropertyOp30
 70
     1
102
RTVSPropertyOp31
 70
     1
102
RTVSPropertyOp32
 70
     1
  0
XRECORD
  5
1566
102
{ACAD_REACTORS
330
1565
102
}
330
1565
100
AcDbXrecord
280
     1
102
RTVSPropertyOp0
 70
     1
102
RTVSPropertyOp1
 70
     1
102
RTVSPropertyOp2
 70
     1
102
RTVSPropertyOp3
 70
     1
102
RTVSPropertyOp4
 70
     1
102
RTVSPropertyOp5
 70
     1
102
RTVSPropertyOp6
 70
     1
102
RTVSPropertyOp7
 70
     1
102
RTVSPropertyOp8
 70
     1
102
RTVSPropertyOp9
 70
     1
102
RTVSPropertyOp10
 70
     1
102
RTVSPropertyOp11
 70
     1
102
RTVSPropertyOp12
 70
     1
102
RTVSPropertyOp13
 70
     1
102
RTVSPropertyOp14
 70
     1
102
RTVSPropertyOp15
 70
     1
102
RTVSPropertyOp16
 70
     1
102
RTVSPropertyOp17
 70
     1
102
RTVSPropertyOp18
 70
     1
102
RTVSPropertyOp19
 70
     1
102
RTVSPropertyOp20
 70
     1
102
RTVSPropertyOp21
 70
     1
102
RTVSPropertyOp22
 70
     1
102
RTVSPropertyOp23
 70
     1
102
RTVSPropertyOp24
 70
     1
102
RTVSPropertyOp25
 70
     1
102
RTVSPropertyOp26
 70
     1
102
RTVSPropertyOp27
 70
     1
102
RTVSPropertyOp28
 70
     1
102
RTVSPropertyOp29
 70
     1
102
RTVSPropertyOp30
 70
     1
102
RTVSPropertyOp31
 70
     1
102
RTVSPropertyOp32
 70
     1
  0
XRECORD
  5
1580
102
{ACAD_REACTORS
330
157F
102
}
330
157F
100
AcDbXrecord
280
     1
102
RTVSPropertyOp0
 70
     0
102
RTVSPropertyOp1
 70
     0
102
RTVSPropertyOp2
 70
     0
102
RTVSPropertyOp3
 70
     0
102
RTVSPropertyOp4
 70
     0
102
RTVSPropertyOp5
 70
     0
102
RTVSPropertyOp6
 70
     0
102
RTVSPropertyOp7
 70
     0
102
RTVSPropertyOp8
 70
     0
102
RTVSPropertyOp9
 70
     0
102
RTVSPropertyOp10
 70
     0
102
RTVSPropertyOp11
 70
     0
102
RTVSPropertyOp12
 70
     0
102
RTVSPropertyOp13
 70
     0
102
RTVSPropertyOp14
 70
     2
102
RTVSPropertyOp15
 70
     0
102
RTVSPropertyOp16
 70
     0
102
RTVSPropertyOp17
 70
     0
102
RTVSPropertyOp18
 70
     0
102
RTVSPropertyOp19
 70
     0
102
RTVSPropertyOp20
 70
     0
102
RTVSPropertyOp21
 70
     0
102
RTVSPropertyOp22
 70
     0
102
RTVSPropertyOp23
 70
     0
102
RTVSPropertyOp24
 70
     0
102
RTVSPropertyOp25
 70
     0
102
RTVSPropertyOp26
 70
     0
102
RTVSPropertyOp27
 70
     0
102
RTVSPropertyOp28
 70
     1
102
RTVSPropertyOp29
 70
     1
102
RTVSPropertyOp30
 70
     1
102
RTVSPropertyOp31
 70
     1
102
RTVSPropertyOp32
 70
     1
  0
XRECORD
  5
156E
102
{ACAD_REACTORS
330
156D
102
}
330
156D
100
AcDbXrecord
280
     1
102
RTVSPropertyOp0
 70
     1
102
RTVSPropertyOp1
 70
     1
102
RTVSPropertyOp2
 70
     1
102
RTVSPropertyOp3
 70
     1
102
RTVSPropertyOp4
 70
     1
102
RTVSPropertyOp5
 70
     1
102
RTVSPropertyOp6
 70
     1
102
RTVSPropertyOp7
 70
     1
102
RTVSPropertyOp8
 70
     1
102
RTVSPropertyOp9
 70
     1
102
RTVSPropertyOp10
 70
     1
102
RTVSPropertyOp11
 70
     1
102
RTVSPropertyOp12
 70
     1
102
RTVSPropertyOp13
 70
     1
102
RTVSPropertyOp14
 70
     1
102
RTVSPropertyOp15
 70
     1
102
RTVSPropertyOp16
 70
     1
102
RTVSPropertyOp17
 70
     1
102
RTVSPropertyOp18
 70
     1
102
RTVSPropertyOp19
 70
     1
102
RTVSPropertyOp20
 70
     1
102
RTVSPropertyOp21
 70
     1
102
RTVSPropertyOp22
 70
     1
102
RTVSPropertyOp23
 70
     1
102
RTVSPropertyOp24
 70
     1
102
RTVSPropertyOp25
 70
     1
102
RTVSPropertyOp26
 70
     1
102
RTVSPropertyOp27
 70
     1
102
RTVSPropertyOp28
 70
     1
102
RTVSPropertyOp29
 70
     1
102
RTVSPropertyOp30
 70
     1
102
RTVSPropertyOp31
 70
     1
102
RTVSPropertyOp32
 70
     1
  0
XRECORD
  5
1552
102
{ACAD_REACTORS
330
1551
102
}
330
1551
100
AcDbXrecord
280
     1
102
RTVSPropertyOp0
 70
     1
102
RTVSPropertyOp1
 70
     1
102
RTVSPropertyOp2
 70
     1
102
RTVSPropertyOp3
 70
     1
102
RTVSPropertyOp4
 70
     1
102
RTVSPropertyOp5
 70
     1
102
RTVSPropertyOp6
 70
     1
102
RTVSPropertyOp7
 70
     1
102
RTVSPropertyOp8
 70
     1
102
RTVSPropertyOp9
 70
     1
102
RTVSPropertyOp10
 70
     1
102
RTVSPropertyOp11
 70
     1
102
RTVSPropertyOp12
 70
     1
102
RTVSPropertyOp13
 70
     1
102
RTVSPropertyOp14
 70
     1
102
RTVSPropertyOp15
 70
     1
102
RTVSPropertyOp16
 70
     1
102
RTVSPropertyOp17
 70
     1
102
RTVSPropertyOp18
 70
     1
102
RTVSPropertyOp19
 70
     1
102
RTVSPropertyOp20
 70
     1
102
RTVSPropertyOp21
 70
     1
102
RTVSPropertyOp22
 70
     1
102
RTVSPropertyOp23
 70
     1
102
RTVSPropertyOp24
 70
     1
102
RTVSPropertyOp25
 70
     1
102
RTVSPropertyOp26
 70
     1
102
RTVSPropertyOp27
 70
     1
102
RTVSPropertyOp28
 70
     1
102
RTVSPropertyOp29
 70
     1
102
RTVSPropertyOp30
 70
     1
102
RTVSPropertyOp31
 70
     1
102
RTVSPropertyOp32
 70
     1
  0
XRECORD
  5
1554
102
{ACAD_REACTORS
330
1553
102
}
330
1553
100
AcDbXrecord
280
     1
102
RTVSPropertyOp0
 70
     1
102
RTVSPropertyOp1
 70
     1
102
RTVSPropertyOp2
 70
     1
102
RTVSPropertyOp3
 70
     1
102
RTVSPropertyOp4
 70
     1
102
RTVSPropertyOp5
 70
     1
102
RTVSPropertyOp6
 70
     1
102
RTVSPropertyOp7
 70
     1
102
RTVSPropertyOp8
 70
     1
102
RTVSPropertyOp9
 70
     1
102
RTVSPropertyOp10
 70
     1
102
RTVSPropertyOp11
 70
     1
102
RTVSPropertyOp12
 70
     1
102
RTVSPropertyOp13
 70
     1
102
RTVSPropertyOp14
 70
     1
102
RTVSPropertyOp15
 70
     1
102
RTVSPropertyOp16
 70
     1
102
RTVSPropertyOp17
 70
     1
102
RTVSPropertyOp18
 70
     1
102
RTVSPropertyOp19
 70
     1
102
RTVSPropertyOp20
 70
     1
102
RTVSPropertyOp21
 70
     1
102
RTVSPropertyOp22
 70
     1
102
RTVSPropertyOp23
 70
     1
102
RTVSPropertyOp24
 70
     1
102
RTVSPropertyOp25
 70
     1
102
RTVSPropertyOp26
 70
     1
102
RTVSPropertyOp27
 70
     1
102
RTVSPropertyOp28
 70
     1
102
RTVSPropertyOp29
 70
     1
102
RTVSPropertyOp30
 70
     1
102
RTVSPropertyOp31
 70
     1
102
RTVSPropertyOp32
 70
     1
  0
XRECORD
  5
1556
102
{ACAD_REACTORS
330
1555
102
}
330
1555
100
AcDbXrecord
280
     1
102
RTVSPropertyOp0
 70
     1
102
RTVSPropertyOp1
 70
     1
102
RTVSPropertyOp2
 70
     1
102
RTVSPropertyOp3
 70
     1
102
RTVSPropertyOp4
 70
     1
102
RTVSPropertyOp5
 70
     1
102
RTVSPropertyOp6
 70
     1
102
RTVSPropertyOp7
 70
     1
102
RTVSPropertyOp8
 70
     1
102
RTVSPropertyOp9
 70
     1
102
RTVSPropertyOp10
 70
     1
102
RTVSPropertyOp11
 70
     1
102
RTVSPropertyOp12
 70
     1
102
RTVSPropertyOp13
 70
     1
102
RTVSPropertyOp14
 70
     1
102
RTVSPropertyOp15
 70
     1
102
RTVSPropertyOp16
 70
     1
102
RTVSPropertyOp17
 70
     1
102
RTVSPropertyOp18
 70
     1
102
RTVSPropertyOp19
 70
     1
102
RTVSPropertyOp20
 70
     1
102
RTVSPropertyOp21
 70
     1
102
RTVSPropertyOp22
 70
     1
102
RTVSPropertyOp23
 70
     1
102
RTVSPropertyOp24
 70
     1
102
RTVSPropertyOp25
 70
     1
102
RTVSPropertyOp26
 70
     1
102
RTVSPropertyOp27
 70
     1
102
RTVSPropertyOp28
 70
     1
102
RTVSPropertyOp29
 70
     1
102
RTVSPropertyOp30
 70
     1
102
RTVSPropertyOp31
 70
     1
102
RTVSPropertyOp32
 70
     1
  0
XRECORD
  5
1558
102
{ACAD_REACTORS
330
1557
102
}
330
1557
100
AcDbXrecord
280
     1
102
RTVSPropertyOp0
 70
     1
102
RTVSPropertyOp1
 70
     1
102
RTVSPropertyOp2
 70
     1
102
RTVSPropertyOp3
 70
     1
102
RTVSPropertyOp4
 70
     1
102
RTVSPropertyOp5
 70
     1
102
RTVSPropertyOp6
 70
     1
102
RTVSPropertyOp7
 70
     1
102
RTVSPropertyOp8
 70
     1
102
RTVSPropertyOp9
 70
     1
102
RTVSPropertyOp10
 70
     1
102
RTVSPropertyOp11
 70
     1
102
RTVSPropertyOp12
 70
     1
102
RTVSPropertyOp13
 70
     1
102
RTVSPropertyOp14
 70
     1
102
RTVSPropertyOp15
 70
     1
102
RTVSPropertyOp16
 70
     1
102
RTVSPropertyOp17
 70
     1
102
RTVSPropertyOp18
 70
     1
102
RTVSPropertyOp19
 70
     1
102
RTVSPropertyOp20
 70
     1
102
RTVSPropertyOp21
 70
     1
102
RTVSPropertyOp22
 70
     1
102
RTVSPropertyOp23
 70
     1
102
RTVSPropertyOp24
 70
     1
102
RTVSPropertyOp25
 70
     1
102
RTVSPropertyOp26
 70
     1
102
RTVSPropertyOp27
 70
     1
102
RTVSPropertyOp28
 70
     1
102
RTVSPropertyOp29
 70
     1
102
RTVSPropertyOp30
 70
     1
102
RTVSPropertyOp31
 70
     1
102
RTVSPropertyOp32
 70
     1
  0
XRECORD
  5
1560
102
{ACAD_REACTORS
330
155F
102
}
330
155F
100
AcDbXrecord
280
     1
102
RTVSPropertyOp0
 70
     1
102
RTVSPropertyOp1
 70
     1
102
RTVSPropertyOp2
 70
     1
102
RTVSPropertyOp3
 70
     1
102
RTVSPropertyOp4
 70
     1
102
RTVSPropertyOp5
 70
     1
102
RTVSPropertyOp6
 70
     1
102
RTVSPropertyOp7
 70
     1
102
RTVSPropertyOp8
 70
     1
102
RTVSPropertyOp9
 70
     1
102
RTVSPropertyOp10
 70
     1
102
RTVSPropertyOp11
 70
     1
102
RTVSPropertyOp12
 70
     1
102
RTVSPropertyOp13
 70
     1
102
RTVSPropertyOp14
 70
     1
102
RTVSPropertyOp15
 70
     1
102
RTVSPropertyOp16
 70
     1
102
RTVSPropertyOp17
 70
     1
102
RTVSPropertyOp18
 70
     1
102
RTVSPropertyOp19
 70
     1
102
RTVSPropertyOp20
 70
     1
102
RTVSPropertyOp21
 70
     1
102
RTVSPropertyOp22
 70
     1
102
RTVSPropertyOp23
 70
     1
102
RTVSPropertyOp24
 70
     1
102
RTVSPropertyOp25
 70
     1
102
RTVSPropertyOp26
 70
     1
102
RTVSPropertyOp27
 70
     1
102
RTVSPropertyOp28
 70
     1
102
RTVSPropertyOp29
 70
     1
102
RTVSPropertyOp30
 70
     1
102
RTVSPropertyOp31
 70
     1
102
RTVSPropertyOp32
 70
     1
  0
XRECORD
  5
157C
102
{ACAD_REACTORS
330
157B
102
}
330
157B
100
AcDbXrecord
280
     1
102
RTVSPropertyOp0
 70
     0
102
RTVSPropertyOp1
 70
     0
102
RTVSPropertyOp2
 70
     0
102
RTVSPropertyOp3
 70
     0
102
RTVSPropertyOp4
 70
     0
102
RTVSPropertyOp5
 70
     0
102
RTVSPropertyOp6
 70
     0
102
RTVSPropertyOp7
 70
     0
102
RTVSPropertyOp8
 70
     0
102
RTVSPropertyOp9
 70
     0
102
RTVSPropertyOp10
 70
     0
102
RTVSPropertyOp11
 70
     0
102
RTVSPropertyOp12
 70
     0
102
RTVSPropertyOp13
 70
     0
102
RTVSPropertyOp14
 70
     2
102
RTVSPropertyOp15
 70
     0
102
RTVSPropertyOp16
 70
     0
102
RTVSPropertyOp17
 70
     0
102
RTVSPropertyOp18
 70
     0
102
RTVSPropertyOp19
 70
     0
102
RTVSPropertyOp20
 70
     0
102
RTVSPropertyOp21
 70
     0
102
RTVSPropertyOp22
 70
     0
102
RTVSPropertyOp23
 70
     0
102
RTVSPropertyOp24
 70
     0
102
RTVSPropertyOp25
 70
     0
102
RTVSPropertyOp26
 70
     0
102
RTVSPropertyOp27
 70
     0
102
RTVSPropertyOp28
 70
     1
102
RTVSPropertyOp29
 70
     1
102
RTVSPropertyOp30
 70
     1
102
RTVSPropertyOp31
 70
     1
102
RTVSPropertyOp32
 70
     1
  0
XRECORD
  5
156C
102
{ACAD_REACTORS
330
156B
102
}
330
156B
100
AcDbXrecord
280
     1
102
RTVSPropertyOp0
 70
     1
102
RTVSPropertyOp1
 70
     1
102
RTVSPropertyOp2
 70
     1
102
RTVSPropertyOp3
 70
     1
102
RTVSPropertyOp4
 70
     1
102
RTVSPropertyOp5
 70
     1
102
RTVSPropertyOp6
 70
     1
102
RTVSPropertyOp7
 70
     1
102
RTVSPropertyOp8
 70
     1
102
RTVSPropertyOp9
 70
     1
102
RTVSPropertyOp10
 70
     1
102
RTVSPropertyOp11
 70
     1
102
RTVSPropertyOp12
 70
     1
102
RTVSPropertyOp13
 70
     1
102
RTVSPropertyOp14
 70
     1
102
RTVSPropertyOp15
 70
     1
102
RTVSPropertyOp16
 70
     1
102
RTVSPropertyOp17
 70
     1
102
RTVSPropertyOp18
 70
     1
102
RTVSPropertyOp19
 70
     1
102
RTVSPropertyOp20
 70
     1
102
RTVSPropertyOp21
 70
     1
102
RTVSPropertyOp22
 70
     1
102
RTVSPropertyOp23
 70
     1
102
RTVSPropertyOp24
 70
     1
102
RTVSPropertyOp25
 70
     1
102
RTVSPropertyOp26
 70
     1
102
RTVSPropertyOp27
 70
     1
102
RTVSPropertyOp28
 70
     1
102
RTVSPropertyOp29
 70
     1
102
RTVSPropertyOp30
 70
     1
102
RTVSPropertyOp31
 70
     1
102
RTVSPropertyOp32
 70
     1
  0
XRECORD
  5
157E
102
{ACAD_REACTORS
330
157D
102
}
330
157D
100
AcDbXrecord
280
     1
102
RTVSPropertyOp0
 70
     0
102
RTVSPropertyOp1
 70
     0
102
RTVSPropertyOp2
 70
     0
102
RTVSPropertyOp3
 70
     0
102
RTVSPropertyOp4
 70
     0
102
RTVSPropertyOp5
 70
     0
102
RTVSPropertyOp6
 70
     0
102
RTVSPropertyOp7
 70
     0
102
RTVSPropertyOp8
 70
     0
102
RTVSPropertyOp9
 70
     0
102
RTVSPropertyOp10
 70
     0
102
RTVSPropertyOp11
 70
     0
102
RTVSPropertyOp12
 70
     0
102
RTVSPropertyOp13
 70
     0
102
RTVSPropertyOp14
 70
     2
102
RTVSPropertyOp15
 70
     0
102
RTVSPropertyOp16
 70
     0
102
RTVSPropertyOp17
 70
     0
102
RTVSPropertyOp18
 70
     0
102
RTVSPropertyOp19
 70
     0
102
RTVSPropertyOp20
 70
     0
102
RTVSPropertyOp21
 70
     0
102
RTVSPropertyOp22
 70
     0
102
RTVSPropertyOp23
 70
     0
102
RTVSPropertyOp24
 70
     0
102
RTVSPropertyOp25
 70
     0
102
RTVSPropertyOp26
 70
     0
102
RTVSPropertyOp27
 70
     0
102
RTVSPropertyOp28
 70
     1
102
RTVSPropertyOp29
 70
     1
102
RTVSPropertyOp30
 70
     1
102
RTVSPropertyOp31
 70
     1
102
RTVSPropertyOp32
 70
     1
  0
XRECORD
  5
1564
102
{ACAD_REACTORS
330
1563
102
}
330
1563
100
AcDbXrecord
280
     1
102
RTVSPropertyOp0
 70
     1
102
RTVSPropertyOp1
 70
     1
102
RTVSPropertyOp2
 70
     1
102
RTVSPropertyOp3
 70
     1
102
RTVSPropertyOp4
 70
     1
102
RTVSPropertyOp5
 70
     1
102
RTVSPropertyOp6
 70
     1
102
RTVSPropertyOp7
 70
     1
102
RTVSPropertyOp8
 70
     1
102
RTVSPropertyOp9
 70
     1
102
RTVSPropertyOp10
 70
     1
102
RTVSPropertyOp11
 70
     1
102
RTVSPropertyOp12
 70
     1
102
RTVSPropertyOp13
 70
     1
102
RTVSPropertyOp14
 70
     1
102
RTVSPropertyOp15
 70
     1
102
RTVSPropertyOp16
 70
     1
102
RTVSPropertyOp17
 70
     1
102
RTVSPropertyOp18
 70
     1
102
RTVSPropertyOp19
 70
     1
102
RTVSPropertyOp20
 70
     1
102
RTVSPropertyOp21
 70
     1
102
RTVSPropertyOp22
 70
     1
102
RTVSPropertyOp23
 70
     1
102
RTVSPropertyOp24
 70
     1
102
RTVSPropertyOp25
 70
     1
102
RTVSPropertyOp26
 70
     1
102
RTVSPropertyOp27
 70
     1
102
RTVSPropertyOp28
 70
     1
102
RTVSPropertyOp29
 70
     1
102
RTVSPropertyOp30
 70
     1
102
RTVSPropertyOp31
 70
     1
102
RTVSPropertyOp32
 70
     1
  0
XRECORD
  5
157A
102
{ACAD_REACTORS
330
1579
102
}
330
1579
100
AcDbXrecord
280
     1
102
RTVSPropertyOp0
 70
     1
102
RTVSPropertyOp1
 70
     1
102
RTVSPropertyOp2
 70
     1
102
RTVSPropertyOp3
 70
     1
102
RTVSPropertyOp4
 70
     1
102
RTVSPropertyOp5
 70
     1
102
RTVSPropertyOp6
 70
     1
102
RTVSPropertyOp7
 70
     1
102
RTVSPropertyOp8
 70
     1
102
RTVSPropertyOp9
 70
     1
102
RTVSPropertyOp10
 70
     1
102
RTVSPropertyOp11
 70
     1
102
RTVSPropertyOp12
 70
     1
102
RTVSPropertyOp13
 70
     1
102
RTVSPropertyOp14
 70
     1
102
RTVSPropertyOp15
 70
     1
102
RTVSPropertyOp16
 70
     1
102
RTVSPropertyOp17
 70
     1
102
RTVSPropertyOp18
 70
     1
102
RTVSPropertyOp19
 70
     1
102
RTVSPropertyOp20
 70
     1
102
RTVSPropertyOp21
 70
     1
102
RTVSPropertyOp22
 70
     1
102
RTVSPropertyOp23
 70
     1
102
RTVSPropertyOp24
 70
     1
102
RTVSPropertyOp25
 70
     1
102
RTVSPropertyOp26
 70
     1
102
RTVSPropertyOp27
 70
     1
102
RTVSPropertyOp28
 70
     1
102
RTVSPropertyOp29
 70
     1
102
RTVSPropertyOp30
 70
     1
102
RTVSPropertyOp31
 70
     1
102
RTVSPropertyOp32
 70
     1
  0
XRECORD
  5
1578
102
{ACAD_REACTORS
330
1577
102
}
330
1577
100
AcDbXrecord
280
     1
102
RTVSPropertyOp0
 70
     1
102
RTVSPropertyOp1
 70
     1
102
RTVSPropertyOp2
 70
     1
102
RTVSPropertyOp3
 70
     1
102
RTVSPropertyOp4
 70
     1
102
RTVSPropertyOp5
 70
     1
102
RTVSPropertyOp6
 70
     1
102
RTVSPropertyOp7
 70
     1
102
RTVSPropertyOp8
 70
     1
102
RTVSPropertyOp9
 70
     1
102
RTVSPropertyOp10
 70
     1
102
RTVSPropertyOp11
 70
     1
102
RTVSPropertyOp12
 70
     1
102
RTVSPropertyOp13
 70
     1
102
RTVSPropertyOp14
 70
     1
102
RTVSPropertyOp15
 70
     1
102
RTVSPropertyOp16
 70
     1
102
RTVSPropertyOp17
 70
     1
102
RTVSPropertyOp18
 70
     1
102
RTVSPropertyOp19
 70
     1
102
RTVSPropertyOp20
 70
     1
102
RTVSPropertyOp21
 70
     1
102
RTVSPropertyOp22
 70
     1
102
RTVSPropertyOp23
 70
     1
102
RTVSPropertyOp24
 70
     1
102
RTVSPropertyOp25
 70
     1
102
RTVSPropertyOp26
 70
     1
102
RTVSPropertyOp27
 70
     1
102
RTVSPropertyOp28
 70
     1
102
RTVSPropertyOp29
 70
     1
102
RTVSPropertyOp30
 70
     1
102
RTVSPropertyOp31
 70
     1
102
RTVSPropertyOp32
 70
     1
  0
XRECORD
  5
1572
102
{ACAD_REACTORS
330
1571
102
}
330
1571
100
AcDbXrecord
280
     1
102
RTVSPropertyOp0
 70
     1
102
RTVSPropertyOp1
 70
     1
102
RTVSPropertyOp2
 70
     1
102
RTVSPropertyOp3
 70
     1
102
RTVSPropertyOp4
 70
     1
102
RTVSPropertyOp5
 70
     1
102
RTVSPropertyOp6
 70
     1
102
RTVSPropertyOp7
 70
     1
102
RTVSPropertyOp8
 70
     1
102
RTVSPropertyOp9
 70
     1
102
RTVSPropertyOp10
 70
     1
102
RTVSPropertyOp11
 70
     1
102
RTVSPropertyOp12
 70
     1
102
RTVSPropertyOp13
 70
     1
102
RTVSPropertyOp14
 70
     1
102
RTVSPropertyOp15
 70
     1
102
RTVSPropertyOp16
 70
     1
102
RTVSPropertyOp17
 70
     1
102
RTVSPropertyOp18
 70
     1
102
RTVSPropertyOp19
 70
     1
102
RTVSPropertyOp20
 70
     1
102
RTVSPropertyOp21
 70
     1
102
RTVSPropertyOp22
 70
     1
102
RTVSPropertyOp23
 70
     1
102
RTVSPropertyOp24
 70
     1
102
RTVSPropertyOp25
 70
     1
102
RTVSPropertyOp26
 70
     1
102
RTVSPropertyOp27
 70
     1
102
RTVSPropertyOp28
 70
     1
102
RTVSPropertyOp29
 70
     1
102
RTVSPropertyOp30
 70
     1
102
RTVSPropertyOp31
 70
     1
102
RTVSPropertyOp32
 70
     1
  0
XRECORD
  5
1574
102
{ACAD_REACTORS
330
1573
102
}
330
1573
100
AcDbXrecord
280
     1
102
RTVSPropertyOp0
 70
     1
102
RTVSPropertyOp1
 70
     1
102
RTVSPropertyOp2
 70
     1
102
RTVSPropertyOp3
 70
     1
102
RTVSPropertyOp4
 70
     1
102
RTVSPropertyOp5
 70
     1
102
RTVSPropertyOp6
 70
     1
102
RTVSPropertyOp7
 70
     1
102
RTVSPropertyOp8
 70
     1
102
RTVSPropertyOp9
 70
     1
102
RTVSPropertyOp10
 70
     1
102
RTVSPropertyOp11
 70
     1
102
RTVSPropertyOp12
 70
     1
102
RTVSPropertyOp13
 70
     1
102
RTVSPropertyOp14
 70
     1
102
RTVSPropertyOp15
 70
     1
102
RTVSPropertyOp16
 70
     1
102
RTVSPropertyOp17
 70
     1
102
RTVSPropertyOp18
 70
     1
102
RTVSPropertyOp19
 70
     1
102
RTVSPropertyOp20
 70
     1
102
RTVSPropertyOp21
 70
     1
102
RTVSPropertyOp22
 70
     1
102
RTVSPropertyOp23
 70
     1
102
RTVSPropertyOp24
 70
     1
102
RTVSPropertyOp25
 70
     1
102
RTVSPropertyOp26
 70
     1
102
RTVSPropertyOp27
 70
     1
102
RTVSPropertyOp28
 70
     1
102
RTVSPropertyOp29
 70
     1
102
RTVSPropertyOp30
 70
     1
102
RTVSPropertyOp31
 70
     1
102
RTVSPropertyOp32
 70
     1
  0
XRECORD
  5
156A
102
{ACAD_REACTORS
330
1569
102
}
330
1569
100
AcDbXrecord
280
     1
102
RTVSPropertyOp0
 70
     1
102
RTVSPropertyOp1
 70
     1
102
RTVSPropertyOp2
 70
     1
102
RTVSPropertyOp3
 70
     1
102
RTVSPropertyOp4
 70
     1
102
RTVSPropertyOp5
 70
     1
102
RTVSPropertyOp6
 70
     1
102
RTVSPropertyOp7
 70
     1
102
RTVSPropertyOp8
 70
     1
102
RTVSPropertyOp9
 70
     1
102
RTVSPropertyOp10
 70
     1
102
RTVSPropertyOp11
 70
     1
102
RTVSPropertyOp12
 70
     1
102
RTVSPropertyOp13
 70
     1
102
RTVSPropertyOp14
 70
     1
102
RTVSPropertyOp15
 70
     1
102
RTVSPropertyOp16
 70
     1
102
RTVSPropertyOp17
 70
     1
102
RTVSPropertyOp18
 70
     1
102
RTVSPropertyOp19
 70
     1
102
RTVSPropertyOp20
 70
     1
102
RTVSPropertyOp21
 70
     1
102
RTVSPropertyOp22
 70
     1
102
RTVSPropertyOp23
 70
     1
102
RTVSPropertyOp24
 70
     1
102
RTVSPropertyOp25
 70
     1
102
RTVSPropertyOp26
 70
     1
102
RTVSPropertyOp27
 70
     1
102
RTVSPropertyOp28
 70
     1
102
RTVSPropertyOp29
 70
     1
102
RTVSPropertyOp30
 70
     1
102
RTVSPropertyOp31
 70
     1
102
RTVSPropertyOp32
 70
     1
  0
XRECORD
  5
155E
102
{ACAD_REACTORS
330
155D
102
}
330
155D
100
AcDbXrecord
280
     1
102
RTVSPropertyOp0
 70
     1
102
RTVSPropertyOp1
 70
     1
102
RTVSPropertyOp2
 70
     1
102
RTVSPropertyOp3
 70
     1
102
RTVSPropertyOp4
 70
     1
102
RTVSPropertyOp5
 70
     1
102
RTVSPropertyOp6
 70
     1
102
RTVSPropertyOp7
 70
     1
102
RTVSPropertyOp8
 70
     1
102
RTVSPropertyOp9
 70
     1
102
RTVSPropertyOp10
 70
     1
102
RTVSPropertyOp11
 70
     1
102
RTVSPropertyOp12
 70
     1
102
RTVSPropertyOp13
 70
     1
102
RTVSPropertyOp14
 70
     1
102
RTVSPropertyOp15
 70
     1
102
RTVSPropertyOp16
 70
     1
102
RTVSPropertyOp17
 70
     1
102
RTVSPropertyOp18
 70
     1
102
RTVSPropertyOp19
 70
     1
102
RTVSPropertyOp20
 70
     1
102
RTVSPropertyOp21
 70
     1
102
RTVSPropertyOp22
 70
     1
102
RTVSPropertyOp23
 70
     1
102
RTVSPropertyOp24
 70
     1
102
RTVSPropertyOp25
 70
     1
102
RTVSPropertyOp26
 70
     1
102
RTVSPropertyOp27
 70
     1
102
RTVSPropertyOp28
 70
     1
102
RTVSPropertyOp29
 70
     1
102
RTVSPropertyOp30
 70
     1
102
RTVSPropertyOp31
 70
     1
102
RTVSPropertyOp32
 70
     1
  0
XRECORD
  5
1576
102
{ACAD_REACTORS
330
1575
102
}
330
1575
100
AcDbXrecord
280
     1
102
RTVSPropertyOp0
 70
     1
102
RTVSPropertyOp1
 70
     1
102
RTVSPropertyOp2
 70
     1
102
RTVSPropertyOp3
 70
     1
102
RTVSPropertyOp4
 70
     1
102
RTVSPropertyOp5
 70
     1
102
RTVSPropertyOp6
 70
     1
102
RTVSPropertyOp7
 70
     1
102
RTVSPropertyOp8
 70
     1
102
RTVSPropertyOp9
 70
     1
102
RTVSPropertyOp10
 70
     1
102
RTVSPropertyOp11
 70
     1
102
RTVSPropertyOp12
 70
     1
102
RTVSPropertyOp13
 70
     1
102
RTVSPropertyOp14
 70
     1
102
RTVSPropertyOp15
 70
     1
102
RTVSPropertyOp16
 70
     1
102
RTVSPropertyOp17
 70
     1
102
RTVSPropertyOp18
 70
     1
102
RTVSPropertyOp19
 70
     1
102
RTVSPropertyOp20
 70
     1
102
RTVSPropertyOp21
 70
     1
102
RTVSPropertyOp22
 70
     1
102
RTVSPropertyOp23
 70
     1
102
RTVSPropertyOp24
 70
     1
102
RTVSPropertyOp25
 70
     1
102
RTVSPropertyOp26
 70
     1
102
RTVSPropertyOp27
 70
     1
102
RTVSPropertyOp28
 70
     1
102
RTVSPropertyOp29
 70
     1
102
RTVSPropertyOp30
 70
     1
102
RTVSPropertyOp31
 70
     1
102
RTVSPropertyOp32
 70
     1
  0
ENDSEC
  0
EOF
