  0
SECTION
  2
HEADER
  9
$ACADVER
  1
AC1018
  9
$ACADMAINTVER
 70
   104
  9
$DWGCODEPAGE
  3
ANSI_1252
  9
$AUTHOR
  1
PS
  9
$REVISIONNUMBER
  1
-
  9
$CUSTOMPROPERTYTAG
  1
Manager
  9
$CUSTOMPROPERTY
  1

  9
$CUSTOMPROPERTYTAG
  1
Company
  9
$CUSTOMPROPERTY
  1

  9
$CUSTOMPROPERTYTAG
  1
Category
  9
$CUSTOMPROPERTY
  1

  9
$CUSTOMPROPERTYTAG
  1
Part Number
  9
$CUSTOMPROPERTY
  1
FK1224-S
  9
$CUSTOMPROPERTYTAG
  1
Description
  9
$CUSTOMPROPERTY
  1

  9
$CUSTOMPROPERTYTAG
  1
Project
  9
$CUSTOMPROPERTY
  1

  9
$CUSTOMPROPERTYTAG
  1
Designer
  9
$CUSTOMPROPERTY
  1
PS
  9
$CUSTOMPROPERTYTAG
  1
Engineer
  9
$CUSTOMPROPERTY
  1

  9
$CUSTOMPROPERTYTAG
  1
Authority
  9
$CUSTOMPROPERTY
  1

  9
$CUSTOMPROPERTYTAG
  1
Cost Center
  9
$CUSTOMPROPERTY
  1

  9
$CUSTOMPROPERTYTAG
  1
Vendor
  9
$CUSTOMPROPERTY
  1

  9
$CUSTOMPROPERTYTAG
  1
User Status
  9
$CUSTOMPROPERTY
  1

  9
$CUSTOMPROPERTYTAG
  1
Design Status
  9
$CUSTOMPROPERTY
  1
WorkInProgress
  9
$CUSTOMPROPERTYTAG
  1
Checked by
  9
$CUSTOMPROPERTY
  1
NJ
  9
$CUSTOMPROPERTYTAG
  1
Date Checked
  9
$CUSTOMPROPERTY
  1
05/03/2013
  9
$CUSTOMPROPERTYTAG
  1
Engr Approved by
  9
$CUSTOMPROPERTY
  1

  9
$CUSTOMPROPERTYTAG
  1
Date Eng Approved
  9
$CUSTOMPROPERTY
  1
05/03/2013
  9
$CUSTOMPROPERTYTAG
  1
Mfg Approved by
  9
$CUSTOMPROPERTY
  1

  9
$CUSTOMPROPERTYTAG
  1
Date Mfg Approved
  9
$CUSTOMPROPERTY
  1
05/03/2013
  9
$CUSTOMPROPERTYTAG
  1
DWG. NO
  9
$CUSTOMPROPERTY
  1

  9
$CUSTOMPROPERTYTAG
  1
NUMBER OF SHEETS
  9
$CUSTOMPROPERTY
  1
1
  9
$CUSTOMPROPERTYTAG
  1
DRAWING #
  9
$CUSTOMPROPERTY
  1

  9
$INSBASE
 10
0.0
 20
0.0
 30
0.0
  9
$EXTMIN
 10
0.0
 20
0.0
 30
0.0
  9
$EXTMAX
 10
102.0
 20
66.0
 30
0.0
  9
$LIMMIN
 10
0.0
 20
0.0
  9
$LIMMAX
 10
102.0
 20
66.0
  9
$ORTHOMODE
 70
     0
  9
$REGENMODE
 70
     1
  9
$FILLMODE
 70
     1
  9
$QTEXTMODE
 70
     0
  9
$MIRRTEXT
 70
     0
  9
$LTSCALE
 40
6.0
  9
$ATTMODE
 70
     1
  9
$TEXTSIZE
 40
0.2
  9
$TRACEWID
 40
0.05
  9
$TEXTSTYLE
  7
Standard
  9
$CLAYER
  8
0
  9
$CELTYPE
  6
ByLayer
  9
$CECOLOR
 62
   256
  9
$CELTSCALE
 40
1.0
  9
$DISPSILH
 70
     0
  9
$DIMSCALE
 40
1.0
  9
$DIMASZ
 40
0.0708661417322835
  9
$DIMEXO
 40
0.0625
  9
$DIMDLI
 40
0.38
  9
$DIMRND
 40
0.0
  9
$DIMDLE
 40
0.0
  9
$DIMEXE
 40
0.18
  9
$DIMTP
 40
0.0
  9
$DIMTM
 40
0.0
  9
$DIMTXT
 40
0.0708661417322835
  9
$DIMCEN
 40
0.09
  9
$DIMTSZ
 40
0.0
  9
$DIMTOL
 70
     0
  9
$DIMLIM
 70
     0
  9
$DIMTIH
 70
     1
  9
$DIMTOH
 70
     1
  9
$DIMSE1
 70
     0
  9
$DIMSE2
 70
     0
  9
$DIMTAD
 70
     0
  9
$DIMZIN
 70
     0
  9
$DIMBLK
  1

  9
$DIMASO
 70
     1
  9
$DIMSHO
 70
     1
  9
$DIMPOST
  1

  9
$DIMAPOST
  1

  9
$DIMALT
 70
     0
  9
$DIMALTD
 70
     2
  9
$DIMALTF
 40
25.4
  9
$DIMLFAC
 40
1.0
  9
$DIMTOFL
 70
     0
  9
$DIMTVP
 40
0.0
  9
$DIMTIX
 70
     0
  9
$DIMSOXD
 70
     0
  9
$DIMSAH
 70
     0
  9
$DIMBLK1
  1

  9
$DIMBLK2
  1

  9
$DIMSTYLE
  2
Standard
  9
$DIMCLRD
 70
     0
  9
$DIMCLRE
 70
     0
  9
$DIMCLRT
 70
     0
  9
$DIMTFAC
 40
1.0
  9
$DIMGAP
 40
0.09
  9
$DIMJUST
 70
     0
  9
$DIMSD1
 70
     0
  9
$DIMSD2
 70
     0
  9
$DIMTOLJ
 70
     1
  9
$DIMTZIN
 70
     0
  9
$DIMALTZ
 70
     0
  9
$DIMALTTZ
 70
     0
  9
$DIMUPT
 70
     0
  9
$DIMDEC
 70
     4
  9
$DIMTDEC
 70
     4
  9
$DIMALTU
 70
     2
  9
$DIMALTTD
 70
     2
  9
$DIMTXSTY
  7
Standard
  9
$DIMAUNIT
 70
     0
  9
$DIMADEC
 70
     0
  9
$DIMALTRND
 40
0.0
  9
$DIMAZIN
 70
     0
  9
$DIMDSEP
 70
    46
  9
$DIMATFIT
 70
     3
  9
$DIMFRAC
 70
     0
  9
$DIMLDRBLK
  1

  9
$DIMLUNIT
 70
     2
  9
$DIMLWD
 70
    -2
  9
$DIMLWE
 70
    -2
  9
$DIMTMOVE
 70
     0
  9
$LUNITS
 70
     2
  9
$LUPREC
 70
     4
  9
$SKETCHINC
 40
0.1
  9
$FILLETRAD
 40
0.0
  9
$AUNITS
 70
     0
  9
$AUPREC
 70
     0
  9
$MENU
  1
.
  9
$ELEVATION
 40
0.0
  9
$PELEVATION
 40
0.0
  9
$THICKNESS
 40
0.0
  9
$LIMCHECK
 70
     0
  9
$CHAMFERA
 40
0.0
  9
$CHAMFERB
 40
0.0
  9
$CHAMFERC
 40
0.0
  9
$CHAMFERD
 40
0.0
  9
$SKPOLY
 70
     0
  9
$TDCREATE
 40
2456428.836837384
  9
$TDUCREATE
 40
2456428.607670718
  9
$TDUPDATE
 40
2456428.836837396
  9
$TDUUPDATE
 40
2456428.607670729
  9
$TDINDWG
 40
0.0000435764
  9
$TDUSRTIMER
 40
0.0000435764
  9
$USRTIMER
 70
     1
  9
$ANGBASE
 50
0.0
  9
$ANGDIR
 70
     0
  9
$PDMODE
 70
     0
  9
$PDSIZE
 40
0.0
  9
$PLINEWID
 40
0.0
  9
$SPLFRAME
 70
     0
  9
$SPLINETYPE
 70
     6
  9
$SPLINESEGS
 70
     8
  9
$HANDSEED
  5
15AD
  9
$SURFTAB1
 70
     6
  9
$SURFTAB2
 70
     6
  9
$SURFTYPE
 70
     6
  9
$SURFU
 70
     6
  9
$SURFV
 70
     6
  9
$UCSBASE
  2

  9
$UCSNAME
  2

  9
$UCSORG
 10
0.0
 20
0.0
 30
0.0
  9
$UCSXDIR
 10
1.0
 20
0.0
 30
0.0
  9
$UCSYDIR
 10
0.0
 20
1.0
 30
0.0
  9
$UCSORTHOREF
  2

  9
$UCSORTHOVIEW
 70
     0
  9
$UCSORGTOP
 10
0.0
 20
0.0
 30
0.0
  9
$UCSORGBOTTOM
 10
0.0
 20
0.0
 30
0.0
  9
$UCSORGLEFT
 10
0.0
 20
0.0
 30
0.0
  9
$UCSORGRIGHT
 10
0.0
 20
0.0
 30
0.0
  9
$UCSORGFRONT
 10
0.0
 20
0.0
 30
0.0
  9
$UCSORGBACK
 10
0.0
 20
0.0
 30
0.0
  9
$PUCSBASE
  2

  9
$PUCSNAME
  2

  9
$PUCSORG
 10
0.0
 20
0.0
 30
0.0
  9
$PUCSXDIR
 10
1.0
 20
0.0
 30
0.0
  9
$PUCSYDIR
 10
0.0
 20
1.0
 30
0.0
  9
$PUCSORTHOREF
  2

  9
$PUCSORTHOVIEW
 70
     0
  9
$PUCSORGTOP
 10
0.0
 20
0.0
 30
0.0
  9
$PUCSORGBOTTOM
 10
0.0
 20
0.0
 30
0.0
  9
$PUCSORGLEFT
 10
0.0
 20
0.0
 30
0.0
  9
$PUCSORGRIGHT
 10
0.0
 20
0.0
 30
0.0
  9
$PUCSORGFRONT
 10
0.0
 20
0.0
 30
0.0
  9
$PUCSORGBACK
 10
0.0
 20
0.0
 30
0.0
  9
$USERI1
 70
     0
  9
$USERI2
 70
     0
  9
$USERI3
 70
     0
  9
$USERI4
 70
     0
  9
$USERI5
 70
     0
  9
$USERR1
 40
0.0
  9
$USERR2
 40
0.0
  9
$USERR3
 40
0.0
  9
$USERR4
 40
0.0
  9
$USERR5
 40
0.0
  9
$WORLDVIEW
 70
     1
  9
$SHADEDGE
 70
     3
  9
$SHADEDIF
 70
    70
  9
$TILEMODE
 70
     1
  9
$MAXACTVP
 70
    64
  9
$PINSBASE
 10
0.0
 20
0.0
 30
0.0
  9
$PLIMCHECK
 70
     0
  9
$PEXTMIN
 10
0.0
 20
0.0
 30
0.0
  9
$PEXTMAX
 10
102.0
 20
66.0
 30
0.0
  9
$PLIMMIN
 10
0.0
 20
0.0
  9
$PLIMMAX
 10
102.0
 20
66.0
  9
$UNITMODE
 70
     0
  9
$VISRETAIN
 70
     1
  9
$PLINEGEN
 70
     0
  9
$PSLTSCALE
 70
     1
  9
$TREEDEPTH
 70
  3020
  9
$CMLSTYLE
  2
Standard
  9
$CMLJUST
 70
     0
  9
$CMLSCALE
 40
1.0
  9
$PROXYGRAPHICS
 70
     1
  9
$MEASUREMENT
 70
     0
  9
$CELWEIGHT
370
    -1
  9
$ENDCAPS
280
     0
  9
$JOINSTYLE
280
     0
  9
$LWDISPLAY
290
     0
  9
$INSUNITS
 70
     1
  9
$HYPERLINKBASE
  1

  9
$STYLESHEET
  1

  9
$XEDIT
290
     1
  9
$CEPSNTYPE
380
     0
  9
$PSTYLEMODE
290
     1
  9
$FINGERPRINTGUID
  2
{E792B1BF-36A4-4F87-B7A4-0B7D833CFCBB}
  9
$VERSIONGUID
  2
{965D113B-473E-4BD2-B9F6-A7C034300626}
  9
$EXTNAMES
290
     1
  9
$PSVPSCALE
 40
0.0
  9
$OLESTARTUP
290
     0
  9
$SORTENTS
280
   127
  9
$INDEXCTL
280
     0
  9
$HIDETEXT
280
     1
  9
$XCLIPFRAME
290
     0
  9
$HALOGAP
280
     0
  9
$OBSCOLOR
 70
   257
  9
$OBSLTYPE
280
     0
  9
$INTERSECTIONDISPLAY
280
     0
  9
$INTERSECTIONCOLOR
 70
   257
  9
$DIMASSOC
280
     1
  9
$PROJECTNAME
  1

  0
ENDSEC
  0
SECTION
  2
CLASSES
  0
CLASS
  1
ACDBDICTIONARYWDFLT
  2
AcDbDictionaryWithDefault
  3
ObjectDBX Classes
 90
        0
 91
        1
280
     0
281
     0
  0
CLASS
  1
MATERIAL
  2
AcDbMaterial
  3
ObjectDBX Classes
 90
     1153
 91
        3
280
     0
281
     0
  0
CLASS
  1
VISUALSTYLE
  2
AcDbVisualStyle
  3
ObjectDBX Classes
 90
     4095
 91
       24
280
     0
281
     0
  0
CLASS
  1
SCALE
  2
AcDbScale
  3
ObjectDBX Classes
 90
     1153
 91
       17
280
     0
281
     0
  0
CLASS
  1
TABLESTYLE
  2
AcDbTableStyle
  3
ObjectDBX Classes
 90
     4095
 91
        1
280
     0
281
     0
  0
CLASS
  1
MLEADERSTYLE
  2
AcDbMLeaderStyle
  3
ACDB_MLEADERSTYLE_CLASS
 90
     4095
 91
        1
280
     0
281
     0
  0
CLASS
  1
DICTIONARYVAR
  2
AcDbDictionaryVar
  3
ObjectDBX Classes
 90
        0
 91
        8
280
     0
281
     0
  0
CLASS
  1
CELLSTYLEMAP
  2
AcDbCellStyleMap
  3
ObjectDBX Classes
 90
     1152
 91
        1
280
     0
281
     0
  0
ENDSEC
  0
SECTION
  2
TABLES
  0
TABLE
  2
VPORT
  5
8
330
0
100
AcDbSymbolTable
 70
     1
  0
VPORT
  5
57
330
8
100
AcDbSymbolTableRecord
100
AcDbViewportTableRecord
  2
*Active
 70
     0
 10
0.0
 20
0.0
 11
1.0
 21
1.0
 12
51.0
 22
33.0
 13
0.0
 23
0.0
 14
1.0
 24
1.0
 15
0.0
 25
0.0
 16
0.0
 26
0.0
 36
1.0
 17
0.0
 27
0.0
 37
0.0
 40
66.0
 41
1.545454545454545
 42
50.0
 43
0.0
 44
0.0
 50
0.0
 51
0.0
 71
     0
 72
   100
 73
     1
 74
     1
 75
     0
 76
     0
 77
     0
 78
     0
281
     0
 65
     1
110
0.0
120
0.0
130
0.0
111
1.0
121
0.0
131
0.0
112
0.0
122
1.0
132
0.0
 79
     0
146
0.0
  0
ENDTAB
  0
TABLE
  2
LTYPE
  5
5
330
0
100
AcDbSymbolTable
 70
    59
  0
LTYPE
  5
5B
330
5
100
AcDbSymbolTableRecord
100
AcDbLinetypeTableRecord
  2
ByBlock
 70
     0
  3

 72
    65
 73
     0
 40
0.0
  0
LTYPE
  5
5C
330
5
100
AcDbSymbolTableRecord
100
AcDbLinetypeTableRecord
  2
ByLayer
 70
     0
  3

 72
    65
 73
     0
 40
0.0
  0
LTYPE
  5
5D
330
5
100
AcDbSymbolTableRecord
100
AcDbLinetypeTableRecord
  2
Continuous
 70
     0
  3
Solid line
 72
    65
 73
     0
 40
0.0
  0
LTYPE
  5
7C
330
5
100
AcDbSymbolTableRecord
100
AcDbLinetypeTableRecord
  2
BY_STANDARD
 70
     0
  3
By Standard ____________    ____    ____   _
 72
    65
 73
     6
 40
1.240299999999999
 49
0.6614
 74
     0
 49
-0.0827
 74
     0
 49
0.1654
 74
     0
 49
-0.0827
 74
     0
 49
0.1654
 74
     0
 49
-0.0827
 74
     0
  0
LTYPE
  5
7D
330
5
100
AcDbSymbolTableRecord
100
AcDbLinetypeTableRecord
  2
CHAIN
 70
     0
  3
Chain ____ _ ____ _ ____ _ ____ _ ____ _ ____
 72
    65
 73
     4
 40
0.7087
 49
0.4724000000000001
 74
     0
 49
-0.0591
 74
     0
 49
0.1181
 74
     0
 49
-0.0591
 74
     0
  0
LTYPE
  5
7E
330
5
100
AcDbSymbolTableRecord
100
AcDbLinetypeTableRecord
  2
DASH_DOT
 70
     0
  3
Dash dot __ . __ . __ . __ . __ . __ . __ . __
 72
    65
 73
     4
 40
0.37
 49
0.24
 74
     0
 49
-0.06
 74
     0
 49
0.01
 74
     0
 49
-0.06
 74
     0
  0
LTYPE
  5
7F
330
5
100
AcDbSymbolTableRecord
100
AcDbLinetypeTableRecord
  2
DOUBLE_DASH_DOT
 70
     0
  3
Double-Dash Dot __ __ . __ __ . __ __ . __ _
 72
    65
 73
     6
 40
0.4398
 49
0.24
 74
     0
 49
-0.06
 74
     0
 49
0.0098
 74
     0
 49
-0.06
 74
     0
 49
0.01
 74
     0
 49
-0.06
 74
     0
  0
LTYPE
  5
80
330
5
100
AcDbSymbolTableRecord
100
AcDbLinetypeTableRecord
  2
DASH_TRIPLE_DOT
 70
     0
  3
Dash Triple-Dot _ . . . _ . . . _ . . . _
 72
    65
 73
     8
 40
0.51
 49
0.24
 74
     0
 49
-0.06
 74
     0
 49
0.01
 74
     0
 49
-0.06
 74
     0
 49
0.01
 74
     0
 49
-0.06
 74
     0
 49
0.01
 74
     0
 49
-0.06
 74
     0
  0
LTYPE
  5
81
330
5
100
AcDbSymbolTableRecord
100
AcDbLinetypeTableRecord
  2
DASHED
 70
     0
  3
Dashed __ __ __ __ __ __ __ __ __ __ __ __ __ _
 72
    65
 73
     2
 40
0.2067
 49
0.1654
 74
     0
 49
-0.0413
 74
     0
  0
LTYPE
  5
82
330
5
100
AcDbSymbolTableRecord
100
AcDbLinetypeTableRecord
  2
DASH_DOUBLE_DOT
 70
     0
  3
Dash Double-Dot __ . . __ . . __ . . __ . .
 72
    65
 73
     6
 40
0.4398
 49
0.24
 74
     0
 49
-0.06
 74
     0
 49
0.0098
 74
     0
 49
-0.06
 74
     0
 49
0.01
 74
     0
 49
-0.06
 74
     0
  0
LTYPE
  5
83
330
5
100
AcDbSymbolTableRecord
100
AcDbLinetypeTableRecord
  2
DASHED_SPACE
 70
     0
  3
Dashed Space __ __ __ __ __ __ __ __ __ __ __ _
 72
    65
 73
     2
 40
0.2067
 49
0.1654
 74
     0
 49
-0.0413
 74
     0
  0
LTYPE
  5
84
330
5
100
AcDbSymbolTableRecord
100
AcDbLinetypeTableRecord
  2
DOTTED
 70
     0
  3
Dotted . . . . . . . . . . . . . . . . . . . . 
 72
    65
 73
     2
 40
0.0482
 49
0.0069
 74
     0
 49
-0.0413
 74
     0
  0
LTYPE
  5
85
330
5
100
AcDbSymbolTableRecord
100
AcDbLinetypeTableRecord
  2
DOUBLE_DASH_CHAIN
 70
     0
  3
Double-Dash Chain ______  __  __  ______  __  _
 72
    65
 73
     6
 40
1.240299999999999
 49
0.6614
 74
     0
 49
-0.0827
 74
     0
 49
0.1654
 74
     0
 49
-0.0827
 74
     0
 49
0.1654
 74
     0
 49
-0.0827
 74
     0
  0
LTYPE
  5
87
330
5
100
AcDbSymbolTableRecord
100
AcDbLinetypeTableRecord
  2
DOUBLE_DASH_DOUBLE_DOT
 70
     0
  3
Double-Dash Double-dot _ _ . . _ _ . . _
 72
    65
 73
     8
 40
0.7400000000000001
 49
0.24
 74
     0
 49
-0.06
 74
     0
 49
0.24
 74
     0
 49
-0.06
 74
     0
 49
0.01
 74
     0
 49
-0.06
 74
     0
 49
0.01
 74
     0
 49
-0.06
 74
     0
  0
LTYPE
  5
88
330
5
100
AcDbSymbolTableRecord
100
AcDbLinetypeTableRecord
  2
DOUBLE_DASH_TRIPLE_DOT
 70
     0
  3
Double Dash Triple Dot __ __ . . . __ __ . .
 72
    65
 73
    10
 40
0.8100000000000001
 49
0.24
 74
     0
 49
-0.06
 74
     0
 49
0.24
 74
     0
 49
-0.06
 74
     0
 49
0.01
 74
     0
 49
-0.06
 74
     0
 49
0.01
 74
     0
 49
-0.06
 74
     0
 49
0.01
 74
     0
 49
-0.06
 74
     0
  0
LTYPE
  5
89
330
5
100
AcDbSymbolTableRecord
100
AcDbLinetypeTableRecord
  2
LONG_DASH_DOTTED
 70
     0
  3
Long Dash Dotted ____ . ____ . ____ . ____ . _
 72
    65
 73
     4
 40
0.3543
 49
0.2362
 74
     0
 49
-0.0295
 74
     0
 49
0.0591
 74
     0
 49
-0.0295
 74
     0
  0
LTYPE
  5
8A
330
5
100
AcDbSymbolTableRecord
100
AcDbLinetypeTableRecord
  2
LONG_DASH_DOUBLE_DOT
 70
     0
  3
Long Dash Double Dot ________  .  .  ________  
 72
    65
 73
     6
 40
0.6799999999999999
 49
0.48
 74
     0
 49
-0.06
 74
     0
 49
0.01
 74
     0
 49
-0.06
 74
     0
 49
0.01
 74
     0
 49
-0.06
 74
     0
  0
LTYPE
  5
8B
330
5
100
AcDbSymbolTableRecord
100
AcDbLinetypeTableRecord
  2
LONG_DASH_TRIPLE_DOT
 70
     0
  3
Long Dash Triple Dot ____ ... ____ ... ____
 72
    65
 73
     8
 40
0.3689
 49
0.2362
 74
     0
 49
-0.0295
 74
     0
 49
0.0049
 74
     0
 49
-0.0295
 74
     0
 49
0.0049
 74
     0
 49
-0.0295
 74
     0
 49
0.0049
 74
     0
 49
-0.0295
 74
     0
  0
LTYPE
  5
8C
330
5
100
AcDbSymbolTableRecord
100
AcDbLinetypeTableRecord
  2
BORDER
 70
     0
  3
Border __ __ . __ __ . __ __ . __ __ . __ __ .
 72
    65
 73
     6
 40
1.75
 49
0.5
 74
     0
 49
-0.25
 74
     0
 49
0.5
 74
     0
 49
-0.25
 74
     0
 49
0.0
 74
     0
 49
-0.25
 74
     0
  0
LTYPE
  5
8D
330
5
100
AcDbSymbolTableRecord
100
AcDbLinetypeTableRecord
  2
BORDER2
 70
     0
  3
Border (.5x) __.__.__.__.__.__.__.__.__.__.__.
 72
    65
 73
     6
 40
0.875
 49
0.25
 74
     0
 49
-0.125
 74
     0
 49
0.25
 74
     0
 49
-0.125
 74
     0
 49
0.0
 74
     0
 49
-0.125
 74
     0
  0
LTYPE
  5
8E
330
5
100
AcDbSymbolTableRecord
100
AcDbLinetypeTableRecord
  2
BORDERX2
 70
     0
  3
Border (2x) ____  ____  .  ____  ____  .  ___
 72
    65
 73
     6
 40
3.5
 49
1.0
 74
     0
 49
-0.5
 74
     0
 49
1.0
 74
     0
 49
-0.5
 74
     0
 49
0.0
 74
     0
 49
-0.5
 74
     0
  0
LTYPE
  5
8F
330
5
100
AcDbSymbolTableRecord
100
AcDbLinetypeTableRecord
  2
CENTER
 70
     0
  3
Center ____ _ ____ _ ____ _ ____ _ ____ _ ____
 72
    65
 73
     4
 40
2.0
 49
1.25
 74
     0
 49
-0.25
 74
     0
 49
0.25
 74
     0
 49
-0.25
 74
     0
  0
LTYPE
  5
90
330
5
100
AcDbSymbolTableRecord
100
AcDbLinetypeTableRecord
  2
CENTER2
 70
     0
  3
Center (.5x) ___ _ ___ _ ___ _ ___ _ ___ _ ___
 72
    65
 73
     4
 40
1.125
 49
0.75
 74
     0
 49
-0.125
 74
     0
 49
0.125
 74
     0
 49
-0.125
 74
     0
  0
LTYPE
  5
91
330
5
100
AcDbSymbolTableRecord
100
AcDbLinetypeTableRecord
  2
CENTERX2
 70
     0
  3
Center (2x) ________  __  ________  __  _____
 72
    65
 73
     4
 40
4.0
 49
2.5
 74
     0
 49
-0.5
 74
     0
 49
0.5
 74
     0
 49
-0.5
 74
     0
  0
LTYPE
  5
92
330
5
100
AcDbSymbolTableRecord
100
AcDbLinetypeTableRecord
  2
DASHDOT2
 70
     0
  3
Dash dot (.5x) _._._._._._._._._._._._._._._.
 72
    65
 73
     4
 40
0.5
 49
0.25
 74
     0
 49
-0.125
 74
     0
 49
0.0
 74
     0
 49
-0.125
 74
     0
  0
LTYPE
  5
93
330
5
100
AcDbSymbolTableRecord
100
AcDbLinetypeTableRecord
  2
DASHDOTX2
 70
     0
  3
Dash dot (2x) ____  .  ____  .  ____  .  ___
 72
    65
 73
     4
 40
2.0
 49
1.0
 74
     0
 49
-0.5
 74
     0
 49
0.0
 74
     0
 49
-0.5
 74
     0
  0
LTYPE
  5
95
330
5
100
AcDbSymbolTableRecord
100
AcDbLinetypeTableRecord
  2
DASHED2
 70
     0
  3
Dashed (.5x) _ _ _ _ _ _ _ _ _ _ _ _ _ _ _ _ _
 72
    65
 73
     2
 40
0.375
 49
0.25
 74
     0
 49
-0.125
 74
     0
  0
LTYPE
  5
96
330
5
100
AcDbSymbolTableRecord
100
AcDbLinetypeTableRecord
  2
DASHEDX2
 70
     0
  3
Dashed (2x) ____  ____  ____  ____  ____  ___
 72
    65
 73
     2
 40
1.5
 49
1.0
 74
     0
 49
-0.5
 74
     0
  0
LTYPE
  5
97
330
5
100
AcDbSymbolTableRecord
100
AcDbLinetypeTableRecord
  2
DIVIDE
 70
     0
  3
Divide ____ . . ____ . . ____ . . ____ . . ____
 72
    65
 73
     6
 40
1.25
 49
0.5
 74
     0
 49
-0.25
 74
     0
 49
0.0
 74
     0
 49
-0.25
 74
     0
 49
0.0
 74
     0
 49
-0.25
 74
     0
  0
LTYPE
  5
98
330
5
100
AcDbSymbolTableRecord
100
AcDbLinetypeTableRecord
  2
DIVIDE2
 70
     0
  3
Divide (.5x) __..__..__..__..__..__..__..__.._
 72
    65
 73
     6
 40
0.625
 49
0.25
 74
     0
 49
-0.125
 74
     0
 49
0.0
 74
     0
 49
-0.125
 74
     0
 49
0.0
 74
     0
 49
-0.125
 74
     0
  0
LTYPE
  5
99
330
5
100
AcDbSymbolTableRecord
100
AcDbLinetypeTableRecord
  2
DIVIDEX2
 70
     0
  3
Divide (2x) ________  .  .  ________  .  .  _
 72
    65
 73
     6
 40
2.5
 49
1.0
 74
     0
 49
-0.5
 74
     0
 49
0.0
 74
     0
 49
-0.5
 74
     0
 49
0.0
 74
     0
 49
-0.5
 74
     0
  0
LTYPE
  5
9A
330
5
100
AcDbSymbolTableRecord
100
AcDbLinetypeTableRecord
  2
DOT
 70
     0
  3
Dot . . . . . . . . . . . . . . . . . . . . . .
 72
    65
 73
     2
 40
0.25
 49
0.0
 74
     0
 49
-0.25
 74
     0
  0
LTYPE
  5
9B
330
5
100
AcDbSymbolTableRecord
100
AcDbLinetypeTableRecord
  2
DOT2
 70
     0
  3
Dot (.5x) .....................................
 72
    65
 73
     2
 40
0.125
 49
0.0
 74
     0
 49
-0.125
 74
     0
  0
LTYPE
  5
9C
330
5
100
AcDbSymbolTableRecord
100
AcDbLinetypeTableRecord
  2
DOTX2
 70
     0
  3
Dot (2x) .  .  .  .  .  .  .  .  .  .  .  .  . 
 72
    65
 73
     2
 40
0.5
 49
0.0
 74
     0
 49
-0.5
 74
     0
  0
LTYPE
  5
9D
330
5
100
AcDbSymbolTableRecord
100
AcDbLinetypeTableRecord
  2
HIDDEN
 70
     0
  3
Hidden __ __ __ __ __ __ __ __ __ __ __ __ __ _
 72
    65
 73
     2
 40
0.375
 49
0.25
 74
     0
 49
-0.125
 74
     0
  0
LTYPE
  5
9E
330
5
100
AcDbSymbolTableRecord
100
AcDbLinetypeTableRecord
  2
HIDDEN2
 70
     0
  3
Hidden (.5x) _ _ _ _ _ _ _ _ _ _ _ _ _ _ _ _ _
 72
    65
 73
     2
 40
0.1875
 49
0.125
 74
     0
 49
-0.0625
 74
     0
  0
LTYPE
  5
9F
330
5
100
AcDbSymbolTableRecord
100
AcDbLinetypeTableRecord
  2
HIDDENX2
 70
     0
  3
Hidden (2x) ____ ____ ____ ____ ____ ____ ____
 72
    65
 73
     2
 40
0.75
 49
0.5
 74
     0
 49
-0.25
 74
     0
  0
LTYPE
  5
A0
330
5
100
AcDbSymbolTableRecord
100
AcDbLinetypeTableRecord
  2
PHANTOM
 70
     0
  3
Phantom ______  __  __  ______  __  __  ______
 72
    65
 73
     6
 40
2.5
 49
1.25
 74
     0
 49
-0.25
 74
     0
 49
0.25
 74
     0
 49
-0.25
 74
     0
 49
0.25
 74
     0
 49
-0.25
 74
     0
  0
LTYPE
  5
A1
330
5
100
AcDbSymbolTableRecord
100
AcDbLinetypeTableRecord
  2
PHANTOM2
 70
     0
  3
Phantom (.5x) ___ _ _ ___ _ _ ___ _ _ ___ _ _
 72
    65
 73
     6
 40
1.25
 49
0.625
 74
     0
 49
-0.125
 74
     0
 49
0.125
 74
     0
 49
-0.125
 74
     0
 49
0.125
 74
     0
 49
-0.125
 74
     0
  0
LTYPE
  5
A2
330
5
100
AcDbSymbolTableRecord
100
AcDbLinetypeTableRecord
  2
PHANTOMX2
 70
     0
  3
Phantom (2x) ____________    ____    ____   _
 72
    65
 73
     6
 40
5.0
 49
2.5
 74
     0
 49
-0.5
 74
     0
 49
0.5
 74
     0
 49
-0.5
 74
     0
 49
0.5
 74
     0
 49
-0.5
 74
     0
  0
LTYPE
  5
A3
330
5
100
AcDbSymbolTableRecord
100
AcDbLinetypeTableRecord
  2
ACAD_ISO02W100
 70
     0
  3
ISO dash __ __ __ __ __ __ __ __ __ __ __ __ __
 72
    65
 73
     2
 40
0.59
 49
0.47
 74
     0
 49
-0.12
 74
     0
  0
LTYPE
  5
A4
330
5
100
AcDbSymbolTableRecord
100
AcDbLinetypeTableRecord
  2
ACAD_ISO03W100
 70
     0
  3
ISO dash space __    __    __    __    __    __
 72
    65
 73
     2
 40
1.179999999999999
 49
0.47
 74
     0
 49
-0.71
 74
     0
  0
LTYPE
  5
A5
330
5
100
AcDbSymbolTableRecord
100
AcDbLinetypeTableRecord
  2
ACAD_ISO04W100
 70
     0
  3
ISO long-dash dot ____ . ____ . ____ . ____ . _
 72
    65
 73
     4
 40
1.179999999999999
 49
0.9399999999999998
 74
     0
 49
-0.12
 74
     0
 49
0.0
 74
     0
 49
-0.12
 74
     0
  0
LTYPE
  5
A6
330
5
100
AcDbSymbolTableRecord
100
AcDbLinetypeTableRecord
  2
ACAD_ISO05W100
 70
     0
  3
ISO long-dash double-dot ____ .. ____ .. ____ .
 72
    65
 73
     6
 40
1.299999999999999
 49
0.9399999999999998
 74
     0
 49
-0.12
 74
     0
 49
0.0
 74
     0
 49
-0.12
 74
     0
 49
0.0
 74
     0
 49
-0.12
 74
     0
  0
LTYPE
  5
A7
330
5
100
AcDbSymbolTableRecord
100
AcDbLinetypeTableRecord
  2
ACAD_ISO06W100
 70
     0
  3
ISO long-dash triple-dot ____ ... ____ ... ____
 72
    65
 73
     8
 40
1.419999999999999
 49
0.9399999999999998
 74
     0
 49
-0.12
 74
     0
 49
0.0
 74
     0
 49
-0.12
 74
     0
 49
0.0
 74
     0
 49
-0.12
 74
     0
 49
0.0
 74
     0
 49
-0.12
 74
     0
  0
LTYPE
  5
A8
330
5
100
AcDbSymbolTableRecord
100
AcDbLinetypeTableRecord
  2
ACAD_ISO07W100
 70
     0
  3
ISO dot . . . . . . . . . . . . . . . . . . . .
 72
    65
 73
     2
 40
0.12
 49
0.0
 74
     0
 49
-0.12
 74
     0
  0
LTYPE
  5
A9
330
5
100
AcDbSymbolTableRecord
100
AcDbLinetypeTableRecord
  2
ACAD_ISO08W100
 70
     0
  3
ISO long-dash short-dash ____ __ ____ __ ____ _
 72
    65
 73
     4
 40
0.95
 49
0.47
 74
     0
 49
-0.12
 74
     0
 49
0.24
 74
     0
 49
-0.12
 74
     0
  0
LTYPE
  5
AA
330
5
100
AcDbSymbolTableRecord
100
AcDbLinetypeTableRecord
  2
ACAD_ISO09W100
 70
     0
  3
ISO long-dash double-short-dash ____ __ __ ____
 72
    65
 73
     6
 40
1.31
 49
0.47
 74
     0
 49
-0.12
 74
     0
 49
0.24
 74
     0
 49
-0.12
 74
     0
 49
0.24
 74
     0
 49
-0.12
 74
     0
  0
LTYPE
  5
AB
330
5
100
AcDbSymbolTableRecord
100
AcDbLinetypeTableRecord
  2
ACAD_ISO10W100
 70
     0
  3
ISO dash dot __ . __ . __ . __ . __ . __ . __ .
 72
    65
 73
     4
 40
0.71
 49
0.47
 74
     0
 49
-0.12
 74
     0
 49
0.0
 74
     0
 49
-0.12
 74
     0
  0
LTYPE
  5
AC
330
5
100
AcDbSymbolTableRecord
100
AcDbLinetypeTableRecord
  2
ACAD_ISO11W100
 70
     0
  3
ISO double-dash dot __ __ . __ __ . __ __ . __ 
 72
    65
 73
     6
 40
1.299999999999999
 49
0.47
 74
     0
 49
-0.12
 74
     0
 49
0.47
 74
     0
 49
-0.12
 74
     0
 49
0.0
 74
     0
 49
-0.12
 74
     0
  0
LTYPE
  5
AD
330
5
100
AcDbSymbolTableRecord
100
AcDbLinetypeTableRecord
  2
ACAD_ISO12W100
 70
     0
  3
ISO dash double-dot __ . . __ . . __ . . __ . .
 72
    65
 73
     6
 40
0.8299999999999998
 49
0.47
 74
     0
 49
-0.12
 74
     0
 49
0.0
 74
     0
 49
-0.12
 74
     0
 49
0.0
 74
     0
 49
-0.12
 74
     0
  0
LTYPE
  5
AE
330
5
100
AcDbSymbolTableRecord
100
AcDbLinetypeTableRecord
  2
ACAD_ISO13W100
 70
     0
  3
ISO double-dash double-dot __ __ . . __ __ . . 
 72
    65
 73
     8
 40
1.419999999999999
 49
0.47
 74
     0
 49
-0.12
 74
     0
 49
0.47
 74
     0
 49
-0.12
 74
     0
 49
0.0
 74
     0
 49
-0.12
 74
     0
 49
0.0
 74
     0
 49
-0.12
 74
     0
  0
LTYPE
  5
AF
330
5
100
AcDbSymbolTableRecord
100
AcDbLinetypeTableRecord
  2
ACAD_ISO14W100
 70
     0
  3
ISO dash triple-dot __ . . . __ . . . __ . . . 
 72
    65
 73
     8
 40
0.95
 49
0.47
 74
     0
 49
-0.12
 74
     0
 49
0.0
 74
     0
 49
-0.12
 74
     0
 49
0.0
 74
     0
 49
-0.12
 74
     0
 49
0.0
 74
     0
 49
-0.12
 74
     0
  0
LTYPE
  5
B0
330
5
100
AcDbSymbolTableRecord
100
AcDbLinetypeTableRecord
  2
ACAD_ISO15W100
 70
     0
  3
ISO double-dash triple-dot __ __ . . . __ __ . 
 72
    65
 73
    10
 40
1.539999999999999
 49
0.47
 74
     0
 49
-0.12
 74
     0
 49
0.47
 74
     0
 49
-0.12
 74
     0
 49
0.0
 74
     0
 49
-0.12
 74
     0
 49
0.0
 74
     0
 49
-0.12
 74
     0
 49
0.0
 74
     0
 49
-0.12
 74
     0
  0
LTYPE
  5
B3
330
5
100
AcDbSymbolTableRecord
100
AcDbLinetypeTableRecord
  2
FENCELINE1
 70
     0
  3
Fenceline circle ----0-----0----0-----0----0---
 72
    65
 73
     4
 40
1.45
 49
0.25
 74
     0
 49
-0.1
 74
     4
 75
   133
340
B2
 46
0.1
 50
0.0
 44
-0.1
 45
0.0
 49
-0.1
 74
     0
 49
1.0
 74
     0
  0
LTYPE
  5
B4
330
5
100
AcDbSymbolTableRecord
100
AcDbLinetypeTableRecord
  2
FENCELINE2
 70
     0
  3
Fenceline square ----[]-----[]----[]-----[]----
 72
    65
 73
     4
 40
1.45
 49
0.25
 74
     0
 49
-0.1
 74
     4
 75
   132
340
B2
 46
0.1
 50
0.0
 44
-0.1
 45
0.0
 49
-0.1
 74
     0
 49
1.0
 74
     0
  0
LTYPE
  5
B5
330
5
100
AcDbSymbolTableRecord
100
AcDbLinetypeTableRecord
  2
TRACKS
 70
     0
  3
Tracks -|-|-|-|-|-|-|-|-|-|-|-|-|-|-|-|-|-|-|-|
 72
    65
 73
     2
 40
0.3
 49
0.15
 74
     4
 75
   130
340
B2
 46
0.25
 50
0.0
 44
0.0
 45
0.0
 49
0.15
 74
     0
  0
LTYPE
  5
B6
330
5
100
AcDbSymbolTableRecord
100
AcDbLinetypeTableRecord
  2
BATTING
 70
     0
  3
Batting SSSSSSSSSSSSSSSSSSSSSSSSSSSSSSSSSSSSSSS
 72
    65
 73
     4
 40
0.4001000000000001
 49
0.0001
 74
     0
 49
-0.1
 74
     4
 75
   134
340
B2
 46
0.1
 50
0.0
 44
-0.1
 45
0.0
 49
-0.2
 74
     4
 75
   134
340
B2
 46
0.1
 50
180.0
 44
0.1
 45
0.0
 49
-0.1
 74
     0
  0
LTYPE
  5
B7
330
5
100
AcDbSymbolTableRecord
100
AcDbLinetypeTableRecord
  2
HOT_WATER_SUPPLY
 70
     0
  3
Hot water supply ---- HW ---- HW ---- HW ----
 72
    65
 73
     3
 40
0.9
 49
0.5
 74
     0
 49
-0.2
 74
     2
 75
     0
340
55
 46
0.1
 50
0.0
 44
-0.1
 45
-0.05
  9
HW
 49
-0.2
 74
     0
  0
LTYPE
  5
B8
330
5
100
AcDbSymbolTableRecord
100
AcDbLinetypeTableRecord
  2
GAS_LINE
 70
     0
  3
Gas line ----GAS----GAS----GAS----GAS----GAS---
 72
    65
 73
     3
 40
0.95
 49
0.5
 74
     0
 49
-0.2
 74
     2
 75
     0
340
55
 46
0.1
 50
0.0
 44
-0.1
 45
-0.05
  9
GAS
 49
-0.25
 74
     0
  0
LTYPE
  5
B9
330
5
100
AcDbSymbolTableRecord
100
AcDbLinetypeTableRecord
  2
ZIGZAG
 70
     0
  3
Zig zag /\/\/\/\/\/\/\/\/\/\/\/\/\/\/\/\/\/\/\/
 72
    65
 73
     4
 40
0.8001000000000001
 49
0.0001
 74
     0
 49
-0.2
 74
     4
 75
   131
340
B2
 46
0.2
 50
0.0
 44
-0.2
 45
0.0
 49
-0.4
 74
     4
 75
   131
340
B2
 46
0.2
 50
180.0
 44
0.2
 45
0.0
 49
-0.2
 74
     0
  0
ENDTAB
  0
TABLE
  2
LAYER
  5
2
330
0
100
AcDbSymbolTable
 70
    27
  0
LAYER
  5
54
330
2
100
AcDbSymbolTableRecord
100
AcDbLayerTableRecord
  2
0
 70
     0
 62
     7
  6
Continuous
370
     0
390
F
  0
LAYER
  5
C0
330
2
100
AcDbSymbolTableRecord
100
AcDbLayerTableRecord
  2
Center Mark (ANSI)
 70
     0
 62
     7
  6
Continuous
370
     5
390
F
  0
LAYER
  5
C1
330
2
100
AcDbSymbolTableRecord
100
AcDbLayerTableRecord
  2
Centerline (ANSI)
 70
     0
 62
     7
  6
Continuous
370
     5
390
F
  0
LAYER
  5
C3
330
2
100
AcDbSymbolTableRecord
100
AcDbLayerTableRecord
  2
Dimension (ANSI)
 70
     0
 62
     7
  6
Continuous
370
     5
390
F
  0
LAYER
  5
CC
330
2
100
AcDbSymbolTableRecord
100
AcDbLayerTableRecord
  2
Symbol (ANSI)
 70
     0
 62
     7
  6
Continuous
370
     5
390
F
  0
LAYER
  5
CF
330
2
100
AcDbSymbolTableRecord
100
AcDbLayerTableRecord
  2
Visible (ANSI)
 70
     0
 62
     7
  6
Continuous
370
     5
390
F
  0
LAYER
  5
D0
330
2
100
AcDbSymbolTableRecord
100
AcDbLayerTableRecord
  2
Visible Narrow (ANSI)
 70
     0
 62
     7
  6
Continuous
370
     5
390
F
  0
LAYER
  5
2AE
330
2
100
AcDbSymbolTableRecord
100
AcDbLayerTableRecord
  2
Defpoints
 70
     0
 62
     7
  6
Continuous
290
     0
370
    -3
390
F
  0
ENDTAB
  0
TABLE
  2
STYLE
  5
3
330
0
100
AcDbSymbolTable
 70
    10
  0
STYLE
  5
55
330
3
100
AcDbSymbolTableRecord
100
AcDbTextStyleTableRecord
  2
Standard
 70
     0
 40
0.0
 41
1.0
 50
0.0
 71
     0
 42
0.2
  3
txt
  4

  0
STYLE
  5
5A
330
3
100
AcDbSymbolTableRecord
100
AcDbTextStyleTableRecord
  2
Annotative
 70
     0
 40
0.0
 41
1.0
 50
0.0
 71
     0
 42
0.2
  3
txt
  4

1001
AcadAnnotative
1000
AnnotativeData
1002
{
1070
     1
1070
     1
1002
}
  0
STYLE
  5
B2
330
3
100
AcDbSymbolTableRecord
100
AcDbTextStyleTableRecord
  2

 70
     1
 40
0.0
 41
1.0
 50
0.0
 71
     0
 42
0.2
  3
ltypeshp.shx
  4

  0
STYLE
  5
D4
330
3
100
AcDbSymbolTableRecord
100
AcDbTextStyleTableRecord
  2
ITALICC_120
 70
     0
 40
0.0
 41
1.0
 50
0.0
 71
     0
 42
0.2
  3
italicc.shx
  4

  0
STYLE
  5
D5
330
3
100
AcDbSymbolTableRecord
100
AcDbTextStyleTableRecord
  2
Label Text (ANSI)
 70
     0
 40
0.0
 41
1.0
 50
0.0
 71
     0
 42
0.2
  3
tahoma.ttf
  4

1001
ACAD
1000
Tahoma
1071
      256
  0
STYLE
  5
D6
330
3
100
AcDbSymbolTableRecord
100
AcDbTextStyleTableRecord
  2
Note Text (ANSI)
 70
     0
 40
0.0
 41
1.0
 50
0.0
 71
     0
 42
0.2
  3
RomanS.shx
  4

  0
STYLE
  5
D7
330
3
100
AcDbSymbolTableRecord
100
AcDbTextStyleTableRecord
  2
ROMANS
 70
     0
 40
0.0
 41
1.0
 50
0.0
 71
     0
 42
0.2
  3
romans.shx
  4

  0
STYLE
  5
D8
330
3
100
AcDbSymbolTableRecord
100
AcDbTextStyleTableRecord
  2
SANSSERIF_114
 70
     0
 40
0.0
 41
1.0
 50
0.0
 71
     0
 42
0.2
  3
tahoma.ttf
  4

1001
ACAD
1000
Tahoma
1071
      256
  0
STYLE
  5
D9
330
3
100
AcDbSymbolTableRecord
100
AcDbTextStyleTableRecord
  2
SANSSERIF_117
 70
     0
 40
0.0
 41
1.0
 50
0.0
 71
     0
 42
0.2
  3
tahoma.ttf
  4

1001
ACAD
1000
Tahoma
1071
      256
  0
STYLE
  5
15E
330
3
100
AcDbSymbolTableRecord
100
AcDbTextStyleTableRecord
  2
Text Style168
 70
     0
 40
0.0
 41
1.0
 50
0.0
 71
     0
 42
0.2
  3
tahoma.ttf
  4

1001
ACAD
1000
Tahoma
1071
      256
  0
ENDTAB
  0
TABLE
  2
VIEW
  5
6
330
0
100
AcDbSymbolTable
 70
     0
  0
ENDTAB
  0
TABLE
  2
UCS
  5
7
330
0
100
AcDbSymbolTable
 70
     0
  0
ENDTAB
  0
TABLE
  2
APPID
  5
9
330
0
100
AcDbSymbolTable
 70
     5
  0
APPID
  5
56
330
9
100
AcDbSymbolTableRecord
100
AcDbRegAppTableRecord
  2
ACAD
 70
     0
  0
APPID
  5
5E
330
9
100
AcDbSymbolTableRecord
100
AcDbRegAppTableRecord
  2
AcadAnnotative
 70
     0
  0
APPID
  5
618
330
9
100
AcDbSymbolTableRecord
100
AcDbRegAppTableRecord
  2
ACAD_DSTYLE_DIMANGULAR_EXTENSION
 70
     0
  0
APPID
  5
EEB
330
9
100
AcDbSymbolTableRecord
100
AcDbRegAppTableRecord
  2
ACAD_DSTYLE_DIMRADIAL_EXTENSION
 70
     0
  0
APPID
  5
15A8
330
9
100
AcDbSymbolTableRecord
100
AcDbRegAppTableRecord
  2
ACAD_MLEADERVER
 70
     0
  0
ENDTAB
  0
TABLE
  2
DIMSTYLE
  5
A
330
0
100
AcDbSymbolTable
 70
    15
100
AcDbDimStyleTable
 71
     2
340
E2
340
58
  0
DIMSTYLE
105
58
330
A
100
AcDbSymbolTableRecord
100
AcDbDimStyleTableRecord
  2
Standard
 70
     0
340
55
  0
DIMSTYLE
105
59
330
A
100
AcDbSymbolTableRecord
100
AcDbDimStyleTableRecord
  2
Annotative
 70
     0
340
55
1001
AcadAnnotative
1000
AnnotativeData
1002
{
1070
     1
1070
     1
1002
}
  0
DIMSTYLE
105
DA
330
A
100
AcDbSymbolTableRecord
100
AcDbDimStyleTableRecord
  2
Architectural (ANSI)
 70
     0
 40
6.0
 41
0.0984251946210861
 43
0.2362204724409449
 44
0.125
 45
0.00000001
 46
0.3937007874015748
 78
     3
 79
     3
140
0.1000000014901161
146
1.200000047683715
147
0.031496062992126
171
     1
176
   256
177
   256
178
   256
272
     2
274
     1
276
     2
277
     4
284
    12
285
     4
286
    12
340
D6
371
    -1
372
    -1
  0
DIMSTYLE
105
DB
330
A
100
AcDbSymbolTableRecord
100
AcDbDimStyleTableRecord
  2
Architectural (ANSI)$7
 70
     0
 40
6.0
 41
0.0984251946210861
 43
0.2362204724409449
 44
0.125
 45
0.00000001
 46
0.3937007874015748
 78
     3
 79
     3
140
0.1000000014901161
146
1.200000047683715
147
0.031496062992126
171
     1
176
   256
177
   256
178
   256
272
     2
274
     1
276
     2
277
     4
284
    12
285
     4
286
    12
340
D6
371
    -1
372
    -1
  0
DIMSTYLE
105
DC
330
A
100
AcDbSymbolTableRecord
100
AcDbDimStyleTableRecord
  2
Default - Fraction (ANSI)
 70
     0
 40
6.0
 41
0.0984251946210861
 43
0.2362204724409449
 44
0.125
 45
0.00000001
 46
0.3937007874015748
 79
     3
140
0.1000000014901161
146
1.200000047683715
147
0.031496062992126
171
     1
176
   256
177
   256
178
   256
272
     2
274
     1
276
     2
277
     5
284
    12
285
     4
286
    12
340
D6
371
    -1
372
    -1
  0
DIMSTYLE
105
DD
330
A
100
AcDbSymbolTableRecord
100
AcDbDimStyleTableRecord
  2
Default - Fraction (ANSI)$7
 70
     0
 40
6.0
 41
0.0984251946210861
 43
0.2362204724409449
 44
0.125
 45
0.00000001
 46
0.3937007874015748
 79
     3
140
0.1000000014901161
146
1.200000047683715
147
0.031496062992126
171
     1
176
   256
177
   256
178
   256
272
     2
274
     1
276
     2
277
     5
284
    12
285
     4
286
    12
340
D6
371
    -1
372
    -1
  0
DIMSTYLE
105
DE
330
A
100
AcDbSymbolTableRecord
100
AcDbDimStyleTableRecord
  2
Default - mm (ANSI)
 70
     0
 40
6.0
 41
0.0984251946210861
 42
0.063
 43
0.2362204724409449
 44
0.125
 45
0.00000001
 46
0.3937007874015748
 73
     0
 78
     4
 79
     1
140
0.1000000014901161
143
1.0
144
25.4
146
1.200000047683715
147
0.031496062992126
171
     1
176
   256
177
   256
178
   256
179
     1
271
     2
272
     2
274
     1
284
     4
285
     4
340
D6
371
    -1
372
    -1
  0
DIMSTYLE
105
DF
330
A
100
AcDbSymbolTableRecord
100
AcDbDimStyleTableRecord
  2
Default - mm (ANSI)$7
 70
     0
 40
6.0
 41
0.0984251946210861
 42
0.063
 43
0.2362204724409449
 44
0.125
 45
0.00000001
 46
0.3937007874015748
 73
     0
 78
     4
 79
     1
140
0.1000000014901161
143
1.0
144
25.4
146
1.200000047683715
147
0.031496062992126
171
     1
176
   256
177
   256
178
   256
179
     1
271
     2
272
     2
274
     1
284
     4
285
     4
340
D6
371
    -1
372
    -1
  0
DIMSTYLE
105
E0
330
A
100
AcDbSymbolTableRecord
100
AcDbDimStyleTableRecord
  2
Default - mm [in] (ANSI)
 70
     0
  4
 in
 40
6.0
 41
0.0984251946210861
 42
0.063
 43
0.25
 44
0.125
 45
0.00000001
 46
0.3937007874015748
 73
     0
 78
     4
 79
     1
140
0.1000000014901161
143
0.03937
144
25.4
146
1.200000047683715
147
0.031496062992126
170
     1
171
     3
176
   256
177
   256
178
   256
179
     1
271
     2
272
     2
274
     3
284
     4
285
     4
286
     4
340
D6
371
    -1
372
    -1
  0
DIMSTYLE
105
E1
330
A
100
AcDbSymbolTableRecord
100
AcDbDimStyleTableRecord
  2
Default - mm [in] (ANSI)$7
 70
     0
  4
 in
 40
6.0
 41
0.0984251946210861
 42
0.063
 43
0.25
 44
0.125
 45
0.00000001
 46
0.3937007874015748
 73
     0
 78
     4
 79
     1
140
0.1000000014901161
143
0.03937
144
25.4
146
1.200000047683715
147
0.031496062992126
170
     1
171
     3
176
   256
177
   256
178
   256
179
     1
271
     2
272
     2
274
     3
284
     4
285
     4
286
     4
340
D6
371
    -1
372
    -1
  0
DIMSTYLE
105
E2
102
{ACAD_REACTORS
330
2AC
330
3AD
330
4AB
330
595
330
6BE
330
7AD
330
8AA
330
99D
330
A87
330
B7E
330
C68
330
D54
330
E52
330
F11
330
FFB
330
10E5
330
11CF
330
12CC
330
13BC
330
1475
102
}
330
A
100
AcDbSymbolTableRecord
100
AcDbDimStyleTableRecord
  2
Default (ANSI)
 70
     0
 40
6.0
 41
0.0984251946210861
 43
0.2362204724409449
 44
0.125
 45
0.00000001
 46
0.3937007874015748
140
0.1000000014901161
147
0.031496062992126
176
   256
177
   256
178
   256
271
     2
272
     2
340
D7
371
    -1
372
    -1
  0
DIMSTYLE
105
E3
330
A
100
AcDbSymbolTableRecord
100
AcDbDimStyleTableRecord
  2
Default (ANSI)$7
 70
     0
 40
6.0
 41
0.0984251946210861
 43
0.2362204724409449
 44
0.125
 45
0.00000001
 46
0.3937007874015748
140
0.1000000014901161
147
0.031496062992126
176
   256
177
   256
178
   256
271
     2
272
     2
340
D7
371
    -1
372
    -1
  0
DIMSTYLE
105
E4
330
A
100
AcDbSymbolTableRecord
100
AcDbDimStyleTableRecord
  2
Alternate (ANSI)
 70
     0
 40
6.0
 41
0.0979999974370003
340
55
342
E5
  0
DIMSTYLE
105
F7
330
A
100
AcDbSymbolTableRecord
100
AcDbDimStyleTableRecord
  2
Datum (ANSI)
 70
     0
 40
6.0
 41
0.0979999974370003
340
55
342
E5
  0
DIMSTYLE
105
106
330
A
100
AcDbSymbolTableRecord
100
AcDbDimStyleTableRecord
  2
Large (ANSI)
 70
     0
 40
6.0
 41
0.1959999948740005
340
55
342
E5
  0
ENDTAB
  0
TABLE
  2
BLOCK_RECORD
  5
1
330
0
100
AcDbSymbolTable
 70
    24
  0
BLOCK_RECORD
  5
6C
330
1
100
AcDbSymbolTableRecord
100
AcDbBlockTableRecord
  2
*Model_Space
340
6F
  0
BLOCK_RECORD
  5
68
330
1
100
AcDbSymbolTableRecord
100
AcDbBlockTableRecord
  2
*Paper_Space
340
6B
  0
BLOCK_RECORD
  5
70
330
1
100
AcDbSymbolTableRecord
100
AcDbBlockTableRecord
  2
*Paper_Space0
340
73
  0
BLOCK_RECORD
  5
E5
330
1
100
AcDbSymbolTableRecord
100
AcDbBlockTableRecord
  2
_Closed
340
0
  0
BLOCK_RECORD
  5
EC
330
1
100
AcDbSymbolTableRecord
100
AcDbBlockTableRecord
  2
DatumFilled45
340
0
  0
BLOCK_RECORD
  5
F8
330
1
100
AcDbSymbolTableRecord
100
AcDbBlockTableRecord
  2
Filled-1
340
0
  0
BLOCK_RECORD
  5
2AF
330
1
100
AcDbSymbolTableRecord
100
AcDbBlockTableRecord
  2
*D4
340
0
  0
BLOCK_RECORD
  5
3AE
330
1
100
AcDbSymbolTableRecord
100
AcDbBlockTableRecord
  2
*D5
340
0
  0
BLOCK_RECORD
  5
4AC
330
1
100
AcDbSymbolTableRecord
100
AcDbBlockTableRecord
  2
*D6
340
0
  0
BLOCK_RECORD
  5
596
330
1
100
AcDbSymbolTableRecord
100
AcDbBlockTableRecord
  2
*D7
340
0
  0
BLOCK_RECORD
  5
6BF
330
1
100
AcDbSymbolTableRecord
100
AcDbBlockTableRecord
  2
*D8
340
0
  0
BLOCK_RECORD
  5
7AE
330
1
100
AcDbSymbolTableRecord
100
AcDbBlockTableRecord
  2
*D9
340
0
  0
BLOCK_RECORD
  5
8AB
330
1
100
AcDbSymbolTableRecord
100
AcDbBlockTableRecord
  2
*D10
340
0
  0
BLOCK_RECORD
  5
99E
330
1
100
AcDbSymbolTableRecord
100
AcDbBlockTableRecord
  2
*D11
340
0
  0
BLOCK_RECORD
  5
A88
330
1
100
AcDbSymbolTableRecord
100
AcDbBlockTableRecord
  2
*D12
340
0
  0
BLOCK_RECORD
  5
B7F
330
1
100
AcDbSymbolTableRecord
100
AcDbBlockTableRecord
  2
*D13
340
0
  0
BLOCK_RECORD
  5
C69
330
1
100
AcDbSymbolTableRecord
100
AcDbBlockTableRecord
  2
*D14
340
0
  0
BLOCK_RECORD
  5
D55
330
1
100
AcDbSymbolTableRecord
100
AcDbBlockTableRecord
  2
*D15
340
0
  0
BLOCK_RECORD
  5
E53
330
1
100
AcDbSymbolTableRecord
100
AcDbBlockTableRecord
  2
*D16
340
0
  0
BLOCK_RECORD
  5
F12
330
1
100
AcDbSymbolTableRecord
100
AcDbBlockTableRecord
  2
*D17
340
0
  0
BLOCK_RECORD
  5
FFC
330
1
100
AcDbSymbolTableRecord
100
AcDbBlockTableRecord
  2
*D18
340
0
  0
BLOCK_RECORD
  5
10E6
330
1
100
AcDbSymbolTableRecord
100
AcDbBlockTableRecord
  2
*D19
340
0
  0
BLOCK_RECORD
  5
11D0
330
1
100
AcDbSymbolTableRecord
100
AcDbBlockTableRecord
  2
*D20
340
0
  0
BLOCK_RECORD
  5
12CD
330
1
100
AcDbSymbolTableRecord
100
AcDbBlockTableRecord
  2
*D21
340
0
  0
BLOCK_RECORD
  5
13BD
330
1
100
AcDbSymbolTableRecord
100
AcDbBlockTableRecord
  2
*D22
340
0
  0
BLOCK_RECORD
  5
1476
330
1
100
AcDbSymbolTableRecord
100
AcDbBlockTableRecord
  2
*D23
340
0
  0
ENDTAB
  0
ENDSEC
  0
SECTION
  2
BLOCKS
  0
BLOCK
  5
6D
330
6C
100
AcDbEntity
  8
0
100
AcDbBlockBegin
  2
*Model_Space
 70
     0
 10
0.0
 20
0.0
 30
0.0
  3
*Model_Space
  1

  0
ENDBLK
  5
6E
330
6C
100
AcDbEntity
  8
0
100
AcDbBlockEnd
  0
BLOCK
  5
69
330
68
100
AcDbEntity
 67
     1
  8
0
100
AcDbBlockBegin
  2
*Paper_Space
 70
     0
 10
0.0
 20
0.0
 30
0.0
  3
*Paper_Space
  1

  0
ENDBLK
  5
6A
330
68
100
AcDbEntity
 67
     1
  8
0
100
AcDbBlockEnd
  0
BLOCK
  5
71
330
70
100
AcDbEntity
 67
     1
  8
0
100
AcDbBlockBegin
  2
*Paper_Space0
 70
     0
 10
0.0
 20
0.0
 30
0.0
  3
*Paper_Space0
  1

  0
ENDBLK
  5
72
330
70
100
AcDbEntity
 67
     1
  8
0
100
AcDbBlockEnd
  0
BLOCK
  5
EA
330
E5
100
AcDbEntity
  8
0
100
AcDbBlockBegin
  2
_Closed
 70
     0
 10
0.0
 20
0.0
 30
0.0
  3
_Closed
  1

  0
LINE
  5
E6
330
E5
100
AcDbEntity
  8
0
  6
ByBlock
 62
     0
370
    -2
100
AcDbLine
 10
-1.0
 20
0.1666666666666666
 30
0.0
 11
0.0
 21
0.0
 31
0.0
  0
LINE
  5
E7
330
E5
100
AcDbEntity
  8
0
  6
ByBlock
 62
     0
370
    -2
100
AcDbLine
 10
0.0
 20
0.0
 30
0.0
 11
-1.0
 21
-0.1666666666666666
 31
0.0
  0
LINE
  5
E8
330
E5
100
AcDbEntity
  8
0
  6
ByBlock
 62
     0
370
    -2
100
AcDbLine
 10
-1.0
 20
0.1666666666666666
 30
0.0
 11
-1.0
 21
-0.1666666666666666
 31
0.0
  0
LINE
  5
E9
330
E5
100
AcDbEntity
  8
0
  6
ByBlock
 62
     0
370
    -2
100
AcDbLine
 10
0.0
 20
0.0
 30
0.0
 11
-1.0
 21
0.0
 31
0.0
  0
ENDBLK
  5
EB
330
E5
100
AcDbEntity
  8
0
100
AcDbBlockEnd
  0
BLOCK
  5
ED
330
EC
100
AcDbEntity
  8
0
100
AcDbBlockBegin
  2
DatumFilled45
 70
     0
 10
0.0
 20
0.0
 30
0.0
  3
DatumFilled45
  1

  0
POLYLINE
  5
EF
330
EC
100
AcDbEntity
  8
0
 62
     0
100
AcDb2dPolyline
 66
     1
 10
0.0
 20
0.0
 30
0.0
 70
   128
  0
VERTEX
  5
F0
330
EF
100
AcDbEntity
  8
0
 62
     0
100
AcDbVertex
100
AcDb2dVertex
 10
0.0
 20
0.9999999999999998
 30
0.0
  0
VERTEX
  5
F1
330
EF
100
AcDbEntity
  8
0
 62
     0
100
AcDbVertex
100
AcDb2dVertex
 10
0.0
 20
-0.9999999999999998
 30
0.0
  0
VERTEX
  5
F3
330
EF
100
AcDbEntity
  8
0
 62
     0
100
AcDbVertex
100
AcDb2dVertex
 10
-0.9999999999999998
 20
0.0
 30
0.0
  0
VERTEX
  5
F4
330
EF
100
AcDbEntity
  8
0
 62
     0
100
AcDbVertex
100
AcDb2dVertex
 10
0.0
 20
0.9999999999999998
 30
0.0
  0
SEQEND
  5
F2
330
EF
100
AcDbEntity
  8
0
 62
     0
  0
SOLID
  5
F6
330
EC
100
AcDbEntity
  8
0
 62
     0
100
AcDbTrace
 10
0.0
 20
0.9999999999999998
 30
0.0
 11
0.0
 21
-0.9999999999999998
 31
0.0
 12
-0.9999999999999998
 22
0.0
 32
0.0
 13
0.0
 23
0.9999999999999998
 33
0.0
  0
ENDBLK
  5
EE
330
EC
100
AcDbEntity
  8
0
100
AcDbBlockEnd
  0
BLOCK
  5
F9
330
F8
100
AcDbEntity
  8
0
100
AcDbBlockBegin
  2
Filled-1
 70
     0
 10
0.0
 20
0.0
 30
0.0
  3
Filled-1
  1

  0
LINE
  5
FB
330
F8
100
AcDbEntity
  8
0
 62
     0
100
AcDbLine
 10
-0.9999999999999998
 20
0.0
 30
0.0
 11
0.0
 21
0.0
 31
0.0
  0
POLYLINE
  5
FC
330
F8
100
AcDbEntity
  8
0
 62
     0
100
AcDb2dPolyline
 66
     1
 10
0.0
 20
0.0
 30
0.0
 70
   128
  0
VERTEX
  5
FD
330
FC
100
AcDbEntity
  8
0
 62
     0
100
AcDbVertex
100
AcDb2dVertex
 10
-0.9999999999999998
 20
-0.0994897959183674
 30
0.0
  0
VERTEX
  5
FE
330
FC
100
AcDbEntity
  8
0
 62
     0
100
AcDbVertex
100
AcDb2dVertex
 10
0.0
 20
0.0
 30
0.0
  0
VERTEX
  5
100
330
FC
100
AcDbEntity
  8
0
 62
     0
100
AcDbVertex
100
AcDb2dVertex
 10
-0.9999999999999998
 20
0.0994897959183674
 30
0.0
  0
VERTEX
  5
101
330
FC
100
AcDbEntity
  8
0
 62
     0
100
AcDbVertex
100
AcDb2dVertex
 10
-0.9999999999999998
 20
-0.0994897959183674
 30
0.0
  0
SEQEND
  5
FF
330
FC
100
AcDbEntity
  8
0
 62
     0
  0
SOLID
  5
102
330
F8
100
AcDbEntity
  8
0
 62
     0
100
AcDbTrace
 10
-0.9999999999999998
 20
-0.0994897959183674
 30
0.0
 11
0.0
 21
0.0
 31
0.0
 12
-0.9999999999999998
 22
0.0994897959183674
 32
0.0
 13
-0.9999999999999998
 23
-0.0994897959183674
 33
0.0
  0
LINE
  5
103
330
F8
100
AcDbEntity
  8
0
 62
     0
100
AcDbLine
 10
-0.9999999999999998
 20
-0.0994897959183674
 30
0.0
 11
0.0
 21
0.0
 31
0.0
  0
LINE
  5
104
330
F8
100
AcDbEntity
  8
0
 62
     0
100
AcDbLine
 10
0.0
 20
0.0
 30
0.0
 11
-0.9999999999999998
 21
0.0994897959183674
 31
0.0
  0
LINE
  5
105
330
F8
100
AcDbEntity
  8
0
 62
     0
100
AcDbLine
 10
-0.9999999999999998
 20
0.0994897959183674
 30
0.0
 11
-0.9999999999999998
 21
-0.0994897959183674
 31
0.0
  0
ENDBLK
  5
FA
330
F8
100
AcDbEntity
  8
0
100
AcDbBlockEnd
  0
BLOCK
  5
2B0
330
2AF
100
AcDbEntity
  8
0
100
AcDbBlockBegin
  2
*D4
 70
     1
 10
0.0
 20
0.0
 30
0.0
  3
*D4
  1

  0
LINE
  5
3A3
330
2AF
100
AcDbEntity
  8
Dimension (ANSI)
440
 16777216
100
AcDbLine
 10
32.18028453130134
 20
40.48947719703326
 30
0.0
 11
27.55901757527735
 21
40.48947719703326
 31
0.0
  0
LINE
  5
3A4
330
2AF
100
AcDbEntity
  8
Dimension (ANSI)
440
 16777216
100
AcDbLine
 10
32.33653453130131
 20
28.48960333823148
 30
0.0
 11
27.55901757527735
 21
28.48960333823148
 31
0.0
  0
LINE
  5
3A5
330
2AF
100
AcDbEntity
  8
Dimension (ANSI)
440
 16777216
100
AcDbLine
 10
28.30901757527735
 20
39.89892602930675
 30
0.0
 11
28.30901757527735
 21
35.47851665750604
 31
0.0
  0
LINE
  5
3A6
330
2AF
100
AcDbEntity
  8
Dimension (ANSI)
440
 16777216
100
AcDbLine
 10
28.30901757527735
 20
29.08015450595799
 30
0.0
 11
28.30901757527735
 21
33.50056387775867
 31
0.0
  0
SOLID
  5
3A7
330
2AF
100
AcDbEntity
  8
Dimension (ANSI)
440
 16777216
100
AcDbTrace
 10
28.21059238065626
 20
39.89892602930675
 30
0.0
 11
28.40744276989843
 21
39.89892602930675
 31
0.0
 12
28.30901757527735
 22
40.48947719703326
 32
0.0
 13
28.30901757527735
 23
40.48947719703326
 33
0.0
  0
SOLID
  5
3A8
330
2AF
100
AcDbEntity
  8
Dimension (ANSI)
440
 16777216
100
AcDbTrace
 10
28.21059238065626
 20
29.08015450595799
 30
0.0
 11
28.40744276989843
 21
29.08015450595799
 31
0.0
 12
28.30901757527735
 22
28.48960333823148
 32
0.0
 13
28.30901757527735
 23
28.48960333823148
 33
0.0
  0
MTEXT
  5
3A9
330
2AF
100
AcDbEntity
  8
Dimension (ANSI)
440
 16777216
100
AcDbMText
 10
28.30901757527735
 20
34.48954026763237
 30
0.0
 40
0.6000000089406968
 41
0.0
 71
     5
 72
     1
  1
\A1;12.00{\PHEIGHT}
  7
ROMANS
 73
     1
 44
1.0
  0
POINT
  5
3AA
330
2AF
100
AcDbEntity
  8
Defpoints
 62
     0
440
 16777216
100
AcDbPoint
 10
32.55528453130134
 20
40.48947719703326
 30
0.0
  0
POINT
  5
3AB
330
2AF
100
AcDbEntity
  8
Defpoints
 62
     0
440
 16777216
100
AcDbPoint
 10
32.71153453130131
 20
28.48960333823148
 30
0.0
  0
POINT
  5
3AC
330
2AF
100
AcDbEntity
  8
Defpoints
 62
     0
440
 16777216
100
AcDbPoint
 10
28.30901757527735
 20
28.48960333823148
 30
0.0
  0
ENDBLK
  5
2B1
330
2AF
100
AcDbEntity
  8
0
100
AcDbBlockEnd
  0
BLOCK
  5
3AF
330
3AE
100
AcDbEntity
  8
0
100
AcDbBlockBegin
  2
*D5
 70
     1
 10
0.0
 20
0.0
 30
0.0
  3
*D5
  1

  0
LINE
  5
4A1
330
3AE
100
AcDbEntity
  8
Dimension (ANSI)
440
 16777216
100
AcDbLine
 10
32.33653453130134
 20
40.64572719703325
 30
0.0
 11
32.33653453130134
 21
44.0107956690544
 31
0.0
  0
LINE
  5
4A2
330
3AE
100
AcDbEntity
  8
Dimension (ANSI)
440
 16777216
100
AcDbLine
 10
56.46153453130114
 20
40.64572719703326
 30
0.0
 11
56.46153453130114
 21
44.0107956690544
 31
0.0
  0
LINE
  5
4A3
330
3AE
100
AcDbEntity
  8
Dimension (ANSI)
440
 16777216
100
AcDbLine
 10
32.92708569902786
 20
43.2607956690544
 30
0.0
 11
42.9957724209685
 21
43.2607956690544
 31
0.0
  0
LINE
  5
4A4
330
3AE
100
AcDbEntity
  8
Dimension (ANSI)
440
 16777216
100
AcDbLine
 10
55.87098336357463
 20
43.2607956690544
 30
0.0
 11
45.80229664163398
 21
43.2607956690544
 31
0.0
  0
SOLID
  5
4A5
330
3AE
100
AcDbEntity
  8
Dimension (ANSI)
440
 16777216
100
AcDbTrace
 10
32.92708569902786
 20
43.35922086367548
 30
0.0
 11
32.92708569902786
 21
43.16237047443332
 31
0.0
 12
32.33653453130134
 22
43.2607956690544
 32
0.0
 13
32.33653453130134
 23
43.2607956690544
 33
0.0
  0
SOLID
  5
4A6
330
3AE
100
AcDbEntity
  8
Dimension (ANSI)
440
 16777216
100
AcDbTrace
 10
55.87098336357463
 20
43.35922086367548
 30
0.0
 11
55.87098336357463
 21
43.16237047443332
 31
0.0
 12
56.46153453130114
 22
43.2607956690544
 32
0.0
 13
56.46153453130114
 23
43.2607956690544
 33
0.0
  0
MTEXT
  5
4A7
330
3AE
100
AcDbEntity
  8
Dimension (ANSI)
440
 16777216
100
AcDbMText
 10
44.39903453130123
 20
43.2607956690544
 30
0.0
 40
0.6000000089406968
 41
0.0
 71
     5
 72
     1
  1
\A1;24.12{\PWIDTH}
  7
ROMANS
 73
     1
 44
1.0
  0
POINT
  5
4A8
330
3AE
100
AcDbEntity
  8
Defpoints
 62
     0
440
 16777216
100
AcDbPoint
 10
32.33653453130134
 20
40.27072719703325
 30
0.0
  0
POINT
  5
4A9
330
3AE
100
AcDbEntity
  8
Defpoints
 62
     0
440
 16777216
100
AcDbPoint
 10
56.46153453130114
 20
40.27072719703325
 30
0.0
  0
POINT
  5
4AA
330
3AE
100
AcDbEntity
  8
Defpoints
 62
     0
440
 16777216
100
AcDbPoint
 10
56.46153453130114
 20
43.2607956690544
 30
0.0
  0
ENDBLK
  5
3B0
330
3AE
100
AcDbEntity
  8
0
100
AcDbBlockEnd
  0
BLOCK
  5
4AD
330
4AC
100
AcDbEntity
  8
0
100
AcDbBlockBegin
  2
*D6
 70
     1
 10
0.0
 20
0.0
 30
0.0
  3
*D6
  1

  0
LINE
  5
58B
330
4AC
100
AcDbEntity
  8
Dimension (ANSI)
440
 16777216
100
AcDbLine
 10
14.54399559547984
 20
40.64572719703326
 30
0.0
 11
14.54399559547984
 21
43.8041560089549
 31
0.0
  0
LINE
  5
58C
330
4AC
100
AcDbEntity
  8
Dimension (ANSI)
440
 16777216
100
AcDbLine
 10
22.54399559547985
 20
40.86447719703325
 30
0.0
 11
22.54399559547985
 21
43.8041560089549
 31
0.0
  0
LINE
  5
58D
330
4AC
100
AcDbEntity
  8
Dimension (ANSI)
440
 16777216
100
AcDbLine
 10
15.13454676320636
 20
43.0541560089549
 30
0.0
 11
17.44073348961746
 21
43.0541560089549
 31
0.0
  0
LINE
  5
58E
330
4AC
100
AcDbEntity
  8
Dimension (ANSI)
440
 16777216
100
AcDbLine
 10
21.95344442775333
 20
43.0541560089549
 30
0.0
 11
19.64725770134224
 21
43.0541560089549
 31
0.0
  0
SOLID
  5
58F
330
4AC
100
AcDbEntity
  8
Dimension (ANSI)
440
 16777216
100
AcDbTrace
 10
15.13454676320636
 20
43.15258120357599
 30
0.0
 11
15.13454676320636
 21
42.95573081433381
 31
0.0
 12
14.54399559547984
 22
43.0541560089549
 32
0.0
 13
14.54399559547984
 23
43.0541560089549
 33
0.0
  0
SOLID
  5
590
330
4AC
100
AcDbEntity
  8
Dimension (ANSI)
440
 16777216
100
AcDbTrace
 10
21.95344442775333
 20
43.15258120357599
 30
0.0
 11
21.95344442775333
 21
42.95573081433381
 31
0.0
 12
22.54399559547985
 22
43.0541560089549
 32
0.0
 13
22.54399559547985
 23
43.0541560089549
 33
0.0
  0
MTEXT
  5
591
330
4AC
100
AcDbEntity
  8
Dimension (ANSI)
440
 16777216
100
AcDbMText
 10
17.62970986757022
 20
43.35415601342525
 30
0.0
 40
0.6000000089406968
 41
0.0
 71
     1
 72
     1
  1
\A1;8.00
  7
ROMANS
 73
     1
 44
1.0
  0
POINT
  5
592
330
4AC
100
AcDbEntity
  8
Defpoints
 62
     0
440
 16777216
100
AcDbPoint
 10
14.54399559547984
 20
40.27072719703325
 30
0.0
  0
POINT
  5
593
330
4AC
100
AcDbEntity
  8
Defpoints
 62
     0
440
 16777216
100
AcDbPoint
 10
22.54399559547985
 20
40.48947719703326
 30
0.0
  0
POINT
  5
594
330
4AC
100
AcDbEntity
  8
Defpoints
 62
     0
440
 16777216
100
AcDbPoint
 10
22.54399559547985
 20
43.0541560089549
 30
0.0
  0
ENDBLK
  5
4AE
330
4AC
100
AcDbEntity
  8
0
100
AcDbBlockEnd
  0
BLOCK
  5
597
330
596
100
AcDbEntity
  8
0
100
AcDbBlockBegin
  2
*D7
 70
     1
 10
0.0
 20
0.0
 30
0.0
  3
*D7
  1

  0
LINE
  5
6B3
330
596
100
AcDbEntity
  8
Dimension (ANSI)
440
 16777216
100
AcDbLine
 10
23.33113087399437
 20
40.48947719703324
 30
0.0
 11
25.92975546253456
 21
40.48947719703321
 31
0.0
  0
LINE
  5
6B4
330
596
100
AcDbEntity
  8
Dimension (ANSI)
440
 16777216
100
AcDbLine
 10
22.70665592957861
 20
41.2288982275839
 30
0.0
 11
23.14157925747068
 21
43.79086845594739
 31
0.0
  0
ARC
  5
6B5
330
596
100
AcDbEntity
  8
Dimension (ANSI)
440
 16777216
100
AcDbCircle
 10
22.58113087399436
 20
40.48947719703325
 30
0.0
 40
2.598624588540173
100
AcDbArc
 50
13.04895172124692
 51
23.07568849321029
  0
ARC
  5
6B6
330
596
100
AcDbEntity
  8
Dimension (ANSI)
440
 16777216
100
AcDbCircle
 10
22.58113087399436
 20
40.48947719703325
 30
0.0
 40
2.598624588540173
100
AcDbArc
 50
50.19982316630767
 51
67.31629733220806
  0
SOLID
  5
6B7
330
596
100
AcDbEntity
  8
Dimension (ANSI)
440
 16777216
100
AcDbTrace
 10
25.2104402606298
 20
41.08738742759061
 30
0.0
 11
25.01486479136279
 21
41.06501978207787
 31
0.0
 12
25.17975546253455
 22
40.48947719703321
 32
0.0
 13
25.17975546253455
 23
40.48947719703321
 33
0.0
  0
SOLID
  5
6B8
330
596
100
AcDbEntity
  8
Dimension (ANSI)
440
 16777216
100
AcDbTrace
 10
23.55588137614689
 20
42.7925558987503
 30
0.0
 11
23.61066634834248
 21
42.98162911886971
 31
0.0
 12
23.01605420188645
 22
43.05144742539674
 32
0.0
 13
23.01605420188645
 23
43.05144742539674
 33
0.0
  0
MTEXT
  5
6B9
330
596
100
AcDbEntity
  8
Dimension (ANSI)
440
 16777216
100
AcDbMText
 10
24.09780200169331
 20
42.29697614063498
 30
0.0
 40
0.6000000089406968
 41
0.0
 71
     1
 72
     1
  1
\A1;80\U+00B0
  7
ROMANS
 73
     1
 44
1.0
  0
POINT
  5
6BA
330
596
100
AcDbEntity
  8
Defpoints
 62
     0
440
 16777216
100
AcDbPoint
 10
22.58113087399438
 20
40.48947719703325
 30
0.0
  0
POINT
  5
6BB
330
596
100
AcDbEntity
  8
Defpoints
 62
     0
440
 16777216
100
AcDbPoint
 10
22.95613087399437
 20
40.48947719703325
 30
0.0
  0
POINT
  5
6BC
330
596
100
AcDbEntity
  8
Defpoints
 62
     0
440
 16777216
100
AcDbPoint
 10
22.64389340178649
 20
40.85918771230857
 30
0.0
  0
POINT
  5
6BD
330
596
100
AcDbEntity
  8
Defpoints
 62
     0
440
 16777216
100
AcDbPoint
 10
24.12404939404749
 20
42.58047030860551
 30
0.0
  0
ENDBLK
  5
598
330
596
100
AcDbEntity
  8
0
100
AcDbBlockEnd
  0
BLOCK
  5
6C0
330
6BF
100
AcDbEntity
  8
0
100
AcDbBlockBegin
  2
*D8
 70
     1
 10
0.0
 20
0.0
 30
0.0
  3
*D8
  1

  0
LINE
  5
7A5
330
6BF
100
AcDbEntity
  8
Dimension (ANSI)
440
 16777216
100
AcDbLine
 10
54.62098336357888
 20
50.95251161904762
 30
0.0
 11
54.03043219585236
 21
50.95251161904762
 31
0.0
  0
LINE
  5
7A6
330
6BF
100
AcDbEntity
  8
Dimension (ANSI)
440
 16777216
100
AcDbLine
 10
57.05208569903192
 20
50.95251161904762
 30
0.0
 11
59.5935639465886
 21
50.95251161904762
 31
0.0
  0
SOLID
  5
7A7
330
6BF
100
AcDbEntity
  8
Dimension (ANSI)
440
 16777216
100
AcDbTrace
 10
54.62098336357888
 20
51.05093681366871
 30
0.0
 11
54.62098336357888
 21
50.85408642442654
 31
0.0
 12
55.2115345313054
 22
50.95251161904762
 32
0.0
 13
55.2115345313054
 23
50.95251161904762
 33
0.0
  0
SOLID
  5
7A8
330
6BF
100
AcDbEntity
  8
Dimension (ANSI)
440
 16777216
100
AcDbTrace
 10
57.05208569903192
 20
51.05093681366871
 30
0.0
 11
57.05208569903192
 21
50.85408642442654
 31
0.0
 12
56.46153453130541
 22
50.95251161904762
 32
0.0
 13
56.46153453130541
 23
50.95251161904762
 33
0.0
  0
MTEXT
  5
7A9
330
6BF
100
AcDbEntity
  8
Dimension (ANSI)
440
 16777216
100
AcDbMText
 10
61.33968320488745
 20
50.95251161904762
 30
0.0
 40
0.6000000089406968
 41
0.0
 71
     5
 72
     1
  1
\A1;1.25{\P(2 PL.)}
  7
ROMANS
 73
     1
 44
1.0
  0
POINT
  5
7AA
330
6BF
100
AcDbEntity
  8
Defpoints
 62
     0
440
 16777216
100
AcDbPoint
 10
55.2115345313054
 20
50.98736697623259
 30
0.0
  0
POINT
  5
7AB
330
6BF
100
AcDbEntity
  8
Defpoints
 62
     0
440
 16777216
100
AcDbPoint
 10
56.46153453130541
 20
50.97174715154122
 30
0.0
  0
POINT
  5
7AC
330
6BF
100
AcDbEntity
  8
Defpoints
 62
     0
440
 16777216
100
AcDbPoint
 10
56.46153453130541
 20
50.95251161904762
 30
0.0
  0
ENDBLK
  5
6C1
330
6BF
100
AcDbEntity
  8
0
100
AcDbBlockEnd
  0
BLOCK
  5
7AF
330
7AE
100
AcDbEntity
  8
0
100
AcDbBlockBegin
  2
*D9
 70
     1
 10
0.0
 20
0.0
 30
0.0
  3
*D9
  1

  0
LINE
  5
898
330
7AE
100
AcDbEntity
  8
Dimension (ANSI)
440
 16777216
100
AcDbLine
 10
49.36556521224705
 20
50.2354470870088
 30
0.0
 11
49.36556521224705
 21
50.82599825473532
 31
0.0
  0
LINE
  5
899
330
7AE
100
AcDbEntity
  8
Dimension (ANSI)
440
 16777216
100
AcDbLine
 10
49.36556521224705
 20
47.80434475155583
 30
0.0
 11
49.36556521224705
 21
47.00430849446248
 31
0.0
  0
LINE
  5
89A
330
7AE
100
AcDbEntity
  8
Dimension (ANSI)
440
 16777216
100
AcDbLine
 10
49.36556521224705
 20
47.00430849446248
 30
0.0
 11
48.77501404452053
 21
47.00430849446248
 31
0.0
  0
SOLID
  5
89B
330
7AE
100
AcDbEntity
  8
Dimension (ANSI)
440
 16777216
100
AcDbTrace
 10
49.26714001762597
 20
50.2354470870088
 30
0.0
 11
49.46399040686814
 21
50.2354470870088
 31
0.0
 12
49.36556521224705
 22
49.64489591928228
 32
0.0
 13
49.36556521224705
 23
49.64489591928228
 33
0.0
  0
SOLID
  5
89C
330
7AE
100
AcDbEntity
  8
Dimension (ANSI)
440
 16777216
100
AcDbTrace
 10
49.26714001762596
 20
47.80434475155583
 30
0.0
 11
49.46399040686813
 21
47.80434475155583
 31
0.0
 12
49.36556521224705
 22
48.39489591928235
 32
0.0
 13
49.36556521224705
 23
48.39489591928235
 33
0.0
  0
MTEXT
  5
89D
330
7AE
100
AcDbEntity
  8
Dimension (ANSI)
440
 16777216
100
AcDbMText
 10
46.84318049774002
 20
47.30430849893284
 30
0.0
 40
0.6000000089406968
 41
0.0
 71
     1
 72
     1
  1
\A1;1.25
  7
ROMANS
 73
     1
 44
1.0
  0
POINT
  5
89E
330
7AE
100
AcDbEntity
  8
Defpoints
 62
     0
440
 16777216
100
AcDbPoint
 10
38.03925429034458
 20
49.64489591928229
 30
0.0
  0
POINT
  5
89F
330
7AE
100
AcDbEntity
  8
Defpoints
 62
     0
440
 16777216
100
AcDbPoint
 10
39.33139794717823
 20
48.39489591928236
 30
0.0
  0
POINT
  5
8A0
330
7AE
100
AcDbEntity
  8
Defpoints
 62
     0
440
 16777216
100
AcDbPoint
 10
49.36556521224705
 20
48.39489591928235
 30
0.0
  0
ENDBLK
  5
7B0
330
7AE
100
AcDbEntity
  8
0
100
AcDbBlockEnd
  0
BLOCK
  5
8AC
330
8AB
100
AcDbEntity
  8
0
100
AcDbBlockBegin
  2
*D10
 70
     1
 10
0.0
 20
0.0
 30
0.0
  3
*D10
  1

  0
LINE
  5
993
330
8AB
100
AcDbEntity
  8
Dimension (ANSI)
440
 16777216
100
AcDbLine
 10
32.18028453129746
 20
21.42494518991435
 30
0.0
 11
29.44307980688801
 21
21.42494518991435
 31
0.0
  0
LINE
  5
994
330
8AB
100
AcDbEntity
  8
Dimension (ANSI)
440
 16777216
100
AcDbLine
 10
31.61778453129745
 20
19.42494518991441
 30
0.0
 11
29.44307980688801
 21
19.42494518991441
 31
0.0
  0
LINE
  5
995
330
8AB
100
AcDbEntity
  8
Dimension (ANSI)
440
 16777216
100
AcDbLine
 10
30.19307980688801
 20
22.01549635764086
 30
0.0
 11
30.19307980688801
 21
22.60604752536738
 31
0.0
  0
LINE
  5
996
330
8AB
100
AcDbEntity
  8
Dimension (ANSI)
440
 16777216
100
AcDbLine
 10
30.19307980688801
 20
18.83439402218789
 30
0.0
 11
30.19307980688801
 21
18.24384285446137
 31
0.0
  0
SOLID
  5
997
330
8AB
100
AcDbEntity
  8
Dimension (ANSI)
440
 16777216
100
AcDbTrace
 10
30.09465461226692
 20
22.01549635764086
 30
0.0
 11
30.29150500150909
 21
22.01549635764086
 31
0.0
 12
30.19307980688801
 22
21.42494518991435
 32
0.0
 13
30.19307980688801
 23
21.42494518991435
 33
0.0
  0
SOLID
  5
998
330
8AB
100
AcDbEntity
  8
Dimension (ANSI)
440
 16777216
100
AcDbTrace
 10
30.09465461226692
 20
18.83439402218789
 30
0.0
 11
30.29150500150909
 21
18.83439402218789
 31
0.0
 12
30.19307980688801
 22
19.42494518991441
 32
0.0
 13
30.19307980688801
 23
19.42494518991441
 33
0.0
  0
MTEXT
  5
999
330
8AB
100
AcDbEntity
  8
Dimension (ANSI)
440
 16777216
100
AcDbMText
 10
29.27879407897837
 20
20.72494519438472
 30
0.0
 40
0.6000000089406968
 41
0.0
 71
     1
 72
     1
  1
\A1;2.00
  7
ROMANS
 73
     1
 44
1.0
  0
POINT
  5
99A
330
8AB
100
AcDbEntity
  8
Defpoints
 62
     0
440
 16777216
100
AcDbPoint
 10
32.55528453129745
 20
21.42494518991435
 30
0.0
  0
POINT
  5
99B
330
8AB
100
AcDbEntity
  8
Defpoints
 62
     0
440
 16777216
100
AcDbPoint
 10
31.99278453129745
 20
19.42494518991441
 30
0.0
  0
POINT
  5
99C
330
8AB
100
AcDbEntity
  8
Defpoints
 62
     0
440
 16777216
100
AcDbPoint
 10
30.19307980688801
 20
19.42494518991441
 30
0.0
  0
ENDBLK
  5
8AD
330
8AB
100
AcDbEntity
  8
0
100
AcDbBlockEnd
  0
BLOCK
  5
99F
330
99E
100
AcDbEntity
  8
0
100
AcDbBlockBegin
  2
*D11
 70
     1
 10
0.0
 20
0.0
 30
0.0
  3
*D11
  1

  0
LINE
  5
A7D
330
99E
100
AcDbEntity
  8
Dimension (ANSI)
440
 16777216
100
AcDbLine
 10
32.18028453129746
 20
21.42494518991435
 30
0.0
 11
26.51575576879804
 21
21.42494518991435
 31
0.0
  0
LINE
  5
A7E
330
99E
100
AcDbEntity
  8
Dimension (ANSI)
440
 16777216
100
AcDbLine
 10
31.61778453129745
 20
14.42494518991441
 30
0.0
 11
26.51575576879804
 21
14.42494518991441
 31
0.0
  0
LINE
  5
A7F
330
99E
100
AcDbEntity
  8
Dimension (ANSI)
440
 16777216
100
AcDbLine
 10
27.26575576879804
 20
20.83439402218783
 30
0.0
 11
27.26575576879804
 21
18.41392157233747
 31
0.0
  0
LINE
  5
A80
330
99E
100
AcDbEntity
  8
Dimension (ANSI)
440
 16777216
100
AcDbLine
 10
27.26575576879804
 20
15.01549635764092
 30
0.0
 11
27.26575576879804
 21
17.43596880749126
 31
0.0
  0
SOLID
  5
A81
330
99E
100
AcDbEntity
  8
Dimension (ANSI)
440
 16777216
100
AcDbTrace
 10
27.16733057417695
 20
20.83439402218783
 30
0.0
 11
27.36418096341913
 21
20.83439402218783
 31
0.0
 12
27.26575576879804
 22
21.42494518991435
 32
0.0
 13
27.26575576879804
 23
21.42494518991435
 33
0.0
  0
SOLID
  5
A82
330
99E
100
AcDbEntity
  8
Dimension (ANSI)
440
 16777216
100
AcDbTrace
 10
27.16733057417695
 20
15.01549635764092
 30
0.0
 11
27.36418096341913
 21
15.01549635764092
 31
0.0
 12
27.26575576879804
 22
14.42494518991441
 32
0.0
 13
27.26575576879804
 23
14.42494518991441
 33
0.0
  0
MTEXT
  5
A83
330
99E
100
AcDbEntity
  8
Dimension (ANSI)
440
 16777216
100
AcDbMText
 10
26.35147004088841
 20
18.22494519438472
 30
0.0
 40
0.6000000089406968
 41
0.0
 71
     1
 72
     1
  1
\A1;7.00
  7
ROMANS
 73
     1
 44
1.0
  0
POINT
  5
A84
330
99E
100
AcDbEntity
  8
Defpoints
 62
     0
440
 16777216
100
AcDbPoint
 10
32.55528453129745
 20
21.42494518991435
 30
0.0
  0
POINT
  5
A85
330
99E
100
AcDbEntity
  8
Defpoints
 62
     0
440
 16777216
100
AcDbPoint
 10
31.99278453129745
 20
14.42494518991441
 30
0.0
  0
POINT
  5
A86
330
99E
100
AcDbEntity
  8
Defpoints
 62
     0
440
 16777216
100
AcDbPoint
 10
27.26575576879804
 20
14.42494518991441
 30
0.0
  0
ENDBLK
  5
9A0
330
99E
100
AcDbEntity
  8
0
100
AcDbBlockEnd
  0
BLOCK
  5
A89
330
A88
100
AcDbEntity
  8
0
100
AcDbBlockBegin
  2
*D12
 70
     1
 10
0.0
 20
0.0
 30
0.0
  3
*D12
  1

  0
LINE
  5
B75
330
A88
100
AcDbEntity
  8
Dimension (ANSI)
440
 16777216
100
AcDbLine
 10
50.50600892005933
 20
20.1468940221879
 30
0.0
 11
50.50600892005933
 21
19.55634285446138
 31
0.0
  0
LINE
  5
B76
330
A88
100
AcDbEntity
  8
Dimension (ANSI)
440
 16777216
100
AcDbLine
 10
50.50600892005933
 20
22.01549635764087
 30
0.0
 11
50.50600892005933
 21
22.82482500509269
 31
0.0
  0
LINE
  5
B77
330
A88
100
AcDbEntity
  8
Dimension (ANSI)
440
 16777216
100
AcDbLine
 10
50.50600892005933
 20
22.82482500509269
 30
0.0
 11
51.09656008778585
 21
22.82482500509269
 31
0.0
  0
SOLID
  5
B78
330
A88
100
AcDbEntity
  8
Dimension (ANSI)
440
 16777216
100
AcDbTrace
 10
50.40758372543824
 20
20.1468940221879
 30
0.0
 11
50.60443411468042
 21
20.1468940221879
 31
0.0
 12
50.50600892005933
 22
20.73744518991441
 32
0.0
 13
50.50600892005933
 23
20.73744518991441
 33
0.0
  0
SOLID
  5
B79
330
A88
100
AcDbEntity
  8
Dimension (ANSI)
440
 16777216
100
AcDbTrace
 10
50.40758372543824
 20
22.01549635764087
 30
0.0
 11
50.60443411468042
 21
22.01549635764087
 31
0.0
 12
50.50600892005933
 22
21.42494518991435
 32
0.0
 13
50.50600892005933
 23
21.42494518991435
 33
0.0
  0
MTEXT
  5
B7A
330
A88
100
AcDbEntity
  8
Dimension (ANSI)
440
 16777216
100
AcDbMText
 10
51.28553646573859
 20
23.12482500956304
 30
0.0
 40
0.6000000089406968
 41
0.0
 71
     1
 72
     1
  1
\A1;0.69
  7
ROMANS
 73
     1
 44
1.0
  0
POINT
  5
B7B
330
A88
100
AcDbEntity
  8
Defpoints
 62
     0
440
 16777216
100
AcDbPoint
 10
56.24278453129745
 20
21.42494518991435
 30
0.0
  0
POINT
  5
B7C
330
A88
100
AcDbEntity
  8
Defpoints
 62
     0
440
 16777216
100
AcDbPoint
 10
55.24278453129744
 20
20.73744518991441
 30
0.0
  0
POINT
  5
B7D
330
A88
100
AcDbEntity
  8
Defpoints
 62
     0
440
 16777216
100
AcDbPoint
 10
50.50600892005933
 20
20.73744518991441
 30
0.0
  0
ENDBLK
  5
A8A
330
A88
100
AcDbEntity
  8
0
100
AcDbBlockEnd
  0
BLOCK
  5
B80
330
B7F
100
AcDbEntity
  8
0
100
AcDbBlockBegin
  2
*D13
 70
     1
 10
0.0
 20
0.0
 30
0.0
  3
*D13
  1

  0
LINE
  5
C5E
330
B7F
100
AcDbEntity
  8
Dimension (ANSI)
440
 16777216
100
AcDbLine
 10
56.46153453129744
 20
21.58119518991433
 30
0.0
 11
56.46153453129744
 21
24.98156895354853
 31
0.0
  0
LINE
  5
C5F
330
B7F
100
AcDbEntity
  8
Dimension (ANSI)
440
 16777216
100
AcDbLine
 10
54.21153453129743
 20
22.14369518991441
 30
0.0
 11
54.21153453129743
 21
24.98156895354853
 31
0.0
  0
LINE
  5
C60
330
B7F
100
AcDbEntity
  8
Dimension (ANSI)
440
 16777216
100
AcDbLine
 10
54.80208569902395
 20
24.23156895354853
 30
0.0
 11
55.87098336357092
 21
24.23156895354853
 31
0.0
  0
LINE
  5
C61
330
B7F
100
AcDbEntity
  8
Dimension (ANSI)
440
 16777216
100
AcDbLine
 10
56.46153453129744
 20
24.23156895354853
 30
0.0
 11
57.46246203112916
 21
24.23156895354853
 31
0.0
  0
SOLID
  5
C62
330
B7F
100
AcDbEntity
  8
Dimension (ANSI)
440
 16777216
100
AcDbTrace
 10
54.80208569902395
 20
24.32999414816962
 30
0.0
 11
54.80208569902395
 21
24.13314375892744
 31
0.0
 12
54.21153453129743
 22
24.23156895354853
 32
0.0
 13
54.21153453129743
 23
24.23156895354853
 33
0.0
  0
SOLID
  5
C63
330
B7F
100
AcDbEntity
  8
Dimension (ANSI)
440
 16777216
100
AcDbTrace
 10
55.87098336357092
 20
24.32999414816962
 30
0.0
 11
55.87098336357092
 21
24.13314375892744
 31
0.0
 12
56.46153453129744
 22
24.23156895354853
 32
0.0
 13
56.46153453129744
 23
24.23156895354853
 33
0.0
  0
MTEXT
  5
C64
330
B7F
100
AcDbEntity
  8
Dimension (ANSI)
440
 16777216
100
AcDbMText
 10
57.65143840908191
 20
24.53156895801888
 30
0.0
 40
0.6000000089406968
 41
0.0
 71
     1
 72
     1
  1
\A1;2.25
  7
ROMANS
 73
     1
 44
1.0
  0
POINT
  5
C65
330
B7F
100
AcDbEntity
  8
Defpoints
 62
     0
440
 16777216
100
AcDbPoint
 10
56.46153453129744
 20
21.20619518991434
 30
0.0
  0
POINT
  5
C66
330
B7F
100
AcDbEntity
  8
Defpoints
 62
     0
440
 16777216
100
AcDbPoint
 10
54.21153453129743
 20
21.76869518991441
 30
0.0
  0
POINT
  5
C67
330
B7F
100
AcDbEntity
  8
Defpoints
 62
     0
440
 16777216
100
AcDbPoint
 10
54.21153453129743
 20
24.23156895354853
 30
0.0
  0
ENDBLK
  5
B81
330
B7F
100
AcDbEntity
  8
0
100
AcDbBlockEnd
  0
BLOCK
  5
C6A
330
C69
100
AcDbEntity
  8
0
100
AcDbBlockBegin
  2
*D14
 70
     1
 10
0.0
 20
0.0
 30
0.0
  3
*D14
  1

  0
LINE
  5
D48
330
C69
100
AcDbEntity
  8
Dimension (ANSI)
440
 16777216
100
AcDbLine
 10
32.33653453129746
 20
21.58119518991435
 30
0.0
 11
32.33653453129746
 21
25.00824499769117
 31
0.0
  0
LINE
  5
D49
330
C69
100
AcDbEntity
  8
Dimension (ANSI)
440
 16777216
100
AcDbLine
 10
34.58653453129745
 20
22.14369518991441
 30
0.0
 11
34.58653453129745
 21
25.00824499769117
 31
0.0
  0
LINE
  5
D4A
330
C69
100
AcDbEntity
  8
Dimension (ANSI)
440
 16777216
100
AcDbLine
 10
33.99598336357094
 20
24.25824499769117
 30
0.0
 11
32.92708569902397
 21
24.25824499769117
 31
0.0
  0
LINE
  5
D4B
330
C69
100
AcDbEntity
  8
Dimension (ANSI)
440
 16777216
100
AcDbLine
 10
32.33653453129746
 20
24.25824499769117
 30
0.0
 11
31.33560703146573
 21
24.25824499769117
 31
0.0
  0
SOLID
  5
D4C
330
C69
100
AcDbEntity
  8
Dimension (ANSI)
440
 16777216
100
AcDbTrace
 10
33.99598336357094
 20
24.35667019231226
 30
0.0
 11
33.99598336357094
 21
24.15981980307009
 31
0.0
 12
34.58653453129745
 22
24.25824499769117
 32
0.0
 13
34.58653453129745
 23
24.25824499769117
 33
0.0
  0
SOLID
  5
D4D
330
C69
100
AcDbEntity
  8
Dimension (ANSI)
440
 16777216
100
AcDbTrace
 10
32.92708569902397
 20
24.35667019231226
 30
0.0
 11
32.92708569902397
 21
24.15981980307009
 31
0.0
 12
32.33653453129746
 22
24.25824499769117
 32
0.0
 13
32.33653453129746
 23
24.25824499769117
 33
0.0
  0
MTEXT
  5
D4E
330
C69
100
AcDbEntity
  8
Dimension (ANSI)
440
 16777216
100
AcDbMText
 10
29.31805919769371
 20
24.55824500216152
 30
0.0
 40
0.6000000089406968
 41
0.0
 71
     1
 72
     1
  1
\A1;2.25
  7
ROMANS
 73
     1
 44
1.0
  0
POINT
  5
D4F
330
C69
100
AcDbEntity
  8
Defpoints
 62
     0
440
 16777216
100
AcDbPoint
 10
32.33653453129746
 20
21.20619518991435
 30
0.0
  0
POINT
  5
D50
330
C69
100
AcDbEntity
  8
Defpoints
 62
     0
440
 16777216
100
AcDbPoint
 10
34.58653453129745
 20
21.76869518991441
 30
0.0
  0
POINT
  5
D51
330
C69
100
AcDbEntity
  8
Defpoints
 62
     0
440
 16777216
100
AcDbPoint
 10
34.58653453129745
 20
24.25824499769117
 30
0.0
  0
ENDBLK
  5
C6B
330
C69
100
AcDbEntity
  8
0
100
AcDbBlockEnd
  0
BLOCK
  5
D56
330
D55
100
AcDbEntity
  8
0
100
AcDbBlockBegin
  2
*D15
 70
     1
 10
0.0
 20
0.0
 30
0.0
  3
*D15
  1

  0
LINE
  5
E48
330
D55
100
AcDbEntity
  8
Dimension (ANSI)
440
 16777216
100
AcDbLine
 10
32.33653453129746
 20
13.04994518991434
 30
0.0
 11
32.33653453129746
 21
11.65555058621406
 31
0.0
  0
LINE
  5
E49
330
D55
100
AcDbEntity
  8
Dimension (ANSI)
440
 16777216
100
AcDbLine
 10
33.02403453129745
 20
13.01869518991441
 30
0.0
 11
33.02403453129745
 21
11.65555058621406
 31
0.0
  0
LINE
  5
E4A
330
D55
100
AcDbEntity
  8
Dimension (ANSI)
440
 16777216
100
AcDbLine
 10
33.61458569902396
 20
12.40555058621406
 30
0.0
 11
34.20513686675048
 21
12.40555058621406
 31
0.0
  0
LINE
  5
E4B
330
D55
100
AcDbEntity
  8
Dimension (ANSI)
440
 16777216
100
AcDbLine
 10
31.74598336357094
 20
12.40555058621406
 30
0.0
 11
30.3732564585988
 21
12.40555058621406
 31
0.0
  0
SOLID
  5
E4C
330
D55
100
AcDbEntity
  8
Dimension (ANSI)
440
 16777216
100
AcDbTrace
 10
33.61458569902396
 20
12.50397578083515
 30
0.0
 11
33.61458569902396
 21
12.30712539159297
 31
0.0
 12
33.02403453129745
 22
12.40555058621406
 32
0.0
 13
33.02403453129745
 23
12.40555058621406
 33
0.0
  0
SOLID
  5
E4D
330
D55
100
AcDbEntity
  8
Dimension (ANSI)
440
 16777216
100
AcDbTrace
 10
31.74598336357094
 20
12.50397578083515
 30
0.0
 11
31.74598336357094
 21
12.30712539159297
 31
0.0
 12
32.33653453129746
 22
12.40555058621406
 32
0.0
 13
32.33653453129746
 23
12.40555058621406
 33
0.0
  0
MTEXT
  5
E4E
330
D55
100
AcDbEntity
  8
Dimension (ANSI)
440
 16777216
100
AcDbMText
 10
28.62713720029996
 20
12.40555058621406
 30
0.0
 40
0.6000000089406968
 41
0.0
 71
     5
 72
     1
  1
\A1;0.69{\P(2 PL.)}
  7
ROMANS
 73
     1
 44
1.0
  0
POINT
  5
E4F
330
D55
100
AcDbEntity
  8
Defpoints
 62
     0
440
 16777216
100
AcDbPoint
 10
32.33653453129746
 20
13.42494518991434
 30
0.0
  0
POINT
  5
E50
330
D55
100
AcDbEntity
  8
Defpoints
 62
     0
440
 16777216
100
AcDbPoint
 10
33.02403453129745
 20
13.3936951899144
 30
0.0
  0
POINT
  5
E51
330
D55
100
AcDbEntity
  8
Defpoints
 62
     0
440
 16777216
100
AcDbPoint
 10
33.02403453129745
 20
12.40555058621406
 30
0.0
  0
ENDBLK
  5
D57
330
D55
100
AcDbEntity
  8
0
100
AcDbBlockEnd
  0
BLOCK
  5
E54
330
E53
100
AcDbEntity
  8
0
100
AcDbBlockBegin
  2
*D16
 70
     1
 10
0.0
 20
0.0
 30
0.0
  3
*D16
  1

  0
LINE
  5
F04
330
E53
100
AcDbEntity
  8
Dimension (ANSI)
440
 16777216
100
AcDbLine
 10
58.74152182444158
 20
17.12393056071454
 30
0.0
 11
57.88872527677364
 21
17.12393056071454
 31
0.0
  0
LINE
  5
F05
330
E53
100
AcDbEntity
  8
Dimension (ANSI)
440
 16777216
100
AcDbLine
 10
57.88872527677364
 20
17.12393056071454
 30
0.0
 11
56.31171766562015
 21
15.11119159108098
 31
0.0
  0
MTEXT
  5
F06
102
{ACAD_XDICTIONARY
360
15A9
102
}
330
E53
100
AcDbEntity
  8
Dimension (ANSI)
440
 16777216
100
AcDbMText
 10
60.48764108274044
 20
17.12393056071454
 30
0.0
 40
0.6000000089406968
 41
0.0
 71
     5
 72
     1
  1
\A1;\U+22050.563{\P(6 PL.)}
  7
ROMANS
 73
     1
 44
1.0
  0
SOLID
  5
F07
330
E53
100
AcDbEntity
  8
Dimension (ANSI)
440
 16777216
100
AcDbTrace
 10
56.23424135784119
 20
15.17189530323385
 30
0.0
 11
56.38919397339911
 21
15.05048787892812
 31
0.0
 12
55.94749539270295
 22
14.64633374440721
 32
0.0
 13
55.94749539270295
 23
14.64633374440721
 33
0.0
  0
LINE
  5
F08
330
E53
100
AcDbEntity
  8
Dimension (ANSI)
440
 16777216
100
AcDbLine
 10
55.23403453129728
 20
14.42494518991443
 30
0.0
 11
56.31403453129728
 21
14.42494518991443
 31
0.0
  0
LINE
  5
F09
330
E53
100
AcDbEntity
  8
Dimension (ANSI)
440
 16777216
100
AcDbLine
 10
55.77403453129729
 20
13.88494518991442
 30
0.0
 11
55.77403453129729
 21
14.96494518991443
 31
0.0
  0
POINT
  5
F0A
330
E53
100
AcDbEntity
  8
Defpoints
 62
     0
440
 16777216
100
AcDbPoint
 10
55.94749539270295
 20
14.64633374440721
 30
0.0
  0
POINT
  5
F0B
330
E53
100
AcDbEntity
  8
Defpoints
 62
     0
440
 16777216
100
AcDbPoint
 10
55.60057366989162
 20
14.20355663542164
 30
0.0
  0
ENDBLK
  5
E55
330
E53
100
AcDbEntity
  8
0
100
AcDbBlockEnd
  0
BLOCK
  5
F13
330
F12
100
AcDbEntity
  8
0
100
AcDbBlockBegin
  2
*D17
 70
     1
 10
0.0
 20
0.0
 30
0.0
  3
*D17
  1

  0
LINE
  5
FF1
330
F12
100
AcDbEntity
  8
Dimension (ANSI)
440
 16777216
100
AcDbLine
 10
32.33653453130546
 20
56.76989591928579
 30
0.0
 11
32.33653453130546
 21
59.01375619184062
 31
0.0
  0
LINE
  5
FF2
330
F12
100
AcDbEntity
  8
Dimension (ANSI)
440
 16777216
100
AcDbLine
 10
34.46153453130543
 20
56.55114591928229
 30
0.0
 11
34.46153453130543
 21
59.01375619184062
 31
0.0
  0
LINE
  5
FF3
330
F12
100
AcDbEntity
  8
Dimension (ANSI)
440
 16777216
100
AcDbLine
 10
33.87098336357891
 20
58.26375619184062
 30
0.0
 11
32.92708569903198
 21
58.26375619184062
 31
0.0
  0
LINE
  5
FF4
330
F12
100
AcDbEntity
  8
Dimension (ANSI)
440
 16777216
100
AcDbLine
 10
32.33653453130546
 20
58.26375619184062
 30
0.0
 11
31.33560703147373
 21
58.26375619184062
 31
0.0
  0
SOLID
  5
FF5
330
F12
100
AcDbEntity
  8
Dimension (ANSI)
440
 16777216
100
AcDbTrace
 10
33.87098336357891
 20
58.3621813864617
 30
0.0
 11
33.87098336357891
 21
58.16533099721953
 31
0.0
 12
34.46153453130543
 22
58.26375619184062
 32
0.0
 13
34.46153453130543
 23
58.26375619184062
 33
0.0
  0
SOLID
  5
FF6
330
F12
100
AcDbEntity
  8
Dimension (ANSI)
440
 16777216
100
AcDbTrace
 10
32.92708569903198
 20
58.3621813864617
 30
0.0
 11
32.92708569903198
 21
58.16533099721953
 31
0.0
 12
32.33653453130546
 22
58.26375619184062
 32
0.0
 13
32.33653453130546
 23
58.26375619184062
 33
0.0
  0
MTEXT
  5
FF7
330
F12
100
AcDbEntity
  8
Dimension (ANSI)
440
 16777216
100
AcDbMText
 10
29.31805919770171
 20
58.56375619631097
 30
0.0
 40
0.6000000089406968
 41
0.0
 71
     1
 72
     1
  1
\A1;2.13
  7
ROMANS
 73
     1
 44
1.0
  0
POINT
  5
FF8
330
F12
100
AcDbEntity
  8
Defpoints
 62
     0
440
 16777216
100
AcDbPoint
 10
32.33653453130546
 20
56.3948959192858
 30
0.0
  0
POINT
  5
FF9
330
F12
100
AcDbEntity
  8
Defpoints
 62
     0
440
 16777216
100
AcDbPoint
 10
34.46153453130543
 20
56.17614591928229
 30
0.0
  0
POINT
  5
FFA
330
F12
100
AcDbEntity
  8
Defpoints
 62
     0
440
 16777216
100
AcDbPoint
 10
34.46153453130543
 20
58.26375619184062
 30
0.0
  0
ENDBLK
  5
F14
330
F12
100
AcDbEntity
  8
0
100
AcDbBlockEnd
  0
BLOCK
  5
FFD
330
FFC
100
AcDbEntity
  8
0
100
AcDbBlockBegin
  2
*D18
 70
     1
 10
0.0
 20
0.0
 30
0.0
  3
*D18
  1

  0
LINE
  5
10DB
330
FFC
100
AcDbEntity
  8
Dimension (ANSI)
440
 16777216
100
AcDbLine
 10
32.33653453130546
 20
56.76989591928579
 30
0.0
 11
32.33653453130546
 21
60.06071147653664
 31
0.0
  0
LINE
  5
10DC
330
FFC
100
AcDbEntity
  8
Dimension (ANSI)
440
 16777216
100
AcDbLine
 10
44.39903453130543
 20
53.55114591928233
 30
0.0
 11
44.39903453130543
 21
60.06071147653664
 31
0.0
  0
LINE
  5
10DD
330
FFC
100
AcDbEntity
  8
Dimension (ANSI)
440
 16777216
100
AcDbLine
 10
32.92708569903198
 20
59.31071147653664
 30
0.0
 11
37.02166527896706
 21
59.31071147653664
 31
0.0
  0
LINE
  5
10DE
330
FFC
100
AcDbEntity
  8
Dimension (ANSI)
440
 16777216
100
AcDbLine
 10
43.80848336357891
 20
59.31071147653664
 30
0.0
 11
39.71390378364382
 21
59.31071147653664
 31
0.0
  0
SOLID
  5
10DF
330
FFC
100
AcDbEntity
  8
Dimension (ANSI)
440
 16777216
100
AcDbTrace
 10
32.92708569903198
 20
59.40913667115773
 30
0.0
 11
32.92708569903198
 21
59.21228628191556
 31
0.0
 12
32.33653453130546
 22
59.31071147653664
 32
0.0
 13
32.33653453130546
 23
59.31071147653664
 33
0.0
  0
SOLID
  5
10E0
330
FFC
100
AcDbEntity
  8
Dimension (ANSI)
440
 16777216
100
AcDbTrace
 10
43.80848336357891
 20
59.40913667115773
 30
0.0
 11
43.80848336357891
 21
59.21228628191556
 31
0.0
 12
44.39903453130543
 22
59.31071147653664
 32
0.0
 13
44.39903453130543
 23
59.31071147653664
 33
0.0
  0
MTEXT
  5
10E1
330
FFC
100
AcDbEntity
  8
Dimension (ANSI)
440
 16777216
100
AcDbMText
 10
37.21064165691981
 20
59.610711481007
 30
0.0
 40
0.6000000089406968
 41
0.0
 71
     1
 72
     1
  1
\A1;12.06
  7
ROMANS
 73
     1
 44
1.0
  0
POINT
  5
10E2
330
FFC
100
AcDbEntity
  8
Defpoints
 62
     0
440
 16777216
100
AcDbPoint
 10
32.33653453130546
 20
56.3948959192858
 30
0.0
  0
POINT
  5
10E3
330
FFC
100
AcDbEntity
  8
Defpoints
 62
     0
440
 16777216
100
AcDbPoint
 10
44.39903453130543
 20
53.17614591928233
 30
0.0
  0
POINT
  5
10E4
330
FFC
100
AcDbEntity
  8
Defpoints
 62
     0
440
 16777216
100
AcDbPoint
 10
44.39903453130543
 20
59.31071147653664
 30
0.0
  0
ENDBLK
  5
FFE
330
FFC
100
AcDbEntity
  8
0
100
AcDbBlockEnd
  0
BLOCK
  5
10E7
330
10E6
100
AcDbEntity
  8
0
100
AcDbBlockBegin
  2
*D19
 70
     1
 10
0.0
 20
0.0
 30
0.0
  3
*D19
  1

  0
LINE
  5
11C5
330
10E6
100
AcDbEntity
  8
Dimension (ANSI)
440
 16777216
100
AcDbLine
 10
56.46153453130526
 20
56.76989591928579
 30
0.0
 11
56.46153453130526
 21
58.95235946357319
 31
0.0
  0
LINE
  5
11C6
330
10E6
100
AcDbEntity
  8
Dimension (ANSI)
440
 16777216
100
AcDbLine
 10
54.33653453130542
 20
56.55114591928229
 30
0.0
 11
54.33653453130542
 21
58.95235946357319
 31
0.0
  0
LINE
  5
11C7
330
10E6
100
AcDbEntity
  8
Dimension (ANSI)
440
 16777216
100
AcDbLine
 10
54.92708569903194
 20
58.20235946357319
 30
0.0
 11
55.87098336357875
 21
58.20235946357319
 31
0.0
  0
LINE
  5
11C8
330
10E6
100
AcDbEntity
  8
Dimension (ANSI)
440
 16777216
100
AcDbLine
 10
56.46153453130526
 20
58.20235946357319
 30
0.0
 11
57.46246203113699
 21
58.20235946357319
 31
0.0
  0
SOLID
  5
11C9
330
10E6
100
AcDbEntity
  8
Dimension (ANSI)
440
 16777216
100
AcDbTrace
 10
54.92708569903194
 20
58.30078465819427
 30
0.0
 11
54.92708569903194
 21
58.1039342689521
 31
0.0
 12
54.33653453130542
 22
58.20235946357319
 32
0.0
 13
54.33653453130542
 23
58.20235946357319
 33
0.0
  0
SOLID
  5
11CA
330
10E6
100
AcDbEntity
  8
Dimension (ANSI)
440
 16777216
100
AcDbTrace
 10
55.87098336357875
 20
58.30078465819427
 30
0.0
 11
55.87098336357875
 21
58.1039342689521
 31
0.0
 12
56.46153453130526
 22
58.20235946357319
 32
0.0
 13
56.46153453130526
 23
58.20235946357319
 33
0.0
  0
MTEXT
  5
11CB
330
10E6
100
AcDbEntity
  8
Dimension (ANSI)
440
 16777216
100
AcDbMText
 10
57.65143840908974
 20
58.50235946804353
 30
0.0
 40
0.6000000089406968
 41
0.0
 71
     1
 72
     1
  1
\A1;2.13
  7
ROMANS
 73
     1
 44
1.0
  0
POINT
  5
11CC
330
10E6
100
AcDbEntity
  8
Defpoints
 62
     0
440
 16777216
100
AcDbPoint
 10
56.46153453130526
 20
56.3948959192858
 30
0.0
  0
POINT
  5
11CD
330
10E6
100
AcDbEntity
  8
Defpoints
 62
     0
440
 16777216
100
AcDbPoint
 10
54.33653453130542
 20
56.17614591928229
 30
0.0
  0
POINT
  5
11CE
330
10E6
100
AcDbEntity
  8
Defpoints
 62
     0
440
 16777216
100
AcDbPoint
 10
54.33653453130542
 20
58.20235946357319
 30
0.0
  0
ENDBLK
  5
10E8
330
10E6
100
AcDbEntity
  8
0
100
AcDbBlockEnd
  0
BLOCK
  5
11D1
330
11D0
100
AcDbEntity
  8
0
100
AcDbBlockBegin
  2
*D20
 70
     1
 10
0.0
 20
0.0
 30
0.0
  3
*D20
  1

  0
LINE
  5
12C1
330
11D0
100
AcDbEntity
  8
Dimension (ANSI)
440
 16777216
100
AcDbLine
 10
31.96153453130546
 20
56.3948959192858
 30
0.0
 11
24.73872800751154
 21
56.3948959192858
 31
0.0
  0
LINE
  5
12C2
330
11D0
100
AcDbEntity
  8
Dimension (ANSI)
440
 16777216
100
AcDbLine
 10
33.05528453130542
 20
55.14489591928229
 30
0.0
 11
24.73872800751154
 21
55.14489591928229
 31
0.0
  0
LINE
  5
12C3
330
11D0
100
AcDbEntity
  8
Dimension (ANSI)
440
 16777216
100
AcDbLine
 10
25.48872800751154
 20
54.55434475155577
 30
0.0
 11
25.48872800751154
 21
53.96379358382926
 31
0.0
  0
LINE
  5
12C4
330
11D0
100
AcDbEntity
  8
Dimension (ANSI)
440
 16777216
100
AcDbLine
 10
25.48872800751154
 20
56.98544708701231
 30
0.0
 11
25.48872800751154
 21
58.013159007282
 31
0.0
  0
LINE
  5
12C5
330
11D0
100
AcDbEntity
  8
Dimension (ANSI)
440
 16777216
100
AcDbLine
 10
25.48872800751154
 20
58.013159007282
 30
0.0
 11
26.07927917523806
 21
58.013159007282
 31
0.0
  0
SOLID
  5
12C6
330
11D0
100
AcDbEntity
  8
Dimension (ANSI)
440
 16777216
100
AcDbTrace
 10
25.39030281289046
 20
54.55434475155577
 30
0.0
 11
25.58715320213263
 21
54.55434475155577
 31
0.0
 12
25.48872800751154
 22
55.14489591928229
 32
0.0
 13
25.48872800751154
 23
55.14489591928229
 33
0.0
  0
SOLID
  5
12C7
330
11D0
100
AcDbEntity
  8
Dimension (ANSI)
440
 16777216
100
AcDbTrace
 10
25.39030281289046
 20
56.98544708701231
 30
0.0
 11
25.58715320213263
 21
56.98544708701231
 31
0.0
 12
25.48872800751154
 22
56.3948959192858
 32
0.0
 13
25.48872800751154
 23
56.3948959192858
 33
0.0
  0
MTEXT
  5
12C8
330
11D0
100
AcDbEntity
  8
Dimension (ANSI)
440
 16777216
100
AcDbMText
 10
26.26825555319081
 20
58.31315901175235
 30
0.0
 40
0.6000000089406968
 41
0.0
 71
     1
 72
     1
  1
\A1;1.25
  7
ROMANS
 73
     1
 44
1.0
  0
POINT
  5
12C9
330
11D0
100
AcDbEntity
  8
Defpoints
 62
     0
440
 16777216
100
AcDbPoint
 10
32.33653453130546
 20
56.3948959192858
 30
0.0
  0
POINT
  5
12CA
330
11D0
100
AcDbEntity
  8
Defpoints
 62
     0
440
 16777216
100
AcDbPoint
 10
33.43028453130542
 20
55.14489591928229
 30
0.0
  0
POINT
  5
12CB
330
11D0
100
AcDbEntity
  8
Defpoints
 62
     0
440
 16777216
100
AcDbPoint
 10
25.48872800751154
 20
55.14489591928229
 30
0.0
  0
ENDBLK
  5
11D2
330
11D0
100
AcDbEntity
  8
0
100
AcDbBlockEnd
  0
BLOCK
  5
12CE
330
12CD
100
AcDbEntity
  8
0
100
AcDbBlockBegin
  2
*D21
 70
     1
 10
0.0
 20
0.0
 30
0.0
  3
*D21
  1

  0
LINE
  5
13B2
330
12CD
100
AcDbEntity
  8
Dimension (ANSI)
440
 16777216
100
AcDbLine
 10
31.96153453130546
 20
56.3948959192858
 30
0.0
 11
23.84676987580759
 21
56.3948959192858
 31
0.0
  0
LINE
  5
13B3
330
12CD
100
AcDbEntity
  8
Dimension (ANSI)
440
 16777216
100
AcDbLine
 10
42.99278453130542
 20
52.14489591928233
 30
0.0
 11
23.84676987580759
 21
52.14489591928233
 31
0.0
  0
LINE
  5
13B4
330
12CD
100
AcDbEntity
  8
Dimension (ANSI)
440
 16777216
100
AcDbLine
 10
24.59676987580758
 20
55.80434475155928
 30
0.0
 11
24.59676987580758
 21
54.75887230170716
 31
0.0
  0
LINE
  5
13B5
330
12CD
100
AcDbEntity
  8
Dimension (ANSI)
440
 16777216
100
AcDbLine
 10
24.59676987580758
 20
52.73544708700885
 30
0.0
 11
24.59676987580758
 21
53.78091953686095
 31
0.0
  0
SOLID
  5
13B6
330
12CD
100
AcDbEntity
  8
Dimension (ANSI)
440
 16777216
100
AcDbTrace
 10
24.4983446811865
 20
55.80434475155928
 30
0.0
 11
24.69519507042867
 21
55.80434475155928
 31
0.0
 12
24.59676987580759
 22
56.3948959192858
 32
0.0
 13
24.59676987580759
 23
56.3948959192858
 33
0.0
  0
SOLID
  5
13B7
330
12CD
100
AcDbEntity
  8
Dimension (ANSI)
440
 16777216
100
AcDbTrace
 10
24.4983446811865
 20
52.73544708700885
 30
0.0
 11
24.69519507042867
 21
52.73544708700885
 31
0.0
 12
24.59676987580758
 22
52.14489591928233
 32
0.0
 13
24.59676987580758
 23
52.14489591928233
 33
0.0
  0
MTEXT
  5
13B8
330
12CD
100
AcDbEntity
  8
Dimension (ANSI)
440
 16777216
100
AcDbMText
 10
23.68248414789794
 20
54.56989592375442
 30
0.0
 40
0.6000000089406968
 41
0.0
 71
     1
 72
     1
  1
\A1;4.25
  7
ROMANS
 73
     1
 44
1.0
  0
POINT
  5
13B9
330
12CD
100
AcDbEntity
  8
Defpoints
 62
     0
440
 16777216
100
AcDbPoint
 10
32.33653453130546
 20
56.3948959192858
 30
0.0
  0
POINT
  5
13BA
330
12CD
100
AcDbEntity
  8
Defpoints
 62
     0
440
 16777216
100
AcDbPoint
 10
43.36778453130541
 20
52.14489591928233
 30
0.0
  0
POINT
  5
13BB
330
12CD
100
AcDbEntity
  8
Defpoints
 62
     0
440
 16777216
100
AcDbPoint
 10
24.59676987580758
 20
52.14489591928233
 30
0.0
  0
ENDBLK
  5
12CF
330
12CD
100
AcDbEntity
  8
0
100
AcDbBlockEnd
  0
BLOCK
  5
13BE
330
13BD
100
AcDbEntity
  8
0
100
AcDbBlockBegin
  2
*D22
 70
     1
 10
0.0
 20
0.0
 30
0.0
  3
*D22
  1

  0
LINE
  5
146D
330
13BD
100
AcDbEntity
  8
Dimension (ANSI)
440
 16777216
100
AcDbLine
 10
34.13082996762222
 20
46.70890756670724
 30
0.0
 11
34.9836265152902
 21
46.70890756670724
 31
0.0
  0
LINE
  5
146E
330
13BD
100
AcDbEntity
  8
Dimension (ANSI)
440
 16777216
100
AcDbLine
 10
34.9836265152902
 20
46.70890756670724
 30
0.0
 11
43.64403257300526
 21
51.70899533541916
 31
0.0
  0
MTEXT
  5
146F
102
{ACAD_XDICTIONARY
360
15AB
102
}
330
13BD
100
AcDbEntity
  8
Dimension (ANSI)
440
 16777216
100
AcDbMText
 10
32.38471070932336
 20
46.70890756670724
 30
0.0
 40
0.6000000089406968
 41
0.0
 71
     5
 72
     1
  1
\A1;\U+22050.563{\P(3 PL.)}
  7
ROMANS
 73
     1
 44
1.0
  0
SOLID
  5
1470
330
13BD
100
AcDbEntity
  8
Dimension (ANSI)
440
 16777216
100
AcDbTrace
 10
43.59481997569473
 20
51.79423405433346
 30
0.0
 11
43.6932451703158
 21
51.62375661650486
 31
0.0
 12
44.15546488649103
 22
52.00427091928236
 32
0.0
 13
44.15546488649103
 23
52.00427091928236
 33
0.0
  0
LINE
  5
1471
330
13BD
100
AcDbEntity
  8
Dimension (ANSI)
440
 16777216
100
AcDbLine
 10
43.8590345313054
 20
52.14489591928233
 30
0.0
 11
44.93903453130542
 21
52.14489591928233
 31
0.0
  0
LINE
  5
1472
330
13BD
100
AcDbEntity
  8
Dimension (ANSI)
440
 16777216
100
AcDbLine
 10
44.39903453130542
 20
51.60489591928232
 30
0.0
 11
44.39903453130543
 21
52.68489591928234
 31
0.0
  0
POINT
  5
1473
330
13BD
100
AcDbEntity
  8
Defpoints
 62
     0
440
 16777216
100
AcDbPoint
 10
44.15546488649103
 20
52.00427091928236
 30
0.0
  0
POINT
  5
1474
330
13BD
100
AcDbEntity
  8
Defpoints
 62
     0
440
 16777216
100
AcDbPoint
 10
44.6426041761198
 20
52.2855209192823
 30
0.0
  0
ENDBLK
  5
13BF
330
13BD
100
AcDbEntity
  8
0
100
AcDbBlockEnd
  0
BLOCK
  5
1477
330
1476
100
AcDbEntity
  8
0
100
AcDbBlockBegin
  2
*D23
 70
     1
 10
0.0
 20
0.0
 30
0.0
  3
*D23
  1

  0
LINE
  5
1555
330
1476
100
AcDbEntity
  8
Dimension (ANSI)
440
 16777216
100
AcDbLine
 10
14.54399559547984
 20
28.33322719703327
 30
0.0
 11
14.54399559547984
 21
25.37739861382203
 31
0.0
  0
LINE
  5
1556
330
1476
100
AcDbEntity
  8
Dimension (ANSI)
440
 16777216
100
AcDbLine
 10
22.29399559547989
 20
28.11460333823148
 30
0.0
 11
22.29399559547989
 21
25.37739861382203
 31
0.0
  0
LINE
  5
1557
330
1476
100
AcDbEntity
  8
Dimension (ANSI)
440
 16777216
100
AcDbLine
 10
15.13454676320636
 20
26.12739861382203
 30
0.0
 11
17.31573348961747
 21
26.12739861382203
 31
0.0
  0
LINE
  5
1558
330
1476
100
AcDbEntity
  8
Dimension (ANSI)
440
 16777216
100
AcDbLine
 10
21.70344442775338
 20
26.12739861382203
 30
0.0
 11
19.52225770134225
 21
26.12739861382203
 31
0.0
  0
SOLID
  5
1559
330
1476
100
AcDbEntity
  8
Dimension (ANSI)
440
 16777216
100
AcDbTrace
 10
15.13454676320636
 20
26.22582380844312
 30
0.0
 11
15.13454676320636
 21
26.02897341920094
 31
0.0
 12
14.54399559547984
 22
26.12739861382203
 32
0.0
 13
14.54399559547984
 23
26.12739861382203
 33
0.0
  0
SOLID
  5
155A
330
1476
100
AcDbEntity
  8
Dimension (ANSI)
440
 16777216
100
AcDbTrace
 10
21.70344442775338
 20
26.22582380844312
 30
0.0
 11
21.70344442775338
 21
26.02897341920094
 31
0.0
 12
22.29399559547989
 22
26.12739861382203
 32
0.0
 13
22.29399559547989
 23
26.12739861382203
 33
0.0
  0
MTEXT
  5
155B
330
1476
100
AcDbEntity
  8
Dimension (ANSI)
440
 16777216
100
AcDbMText
 10
17.50470986757023
 20
26.42739861829238
 30
0.0
 40
0.6000000089406968
 41
0.0
 71
     1
 72
     1
  1
\A1;7.75
  7
ROMANS
 73
     1
 44
1.0
  0
POINT
  5
155C
330
1476
100
AcDbEntity
  8
Defpoints
 62
     0
440
 16777216
100
AcDbPoint
 10
14.54399559547984
 20
28.70822719703327
 30
0.0
  0
POINT
  5
155D
330
1476
100
AcDbEntity
  8
Defpoints
 62
     0
440
 16777216
100
AcDbPoint
 10
22.29399559547989
 20
28.48960333823148
 30
0.0
  0
POINT
  5
155E
330
1476
100
AcDbEntity
  8
Defpoints
 62
     0
440
 16777216
100
AcDbPoint
 10
22.29399559547989
 20
26.12739861382203
 30
0.0
  0
ENDBLK
  5
1478
330
1476
100
AcDbEntity
  8
0
100
AcDbBlockEnd
  0
ENDSEC
  0
SECTION
  2
ENTITIES
  0
SPLINE
  5
107
330
6C
100
AcDbEntity
  8
Visible (ANSI)
100
AcDbSpline
210
0.0
220
0.0
230
1.0
 70
     8
 71
     3
 72
    11
 73
     7
 74
     0
 42
0.0000000001
 43
0.0000000001
 40
0.0
 40
0.0
 40
0.0
 40
0.0
 40
0.9120227246349083
 40
0.9120227246349083
 40
0.9120227246349083
 40
1.570796326794897
 40
1.570796326794897
 40
1.570796326794897
 40
1.570796326794897
 10
56.2427845313012
 20
28.48947719703326
 30
0.0
 10
56.30928618830583
 20
28.48947719703326
 30
0.0
 10
56.37505085941066
 20
28.52173416409959
 30
0.0
 10
56.4157596855756
 20
28.57431992126476
 30
0.0
 10
56.44516454504675
 20
28.6123037430866
 30
0.0
 10
56.4615345313012
 20
28.66019162187577
 30
0.0
 10
56.4615345313012
 20
28.70822719703327
 30
0.0
  0
LINE
  5
108
330
6C
100
AcDbEntity
  8
Visible (ANSI)
100
AcDbLine
 10
56.2427845313012
 20
28.61447719703326
 30
0.0
 11
56.2427845313012
 21
28.48947719703326
 31
0.0
  0
LINE
  5
109
330
6C
100
AcDbEntity
  8
Visible (ANSI)
100
AcDbLine
 10
56.38204510650661
 20
28.70822719703327
 30
0.0
 11
56.4615345313012
 21
28.70822719703327
 31
0.0
  0
LINE
  5
10A
330
6C
100
AcDbEntity
  8
Visible (ANSI)
100
AcDbLine
 10
56.33653453130119
 20
28.70822719703327
 30
0.0
 11
56.38204510650661
 21
28.70822719703327
 31
0.0
  0
SPLINE
  5
10B
330
6C
100
AcDbEntity
  8
Visible (ANSI)
100
AcDbSpline
210
0.0
220
0.0
230
1.0
 70
     8
 71
     3
 72
    11
 73
     7
 74
     0
 42
0.0000000001
 43
0.0000000001
 40
0.0
 40
0.0
 40
0.0
 40
0.0
 40
1.127197082403218
 40
1.127197082403218
 40
1.127197082403218
 40
1.570796326794897
 40
1.570796326794897
 40
1.570796326794897
 40
1.570796326794897
 10
56.33653453130119
 20
28.70822719703327
 30
0.0
 10
56.33653453130119
 20
28.67300228820816
 30
0.0
 10
56.31483697306459
 20
28.63866929066979
 30
0.0
 10
56.28302138643793
 20
28.62355100209806
 30
0.0
 10
56.2705006210742
 20
28.61760132258627
 30
0.0
 10
56.25664700768844
 20
28.61447719703326
 30
0.0
 10
56.2427845313012
 20
28.61447719703326
 30
0.0
  0
LINE
  5
10C
330
6C
100
AcDbEntity
  8
Visible Narrow (ANSI)
100
AcDbLine
 10
32.55528453130134
 20
28.70822719703326
 30
0.0
 11
32.5865345313013
 21
28.70822719703326
 31
0.0
  0
LINE
  5
10D
330
6C
100
AcDbEntity
  8
Visible Narrow (ANSI)
100
AcDbLine
 10
56.21153453130129
 20
28.70822719703326
 30
0.0
 11
56.24278453130134
 21
28.70822719703326
 31
0.0
  0
SPLINE
  5
10E
330
6C
100
AcDbEntity
  8
Visible (ANSI)
100
AcDbSpline
210
0.0
220
0.0
230
1.0
 70
     8
 71
     3
 72
    11
 73
     7
 74
     0
 42
0.0000000001
 43
0.0000000001
 40
0.0
 40
0.0
 40
0.0
 40
0.0
 40
0.9120227246349479
 40
0.9120227246349479
 40
0.9120227246349479
 40
1.570796326794896
 40
1.570796326794896
 40
1.570796326794896
 40
1.570796326794896
 10
32.33653453130134
 20
28.70822719703326
 30
0.0
 10
32.33653453130134
 20
28.64172554002863
 30
0.0
 10
32.36879149836767
 20
28.57596086892379
 30
0.0
 10
32.42137725553284
 20
28.53525204275884
 30
0.0
 10
32.45936107735469
 20
28.5058471832877
 30
0.0
 10
32.50724895614385
 20
28.48947719703326
 30
0.0
 10
32.55528453130134
 20
28.48947719703326
 30
0.0
  0
LINE
  5
10F
330
6C
100
AcDbEntity
  8
Visible (ANSI)
100
AcDbLine
 10
32.55528453130134
 20
28.61447719703326
 30
0.0
 11
32.55528453130134
 21
28.48947719703326
 31
0.0
  0
SPLINE
  5
110
330
6C
100
AcDbEntity
  8
Visible (ANSI)
100
AcDbSpline
210
0.0
220
0.0
230
1.0
 70
     8
 71
     3
 72
    11
 73
     7
 74
     0
 42
0.0000000001
 43
0.0000000001
 40
0.0
 40
0.0
 40
0.0
 40
0.0
 40
1.127197082403383
 40
1.127197082403383
 40
1.127197082403383
 40
1.570796326794896
 40
1.570796326794896
 40
1.570796326794896
 40
1.570796326794896
 10
32.46153453130134
 20
28.70822719703326
 30
0.0
 10
32.46153453130134
 20
28.67300228820815
 30
0.0
 10
32.48323208953795
 20
28.63866929066978
 30
0.0
 10
32.51504767616462
 20
28.62355100209805
 30
0.0
 10
32.52756844152835
 20
28.61760132258627
 30
0.0
 10
32.5414220549141
 20
28.61447719703326
 30
0.0
 10
32.55528453130134
 20
28.61447719703326
 30
0.0
  0
LINE
  5
111
330
6C
100
AcDbEntity
  8
Visible (ANSI)
100
AcDbLine
 10
32.41602395609593
 20
28.70822719703326
 30
0.0
 11
32.46153453130134
 21
28.70822719703326
 31
0.0
  0
LINE
  5
112
330
6C
100
AcDbEntity
  8
Visible (ANSI)
100
AcDbLine
 10
32.33653453130134
 20
28.70822719703326
 30
0.0
 11
32.41602395609593
 21
28.70822719703326
 31
0.0
  0
LINE
  5
113
330
6C
100
AcDbEntity
  8
Visible (ANSI)
100
AcDbLine
 10
56.2427845313012
 20
28.61447719703326
 30
0.0
 11
56.2115345313013
 21
28.61447719703326
 31
0.0
  0
LINE
  5
114
330
6C
100
AcDbEntity
  8
Visible (ANSI)
100
AcDbLine
 10
55.21153453130119
 20
28.48947719703326
 30
0.0
 11
56.2427845313012
 21
28.48947719703326
 31
0.0
  0
LINE
  5
115
330
6C
100
AcDbEntity
  8
Visible (ANSI)
100
AcDbLine
 10
55.21153453130119
 20
28.48960333823148
 30
0.0
 11
55.21153453130119
 21
28.48947719703326
 31
0.0
  0
LINE
  5
116
330
6C
100
AcDbEntity
  8
Visible (ANSI)
100
AcDbLine
 10
33.60863161821342
 20
28.48947719703326
 30
0.0
 11
55.18943744438923
 21
28.48947719703326
 31
0.0
  0
LINE
  5
117
330
6C
100
AcDbEntity
  8
Visible (ANSI)
100
AcDbLine
 10
32.55528453130134
 20
28.61447719703326
 30
0.0
 11
32.5865345313013
 21
28.61447719703326
 31
0.0
  0
LINE
  5
118
330
6C
100
AcDbEntity
  8
Visible (ANSI)
100
AcDbLine
 10
32.55528453130134
 20
28.48947719703326
 30
0.0
 11
33.58653453130134
 21
28.48947719703326
 31
0.0
  0
LINE
  5
119
330
6C
100
AcDbEntity
  8
Visible (ANSI)
100
AcDbLine
 10
33.58653453130134
 20
28.48960333823148
 30
0.0
 11
33.58653453130134
 21
28.48947719703326
 31
0.0
  0
LINE
  5
11A
330
6C
100
AcDbEntity
  8
Visible (ANSI)
100
AcDbLine
 10
32.46153453130134
 20
28.70822719703326
 30
0.0
 11
32.55528453130134
 21
28.70822719703326
 31
0.0
  0
LINE
  5
11B
330
6C
100
AcDbEntity
  8
Visible (ANSI)
100
AcDbLine
 10
56.24278453130134
 20
28.70822719703326
 30
0.0
 11
56.33653453130133
 21
28.70822719703326
 31
0.0
  0
SPLINE
  5
11C
330
6C
100
AcDbEntity
  8
Visible (ANSI)
100
AcDbSpline
210
0.0
220
0.0
230
1.0
 70
     8
 71
     3
 72
     8
 73
     4
 74
     0
 42
0.0000000001
 43
0.0000000001
 40
0.0
 40
0.0
 40
0.0
 40
0.0
 40
0.4429110440736502
 40
0.4429110440736502
 40
0.4429110440736502
 40
0.4429110440736502
 10
32.55528453130134
 20
28.70822719703326
 30
0.0
 10
32.55736140650751
 20
28.67593160006956
 30
0.0
 10
32.55943828171369
 20
28.64380981555488
 30
0.0
 10
32.56151515691987
 20
28.61464716764331
 30
0.0
  0
SPLINE
  5
11D
330
6C
100
AcDbEntity
  8
Visible (ANSI)
100
AcDbSpline
210
0.0
220
0.0
230
1.0
 70
     8
 71
     3
 72
     8
 73
     4
 74
     0
 42
0.0000000001
 43
0.0000000001
 40
1.127885282721262
 40
1.127885282721262
 40
1.127885282721262
 40
1.127885282721262
 40
1.570796326794896
 40
1.570796326794896
 40
1.570796326794896
 40
1.570796326794896
 10
56.23655390568281
 20
28.61450572072172
 30
0.0
 10
56.23863078088898
 20
28.64370276527822
 30
0.0
 10
56.24070765609516
 20
28.67593160006956
 30
0.0
 10
56.24278453130134
 20
28.70822719703326
 30
0.0
  0
LINE
  5
11E
330
6C
100
AcDbEntity
  8
Visible (ANSI)
100
AcDbLine
 10
55.18943744438923
 20
28.48947719703326
 30
0.0
 11
55.21153453130119
 21
28.48947719703326
 31
0.0
  0
LINE
  5
11F
330
6C
100
AcDbEntity
  8
Visible (ANSI)
100
AcDbLine
 10
55.18943744438923
 20
28.48960333823148
 30
0.0
 11
55.18943744438923
 21
28.48947719703326
 31
0.0
  0
SPLINE
  5
120
330
6C
100
AcDbEntity
  8
Visible (ANSI)
100
AcDbSpline
210
0.0
220
0.0
230
1.0
 70
     8
 71
     3
 72
    11
 73
     7
 74
     0
 42
0.0000000001
 43
0.0000000001
 40
0.0
 40
0.0
 40
0.0
 40
0.0
 40
1.12719708240338
 40
1.12719708240338
 40
1.12719708240338
 40
1.570796326794896
 40
1.570796326794896
 40
1.570796326794896
 40
1.570796326794896
 10
56.24278453130134
 20
28.70822719703326
 30
0.0
 10
56.23749893794293
 20
28.67300228820816
 30
0.0
 10
56.23221334458453
 20
28.63866929066978
 30
0.0
 10
56.22692775122614
 20
28.62355100209805
 30
0.0
 10
56.22484764894717
 20
28.61760132258627
 30
0.0
 10
56.22276754666821
 20
28.61447719703326
 30
0.0
 10
56.22068744438924
 20
28.61447719703326
 30
0.0
  0
SPLINE
  5
121
330
6C
100
AcDbEntity
  8
Visible (ANSI)
100
AcDbSpline
210
0.0
220
0.0
230
1.0
 70
     8
 71
     3
 72
    11
 73
     7
 74
     0
 42
0.0000000001
 43
0.0000000001
 40
0.0
 40
0.0
 40
0.0
 40
0.0
 40
1.12719708240338
 40
1.12719708240338
 40
1.12719708240338
 40
1.570796326794896
 40
1.570796326794896
 40
1.570796326794896
 40
1.570796326794896
 10
32.55528453130134
 20
28.70822719703326
 30
0.0
 10
32.56057012465974
 20
28.67300228820816
 30
0.0
 10
32.56585571801814
 20
28.63866929066978
 30
0.0
 10
32.57114131137654
 20
28.62355100209805
 30
0.0
 10
32.5732214136555
 20
28.61760132258627
 30
0.0
 10
32.57530151593446
 20
28.61447719703326
 30
0.0
 10
32.57738161821342
 20
28.61447719703326
 30
0.0
  0
LINE
  5
122
330
6C
100
AcDbEntity
  8
Visible (ANSI)
100
AcDbLine
 10
33.58653453130134
 20
28.48947719703326
 30
0.0
 11
33.60863161821342
 21
28.48947719703326
 31
0.0
  0
LINE
  5
123
330
6C
100
AcDbEntity
  8
Visible (ANSI)
100
AcDbLine
 10
33.60863161821342
 20
28.48960333823148
 30
0.0
 11
33.60863161821342
 21
28.48947719703326
 31
0.0
  0
LINE
  5
124
330
6C
100
AcDbEntity
  8
Visible (ANSI)
100
AcDbLine
 10
32.33653453130134
 20
28.70822719703326
 30
0.0
 11
32.33653453130133
 21
40.27072719703325
 31
0.0
  0
LINE
  5
125
330
6C
100
AcDbEntity
  8
Visible (ANSI)
100
AcDbLine
 10
56.33653453130119
 20
28.70822719703327
 30
0.0
 11
56.33653453130114
 21
40.27072719703325
 31
0.0
  0
LINE
  5
126
330
6C
100
AcDbEntity
  8
Visible (ANSI)
100
AcDbLine
 10
56.46153453130114
 20
40.27072719703325
 30
0.0
 11
56.4615345313012
 21
28.70822719703327
 31
0.0
  0
LINE
  5
127
330
6C
100
AcDbEntity
  8
Visible (ANSI)
100
AcDbLine
 10
56.33653453130114
 20
40.27072719703325
 30
0.0
 11
56.46153453130114
 21
40.27072719703325
 31
0.0
  0
LINE
  5
128
330
6C
100
AcDbEntity
  8
Visible (ANSI)
100
AcDbLine
 10
32.46153453130134
 20
40.27072719703325
 30
0.0
 11
32.46153453130134
 21
28.70822719703326
 31
0.0
  0
LINE
  5
129
330
6C
100
AcDbEntity
  8
Visible (ANSI)
100
AcDbLine
 10
32.33653453130133
 20
40.27072719703325
 30
0.0
 11
32.46153453130134
 21
40.27072719703325
 31
0.0
  0
LINE
  5
12A
330
6C
100
AcDbEntity
  8
Visible Narrow (ANSI)
100
AcDbLine
 10
32.55528453130134
 20
40.27072719703325
 30
0.0
 11
32.55528453130134
 21
28.70822719703326
 31
0.0
  0
LINE
  5
12B
330
6C
100
AcDbEntity
  8
Visible Narrow (ANSI)
100
AcDbLine
 10
56.24278453130134
 20
28.70822719703326
 30
0.0
 11
56.24278453130134
 21
40.27072719703325
 31
0.0
  0
LINE
  5
12C
330
6C
100
AcDbEntity
  8
Visible (ANSI)
100
AcDbLine
 10
32.55528453130134
 20
40.27072719703325
 30
0.0
 11
32.46153453130134
 21
40.27072719703325
 31
0.0
  0
LINE
  5
12D
330
6C
100
AcDbEntity
  8
Visible (ANSI)
100
AcDbLine
 10
33.08653453130134
 20
40.36447719703326
 30
0.0
 11
32.55528453130134
 21
40.36447719703326
 31
0.0
  0
LINE
  5
12E
330
6C
100
AcDbEntity
  8
Visible (ANSI)
100
AcDbLine
 10
33.08653453130134
 20
40.48947719703327
 30
0.0
 11
32.55528453130134
 21
40.48947719703326
 31
0.0
  0
LINE
  5
12F
330
6C
100
AcDbEntity
  8
Visible (ANSI)
100
AcDbLine
 10
56.24278453130113
 20
40.48947719703327
 30
0.0
 11
55.71153453130114
 21
40.48947719703327
 31
0.0
  0
LINE
  5
130
330
6C
100
AcDbEntity
  8
Visible (ANSI)
100
AcDbLine
 10
55.71153453130114
 20
40.36447719703327
 30
0.0
 11
56.24278453130113
 21
40.36447719703326
 31
0.0
  0
LINE
  5
131
330
6C
100
AcDbEntity
  8
Visible (ANSI)
100
AcDbLine
 10
55.18943744438923
 20
40.36447719703327
 30
0.0
 11
33.60863161821342
 21
40.36447719703326
 31
0.0
  0
LINE
  5
132
330
6C
100
AcDbEntity
  8
Visible (ANSI)
100
AcDbLine
 10
55.18943744438923
 20
40.48947719703327
 30
0.0
 11
33.60863161821342
 21
40.48947719703327
 31
0.0
  0
LINE
  5
133
330
6C
100
AcDbEntity
  8
Visible (ANSI)
100
AcDbLine
 10
56.33653453130132
 20
40.27072719703325
 30
0.0
 11
56.24278453130134
 21
40.27072719703325
 31
0.0
  0
LINE
  5
134
330
6C
100
AcDbEntity
  8
Visible (ANSI)
100
AcDbLine
 10
33.58653453130133
 20
40.48947719703327
 30
0.0
 11
33.08653453130134
 21
40.48947719703327
 31
0.0
  0
LINE
  5
135
330
6C
100
AcDbEntity
  8
Visible (ANSI)
100
AcDbLine
 10
33.08653453130134
 20
40.48947719703327
 30
0.0
 11
33.08653453130134
 21
40.36447719703326
 31
0.0
  0
LINE
  5
136
330
6C
100
AcDbEntity
  8
Visible (ANSI)
100
AcDbLine
 10
33.08653453130134
 20
40.36447719703326
 30
0.0
 11
33.58653453130133
 21
40.36447719703326
 31
0.0
  0
LINE
  5
137
330
6C
100
AcDbEntity
  8
Visible (ANSI)
100
AcDbLine
 10
33.58653453130133
 20
40.36447719703326
 30
0.0
 11
33.58653453130133
 21
40.48947719703327
 31
0.0
  0
LINE
  5
138
330
6C
100
AcDbEntity
  8
Visible (ANSI)
100
AcDbLine
 10
55.71153453130114
 20
40.48947719703327
 30
0.0
 11
55.21153453130115
 21
40.48947719703327
 31
0.0
  0
LINE
  5
139
330
6C
100
AcDbEntity
  8
Visible (ANSI)
100
AcDbLine
 10
55.21153453130115
 20
40.48947719703327
 30
0.0
 11
55.21153453130115
 21
40.36447719703327
 31
0.0
  0
LINE
  5
13A
330
6C
100
AcDbEntity
  8
Visible (ANSI)
100
AcDbLine
 10
55.21153453130115
 20
40.36447719703327
 30
0.0
 11
55.71153453130114
 21
40.36447719703327
 31
0.0
  0
LINE
  5
13B
330
6C
100
AcDbEntity
  8
Visible (ANSI)
100
AcDbLine
 10
55.71153453130114
 20
40.36447719703327
 30
0.0
 11
55.71153453130114
 21
40.48947719703327
 31
0.0
  0
ARC
  5
13C
330
6C
100
AcDbEntity
  8
Visible (ANSI)
100
AcDbCircle
 10
32.55528453130134
 20
40.27072719703325
 30
0.0
 40
0.0937499999999987
100
AcDbArc
 50
90.0
 51
180.0
  0
ARC
  5
13D
330
6C
100
AcDbEntity
  8
Visible (ANSI)
100
AcDbCircle
 10
32.55528453130134
 20
40.27072719703325
 30
0.0
 40
0.2187500000000024
100
AcDbArc
 50
90.00000000000108
 51
180.0
  0
ARC
  5
13E
330
6C
100
AcDbEntity
  8
Visible (ANSI)
100
AcDbCircle
 10
56.24278453130113
 20
40.27072719703325
 30
0.0
 40
0.218750000000008
100
AcDbArc
 50
0.0
 51
89.99999999999779
  0
ARC
  5
13F
330
6C
100
AcDbEntity
  8
Visible (ANSI)
100
AcDbCircle
 10
56.24278453130115
 20
40.27072719703325
 30
0.0
 40
0.0937500000000029
100
AcDbArc
 50
0.0
 51
90.00000000000515
  0
LINE
  5
140
330
6C
100
AcDbEntity
  8
Visible Narrow (ANSI)
100
AcDbLine
 10
56.24278453130134
 20
40.27072719703325
 30
0.0
 11
32.55528453130134
 21
40.27072719703325
 31
0.0
  0
SPLINE
  5
141
330
6C
100
AcDbEntity
  8
Visible (ANSI)
100
AcDbSpline
210
0.0
220
0.0
230
1.0
 70
     8
 71
     3
 72
     8
 73
     4
 74
     0
 42
0.0000000001
 43
0.0000000001
 40
0.0
 40
0.0
 40
0.0
 40
0.0
 40
0.4429110440736636
 40
0.4429110440736636
 40
0.4429110440736636
 40
0.4429110440736636
 10
56.24278453130133
 20
40.27072719703325
 30
0.0
 10
56.24070765609516
 20
40.30302279399696
 30
0.0
 10
56.23863078088898
 20
40.33514457851164
 30
0.0
 10
56.2365539056828
 20
40.36430722642321
 30
0.0
  0
SPLINE
  5
142
330
6C
100
AcDbEntity
  8
Visible (ANSI)
100
AcDbSpline
210
0.0
220
0.0
230
1.0
 70
     8
 71
     3
 72
     8
 73
     4
 74
     0
 42
0.0000000001
 43
0.0000000001
 40
1.127885282721269
 40
1.127885282721269
 40
1.127885282721269
 40
1.127885282721269
 40
1.570796326794911
 40
1.570796326794911
 40
1.570796326794911
 40
1.570796326794911
 10
32.56151515691986
 20
40.3644486733448
 30
0.0
 10
32.55943828171368
 20
40.3352516287883
 30
0.0
 10
32.55736140650751
 20
40.30302279399696
 30
0.0
 10
32.55528453130134
 20
40.27072719703325
 30
0.0
  0
LINE
  5
143
330
6C
100
AcDbEntity
  8
Visible (ANSI)
100
AcDbLine
 10
55.21153453130115
 20
40.36447719703327
 30
0.0
 11
55.18943744438923
 21
40.36447719703327
 31
0.0
  0
LINE
  5
144
330
6C
100
AcDbEntity
  8
Visible (ANSI)
100
AcDbLine
 10
33.58653453130133
 20
40.36447719703326
 30
0.0
 11
33.60863161821342
 21
40.36447719703326
 31
0.0
  0
LINE
  5
145
330
6C
100
AcDbEntity
  8
Visible (ANSI)
100
AcDbLine
 10
33.60863161821342
 20
40.48947719703327
 30
0.0
 11
33.58653453130133
 21
40.48947719703327
 31
0.0
  0
LINE
  5
146
330
6C
100
AcDbEntity
  8
Visible (ANSI)
100
AcDbLine
 10
33.60863161821342
 20
40.36447719703326
 30
0.0
 11
33.60863161821342
 21
40.48947719703327
 31
0.0
  0
SPLINE
  5
147
330
6C
100
AcDbEntity
  8
Visible (ANSI)
100
AcDbSpline
210
0.0
220
0.0
230
1.0
 70
     8
 71
     3
 72
    11
 73
     7
 74
     0
 42
0.0000000001
 43
0.0000000001
 40
0.0
 40
0.0
 40
0.0
 40
0.0
 40
1.127197082403415
 40
1.127197082403415
 40
1.127197082403415
 40
1.570796326794911
 40
1.570796326794911
 40
1.570796326794911
 40
1.570796326794911
 10
32.55528453130134
 20
40.27072719703325
 30
0.0
 10
32.56057012465973
 20
40.30595210585836
 30
0.0
 10
32.56585571801813
 20
40.34028510339673
 30
0.0
 10
32.57114131137653
 20
40.35540339196848
 30
0.0
 10
32.57322141365549
 20
40.36135307148025
 30
0.0
 10
32.57530151593445
 20
40.36447719703326
 30
0.0
 10
32.57738161821342
 20
40.36447719703326
 30
0.0
  0
SPLINE
  5
148
330
6C
100
AcDbEntity
  8
Visible (ANSI)
100
AcDbSpline
210
0.0
220
0.0
230
1.0
 70
     8
 71
     3
 72
    11
 73
     7
 74
     0
 42
0.0000000001
 43
0.0000000001
 40
0.0
 40
0.0
 40
0.0
 40
0.0
 40
1.127197082403415
 40
1.127197082403415
 40
1.127197082403415
 40
1.5707963267949
 40
1.5707963267949
 40
1.5707963267949
 40
1.5707963267949
 10
56.24278453130133
 20
40.27072719703325
 30
0.0
 10
56.23749893794293
 20
40.30595210585836
 30
0.0
 10
56.23221334458452
 20
40.34028510339673
 30
0.0
 10
56.22692775122612
 20
40.35540339196848
 30
0.0
 10
56.22484764894717
 20
40.36135307148025
 30
0.0
 10
56.22276754666819
 20
40.36447719703326
 30
0.0
 10
56.22068744438924
 20
40.36447719703326
 30
0.0
  0
LINE
  5
149
330
6C
100
AcDbEntity
  8
Visible (ANSI)
100
AcDbLine
 10
55.21153453130115
 20
40.48947719703327
 30
0.0
 11
55.18943744438923
 21
40.48947719703327
 31
0.0
  0
LINE
  5
14A
330
6C
100
AcDbEntity
  8
Visible (ANSI)
100
AcDbLine
 10
55.18943744438923
 20
40.36447719703327
 30
0.0
 11
55.18943744438923
 21
40.48947719703327
 31
0.0
  0
LINE
  5
14B
330
6C
100
AcDbEntity
  8
Visible (ANSI)
100
AcDbLine
 10
56.08653453130131
 20
28.61460333823148
 30
0.0
 11
56.2115345313013
 21
28.61460333823148
 31
0.0
  0
LINE
  5
14C
330
6C
100
AcDbEntity
  8
Visible Narrow (ANSI)
100
AcDbLine
 10
56.08653453130131
 20
28.61460333823148
 30
0.0
 11
56.08653453130131
 21
28.48960333823148
 31
0.0
  0
LINE
  5
14D
330
6C
100
AcDbEntity
  8
Visible (ANSI)
100
AcDbLine
 10
56.21153453130131
 20
28.48960333823148
 30
0.0
 11
56.08653453130131
 21
28.48960333823148
 31
0.0
  0
LINE
  5
14E
330
6C
100
AcDbEntity
  8
Visible (ANSI)
100
AcDbLine
 10
56.2115345313013
 20
28.48960333823148
 30
0.0
 11
56.2115345313013
 21
28.61460333823148
 31
0.0
  0
LINE
  5
14F
330
6C
100
AcDbEntity
  8
Visible (ANSI)
100
AcDbLine
 10
32.71153453130131
 20
28.48960333823148
 30
0.0
 11
32.5865345313013
 21
28.48960333823148
 31
0.0
  0
LINE
  5
150
330
6C
100
AcDbEntity
  8
Visible (ANSI)
100
AcDbLine
 10
32.5865345313013
 20
28.61460333823148
 30
0.0
 11
32.71153453130131
 21
28.61460333823148
 31
0.0
  0
LINE
  5
151
330
6C
100
AcDbEntity
  8
Visible (ANSI)
100
AcDbLine
 10
32.5865345313013
 20
28.61460333823148
 30
0.0
 11
32.5865345313013
 21
28.48960333823148
 31
0.0
  0
LINE
  5
152
330
6C
100
AcDbEntity
  8
Visible Narrow (ANSI)
100
AcDbLine
 10
32.71153453130131
 20
28.48960333823148
 30
0.0
 11
32.71153453130131
 21
28.61460333823148
 31
0.0
  0
LINE
  5
153
330
6C
100
AcDbEntity
  8
Visible (ANSI)
100
AcDbLine
 10
56.2115345313013
 20
28.73947719703328
 30
0.0
 11
56.2115345313013
 21
28.67540680541784
 31
0.0
  0
LINE
  5
154
330
6C
100
AcDbEntity
  8
Visible (ANSI)
100
AcDbLine
 10
32.58653453130131
 20
28.73947719703327
 30
0.0
 11
32.58653453130131
 21
28.67540680541783
 31
0.0
  0
LINE
  5
155
330
6C
100
AcDbEntity
  8
Visible (ANSI)
100
AcDbLine
 10
56.2115345313013
 20
28.73947719703328
 30
0.0
 11
32.58653453130131
 21
28.73947719703327
 31
0.0
  0
LINE
  5
156
330
6C
100
AcDbEntity
  8
Visible Narrow (ANSI)
100
AcDbLine
 10
56.2115345313013
 20
28.67540680541784
 30
0.0
 11
32.5865345313013
 21
28.67540680541783
 31
0.0
  0
LINE
  5
157
330
6C
100
AcDbEntity
  8
Visible (ANSI)
100
AcDbLine
 10
56.2115345313013
 20
28.64206207749524
 30
0.0
 11
56.2115345313013
 21
28.67540680541784
 31
0.0
  0
LINE
  5
158
330
6C
100
AcDbEntity
  8
Visible (ANSI)
100
AcDbLine
 10
32.5865345313013
 20
28.67540680541783
 30
0.0
 11
32.58653453130131
 21
28.64206207749523
 31
0.0
  0
LINE
  5
159
330
6C
100
AcDbEntity
  8
Visible (ANSI)
100
AcDbLine
 10
56.2115345313013
 20
28.61460333823149
 30
0.0
 11
56.2115345313013
 21
28.64206207749525
 31
0.0
  0
LINE
  5
15A
330
6C
100
AcDbEntity
  8
Visible (ANSI)
100
AcDbLine
 10
32.58653453130131
 20
28.61460333823148
 30
0.0
 11
32.58653453130131
 21
28.64206207749523
 31
0.0
  0
LINE
  5
15B
330
6C
100
AcDbEntity
  8
Visible Narrow (ANSI)
100
AcDbLine
 10
56.2115345313013
 20
28.64206207749524
 30
0.0
 11
32.58653453130131
 21
28.64206207749523
 31
0.0
  0
LINE
  5
15C
330
6C
100
AcDbEntity
  8
Visible (ANSI)
100
AcDbLine
 10
32.71153453130131
 20
28.48960333823148
 30
0.0
 11
56.08653453130131
 21
28.48960333823148
 31
0.0
  0
LINE
  5
15D
330
6C
100
AcDbEntity
  8
Visible (ANSI)
100
AcDbLine
 10
56.08653453130131
 20
28.61460333823148
 30
0.0
 11
32.71153453130131
 21
28.61460333823148
 31
0.0
  0
MTEXT
  5
15F
330
6C
100
AcDbEntity
  8
Symbol (ANSI)
100
AcDbMText
 10
41.56750142917758
 20
26.56836808807428
 30
0.0
 40
0.7200000088984572
 41
0.0
 71
     7
 72
     1
  1
FRONT VIEW
  7
Text Style168
 73
     1
 44
1.0
  0
LINE
  5
161
330
6C
100
AcDbEntity
  8
Symbol (ANSI)
370
    30
100
AcDbLine
 10
41.49550124396726
 20
26.42153826382493
 30
0.0
 11
47.28409126968132
 21
26.42153826382493
 31
0.0
  0
SPLINE
  5
162
330
6C
100
AcDbEntity
  8
Visible (ANSI)
100
AcDbSpline
210
0.0
220
0.0
230
1.0
 70
     8
 71
     3
 72
    11
 73
     7
 74
     0
 42
0.0000000001
 43
0.0000000001
 40
0.0
 40
0.0
 40
0.0
 40
0.0
 40
0.912022724634949
 40
0.912022724634949
 40
0.912022724634949
 40
1.570796326794896
 40
1.570796326794896
 40
1.570796326794896
 40
1.570796326794896
 10
14.54399559547984
 20
28.70822719703326
 30
0.0
 10
14.54399559547984
 20
28.64172554002863
 30
0.0
 10
14.57625256254617
 20
28.57596086892379
 30
0.0
 10
14.62883831971135
 20
28.53525204275884
 30
0.0
 10
14.66682214153319
 20
28.5058471832877
 30
0.0
 10
14.71471002032235
 20
28.48947719703326
 30
0.0
 10
14.76274559547985
 20
28.48947719703326
 30
0.0
  0
LINE
  5
163
330
6C
100
AcDbEntity
  8
Visible (ANSI)
100
AcDbLine
 10
14.76274559547985
 20
28.61447719703326
 30
0.0
 11
14.76897622109837
 21
28.61447719703326
 31
0.0
  0
LINE
  5
164
330
6C
100
AcDbEntity
  8
Visible (ANSI)
100
AcDbLine
 10
14.76274559547985
 20
28.61447719703326
 30
0.0
 11
14.76274559547985
 21
28.48947719703326
 31
0.0
  0
SPLINE
  5
165
330
6C
100
AcDbEntity
  8
Visible (ANSI)
100
AcDbSpline
210
0.0
220
0.0
230
1.0
 70
     8
 71
     3
 72
    11
 73
     7
 74
     0
 42
0.0000000001
 43
0.0000000001
 40
0.0
 40
0.0
 40
0.0
 40
0.0
 40
1.12719708240338
 40
1.12719708240338
 40
1.12719708240338
 40
1.570796326794896
 40
1.570796326794896
 40
1.570796326794896
 40
1.570796326794896
 10
14.66899559547984
 20
28.70822719703326
 30
0.0
 10
14.66899559547984
 20
28.67300228820816
 30
0.0
 10
14.69069315371645
 20
28.63866929066978
 30
0.0
 10
14.72250874034312
 20
28.62355100209805
 30
0.0
 10
14.73502950570686
 20
28.61760132258627
 30
0.0
 10
14.74888311909261
 20
28.61447719703326
 30
0.0
 10
14.76274559547985
 20
28.61447719703326
 30
0.0
  0
LINE
  5
166
330
6C
100
AcDbEntity
  8
Visible (ANSI)
100
AcDbLine
 10
14.76274559547985
 20
28.48947719703326
 30
0.0
 11
14.78484268239193
 21
28.48947719703326
 31
0.0
  0
SPLINE
  5
167
330
6C
100
AcDbEntity
  8
Visible (ANSI)
100
AcDbSpline
210
0.0
220
0.0
230
1.0
 70
     8
 71
     3
 72
    11
 73
     7
 74
     0
 42
0.0000000001
 43
0.0000000001
 40
0.0
 40
0.0
 40
0.0
 40
0.0
 40
0.912022724634949
 40
0.912022724634949
 40
0.912022724634949
 40
1.570796326794896
 40
1.570796326794896
 40
1.570796326794896
 40
1.570796326794896
 10
14.78484268239192
 20
28.48947719703326
 30
0.0
 10
14.78056607333099
 20
28.48947719703326
 30
0.0
 10
14.77628946427006
 20
28.52173416409959
 30
0.0
 10
14.77201285520914
 20
28.57431992126477
 30
0.0
 10
14.76892376863268
 20
28.61230374308661
 30
0.0
 10
14.76583468205622
 20
28.66019162187577
 30
0.0
 10
14.76274559547977
 20
28.70822719703326
 30
0.0
  0
LINE
  5
168
330
6C
100
AcDbEntity
  8
Visible (ANSI)
100
AcDbLine
 10
20.5439955954793
 20
28.48947719703326
 30
0.0
 11
14.78484268239192
 21
28.48947719703326
 31
0.0
  0
SPLINE
  5
169
330
6C
100
AcDbEntity
  8
Visible (ANSI)
100
AcDbSpline
210
0.0
220
0.0
230
1.0
 70
     8
 71
     3
 72
    11
 73
     7
 74
     0
 42
0.0000000001
 43
0.0000000001
 40
0.0
 40
0.0
 40
0.0
 40
0.0
 40
0.9120227246349479
 40
0.9120227246349479
 40
0.9120227246349479
 40
1.570796326794896
 40
1.570796326794896
 40
1.570796326794896
 40
1.570796326794896
 10
20.58113087399382
 20
28.70822719703326
 30
0.0
 10
20.57394381493908
 20
28.64172554002863
 30
0.0
 10
20.56675675588434
 20
28.57596086892379
 30
0.0
 10
20.55956969682962
 20
28.53525204275884
 30
0.0
 10
20.55437832971284
 20
28.5058471832877
 30
0.0
 10
20.54918696259607
 20
28.48947719703326
 30
0.0
 10
20.5439955954793
 20
28.48947719703326
 30
0.0
  0
LINE
  5
16A
330
6C
100
AcDbEntity
  8
Visible Narrow (ANSI)
100
AcDbLine
 10
14.76274559547977
 20
28.70822719703326
 30
0.0
 11
20.58113087399382
 21
28.70822719703326
 31
0.0
  0
LINE
  5
16B
330
6C
100
AcDbEntity
  8
Visible (ANSI)
100
AcDbLine
 10
14.76274559547977
 20
28.70822719703326
 30
0.0
 11
14.54399559547984
 21
28.70822719703326
 31
0.0
  0
LINE
  5
16C
330
6C
100
AcDbEntity
  8
Visible (ANSI)
100
AcDbLine
 10
20.58113087399382
 20
28.70822719703326
 30
0.0
 11
22.54399559547978
 21
40.27072719703325
 31
0.0
  0
LINE
  5
16D
330
6C
100
AcDbEntity
  8
Visible Narrow (ANSI)
100
AcDbLine
 10
22.54399559547978
 20
40.27072719703325
 30
0.0
 11
14.76274559547977
 21
40.27072719703325
 31
0.0
  0
LINE
  5
16E
330
6C
100
AcDbEntity
  8
Visible (ANSI)
100
AcDbLine
 10
22.54399559547978
 20
40.27072719703325
 30
0.0
 11
22.54399559547985
 21
40.48947719703326
 31
0.0
  0
LINE
  5
16F
330
6C
100
AcDbEntity
  8
Visible (ANSI)
100
AcDbLine
 10
14.78484268239192
 20
40.48947719703327
 30
0.0
 11
22.54399559547985
 21
40.48947719703326
 31
0.0
  0
LINE
  5
170
330
6C
100
AcDbEntity
  8
Visible Narrow (ANSI)
100
AcDbLine
 10
14.76274559547977
 20
40.27072719703325
 30
0.0
 11
14.76274559547977
 21
28.70822719703326
 31
0.0
  0
LINE
  5
171
330
6C
100
AcDbEntity
  8
Visible (ANSI)
100
AcDbLine
 10
14.54399559547984
 20
28.70822719703326
 30
0.0
 11
14.54399559547984
 21
40.27072719703325
 31
0.0
  0
SPLINE
  5
172
330
6C
100
AcDbEntity
  8
Visible (ANSI)
100
AcDbSpline
210
0.0
220
0.0
230
1.0
 70
     8
 71
     3
 72
    11
 73
     7
 74
     0
 42
0.0000000001
 43
0.0000000001
 40
0.0
 40
0.0
 40
0.0
 40
0.0
 40
0.9120227246349777
 40
0.9120227246349777
 40
0.9120227246349777
 40
1.570796326794911
 40
1.570796326794911
 40
1.570796326794911
 40
1.570796326794911
 10
14.76274559547985
 20
40.48947719703326
 30
0.0
 10
14.69624393847522
 20
40.48947719703326
 30
0.0
 10
14.63047926737037
 20
40.45722022996692
 30
0.0
 10
14.58977044120542
 20
40.40463447280175
 30
0.0
 10
14.56036558173428
 20
40.36665065097991
 30
0.0
 10
14.54399559547984
 20
40.31876277219075
 30
0.0
 10
14.54399559547984
 20
40.27072719703325
 30
0.0
  0
LINE
  5
173
330
6C
100
AcDbEntity
  8
Visible (ANSI)
100
AcDbLine
 10
14.76274559547985
 20
40.36447719703326
 30
0.0
 11
14.76897622109837
 21
40.36447719703326
 31
0.0
  0
LINE
  5
174
330
6C
100
AcDbEntity
  8
Visible (ANSI)
100
AcDbLine
 10
14.78484268239193
 20
40.48947719703326
 30
0.0
 11
14.76274559547985
 21
40.48947719703326
 31
0.0
  0
LINE
  5
175
330
6C
100
AcDbEntity
  8
Visible (ANSI)
100
AcDbLine
 10
14.76274559547985
 20
40.36447719703326
 30
0.0
 11
14.76274559547985
 21
40.48947719703326
 31
0.0
  0
SPLINE
  5
176
330
6C
100
AcDbEntity
  8
Visible (ANSI)
100
AcDbSpline
210
0.0
220
0.0
230
1.0
 70
     8
 71
     3
 72
    11
 73
     7
 74
     0
 42
0.0000000001
 43
0.0000000001
 40
0.0
 40
0.0
 40
0.0
 40
0.0
 40
1.127197082403415
 40
1.127197082403415
 40
1.127197082403415
 40
1.570796326794911
 40
1.570796326794911
 40
1.570796326794911
 40
1.570796326794911
 10
14.66899559547984
 20
40.27072719703325
 30
0.0
 10
14.66899559547984
 20
40.30595210585836
 30
0.0
 10
14.69069315371646
 20
40.34028510339673
 30
0.0
 10
14.72250874034312
 20
40.35540339196848
 30
0.0
 10
14.73502950570686
 20
40.36135307148025
 30
0.0
 10
14.74888311909261
 20
40.36447719703326
 30
0.0
 10
14.76274559547985
 20
40.36447719703326
 30
0.0
  0
SPLINE
  5
177
330
6C
100
AcDbEntity
  8
Visible (ANSI)
100
AcDbSpline
210
0.0
220
0.0
230
1.0
 70
     8
 71
     3
 72
    11
 73
     7
 74
     0
 42
0.0000000001
 43
0.0000000001
 40
0.0
 40
0.0
 40
0.0
 40
0.0
 40
0.9120227246349386
 40
0.9120227246349386
 40
0.9120227246349386
 40
1.5707963267949
 40
1.5707963267949
 40
1.5707963267949
 40
1.5707963267949
 10
14.76274559547977
 20
40.27072719703325
 30
0.0
 10
14.76702220454068
 20
40.33722885403789
 30
0.0
 10
14.7712988136016
 20
40.40299352514273
 30
0.0
 10
14.77557542266253
 20
40.44370235130767
 30
0.0
 10
14.77866450923899
 20
40.47310721077882
 30
0.0
 10
14.78175359581546
 20
40.48947719703327
 30
0.0
 10
14.78484268239192
 20
40.48947719703327
 30
0.0
  0
LINE
  5
178
330
6C
100
AcDbEntity
  8
Visible (ANSI)
100
AcDbLine
 10
14.54399559547984
 20
40.27072719703325
 30
0.0
 11
14.76274559547977
 21
40.27072719703325
 31
0.0
  0
LINE
  5
179
330
6C
100
AcDbEntity
  8
Visible (ANSI)
100
AcDbLine
 10
22.29399559547989
 20
28.48960333823148
 30
0.0
 11
22.16899559547985
 21
28.48960333823148
 31
0.0
  0
LINE
  5
17A
330
6C
100
AcDbEntity
  8
Visible (ANSI)
100
AcDbLine
 10
22.16899559547985
 20
28.61460333823148
 30
0.0
 11
22.29399559547989
 21
28.61460333823148
 31
0.0
  0
LINE
  5
17B
330
6C
100
AcDbEntity
  8
Visible Narrow (ANSI)
100
AcDbLine
 10
22.16899559547985
 20
28.61460333823148
 30
0.0
 11
22.16899559547985
 21
28.48960333823148
 31
0.0
  0
LINE
  5
17C
330
6C
100
AcDbEntity
  8
Visible (ANSI)
100
AcDbLine
 10
22.29399559547989
 20
28.48960333823148
 30
0.0
 11
22.29399559547989
 21
28.61460333823148
 31
0.0
  0
LINE
  5
17D
330
6C
100
AcDbEntity
  8
Visible (ANSI)
100
AcDbLine
 10
20.79410481224897
 20
28.48960333823148
 30
0.0
 11
22.16899559547985
 21
28.48960333823148
 31
0.0
  0
LINE
  5
17E
330
6C
100
AcDbEntity
  8
Visible (ANSI)
100
AcDbLine
 10
22.16899559547985
 20
28.61460333823148
 30
0.0
 11
20.79410481224897
 21
28.61460333823148
 31
0.0
  0
ARC
  5
17F
330
6C
100
AcDbEntity
  8
Visible (ANSI)
100
AcDbCircle
 10
20.79410481224896
 20
28.70835333823148
 30
0.0
 40
0.0937500000000002
100
AcDbArc
 50
225.0000000000035
 51
270.0000000000025
  0
ARC
  5
180
330
6C
100
AcDbEntity
  8
Visible (ANSI)
100
AcDbCircle
 10
20.79410481224896
 20
28.70835333823148
 30
0.0
 40
0.2187499999999999
100
AcDbArc
 50
225.0000000000015
 51
270.0000000000011
  0
LINE
  5
181
330
6C
100
AcDbEntity
  8
Visible (ANSI)
100
AcDbLine
 10
20.69446882359013
 20
28.67540680541783
 30
0.0
 11
20.72781355151272
 21
28.64206207749523
 31
0.0
  0
LINE
  5
182
330
6C
100
AcDbEntity
  8
Visible (ANSI)
100
AcDbLine
 10
20.6394252038644
 20
28.55367372984691
 30
0.0
 11
20.60608047594181
 21
28.58701845776952
 31
0.0
  0
ARC
  5
183
330
6C
100
AcDbEntity
  8
Visible (ANSI)
100
AcDbCircle
 10
20.53978921520557
 20
28.52072719703327
 30
0.0
 40
0.2187500000000013
100
AcDbArc
 50
45.00000000000077
 51
77.90837117931691
  0
ARC
  5
184
330
6C
100
AcDbEntity
  8
Visible (ANSI)
100
AcDbCircle
 10
20.53978921520557
 20
28.52072719703327
 30
0.0
 40
0.0937500000000018
100
AcDbArc
 50
45.0
 51
71.1650312593529
  0
MTEXT
  5
185
330
6C
100
AcDbEntity
  8
Symbol (ANSI)
100
AcDbMText
 10
15.77002297982851
 20
23.7803726020532
 30
0.0
 40
0.7200000088984572
 41
0.0
 71
     7
 72
     1
  1
LEFT VIEW
  7
Text Style168
 73
     1
 44
1.0
  0
LINE
  5
186
330
6C
100
AcDbEntity
  8
Symbol (ANSI)
370
    30
100
AcDbLine
 10
15.69802279461819
 20
23.61837260005105
 30
0.0
 11
20.55831450091365
 21
23.61837260005105
 31
0.0
  0
LINE
  5
187
330
6C
100
AcDbEntity
  8
Visible (ANSI)
100
AcDbLine
 10
71.61099680212533
 20
28.48947719703326
 30
0.0
 11
65.8518438890374
 21
28.48947719703326
 31
0.0
  0
LINE
  5
188
330
6C
100
AcDbEntity
  8
Visible Narrow (ANSI)
100
AcDbLine
 10
65.81470861052287
 20
28.70822719703326
 30
0.0
 11
71.63309388903747
 21
28.70822719703326
 31
0.0
  0
SPLINE
  5
189
330
6C
100
AcDbEntity
  8
Visible (ANSI)
100
AcDbSpline
210
0.0
220
0.0
230
1.0
 70
     8
 71
     3
 72
    11
 73
     7
 74
     0
 42
0.0000000001
 43
0.0000000001
 40
0.0
 40
0.0
 40
0.0
 40
0.0
 40
0.9120227246349083
 40
0.9120227246349083
 40
0.9120227246349083
 40
1.570796326794897
 40
1.570796326794897
 40
1.570796326794897
 40
1.570796326794897
 10
65.8518438890374
 20
28.48947719703326
 30
0.0
 10
65.84465682998268
 20
28.48947719703326
 30
0.0
 10
65.83746977092795
 20
28.52173416409959
 30
0.0
 10
65.83028271187322
 20
28.57431992126475
 30
0.0
 10
65.82509134475644
 20
28.6123037430866
 30
0.0
 10
65.81989997763966
 20
28.66019162187576
 30
0.0
 10
65.81470861052287
 20
28.70822719703326
 30
0.0
  0
SPLINE
  5
18A
330
6C
100
AcDbEntity
  8
Visible (ANSI)
100
AcDbSpline
210
0.0
220
0.0
230
1.0
 70
     8
 71
     3
 72
    11
 73
     7
 74
     0
 42
0.0000000001
 43
0.0000000001
 40
0.0
 40
0.0
 40
0.0
 40
0.0
 40
0.9120227246349088
 40
0.9120227246349088
 40
0.9120227246349088
 40
1.570796326794896
 40
1.570796326794896
 40
1.570796326794896
 40
1.570796326794896
 10
71.63309388903747
 20
28.70822719703326
 30
0.0
 10
71.62881727997656
 20
28.64172554002863
 30
0.0
 10
71.62454067091563
 20
28.57596086892379
 30
0.0
 10
71.62026406185471
 20
28.53525204275884
 30
0.0
 10
71.61717497527824
 20
28.50584718328769
 30
0.0
 10
71.61408588870178
 20
28.48947719703326
 30
0.0
 10
71.61099680212533
 20
28.48947719703326
 30
0.0
  0
SPLINE
  5
18B
330
6C
100
AcDbEntity
  8
Visible (ANSI)
100
AcDbSpline
210
0.0
220
0.0
230
1.0
 70
     8
 71
     3
 72
    11
 73
     7
 74
     0
 42
0.0000000001
 43
0.0000000001
 40
0.0
 40
0.0
 40
0.0
 40
0.0
 40
0.912022724634949
 40
0.912022724634949
 40
0.912022724634949
 40
1.570796326794896
 40
1.570796326794896
 40
1.570796326794896
 40
1.570796326794896
 10
71.6330938890374
 20
28.48947719703326
 30
0.0
 10
71.69959554604203
 20
28.48947719703326
 30
0.0
 10
71.76536021714688
 20
28.52173416409959
 30
0.0
 10
71.80606904331182
 20
28.57431992126476
 30
0.0
 10
71.83547390278298
 20
28.6123037430866
 30
0.0
 10
71.85184388903741
 20
28.66019162187577
 30
0.0
 10
71.85184388903741
 20
28.70822719703326
 30
0.0
  0
LINE
  5
18C
330
6C
100
AcDbEntity
  8
Visible (ANSI)
100
AcDbLine
 10
71.6330938890374
 20
28.61447719703326
 30
0.0
 11
71.62686326341887
 21
28.61447719703326
 31
0.0
  0
LINE
  5
18D
330
6C
100
AcDbEntity
  8
Visible (ANSI)
100
AcDbLine
 10
71.61099680212531
 20
28.48947719703326
 30
0.0
 11
71.6330938890374
 21
28.48947719703326
 31
0.0
  0
LINE
  5
18E
330
6C
100
AcDbEntity
  8
Visible (ANSI)
100
AcDbLine
 10
71.6330938890374
 20
28.61447719703326
 30
0.0
 11
71.6330938890374
 21
28.48947719703326
 31
0.0
  0
SPLINE
  5
18F
330
6C
100
AcDbEntity
  8
Visible (ANSI)
100
AcDbSpline
210
0.0
220
0.0
230
1.0
 70
     8
 71
     3
 72
    11
 73
     7
 74
     0
 42
0.0000000001
 43
0.0000000001
 40
0.0
 40
0.0
 40
0.0
 40
0.0
 40
1.12719708240338
 40
1.12719708240338
 40
1.12719708240338
 40
1.570796326794896
 40
1.570796326794896
 40
1.570796326794896
 40
1.570796326794896
 10
71.72684388903741
 20
28.70822719703326
 30
0.0
 10
71.72684388903741
 20
28.67300228820815
 30
0.0
 10
71.70514633080078
 20
28.63866929066978
 30
0.0
 10
71.67333074417412
 20
28.62355100209804
 30
0.0
 10
71.66080997881039
 20
28.61760132258627
 30
0.0
 10
71.64695636542463
 20
28.61447719703326
 30
0.0
 10
71.6330938890374
 20
28.61447719703326
 30
0.0
  0
LINE
  5
190
330
6C
100
AcDbEntity
  8
Visible (ANSI)
100
AcDbLine
 10
71.85184388903741
 20
28.70822719703326
 30
0.0
 11
71.63309388903747
 21
28.70822719703326
 31
0.0
  0
LINE
  5
191
330
6C
100
AcDbEntity
  8
Visible (ANSI)
100
AcDbLine
 10
71.85184388903741
 20
40.27072719703325
 30
0.0
 11
71.85184388903741
 21
28.70822719703326
 31
0.0
  0
LINE
  5
192
330
6C
100
AcDbEntity
  8
Visible Narrow (ANSI)
100
AcDbLine
 10
71.63309388903747
 20
28.70822719703326
 30
0.0
 11
71.63309388903747
 21
40.27072719703325
 31
0.0
  0
LINE
  5
193
330
6C
100
AcDbEntity
  8
Visible (ANSI)
100
AcDbLine
 10
71.63309388903745
 20
40.27072719703325
 30
0.0
 11
71.85184388903741
 21
40.27072719703325
 31
0.0
  0
LINE
  5
194
330
6C
100
AcDbEntity
  8
Visible (ANSI)
100
AcDbLine
 10
63.85184388903747
 20
40.27072719703325
 30
0.0
 11
65.81470861052287
 21
28.70822719703326
 31
0.0
  0
LINE
  5
195
330
6C
100
AcDbEntity
  8
Visible (ANSI)
100
AcDbLine
 10
63.85184388903741
 20
40.48947719703327
 30
0.0
 11
63.85184388903747
 21
40.27072719703325
 31
0.0
  0
LINE
  5
196
330
6C
100
AcDbEntity
  8
Visible (ANSI)
100
AcDbLine
 10
63.85184388903741
 20
40.48947719703327
 30
0.0
 11
71.61099680212533
 21
40.48947719703327
 31
0.0
  0
LINE
  5
197
330
6C
100
AcDbEntity
  8
Visible Narrow (ANSI)
100
AcDbLine
 10
71.63309388903747
 20
40.27072719703325
 30
0.0
 11
63.85184388903747
 21
40.27072719703325
 31
0.0
  0
SPLINE
  5
198
330
6C
100
AcDbEntity
  8
Visible (ANSI)
100
AcDbSpline
210
0.0
220
0.0
230
1.0
 70
     8
 71
     3
 72
    11
 73
     7
 74
     0
 42
0.0000000001
 43
0.0000000001
 40
0.0
 40
0.0
 40
0.0
 40
0.0
 40
0.9120227246349417
 40
0.9120227246349417
 40
0.9120227246349417
 40
1.5707963267949
 40
1.5707963267949
 40
1.5707963267949
 40
1.5707963267949
 10
71.85184388903741
 20
40.27072719703325
 30
0.0
 10
71.85184388903741
 20
40.33722885403788
 30
0.0
 10
71.81958692197108
 20
40.40299352514273
 30
0.0
 10
71.7670011648059
 20
40.44370235130767
 30
0.0
 10
71.72901734298405
 20
40.47310721077882
 30
0.0
 10
71.6811294641949
 20
40.48947719703326
 30
0.0
 10
71.6330938890374
 20
40.48947719703326
 30
0.0
  0
LINE
  5
199
330
6C
100
AcDbEntity
  8
Visible (ANSI)
100
AcDbLine
 10
71.6330938890374
 20
40.36447719703326
 30
0.0
 11
71.62686326341887
 21
40.36447719703326
 31
0.0
  0
LINE
  5
19A
330
6C
100
AcDbEntity
  8
Visible (ANSI)
100
AcDbLine
 10
71.6330938890374
 20
40.36447719703326
 30
0.0
 11
71.6330938890374
 21
40.48947719703326
 31
0.0
  0
SPLINE
  5
19B
330
6C
100
AcDbEntity
  8
Visible (ANSI)
100
AcDbSpline
210
0.0
220
0.0
230
1.0
 70
     8
 71
     3
 72
    11
 73
     7
 74
     0
 42
0.0000000001
 43
0.0000000001
 40
0.0
 40
0.0
 40
0.0
 40
0.0
 40
1.127197082403415
 40
1.127197082403415
 40
1.127197082403415
 40
1.5707963267949
 40
1.5707963267949
 40
1.5707963267949
 40
1.5707963267949
 10
71.72684388903741
 20
40.27072719703325
 30
0.0
 10
71.72684388903741
 20
40.30595210585835
 30
0.0
 10
71.70514633080078
 20
40.34028510339673
 30
0.0
 10
71.67333074417412
 20
40.35540339196847
 30
0.0
 10
71.66080997881039
 20
40.36135307148025
 30
0.0
 10
71.64695636542463
 20
40.36447719703326
 30
0.0
 10
71.6330938890374
 20
40.36447719703326
 30
0.0
  0
LINE
  5
19C
330
6C
100
AcDbEntity
  8
Visible (ANSI)
100
AcDbLine
 10
71.6330938890374
 20
40.48947719703326
 30
0.0
 11
71.61099680212531
 21
40.48947719703326
 31
0.0
  0
SPLINE
  5
19D
330
6C
100
AcDbEntity
  8
Visible (ANSI)
100
AcDbSpline
210
0.0
220
0.0
230
1.0
 70
     8
 71
     3
 72
    11
 73
     7
 74
     0
 42
0.0000000001
 43
0.0000000001
 40
0.0
 40
0.0
 40
0.0
 40
0.0
 40
0.9120227246349331
 40
0.9120227246349331
 40
0.9120227246349331
 40
1.5707963267949
 40
1.5707963267949
 40
1.5707963267949
 40
1.5707963267949
 10
71.61099680212533
 20
40.48947719703327
 30
0.0
 10
71.61527341118625
 20
40.48947719703327
 30
0.0
 10
71.61955002024718
 20
40.45722022996693
 30
0.0
 10
71.62382662930809
 20
40.40463447280176
 30
0.0
 10
71.62691571588457
 20
40.36665065097992
 30
0.0
 10
71.63000480246101
 20
40.31876277219075
 30
0.0
 10
71.63309388903747
 20
40.27072719703325
 30
0.0
  0
LINE
  5
19E
330
6C
100
AcDbEntity
  8
Visible (ANSI)
100
AcDbLine
 10
64.10184388903736
 20
28.61460333823148
 30
0.0
 11
64.22684388903739
 21
28.61460333823148
 31
0.0
  0
LINE
  5
19F
330
6C
100
AcDbEntity
  8
Visible (ANSI)
100
AcDbLine
 10
64.10184388903736
 20
28.61460333823148
 30
0.0
 11
64.10184388903736
 21
28.48960333823148
 31
0.0
  0
LINE
  5
1A0
330
6C
100
AcDbEntity
  8
Visible (ANSI)
100
AcDbLine
 10
64.22684388903739
 20
28.48960333823148
 30
0.0
 11
64.10184388903735
 21
28.48960333823148
 31
0.0
  0
LINE
  5
1A1
330
6C
100
AcDbEntity
  8
Visible Narrow (ANSI)
100
AcDbLine
 10
64.22684388903739
 20
28.48960333823148
 30
0.0
 11
64.22684388903739
 21
28.61460333823148
 31
0.0
  0
LINE
  5
1A2
330
6C
100
AcDbEntity
  8
Visible (ANSI)
100
AcDbLine
 10
64.22684388903739
 20
28.48960333823148
 30
0.0
 11
65.60173467226828
 21
28.48960333823148
 31
0.0
  0
LINE
  5
1A3
330
6C
100
AcDbEntity
  8
Visible (ANSI)
100
AcDbLine
 10
65.60173467226828
 20
28.61460333823148
 30
0.0
 11
64.22684388903739
 21
28.61460333823148
 31
0.0
  0
ARC
  5
1A4
330
6C
100
AcDbEntity
  8
Visible (ANSI)
100
AcDbCircle
 10
65.60173467226829
 20
28.70835333823148
 30
0.0
 40
0.2187500000000004
100
AcDbArc
 50
269.9999999999978
 51
314.9999999999977
  0
ARC
  5
1A5
330
6C
100
AcDbEntity
  8
Visible (ANSI)
100
AcDbCircle
 10
65.60173467226829
 20
28.70835333823148
 30
0.0
 40
0.09375
100
AcDbArc
 50
269.9999999999949
 51
314.9999999999945
  0
LINE
  5
1A6
330
6C
100
AcDbEntity
  8
Visible (ANSI)
100
AcDbLine
 10
65.78975900857544
 20
28.58701845776952
 30
0.0
 11
65.75641428065285
 21
28.55367372984692
 31
0.0
  0
LINE
  5
1A7
330
6C
100
AcDbEntity
  8
Visible (ANSI)
100
AcDbLine
 10
65.66802593300453
 20
28.64206207749524
 30
0.0
 11
65.70137066092712
 21
28.67540680541784
 31
0.0
  0
ARC
  5
1A8
330
6C
100
AcDbEntity
  8
Visible (ANSI)
100
AcDbCircle
 10
65.85605026931168
 20
28.52072719703328
 30
0.0
 40
0.0937500000000007
100
AcDbArc
 50
108.8349687409901
 51
135.0
  0
ARC
  5
1A9
330
6C
100
AcDbEntity
  8
Visible (ANSI)
100
AcDbCircle
 10
65.85605026931168
 20
28.52072719703328
 30
0.0
 40
0.21875
100
AcDbArc
 50
102.0916288208292
 51
135.0000000000007
  0
MTEXT
  5
1AA
330
6C
100
AcDbEntity
  8
Symbol (ANSI)
100
AcDbMText
 10
65.84942997467756
 20
26.33120311176334
 30
0.0
 40
0.7200000088984572
 41
0.0
 71
     7
 72
     1
  1
RIGHT VIEW
  7
Text Style168
 73
     1
 44
1.0
  0
LINE
  5
1AB
330
6C
100
AcDbEntity
  8
Symbol (ANSI)
370
    30
100
AcDbLine
 10
65.77742978946725
 20
26.18320635059456
 30
0.0
 11
71.38689499804647
 21
26.18320635059456
 31
0.0
  0
CIRCLE
  5
1AC
330
6C
100
AcDbEntity
  8
Visible (ANSI)
100
AcDbCircle
 10
34.58653453129745
 20
20.73744518991441
 30
0.0
 40
0.28125
  0
CIRCLE
  5
1AD
330
6C
100
AcDbEntity
  8
Visible (ANSI)
100
AcDbCircle
 10
54.21153453129743
 20
20.73744518991441
 30
0.0
 40
0.28125
  0
CIRCLE
  5
1AE
330
6C
100
AcDbEntity
  8
Visible (ANSI)
100
AcDbCircle
 10
33.02403453129745
 20
19.42494518991441
 30
0.0
 40
0.28125
  0
CIRCLE
  5
1AF
330
6C
100
AcDbEntity
  8
Visible (ANSI)
100
AcDbCircle
 10
33.02403453129745
 20
14.42494518991441
 30
0.0
 40
0.28125
  0
CIRCLE
  5
1B0
330
6C
100
AcDbEntity
  8
Visible (ANSI)
100
AcDbCircle
 10
55.7740345312974
 20
19.42494518991442
 30
0.0
 40
0.28125
  0
CIRCLE
  5
1B1
330
6C
100
AcDbEntity
  8
Visible (ANSI)
100
AcDbCircle
 10
55.77403453129728
 20
14.42494518991442
 30
0.0
 40
0.28125
  0
LINE
  5
1B2
330
6C
100
AcDbEntity
  8
Visible (ANSI)
100
AcDbLine
 10
32.33653453129745
 20
13.42494518991434
 30
0.0
 11
32.33653453129745
 21
21.20619518991435
 31
0.0
  0
LINE
  5
1B3
330
6C
100
AcDbEntity
  8
Visible (ANSI)
100
AcDbLine
 10
32.33653453129746
 20
13.42494518991434
 30
0.0
 11
32.55528453129745
 21
13.42494518991441
 31
0.0
  0
LINE
  5
1B4
330
6C
100
AcDbEntity
  8
Visible (ANSI)
100
AcDbLine
 10
56.24278453129726
 20
13.42494518991441
 30
0.0
 11
56.46153453129726
 21
13.42494518991434
 31
0.0
  0
LINE
  5
1B5
330
6C
100
AcDbEntity
  8
Visible Narrow (ANSI)
100
AcDbLine
 10
56.22068744438535
 20
21.20619518991441
 30
0.0
 11
32.57738161820953
 21
21.20619518991441
 31
0.0
  0
LINE
  5
1B6
330
6C
100
AcDbEntity
  8
Visible (ANSI)
100
AcDbLine
 10
32.55528453129745
 20
21.42494518991435
 30
0.0
 11
56.24278453129745
 21
21.42494518991435
 31
0.0
  0
LINE
  5
1B7
330
6C
100
AcDbEntity
  8
Visible Narrow (ANSI)
100
AcDbLine
 10
32.55528453129745
 20
21.18409810300233
 30
0.0
 11
32.55528453129745
 21
13.42494518991441
 31
0.0
  0
LINE
  5
1B8
330
6C
100
AcDbEntity
  8
Visible Narrow (ANSI)
100
AcDbLine
 10
56.24278453129726
 20
13.42494518991441
 30
0.0
 11
56.24278453129743
 21
21.18409810300233
 31
0.0
  0
LINE
  5
1B9
330
6C
100
AcDbEntity
  8
Visible (ANSI)
100
AcDbLine
 10
56.46153453129744
 20
21.20619518991434
 30
0.0
 11
56.46153453129725
 21
13.42494518991434
 31
0.0
  0
ARC
  5
1BA
330
6C
100
AcDbEntity
  8
Visible (ANSI)
100
AcDbCircle
 10
56.24278453129743
 20
21.20619518991435
 30
0.0
 40
0.2187499999999985
100
AcDbArc
 50
0.0
 51
89.99999999999559
  0
ARC
  5
1BB
330
6C
100
AcDbEntity
  8
Visible (ANSI)
100
AcDbCircle
 10
32.55528453129745
 20
21.20619518991435
 30
0.0
 40
0.0937500000000001
100
AcDbArc
 50
90.0
 51
180.0
  0
LINE
  5
1BC
330
6C
100
AcDbEntity
  8
Visible (ANSI)
100
AcDbLine
 10
33.08653453129745
 20
13.42494518991441
 30
0.0
 11
32.55528453129745
 21
13.42494518991441
 31
0.0
  0
LINE
  5
1BD
330
6C
100
AcDbEntity
  8
Visible (ANSI)
100
AcDbLine
 10
56.24278453129726
 20
13.42494518991441
 30
0.0
 11
55.71153453129726
 21
13.42494518991442
 31
0.0
  0
LINE
  5
1BE
330
6C
100
AcDbEntity
  8
Visible (ANSI)
100
AcDbLine
 10
55.18943744438534
 20
20.17494518991441
 30
0.0
 11
33.60863161820953
 21
20.17494518991441
 31
0.0
  0
LINE
  5
1BF
330
6C
100
AcDbEntity
  8
Visible (ANSI)
100
AcDbLine
 10
33.58653453129745
 20
20.15284810300233
 30
0.0
 11
33.58653453129745
 21
13.92494518991441
 31
0.0
  0
LINE
  5
1C0
330
6C
100
AcDbEntity
  8
Visible (ANSI)
100
AcDbLine
 10
55.21153453129727
 20
13.92494518991443
 30
0.0
 11
55.21153453129741
 21
20.15284810300233
 31
0.0
  0
ARC
  5
1C1
330
6C
100
AcDbEntity
  8
Visible (ANSI)
100
AcDbCircle
 10
32.55528453129745
 20
21.20619518991435
 30
0.0
 40
0.2187500000000001
100
AcDbArc
 50
90.0
 51
180.0
  0
ARC
  5
1C2
330
6C
100
AcDbEntity
  8
Visible (ANSI)
100
AcDbCircle
 10
56.24278453129743
 20
21.20619518991435
 30
0.0
 40
0.0937500000000015
100
AcDbArc
 50
0.0
 51
89.99999999998967
  0
LINE
  5
1C3
330
6C
100
AcDbEntity
  8
Visible (ANSI)
100
AcDbLine
 10
33.58653453129745
 20
13.92494518991441
 30
0.0
 11
33.08653453129745
 21
13.42494518991441
 31
0.0
  0
LINE
  5
1C4
330
6C
100
AcDbEntity
  8
Visible (ANSI)
100
AcDbLine
 10
55.71153453129726
 20
13.42494518991442
 30
0.0
 11
55.21153453129727
 21
13.92494518991443
 31
0.0
  0
SPLINE
  5
1C5
330
6C
100
AcDbEntity
  8
Visible (ANSI)
100
AcDbSpline
210
0.0
220
0.0
230
1.0
 70
     8
 71
     3
 72
    11
 73
     7
 74
     0
 42
0.0000000001
 43
0.0000000001
 40
0.0
 40
0.0
 40
0.0
 40
0.0
 40
0.9120227246349417
 40
0.9120227246349417
 40
0.9120227246349417
 40
1.5707963267949
 40
1.5707963267949
 40
1.5707963267949
 40
1.5707963267949
 10
56.24278453129744
 20
21.42494518991435
 30
0.0
 10
56.23850792223653
 20
21.42494518991437
 30
0.0
 10
56.23423131317561
 20
21.39268822284805
 30
0.0
 10
56.22995470411471
 20
21.3401024656829
 30
0.0
 10
56.22686561753825
 20
21.30211864386106
 30
0.0
 10
56.2237765309618
 20
21.25423076507191
 30
0.0
 10
56.22068744438535
 20
21.20619518991441
 30
0.0
  0
SPLINE
  5
1C6
330
6C
100
AcDbEntity
  8
Visible (ANSI)
100
AcDbSpline
210
0.0
220
0.0
230
1.0
 70
     8
 71
     3
 72
    11
 73
     7
 74
     0
 42
0.0000000001
 43
0.0000000001
 40
0.0
 40
0.0
 40
0.0
 40
0.0
 40
0.9120227246349777
 40
0.9120227246349777
 40
0.9120227246349777
 40
1.570796326794911
 40
1.570796326794911
 40
1.570796326794911
 40
1.570796326794911
 10
32.57738161820953
 20
21.20619518991441
 30
0.0
 10
32.57310500914862
 20
21.27269684691905
 30
0.0
 10
32.56882840008771
 20
21.33846151802388
 30
0.0
 10
32.5645517910268
 20
21.37917034418881
 30
0.0
 10
32.56146270445035
 20
21.40857520365994
 30
0.0
 10
32.5583736178739
 20
21.42494518991436
 30
0.0
 10
32.55528453129745
 20
21.42494518991434
 30
0.0
  0
LINE
  5
1C7
330
6C
100
AcDbEntity
  8
Visible (ANSI)
100
AcDbLine
 10
33.60863161820953
 20
20.17494518991441
 30
0.0
 11
32.57738161820953
 21
21.20619518991441
 31
0.0
  0
SPLINE
  5
1C8
330
6C
100
AcDbEntity
  8
Visible (ANSI)
100
AcDbSpline
210
0.0
220
0.0
230
1.0
 70
    24
 71
     3
 72
     8
 73
     4
 74
     0
 42
0.0000000001
 43
0.0000000001
 40
0.0
 40
0.0
 40
0.0
 40
0.0
 40
0.3175000000000054
 40
0.3175000000000054
 40
0.3175000000000054
 40
0.3175000000000054
 10
32.55528453129745
 20
21.29994518991435
 30
0.0
 10
32.55528453129745
 20
21.34161185658101
 30
0.0
 10
32.55528453129745
 20
21.38327852324768
 30
0.0
 10
32.55528453129745
 20
21.42494518991435
 30
0.0
  0
SPLINE
  5
1C9
330
6C
100
AcDbEntity
  8
Visible (ANSI)
100
AcDbSpline
210
0.0
220
0.0
230
1.0
 70
     8
 71
     3
 72
    11
 73
     7
 74
     0
 42
0.0000000001
 43
0.0000000001
 40
0.0
 40
0.0
 40
0.0
 40
0.0
 40
1.127197082403415
 40
1.127197082403415
 40
1.127197082403415
 40
1.570796326794911
 40
1.570796326794911
 40
1.570796326794911
 40
1.570796326794911
 10
32.55528453129745
 20
21.29994518991435
 30
0.0
 10
32.56057012465585
 20
21.29994518991436
 30
0.0
 10
32.56585571801424
 20
21.27824763167776
 30
0.0
 10
32.57114131137264
 20
21.2464320450511
 30
0.0
 10
32.5732214136516
 20
21.23391127968736
 30
0.0
 10
32.57530151593057
 20
21.22005766630161
 30
0.0
 10
32.57738161820953
 20
21.20619518991437
 30
0.0
  0
SPLINE
  5
1CA
330
6C
100
AcDbEntity
  8
Visible (ANSI)
100
AcDbSpline
210
0.0
220
0.0
230
1.0
 70
     8
 71
     3
 72
    11
 73
     7
 74
     0
 42
0.0000000001
 43
0.0000000001
 40
0.0
 40
0.0
 40
0.0
 40
0.0
 40
1.127197082403415
 40
1.127197082403415
 40
1.127197082403415
 40
1.5707963267949
 40
1.5707963267949
 40
1.5707963267949
 40
1.5707963267949
 10
56.24278453129744
 20
21.29994518991435
 30
0.0
 10
56.23749893793903
 20
21.29994518991436
 30
0.0
 10
56.23221334458064
 20
21.27824763167776
 30
0.0
 10
56.22692775122224
 20
21.2464320450511
 30
0.0
 10
56.22484764894327
 20
21.23391127968736
 30
0.0
 10
56.22276754666432
 20
21.22005766630161
 30
0.0
 10
56.22068744438535
 20
21.20619518991437
 30
0.0
  0
SPLINE
  5
1CB
330
6C
100
AcDbEntity
  8
Visible (ANSI)
100
AcDbSpline
210
0.0
220
0.0
230
1.0
 70
    24
 71
     3
 72
     8
 73
     4
 74
     0
 42
0.0000000001
 43
0.0000000001
 40
-0.3175000000000077
 40
-0.3175000000000077
 40
-0.3175000000000077
 40
-0.3175000000000077
 40
0.0
 40
0.0
 40
0.0
 40
0.0
 10
56.24278453129744
 20
21.42494518991435
 30
0.0
 10
56.24278453129744
 20
21.38327852324768
 30
0.0
 10
56.24278453129744
 20
21.34161185658101
 30
0.0
 10
56.24278453129744
 20
21.29994518991435
 30
0.0
  0
LINE
  5
1CC
330
6C
100
AcDbEntity
  8
Visible (ANSI)
100
AcDbLine
 10
56.22068744438535
 20
21.20619518991441
 30
0.0
 11
55.18943744438534
 21
20.17494518991441
 31
0.0
  0
SPLINE
  5
1CD
330
6C
100
AcDbEntity
  8
Visible (ANSI)
100
AcDbSpline
210
0.0
220
0.0
230
1.0
 70
     8
 71
     3
 72
    11
 73
     7
 74
     0
 42
0.0000000001
 43
0.0000000001
 40
0.0
 40
0.0
 40
0.0
 40
0.0
 40
0.9120227246349386
 40
0.9120227246349386
 40
0.9120227246349386
 40
1.5707963267949
 40
1.5707963267949
 40
1.5707963267949
 40
1.5707963267949
 10
32.33653453129745
 20
21.20619518991435
 30
0.0
 10
32.33653453129745
 20
21.20191858085346
 30
0.0
 10
32.36879149836378
 20
21.19764197179256
 30
0.0
 10
32.42137725552895
 20
21.19336536273166
 30
0.0
 10
32.45936107735079
 20
21.19027627615523
 30
0.0
 10
32.50724895613995
 20
21.18718718957878
 30
0.0
 10
32.55528453129745
 20
21.18409810300233
 30
0.0
  0
SPLINE
  5
1CE
330
6C
100
AcDbEntity
  8
Visible (ANSI)
100
AcDbSpline
210
0.0
220
0.0
230
1.0
 70
     8
 71
     3
 72
    11
 73
     7
 74
     0
 42
0.0000000001
 43
0.0000000001
 40
0.0
 40
0.0
 40
0.0
 40
0.0
 40
1.127197082403313
 40
1.127197082403313
 40
1.127197082403313
 40
1.5707963267949
 40
1.5707963267949
 40
1.5707963267949
 40
1.5707963267949
 10
32.46153453129745
 20
21.20619518991435
 30
0.0
 10
32.46153453129745
 20
21.20090959655596
 30
0.0
 10
32.48323208953406
 20
21.19562400319757
 30
0.0
 10
32.51504767616072
 20
21.19033840983918
 30
0.0
 10
32.52756844152445
 20
21.18825830756022
 30
0.0
 10
32.54142205491021
 20
21.18617820528126
 30
0.0
 10
32.55528453129745
 20
21.1840981030023
 30
0.0
  0
SPLINE
  5
1CF
330
6C
100
AcDbEntity
  8
Visible (ANSI)
100
AcDbSpline
210
0.0
220
0.0
230
1.0
 70
    24
 71
     3
 72
     8
 73
     4
 74
     0
 42
0.0000000001
 43
0.0000000001
 40
-0.3175000000000012
 40
-0.3175000000000012
 40
-0.3175000000000012
 40
-0.3175000000000012
 40
0.0
 40
0.0
 40
0.0
 40
0.0
 10
32.33653453129745
 20
21.20619518991435
 30
0.0
 10
32.37820119796412
 20
21.20619518991435
 30
0.0
 10
32.41986786463078
 20
21.20619518991435
 30
0.0
 10
32.46153453129745
 20
21.20619518991435
 30
0.0
  0
LINE
  5
1D0
330
6C
100
AcDbEntity
  8
Visible (ANSI)
100
AcDbLine
 10
32.55528453129745
 20
21.18409810300233
 30
0.0
 11
33.58653453129745
 21
20.15284810300233
 31
0.0
  0
SPLINE
  5
1D1
330
6C
100
AcDbEntity
  8
Visible (ANSI)
100
AcDbSpline
210
0.0
220
0.0
230
1.0
 70
     8
 71
     3
 72
    11
 73
     7
 74
     0
 42
0.0000000001
 43
0.0000000001
 40
0.0
 40
0.0
 40
0.0
 40
0.0
 40
0.9120227246349331
 40
0.9120227246349331
 40
0.9120227246349331
 40
1.5707963267949
 40
1.5707963267949
 40
1.5707963267949
 40
1.5707963267949
 10
56.24278453129743
 20
21.18409810300233
 30
0.0
 10
56.30928618830207
 20
21.18837471206324
 30
0.0
 10
56.3750508594069
 20
21.19265132112414
 30
0.0
 10
56.41575968557186
 20
21.19692793018503
 30
0.0
 10
56.44516454504301
 20
21.20001701676147
 30
0.0
 10
56.46153453129744
 20
21.2031061033379
 30
0.0
 10
56.46153453129744
 20
21.20619518991434
 30
0.0
  0
LINE
  5
1D2
330
6C
100
AcDbEntity
  8
Visible (ANSI)
100
AcDbLine
 10
55.21153453129741
 20
20.15284810300233
 30
0.0
 11
56.24278453129743
 21
21.18409810300233
 31
0.0
  0
SPLINE
  5
1D3
330
6C
100
AcDbEntity
  8
Visible (ANSI)
100
AcDbSpline
210
0.0
220
0.0
230
1.0
 70
    24
 71
     3
 72
     8
 73
     4
 74
     0
 42
0.0000000001
 43
0.0000000001
 40
-0.0000000000000071
 40
-0.0000000000000071
 40
-0.0000000000000071
 40
-0.0000000000000071
 40
0.3175000000000097
 40
0.3175000000000097
 40
0.3175000000000097
 40
0.3175000000000097
 10
56.33653453129743
 20
21.20619518991434
 30
0.0
 10
56.3782011979641
 20
21.20619518991434
 30
0.0
 10
56.41986786463077
 20
21.20619518991434
 30
0.0
 10
56.46153453129744
 20
21.20619518991434
 30
0.0
  0
SPLINE
  5
1D4
330
6C
100
AcDbEntity
  8
Visible (ANSI)
100
AcDbSpline
210
0.0
220
0.0
230
1.0
 70
     8
 71
     3
 72
    11
 73
     7
 74
     0
 42
0.0000000001
 43
0.0000000001
 40
0.0
 40
0.0
 40
0.0
 40
0.0
 40
1.127197082403642
 40
1.127197082403642
 40
1.127197082403642
 40
1.5707963267949
 40
1.5707963267949
 40
1.5707963267949
 40
1.5707963267949
 10
56.33653453129743
 20
21.20619518991434
 30
0.0
 10
56.33653453129743
 20
21.20090959655596
 30
0.0
 10
56.31483697306081
 20
21.19562400319757
 30
0.0
 10
56.28302138643413
 20
21.19033840983917
 30
0.0
 10
56.2705006210704
 20
21.18825830756021
 30
0.0
 10
56.25664700768466
 20
21.18617820528125
 30
0.0
 10
56.24278453129743
 20
21.1840981030023
 30
0.0
  0
CIRCLE
  5
1D5
330
6C
100
AcDbEntity
  8
Visible (ANSI)
100
AcDbCircle
 10
44.39903453129741
 20
17.67494518991092
 30
0.0
 40
0.28125
  0
CIRCLE
  5
1D6
330
6C
100
AcDbEntity
  8
Visible (ANSI)
100
AcDbCircle
 10
34.46153453129742
 20
14.67494518991089
 30
0.0
 40
0.28125
  0
CIRCLE
  5
1D7
330
6C
100
AcDbEntity
  8
Visible (ANSI)
100
AcDbCircle
 10
54.33653453129742
 20
14.67494518991089
 30
0.0
 40
0.28125
  0
LINE
  5
1D8
330
6C
100
AcDbEntity
  8
Visible (ANSI)
100
AcDbLine
 10
56.21153453129742
 20
21.15284810299883
 30
0.0
 11
56.21153453129742
 21
21.17504235341609
 31
0.0
  0
LINE
  5
1D9
330
6C
100
AcDbEntity
  8
Visible (ANSI)
100
AcDbLine
 10
32.58653453129742
 20
21.17504235341608
 30
0.0
 11
32.58653453129742
 21
21.15284810299888
 31
0.0
  0
ARC
  5
1DA
330
6C
100
AcDbEntity
  8
Visible (ANSI)
100
AcDbCircle
 10
32.71153453129743
 20
21.17504235341608
 30
0.0
 40
0.1250000000000166
100
AcDbArc
 50
170.6375988628243
 51
180.0
  0
ARC
  5
1DB
330
6C
100
AcDbEntity
  8
Visible (ANSI)
100
AcDbCircle
 10
56.08653453129742
 20
21.17504235341608
 30
0.0
 40
0.1249999999999898
100
AcDbArc
 50
0.0
 51
9.362401137154115
  0
LINE
  5
1DC
330
6C
100
AcDbEntity
  8
Visible Narrow (ANSI)
100
AcDbLine
 10
55.21153453129731
 20
15.42915157018526
 30
0.0
 11
33.58653453129746
 21
15.4291515701852
 31
0.0
  0
LINE
  5
1DD
330
6C
100
AcDbEntity
  8
Visible Narrow (ANSI)
100
AcDbLine
 10
55.2115345312973
 20
15.27447196180062
 30
0.0
 11
33.58653453129746
 21
15.27447196180062
 31
0.0
  0
LINE
  5
1DE
330
6C
100
AcDbEntity
  8
Visible Narrow (ANSI)
100
AcDbLine
 10
55.2115345312973
 20
15.24112723387802
 30
0.0
 11
33.58653453129746
 21
15.24112723387802
 31
0.0
  0
LINE
  5
1DF
330
6C
100
AcDbEntity
  8
Visible Narrow (ANSI)
100
AcDbLine
 10
55.2115345312973
 20
15.17483597314177
 30
0.0
 11
33.58653453129746
 21
15.17483597314177
 31
0.0
  0
LINE
  5
1E0
330
6C
100
AcDbEntity
  8
Visible (ANSI)
100
AcDbLine
 10
55.46153453129728
 20
13.67494518991089
 30
0.0
 11
33.33653453129746
 21
13.67494518991089
 31
0.0
  0
MTEXT
  5
1E1
330
6C
100
AcDbEntity
  8
Symbol (ANSI)
100
AcDbMText
 10
41.20540867712036
 20
10.66841413537111
 30
0.0
 40
0.7200000088984572
 41
0.0
 71
     7
 72
     1
  1
BOTTOM VIEW
  7
Text Style168
 73
     1
 44
1.0
  0
LINE
  5
1E2
330
6C
100
AcDbEntity
  8
Symbol (ANSI)
370
    30
100
AcDbLine
 10
41.13340849191003
 20
10.52158431112177
 30
0.0
 11
47.75577494656764
 21
10.52158431112177
 31
0.0
  0
LINE
  5
1E3
330
6C
100
AcDbEntity
  8
Visible Narrow (ANSI)
100
AcDbLine
 10
56.24278453130545
 20
48.63574300619437
 30
0.0
 11
56.24278453130532
 21
54.3948959192823
 31
0.0
  0
LINE
  5
1E4
330
6C
100
AcDbEntity
  8
Visible (ANSI)
100
AcDbLine
 10
56.46153453130532
 20
54.43203119779695
 30
0.0
 11
56.46153453130545
 21
48.61364591928237
 31
0.0
  0
SPLINE
  5
1E5
330
6C
100
AcDbEntity
  8
Visible (ANSI)
100
AcDbSpline
210
0.0
220
0.0
230
1.0
 70
     8
 71
     3
 72
    11
 73
     7
 74
     0
 42
0.0000000001
 43
0.0000000001
 40
0.0
 40
0.0
 40
0.0
 40
0.0
 40
0.9120227246349083
 40
0.9120227246349083
 40
0.9120227246349083
 40
1.570796326794897
 40
1.570796326794897
 40
1.570796326794897
 40
1.570796326794897
 10
56.24278453130532
 20
54.3948959192823
 30
0.0
 10
56.30928618830994
 20
54.40208297833704
 30
0.0
 10
56.37505085941478
 20
54.40927003739179
 30
0.0
 10
56.41575968557972
 20
54.41645709644656
 30
0.0
 10
56.44516454505088
 20
54.42164846356337
 30
0.0
 10
56.46153453130532
 20
54.42683983068016
 30
0.0
 10
56.46153453130532
 20
54.43203119779695
 30
0.0
  0
LINE
  5
1E6
330
6C
100
AcDbEntity
  8
Visible (ANSI)
100
AcDbLine
 10
56.38204510651073
 20
54.43203119779695
 30
0.0
 11
56.46153453130532
 21
54.43203119779695
 31
0.0
  0
LINE
  5
1E7
330
6C
100
AcDbEntity
  8
Visible (ANSI)
100
AcDbLine
 10
56.33653453130531
 20
54.43203119779695
 30
0.0
 11
56.38204510651073
 21
54.43203119779695
 31
0.0
  0
SPLINE
  5
1E8
330
6C
100
AcDbEntity
  8
Visible (ANSI)
100
AcDbSpline
210
0.0
220
0.0
230
1.0
 70
     8
 71
     3
 72
    11
 73
     7
 74
     0
 42
0.0000000001
 43
0.0000000001
 40
0.0
 40
0.0
 40
0.0
 40
0.0
 40
1.127197082403218
 40
1.127197082403218
 40
1.127197082403218
 40
1.570796326794897
 40
1.570796326794897
 40
1.570796326794897
 40
1.570796326794897
 10
56.33653453130532
 20
54.43203119779695
 30
0.0
 10
56.33653453130532
 20
54.42314848930872
 30
0.0
 10
56.31483697306871
 20
54.41426578082048
 30
0.0
 10
56.28302138644206
 20
54.40538307233225
 30
0.0
 10
56.27050062107831
 20
54.40188735464894
 30
0.0
 10
56.25664700769255
 20
54.39839163696564
 30
0.0
 10
56.24278453130532
 20
54.39489591928233
 30
0.0
  0
LINE
  5
1E9
330
6C
100
AcDbEntity
  8
Visible Narrow (ANSI)
100
AcDbLine
 10
32.57738161821754
 20
48.6136459192823
 30
0.0
 11
56.22068744439337
 21
48.6136459192823
 31
0.0
  0
LINE
  5
1EA
330
6C
100
AcDbEntity
  8
Visible (ANSI)
100
AcDbLine
 10
56.24278453130546
 20
48.39489591928236
 30
0.0
 11
32.55528453130546
 21
48.39489591928236
 31
0.0
  0
LINE
  5
1EB
330
6C
100
AcDbEntity
  8
Visible Narrow (ANSI)
100
AcDbLine
 10
32.55528453130546
 20
54.39489591928175
 30
0.0
 11
32.55528453130546
 21
48.63574300619437
 31
0.0
  0
SPLINE
  5
1EC
330
6C
100
AcDbEntity
  8
Visible (ANSI)
100
AcDbSpline
210
0.0
220
0.0
230
1.0
 70
     8
 71
     3
 72
    11
 73
     7
 74
     0
 42
0.0000000001
 43
0.0000000001
 40
0.0
 40
0.0
 40
0.0
 40
0.0
 40
0.9120227246349479
 40
0.9120227246349479
 40
0.9120227246349479
 40
1.570796326794896
 40
1.570796326794896
 40
1.570796326794896
 40
1.570796326794896
 10
32.33653453130546
 20
54.43203119779641
 30
0.0
 10
32.33653453130546
 20
54.42484413874164
 30
0.0
 10
32.36879149837179
 20
54.41765707968688
 30
0.0
 10
32.42137725553696
 20
54.41047002063212
 30
0.0
 10
32.45936107735881
 20
54.40527865351532
 30
0.0
 10
32.50724895614796
 20
54.40008728639853
 30
0.0
 10
32.55528453130546
 20
54.39489591928175
 30
0.0
  0
LINE
  5
1ED
330
6C
100
AcDbEntity
  8
Visible (ANSI)
100
AcDbLine
 10
32.33653453130546
 20
48.61364591928236
 30
0.0
 11
32.33653453130546
 21
54.43203119779639
 31
0.0
  0
SPLINE
  5
1EE
330
6C
100
AcDbEntity
  8
Visible (ANSI)
100
AcDbSpline
210
0.0
220
0.0
230
1.0
 70
     8
 71
     3
 72
    11
 73
     7
 74
     0
 42
0.0000000001
 43
0.0000000001
 40
0.0
 40
0.0
 40
0.0
 40
0.0
 40
1.127197082403383
 40
1.127197082403383
 40
1.127197082403383
 40
1.570796326794896
 40
1.570796326794896
 40
1.570796326794896
 40
1.570796326794896
 10
32.46153453130546
 20
54.43203119779641
 30
0.0
 10
32.46153453130546
 20
54.42314848930816
 30
0.0
 10
32.48323208954207
 20
54.41426578081993
 30
0.0
 10
32.51504767616874
 20
54.4053830723317
 30
0.0
 10
32.52756844153247
 20
54.4018873546484
 30
0.0
 10
32.54142205491822
 20
54.39839163696509
 30
0.0
 10
32.55528453130546
 20
54.39489591928179
 30
0.0
  0
LINE
  5
1EF
330
6C
100
AcDbEntity
  8
Visible (ANSI)
100
AcDbLine
 10
32.41602395610005
 20
54.43203119779641
 30
0.0
 11
32.46153453130546
 21
54.43203119779641
 31
0.0
  0
LINE
  5
1F0
330
6C
100
AcDbEntity
  8
Visible (ANSI)
100
AcDbLine
 10
32.33653453130546
 20
54.43203119779641
 30
0.0
 11
32.41602395610005
 21
54.43203119779641
 31
0.0
  0
SPLINE
  5
1F1
330
6C
100
AcDbEntity
  8
Visible (ANSI)
100
AcDbSpline
210
0.0
220
0.0
230
1.0
 70
     8
 71
     3
 72
    11
 73
     7
 74
     0
 42
0.0000000001
 43
0.0000000001
 40
0.0
 40
0.0
 40
0.0
 40
0.0
 40
0.9120227246349088
 40
0.9120227246349088
 40
0.9120227246349088
 40
1.570796326794896
 40
1.570796326794896
 40
1.570796326794896
 40
1.570796326794896
 10
56.46153453130545
 20
48.61364591928236
 30
0.0
 10
56.46153453130545
 20
48.61792252834326
 30
0.0
 10
56.42927756423913
 20
48.62219913740415
 30
0.0
 10
56.37669180707395
 20
48.62647574646505
 30
0.0
 10
56.33870798525212
 20
48.62956483304149
 30
0.0
 10
56.29082010646294
 20
48.63265391961792
 30
0.0
 10
56.24278453130545
 20
48.63574300619437
 30
0.0
  0
SPLINE
  5
1F2
330
6C
100
AcDbEntity
  8
Visible (ANSI)
100
AcDbSpline
210
0.0
220
0.0
230
1.0
 70
     8
 71
     3
 72
    11
 73
     7
 74
     0
 42
0.0000000001
 43
0.0000000001
 40
0.0
 40
0.0
 40
0.0
 40
0.0
 40
1.127197082403221
 40
1.127197082403221
 40
1.127197082403221
 40
1.570796326794896
 40
1.570796326794896
 40
1.570796326794896
 40
1.570796326794896
 10
56.33653453130545
 20
48.61364591928236
 30
0.0
 10
56.33653453130545
 20
48.61893151264076
 30
0.0
 10
56.31483697306884
 20
48.62421710599914
 30
0.0
 10
56.28302138644219
 20
48.62950269935753
 30
0.0
 10
56.27050062107844
 20
48.63158280163649
 30
0.0
 10
56.25664700769268
 20
48.63366290391546
 30
0.0
 10
56.24278453130545
 20
48.63574300619442
 30
0.0
  0
SPLINE
  5
1F3
330
6C
100
AcDbEntity
  8
Visible (ANSI)
100
AcDbSpline
210
0.0
220
0.0
230
1.0
 70
    24
 71
     3
 72
     8
 73
     4
 74
     0
 42
0.0000000001
 43
0.0000000001
 40
-0.3175000000000097
 40
-0.3175000000000097
 40
-0.3175000000000097
 40
-0.3175000000000097
 40
0.0
 40
0.0
 40
0.0
 40
0.0
 10
56.46153453130545
 20
48.61364591928236
 30
0.0
 10
56.41986786463878
 20
48.61364591928236
 30
0.0
 10
56.37820119797211
 20
48.61364591928236
 30
0.0
 10
56.33653453130545
 20
48.61364591928236
 30
0.0
  0
LINE
  5
1F4
330
6C
100
AcDbEntity
  8
Visible (ANSI)
100
AcDbLine
 10
56.24278453130545
 20
48.63574300619437
 30
0.0
 11
55.21153453130542
 21
49.66699300619437
 31
0.0
  0
SPLINE
  5
1F5
330
6C
100
AcDbEntity
  8
Visible (ANSI)
100
AcDbSpline
210
0.0
220
0.0
230
1.0
 70
     8
 71
     3
 72
    11
 73
     7
 74
     0
 42
0.0000000001
 43
0.0000000001
 40
0.0
 40
0.0
 40
0.0
 40
0.0
 40
0.912022724634949
 40
0.912022724634949
 40
0.912022724634949
 40
1.570796326794896
 40
1.570796326794896
 40
1.570796326794896
 40
1.570796326794896
 10
32.55528453130546
 20
48.39489591928236
 30
0.0
 10
32.55956114036637
 20
48.39489591928233
 30
0.0
 10
32.56383774942728
 20
48.42715288634865
 30
0.0
 10
32.56811435848819
 20
48.47973864351381
 30
0.0
 10
32.57120344506464
 20
48.51772246533565
 30
0.0
 10
32.57429253164109
 20
48.5656103441248
 30
0.0
 10
32.57738161821754
 20
48.6136459192823
 30
0.0
  0
SPLINE
  5
1F6
330
6C
100
AcDbEntity
  8
Visible (ANSI)
100
AcDbSpline
210
0.0
220
0.0
230
1.0
 70
     8
 71
     3
 72
    11
 73
     7
 74
     0
 42
0.0000000001
 43
0.0000000001
 40
0.0
 40
0.0
 40
0.0
 40
0.0
 40
0.912022724634949
 40
0.912022724634949
 40
0.912022724634949
 40
1.570796326794896
 40
1.570796326794896
 40
1.570796326794896
 40
1.570796326794896
 10
56.22068744439337
 20
48.6136459192823
 30
0.0
 10
56.22496405345429
 20
48.54714426227766
 30
0.0
 10
56.2292406625152
 20
48.48137959117282
 30
0.0
 10
56.23351727157611
 20
48.4406707650079
 30
0.0
 10
56.23660635815256
 20
48.41126590553677
 30
0.0
 10
56.239695444729
 20
48.39489591928234
 30
0.0
 10
56.24278453130546
 20
48.39489591928236
 30
0.0
  0
LINE
  5
1F7
330
6C
100
AcDbEntity
  8
Visible (ANSI)
100
AcDbLine
 10
55.18943744439335
 20
49.6448959192823
 30
0.0
 11
56.22068744439337
 21
48.6136459192823
 31
0.0
  0
SPLINE
  5
1F8
330
6C
100
AcDbEntity
  8
Visible (ANSI)
100
AcDbSpline
210
0.0
220
0.0
230
1.0
 70
    24
 71
     3
 72
     8
 73
     4
 74
     0
 42
0.0000000001
 43
0.0000000001
 40
0.0
 40
0.0
 40
0.0
 40
0.0
 40
0.3175000000000001
 40
0.3175000000000001
 40
0.3175000000000001
 40
0.3175000000000001
 10
56.24278453130546
 20
48.51989591928235
 30
0.0
 10
56.24278453130546
 20
48.47822925261569
 30
0.0
 10
56.24278453130546
 20
48.43656258594903
 30
0.0
 10
56.24278453130546
 20
48.39489591928236
 30
0.0
  0
SPLINE
  5
1F9
330
6C
100
AcDbEntity
  8
Visible (ANSI)
100
AcDbSpline
210
0.0
220
0.0
230
1.0
 70
     8
 71
     3
 72
    11
 73
     7
 74
     0
 42
0.0000000001
 43
0.0000000001
 40
0.0
 40
0.0
 40
0.0
 40
0.0
 40
1.12719708240338
 40
1.12719708240338
 40
1.12719708240338
 40
1.570796326794896
 40
1.570796326794896
 40
1.570796326794896
 40
1.570796326794896
 10
56.24278453130546
 20
48.51989591928235
 30
0.0
 10
56.23749893794705
 20
48.51989591928234
 30
0.0
 10
56.23221334458865
 20
48.54159347751895
 30
0.0
 10
56.22692775123025
 20
48.57340906414561
 30
0.0
 10
56.2248476489513
 20
48.58592982950934
 30
0.0
 10
56.22276754667232
 20
48.59978344289509
 30
0.0
 10
56.22068744439337
 20
48.61364591928233
 30
0.0
  0
SPLINE
  5
1FA
330
6C
100
AcDbEntity
  8
Visible (ANSI)
100
AcDbSpline
210
0.0
220
0.0
230
1.0
 70
     8
 71
     3
 72
    11
 73
     7
 74
     0
 42
0.0000000001
 43
0.0000000001
 40
0.0
 40
0.0
 40
0.0
 40
0.0
 40
1.12719708240338
 40
1.12719708240338
 40
1.12719708240338
 40
1.570796326794896
 40
1.570796326794896
 40
1.570796326794896
 40
1.570796326794896
 10
32.55528453130546
 20
48.51989591928235
 30
0.0
 10
32.56057012466385
 20
48.51989591928234
 30
0.0
 10
32.56585571802226
 20
48.54159347751895
 30
0.0
 10
32.57114131138066
 20
48.57340906414561
 30
0.0
 10
32.57322141365962
 20
48.58592982950934
 30
0.0
 10
32.57530151593858
 20
48.59978344289509
 30
0.0
 10
32.57738161821754
 20
48.61364591928233
 30
0.0
  0
SPLINE
  5
1FB
330
6C
100
AcDbEntity
  8
Visible (ANSI)
100
AcDbSpline
210
0.0
220
0.0
230
1.0
 70
    24
 71
     3
 72
     8
 73
     4
 74
     0
 42
0.0000000001
 43
0.0000000001
 40
-0.3175
 40
-0.3175
 40
-0.3175
 40
-0.3175
 40
0.0000000000000001
 40
0.0000000000000001
 40
0.0000000000000001
 40
0.0000000000000001
 10
32.55528453130546
 20
48.39489591928236
 30
0.0
 10
32.55528453130546
 20
48.43656258594903
 30
0.0
 10
32.55528453130546
 20
48.47822925261569
 30
0.0
 10
32.55528453130546
 20
48.51989591928235
 30
0.0
  0
LINE
  5
1FC
330
6C
100
AcDbEntity
  8
Visible (ANSI)
100
AcDbLine
 10
32.57738161821754
 20
48.6136459192823
 30
0.0
 11
33.60863161821754
 21
49.64489591928229
 31
0.0
  0
SPLINE
  5
1FD
330
6C
100
AcDbEntity
  8
Visible (ANSI)
100
AcDbSpline
210
0.0
220
0.0
230
1.0
 70
     8
 71
     3
 72
    11
 73
     7
 74
     0
 42
0.0000000001
 43
0.0000000001
 40
0.0
 40
0.0
 40
0.0
 40
0.0
 40
0.912022724634949
 40
0.912022724634949
 40
0.912022724634949
 40
1.570796326794896
 40
1.570796326794896
 40
1.570796326794896
 40
1.570796326794896
 10
32.55528453130546
 20
48.63574300619437
 30
0.0
 10
32.48878287430083
 20
48.63146639713346
 30
0.0
 10
32.42301820319598
 20
48.62718978807256
 30
0.0
 10
32.38230937703104
 20
48.62291317901167
 30
0.0
 10
32.35290451755989
 20
48.61982409243523
 30
0.0
 10
32.33653453130546
 20
48.61673500585879
 30
0.0
 10
32.33653453130546
 20
48.61364591928236
 30
0.0
  0
LINE
  5
1FE
330
6C
100
AcDbEntity
  8
Visible (ANSI)
100
AcDbLine
 10
33.58653453130546
 20
49.66699300619437
 30
0.0
 11
32.55528453130546
 21
48.63574300619437
 31
0.0
  0
SPLINE
  5
1FF
330
6C
100
AcDbEntity
  8
Visible (ANSI)
100
AcDbSpline
210
0.0
220
0.0
230
1.0
 70
    24
 71
     3
 72
     8
 73
     4
 74
     0
 42
0.0000000001
 43
0.0000000001
 40
0.0
 40
0.0
 40
0.0
 40
0.0
 40
0.3175000000000001
 40
0.3175000000000001
 40
0.3175000000000001
 40
0.3175000000000001
 10
32.46153453130546
 20
48.61364591928236
 30
0.0
 10
32.41986786463879
 20
48.61364591928236
 30
0.0
 10
32.37820119797213
 20
48.61364591928236
 30
0.0
 10
32.33653453130546
 20
48.61364591928236
 30
0.0
  0
SPLINE
  5
200
330
6C
100
AcDbEntity
  8
Visible (ANSI)
100
AcDbSpline
210
0.0
220
0.0
230
1.0
 70
     8
 71
     3
 72
    11
 73
     7
 74
     0
 42
0.0000000001
 43
0.0000000001
 40
0.0
 40
0.0
 40
0.0
 40
0.0
 40
1.127197082403381
 40
1.127197082403381
 40
1.127197082403381
 40
1.570796326794896
 40
1.570796326794896
 40
1.570796326794896
 40
1.570796326794896
 10
32.46153453130546
 20
48.61364591928236
 30
0.0
 10
32.46153453130546
 20
48.61893151264074
 30
0.0
 10
32.48323208954207
 20
48.62421710599914
 30
0.0
 10
32.51504767616874
 20
48.62950269935753
 30
0.0
 10
32.52756844153247
 20
48.63158280163649
 30
0.0
 10
32.54142205491822
 20
48.63366290391546
 30
0.0
 10
32.55528453130546
 20
48.63574300619441
 30
0.0
  0
LINE
  5
201
330
6C
100
AcDbEntity
  8
Visible (ANSI)
100
AcDbLine
 10
55.21153453130531
 20
54.39489591928228
 30
0.0
 11
56.24278453130532
 21
54.3948959192823
 31
0.0
  0
LINE
  5
202
330
6C
100
AcDbEntity
  8
Visible (ANSI)
100
AcDbLine
 10
55.21153453130542
 20
49.66699300619437
 30
0.0
 11
55.21153453130531
 21
54.39489591928228
 31
0.0
  0
LINE
  5
203
330
6C
100
AcDbEntity
  8
Visible (ANSI)
100
AcDbLine
 10
33.60863161821754
 20
49.64489591928229
 30
0.0
 11
55.18943744439335
 21
49.6448959192823
 31
0.0
  0
LINE
  5
204
330
6C
100
AcDbEntity
  8
Visible (ANSI)
100
AcDbLine
 10
32.55528453130546
 20
54.39489591928175
 30
0.0
 11
33.58653453130546
 21
54.39489591928174
 31
0.0
  0
LINE
  5
205
330
6C
100
AcDbEntity
  8
Visible (ANSI)
100
AcDbLine
 10
33.58653453130546
 20
54.39489591928174
 30
0.0
 11
33.58653453130546
 21
49.66699300619437
 31
0.0
  0
ARC
  5
206
330
6C
100
AcDbEntity
  8
Visible (ANSI)
100
AcDbCircle
 10
32.55528453130546
 20
48.61364591928236
 30
0.0
 40
0.09375
100
AcDbArc
 50
180.0
 51
270.0
  0
ARC
  5
207
330
6C
100
AcDbEntity
  8
Visible (ANSI)
100
AcDbCircle
 10
32.55528453130546
 20
48.61364591928236
 30
0.0
 40
0.21875
100
AcDbArc
 50
180.0
 51
270.0
  0
ARC
  5
208
330
6C
100
AcDbEntity
  8
Visible (ANSI)
100
AcDbCircle
 10
56.24278453130545
 20
48.61364591928236
 30
0.0
 40
0.0937500000000016
100
AcDbArc
 50
270.0000000000051
 51
0.0
  0
ARC
  5
209
330
6C
100
AcDbEntity
  8
Visible (ANSI)
100
AcDbCircle
 10
56.24278453130544
 20
48.61364591928236
 30
0.0
 40
0.2187500000000024
100
AcDbArc
 50
270.0000000000044
 51
0.0
  0
LINE
  5
20A
330
6C
100
AcDbEntity
  8
Visible (ANSI)
100
AcDbLine
 10
32.33653453130546
 20
54.43203119779641
 30
0.0
 11
32.33653453130545
 21
56.3948959192858
 31
0.0
  0
LINE
  5
20B
330
6C
100
AcDbEntity
  8
Visible (ANSI)
100
AcDbLine
 10
56.33653453130531
 20
54.43203119779695
 30
0.0
 11
56.33653453130526
 21
56.3948959192858
 31
0.0
  0
LINE
  5
20C
330
6C
100
AcDbEntity
  8
Visible (ANSI)
100
AcDbLine
 10
56.46153453130526
 20
56.3948959192858
 30
0.0
 11
56.46153453130532
 21
54.43203119779695
 31
0.0
  0
LINE
  5
20D
330
6C
100
AcDbEntity
  8
Visible (ANSI)
100
AcDbLine
 10
56.33653453130526
 20
56.3948959192858
 30
0.0
 11
56.46153453130526
 21
56.3948959192858
 31
0.0
  0
LINE
  5
20E
330
6C
100
AcDbEntity
  8
Visible (ANSI)
100
AcDbLine
 10
32.46153453130546
 20
56.3948959192858
 30
0.0
 11
32.46153453130546
 21
54.43203119779641
 31
0.0
  0
LINE
  5
20F
330
6C
100
AcDbEntity
  8
Visible (ANSI)
100
AcDbLine
 10
32.33653453130545
 20
56.3948959192858
 30
0.0
 11
32.46153453130546
 21
56.3948959192858
 31
0.0
  0
LINE
  5
210
330
6C
100
AcDbEntity
  8
Visible (ANSI)
100
AcDbLine
 10
33.08653453130546
 20
56.39489591928582
 30
0.0
 11
33.33653453130547
 21
56.14489591928582
 31
0.0
  0
LINE
  5
211
330
6C
100
AcDbEntity
  8
Visible (ANSI)
100
AcDbLine
 10
55.46153453130528
 20
56.14489591928582
 30
0.0
 11
55.71153453130527
 21
56.3948959192858
 31
0.0
  0
LINE
  5
212
330
6C
100
AcDbEntity
  8
Visible (ANSI)
100
AcDbLine
 10
33.08653453130546
 20
56.39489591928582
 30
0.0
 11
32.55528453130546
 21
56.39489591928582
 31
0.0
  0
LINE
  5
213
330
6C
100
AcDbEntity
  8
Visible (ANSI)
100
AcDbLine
 10
55.71153453130527
 20
56.3948959192858
 30
0.0
 11
56.24278453130525
 21
56.39489591928582
 31
0.0
  0
LINE
  5
214
330
6C
100
AcDbEntity
  8
Visible Narrow (ANSI)
100
AcDbLine
 10
32.55528453130546
 20
56.39489591928582
 30
0.0
 11
32.55528453130546
 21
54.39489591928527
 31
0.0
  0
LINE
  5
215
330
6C
100
AcDbEntity
  8
Visible (ANSI)
100
AcDbLine
 10
32.55528453130546
 20
56.39489591928582
 30
0.0
 11
32.46153453130546
 21
56.3948959192858
 31
0.0
  0
LINE
  5
216
330
6C
100
AcDbEntity
  8
Visible (ANSI)
100
AcDbLine
 10
56.24278453130525
 20
56.39489591928582
 30
0.0
 11
56.33653453130527
 21
56.3948959192858
 31
0.0
  0
LINE
  5
217
330
6C
100
AcDbEntity
  8
Visible Narrow (ANSI)
100
AcDbLine
 10
56.2427845313053
 20
54.39489591928581
 30
0.0
 11
56.24278453130525
 21
56.39489591928582
 31
0.0
  0
CIRCLE
  5
218
330
6C
100
AcDbEntity
  8
Visible (ANSI)
100
AcDbCircle
 10
44.39903453130543
 20
52.14489591928233
 30
0.0
 40
0.28125
  0
CIRCLE
  5
219
330
6C
100
AcDbEntity
  8
Visible (ANSI)
100
AcDbCircle
 10
34.46153453130543
 20
55.1448959192823
 30
0.0
 40
0.28125
  0
CIRCLE
  5
21A
330
6C
100
AcDbEntity
  8
Visible (ANSI)
100
AcDbCircle
 10
54.33653453130542
 20
55.1448959192823
 30
0.0
 40
0.28125
  0
ARC
  5
21B
330
6C
100
AcDbEntity
  8
Visible (ANSI)
100
AcDbCircle
 10
56.08653453130543
 20
56.01989591928229
 30
0.0
 40
0.1250000000000002
100
AcDbArc
 50
0.0
 51
90.0
  0
ARC
  5
21C
330
6C
100
AcDbEntity
  8
Visible (ANSI)
100
AcDbCircle
 10
32.71153453130543
 20
56.01989591928229
 30
0.0
 40
0.125
100
AcDbArc
 50
90.0
 51
180.0
  0
ARC
  5
21D
330
6C
100
AcDbEntity
  8
Visible (ANSI)
100
AcDbCircle
 10
32.71153453130543
 20
48.64479875577718
 30
0.0
 40
0.125
100
AcDbArc
 50
180.0
 51
189.3624011371788
  0
ARC
  5
21E
330
6C
100
AcDbEntity
  8
Visible (ANSI)
100
AcDbCircle
 10
56.08653453130424
 20
48.64479875577726
 30
0.0
 40
0.1250000000011843
100
AcDbArc
 50
350.6375988628987
 51
0.0
  0
LINE
  5
21F
330
6C
100
AcDbEntity
  8
Visible (ANSI)
100
AcDbLine
 10
56.21153453130542
 20
56.01989591928229
 30
0.0
 11
56.21153453130542
 21
54.64500513605141
 31
0.0
  0
LINE
  5
220
330
6C
100
AcDbEntity
  8
Visible (ANSI)
100
AcDbLine
 10
32.71153453130543
 20
56.14489591928229
 30
0.0
 11
56.08653453130542
 21
56.14489591928229
 31
0.0
  0
LINE
  5
221
330
6C
100
AcDbEntity
  8
Visible (ANSI)
100
AcDbLine
 10
32.58653453130543
 20
54.64500513605141
 30
0.0
 11
32.58653453130543
 21
56.01989591928229
 31
0.0
  0
LINE
  5
222
330
6C
100
AcDbEntity
  8
Visible (ANSI)
100
AcDbLine
 10
56.21153453130542
 20
54.49032552766687
 30
0.0
 11
56.21153453130542
 21
54.64500513605141
 31
0.0
  0
LINE
  5
223
330
6C
100
AcDbEntity
  8
Visible Narrow (ANSI)
100
AcDbLine
 10
32.58653453130543
 20
54.64500513605141
 30
0.0
 11
56.21153453130542
 21
54.64500513605141
 31
0.0
  0
LINE
  5
224
330
6C
100
AcDbEntity
  8
Visible (ANSI)
100
AcDbLine
 10
32.58653453130543
 20
54.49032552766687
 30
0.0
 11
32.58653453130543
 21
54.64500513605141
 31
0.0
  0
LINE
  5
225
330
6C
100
AcDbEntity
  8
Visible Narrow (ANSI)
100
AcDbLine
 10
32.58653453130543
 20
54.49032552766687
 30
0.0
 11
56.21153453130542
 21
54.49032552766687
 31
0.0
  0
LINE
  5
226
330
6C
100
AcDbEntity
  8
Visible (ANSI)
100
AcDbLine
 10
56.21153453130542
 20
54.45698079974429
 30
0.0
 11
56.21153453130542
 21
54.49032552766687
 31
0.0
  0
LINE
  5
227
330
6C
100
AcDbEntity
  8
Visible (ANSI)
100
AcDbLine
 10
32.58653453130543
 20
54.49032552766687
 30
0.0
 11
32.58653453130543
 21
54.45698079974429
 31
0.0
  0
LINE
  5
228
330
6C
100
AcDbEntity
  8
Visible (ANSI)
100
AcDbLine
 10
56.21153453130542
 20
54.45698079974429
 30
0.0
 11
56.21153453130542
 21
54.39489591928234
 31
0.0
  0
LINE
  5
229
330
6C
100
AcDbEntity
  8
Visible (ANSI)
100
AcDbLine
 10
32.58653453130543
 20
54.45698079974429
 30
0.0
 11
32.58653453130543
 21
54.3948959192818
 31
0.0
  0
LINE
  5
22A
330
6C
100
AcDbEntity
  8
Visible Narrow (ANSI)
100
AcDbLine
 10
33.58653453130546
 20
54.39068953900806
 30
0.0
 11
55.21153453130531
 21
54.390689539008
 31
0.0
  0
LINE
  5
22B
330
6C
100
AcDbEntity
  8
Visible Narrow (ANSI)
100
AcDbLine
 10
32.58653453130543
 20
54.45698079974429
 30
0.0
 11
56.21153453130542
 21
54.45698079974429
 31
0.0
  0
LINE
  5
22C
330
6C
100
AcDbEntity
  8
Visible (ANSI)
100
AcDbLine
 10
56.21153453130542
 20
48.64479875577717
 30
0.0
 11
56.21153453130542
 21
48.66699300619444
 31
0.0
  0
LINE
  5
22D
330
6C
100
AcDbEntity
  8
Visible (ANSI)
100
AcDbLine
 10
32.58653453130543
 20
48.66699300619437
 30
0.0
 11
32.58653453130543
 21
48.64479875577718
 31
0.0
  0
MTEXT
  5
22E
330
6C
100
AcDbEntity
  8
Symbol (ANSI)
100
AcDbMText
 10
42.16971004377955
 20
45.13002087211828
 30
0.0
 40
0.7200000088984572
 41
0.0
 71
     7
 72
     1
  1
TOP VIEW
  7
Text Style168
 73
     1
 44
1.0
  0
LINE
  5
22F
330
6C
100
AcDbEntity
  8
Symbol (ANSI)
370
    30
100
AcDbLine
 10
42.17028604526124
 20
44.98319104786893
 30
0.0
 11
46.71317090946763
 21
44.98319104786893
 31
0.0
  0
ELLIPSE
  5
230
330
6C
100
AcDbEntity
  8
Visible (ANSI)
100
AcDbEllipse
 10
82.68124590054448
 20
55.76363578162935
 30
0.0
 11
-0.2410714285714285
 21
0.0000000000000154
 31
0.0
210
0.0
220
0.0
230
1.0
 40
0.5758617009853088
 41
0.0
 42
6.283185307179586
  0
ELLIPSE
  5
231
330
6C
100
AcDbEntity
  8
Visible (ANSI)
100
AcDbEllipse
 10
82.68124590054448
 20
55.67604144682479
 30
0.0
 11
0.2410714285714294
 21
0.0000000000000003
 31
0.0
210
0.0
220
0.0
230
1.0
 40
0.57586170098531
 41
0.3209702928256525
 42
2.820622360764137
  0
ELLIPSE
  5
232
330
6C
100
AcDbEntity
  8
Visible (ANSI)
100
AcDbEllipse
 10
94.57579211264851
 20
48.91402216748075
 30
0.0
 11
-0.2410714285714285
 21
0.0000000000000154
 31
0.0
210
0.0
220
0.0
230
1.0
 40
0.5758617009853088
 41
0.0
 42
6.283185307179586
  0
ELLIPSE
  5
233
330
6C
100
AcDbEntity
  8
Visible (ANSI)
100
AcDbEllipse
 10
94.57579211264851
 20
48.8264278326762
 30
0.0
 11
0.2410714285714314
 21
-0.0000000000000011
 31
0.0
210
0.0
220
0.0
230
1.0
 40
0.5758617009853087
 41
0.3209702928256623
 42
2.820622360764145
  0
ELLIPSE
  5
234
330
6C
100
AcDbEntity
  8
Visible (ANSI)
100
AcDbEllipse
 10
80.9387327611919
 20
55.85089200601327
 30
0.0
 11
-0.2410714285714285
 21
0.0000000000000129
 31
0.0
210
0.0
220
0.0
230
1.0
 40
0.5758617009853087
 41
0.0
 42
6.283185307179586
  0
ELLIPSE
  5
235
330
6C
100
AcDbEntity
  8
Visible (ANSI)
100
AcDbEllipse
 10
80.9387327611919
 20
55.76329767120871
 30
0.0
 11
0.2410714285714297
 21
0.0000000000000022
 31
0.0
210
0.0
220
0.0
230
1.0
 40
0.5758617009853065
 41
0.3209702928256409
 42
2.820622360764122
  0
ELLIPSE
  5
236
330
6C
100
AcDbEntity
  8
Visible (ANSI)
100
AcDbEllipse
 10
77.90827512753572
 20
54.10576751833157
 30
0.0
 11
-0.2410714285714285
 21
0.0000000000000129
 31
0.0
210
0.0
220
0.0
230
1.0
 40
0.5758617009853087
 41
0.0
 42
6.283185307179586
  0
ELLIPSE
  5
237
330
6C
100
AcDbEntity
  8
Visible (ANSI)
100
AcDbEllipse
 10
77.90827512753572
 20
54.01817318352701
 30
0.0
 11
0.2410714285714297
 21
0.0000000000000022
 31
0.0
210
0.0
220
0.0
230
1.0
 40
0.5758617009853066
 41
0.320970292825641
 42
2.820622360764122
  0
ELLIPSE
  5
238
330
6C
100
AcDbEntity
  8
Visible (ANSI)
100
AcDbEllipse
 10
94.72731499433159
 20
47.91057558706396
 30
0.0
 11
-0.2410714285714285
 21
0.0000000000000154
 31
0.0
210
0.0
220
0.0
230
1.0
 40
0.5758617009853148
 41
0.0
 42
6.283185307179586
  0
ELLIPSE
  5
239
330
6C
100
AcDbEntity
  8
Visible (ANSI)
100
AcDbEllipse
 10
94.72731499433159
 20
47.82298125225939
 30
0.0
 11
0.2410714285714192
 21
-0.0000000000000003
 31
0.0
210
0.0
220
0.0
230
1.0
 40
0.5758617009853153
 41
0.3209702928255962
 42
2.820622360764121
  0
ELLIPSE
  5
23A
330
6C
100
AcDbEntity
  8
Visible (ANSI)
100
AcDbEllipse
 10
91.69685736067533
 20
46.16545109938231
 30
0.0
 11
-0.2410714285714285
 21
0.0000000000000154
 31
0.0
210
0.0
220
0.0
230
1.0
 40
0.5758617009853148
 41
0.0
 42
6.283185307179586
  0
ELLIPSE
  5
23B
330
6C
100
AcDbEntity
  8
Visible (ANSI)
100
AcDbEllipse
 10
91.69685736067533
 20
46.07785676457775
 30
0.0
 11
0.2410714285714206
 21
-0.0000000000000003
 31
0.0
210
0.0
220
0.0
230
1.0
 40
0.5758617009853151
 41
0.3209702928255961
 42
2.820622360764201
  0
SPLINE
  5
23C
330
6C
100
AcDbEntity
  8
Visible (ANSI)
100
AcDbSpline
210
0.0
220
0.0
230
1.0
 70
     8
 71
     3
 72
     8
 73
     4
 74
     0
 42
0.0000000001
 43
0.0000000001
 40
0.0
 40
0.0
 40
0.0
 40
0.0
 40
0.7873318718203413
 40
0.7873318718203413
 40
0.7873318718203413
 40
0.7873318718203413
 10
96.22360345094946
 20
40.03655551341479
 30
0.0
 10
96.22136581239137
 20
39.99503688631206
 30
0.0
 10
96.20455795452373
 20
39.96229357419468
 30
0.0
 10
96.17783111793665
 20
39.94661102224863
 30
0.0
  0
SPLINE
  5
23D
330
6C
100
AcDbEntity
  8
Visible (ANSI)
100
AcDbSpline
210
0.0
220
0.0
230
1.0
 70
     8
 71
     3
 72
     8
 73
     4
 74
     0
 42
0.0000000001
 43
0.0000000001
 40
0.0
 40
0.0
 40
0.0
 40
0.0
 40
0.2101164220635819
 40
0.2101164220635819
 40
0.2101164220635819
 40
0.2101164220635819
 10
81.7910489706576
 20
48.41315305428444
 30
0.0
 10
81.79164613257183
 20
48.4082079195532
 30
0.0
 10
81.79178634377548
 20
48.40302136181437
 30
0.0
 10
81.79151506218875
 20
48.39770272308796
 30
0.0
  0
SPLINE
  5
23E
330
6C
100
AcDbEntity
  8
Visible (ANSI)
100
AcDbSpline
210
0.0
220
0.0
230
1.0
 70
     8
 71
     3
 72
     8
 73
     4
 74
     0
 42
0.0000000001
 43
0.0000000001
 40
0.0
 40
0.0
 40
0.0
 40
0.0
 40
0.7825528965236043
 40
0.7825528965236043
 40
0.7825528965236043
 40
0.7825528965236043
 10
81.6774068093955
 20
48.41315305428442
 30
0.0
 10
81.67518275293636
 20
48.39473550524367
 30
0.0
 10
81.67929705454483
 20
48.37296918043222
 30
0.0
 10
81.68740132174191
 20
48.35350277597384
 30
0.0
  0
LINE
  5
23F
330
6C
100
AcDbEntity
  8
Visible Narrow (ANSI)
100
AcDbLine
 10
92.69712943438394
 20
38.00579418775435
 30
0.0
 11
96.22360345094946
 21
40.03655551341479
 31
0.0
  0
SPLINE
  5
240
330
6C
100
AcDbEntity
  8
Visible (ANSI)
100
AcDbSpline
210
0.0
220
0.0
230
1.0
 70
     8
 71
     3
 72
    11
 73
     7
 74
     0
 42
0.0000000001
 43
0.0000000001
 40
0.0
 40
0.0
 40
0.0
 40
0.0
 40
0.9120227246349083
 40
0.9120227246349083
 40
0.9120227246349083
 40
1.570796326794897
 40
1.570796326794897
 40
1.570796326794897
 40
1.570796326794897
 10
92.58705429056194
 20
37.94181443496097
 30
0.0
 10
92.62300436579085
 20
37.91609523838877
 30
0.0
 10
92.65850776011056
 20
37.91323748882862
 30
0.0
 10
92.67882501911712
 20
37.93337034775002
 30
0.0
 10
92.69350061166568
 20
37.94791274415658
 30
0.0
 10
92.70027587800557
 20
37.97394495010735
 30
0.0
 10
92.69712943438394
 20
38.00579418775435
 30
0.0
  0
LINE
  5
241
330
6C
100
AcDbEntity
  8
Visible Narrow (ANSI)
100
AcDbLine
 10
92.58705429056194
 20
38.02940876976552
 30
0.0
 11
92.6214229834391
 21
38.04920038370641
 31
0.0
  0
LINE
  5
242
330
6C
100
AcDbEntity
  8
Visible (ANSI)
100
AcDbLine
 10
92.58705429056194
 20
38.02940876976552
 30
0.0
 11
92.58705429056194
 21
37.94181443496097
 31
0.0
  0
LINE
  5
243
330
6C
100
AcDbEntity
  8
Visible (ANSI)
100
AcDbLine
 10
92.64895156755118
 20
38.0335379760985
 30
0.0
 11
92.69712943438394
 21
38.00579418775435
 31
0.0
  0
LINE
  5
244
330
6C
100
AcDbEntity
  8
Visible (ANSI)
100
AcDbLine
 10
92.62136799354252
 20
38.04942229994638
 30
0.0
 11
92.64895156755118
 21
38.0335379760985
 31
0.0
  0
SPLINE
  5
245
330
6C
100
AcDbEntity
  8
Visible (ANSI)
100
AcDbSpline
210
0.0
220
0.0
230
1.0
 70
     8
 71
     3
 72
    11
 73
     7
 74
     0
 42
0.0000000001
 43
0.0000000001
 40
0.0
 40
0.0
 40
0.0
 40
0.0
 40
1.127197082403218
 40
1.127197082403218
 40
1.127197082403218
 40
1.570796326794897
 40
1.570796326794897
 40
1.570796326794897
 40
1.570796326794897
 10
92.62136799354252
 20
38.04942229994638
 30
0.0
 10
92.62675172789164
 20
38.02783856670963
 30
0.0
 10
92.61898475604281
 20
38.01445283252014
 30
0.0
 10
92.60508533291954
 20
38.01806333935592
 30
0.0
 10
92.59961532799209
 20
38.01948422495723
 30
0.0
 10
92.59333749517207
 20
38.02335032785863
 30
0.0
 10
92.58705429056194
 20
38.02940876976552
 30
0.0
  0
LINE
  5
246
330
6C
100
AcDbEntity
  8
Visible Narrow (ANSI)
100
AcDbLine
 10
81.7910489706576
 20
48.41315305428444
 30
0.0
 11
81.8164759402706
 21
48.39851063631218
 31
0.0
  0
SPLINE
  5
247
330
6C
100
AcDbEntity
  8
Visible (ANSI)
100
AcDbSpline
210
0.0
220
0.0
230
1.0
 70
     8
 71
     3
 72
    11
 73
     7
 74
     0
 42
0.0000000001
 43
0.0000000001
 40
0.0
 40
0.0
 40
0.0
 40
0.0
 40
0.9120227246349479
 40
0.9120227246349479
 40
0.9120227246349479
 40
1.019764810610898
 40
1.019764810610898
 40
1.019764810610898
 40
1.019764810610898
 10
78.07517135198894
 20
46.42601984081614
 30
0.0
 10
78.07952736758413
 20
46.38192695609654
 30
0.0
 10
78.10343405759629
 20
46.327092033069
 30
0.0
 10
78.13966185503605
 20
46.28271985672399
 30
0.0
 10
78.14394163706456
 20
46.27747793598061
 30
0.0
 10
78.14838198366473
 20
46.27238787910228
 30
0.0
 10
78.1529570261946
 20
46.26747480692682
 30
0.0
  0
SPLINE
  5
248
330
6C
100
AcDbEntity
  8
Visible (ANSI)
100
AcDbSpline
210
0.0
220
0.0
230
1.0
 70
     8
 71
     3
 72
     8
 73
     4
 74
     0
 42
0.0000000001
 43
0.0000000001
 40
0.0
 40
0.0
 40
0.0
 40
0.0
 40
0.9750260195037805
 40
0.9750260195037805
 40
0.9750260195037805
 40
0.9750260195037805
 10
78.15093279283036
 20
46.38239172862411
 30
0.0
 10
78.15558972563692
 20
46.36372178897258
 30
0.0
 10
78.17008635655262
 20
46.3398531934125
 30
0.0
 10
78.18988036075683
 20
46.32171180413921
 30
0.0
  0
LINE
  5
249
330
6C
100
AcDbEntity
  8
Visible (ANSI)
100
AcDbLine
 10
78.12334921882168
 20
46.39827605247201
 30
0.0
 11
78.15093279283036
 21
46.38239172862411
 31
0.0
  0
LINE
  5
24A
330
6C
100
AcDbEntity
  8
Visible (ANSI)
100
AcDbLine
 10
78.07517135198894
 20
46.42601984081614
 30
0.0
 11
78.12334921882168
 21
46.39827605247201
 31
0.0
  0
LINE
  5
24B
330
6C
100
AcDbEntity
  8
Visible Narrow (ANSI)
100
AcDbLine
 10
78.15093279283036
 20
46.38239172862411
 30
0.0
 11
81.6774068093955
 21
48.41315305428442
 31
0.0
  0
LINE
  5
24C
330
6C
100
AcDbEntity
  8
Visible (ANSI)
100
AcDbLine
 10
92.66939684882379
 20
37.92615551384159
 30
0.0
 11
96.17787655347473
 21
39.94655460443484
 31
0.0
  0
LINE
  5
24D
330
6C
100
AcDbEntity
  8
Visible (ANSI)
100
AcDbLine
 10
92.58705429056194
 20
38.02940876976552
 30
0.0
 11
92.56811393035164
 21
38.0403157978135
 31
0.0
  0
LINE
  5
24E
330
6C
100
AcDbEntity
  8
Visible (ANSI)
100
AcDbLine
 10
92.51964636316136
 20
37.98063207869375
 30
0.0
 11
92.58705429056194
 21
37.94181443496097
 31
0.0
  0
ELLIPSE
  5
24F
330
6C
100
AcDbEntity
  8
Visible (ANSI)
100
AcDbEllipse
 10
81.73422789002655
 20
48.3804319701404
 30
0.0
 11
0.0803571428571429
 21
-0.0000000000000047
 31
0.0
210
0.0
220
0.0
230
1.0
 40
0.5758617009853114
 41
0.785398163397943
 42
2.356194490192873
  0
ELLIPSE
  5
250
330
6C
100
AcDbEntity
  8
Visible (ANSI)
100
AcDbEllipse
 10
96.09102092947701
 20
40.11290470975084
 30
0.0
 11
0.1874999999999829
 21
0.0000000000000001
 31
0.0
210
0.0
220
0.0
230
1.0
 40
0.5758617009853122
 41
5.497787143782258
 42
6.283185307179663
  0
LINE
  5
251
330
6C
100
AcDbEntity
  8
Visible (ANSI)
100
AcDbLine
 10
78.07517135198894
 20
46.42601984081614
 30
0.0
 11
76.88549567617662
 21
53.84340715194341
 31
0.0
  0
LINE
  5
252
330
6C
100
AcDbEntity
  8
Visible (ANSI)
100
AcDbLine
 10
92.62136799354252
 20
38.04942229994638
 30
0.0
 11
91.43169231773049
 21
45.46680961107386
 31
0.0
  0
LINE
  5
253
330
6C
100
AcDbEntity
  8
Visible (ANSI)
100
AcDbLine
 10
91.50745375857193
 20
45.42318149888184
 30
0.0
 11
92.69712943438394
 21
38.00579418775435
 31
0.0
  0
LINE
  5
254
330
6C
100
AcDbEntity
  8
Visible (ANSI)
100
AcDbLine
 10
91.43169231773049
 20
45.46680961107386
 30
0.0
 11
91.50745375857193
 21
45.42318149888184
 31
0.0
  0
LINE
  5
255
330
6C
100
AcDbEntity
  8
Visible (ANSI)
100
AcDbLine
 10
76.96125711701805
 20
53.79977903975138
 30
0.0
 11
78.15093279283036
 21
46.38239172862411
 31
0.0
  0
LINE
  5
256
330
6C
100
AcDbEntity
  8
Visible (ANSI)
100
AcDbLine
 10
76.88549567617662
 20
53.84340715194341
 30
0.0
 11
76.96125711701805
 21
53.79977903975138
 31
0.0
  0
ELLIPSE
  5
257
330
6C
100
AcDbEntity
  8
Visible (ANSI)
100
AcDbEllipse
 10
96.09102092947697
 20
48.21538067917245
 30
0.0
 11
0.1874999999999987
 21
0.0
 31
0.0
210
0.0
220
0.0
230
1.0
 40
0.5758617009853119
 41
5.497787143782266
 42
7.068583470577141
  0
ELLIPSE
  5
258
330
6C
100
AcDbEntity
  8
Visible (ANSI)
100
AcDbEllipse
 10
81.73422789002655
 20
56.482907939562
 30
0.0
 11
-0.0803571428571419
 21
0.0
 31
0.0
210
0.0
220
0.0
230
1.0
 40
0.5758617009853121
 41
4.544940901164574
 42
4.87983705960395
  0
LINE
  5
259
330
6C
100
AcDbEntity
  8
Visible (ANSI)
100
AcDbLine
 10
77.34006432122519
 20
53.64733422989466
 30
0.0
 11
77.01807819764912
 21
53.83275370671078
 31
0.0
  0
LINE
  5
25A
330
6C
100
AcDbEntity
  8
Visible (ANSI)
100
AcDbLine
 10
81.72083503288389
 20
55.82102740600149
 30
0.0
 11
77.94615584795652
 21
53.64733422989472
 31
0.0
  0
LINE
  5
25B
330
6C
100
AcDbEntity
  8
Visible (ANSI)
100
AcDbLine
 10
77.34006432122519
 20
53.73492856469923
 30
0.0
 11
77.01807819764912
 21
53.92034804151535
 31
0.0
  0
LINE
  5
25C
330
6C
100
AcDbEntity
  8
Visible (ANSI)
100
AcDbLine
 10
91.37487123709943
 20
45.65282078112586
 30
0.0
 11
91.05288511352338
 21
45.83824025794199
 31
0.0
  0
LINE
  5
25D
330
6C
100
AcDbEntity
  8
Visible (ANSI)
100
AcDbLine
 10
91.05288511352338
 20
45.75064592313743
 30
0.0
 11
91.37487123709943
 21
45.5652264463213
 31
0.0
  0
LINE
  5
25E
330
6C
100
AcDbEntity
  8
Visible (ANSI)
100
AcDbLine
 10
94.76490214563661
 20
48.32487359767804
 30
0.0
 11
81.74762074716959
 21
55.82102740600149
 31
0.0
  0
LINE
  5
25F
330
6C
100
AcDbEntity
  8
Visible (ANSI)
100
AcDbLine
 10
94.82756429845073
 20
48.37638319857568
 30
0.0
 11
81.74762074716959
 21
55.90862174080605
 31
0.0
  0
LINE
  5
260
330
6C
100
AcDbEntity
  8
Visible (ANSI)
100
AcDbLine
 10
81.72083503288389
 20
55.90862174080605
 30
0.0
 11
77.94615584795652
 21
53.73492856469927
 31
0.0
  0
LINE
  5
261
330
6C
100
AcDbEntity
  8
Visible (ANSI)
100
AcDbLine
 10
91.05288511352329
 20
46.18726515547828
 30
0.0
 11
94.82756429845073
 21
48.360958331585
 31
0.0
  0
ELLIPSE
  5
262
330
6C
100
AcDbEntity
  8
Visible (ANSI)
100
AcDbEllipse
 10
81.73422789002655
 20
56.48290793956201
 30
0.0
 11
0.1874999999999947
 21
0.0
 31
0.0
210
0.0
220
0.0
230
1.0
 40
0.5758617009853119
 41
1.499306876909286
 42
1.642285776680328
  0
LINE
  5
263
330
6C
100
AcDbEntity
  8
Visible Narrow (ANSI)
100
AcDbLine
 10
96.22360345094946
 20
40.03655551341479
 30
0.0
 11
96.22360345094946
 21
48.13903148283639
 31
0.0
  0
LINE
  5
264
330
6C
100
AcDbEntity
  8
Visible Narrow (ANSI)
100
AcDbLine
 10
81.7910489706576
 20
55.79601875535293
 30
0.0
 11
81.7910489706576
 21
48.41315305428444
 31
0.0
  0
LINE
  5
265
330
6C
100
AcDbEntity
  8
Visible Narrow (ANSI)
100
AcDbLine
 10
81.6774068093955
 20
48.41315305428442
 30
0.0
 11
81.6774068093955
 21
55.79601875535269
 31
0.0
  0
LINE
  5
266
330
6C
100
AcDbEntity
  8
Visible (ANSI)
100
AcDbLine
 10
96.27852092947698
 20
48.21538067917245
 30
0.0
 11
96.27852092947698
 21
40.11290470975084
 31
0.0
  0
LINE
  5
267
330
6C
100
AcDbEntity
  8
Visible (ANSI)
100
AcDbLine
 10
77.94615584795652
 20
53.73492856469927
 30
0.0
 11
77.34006432122519
 21
53.73492856469923
 31
0.0
  0
LINE
  5
268
330
6C
100
AcDbEntity
  8
Visible (ANSI)
100
AcDbLine
 10
77.34006432122519
 20
53.73492856469923
 30
0.0
 11
77.34006432122519
 21
53.64733422989466
 31
0.0
  0
LINE
  5
269
330
6C
100
AcDbEntity
  8
Visible (ANSI)
100
AcDbLine
 10
77.34006432122519
 20
53.64733422989466
 30
0.0
 11
77.94615584795652
 21
53.64733422989472
 31
0.0
  0
LINE
  5
26A
330
6C
100
AcDbEntity
  8
Visible (ANSI)
100
AcDbLine
 10
77.94615584795652
 20
53.64733422989472
 30
0.0
 11
77.94615584795652
 21
53.73492856469927
 31
0.0
  0
LINE
  5
26B
330
6C
100
AcDbEntity
  8
Visible (ANSI)
100
AcDbLine
 10
91.05288511352338
 20
45.83824025794199
 30
0.0
 11
91.05288511352329
 21
46.18726515547828
 31
0.0
  0
LINE
  5
26C
330
6C
100
AcDbEntity
  8
Visible (ANSI)
100
AcDbLine
 10
91.05288511352338
 20
45.75064592313743
 30
0.0
 11
91.05288511352338
 21
45.83824025794199
 31
0.0
  0
ELLIPSE
  5
26D
330
6C
100
AcDbEntity
  8
Visible (ANSI)
100
AcDbEllipse
 10
77.01807819764912
 20
53.76705795560736
 30
0.0
 11
-0.0401008027166034
 21
0.0696361689759506
 31
0.0
210
0.0
220
0.0
230
1.0
 40
0.5780931159158104
 41
5.499720852205022
 42
7.070517179
  0
ELLIPSE
  5
26E
330
6C
100
AcDbEntity
  8
Visible (ANSI)
100
AcDbEllipse
 10
77.01807819764912
 20
53.76705795560736
 30
0.0
 11
-0.0935685396720769
 21
0.1624843942772221
 31
0.0
210
0.0
220
0.0
230
1.0
 40
0.5780931159158104
 41
5.499720852205022
 42
7.0705171789999
  0
ELLIPSE
  5
26F
330
6C
100
AcDbEntity
  8
Visible (ANSI)
100
AcDbEllipse
 10
91.37487123709941
 20
45.49953069521789
 30
0.0
 11
-0.0935685396720858
 21
0.1624843942772225
 31
0.0
210
0.0
220
0.0
230
1.0
 40
0.5780931159157942
 41
3.928924525409918
 42
5.499720852204732
  0
ELLIPSE
  5
270
330
6C
100
AcDbEntity
  8
Visible (ANSI)
100
AcDbEllipse
 10
91.37487123709943
 20
45.49953069521789
 30
0.0
 11
0.0401008027165992
 21
-0.0696361689759571
 31
0.0
210
0.0
220
0.0
230
1.0
 40
0.5780931159158104
 41
0.7873318718206157
 42
2.358128198615432
  0
LINE
  5
271
330
6C
100
AcDbEntity
  8
Visible Narrow (ANSI)
100
AcDbLine
 10
96.07762807233413
 20
48.37638319857577
 30
0.0
 11
81.74762074716943
 21
56.62848559197463
 31
0.0
  0
LINE
  5
272
330
6C
100
AcDbEntity
  8
Visible Narrow (ANSI)
100
AcDbLine
 10
81.72083503288369
 20
56.62848559197463
 30
0.0
 11
77.01807819764912
 21
53.92034804151535
 31
0.0
  0
LINE
  5
273
330
6C
100
AcDbEntity
  8
Visible Narrow (ANSI)
100
AcDbLine
 10
77.01829837448578
 20
53.83262691530311
 30
0.0
 11
76.96125711701805
 21
53.79977903975138
 31
0.0
  0
LINE
  5
274
330
6C
100
AcDbEntity
  8
Visible Narrow (ANSI)
100
AcDbLine
 10
91.37487123709943
 20
45.65282078112586
 30
0.0
 11
96.07762807233413
 21
48.36095833158509
 31
0.0
  0
LINE
  5
275
330
6C
100
AcDbEntity
  8
Visible Narrow (ANSI)
100
AcDbLine
 10
96.22360345094946
 20
48.13903148283639
 30
0.0
 11
91.50745375857193
 21
45.42318149888184
 31
0.0
  0
LINE
  5
276
330
6C
100
AcDbEntity
  8
Visible (ANSI)
100
AcDbLine
 10
81.83450934537292
 20
56.64152662280045
 30
0.0
 11
96.17787655347468
 21
48.38173078448848
 31
0.0
  0
LINE
  5
277
330
6C
100
AcDbEntity
  8
Visible (ANSI)
100
AcDbLine
 10
76.92450965797704
 20
53.92954234988459
 30
0.0
 11
81.63394643468015
 21
56.64152662280044
 31
0.0
  0
SPLINE
  5
278
330
6C
100
AcDbEntity
  8
Visible (ANSI)
100
AcDbSpline
210
0.0
220
0.0
230
1.0
 70
     8
 71
     3
 72
    11
 73
     7
 74
     0
 42
0.0000000001
 43
0.0000000001
 40
0.0
 40
0.0
 40
0.0
 40
0.0
 40
0.9120227246349417
 40
0.9120227246349417
 40
0.9120227246349417
 40
1.5707963267949
 40
1.5707963267949
 40
1.5707963267949
 40
1.5707963267949
 10
96.22360345094945
 20
48.29172987550852
 30
0.0
 10
96.22101143443449
 20
48.33982386581758
 30
0.0
 10
96.19886874350257
 20
48.37614292518426
 30
0.0
 10
96.16440494514304
 20
48.38780873010584
 30
0.0
 10
96.13951100338463
 20
48.39623519155544
 30
0.0
 10
96.10861429661806
 20
48.39207064214739
 30
0.0
 10
96.07762807233413
 20
48.37638319857576
 30
0.0
  0
SPLINE
  5
279
330
6C
100
AcDbEntity
  8
Visible (ANSI)
100
AcDbSpline
210
0.0
220
0.0
230
1.0
 70
     8
 71
     3
 72
     8
 73
     4
 74
     0
 42
0.0000000001
 43
0.0000000001
 40
0.0
 40
0.0
 40
0.0
 40
0.0
 40
0.7834644549744237
 40
0.7834644549744237
 40
0.7834644549744237
 40
0.7834644549744237
 10
81.74762074716943
 20
56.62848559197463
 30
0.0
 10
81.78001866432143
 20
56.64970679329188
 30
0.0
 10
81.81208695303917
 20
56.65405737661597
 30
0.0
 10
81.83448183939491
 20
56.64145546269019
 30
0.0
  0
LINE
  5
27A
330
6C
100
AcDbEntity
  8
Visible (ANSI)
100
AcDbLine
 10
81.74762074716959
 20
55.90862174080605
 30
0.0
 11
81.74762074716943
 21
56.62848559197463
 31
0.0
  0
LINE
  5
27B
330
6C
100
AcDbEntity
  8
Visible (ANSI)
100
AcDbLine
 10
81.74762074716959
 20
55.82102740600149
 30
0.0
 11
81.74762074716959
 21
55.90862174080605
 31
0.0
  0
LINE
  5
27C
330
6C
100
AcDbEntity
  8
Visible (ANSI)
100
AcDbLine
 10
96.07762807233413
 20
48.36095833158509
 30
0.0
 11
96.07762807233413
 21
48.37638319857577
 31
0.0
  0
SPLINE
  5
27D
330
6C
100
AcDbEntity
  8
Visible (ANSI)
100
AcDbSpline
210
0.0
220
0.0
230
1.0
 70
    24
 71
     3
 72
     8
 73
     4
 74
     0
 42
0.0000000001
 43
0.0000000001
 40
-0.3175000000000077
 40
-0.3175000000000077
 40
-0.3175000000000077
 40
-0.3175000000000077
 40
-0.1275259911872312
 40
-0.1275259911872312
 40
-0.1275259911872312
 40
-0.1275259911872312
 10
96.22360345094945
 20
48.29172987550852
 30
0.0
 10
96.20849299989425
 20
48.28302834546122
 30
0.0
 10
96.19338254883905
 20
48.27432681541392
 30
0.0
 10
96.17827209778385
 20
48.26562528536661
 30
0.0
  0
LINE
  5
27E
330
6C
100
AcDbEntity
  8
Visible (ANSI)
100
AcDbLine
 10
96.07762807233413
 20
48.37638319857577
 30
0.0
 11
94.82756429845073
 21
48.37638319857568
 31
0.0
  0
LINE
  5
27F
330
6C
100
AcDbEntity
  8
Visible (ANSI)
100
AcDbLine
 10
94.82756429845073
 20
48.360958331585
 30
0.0
 11
94.82756429845073
 21
48.37638319857568
 31
0.0
  0
SPLINE
  5
280
330
6C
100
AcDbEntity
  8
Visible (ANSI)
100
AcDbSpline
210
0.0
220
0.0
230
1.0
 70
     8
 71
     3
 72
    11
 73
     7
 74
     0
 42
0.0000000001
 43
0.0000000001
 40
0.7873318718203436
 40
0.7873318718203436
 40
0.7873318718203436
 40
0.7873318718203436
 40
0.9120227246349386
 40
0.9120227246349386
 40
0.9120227246349386
 40
1.5707963267949
 40
1.5707963267949
 40
1.5707963267949
 40
1.5707963267949
 10
81.63399187021823
 20
56.64147020498665
 30
0.0
 10
81.63751588090063
 20
56.6435457273479
 30
0.0
 10
81.64128867445912
 20
56.64519334023335
 30
0.0
 10
81.6452917752707
 20
56.64638013225967
 30
0.0
 10
81.66644117863048
 20
56.6526502574576
 30
0.0
 10
81.69359334699839
 20
56.64632937179791
 30
0.0
 10
81.72083503288369
 20
56.62848559197463
 30
0.0
  0
LINE
  5
281
330
6C
100
AcDbEntity
  8
Visible (ANSI)
100
AcDbLine
 10
81.72083503288369
 20
56.62848559197463
 30
0.0
 11
81.72083503288389
 21
55.90862174080605
 31
0.0
  0
LINE
  5
282
330
6C
100
AcDbEntity
  8
Visible (ANSI)
100
AcDbLine
 10
81.72083503288389
 20
55.82102740600149
 30
0.0
 11
81.72083503288389
 21
55.90862174080605
 31
0.0
  0
SPLINE
  5
283
330
6C
100
AcDbEntity
  8
Visible (ANSI)
100
AcDbSpline
210
0.0
220
0.0
230
1.0
 70
     8
 71
     3
 72
    11
 73
     7
 74
     0
 42
0.0000000001
 43
0.0000000001
 40
0.0
 40
0.0
 40
0.0
 40
0.0
 40
0.9120227246349331
 40
0.9120227246349331
 40
0.9120227246349331
 40
1.5707963267949
 40
1.5707963267949
 40
1.5707963267949
 40
1.5707963267949
 10
96.07762807233413
 20
48.36095833158509
 30
0.0
 10
96.12052617967318
 20
48.33924024060235
 30
0.0
 10
96.16297760610306
 20
48.29517515546386
 30
0.0
 10
96.19024289721977
 20
48.24560968926949
 30
0.0
 10
96.2099372025893
 20
48.20980748848477
 30
0.0
 10
96.22173118175014
 20
48.17161446873358
 30
0.0
 10
96.22360345094946
 20
48.13903148283639
 30
0.0
  0
LINE
  5
284
330
6C
100
AcDbEntity
  8
Visible (ANSI)
100
AcDbLine
 10
94.82756429845073
 20
48.360958331585
 30
0.0
 11
96.07762807233413
 21
48.36095833158509
 31
0.0
  0
ELLIPSE
  5
285
330
6C
100
AcDbEntity
  8
Visible (ANSI)
100
AcDbEllipse
 10
86.77236370598206
 20
43.03607275422158
 30
0.0
 11
0.2410714285714285
 21
-0.0000000000000143
 31
0.0
210
0.0
220
0.0
230
1.0
 40
0.5758617009853115
 41
0.0
 42
6.283185307179586
  0
ELLIPSE
  5
286
330
6C
100
AcDbEntity
  8
Visible (ANSI)
100
AcDbEllipse
 10
86.77236370598206
 20
42.94847841941703
 30
0.0
 11
0.2410714285714287
 21
0.0
 31
0.0
210
0.0
220
0.0
230
1.0
 40
0.5758617009853115
 41
0.3209702928256536
 42
2.82062236076414
  0
ELLIPSE
  5
287
330
6C
100
AcDbEntity
  8
Visible (ANSI)
100
AcDbEllipse
 10
78.93105457889491
 20
45.36992704010913
 30
0.0
 11
0.2410714285714285
 21
-0.0000000000000143
 31
0.0
210
0.0
220
0.0
230
1.0
 40
0.5758617009853115
 41
0.0
 42
6.283185307179586
  0
ELLIPSE
  5
288
330
6C
100
AcDbEntity
  8
Visible (ANSI)
100
AcDbEllipse
 10
78.93105457889491
 20
45.28233270530456
 30
0.0
 11
0.2410714285714288
 21
0.0
 31
0.0
210
0.0
220
0.0
230
1.0
 40
0.5758617009853117
 41
0.3209702928256538
 42
2.82062236076414
  0
ELLIPSE
  5
289
330
6C
100
AcDbEntity
  8
Visible (ANSI)
100
AcDbEllipse
 10
90.97712367268179
 20
38.43305720157648
 30
0.0
 11
0.2410714285714285
 21
-0.0000000000000143
 31
0.0
210
0.0
220
0.0
230
1.0
 40
0.5758617009853115
 41
0.0
 42
6.283185307179586
  0
ELLIPSE
  5
28A
330
6C
100
AcDbEntity
  8
Visible (ANSI)
100
AcDbEllipse
 10
90.97712367268181
 20
38.34546286677192
 30
0.0
 11
0.2410714285714278
 21
0.0
 31
0.0
210
0.0
220
0.0
230
1.0
 40
0.5758617009853115
 41
0.3209702928256534
 42
2.82062236076414
  0
ELLIPSE
  5
28B
330
6C
100
AcDbEntity
  8
Visible (ANSI)
100
AcDbEllipse
 10
91.50745375857196
 20
37.51686684554377
 30
0.0
 11
-0.1071428571428556
 21
0.0000000000000064
 31
0.0
210
0.0
220
0.0
230
1.0
 40
0.5758617009853117
 41
0.7853981633978853
 42
2.356194490192779
  0
LINE
  5
28C
330
6C
100
AcDbEntity
  8
Visible Narrow (ANSI)
100
AcDbLine
 10
91.43169231773056
 20
37.47323873335173
 30
0.0
 11
91.43169231773056
 21
37.38564439854717
 31
0.0
  0
ELLIPSE
  5
28D
330
6C
100
AcDbEntity
  8
Visible (ANSI)
100
AcDbEllipse
 10
91.50745375857196
 20
37.42927251073921
 30
0.0
 11
0.1071428571428573
 21
0.0000000000000064
 31
0.0
210
0.0
220
0.0
230
1.0
 40
0.5758617009853115
 41
3.926990816987062
 42
5.497787143782066
  0
LINE
  5
28E
330
6C
100
AcDbEntity
  8
Visible Narrow (ANSI)
100
AcDbLine
 10
91.58321519941338
 20
37.38564439854718
 30
0.0
 11
91.58321519941338
 21
37.47323873335174
 31
0.0
  0
ELLIPSE
  5
28F
330
6C
100
AcDbEntity
  8
Visible (ANSI)
100
AcDbEllipse
 10
77.3400643212251
 20
45.58772949064868
 30
0.0
 11
-0.1071428571428572
 21
0.0
 31
0.0
210
0.0
220
0.0
230
1.0
 40
0.5758617009853117
 41
0.0000000000000026
 42
0.7853981633976029
  0
ELLIPSE
  5
290
330
6C
100
AcDbEntity
  8
Visible (ANSI)
100
AcDbEllipse
 10
77.3400643212251
 20
45.67532382545325
 30
0.0
 11
-0.1071428571428571
 21
0.0
 31
0.0
210
0.0
220
0.0
230
1.0
 40
0.5758617009853115
 41
5.497787143782288
 42
7.068583470577188
  0
LINE
  5
291
330
6C
100
AcDbEntity
  8
Visible Narrow (ANSI)
100
AcDbLine
 10
77.26430288038369
 20
45.54410137845665
 30
0.0
 11
77.26430288038369
 21
45.63169571326119
 31
0.0
  0
ELLIPSE
  5
292
330
6C
100
AcDbEntity
  8
Visible (ANSI)
100
AcDbEllipse
 10
81.81004822084515
 20
48.33692229803595
 30
0.0
 11
0.1071428571428546
 21
-0.0000000000000064
 31
0.0
210
0.0
220
0.0
230
1.0
 40
0.5758617009853117
 41
0.8248293379545614
 42
2.356194490192779
  0
LINE
  5
293
330
6C
100
AcDbEntity
  8
Visible (ANSI)
100
AcDbLine
 10
77.23292146408224
 20
45.58772949064868
 30
0.0
 11
77.23292146408224
 21
45.67532382545325
 31
0.0
  0
LINE
  5
294
330
6C
100
AcDbEntity
  8
Visible (ANSI)
100
AcDbLine
 10
91.58321519941338
 20
37.38564439854718
 30
0.0
 11
92.4165248533105
 21
37.865515513288
 31
0.0
  0
LINE
  5
295
330
6C
100
AcDbEntity
  8
Visible (ANSI)
100
AcDbLine
 10
92.4165248533105
 20
37.95310984809256
 30
0.0
 11
91.58321519941338
 21
37.47323873335174
 31
0.0
  0
LINE
  5
296
330
6C
100
AcDbEntity
  8
Visible (ANSI)
100
AcDbLine
 10
77.26430288038369
 20
45.54410137845665
 30
0.0
 11
91.43169231773056
 21
37.38564439854717
 31
0.0
  0
LINE
  5
297
330
6C
100
AcDbEntity
  8
Visible (ANSI)
100
AcDbLine
 10
77.26430288038367
 20
45.71895193764528
 30
0.0
 11
78.0976125342808
 21
46.19882305238609
 31
0.0
  0
LINE
  5
298
330
6C
100
AcDbEntity
  8
Visible (ANSI)
100
AcDbLine
 10
91.43169231773056
 20
37.47323873335173
 30
0.0
 11
77.26430288038369
 21
45.63169571326119
 31
0.0
  0
ELLIPSE
  5
299
330
6C
100
AcDbEntity
  8
Visible (ANSI)
100
AcDbEllipse
 10
92.4165248533105
 20
38.01880559919598
 30
0.0
 11
0.0935685396720246
 21
0.1624843942772502
 31
0.0
210
0.0
220
0.0
230
1.0
 40
0.5780931159156393
 41
3.925057108564034
 42
4.710455271961559
  0
ELLIPSE
  5
29A
330
6C
100
AcDbEntity
  8
Visible (ANSI)
100
AcDbEllipse
 10
92.4165248533105
 20
38.01880559919598
 30
0.0
 11
0.0401008027165819
 21
0.0696361689759643
 31
0.0
210
0.0
220
0.0
230
1.0
 40
0.5780931159156393
 41
3.925057108564035
 42
4.71045527196146
  0
ELLIPSE
  5
29B
330
6C
100
AcDbEntity
  8
Visible (ANSI)
100
AcDbEllipse
 10
78.0976125342808
 20
46.26451880348951
 30
0.0
 11
0.040100802716582
 21
0.0696361689759645
 31
0.0
210
0.0
220
0.0
230
1.0
 40
0.578093115915639
 41
3.925057108564035
 42
4.71045527196146
  0
LINE
  5
29C
330
6C
100
AcDbEntity
  8
Visible Narrow (ANSI)
100
AcDbLine
 10
92.45670342473905
 20
37.99548898858162
 30
0.0
 11
78.13779110570935
 21
46.24120219287514
 31
0.0
  0
LINE
  5
29D
330
6C
100
AcDbEntity
  8
Visible Narrow (ANSI)
100
AcDbLine
 10
92.4165248533105
 20
37.95310984809256
 30
0.0
 11
78.0976125342808
 21
46.19882305238609
 31
0.0
  0
LINE
  5
29E
330
6C
100
AcDbEntity
  8
Visible (ANSI)
100
AcDbLine
 10
92.53048481036552
 20
37.99940478876866
 30
0.0
 11
92.51027485331048
 21
37.96440017442915
 31
0.0
  0
LINE
  5
29F
330
6C
100
AcDbEntity
  8
Visible (ANSI)
100
AcDbLine
 10
92.45670342473905
 20
37.99548898858162
 30
0.0
 11
92.47691338179411
 21
38.03049360292114
 31
0.0
  0
LINE
  5
2A0
330
6C
100
AcDbEntity
  8
Visible (ANSI)
100
AcDbLine
 10
78.15800106276438
 20
46.27620680721466
 30
0.0
 11
78.13779110570935
 21
46.24120219287514
 31
0.0
  0
ELLIPSE
  5
2A1
330
6C
100
AcDbEntity
  8
Visible (ANSI)
100
AcDbEllipse
 10
92.57066338179408
 20
37.97608817815432
 30
0.0
 11
0.0401008027165859
 21
0.0696361689759615
 31
0.0
210
0.0
220
0.0
230
0.9999999999999998
 40
0.5780931159156393
 41
0.8283475791860688
 42
1.568862618371897
  0
ELLIPSE
  5
2A2
330
6C
100
AcDbEntity
  8
Visible (ANSI)
100
AcDbEllipse
 10
92.57066338179408
 20
37.97608817815432
 30
0.0
 11
0.0935685396720342
 21
0.1624843942772443
 31
0.0
210
0.0
220
0.0
230
1.0
 40
0.5780931159156393
 41
0.7834644549741619
 42
1.56886261837184
  0
ELLIPSE
  5
2A3
330
6C
100
AcDbEntity
  8
Visible (ANSI)
100
AcDbEllipse
 10
78.25175106276438
 20
46.22180138244784
 30
0.0
 11
0.0935685396720339
 21
0.1624843942772439
 31
0.0
210
0.0
220
0.0
230
0.9999999999999998
 40
0.5780931159156364
 41
0.7834644549744168
 42
1.56886261837184
  0
LINE
  5
2A4
330
6C
100
AcDbEntity
  8
Visible Narrow (ANSI)
100
AcDbLine
 10
92.57066338179413
 20
38.12937826406231
 30
0.0
 11
78.25175106276438
 21
46.37509146835582
 31
0.0
  0
LINE
  5
2A5
330
6C
100
AcDbEntity
  8
Visible Narrow (ANSI)
100
AcDbLine
 10
92.47691338179411
 20
38.03049360292114
 30
0.0
 11
78.15800106276438
 21
46.27620680721466
 31
0.0
  0
LINE
  5
2A6
330
6C
100
AcDbEntity
  8
Visible (ANSI)
100
AcDbLine
 10
92.61820229817756
 20
38.06915977050933
 30
0.0
 11
92.57066338179413
 21
38.04178392925776
 31
0.0
  0
LINE
  5
2A7
330
6C
100
AcDbEntity
  8
Visible (ANSI)
100
AcDbLine
 10
92.57066338179413
 20
38.12937826406231
 30
0.0
 11
92.60534093952013
 21
38.14934774144044
 31
0.0
  0
LINE
  5
2A8
330
6C
100
AcDbEntity
  8
Visible (ANSI)
100
AcDbLine
 10
81.73428678000373
 20
48.38055041022798
 30
0.0
 11
78.25175106276438
 21
46.37509146835582
 31
0.0
  0
LINE
  5
2A9
330
6C
100
AcDbEntity
  8
Visible Narrow (ANSI)
100
AcDbLine
 10
92.56811393035164
 20
38.0403157978135
 30
0.0
 11
92.56811393035164
 21
38.04024963704556
 31
0.0
  0
LINE
  5
2AA
330
6C
100
AcDbEntity
  8
Visible Narrow (ANSI)
100
AcDbLine
 10
81.88276418318466
 20
48.38223635969353
 30
0.0
 11
91.88821545119269
 21
42.6204801733745
 31
0.0
  0
LINE
  5
2AB
330
6C
100
AcDbEntity
  8
Visible Narrow (ANSI)
100
AcDbLine
 10
92.57066338179413
 20
38.04178392925774
 30
0.0
 11
92.56811393035164
 21
38.04031579781349
 31
0.0
  0
DIMENSION
  5
2AC
330
6C
100
AcDbEntity
  8
Dimension (ANSI)
100
AcDbDimension
  2
*D4
 10
28.30901757527735
 20
28.48960333823148
 30
0.0
 11
28.30901757527735
 21
34.48954026763237
 31
0.0
 70
   160
  1
<>{\PHEIGHT}
 71
     5
 42
11.99987385880178
  3
Default (ANSI)
100
AcDbAlignedDimension
 13
32.55528453130134
 23
40.48947719703326
 33
0.0
 14
32.71153453130131
 24
28.48960333823148
 34
0.0
 50
90.0
100
AcDbRotatedDimension
1001
ACAD
1000
DSTYLE
1002
{
1070
   289
1070
     1
1070
   271
1070
     2
1070
   272
1070
     2
1070
    48
1040
0.0
1070
    47
1040
0.0
1002
}
  0
DIMENSION
  5
3AD
330
6C
100
AcDbEntity
  8
Dimension (ANSI)
100
AcDbDimension
  2
*D5
 10
56.46153453130114
 20
43.2607956690544
 30
0.0
 11
44.39903453130123
 21
43.2607956690544
 31
0.0
 70
   160
  1
<>{\PWIDTH}
 71
     5
 42
24.12499999999981
  3
Default (ANSI)
100
AcDbAlignedDimension
 13
32.33653453130134
 23
40.27072719703325
 33
0.0
 14
56.46153453130114
 24
40.27072719703325
 34
0.0
100
AcDbRotatedDimension
1001
ACAD
1000
DSTYLE
1002
{
1070
   289
1070
     1
1070
    73
1070
     0
1070
    74
1070
     0
1070
   271
1070
     2
1070
   272
1070
     2
1070
    48
1040
0.0
1070
    47
1040
0.0
1002
}
  0
DIMENSION
  5
4AB
330
6C
100
AcDbEntity
  8
Dimension (ANSI)
100
AcDbDimension
  2
*D6
 10
22.54399559547985
 20
43.0541560089549
 30
0.0
 11
18.54399559547985
 21
43.0541560089549
 31
0.0
 70
   160
  1
<>
 42
8.000000000000005
  3
Default (ANSI)
100
AcDbAlignedDimension
 13
14.54399559547984
 23
40.27072719703325
 33
0.0
 14
22.54399559547985
 24
40.48947719703326
 34
0.0
100
AcDbRotatedDimension
1001
ACAD
1000
DSTYLE
1002
{
1070
   289
1070
     1
1070
    73
1070
     0
1070
    74
1070
     0
1070
   271
1070
     2
1070
   272
1070
     2
1070
    48
1040
0.0
1070
    47
1040
0.0
1002
}
  0
DIMENSION
  5
595
330
6C
100
AcDbEntity
  8
Dimension (ANSI)
100
AcDbDimension
  2
*D7
 10
24.12404939404749
 20
42.58047030860551
 30
0.0
 11
24.69780201063402
 21
41.99697613616463
 31
0.0
 70
   165
  1
<>
 42
1.402638200168074
  3
Default (ANSI)
100
AcDb3PointAngularDimension
 13
22.95613087399438
 23
40.48947719703326
 33
0.0
 14
22.6438934017865
 24
40.85918771230857
 34
0.0
 15
22.58113087399438
 25
40.48947719703326
 35
0.0
1001
ACAD_DSTYLE_DIMANGULAR_EXTENSION
1070
   387
1070
     1
1001
ACAD
1000
DSTYLE
1002
{
1070
   179
1070
     0
1070
   272
1070
     0
1070
    48
1040
0.0
1070
    47
1040
0.0
1002
}
  0
DIMENSION
  5
6BE
330
6C
100
AcDbEntity
  8
Dimension (ANSI)
100
AcDbDimension
  2
*D8
 10
56.46153453130541
 20
50.95251161904762
 30
0.0
 11
61.33968320488745
 21
50.95251161904762
 31
0.0
 70
   160
  1
<>{\P(2 PL.)}
 71
     5
 42
1.250000000000007
  3
Default (ANSI)
100
AcDbAlignedDimension
 13
55.2115345313054
 23
50.98736697623259
 33
0.0
 14
56.46153453130541
 24
50.97174715154122
 34
0.0
100
AcDbRotatedDimension
1001
ACAD
1000
DSTYLE
1002
{
1070
   289
1070
     1
1070
    73
1070
     0
1070
    74
1070
     0
1070
   271
1070
     2
1070
    76
1070
     1
1070
    75
1070
     1
1070
   272
1070
     2
1070
    48
1040
0.0
1070
    47
1040
0.0
1002
}
  0
DIMENSION
  5
7AD
330
6C
100
AcDbEntity
  8
Dimension (ANSI)
100
AcDbDimension
  2
*D9
 10
49.36556521224705
 20
48.39489591928235
 30
0.0
 11
47.7146090821539
 21
47.0043084944625
 31
0.0
 70
   160
  1
<>
 42
1.249999999999928
  3
Default (ANSI)
100
AcDbAlignedDimension
 13
38.03925429034458
 23
49.64489591928229
 33
0.0
 14
39.33139794717823
 24
48.39489591928236
 34
0.0
 50
270.0
100
AcDbRotatedDimension
1001
ACAD
1000
DSTYLE
1002
{
1070
   289
1070
     1
1070
   271
1070
     2
1070
    76
1070
     1
1070
    75
1070
     1
1070
   272
1070
     2
1070
    48
1040
0.0
1070
    47
1040
0.0
1002
}
  0
LINE
  5
8A1
330
6C
100
AcDbEntity
  8
Center Mark (ANSI)
  6
CHAIN
 48
0.1908618211746216
100
AcDbLine
 10
33.02403453129745
 20
15.45619518991441
 30
0.0
 11
33.02403453129745
 21
13.3936951899144
 31
0.0
  0
LINE
  5
8A2
330
6C
100
AcDbEntity
  8
Center Mark (ANSI)
  6
CHAIN
 48
0.1908618211746216
100
AcDbLine
 10
33.02403453129745
 20
20.45619518991441
 30
0.0
 11
33.02403453129745
 21
18.39369518991441
 31
0.0
  0
LINE
  5
8A3
330
6C
100
AcDbEntity
  8
Centerline (ANSI)
  6
CHAIN
 48
0.9524481296539306
100
AcDbLine
 10
33.02403453129745
 20
13.3936951899144
 30
0.0
 11
33.02403453129745
 21
20.45619518991441
 31
0.0
  0
LINE
  5
8A4
330
6C
100
AcDbEntity
  8
Center Mark (ANSI)
  6
CHAIN
 48
0.1908618211746216
100
AcDbLine
 10
34.58653453129745
 20
21.76869518991441
 30
0.0
 11
34.58653453129745
 21
19.70619518991441
 31
0.0
  0
LINE
  5
8A5
330
6C
100
AcDbEntity
  8
Center Mark (ANSI)
  6
CHAIN
 48
0.1908618211746216
100
AcDbLine
 10
54.21153453129743
 20
21.76869518991441
 30
0.0
 11
54.21153453129743
 21
19.70619518991441
 31
0.0
  0
LINE
  5
8A6
330
6C
100
AcDbEntity
  8
Centerline (ANSI)
  6
CHAIN
 48
0.9524481296539306
100
AcDbLine
 10
33.55528453129745
 20
20.73744518991441
 30
0.0
 11
55.24278453129744
 21
20.73744518991441
 31
0.0
  0
LINE
  5
8A7
330
6C
100
AcDbEntity
  8
Center Mark (ANSI)
  6
CHAIN
 48
0.1908618211746216
100
AcDbLine
 10
55.7740345312974
 20
20.45619518991443
 30
0.0
 11
55.7740345312974
 21
18.39369518991442
 31
0.0
  0
LINE
  5
8A8
330
6C
100
AcDbEntity
  8
Center Mark (ANSI)
  6
CHAIN
 48
0.1908618211746216
100
AcDbLine
 10
55.77403453129728
 20
15.45619518991442
 30
0.0
 11
55.77403453129728
 21
13.39369518991442
 31
0.0
  0
LINE
  5
8A9
330
6C
100
AcDbEntity
  8
Centerline (ANSI)
  6
CHAIN
 48
0.9524481296539306
100
AcDbLine
 10
55.77403453129742
 20
20.45619518991443
 30
0.0
 11
55.77403453129726
 21
13.39369518991442
 31
0.0
  0
DIMENSION
  5
8AA
330
6C
100
AcDbEntity
  8
Dimension (ANSI)
100
AcDbDimension
  2
*D10
 10
30.19307980688801
 20
19.42494518991441
 30
0.0
 11
30.193079806888
 21
20.42494518991437
 31
0.0
 70
   160
  1
<>
 42
1.999999999999939
  3
Default (ANSI)
100
AcDbAlignedDimension
 13
32.55528453129745
 23
21.42494518991435
 33
0.0
 14
31.99278453129745
 24
19.42494518991441
 34
0.0
 50
270.0
100
AcDbRotatedDimension
1001
ACAD
1000
DSTYLE
1002
{
1070
   289
1070
     1
1070
   271
1070
     2
1070
   272
1070
     2
1070
    48
1040
0.0
1070
    47
1040
0.0
1002
}
  0
DIMENSION
  5
99D
330
6C
100
AcDbEntity
  8
Dimension (ANSI)
100
AcDbDimension
  2
*D11
 10
27.26575576879804
 20
14.42494518991441
 30
0.0
 11
27.26575576879804
 21
17.92494518991437
 31
0.0
 70
   160
  1
<>
 42
6.999999999999939
  3
Default (ANSI)
100
AcDbAlignedDimension
 13
32.55528453129745
 23
21.42494518991435
 33
0.0
 14
31.99278453129745
 24
14.42494518991441
 34
0.0
 50
270.0
100
AcDbRotatedDimension
1001
ACAD
1000
DSTYLE
1002
{
1070
   289
1070
     1
1070
   271
1070
     2
1070
   272
1070
     2
1070
    48
1040
0.0
1070
    47
1040
0.0
1002
}
  0
DIMENSION
  5
A87
330
6C
100
AcDbEntity
  8
Dimension (ANSI)
100
AcDbDimension
  2
*D12
 10
50.50600892005933
 20
20.73744518991441
 30
0.0
 11
52.18553647914964
 21
22.82482500509269
 31
0.0
 70
   160
  1
<>
 42
0.6874999999999361
  3
Default (ANSI)
100
AcDbAlignedDimension
 13
56.24278453129745
 23
21.42494518991435
 33
0.0
 14
55.24278453129744
 24
20.73744518991441
 34
0.0
 50
270.0
100
AcDbRotatedDimension
1001
ACAD
1000
DSTYLE
1002
{
1070
   289
1070
     1
1070
   271
1070
     2
1070
    76
1070
     1
1070
    75
1070
     1
1070
   272
1070
     2
1070
    48
1040
0.0
1070
    47
1040
0.0
1002
}
  0
DIMENSION
  5
B7E
330
6C
100
AcDbEntity
  8
Dimension (ANSI)
100
AcDbDimension
  2
*D13
 10
54.21153453129743
 20
24.23156895354853
 30
0.0
 11
58.56572413699154
 21
24.23156895354853
 31
0.0
 70
   160
  1
<>
 42
2.25
  3
Default (ANSI)
100
AcDbAlignedDimension
 13
56.46153453129744
 23
21.20619518991434
 33
0.0
 14
54.21153453129743
 24
21.76869518991441
 34
0.0
 50
180.0
100
AcDbRotatedDimension
1001
ACAD
1000
DSTYLE
1002
{
1070
   289
1070
     2
1070
    73
1070
     0
1070
    74
1070
     0
1070
   271
1070
     2
1070
   272
1070
     2
1070
    48
1040
0.0
1070
    47
1040
0.0
1002
}
  0
DIMENSION
  5
C68
330
6C
100
AcDbEntity
  8
Dimension (ANSI)
100
AcDbDimension
  2
*D14
 10
34.58653453129745
 20
24.25824499769117
 30
0.0
 11
30.23234492560334
 21
24.25824499769117
 31
0.0
 70
   160
  1
<>
 42
2.25
  3
Default (ANSI)
100
AcDbAlignedDimension
 13
32.33653453129746
 23
21.20619518991435
 33
0.0
 14
34.58653453129745
 24
21.76869518991441
 34
0.0
100
AcDbRotatedDimension
1001
ACAD
1000
DSTYLE
1002
{
1070
   289
1070
     2
1070
    73
1070
     0
1070
    74
1070
     0
1070
   271
1070
     2
1070
   272
1070
     2
1070
    48
1040
0.0
1070
    47
1040
0.0
1002
}
  0
LINE
  5
D52
330
6C
100
AcDbEntity
  8
Centerline (ANSI)
  6
CHAIN
 48
0.9524481296539306
100
AcDbLine
 10
31.99278453129745
 20
19.42494518991441
 30
0.0
 11
56.8052845312974
 21
19.42494518991442
 31
0.0
  0
LINE
  5
D53
330
6C
100
AcDbEntity
  8
Centerline (ANSI)
  6
CHAIN
 48
0.9524481296539306
100
AcDbLine
 10
31.99278453129745
 20
14.42494518991441
 30
0.0
 11
56.80528453129728
 21
14.42494518991442
 31
0.0
  0
DIMENSION
  5
D54
330
6C
100
AcDbEntity
  8
Dimension (ANSI)
100
AcDbDimension
  2
*D15
 10
33.02403453129745
 20
12.40555058621406
 30
0.0
 11
28.62713720029996
 21
12.40555058621406
 31
0.0
 70
   160
  1
<>{\P(2 PL.)}
 71
     5
 42
0.6874999999999929
  3
Default (ANSI)
100
AcDbAlignedDimension
 13
32.33653453129746
 23
13.42494518991434
 33
0.0
 14
33.02403453129745
 24
13.3936951899144
 34
0.0
100
AcDbRotatedDimension
1001
ACAD
1000
DSTYLE
1002
{
1070
   289
1070
     1
1070
    73
1070
     0
1070
    74
1070
     0
1070
   271
1070
     2
1070
   272
1070
     2
1070
    48
1040
0.0
1070
    47
1040
0.0
1002
}
  0
DIMENSION
  5
E52
330
6C
100
AcDbEntity
  8
Dimension (ANSI)
100
AcDbDimension
  2
*D16
 10
55.60057366989162
 20
14.20355663542164
 30
0.0
 11
60.48764108274044
 21
17.12393056071454
 31
0.0
 70
   163
  1
<>{\P(6 PL.)}
 71
     5
 42
0.5625
  3
Default (ANSI)
100
AcDbDiametricDimension
 15
55.94749539270295
 25
14.64633374440721
 35
0.0
 40
0.0
1001
ACAD
1000
DSTYLE
1002
{
1070
   144
1040
1.000000000000012
1070
   271
1070
     3
1070
   272
1070
     2
1070
    48
1040
0.0
1070
    47
1040
0.0
1002
}
1001
ACAD_DSTYLE_DIMRADIAL_EXTENSION
1070
   387
1070
     1
1070
   388
1040
0.0
1070
   390
1040
0.0
  0
LINE
  5
F0C
330
6C
100
AcDbEntity
  8
Center Mark (ANSI)
  6
CHAIN
 48
0.1908618211746216
100
AcDbLine
 10
34.46153453130543
 20
56.17614591928229
 30
0.0
 11
34.46153453130543
 21
54.11364591928229
 31
0.0
  0
LINE
  5
F0D
330
6C
100
AcDbEntity
  8
Center Mark (ANSI)
  6
CHAIN
 48
0.1908618211746216
100
AcDbLine
 10
54.33653453130542
 20
56.17614591928229
 30
0.0
 11
54.33653453130542
 21
54.11364591928229
 31
0.0
  0
LINE
  5
F0E
330
6C
100
AcDbEntity
  8
Centerline (ANSI)
  6
CHAIN
 48
0.9524481296539306
100
AcDbLine
 10
33.43028453130542
 20
55.14489591928229
 30
0.0
 11
55.36778453130542
 21
55.14489591928229
 31
0.0
  0
LINE
  5
F0F
330
6C
100
AcDbEntity
  8
Center Mark (ANSI)
  6
CHAIN
 48
0.1908618211746216
100
AcDbLine
 10
45.43028453130542
 20
52.14489591928233
 30
0.0
 11
43.36778453130541
 21
52.14489591928233
 31
0.0
  0
LINE
  5
F10
330
6C
100
AcDbEntity
  8
Center Mark (ANSI)
  6
CHAIN
 48
0.1908618211746216
100
AcDbLine
 10
44.39903453130543
 20
53.17614591928233
 30
0.0
 11
44.39903453130543
 21
51.11364591928233
 31
0.0
  0
DIMENSION
  5
F11
330
6C
100
AcDbEntity
  8
Dimension (ANSI)
100
AcDbDimension
  2
*D17
 10
34.46153453130543
 20
58.26375619184062
 30
0.0
 11
30.23234492561134
 21
58.26375619184062
 31
0.0
 70
   160
  1
<>
 42
2.124999999999964
  3
Default (ANSI)
100
AcDbAlignedDimension
 13
32.33653453130546
 23
56.3948959192858
 33
0.0
 14
34.46153453130543
 24
56.17614591928229
 34
0.0
 50
180.0
100
AcDbRotatedDimension
1001
ACAD
1000
DSTYLE
1002
{
1070
   289
1070
     2
1070
    73
1070
     0
1070
    74
1070
     0
1070
   271
1070
     2
1070
   272
1070
     2
1070
    48
1040
0.0
1070
    47
1040
0.0
1002
}
  0
DIMENSION
  5
FFB
330
6C
100
AcDbEntity
  8
Dimension (ANSI)
100
AcDbDimension
  2
*D18
 10
44.39903453130543
 20
59.31071147653664
 30
0.0
 11
38.36778453130544
 21
59.31071147653664
 31
0.0
 70
   160
  1
<>
 42
12.06249999999996
  3
Default (ANSI)
100
AcDbAlignedDimension
 13
32.33653453130546
 23
56.3948959192858
 33
0.0
 14
44.39903453130543
 24
53.17614591928233
 34
0.0
 50
180.0
100
AcDbRotatedDimension
1001
ACAD
1000
DSTYLE
1002
{
1070
   289
1070
     1
1070
    73
1070
     0
1070
    74
1070
     0
1070
   271
1070
     2
1070
   272
1070
     2
1070
    48
1040
0.0
1070
    47
1040
0.0
1002
}
  0
DIMENSION
  5
10E5
330
6C
100
AcDbEntity
  8
Dimension (ANSI)
100
AcDbDimension
  2
*D19
 10
54.33653453130542
 20
58.20235946357319
 30
0.0
 11
58.56572413699938
 21
58.20235946357319
 31
0.0
 70
   160
  1
<>
 42
2.124999999999843
  3
Default (ANSI)
100
AcDbAlignedDimension
 13
56.46153453130526
 23
56.3948959192858
 33
0.0
 14
54.33653453130542
 24
56.17614591928229
 34
0.0
 50
180.0
100
AcDbRotatedDimension
1001
ACAD
1000
DSTYLE
1002
{
1070
   289
1070
     2
1070
    73
1070
     0
1070
    74
1070
     0
1070
   271
1070
     2
1070
   272
1070
     2
1070
    48
1040
0.0
1070
    47
1040
0.0
1002
}
  0
DIMENSION
  5
11CF
330
6C
100
AcDbEntity
  8
Dimension (ANSI)
100
AcDbDimension
  2
*D20
 10
25.48872800751154
 20
55.14489591928229
 30
0.0
 11
27.13968413760468
 21
58.01315900728201
 31
0.0
 70
   160
  1
<>
 42
1.250000000003502
  3
Default (ANSI)
100
AcDbAlignedDimension
 13
32.33653453130546
 23
56.3948959192858
 33
0.0
 14
33.43028453130542
 24
55.14489591928229
 34
0.0
 50
90.0
100
AcDbRotatedDimension
1001
ACAD
1000
DSTYLE
1002
{
1070
   289
1070
     1
1070
   271
1070
     2
1070
   272
1070
     2
1070
    48
1040
0.0
1070
    47
1040
0.0
1002
}
  0
DIMENSION
  5
12CC
330
6C
100
AcDbEntity
  8
Dimension (ANSI)
100
AcDbDimension
  2
*D21
 10
24.59676987580758
 20
52.14489591928233
 30
0.0
 11
24.59676987580758
 21
54.26989591928407
 31
0.0
 70
   160
  1
<>
 42
4.25000000000346
  3
Default (ANSI)
100
AcDbAlignedDimension
 13
32.33653453130546
 23
56.3948959192858
 33
0.0
 14
43.36778453130541
 24
52.14489591928233
 34
0.0
 50
90.0
100
AcDbRotatedDimension
1001
ACAD
1000
DSTYLE
1002
{
1070
   289
1070
     1
1070
   271
1070
     2
1070
   272
1070
     2
1070
    48
1040
0.0
1070
    47
1040
0.0
1002
}
  0
DIMENSION
  5
13BC
330
6C
100
AcDbEntity
  8
Dimension (ANSI)
100
AcDbDimension
  2
*D22
 10
44.6426041761198
 20
52.2855209192823
 30
0.0
 11
32.38471070932336
 21
46.70890756670724
 31
0.0
 70
   163
  1
<>{\P(3 PL.)}
 71
     5
 42
0.5625
  3
Default (ANSI)
100
AcDbDiametricDimension
 15
44.15546488649103
 25
52.00427091928236
 35
0.0
 40
0.0
1001
ACAD
1000
DSTYLE
1002
{
1070
   144
1040
1.0
1070
   271
1070
     3
1070
   272
1070
     3
1070
    48
1040
0.0
1070
    47
1040
0.0
1002
}
1001
ACAD_DSTYLE_DIMRADIAL_EXTENSION
1070
   387
1070
     1
1070
   388
1040
0.0
1070
   390
1040
0.0
  0
DIMENSION
  5
1475
330
6C
100
AcDbEntity
  8
Dimension (ANSI)
100
AcDbDimension
  2
*D23
 10
22.29399559547989
 20
26.12739861382203
 30
0.0
 11
18.41899559547986
 21
26.12739861382203
 31
0.0
 70
   160
  1
<>
 42
7.750000000000047
  3
Default (ANSI)
100
AcDbAlignedDimension
 13
14.54399559547984
 23
28.70822719703327
 33
0.0
 14
22.29399559547989
 24
28.48960333823148
 34
0.0
100
AcDbRotatedDimension
1001
ACAD
1000
DSTYLE
1002
{
1070
   289
1070
     1
1070
    73
1070
     0
1070
    74
1070
     0
1070
   271
1070
     2
1070
   272
1070
     2
1070
    48
1040
0.0
1070
    47
1040
0.0
1002
}
  0
LINE
  5
155F
330
6C
100
AcDbEntity
  8
Center Mark (ANSI)
  6
CHAIN
 48
0.1908618211746216
100
AcDbLine
 10
45.43028453129742
 20
17.67494518991092
 30
0.0
 11
43.36778453129741
 21
17.67494518991092
 31
0.0
  0
LINE
  5
1560
330
6C
100
AcDbEntity
  8
Center Mark (ANSI)
  6
CHAIN
 48
0.1908618211746216
100
AcDbLine
 10
44.39903453129741
 20
18.70619518991092
 30
0.0
 11
44.39903453129741
 21
16.64369518991092
 31
0.0
  0
LINE
  5
1561
330
6C
100
AcDbEntity
  8
Center Mark (ANSI)
  6
CHAIN
 48
0.1908618211746216
100
AcDbLine
 10
35.49278453129742
 20
14.67494518991089
 30
0.0
 11
33.43028453129742
 21
14.67494518991089
 31
0.0
  0
LINE
  5
1562
330
6C
100
AcDbEntity
  8
Center Mark (ANSI)
  6
CHAIN
 48
0.1908618211746216
100
AcDbLine
 10
34.46153453129742
 20
15.70619518991089
 30
0.0
 11
34.46153453129742
 21
13.64369518991089
 31
0.0
  0
LINE
  5
1563
330
6C
100
AcDbEntity
  8
Center Mark (ANSI)
  6
CHAIN
 48
0.1908618211746216
100
AcDbLine
 10
55.36778453129741
 20
14.67494518991089
 30
0.0
 11
53.30528453129741
 21
14.67494518991089
 31
0.0
  0
LINE
  5
1564
330
6C
100
AcDbEntity
  8
Center Mark (ANSI)
  6
CHAIN
 48
0.1908618211746216
100
AcDbLine
 10
54.33653453129742
 20
15.70619518991089
 30
0.0
 11
54.33653453129742
 21
13.64369518991089
 31
0.0
  0
MTEXT
  5
1565
102
{ACAD_XDICTIONARY
360
1571
102
}
330
6C
100
AcDbEntity
  8
Symbol (ANSI)
100
AcDbMText
 10
56.8836357696614
 20
5.412116792043741
 30
0.0
 40
0.6000000191485788
 41
44.3003226452925
 71
     4
 72
     1
  3
{\fRomanS|b0|i0|c0|p2;\H2x;PART#: FK1224\P(DATA SUBJECT TO CHANGE WITHOUT NOTICE)\H1.6157x; \H0.61894x;\P \H1.352x; \H0.73963x;\P\H0.6x;THIS DRAWING IS PROPERTY OF HUBBELL INC. WIEGMANN\H1.5633x; \H0.63966x;\PALL INFORMATION IS PROPRIETARY AND NOT TO
  1
 BE DUPLICATED\H1.234x; \H0.81039x;\P\H1.2571x; }
  7
Note Text (ANSI)
 73
     1
 44
0.8026435375213623
  0
ENDSEC
  0
SECTION
  2
OBJECTS
  0
DICTIONARY
  5
C
330
0
100
AcDbDictionary
281
     1
  3
ACAD_CIP_PREVIOUS_PRODUCT_INFO
350
1567
  3
ACAD_COLOR
350
63
  3
ACAD_GROUP
350
D
  3
ACAD_LAYOUT
350
62
  3
ACAD_MATERIAL
350
10
  3
ACAD_MLEADERSTYLE
350
66
  3
ACAD_MLINESTYLE
350
5F
  3
ACAD_PLOTSETTINGS
350
61
  3
ACAD_PLOTSTYLENAME
350
E
  3
ACAD_SCALELIST
350
42
  3
ACAD_TABLESTYLE
350
64
  3
ACAD_VISUALSTYLE
350
29
  3
ACDB_RECOMPOSE_DATA
350
1573
  3
AcDbVariableDictionary
350
76
  0
DICTIONARY
  5
15A9
330
F06
100
AcDbDictionary
280
     1
281
     1
  3
ACAD_MTEXT_2008_RT
360
15AA
  0
DICTIONARY
  5
15AB
330
146F
100
AcDbDictionary
280
     1
281
     1
  3
ACAD_MTEXT_2008_RT
360
15AC
  0
DICTIONARY
  5
1571
330
1565
100
AcDbDictionary
280
     1
281
     1
  3
ACAD_MTEXT_2008_RT
360
1572
  0
XRECORD
  5
1567
102
{ACAD_REACTORS
330
C
102
}
330
C
100
AcDbXrecord
280
     1
300
INVPROSA
300
2012
300
INVPROSA_F_S
  0
DICTIONARY
  5
63
102
{ACAD_REACTORS
330
C
102
}
330
C
100
AcDbDictionary
281
     1
  0
DICTIONARY
  5
D
102
{ACAD_REACTORS
330
C
102
}
330
C
100
AcDbDictionary
281
     1
  0
DICTIONARY
  5
62
102
{ACAD_REACTORS
330
C
102
}
330
C
100
AcDbDictionary
281
     1
  3
Layout1
350
6B
  3
Layout2
350
73
  3
Model
350
6F
  0
DICTIONARY
  5
10
102
{ACAD_REACTORS
330
C
102
}
330
C
100
AcDbDictionary
281
     1
  3
ByBlock
350
19
  3
ByLayer
350
11
  3
Global
350
21
  0
DICTIONARY
  5
66
102
{ACAD_REACTORS
330
C
102
}
330
C
100
AcDbDictionary
281
     1
  3
Standard
350
67
  0
DICTIONARY
  5
5F
102
{ACAD_REACTORS
330
C
102
}
330
C
100
AcDbDictionary
281
     1
  3
Standard
350
60
  0
DICTIONARY
  5
61
102
{ACAD_REACTORS
330
C
102
}
330
C
100
AcDbDictionary
281
     1
  0
ACDBDICTIONARYWDFLT
  5
E
102
{ACAD_REACTORS
330
C
102
}
330
C
100
AcDbDictionary
281
     1
  3
Normal
350
F
100
AcDbDictionaryWithDefault
340
F
  0
DICTIONARY
  5
42
102
{ACAD_REACTORS
330
C
102
}
330
C
100
AcDbDictionary
281
     1
  3
A0
350
43
  3
A1
350
44
  3
A2
350
45
  3
A3
350
46
  3
A4
350
47
  3
A5
350
48
  3
A6
350
49
  3
A7
350
4A
  3
A8
350
4B
  3
A9
350
4C
  3
B0
350
4D
  3
B1
350
4E
  3
B2
350
4F
  3
B3
350
50
  3
B4
350
51
  3
B5
350
52
  3
B6
350
53
  0
DICTIONARY
  5
64
102
{ACAD_REACTORS
330
C
102
}
330
C
100
AcDbDictionary
281
     1
  3
Standard
350
65
  0
DICTIONARY
  5
29
102
{ACAD_REACTORS
330
C
102
}
330
C
100
AcDbDictionary
281
     1
  3
2dWireframe
350
2F
  3
Basic
350
2E
  3
Brighten
350
35
  3
ColorChange
350
39
  3
Conceptual
350
32
  3
Dim
350
34
  3
EdgeColorOff
350
41
  3
Facepattern
350
38
  3
Flat
350
2A
  3
FlatWithEdges
350
2B
  3
Gouraud
350
2C
  3
GouraudWithEdges
350
2D
  3
Hidden
350
31
  3
JitterOff
350
3F
  3
Linepattern
350
37
  3
OverhangOff
350
40
  3
Realistic
350
33
  3
Shaded
350
3E
  3
Shaded with edges
350
3D
  3
Shades of Gray
350
3A
  3
Sketchy
350
3B
  3
Thicken
350
36
  3
Wireframe
350
30
  3
X-Ray
350
3C
  0
XRECORD
  5
1573
102
{ACAD_REACTORS
330
C
102
}
330
C
100
AcDbXrecord
280
     1
 90
        1
330
65
330
B7E
330
C68
330
F11
330
10E5
330
1565
  0
DICTIONARY
  5
76
102
{ACAD_REACTORS
330
C
102
}
330
C
100
AcDbDictionary
281
     1
  3
CANNOSCALE
350
79
  3
CMLEADERSTYLE
350
78
  3
CTABLESTYLE
350
77
  3
LAYEREVAL
350
156A
  3
LAYERNOTIFY
350
156B
  3
LIGHTINGUNITS
350
1569
  3
MSLTSCALE
350
1568
  3
XCLIPFRAME
350
156C
  0
XRECORD
  5
15AA
102
{ACAD_REACTORS
330
15A9
102
}
330
15A9
100
AcDbXrecord
280
     1
 40
24491.0
  1
\A1;\U+22050.563{\P(6 PL.)}
  0
XRECORD
  5
15AC
102
{ACAD_REACTORS
330
15AB
102
}
330
15AB
100
AcDbXrecord
280
     1
 40
24428.0
  1
\A1;\U+22050.563{\P(3 PL.)}
  0
XRECORD
  5
1572
102
{ACAD_REACTORS
330
1571
102
}
330
1571
100
AcDbXrecord
280
     1
 40
3027398.0
  1
\pxsm0.94;{\fRomanS|b0|i0;\H1.2000;PART#: FK1224\P(DATA SUBJECT TO CHANGE WITHOUT NOTICE)\P \P\fRomanS|b0|i0;\H0.7200;THIS DRAWING IS PROPERTY OF HUBBELL INC. WIEGMANN\PALL INFORMATION IS PROPRIETARY AND NOT TO BE DUPLICATED\P}
  0
LAYOUT
  5
6B
102
{ACAD_REACTORS
330
62
102
}
330
62
100
AcDbPlotSettings
  1

  2

  4

  6

 40
0.0
 41
0.0
 42
0.0
 43
0.0
 44
0.0
 45
0.0
 46
0.0
 47
0.0
 48
0.0
 49
0.0
140
0.0
141
0.0
142
1.0
143
1.0
 70
   688
 72
     0
 73
     0
 74
     5
  7

 75
    16
147
1.0
 76
     0
 77
     2
 78
   300
148
0.0
149
0.0
100
AcDbLayout
  1
Layout1
 70
     1
 71
     1
 10
0.0
 20
0.0
 11
12.0
 21
9.0
 12
0.0
 22
0.0
 32
0.0
 14
0.0
 24
0.0
 34
0.0
 15
0.0
 25
0.0
 35
0.0
146
0.0
 13
0.0
 23
0.0
 33
0.0
 16
1.0
 26
0.0
 36
0.0
 17
0.0
 27
1.0
 37
0.0
 76
     0
330
68
  0
LAYOUT
  5
73
102
{ACAD_REACTORS
330
62
102
}
330
62
100
AcDbPlotSettings
  1

  2

  4

  6

 40
0.0
 41
0.0
 42
0.0
 43
0.0
 44
0.0
 45
0.0
 46
0.0
 47
0.0
 48
0.0
 49
0.0
140
0.0
141
0.0
142
1.0
143
1.0
 70
   688
 72
     0
 73
     0
 74
     5
  7

 75
    16
147
1.0
 76
     0
 77
     2
 78
   300
148
0.0
149
0.0
100
AcDbLayout
  1
Layout2
 70
     1
 71
     2
 10
0.0
 20
0.0
 11
12.0
 21
9.0
 12
0.0
 22
0.0
 32
0.0
 14
0.0
 24
0.0
 34
0.0
 15
0.0
 25
0.0
 35
0.0
146
0.0
 13
0.0
 23
0.0
 33
0.0
 16
1.0
 26
0.0
 36
0.0
 17
0.0
 27
1.0
 37
0.0
 76
     0
330
70
  0
LAYOUT
  5
6F
102
{ACAD_REACTORS
330
62
102
}
330
62
100
AcDbPlotSettings
  1

  2

  4

  6

 40
0.0
 41
0.0
 42
0.0
 43
0.0
 44
0.0
 45
0.0
 46
0.0
 47
0.0
 48
0.0
 49
0.0
140
0.0
141
0.0
142
1.0
143
1.0
 70
  1712
 72
     0
 73
     0
 74
     0
  7

 75
     0
147
1.0
 76
     0
 77
     2
 78
   300
148
0.0
149
0.0
100
AcDbLayout
  1
Model
 70
     1
 71
     0
 10
0.0
 20
0.0
 11
12.0
 21
9.0
 12
0.0
 22
0.0
 32
0.0
 14
0.0
 24
0.0
 34
0.0
 15
0.0
 25
0.0
 35
0.0
146
0.0
 13
0.0
 23
0.0
 33
0.0
 16
1.0
 26
0.0
 36
0.0
 17
0.0
 27
1.0
 37
0.0
 76
     0
330
6C
  0
MATERIAL
  5
19
102
{ACAD_XDICTIONARY
360
1A
102
}
102
{ACAD_REACTORS
330
10
102
}
330
10
100
AcDbMaterial
  1
ByBlock
 72
     0
 43
0.0208333333333333
 43
0.0
 43
0.0
 43
0.0
 43
0.0
 43
0.0208333333333333
 43
0.0
 43
0.0
 43
0.0
 43
0.0
 43
1.0
 43
0.0
 43
0.0
 43
0.0
 43
0.0
 43
1.0
 77
     0
 47
0.0208333333333333
 47
0.0
 47
0.0
 47
0.0
 47
0.0
 47
0.0208333333333333
 47
0.0
 47
0.0
 47
0.0
 47
0.0
 47
1.0
 47
0.0
 47
0.0
 47
0.0
 47
0.0
 47
1.0
171
     0
 49
0.0208333333333333
 49
0.0
 49
0.0
 49
0.0
 49
0.0
 49
0.0208333333333333
 49
0.0
 49
0.0
 49
0.0
 49
0.0
 49
1.0
 49
0.0
 49
0.0
 49
0.0
 49
0.0
 49
1.0
175
     0
142
0.0208333333333333
142
0.0
142
0.0
142
0.0
142
0.0
142
0.0208333333333333
142
0.0
142
0.0
142
0.0
142
0.0
142
1.0
142
0.0
142
0.0
142
0.0
142
0.0
142
1.0
179
     0
144
0.0208333333333333
144
0.0
144
0.0
144
0.0
144
0.0
144
0.0208333333333333
144
0.0
144
0.0
144
0.0
144
0.0
144
1.0
144
0.0
144
0.0
144
0.0
144
0.0
144
1.0
147
0.0208333333333333
147
0.0
147
0.0
147
0.0
147
0.0
147
0.0208333333333333
147
0.0
147
0.0
147
0.0
147
0.0
147
1.0
147
0.0
147
0.0
147
0.0
147
0.0
147
1.0
  0
MATERIAL
  5
11
102
{ACAD_XDICTIONARY
360
12
102
}
102
{ACAD_REACTORS
330
10
102
}
330
10
100
AcDbMaterial
  1
ByLayer
 72
     0
 43
0.0208333333333333
 43
0.0
 43
0.0
 43
0.0
 43
0.0
 43
0.0208333333333333
 43
0.0
 43
0.0
 43
0.0
 43
0.0
 43
1.0
 43
0.0
 43
0.0
 43
0.0
 43
0.0
 43
1.0
 77
     0
 47
0.0208333333333333
 47
0.0
 47
0.0
 47
0.0
 47
0.0
 47
0.0208333333333333
 47
0.0
 47
0.0
 47
0.0
 47
0.0
 47
1.0
 47
0.0
 47
0.0
 47
0.0
 47
0.0
 47
1.0
171
     0
 49
0.0208333333333333
 49
0.0
 49
0.0
 49
0.0
 49
0.0
 49
0.0208333333333333
 49
0.0
 49
0.0
 49
0.0
 49
0.0
 49
1.0
 49
0.0
 49
0.0
 49
0.0
 49
0.0
 49
1.0
175
     0
142
0.0208333333333333
142
0.0
142
0.0
142
0.0
142
0.0
142
0.0208333333333333
142
0.0
142
0.0
142
0.0
142
0.0
142
1.0
142
0.0
142
0.0
142
0.0
142
0.0
142
1.0
179
     0
144
0.0208333333333333
144
0.0
144
0.0
144
0.0
144
0.0
144
0.0208333333333333
144
0.0
144
0.0
144
0.0
144
0.0
144
1.0
144
0.0
144
0.0
144
0.0
144
0.0
144
1.0
147
0.0208333333333333
147
0.0
147
0.0
147
0.0
147
0.0
147
0.0208333333333333
147
0.0
147
0.0
147
0.0
147
0.0
147
1.0
147
0.0
147
0.0
147
0.0
147
0.0
147
1.0
  0
MATERIAL
  5
21
102
{ACAD_XDICTIONARY
360
22
102
}
102
{ACAD_REACTORS
330
10
102
}
330
10
100
AcDbMaterial
  1
Global
 72
     0
 43
0.0208333333333333
 43
0.0
 43
0.0
 43
0.0
 43
0.0
 43
0.0208333333333333
 43
0.0
 43
0.0
 43
0.0
 43
0.0
 43
1.0
 43
0.0
 43
0.0
 43
0.0
 43
0.0
 43
1.0
 77
     0
 47
0.0208333333333333
 47
0.0
 47
0.0
 47
0.0
 47
0.0
 47
0.0208333333333333
 47
0.0
 47
0.0
 47
0.0
 47
0.0
 47
1.0
 47
0.0
 47
0.0
 47
0.0
 47
0.0
 47
1.0
171
     0
 49
0.0208333333333333
 49
0.0
 49
0.0
 49
0.0
 49
0.0
 49
0.0208333333333333
 49
0.0
 49
0.0
 49
0.0
 49
0.0
 49
1.0
 49
0.0
 49
0.0
 49
0.0
 49
0.0
 49
1.0
175
     0
142
0.0208333333333333
142
0.0
142
0.0
142
0.0
142
0.0
142
0.0208333333333333
142
0.0
142
0.0
142
0.0
142
0.0
142
1.0
142
0.0
142
0.0
142
0.0
142
0.0
142
1.0
179
     0
144
0.0208333333333333
144
0.0
144
0.0
144
0.0
144
0.0
144
0.0208333333333333
144
0.0
144
0.0
144
0.0
144
0.0
144
1.0
144
0.0
144
0.0
144
0.0
144
0.0
144
1.0
147
0.0208333333333333
147
0.0
147
0.0
147
0.0
147
0.0
147
0.0208333333333333
147
0.0
147
0.0
147
0.0
147
0.0
147
1.0
147
0.0
147
0.0
147
0.0
147
0.0
147
1.0
  0
MLEADERSTYLE
  5
67
102
{ACAD_XDICTIONARY
360
156F
102
}
102
{ACAD_REACTORS
330
66
102
}
330
66
100
AcDbMLeaderStyle
170
     2
171
     1
172
     0
 90
        2
 40
0.0
 41
0.0
173
     1
 91
-1056964608
340
5B
 92
       -2
290
     1
 42
0.09
291
     1
 43
0.36
  3
Standard
 44
0.18
300

342
55
174
     1
178
     6
175
     1
176
     0
 93
-1056964608
 45
0.18
292
     0
297
     0
 46
0.18
 94
-1056964608
 47
1.0
 49
1.0
140
1.0
293
     1
141
0.0
294
     1
177
     0
142
1.0
295
     0
296
     0
143
0.125
1001
ACAD_MLEADERVER
1070
     2
  0
MLINESTYLE
  5
60
102
{ACAD_REACTORS
330
5F
102
}
330
5F
100
AcDbMlineStyle
  2
STANDARD
 70
     0
  3

 62
   256
 51
90.0
 52
90.0
 71
     2
 49
0.5
 62
   256
  6
BYLAYER
 49
-0.5
 62
   256
  6
BYLAYER
  0
ACDBPLACEHOLDER
  5
F
102
{ACAD_REACTORS
330
E
102
}
330
E
  0
SCALE
  5
43
102
{ACAD_REACTORS
330
42
102
}
330
42
100
AcDbScale
 70
     0
300
1:1
140
1.0
141
1.0
290
     1
  0
SCALE
  5
44
102
{ACAD_REACTORS
330
42
102
}
330
42
100
AcDbScale
 70
     0
300
1/128" = 1'-0"
140
0.0078125
141
12.0
290
     0
  0
SCALE
  5
45
102
{ACAD_REACTORS
330
42
102
}
330
42
100
AcDbScale
 70
     0
300
1/64" = 1'-0"
140
0.015625
141
12.0
290
     0
  0
SCALE
  5
46
102
{ACAD_REACTORS
330
42
102
}
330
42
100
AcDbScale
 70
     0
300
1/32" = 1'-0"
140
0.03125
141
12.0
290
     0
  0
SCALE
  5
47
102
{ACAD_REACTORS
330
42
102
}
330
42
100
AcDbScale
 70
     0
300
1/16" = 1'-0"
140
0.0625
141
12.0
290
     0
  0
SCALE
  5
48
102
{ACAD_REACTORS
330
42
102
}
330
42
100
AcDbScale
 70
     0
300
3/32" = 1'-0"
140
0.09375
141
12.0
290
     0
  0
SCALE
  5
49
102
{ACAD_REACTORS
330
42
102
}
330
42
100
AcDbScale
 70
     0
300
1/8" = 1'-0"
140
0.125
141
12.0
290
     0
  0
SCALE
  5
4A
102
{ACAD_REACTORS
330
42
102
}
330
42
100
AcDbScale
 70
     0
300
3/16" = 1'-0"
140
0.1875
141
12.0
290
     0
  0
SCALE
  5
4B
102
{ACAD_REACTORS
330
42
102
}
330
42
100
AcDbScale
 70
     0
300
1/4" = 1'-0"
140
0.25
141
12.0
290
     0
  0
SCALE
  5
4C
102
{ACAD_REACTORS
330
42
102
}
330
42
100
AcDbScale
 70
     0
300
3/8" = 1'-0"
140
0.375
141
12.0
290
     0
  0
SCALE
  5
4D
102
{ACAD_REACTORS
330
42
102
}
330
42
100
AcDbScale
 70
     0
300
1/2" = 1'-0"
140
0.5
141
12.0
290
     0
  0
SCALE
  5
4E
102
{ACAD_REACTORS
330
42
102
}
330
42
100
AcDbScale
 70
     0
300
3/4" = 1'-0"
140
0.75
141
12.0
290
     0
  0
SCALE
  5
4F
102
{ACAD_REACTORS
330
42
102
}
330
42
100
AcDbScale
 70
     0
300
1" = 1'-0"
140
1.0
141
12.0
290
     0
  0
SCALE
  5
50
102
{ACAD_REACTORS
330
42
102
}
330
42
100
AcDbScale
 70
     0
300
1-1/2" = 1'-0"
140
1.5
141
12.0
290
     0
  0
SCALE
  5
51
102
{ACAD_REACTORS
330
42
102
}
330
42
100
AcDbScale
 70
     0
300
3" = 1'-0"
140
3.0
141
12.0
290
     0
  0
SCALE
  5
52
102
{ACAD_REACTORS
330
42
102
}
330
42
100
AcDbScale
 70
     0
300
6" = 1'-0"
140
6.0
141
12.0
290
     0
  0
SCALE
  5
53
102
{ACAD_REACTORS
330
42
102
}
330
42
100
AcDbScale
 70
     0
300
1'-0" = 1'-0"
140
12.0
141
12.0
290
     0
  0
TABLESTYLE
  5
65
102
{ACAD_XDICTIONARY
360
156D
102
}
102
{ACAD_REACTORS
330
64
102
}
330
64
100
AcDbTableStyle
  3
Standard
 70
     0
 71
     0
 40
0.06
 41
0.06
280
     0
281
     0
  7
Standard
140
0.18
170
     2
 62
     0
 63
     7
283
     0
274
    -2
284
     1
 64
     0
275
    -2
285
     1
 65
     0
276
    -2
286
     1
 66
     0
277
    -2
287
     1
 67
     0
278
    -2
288
     1
 68
     0
279
    -2
289
     1
 69
     0
  7
Standard
140
0.25
170
     5
 62
     0
 63
     7
283
     0
274
    -2
284
     1
 64
     0
275
    -2
285
     1
 65
     0
276
    -2
286
     1
 66
     0
277
    -2
287
     1
 67
     0
278
    -2
288
     1
 68
     0
279
    -2
289
     1
 69
     0
  7
Standard
140
0.18
170
     5
 62
     0
 63
     7
283
     0
274
    -2
284
     1
 64
     0
275
    -2
285
     1
 65
     0
276
    -2
286
     1
 66
     0
277
    -2
287
     1
 67
     0
278
    -2
288
     1
 68
     0
279
    -2
289
     1
 69
     0
  0
VISUALSTYLE
  5
2F
102
{ACAD_XDICTIONARY
360
1581
102
}
102
{ACAD_REACTORS
330
29
102
}
330
29
100
AcDbVisualStyle
  2
2dWireframe
 70
     4
 71
     0
 72
     2
 73
     0
 90
        0
 40
-0.6
 41
-30.0
 62
     5
 63
     7
421
 16777215
 74
     1
 91
        4
 64
     7
 65
   257
 75
     1
175
     1
 42
1.0
 92
        0
 66
   257
 43
1.0
 76
     1
 77
     6
 78
     2
 67
     7
 79
     5
170
     0
171
     0
290
     0
174
     0
 93
        1
 44
0.0
173
     0
291
     0
 45
0.0
1001
ACAD
1000
AcDbSavedByObjectVersion
1070
     0
  0
VISUALSTYLE
  5
2E
102
{ACAD_XDICTIONARY
360
157F
102
}
102
{ACAD_REACTORS
330
29
102
}
330
29
100
AcDbVisualStyle
  2
Basic
 70
     7
 71
     1
 72
     0
 73
     1
 90
        0
 40
-0.6
 41
-30.0
 62
     5
 63
     7
421
 16777215
 74
     0
 91
        4
 64
     7
 65
   257
 75
     1
175
     1
 42
1.0
 92
        8
 66
     7
 43
1.0
 76
     1
 77
     6
 78
     2
 67
     7
 79
     5
170
     0
171
     0
290
     0
174
     0
 93
        1
 44
0.0
173
     0
291
     1
 45
0.0
1001
ACAD
1000
AcDbSavedByObjectVersion
1070
     0
  0
VISUALSTYLE
  5
35
102
{ACAD_XDICTIONARY
360
158D
102
}
102
{ACAD_REACTORS
330
29
102
}
330
29
100
AcDbVisualStyle
  2
Brighten
 70
    12
 71
     2
 72
     2
 73
     0
 90
        0
 40
-0.6
 41
-30.0
 62
     5
 63
     7
421
 16777215
 74
     1
 91
        4
 64
     7
 65
   257
 75
     1
175
     1
 42
1.0
 92
        8
 66
     7
 43
1.0
 76
     1
 77
     6
 78
     2
 67
     7
 79
     5
170
     0
171
     0
290
     0
174
     0
 93
        1
 44
50.0
173
     0
291
     1
 45
0.0
1001
ACAD
1000
AcDbSavedByObjectVersion
1070
     0
  0
VISUALSTYLE
  5
39
102
{ACAD_XDICTIONARY
360
1595
102
}
102
{ACAD_REACTORS
330
29
102
}
330
29
100
AcDbVisualStyle
  2
ColorChange
 70
    16
 71
     2
 72
     2
 73
     3
 90
        0
 40
-0.6
 41
-30.0
 62
     5
 63
     8
421
  8421504
 74
     1
 91
        4
 64
     7
 65
   257
 75
     1
175
     1
 42
1.0
 92
        8
 66
     8
424
  8421504
 43
1.0
 76
     1
 77
     6
 78
     2
 67
     7
 79
     5
170
     0
171
     0
290
     0
174
     0
 93
        1
 44
0.0
173
     0
291
     1
 45
0.0
1001
ACAD
1000
AcDbSavedByObjectVersion
1070
     0
  0
VISUALSTYLE
  5
32
102
{ACAD_XDICTIONARY
360
1587
102
}
102
{ACAD_REACTORS
330
29
102
}
330
29
100
AcDbVisualStyle
  2
Conceptual
 70
     9
 71
     3
 72
     2
 73
     0
 90
        0
 40
-0.6
 41
-30.0
 62
     5
 63
     7
421
 16777215
 74
     2
 91
        2
 64
     7
 65
   257
 75
     1
175
     1
 42
179.0
 92
        8
 66
     7
 43
1.0
 76
     1
 77
     6
 78
     2
 67
     7
 79
     3
170
     0
171
     0
290
     0
174
     0
 93
        1
 44
0.0
173
     0
291
     0
 45
0.0
1001
ACAD
1000
AcDbSavedByObjectVersion
1070
     0
  0
VISUALSTYLE
  5
34
102
{ACAD_XDICTIONARY
360
158B
102
}
102
{ACAD_REACTORS
330
29
102
}
330
29
100
AcDbVisualStyle
  2
Dim
 70
    11
 71
     2
 72
     2
 73
     0
 90
        0
 40
-0.6
 41
-30.0
 62
     5
 63
     7
421
 16777215
 74
     1
 91
        4
 64
     7
 65
   257
 75
     1
175
     1
 42
1.0
 92
        8
 66
     7
 43
1.0
 76
     1
 77
     6
 78
     2
 67
     7
 79
     5
170
     0
171
     0
290
     0
174
     0
 93
        1
 44
-50.0
173
     0
291
     1
 45
0.0
1001
ACAD
1000
AcDbSavedByObjectVersion
1070
     0
  0
VISUALSTYLE
  5
41
102
{ACAD_XDICTIONARY
360
15A5
102
}
102
{ACAD_REACTORS
330
29
102
}
330
29
100
AcDbVisualStyle
  2
EdgeColorOff
 70
    22
 71
     2
 72
     2
 73
     0
 90
        0
 40
-0.6
 41
-30.0
 62
     5
 63
     7
421
 16777215
 74
     1
 91
        4
 64
     7
 65
   257
 75
     1
175
     1
 42
1.0
 92
        8
 66
     7
 43
1.0
 76
     1
 77
     6
 78
     2
 67
     7
 79
     5
170
     0
171
     0
290
     0
174
     0
 93
        1
 44
0.0
173
     0
291
     1
 45
0.0
1001
ACAD
1000
AcDbSavedByObjectVersion
1070
     0
  0
VISUALSTYLE
  5
38
102
{ACAD_XDICTIONARY
360
1593
102
}
102
{ACAD_REACTORS
330
29
102
}
330
29
100
AcDbVisualStyle
  2
Facepattern
 70
    15
 71
     2
 72
     2
 73
     0
 90
        0
 40
-0.6
 41
-30.0
 62
     5
 63
     7
421
 16777215
 74
     1
 91
        4
 64
     7
 65
   257
 75
     1
175
     1
 42
1.0
 92
        8
 66
     7
 43
1.0
 76
     1
 77
     6
 78
     2
 67
     7
 79
     5
170
     0
171
     0
290
     0
174
     0
 93
        1
 44
0.0
173
     0
291
     1
 45
0.0
1001
ACAD
1000
AcDbSavedByObjectVersion
1070
     0
  0
VISUALSTYLE
  5
2A
102
{ACAD_XDICTIONARY
360
1577
102
}
102
{ACAD_REACTORS
330
29
102
}
330
29
100
AcDbVisualStyle
  2
Flat
 70
     0
 71
     2
 72
     1
 73
     1
 90
        2
 40
-0.6
 41
30.0
 62
     5
 63
     7
421
 16777215
 74
     0
 91
        0
 64
     7
 65
   257
 75
     1
175
     1
 42
1.0
 92
        8
 66
     7
 43
1.0
 76
     1
 77
     6
 78
     2
 67
     7
 79
     5
170
     0
171
     0
290
     0
174
     0
 93
       13
 44
0.0
173
     0
291
     1
 45
0.0
1001
ACAD
1000
AcDbSavedByObjectVersion
1070
     0
  0
VISUALSTYLE
  5
2B
102
{ACAD_XDICTIONARY
360
1579
102
}
102
{ACAD_REACTORS
330
29
102
}
330
29
100
AcDbVisualStyle
  2
FlatWithEdges
 70
     1
 71
     2
 72
     1
 73
     1
 90
        2
 40
-0.6
 41
30.0
 62
     5
 63
     7
421
 16777215
 74
     1
 91
        0
 64
     7
 65
   257
 75
     1
175
     1
 42
1.0
 92
        0
 66
   257
 43
1.0
 76
     1
 77
     6
 78
     2
 67
     7
 79
     5
170
     0
171
     0
290
     0
174
     0
 93
       13
 44
0.0
173
     0
291
     1
 45
0.0
1001
ACAD
1000
AcDbSavedByObjectVersion
1070
     0
  0
VISUALSTYLE
  5
2C
102
{ACAD_XDICTIONARY
360
157B
102
}
102
{ACAD_REACTORS
330
29
102
}
330
29
100
AcDbVisualStyle
  2
Gouraud
 70
     2
 71
     2
 72
     2
 73
     1
 90
        2
 40
-0.6
 41
30.0
 62
     5
 63
     7
421
 16777215
 74
     0
 91
        0
 64
     7
 65
   257
 75
     1
175
     1
 42
1.0
 92
        0
 66
     7
 43
1.0
 76
     1
 77
     6
 78
     2
 67
     7
 79
     5
170
     0
171
     0
290
     0
174
     0
 93
       13
 44
0.0
173
     0
291
     1
 45
0.0
1001
ACAD
1000
AcDbSavedByObjectVersion
1070
     0
  0
VISUALSTYLE
  5
2D
102
{ACAD_XDICTIONARY
360
157D
102
}
102
{ACAD_REACTORS
330
29
102
}
330
29
100
AcDbVisualStyle
  2
GouraudWithEdges
 70
     3
 71
     2
 72
     2
 73
     1
 90
        2
 40
-0.6
 41
30.0
 62
     5
 63
     7
421
 16777215
 74
     1
 91
        0
 64
     7
 65
   257
 75
     1
175
     1
 42
1.0
 92
        0
 66
   257
 43
1.0
 76
     1
 77
     6
 78
     2
 67
     7
 79
     5
170
     0
171
     0
290
     0
174
     0
 93
       13
 44
0.0
173
     0
291
     1
 45
0.0
1001
ACAD
1000
AcDbSavedByObjectVersion
1070
     0
  0
VISUALSTYLE
  5
31
102
{ACAD_XDICTIONARY
360
1585
102
}
102
{ACAD_REACTORS
330
29
102
}
330
29
100
AcDbVisualStyle
  2
Hidden
 70
     6
 71
     1
 72
     2
 73
     2
 90
        0
 40
-0.6
 41
-30.0
 62
     5
 63
     7
421
 16777215
 74
     2
 91
        2
 64
     7
 65
   257
 75
     2
175
     1
 42
40.0
 92
        0
 66
   257
 43
1.0
 76
     1
 77
     6
 78
     2
 67
     7
 79
     3
170
     0
171
     0
290
     0
174
     0
 93
        1
 44
0.0
173
     0
291
     0
 45
0.0
1001
ACAD
1000
AcDbSavedByObjectVersion
1070
     0
  0
VISUALSTYLE
  5
3F
102
{ACAD_XDICTIONARY
360
15A1
102
}
102
{ACAD_REACTORS
330
29
102
}
330
29
100
AcDbVisualStyle
  2
JitterOff
 70
    20
 71
     2
 72
     2
 73
     0
 90
        0
 40
-0.6
 41
-30.0
 62
     5
 63
     7
421
 16777215
 74
     1
 91
        4
 64
     7
 65
   257
 75
     1
175
     1
 42
1.0
 92
       10
 66
     7
 43
1.0
 76
     1
 77
     6
 78
     2
 67
     7
 79
     5
170
     0
171
     0
290
     0
174
     0
 93
        1
 44
0.0
173
     0
291
     1
 45
0.0
1001
ACAD
1000
AcDbSavedByObjectVersion
1070
     0
  0
VISUALSTYLE
  5
37
102
{ACAD_XDICTIONARY
360
1591
102
}
102
{ACAD_REACTORS
330
29
102
}
330
29
100
AcDbVisualStyle
  2
Linepattern
 70
    14
 71
     2
 72
     2
 73
     0
 90
        0
 40
-0.6
 41
-30.0
 62
     5
 63
     7
421
 16777215
 74
     1
 91
        4
 64
     7
 65
   257
 75
     7
175
     7
 42
1.0
 92
        8
 66
     7
 43
1.0
 76
     1
 77
     6
 78
     2
 67
     7
 79
     5
170
     0
171
     0
290
     0
174
     0
 93
        1
 44
0.0
173
     0
291
     1
 45
0.0
1001
ACAD
1000
AcDbSavedByObjectVersion
1070
     0
  0
VISUALSTYLE
  5
40
102
{ACAD_XDICTIONARY
360
15A3
102
}
102
{ACAD_REACTORS
330
29
102
}
330
29
100
AcDbVisualStyle
  2
OverhangOff
 70
    21
 71
     2
 72
     2
 73
     0
 90
        0
 40
-0.6
 41
-30.0
 62
     5
 63
     7
421
 16777215
 74
     1
 91
        4
 64
     7
 65
   257
 75
     1
175
     1
 42
1.0
 92
        9
 66
     7
 43
1.0
 76
     1
 77
     6
 78
     2
 67
     7
 79
     5
170
     0
171
     0
290
     0
174
     0
 93
        1
 44
0.0
173
     0
291
     1
 45
0.0
1001
ACAD
1000
AcDbSavedByObjectVersion
1070
     0
  0
VISUALSTYLE
  5
33
102
{ACAD_XDICTIONARY
360
1589
102
}
102
{ACAD_REACTORS
330
29
102
}
330
29
100
AcDbVisualStyle
  2
Realistic
 70
     8
 71
     2
 72
     3
 73
     0
 90
        2
 40
-0.6
 41
30.0
 62
     5
 63
     7
421
 16777215
 74
     0
 91
        0
 64
     7
 65
   257
 75
     1
175
     1
 42
1.0
 92
        8
 66
   257
 43
1.0
 76
     1
 77
     6
 78
     2
 67
     7
 79
     3
170
     0
171
     0
290
     0
174
     0
 93
       13
 44
0.0
173
     0
291
     0
 45
0.0
1001
ACAD
1000
AcDbSavedByObjectVersion
1070
     0
  0
VISUALSTYLE
  5
3E
102
{ACAD_XDICTIONARY
360
159F
102
}
102
{ACAD_REACTORS
330
29
102
}
330
29
100
AcDbVisualStyle
  2
Shaded
 70
    27
 71
     2
 72
     2
 73
     1
 90
        2
 40
-0.6
 41
30.0
 62
     5
 63
     7
421
 16777215
 74
     0
 91
        4
 64
     7
 65
   257
 75
     1
175
     1
 42
1.0
 92
        8
 66
   257
 43
1.0
 76
     1
 77
     6
 78
     2
 67
     8
425
  7895160
 79
     3
170
     0
171
     0
290
     0
174
     0
 93
        5
 44
0.0
173
     0
291
     0
 45
0.0
1001
ACAD
1000
AcDbSavedByObjectVersion
1070
     0
  0
VISUALSTYLE
  5
3D
102
{ACAD_XDICTIONARY
360
159D
102
}
102
{ACAD_REACTORS
330
29
102
}
330
29
100
AcDbVisualStyle
  2
Shaded with edges
 70
    26
 71
     2
 72
     2
 73
     1
 90
        2
 40
-0.6
 41
30.0
 62
     5
 63
     7
421
 16777215
 74
     1
 91
       10
 64
     7
 65
   257
 75
     2
175
     1
 42
1.0
 92
        8
 66
   257
 43
1.0
 76
     1
 77
     6
 78
     2
 67
     7
 79
     3
170
     0
171
     0
290
     0
174
     0
 93
        5
 44
0.0
173
     0
291
     0
 45
0.0
1001
ACAD
1000
AcDbSavedByObjectVersion
1070
     0
  0
VISUALSTYLE
  5
3A
102
{ACAD_XDICTIONARY
360
1597
102
}
102
{ACAD_REACTORS
330
29
102
}
330
29
100
AcDbVisualStyle
  2
Shades of Gray
 70
    23
 71
     2
 72
     2
 73
     3
 90
        0
 40
-0.6
 41
-30.0
 62
     5
 63
     7
421
 16777215
 74
     2
 91
        2
 64
     7
 65
     7
 75
     1
175
     1
 42
40.0
 92
        8
 66
     7
 43
1.0
 76
     1
 77
     6
 78
     2
 67
     7
 79
     3
170
     0
171
     0
290
     0
174
     0
 93
        1
 44
0.0
173
     0
291
     0
 45
0.0
1001
ACAD
1000
AcDbSavedByObjectVersion
1070
     0
  0
VISUALSTYLE
  5
3B
102
{ACAD_XDICTIONARY
360
1599
102
}
102
{ACAD_REACTORS
330
29
102
}
330
29
100
AcDbVisualStyle
  2
Sketchy
 70
    24
 71
     1
 72
     2
 73
     2
 90
        0
 40
-0.6
 41
-30.0
 62
     5
 63
     7
421
 16777215
 74
     2
 91
        2
 64
     7
 65
     7
 75
     1
175
     1
 42
40.0
 92
       11
 66
     7
 43
1.0
 76
     1
 77
     6
 78
     2
 67
     7
 79
     6
170
     0
171
     0
290
     0
174
     0
 93
        1
 44
0.0
173
     0
291
     0
 45
0.0
1001
ACAD
1000
AcDbSavedByObjectVersion
1070
     0
  0
VISUALSTYLE
  5
36
102
{ACAD_XDICTIONARY
360
158F
102
}
102
{ACAD_REACTORS
330
29
102
}
330
29
100
AcDbVisualStyle
  2
Thicken
 70
    13
 71
     2
 72
     2
 73
     0
 90
        0
 40
-0.6
 41
-30.0
 62
     5
 63
     7
421
 16777215
 74
     1
 91
        4
 64
     7
 65
   257
 75
     1
175
     1
 42
1.0
 92
       12
 66
     7
 43
1.0
 76
     1
 77
     6
 78
     2
 67
     7
 79
     5
170
     0
171
     0
290
     0
174
     0
 93
        1
 44
0.0
173
     0
291
     1
 45
0.0
1001
ACAD
1000
AcDbSavedByObjectVersion
1070
     0
  0
VISUALSTYLE
  5
30
102
{ACAD_XDICTIONARY
360
1583
102
}
102
{ACAD_REACTORS
330
29
102
}
330
29
100
AcDbVisualStyle
  2
Wireframe
 70
     5
 71
     0
 72
     2
 73
     0
 90
        0
 40
-0.6
 41
-30.0
 62
     5
 63
     7
421
 16777215
 74
     1
 91
        4
 64
     7
 65
   257
 75
     1
175
     1
 42
1.0
 92
        0
 66
   257
 43
1.0
 76
     1
 77
     6
 78
     2
 67
     7
 79
     3
170
     0
171
     0
290
     0
174
     0
 93
        1
 44
0.0
173
     0
291
     0
 45
0.0
1001
ACAD
1000
AcDbSavedByObjectVersion
1070
     0
  0
VISUALSTYLE
  5
3C
102
{ACAD_XDICTIONARY
360
159B
102
}
102
{ACAD_REACTORS
330
29
102
}
330
29
100
AcDbVisualStyle
  2
X-Ray
 70
    25
 71
     2
 72
     2
 73
     1
 90
        1
 40
0.5
 41
-30.0
 62
     5
 63
     7
421
 16777215
 74
     1
 91
        0
 64
     7
 65
   257
 75
     1
175
     1
 42
1.0
 92
        8
 66
     7
 43
1.0
 76
     1
 77
     6
 78
     2
 67
     7
 79
     3
170
     0
171
     0
290
     0
174
     0
 93
       13
 44
0.0
173
     0
291
     0
 45
0.0
1001
ACAD
1000
AcDbSavedByObjectVersion
1070
     0
  0
DICTIONARYVAR
  5
79
102
{ACAD_REACTORS
330
76
102
}
330
76
100
DictionaryVariables
280
     0
  1
1:1
  0
DICTIONARYVAR
  5
78
102
{ACAD_REACTORS
330
76
102
}
330
76
100
DictionaryVariables
280
     0
  1
STANDARD
  0
DICTIONARYVAR
  5
77
102
{ACAD_REACTORS
330
76
102
}
330
76
100
DictionaryVariables
280
     0
  1
STANDARD
  0
DICTIONARYVAR
  5
156A
102
{ACAD_REACTORS
330
76
102
}
330
76
100
DictionaryVariables
280
     0
  1
0
  0
DICTIONARYVAR
  5
156B
102
{ACAD_REACTORS
330
76
102
}
330
76
100
DictionaryVariables
280
     0
  1
0
  0
DICTIONARYVAR
  5
1569
102
{ACAD_REACTORS
330
76
102
}
330
76
100
DictionaryVariables
280
     0
  1
2
  0
DICTIONARYVAR
  5
1568
102
{ACAD_REACTORS
330
76
102
}
330
76
100
DictionaryVariables
280
     0
  1
1
  0
DICTIONARYVAR
  5
156C
102
{ACAD_REACTORS
330
76
102
}
330
76
100
DictionaryVariables
280
     0
  1
2
  0
DICTIONARY
  5
1A
330
19
100
AcDbDictionary
280
     1
281
     1
  3
ACAD_XREC_ROUNDTRIP
360
1575
  3
BUMPTILE
360
1C
  3
DIFFUSETILE
360
1B
  3
OPACITYTILE
360
1F
  3
REFLECTIONTILE
360
1E
  3
REFRACTIONTILE
360
20
  3
SPECULARTILE
360
1D
  0
DICTIONARY
  5
12
330
11
100
AcDbDictionary
280
     1
281
     1
  3
ACAD_XREC_ROUNDTRIP
360
1574
  3
BUMPTILE
360
14
  3
DIFFUSETILE
360
13
  3
FBXASSET
360
F5
  3
OPACITYTILE
360
17
  3
REFLECTIONTILE
360
16
  3
REFRACTIONTILE
360
18
  3
SPECULARTILE
360
15
  0
DICTIONARY
  5
22
330
21
100
AcDbDictionary
280
     1
281
     1
  3
ACAD_XREC_ROUNDTRIP
360
1576
  3
BUMPTILE
360
24
  3
DIFFUSETILE
360
23
  3
FBXASSET
360
BA
  3
OPACITYTILE
360
27
  3
REFLECTIONTILE
360
26
  3
REFRACTIONTILE
360
28
  3
SPECULARTILE
360
25
  0
DICTIONARY
  5
156F
330
67
100
AcDbDictionary
280
     1
281
     1
  3
ACAD_XREC_ROUNDTRIP
360
1570
  0
DICTIONARY
  5
156D
330
65
100
AcDbDictionary
280
     1
281
     1
  3
ACAD_ROUNDTRIP_2008_TABLESTYLE_CELLSTYLEMAP
360
156E
  3
ACAD_XREC_ROUNDTRIP
360
15A7
  0
DICTIONARY
  5
1581
330
2F
100
AcDbDictionary
280
     1
281
     1
  3
ACAD_XREC_ROUNDTRIP
360
1582
  0
DICTIONARY
  5
157F
330
2E
100
AcDbDictionary
280
     1
281
     1
  3
ACAD_XREC_ROUNDTRIP
360
1580
  0
DICTIONARY
  5
158D
330
35
100
AcDbDictionary
280
     1
281
     1
  3
ACAD_XREC_ROUNDTRIP
360
158E
  0
DICTIONARY
  5
1595
330
39
100
AcDbDictionary
280
     1
281
     1
  3
ACAD_XREC_ROUNDTRIP
360
1596
  0
DICTIONARY
  5
1587
330
32
100
AcDbDictionary
280
     1
281
     1
  3
ACAD_XREC_ROUNDTRIP
360
1588
  0
DICTIONARY
  5
158B
330
34
100
AcDbDictionary
280
     1
281
     1
  3
ACAD_XREC_ROUNDTRIP
360
158C
  0
DICTIONARY
  5
15A5
330
41
100
AcDbDictionary
280
     1
281
     1
  3
ACAD_XREC_ROUNDTRIP
360
15A6
  0
DICTIONARY
  5
1593
330
38
100
AcDbDictionary
280
     1
281
     1
  3
ACAD_XREC_ROUNDTRIP
360
1594
  0
DICTIONARY
  5
1577
330
2A
100
AcDbDictionary
280
     1
281
     1
  3
ACAD_XREC_ROUNDTRIP
360
1578
  0
DICTIONARY
  5
1579
330
2B
100
AcDbDictionary
280
     1
281
     1
  3
ACAD_XREC_ROUNDTRIP
360
157A
  0
DICTIONARY
  5
157B
330
2C
100
AcDbDictionary
280
     1
281
     1
  3
ACAD_XREC_ROUNDTRIP
360
157C
  0
DICTIONARY
  5
157D
330
2D
100
AcDbDictionary
280
     1
281
     1
  3
ACAD_XREC_ROUNDTRIP
360
157E
  0
DICTIONARY
  5
1585
330
31
100
AcDbDictionary
280
     1
281
     1
  3
ACAD_XREC_ROUNDTRIP
360
1586
  0
DICTIONARY
  5
15A1
330
3F
100
AcDbDictionary
280
     1
281
     1
  3
ACAD_XREC_ROUNDTRIP
360
15A2
  0
DICTIONARY
  5
1591
330
37
100
AcDbDictionary
280
     1
281
     1
  3
ACAD_XREC_ROUNDTRIP
360
1592
  0
DICTIONARY
  5
15A3
330
40
100
AcDbDictionary
280
     1
281
     1
  3
ACAD_XREC_ROUNDTRIP
360
15A4
  0
DICTIONARY
  5
1589
330
33
100
AcDbDictionary
280
     1
281
     1
  3
ACAD_XREC_ROUNDTRIP
360
158A
  0
DICTIONARY
  5
159F
330
3E
100
AcDbDictionary
280
     1
281
     1
  3
ACAD_XREC_ROUNDTRIP
360
15A0
  0
DICTIONARY
  5
159D
330
3D
100
AcDbDictionary
280
     1
281
     1
  3
ACAD_XREC_ROUNDTRIP
360
159E
  0
DICTIONARY
  5
1597
330
3A
100
AcDbDictionary
280
     1
281
     1
  3
ACAD_XREC_ROUNDTRIP
360
1598
  0
DICTIONARY
  5
1599
330
3B
100
AcDbDictionary
280
     1
281
     1
  3
ACAD_XREC_ROUNDTRIP
360
159A
  0
DICTIONARY
  5
158F
330
36
100
AcDbDictionary
280
     1
281
     1
  3
ACAD_XREC_ROUNDTRIP
360
1590
  0
DICTIONARY
  5
1583
330
30
100
AcDbDictionary
280
     1
281
     1
  3
ACAD_XREC_ROUNDTRIP
360
1584
  0
DICTIONARY
  5
159B
330
3C
100
AcDbDictionary
280
     1
281
     1
  3
ACAD_XREC_ROUNDTRIP
360
159C
  0
XRECORD
  5
1575
102
{ACAD_REACTORS
330
1A
102
}
330
1A
100
AcDbXrecord
280
     1
102
MATERIAL
148
0.0
149
0.0
149
0.0
 93
        0
 94
      127
282
     0
 72
     0
 77
     0
171
     0
175
     0
179
     0
273
     0
  0
XRECORD
  5
1C
102
{ACAD_REACTORS
330
1A
102
}
330
1A
100
AcDbXrecord
280
     1
270
     1
271
     1
  0
XRECORD
  5
1B
102
{ACAD_REACTORS
330
1A
102
}
330
1A
100
AcDbXrecord
280
     1
270
     1
271
     1
  0
XRECORD
  5
1F
102
{ACAD_REACTORS
330
1A
102
}
330
1A
100
AcDbXrecord
280
     1
270
     1
271
     1
  0
XRECORD
  5
1E
102
{ACAD_REACTORS
330
1A
102
}
330
1A
100
AcDbXrecord
280
     1
270
     1
271
     1
  0
XRECORD
  5
20
102
{ACAD_REACTORS
330
1A
102
}
330
1A
100
AcDbXrecord
280
     1
270
     1
271
     1
  0
XRECORD
  5
1D
102
{ACAD_REACTORS
330
1A
102
}
330
1A
100
AcDbXrecord
280
     1
270
     1
271
     1
  0
XRECORD
  5
1574
102
{ACAD_REACTORS
330
12
102
}
330
12
100
AcDbXrecord
280
     1
102
MATERIAL
148
0.0
149
0.0
149
0.0
 93
        0
 94
      127
282
     0
 72
     0
 77
     0
171
     0
175
     0
179
     0
273
     0
  0
XRECORD
  5
14
102
{ACAD_REACTORS
330
12
102
}
330
12
100
AcDbXrecord
280
     1
270
     1
271
     1
  0
XRECORD
  5
13
102
{ACAD_REACTORS
330
12
102
}
330
12
100
AcDbXrecord
280
     1
270
     1
271
     1
  0
XRECORD
  5
F5
102
{ACAD_REACTORS
330
12
102
}
330
12
100
AcDbXrecord
280
     1
 70
     1
 90
1959938040
 71
     1
  1
EC676C81-769E-40DD-B129-3AD24170886E
311
504B03040A0000080000A2A0AF423DEE336E79000000790000001B0000006175746F6465736B2D64657369676E2D7061636B6167652E786D6C3C3F786D6C2076657273696F6E3D22312E302220656E636F64696E673D227574662D3822203F3E3C666F726D6174733E3C666F726D61743E687474703A2F2F736368656D612E
311
6175746F6465736B2E636F6D2F64657369676E2D7061636B6167652F323030393C2F666F726D61743E3C2F666F726D6174733E504B0304140006080800A2A0AF42D486FD9CA0000000F4000000130000005B436F6E74656E745F54797065735D2E786D6C7D8EC10E82300C865F65E91D8A1E8C310C0EEA1BF002731658846E
311
D98AC1B77784ABF1D8FE5FBFBF75BBCE937A534CCEB38643598122B6FEE978D0B0485F9C41B54DDD7D022595594E1A469170414C76A4D9A4D207E29CF43ECE46F218070CC6BECC4078ACAA135ACF422C856C0E68EA1BF5669944DDD7BCDE7B1F8E415D77AECB980613C2E4AC91FC167A2B244592486606FC29C8FD7F045B9A
311
EF7053A7E60B504B0304140006080800A2A0AF42C990103CE90000007C01000008000000636F72652E786D6C8D90E16AC32014855F45EEDF6162346EED3096652C4FB01710B5A9B4D110B5F4F167DA14B67F03F15E8EE7F35E8E38DCA60BBADA25BAE03B682A02C87A1D8CF36307391DF10ED0418A2584F4CB06C8ABC976B0
311
CA20C5B8843C6F920E3E599F8AEA83B19BA862B40990BE94A683A84F765295CAA938E2B99A953EABD156CDB32B70CECEA0C71067CA7FEEE8EC02B2E7FBB6E78C633ABCED70DB7E10DCEF874FCCD8573BD07E782594897A85A5486E7ACED78B55C91A9094340C138E1BFE4DC93BE1E5BC949B1151AFF63F509ECD3FA1EC7C62
311
745BF78145904D59E4FE2045BD6651CA3DA852D7DCE40F504B0304140006080800A2A0AF4255019EA25F0000007C00000007000000636E782E786D6C4DCB3B0E80201045D1AD90E915ED2CF8AC45050C11660C8261F98AB1B07AC9C97D42D718D865D3E909258CFD00CCE24AC6E326A164D74DC0B4128928FF326038472BA1
311
3128B1252AC747C6BAB984FC68F0B87FE8960A5C09FE86CFB69FBA01504B0304140006080800A2A0AF4288EE64A864010000020300000C0000006662782F636F72652E786D6C8D525B6E833010BC8AE5DFCAD8BCDAA4328E4A554ED00B38E05014B091B1518EDFE511D154511481166BF631B383F9E1D2B5685476688CCE70
311
18308C942E4DD5E83AC3DE9DC80EA383E0D618F7A70C232D3B95E109C682D7D6F87E854AA39DD20E506D2AB582721894C3A86CE190E1A1FC519D0CA47750319C835E966759AB200C200D75820FCE8200B4904C118BD3F1C2E9820BEE7D53ADD9A602B6E6D4288B459EEE933C8D5312156F3B92241F8CE4FBE293C4F1575244
311
79F1CAA298D3A95970D7745775A555D2A90A8B888531612909D3EF88BDB314DE178831E3742ABF69F27DF564936FB48BA355EED2366011829039F16F5BB0C8A1418EA0870A4E2713E1333B7C6B341802263B796CAF7B9C011A55E98C4D205319BFA546D97A05AC0CCD0FA74B1626CF0360B3BB73A207731ECF801F28750DD2
311
A483E3D1BB899D2FACAB15BDB2647417A48DED64BB895B246E7123BADB5E9AD6D867BAE9BA2A5DCDA4D3ED15BF504B0304140006080800A2A0AF422FD532307E0000009D0000000B0000006662782F636E782E786D6C4DCCD10A83201886E15B91FFDC9569A1A0C666DB7DC4B290990EA76397BF1A1DECE883878F57F69FD5
311
A3B74D2F17830272AA01D9708F930B8B829267CC01F55AA618F3DF0D501857AB6067D07249B13C0F9AEC3C169F37F52E3C0E34947417DE084CA9309831C131BF0D576CCE6D63C8C0EAB633506959FD4ADBEE61FD05504B0304140006080800A2A0AF42E5F2BA4E2B01000015020000310000006662782F4333313642383239
311
2D333339432D343439382D384644452D4341353243314434303536432F636F72652E786D6C8D51ED6E83300C7C9528BF364D8104088329A4DAE8F6047B010A6917B524281F531F7FCEA0D2F6AF526447F6DDF9648BDD75BEA06FE5BCB6A6C32CA3182933DA499B538763389206A39D14CEDAF00786911966D5E154C6529C9C
311
8DCB561AAD09CA04A81A3BA9AD3878AF0246E3053E1DF6E3979A876C880110FE9C2DC3781E4E2A6319B40127850F0E0CA075488A58F625ABDF9AA22565D9F6A4AADA86341FFB77D2BFF2A267FB8AF2BA17F94A9422463D6D743D811D7DD4CADD2B92C852043DDFEC8F4E0D414D581694958472C2F867415F2887F704B1A422
311
4FF07FA4B84C7792A236A12C36BB2BCD63C944BE36A4986C3C5C6E66D475B12EA034EFC1ABF1114B9A51FADCB455C181B3626103205A579BA80FD6C1861FCE078033BE2AD79514793A12A4DF0B424E07953F504B0304140006080800A2A0AF427762A3A84D01000033030000300000006662782F43333136423832392D3333
311
39432D343439382D384644452D4341353243314434303536432F636E782E786D6CD593CB6AC33010457F45685B6CD979518AAC4017FD822EBA95A549A246968C1EA5F9FB8E1225CD268B2E0B663077CEDC192E36DF7E4F967C4188C6BB81F66D470938E5B571FB81E6B46B9E29D90A1EBC4F7718254E4E30D02253C1F7C1E7
311
B94A1A7632DB84AA35EE58C500D1E7A020A25C2689F54A5A3400D76414611A416BD0E406E2DB0E029E82E27822E900E4EDF583F8F113548A9C1517C159D92178A975D31D4489B232C68146758049B63227AF211E5B2D936CFBF6BAEBC14DBF4EA40C5C57E66048593ED052A9A817B5982367D8143CA680E955289D66A042CE
311
B3354A260C999DC10B2378362E6D569535187C40BADF2C572B343BF7044F66824AA8003281A662D1F5CBA65B37FDFA7DD1BD746B7C9EB02E3BCE0A2EF8E8BDAD436803C1CF447997C0252A7ACE4AFB517C9523DA04CCDA87D31F82C400EAD64B3A378FFF9C0F3B7FDF1857C0BF40FC00504B0304140006080800A2A0AF420E
311
B4F59FA505000081100000340000006662782F43333136423832392D333339432D343439382D384644452D4341353243314434303536432F6F626A656374732E786D6CAD57D96EDB3814FD1541F332F3E045B6EB38034545622785D1A62D6AA4980703062D510A27D402924A9DF9FA3914295972ECD433E88B162E97F79E7B
311
EE42FFFD2EE5CE331592E5D995EBF587AE43B3308F58965CB9A58A7B33D7791FF822CF556B99EB6424A557AE1E76033F117959D8A188C6A4E4EA60F4EEE62F478634A3AE137222E5952BC3479A923E29551E51F9D48F8822FD24DEF5BDBE59D8159B08523C1E082D88A09982A618CF20C5314A79DDDFA13B08FC819E0F7CFD
311
B4ABC6A7570D2A7BBAE7B34C2A9285AF0E3B1033F6268BDBD1BBCBDEBBC964DC9B4C475EEFE6EE66D1F32EC6C3F9743EBFBCBEBDC4C1520948B29A081ABBC107602358E80FCC54E0972C53E3915D621D3410F499694FB9C1C8F1FC8159D358678D3CA67E9867190D2BAC8046659F151DD18266117CCEA884662D8486DD5F4F
311
E3D89A1EEB7F7B647BF83C04DA3B5A826ADDEB775BD37CFB374C90E7304848AA1968B0B4861AAE0EF7086FF39CDB39269D94282A18E10E675B41C48B1B60A95E12F81D319AC9424783B6C00DE00533DDA50BC2E8E73C3FA6655C72AE69EC0655146C102B54C94A33F60F157BEDDBC84027F84AB361660D522F0575834B4391
311
D9019B0C904ECC490297C34CBD733C3A3074AEE374B970838F77DBDD4AC7EEF1C30B911754284D1F50AB765CFDD628599DBCB33CA737B807AAEC41F906E43F23D4F7AAC06F82ED26BB893D450992C93817297CE30C9DDE108FA1E3554FFDDDFAF207CDE6AEF74EE109676BA87E019E5D1BDABE6CC119F8CF207C2EC6D6B455
311
4838D2C63DCB00902689C3730C210FC7DB9D1B2C91E59095B18BF0C083C950F7199FFEC08A41A2A84E6ABD3360799016CF48D080AD6224D430E4B70AEEFDF42A9D5507DB65A7E07DF74BE87ABD587D5C95222621BDB731BDA031CB984289DBF3A6AD5007F38E454FF4E5472E2218FA1AEF551BEFD41E2581B6C65C039FD439
311
5DFFEC4FEE1C10625F92EB74E3FFE40418A10B6B4BFE3D9321E59C64342FEB73DFAC1F281B06621DEC9AC94D81D9171690C6CC1CC4208A742858A1416CAA559334FB27AC7B587E0623DDE0E6E513796967AFED3EF78639CFC566FBB23169E928D4DFBBDCB6180CB414D0BD0A923AFE2DE89B88C5712991048FE0FA7D396FFB
311
4EA705A4885AAA899609EC47701161495BCB45B516049534CF360C75137177F480B67C406A1950093CA5B1A43CDE30CECB7413338E6AB4494971028EFFAFFFB64C8B0D49F33253276477544775E8EADE61AFFC4154F8E806ABEADDBB41EE8D6874820CBA961CC1AAE3DADBF9F4623A9F79BD8BE9E56D6F325C2C7A37DEE8B2
311
37BE5E8C26DEC570369BDED67E329A047E5D6ADA110D2FA1B4F9A560D67D0F4BC48F4D026E704F945C7F30E159BF1F967DF4C2FE007B502F9B8DD7D133FA3E1AFD5CC07EE55141CBB4E034A599223A86EEF507FF46D067749431E3CB9424F40C295F3EAC0E8CC1C819FBBEEA78A73F0EF6DAD1B90EC8A342D463996E33C2F8
311
C1C6C420D92FB2C4E257FBA4799B4253FFEA3FEB1874A632E72C421E8C9C84E62955C886671421915209EAB57BFAC8DE3DCED8FD6C3A4445B69CD69A3C1234C95C222C40AD3254DD71E7373475BAAFBA72516EFB4F78D84CE13AE0CC958B265DB190CAFE16055AB742957070A9DDC9A3F12759C2D16B9B4DCD7FB34B63D329
311
C9CD9273FA276B9749E1D600A491027D031A2278A75226F02BDDEC7CF89F0CAFD57188C2E7B6548D2DFB81C698EA1884A831CADE16D0C43CD9A37708D4B7CDF2FAD59A0E2267DDB2DE248191DA534424D54D41EB6755BA5E7C1DA04371965F9C8297097C79BEA49EA02073A9031C2C022BACCC82285075FEE7FAABC871934D
311
9D3B060A38BFEF66D33FD6F33C4DF3CC0CADAFED7DD8593DE2761BAD911CA8BE96C8F568E88DD6D575C0DE50365B22699F44F20903F0AC600DD01DF78397E6CE883A64269A7503ED8A03862E178E2D6C1308B57469E7560D0E1A8F8C3A88217DA5D411D35E50BC792318544BA182402F1FFC0B504B0304140006080000A2A0
311
AF42000000000000000000000000350000006662782F43333136423832392D333339432D343439382D384644452D4341353243314434303536432F76657274696365732E62696E504B0304140006080800A2A0AF42F270F1330600000004000000360000006662782F43333136423832392D333339432D343439382D384644
311
452D4341353243314434303536432F747269616E676C65732E62696E636660600000504B0304140006080000A2A0AF42000000000000000000000000370000006662782F43333136423832392D333339432D343439382D384644452D4341353243314434303536432F617474726962757465732E62696E504B030414000608
311
0800A2A0AF42D5987DFC8F00000041010000360000006662782F43333136423832392D333339432D343439382D384644452D4341353243314434303536432F6469726563746F72792E786D6C858F410EC2201045AF4266AF15DDB800BA74E7C21B903225242D6328188F2FA5C4183471359997F9FF81E89FF3C41E1816475E
311
02DF1F80A11FC8386F25A438EECEC07A250251FC3803E6F58C12560C4AD840E95E91C151A72936F496F35732D860FE635F62C8F2DA16B505C545B74125BAA2FA9E05D7CC053D063734D5C7665FD55B6B8D15D5E9BFEAFD8490FFA45E504B0304140006080800A2A0AF42DA3B3EA4FC000000A00100003B0000006662782F43
311
333136423832392D333339432D343439382D384644452D4341353243314434303536432F7265736F75726365732F636F72652E786D6C8D50DB6AC42010FD1599D7626262D2EE16E3D294E60BFA03A2B3A9EC468397D2CFAFD94DA17D2BC88C9C0B7338E2F4B55CC9278668BD1BA0A9181074DA1BEBE601723AD303909314C1
311
FBF44B06C4A90507D86090620E3EAF3BA4BD4BE852419D37B8832A464C40F4B57C0688FA031755A99C8A225EAA55E98B9AB16AAA42179D1431851280DC8F6C1364C0E873D018457D67A5C8D99A5D634DB969CF1603C8B13F7663CF3BDA4E4F07DA752F8C8EC7E99572FED64DED383DB2968B7A334B91ECF293510754090DC8
311
96359CB29E36FD7BCB9E595FDE43999C897A93FF31E5D5FCD394AD4BBCDDE3DE6D11645382DC0829EAADAFB26E6596BD752BBF01504B010214000A0000080000A2A0AF423DEE336E79000000790000001B00000000000000000000000000000000006175746F6465736B2D64657369676E2D7061636B6167652E786D6C504B
311
01021400140006080800A2A0AF42D486FD9CA0000000F40000001300000000000000000000000000B20000005B436F6E74656E745F54797065735D2E786D6C504B01021400140006080800A2A0AF42C990103CE90000007C010000080000000000000000000000000083010000636F72652E786D6C504B0102140014000608
311
0800A2A0AF4255019EA25F0000007C000000070000000000000000000000000092020000636E782E786D6C504B01021400140006080800A2A0AF4288EE64A864010000020300000C00000000000000000000000000160300006662782F636F72652E786D6C504B01021400140006080800A2A0AF422FD532307E0000009D00
311
00000B00000000000000000000000000A40400006662782F636E782E786D6C504B01021400140006080800A2A0AF42E5F2BA4E2B0100001502000031000000000000000000000000004B0500006662782F43333136423832392D333339432D343439382D384644452D4341353243314434303536432F636F72652E786D6C50
311
4B01021400140006080800A2A0AF427762A3A84D010000330300003000000000000000000000000000C50600006662782F43333136423832392D333339432D343439382D384644452D4341353243314434303536432F636E782E786D6C504B01021400140006080800A2A0AF420EB4F59FA505000081100000340000000000
311
0000000000000000600800006662782F43333136423832392D333339432D343439382D384644452D4341353243314434303536432F6F626A656374732E786D6C504B01021400140006080000A2A0AF420000000000000000000000003500000000000000000000000000570E00006662782F43333136423832392D33333943
311
2D343439382D384644452D4341353243314434303536432F76657274696365732E62696E504B01021400140006080800A2A0AF42F270F13306000000040000003600000000000000000000000000AA0E00006662782F43333136423832392D333339432D343439382D384644452D4341353243314434303536432F74726961
311
6E676C65732E62696E504B01021400140006080000A2A0AF420000000000000000000000003700000000000000000000000000040F00006662782F43333136423832392D333339432D343439382D384644452D4341353243314434303536432F617474726962757465732E62696E504B01021400140006080800A2A0AF42D5
311
987DFC8F000000410100003600000000000000000000000000590F00006662782F43333136423832392D333339432D343439382D384644452D4341353243314434303536432F6469726563746F72792E786D6C504B01021400140006080800A2A0AF42DA3B3EA4FC000000A00100003B000000000000000000000000003C10
311
00006662782F43333136423832392D333339432D343439382D384644452D4341353243314434303536432F7265736F75726365732F636F72652E786D6C504B0506000000000E000E0080040000911100000000
310
504B03040A0000080000A2A0AF423DEE336E79000000790000001B0000006175746F6465736B2D64657369676E2D7061636B6167652E786D6C3C3F786D6C2076657273696F6E3D22312E302220656E636F64696E673D227574662D3822203F3E3C666F726D6174733E3C666F726D61743E687474703A2F2F736368656D612E
310
6175746F6465736B2E636F6D2F64657369676E2D7061636B6167652F323030393C2F666F726D61743E3C2F666F726D6174733E504B0304140006080800A2A0AF42D486FD9CA0000000F4000000130000005B436F6E74656E745F54797065735D2E786D6C7D8EC10E82300C865F65E91D8A1E8C310C0EEA1BF002731658846E
310
D98AC1B77784ABF1D8FE5FBFBF75BBCE937A534CCEB38643598122B6FEE978D0B0485F9C41B54DDD7D022595594E1A469170414C76A4D9A4D207E29CF43ECE46F218070CC6BECC4078ACAA135ACF422C856C0E68EA1BF5669944DDD7BCDE7B1F8E415D77AECB980613C2E4AC91FC167A2B244592486606FC29C8FD7F045B9A
310
EF7053A7E60B504B0304140006080800A2A0AF420B044615E90000007C01000008000000636F72652E786D6C8D905D6EC3201084AF82F6B5C2C67F495A61223BF50D7A01041B172506CB4095E307278ED4BE5542EC6A988F5D0D3FDEA62BF9C1C51B675B28320604AD72DAD8B18518CEF400E428F8E25CF8650362E5842DAC
310
32083E2E2ECE9BA49C0D684352ADD3B889D27B0C40D435352D78F58D93CC640CC9E12FD92CD5458E9815AF2EC1311A4D9E438C4EFF99B3C105C4A966D567BD1B68DFF503ADEB5D47BBEE5451B6EFF743C906F65E1F78BEC2820733BDE6AB0565400DA264453237B468BE4AF6C19A74DED25D319EAFF63F509CF53FA1686CA8
310
CA6DDD27E641146991C783E0F99A452A8FA0525D731377504B0304140006080800A2A0AF4255019EA25F0000007C00000007000000636E782E786D6C4DCB3B0E80201045D1AD90E915ED2CF8AC45050C11660C8261F98AB1B07AC9C97D42D718D865D3E909258CFD00CCE24AC6E326A164D74DC0B4128928FF326038472BA1
310
3128B1252AC747C6BAB984FC68F0B87FE8960A5C09FE86CFB69FBA01504B0304140006080800A2A0AF42B082AA8E64010000020300000C0000006662782F636F72652E786D6C8D52596E833014BC8AE5DF0A6C962CAD8C239272835EC001875A011B191BE5F87D2C114D554511E861CD5B66DE6076B8B50D1AA4ED95D1198E
310
428A91D4A5A994AE33ECDD25D86374E0CC1AE37E9561A4452B333CC298B3DA1ADF2D5069B493DA01AA4D251750F4BD7418950D1C32DC97DFB215A1F00E2AFA6BD889F22A6A194621A4A18EB3DE591080669231627E39DF189971CEBC57D5925515B0A98B9216F3534A93CF745B04C7FC580469BACD833C3F2501DD1D77454C
310
0BFA9EEE19199B3973AABDAB2BAD144E5698C73482E24D106DBE62FA4137F0BE414C282363F94393EFAA179BBCD22E8917B9735B8F790442A6C49F6DC122877A31801EC219194D84CFE4F0A3D1600898ECC4B9B9EF71056890A53336854C65FC9A1A44E325B052343D8CCC59983C0D80CDFE9D133F99F37C06FC40A16B9026
310
1C1CCFDE8DEC6C665DACE8A40D067743DAD85634ABB859E21A57A27FDB4BD318FB4A375956258B9964BCBDFC07504B0304140006080800A2A0AF42E663CFEA7D0000009D0000000B0000006662782F636E782E786D6C4DCCD10A83201886E15B91FFDCA53958821A4EE93E6259C84CC3E9D8E5AF46073BFAE0E1E315FD670D
310
E8EDF2CBA728815E0820171F69F2719150CB8C3B40BD1239A5F2770314C7D5493818945872AADB49939BC71ACAAEC1C7E7895A0FECCEF90D333BB4F84A34C71DE3066B4B5A432963D6106894687EA57D8FB0FA02504B0304140006080800A2A0AF42E0002A742A01000015020000310000006662782F41414633423939372D
310
334446322D343041392D383339432D4144303243313133334443302F636F72652E786D6C8D51ED6EC3200C7C95885F9D26120869D74C842A6BD527D80BA4403BD406223EA63EFECC924ADBBF4AC846F6DDF964F3DD7DBC15DFDA07E36C87684950A1AD74CAD84B87523CE32D2A76827BE7E21F182AEC30EA0EE53212FCE25D
310
9A969274366A1BA16A9DD24B7108414754C81B7C3A14E4971E8772481110E15A4E83BC0E175DD212DA80133C440F068A79488E48F4FD917DB4ED1B6687638D1BD2B778CBDA3DEE0FA4DE53CAD8614F783513054FC9A8856E14D83167A3FDB322992C7834E3C3BEF47A885A215113CA305963BAFEACC93B59C37B85C8607286
310
FF23A5493D494AC646562F76675A4082F26A6E08AE5C3ADD1E66F47D723E1679DE2A68F982042909D9D69B86358C5733163600A29B66110DD179D8F0EA7A02385B94378DE0553E12A4DF0B42CE07153F504B0304140006080800A2A0AF4211C56CBF5401000033030000300000006662782F41414633423939372D33444632
310
2D343041392D383339432D4144303243313133334443302F636E782E786D6CBD93CB6AC33010457F45685BFC8A93108AAC4017FD822EBA95A549A246968C1EA5F9FB8E1225CD268B422998C1DCB9736738D86CFB3519F2093E686707DAD52D2560A553DAEE079AE2AEDA50B2E5CC3B17EF6C945831C140B34C39DB7B97E622
310
29D8896422AA46DB63113D0497BC8480729E24C6496130006C9550846904A540919B11DF76E0F11414C713890720AF2FEFC48D1F2063604D4EE1ACC93B38CBB56CBA3351228D0861A0411E6012B548D12908C75A8928EAAEBEEE7A70D34F12C903D795C96B92970F3457CACB453572640D36390BD123BD628AA7192817F36C
310
B41411213767E3C5C359D236AE97C5AB11BC4777BF586F361876EE7116F504C5213D88088AF245DBF555BBAABAD5DBA27D6E57F83C61ED5BD6643B67A373A60C610C783713E96C041B29EF5893DB8FF0151F51DA236BE74FBF008900CAD60B9D5BC65FF2E9D6FD72F98F7C9AF3F78DB83CFE05FC1B504B0304140006080800
310
A2A0AF42B32E0072640700009A1B0000340000006662782F41414633423939372D334446322D343041392D383339432D4144303243313133334443302F6F626A656374732E786D6CED59DD73A33610FF5718FAD23E181BDBC9251D4227B173379E36BD9B73EFA60F9E616490891A211849E4E2FEF55D7D80819804F7D2B73E
310
D8809056BBBFFDD412FCF29451E71173417276E5FADEC475308BF384B0F4CA2DE56E74E13ABF8401CF73D998E63A0C65F8CA55C36E18A43C2F0B3B94E01D2AA9EC8CBEBFF9D3113166D875628A84B872457C8F33E4A152E609160F5E8224F2D2DD93E77B66629B6CCA5171DF215A208E99044E619C0115C730E5B71F27EE38
310
0CC6EA7D18A87F3B6B3668D6BC7FD6584BDDE6923021118B9FB1D421331BC4D2CC9F2F6FA76797A3B3F97C369A9F4FFDD1CDFB9BE5C87F379B2CCE178BCBEBDB4B606F9BE7D4CA94E002B304F4B777433F18AB37B5E81681635CC7396338D64002545AAC2E4182056CD5806FD27EF495448DD75AC2C6F35CBDB72C3486676D
310
2A7DB38601D1A20B82D8ED2A89AB6B53BE7CFB17082E861825175802B74272D0AE85878357B8E124189BD130D81E7441849321893941D4A164CB1107A5C05435250CCC024B46390707528E92406BCEBC6EDB1678E6EBAE738CCB5D49A9F20C37D48E1581FB61293467E46FCC0FDC3791019E40DA92307961B994FB02BBE165
310
30D68361A02EB3A97D6980747614A5422362DE76045D28D75F2DDDF0D7F7DBA7B50A07C7372F785E602E95D1293D6ABEC090ED55A164B7F507694E2D00610CA876E50194CF80FCEF103D0EAC80DE38799A3FCDED5CC91113BB9C67A01B67E28C26F037717CFDAFEE1B77C1B85EDCD65E1F9EE0A60AAA8BEFC7B32D83C6CAF2
310
DF80330C1EC1E0733EB3AFD631A260CF77840140CA481C9AC31084F6DDF6C90D57103821D0C32A44431F4406761FE136185B3207AD54EE65BD8E01A2768FD91025016CDA22818D1E3D7D80ECC1497C505353C43E78CFDEC45CAF97EB5FD725DFA118DF599F5EE21D614442D63CCE500BF396440F78FF2DE70908FA1CEF7513
310
EFCC6E25006D85B9023EAD40500F879D5B1BC4B02ECD55B8095ED9018450B9BA41FF8E8818538A18CECB6ADF3ABA2943AD3DDED60C6E383510CFA61D13E6F891A8AA029CE630A3C528E4FD98934281E8861F8C6475D0F47AA4FBB2FA1D2CB29EDF336BC520F43244FFD041EB080E2DCBAE90B640D4026F0FE13CCE69CEA3ED
310
3E3291CE855A02D8687BCBD7165188F546498A0A7890F6BB2AA4A446DA2821BB5D2920AE1E61F1EB6AD134878937F3CF9CE67FC719E7106DC17711B77ED7D92322194A71B44349DF76CDDD6ADA4293EC21CDF18E825CE491C87D84643449707A0A342711BF7C53EA29CD85200C0BC85747C16FA231F12090186D562C2BAD76
310
802622CAB044F4140414991E7075DAD1356E0CA5C3EB3CD6D6FB92C69A44FF238BE0086AC99C45044A51C821AF32EE7B671043DAE81A943BF882B555B4B518B4841222DE47DF3049EFE529A81BF23DB8C77024296594172806B31E40F699AF28A57678DFA2F841E58F282EE95B1988C07417114ACB2C821F6170F218E2DA75
310
607A1185067113FB24CEA02843B2E44336393F9B3CDBC7D40CDD10D8D868472884ED2843450FEAAD80A8EB11A706DF52EF51EAB6CC8A086579C906198A37EB7A9325DF55AB223B905F552A42D95811B604C380305967D52A6683A9EBC00A6EA403D53E12282BA83985BD9278FCDA9B34E5DE0DB8F5D3B7DD2083C2AF477BCD
310
883AAF60B03CB60A03F10DC9F8DE0DD7FA3ABA81FA3BC1C921D557B566B30204C454242F39B12AFAB282F2C6D6686E7887A4D87C3059B7BA7E5979D0FD08C6B0066A977AE14A019D612691AA4CEED40DFD8C2004B76898F195CAA9A750B94E125D3522FA9EF4A9B35546B436CD8857DC639667F0631BC2625A26788312F110
310
DD491AAD8962DD4AE965A4C2F845013F7E5877E0819101227D52051EFED6596B4717AA5C3A4A44DE97D996210241B0255A6A74E3152CB51AA9B45C5FD59902EA2E3030ABE2F9FF278B663BE2FF93456A0DE3BB4E1637FBDFD0BED91769A4F358D9F549C7803A3F292A6F710CD06D879A6A9D454C32B7F25B678A202856517E
310
703556050D43B08FE37F9DB5FBB2A0D9AEC3FF6959DB7F56719C94555A935597EA48E5BA6AE6B0DBC5F9BBF3C5853F7A777E793B9A4F96CBD18D3FBD1CCDAE97D3B9FF6E7271717E5BA3A91D350CEA60A673173C9BA0560DAB278B017465454E4902A7F9C44931C47C0967FA01ED739E6101C9B3D9EC4E6C537EC0EA47D3E7
310
94684B71C5C93D8206311590D601A33296ED71E707684D4A38685FB9D034F21EE0CF5AA5EB40E6B972A15520498C85B78536936AE869E2907275EEB7C4001FC4529512CDA2FAB95EA5B06985FF7ACA903460E56AF530A0702BA0FBD5EA5068DE2C4FF1498257EC3848C2EDB69450AD19590E03B5307A9B83FA8D6C94B007BB
310
F513B8EECB62F99E9ED34264D02783178DC0501D49C453DDEF568C5996AE979FC6D06773561F9D829629E87238A511C760CCA52AA8C08AC02A2CCD024930D5C5CF9B4F3C874F3C99A3AB22E7C7A78BF39F368B3CCB72668636D7702A4BE04391B3BE87CF3EC9068A07AC9AEB62339DF8D38D6E6ADB3E7BB445027BAA2A8281
310
AA985082744C0EECF25983CAB62FC74A159DE9ABA56383E81910D5B6FBACC76B3E7239E043EA738AF218EDE795B42FF6B5C77A2AD804878E74F80F504B0304140006080000A2A0AF42000000000000000000000000350000006662782F41414633423939372D334446322D343041392D383339432D41443032433131333344
310
43302F76657274696365732E62696E504B0304140006080800A2A0AF42F270F1330600000004000000360000006662782F41414633423939372D334446322D343041392D383339432D4144303243313133334443302F747269616E676C65732E62696E636660600000504B0304140006080000A2A0AF420000000000000000
310
00000000370000006662782F41414633423939372D334446322D343041392D383339432D4144303243313133334443302F617474726962757465732E62696E504B0304140006080800A2A0AF42D5987DFC8F00000041010000360000006662782F41414633423939372D334446322D343041392D383339432D414430324331
310
3133334443302F6469726563746F72792E786D6C858F410EC2201045AF4266AF15DDB800BA74E7C21B903225242D6328188F2FA5C4183471359997F9FF81E89FF3C41E1816475E02DF1F80A11FC8386F25A438EECEC07A250251FC3803E6F58C12560C4AD840E95E91C151A72936F496F35732D860FE635F62C8F2DA16B505
310
C545B74125BAA2FA9E05D7CC053D063734D5C7665FD55B6B8D15D5E9BFEAFD8490FFA45E504B0304140006080800A2A0AF4218AF688DFB000000A00100003B0000006662782F41414633423939372D334446322D343041392D383339432D4144303243313133334443302F7265736F75726365732F636F72652E786D6C8D50
310
596AC33010BD8A99DF625BDE92B4C80A76E21BF402429EB822B164B4941EBFE3D885F6AF2066C45B98C7E3E7AFF9917CA2F3DA9A168A8C418246D9519BA985186EE90992B3E0CEDAF04B06899133B6B0C220F8E46C5C76485913D004428D1D7107A5F71820510FFAB4E0D507CE32933190C2DFB345AABB9C302B32A24927B8
310
0F8E0224DB91758270E86D740A3DCF3756F018F5B86BF44837F54DA30371A95975AD0FD7B4EFFA21ADEB439776DDA54AD9B13F0E251BD86B7DE2F96A163CE8F927A37228038E204A5690B8498BE6BD646FACA1F742B3623C5FE57F4C7119FF698ADA84AADCE36E360FA2A0204F42F07CED8BD6B34CDA6BB7E21B504B010214
310
000A0000080000A2A0AF423DEE336E79000000790000001B00000000000000000000000000000000006175746F6465736B2D64657369676E2D7061636B6167652E786D6C504B01021400140006080800A2A0AF42D486FD9CA0000000F40000001300000000000000000000000000B20000005B436F6E74656E745F54797065
310
735D2E786D6C504B01021400140006080800A2A0AF420B044615E90000007C010000080000000000000000000000000083010000636F72652E786D6C504B01021400140006080800A2A0AF4255019EA25F0000007C000000070000000000000000000000000092020000636E782E786D6C504B01021400140006080800A2A0
310
AF42B082AA8E64010000020300000C00000000000000000000000000160300006662782F636F72652E786D6C504B01021400140006080800A2A0AF42E663CFEA7D0000009D0000000B00000000000000000000000000A40400006662782F636E782E786D6C504B01021400140006080800A2A0AF42E0002A742A0100001502
310
000031000000000000000000000000004A0500006662782F41414633423939372D334446322D343041392D383339432D4144303243313133334443302F636F72652E786D6C504B01021400140006080800A2A0AF4211C56CBF54010000330300003000000000000000000000000000C30600006662782F4141463342393937
310
2D334446322D343041392D383339432D4144303243313133334443302F636E782E786D6C504B01021400140006080800A2A0AF42B32E0072640700009A1B00003400000000000000000000000000650800006662782F41414633423939372D334446322D343041392D383339432D4144303243313133334443302F6F626A65
310
6374732E786D6C504B01021400140006080000A2A0AF4200000000000000000000000035000000000000000000000000001B1000006662782F41414633423939372D334446322D343041392D383339432D4144303243313133334443302F76657274696365732E62696E504B01021400140006080800A2A0AF42F270F13306
310
0000000400000036000000000000000000000000006E1000006662782F41414633423939372D334446322D343041392D383339432D4144303243313133334443302F747269616E676C65732E62696E504B01021400140006080000A2A0AF420000000000000000000000003700000000000000000000000000C81000006662
310
782F41414633423939372D334446322D343041392D383339432D4144303243313133334443302F617474726962757465732E62696E504B01021400140006080800A2A0AF42D5987DFC8F0000004101000036000000000000000000000000001D1100006662782F41414633423939372D334446322D343041392D383339432D
310
4144303243313133334443302F6469726563746F72792E786D6C504B01021400140006080800A2A0AF4218AF688DFB000000A00100003B00000000000000000000000000001200006662782F41414633423939372D334446322D343041392D383339432D4144303243313133334443302F7265736F75726365732F636F7265
310
2E786D6C504B0506000000000E000E0080040000541300000000
  0
XRECORD
  5
17
102
{ACAD_REACTORS
330
12
102
}
330
12
100
AcDbXrecord
280
     1
270
     1
271
     1
  0
XRECORD
  5
16
102
{ACAD_REACTORS
330
12
102
}
330
12
100
AcDbXrecord
280
     1
270
     1
271
     1
  0
XRECORD
  5
18
102
{ACAD_REACTORS
330
12
102
}
330
12
100
AcDbXrecord
280
     1
270
     1
271
     1
  0
XRECORD
  5
15
102
{ACAD_REACTORS
330
12
102
}
330
12
100
AcDbXrecord
280
     1
270
     1
271
     1
  0
XRECORD
  5
1576
102
{ACAD_REACTORS
330
22
102
}
330
22
100
AcDbXrecord
280
     1
102
MATERIAL
148
0.0
149
0.0
149
0.0
 93
        0
 94
      127
282
     0
 72
     0
 77
     0
171
     0
175
     0
179
     0
273
     0
  0
XRECORD
  5
24
102
{ACAD_REACTORS
330
22
102
}
330
22
100
AcDbXrecord
280
     1
270
     1
271
     1
  0
XRECORD
  5
23
102
{ACAD_REACTORS
330
22
102
}
330
22
100
AcDbXrecord
280
     1
270
     1
271
     1
  0
XRECORD
  5
BA
102
{ACAD_REACTORS
330
22
102
}
330
22
100
AcDbXrecord
280
     1
 70
     1
 90
1959938040
 71
     1
  1
9C62F6AC-FC54-4CB1-8E9E-309737E0FD28
311
504B03040A0000080000A1A0AF423DEE336E79000000790000001B0000006175746F6465736B2D64657369676E2D7061636B6167652E786D6C3C3F786D6C2076657273696F6E3D22312E302220656E636F64696E673D227574662D3822203F3E3C666F726D6174733E3C666F726D61743E687474703A2F2F736368656D612E
311
6175746F6465736B2E636F6D2F64657369676E2D7061636B6167652F323030393C2F666F726D61743E3C2F666F726D6174733E504B0304140006080800A1A0AF42D486FD9CA0000000F4000000130000005B436F6E74656E745F54797065735D2E786D6C7D8EC10E82300C865F65E91D8A1E8C310C0EEA1BF002731658846E
311
D98AC1B77784ABF1D8FE5FBFBF75BBCE937A534CCEB38643598122B6FEE978D0B0485F9C41B54DDD7D022595594E1A469170414C76A4D9A4D207E29CF43ECE46F218070CC6BECC4078ACAA135ACF422C856C0E68EA1BF5669944DDD7BCDE7B1F8E415D77AECB980613C2E4AC91FC167A2B244592486606FC29C8FD7F045B9A
311
EF7053A7E60B504B0304140006080800A1A0AF4208A35BB9E60000007C01000008000000636F72652E786D6C8D90DD6EC3200C855F05F9764A022151D38A50EDE711F60208DC16B58128C0B4C79FD3A6D276B79B63EBE00F5B471DBFA71BFBC225F9184610350786C146E7C37984924FD500ECA8D51263FE35062C98094758
311
6DD0EABCC4326F968D2163C8E486E870334D4A9881D91B3523247BC1C9D4A6649A48D77A36F66ACE588B67477029DEB1C712EFE83F7FF2B8806EF76DD7C9DD50751D27195E7935F424EF42CAB7BDFC6877BD54CD0A6B95FDF4DC6F1734191DF15CC88AF795E83F5B7EE0FD81CB1752C955B38EFF81CAECFE09151FB26CB773
311
1F58022DE890FB8356CD9A05957B5054D7DCF40F504B0304140006080800A1A0AF4255019EA25F0000007C00000007000000636E782E786D6C4DCB3B0E80201045D1AD90E915ED2CF8AC45050C11660C8261F98AB1B07AC9C97D42D718D865D3E909258CFD00CCE24AC6E326A164D74DC0B4128928FF326038472BA13128B1
311
252AC747C6BAB984FC68F0B87FE8960A5C09FE86CFB69FBA01504B0304140006080800A1A0AF42B825BD7161010000020300000C0000006662782F636F72652E786D6C8D52ED8E8320107C15C2DF8B82A2A96D90E63E1EE15E802AF548150C82E9E3DFFAD178BD344D63B292D99DDDD9017EBC762D1A951BB435254E628A91
311
3295ADB5694A1CFC392A303A0AEEACF57FCA3032B253259E602C78E36CE857A8B2C62BE30135B6562B288741798CAA160E251EAA1FD5C958060F15C325EE6575918D8A9318D25027F8E01D0840CB902962713E5D395970C143D0F59AD5354CD367AD1C16E93ECD32B62BA22CA3108A771A153984CF84B18F3DFB4A7739E364
311
220BEE757753573925BDAA814F1316D13C4AF2EF941E687EA0EC0D22A39C4CE577A4D0D72F9282369EA5ABDC85366091809039F16F5BB0C8A3418EA087084E2613E1373B7C6F341802267B796A6F7B5C001A55E5ADCB2053DBB0A546D9060553299A3F4E962C749E1BC0660FFBA44FFA3CEF0117284D03D2A487E329F8693A
311
5FA6AE56F4CA45A3BF22635D27DB4DDC22718BDBA087F4CAB6D6BDC226EBAA6435934CAF57FC02504B0304140006080800A1A0AF42F08B38AF7E0000009D0000000B0000006662782F636E782E786D6C4DCCD10A83201886E15B91FFDCF53B732D50A319BB8F581691E9703A76F9ABD1C18E3E78F87865F3591D79DBF89A83
311
57C04E08C4FA4718663F29C869A457208D963184F47703E2FBD52AD819B49C62C8CF83063BF6D9A54DDDEC970351E09D5786D3BA15484B766B696D58494587DC888EE3F95241A165F12B6DBB87F517504B0304140006080800A1A0AF423D063F012C01000015020000310000006662782F30353046333743332D394135302D
311
343142412D394331342D3544303343354433303236372F636F72652E786D6C8D515B6EC23010BC4AE42FAA2A891DC78420C788827A825EC024062C881DF95171FCAE9B20B57FFCEC5ABB33B3E35DBE7B8CF7EC5B39AFADE9102930CA94E9EDA0CDA543319CF30DCA76823B6BC31F18CA8C1C55875219097E71364E4BA9B726
311
2813A06AECA096A2F45E0594F5777874C8F75735CA42C600087F2B26D9DFE44515A48036E004F7C181816C1E92221298E14FDA1C68DEEE19CE6BF2B1CFDB03A97376C4F4C08E1457EB86973351F018F5B0D0F50076F4592BF7AA48220B1EF4F8B4DF3B25831A90A830A1396639615F15DE62B6C5F41D22C5BC4CF07FA4380D
311
2F92A23681568BDD99E69120BC9C1B820F369EEE4F33EA315917B2346FE555FF06BF2A306E366DD332D8C08C850D80E8BA5E447DB00E36BCBA9D004ED8ACBCAE052FD39120FD5E10723AA8F801504B0304140006080800A1A0AF42301ACA564D01000033030000300000006662782F30353046333743332D394135302D3431
311
42412D394331342D3544303343354433303236372F636E782E786D6CD593BB6E023110457FC5721BED8B051421AF9152E40B52A4F5DA0318BCF6CA8F28FC7DC660080D45CA34A3D59D3B7347475EB6FD9E0CF9021FB4B303EDEA9612B0D2296DF7034D7157BD52B2E5CC3B171F6C945831C140B34C39DB7B97E62229D88964
311
22AA46DB53113D0497BC8480729E24C649617001D82AA108D3084A812277237EEDC0E329288E67120F40DEDF3E891B8F2063604DDEC259933338CBB5243D982891468430D0200F30895AA4E8148453AD44147557DFB29EDCF4BB89E4815B64F29AE4F081E64A79B9A8468EACC12667217AA4574CF13C03E5629E8D962222E4
311
E662BC7A384BDAC6F5B2783582F7E8EED6FD7289CB2E3DCEA29EA038A407114151BE68BBBE6A5755B7FA58B49B76B569FB17AC7DCB9A6CE76C74CE94215C03DECD443A1BC146CA3BD6E4F6337CC54794F6C8DAF9F31F402280927AA573DFF19FF93497F78DB83CFE05FC07504B0304140006080800A1A0AF424DBB192AA505
311
000080100000340000006662782F30353046333743332D394135302D343142412D394331342D3544303343354433303236372F6F626A656374732E786D6CAD57DB6EDB3810FD1541FBB2FBE08B6C278D178A8AC44E0AA3485BD468B10F060C4AA2146D285120A9C4D9AFDF43919225D74EBD8BBE5816351CCE9C3973A1FF7E
311
9733E7990A99F1E2DAF58663D7A145C4E3AC48AFDD4A25832BD7791FF88273D511739D82E4F4DAD5CB6EE0A78257A55D8A69422AA60E56EF6FFF7264440BEA3A1123525EBB327AA43919924AF198CAA7614C1419A6C96EE80D8D605F6D2A48F978A0B42482160A9662BD8016C718E5F55FC7EE28F047FA7BE0EB5F2B353D2D
311
35AAFDE99F9F15529122FAE1B00335536FB6BC9B5CCC0717B3D97430BB9C7883DBFBDBE5C07B371D2F2E178BF9CDDD1C074B25A0C95A2268E2061F808DC8227F643E057E95156A3AB122364023419F331D293798389E3F3232AD77D6C963E647BC2868546305346AFFACEA9896B48811F38C4A58D64168DC7FF5348E9DCF53
311
FD6E8FEC2E9F874077474751637BF3EC5ACAC3BFE1823C87414252CD4083A575D47075BC4738E49CD96F997472A2A8C8087358160A225EDD00A25A24F07B6A349385CE06ED811B200AE6739F2E48A39FF3FC989549C598A6B11BD459B045AE50256BCBB27FA8D85BDF45063621569A0D57D621F55A5237981B8A5C1DB0C900
311
E9248CA40839DCD43BA7930347173A4F574B37F8781FEED63A778F1F5E0A5E52A1347D40AD2670CD53A3646DF2CE8A9CDEE01E98B207E52B90FF8454DF9B82B8896C37DBCDEC294A9042265CE4888D33760663FC8C1DAFFED5FF3BFFFC51BBB91FBD537822D81AAA5F8067DF876E2C3B7006FE3308CFC5D4BAB68E0843D978
311
C80A00A449E2308E25D4E124DCB9C10A550E5519BB080B3CB80C739FF1D71F59352814F5499D67012C0FCAE219051AB0D58C841986FCD6C07D9C7E2867F5C156EC14BC17BF84AE37CBF5C775251212D1079BD34B9A6445A6D0E2F6BCE91AD4C3BCE7D1137D7DE12286A33FE2BDEEE29DDBA324D0D6986BE0D3A6A6EB97FDC9
311
BD0322EC4BB92E37FE4F4E8013BAB176F43F6432A28C9182F2AA39F7CDFE81B66120D6C9AE99DC36987D630169CC97831C44938E44566A10DB6ED516CDE109EFBEAD3E819190673C246C2F14EE4B6FC41917DBF0756BAAD251A4BFF7A96D2118692D607B9D234DFA5BCCB771962495440D3C02EBF7D5A21B3A5D1550211AAD
311
265966701FB94584E56CA317CD5A1034525E6C33B44DA4DDD103BAFA81A82540ADF094C592B2649B3156E5DB24636846DB9C9427E0F8FFF687555E6E49CEAB429DD0DD331DCDA16F7B8FBCF285A8E8D10DD6F573708BD21BD3781FE69EB06E2547B0EA8576BEB89CDC5FDE2C06F78B8BD960B6B8F5065777F3BBC1743C7F37
311
7D7737BE5F4EAE9A3819E581DF749A6E42234AE86C7E25321BBE6F2BA48FAD016EF04094DC7C30D9D93CBFAD861885FD11F6A05DB61B6FE2678C7D34FEB982BDE45145ABBC6434A785223A851EF41FF69560CCE81963D6573949E9195A3E7F581F38839533F67DD1E94E5F0EF6DAD5854EC8A34AD463958705C9D8C1C6D420
311
392C8BD4E2D7C4A47D9A3ED3BCEA371B180CA692B32C46198C9D94F29C2A14C3337A90C8A904F5BA237D6CAF1E67EC7E3603A22221A38D258F04333293480B50AB8A547FDDF90D339D1EABAE5D74DBE1137E6CA5701D70E6DAC58CAEB288CA6188FEAC27A15A39B8D41DE431F793226518B5CDA6F6BDDDA5B1E975E456E49C
311
F1C9FA652AB8750065A4C4D8807908D1A98D09FCDA36FB3DFA4F8E37E63844E16F58A9D697FD42EB4C7D0C52D438652F0B98619EECD13B24EADB6E79C35AA687C85997AC374960B40E1411697D51D0F659936E965F4618509CD567A764558A589EAF692028C85CE904078BC00AABB3240A545DFCB9F922382EB2B9739F8102
311
CEEFBBABCB3F360B9EE7BC304B9B1B7B1D76D68FB8DCC61B1407AA6F257233197B934D7D1BB017946D48241D92583E61019115590B742FFCE0A5B932A20F990FADDC4887E280A1ABA5631BDB0C4A2D5DBAB5558383B9A3A00E7248DF2875C67405CA372F04A35A1426088CF2C1BF504B0304140006080000A1A0AF42000000
311
000000000000000000350000006662782F30353046333743332D394135302D343142412D394331342D3544303343354433303236372F76657274696365732E62696E504B0304140006080800A1A0AF42F270F1330600000004000000360000006662782F30353046333743332D394135302D343142412D394331342D354430
311
3343354433303236372F747269616E676C65732E62696E636660600000504B0304140006080000A1A0AF42000000000000000000000000370000006662782F30353046333743332D394135302D343142412D394331342D3544303343354433303236372F617474726962757465732E62696E504B0304140006080800A1A0AF
311
42D5987DFC8F00000041010000360000006662782F30353046333743332D394135302D343142412D394331342D3544303343354433303236372F6469726563746F72792E786D6C858F410EC2201045AF4266AF15DDB800BA74E7C21B903225242D6328188F2FA5C4183471359997F9FF81E89FF3C41E1816475E02DF1F80A1
311
1FC8386F25A438EECEC07A250251FC3803E6F58C12560C4AD840E95E91C151A72936F496F35732D860FE635F62C8F2DA16B505C545B74125BAA2FA9E05D7CC053D063734D5C7665FD55B6B8D15D5E9BFEAFD8490FFA45E504B0304140006080800A1A0AF42F8C2CFC9F9000000A00100003B0000006662782F303530463337
311
43332D394135302D343142412D394331342D3544303343354433303236372F7265736F75726365732F636F72652E786D6C8D50596E833010BD8AE5DFCA60631024328EBA1CA117B0CC845A0936F252F5F81D0295DABFFECC8CDEA2797AEAF2B5DCC927C4E4821FA9A83825E06D989C9F475AF2950D945CB48A21E45F324ABC
311
5960A41B4CB59A6328EB01D9E033F88CA80F131CA049093225F68EC74893FD80C554A66454A45BB51A7B333354A2421A755AA51C3100D99F6C93EA0829946821A97A67B52AC54D87C64DF8D35D1D44AA9B53D3B6B2EF59DBF281B5C333674387E35548F972926F4DDF49556F66ADB25B7E32DA0826C3847E2E24E31D13DD7B
311
C3CFBC3B73F9845372556FF23FA6B24EFF3415E7B36C8EB8BB2D512D30C883D0AADEFAC2F52813F7D6ADFE06504B010214000A0000080000A1A0AF423DEE336E79000000790000001B00000000000000000000000000000000006175746F6465736B2D64657369676E2D7061636B6167652E786D6C504B0102140014000608
311
0800A1A0AF42D486FD9CA0000000F40000001300000000000000000000000000B20000005B436F6E74656E745F54797065735D2E786D6C504B01021400140006080800A1A0AF4208A35BB9E60000007C010000080000000000000000000000000083010000636F72652E786D6C504B01021400140006080800A1A0AF425501
311
9EA25F0000007C00000007000000000000000000000000008F020000636E782E786D6C504B01021400140006080800A1A0AF42B825BD7161010000020300000C00000000000000000000000000130300006662782F636F72652E786D6C504B01021400140006080800A1A0AF42F08B38AF7E0000009D0000000B0000000000
311
00000000000000009E0400006662782F636E782E786D6C504B01021400140006080800A1A0AF423D063F012C010000150200003100000000000000000000000000450500006662782F30353046333743332D394135302D343142412D394331342D3544303343354433303236372F636F72652E786D6C504B01021400140006
311
080800A1A0AF42301ACA564D010000330300003000000000000000000000000000C00600006662782F30353046333743332D394135302D343142412D394331342D3544303343354433303236372F636E782E786D6C504B01021400140006080800A1A0AF424DBB192AA5050000801000003400000000000000000000000000
311
5B0800006662782F30353046333743332D394135302D343142412D394331342D3544303343354433303236372F6F626A656374732E786D6C504B01021400140006080000A1A0AF420000000000000000000000003500000000000000000000000000520E00006662782F30353046333743332D394135302D343142412D3943
311
31342D3544303343354433303236372F76657274696365732E62696E504B01021400140006080800A1A0AF42F270F13306000000040000003600000000000000000000000000A50E00006662782F30353046333743332D394135302D343142412D394331342D3544303343354433303236372F747269616E676C65732E6269
311
6E504B01021400140006080000A1A0AF420000000000000000000000003700000000000000000000000000FF0E00006662782F30353046333743332D394135302D343142412D394331342D3544303343354433303236372F617474726962757465732E62696E504B01021400140006080800A1A0AF42D5987DFC8F00000041
311
0100003600000000000000000000000000540F00006662782F30353046333743332D394135302D343142412D394331342D3544303343354433303236372F6469726563746F72792E786D6C504B01021400140006080800A1A0AF42F8C2CFC9F9000000A00100003B00000000000000000000000000371000006662782F3035
311
3046333743332D394135302D343142412D394331342D3544303343354433303236372F7265736F75726365732F636F72652E786D6C504B0506000000000E000E0080040000891100000000
310
504B03040A0000080000A1A0AF423DEE336E79000000790000001B0000006175746F6465736B2D64657369676E2D7061636B6167652E786D6C3C3F786D6C2076657273696F6E3D22312E302220656E636F64696E673D227574662D3822203F3E3C666F726D6174733E3C666F726D61743E687474703A2F2F736368656D612E
310
6175746F6465736B2E636F6D2F64657369676E2D7061636B6167652F323030393C2F666F726D61743E3C2F666F726D6174733E504B0304140006080800A1A0AF42D486FD9CA0000000F4000000130000005B436F6E74656E745F54797065735D2E786D6C7D8EC10E82300C865F65E91D8A1E8C310C0EEA1BF002731658846E
310
D98AC1B77784ABF1D8FE5FBFBF75BBCE937A534CCEB38643598122B6FEE978D0B0485F9C41B54DDD7D022595594E1A469170414C76A4D9A4D207E29CF43ECE46F218070CC6BECC4078ACAA135ACF422C856C0E68EA1BF5669944DDD7BCDE7B1F8E415D77AECB980613C2E4AC91FC167A2B244592486606FC29C8FD7F045B9A
310
EF7053A7E60B504B0304140006080800A1A0AF421DEF278DEB0000007C01000008000000636F72652E786D6C8D90416EC3201045AF82665B61038E6327C244ADEB9EA01740401C94182C03558F5F9C3852BBEB86197DFE9B197D7EFA9E6EE8CB2CC17AD7012D0820E394D7D68D1DA478C62DA093E08BF7F1970D909393E960
310
9541F071F169DE24E55D342E66D5796D36518660222075CB4D07415DCC240B996276846B314B7595A329E8B3CB704A56A3C712ABF33C7BB66601F1D690F6D05435DEF7FB06EF0EACC76DCF1AFC31F4F58ED0F7E1B51D78B9C282473B3DF7ABC5C8683408466885498D69FDC9C891D44752BDE4B722BC5CED7FA034EB7F42C9
310
BA58B1EDDC071640D07CC8FD43F072CD22977B50B9AEB9891F504B0304140006080800A1A0AF4255019EA25F0000007C00000007000000636E782E786D6C4DCB3B0E80201045D1AD90E915ED2CF8AC45050C11660C8261F98AB1B07AC9C97D42D718D865D3E909258CFD00CCE24AC6E326A164D74DC0B4128928FF32603847
310
2BA13128B1252AC747C6BAB984FC68F0B87FE8960A5C09FE86CFB69FBA01504B0304140006080800A1A0AF427D0E4DDD67010000020300000C0000006662782F636F72652E786D6C8D525B6E833010BC8AE5DF0A6C20041219472D4D4FD00B38E05014B091B1518EDFE511D154511421196B66677776801DAE6D830669FA5A
310
AB0C073EC548AA4297B5AA32ECECD94B313A7066B4B67FCA3052A295191E61CC5965B4EB16A8D0CA4A650155BA940B28FA5E5A8C8A062E19EE8B1FD90A5F380B15FDC5EF44711195F4031F68A8E3ACB7060CA079C878627E3E5D199971CE9CABCB85AD4B98569F6B6930FF4868BA4BA2D8DBE6DBC4DBECC2DC4BF330F1BE8E
310
79BCA1C1E7F13D3D32328A39B3757B73571829AC2C310F69107934F682F83BA47B1AEF69F40667441919CBEF44AE2B5F14B95AD9285CECCEB21EF3008C4CC4BF6D21228B7A31801FC219194384D794F07DD01008846CC5A9B9ED7101689085D566034CA9DD4A0DA27112A652343D8CCC2C749E1AC0660FFB844FFA3CEF011F
310
50A80AAC090BD793B3E374364F5DA2E8A4F1067B454A9B5634ABB9D9E27AAE831ECA0BDD68F38A9A2CAB92254C32FEBDFC17504B0304140006080800A1A0AF427013308B7D0000009D0000000B0000006662782F636E782E786D6C4DCCD10A83201886E15B91FFDC65E698811A6A5D482C0B59E9703A76F9ABD1C18E3E78F8
310
7845F7D956F476E9E56390505F082017EE71F2619150F28C39A04E891463FEBB010AE3E6241C0C4A2C2996E749939BC7B2E65D571F1E275E5BAE49AB2D268C53CC6EB6C7860F3D6EA8D5CD503343B5814A89EA57DAF708AB2F504B0304140006080800A1A0AF42FC42FC572B01000015020000310000006662782F35393841
310
303941432D303438322D343743442D423845442D3332434133453134423241422F636F72652E786D6C8D515B6EC32010BC0AE22B55858DC1769D0813398F1BF402C4262E4A0C168F2AC72FD48ED4FEE58745B333B3A35DB67F4C77F02DAD5346B7B0C8300452F766507A6C61F057D440B0E7CC1AE3FFD020D062922D4C30E4
310
6CB426CC2BD41BEDA5F611D566902B289C931E82FE1E3F2D74FD979C4426828F0C77CB66D1DFC428B3228BEDC8E3CC791B038065487A21AFB64D87B7DD11E1B221A8FC389ED0A1399F1025C78E9E8BF240BA03CB17216721A86195AB21C6515725EDAB2649CC9957D3337E6FA5F072809CE082225CA1A2FA247887AB1DA6EF
310
F1A598E589FE4F14E6E1455150DA53B2C65D640EF282E54B83B3C184CBFD19463E66633D48F3364EF66F90E30CE3A66E704D2A962FDCB881685A97ABA9F3C6C60D6F6E9748A7AB735D7296A723C5F27BC158D341F90F504B0304140006080800A1A0AF4256BD05415501000033030000300000006662782F35393841303941
310
432D303438322D343743442D423845442D3332434133453134423241422F636E782E786D6CBD93CB6EC23010457FC5F2B6CA8B0042C8315217FD822EBA75EC81BA3876E44755FEBE6330940D8B4A5537A3E8CE9DB9A32387EDBE26433EC107EDEC40BBBAA504AC744ADBC34053DC571B4A769C79E7E29D8D122B2618689629
310
6707EFD25C24057B914C44D5687B2CA287E092971050CE93C438290C2E005B2514611A412950E466C4AF3D783C05C5F144E23B9097E737E2C60F9031B0266FE1ACC9199CE55A92EE4C94482342186890EF30895AA4E8148463AD441475575FB31EDCF4B389E4816B64F29AE4F081E64A79B9A8468EACC12667217AA4574CF1
310
3403E5629E8D962222E4E66CBC78384BDAC6F5B2783582F7E8EE17EBCD06979D7B9C453D4171480F2282A27CD1767DD5AEAA6EF5BA68B7ED6ADBF64F58FB9635D9CED9E89C2943B806BC9B897436828D9477ACC9ED47F88A8F28ED91B5F3A75F80440025F542E7B6E32FF974EB7EB9FC473ECDF97D232E8F7F01FF06504B03
310
04140006080800A1A0AF42C328433762070000991B0000340000006662782F35393841303941432D303438322D343743442D423845442D3332434133453134423241422F6F626A656374732E786D6CED595B73A33614FE2B0C7D691F8C8DED64930EA1933897F1EC647767DDDDE98367181964A246084612B9F4D7F7E80206
310
6212DC4DDFF6C106847474CE77AE3A047F3C65D479C05C909C9DB9BE37711DCCE23C212C3D734BB91D9DB8CE1F61C0F35C36A6B90E43193E73D5B01B0629CFCBC20E25788B4A2A3BA3D7177F3922C60CBB4E4C911067AE88EF70863C54CA3CC1E2DE4B90445EBA7DF27CCF4C6C934D392AEE3A440BC43193C0298C33A0E218
310
A6FCF6E3C41D87C158BD0F03F56F67CD06CD9AF7CF1A6BA9DB5C12262462F10B963A646683589AF9F3CBABE9D1E9E8683E9F8DE6C7537F74717D7139F23FCC268BE3C5E2F4FCEA14D8DBE439B53225B8C02C01FD3DBBA11F8CD59B5A748BC03EAEE39C311C6B20012A2D569720C102B66AC037693FFA4AA2C66B2D61E379AE
310
DE5B161AC3B33695BE59C38068D10541EC7695C4D5B5295FBEF91B0417438C920B2C815B213968D7C2C3C12BDC70128CCD68186C76BA20C2C990C49C20EA50B2E188835260AA9A1206668125A39C8303294749A035675EB76D0B3CF36DD7D9C7E5B6A45479861B6AC78AC0FDB0149A33F20FE63BEE9BC8004F206D49983CB1
310
5CCAE702BBE16930D68361A02EB3A97D698074B614A5422362DE76045D28D75F5EBAE1C7EBCDD34A8583FD9B173C2F3097CAE8941E355F60C8F6AA50B2DBFA8334A71680300654BB7207CA5740FE13448F1D2BA0374E9EE64F733B5772C4C436E719E8C69938A309FC4D1C5FFFABFBC65D30AE17B7B5D78727B8A982EAE4C7
310
F16CCBA0B1B2FC37E00C830730F89CCFECAB558C28D8F32D610090321287E63004A17DBB7972C325044E08F4B00AD1D0079181DD07B80DC696CC4E2B957B59AF6380A8DD63364449009BB64860A3474F37903D3889776A6A8AD807EFD1BB98EBF9E5EAE3AAE45B14E35BEBD397784B18919035F733D4C2BC25D13D7E7ECC79
310
0282BEC47BD5C43BB35B09405B61AE804F2B10D4C36EE7D60631AC4B73156E823776002154AE6ED0BF2522C6942286F3B2DAB78E6ECA506B8FB735831B4E0DC4B369C784397E20AAAA00A7D9CD68310A793FE6A45020BAE18D91AC0E9A5E8F74DF969FC022EBF93DB3960C422F43F44F1DB4F6E0D0B2EC0A690B442DF06617
310
CEE39CE63CDA3C4726D2B9504B001B6D6FF9DE220AB1DE284951010FD27E578594D4481B2564BB2D05C4D53D2C7E5F2E9AE630F166FE91D3FCEF38E31CA22DF82EE2D6EF3A7B442443298EB628E9DBAEB95B4D5B68923DA439DE52908B3C10F91C21194D129C1E02CD41C44FDF957A4A732108C302F2D55EF09B684C3C0824
310
469B15CB4AAB1DA08988322C113D040145A6075C9D76748D1B43E9F0368FB5F5BEA6B126D1FFC92238825A32671181521472C89B8CFBDE11C49036BA06E50EBE606D156D2D062DA184889FA3474CD23B7908EA867C0FEE311C494A19E5058AC1AC07907DE12B4AA91DDE3728BE57F9238A4BFA5E062230DD4684D2328BE047
310
189C3C86B8761D985E45A141DCC43E893328CA902CF9904D8E8F262FF631354337043636DA120A613BCA50D1837A2B20EA7AC4A9C1B7D47B94BA29B32242595EB24186E2CDBADE64C977D5AAC80EE457958A503656842DC130204CD659B58AD960EA3AB0821BE940F51C099415D49CC2DE483C7EED4D9A72EF06DCFAE9FB6E
310
9041E1D7A3BD66449D5730581E5B8581784432BE73C395BE8E2EA0FE4E70B24BF555ADD9AC00013115C94B4EAC8ABE2DA1BCB1359A1BDE2229D63726EB56D76F4B0FBA1FC118D640ED522F5C2AA033CC245295C9ADBAA15F1184E0160D33BE5439F5102AE749A2AB4644AF499F3A5B65446BD38C78C51D6679063FB6262CA6
310
6582D72811F7D1ADA4D18A28D6AD945E462A8C5F15F0F3CDAA030F8C0C10E98B2AF0F06367AD1D5DA872692F117957661B860804C19668A9D18D57B0D46AA4D2727D55670AA8BBC0C0AC8AE73F4F16CD76C4CF93456A0DE3C74E1634DF20BA8B368D6C1E2BB33EE81450A72745E53D4E01BAEB5053AD9388C9E5567CEB4B11
310
C4C42AC80F2EC6AA986108F671FC9F93765F1234DB75F83F2C69FB2F0A8E83924A6BB26A52ED295C97CD1476BA389E5E1F9F2F46D78BA3F968BEB8F0472757A757A3D9E4F4C3ECC3D5E4FA727A52A3A9FD340CEA58A653173C9B98560DAB278B013465454E490287F9C44931847C0947FA01DD739E6101B9B3D9EB4E6C4F7E
310
C0EA07D3E694684371C5C91D82FE301590D501A33296ED71E717E84C4A38679FB9D033F2EEE1CF5AA5EB40E23973A15320498C85B7812E93EAE769E2907175EAB7C4001FC4529511CDA2FAB95EA5B06945FF7ACA902C60E56AB530A06E2BA0F9D56A5068DE2C4FF1418257EC3848C2EDA69450AC19597603B5307A9B9DFA8D
310
6C94B07BBBF513B8EEEB62F99E9ED34264D01783578DC0501D49C453DDEE568C5996CE2FBF8CA1CDE62C3F3B052D53D0E5704A238EC1984B554F81158155589A059260AA8BDFD75F780E5F7832471745CEAF4F27C7BFAD177996E5CC0CADCFE15096C077226775075F7D9235D40E58F5D6C57A3AF1A76BDDD3B66DF6688304
310
F654510403552DA104E9981CD8E58BFE94ED5E8E952A3AD397978E0DA2D00B3076F4A2C56BBE7139E043EA6B8AF218EDE795B4AFB6B5C77A2AD804878674F82F504B0304140006080000A1A0AF42000000000000000000000000350000006662782F35393841303941432D303438322D343743442D423845442D3332434133
310
453134423241422F76657274696365732E62696E504B0304140006080800A1A0AF42F270F1330600000004000000360000006662782F35393841303941432D303438322D343743442D423845442D3332434133453134423241422F747269616E676C65732E62696E636660600000504B0304140006080000A1A0AF42000000
310
000000000000000000370000006662782F35393841303941432D303438322D343743442D423845442D3332434133453134423241422F617474726962757465732E62696E504B0304140006080800A1A0AF42D5987DFC8F00000041010000360000006662782F35393841303941432D303438322D343743442D423845442D33
310
32434133453134423241422F6469726563746F72792E786D6C858F410EC2201045AF4266AF15DDB800BA74E7C21B903225242D6328188F2FA5C4183471359997F9FF81E89FF3C41E1816475E02DF1F80A11FC8386F25A438EECEC07A250251FC3803E6F58C12560C4AD840E95E91C151A72936F496F35732D860FE635F62C8
310
F2DA16B505C545B74125BAA2FA9E05D7CC053D063734D5C7665FD55B6B8D15D5E9BFEAFD8490FFA45E504B0304140006080800A1A0AF420E440915FD000000A00100003B0000006662782F35393841303941432D303438322D343743442D423845442D3332434133453134423241422F7265736F75726365732F636F72652E
310
786D6C8D50596E833010BD0A9ADFCA60B3041219472D4D4FD00B586642AD041B79A97AFC9A40A5F6AF3F33A3B7689E1E3F7FCDF7EC139DD7D6F4C0720A191A65476DA61E62B8920EB2B3E0CEDAF04B06999133F6B0C220F8E46C5C76485913D084841A3BE20E4AEF3140A6EEE9E8C1AB0F9C652E63480A7FCB17A96E72C29C
310
E5894E3AC17D702940B63D59270887DE46A7D0F36263058F518FBB468FE9A7BE6A74205E5ADA1DDBAA2687E1D092FA580EA41BCA96BC5D86A6A6ECF5F2DC5D78B19A050F7AFEC9A81CCA80238892B28AD086B0E6BDA427DA9C68F594664579B1CAFF98E232FED314B50955B9C7DD6C1E044B411E84E0C5DA575A8F32D35EBB
310
15DF504B010214000A0000080000A1A0AF423DEE336E79000000790000001B00000000000000000000000000000000006175746F6465736B2D64657369676E2D7061636B6167652E786D6C504B01021400140006080800A1A0AF42D486FD9CA0000000F40000001300000000000000000000000000B20000005B436F6E7465
310
6E745F54797065735D2E786D6C504B01021400140006080800A1A0AF421DEF278DEB0000007C010000080000000000000000000000000083010000636F72652E786D6C504B01021400140006080800A1A0AF4255019EA25F0000007C000000070000000000000000000000000094020000636E782E786D6C504B0102140014
310
0006080800A1A0AF427D0E4DDD67010000020300000C00000000000000000000000000180300006662782F636F72652E786D6C504B01021400140006080800A1A0AF427013308B7D0000009D0000000B00000000000000000000000000A90400006662782F636E782E786D6C504B01021400140006080800A1A0AF42FC42FC
310
572B0100001502000031000000000000000000000000004F0500006662782F35393841303941432D303438322D343743442D423845442D3332434133453134423241422F636F72652E786D6C504B01021400140006080800A1A0AF4256BD054155010000330300003000000000000000000000000000C90600006662782F35
310
393841303941432D303438322D343743442D423845442D3332434133453134423241422F636E782E786D6C504B01021400140006080800A1A0AF42C328433762070000991B000034000000000000000000000000006C0800006662782F35393841303941432D303438322D343743442D423845442D33324341334531344232
310
41422F6F626A656374732E786D6C504B01021400140006080000A1A0AF420000000000000000000000003500000000000000000000000000201000006662782F35393841303941432D303438322D343743442D423845442D3332434133453134423241422F76657274696365732E62696E504B01021400140006080800A1A0
310
AF42F270F13306000000040000003600000000000000000000000000731000006662782F35393841303941432D303438322D343743442D423845442D3332434133453134423241422F747269616E676C65732E62696E504B01021400140006080000A1A0AF4200000000000000000000000037000000000000000000000000
310
00CD1000006662782F35393841303941432D303438322D343743442D423845442D3332434133453134423241422F617474726962757465732E62696E504B01021400140006080800A1A0AF42D5987DFC8F000000410100003600000000000000000000000000221100006662782F35393841303941432D303438322D343743
310
442D423845442D3332434133453134423241422F6469726563746F72792E786D6C504B01021400140006080800A1A0AF420E440915FD000000A00100003B00000000000000000000000000051200006662782F35393841303941432D303438322D343743442D423845442D3332434133453134423241422F7265736F757263
310
65732F636F72652E786D6C504B0506000000000E000E00800400005B1300000000
  0
XRECORD
  5
27
102
{ACAD_REACTORS
330
22
102
}
330
22
100
AcDbXrecord
280
     1
270
     1
271
     1
  0
XRECORD
  5
26
102
{ACAD_REACTORS
330
22
102
}
330
22
100
AcDbXrecord
280
     1
270
     1
271
     1
  0
XRECORD
  5
28
102
{ACAD_REACTORS
330
22
102
}
330
22
100
AcDbXrecord
280
     1
270
     1
271
     1
  0
XRECORD
  5
25
102
{ACAD_REACTORS
330
22
102
}
330
22
100
AcDbXrecord
280
     1
270
     1
271
     1
  0
XRECORD
  5
1570
102
{ACAD_REACTORS
330
156F
102
}
330
156F
100
AcDbXrecord
280
     1
102
ACAD_ROUNDTRIP_2012_MLEADER_STYLE
298
     1
  0
CELLSTYLEMAP
  5
156E
102
{ACAD_REACTORS
330
156D
102
}
330
156D
100
AcDbCellStyleMap
 90
        3
300
CELLSTYLE
  1
TABLEFORMAT_BEGIN
 90
        5
170
     1
 91
        0
 92
    32768
 62
   257
 93
        1
300
CONTENTFORMAT
  1
CONTENTFORMAT_BEGIN
 90
        0
 91
        0
 92
      512
 93
        0
300

 40
0.0
140
1.0
 94
        5
 62
     0
340
55
144
0.25
309
CONTENTFORMAT_END
171
     0
 94
        0
309
TABLEFORMAT_END
  1
CELLSTYLE_BEGIN
 90
        1
 91
        1
300
_TITLE
309
CELLSTYLE_END
300
CELLSTYLE
  1
TABLEFORMAT_BEGIN
 90
        5
170
     1
 91
        0
 92
        0
 62
   257
 93
        1
300
CONTENTFORMAT
  1
CONTENTFORMAT_BEGIN
 90
        0
 91
        0
 92
      512
 93
        0
300

 40
0.0
140
1.0
 94
        5
 62
     0
340
55
144
0.18
309
CONTENTFORMAT_END
171
     0
 94
        0
309
TABLEFORMAT_END
  1
CELLSTYLE_BEGIN
 90
        2
 91
        1
300
_HEADER
309
CELLSTYLE_END
300
CELLSTYLE
  1
TABLEFORMAT_BEGIN
 90
        5
170
     1
 91
        0
 92
        0
 62
   257
 93
        1
300
CONTENTFORMAT
  1
CONTENTFORMAT_BEGIN
 90
        0
 91
        0
 92
      512
 93
        0
300

 40
0.0
140
1.0
 94
        2
 62
     0
340
55
144
0.18
309
CONTENTFORMAT_END
171
     0
 94
        0
309
TABLEFORMAT_END
  1
CELLSTYLE_BEGIN
 90
        3
 91
        2
300
_DATA
309
CELLSTYLE_END
  0
XRECORD
  5
15A7
102
{ACAD_REACTORS
330
156D
102
}
330
156D
100
AcDbXrecord
280
     1
102
ACAD_ROUNDTRIP_PRE2007_TABLESTYLE
 90
      512
 91
        0
  1

 92
      512
 93
        0
  2

 94
      512
 95
        0
  3

  0
XRECORD
  5
1582
102
{ACAD_REACTORS
330
1581
102
}
330
1581
100
AcDbXrecord
280
     1
102
RTVSPropertyOp0
 70
     1
102
RTVSPropertyOp1
 70
     1
102
RTVSPropertyOp2
 70
     1
102
RTVSPropertyOp3
 70
     1
102
RTVSPropertyOp4
 70
     1
102
RTVSPropertyOp5
 70
     1
102
RTVSPropertyOp6
 70
     1
102
RTVSPropertyOp7
 70
     1
102
RTVSPropertyOp8
 70
     1
102
RTVSPropertyOp9
 70
     1
102
RTVSPropertyOp10
 70
     1
102
RTVSPropertyOp11
 70
     1
102
RTVSPropertyOp12
 70
     1
102
RTVSPropertyOp13
 70
     1
102
RTVSPropertyOp14
 70
     1
102
RTVSPropertyOp15
 70
     1
102
RTVSPropertyOp16
 70
     1
102
RTVSPropertyOp17
 70
     1
102
RTVSPropertyOp18
 70
     1
102
RTVSPropertyOp19
 70
     1
102
RTVSPropertyOp20
 70
     1
102
RTVSPropertyOp21
 70
     1
102
RTVSPropertyOp22
 70
     1
102
RTVSPropertyOp23
 70
     1
102
RTVSPropertyOp24
 70
     1
102
RTVSPropertyOp25
 70
     1
102
RTVSPropertyOp26
 70
     1
102
RTVSPropertyOp27
 70
     1
102
RTVSPropertyOp28
 70
     1
102
RTVSPropertyOp29
 70
     1
102
RTVSPropertyOp30
 70
     1
102
RTVSPropertyOp31
 70
     1
102
RTVSPropertyOp32
 70
     1
  0
XRECORD
  5
1580
102
{ACAD_REACTORS
330
157F
102
}
330
157F
100
AcDbXrecord
280
     1
102
RTVSPropertyOp0
 70
     1
102
RTVSPropertyOp1
 70
     1
102
RTVSPropertyOp2
 70
     1
102
RTVSPropertyOp3
 70
     1
102
RTVSPropertyOp4
 70
     1
102
RTVSPropertyOp5
 70
     1
102
RTVSPropertyOp6
 70
     1
102
RTVSPropertyOp7
 70
     1
102
RTVSPropertyOp8
 70
     1
102
RTVSPropertyOp9
 70
     1
102
RTVSPropertyOp10
 70
     1
102
RTVSPropertyOp11
 70
     1
102
RTVSPropertyOp12
 70
     1
102
RTVSPropertyOp13
 70
     1
102
RTVSPropertyOp14
 70
     1
102
RTVSPropertyOp15
 70
     1
102
RTVSPropertyOp16
 70
     1
102
RTVSPropertyOp17
 70
     1
102
RTVSPropertyOp18
 70
     1
102
RTVSPropertyOp19
 70
     1
102
RTVSPropertyOp20
 70
     1
102
RTVSPropertyOp21
 70
     1
102
RTVSPropertyOp22
 70
     1
102
RTVSPropertyOp23
 70
     1
102
RTVSPropertyOp24
 70
     1
102
RTVSPropertyOp25
 70
     1
102
RTVSPropertyOp26
 70
     1
102
RTVSPropertyOp27
 70
     1
102
RTVSPropertyOp28
 70
     1
102
RTVSPropertyOp29
 70
     1
102
RTVSPropertyOp30
 70
     1
102
RTVSPropertyOp31
 70
     1
102
RTVSPropertyOp32
 70
     1
  0
XRECORD
  5
158E
102
{ACAD_REACTORS
330
158D
102
}
330
158D
100
AcDbXrecord
280
     1
102
RTVSPropertyOp0
 70
     1
102
RTVSPropertyOp1
 70
     1
102
RTVSPropertyOp2
 70
     1
102
RTVSPropertyOp3
 70
     1
102
RTVSPropertyOp4
 70
     1
102
RTVSPropertyOp5
 70
     1
102
RTVSPropertyOp6
 70
     1
102
RTVSPropertyOp7
 70
     1
102
RTVSPropertyOp8
 70
     1
102
RTVSPropertyOp9
 70
     1
102
RTVSPropertyOp10
 70
     1
102
RTVSPropertyOp11
 70
     1
102
RTVSPropertyOp12
 70
     1
102
RTVSPropertyOp13
 70
     1
102
RTVSPropertyOp14
 70
     1
102
RTVSPropertyOp15
 70
     1
102
RTVSPropertyOp16
 70
     1
102
RTVSPropertyOp17
 70
     1
102
RTVSPropertyOp18
 70
     1
102
RTVSPropertyOp19
 70
     1
102
RTVSPropertyOp20
 70
     1
102
RTVSPropertyOp21
 70
     1
102
RTVSPropertyOp22
 70
     1
102
RTVSPropertyOp23
 70
     1
102
RTVSPropertyOp24
 70
     1
102
RTVSPropertyOp25
 70
     1
102
RTVSPropertyOp26
 70
     1
102
RTVSPropertyOp27
 70
     1
102
RTVSPropertyOp28
 70
     1
102
RTVSPropertyOp29
 70
     1
102
RTVSPropertyOp30
 70
     1
102
RTVSPropertyOp31
 70
     1
102
RTVSPropertyOp32
 70
     1
  0
XRECORD
  5
1596
102
{ACAD_REACTORS
330
1595
102
}
330
1595
100
AcDbXrecord
280
     1
102
RTVSPropertyOp0
 70
     1
102
RTVSPropertyOp1
 70
     1
102
RTVSPropertyOp2
 70
     1
102
RTVSPropertyOp3
 70
     1
102
RTVSPropertyOp4
 70
     1
102
RTVSPropertyOp5
 70
     1
102
RTVSPropertyOp6
 70
     1
102
RTVSPropertyOp7
 70
     1
102
RTVSPropertyOp8
 70
     1
102
RTVSPropertyOp9
 70
     1
102
RTVSPropertyOp10
 70
     1
102
RTVSPropertyOp11
 70
     1
102
RTVSPropertyOp12
 70
     1
102
RTVSPropertyOp13
 70
     1
102
RTVSPropertyOp14
 70
     1
102
RTVSPropertyOp15
 70
     1
102
RTVSPropertyOp16
 70
     1
102
RTVSPropertyOp17
 70
     1
102
RTVSPropertyOp18
 70
     1
102
RTVSPropertyOp19
 70
     1
102
RTVSPropertyOp20
 70
     1
102
RTVSPropertyOp21
 70
     1
102
RTVSPropertyOp22
 70
     1
102
RTVSPropertyOp23
 70
     1
102
RTVSPropertyOp24
 70
     1
102
RTVSPropertyOp25
 70
     1
102
RTVSPropertyOp26
 70
     1
102
RTVSPropertyOp27
 70
     1
102
RTVSPropertyOp28
 70
     1
102
RTVSPropertyOp29
 70
     1
102
RTVSPropertyOp30
 70
     1
102
RTVSPropertyOp31
 70
     1
102
RTVSPropertyOp32
 70
     1
  0
XRECORD
  5
1588
102
{ACAD_REACTORS
330
1587
102
}
330
1587
100
AcDbXrecord
280
     1
102
RTVSPropertyOp0
 70
     1
102
RTVSPropertyOp1
 70
     1
102
RTVSPropertyOp2
 70
     1
102
RTVSPropertyOp3
 70
     1
102
RTVSPropertyOp4
 70
     1
102
RTVSPropertyOp5
 70
     1
102
RTVSPropertyOp6
 70
     1
102
RTVSPropertyOp7
 70
     1
102
RTVSPropertyOp8
 70
     1
102
RTVSPropertyOp9
 70
     1
102
RTVSPropertyOp10
 70
     1
102
RTVSPropertyOp11
 70
     1
102
RTVSPropertyOp12
 70
     1
102
RTVSPropertyOp13
 70
     1
102
RTVSPropertyOp14
 70
     1
102
RTVSPropertyOp15
 70
     1
102
RTVSPropertyOp16
 70
     1
102
RTVSPropertyOp17
 70
     1
102
RTVSPropertyOp18
 70
     1
102
RTVSPropertyOp19
 70
     1
102
RTVSPropertyOp20
 70
     1
102
RTVSPropertyOp21
 70
     1
102
RTVSPropertyOp22
 70
     1
102
RTVSPropertyOp23
 70
     1
102
RTVSPropertyOp24
 70
     1
102
RTVSPropertyOp25
 70
     1
102
RTVSPropertyOp26
 70
     1
102
RTVSPropertyOp27
 70
     1
102
RTVSPropertyOp28
 70
     1
102
RTVSPropertyOp29
 70
     1
102
RTVSPropertyOp30
 70
     1
102
RTVSPropertyOp31
 70
     1
102
RTVSPropertyOp32
 70
     1
  0
XRECORD
  5
158C
102
{ACAD_REACTORS
330
158B
102
}
330
158B
100
AcDbXrecord
280
     1
102
RTVSPropertyOp0
 70
     1
102
RTVSPropertyOp1
 70
     1
102
RTVSPropertyOp2
 70
     1
102
RTVSPropertyOp3
 70
     1
102
RTVSPropertyOp4
 70
     1
102
RTVSPropertyOp5
 70
     1
102
RTVSPropertyOp6
 70
     1
102
RTVSPropertyOp7
 70
     1
102
RTVSPropertyOp8
 70
     1
102
RTVSPropertyOp9
 70
     1
102
RTVSPropertyOp10
 70
     1
102
RTVSPropertyOp11
 70
     1
102
RTVSPropertyOp12
 70
     1
102
RTVSPropertyOp13
 70
     1
102
RTVSPropertyOp14
 70
     1
102
RTVSPropertyOp15
 70
     1
102
RTVSPropertyOp16
 70
     1
102
RTVSPropertyOp17
 70
     1
102
RTVSPropertyOp18
 70
     1
102
RTVSPropertyOp19
 70
     1
102
RTVSPropertyOp20
 70
     1
102
RTVSPropertyOp21
 70
     1
102
RTVSPropertyOp22
 70
     1
102
RTVSPropertyOp23
 70
     1
102
RTVSPropertyOp24
 70
     1
102
RTVSPropertyOp25
 70
     1
102
RTVSPropertyOp26
 70
     1
102
RTVSPropertyOp27
 70
     1
102
RTVSPropertyOp28
 70
     1
102
RTVSPropertyOp29
 70
     1
102
RTVSPropertyOp30
 70
     1
102
RTVSPropertyOp31
 70
     1
102
RTVSPropertyOp32
 70
     1
  0
XRECORD
  5
15A6
102
{ACAD_REACTORS
330
15A5
102
}
330
15A5
100
AcDbXrecord
280
     1
102
RTVSPropertyOp0
 70
     0
102
RTVSPropertyOp1
 70
     0
102
RTVSPropertyOp2
 70
     0
102
RTVSPropertyOp3
 70
     0
102
RTVSPropertyOp4
 70
     0
102
RTVSPropertyOp5
 70
     0
102
RTVSPropertyOp6
 70
     0
102
RTVSPropertyOp7
 70
     0
102
RTVSPropertyOp8
 70
     0
102
RTVSPropertyOp9
 70
     0
102
RTVSPropertyOp10
 70
     0
102
RTVSPropertyOp11
 70
     0
102
RTVSPropertyOp12
 70
     0
102
RTVSPropertyOp13
 70
     0
102
RTVSPropertyOp14
 70
     2
102
RTVSPropertyOp15
 70
     0
102
RTVSPropertyOp16
 70
     0
102
RTVSPropertyOp17
 70
     0
102
RTVSPropertyOp18
 70
     0
102
RTVSPropertyOp19
 70
     0
102
RTVSPropertyOp20
 70
     0
102
RTVSPropertyOp21
 70
     0
102
RTVSPropertyOp22
 70
     0
102
RTVSPropertyOp23
 70
     0
102
RTVSPropertyOp24
 70
     0
102
RTVSPropertyOp25
 70
     0
102
RTVSPropertyOp26
 70
     0
102
RTVSPropertyOp27
 70
     0
102
RTVSPropertyOp28
 70
     1
102
RTVSPropertyOp29
 70
     1
102
RTVSPropertyOp30
 70
     1
102
RTVSPropertyOp31
 70
     1
102
RTVSPropertyOp32
 70
     1
  0
XRECORD
  5
1594
102
{ACAD_REACTORS
330
1593
102
}
330
1593
100
AcDbXrecord
280
     1
102
RTVSPropertyOp0
 70
     1
102
RTVSPropertyOp1
 70
     1
102
RTVSPropertyOp2
 70
     1
102
RTVSPropertyOp3
 70
     1
102
RTVSPropertyOp4
 70
     1
102
RTVSPropertyOp5
 70
     1
102
RTVSPropertyOp6
 70
     1
102
RTVSPropertyOp7
 70
     1
102
RTVSPropertyOp8
 70
     1
102
RTVSPropertyOp9
 70
     1
102
RTVSPropertyOp10
 70
     1
102
RTVSPropertyOp11
 70
     1
102
RTVSPropertyOp12
 70
     1
102
RTVSPropertyOp13
 70
     1
102
RTVSPropertyOp14
 70
     1
102
RTVSPropertyOp15
 70
     1
102
RTVSPropertyOp16
 70
     1
102
RTVSPropertyOp17
 70
     1
102
RTVSPropertyOp18
 70
     1
102
RTVSPropertyOp19
 70
     1
102
RTVSPropertyOp20
 70
     1
102
RTVSPropertyOp21
 70
     1
102
RTVSPropertyOp22
 70
     1
102
RTVSPropertyOp23
 70
     1
102
RTVSPropertyOp24
 70
     1
102
RTVSPropertyOp25
 70
     1
102
RTVSPropertyOp26
 70
     1
102
RTVSPropertyOp27
 70
     1
102
RTVSPropertyOp28
 70
     1
102
RTVSPropertyOp29
 70
     1
102
RTVSPropertyOp30
 70
     1
102
RTVSPropertyOp31
 70
     1
102
RTVSPropertyOp32
 70
     1
  0
XRECORD
  5
1578
102
{ACAD_REACTORS
330
1577
102
}
330
1577
100
AcDbXrecord
280
     1
102
RTVSPropertyOp0
 70
     1
102
RTVSPropertyOp1
 70
     1
102
RTVSPropertyOp2
 70
     1
102
RTVSPropertyOp3
 70
     1
102
RTVSPropertyOp4
 70
     1
102
RTVSPropertyOp5
 70
     1
102
RTVSPropertyOp6
 70
     1
102
RTVSPropertyOp7
 70
     1
102
RTVSPropertyOp8
 70
     1
102
RTVSPropertyOp9
 70
     1
102
RTVSPropertyOp10
 70
     1
102
RTVSPropertyOp11
 70
     1
102
RTVSPropertyOp12
 70
     1
102
RTVSPropertyOp13
 70
     1
102
RTVSPropertyOp14
 70
     1
102
RTVSPropertyOp15
 70
     1
102
RTVSPropertyOp16
 70
     1
102
RTVSPropertyOp17
 70
     1
102
RTVSPropertyOp18
 70
     1
102
RTVSPropertyOp19
 70
     1
102
RTVSPropertyOp20
 70
     1
102
RTVSPropertyOp21
 70
     1
102
RTVSPropertyOp22
 70
     1
102
RTVSPropertyOp23
 70
     1
102
RTVSPropertyOp24
 70
     1
102
RTVSPropertyOp25
 70
     1
102
RTVSPropertyOp26
 70
     1
102
RTVSPropertyOp27
 70
     1
102
RTVSPropertyOp28
 70
     1
102
RTVSPropertyOp29
 70
     1
102
RTVSPropertyOp30
 70
     1
102
RTVSPropertyOp31
 70
     1
102
RTVSPropertyOp32
 70
     1
  0
XRECORD
  5
157A
102
{ACAD_REACTORS
330
1579
102
}
330
1579
100
AcDbXrecord
280
     1
102
RTVSPropertyOp0
 70
     1
102
RTVSPropertyOp1
 70
     1
102
RTVSPropertyOp2
 70
     1
102
RTVSPropertyOp3
 70
     1
102
RTVSPropertyOp4
 70
     1
102
RTVSPropertyOp5
 70
     1
102
RTVSPropertyOp6
 70
     1
102
RTVSPropertyOp7
 70
     1
102
RTVSPropertyOp8
 70
     1
102
RTVSPropertyOp9
 70
     1
102
RTVSPropertyOp10
 70
     1
102
RTVSPropertyOp11
 70
     1
102
RTVSPropertyOp12
 70
     1
102
RTVSPropertyOp13
 70
     1
102
RTVSPropertyOp14
 70
     1
102
RTVSPropertyOp15
 70
     1
102
RTVSPropertyOp16
 70
     1
102
RTVSPropertyOp17
 70
     1
102
RTVSPropertyOp18
 70
     1
102
RTVSPropertyOp19
 70
     1
102
RTVSPropertyOp20
 70
     1
102
RTVSPropertyOp21
 70
     1
102
RTVSPropertyOp22
 70
     1
102
RTVSPropertyOp23
 70
     1
102
RTVSPropertyOp24
 70
     1
102
RTVSPropertyOp25
 70
     1
102
RTVSPropertyOp26
 70
     1
102
RTVSPropertyOp27
 70
     1
102
RTVSPropertyOp28
 70
     1
102
RTVSPropertyOp29
 70
     1
102
RTVSPropertyOp30
 70
     1
102
RTVSPropertyOp31
 70
     1
102
RTVSPropertyOp32
 70
     1
  0
XRECORD
  5
157C
102
{ACAD_REACTORS
330
157B
102
}
330
157B
100
AcDbXrecord
280
     1
102
RTVSPropertyOp0
 70
     1
102
RTVSPropertyOp1
 70
     1
102
RTVSPropertyOp2
 70
     1
102
RTVSPropertyOp3
 70
     1
102
RTVSPropertyOp4
 70
     1
102
RTVSPropertyOp5
 70
     1
102
RTVSPropertyOp6
 70
     1
102
RTVSPropertyOp7
 70
     1
102
RTVSPropertyOp8
 70
     1
102
RTVSPropertyOp9
 70
     1
102
RTVSPropertyOp10
 70
     1
102
RTVSPropertyOp11
 70
     1
102
RTVSPropertyOp12
 70
     1
102
RTVSPropertyOp13
 70
     1
102
RTVSPropertyOp14
 70
     1
102
RTVSPropertyOp15
 70
     1
102
RTVSPropertyOp16
 70
     1
102
RTVSPropertyOp17
 70
     1
102
RTVSPropertyOp18
 70
     1
102
RTVSPropertyOp19
 70
     1
102
RTVSPropertyOp20
 70
     1
102
RTVSPropertyOp21
 70
     1
102
RTVSPropertyOp22
 70
     1
102
RTVSPropertyOp23
 70
     1
102
RTVSPropertyOp24
 70
     1
102
RTVSPropertyOp25
 70
     1
102
RTVSPropertyOp26
 70
     1
102
RTVSPropertyOp27
 70
     1
102
RTVSPropertyOp28
 70
     1
102
RTVSPropertyOp29
 70
     1
102
RTVSPropertyOp30
 70
     1
102
RTVSPropertyOp31
 70
     1
102
RTVSPropertyOp32
 70
     1
  0
XRECORD
  5
157E
102
{ACAD_REACTORS
330
157D
102
}
330
157D
100
AcDbXrecord
280
     1
102
RTVSPropertyOp0
 70
     1
102
RTVSPropertyOp1
 70
     1
102
RTVSPropertyOp2
 70
     1
102
RTVSPropertyOp3
 70
     1
102
RTVSPropertyOp4
 70
     1
102
RTVSPropertyOp5
 70
     1
102
RTVSPropertyOp6
 70
     1
102
RTVSPropertyOp7
 70
     1
102
RTVSPropertyOp8
 70
     1
102
RTVSPropertyOp9
 70
     1
102
RTVSPropertyOp10
 70
     1
102
RTVSPropertyOp11
 70
     1
102
RTVSPropertyOp12
 70
     1
102
RTVSPropertyOp13
 70
     1
102
RTVSPropertyOp14
 70
     1
102
RTVSPropertyOp15
 70
     1
102
RTVSPropertyOp16
 70
     1
102
RTVSPropertyOp17
 70
     1
102
RTVSPropertyOp18
 70
     1
102
RTVSPropertyOp19
 70
     1
102
RTVSPropertyOp20
 70
     1
102
RTVSPropertyOp21
 70
     1
102
RTVSPropertyOp22
 70
     1
102
RTVSPropertyOp23
 70
     1
102
RTVSPropertyOp24
 70
     1
102
RTVSPropertyOp25
 70
     1
102
RTVSPropertyOp26
 70
     1
102
RTVSPropertyOp27
 70
     1
102
RTVSPropertyOp28
 70
     1
102
RTVSPropertyOp29
 70
     1
102
RTVSPropertyOp30
 70
     1
102
RTVSPropertyOp31
 70
     1
102
RTVSPropertyOp32
 70
     1
  0
XRECORD
  5
1586
102
{ACAD_REACTORS
330
1585
102
}
330
1585
100
AcDbXrecord
280
     1
102
RTVSPropertyOp0
 70
     1
102
RTVSPropertyOp1
 70
     1
102
RTVSPropertyOp2
 70
     1
102
RTVSPropertyOp3
 70
     1
102
RTVSPropertyOp4
 70
     1
102
RTVSPropertyOp5
 70
     1
102
RTVSPropertyOp6
 70
     1
102
RTVSPropertyOp7
 70
     1
102
RTVSPropertyOp8
 70
     1
102
RTVSPropertyOp9
 70
     1
102
RTVSPropertyOp10
 70
     1
102
RTVSPropertyOp11
 70
     1
102
RTVSPropertyOp12
 70
     1
102
RTVSPropertyOp13
 70
     1
102
RTVSPropertyOp14
 70
     1
102
RTVSPropertyOp15
 70
     1
102
RTVSPropertyOp16
 70
     1
102
RTVSPropertyOp17
 70
     1
102
RTVSPropertyOp18
 70
     1
102
RTVSPropertyOp19
 70
     1
102
RTVSPropertyOp20
 70
     1
102
RTVSPropertyOp21
 70
     1
102
RTVSPropertyOp22
 70
     1
102
RTVSPropertyOp23
 70
     1
102
RTVSPropertyOp24
 70
     1
102
RTVSPropertyOp25
 70
     1
102
RTVSPropertyOp26
 70
     1
102
RTVSPropertyOp27
 70
     1
102
RTVSPropertyOp28
 70
     1
102
RTVSPropertyOp29
 70
     1
102
RTVSPropertyOp30
 70
     1
102
RTVSPropertyOp31
 70
     1
102
RTVSPropertyOp32
 70
     1
  0
XRECORD
  5
15A2
102
{ACAD_REACTORS
330
15A1
102
}
330
15A1
100
AcDbXrecord
280
     1
102
RTVSPropertyOp0
 70
     0
102
RTVSPropertyOp1
 70
     0
102
RTVSPropertyOp2
 70
     0
102
RTVSPropertyOp3
 70
     0
102
RTVSPropertyOp4
 70
     0
102
RTVSPropertyOp5
 70
     0
102
RTVSPropertyOp6
 70
     0
102
RTVSPropertyOp7
 70
     0
102
RTVSPropertyOp8
 70
     0
102
RTVSPropertyOp9
 70
     0
102
RTVSPropertyOp10
 70
     0
102
RTVSPropertyOp11
 70
     0
102
RTVSPropertyOp12
 70
     0
102
RTVSPropertyOp13
 70
     0
102
RTVSPropertyOp14
 70
     2
102
RTVSPropertyOp15
 70
     0
102
RTVSPropertyOp16
 70
     0
102
RTVSPropertyOp17
 70
     0
102
RTVSPropertyOp18
 70
     0
102
RTVSPropertyOp19
 70
     0
102
RTVSPropertyOp20
 70
     0
102
RTVSPropertyOp21
 70
     0
102
RTVSPropertyOp22
 70
     0
102
RTVSPropertyOp23
 70
     0
102
RTVSPropertyOp24
 70
     0
102
RTVSPropertyOp25
 70
     0
102
RTVSPropertyOp26
 70
     0
102
RTVSPropertyOp27
 70
     0
102
RTVSPropertyOp28
 70
     1
102
RTVSPropertyOp29
 70
     1
102
RTVSPropertyOp30
 70
     1
102
RTVSPropertyOp31
 70
     1
102
RTVSPropertyOp32
 70
     1
  0
XRECORD
  5
1592
102
{ACAD_REACTORS
330
1591
102
}
330
1591
100
AcDbXrecord
280
     1
102
RTVSPropertyOp0
 70
     1
102
RTVSPropertyOp1
 70
     1
102
RTVSPropertyOp2
 70
     1
102
RTVSPropertyOp3
 70
     1
102
RTVSPropertyOp4
 70
     1
102
RTVSPropertyOp5
 70
     1
102
RTVSPropertyOp6
 70
     1
102
RTVSPropertyOp7
 70
     1
102
RTVSPropertyOp8
 70
     1
102
RTVSPropertyOp9
 70
     1
102
RTVSPropertyOp10
 70
     1
102
RTVSPropertyOp11
 70
     1
102
RTVSPropertyOp12
 70
     1
102
RTVSPropertyOp13
 70
     1
102
RTVSPropertyOp14
 70
     1
102
RTVSPropertyOp15
 70
     1
102
RTVSPropertyOp16
 70
     1
102
RTVSPropertyOp17
 70
     1
102
RTVSPropertyOp18
 70
     1
102
RTVSPropertyOp19
 70
     1
102
RTVSPropertyOp20
 70
     1
102
RTVSPropertyOp21
 70
     1
102
RTVSPropertyOp22
 70
     1
102
RTVSPropertyOp23
 70
     1
102
RTVSPropertyOp24
 70
     1
102
RTVSPropertyOp25
 70
     1
102
RTVSPropertyOp26
 70
     1
102
RTVSPropertyOp27
 70
     1
102
RTVSPropertyOp28
 70
     1
102
RTVSPropertyOp29
 70
     1
102
RTVSPropertyOp30
 70
     1
102
RTVSPropertyOp31
 70
     1
102
RTVSPropertyOp32
 70
     1
  0
XRECORD
  5
15A4
102
{ACAD_REACTORS
330
15A3
102
}
330
15A3
100
AcDbXrecord
280
     1
102
RTVSPropertyOp0
 70
     0
102
RTVSPropertyOp1
 70
     0
102
RTVSPropertyOp2
 70
     0
102
RTVSPropertyOp3
 70
     0
102
RTVSPropertyOp4
 70
     0
102
RTVSPropertyOp5
 70
     0
102
RTVSPropertyOp6
 70
     0
102
RTVSPropertyOp7
 70
     0
102
RTVSPropertyOp8
 70
     0
102
RTVSPropertyOp9
 70
     0
102
RTVSPropertyOp10
 70
     0
102
RTVSPropertyOp11
 70
     0
102
RTVSPropertyOp12
 70
     0
102
RTVSPropertyOp13
 70
     0
102
RTVSPropertyOp14
 70
     2
102
RTVSPropertyOp15
 70
     0
102
RTVSPropertyOp16
 70
     0
102
RTVSPropertyOp17
 70
     0
102
RTVSPropertyOp18
 70
     0
102
RTVSPropertyOp19
 70
     0
102
RTVSPropertyOp20
 70
     0
102
RTVSPropertyOp21
 70
     0
102
RTVSPropertyOp22
 70
     0
102
RTVSPropertyOp23
 70
     0
102
RTVSPropertyOp24
 70
     0
102
RTVSPropertyOp25
 70
     0
102
RTVSPropertyOp26
 70
     0
102
RTVSPropertyOp27
 70
     0
102
RTVSPropertyOp28
 70
     1
102
RTVSPropertyOp29
 70
     1
102
RTVSPropertyOp30
 70
     1
102
RTVSPropertyOp31
 70
     1
102
RTVSPropertyOp32
 70
     1
  0
XRECORD
  5
158A
102
{ACAD_REACTORS
330
1589
102
}
330
1589
100
AcDbXrecord
280
     1
102
RTVSPropertyOp0
 70
     1
102
RTVSPropertyOp1
 70
     1
102
RTVSPropertyOp2
 70
     1
102
RTVSPropertyOp3
 70
     1
102
RTVSPropertyOp4
 70
     1
102
RTVSPropertyOp5
 70
     1
102
RTVSPropertyOp6
 70
     1
102
RTVSPropertyOp7
 70
     1
102
RTVSPropertyOp8
 70
     1
102
RTVSPropertyOp9
 70
     1
102
RTVSPropertyOp10
 70
     1
102
RTVSPropertyOp11
 70
     1
102
RTVSPropertyOp12
 70
     1
102
RTVSPropertyOp13
 70
     1
102
RTVSPropertyOp14
 70
     1
102
RTVSPropertyOp15
 70
     1
102
RTVSPropertyOp16
 70
     1
102
RTVSPropertyOp17
 70
     1
102
RTVSPropertyOp18
 70
     1
102
RTVSPropertyOp19
 70
     1
102
RTVSPropertyOp20
 70
     1
102
RTVSPropertyOp21
 70
     1
102
RTVSPropertyOp22
 70
     1
102
RTVSPropertyOp23
 70
     1
102
RTVSPropertyOp24
 70
     1
102
RTVSPropertyOp25
 70
     1
102
RTVSPropertyOp26
 70
     1
102
RTVSPropertyOp27
 70
     1
102
RTVSPropertyOp28
 70
     1
102
RTVSPropertyOp29
 70
     1
102
RTVSPropertyOp30
 70
     1
102
RTVSPropertyOp31
 70
     1
102
RTVSPropertyOp32
 70
     1
  0
XRECORD
  5
15A0
102
{ACAD_REACTORS
330
159F
102
}
330
159F
100
AcDbXrecord
280
     1
102
RTVSPropertyOp0
 70
     1
102
RTVSPropertyOp1
 70
     1
102
RTVSPropertyOp2
 70
     1
102
RTVSPropertyOp3
 70
     1
102
RTVSPropertyOp4
 70
     1
102
RTVSPropertyOp5
 70
     1
102
RTVSPropertyOp6
 70
     1
102
RTVSPropertyOp7
 70
     1
102
RTVSPropertyOp8
 70
     1
102
RTVSPropertyOp9
 70
     1
102
RTVSPropertyOp10
 70
     1
102
RTVSPropertyOp11
 70
     1
102
RTVSPropertyOp12
 70
     1
102
RTVSPropertyOp13
 70
     1
102
RTVSPropertyOp14
 70
     1
102
RTVSPropertyOp15
 70
     1
102
RTVSPropertyOp16
 70
     1
102
RTVSPropertyOp17
 70
     1
102
RTVSPropertyOp18
 70
     1
102
RTVSPropertyOp19
 70
     1
102
RTVSPropertyOp20
 70
     1
102
RTVSPropertyOp21
 70
     1
102
RTVSPropertyOp22
 70
     1
102
RTVSPropertyOp23
 70
     1
102
RTVSPropertyOp24
 70
     1
102
RTVSPropertyOp25
 70
     1
102
RTVSPropertyOp26
 70
     1
102
RTVSPropertyOp27
 70
     1
102
RTVSPropertyOp28
 70
     1
102
RTVSPropertyOp29
 70
     1
102
RTVSPropertyOp30
 70
     1
102
RTVSPropertyOp31
 70
     1
102
RTVSPropertyOp32
 70
     1
  0
XRECORD
  5
159E
102
{ACAD_REACTORS
330
159D
102
}
330
159D
100
AcDbXrecord
280
     1
102
RTVSPropertyOp0
 70
     1
102
RTVSPropertyOp1
 70
     1
102
RTVSPropertyOp2
 70
     1
102
RTVSPropertyOp3
 70
     1
102
RTVSPropertyOp4
 70
     1
102
RTVSPropertyOp5
 70
     1
102
RTVSPropertyOp6
 70
     1
102
RTVSPropertyOp7
 70
     1
102
RTVSPropertyOp8
 70
     1
102
RTVSPropertyOp9
 70
     1
102
RTVSPropertyOp10
 70
     1
102
RTVSPropertyOp11
 70
     1
102
RTVSPropertyOp12
 70
     1
102
RTVSPropertyOp13
 70
     1
102
RTVSPropertyOp14
 70
     1
102
RTVSPropertyOp15
 70
     1
102
RTVSPropertyOp16
 70
     1
102
RTVSPropertyOp17
 70
     1
102
RTVSPropertyOp18
 70
     1
102
RTVSPropertyOp19
 70
     1
102
RTVSPropertyOp20
 70
     1
102
RTVSPropertyOp21
 70
     1
102
RTVSPropertyOp22
 70
     1
102
RTVSPropertyOp23
 70
     1
102
RTVSPropertyOp24
 70
     1
102
RTVSPropertyOp25
 70
     1
102
RTVSPropertyOp26
 70
     1
102
RTVSPropertyOp27
 70
     1
102
RTVSPropertyOp28
 70
     1
102
RTVSPropertyOp29
 70
     1
102
RTVSPropertyOp30
 70
     1
102
RTVSPropertyOp31
 70
     1
102
RTVSPropertyOp32
 70
     1
  0
XRECORD
  5
1598
102
{ACAD_REACTORS
330
1597
102
}
330
1597
100
AcDbXrecord
280
     1
102
RTVSPropertyOp0
 70
     1
102
RTVSPropertyOp1
 70
     1
102
RTVSPropertyOp2
 70
     1
102
RTVSPropertyOp3
 70
     1
102
RTVSPropertyOp4
 70
     1
102
RTVSPropertyOp5
 70
     1
102
RTVSPropertyOp6
 70
     1
102
RTVSPropertyOp7
 70
     1
102
RTVSPropertyOp8
 70
     1
102
RTVSPropertyOp9
 70
     1
102
RTVSPropertyOp10
 70
     1
102
RTVSPropertyOp11
 70
     1
102
RTVSPropertyOp12
 70
     1
102
RTVSPropertyOp13
 70
     1
102
RTVSPropertyOp14
 70
     1
102
RTVSPropertyOp15
 70
     1
102
RTVSPropertyOp16
 70
     1
102
RTVSPropertyOp17
 70
     1
102
RTVSPropertyOp18
 70
     1
102
RTVSPropertyOp19
 70
     1
102
RTVSPropertyOp20
 70
     1
102
RTVSPropertyOp21
 70
     1
102
RTVSPropertyOp22
 70
     1
102
RTVSPropertyOp23
 70
     1
102
RTVSPropertyOp24
 70
     1
102
RTVSPropertyOp25
 70
     1
102
RTVSPropertyOp26
 70
     1
102
RTVSPropertyOp27
 70
     1
102
RTVSPropertyOp28
 70
     1
102
RTVSPropertyOp29
 70
     1
102
RTVSPropertyOp30
 70
     1
102
RTVSPropertyOp31
 70
     1
102
RTVSPropertyOp32
 70
     1
  0
XRECORD
  5
159A
102
{ACAD_REACTORS
330
1599
102
}
330
1599
100
AcDbXrecord
280
     1
102
RTVSPropertyOp0
 70
     1
102
RTVSPropertyOp1
 70
     1
102
RTVSPropertyOp2
 70
     1
102
RTVSPropertyOp3
 70
     1
102
RTVSPropertyOp4
 70
     1
102
RTVSPropertyOp5
 70
     1
102
RTVSPropertyOp6
 70
     1
102
RTVSPropertyOp7
 70
     1
102
RTVSPropertyOp8
 70
     1
102
RTVSPropertyOp9
 70
     1
102
RTVSPropertyOp10
 70
     1
102
RTVSPropertyOp11
 70
     1
102
RTVSPropertyOp12
 70
     1
102
RTVSPropertyOp13
 70
     1
102
RTVSPropertyOp14
 70
     1
102
RTVSPropertyOp15
 70
     1
102
RTVSPropertyOp16
 70
     1
102
RTVSPropertyOp17
 70
     1
102
RTVSPropertyOp18
 70
     1
102
RTVSPropertyOp19
 70
     1
102
RTVSPropertyOp20
 70
     1
102
RTVSPropertyOp21
 70
     1
102
RTVSPropertyOp22
 70
     1
102
RTVSPropertyOp23
 70
     1
102
RTVSPropertyOp24
 70
     1
102
RTVSPropertyOp25
 70
     1
102
RTVSPropertyOp26
 70
     1
102
RTVSPropertyOp27
 70
     1
102
RTVSPropertyOp28
 70
     1
102
RTVSPropertyOp29
 70
     1
102
RTVSPropertyOp30
 70
     1
102
RTVSPropertyOp31
 70
     1
102
RTVSPropertyOp32
 70
     1
  0
XRECORD
  5
1590
102
{ACAD_REACTORS
330
158F
102
}
330
158F
100
AcDbXrecord
280
     1
102
RTVSPropertyOp0
 70
     1
102
RTVSPropertyOp1
 70
     1
102
RTVSPropertyOp2
 70
     1
102
RTVSPropertyOp3
 70
     1
102
RTVSPropertyOp4
 70
     1
102
RTVSPropertyOp5
 70
     1
102
RTVSPropertyOp6
 70
     1
102
RTVSPropertyOp7
 70
     1
102
RTVSPropertyOp8
 70
     1
102
RTVSPropertyOp9
 70
     1
102
RTVSPropertyOp10
 70
     1
102
RTVSPropertyOp11
 70
     1
102
RTVSPropertyOp12
 70
     1
102
RTVSPropertyOp13
 70
     1
102
RTVSPropertyOp14
 70
     1
102
RTVSPropertyOp15
 70
     1
102
RTVSPropertyOp16
 70
     1
102
RTVSPropertyOp17
 70
     1
102
RTVSPropertyOp18
 70
     1
102
RTVSPropertyOp19
 70
     1
102
RTVSPropertyOp20
 70
     1
102
RTVSPropertyOp21
 70
     1
102
RTVSPropertyOp22
 70
     1
102
RTVSPropertyOp23
 70
     1
102
RTVSPropertyOp24
 70
     1
102
RTVSPropertyOp25
 70
     1
102
RTVSPropertyOp26
 70
     1
102
RTVSPropertyOp27
 70
     1
102
RTVSPropertyOp28
 70
     1
102
RTVSPropertyOp29
 70
     1
102
RTVSPropertyOp30
 70
     1
102
RTVSPropertyOp31
 70
     1
102
RTVSPropertyOp32
 70
     1
  0
XRECORD
  5
1584
102
{ACAD_REACTORS
330
1583
102
}
330
1583
100
AcDbXrecord
280
     1
102
RTVSPropertyOp0
 70
     1
102
RTVSPropertyOp1
 70
     1
102
RTVSPropertyOp2
 70
     1
102
RTVSPropertyOp3
 70
     1
102
RTVSPropertyOp4
 70
     1
102
RTVSPropertyOp5
 70
     1
102
RTVSPropertyOp6
 70
     1
102
RTVSPropertyOp7
 70
     1
102
RTVSPropertyOp8
 70
     1
102
RTVSPropertyOp9
 70
     1
102
RTVSPropertyOp10
 70
     1
102
RTVSPropertyOp11
 70
     1
102
RTVSPropertyOp12
 70
     1
102
RTVSPropertyOp13
 70
     1
102
RTVSPropertyOp14
 70
     1
102
RTVSPropertyOp15
 70
     1
102
RTVSPropertyOp16
 70
     1
102
RTVSPropertyOp17
 70
     1
102
RTVSPropertyOp18
 70
     1
102
RTVSPropertyOp19
 70
     1
102
RTVSPropertyOp20
 70
     1
102
RTVSPropertyOp21
 70
     1
102
RTVSPropertyOp22
 70
     1
102
RTVSPropertyOp23
 70
     1
102
RTVSPropertyOp24
 70
     1
102
RTVSPropertyOp25
 70
     1
102
RTVSPropertyOp26
 70
     1
102
RTVSPropertyOp27
 70
     1
102
RTVSPropertyOp28
 70
     1
102
RTVSPropertyOp29
 70
     1
102
RTVSPropertyOp30
 70
     1
102
RTVSPropertyOp31
 70
     1
102
RTVSPropertyOp32
 70
     1
  0
XRECORD
  5
159C
102
{ACAD_REACTORS
330
159B
102
}
330
159B
100
AcDbXrecord
280
     1
102
RTVSPropertyOp0
 70
     1
102
RTVSPropertyOp1
 70
     1
102
RTVSPropertyOp2
 70
     1
102
RTVSPropertyOp3
 70
     1
102
RTVSPropertyOp4
 70
     1
102
RTVSPropertyOp5
 70
     1
102
RTVSPropertyOp6
 70
     1
102
RTVSPropertyOp7
 70
     1
102
RTVSPropertyOp8
 70
     1
102
RTVSPropertyOp9
 70
     1
102
RTVSPropertyOp10
 70
     1
102
RTVSPropertyOp11
 70
     1
102
RTVSPropertyOp12
 70
     1
102
RTVSPropertyOp13
 70
     1
102
RTVSPropertyOp14
 70
     1
102
RTVSPropertyOp15
 70
     1
102
RTVSPropertyOp16
 70
     1
102
RTVSPropertyOp17
 70
     1
102
RTVSPropertyOp18
 70
     1
102
RTVSPropertyOp19
 70
     1
102
RTVSPropertyOp20
 70
     1
102
RTVSPropertyOp21
 70
     1
102
RTVSPropertyOp22
 70
     1
102
RTVSPropertyOp23
 70
     1
102
RTVSPropertyOp24
 70
     1
102
RTVSPropertyOp25
 70
     1
102
RTVSPropertyOp26
 70
     1
102
RTVSPropertyOp27
 70
     1
102
RTVSPropertyOp28
 70
     1
102
RTVSPropertyOp29
 70
     1
102
RTVSPropertyOp30
 70
     1
102
RTVSPropertyOp31
 70
     1
102
RTVSPropertyOp32
 70
     1
  0
ENDSEC
  0
EOF
