  0
SECTION
  2
HEADER
  9
$ACADVER
  1
AC1018
  9
$ACADMAINTVER
 70
   104
  9
$DWGCODEPAGE
  3
ANSI_1252
  9
$AUTHOR
  1
PS
  9
$REVISIONNUMBER
  1
-
  9
$CUSTOMPROPERTYTAG
  1
Manager
  9
$CUSTOMPROPERTY
  1

  9
$CUSTOMPROPERTYTAG
  1
Company
  9
$CUSTOMPROPERTY
  1

  9
$CUSTOMPROPERTYTAG
  1
Category
  9
$CUSTOMPROPERTY
  1

  9
$CUSTOMPROPERTYTAG
  1
Part Number
  9
$CUSTOMPROPERTY
  1
FK1808-S
  9
$CUSTOMPROPERTYTAG
  1
Description
  9
$CUSTOMPROPERTY
  1

  9
$CUSTOMPROPERTYTAG
  1
Project
  9
$CUSTOMPROPERTY
  1

  9
$CUSTOMPROPERTYTAG
  1
Designer
  9
$CUSTOMPROPERTY
  1
PS
  9
$CUSTOMPROPERTYTAG
  1
Engineer
  9
$CUSTOMPROPERTY
  1

  9
$CUSTOMPROPERTYTAG
  1
Authority
  9
$CUSTOMPROPERTY
  1

  9
$CUSTOMPROPERTYTAG
  1
Cost Center
  9
$CUSTOMPROPERTY
  1

  9
$CUSTOMPROPERTYTAG
  1
Vendor
  9
$CUSTOMPROPERTY
  1

  9
$CUSTOMPROPERTYTAG
  1
User Status
  9
$CUSTOMPROPERTY
  1

  9
$CUSTOMPROPERTYTAG
  1
Design Status
  9
$CUSTOMPROPERTY
  1
WorkInProgress
  9
$CUSTOMPROPERTYTAG
  1
Checked by
  9
$CUSTOMPROPERTY
  1
NJ
  9
$CUSTOMPROPERTYTAG
  1
Date Checked
  9
$CUSTOMPROPERTY
  1
05/03/2013
  9
$CUSTOMPROPERTYTAG
  1
Engr Approved by
  9
$CUSTOMPROPERTY
  1

  9
$CUSTOMPROPERTYTAG
  1
Date Eng Approved
  9
$CUSTOMPROPERTY
  1
05/03/2013
  9
$CUSTOMPROPERTYTAG
  1
Mfg Approved by
  9
$CUSTOMPROPERTY
  1

  9
$CUSTOMPROPERTYTAG
  1
Date Mfg Approved
  9
$CUSTOMPROPERTY
  1
05/03/2013
  9
$CUSTOMPROPERTYTAG
  1
DWG. NO
  9
$CUSTOMPROPERTY
  1

  9
$CUSTOMPROPERTYTAG
  1
NUMBER OF SHEETS
  9
$CUSTOMPROPERTY
  1
1
  9
$CUSTOMPROPERTYTAG
  1
DRAWING #
  9
$CUSTOMPROPERTY
  1

  9
$INSBASE
 10
0.0
 20
0.0
 30
0.0
  9
$EXTMIN
 10
0.0
 20
0.0
 30
0.0
  9
$EXTMAX
 10
119.0
 20
77.0
 30
0.0
  9
$LIMMIN
 10
0.0
 20
0.0
  9
$LIMMAX
 10
119.0
 20
77.0
  9
$ORTHOMODE
 70
     0
  9
$REGENMODE
 70
     1
  9
$FILLMODE
 70
     1
  9
$QTEXTMODE
 70
     0
  9
$MIRRTEXT
 70
     0
  9
$LTSCALE
 40
7.0
  9
$ATTMODE
 70
     1
  9
$TEXTSIZE
 40
0.2
  9
$TRACEWID
 40
0.05
  9
$TEXTSTYLE
  7
Standard
  9
$CLAYER
  8
0
  9
$CELTYPE
  6
ByLayer
  9
$CECOLOR
 62
   256
  9
$CELTSCALE
 40
1.0
  9
$DISPSILH
 70
     0
  9
$DIMSCALE
 40
1.0
  9
$DIMASZ
 40
0.0708661417322835
  9
$DIMEXO
 40
0.0625
  9
$DIMDLI
 40
0.38
  9
$DIMRND
 40
0.0
  9
$DIMDLE
 40
0.0
  9
$DIMEXE
 40
0.18
  9
$DIMTP
 40
0.0
  9
$DIMTM
 40
0.0
  9
$DIMTXT
 40
0.0708661417322835
  9
$DIMCEN
 40
0.09
  9
$DIMTSZ
 40
0.0
  9
$DIMTOL
 70
     0
  9
$DIMLIM
 70
     0
  9
$DIMTIH
 70
     1
  9
$DIMTOH
 70
     1
  9
$DIMSE1
 70
     0
  9
$DIMSE2
 70
     0
  9
$DIMTAD
 70
     0
  9
$DIMZIN
 70
     0
  9
$DIMBLK
  1

  9
$DIMASO
 70
     1
  9
$DIMSHO
 70
     1
  9
$DIMPOST
  1

  9
$DIMAPOST
  1

  9
$DIMALT
 70
     0
  9
$DIMALTD
 70
     2
  9
$DIMALTF
 40
25.4
  9
$DIMLFAC
 40
1.0
  9
$DIMTOFL
 70
     0
  9
$DIMTVP
 40
0.0
  9
$DIMTIX
 70
     0
  9
$DIMSOXD
 70
     0
  9
$DIMSAH
 70
     0
  9
$DIMBLK1
  1

  9
$DIMBLK2
  1

  9
$DIMSTYLE
  2
Standard
  9
$DIMCLRD
 70
     0
  9
$DIMCLRE
 70
     0
  9
$DIMCLRT
 70
     0
  9
$DIMTFAC
 40
1.0
  9
$DIMGAP
 40
0.09
  9
$DIMJUST
 70
     0
  9
$DIMSD1
 70
     0
  9
$DIMSD2
 70
     0
  9
$DIMTOLJ
 70
     1
  9
$DIMTZIN
 70
     0
  9
$DIMALTZ
 70
     0
  9
$DIMALTTZ
 70
     0
  9
$DIMUPT
 70
     0
  9
$DIMDEC
 70
     4
  9
$DIMTDEC
 70
     4
  9
$DIMALTU
 70
     2
  9
$DIMALTTD
 70
     2
  9
$DIMTXSTY
  7
Standard
  9
$DIMAUNIT
 70
     0
  9
$DIMADEC
 70
     0
  9
$DIMALTRND
 40
0.0
  9
$DIMAZIN
 70
     0
  9
$DIMDSEP
 70
    46
  9
$DIMATFIT
 70
     3
  9
$DIMFRAC
 70
     0
  9
$DIMLDRBLK
  1

  9
$DIMLUNIT
 70
     2
  9
$DIMLWD
 70
    -2
  9
$DIMLWE
 70
    -2
  9
$DIMTMOVE
 70
     0
  9
$LUNITS
 70
     2
  9
$LUPREC
 70
     4
  9
$SKETCHINC
 40
0.1
  9
$FILLETRAD
 40
0.0
  9
$AUNITS
 70
     0
  9
$AUPREC
 70
     0
  9
$MENU
  1
.
  9
$ELEVATION
 40
0.0
  9
$PELEVATION
 40
0.0
  9
$THICKNESS
 40
0.0
  9
$LIMCHECK
 70
     0
  9
$CHAMFERA
 40
0.0
  9
$CHAMFERB
 40
0.0
  9
$CHAMFERC
 40
0.0
  9
$CHAMFERD
 40
0.0
  9
$SKPOLY
 70
     0
  9
$TDCREATE
 40
2456428.836155428
  9
$TDUCREATE
 40
2456428.606988762
  9
$TDUPDATE
 40
2456428.836155428
  9
$TDUUPDATE
 40
2456428.606988762
  9
$TDINDWG
 40
0.0000449074
  9
$TDUSRTIMER
 40
0.0000449074
  9
$USRTIMER
 70
     1
  9
$ANGBASE
 50
0.0
  9
$ANGDIR
 70
     0
  9
$PDMODE
 70
     0
  9
$PDSIZE
 40
0.0
  9
$PLINEWID
 40
0.0
  9
$SPLFRAME
 70
     0
  9
$SPLINETYPE
 70
     6
  9
$SPLINESEGS
 70
     8
  9
$HANDSEED
  5
15C2
  9
$SURFTAB1
 70
     6
  9
$SURFTAB2
 70
     6
  9
$SURFTYPE
 70
     6
  9
$SURFU
 70
     6
  9
$SURFV
 70
     6
  9
$UCSBASE
  2

  9
$UCSNAME
  2

  9
$UCSORG
 10
0.0
 20
0.0
 30
0.0
  9
$UCSXDIR
 10
1.0
 20
0.0
 30
0.0
  9
$UCSYDIR
 10
0.0
 20
1.0
 30
0.0
  9
$UCSORTHOREF
  2

  9
$UCSORTHOVIEW
 70
     0
  9
$UCSORGTOP
 10
0.0
 20
0.0
 30
0.0
  9
$UCSORGBOTTOM
 10
0.0
 20
0.0
 30
0.0
  9
$UCSORGLEFT
 10
0.0
 20
0.0
 30
0.0
  9
$UCSORGRIGHT
 10
0.0
 20
0.0
 30
0.0
  9
$UCSORGFRONT
 10
0.0
 20
0.0
 30
0.0
  9
$UCSORGBACK
 10
0.0
 20
0.0
 30
0.0
  9
$PUCSBASE
  2

  9
$PUCSNAME
  2

  9
$PUCSORG
 10
0.0
 20
0.0
 30
0.0
  9
$PUCSXDIR
 10
1.0
 20
0.0
 30
0.0
  9
$PUCSYDIR
 10
0.0
 20
1.0
 30
0.0
  9
$PUCSORTHOREF
  2

  9
$PUCSORTHOVIEW
 70
     0
  9
$PUCSORGTOP
 10
0.0
 20
0.0
 30
0.0
  9
$PUCSORGBOTTOM
 10
0.0
 20
0.0
 30
0.0
  9
$PUCSORGLEFT
 10
0.0
 20
0.0
 30
0.0
  9
$PUCSORGRIGHT
 10
0.0
 20
0.0
 30
0.0
  9
$PUCSORGFRONT
 10
0.0
 20
0.0
 30
0.0
  9
$PUCSORGBACK
 10
0.0
 20
0.0
 30
0.0
  9
$USERI1
 70
     0
  9
$USERI2
 70
     0
  9
$USERI3
 70
     0
  9
$USERI4
 70
     0
  9
$USERI5
 70
     0
  9
$USERR1
 40
0.0
  9
$USERR2
 40
0.0
  9
$USERR3
 40
0.0
  9
$USERR4
 40
0.0
  9
$USERR5
 40
0.0
  9
$WORLDVIEW
 70
     1
  9
$SHADEDGE
 70
     3
  9
$SHADEDIF
 70
    70
  9
$TILEMODE
 70
     1
  9
$MAXACTVP
 70
    64
  9
$PINSBASE
 10
0.0
 20
0.0
 30
0.0
  9
$PLIMCHECK
 70
     0
  9
$PEXTMIN
 10
0.0
 20
0.0
 30
0.0
  9
$PEXTMAX
 10
119.0
 20
77.0
 30
0.0
  9
$PLIMMIN
 10
0.0
 20
0.0
  9
$PLIMMAX
 10
119.0
 20
77.0
  9
$UNITMODE
 70
     0
  9
$VISRETAIN
 70
     1
  9
$PLINEGEN
 70
     0
  9
$PSLTSCALE
 70
     1
  9
$TREEDEPTH
 70
  3020
  9
$CMLSTYLE
  2
Standard
  9
$CMLJUST
 70
     0
  9
$CMLSCALE
 40
1.0
  9
$PROXYGRAPHICS
 70
     1
  9
$MEASUREMENT
 70
     0
  9
$CELWEIGHT
370
    -1
  9
$ENDCAPS
280
     0
  9
$JOINSTYLE
280
     0
  9
$LWDISPLAY
290
     0
  9
$INSUNITS
 70
     1
  9
$HYPERLINKBASE
  1

  9
$STYLESHEET
  1

  9
$XEDIT
290
     1
  9
$CEPSNTYPE
380
     0
  9
$PSTYLEMODE
290
     1
  9
$FINGERPRINTGUID
  2
{6BD87B4D-30B2-45C2-B465-F38F05C0A5E4}
  9
$VERSIONGUID
  2
{775135E4-BB14-41F8-9987-20E9783E86DA}
  9
$EXTNAMES
290
     1
  9
$PSVPSCALE
 40
0.0
  9
$OLESTARTUP
290
     0
  9
$SORTENTS
280
   127
  9
$INDEXCTL
280
     0
  9
$HIDETEXT
280
     1
  9
$XCLIPFRAME
290
     0
  9
$HALOGAP
280
     0
  9
$OBSCOLOR
 70
   257
  9
$OBSLTYPE
280
     0
  9
$INTERSECTIONDISPLAY
280
     0
  9
$INTERSECTIONCOLOR
 70
   257
  9
$DIMASSOC
280
     1
  9
$PROJECTNAME
  1

  0
ENDSEC
  0
SECTION
  2
CLASSES
  0
CLASS
  1
ACDBDICTIONARYWDFLT
  2
AcDbDictionaryWithDefault
  3
ObjectDBX Classes
 90
        0
 91
        1
280
     0
281
     0
  0
CLASS
  1
MATERIAL
  2
AcDbMaterial
  3
ObjectDBX Classes
 90
     1153
 91
        3
280
     0
281
     0
  0
CLASS
  1
VISUALSTYLE
  2
AcDbVisualStyle
  3
ObjectDBX Classes
 90
     4095
 91
       24
280
     0
281
     0
  0
CLASS
  1
SCALE
  2
AcDbScale
  3
ObjectDBX Classes
 90
     1153
 91
       17
280
     0
281
     0
  0
CLASS
  1
TABLESTYLE
  2
AcDbTableStyle
  3
ObjectDBX Classes
 90
     4095
 91
        1
280
     0
281
     0
  0
CLASS
  1
MLEADERSTYLE
  2
AcDbMLeaderStyle
  3
ACDB_MLEADERSTYLE_CLASS
 90
     4095
 91
        1
280
     0
281
     0
  0
CLASS
  1
DICTIONARYVAR
  2
AcDbDictionaryVar
  3
ObjectDBX Classes
 90
        0
 91
        8
280
     0
281
     0
  0
CLASS
  1
CELLSTYLEMAP
  2
AcDbCellStyleMap
  3
ObjectDBX Classes
 90
     1152
 91
        1
280
     0
281
     0
  0
ENDSEC
  0
SECTION
  2
TABLES
  0
TABLE
  2
VPORT
  5
8
330
0
100
AcDbSymbolTable
 70
     1
  0
VPORT
  5
57
330
8
100
AcDbSymbolTableRecord
100
AcDbViewportTableRecord
  2
*Active
 70
     0
 10
0.0
 20
0.0
 11
1.0
 21
1.0
 12
59.5
 22
38.5
 13
0.0
 23
0.0
 14
1.0
 24
1.0
 15
0.0
 25
0.0
 16
0.0
 26
0.0
 36
1.0
 17
0.0
 27
0.0
 37
0.0
 40
77.0
 41
1.545454545454545
 42
50.0
 43
0.0
 44
0.0
 50
0.0
 51
0.0
 71
     0
 72
   100
 73
     1
 74
     1
 75
     0
 76
     0
 77
     0
 78
     0
281
     0
 65
     1
110
0.0
120
0.0
130
0.0
111
1.0
121
0.0
131
0.0
112
0.0
122
1.0
132
0.0
 79
     0
146
0.0
  0
ENDTAB
  0
TABLE
  2
LTYPE
  5
5
330
0
100
AcDbSymbolTable
 70
    59
  0
LTYPE
  5
5B
330
5
100
AcDbSymbolTableRecord
100
AcDbLinetypeTableRecord
  2
ByBlock
 70
     0
  3

 72
    65
 73
     0
 40
0.0
  0
LTYPE
  5
5C
330
5
100
AcDbSymbolTableRecord
100
AcDbLinetypeTableRecord
  2
ByLayer
 70
     0
  3

 72
    65
 73
     0
 40
0.0
  0
LTYPE
  5
5D
330
5
100
AcDbSymbolTableRecord
100
AcDbLinetypeTableRecord
  2
Continuous
 70
     0
  3
Solid line
 72
    65
 73
     0
 40
0.0
  0
LTYPE
  5
7C
330
5
100
AcDbSymbolTableRecord
100
AcDbLinetypeTableRecord
  2
BY_STANDARD
 70
     0
  3
By Standard ____________    ____    ____   _
 72
    65
 73
     6
 40
1.240299999999999
 49
0.6614
 74
     0
 49
-0.0827
 74
     0
 49
0.1654
 74
     0
 49
-0.0827
 74
     0
 49
0.1654
 74
     0
 49
-0.0827
 74
     0
  0
LTYPE
  5
7D
330
5
100
AcDbSymbolTableRecord
100
AcDbLinetypeTableRecord
  2
CHAIN
 70
     0
  3
Chain ____ _ ____ _ ____ _ ____ _ ____ _ ____
 72
    65
 73
     4
 40
0.7087
 49
0.4724000000000001
 74
     0
 49
-0.0591
 74
     0
 49
0.1181
 74
     0
 49
-0.0591
 74
     0
  0
LTYPE
  5
7E
330
5
100
AcDbSymbolTableRecord
100
AcDbLinetypeTableRecord
  2
DASH_DOT
 70
     0
  3
Dash dot __ . __ . __ . __ . __ . __ . __ . __
 72
    65
 73
     4
 40
0.37
 49
0.24
 74
     0
 49
-0.06
 74
     0
 49
0.01
 74
     0
 49
-0.06
 74
     0
  0
LTYPE
  5
7F
330
5
100
AcDbSymbolTableRecord
100
AcDbLinetypeTableRecord
  2
DOUBLE_DASH_DOT
 70
     0
  3
Double-Dash Dot __ __ . __ __ . __ __ . __ _
 72
    65
 73
     6
 40
0.4398
 49
0.24
 74
     0
 49
-0.06
 74
     0
 49
0.0098
 74
     0
 49
-0.06
 74
     0
 49
0.01
 74
     0
 49
-0.06
 74
     0
  0
LTYPE
  5
80
330
5
100
AcDbSymbolTableRecord
100
AcDbLinetypeTableRecord
  2
DASH_TRIPLE_DOT
 70
     0
  3
Dash Triple-Dot _ . . . _ . . . _ . . . _
 72
    65
 73
     8
 40
0.51
 49
0.24
 74
     0
 49
-0.06
 74
     0
 49
0.01
 74
     0
 49
-0.06
 74
     0
 49
0.01
 74
     0
 49
-0.06
 74
     0
 49
0.01
 74
     0
 49
-0.06
 74
     0
  0
LTYPE
  5
81
330
5
100
AcDbSymbolTableRecord
100
AcDbLinetypeTableRecord
  2
DASHED
 70
     0
  3
Dashed __ __ __ __ __ __ __ __ __ __ __ __ __ _
 72
    65
 73
     2
 40
0.2067
 49
0.1654
 74
     0
 49
-0.0413
 74
     0
  0
LTYPE
  5
82
330
5
100
AcDbSymbolTableRecord
100
AcDbLinetypeTableRecord
  2
DASH_DOUBLE_DOT
 70
     0
  3
Dash Double-Dot __ . . __ . . __ . . __ . .
 72
    65
 73
     6
 40
0.4398
 49
0.24
 74
     0
 49
-0.06
 74
     0
 49
0.0098
 74
     0
 49
-0.06
 74
     0
 49
0.01
 74
     0
 49
-0.06
 74
     0
  0
LTYPE
  5
83
330
5
100
AcDbSymbolTableRecord
100
AcDbLinetypeTableRecord
  2
DASHED_SPACE
 70
     0
  3
Dashed Space __ __ __ __ __ __ __ __ __ __ __ _
 72
    65
 73
     2
 40
0.2067
 49
0.1654
 74
     0
 49
-0.0413
 74
     0
  0
LTYPE
  5
84
330
5
100
AcDbSymbolTableRecord
100
AcDbLinetypeTableRecord
  2
DOTTED
 70
     0
  3
Dotted . . . . . . . . . . . . . . . . . . . . 
 72
    65
 73
     2
 40
0.0482
 49
0.0069
 74
     0
 49
-0.0413
 74
     0
  0
LTYPE
  5
85
330
5
100
AcDbSymbolTableRecord
100
AcDbLinetypeTableRecord
  2
DOUBLE_DASH_CHAIN
 70
     0
  3
Double-Dash Chain ______  __  __  ______  __  _
 72
    65
 73
     6
 40
1.240299999999999
 49
0.6614
 74
     0
 49
-0.0827
 74
     0
 49
0.1654
 74
     0
 49
-0.0827
 74
     0
 49
0.1654
 74
     0
 49
-0.0827
 74
     0
  0
LTYPE
  5
87
330
5
100
AcDbSymbolTableRecord
100
AcDbLinetypeTableRecord
  2
DOUBLE_DASH_DOUBLE_DOT
 70
     0
  3
Double-Dash Double-dot _ _ . . _ _ . . _
 72
    65
 73
     8
 40
0.7400000000000001
 49
0.24
 74
     0
 49
-0.06
 74
     0
 49
0.24
 74
     0
 49
-0.06
 74
     0
 49
0.01
 74
     0
 49
-0.06
 74
     0
 49
0.01
 74
     0
 49
-0.06
 74
     0
  0
LTYPE
  5
88
330
5
100
AcDbSymbolTableRecord
100
AcDbLinetypeTableRecord
  2
DOUBLE_DASH_TRIPLE_DOT
 70
     0
  3
Double Dash Triple Dot __ __ . . . __ __ . .
 72
    65
 73
    10
 40
0.8100000000000001
 49
0.24
 74
     0
 49
-0.06
 74
     0
 49
0.24
 74
     0
 49
-0.06
 74
     0
 49
0.01
 74
     0
 49
-0.06
 74
     0
 49
0.01
 74
     0
 49
-0.06
 74
     0
 49
0.01
 74
     0
 49
-0.06
 74
     0
  0
LTYPE
  5
89
330
5
100
AcDbSymbolTableRecord
100
AcDbLinetypeTableRecord
  2
LONG_DASH_DOTTED
 70
     0
  3
Long Dash Dotted ____ . ____ . ____ . ____ . _
 72
    65
 73
     4
 40
0.3543
 49
0.2362
 74
     0
 49
-0.0295
 74
     0
 49
0.0591
 74
     0
 49
-0.0295
 74
     0
  0
LTYPE
  5
8A
330
5
100
AcDbSymbolTableRecord
100
AcDbLinetypeTableRecord
  2
LONG_DASH_DOUBLE_DOT
 70
     0
  3
Long Dash Double Dot ________  .  .  ________  
 72
    65
 73
     6
 40
0.6799999999999999
 49
0.48
 74
     0
 49
-0.06
 74
     0
 49
0.01
 74
     0
 49
-0.06
 74
     0
 49
0.01
 74
     0
 49
-0.06
 74
     0
  0
LTYPE
  5
8B
330
5
100
AcDbSymbolTableRecord
100
AcDbLinetypeTableRecord
  2
LONG_DASH_TRIPLE_DOT
 70
     0
  3
Long Dash Triple Dot ____ ... ____ ... ____
 72
    65
 73
     8
 40
0.3689
 49
0.2362
 74
     0
 49
-0.0295
 74
     0
 49
0.0049
 74
     0
 49
-0.0295
 74
     0
 49
0.0049
 74
     0
 49
-0.0295
 74
     0
 49
0.0049
 74
     0
 49
-0.0295
 74
     0
  0
LTYPE
  5
8C
330
5
100
AcDbSymbolTableRecord
100
AcDbLinetypeTableRecord
  2
BORDER
 70
     0
  3
Border __ __ . __ __ . __ __ . __ __ . __ __ .
 72
    65
 73
     6
 40
1.75
 49
0.5
 74
     0
 49
-0.25
 74
     0
 49
0.5
 74
     0
 49
-0.25
 74
     0
 49
0.0
 74
     0
 49
-0.25
 74
     0
  0
LTYPE
  5
8D
330
5
100
AcDbSymbolTableRecord
100
AcDbLinetypeTableRecord
  2
BORDER2
 70
     0
  3
Border (.5x) __.__.__.__.__.__.__.__.__.__.__.
 72
    65
 73
     6
 40
0.875
 49
0.25
 74
     0
 49
-0.125
 74
     0
 49
0.25
 74
     0
 49
-0.125
 74
     0
 49
0.0
 74
     0
 49
-0.125
 74
     0
  0
LTYPE
  5
8E
330
5
100
AcDbSymbolTableRecord
100
AcDbLinetypeTableRecord
  2
BORDERX2
 70
     0
  3
Border (2x) ____  ____  .  ____  ____  .  ___
 72
    65
 73
     6
 40
3.5
 49
1.0
 74
     0
 49
-0.5
 74
     0
 49
1.0
 74
     0
 49
-0.5
 74
     0
 49
0.0
 74
     0
 49
-0.5
 74
     0
  0
LTYPE
  5
8F
330
5
100
AcDbSymbolTableRecord
100
AcDbLinetypeTableRecord
  2
CENTER
 70
     0
  3
Center ____ _ ____ _ ____ _ ____ _ ____ _ ____
 72
    65
 73
     4
 40
2.0
 49
1.25
 74
     0
 49
-0.25
 74
     0
 49
0.25
 74
     0
 49
-0.25
 74
     0
  0
LTYPE
  5
90
330
5
100
AcDbSymbolTableRecord
100
AcDbLinetypeTableRecord
  2
CENTER2
 70
     0
  3
Center (.5x) ___ _ ___ _ ___ _ ___ _ ___ _ ___
 72
    65
 73
     4
 40
1.125
 49
0.75
 74
     0
 49
-0.125
 74
     0
 49
0.125
 74
     0
 49
-0.125
 74
     0
  0
LTYPE
  5
91
330
5
100
AcDbSymbolTableRecord
100
AcDbLinetypeTableRecord
  2
CENTERX2
 70
     0
  3
Center (2x) ________  __  ________  __  _____
 72
    65
 73
     4
 40
4.0
 49
2.5
 74
     0
 49
-0.5
 74
     0
 49
0.5
 74
     0
 49
-0.5
 74
     0
  0
LTYPE
  5
92
330
5
100
AcDbSymbolTableRecord
100
AcDbLinetypeTableRecord
  2
DASHDOT2
 70
     0
  3
Dash dot (.5x) _._._._._._._._._._._._._._._.
 72
    65
 73
     4
 40
0.5
 49
0.25
 74
     0
 49
-0.125
 74
     0
 49
0.0
 74
     0
 49
-0.125
 74
     0
  0
LTYPE
  5
93
330
5
100
AcDbSymbolTableRecord
100
AcDbLinetypeTableRecord
  2
DASHDOTX2
 70
     0
  3
Dash dot (2x) ____  .  ____  .  ____  .  ___
 72
    65
 73
     4
 40
2.0
 49
1.0
 74
     0
 49
-0.5
 74
     0
 49
0.0
 74
     0
 49
-0.5
 74
     0
  0
LTYPE
  5
95
330
5
100
AcDbSymbolTableRecord
100
AcDbLinetypeTableRecord
  2
DASHED2
 70
     0
  3
Dashed (.5x) _ _ _ _ _ _ _ _ _ _ _ _ _ _ _ _ _
 72
    65
 73
     2
 40
0.375
 49
0.25
 74
     0
 49
-0.125
 74
     0
  0
LTYPE
  5
96
330
5
100
AcDbSymbolTableRecord
100
AcDbLinetypeTableRecord
  2
DASHEDX2
 70
     0
  3
Dashed (2x) ____  ____  ____  ____  ____  ___
 72
    65
 73
     2
 40
1.5
 49
1.0
 74
     0
 49
-0.5
 74
     0
  0
LTYPE
  5
97
330
5
100
AcDbSymbolTableRecord
100
AcDbLinetypeTableRecord
  2
DIVIDE
 70
     0
  3
Divide ____ . . ____ . . ____ . . ____ . . ____
 72
    65
 73
     6
 40
1.25
 49
0.5
 74
     0
 49
-0.25
 74
     0
 49
0.0
 74
     0
 49
-0.25
 74
     0
 49
0.0
 74
     0
 49
-0.25
 74
     0
  0
LTYPE
  5
98
330
5
100
AcDbSymbolTableRecord
100
AcDbLinetypeTableRecord
  2
DIVIDE2
 70
     0
  3
Divide (.5x) __..__..__..__..__..__..__..__.._
 72
    65
 73
     6
 40
0.625
 49
0.25
 74
     0
 49
-0.125
 74
     0
 49
0.0
 74
     0
 49
-0.125
 74
     0
 49
0.0
 74
     0
 49
-0.125
 74
     0
  0
LTYPE
  5
99
330
5
100
AcDbSymbolTableRecord
100
AcDbLinetypeTableRecord
  2
DIVIDEX2
 70
     0
  3
Divide (2x) ________  .  .  ________  .  .  _
 72
    65
 73
     6
 40
2.5
 49
1.0
 74
     0
 49
-0.5
 74
     0
 49
0.0
 74
     0
 49
-0.5
 74
     0
 49
0.0
 74
     0
 49
-0.5
 74
     0
  0
LTYPE
  5
9A
330
5
100
AcDbSymbolTableRecord
100
AcDbLinetypeTableRecord
  2
DOT
 70
     0
  3
Dot . . . . . . . . . . . . . . . . . . . . . .
 72
    65
 73
     2
 40
0.25
 49
0.0
 74
     0
 49
-0.25
 74
     0
  0
LTYPE
  5
9B
330
5
100
AcDbSymbolTableRecord
100
AcDbLinetypeTableRecord
  2
DOT2
 70
     0
  3
Dot (.5x) .....................................
 72
    65
 73
     2
 40
0.125
 49
0.0
 74
     0
 49
-0.125
 74
     0
  0
LTYPE
  5
9C
330
5
100
AcDbSymbolTableRecord
100
AcDbLinetypeTableRecord
  2
DOTX2
 70
     0
  3
Dot (2x) .  .  .  .  .  .  .  .  .  .  .  .  . 
 72
    65
 73
     2
 40
0.5
 49
0.0
 74
     0
 49
-0.5
 74
     0
  0
LTYPE
  5
9D
330
5
100
AcDbSymbolTableRecord
100
AcDbLinetypeTableRecord
  2
HIDDEN
 70
     0
  3
Hidden __ __ __ __ __ __ __ __ __ __ __ __ __ _
 72
    65
 73
     2
 40
0.375
 49
0.25
 74
     0
 49
-0.125
 74
     0
  0
LTYPE
  5
9E
330
5
100
AcDbSymbolTableRecord
100
AcDbLinetypeTableRecord
  2
HIDDEN2
 70
     0
  3
Hidden (.5x) _ _ _ _ _ _ _ _ _ _ _ _ _ _ _ _ _
 72
    65
 73
     2
 40
0.1875
 49
0.125
 74
     0
 49
-0.0625
 74
     0
  0
LTYPE
  5
9F
330
5
100
AcDbSymbolTableRecord
100
AcDbLinetypeTableRecord
  2
HIDDENX2
 70
     0
  3
Hidden (2x) ____ ____ ____ ____ ____ ____ ____
 72
    65
 73
     2
 40
0.75
 49
0.5
 74
     0
 49
-0.25
 74
     0
  0
LTYPE
  5
A0
330
5
100
AcDbSymbolTableRecord
100
AcDbLinetypeTableRecord
  2
PHANTOM
 70
     0
  3
Phantom ______  __  __  ______  __  __  ______
 72
    65
 73
     6
 40
2.5
 49
1.25
 74
     0
 49
-0.25
 74
     0
 49
0.25
 74
     0
 49
-0.25
 74
     0
 49
0.25
 74
     0
 49
-0.25
 74
     0
  0
LTYPE
  5
A1
330
5
100
AcDbSymbolTableRecord
100
AcDbLinetypeTableRecord
  2
PHANTOM2
 70
     0
  3
Phantom (.5x) ___ _ _ ___ _ _ ___ _ _ ___ _ _
 72
    65
 73
     6
 40
1.25
 49
0.625
 74
     0
 49
-0.125
 74
     0
 49
0.125
 74
     0
 49
-0.125
 74
     0
 49
0.125
 74
     0
 49
-0.125
 74
     0
  0
LTYPE
  5
A2
330
5
100
AcDbSymbolTableRecord
100
AcDbLinetypeTableRecord
  2
PHANTOMX2
 70
     0
  3
Phantom (2x) ____________    ____    ____   _
 72
    65
 73
     6
 40
5.0
 49
2.5
 74
     0
 49
-0.5
 74
     0
 49
0.5
 74
     0
 49
-0.5
 74
     0
 49
0.5
 74
     0
 49
-0.5
 74
     0
  0
LTYPE
  5
A3
330
5
100
AcDbSymbolTableRecord
100
AcDbLinetypeTableRecord
  2
ACAD_ISO02W100
 70
     0
  3
ISO dash __ __ __ __ __ __ __ __ __ __ __ __ __
 72
    65
 73
     2
 40
0.59
 49
0.47
 74
     0
 49
-0.12
 74
     0
  0
LTYPE
  5
A4
330
5
100
AcDbSymbolTableRecord
100
AcDbLinetypeTableRecord
  2
ACAD_ISO03W100
 70
     0
  3
ISO dash space __    __    __    __    __    __
 72
    65
 73
     2
 40
1.179999999999999
 49
0.47
 74
     0
 49
-0.71
 74
     0
  0
LTYPE
  5
A5
330
5
100
AcDbSymbolTableRecord
100
AcDbLinetypeTableRecord
  2
ACAD_ISO04W100
 70
     0
  3
ISO long-dash dot ____ . ____ . ____ . ____ . _
 72
    65
 73
     4
 40
1.179999999999999
 49
0.9399999999999998
 74
     0
 49
-0.12
 74
     0
 49
0.0
 74
     0
 49
-0.12
 74
     0
  0
LTYPE
  5
A6
330
5
100
AcDbSymbolTableRecord
100
AcDbLinetypeTableRecord
  2
ACAD_ISO05W100
 70
     0
  3
ISO long-dash double-dot ____ .. ____ .. ____ .
 72
    65
 73
     6
 40
1.299999999999999
 49
0.9399999999999998
 74
     0
 49
-0.12
 74
     0
 49
0.0
 74
     0
 49
-0.12
 74
     0
 49
0.0
 74
     0
 49
-0.12
 74
     0
  0
LTYPE
  5
A7
330
5
100
AcDbSymbolTableRecord
100
AcDbLinetypeTableRecord
  2
ACAD_ISO06W100
 70
     0
  3
ISO long-dash triple-dot ____ ... ____ ... ____
 72
    65
 73
     8
 40
1.419999999999999
 49
0.9399999999999998
 74
     0
 49
-0.12
 74
     0
 49
0.0
 74
     0
 49
-0.12
 74
     0
 49
0.0
 74
     0
 49
-0.12
 74
     0
 49
0.0
 74
     0
 49
-0.12
 74
     0
  0
LTYPE
  5
A8
330
5
100
AcDbSymbolTableRecord
100
AcDbLinetypeTableRecord
  2
ACAD_ISO07W100
 70
     0
  3
ISO dot . . . . . . . . . . . . . . . . . . . .
 72
    65
 73
     2
 40
0.12
 49
0.0
 74
     0
 49
-0.12
 74
     0
  0
LTYPE
  5
A9
330
5
100
AcDbSymbolTableRecord
100
AcDbLinetypeTableRecord
  2
ACAD_ISO08W100
 70
     0
  3
ISO long-dash short-dash ____ __ ____ __ ____ _
 72
    65
 73
     4
 40
0.95
 49
0.47
 74
     0
 49
-0.12
 74
     0
 49
0.24
 74
     0
 49
-0.12
 74
     0
  0
LTYPE
  5
AA
330
5
100
AcDbSymbolTableRecord
100
AcDbLinetypeTableRecord
  2
ACAD_ISO09W100
 70
     0
  3
ISO long-dash double-short-dash ____ __ __ ____
 72
    65
 73
     6
 40
1.31
 49
0.47
 74
     0
 49
-0.12
 74
     0
 49
0.24
 74
     0
 49
-0.12
 74
     0
 49
0.24
 74
     0
 49
-0.12
 74
     0
  0
LTYPE
  5
AB
330
5
100
AcDbSymbolTableRecord
100
AcDbLinetypeTableRecord
  2
ACAD_ISO10W100
 70
     0
  3
ISO dash dot __ . __ . __ . __ . __ . __ . __ .
 72
    65
 73
     4
 40
0.71
 49
0.47
 74
     0
 49
-0.12
 74
     0
 49
0.0
 74
     0
 49
-0.12
 74
     0
  0
LTYPE
  5
AC
330
5
100
AcDbSymbolTableRecord
100
AcDbLinetypeTableRecord
  2
ACAD_ISO11W100
 70
     0
  3
ISO double-dash dot __ __ . __ __ . __ __ . __ 
 72
    65
 73
     6
 40
1.299999999999999
 49
0.47
 74
     0
 49
-0.12
 74
     0
 49
0.47
 74
     0
 49
-0.12
 74
     0
 49
0.0
 74
     0
 49
-0.12
 74
     0
  0
LTYPE
  5
AD
330
5
100
AcDbSymbolTableRecord
100
AcDbLinetypeTableRecord
  2
ACAD_ISO12W100
 70
     0
  3
ISO dash double-dot __ . . __ . . __ . . __ . .
 72
    65
 73
     6
 40
0.8299999999999998
 49
0.47
 74
     0
 49
-0.12
 74
     0
 49
0.0
 74
     0
 49
-0.12
 74
     0
 49
0.0
 74
     0
 49
-0.12
 74
     0
  0
LTYPE
  5
AE
330
5
100
AcDbSymbolTableRecord
100
AcDbLinetypeTableRecord
  2
ACAD_ISO13W100
 70
     0
  3
ISO double-dash double-dot __ __ . . __ __ . . 
 72
    65
 73
     8
 40
1.419999999999999
 49
0.47
 74
     0
 49
-0.12
 74
     0
 49
0.47
 74
     0
 49
-0.12
 74
     0
 49
0.0
 74
     0
 49
-0.12
 74
     0
 49
0.0
 74
     0
 49
-0.12
 74
     0
  0
LTYPE
  5
AF
330
5
100
AcDbSymbolTableRecord
100
AcDbLinetypeTableRecord
  2
ACAD_ISO14W100
 70
     0
  3
ISO dash triple-dot __ . . . __ . . . __ . . . 
 72
    65
 73
     8
 40
0.95
 49
0.47
 74
     0
 49
-0.12
 74
     0
 49
0.0
 74
     0
 49
-0.12
 74
     0
 49
0.0
 74
     0
 49
-0.12
 74
     0
 49
0.0
 74
     0
 49
-0.12
 74
     0
  0
LTYPE
  5
B0
330
5
100
AcDbSymbolTableRecord
100
AcDbLinetypeTableRecord
  2
ACAD_ISO15W100
 70
     0
  3
ISO double-dash triple-dot __ __ . . . __ __ . 
 72
    65
 73
    10
 40
1.539999999999999
 49
0.47
 74
     0
 49
-0.12
 74
     0
 49
0.47
 74
     0
 49
-0.12
 74
     0
 49
0.0
 74
     0
 49
-0.12
 74
     0
 49
0.0
 74
     0
 49
-0.12
 74
     0
 49
0.0
 74
     0
 49
-0.12
 74
     0
  0
LTYPE
  5
B3
330
5
100
AcDbSymbolTableRecord
100
AcDbLinetypeTableRecord
  2
FENCELINE1
 70
     0
  3
Fenceline circle ----0-----0----0-----0----0---
 72
    65
 73
     4
 40
1.45
 49
0.25
 74
     0
 49
-0.1
 74
     4
 75
   133
340
B2
 46
0.1
 50
0.0
 44
-0.1
 45
0.0
 49
-0.1
 74
     0
 49
1.0
 74
     0
  0
LTYPE
  5
B4
330
5
100
AcDbSymbolTableRecord
100
AcDbLinetypeTableRecord
  2
FENCELINE2
 70
     0
  3
Fenceline square ----[]-----[]----[]-----[]----
 72
    65
 73
     4
 40
1.45
 49
0.25
 74
     0
 49
-0.1
 74
     4
 75
   132
340
B2
 46
0.1
 50
0.0
 44
-0.1
 45
0.0
 49
-0.1
 74
     0
 49
1.0
 74
     0
  0
LTYPE
  5
B5
330
5
100
AcDbSymbolTableRecord
100
AcDbLinetypeTableRecord
  2
TRACKS
 70
     0
  3
Tracks -|-|-|-|-|-|-|-|-|-|-|-|-|-|-|-|-|-|-|-|
 72
    65
 73
     2
 40
0.3
 49
0.15
 74
     4
 75
   130
340
B2
 46
0.25
 50
0.0
 44
0.0
 45
0.0
 49
0.15
 74
     0
  0
LTYPE
  5
B6
330
5
100
AcDbSymbolTableRecord
100
AcDbLinetypeTableRecord
  2
BATTING
 70
     0
  3
Batting SSSSSSSSSSSSSSSSSSSSSSSSSSSSSSSSSSSSSSS
 72
    65
 73
     4
 40
0.4001000000000001
 49
0.0001
 74
     0
 49
-0.1
 74
     4
 75
   134
340
B2
 46
0.1
 50
0.0
 44
-0.1
 45
0.0
 49
-0.2
 74
     4
 75
   134
340
B2
 46
0.1
 50
180.0
 44
0.1
 45
0.0
 49
-0.1
 74
     0
  0
LTYPE
  5
B7
330
5
100
AcDbSymbolTableRecord
100
AcDbLinetypeTableRecord
  2
HOT_WATER_SUPPLY
 70
     0
  3
Hot water supply ---- HW ---- HW ---- HW ----
 72
    65
 73
     3
 40
0.9
 49
0.5
 74
     0
 49
-0.2
 74
     2
 75
     0
340
55
 46
0.1
 50
0.0
 44
-0.1
 45
-0.05
  9
HW
 49
-0.2
 74
     0
  0
LTYPE
  5
B8
330
5
100
AcDbSymbolTableRecord
100
AcDbLinetypeTableRecord
  2
GAS_LINE
 70
     0
  3
Gas line ----GAS----GAS----GAS----GAS----GAS---
 72
    65
 73
     3
 40
0.95
 49
0.5
 74
     0
 49
-0.2
 74
     2
 75
     0
340
55
 46
0.1
 50
0.0
 44
-0.1
 45
-0.05
  9
GAS
 49
-0.25
 74
     0
  0
LTYPE
  5
B9
330
5
100
AcDbSymbolTableRecord
100
AcDbLinetypeTableRecord
  2
ZIGZAG
 70
     0
  3
Zig zag /\/\/\/\/\/\/\/\/\/\/\/\/\/\/\/\/\/\/\/
 72
    65
 73
     4
 40
0.8001000000000001
 49
0.0001
 74
     0
 49
-0.2
 74
     4
 75
   131
340
B2
 46
0.2
 50
0.0
 44
-0.2
 45
0.0
 49
-0.4
 74
     4
 75
   131
340
B2
 46
0.2
 50
180.0
 44
0.2
 45
0.0
 49
-0.2
 74
     0
  0
ENDTAB
  0
TABLE
  2
LAYER
  5
2
330
0
100
AcDbSymbolTable
 70
    27
  0
LAYER
  5
54
330
2
100
AcDbSymbolTableRecord
100
AcDbLayerTableRecord
  2
0
 70
     0
 62
     7
  6
Continuous
370
     0
390
F
  0
LAYER
  5
C0
330
2
100
AcDbSymbolTableRecord
100
AcDbLayerTableRecord
  2
Center Mark (ANSI)
 70
     0
 62
     7
  6
Continuous
370
     5
390
F
  0
LAYER
  5
C1
330
2
100
AcDbSymbolTableRecord
100
AcDbLayerTableRecord
  2
Centerline (ANSI)
 70
     0
 62
     7
  6
Continuous
370
     5
390
F
  0
LAYER
  5
C3
330
2
100
AcDbSymbolTableRecord
100
AcDbLayerTableRecord
  2
Dimension (ANSI)
 70
     0
 62
     7
  6
Continuous
370
     5
390
F
  0
LAYER
  5
CC
330
2
100
AcDbSymbolTableRecord
100
AcDbLayerTableRecord
  2
Symbol (ANSI)
 70
     0
 62
     7
  6
Continuous
370
     5
390
F
  0
LAYER
  5
CF
330
2
100
AcDbSymbolTableRecord
100
AcDbLayerTableRecord
  2
Visible (ANSI)
 70
     0
 62
     7
  6
Continuous
370
     5
390
F
  0
LAYER
  5
D0
330
2
100
AcDbSymbolTableRecord
100
AcDbLayerTableRecord
  2
Visible Narrow (ANSI)
 70
     0
 62
     7
  6
Continuous
370
     5
390
F
  0
LAYER
  5
2B1
330
2
100
AcDbSymbolTableRecord
100
AcDbLayerTableRecord
  2
Defpoints
 70
     0
 62
     7
  6
Continuous
290
     0
370
    -3
390
F
  0
ENDTAB
  0
TABLE
  2
STYLE
  5
3
330
0
100
AcDbSymbolTable
 70
    10
  0
STYLE
  5
55
330
3
100
AcDbSymbolTableRecord
100
AcDbTextStyleTableRecord
  2
Standard
 70
     0
 40
0.0
 41
1.0
 50
0.0
 71
     0
 42
0.2
  3
txt
  4

  0
STYLE
  5
5A
330
3
100
AcDbSymbolTableRecord
100
AcDbTextStyleTableRecord
  2
Annotative
 70
     0
 40
0.0
 41
1.0
 50
0.0
 71
     0
 42
0.2
  3
txt
  4

1001
AcadAnnotative
1000
AnnotativeData
1002
{
1070
     1
1070
     1
1002
}
  0
STYLE
  5
B2
330
3
100
AcDbSymbolTableRecord
100
AcDbTextStyleTableRecord
  2

 70
     1
 40
0.0
 41
1.0
 50
0.0
 71
     0
 42
0.2
  3
ltypeshp.shx
  4

  0
STYLE
  5
D4
330
3
100
AcDbSymbolTableRecord
100
AcDbTextStyleTableRecord
  2
ITALICC_120
 70
     0
 40
0.0
 41
1.0
 50
0.0
 71
     0
 42
0.2
  3
italicc.shx
  4

  0
STYLE
  5
D5
330
3
100
AcDbSymbolTableRecord
100
AcDbTextStyleTableRecord
  2
Label Text (ANSI)
 70
     0
 40
0.0
 41
1.0
 50
0.0
 71
     0
 42
0.2
  3
tahoma.ttf
  4

1001
ACAD
1000
Tahoma
1071
      256
  0
STYLE
  5
D6
330
3
100
AcDbSymbolTableRecord
100
AcDbTextStyleTableRecord
  2
Note Text (ANSI)
 70
     0
 40
0.0
 41
1.0
 50
0.0
 71
     0
 42
0.2
  3
RomanS.shx
  4

  0
STYLE
  5
D7
330
3
100
AcDbSymbolTableRecord
100
AcDbTextStyleTableRecord
  2
ROMANS
 70
     0
 40
0.0
 41
1.0
 50
0.0
 71
     0
 42
0.2
  3
romans.shx
  4

  0
STYLE
  5
D8
330
3
100
AcDbSymbolTableRecord
100
AcDbTextStyleTableRecord
  2
SANSSERIF_114
 70
     0
 40
0.0
 41
1.0
 50
0.0
 71
     0
 42
0.2
  3
tahoma.ttf
  4

1001
ACAD
1000
Tahoma
1071
      256
  0
STYLE
  5
D9
330
3
100
AcDbSymbolTableRecord
100
AcDbTextStyleTableRecord
  2
SANSSERIF_117
 70
     0
 40
0.0
 41
1.0
 50
0.0
 71
     0
 42
0.2
  3
tahoma.ttf
  4

1001
ACAD
1000
Tahoma
1071
      256
  0
STYLE
  5
15E
330
3
100
AcDbSymbolTableRecord
100
AcDbTextStyleTableRecord
  2
Text Style168
 70
     0
 40
0.0
 41
1.0
 50
0.0
 71
     0
 42
0.2
  3
tahoma.ttf
  4

1001
ACAD
1000
Tahoma
1071
      256
  0
ENDTAB
  0
TABLE
  2
VIEW
  5
6
330
0
100
AcDbSymbolTable
 70
     0
  0
ENDTAB
  0
TABLE
  2
UCS
  5
7
330
0
100
AcDbSymbolTable
 70
     0
  0
ENDTAB
  0
TABLE
  2
APPID
  5
9
330
0
100
AcDbSymbolTable
 70
     5
  0
APPID
  5
56
330
9
100
AcDbSymbolTableRecord
100
AcDbRegAppTableRecord
  2
ACAD
 70
     0
  0
APPID
  5
5E
330
9
100
AcDbSymbolTableRecord
100
AcDbRegAppTableRecord
  2
AcadAnnotative
 70
     0
  0
APPID
  5
61B
330
9
100
AcDbSymbolTableRecord
100
AcDbRegAppTableRecord
  2
ACAD_DSTYLE_DIMANGULAR_EXTENSION
 70
     0
  0
APPID
  5
F06
330
9
100
AcDbSymbolTableRecord
100
AcDbRegAppTableRecord
  2
ACAD_DSTYLE_DIMRADIAL_EXTENSION
 70
     0
  0
APPID
  5
15BD
330
9
100
AcDbSymbolTableRecord
100
AcDbRegAppTableRecord
  2
ACAD_MLEADERVER
 70
     0
  0
ENDTAB
  0
TABLE
  2
DIMSTYLE
  5
A
330
0
100
AcDbSymbolTable
 70
    15
100
AcDbDimStyleTable
 71
     2
340
E2
340
58
  0
DIMSTYLE
105
58
330
A
100
AcDbSymbolTableRecord
100
AcDbDimStyleTableRecord
  2
Standard
 70
     0
340
55
  0
DIMSTYLE
105
59
330
A
100
AcDbSymbolTableRecord
100
AcDbDimStyleTableRecord
  2
Annotative
 70
     0
340
55
1001
AcadAnnotative
1000
AnnotativeData
1002
{
1070
     1
1070
     1
1002
}
  0
DIMSTYLE
105
DA
330
A
100
AcDbSymbolTableRecord
100
AcDbDimStyleTableRecord
  2
Architectural (ANSI)
 70
     0
 40
7.0
 41
0.0984251946210861
 43
0.2362204724409449
 44
0.125
 45
0.00000001
 46
0.3937007874015748
 78
     3
 79
     3
140
0.1000000014901161
146
1.200000047683715
147
0.031496062992126
171
     1
176
   256
177
   256
178
   256
272
     2
274
     1
276
     2
277
     4
284
    12
285
     4
286
    12
340
D6
371
    -1
372
    -1
  0
DIMSTYLE
105
DB
330
A
100
AcDbSymbolTableRecord
100
AcDbDimStyleTableRecord
  2
Architectural (ANSI)$7
 70
     0
 40
7.0
 41
0.0984251946210861
 43
0.2362204724409449
 44
0.125
 45
0.00000001
 46
0.3937007874015748
 78
     3
 79
     3
140
0.1000000014901161
146
1.200000047683715
147
0.031496062992126
171
     1
176
   256
177
   256
178
   256
272
     2
274
     1
276
     2
277
     4
284
    12
285
     4
286
    12
340
D6
371
    -1
372
    -1
  0
DIMSTYLE
105
DC
330
A
100
AcDbSymbolTableRecord
100
AcDbDimStyleTableRecord
  2
Default - Fraction (ANSI)
 70
     0
 40
7.0
 41
0.0984251946210861
 43
0.2362204724409449
 44
0.125
 45
0.00000001
 46
0.3937007874015748
 79
     3
140
0.1000000014901161
146
1.200000047683715
147
0.031496062992126
171
     1
176
   256
177
   256
178
   256
272
     2
274
     1
276
     2
277
     5
284
    12
285
     4
286
    12
340
D6
371
    -1
372
    -1
  0
DIMSTYLE
105
DD
330
A
100
AcDbSymbolTableRecord
100
AcDbDimStyleTableRecord
  2
Default - Fraction (ANSI)$7
 70
     0
 40
7.0
 41
0.0984251946210861
 43
0.2362204724409449
 44
0.125
 45
0.00000001
 46
0.3937007874015748
 79
     3
140
0.1000000014901161
146
1.200000047683715
147
0.031496062992126
171
     1
176
   256
177
   256
178
   256
272
     2
274
     1
276
     2
277
     5
284
    12
285
     4
286
    12
340
D6
371
    -1
372
    -1
  0
DIMSTYLE
105
DE
330
A
100
AcDbSymbolTableRecord
100
AcDbDimStyleTableRecord
  2
Default - mm (ANSI)
 70
     0
 40
7.0
 41
0.0984251946210861
 42
0.063
 43
0.2362204724409449
 44
0.125
 45
0.00000001
 46
0.3937007874015748
 73
     0
 78
     4
 79
     1
140
0.1000000014901161
143
1.0
144
25.4
146
1.200000047683715
147
0.031496062992126
171
     1
176
   256
177
   256
178
   256
179
     1
271
     2
272
     2
274
     1
284
     4
285
     4
340
D6
371
    -1
372
    -1
  0
DIMSTYLE
105
DF
330
A
100
AcDbSymbolTableRecord
100
AcDbDimStyleTableRecord
  2
Default - mm (ANSI)$7
 70
     0
 40
7.0
 41
0.0984251946210861
 42
0.063
 43
0.2362204724409449
 44
0.125
 45
0.00000001
 46
0.3937007874015748
 73
     0
 78
     4
 79
     1
140
0.1000000014901161
143
1.0
144
25.4
146
1.200000047683715
147
0.031496062992126
171
     1
176
   256
177
   256
178
   256
179
     1
271
     2
272
     2
274
     1
284
     4
285
     4
340
D6
371
    -1
372
    -1
  0
DIMSTYLE
105
E0
330
A
100
AcDbSymbolTableRecord
100
AcDbDimStyleTableRecord
  2
Default - mm [in] (ANSI)
 70
     0
  4
 in
 40
7.0
 41
0.0984251946210861
 42
0.063
 43
0.25
 44
0.125
 45
0.00000001
 46
0.3937007874015748
 73
     0
 78
     4
 79
     1
140
0.1000000014901161
143
0.03937
144
25.4
146
1.200000047683715
147
0.031496062992126
170
     1
171
     3
176
   256
177
   256
178
   256
179
     1
271
     2
272
     2
274
     3
284
     4
285
     4
286
     4
340
D6
371
    -1
372
    -1
  0
DIMSTYLE
105
E1
330
A
100
AcDbSymbolTableRecord
100
AcDbDimStyleTableRecord
  2
Default - mm [in] (ANSI)$7
 70
     0
  4
 in
 40
7.0
 41
0.0984251946210861
 42
0.063
 43
0.25
 44
0.125
 45
0.00000001
 46
0.3937007874015748
 73
     0
 78
     4
 79
     1
140
0.1000000014901161
143
0.03937
144
25.4
146
1.200000047683715
147
0.031496062992126
170
     1
171
     3
176
   256
177
   256
178
   256
179
     1
271
     2
272
     2
274
     3
284
     4
285
     4
286
     4
340
D6
371
    -1
372
    -1
  0
DIMSTYLE
105
E2
102
{ACAD_REACTORS
330
2AF
330
3B0
330
4AE
330
598
330
6C1
330
7B0
330
8B6
330
9A9
330
A99
330
B99
330
C83
330
D6F
330
E6D
330
F2C
330
1016
330
1100
330
11EA
330
12E7
330
13D1
330
148A
102
}
330
A
100
AcDbSymbolTableRecord
100
AcDbDimStyleTableRecord
  2
Default (ANSI)
 70
     0
 40
7.0
 41
0.0984251946210861
 43
0.2362204724409449
 44
0.125
 45
0.00000001
 46
0.3937007874015748
140
0.1000000014901161
147
0.031496062992126
176
   256
177
   256
178
   256
271
     2
272
     2
340
D7
371
    -1
372
    -1
  0
DIMSTYLE
105
E3
330
A
100
AcDbSymbolTableRecord
100
AcDbDimStyleTableRecord
  2
Default (ANSI)$7
 70
     0
 40
7.0
 41
0.0984251946210861
 43
0.2362204724409449
 44
0.125
 45
0.00000001
 46
0.3937007874015748
140
0.1000000014901161
147
0.031496062992126
176
   256
177
   256
178
   256
271
     2
272
     2
340
D7
371
    -1
372
    -1
  0
DIMSTYLE
105
E4
330
A
100
AcDbSymbolTableRecord
100
AcDbDimStyleTableRecord
  2
Alternate (ANSI)
 70
     0
 40
7.0
 41
0.0979999974370003
340
55
342
E5
  0
DIMSTYLE
105
F7
330
A
100
AcDbSymbolTableRecord
100
AcDbDimStyleTableRecord
  2
Datum (ANSI)
 70
     0
 40
7.0
 41
0.0979999974370003
340
55
342
E5
  0
DIMSTYLE
105
106
330
A
100
AcDbSymbolTableRecord
100
AcDbDimStyleTableRecord
  2
Large (ANSI)
 70
     0
 40
7.0
 41
0.1959999948740005
340
55
342
E5
  0
ENDTAB
  0
TABLE
  2
BLOCK_RECORD
  5
1
330
0
100
AcDbSymbolTable
 70
    24
  0
BLOCK_RECORD
  5
6C
330
1
100
AcDbSymbolTableRecord
100
AcDbBlockTableRecord
  2
*Model_Space
340
6F
  0
BLOCK_RECORD
  5
68
330
1
100
AcDbSymbolTableRecord
100
AcDbBlockTableRecord
  2
*Paper_Space
340
6B
  0
BLOCK_RECORD
  5
70
330
1
100
AcDbSymbolTableRecord
100
AcDbBlockTableRecord
  2
*Paper_Space0
340
73
  0
BLOCK_RECORD
  5
E5
330
1
100
AcDbSymbolTableRecord
100
AcDbBlockTableRecord
  2
_Closed
340
0
  0
BLOCK_RECORD
  5
EC
330
1
100
AcDbSymbolTableRecord
100
AcDbBlockTableRecord
  2
DatumFilled45
340
0
  0
BLOCK_RECORD
  5
F8
330
1
100
AcDbSymbolTableRecord
100
AcDbBlockTableRecord
  2
Filled-1
340
0
  0
BLOCK_RECORD
  5
2B2
330
1
100
AcDbSymbolTableRecord
100
AcDbBlockTableRecord
  2
*D4
340
0
  0
BLOCK_RECORD
  5
3B1
330
1
100
AcDbSymbolTableRecord
100
AcDbBlockTableRecord
  2
*D5
340
0
  0
BLOCK_RECORD
  5
4AF
330
1
100
AcDbSymbolTableRecord
100
AcDbBlockTableRecord
  2
*D6
340
0
  0
BLOCK_RECORD
  5
599
330
1
100
AcDbSymbolTableRecord
100
AcDbBlockTableRecord
  2
*D7
340
0
  0
BLOCK_RECORD
  5
6C2
330
1
100
AcDbSymbolTableRecord
100
AcDbBlockTableRecord
  2
*D8
340
0
  0
BLOCK_RECORD
  5
7B1
330
1
100
AcDbSymbolTableRecord
100
AcDbBlockTableRecord
  2
*D9
340
0
  0
BLOCK_RECORD
  5
8B7
330
1
100
AcDbSymbolTableRecord
100
AcDbBlockTableRecord
  2
*D10
340
0
  0
BLOCK_RECORD
  5
9AA
330
1
100
AcDbSymbolTableRecord
100
AcDbBlockTableRecord
  2
*D11
340
0
  0
BLOCK_RECORD
  5
A9A
330
1
100
AcDbSymbolTableRecord
100
AcDbBlockTableRecord
  2
*D12
340
0
  0
BLOCK_RECORD
  5
B9A
330
1
100
AcDbSymbolTableRecord
100
AcDbBlockTableRecord
  2
*D13
340
0
  0
BLOCK_RECORD
  5
C84
330
1
100
AcDbSymbolTableRecord
100
AcDbBlockTableRecord
  2
*D14
340
0
  0
BLOCK_RECORD
  5
D70
330
1
100
AcDbSymbolTableRecord
100
AcDbBlockTableRecord
  2
*D15
340
0
  0
BLOCK_RECORD
  5
E6E
330
1
100
AcDbSymbolTableRecord
100
AcDbBlockTableRecord
  2
*D16
340
0
  0
BLOCK_RECORD
  5
F2D
330
1
100
AcDbSymbolTableRecord
100
AcDbBlockTableRecord
  2
*D17
340
0
  0
BLOCK_RECORD
  5
1017
330
1
100
AcDbSymbolTableRecord
100
AcDbBlockTableRecord
  2
*D18
340
0
  0
BLOCK_RECORD
  5
1101
330
1
100
AcDbSymbolTableRecord
100
AcDbBlockTableRecord
  2
*D19
340
0
  0
BLOCK_RECORD
  5
11EB
330
1
100
AcDbSymbolTableRecord
100
AcDbBlockTableRecord
  2
*D20
340
0
  0
BLOCK_RECORD
  5
12E8
330
1
100
AcDbSymbolTableRecord
100
AcDbBlockTableRecord
  2
*D21
340
0
  0
BLOCK_RECORD
  5
13D2
330
1
100
AcDbSymbolTableRecord
100
AcDbBlockTableRecord
  2
*D22
340
0
  0
BLOCK_RECORD
  5
148B
330
1
100
AcDbSymbolTableRecord
100
AcDbBlockTableRecord
  2
*D23
340
0
  0
ENDTAB
  0
ENDSEC
  0
SECTION
  2
BLOCKS
  0
BLOCK
  5
6D
330
6C
100
AcDbEntity
  8
0
100
AcDbBlockBegin
  2
*Model_Space
 70
     0
 10
0.0
 20
0.0
 30
0.0
  3
*Model_Space
  1

  0
ENDBLK
  5
6E
330
6C
100
AcDbEntity
  8
0
100
AcDbBlockEnd
  0
BLOCK
  5
69
330
68
100
AcDbEntity
 67
     1
  8
0
100
AcDbBlockBegin
  2
*Paper_Space
 70
     0
 10
0.0
 20
0.0
 30
0.0
  3
*Paper_Space
  1

  0
ENDBLK
  5
6A
330
68
100
AcDbEntity
 67
     1
  8
0
100
AcDbBlockEnd
  0
BLOCK
  5
71
330
70
100
AcDbEntity
 67
     1
  8
0
100
AcDbBlockBegin
  2
*Paper_Space0
 70
     0
 10
0.0
 20
0.0
 30
0.0
  3
*Paper_Space0
  1

  0
ENDBLK
  5
72
330
70
100
AcDbEntity
 67
     1
  8
0
100
AcDbBlockEnd
  0
BLOCK
  5
EA
330
E5
100
AcDbEntity
  8
0
100
AcDbBlockBegin
  2
_Closed
 70
     0
 10
0.0
 20
0.0
 30
0.0
  3
_Closed
  1

  0
LINE
  5
E6
330
E5
100
AcDbEntity
  8
0
  6
ByBlock
 62
     0
370
    -2
100
AcDbLine
 10
-1.0
 20
0.1666666666666666
 30
0.0
 11
0.0
 21
0.0
 31
0.0
  0
LINE
  5
E7
330
E5
100
AcDbEntity
  8
0
  6
ByBlock
 62
     0
370
    -2
100
AcDbLine
 10
0.0
 20
0.0
 30
0.0
 11
-1.0
 21
-0.1666666666666666
 31
0.0
  0
LINE
  5
E8
330
E5
100
AcDbEntity
  8
0
  6
ByBlock
 62
     0
370
    -2
100
AcDbLine
 10
-1.0
 20
0.1666666666666666
 30
0.0
 11
-1.0
 21
-0.1666666666666666
 31
0.0
  0
LINE
  5
E9
330
E5
100
AcDbEntity
  8
0
  6
ByBlock
 62
     0
370
    -2
100
AcDbLine
 10
0.0
 20
0.0
 30
0.0
 11
-1.0
 21
0.0
 31
0.0
  0
ENDBLK
  5
EB
330
E5
100
AcDbEntity
  8
0
100
AcDbBlockEnd
  0
BLOCK
  5
ED
330
EC
100
AcDbEntity
  8
0
100
AcDbBlockBegin
  2
DatumFilled45
 70
     0
 10
0.0
 20
0.0
 30
0.0
  3
DatumFilled45
  1

  0
POLYLINE
  5
EF
330
EC
100
AcDbEntity
  8
0
 62
     0
100
AcDb2dPolyline
 66
     1
 10
0.0
 20
0.0
 30
0.0
 70
   128
  0
VERTEX
  5
F0
330
EF
100
AcDbEntity
  8
0
 62
     0
100
AcDbVertex
100
AcDb2dVertex
 10
0.0
 20
0.9999999999999998
 30
0.0
  0
VERTEX
  5
F1
330
EF
100
AcDbEntity
  8
0
 62
     0
100
AcDbVertex
100
AcDb2dVertex
 10
0.0
 20
-0.9999999999999998
 30
0.0
  0
VERTEX
  5
F3
330
EF
100
AcDbEntity
  8
0
 62
     0
100
AcDbVertex
100
AcDb2dVertex
 10
-0.9999999999999998
 20
0.0
 30
0.0
  0
VERTEX
  5
F4
330
EF
100
AcDbEntity
  8
0
 62
     0
100
AcDbVertex
100
AcDb2dVertex
 10
0.0
 20
0.9999999999999998
 30
0.0
  0
SEQEND
  5
F2
330
EF
100
AcDbEntity
  8
0
 62
     0
  0
SOLID
  5
F6
330
EC
100
AcDbEntity
  8
0
 62
     0
100
AcDbTrace
 10
0.0
 20
0.9999999999999998
 30
0.0
 11
0.0
 21
-0.9999999999999998
 31
0.0
 12
-0.9999999999999998
 22
0.0
 32
0.0
 13
0.0
 23
0.9999999999999998
 33
0.0
  0
ENDBLK
  5
EE
330
EC
100
AcDbEntity
  8
0
100
AcDbBlockEnd
  0
BLOCK
  5
F9
330
F8
100
AcDbEntity
  8
0
100
AcDbBlockBegin
  2
Filled-1
 70
     0
 10
0.0
 20
0.0
 30
0.0
  3
Filled-1
  1

  0
LINE
  5
FB
330
F8
100
AcDbEntity
  8
0
 62
     0
100
AcDbLine
 10
-0.9999999999999998
 20
0.0
 30
0.0
 11
0.0
 21
0.0
 31
0.0
  0
POLYLINE
  5
FC
330
F8
100
AcDbEntity
  8
0
 62
     0
100
AcDb2dPolyline
 66
     1
 10
0.0
 20
0.0
 30
0.0
 70
   128
  0
VERTEX
  5
FD
330
FC
100
AcDbEntity
  8
0
 62
     0
100
AcDbVertex
100
AcDb2dVertex
 10
-0.9999999999999998
 20
-0.0994897959183674
 30
0.0
  0
VERTEX
  5
FE
330
FC
100
AcDbEntity
  8
0
 62
     0
100
AcDbVertex
100
AcDb2dVertex
 10
0.0
 20
0.0
 30
0.0
  0
VERTEX
  5
100
330
FC
100
AcDbEntity
  8
0
 62
     0
100
AcDbVertex
100
AcDb2dVertex
 10
-0.9999999999999998
 20
0.0994897959183674
 30
0.0
  0
VERTEX
  5
101
330
FC
100
AcDbEntity
  8
0
 62
     0
100
AcDbVertex
100
AcDb2dVertex
 10
-0.9999999999999998
 20
-0.0994897959183674
 30
0.0
  0
SEQEND
  5
FF
330
FC
100
AcDbEntity
  8
0
 62
     0
  0
SOLID
  5
102
330
F8
100
AcDbEntity
  8
0
 62
     0
100
AcDbTrace
 10
-0.9999999999999998
 20
-0.0994897959183674
 30
0.0
 11
0.0
 21
0.0
 31
0.0
 12
-0.9999999999999998
 22
0.0994897959183674
 32
0.0
 13
-0.9999999999999998
 23
-0.0994897959183674
 33
0.0
  0
LINE
  5
103
330
F8
100
AcDbEntity
  8
0
 62
     0
100
AcDbLine
 10
-0.9999999999999998
 20
-0.0994897959183674
 30
0.0
 11
0.0
 21
0.0
 31
0.0
  0
LINE
  5
104
330
F8
100
AcDbEntity
  8
0
 62
     0
100
AcDbLine
 10
0.0
 20
0.0
 30
0.0
 11
-0.9999999999999998
 21
0.0994897959183674
 31
0.0
  0
LINE
  5
105
330
F8
100
AcDbEntity
  8
0
 62
     0
100
AcDbLine
 10
-0.9999999999999998
 20
0.0994897959183674
 30
0.0
 11
-0.9999999999999998
 21
-0.0994897959183674
 31
0.0
  0
ENDBLK
  5
FA
330
F8
100
AcDbEntity
  8
0
100
AcDbBlockEnd
  0
BLOCK
  5
2B3
330
2B2
100
AcDbEntity
  8
0
100
AcDbBlockBegin
  2
*D4
 70
     1
 10
0.0
 20
0.0
 30
0.0
  3
*D4
  1

  0
LINE
  5
3A6
330
2B2
100
AcDbEntity
  8
Dimension (ANSI)
440
 16777216
100
AcDbLine
 10
47.73630610280613
 20
51.71136713725622
 30
0.0
 11
43.05253914678215
 21
51.71136713725622
 31
0.0
  0
LINE
  5
3A7
330
2B2
100
AcDbEntity
  8
Dimension (ANSI)
440
 16777216
100
AcDbLine
 10
47.89255610280608
 20
33.71149327845446
 30
0.0
 11
43.05253914678214
 21
33.71149327845446
 31
0.0
  0
LINE
  5
3A8
330
2B2
100
AcDbEntity
  8
Dimension (ANSI)
440
 16777216
100
AcDbLine
 10
43.92753914678215
 20
51.02239077490861
 30
0.0
 11
43.92753914678214
 21
43.86523599604128
 31
0.0
  0
LINE
  5
3A9
330
2B2
100
AcDbEntity
  8
Dimension (ANSI)
440
 16777216
100
AcDbLine
 10
43.92753914678214
 20
34.40046964080206
 30
0.0
 11
43.92753914678214
 21
41.55762441966936
 31
0.0
  0
SOLID
  5
3AA
330
2B2
100
AcDbEntity
  8
Dimension (ANSI)
440
 16777216
100
AcDbTrace
 10
43.81270975305755
 20
51.02239077490861
 30
0.0
 11
44.04236854050675
 21
51.02239077490861
 31
0.0
 12
43.92753914678215
 22
51.71136713725622
 32
0.0
 13
43.92753914678215
 23
51.71136713725622
 33
0.0
  0
SOLID
  5
3AB
330
2B2
100
AcDbEntity
  8
Dimension (ANSI)
440
 16777216
100
AcDbTrace
 10
43.81270975305755
 20
34.40046964080206
 30
0.0
 11
44.04236854050674
 21
34.40046964080206
 31
0.0
 12
43.92753914678214
 22
33.71149327845446
 32
0.0
 13
43.92753914678214
 23
33.71149327845446
 33
0.0
  0
MTEXT
  5
3AC
330
2B2
100
AcDbEntity
  8
Dimension (ANSI)
440
 16777216
100
AcDbMText
 10
43.92753914678213
 20
42.71143020785532
 30
0.0
 40
0.7000000104308129
 41
0.0
 71
     5
 72
     1
  1
\A1;18.00{\PHEIGHT}
  7
ROMANS
 73
     1
 44
1.0
  0
POINT
  5
3AD
330
2B2
100
AcDbEntity
  8
Defpoints
 62
     0
440
 16777216
100
AcDbPoint
 10
48.17380610280613
 20
51.71136713725621
 30
0.0
  0
POINT
  5
3AE
330
2B2
100
AcDbEntity
  8
Defpoints
 62
     0
440
 16777216
100
AcDbPoint
 10
48.33005610280609
 20
33.71149327845445
 30
0.0
  0
POINT
  5
3AF
330
2B2
100
AcDbEntity
  8
Defpoints
 62
     0
440
 16777216
100
AcDbPoint
 10
43.92753914678214
 20
33.71149327845446
 30
0.0
  0
ENDBLK
  5
2B4
330
2B2
100
AcDbEntity
  8
0
100
AcDbBlockEnd
  0
BLOCK
  5
3B2
330
3B1
100
AcDbEntity
  8
0
100
AcDbBlockBegin
  2
*D5
 70
     1
 10
0.0
 20
0.0
 30
0.0
  3
*D5
  1

  0
LINE
  5
4A4
330
3B1
100
AcDbEntity
  8
Dimension (ANSI)
440
 16777216
100
AcDbLine
 10
47.95505610280613
 20
51.93011713725622
 30
0.0
 11
47.95505610280613
 21
55.35768560927738
 31
0.0
  0
LINE
  5
4A5
330
3B1
100
AcDbEntity
  8
Dimension (ANSI)
440
 16777216
100
AcDbLine
 10
56.08005610280615
 20
51.93011713725622
 30
0.0
 11
56.08005610280615
 21
55.35768560927738
 31
0.0
  0
LINE
  5
4A6
330
3B1
100
AcDbEntity
  8
Dimension (ANSI)
440
 16777216
100
AcDbLine
 10
48.64403246515372
 20
54.48268560927738
 30
0.0
 11
50.3804169740846
 21
54.48268560927738
 31
0.0
  0
LINE
  5
4A7
330
3B1
100
AcDbEntity
  8
Dimension (ANSI)
440
 16777216
100
AcDbLine
 10
55.39107974045855
 20
54.48268560927738
 30
0.0
 11
53.65469523152766
 21
54.48268560927738
 31
0.0
  0
SOLID
  5
4A8
330
3B1
100
AcDbEntity
  8
Dimension (ANSI)
440
 16777216
100
AcDbTrace
 10
48.64403246515372
 20
54.59751500300198
 30
0.0
 11
48.64403246515372
 21
54.36785621555278
 31
0.0
 12
47.95505610280613
 22
54.48268560927738
 32
0.0
 13
47.95505610280613
 23
54.48268560927738
 33
0.0
  0
SOLID
  5
4A9
330
3B1
100
AcDbEntity
  8
Dimension (ANSI)
440
 16777216
100
AcDbTrace
 10
55.39107974045855
 20
54.59751500300198
 30
0.0
 11
55.39107974045855
 21
54.36785621555278
 31
0.0
 12
56.08005610280615
 22
54.48268560927738
 32
0.0
 13
56.08005610280615
 23
54.48268560927738
 33
0.0
  0
MTEXT
  5
4AA
330
3B1
100
AcDbEntity
  8
Dimension (ANSI)
440
 16777216
100
AcDbMText
 10
52.01755610280613
 20
54.48268560927738
 30
0.0
 40
0.7000000104308129
 41
0.0
 71
     5
 72
     1
  1
\A1;8.13{\PWIDTH}
  7
ROMANS
 73
     1
 44
1.0
  0
POINT
  5
4AB
330
3B1
100
AcDbEntity
  8
Defpoints
 62
     0
440
 16777216
100
AcDbPoint
 10
47.95505610280613
 20
51.49261713725622
 30
0.0
  0
POINT
  5
4AC
330
3B1
100
AcDbEntity
  8
Defpoints
 62
     0
440
 16777216
100
AcDbPoint
 10
56.08005610280615
 20
51.49261713725622
 30
0.0
  0
POINT
  5
4AD
330
3B1
100
AcDbEntity
  8
Defpoints
 62
     0
440
 16777216
100
AcDbPoint
 10
56.08005610280615
 20
54.48268560927738
 30
0.0
  0
ENDBLK
  5
3B3
330
3B1
100
AcDbEntity
  8
0
100
AcDbBlockEnd
  0
BLOCK
  5
4B0
330
4AF
100
AcDbEntity
  8
0
100
AcDbBlockBegin
  2
*D6
 70
     1
 10
0.0
 20
0.0
 30
0.0
  3
*D6
  1

  0
LINE
  5
58E
330
4AF
100
AcDbEntity
  8
Dimension (ANSI)
440
 16777216
100
AcDbLine
 10
20.83215997303644
 20
51.93011713725621
 30
0.0
 11
20.83215997303644
 21
56.27574969184677
 31
0.0
  0
LINE
  5
58F
330
4AF
100
AcDbEntity
  8
Dimension (ANSI)
440
 16777216
100
AcDbLine
 10
28.83215997303644
 20
52.1488671372562
 30
0.0
 11
28.83215997303644
 21
56.27574969184677
 31
0.0
  0
LINE
  5
590
330
4AF
100
AcDbEntity
  8
Dimension (ANSI)
440
 16777216
100
AcDbLine
 10
21.52113633538404
 20
55.40074969184677
 30
0.0
 11
23.54502084953033
 21
55.40074969184677
 31
0.0
  0
LINE
  5
591
330
4AF
100
AcDbEntity
  8
Dimension (ANSI)
440
 16777216
100
AcDbLine
 10
28.14318361068884
 20
55.40074969184677
 30
0.0
 11
26.11929909654256
 21
55.40074969184677
 31
0.0
  0
SOLID
  5
592
330
4AF
100
AcDbEntity
  8
Dimension (ANSI)
440
 16777216
100
AcDbTrace
 10
21.52113633538404
 20
55.51557908557136
 30
0.0
 11
21.52113633538404
 21
55.28592029812217
 31
0.0
 12
20.83215997303644
 22
55.40074969184677
 32
0.0
 13
20.83215997303644
 23
55.40074969184677
 33
0.0
  0
SOLID
  5
593
330
4AF
100
AcDbEntity
  8
Dimension (ANSI)
440
 16777216
100
AcDbTrace
 10
28.14318361068884
 20
55.51557908557136
 30
0.0
 11
28.14318361068884
 21
55.28592029812217
 31
0.0
 12
28.83215997303644
 22
55.40074969184677
 32
0.0
 13
28.83215997303644
 23
55.40074969184677
 33
0.0
  0
MTEXT
  5
594
330
4AF
100
AcDbEntity
  8
Dimension (ANSI)
440
 16777216
100
AcDbMText
 10
23.76549329047521
 20
55.75074969706218
 30
0.0
 40
0.7000000104308129
 41
0.0
 71
     1
 72
     1
  1
\A1;8.00
  7
ROMANS
 73
     1
 44
1.0
  0
POINT
  5
595
330
4AF
100
AcDbEntity
  8
Defpoints
 62
     0
440
 16777216
100
AcDbPoint
 10
20.83215997303644
 20
51.49261713725621
 30
0.0
  0
POINT
  5
596
330
4AF
100
AcDbEntity
  8
Defpoints
 62
     0
440
 16777216
100
AcDbPoint
 10
28.83215997303644
 20
51.7113671372562
 30
0.0
  0
POINT
  5
597
330
4AF
100
AcDbEntity
  8
Defpoints
 62
     0
440
 16777216
100
AcDbPoint
 10
28.83215997303644
 20
55.40074969184677
 30
0.0
  0
ENDBLK
  5
4B1
330
4AF
100
AcDbEntity
  8
0
100
AcDbBlockEnd
  0
BLOCK
  5
59A
330
599
100
AcDbEntity
  8
0
100
AcDbBlockBegin
  2
*D7
 70
     1
 10
0.0
 20
0.0
 30
0.0
  3
*D7
  1

  0
LINE
  5
6B6
330
599
100
AcDbEntity
  8
Dimension (ANSI)
440
 16777216
100
AcDbLine
 10
29.73176454245642
 20
51.71136713725622
 30
0.0
 11
33.17458527088079
 21
51.71136713725625
 31
0.0
  0
LINE
  5
6B7
330
599
100
AcDbEntity
  8
Dimension (ANSI)
440
 16777216
100
AcDbLine
 10
28.95456610573647
 20
52.58088416079283
 30
0.0
 11
29.33938124783115
 21
56.00213128347823
 31
0.0
  0
ARC
  5
6B8
330
599
100
AcDbEntity
  8
Dimension (ANSI)
440
 16777216
100
AcDbCircle
 10
28.85676454245642
 20
51.71136713725622
 30
0.0
 40
3.442820728424367
100
AcDbArc
 50
11.48523568800521
 51
30.04759250072267
  0
ARC
  5
6B9
330
599
100
AcDbEntity
  8
Dimension (ANSI)
440
 16777216
100
AcDbCircle
 10
28.85676454245642
 20
51.71136713725622
 30
0.0
 40
3.442820728424367
100
AcDbArc
 50
56.3168722871249
 51
72.09722054816353
  0
SOLID
  5
6BA
330
599
100
AcDbEntity
  8
Dimension (ANSI)
440
 16777216
100
AcDbTrace
 10
32.34489950135734
 20
52.40837562935173
 30
0.0
 11
32.11639327524655
 21
52.38539600182543
 31
0.0
 12
32.29958527088079
 22
51.71136713725624
 32
0.0
 13
32.29958527088079
 23
51.71136713725624
 33
0.0
  0
SOLID
  5
6BB
330
599
100
AcDbEntity
  8
Dimension (ANSI)
440
 16777216
100
AcDbTrace
 10
29.89090895145917
 20
54.87523181944977
 30
0.0
 11
29.9392854582723
 21
55.09973765955464
 31
0.0
 12
29.2415796845511
 22
55.13261425994161
 32
0.0
 13
29.2415796845511
 23
55.13261425994161
 33
0.0
  0
MTEXT
  5
6BC
330
599
100
AcDbEntity
  8
Dimension (ANSI)
440
 16777216
100
AcDbMText
 10
30.72365604861562
 20
54.35572598757993
 30
0.0
 40
0.7000000104308129
 41
0.0
 71
     1
 72
     1
  1
\A1;84\U+00B0
  7
ROMANS
 73
     1
 44
1.0
  0
POINT
  5
6BD
330
599
100
AcDbEntity
  8
Defpoints
 62
     0
440
 16777216
100
AcDbPoint
 10
28.85676454245642
 20
51.71136713725621
 30
0.0
  0
POINT
  5
6BE
330
599
100
AcDbEntity
  8
Defpoints
 62
     0
440
 16777216
100
AcDbPoint
 10
29.29426454245642
 20
51.71136713725621
 30
0.0
  0
POINT
  5
6BF
330
599
100
AcDbEntity
  8
Defpoints
 62
     0
440
 16777216
100
AcDbPoint
 10
28.90566532409645
 20
52.14612564902452
 30
0.0
  0
POINT
  5
6C0
330
599
100
AcDbEntity
  8
Defpoints
 62
     0
440
 16777216
100
AcDbPoint
 10
31.90051212952502
 20
53.32028453547234
 30
0.0
  0
ENDBLK
  5
59B
330
599
100
AcDbEntity
  8
0
100
AcDbBlockEnd
  0
BLOCK
  5
6C3
330
6C2
100
AcDbEntity
  8
0
100
AcDbBlockBegin
  2
*D8
 70
     1
 10
0.0
 20
0.0
 30
0.0
  3
*D8
  1

  0
LINE
  5
7A8
330
6C2
100
AcDbEntity
  8
Dimension (ANSI)
440
 16777216
100
AcDbLine
 10
54.14107974046358
 20
64.33257255464614
 30
0.0
 11
53.45210337811598
 21
64.33257255464614
 31
0.0
  0
LINE
  5
7A9
330
6C2
100
AcDbEntity
  8
Dimension (ANSI)
440
 16777216
100
AcDbLine
 10
56.76903246515878
 20
64.33257255464614
 30
0.0
 11
57.8407531005827
 21
64.33257255464614
 31
0.0
  0
SOLID
  5
7AA
330
6C2
100
AcDbEntity
  8
Dimension (ANSI)
440
 16777216
100
AcDbTrace
 10
54.14107974046358
 20
64.44740194837073
 30
0.0
 11
54.14107974046358
 21
64.21774316092153
 31
0.0
 12
54.83005610281118
 22
64.33257255464614
 32
0.0
 13
54.83005610281118
 23
64.33257255464614
 33
0.0
  0
SOLID
  5
7AB
330
6C2
100
AcDbEntity
  8
Dimension (ANSI)
440
 16777216
100
AcDbTrace
 10
56.76903246515878
 20
64.44740194837073
 30
0.0
 11
56.76903246515878
 21
64.21774316092153
 31
0.0
 12
56.08005610281118
 22
64.33257255464614
 32
0.0
 13
56.08005610281118
 23
64.33257255464614
 33
0.0
  0
MTEXT
  5
7AC
330
6C2
100
AcDbEntity
  8
Dimension (ANSI)
440
 16777216
100
AcDbMText
 10
59.87789223526469
 20
64.33257255464614
 30
0.0
 40
0.7000000104308129
 41
0.0
 71
     5
 72
     1
  1
\A1;1.25{\P(2 PL.)}
  7
ROMANS
 73
     1
 44
1.0
  0
POINT
  5
7AD
330
6C2
100
AcDbEntity
  8
Defpoints
 62
     0
440
 16777216
100
AcDbPoint
 10
54.83005610281118
 20
62.33353982550293
 30
0.0
  0
POINT
  5
7AE
330
6C2
100
AcDbEntity
  8
Defpoints
 62
     0
440
 16777216
100
AcDbPoint
 10
56.08005610281118
 20
62.31284149893475
 30
0.0
  0
POINT
  5
7AF
330
6C2
100
AcDbEntity
  8
Defpoints
 62
     0
440
 16777216
100
AcDbPoint
 10
56.08005610281118
 20
64.33257255464614
 30
0.0
  0
ENDBLK
  5
6C4
330
6C2
100
AcDbEntity
  8
0
100
AcDbBlockEnd
  0
BLOCK
  5
7B2
330
7B1
100
AcDbEntity
  8
0
100
AcDbBlockBegin
  2
*D9
 70
     1
 10
0.0
 20
0.0
 30
0.0
  3
*D9
  1

  0
LINE
  5
8A2
330
7B1
100
AcDbEntity
  8
Dimension (ANSI)
440
 16777216
100
AcDbLine
 10
55.2454590158991
 20
60.99106876855262
 30
0.0
 11
62.84938442762456
 21
60.99106876855262
 31
0.0
  0
LINE
  5
8A3
330
7B1
100
AcDbEntity
  8
Dimension (ANSI)
440
 16777216
100
AcDbLine
 10
56.29880610281118
 20
59.7410687685527
 30
0.0
 11
62.84938442762456
 21
59.7410687685527
 31
0.0
  0
LINE
  5
8A4
330
7B1
100
AcDbEntity
  8
Dimension (ANSI)
440
 16777216
100
AcDbLine
 10
61.97438442762456
 20
61.68004513090023
 30
0.0
 11
61.97438442762456
 21
62.36902149324784
 31
0.0
  0
LINE
  5
8A5
330
7B1
100
AcDbEntity
  8
Dimension (ANSI)
440
 16777216
100
AcDbLine
 10
61.97438442762456
 20
59.05209240620509
 30
0.0
 11
61.97438442762456
 21
57.85309516589045
 31
0.0
  0
LINE
  5
8A6
330
7B1
100
AcDbEntity
  8
Dimension (ANSI)
440
 16777216
100
AcDbLine
 10
61.97438442762456
 20
57.85309516589045
 30
0.0
 11
61.28540806527695
 21
57.85309516589045
 31
0.0
  0
SOLID
  5
8A7
330
7B1
100
AcDbEntity
  8
Dimension (ANSI)
440
 16777216
100
AcDbTrace
 10
61.85955503389996
 20
61.68004513090023
 30
0.0
 11
62.08921382134915
 21
61.68004513090023
 31
0.0
 12
61.97438442762456
 22
60.99106876855262
 32
0.0
 13
61.97438442762456
 23
60.99106876855262
 33
0.0
  0
SOLID
  5
8A8
330
7B1
100
AcDbEntity
  8
Dimension (ANSI)
440
 16777216
100
AcDbTrace
 10
61.85955503389996
 20
59.05209240620509
 30
0.0
 11
62.08921382134915
 21
59.05209240620509
 31
0.0
 12
61.97438442762456
 22
59.7410687685527
 32
0.0
 13
61.97438442762456
 23
59.7410687685527
 33
0.0
  0
MTEXT
  5
8A9
330
7B1
100
AcDbEntity
  8
Dimension (ANSI)
440
 16777216
100
AcDbMText
 10
59.03160226069969
 20
58.20309517110587
 30
0.0
 40
0.7000000104308129
 41
0.0
 71
     1
 72
     1
  1
\A1;1.25
  7
ROMANS
 73
     1
 44
1.0
  0
POINT
  5
8AA
330
7B1
100
AcDbEntity
  8
Defpoints
 62
     0
440
 16777216
100
AcDbPoint
 10
54.8079590158991
 20
60.99106876855262
 30
0.0
  0
POINT
  5
8AB
330
7B1
100
AcDbEntity
  8
Defpoints
 62
     0
440
 16777216
100
AcDbPoint
 10
55.86130610281117
 20
59.7410687685527
 30
0.0
  0
POINT
  5
8AC
330
7B1
100
AcDbEntity
  8
Defpoints
 62
     0
440
 16777216
100
AcDbPoint
 10
61.97438442762456
 20
59.7410687685527
 30
0.0
  0
ENDBLK
  5
7B3
330
7B1
100
AcDbEntity
  8
0
100
AcDbBlockEnd
  0
BLOCK
  5
8B8
330
8B7
100
AcDbEntity
  8
0
100
AcDbBlockBegin
  2
*D10
 70
     1
 10
0.0
 20
0.0
 30
0.0
  3
*D10
  1

  0
LINE
  5
99F
330
8B7
100
AcDbEntity
  8
Dimension (ANSI)
440
 16777216
100
AcDbLine
 10
47.73630610280023
 20
24.34525590596681
 30
0.0
 11
44.93660137839079
 21
24.34525590596681
 31
0.0
  0
LINE
  5
9A0
330
8B7
100
AcDbEntity
  8
Dimension (ANSI)
440
 16777216
100
AcDbLine
 10
47.04880610280024
 20
22.34525590596687
 30
0.0
 11
44.93660137839079
 21
22.34525590596687
 31
0.0
  0
LINE
  5
9A1
330
8B7
100
AcDbEntity
  8
Dimension (ANSI)
440
 16777216
100
AcDbLine
 10
45.81160137839079
 20
25.03423226831441
 30
0.0
 11
45.81160137839079
 21
25.72320863066201
 31
0.0
  0
LINE
  5
9A2
330
8B7
100
AcDbEntity
  8
Dimension (ANSI)
440
 16777216
100
AcDbLine
 10
45.81160137839079
 20
21.65627954361927
 30
0.0
 11
45.81160137839079
 21
20.96730318127166
 31
0.0
  0
SOLID
  5
9A3
330
8B7
100
AcDbEntity
  8
Dimension (ANSI)
440
 16777216
100
AcDbTrace
 10
45.69677198466619
 20
25.03423226831441
 30
0.0
 11
45.92643077211539
 21
25.03423226831441
 31
0.0
 12
45.81160137839079
 22
24.34525590596681
 32
0.0
 13
45.81160137839079
 23
24.34525590596681
 33
0.0
  0
SOLID
  5
9A4
330
8B7
100
AcDbEntity
  8
Dimension (ANSI)
440
 16777216
100
AcDbTrace
 10
45.69677198466619
 20
21.65627954361927
 30
0.0
 11
45.92643077211539
 21
21.65627954361927
 31
0.0
 12
45.81160137839079
 22
22.34525590596687
 32
0.0
 13
45.81160137839079
 23
22.34525590596687
 33
0.0
  0
MTEXT
  5
9A5
330
8B7
100
AcDbEntity
  8
Dimension (ANSI)
440
 16777216
100
AcDbMText
 10
44.74493469582954
 20
23.69525591118224
 30
0.0
 40
0.7000000104308129
 41
0.0
 71
     1
 72
     1
  1
\A1;2.00
  7
ROMANS
 73
     1
 44
1.0
  0
POINT
  5
9A6
330
8B7
100
AcDbEntity
  8
Defpoints
 62
     0
440
 16777216
100
AcDbPoint
 10
48.17380610280023
 20
24.34525590596681
 30
0.0
  0
POINT
  5
9A7
330
8B7
100
AcDbEntity
  8
Defpoints
 62
     0
440
 16777216
100
AcDbPoint
 10
47.48630610280023
 20
22.34525590596687
 30
0.0
  0
POINT
  5
9A8
330
8B7
100
AcDbEntity
  8
Defpoints
 62
     0
440
 16777216
100
AcDbPoint
 10
45.81160137839079
 20
22.34525590596687
 30
0.0
  0
ENDBLK
  5
8B9
330
8B7
100
AcDbEntity
  8
0
100
AcDbBlockEnd
  0
BLOCK
  5
9AB
330
9AA
100
AcDbEntity
  8
0
100
AcDbBlockBegin
  2
*D11
 70
     1
 10
0.0
 20
0.0
 30
0.0
  3
*D11
  1

  0
LINE
  5
A8F
330
9AA
100
AcDbEntity
  8
Dimension (ANSI)
440
 16777216
100
AcDbLine
 10
47.73630610280023
 20
24.34525590596681
 30
0.0
 11
42.00927734030083
 21
24.34525590596681
 31
0.0
  0
LINE
  5
A90
330
9AA
100
AcDbEntity
  8
Dimension (ANSI)
440
 16777216
100
AcDbLine
 10
47.04880610280024
 20
17.34525590596686
 30
0.0
 11
42.00927734030083
 21
17.34525590596686
 31
0.0
  0
LINE
  5
A91
330
9AA
100
AcDbEntity
  8
Dimension (ANSI)
440
 16777216
100
AcDbLine
 10
42.88427734030083
 20
23.6562795436192
 30
0.0
 11
42.88427734030083
 21
21.41572835212712
 31
0.0
  0
LINE
  5
A92
330
9AA
100
AcDbEntity
  8
Dimension (ANSI)
440
 16777216
100
AcDbLine
 10
42.88427734030083
 20
18.03423226831447
 30
0.0
 11
42.88427734030083
 21
20.27478345980654
 31
0.0
  0
SOLID
  5
A93
330
9AA
100
AcDbEntity
  8
Dimension (ANSI)
440
 16777216
100
AcDbTrace
 10
42.76944794657623
 20
23.6562795436192
 30
0.0
 11
42.99910673402543
 21
23.6562795436192
 31
0.0
 12
42.88427734030083
 22
24.34525590596681
 32
0.0
 13
42.88427734030083
 23
24.34525590596681
 33
0.0
  0
SOLID
  5
A94
330
9AA
100
AcDbEntity
  8
Dimension (ANSI)
440
 16777216
100
AcDbTrace
 10
42.76944794657623
 20
18.03423226831447
 30
0.0
 11
42.99910673402543
 21
18.03423226831447
 31
0.0
 12
42.88427734030083
 22
17.34525590596686
 32
0.0
 13
42.88427734030083
 23
17.34525590596686
 33
0.0
  0
MTEXT
  5
A95
330
9AA
100
AcDbEntity
  8
Dimension (ANSI)
440
 16777216
100
AcDbMText
 10
41.81761065773958
 20
21.19525591118224
 30
0.0
 40
0.7000000104308129
 41
0.0
 71
     1
 72
     1
  1
\A1;7.00
  7
ROMANS
 73
     1
 44
1.0
  0
POINT
  5
A96
330
9AA
100
AcDbEntity
  8
Defpoints
 62
     0
440
 16777216
100
AcDbPoint
 10
48.17380610280023
 20
24.34525590596681
 30
0.0
  0
POINT
  5
A97
330
9AA
100
AcDbEntity
  8
Defpoints
 62
     0
440
 16777216
100
AcDbPoint
 10
47.48630610280023
 20
17.34525590596686
 30
0.0
  0
POINT
  5
A98
330
9AA
100
AcDbEntity
  8
Defpoints
 62
     0
440
 16777216
100
AcDbPoint
 10
42.88427734030083
 20
17.34525590596686
 30
0.0
  0
ENDBLK
  5
9AC
330
9AA
100
AcDbEntity
  8
0
100
AcDbBlockEnd
  0
BLOCK
  5
A9B
330
A9A
100
AcDbEntity
  8
0
100
AcDbBlockBegin
  2
*D12
 70
     1
 10
0.0
 20
0.0
 30
0.0
  3
*D12
  1

  0
LINE
  5
B8E
330
A9A
100
AcDbEntity
  8
Dimension (ANSI)
440
 16777216
100
AcDbLine
 10
56.29880610280023
 20
24.3452559059668
 30
0.0
 11
58.69968314453271
 21
24.3452559059668
 31
0.0
  0
LINE
  5
B8F
330
A9A
100
AcDbEntity
  8
Dimension (ANSI)
440
 16777216
100
AcDbLine
 10
55.42380610280023
 20
23.65775590596687
 30
0.0
 11
58.69968314453271
 21
23.65775590596687
 31
0.0
  0
LINE
  5
B90
330
A9A
100
AcDbEntity
  8
Dimension (ANSI)
440
 16777216
100
AcDbLine
 10
57.82468314453272
 20
22.96877954361926
 30
0.0
 11
57.82468314453272
 21
22.27980318127166
 31
0.0
  0
LINE
  5
B91
330
A9A
100
AcDbEntity
  8
Dimension (ANSI)
440
 16777216
100
AcDbLine
 10
57.82468314453272
 20
25.0342322683144
 30
0.0
 11
57.82468314453272
 21
25.94214544208652
 31
0.0
  0
LINE
  5
B92
330
A9A
100
AcDbEntity
  8
Dimension (ANSI)
440
 16777216
100
AcDbLine
 10
57.82468314453272
 20
25.94214544208652
 30
0.0
 11
58.51365950688031
 21
25.94214544208652
 31
0.0
  0
SOLID
  5
B93
330
A9A
100
AcDbEntity
  8
Dimension (ANSI)
440
 16777216
100
AcDbTrace
 10
57.70985375080812
 20
22.96877954361926
 30
0.0
 11
57.93951253825731
 21
22.96877954361926
 31
0.0
 12
57.82468314453272
 22
23.65775590596687
 32
0.0
 13
57.82468314453272
 23
23.65775590596687
 33
0.0
  0
SOLID
  5
B94
330
A9A
100
AcDbEntity
  8
Dimension (ANSI)
440
 16777216
100
AcDbTrace
 10
57.70985375080812
 20
25.0342322683144
 30
0.0
 11
57.93951253825731
 21
25.0342322683144
 31
0.0
 12
57.82468314453272
 22
24.3452559059668
 32
0.0
 13
57.82468314453272
 23
24.3452559059668
 33
0.0
  0
MTEXT
  5
B95
330
A9A
100
AcDbEntity
  8
Dimension (ANSI)
440
 16777216
100
AcDbMText
 10
58.73413194782519
 20
26.29214544730194
 30
0.0
 40
0.7000000104308129
 41
0.0
 71
     1
 72
     1
  1
\A1;0.69
  7
ROMANS
 73
     1
 44
1.0
  0
POINT
  5
B96
330
A9A
100
AcDbEntity
  8
Defpoints
 62
     0
440
 16777216
100
AcDbPoint
 10
55.86130610280023
 20
24.34525590596681
 30
0.0
  0
POINT
  5
B97
330
A9A
100
AcDbEntity
  8
Defpoints
 62
     0
440
 16777216
100
AcDbPoint
 10
54.98630610280024
 20
23.65775590596687
 30
0.0
  0
POINT
  5
B98
330
A9A
100
AcDbEntity
  8
Defpoints
 62
     0
440
 16777216
100
AcDbPoint
 10
57.82468314453272
 20
23.65775590596687
 30
0.0
  0
ENDBLK
  5
A9C
330
A9A
100
AcDbEntity
  8
0
100
AcDbBlockEnd
  0
BLOCK
  5
B9B
330
B9A
100
AcDbEntity
  8
0
100
AcDbBlockBegin
  2
*D13
 70
     1
 10
0.0
 20
0.0
 30
0.0
  3
*D13
  1

  0
LINE
  5
C79
330
B9A
100
AcDbEntity
  8
Dimension (ANSI)
440
 16777216
100
AcDbLine
 10
56.08005610280023
 20
24.56400590596681
 30
0.0
 11
56.08005610280023
 21
28.68934950325339
 31
0.0
  0
LINE
  5
C7A
330
B9A
100
AcDbEntity
  8
Dimension (ANSI)
440
 16777216
100
AcDbLine
 10
53.83005610280023
 20
25.25150590596687
 30
0.0
 11
53.83005610280023
 21
28.68934950325339
 31
0.0
  0
LINE
  5
C7B
330
B9A
100
AcDbEntity
  8
Dimension (ANSI)
440
 16777216
100
AcDbLine
 10
54.51903246514784
 20
27.81434950325339
 30
0.0
 11
55.39107974045262
 21
27.81434950325339
 31
0.0
  0
LINE
  5
C7C
330
B9A
100
AcDbEntity
  8
Dimension (ANSI)
440
 16777216
100
AcDbLine
 10
56.08005610280023
 20
27.81434950325339
 30
0.0
 11
56.76903246514783
 21
27.81434950325339
 31
0.0
  0
SOLID
  5
C7D
330
B9A
100
AcDbEntity
  8
Dimension (ANSI)
440
 16777216
100
AcDbTrace
 10
54.51903246514784
 20
27.92917889697799
 30
0.0
 11
54.51903246514784
 21
27.69952010952879
 31
0.0
 12
53.83005610280023
 22
27.81434950325339
 32
0.0
 13
53.83005610280023
 23
27.81434950325339
 33
0.0
  0
SOLID
  5
C7E
330
B9A
100
AcDbEntity
  8
Dimension (ANSI)
440
 16777216
100
AcDbTrace
 10
55.39107974045262
 20
27.92917889697799
 30
0.0
 11
55.39107974045262
 21
27.69952010952879
 31
0.0
 12
56.08005610280023
 22
27.81434950325339
 32
0.0
 13
56.08005610280023
 23
27.81434950325339
 33
0.0
  0
MTEXT
  5
C7F
330
B9A
100
AcDbEntity
  8
Dimension (ANSI)
440
 16777216
100
AcDbMText
 10
56.98950490609271
 20
28.1643495084688
 30
0.0
 40
0.7000000104308129
 41
0.0
 71
     1
 72
     1
  1
\A1;2.25
  7
ROMANS
 73
     1
 44
1.0
  0
POINT
  5
C80
330
B9A
100
AcDbEntity
  8
Defpoints
 62
     0
440
 16777216
100
AcDbPoint
 10
56.08005610280023
 20
24.12650590596681
 30
0.0
  0
POINT
  5
C81
330
B9A
100
AcDbEntity
  8
Defpoints
 62
     0
440
 16777216
100
AcDbPoint
 10
53.83005610280023
 20
24.81400590596687
 30
0.0
  0
POINT
  5
C82
330
B9A
100
AcDbEntity
  8
Defpoints
 62
     0
440
 16777216
100
AcDbPoint
 10
53.83005610280023
 20
27.81434950325339
 30
0.0
  0
ENDBLK
  5
B9C
330
B9A
100
AcDbEntity
  8
0
100
AcDbBlockEnd
  0
BLOCK
  5
C85
330
C84
100
AcDbEntity
  8
0
100
AcDbBlockBegin
  2
*D14
 70
     1
 10
0.0
 20
0.0
 30
0.0
  3
*D14
  1

  0
LINE
  5
D63
330
C84
100
AcDbEntity
  8
Dimension (ANSI)
440
 16777216
100
AcDbLine
 10
47.95505610280024
 20
24.56400590596681
 30
0.0
 11
47.95505610280024
 21
28.65707012288845
 31
0.0
  0
LINE
  5
D64
330
C84
100
AcDbEntity
  8
Dimension (ANSI)
440
 16777216
100
AcDbLine
 10
50.20505610280023
 20
25.25150590596687
 30
0.0
 11
50.20505610280023
 21
28.65707012288845
 31
0.0
  0
LINE
  5
D65
330
C84
100
AcDbEntity
  8
Dimension (ANSI)
440
 16777216
100
AcDbLine
 10
49.51607974045263
 20
27.78207012288845
 30
0.0
 11
48.64403246514784
 21
27.78207012288845
 31
0.0
  0
LINE
  5
D66
330
C84
100
AcDbEntity
  8
Dimension (ANSI)
440
 16777216
100
AcDbLine
 10
47.95505610280024
 20
27.78207012288845
 30
0.0
 11
47.26607974045264
 21
27.78207012288845
 31
0.0
  0
SOLID
  5
D67
330
C84
100
AcDbEntity
  8
Dimension (ANSI)
440
 16777216
100
AcDbTrace
 10
49.51607974045263
 20
27.89689951661305
 30
0.0
 11
49.51607974045263
 21
27.66724072916385
 31
0.0
 12
50.20505610280023
 22
27.78207012288845
 32
0.0
 13
50.20505610280023
 23
27.78207012288845
 33
0.0
  0
SOLID
  5
D68
330
C84
100
AcDbEntity
  8
Dimension (ANSI)
440
 16777216
100
AcDbTrace
 10
48.64403246514784
 20
27.89689951661305
 30
0.0
 11
48.64403246514784
 21
27.66724072916385
 31
0.0
 12
47.95505610280024
 22
27.78207012288845
 32
0.0
 13
47.95505610280024
 23
27.78207012288845
 33
0.0
  0
MTEXT
  5
D69
330
C84
100
AcDbEntity
  8
Dimension (ANSI)
440
 16777216
100
AcDbMText
 10
44.91227393438527
 20
28.13207012810386
 30
0.0
 40
0.7000000104308129
 41
0.0
 71
     1
 72
     1
  1
\A1;2.25
  7
ROMANS
 73
     1
 44
1.0
  0
POINT
  5
D6A
330
C84
100
AcDbEntity
  8
Defpoints
 62
     0
440
 16777216
100
AcDbPoint
 10
47.95505610280024
 20
24.12650590596681
 30
0.0
  0
POINT
  5
D6B
330
C84
100
AcDbEntity
  8
Defpoints
 62
     0
440
 16777216
100
AcDbPoint
 10
50.20505610280023
 20
24.81400590596687
 30
0.0
  0
POINT
  5
D6C
330
C84
100
AcDbEntity
  8
Defpoints
 62
     0
440
 16777216
100
AcDbPoint
 10
50.20505610280023
 20
27.78207012288845
 30
0.0
  0
ENDBLK
  5
C86
330
C84
100
AcDbEntity
  8
0
100
AcDbBlockEnd
  0
BLOCK
  5
D71
330
D70
100
AcDbEntity
  8
0
100
AcDbBlockBegin
  2
*D15
 70
     1
 10
0.0
 20
0.0
 30
0.0
  3
*D15
  1

  0
LINE
  5
E63
330
D70
100
AcDbEntity
  8
Dimension (ANSI)
440
 16777216
100
AcDbLine
 10
47.95505610280024
 20
15.9077559059668
 30
0.0
 11
47.95505610280024
 21
13.93075903658356
 31
0.0
  0
LINE
  5
E64
330
D70
100
AcDbEntity
  8
Dimension (ANSI)
440
 16777216
100
AcDbLine
 10
48.64255610280024
 20
15.75150590596687
 30
0.0
 11
48.64255610280024
 21
13.93075903658356
 31
0.0
  0
LINE
  5
E65
330
D70
100
AcDbEntity
  8
Dimension (ANSI)
440
 16777216
100
AcDbLine
 10
49.33153246514784
 20
14.80575903658356
 30
0.0
 11
50.02050882749545
 21
14.80575903658356
 31
0.0
  0
LINE
  5
E66
330
D70
100
AcDbEntity
  8
Dimension (ANSI)
440
 16777216
100
AcDbLine
 10
47.26607974045264
 20
14.80575903658356
 30
0.0
 11
46.52084378831745
 21
14.80575903658356
 31
0.0
  0
SOLID
  5
E67
330
D70
100
AcDbEntity
  8
Dimension (ANSI)
440
 16777216
100
AcDbTrace
 10
49.33153246514784
 20
14.92058843030816
 30
0.0
 11
49.33153246514784
 21
14.69092964285896
 31
0.0
 12
48.64255610280024
 22
14.80575903658356
 32
0.0
 13
48.64255610280024
 23
14.80575903658356
 33
0.0
  0
SOLID
  5
E68
330
D70
100
AcDbEntity
  8
Dimension (ANSI)
440
 16777216
100
AcDbTrace
 10
47.26607974045264
 20
14.92058843030816
 30
0.0
 11
47.26607974045264
 21
14.69092964285896
 31
0.0
 12
47.95505610280024
 22
14.80575903658356
 32
0.0
 13
47.95505610280024
 23
14.80575903658356
 33
0.0
  0
MTEXT
  5
E69
330
D70
100
AcDbEntity
  8
Dimension (ANSI)
440
 16777216
100
AcDbMText
 10
44.48370465363546
 20
14.80575903658356
 30
0.0
 40
0.7000000104308129
 41
0.0
 71
     5
 72
     1
  1
\A1;0.69{\P(2 PL.)}
  7
ROMANS
 73
     1
 44
1.0
  0
POINT
  5
E6A
330
D70
100
AcDbEntity
  8
Defpoints
 62
     0
440
 16777216
100
AcDbPoint
 10
47.95505610280024
 20
16.3452559059668
 30
0.0
  0
POINT
  5
E6B
330
D70
100
AcDbEntity
  8
Defpoints
 62
     0
440
 16777216
100
AcDbPoint
 10
48.64255610280024
 20
16.18900590596687
 30
0.0
  0
POINT
  5
E6C
330
D70
100
AcDbEntity
  8
Defpoints
 62
     0
440
 16777216
100
AcDbPoint
 10
48.64255610280024
 20
14.80575903658356
 30
0.0
  0
ENDBLK
  5
D72
330
D70
100
AcDbEntity
  8
0
100
AcDbBlockEnd
  0
BLOCK
  5
E6F
330
E6E
100
AcDbEntity
  8
0
100
AcDbBlockBegin
  2
*D16
 70
     1
 10
0.0
 20
0.0
 30
0.0
  3
*D16
  1

  0
LINE
  5
F1F
330
E6E
100
AcDbEntity
  8
Dimension (ANSI)
440
 16777216
100
AcDbLine
 10
59.19956501754086
 20
20.04424127676694
 30
0.0
 11
57.50724684827675
 21
20.04424127676694
 31
0.0
  0
LINE
  5
F20
330
E6E
100
AcDbEntity
  8
Dimension (ANSI)
440
 16777216
100
AcDbLine
 10
57.50724684827675
 20
20.04424127676694
 30
0.0
 11
55.99094294927605
 21
18.10897861491238
 31
0.0
  0
MTEXT
  5
F21
102
{ACAD_XDICTIONARY
360
15BE
102
}
330
E6E
100
AcDbEntity
  8
Dimension (ANSI)
440
 16777216
100
AcDbMText
 10
61.23670415222284
 20
20.04424127676694
 30
0.0
 40
0.7000000104308129
 41
0.0
 71
     5
 72
     1
  1
\A1;\U+22050.563{\P(6 PL.)}
  7
ROMANS
 73
     1
 44
1.0
  0
SOLID
  5
F22
330
E6E
100
AcDbEntity
  8
Dimension (ANSI)
440
 16777216
100
AcDbTrace
 10
55.90055392353393
 20
18.17979961242406
 30
0.0
 11
56.08133197501818
 21
18.0381576174007
 31
0.0
 12
55.56601696420596
 22
17.56664446045965
 32
0.0
 13
55.56601696420596
 23
17.56664446045965
 33
0.0
  0
LINE
  5
F23
330
E6E
100
AcDbEntity
  8
Dimension (ANSI)
440
 16777216
100
AcDbLine
 10
54.76255610280027
 20
17.34525590596687
 30
0.0
 11
56.02255610280028
 21
17.34525590596686
 31
0.0
  0
LINE
  5
F24
330
E6E
100
AcDbEntity
  8
Dimension (ANSI)
440
 16777216
100
AcDbLine
 10
55.39255610280028
 20
16.71525590596687
 30
0.0
 11
55.39255610280028
 21
17.97525590596686
 31
0.0
  0
POINT
  5
F25
330
E6E
100
AcDbEntity
  8
Defpoints
 62
     0
440
 16777216
100
AcDbPoint
 10
55.56601696420596
 20
17.56664446045965
 30
0.0
  0
POINT
  5
F26
330
E6E
100
AcDbEntity
  8
Defpoints
 62
     0
440
 16777216
100
AcDbPoint
 10
55.21909524139461
 20
17.12386735147409
 30
0.0
  0
ENDBLK
  5
E70
330
E6E
100
AcDbEntity
  8
0
100
AcDbBlockEnd
  0
BLOCK
  5
F2E
330
F2D
100
AcDbEntity
  8
0
100
AcDbBlockBegin
  2
*D17
 70
     1
 10
0.0
 20
0.0
 30
0.0
  3
*D17
  1

  0
LINE
  5
100C
330
F2D
100
AcDbEntity
  8
Dimension (ANSI)
440
 16777216
100
AcDbLine
 10
47.95505610281117
 20
68.17856876855791
 30
0.0
 11
47.95505610281117
 21
70.48492904111274
 31
0.0
  0
LINE
  5
100D
330
F2D
100
AcDbEntity
  8
Dimension (ANSI)
440
 16777216
100
AcDbLine
 10
50.08005610281115
 20
68.08481876855264
 30
0.0
 11
50.08005610281115
 21
70.48492904111274
 31
0.0
  0
LINE
  5
100E
330
F2D
100
AcDbEntity
  8
Dimension (ANSI)
440
 16777216
100
AcDbLine
 10
49.39107974046354
 20
69.60992904111273
 30
0.0
 11
48.64403246515878
 21
69.60992904111273
 31
0.0
  0
LINE
  5
100F
330
F2D
100
AcDbEntity
  8
Dimension (ANSI)
440
 16777216
100
AcDbLine
 10
47.95505610281117
 20
69.60992904111273
 30
0.0
 11
46.78730735300749
 21
69.60992904111273
 31
0.0
  0
SOLID
  5
1010
330
F2D
100
AcDbEntity
  8
Dimension (ANSI)
440
 16777216
100
AcDbTrace
 10
49.39107974046354
 20
69.72475843483734
 30
0.0
 11
49.39107974046354
 21
69.49509964738813
 31
0.0
 12
50.08005610281115
 22
69.60992904111273
 32
0.0
 13
50.08005610281115
 23
69.60992904111273
 33
0.0
  0
SOLID
  5
1011
330
F2D
100
AcDbEntity
  8
Dimension (ANSI)
440
 16777216
100
AcDbTrace
 10
48.64403246515878
 20
69.72475843483734
 30
0.0
 11
48.64403246515878
 21
69.49509964738813
 31
0.0
 12
47.95505610281117
 22
69.60992904111273
 32
0.0
 13
47.95505610281117
 23
69.60992904111273
 33
0.0
  0
MTEXT
  5
1012
330
F2D
100
AcDbEntity
  8
Dimension (ANSI)
440
 16777216
100
AcDbMText
 10
44.43350154694013
 20
69.95992904632814
 30
0.0
 40
0.7000000104308129
 41
0.0
 71
     1
 72
     1
  1
\A1;2.13
  7
ROMANS
 73
     1
 44
1.0
  0
POINT
  5
1013
330
F2D
100
AcDbEntity
  8
Defpoints
 62
     0
440
 16777216
100
AcDbPoint
 10
47.95505610281117
 20
67.74106876855791
 30
0.0
  0
POINT
  5
1014
330
F2D
100
AcDbEntity
  8
Defpoints
 62
     0
440
 16777216
100
AcDbPoint
 10
50.08005610281115
 20
67.64731876855264
 30
0.0
  0
POINT
  5
1015
330
F2D
100
AcDbEntity
  8
Defpoints
 62
     0
440
 16777216
100
AcDbPoint
 10
50.08005610281115
 20
69.60992904111273
 30
0.0
  0
ENDBLK
  5
F2F
330
F2D
100
AcDbEntity
  8
0
100
AcDbBlockEnd
  0
BLOCK
  5
1018
330
1017
100
AcDbEntity
  8
0
100
AcDbBlockBegin
  2
*D18
 70
     1
 10
0.0
 20
0.0
 30
0.0
  3
*D18
  1

  0
LINE
  5
10F6
330
1017
100
AcDbEntity
  8
Dimension (ANSI)
440
 16777216
100
AcDbLine
 10
47.95505610281117
 20
68.17856876855791
 30
0.0
 11
47.95505610281117
 21
71.91400947870324
 31
0.0
  0
LINE
  5
10F7
330
1017
100
AcDbEntity
  8
Dimension (ANSI)
440
 16777216
100
AcDbLine
 10
52.01755610281113
 20
65.08481876855267
 30
0.0
 11
52.01755610281113
 21
71.91400947870324
 31
0.0
  0
LINE
  5
10F8
330
1017
100
AcDbEntity
  8
Dimension (ANSI)
440
 16777216
100
AcDbLine
 10
51.32857974046353
 20
71.03900947870323
 30
0.0
 11
48.64403246515878
 21
71.03900947870323
 31
0.0
  0
LINE
  5
10F9
330
1017
100
AcDbEntity
  8
Dimension (ANSI)
440
 16777216
100
AcDbLine
 10
47.95505610281117
 20
71.03900947870323
 30
0.0
 11
46.78730735300749
 21
71.03900947870323
 31
0.0
  0
SOLID
  5
10FA
330
1017
100
AcDbEntity
  8
Dimension (ANSI)
440
 16777216
100
AcDbTrace
 10
51.32857974046353
 20
71.15383887242784
 30
0.0
 11
51.32857974046353
 21
70.92418008497863
 31
0.0
 12
52.01755610281113
 22
71.03900947870323
 32
0.0
 13
52.01755610281113
 23
71.03900947870323
 33
0.0
  0
SOLID
  5
10FB
330
1017
100
AcDbEntity
  8
Dimension (ANSI)
440
 16777216
100
AcDbTrace
 10
48.64403246515878
 20
71.15383887242784
 30
0.0
 11
48.64403246515878
 21
70.92418008497863
 31
0.0
 12
47.95505610281117
 22
71.03900947870323
 32
0.0
 13
47.95505610281117
 23
71.03900947870323
 33
0.0
  0
MTEXT
  5
10FC
330
1017
100
AcDbEntity
  8
Dimension (ANSI)
440
 16777216
100
AcDbMText
 10
44.43350154694013
 20
71.38900948391864
 30
0.0
 40
0.7000000104308129
 41
0.0
 71
     1
 72
     1
  1
\A1;4.06
  7
ROMANS
 73
     1
 44
1.0
  0
POINT
  5
10FD
330
1017
100
AcDbEntity
  8
Defpoints
 62
     0
440
 16777216
100
AcDbPoint
 10
47.95505610281117
 20
67.74106876855791
 30
0.0
  0
POINT
  5
10FE
330
1017
100
AcDbEntity
  8
Defpoints
 62
     0
440
 16777216
100
AcDbPoint
 10
52.01755610281113
 20
64.64731876855267
 30
0.0
  0
POINT
  5
10FF
330
1017
100
AcDbEntity
  8
Defpoints
 62
     0
440
 16777216
100
AcDbPoint
 10
52.01755610281113
 20
71.03900947870323
 30
0.0
  0
ENDBLK
  5
1019
330
1017
100
AcDbEntity
  8
0
100
AcDbBlockEnd
  0
BLOCK
  5
1102
330
1101
100
AcDbEntity
  8
0
100
AcDbBlockBegin
  2
*D19
 70
     1
 10
0.0
 20
0.0
 30
0.0
  3
*D19
  1

  0
LINE
  5
11E0
330
1101
100
AcDbEntity
  8
Dimension (ANSI)
440
 16777216
100
AcDbLine
 10
56.08005610281121
 20
68.17856876855789
 30
0.0
 11
56.08005610281121
 21
70.42353231284529
 31
0.0
  0
LINE
  5
11E1
330
1101
100
AcDbEntity
  8
Dimension (ANSI)
440
 16777216
100
AcDbLine
 10
53.95505610281114
 20
68.08481876855264
 30
0.0
 11
53.95505610281114
 21
70.42353231284529
 31
0.0
  0
LINE
  5
11E2
330
1101
100
AcDbEntity
  8
Dimension (ANSI)
440
 16777216
100
AcDbLine
 10
54.64403246515875
 20
69.5485323128453
 30
0.0
 11
55.3910797404636
 21
69.5485323128453
 31
0.0
  0
LINE
  5
11E3
330
1101
100
AcDbEntity
  8
Dimension (ANSI)
440
 16777216
100
AcDbLine
 10
56.08005610281121
 20
69.5485323128453
 30
0.0
 11
57.24780485261488
 21
69.5485323128453
 31
0.0
  0
SOLID
  5
11E4
330
1101
100
AcDbEntity
  8
Dimension (ANSI)
440
 16777216
100
AcDbTrace
 10
54.64403246515875
 20
69.6633617065699
 30
0.0
 11
54.64403246515875
 21
69.43370291912069
 31
0.0
 12
53.95505610281114
 22
69.5485323128453
 32
0.0
 13
53.95505610281114
 23
69.5485323128453
 33
0.0
  0
SOLID
  5
11E5
330
1101
100
AcDbEntity
  8
Dimension (ANSI)
440
 16777216
100
AcDbTrace
 10
55.3910797404636
 20
69.6633617065699
 30
0.0
 11
55.3910797404636
 21
69.43370291912069
 31
0.0
 12
56.08005610281121
 22
69.5485323128453
 32
0.0
 13
56.08005610281121
 23
69.5485323128453
 33
0.0
  0
MTEXT
  5
11E6
330
1101
100
AcDbEntity
  8
Dimension (ANSI)
440
 16777216
100
AcDbMText
 10
57.46827729355977
 20
69.8985323180607
 30
0.0
 40
0.7000000104308129
 41
0.0
 71
     1
 72
     1
  1
\A1;2.13
  7
ROMANS
 73
     1
 44
1.0
  0
POINT
  5
11E7
330
1101
100
AcDbEntity
  8
Defpoints
 62
     0
440
 16777216
100
AcDbPoint
 10
56.08005610281121
 20
67.74106876855789
 30
0.0
  0
POINT
  5
11E8
330
1101
100
AcDbEntity
  8
Defpoints
 62
     0
440
 16777216
100
AcDbPoint
 10
53.95505610281114
 20
67.64731876855264
 30
0.0
  0
POINT
  5
11E9
330
1101
100
AcDbEntity
  8
Defpoints
 62
     0
440
 16777216
100
AcDbPoint
 10
53.95505610281114
 20
69.5485323128453
 30
0.0
  0
ENDBLK
  5
1103
330
1101
100
AcDbEntity
  8
0
100
AcDbBlockEnd
  0
BLOCK
  5
11EC
330
11EB
100
AcDbEntity
  8
0
100
AcDbBlockBegin
  2
*D20
 70
     1
 10
0.0
 20
0.0
 30
0.0
  3
*D20
  1

  0
LINE
  5
12DC
330
11EB
100
AcDbEntity
  8
Dimension (ANSI)
440
 16777216
100
AcDbLine
 10
47.51755610281118
 20
67.74106876855791
 30
0.0
 11
39.52100050414939
 21
67.74106876855791
 31
0.0
  0
LINE
  5
12DD
330
11EB
100
AcDbEntity
  8
Dimension (ANSI)
440
 16777216
100
AcDbLine
 10
48.48630610281114
 20
66.49106876855262
 30
0.0
 11
39.52100050414939
 21
66.49106876855262
 31
0.0
  0
LINE
  5
12DE
330
11EB
100
AcDbEntity
  8
Dimension (ANSI)
440
 16777216
100
AcDbLine
 10
40.39600050414938
 20
65.80209240620502
 30
0.0
 11
40.39600050414938
 21
65.11311604385742
 31
0.0
  0
LINE
  5
12DF
330
11EB
100
AcDbEntity
  8
Dimension (ANSI)
440
 16777216
100
AcDbLine
 10
40.39600050414938
 20
68.43004513090551
 30
0.0
 11
40.39600050414938
 21
69.62904237122014
 31
0.0
  0
LINE
  5
12E0
330
11EB
100
AcDbEntity
  8
Dimension (ANSI)
440
 16777216
100
AcDbLine
 10
40.39600050414938
 20
69.62904237122014
 30
0.0
 11
41.08497686649698
 21
69.62904237122014
 31
0.0
  0
SOLID
  5
12E1
330
11EB
100
AcDbEntity
  8
Dimension (ANSI)
440
 16777216
100
AcDbTrace
 10
40.28117111042479
 20
65.80209240620502
 30
0.0
 11
40.51082989787398
 21
65.80209240620502
 31
0.0
 12
40.39600050414938
 22
66.49106876855262
 32
0.0
 13
40.39600050414938
 23
66.49106876855262
 33
0.0
  0
SOLID
  5
12E2
330
11EB
100
AcDbEntity
  8
Dimension (ANSI)
440
 16777216
100
AcDbTrace
 10
40.28117111042479
 20
68.43004513090551
 30
0.0
 11
40.51082989787398
 21
68.43004513090551
 31
0.0
 12
40.39600050414938
 22
67.74106876855791
 32
0.0
 13
40.39600050414938
 23
67.74106876855791
 33
0.0
  0
MTEXT
  5
12E3
330
11EB
100
AcDbEntity
  8
Dimension (ANSI)
440
 16777216
100
AcDbMText
 10
41.30544930744186
 20
69.97904237643556
 30
0.0
 40
0.7000000104308129
 41
0.0
 71
     1
 72
     1
  1
\A1;1.25
  7
ROMANS
 73
     1
 44
1.0
  0
POINT
  5
12E4
330
11EB
100
AcDbEntity
  8
Defpoints
 62
     0
440
 16777216
100
AcDbPoint
 10
47.95505610281117
 20
67.74106876855791
 30
0.0
  0
POINT
  5
12E5
330
11EB
100
AcDbEntity
  8
Defpoints
 62
     0
440
 16777216
100
AcDbPoint
 10
48.92380610281114
 20
66.49106876855262
 30
0.0
  0
POINT
  5
12E6
330
11EB
100
AcDbEntity
  8
Defpoints
 62
     0
440
 16777216
100
AcDbPoint
 10
40.39600050414938
 20
66.49106876855262
 30
0.0
  0
ENDBLK
  5
11ED
330
11EB
100
AcDbEntity
  8
0
100
AcDbBlockEnd
  0
BLOCK
  5
12E9
330
12E8
100
AcDbEntity
  8
0
100
AcDbBlockBegin
  2
*D21
 70
     1
 10
0.0
 20
0.0
 30
0.0
  3
*D21
  1

  0
LINE
  5
13C7
330
12E8
100
AcDbEntity
  8
Dimension (ANSI)
440
 16777216
100
AcDbLine
 10
47.51755610281118
 20
67.74106876855791
 30
0.0
 11
38.54709458656289
 21
67.74106876855791
 31
0.0
  0
LINE
  5
13C8
330
12E8
100
AcDbEntity
  8
Dimension (ANSI)
440
 16777216
100
AcDbLine
 10
50.42380610281114
 20
63.49106876855266
 30
0.0
 11
38.54709458656289
 21
63.49106876855267
 31
0.0
  0
LINE
  5
13C9
330
12E8
100
AcDbEntity
  8
Dimension (ANSI)
440
 16777216
100
AcDbLine
 10
39.42209458656289
 20
67.0520924062103
 30
0.0
 11
39.42209458656289
 21
66.18654121471556
 31
0.0
  0
LINE
  5
13CA
330
12E8
100
AcDbEntity
  8
Dimension (ANSI)
440
 16777216
100
AcDbLine
 10
39.42209458656289
 20
64.18004513090027
 30
0.0
 11
39.42209458656289
 21
65.04559632239497
 31
0.0
  0
SOLID
  5
13CB
330
12E8
100
AcDbEntity
  8
Dimension (ANSI)
440
 16777216
100
AcDbTrace
 10
39.30726519283829
 20
67.0520924062103
 30
0.0
 11
39.53692398028748
 21
67.0520924062103
 31
0.0
 12
39.42209458656289
 22
67.74106876855791
 32
0.0
 13
39.42209458656289
 23
67.74106876855791
 33
0.0
  0
SOLID
  5
13CC
330
12E8
100
AcDbEntity
  8
Dimension (ANSI)
440
 16777216
100
AcDbTrace
 10
39.30726519283829
 20
64.18004513090027
 30
0.0
 11
39.53692398028748
 21
64.18004513090027
 31
0.0
 12
39.42209458656289
 22
63.49106876855267
 32
0.0
 13
39.42209458656289
 23
63.49106876855267
 33
0.0
  0
MTEXT
  5
13CD
330
12E8
100
AcDbEntity
  8
Dimension (ANSI)
440
 16777216
100
AcDbMText
 10
38.35542790400164
 20
65.96606877377069
 30
0.0
 40
0.7000000104308129
 41
0.0
 71
     1
 72
     1
  1
\A1;4.25
  7
ROMANS
 73
     1
 44
1.0
  0
POINT
  5
13CE
330
12E8
100
AcDbEntity
  8
Defpoints
 62
     0
440
 16777216
100
AcDbPoint
 10
47.95505610281117
 20
67.74106876855791
 30
0.0
  0
POINT
  5
13CF
330
12E8
100
AcDbEntity
  8
Defpoints
 62
     0
440
 16777216
100
AcDbPoint
 10
50.86130610281113
 20
63.49106876855266
 30
0.0
  0
POINT
  5
13D0
330
12E8
100
AcDbEntity
  8
Defpoints
 62
     0
440
 16777216
100
AcDbPoint
 10
39.42209458656289
 20
63.49106876855267
 30
0.0
  0
ENDBLK
  5
12EA
330
12E8
100
AcDbEntity
  8
0
100
AcDbBlockEnd
  0
BLOCK
  5
13D3
330
13D2
100
AcDbEntity
  8
0
100
AcDbBlockBegin
  2
*D22
 70
     1
 10
0.0
 20
0.0
 30
0.0
  3
*D22
  1

  0
LINE
  5
1482
330
13D2
100
AcDbEntity
  8
Dimension (ANSI)
440
 16777216
100
AcDbLine
 10
45.55386231319054
 20
59.75749707687438
 30
0.0
 11
46.54879161880305
 21
59.75749707687439
 31
0.0
  0
LINE
  5
1483
330
13D2
100
AcDbEntity
  8
Dimension (ANSI)
440
 16777216
100
AcDbLine
 10
46.54879161880305
 20
59.75749707687439
 30
0.0
 11
51.21626073217409
 21
62.94401765285153
 31
0.0
  0
MTEXT
  5
1484
102
{ACAD_XDICTIONARY
360
15C0
102
}
330
13D2
100
AcDbEntity
  8
Dimension (ANSI)
440
 16777216
100
AcDbMText
 10
43.51672317850856
 20
59.7574970768744
 30
0.0
 40
0.7000000104308129
 41
0.0
 71
     5
 72
     1
  1
\A1;\U+22050.563{\P(3 PL.)}
  7
ROMANS
 73
     1
 44
1.0
  0
SOLID
  5
1485
330
13D2
100
AcDbEntity
  8
Dimension (ANSI)
440
 16777216
100
AcDbTrace
 10
51.15151548262187
 20
63.03885352329928
 30
0.0
 11
51.28100598172629
 21
62.84918178240378
 31
0.0
 12
51.78527595486055
 22
63.33248915016479
 32
0.0
 13
51.78527595486055
 23
63.33248915016479
 33
0.0
  0
LINE
  5
1486
330
13D2
100
AcDbEntity
  8
Dimension (ANSI)
440
 16777216
100
AcDbLine
 10
51.38755610281116
 20
63.49106876855268
 30
0.0
 11
52.64755610281116
 21
63.49106876855268
 31
0.0
  0
LINE
  5
1487
330
13D2
100
AcDbEntity
  8
Dimension (ANSI)
440
 16777216
100
AcDbLine
 10
52.01755610281114
 20
62.86106876855268
 30
0.0
 11
52.01755610281115
 21
64.12106876855268
 31
0.0
  0
POINT
  5
1488
330
13D2
100
AcDbEntity
  8
Defpoints
 62
     0
440
 16777216
100
AcDbPoint
 10
51.78527595486055
 20
63.33248915016479
 30
0.0
  0
POINT
  5
1489
330
13D2
100
AcDbEntity
  8
Defpoints
 62
     0
440
 16777216
100
AcDbPoint
 10
52.24983625076177
 20
63.64964838694056
 30
0.0
  0
ENDBLK
  5
13D4
330
13D2
100
AcDbEntity
  8
0
100
AcDbBlockEnd
  0
BLOCK
  5
148C
330
148B
100
AcDbEntity
  8
0
100
AcDbBlockBegin
  2
*D23
 70
     1
 10
0.0
 20
0.0
 30
0.0
  3
*D23
  1

  0
LINE
  5
156A
330
148B
100
AcDbEntity
  8
Dimension (ANSI)
440
 16777216
100
AcDbLine
 10
20.83215997303644
 20
33.49261713725623
 30
0.0
 11
20.83215997303644
 21
30.47428855404499
 31
0.0
  0
LINE
  5
156B
330
148B
100
AcDbEntity
  8
Dimension (ANSI)
440
 16777216
100
AcDbLine
 10
28.58215997303649
 20
33.27399327845444
 30
0.0
 11
28.58215997303649
 21
30.47428855404499
 31
0.0
  0
LINE
  5
156C
330
148B
100
AcDbEntity
  8
Dimension (ANSI)
440
 16777216
100
AcDbLine
 10
21.52113633538404
 20
31.34928855404499
 30
0.0
 11
23.42002084953034
 21
31.34928855404499
 31
0.0
  0
LINE
  5
156D
330
148B
100
AcDbEntity
  8
Dimension (ANSI)
440
 16777216
100
AcDbLine
 10
27.89318361068888
 20
31.34928855404499
 30
0.0
 11
25.99429909654258
 21
31.34928855404499
 31
0.0
  0
SOLID
  5
156E
330
148B
100
AcDbEntity
  8
Dimension (ANSI)
440
 16777216
100
AcDbTrace
 10
21.52113633538404
 20
31.46411794776959
 30
0.0
 11
21.52113633538404
 21
31.23445916032039
 31
0.0
 12
20.83215997303644
 22
31.34928855404499
 32
0.0
 13
20.83215997303644
 23
31.34928855404499
 33
0.0
  0
SOLID
  5
156F
330
148B
100
AcDbEntity
  8
Dimension (ANSI)
440
 16777216
100
AcDbTrace
 10
27.89318361068888
 20
31.46411794776959
 30
0.0
 11
27.89318361068888
 21
31.23445916032039
 31
0.0
 12
28.58215997303649
 22
31.34928855404499
 32
0.0
 13
28.58215997303649
 23
31.34928855404499
 33
0.0
  0
MTEXT
  5
1570
330
148B
100
AcDbEntity
  8
Dimension (ANSI)
440
 16777216
100
AcDbMText
 10
23.64049329047522
 20
31.6992885592604
 30
0.0
 40
0.7000000104308129
 41
0.0
 71
     1
 72
     1
  1
\A1;7.75
  7
ROMANS
 73
     1
 44
1.0
  0
POINT
  5
1571
330
148B
100
AcDbEntity
  8
Defpoints
 62
     0
440
 16777216
100
AcDbPoint
 10
20.83215997303644
 20
33.93011713725623
 30
0.0
  0
POINT
  5
1572
330
148B
100
AcDbEntity
  8
Defpoints
 62
     0
440
 16777216
100
AcDbPoint
 10
28.58215997303649
 20
33.71149327845444
 30
0.0
  0
POINT
  5
1573
330
148B
100
AcDbEntity
  8
Defpoints
 62
     0
440
 16777216
100
AcDbPoint
 10
28.58215997303649
 20
31.34928855404499
 30
0.0
  0
ENDBLK
  5
148D
330
148B
100
AcDbEntity
  8
0
100
AcDbBlockEnd
  0
ENDSEC
  0
SECTION
  2
ENTITIES
  0
SPLINE
  5
107
330
6C
100
AcDbEntity
  8
Visible (ANSI)
100
AcDbSpline
210
0.0
220
0.0
230
1.0
 70
     8
 71
     3
 72
    11
 73
     7
 74
     0
 42
0.0000000001
 43
0.0000000001
 40
0.0
 40
0.0
 40
0.0
 40
0.0
 40
0.9120227246349417
 40
0.9120227246349417
 40
0.9120227246349417
 40
1.570796326794896
 40
1.570796326794896
 40
1.570796326794896
 40
1.570796326794896
 10
55.86130610280615
 20
33.71136713725623
 30
0.0
 10
55.92780775981077
 20
33.71136713725623
 30
0.0
 10
55.99357243091562
 20
33.74362410432257
 30
0.0
 10
56.03428125708056
 20
33.79620986148773
 30
0.0
 10
56.0636861165517
 20
33.83419368330958
 30
0.0
 10
56.08005610280614
 20
33.88208156209874
 30
0.0
 10
56.08005610280614
 20
33.93011713725623
 30
0.0
  0
LINE
  5
108
330
6C
100
AcDbEntity
  8
Visible (ANSI)
100
AcDbLine
 10
55.86130610280615
 20
33.83636713725624
 30
0.0
 11
55.86130610280615
 21
33.71136713725624
 31
0.0
  0
LINE
  5
109
330
6C
100
AcDbEntity
  8
Visible (ANSI)
100
AcDbLine
 10
56.00056667801155
 20
33.93011713725623
 30
0.0
 11
56.08005610280614
 21
33.93011713725623
 31
0.0
  0
LINE
  5
10A
330
6C
100
AcDbEntity
  8
Visible (ANSI)
100
AcDbLine
 10
55.95505610280614
 20
33.93011713725623
 30
0.0
 11
56.00056667801155
 21
33.93011713725623
 31
0.0
  0
SPLINE
  5
10B
330
6C
100
AcDbEntity
  8
Visible (ANSI)
100
AcDbSpline
210
0.0
220
0.0
230
1.0
 70
     8
 71
     3
 72
    11
 73
     7
 74
     0
 42
0.0000000001
 43
0.0000000001
 40
0.0
 40
0.0
 40
0.0
 40
0.0
 40
1.127197082403419
 40
1.127197082403419
 40
1.127197082403419
 40
1.570796326794896
 40
1.570796326794896
 40
1.570796326794896
 40
1.570796326794896
 10
55.95505610280614
 20
33.93011713725623
 30
0.0
 10
55.95505610280614
 20
33.89489222843113
 30
0.0
 10
55.93335854456952
 20
33.86055923089275
 30
0.0
 10
55.90154295794286
 20
33.84544094232102
 30
0.0
 10
55.88902219257913
 20
33.83949126280924
 30
0.0
 10
55.87516857919338
 20
33.83636713725624
 30
0.0
 10
55.86130610280615
 20
33.83636713725624
 30
0.0
  0
LINE
  5
10C
330
6C
100
AcDbEntity
  8
Visible Narrow (ANSI)
100
AcDbLine
 10
48.17380610280611
 20
33.93011713725623
 30
0.0
 11
48.20505610280608
 21
33.93011713725623
 31
0.0
  0
LINE
  5
10D
330
6C
100
AcDbEntity
  8
Visible Narrow (ANSI)
100
AcDbLine
 10
55.83005610280609
 20
33.93011713725623
 30
0.0
 11
55.86130610280612
 21
33.93011713725623
 31
0.0
  0
SPLINE
  5
10E
330
6C
100
AcDbEntity
  8
Visible (ANSI)
100
AcDbSpline
210
0.0
220
0.0
230
1.0
 70
     8
 71
     3
 72
    11
 73
     7
 74
     0
 42
0.0000000001
 43
0.0000000001
 40
0.0
 40
0.0
 40
0.0
 40
0.0
 40
0.9120227246349479
 40
0.9120227246349479
 40
0.9120227246349479
 40
1.570796326794896
 40
1.570796326794896
 40
1.570796326794896
 40
1.570796326794896
 10
47.95505610280613
 20
33.93011713725623
 30
0.0
 10
47.95505610280613
 20
33.8636154802516
 30
0.0
 10
47.98731306987245
 20
33.79785080914675
 30
0.0
 10
48.03989882703763
 20
33.75714198298182
 30
0.0
 10
48.07788264885947
 20
33.72773712351067
 30
0.0
 10
48.12577052764862
 20
33.71136713725623
 30
0.0
 10
48.17380610280611
 20
33.71136713725623
 30
0.0
  0
LINE
  5
10F
330
6C
100
AcDbEntity
  8
Visible (ANSI)
100
AcDbLine
 10
48.17380610280611
 20
33.83636713725624
 30
0.0
 11
48.17380610280611
 21
33.71136713725623
 31
0.0
  0
SPLINE
  5
110
330
6C
100
AcDbEntity
  8
Visible (ANSI)
100
AcDbSpline
210
0.0
220
0.0
230
1.0
 70
     8
 71
     3
 72
    11
 73
     7
 74
     0
 42
0.0000000001
 43
0.0000000001
 40
0.0
 40
0.0
 40
0.0
 40
0.0
 40
1.127197082403383
 40
1.127197082403383
 40
1.127197082403383
 40
1.570796326794896
 40
1.570796326794896
 40
1.570796326794896
 40
1.570796326794896
 10
48.08005610280613
 20
33.93011713725623
 30
0.0
 10
48.08005610280613
 20
33.89489222843113
 30
0.0
 10
48.10175366104274
 20
33.86055923089275
 30
0.0
 10
48.1335692476694
 20
33.84544094232102
 30
0.0
 10
48.14609001303313
 20
33.83949126280923
 30
0.0
 10
48.15994362641888
 20
33.83636713725624
 30
0.0
 10
48.17380610280611
 20
33.83636713725624
 30
0.0
  0
LINE
  5
111
330
6C
100
AcDbEntity
  8
Visible (ANSI)
100
AcDbLine
 10
48.03454552760072
 20
33.93011713725623
 30
0.0
 11
48.08005610280613
 21
33.93011713725623
 31
0.0
  0
LINE
  5
112
330
6C
100
AcDbEntity
  8
Visible (ANSI)
100
AcDbLine
 10
47.95505610280613
 20
33.93011713725623
 30
0.0
 11
48.03454552760072
 21
33.93011713725623
 31
0.0
  0
LINE
  5
113
330
6C
100
AcDbEntity
  8
Visible (ANSI)
100
AcDbLine
 10
55.86130610280615
 20
33.83636713725624
 30
0.0
 11
55.83005610280609
 21
33.83636713725624
 31
0.0
  0
LINE
  5
114
330
6C
100
AcDbEntity
  8
Visible (ANSI)
100
AcDbLine
 10
54.83005610280613
 20
33.71136713725624
 30
0.0
 11
55.86130610280615
 21
33.71136713725624
 31
0.0
  0
LINE
  5
115
330
6C
100
AcDbEntity
  8
Visible (ANSI)
100
AcDbLine
 10
54.83005610280613
 20
33.71149327845446
 30
0.0
 11
54.83005610280613
 21
33.71136713725624
 31
0.0
  0
LINE
  5
116
330
6C
100
AcDbEntity
  8
Visible (ANSI)
100
AcDbLine
 10
49.2271531897182
 20
33.71136713725623
 30
0.0
 11
54.80795901589403
 21
33.71136713725623
 31
0.0
  0
LINE
  5
117
330
6C
100
AcDbEntity
  8
Visible (ANSI)
100
AcDbLine
 10
48.17380610280611
 20
33.83636713725624
 30
0.0
 11
48.20505610280608
 21
33.83636713725624
 31
0.0
  0
LINE
  5
118
330
6C
100
AcDbEntity
  8
Visible (ANSI)
100
AcDbLine
 10
48.17380610280611
 20
33.71136713725623
 30
0.0
 11
49.20505610280613
 21
33.71136713725623
 31
0.0
  0
LINE
  5
119
330
6C
100
AcDbEntity
  8
Visible (ANSI)
100
AcDbLine
 10
49.20505610280613
 20
33.71149327845445
 30
0.0
 11
49.20505610280613
 21
33.71136713725623
 31
0.0
  0
LINE
  5
11A
330
6C
100
AcDbEntity
  8
Visible (ANSI)
100
AcDbLine
 10
48.08005610280613
 20
33.93011713725623
 30
0.0
 11
48.17380610280611
 21
33.93011713725623
 31
0.0
  0
LINE
  5
11B
330
6C
100
AcDbEntity
  8
Visible (ANSI)
100
AcDbLine
 10
55.86130610280612
 20
33.93011713725623
 30
0.0
 11
55.95505610280611
 21
33.93011713725623
 31
0.0
  0
SPLINE
  5
11C
330
6C
100
AcDbEntity
  8
Visible (ANSI)
100
AcDbSpline
210
0.0
220
0.0
230
1.0
 70
     8
 71
     3
 72
     8
 73
     4
 74
     0
 42
0.0000000001
 43
0.0000000001
 40
0.0
 40
0.0
 40
0.0
 40
0.0
 40
0.4429110440736466
 40
0.4429110440736466
 40
0.4429110440736466
 40
0.4429110440736466
 10
48.17380610280611
 20
33.93011713725623
 30
0.0
 10
48.1758829780123
 20
33.89782154029253
 30
0.0
 10
48.17795985321847
 20
33.86569975577785
 30
0.0
 10
48.18003672842465
 20
33.83653710786628
 30
0.0
  0
SPLINE
  5
11D
330
6C
100
AcDbEntity
  8
Visible (ANSI)
100
AcDbSpline
210
0.0
220
0.0
230
1.0
 70
     8
 71
     3
 72
     8
 73
     4
 74
     0
 42
0.0000000001
 43
0.0000000001
 40
1.127885282721269
 40
1.127885282721269
 40
1.127885282721269
 40
1.127885282721269
 40
1.570796326794896
 40
1.570796326794896
 40
1.570796326794896
 40
1.570796326794896
 10
55.85507547718759
 20
33.8363956609447
 30
0.0
 10
55.85715235239377
 20
33.86559270550119
 30
0.0
 10
55.85922922759994
 20
33.89782154029253
 30
0.0
 10
55.86130610280612
 20
33.93011713725623
 30
0.0
  0
LINE
  5
11E
330
6C
100
AcDbEntity
  8
Visible (ANSI)
100
AcDbLine
 10
54.80795901589403
 20
33.71136713725623
 30
0.0
 11
54.83005610280611
 21
33.71136713725623
 31
0.0
  0
LINE
  5
11F
330
6C
100
AcDbEntity
  8
Visible (ANSI)
100
AcDbLine
 10
54.80795901589403
 20
33.71149327845446
 30
0.0
 11
54.80795901589403
 21
33.71136713725623
 31
0.0
  0
SPLINE
  5
120
330
6C
100
AcDbEntity
  8
Visible (ANSI)
100
AcDbSpline
210
0.0
220
0.0
230
1.0
 70
     8
 71
     3
 72
    11
 73
     7
 74
     0
 42
0.0000000001
 43
0.0000000001
 40
0.0
 40
0.0
 40
0.0
 40
0.0
 40
1.12719708240338
 40
1.12719708240338
 40
1.12719708240338
 40
1.570796326794896
 40
1.570796326794896
 40
1.570796326794896
 40
1.570796326794896
 10
55.86130610280612
 20
33.93011713725623
 30
0.0
 10
55.85602050944772
 20
33.89489222843113
 30
0.0
 10
55.85073491608932
 20
33.86055923089275
 30
0.0
 10
55.84544932273091
 20
33.84544094232102
 30
0.0
 10
55.84336922045196
 20
33.83949126280924
 30
0.0
 10
55.84128911817299
 20
33.83636713725624
 30
0.0
 10
55.83920901589403
 20
33.83636713725624
 30
0.0
  0
SPLINE
  5
121
330
6C
100
AcDbEntity
  8
Visible (ANSI)
100
AcDbSpline
210
0.0
220
0.0
230
1.0
 70
     8
 71
     3
 72
    11
 73
     7
 74
     0
 42
0.0000000001
 43
0.0000000001
 40
0.0
 40
0.0
 40
0.0
 40
0.0
 40
1.127197082403383
 40
1.127197082403383
 40
1.127197082403383
 40
1.570796326794896
 40
1.570796326794896
 40
1.570796326794896
 40
1.570796326794896
 10
48.17380610280611
 20
33.93011713725623
 30
0.0
 10
48.17909169616452
 20
33.89489222843113
 30
0.0
 10
48.18437728952292
 20
33.86055923089275
 30
0.0
 10
48.18966288288132
 20
33.84544094232102
 30
0.0
 10
48.19174298516028
 20
33.83949126280924
 30
0.0
 10
48.19382308743924
 20
33.83636713725624
 30
0.0
 10
48.19590318971821
 20
33.83636713725624
 30
0.0
  0
LINE
  5
122
330
6C
100
AcDbEntity
  8
Visible (ANSI)
100
AcDbLine
 10
49.20505610280613
 20
33.71136713725623
 30
0.0
 11
49.2271531897182
 21
33.71136713725623
 31
0.0
  0
LINE
  5
123
330
6C
100
AcDbEntity
  8
Visible (ANSI)
100
AcDbLine
 10
49.2271531897182
 20
33.71149327845445
 30
0.0
 11
49.2271531897182
 21
33.71136713725623
 31
0.0
  0
LINE
  5
124
330
6C
100
AcDbEntity
  8
Visible (ANSI)
100
AcDbLine
 10
47.95505610280613
 20
33.93011713725623
 30
0.0
 11
47.95505610280613
 21
51.49261713725623
 31
0.0
  0
LINE
  5
125
330
6C
100
AcDbEntity
  8
Visible (ANSI)
100
AcDbLine
 10
55.95505610280614
 20
33.93011713725623
 30
0.0
 11
55.95505610280615
 21
51.49261713725623
 31
0.0
  0
LINE
  5
126
330
6C
100
AcDbEntity
  8
Visible (ANSI)
100
AcDbLine
 10
56.08005610280615
 20
51.49261713725623
 30
0.0
 11
56.08005610280614
 21
33.93011713725623
 31
0.0
  0
LINE
  5
127
330
6C
100
AcDbEntity
  8
Visible (ANSI)
100
AcDbLine
 10
55.95505610280615
 20
51.49261713725623
 30
0.0
 11
56.08005610280615
 21
51.49261713725623
 31
0.0
  0
LINE
  5
128
330
6C
100
AcDbEntity
  8
Visible (ANSI)
100
AcDbLine
 10
48.08005610280613
 20
51.49261713725623
 30
0.0
 11
48.08005610280613
 21
33.93011713725623
 31
0.0
  0
LINE
  5
129
330
6C
100
AcDbEntity
  8
Visible (ANSI)
100
AcDbLine
 10
47.95505610280613
 20
51.49261713725623
 30
0.0
 11
48.08005610280613
 21
51.49261713725623
 31
0.0
  0
LINE
  5
12A
330
6C
100
AcDbEntity
  8
Visible Narrow (ANSI)
100
AcDbLine
 10
48.17380610280611
 20
51.49261713725623
 30
0.0
 11
48.17380610280611
 21
33.93011713725623
 31
0.0
  0
LINE
  5
12B
330
6C
100
AcDbEntity
  8
Visible Narrow (ANSI)
100
AcDbLine
 10
55.86130610280612
 20
33.93011713725623
 30
0.0
 11
55.86130610280612
 21
51.49261713725623
 31
0.0
  0
LINE
  5
12C
330
6C
100
AcDbEntity
  8
Visible (ANSI)
100
AcDbLine
 10
48.17380610280611
 20
51.49261713725623
 30
0.0
 11
48.08005610280613
 21
51.49261713725623
 31
0.0
  0
LINE
  5
12D
330
6C
100
AcDbEntity
  8
Visible (ANSI)
100
AcDbLine
 10
48.70505610280613
 20
51.58636713725619
 30
0.0
 11
48.17380610280611
 21
51.58636713725621
 31
0.0
  0
LINE
  5
12E
330
6C
100
AcDbEntity
  8
Visible (ANSI)
100
AcDbLine
 10
48.70505610280613
 20
51.71136713725619
 30
0.0
 11
48.17380610280611
 21
51.71136713725621
 31
0.0
  0
LINE
  5
12F
330
6C
100
AcDbEntity
  8
Visible (ANSI)
100
AcDbLine
 10
55.86130610280616
 20
51.71136713725623
 30
0.0
 11
55.33005610280615
 21
51.71136713725623
 31
0.0
  0
LINE
  5
130
330
6C
100
AcDbEntity
  8
Visible (ANSI)
100
AcDbLine
 10
55.33005610280615
 20
51.58636713725626
 30
0.0
 11
55.86130610280616
 21
51.58636713725623
 31
0.0
  0
LINE
  5
131
330
6C
100
AcDbEntity
  8
Visible (ANSI)
100
AcDbLine
 10
54.80795901589403
 20
51.58636713725623
 30
0.0
 11
49.2271531897182
 21
51.58636713725623
 31
0.0
  0
LINE
  5
132
330
6C
100
AcDbEntity
  8
Visible (ANSI)
100
AcDbLine
 10
54.80795901589403
 20
51.71136713725623
 30
0.0
 11
49.2271531897182
 21
51.71136713725623
 31
0.0
  0
LINE
  5
133
330
6C
100
AcDbEntity
  8
Visible (ANSI)
100
AcDbLine
 10
55.95505610280611
 20
51.49261713725623
 30
0.0
 11
55.86130610280612
 21
51.49261713725623
 31
0.0
  0
LINE
  5
134
330
6C
100
AcDbEntity
  8
Visible (ANSI)
100
AcDbLine
 10
49.20505610280613
 20
51.71136713725622
 30
0.0
 11
48.70505610280613
 21
51.71136713725619
 31
0.0
  0
LINE
  5
135
330
6C
100
AcDbEntity
  8
Visible (ANSI)
100
AcDbLine
 10
48.70505610280613
 20
51.71136713725619
 30
0.0
 11
48.70505610280613
 21
51.58636713725619
 31
0.0
  0
LINE
  5
136
330
6C
100
AcDbEntity
  8
Visible (ANSI)
100
AcDbLine
 10
48.70505610280613
 20
51.58636713725619
 30
0.0
 11
49.20505610280613
 21
51.58636713725623
 31
0.0
  0
LINE
  5
137
330
6C
100
AcDbEntity
  8
Visible (ANSI)
100
AcDbLine
 10
49.20505610280613
 20
51.58636713725623
 30
0.0
 11
49.20505610280613
 21
51.71136713725622
 31
0.0
  0
LINE
  5
138
330
6C
100
AcDbEntity
  8
Visible (ANSI)
100
AcDbLine
 10
55.33005610280615
 20
51.71136713725623
 30
0.0
 11
54.83005610280615
 21
51.71136713725624
 31
0.0
  0
LINE
  5
139
330
6C
100
AcDbEntity
  8
Visible (ANSI)
100
AcDbLine
 10
54.83005610280615
 20
51.71136713725624
 30
0.0
 11
54.83005610280615
 21
51.58636713725623
 31
0.0
  0
LINE
  5
13A
330
6C
100
AcDbEntity
  8
Visible (ANSI)
100
AcDbLine
 10
54.83005610280615
 20
51.58636713725623
 30
0.0
 11
55.33005610280615
 21
51.58636713725626
 31
0.0
  0
LINE
  5
13B
330
6C
100
AcDbEntity
  8
Visible (ANSI)
100
AcDbLine
 10
55.33005610280615
 20
51.58636713725626
 30
0.0
 11
55.33005610280615
 21
51.71136713725623
 31
0.0
  0
ARC
  5
13C
330
6C
100
AcDbEntity
  8
Visible (ANSI)
100
AcDbCircle
 10
48.17380610280611
 20
51.49261713725622
 30
0.0
 40
0.0937499999999875
100
AcDbArc
 50
90.0
 51
180.0
  0
ARC
  5
13D
330
6C
100
AcDbEntity
  8
Visible (ANSI)
100
AcDbCircle
 10
48.17380610280611
 20
51.49261713725622
 30
0.0
 40
0.2187499999999912
100
AcDbArc
 50
90.0
 51
180.0
  0
ARC
  5
13E
330
6C
100
AcDbEntity
  8
Visible (ANSI)
100
AcDbCircle
 10
55.86130610280615
 20
51.49261713725622
 30
0.0
 40
0.218750000000008
100
AcDbArc
 50
0.0
 51
90.0
  0
ARC
  5
13F
330
6C
100
AcDbEntity
  8
Visible (ANSI)
100
AcDbCircle
 10
55.86130610280615
 20
51.49261713725622
 30
0.0
 40
0.0937500000000126
100
AcDbArc
 50
0.0
 51
90.0
  0
LINE
  5
140
330
6C
100
AcDbEntity
  8
Visible Narrow (ANSI)
100
AcDbLine
 10
55.86130610280612
 20
51.49261713725623
 30
0.0
 11
48.17380610280611
 21
51.49261713725623
 31
0.0
  0
SPLINE
  5
141
330
6C
100
AcDbEntity
  8
Visible (ANSI)
100
AcDbSpline
210
0.0
220
0.0
230
1.0
 70
     8
 71
     3
 72
     8
 73
     4
 74
     0
 42
0.0000000001
 43
0.0000000001
 40
0.0
 40
0.0
 40
0.0
 40
0.0
 40
0.4429110440737007
 40
0.4429110440737007
 40
0.4429110440737007
 40
0.4429110440737007
 10
55.86130610280612
 20
51.49261713725623
 30
0.0
 10
55.85922922759994
 20
51.52491273421993
 30
0.0
 10
55.85715235239376
 20
51.55703451873462
 30
0.0
 10
55.85507547718759
 20
51.58619716664619
 30
0.0
  0
SPLINE
  5
142
330
6C
100
AcDbEntity
  8
Visible (ANSI)
100
AcDbSpline
210
0.0
220
0.0
230
1.0
 70
     8
 71
     3
 72
     8
 73
     4
 74
     0
 42
0.0000000001
 43
0.0000000001
 40
1.127885282721323
 40
1.127885282721323
 40
1.127885282721323
 40
1.127885282721323
 40
1.570796326794894
 40
1.570796326794894
 40
1.570796326794894
 40
1.570796326794894
 10
48.18003672842465
 20
51.58633861356776
 30
0.0
 10
48.17795985321847
 20
51.55714156901126
 30
0.0
 10
48.17588297801229
 20
51.52491273421993
 30
0.0
 10
48.17380610280611
 20
51.49261713725623
 30
0.0
  0
LINE
  5
143
330
6C
100
AcDbEntity
  8
Visible (ANSI)
100
AcDbLine
 10
54.83005610280611
 20
51.58636713725623
 30
0.0
 11
54.80795901589403
 21
51.58636713725623
 31
0.0
  0
LINE
  5
144
330
6C
100
AcDbEntity
  8
Visible (ANSI)
100
AcDbLine
 10
49.20505610280613
 20
51.58636713725623
 30
0.0
 11
49.2271531897182
 21
51.58636713725623
 31
0.0
  0
LINE
  5
145
330
6C
100
AcDbEntity
  8
Visible (ANSI)
100
AcDbLine
 10
49.2271531897182
 20
51.71136713725623
 30
0.0
 11
49.20505610280613
 21
51.71136713725623
 31
0.0
  0
LINE
  5
146
330
6C
100
AcDbEntity
  8
Visible (ANSI)
100
AcDbLine
 10
49.2271531897182
 20
51.58636713725623
 30
0.0
 11
49.2271531897182
 21
51.71136713725623
 31
0.0
  0
SPLINE
  5
147
330
6C
100
AcDbEntity
  8
Visible (ANSI)
100
AcDbSpline
210
0.0
220
0.0
230
1.0
 70
     8
 71
     3
 72
    11
 73
     7
 74
     0
 42
0.0000000001
 43
0.0000000001
 40
0.0
 40
0.0
 40
0.0
 40
0.0
 40
1.12719708240322
 40
1.12719708240322
 40
1.12719708240322
 40
1.570796326794894
 40
1.570796326794894
 40
1.570796326794894
 40
1.570796326794894
 10
48.17380610280611
 20
51.49261713725623
 30
0.0
 10
48.17909169616452
 20
51.52784204608132
 30
0.0
 10
48.18437728952291
 20
51.56217504361968
 30
0.0
 10
48.1896628828813
 20
51.57729333219143
 30
0.0
 10
48.19174298516028
 20
51.58324301170321
 30
0.0
 10
48.19382308743923
 20
51.58636713725623
 30
0.0
 10
48.19590318971819
 20
51.58636713725623
 30
0.0
  0
SPLINE
  5
148
330
6C
100
AcDbEntity
  8
Visible (ANSI)
100
AcDbSpline
210
0.0
220
0.0
230
1.0
 70
     8
 71
     3
 72
    11
 73
     7
 74
     0
 42
0.0000000001
 43
0.0000000001
 40
0.0
 40
0.0
 40
0.0
 40
0.0
 40
1.12719708240322
 40
1.12719708240322
 40
1.12719708240322
 40
1.570796326794894
 40
1.570796326794894
 40
1.570796326794894
 40
1.570796326794894
 10
55.86130610280612
 20
51.49261713725623
 30
0.0
 10
55.85602050944772
 20
51.52784204608132
 30
0.0
 10
55.85073491608931
 20
51.56217504361968
 30
0.0
 10
55.84544932273091
 20
51.57729333219143
 30
0.0
 10
55.84336922045196
 20
51.58324301170321
 30
0.0
 10
55.84128911817299
 20
51.58636713725623
 30
0.0
 10
55.83920901589403
 20
51.58636713725623
 30
0.0
  0
LINE
  5
149
330
6C
100
AcDbEntity
  8
Visible (ANSI)
100
AcDbLine
 10
54.83005610280613
 20
51.71136713725623
 30
0.0
 11
54.80795901589403
 21
51.71136713725623
 31
0.0
  0
LINE
  5
14A
330
6C
100
AcDbEntity
  8
Visible (ANSI)
100
AcDbLine
 10
54.80795901589403
 20
51.58636713725623
 30
0.0
 11
54.80795901589403
 21
51.71136713725623
 31
0.0
  0
LINE
  5
14B
330
6C
100
AcDbEntity
  8
Visible (ANSI)
100
AcDbLine
 10
55.70505610280608
 20
33.83649327845445
 30
0.0
 11
55.83005610280609
 21
33.83649327845445
 31
0.0
  0
LINE
  5
14C
330
6C
100
AcDbEntity
  8
Visible Narrow (ANSI)
100
AcDbLine
 10
55.70505610280608
 20
33.83649327845445
 30
0.0
 11
55.70505610280608
 21
33.71149327845445
 31
0.0
  0
LINE
  5
14D
330
6C
100
AcDbEntity
  8
Visible (ANSI)
100
AcDbLine
 10
55.83005610280609
 20
33.71149327845445
 30
0.0
 11
55.70505610280608
 21
33.71149327845445
 31
0.0
  0
LINE
  5
14E
330
6C
100
AcDbEntity
  8
Visible (ANSI)
100
AcDbLine
 10
55.83005610280609
 20
33.71149327845445
 30
0.0
 11
55.83005610280609
 21
33.83649327845445
 31
0.0
  0
LINE
  5
14F
330
6C
100
AcDbEntity
  8
Visible (ANSI)
100
AcDbLine
 10
48.33005610280609
 20
33.71149327845445
 30
0.0
 11
48.20505610280608
 21
33.71149327845445
 31
0.0
  0
LINE
  5
150
330
6C
100
AcDbEntity
  8
Visible (ANSI)
100
AcDbLine
 10
48.20505610280608
 20
33.83649327845445
 30
0.0
 11
48.33005610280609
 21
33.83649327845445
 31
0.0
  0
LINE
  5
151
330
6C
100
AcDbEntity
  8
Visible (ANSI)
100
AcDbLine
 10
48.20505610280608
 20
33.83649327845445
 30
0.0
 11
48.20505610280608
 21
33.71149327845445
 31
0.0
  0
LINE
  5
152
330
6C
100
AcDbEntity
  8
Visible Narrow (ANSI)
100
AcDbLine
 10
48.33005610280609
 20
33.71149327845445
 30
0.0
 11
48.33005610280609
 21
33.83649327845445
 31
0.0
  0
LINE
  5
153
330
6C
100
AcDbEntity
  8
Visible (ANSI)
100
AcDbLine
 10
55.83005610280609
 20
33.96136713725624
 30
0.0
 11
55.83005610280609
 21
33.8972967456408
 31
0.0
  0
LINE
  5
154
330
6C
100
AcDbEntity
  8
Visible (ANSI)
100
AcDbLine
 10
48.20505610280608
 20
33.96136713725624
 30
0.0
 11
48.20505610280608
 21
33.8972967456408
 31
0.0
  0
LINE
  5
155
330
6C
100
AcDbEntity
  8
Visible (ANSI)
100
AcDbLine
 10
55.83005610280609
 20
33.96136713725624
 30
0.0
 11
48.20505610280608
 21
33.96136713725624
 31
0.0
  0
LINE
  5
156
330
6C
100
AcDbEntity
  8
Visible Narrow (ANSI)
100
AcDbLine
 10
55.83005610280609
 20
33.8972967456408
 30
0.0
 11
48.20505610280608
 21
33.8972967456408
 31
0.0
  0
LINE
  5
157
330
6C
100
AcDbEntity
  8
Visible (ANSI)
100
AcDbLine
 10
55.83005610280609
 20
33.86395201771821
 30
0.0
 11
55.83005610280609
 21
33.8972967456408
 31
0.0
  0
LINE
  5
158
330
6C
100
AcDbEntity
  8
Visible (ANSI)
100
AcDbLine
 10
48.20505610280608
 20
33.8972967456408
 30
0.0
 11
48.20505610280608
 21
33.86395201771821
 31
0.0
  0
LINE
  5
159
330
6C
100
AcDbEntity
  8
Visible (ANSI)
100
AcDbLine
 10
55.83005610280609
 20
33.83649327845445
 30
0.0
 11
55.83005610280609
 21
33.86395201771821
 31
0.0
  0
LINE
  5
15A
330
6C
100
AcDbEntity
  8
Visible (ANSI)
100
AcDbLine
 10
48.20505610280608
 20
33.83649327845445
 30
0.0
 11
48.20505610280608
 21
33.86395201771821
 31
0.0
  0
LINE
  5
15B
330
6C
100
AcDbEntity
  8
Visible Narrow (ANSI)
100
AcDbLine
 10
55.83005610280609
 20
33.86395201771821
 30
0.0
 11
48.20505610280608
 21
33.86395201771821
 31
0.0
  0
LINE
  5
15C
330
6C
100
AcDbEntity
  8
Visible (ANSI)
100
AcDbLine
 10
48.33005610280609
 20
33.71149327845445
 30
0.0
 11
55.70505610280608
 21
33.71149327845445
 31
0.0
  0
LINE
  5
15D
330
6C
100
AcDbEntity
  8
Visible (ANSI)
100
AcDbLine
 10
55.70505610280608
 20
33.83649327845445
 30
0.0
 11
48.33005610280609
 21
33.83649327845445
 31
0.0
  0
MTEXT
  5
15F
330
6C
100
AcDbEntity
  8
Symbol (ANSI)
100
AcDbMText
 10
48.75300671859367
 20
30.3828687193311
 30
0.0
 40
0.8400000103815333
 41
0.0
 71
     7
 72
     1
  1
FRONT VIEW
  7
Text Style168
 73
     1
 44
1.0
  0
LINE
  5
161
330
6C
100
AcDbEntity
  8
Symbol (ANSI)
370
    30
100
AcDbLine
 10
48.66900650251496
 20
30.21156725770687
 30
0.0
 11
55.4223615325147
 21
30.21156725770687
 31
0.0
  0
SPLINE
  5
162
330
6C
100
AcDbEntity
  8
Visible (ANSI)
100
AcDbSpline
210
0.0
220
0.0
230
1.0
 70
     8
 71
     3
 72
    11
 73
     7
 74
     0
 42
0.0000000001
 43
0.0000000001
 40
0.0
 40
0.0
 40
0.0
 40
0.0
 40
0.9120227246349516
 40
0.9120227246349516
 40
0.9120227246349516
 40
1.570796326794896
 40
1.570796326794896
 40
1.570796326794896
 40
1.570796326794896
 10
20.83215997303645
 20
33.93011713725623
 30
0.0
 10
20.83215997303645
 20
33.86361548025159
 30
0.0
 10
20.86441694010278
 20
33.79785080914674
 30
0.0
 10
20.91700269726795
 20
33.7571419829818
 30
0.0
 10
20.95498651908979
 20
33.72773712351066
 30
0.0
 10
21.00287439787895
 20
33.71136713725622
 30
0.0
 10
21.05090997303645
 20
33.71136713725622
 30
0.0
  0
LINE
  5
163
330
6C
100
AcDbEntity
  8
Visible (ANSI)
100
AcDbLine
 10
21.05090997303645
 20
33.83636713725622
 30
0.0
 11
21.05714059865498
 21
33.83636713725622
 31
0.0
  0
LINE
  5
164
330
6C
100
AcDbEntity
  8
Visible (ANSI)
100
AcDbLine
 10
21.05090997303645
 20
33.83636713725622
 30
0.0
 11
21.05090997303645
 21
33.71136713725622
 31
0.0
  0
SPLINE
  5
165
330
6C
100
AcDbEntity
  8
Visible (ANSI)
100
AcDbSpline
210
0.0
220
0.0
230
1.0
 70
     8
 71
     3
 72
    11
 73
     7
 74
     0
 42
0.0000000001
 43
0.0000000001
 40
0.0
 40
0.0
 40
0.0
 40
0.0
 40
1.127197082403383
 40
1.127197082403383
 40
1.127197082403383
 40
1.570796326794896
 40
1.570796326794896
 40
1.570796326794896
 40
1.570796326794896
 10
20.95715997303644
 20
33.93011713725623
 30
0.0
 10
20.95715997303644
 20
33.89489222843111
 30
0.0
 10
20.97885753127306
 20
33.86055923089274
 30
0.0
 10
21.01067311789972
 20
33.84544094232101
 30
0.0
 10
21.02319388326346
 20
33.83949126280923
 30
0.0
 10
21.03704749664921
 20
33.83636713725622
 30
0.0
 10
21.05090997303645
 20
33.83636713725622
 30
0.0
  0
LINE
  5
166
330
6C
100
AcDbEntity
  8
Visible (ANSI)
100
AcDbLine
 10
21.05090997303645
 20
33.71136713725622
 30
0.0
 11
21.07300705994854
 21
33.71136713725622
 31
0.0
  0
SPLINE
  5
167
330
6C
100
AcDbEntity
  8
Visible (ANSI)
100
AcDbSpline
210
0.0
220
0.0
230
1.0
 70
     8
 71
     3
 72
    11
 73
     7
 74
     0
 42
0.0000000001
 43
0.0000000001
 40
0.0
 40
0.0
 40
0.0
 40
0.0
 40
0.912022724634949
 40
0.912022724634949
 40
0.912022724634949
 40
1.570796326794896
 40
1.570796326794896
 40
1.570796326794896
 40
1.570796326794896
 10
21.07300705994852
 20
33.71136713725622
 30
0.0
 10
21.06873045088759
 20
33.71136713725622
 30
0.0
 10
21.06445384182666
 20
33.74362410432256
 30
0.0
 10
21.06017723276574
 20
33.79620986148772
 30
0.0
 10
21.05708814618928
 20
33.83419368330957
 30
0.0
 10
21.05399905961283
 20
33.88208156209873
 30
0.0
 10
21.05090997303638
 20
33.93011713725623
 30
0.0
  0
LINE
  5
168
330
6C
100
AcDbEntity
  8
Visible (ANSI)
100
AcDbLine
 10
26.83215997303649
 20
33.71136713725622
 30
0.0
 11
21.07300705994852
 21
33.71136713725622
 31
0.0
  0
SPLINE
  5
169
330
6C
100
AcDbEntity
  8
Visible (ANSI)
100
AcDbSpline
210
0.0
220
0.0
230
1.0
 70
     8
 71
     3
 72
    11
 73
     7
 74
     0
 42
0.0000000001
 43
0.0000000001
 40
0.0
 40
0.0
 40
0.0
 40
0.0
 40
0.9120227246349479
 40
0.9120227246349479
 40
0.9120227246349479
 40
1.570796326794896
 40
1.570796326794896
 40
1.570796326794896
 40
1.570796326794896
 10
26.85676454245646
 20
33.93011713725622
 30
0.0
 10
26.85200264216887
 20
33.86361548025159
 30
0.0
 10
26.84724074188129
 20
33.79785080914674
 30
0.0
 10
26.84247884159372
 20
33.7571419829818
 30
0.0
 10
26.8390392187413
 20
33.72773712351066
 30
0.0
 10
26.83559959588889
 20
33.71136713725622
 30
0.0
 10
26.83215997303649
 20
33.71136713725622
 30
0.0
  0
LINE
  5
16A
330
6C
100
AcDbEntity
  8
Visible Narrow (ANSI)
100
AcDbLine
 10
21.05090997303638
 20
33.93011713725623
 30
0.0
 11
26.85676454245646
 21
33.93011713725622
 31
0.0
  0
LINE
  5
16B
330
6C
100
AcDbEntity
  8
Visible (ANSI)
100
AcDbLine
 10
21.05090997303638
 20
33.93011713725623
 30
0.0
 11
20.83215997303645
 21
33.93011713725623
 31
0.0
  0
LINE
  5
16C
330
6C
100
AcDbEntity
  8
Visible (ANSI)
100
AcDbLine
 10
26.85676454245646
 20
33.93011713725622
 30
0.0
 11
28.83215997303638
 21
51.49261713725621
 31
0.0
  0
LINE
  5
16D
330
6C
100
AcDbEntity
  8
Visible Narrow (ANSI)
100
AcDbLine
 10
28.83215997303638
 20
51.49261713725621
 30
0.0
 11
21.05090997303638
 21
51.49261713725621
 31
0.0
  0
LINE
  5
16E
330
6C
100
AcDbEntity
  8
Visible (ANSI)
100
AcDbLine
 10
28.83215997303638
 20
51.49261713725621
 30
0.0
 11
28.83215997303644
 21
51.7113671372562
 31
0.0
  0
LINE
  5
16F
330
6C
100
AcDbEntity
  8
Visible (ANSI)
100
AcDbLine
 10
21.07300705994852
 20
51.71136713725622
 30
0.0
 11
28.83215997303644
 21
51.7113671372562
 31
0.0
  0
LINE
  5
170
330
6C
100
AcDbEntity
  8
Visible Narrow (ANSI)
100
AcDbLine
 10
21.05090997303638
 20
51.49261713725621
 30
0.0
 11
21.05090997303638
 21
33.93011713725623
 31
0.0
  0
LINE
  5
171
330
6C
100
AcDbEntity
  8
Visible (ANSI)
100
AcDbLine
 10
20.83215997303644
 20
33.93011713725623
 30
0.0
 11
20.83215997303645
 21
51.49261713725621
 31
0.0
  0
SPLINE
  5
172
330
6C
100
AcDbEntity
  8
Visible (ANSI)
100
AcDbSpline
210
0.0
220
0.0
230
1.0
 70
     8
 71
     3
 72
    11
 73
     7
 74
     0
 42
0.0000000001
 43
0.0000000001
 40
0.0
 40
0.0
 40
0.0
 40
0.0
 40
0.9120227246349079
 40
0.9120227246349079
 40
0.9120227246349079
 40
1.570796326794894
 40
1.570796326794894
 40
1.570796326794894
 40
1.570796326794894
 10
21.05090997303645
 20
51.71136713725622
 30
0.0
 10
20.98440831603182
 20
51.71136713725622
 30
0.0
 10
20.91864364492697
 20
51.67911017018989
 30
0.0
 10
20.87793481876203
 20
51.62652441302473
 30
0.0
 10
20.84852995929088
 20
51.58854059120288
 30
0.0
 10
20.83215997303645
 20
51.54065271241371
 30
0.0
 10
20.83215997303645
 20
51.49261713725621
 30
0.0
  0
LINE
  5
173
330
6C
100
AcDbEntity
  8
Visible (ANSI)
100
AcDbLine
 10
21.05090997303645
 20
51.58636713725621
 30
0.0
 11
21.05714059865498
 21
51.58636713725621
 31
0.0
  0
LINE
  5
174
330
6C
100
AcDbEntity
  8
Visible (ANSI)
100
AcDbLine
 10
21.07300705994854
 20
51.71136713725621
 30
0.0
 11
21.05090997303645
 21
51.71136713725621
 31
0.0
  0
LINE
  5
175
330
6C
100
AcDbEntity
  8
Visible (ANSI)
100
AcDbLine
 10
21.05090997303645
 20
51.58636713725621
 30
0.0
 11
21.05090997303645
 21
51.71136713725621
 31
0.0
  0
SPLINE
  5
176
330
6C
100
AcDbEntity
  8
Visible (ANSI)
100
AcDbSpline
210
0.0
220
0.0
230
1.0
 70
     8
 71
     3
 72
    11
 73
     7
 74
     0
 42
0.0000000001
 43
0.0000000001
 40
0.0
 40
0.0
 40
0.0
 40
0.0
 40
1.12719708240322
 40
1.12719708240322
 40
1.12719708240322
 40
1.570796326794894
 40
1.570796326794894
 40
1.570796326794894
 40
1.570796326794894
 10
20.95715997303644
 20
51.49261713725621
 30
0.0
 10
20.95715997303644
 20
51.52784204608132
 30
0.0
 10
20.97885753127305
 20
51.56217504361968
 30
0.0
 10
21.01067311789971
 20
51.57729333219142
 30
0.0
 10
21.02319388326345
 20
51.58324301170321
 30
0.0
 10
21.03704749664921
 20
51.58636713725621
 30
0.0
 10
21.05090997303645
 20
51.58636713725621
 30
0.0
  0
SPLINE
  5
177
330
6C
100
AcDbEntity
  8
Visible (ANSI)
100
AcDbSpline
210
0.0
220
0.0
230
1.0
 70
     8
 71
     3
 72
    11
 73
     7
 74
     0
 42
0.0000000001
 43
0.0000000001
 40
0.0
 40
0.0
 40
0.0
 40
0.0
 40
0.9120227246350472
 40
0.9120227246350472
 40
0.9120227246350472
 40
1.570796326794894
 40
1.570796326794894
 40
1.570796326794894
 40
1.570796326794894
 10
21.05090997303638
 20
51.49261713725622
 30
0.0
 10
21.05518658209729
 20
51.55911879426086
 30
0.0
 10
21.05946319115821
 20
51.62488346536572
 30
0.0
 10
21.06373980021913
 20
51.66559229153065
 30
0.0
 10
21.06682888679559
 20
51.69499715100179
 30
0.0
 10
21.06991797337206
 20
51.71136713725622
 30
0.0
 10
21.07300705994852
 20
51.71136713725622
 30
0.0
  0
LINE
  5
178
330
6C
100
AcDbEntity
  8
Visible (ANSI)
100
AcDbLine
 10
20.83215997303645
 20
51.49261713725621
 30
0.0
 11
21.05090997303638
 21
51.49261713725621
 31
0.0
  0
LINE
  5
179
330
6C
100
AcDbEntity
  8
Visible (ANSI)
100
AcDbLine
 10
28.58215997303648
 20
33.71149327845444
 30
0.0
 11
28.45715997303644
 21
33.71149327845444
 31
0.0
  0
LINE
  5
17A
330
6C
100
AcDbEntity
  8
Visible (ANSI)
100
AcDbLine
 10
28.45715997303644
 20
33.83649327845443
 30
0.0
 11
28.58215997303648
 21
33.83649327845443
 31
0.0
  0
LINE
  5
17B
330
6C
100
AcDbEntity
  8
Visible Narrow (ANSI)
100
AcDbLine
 10
28.45715997303645
 20
33.83649327845443
 30
0.0
 11
28.45715997303645
 21
33.71149327845444
 31
0.0
  0
LINE
  5
17C
330
6C
100
AcDbEntity
  8
Visible (ANSI)
100
AcDbLine
 10
28.58215997303649
 20
33.71149327845444
 30
0.0
 11
28.58215997303649
 21
33.83649327845443
 31
0.0
  0
LINE
  5
17D
330
6C
100
AcDbEntity
  8
Visible (ANSI)
100
AcDbLine
 10
27.08226918980556
 20
33.71149327845444
 30
0.0
 11
28.45715997303645
 21
33.71149327845444
 31
0.0
  0
LINE
  5
17E
330
6C
100
AcDbEntity
  8
Visible (ANSI)
100
AcDbLine
 10
28.45715997303645
 20
33.83649327845443
 30
0.0
 11
27.08226918980556
 21
33.83649327845443
 31
0.0
  0
ARC
  5
17F
330
6C
100
AcDbEntity
  8
Visible (ANSI)
100
AcDbCircle
 10
27.08226918980556
 20
33.93024327845444
 30
0.0
 40
0.0937500000000009
100
AcDbArc
 50
225.0
 51
270.0
  0
ARC
  5
180
330
6C
100
AcDbEntity
  8
Visible (ANSI)
100
AcDbCircle
 10
27.08226918980556
 20
33.93024327845444
 30
0.0
 40
0.2187499999999999
100
AcDbArc
 50
225.0
 51
270.0
  0
LINE
  5
181
330
6C
100
AcDbEntity
  8
Visible (ANSI)
100
AcDbLine
 10
26.98263320114673
 20
33.89729674564079
 30
0.0
 11
27.01597792906933
 21
33.8639520177182
 31
0.0
  0
LINE
  5
182
330
6C
100
AcDbEntity
  8
Visible (ANSI)
100
AcDbLine
 10
26.927589581421
 20
33.77556367006988
 30
0.0
 11
26.89424485349841
 21
33.80890839799247
 31
0.0
  0
ARC
  5
183
330
6C
100
AcDbEntity
  8
Visible (ANSI)
100
AcDbCircle
 10
26.82795359276217
 20
33.74261713725623
 30
0.0
 40
0.218750000000001
100
AcDbArc
 50
44.99999999999999
 51
81.57232142648966
  0
ARC
  5
184
330
6C
100
AcDbEntity
  8
Visible (ANSI)
100
AcDbCircle
 10
26.82795359276217
 20
33.74261713725623
 30
0.0
 40
0.0937500000000003
100
AcDbArc
 50
44.99999999999999
 51
76.63450641583406
  0
MTEXT
  5
185
330
6C
100
AcDbEntity
  8
Symbol (ANSI)
100
AcDbMText
 10
21.33089202894736
 20
28.63505780131532
 30
0.0
 40
0.8400000103815333
 41
0.0
 71
     7
 72
     1
  1
LEFT VIEW
  7
Text Style168
 73
     1
 44
1.0
  0
LINE
  5
186
330
6C
100
AcDbEntity
  8
Symbol (ANSI)
370
    30
100
AcDbLine
 10
21.24689181286865
 20
28.44605779897947
 30
0.0
 11
26.91723213688003
 21
28.44605779897947
 31
0.0
  0
LINE
  5
187
330
6C
100
AcDbEntity
  8
Visible (ANSI)
100
AcDbLine
 10
79.65914159083695
 20
33.71136713725622
 30
0.0
 11
73.89998867774902
 21
33.71136713725623
 31
0.0
  0
LINE
  5
188
330
6C
100
AcDbEntity
  8
Visible Narrow (ANSI)
100
AcDbLine
 10
73.87538410832906
 20
33.93011713725623
 30
0.0
 11
79.68123867774909
 21
33.93011713725623
 31
0.0
  0
SPLINE
  5
189
330
6C
100
AcDbEntity
  8
Visible (ANSI)
100
AcDbSpline
210
0.0
220
0.0
230
1.0
 70
     8
 71
     3
 72
    11
 73
     7
 74
     0
 42
0.0000000001
 43
0.0000000001
 40
0.0
 40
0.0
 40
0.0
 40
0.0
 40
0.9120227246349417
 40
0.9120227246349417
 40
0.9120227246349417
 40
1.570796326794896
 40
1.570796326794896
 40
1.570796326794896
 40
1.570796326794896
 10
73.89998867774902
 20
33.71136713725622
 30
0.0
 10
73.89522677746144
 20
33.71136713725622
 30
0.0
 10
73.89046487717386
 20
33.74362410432256
 30
0.0
 10
73.8857029768863
 20
33.79620986148773
 30
0.0
 10
73.88226335403388
 20
33.83419368330958
 30
0.0
 10
73.87882373118147
 20
33.88208156209874
 30
0.0
 10
73.87538410832906
 20
33.93011713725623
 30
0.0
  0
SPLINE
  5
18A
330
6C
100
AcDbEntity
  8
Visible (ANSI)
100
AcDbSpline
210
0.0
220
0.0
230
1.0
 70
     8
 71
     3
 72
    11
 73
     7
 74
     0
 42
0.0000000001
 43
0.0000000001
 40
0.0
 40
0.0
 40
0.0
 40
0.0
 40
0.9120227246349427
 40
0.9120227246349427
 40
0.9120227246349427
 40
1.570796326794896
 40
1.570796326794896
 40
1.570796326794896
 40
1.570796326794896
 10
79.68123867774909
 20
33.93011713725623
 30
0.0
 10
79.67696206868819
 20
33.8636154802516
 30
0.0
 10
79.67268545962726
 20
33.79785080914675
 30
0.0
 10
79.66840885056632
 20
33.75714198298181
 30
0.0
 10
79.66531976398987
 20
33.72773712351067
 30
0.0
 10
79.6622306774134
 20
33.71136713725622
 30
0.0
 10
79.65914159083695
 20
33.71136713725622
 30
0.0
  0
SPLINE
  5
18B
330
6C
100
AcDbEntity
  8
Visible (ANSI)
100
AcDbSpline
210
0.0
220
0.0
230
1.0
 70
     8
 71
     3
 72
    11
 73
     7
 74
     0
 42
0.0000000001
 43
0.0000000001
 40
0.0
 40
0.0
 40
0.0
 40
0.0
 40
0.9120227246349513
 40
0.9120227246349513
 40
0.9120227246349513
 40
1.570796326794896
 40
1.570796326794896
 40
1.570796326794896
 40
1.570796326794896
 10
79.68123867774902
 20
33.71136713725622
 30
0.0
 10
79.74774033475366
 20
33.71136713725622
 30
0.0
 10
79.8135050058585
 20
33.74362410432256
 30
0.0
 10
79.85421383202343
 20
33.79620986148773
 30
0.0
 10
79.88361869149459
 20
33.83419368330957
 30
0.0
 10
79.89998867774902
 20
33.88208156209874
 30
0.0
 10
79.89998867774902
 20
33.93011713725623
 30
0.0
  0
LINE
  5
18C
330
6C
100
AcDbEntity
  8
Visible (ANSI)
100
AcDbLine
 10
79.68123867774902
 20
33.83636713725623
 30
0.0
 11
79.67500805213049
 21
33.83636713725623
 31
0.0
  0
LINE
  5
18D
330
6C
100
AcDbEntity
  8
Visible (ANSI)
100
AcDbLine
 10
79.65914159083692
 20
33.71136713725622
 30
0.0
 11
79.68123867774902
 21
33.71136713725622
 31
0.0
  0
LINE
  5
18E
330
6C
100
AcDbEntity
  8
Visible (ANSI)
100
AcDbLine
 10
79.68123867774902
 20
33.83636713725623
 30
0.0
 11
79.68123867774902
 21
33.71136713725622
 31
0.0
  0
SPLINE
  5
18F
330
6C
100
AcDbEntity
  8
Visible (ANSI)
100
AcDbSpline
210
0.0
220
0.0
230
1.0
 70
     8
 71
     3
 72
    11
 73
     7
 74
     0
 42
0.0000000001
 43
0.0000000001
 40
0.0
 40
0.0
 40
0.0
 40
0.0
 40
1.12719708240338
 40
1.12719708240338
 40
1.12719708240338
 40
1.570796326794896
 40
1.570796326794896
 40
1.570796326794896
 40
1.570796326794896
 10
79.77498867774902
 20
33.93011713725623
 30
0.0
 10
79.77498867774902
 20
33.89489222843112
 30
0.0
 10
79.75329111951241
 20
33.86055923089275
 30
0.0
 10
79.72147553288575
 20
33.84544094232101
 30
0.0
 10
79.708954767522
 20
33.83949126280923
 30
0.0
 10
79.69510115413625
 20
33.83636713725623
 30
0.0
 10
79.68123867774902
 20
33.83636713725623
 30
0.0
  0
LINE
  5
190
330
6C
100
AcDbEntity
  8
Visible (ANSI)
100
AcDbLine
 10
79.89998867774902
 20
33.93011713725623
 30
0.0
 11
79.68123867774909
 21
33.93011713725623
 31
0.0
  0
LINE
  5
191
330
6C
100
AcDbEntity
  8
Visible (ANSI)
100
AcDbLine
 10
79.89998867774904
 20
51.49261713725622
 30
0.0
 11
79.89998867774904
 21
33.93011713725623
 31
0.0
  0
LINE
  5
192
330
6C
100
AcDbEntity
  8
Visible Narrow (ANSI)
100
AcDbLine
 10
79.68123867774909
 20
33.93011713725623
 30
0.0
 11
79.68123867774909
 21
51.49261713725622
 31
0.0
  0
LINE
  5
193
330
6C
100
AcDbEntity
  8
Visible (ANSI)
100
AcDbLine
 10
79.68123867774909
 20
51.49261713725622
 30
0.0
 11
79.89998867774902
 21
51.49261713725622
 31
0.0
  0
LINE
  5
194
330
6C
100
AcDbEntity
  8
Visible (ANSI)
100
AcDbLine
 10
71.89998867774909
 20
51.49261713725622
 30
0.0
 11
73.87538410832906
 21
33.93011713725623
 31
0.0
  0
LINE
  5
195
330
6C
100
AcDbEntity
  8
Visible (ANSI)
100
AcDbLine
 10
71.89998867774902
 20
51.71136713725622
 30
0.0
 11
71.89998867774909
 21
51.49261713725622
 31
0.0
  0
LINE
  5
196
330
6C
100
AcDbEntity
  8
Visible (ANSI)
100
AcDbLine
 10
71.89998867774902
 20
51.71136713725623
 30
0.0
 11
79.65914159083695
 21
51.71136713725621
 31
0.0
  0
LINE
  5
197
330
6C
100
AcDbEntity
  8
Visible Narrow (ANSI)
100
AcDbLine
 10
79.68123867774909
 20
51.49261713725622
 30
0.0
 11
71.89998867774909
 21
51.49261713725622
 31
0.0
  0
SPLINE
  5
198
330
6C
100
AcDbEntity
  8
Visible (ANSI)
100
AcDbSpline
210
0.0
220
0.0
230
1.0
 70
     8
 71
     3
 72
    11
 73
     7
 74
     0
 42
0.0000000001
 43
0.0000000001
 40
0.0
 40
0.0
 40
0.0
 40
0.0
 40
0.9120227246349074
 40
0.9120227246349074
 40
0.9120227246349074
 40
1.570796326794894
 40
1.570796326794894
 40
1.570796326794894
 40
1.570796326794894
 10
79.89998867774902
 20
51.49261713725622
 30
0.0
 10
79.89998867774902
 20
51.55911879426085
 30
0.0
 10
79.86773171068269
 20
51.62488346536568
 30
0.0
 10
79.81514595351751
 20
51.66559229153063
 30
0.0
 10
79.77716213169568
 20
51.69499715100179
 30
0.0
 10
79.72927425290652
 20
51.71136713725622
 30
0.0
 10
79.68123867774901
 20
51.71136713725622
 30
0.0
  0
LINE
  5
199
330
6C
100
AcDbEntity
  8
Visible (ANSI)
100
AcDbLine
 10
79.68123867774902
 20
51.58636713725621
 30
0.0
 11
79.67500805213049
 21
51.58636713725621
 31
0.0
  0
LINE
  5
19A
330
6C
100
AcDbEntity
  8
Visible (ANSI)
100
AcDbLine
 10
79.68123867774902
 20
51.58636713725621
 30
0.0
 11
79.68123867774902
 21
51.71136713725622
 31
0.0
  0
SPLINE
  5
19B
330
6C
100
AcDbEntity
  8
Visible (ANSI)
100
AcDbSpline
210
0.0
220
0.0
230
1.0
 70
     8
 71
     3
 72
    11
 73
     7
 74
     0
 42
0.0000000001
 43
0.0000000001
 40
0.0
 40
0.0
 40
0.0
 40
0.0
 40
1.12719708240322
 40
1.12719708240322
 40
1.12719708240322
 40
1.570796326794894
 40
1.570796326794894
 40
1.570796326794894
 40
1.570796326794894
 10
79.77498867774902
 20
51.49261713725622
 30
0.0
 10
79.77498867774902
 20
51.52784204608132
 30
0.0
 10
79.75329111951241
 20
51.56217504361968
 30
0.0
 10
79.72147553288576
 20
51.57729333219143
 30
0.0
 10
79.70895476752201
 20
51.58324301170321
 30
0.0
 10
79.69510115413625
 20
51.58636713725623
 30
0.0
 10
79.68123867774901
 20
51.58636713725623
 30
0.0
  0
LINE
  5
19C
330
6C
100
AcDbEntity
  8
Visible (ANSI)
100
AcDbLine
 10
79.68123867774902
 20
51.71136713725622
 30
0.0
 11
79.65914159083692
 21
51.71136713725622
 31
0.0
  0
SPLINE
  5
19D
330
6C
100
AcDbEntity
  8
Visible (ANSI)
100
AcDbSpline
210
0.0
220
0.0
230
1.0
 70
     8
 71
     3
 72
    11
 73
     7
 74
     0
 42
0.0000000001
 43
0.0000000001
 40
0.0
 40
0.0
 40
0.0
 40
0.0
 40
0.9120227246350001
 40
0.9120227246350001
 40
0.9120227246350001
 40
1.570796326794894
 40
1.570796326794894
 40
1.570796326794894
 40
1.570796326794894
 10
79.65914159083695
 20
51.71136713725621
 30
0.0
 10
79.66341819989787
 20
51.71136713725621
 30
0.0
 10
79.66769480895881
 20
51.67911017018989
 30
0.0
 10
79.67197141801972
 20
51.6265244130247
 30
0.0
 10
79.67506050459618
 20
51.58854059120287
 30
0.0
 10
79.67814959117264
 20
51.54065271241371
 30
0.0
 10
79.68123867774909
 20
51.49261713725622
 30
0.0
  0
LINE
  5
19E
330
6C
100
AcDbEntity
  8
Visible (ANSI)
100
AcDbLine
 10
72.14998867774898
 20
33.83649327845445
 30
0.0
 11
72.27498867774901
 21
33.83649327845445
 31
0.0
  0
LINE
  5
19F
330
6C
100
AcDbEntity
  8
Visible (ANSI)
100
AcDbLine
 10
72.14998867774898
 20
33.83649327845445
 30
0.0
 11
72.14998867774898
 21
33.71149327845444
 31
0.0
  0
LINE
  5
1A0
330
6C
100
AcDbEntity
  8
Visible (ANSI)
100
AcDbLine
 10
72.27498867774901
 20
33.71149327845444
 30
0.0
 11
72.14998867774898
 21
33.71149327845444
 31
0.0
  0
LINE
  5
1A1
330
6C
100
AcDbEntity
  8
Visible Narrow (ANSI)
100
AcDbLine
 10
72.27498867774901
 20
33.71149327845444
 30
0.0
 11
72.27498867774901
 21
33.83649327845445
 31
0.0
  0
LINE
  5
1A2
330
6C
100
AcDbEntity
  8
Visible (ANSI)
100
AcDbLine
 10
72.27498867774901
 20
33.71149327845444
 30
0.0
 11
73.6498794609799
 21
33.71149327845444
 31
0.0
  0
LINE
  5
1A3
330
6C
100
AcDbEntity
  8
Visible (ANSI)
100
AcDbLine
 10
73.6498794609799
 20
33.83649327845445
 30
0.0
 11
72.27498867774901
 21
33.83649327845445
 31
0.0
  0
ARC
  5
1A4
330
6C
100
AcDbEntity
  8
Visible (ANSI)
100
AcDbCircle
 10
73.6498794609799
 20
33.93024327845444
 30
0.0
 40
0.2187499999999996
100
AcDbArc
 50
270.0
 51
315.0000000000018
  0
ARC
  5
1A5
330
6C
100
AcDbEntity
  8
Visible (ANSI)
100
AcDbCircle
 10
73.6498794609799
 20
33.93024327845444
 30
0.0
 40
0.0937500000000007
100
AcDbArc
 50
270.0
 51
315.0
  0
LINE
  5
1A6
330
6C
100
AcDbEntity
  8
Visible (ANSI)
100
AcDbLine
 10
73.83790379728705
 20
33.80890839799248
 30
0.0
 11
73.80455906936446
 21
33.77556367006989
 31
0.0
  0
LINE
  5
1A7
330
6C
100
AcDbEntity
  8
Visible (ANSI)
100
AcDbLine
 10
73.71617072171614
 20
33.86395201771821
 30
0.0
 11
73.74951544963874
 21
33.8972967456408
 31
0.0
  0
ARC
  5
1A8
330
6C
100
AcDbEntity
  8
Visible (ANSI)
100
AcDbCircle
 10
73.90419505802329
 20
33.74261713725624
 30
0.0
 40
0.0937499999999976
100
AcDbArc
 50
103.3654935841325
 51
135.0
  0
ARC
  5
1A9
330
6C
100
AcDbEntity
  8
Visible (ANSI)
100
AcDbCircle
 10
73.90419505802329
 20
33.74261713725624
 30
0.0
 40
0.2187499999999987
100
AcDbArc
 50
98.4276785734962
 51
134.9999999999991
  0
MTEXT
  5
1AA
330
6C
100
AcDbEntity
  8
Symbol (ANSI)
100
AcDbMText
 10
73.21187417361409
 20
30.74523356524254
 30
0.0
 40
0.8400000103815333
 41
0.0
 71
     7
 72
     1
  1
RIGHT VIEW
  7
Text Style168
 73
     1
 44
1.0
  0
LINE
  5
1AB
330
6C
100
AcDbEntity
  8
Symbol (ANSI)
370
    30
100
AcDbLine
 10
73.12787395753538
 20
30.57257067721229
 30
0.0
 11
79.67225003421116
 21
30.57257067721229
 31
0.0
  0
CIRCLE
  5
1AC
330
6C
100
AcDbEntity
  8
Visible (ANSI)
100
AcDbCircle
 10
50.20505610280023
 20
23.65775590596687
 30
0.0
 40
0.28125
  0
CIRCLE
  5
1AD
330
6C
100
AcDbEntity
  8
Visible (ANSI)
100
AcDbCircle
 10
53.83005610280023
 20
23.65775590596687
 30
0.0
 40
0.28125
  0
CIRCLE
  5
1AE
330
6C
100
AcDbEntity
  8
Visible (ANSI)
100
AcDbCircle
 10
48.64255610280022
 20
22.34525590596687
 30
0.0
 40
0.28125
  0
CIRCLE
  5
1AF
330
6C
100
AcDbEntity
  8
Visible (ANSI)
100
AcDbCircle
 10
48.64255610280024
 20
17.34525590596686
 30
0.0
 40
0.28125
  0
CIRCLE
  5
1B0
330
6C
100
AcDbEntity
  8
Visible (ANSI)
100
AcDbCircle
 10
55.39255610280024
 20
22.34525590596687
 30
0.0
 40
0.28125
  0
CIRCLE
  5
1B1
330
6C
100
AcDbEntity
  8
Visible (ANSI)
100
AcDbCircle
 10
55.39255610280027
 20
17.34525590596687
 30
0.0
 40
0.28125
  0
LINE
  5
1B2
330
6C
100
AcDbEntity
  8
Visible (ANSI)
100
AcDbLine
 10
47.95505610280024
 20
16.3452559059668
 30
0.0
 11
47.95505610280023
 21
24.12650590596681
 31
0.0
  0
LINE
  5
1B3
330
6C
100
AcDbEntity
  8
Visible (ANSI)
100
AcDbLine
 10
47.95505610280025
 20
16.3452559059668
 30
0.0
 11
48.17380610280023
 21
16.34525590596687
 31
0.0
  0
LINE
  5
1B4
330
6C
100
AcDbEntity
  8
Visible (ANSI)
100
AcDbLine
 10
55.86130610280027
 20
16.34525590596687
 30
0.0
 11
56.08005610280027
 21
16.34525590596681
 31
0.0
  0
LINE
  5
1B5
330
6C
100
AcDbEntity
  8
Visible Narrow (ANSI)
100
AcDbLine
 10
55.83920901588815
 20
24.12650590596687
 30
0.0
 11
48.19590318971231
 21
24.12650590596687
 31
0.0
  0
LINE
  5
1B6
330
6C
100
AcDbEntity
  8
Visible (ANSI)
100
AcDbLine
 10
48.17380610280023
 20
24.34525590596681
 30
0.0
 11
55.86130610280023
 21
24.34525590596681
 31
0.0
  0
LINE
  5
1B7
330
6C
100
AcDbEntity
  8
Visible Narrow (ANSI)
100
AcDbLine
 10
48.17380610280023
 20
24.1044088190548
 30
0.0
 11
48.17380610280023
 21
16.34525590596687
 31
0.0
  0
LINE
  5
1B8
330
6C
100
AcDbEntity
  8
Visible Narrow (ANSI)
100
AcDbLine
 10
55.86130610280027
 20
16.34525590596687
 30
0.0
 11
55.86130610280022
 21
24.10440881905479
 31
0.0
  0
LINE
  5
1B9
330
6C
100
AcDbEntity
  8
Visible (ANSI)
100
AcDbLine
 10
56.08005610280023
 20
24.12650590596681
 30
0.0
 11
56.08005610280027
 21
16.34525590596681
 31
0.0
  0
ARC
  5
1BA
330
6C
100
AcDbEntity
  8
Visible (ANSI)
100
AcDbCircle
 10
55.86130610280022
 20
24.12650590596681
 30
0.0
 40
0.2187499999999999
100
AcDbArc
 50
0.0
 51
89.99999999999744
  0
ARC
  5
1BB
330
6C
100
AcDbEntity
  8
Visible (ANSI)
100
AcDbCircle
 10
48.17380610280023
 20
24.12650590596681
 30
0.0
 40
0.09375
100
AcDbArc
 50
90.0
 51
180.0
  0
LINE
  5
1BC
330
6C
100
AcDbEntity
  8
Visible (ANSI)
100
AcDbLine
 10
48.70505610280024
 20
16.34525590596687
 30
0.0
 11
48.17380610280023
 21
16.34525590596687
 31
0.0
  0
LINE
  5
1BD
330
6C
100
AcDbEntity
  8
Visible (ANSI)
100
AcDbLine
 10
55.86130610280027
 20
16.34525590596687
 30
0.0
 11
55.33005610280027
 21
16.34525590596687
 31
0.0
  0
LINE
  5
1BE
330
6C
100
AcDbEntity
  8
Visible (ANSI)
100
AcDbLine
 10
54.80795901588815
 20
23.09525590596687
 30
0.0
 11
49.22715318971231
 21
23.09525590596687
 31
0.0
  0
LINE
  5
1BF
330
6C
100
AcDbEntity
  8
Visible (ANSI)
100
AcDbLine
 10
49.20505610280024
 20
23.07315881905479
 30
0.0
 11
49.20505610280024
 21
16.84525590596686
 31
0.0
  0
LINE
  5
1C0
330
6C
100
AcDbEntity
  8
Visible (ANSI)
100
AcDbLine
 10
54.83005610280027
 20
16.84525590596687
 30
0.0
 11
54.83005610280024
 21
23.07315881905479
 31
0.0
  0
ARC
  5
1C1
330
6C
100
AcDbEntity
  8
Visible (ANSI)
100
AcDbCircle
 10
48.17380610280023
 20
24.12650590596681
 30
0.0
 40
0.21875
100
AcDbArc
 50
90.0
 51
180.0
  0
ARC
  5
1C2
330
6C
100
AcDbEntity
  8
Visible (ANSI)
100
AcDbCircle
 10
55.86130610280022
 20
24.12650590596681
 30
0.0
 40
0.0937499999999987
100
AcDbArc
 50
0.0
 51
89.99999999999401
  0
LINE
  5
1C3
330
6C
100
AcDbEntity
  8
Visible (ANSI)
100
AcDbLine
 10
49.20505610280024
 20
16.84525590596686
 30
0.0
 11
48.70505610280024
 21
16.34525590596687
 31
0.0
  0
LINE
  5
1C4
330
6C
100
AcDbEntity
  8
Visible (ANSI)
100
AcDbLine
 10
55.33005610280027
 20
16.34525590596687
 30
0.0
 11
54.83005610280027
 21
16.84525590596687
 31
0.0
  0
SPLINE
  5
1C5
330
6C
100
AcDbEntity
  8
Visible (ANSI)
100
AcDbSpline
210
0.0
220
0.0
230
1.0
 70
     8
 71
     3
 72
    11
 73
     7
 74
     0
 42
0.0000000001
 43
0.0000000001
 40
0.0
 40
0.0
 40
0.0
 40
0.0
 40
0.9120227246349074
 40
0.9120227246349074
 40
0.9120227246349074
 40
1.570796326794894
 40
1.570796326794894
 40
1.570796326794894
 40
1.570796326794894
 10
55.86130610280023
 20
24.34525590596681
 30
0.0
 10
55.85702949373931
 20
24.34525590596683
 30
0.0
 10
55.8527528846784
 20
24.31299893890051
 30
0.0
 10
55.8484762756175
 20
24.26041318173536
 30
0.0
 10
55.84538718904104
 20
24.22242935991353
 30
0.0
 10
55.84229810246459
 20
24.17454148112437
 30
0.0
 10
55.83920901588815
 20
24.12650590596687
 30
0.0
  0
SPLINE
  5
1C6
330
6C
100
AcDbEntity
  8
Visible (ANSI)
100
AcDbSpline
210
0.0
220
0.0
230
1.0
 70
     8
 71
     3
 72
    11
 73
     7
 74
     0
 42
0.0000000001
 43
0.0000000001
 40
0.0
 40
0.0
 40
0.0
 40
0.0
 40
0.9120227246349079
 40
0.9120227246349079
 40
0.9120227246349079
 40
1.570796326794894
 40
1.570796326794894
 40
1.570796326794894
 40
1.570796326794894
 10
48.19590318971231
 20
24.12650590596687
 30
0.0
 10
48.1916265806514
 20
24.1930075629715
 30
0.0
 10
48.18734997159049
 20
24.25877223407634
 30
0.0
 10
48.18307336252958
 20
24.29948106024126
 30
0.0
 10
48.17998427595313
 20
24.3288859197124
 30
0.0
 10
48.17689518937669
 20
24.34525590596682
 30
0.0
 10
48.17380610280023
 20
24.34525590596681
 30
0.0
  0
LINE
  5
1C7
330
6C
100
AcDbEntity
  8
Visible (ANSI)
100
AcDbLine
 10
49.22715318971231
 20
23.09525590596687
 30
0.0
 11
48.19590318971231
 21
24.12650590596687
 31
0.0
  0
SPLINE
  5
1C8
330
6C
100
AcDbEntity
  8
Visible (ANSI)
100
AcDbSpline
210
0.0
220
0.0
230
1.0
 70
    24
 71
     3
 72
     8
 73
     4
 74
     0
 42
0.0000000001
 43
0.0000000001
 40
-0.0000000000000001
 40
-0.0000000000000001
 40
-0.0000000000000001
 40
-0.0000000000000001
 40
0.3175000000000002
 40
0.3175000000000002
 40
0.3175000000000002
 40
0.3175000000000002
 10
48.17380610280023
 20
24.2202559059668
 30
0.0
 10
48.17380610280023
 20
24.26192257263347
 30
0.0
 10
48.17380610280023
 20
24.30358923930014
 30
0.0
 10
48.17380610280023
 20
24.34525590596681
 30
0.0
  0
SPLINE
  5
1C9
330
6C
100
AcDbEntity
  8
Visible (ANSI)
100
AcDbSpline
210
0.0
220
0.0
230
1.0
 70
     8
 71
     3
 72
    11
 73
     7
 74
     0
 42
0.0000000001
 43
0.0000000001
 40
0.0
 40
0.0
 40
0.0
 40
0.0
 40
1.12719708240322
 40
1.12719708240322
 40
1.12719708240322
 40
1.570796326794894
 40
1.570796326794894
 40
1.570796326794894
 40
1.570796326794894
 10
48.17380610280023
 20
24.2202559059668
 30
0.0
 10
48.17909169615863
 20
24.22025590596681
 30
0.0
 10
48.18437728951703
 20
24.19855834773022
 30
0.0
 10
48.18966288287542
 20
24.16674276110357
 30
0.0
 10
48.19174298515439
 20
24.15422199573983
 30
0.0
 10
48.19382308743334
 20
24.14036838235408
 30
0.0
 10
48.19590318971231
 20
24.12650590596684
 30
0.0
  0
SPLINE
  5
1CA
330
6C
100
AcDbEntity
  8
Visible (ANSI)
100
AcDbSpline
210
0.0
220
0.0
230
1.0
 70
     8
 71
     3
 72
    11
 73
     7
 74
     0
 42
0.0000000001
 43
0.0000000001
 40
0.0
 40
0.0
 40
0.0
 40
0.0
 40
1.12719708240322
 40
1.12719708240322
 40
1.12719708240322
 40
1.570796326794894
 40
1.570796326794894
 40
1.570796326794894
 40
1.570796326794894
 10
55.86130610280023
 20
24.2202559059668
 30
0.0
 10
55.85602050944183
 20
24.22025590596681
 30
0.0
 10
55.85073491608343
 20
24.19855834773022
 30
0.0
 10
55.84544932272503
 20
24.16674276110357
 30
0.0
 10
55.84336922044607
 20
24.15422199573983
 30
0.0
 10
55.8412891181671
 20
24.14036838235408
 30
0.0
 10
55.83920901588815
 20
24.12650590596684
 30
0.0
  0
SPLINE
  5
1CB
330
6C
100
AcDbEntity
  8
Visible (ANSI)
100
AcDbSpline
210
0.0
220
0.0
230
1.0
 70
    24
 71
     3
 72
     8
 73
     4
 74
     0
 42
0.0000000001
 43
0.0000000001
 40
-0.3175000000000004
 40
-0.3175000000000004
 40
-0.3175000000000004
 40
-0.3175000000000004
 40
0.0
 40
0.0
 40
0.0
 40
0.0
 10
55.86130610280023
 20
24.34525590596681
 30
0.0
 10
55.86130610280023
 20
24.30358923930014
 30
0.0
 10
55.86130610280023
 20
24.26192257263347
 30
0.0
 10
55.86130610280023
 20
24.2202559059668
 30
0.0
  0
LINE
  5
1CC
330
6C
100
AcDbEntity
  8
Visible (ANSI)
100
AcDbLine
 10
55.83920901588815
 20
24.12650590596687
 30
0.0
 11
54.80795901588815
 21
23.09525590596687
 31
0.0
  0
SPLINE
  5
1CD
330
6C
100
AcDbEntity
  8
Visible (ANSI)
100
AcDbSpline
210
0.0
220
0.0
230
1.0
 70
     8
 71
     3
 72
    11
 73
     7
 74
     0
 42
0.0000000001
 43
0.0000000001
 40
0.0
 40
0.0
 40
0.0
 40
0.0
 40
0.9120227246350472
 40
0.9120227246350472
 40
0.9120227246350472
 40
1.570796326794894
 40
1.570796326794894
 40
1.570796326794894
 40
1.570796326794894
 10
47.95505610280024
 20
24.12650590596681
 30
0.0
 10
47.95505610280024
 20
24.12222929690591
 30
0.0
 10
47.98731306986658
 20
24.11795268784502
 30
0.0
 10
48.03989882703175
 20
24.11367607878412
 30
0.0
 10
48.07788264885361
 20
24.11058699220769
 30
0.0
 10
48.12577052764275
 20
24.10749790563124
 30
0.0
 10
48.17380610280025
 20
24.1044088190548
 30
0.0
  0
SPLINE
  5
1CE
330
6C
100
AcDbEntity
  8
Visible (ANSI)
100
AcDbSpline
210
0.0
220
0.0
230
1.0
 70
     8
 71
     3
 72
    11
 73
     7
 74
     0
 42
0.0000000001
 43
0.0000000001
 40
0.0
 40
0.0
 40
0.0
 40
0.0
 40
1.127197082403415
 40
1.127197082403415
 40
1.127197082403415
 40
1.570796326794894
 40
1.570796326794894
 40
1.570796326794894
 40
1.570796326794894
 10
48.08005610280023
 20
24.12650590596681
 30
0.0
 10
48.08005610280023
 20
24.12122031260842
 30
0.0
 10
48.10175366103685
 20
24.11593471925003
 30
0.0
 10
48.13356924766353
 20
24.11064912589163
 30
0.0
 10
48.14609001302725
 20
24.10856902361267
 30
0.0
 10
48.159943626413
 20
24.10648892133372
 30
0.0
 10
48.17380610280023
 20
24.10440881905476
 30
0.0
  0
SPLINE
  5
1CF
330
6C
100
AcDbEntity
  8
Visible (ANSI)
100
AcDbSpline
210
0.0
220
0.0
230
1.0
 70
    24
 71
     3
 72
     8
 73
     4
 74
     0
 42
0.0000000001
 43
0.0000000001
 40
-0.317500000000005
 40
-0.317500000000005
 40
-0.317500000000005
 40
-0.317500000000005
 40
0.0
 40
0.0
 40
0.0
 40
0.0
 10
47.95505610280023
 20
24.12650590596681
 30
0.0
 10
47.99672276946689
 20
24.12650590596681
 30
0.0
 10
48.03838943613357
 20
24.12650590596681
 30
0.0
 10
48.08005610280023
 20
24.12650590596681
 30
0.0
  0
LINE
  5
1D0
330
6C
100
AcDbEntity
  8
Visible (ANSI)
100
AcDbLine
 10
48.17380610280023
 20
24.1044088190548
 30
0.0
 11
49.20505610280024
 21
23.07315881905479
 31
0.0
  0
SPLINE
  5
1D1
330
6C
100
AcDbEntity
  8
Visible (ANSI)
100
AcDbSpline
210
0.0
220
0.0
230
1.0
 70
     8
 71
     3
 72
    11
 73
     7
 74
     0
 42
0.0000000001
 43
0.0000000001
 40
0.0
 40
0.0
 40
0.0
 40
0.0
 40
0.9120227246350001
 40
0.9120227246350001
 40
0.9120227246350001
 40
1.570796326794894
 40
1.570796326794894
 40
1.570796326794894
 40
1.570796326794894
 10
55.86130610280022
 20
24.10440881905479
 30
0.0
 10
55.92780775980486
 20
24.10868542811571
 30
0.0
 10
55.9935724309097
 20
24.11296203717661
 30
0.0
 10
56.03428125707464
 20
24.1172386462375
 30
0.0
 10
56.0636861165458
 20
24.12032773281394
 30
0.0
 10
56.08005610280022
 20
24.12341681939038
 30
0.0
 10
56.08005610280022
 20
24.12650590596681
 30
0.0
  0
LINE
  5
1D2
330
6C
100
AcDbEntity
  8
Visible (ANSI)
100
AcDbLine
 10
54.83005610280024
 20
23.07315881905479
 30
0.0
 11
55.86130610280022
 21
24.10440881905479
 31
0.0
  0
SPLINE
  5
1D3
330
6C
100
AcDbEntity
  8
Visible (ANSI)
100
AcDbSpline
210
0.0
220
0.0
230
1.0
 70
    24
 71
     3
 72
     8
 73
     4
 74
     0
 42
0.0000000001
 43
0.0000000001
 40
0.0
 40
0.0
 40
0.0
 40
0.0
 40
0.3175000000000097
 40
0.3175000000000097
 40
0.3175000000000097
 40
0.3175000000000097
 10
55.95505610280022
 20
24.12650590596681
 30
0.0
 10
55.99672276946689
 20
24.12650590596681
 30
0.0
 10
56.03838943613356
 20
24.12650590596681
 30
0.0
 10
56.08005610280022
 20
24.12650590596681
 30
0.0
  0
SPLINE
  5
1D4
330
6C
100
AcDbEntity
  8
Visible (ANSI)
100
AcDbSpline
210
0.0
220
0.0
230
1.0
 70
     8
 71
     3
 72
    11
 73
     7
 74
     0
 42
0.0000000001
 43
0.0000000001
 40
0.0
 40
0.0
 40
0.0
 40
0.0
 40
1.127197082403153
 40
1.127197082403153
 40
1.127197082403153
 40
1.570796326794894
 40
1.570796326794894
 40
1.570796326794894
 40
1.570796326794894
 10
55.95505610280022
 20
24.12650590596681
 30
0.0
 10
55.95505610280022
 20
24.12122031260842
 30
0.0
 10
55.93335854456363
 20
24.11593471925003
 30
0.0
 10
55.90154295793697
 20
24.11064912589164
 30
0.0
 10
55.88902219257324
 20
24.10856902361268
 30
0.0
 10
55.87516857918746
 20
24.10648892133372
 30
0.0
 10
55.86130610280022
 20
24.10440881905476
 30
0.0
  0
CIRCLE
  5
1D5
330
6C
100
AcDbEntity
  8
Visible (ANSI)
100
AcDbCircle
 10
52.01755610280021
 20
20.59525590596161
 30
0.0
 40
0.28125
  0
CIRCLE
  5
1D6
330
6C
100
AcDbEntity
  8
Visible (ANSI)
100
AcDbCircle
 10
50.08005610280021
 20
17.59525590596157
 30
0.0
 40
0.28125
  0
CIRCLE
  5
1D7
330
6C
100
AcDbEntity
  8
Visible (ANSI)
100
AcDbCircle
 10
53.9550561028002
 20
17.59525590596157
 30
0.0
 40
0.28125
  0
LINE
  5
1D8
330
6C
100
AcDbEntity
  8
Visible (ANSI)
100
AcDbLine
 10
55.83005610280021
 20
24.0731588190495
 30
0.0
 11
55.83005610280021
 21
24.09535306946676
 31
0.0
  0
LINE
  5
1D9
330
6C
100
AcDbEntity
  8
Visible (ANSI)
100
AcDbLine
 10
48.20505610280021
 20
24.09535306946676
 30
0.0
 11
48.20505610280021
 21
24.07315881904957
 31
0.0
  0
ARC
  5
1DA
330
6C
100
AcDbEntity
  8
Visible (ANSI)
100
AcDbCircle
 10
48.33005610280022
 20
24.09535306946676
 30
0.0
 40
0.1250000000000104
100
AcDbArc
 50
170.6375988628257
 51
180.0
  0
ARC
  5
1DB
330
6C
100
AcDbEntity
  8
Visible (ANSI)
100
AcDbCircle
 10
55.70505610280036
 20
24.09535306946677
 30
0.0
 40
0.1249999999998401
100
AcDbArc
 50
0.0
 51
9.362401137164544
  0
LINE
  5
1DC
330
6C
100
AcDbEntity
  8
Visible Narrow (ANSI)
100
AcDbLine
 10
54.83005610280027
 20
18.34946228623587
 30
0.0
 11
49.20505610280024
 21
18.34946228623588
 31
0.0
  0
LINE
  5
1DD
330
6C
100
AcDbEntity
  8
Visible Narrow (ANSI)
100
AcDbLine
 10
54.83005610280027
 20
18.1947826778513
 30
0.0
 11
49.20505610280024
 21
18.1947826778513
 31
0.0
  0
LINE
  5
1DE
330
6C
100
AcDbEntity
  8
Visible Narrow (ANSI)
100
AcDbLine
 10
54.83005610280027
 20
18.1614379499287
 30
0.0
 11
49.20505610280024
 21
18.1614379499287
 31
0.0
  0
LINE
  5
1DF
330
6C
100
AcDbEntity
  8
Visible Narrow (ANSI)
100
AcDbLine
 10
54.83005610280027
 20
18.09514668919245
 30
0.0
 11
49.20505610280024
 21
18.09514668919245
 31
0.0
  0
LINE
  5
1E0
330
6C
100
AcDbEntity
  8
Visible (ANSI)
100
AcDbLine
 10
55.08005610280026
 20
16.59525590596157
 30
0.0
 11
48.95505610280024
 21
16.59525590596157
 31
0.0
  0
MTEXT
  5
1E1
330
6C
100
AcDbEntity
  8
Symbol (ANSI)
100
AcDbMText
 10
48.10722641896554
 20
12.31647264566333
 30
0.0
 40
0.8400000103815333
 41
0.0
 71
     7
 72
     1
  1
BOTTOM VIEW
  7
Text Style168
 73
     1
 44
1.0
  0
LINE
  5
1E2
330
6C
100
AcDbEntity
  8
Symbol (ANSI)
370
    30
100
AcDbLine
 10
48.02322620288684
 20
12.1451711840391
 30
0.0
 11
55.74932039998738
 21
12.1451711840391
 31
0.0
  0
LINE
  5
1E3
330
6C
100
AcDbEntity
  8
Visible Narrow (ANSI)
100
AcDbLine
 10
55.86130610281117
 20
59.98191585546472
 30
0.0
 11
55.8613061028112
 21
65.74106876855262
 31
0.0
  0
LINE
  5
1E4
330
6C
100
AcDbEntity
  8
Visible (ANSI)
100
AcDbLine
 10
56.0800561028112
 20
65.76567333797273
 30
0.0
 11
56.08005610281116
 21
59.95981876855269
 31
0.0
  0
SPLINE
  5
1E5
330
6C
100
AcDbEntity
  8
Visible (ANSI)
100
AcDbSpline
210
0.0
220
0.0
230
1.0
 70
     8
 71
     3
 72
    11
 73
     7
 74
     0
 42
0.0000000001
 43
0.0000000001
 40
0.0
 40
0.0
 40
0.0
 40
0.0
 40
0.9120227246349417
 40
0.9120227246349417
 40
0.9120227246349417
 40
1.570796326794896
 40
1.570796326794896
 40
1.570796326794896
 40
1.570796326794896
 10
55.8613061028112
 20
65.74106876855262
 30
0.0
 10
55.92780775981583
 20
65.74583066884023
 30
0.0
 10
55.99357243092067
 20
65.75059256912782
 30
0.0
 10
56.03428125708561
 20
65.75535446941542
 30
0.0
 10
56.06368611655676
 20
65.75879409226786
 30
0.0
 10
56.0800561028112
 20
65.7622337151203
 30
0.0
 10
56.0800561028112
 20
65.76567333797273
 30
0.0
  0
LINE
  5
1E6
330
6C
100
AcDbEntity
  8
Visible (ANSI)
100
AcDbLine
 10
56.0005666780166
 20
65.76567333797273
 30
0.0
 11
56.0800561028112
 21
65.76567333797273
 31
0.0
  0
LINE
  5
1E7
330
6C
100
AcDbEntity
  8
Visible (ANSI)
100
AcDbLine
 10
55.9550561028112
 20
65.76567333797273
 30
0.0
 11
56.0005666780166
 21
65.76567333797273
 31
0.0
  0
SPLINE
  5
1E8
330
6C
100
AcDbEntity
  8
Visible (ANSI)
100
AcDbSpline
210
0.0
220
0.0
230
1.0
 70
     8
 71
     3
 72
    11
 73
     7
 74
     0
 42
0.0000000001
 43
0.0000000001
 40
0.0
 40
0.0
 40
0.0
 40
0.0
 40
1.127197082403419
 40
1.127197082403419
 40
1.127197082403419
 40
1.570796326794896
 40
1.570796326794896
 40
1.570796326794896
 40
1.570796326794896
 10
55.9550561028112
 20
65.76567333797273
 30
0.0
 10
55.9550561028112
 20
65.7597879581835
 30
0.0
 10
55.93335854457458
 20
65.7539025783943
 30
0.0
 10
55.90154295794792
 20
65.74801719860508
 30
0.0
 10
55.88902219258418
 20
65.74570105525427
 30
0.0
 10
55.87516857919843
 20
65.74338491190347
 30
0.0
 10
55.8613061028112
 20
65.74106876855267
 30
0.0
  0
LINE
  5
1E9
330
6C
100
AcDbEntity
  8
Visible Narrow (ANSI)
100
AcDbLine
 10
48.19590318972326
 20
59.95981876855262
 30
0.0
 11
55.83920901589909
 21
59.95981876855262
 31
0.0
  0
LINE
  5
1EA
330
6C
100
AcDbEntity
  8
Visible (ANSI)
100
AcDbLine
 10
55.86130610281117
 20
59.7410687685527
 30
0.0
 11
48.17380610281117
 21
59.7410687685527
 31
0.0
  0
LINE
  5
1EB
330
6C
100
AcDbEntity
  8
Visible Narrow (ANSI)
100
AcDbLine
 10
48.17380610281117
 20
65.74106876855267
 30
0.0
 11
48.17380610281117
 21
59.98191585546472
 31
0.0
  0
SPLINE
  5
1EC
330
6C
100
AcDbEntity
  8
Visible (ANSI)
100
AcDbSpline
210
0.0
220
0.0
230
1.0
 70
     8
 71
     3
 72
    11
 73
     7
 74
     0
 42
0.0000000001
 43
0.0000000001
 40
0.0
 40
0.0
 40
0.0
 40
0.0
 40
0.9120227246349479
 40
0.9120227246349479
 40
0.9120227246349479
 40
1.570796326794896
 40
1.570796326794896
 40
1.570796326794896
 40
1.570796326794896
 10
47.95505610281117
 20
65.76567333797277
 30
0.0
 10
47.95505610281117
 20
65.76091143768517
 30
0.0
 10
47.9873130698775
 20
65.75614953739756
 30
0.0
 10
48.03989882704268
 20
65.75138763710995
 30
0.0
 10
48.07788264886452
 20
65.74794801425752
 30
0.0
 10
48.12577052765368
 20
65.7445083914051
 30
0.0
 10
48.17380610281117
 20
65.74106876855267
 30
0.0
  0
LINE
  5
1ED
330
6C
100
AcDbEntity
  8
Visible (ANSI)
100
AcDbLine
 10
47.95505610281117
 20
59.95981876855269
 30
0.0
 11
47.95505610281117
 21
65.76567333797277
 31
0.0
  0
SPLINE
  5
1EE
330
6C
100
AcDbEntity
  8
Visible (ANSI)
100
AcDbSpline
210
0.0
220
0.0
230
1.0
 70
     8
 71
     3
 72
    11
 73
     7
 74
     0
 42
0.0000000001
 43
0.0000000001
 40
0.0
 40
0.0
 40
0.0
 40
0.0
 40
1.127197082403383
 40
1.127197082403383
 40
1.127197082403383
 40
1.570796326794896
 40
1.570796326794896
 40
1.570796326794896
 40
1.570796326794896
 10
48.08005610281117
 20
65.76567333797277
 30
0.0
 10
48.08005610281117
 20
65.75978795818355
 30
0.0
 10
48.10175366104779
 20
65.75390257839433
 30
0.0
 10
48.13356924767446
 20
65.74801719860511
 30
0.0
 10
48.14609001303819
 20
65.74570105525431
 30
0.0
 10
48.15994362642394
 20
65.74338491190352
 30
0.0
 10
48.17380610281117
 20
65.74106876855272
 30
0.0
  0
LINE
  5
1EF
330
6C
100
AcDbEntity
  8
Visible (ANSI)
100
AcDbLine
 10
48.03454552760578
 20
65.76567333797277
 30
0.0
 11
48.08005610281117
 21
65.76567333797277
 31
0.0
  0
LINE
  5
1F0
330
6C
100
AcDbEntity
  8
Visible (ANSI)
100
AcDbLine
 10
47.95505610281117
 20
65.76567333797277
 30
0.0
 11
48.03454552760578
 21
65.76567333797277
 31
0.0
  0
SPLINE
  5
1F1
330
6C
100
AcDbEntity
  8
Visible (ANSI)
100
AcDbSpline
210
0.0
220
0.0
230
1.0
 70
     8
 71
     3
 72
    11
 73
     7
 74
     0
 42
0.0000000001
 43
0.0000000001
 40
0.0
 40
0.0
 40
0.0
 40
0.0
 40
0.9120227246349427
 40
0.9120227246349427
 40
0.9120227246349427
 40
1.570796326794896
 40
1.570796326794896
 40
1.570796326794896
 40
1.570796326794896
 10
56.08005610281116
 20
59.95981876855269
 30
0.0
 10
56.08005610281116
 20
59.96409537761358
 30
0.0
 10
56.04779913574483
 20
59.96837198667448
 30
0.0
 10
55.99521337857967
 20
59.97264859573538
 30
0.0
 10
55.95722955675782
 20
59.97573768231181
 30
0.0
 10
55.90934167796866
 20
59.97882676888826
 30
0.0
 10
55.86130610281117
 20
59.98191585546472
 30
0.0
  0
SPLINE
  5
1F2
330
6C
100
AcDbEntity
  8
Visible (ANSI)
100
AcDbSpline
210
0.0
220
0.0
230
1.0
 70
     8
 71
     3
 72
    11
 73
     7
 74
     0
 42
0.0000000001
 43
0.0000000001
 40
0.0
 40
0.0
 40
0.0
 40
0.0
 40
1.127197082403419
 40
1.127197082403419
 40
1.127197082403419
 40
1.570796326794896
 40
1.570796326794896
 40
1.570796326794896
 40
1.570796326794896
 10
55.95505610281117
 20
59.95981876855269
 30
0.0
 10
55.95505610281117
 20
59.96510436191108
 30
0.0
 10
55.93335854457455
 20
59.97038995526946
 30
0.0
 10
55.90154295794789
 20
59.97567554862786
 30
0.0
 10
55.88902219258415
 20
59.97775565090683
 30
0.0
 10
55.87516857919839
 20
59.97983575318578
 30
0.0
 10
55.86130610281117
 20
59.98191585546475
 30
0.0
  0
SPLINE
  5
1F3
330
6C
100
AcDbEntity
  8
Visible (ANSI)
100
AcDbSpline
210
0.0
220
0.0
230
1.0
 70
    24
 71
     3
 72
     8
 73
     4
 74
     0
 42
0.0000000001
 43
0.0000000001
 40
-0.317499999999999
 40
-0.317499999999999
 40
-0.317499999999999
 40
-0.317499999999999
 40
0.0
 40
0.0
 40
0.0
 40
0.0
 10
56.08005610281116
 20
59.95981876855269
 30
0.0
 10
56.0383894361445
 20
59.95981876855269
 30
0.0
 10
55.99672276947782
 20
59.95981876855269
 30
0.0
 10
55.95505610281117
 20
59.95981876855269
 30
0.0
  0
LINE
  5
1F4
330
6C
100
AcDbEntity
  8
Visible (ANSI)
100
AcDbLine
 10
55.86130610281117
 20
59.98191585546472
 30
0.0
 11
54.83005610281116
 21
61.0131658554647
 31
0.0
  0
SPLINE
  5
1F5
330
6C
100
AcDbEntity
  8
Visible (ANSI)
100
AcDbSpline
210
0.0
220
0.0
230
1.0
 70
     8
 71
     3
 72
    11
 73
     7
 74
     0
 42
0.0000000001
 43
0.0000000001
 40
0.0
 40
0.0
 40
0.0
 40
0.0
 40
0.9120227246349516
 40
0.9120227246349516
 40
0.9120227246349516
 40
1.570796326794896
 40
1.570796326794896
 40
1.570796326794896
 40
1.570796326794896
 10
48.17380610281117
 20
59.7410687685527
 30
0.0
 10
48.17808271187209
 20
59.74106876855268
 30
0.0
 10
48.18235932093299
 20
59.77332573561898
 30
0.0
 10
48.1866359299939
 20
59.82591149278414
 30
0.0
 10
48.18972501657036
 20
59.86389531460598
 30
0.0
 10
48.19281410314681
 20
59.91178319339513
 30
0.0
 10
48.19590318972326
 20
59.95981876855262
 30
0.0
  0
SPLINE
  5
1F6
330
6C
100
AcDbEntity
  8
Visible (ANSI)
100
AcDbSpline
210
0.0
220
0.0
230
1.0
 70
     8
 71
     3
 72
    11
 73
     7
 74
     0
 42
0.0000000001
 43
0.0000000001
 40
0.0
 40
0.0
 40
0.0
 40
0.0
 40
0.9120227246349513
 40
0.9120227246349513
 40
0.9120227246349513
 40
1.570796326794896
 40
1.570796326794896
 40
1.570796326794896
 40
1.570796326794896
 10
55.83920901589909
 20
59.95981876855262
 30
0.0
 10
55.84348562496
 20
59.89331711154799
 30
0.0
 10
55.84776223402091
 20
59.82755244044316
 30
0.0
 10
55.85203884308183
 20
59.78684361427824
 30
0.0
 10
55.85512792965827
 20
59.7574387548071
 30
0.0
 10
55.85821701623472
 20
59.74106876855268
 30
0.0
 10
55.86130610281117
 20
59.7410687685527
 30
0.0
  0
LINE
  5
1F7
330
6C
100
AcDbEntity
  8
Visible (ANSI)
100
AcDbLine
 10
54.80795901589909
 20
60.99106876855262
 30
0.0
 11
55.83920901589909
 21
59.95981876855262
 31
0.0
  0
SPLINE
  5
1F8
330
6C
100
AcDbEntity
  8
Visible (ANSI)
100
AcDbSpline
210
0.0
220
0.0
230
1.0
 70
    24
 71
     3
 72
     8
 73
     4
 74
     0
 42
0.0000000001
 43
0.0000000001
 40
0.0
 40
0.0
 40
0.0
 40
0.0
 40
0.3175000000000001
 40
0.3175000000000001
 40
0.3175000000000001
 40
0.3175000000000001
 10
55.86130610281117
 20
59.86606876855269
 30
0.0
 10
55.86130610281117
 20
59.82440210188602
 30
0.0
 10
55.86130610281117
 20
59.78273543521936
 30
0.0
 10
55.86130610281117
 20
59.7410687685527
 30
0.0
  0
SPLINE
  5
1F9
330
6C
100
AcDbEntity
  8
Visible (ANSI)
100
AcDbSpline
210
0.0
220
0.0
230
1.0
 70
     8
 71
     3
 72
    11
 73
     7
 74
     0
 42
0.0000000001
 43
0.0000000001
 40
0.0
 40
0.0
 40
0.0
 40
0.0
 40
1.12719708240338
 40
1.12719708240338
 40
1.12719708240338
 40
1.570796326794896
 40
1.570796326794896
 40
1.570796326794896
 40
1.570796326794896
 10
55.86130610281117
 20
59.86606876855269
 30
0.0
 10
55.85602050945277
 20
59.86606876855269
 30
0.0
 10
55.85073491609438
 20
59.88776632678928
 30
0.0
 10
55.84544932273597
 20
59.91958191341594
 30
0.0
 10
55.84336922045701
 20
59.93210267877967
 30
0.0
 10
55.84128911817805
 20
59.94595629216544
 30
0.0
 10
55.83920901589909
 20
59.95981876855267
 30
0.0
  0
SPLINE
  5
1FA
330
6C
100
AcDbEntity
  8
Visible (ANSI)
100
AcDbSpline
210
0.0
220
0.0
230
1.0
 70
     8
 71
     3
 72
    11
 73
     7
 74
     0
 42
0.0000000001
 43
0.0000000001
 40
0.0
 40
0.0
 40
0.0
 40
0.0
 40
1.127197082403383
 40
1.127197082403383
 40
1.127197082403383
 40
1.570796326794896
 40
1.570796326794896
 40
1.570796326794896
 40
1.570796326794896
 10
48.17380610281117
 20
59.86606876855269
 30
0.0
 10
48.17909169616957
 20
59.86606876855269
 30
0.0
 10
48.18437728952797
 20
59.88776632678928
 30
0.0
 10
48.18966288288637
 20
59.91958191341595
 30
0.0
 10
48.19174298516532
 20
59.93210267877967
 30
0.0
 10
48.1938230874443
 20
59.94595629216544
 30
0.0
 10
48.19590318972326
 20
59.95981876855267
 30
0.0
  0
SPLINE
  5
1FB
330
6C
100
AcDbEntity
  8
Visible (ANSI)
100
AcDbSpline
210
0.0
220
0.0
230
1.0
 70
    24
 71
     3
 72
     8
 73
     4
 74
     0
 42
0.0000000001
 43
0.0000000001
 40
-0.3175
 40
-0.3175
 40
-0.3175
 40
-0.3175
 40
0.0000000000000001
 40
0.0000000000000001
 40
0.0000000000000001
 40
0.0000000000000001
 10
48.17380610281117
 20
59.7410687685527
 30
0.0
 10
48.17380610281117
 20
59.78273543521936
 30
0.0
 10
48.17380610281117
 20
59.82440210188602
 30
0.0
 10
48.17380610281117
 20
59.86606876855269
 30
0.0
  0
LINE
  5
1FC
330
6C
100
AcDbEntity
  8
Visible (ANSI)
100
AcDbLine
 10
48.19590318972326
 20
59.95981876855262
 30
0.0
 11
49.22715318972326
 21
60.99106876855262
 31
0.0
  0
SPLINE
  5
1FD
330
6C
100
AcDbEntity
  8
Visible (ANSI)
100
AcDbSpline
210
0.0
220
0.0
230
1.0
 70
     8
 71
     3
 72
    11
 73
     7
 74
     0
 42
0.0000000001
 43
0.0000000001
 40
0.0
 40
0.0
 40
0.0
 40
0.0
 40
0.912022724634949
 40
0.912022724634949
 40
0.912022724634949
 40
1.570796326794896
 40
1.570796326794896
 40
1.570796326794896
 40
1.570796326794896
 10
48.17380610281117
 20
59.98191585546472
 30
0.0
 10
48.10730444580654
 20
59.9776392464038
 30
0.0
 10
48.0415397747017
 20
59.9733626373429
 30
0.0
 10
48.00083094853675
 20
59.969086028282
 30
0.0
 10
47.9714260890656
 20
59.96599694170557
 30
0.0
 10
47.95505610281117
 20
59.96290785512912
 30
0.0
 10
47.95505610281117
 20
59.95981876855269
 30
0.0
  0
LINE
  5
1FE
330
6C
100
AcDbEntity
  8
Visible (ANSI)
100
AcDbLine
 10
49.20505610281118
 20
61.0131658554647
 30
0.0
 11
48.17380610281117
 21
59.98191585546472
 31
0.0
  0
SPLINE
  5
1FF
330
6C
100
AcDbEntity
  8
Visible (ANSI)
100
AcDbSpline
210
0.0
220
0.0
230
1.0
 70
    24
 71
     3
 72
     8
 73
     4
 74
     0
 42
0.0000000001
 43
0.0000000001
 40
0.0
 40
0.0
 40
0.0
 40
0.0
 40
0.3175000000000001
 40
0.3175000000000001
 40
0.3175000000000001
 40
0.3175000000000001
 10
48.08005610281117
 20
59.95981876855269
 30
0.0
 10
48.03838943614451
 20
59.95981876855269
 30
0.0
 10
47.99672276947784
 20
59.95981876855269
 30
0.0
 10
47.95505610281117
 20
59.95981876855269
 30
0.0
  0
SPLINE
  5
200
330
6C
100
AcDbEntity
  8
Visible (ANSI)
100
AcDbSpline
210
0.0
220
0.0
230
1.0
 70
     8
 71
     3
 72
    11
 73
     7
 74
     0
 42
0.0000000001
 43
0.0000000001
 40
0.0
 40
0.0
 40
0.0
 40
0.0
 40
1.127197082403381
 40
1.127197082403381
 40
1.127197082403381
 40
1.570796326794896
 40
1.570796326794896
 40
1.570796326794896
 40
1.570796326794896
 10
48.08005610281117
 20
59.95981876855269
 30
0.0
 10
48.08005610281117
 20
59.96510436191108
 30
0.0
 10
48.10175366104779
 20
59.97038995526946
 30
0.0
 10
48.13356924767444
 20
59.97567554862786
 30
0.0
 10
48.14609001303819
 20
59.97775565090682
 30
0.0
 10
48.15994362642394
 20
59.97983575318578
 30
0.0
 10
48.17380610281117
 20
59.98191585546474
 30
0.0
  0
LINE
  5
201
330
6C
100
AcDbEntity
  8
Visible (ANSI)
100
AcDbLine
 10
54.83005610281119
 20
65.74106876855264
 30
0.0
 11
55.8613061028112
 21
65.74106876855262
 31
0.0
  0
LINE
  5
202
330
6C
100
AcDbEntity
  8
Visible (ANSI)
100
AcDbLine
 10
54.83005610281116
 20
61.0131658554647
 30
0.0
 11
54.83005610281119
 21
65.74106876855264
 31
0.0
  0
LINE
  5
203
330
6C
100
AcDbEntity
  8
Visible (ANSI)
100
AcDbLine
 10
49.22715318972326
 20
60.99106876855262
 30
0.0
 11
54.80795901589909
 21
60.99106876855262
 31
0.0
  0
LINE
  5
204
330
6C
100
AcDbEntity
  8
Visible (ANSI)
100
AcDbLine
 10
48.17380610281117
 20
65.74106876855267
 30
0.0
 11
49.20505610281118
 21
65.74106876855267
 31
0.0
  0
LINE
  5
205
330
6C
100
AcDbEntity
  8
Visible (ANSI)
100
AcDbLine
 10
49.20505610281118
 20
65.74106876855267
 30
0.0
 11
49.20505610281118
 21
61.0131658554647
 31
0.0
  0
ARC
  5
206
330
6C
100
AcDbEntity
  8
Visible (ANSI)
100
AcDbCircle
 10
48.17380610281117
 20
59.95981876855269
 30
0.0
 40
0.09375
100
AcDbArc
 50
180.0
 51
270.0
  0
ARC
  5
207
330
6C
100
AcDbEntity
  8
Visible (ANSI)
100
AcDbCircle
 10
48.17380610281117
 20
59.95981876855269
 30
0.0
 40
0.2187499999999999
100
AcDbArc
 50
180.0
 51
270.0
  0
ARC
  5
208
330
6C
100
AcDbEntity
  8
Visible (ANSI)
100
AcDbCircle
 10
55.86130610281117
 20
59.95981876855269
 30
0.0
 40
0.0937500000000023
100
AcDbArc
 50
270.000000000006
 51
0.0
  0
ARC
  5
209
330
6C
100
AcDbEntity
  8
Visible (ANSI)
100
AcDbCircle
 10
55.86130610281117
 20
59.95981876855269
 30
0.0
 40
0.2187499999999982
100
AcDbArc
 50
270.0000000000025
 51
0.0
  0
LINE
  5
20A
330
6C
100
AcDbEntity
  8
Visible (ANSI)
100
AcDbLine
 10
47.95505610281117
 20
65.76567333797277
 30
0.0
 11
47.95505610281117
 21
67.74106876855791
 31
0.0
  0
LINE
  5
20B
330
6C
100
AcDbEntity
  8
Visible (ANSI)
100
AcDbLine
 10
55.9550561028112
 20
65.76567333797273
 30
0.0
 11
55.9550561028112
 21
67.74106876855789
 31
0.0
  0
LINE
  5
20C
330
6C
100
AcDbEntity
  8
Visible (ANSI)
100
AcDbLine
 10
56.08005610281121
 20
67.74106876855789
 30
0.0
 11
56.0800561028112
 21
65.76567333797273
 31
0.0
  0
LINE
  5
20D
330
6C
100
AcDbEntity
  8
Visible (ANSI)
100
AcDbLine
 10
55.9550561028112
 20
67.74106876855789
 30
0.0
 11
56.08005610281121
 21
67.74106876855789
 31
0.0
  0
LINE
  5
20E
330
6C
100
AcDbEntity
  8
Visible (ANSI)
100
AcDbLine
 10
48.08005610281117
 20
67.74106876855791
 30
0.0
 11
48.08005610281117
 21
65.76567333797277
 31
0.0
  0
LINE
  5
20F
330
6C
100
AcDbEntity
  8
Visible (ANSI)
100
AcDbLine
 10
47.95505610281117
 20
67.74106876855791
 30
0.0
 11
48.08005610281117
 21
67.74106876855791
 31
0.0
  0
LINE
  5
210
330
6C
100
AcDbEntity
  8
Visible (ANSI)
100
AcDbLine
 10
48.70505610281117
 20
67.74106876855793
 30
0.0
 11
48.95505610281118
 21
67.49106876855794
 31
0.0
  0
LINE
  5
211
330
6C
100
AcDbEntity
  8
Visible (ANSI)
100
AcDbLine
 10
55.0800561028112
 20
67.49106876855794
 30
0.0
 11
55.3300561028112
 21
67.74106876855793
 31
0.0
  0
LINE
  5
212
330
6C
100
AcDbEntity
  8
Visible (ANSI)
100
AcDbLine
 10
48.70505610281117
 20
67.74106876855793
 30
0.0
 11
48.17380610281117
 21
67.74106876855793
 31
0.0
  0
LINE
  5
213
330
6C
100
AcDbEntity
  8
Visible (ANSI)
100
AcDbLine
 10
55.3300561028112
 20
67.74106876855793
 30
0.0
 11
55.8613061028112
 21
67.74106876855793
 31
0.0
  0
LINE
  5
214
330
6C
100
AcDbEntity
  8
Visible Narrow (ANSI)
100
AcDbLine
 10
48.17380610281117
 20
67.74106876855793
 30
0.0
 11
48.17380610281117
 21
65.74106876855798
 31
0.0
  0
LINE
  5
215
330
6C
100
AcDbEntity
  8
Visible (ANSI)
100
AcDbLine
 10
48.17380610281117
 20
67.74106876855793
 30
0.0
 11
48.08005610281118
 21
67.74106876855791
 31
0.0
  0
LINE
  5
216
330
6C
100
AcDbEntity
  8
Visible (ANSI)
100
AcDbLine
 10
55.8613061028112
 20
67.74106876855793
 30
0.0
 11
55.9550561028112
 21
67.74106876855789
 31
0.0
  0
LINE
  5
217
330
6C
100
AcDbEntity
  8
Visible Narrow (ANSI)
100
AcDbLine
 10
55.86130610281119
 20
65.74106876855793
 30
0.0
 11
55.8613061028112
 21
67.74106876855793
 31
0.0
  0
CIRCLE
  5
218
330
6C
100
AcDbEntity
  8
Visible (ANSI)
100
AcDbCircle
 10
52.01755610281114
 20
63.49106876855266
 30
0.0
 40
0.28125
  0
CIRCLE
  5
219
330
6C
100
AcDbEntity
  8
Visible (ANSI)
100
AcDbCircle
 10
50.08005610281115
 20
66.49106876855262
 30
0.0
 40
0.28125
  0
CIRCLE
  5
21A
330
6C
100
AcDbEntity
  8
Visible (ANSI)
100
AcDbCircle
 10
53.95505610281114
 20
66.49106876855262
 30
0.0
 40
0.28125
  0
ARC
  5
21B
330
6C
100
AcDbEntity
  8
Visible (ANSI)
100
AcDbCircle
 10
55.70505610281114
 20
67.36606876855262
 30
0.0
 40
0.1249999999999982
100
AcDbArc
 50
0.0
 51
90.0
  0
ARC
  5
21C
330
6C
100
AcDbEntity
  8
Visible (ANSI)
100
AcDbCircle
 10
48.33005610281114
 20
67.36606876855262
 30
0.0
 40
0.125
100
AcDbArc
 50
90.0
 51
180.0
  0
ARC
  5
21D
330
6C
100
AcDbEntity
  8
Visible (ANSI)
100
AcDbCircle
 10
48.33005610281111
 20
59.9909716050475
 30
0.0
 40
0.1249999999999735
100
AcDbArc
 50
180.0
 51
189.3624011371794
  0
ARC
  5
21E
330
6C
100
AcDbEntity
  8
Visible (ANSI)
100
AcDbCircle
 10
55.70505610281074
 20
59.99097160504755
 30
0.0
 40
0.1250000000004038
100
AcDbArc
 50
350.6375988628616
 51
0.0
  0
LINE
  5
21F
330
6C
100
AcDbEntity
  8
Visible (ANSI)
100
AcDbLine
 10
55.83005610281114
 20
67.36606876855262
 30
0.0
 11
55.83005610281114
 21
65.99117798532174
 31
0.0
  0
LINE
  5
220
330
6C
100
AcDbEntity
  8
Visible (ANSI)
100
AcDbLine
 10
48.33005610281114
 20
67.49106876855262
 30
0.0
 11
55.70505610281114
 21
67.49106876855262
 31
0.0
  0
LINE
  5
221
330
6C
100
AcDbEntity
  8
Visible (ANSI)
100
AcDbLine
 10
48.20505610281114
 20
65.99117798532174
 30
0.0
 11
48.20505610281114
 21
67.36606876855262
 31
0.0
  0
LINE
  5
222
330
6C
100
AcDbEntity
  8
Visible (ANSI)
100
AcDbLine
 10
55.83005610281114
 20
65.8364983769372
 30
0.0
 11
55.83005610281114
 21
65.99117798532174
 31
0.0
  0
LINE
  5
223
330
6C
100
AcDbEntity
  8
Visible Narrow (ANSI)
100
AcDbLine
 10
48.20505610281114
 20
65.99117798532174
 30
0.0
 11
55.83005610281114
 21
65.99117798532174
 31
0.0
  0
LINE
  5
224
330
6C
100
AcDbEntity
  8
Visible (ANSI)
100
AcDbLine
 10
48.20505610281114
 20
65.8364983769372
 30
0.0
 11
48.20505610281114
 21
65.99117798532174
 31
0.0
  0
LINE
  5
225
330
6C
100
AcDbEntity
  8
Visible Narrow (ANSI)
100
AcDbLine
 10
48.20505610281114
 20
65.8364983769372
 30
0.0
 11
55.83005610281114
 21
65.8364983769372
 31
0.0
  0
LINE
  5
226
330
6C
100
AcDbEntity
  8
Visible (ANSI)
100
AcDbLine
 10
55.83005610281114
 20
65.80315364901462
 30
0.0
 11
55.83005610281114
 21
65.8364983769372
 31
0.0
  0
LINE
  5
227
330
6C
100
AcDbEntity
  8
Visible (ANSI)
100
AcDbLine
 10
48.20505610281114
 20
65.8364983769372
 30
0.0
 11
48.20505610281114
 21
65.80315364901462
 31
0.0
  0
LINE
  5
228
330
6C
100
AcDbEntity
  8
Visible (ANSI)
100
AcDbLine
 10
55.83005610281114
 20
65.80315364901462
 30
0.0
 11
55.83005610281114
 21
65.74106876855267
 31
0.0
  0
LINE
  5
229
330
6C
100
AcDbEntity
  8
Visible (ANSI)
100
AcDbLine
 10
48.20505610281114
 20
65.80315364901462
 30
0.0
 11
48.20505610281114
 21
65.74106876855271
 31
0.0
  0
LINE
  5
22A
330
6C
100
AcDbEntity
  8
Visible Narrow (ANSI)
100
AcDbLine
 10
49.20505610281118
 20
65.73686238827838
 30
0.0
 11
54.83005610281121
 21
65.73686238827839
 31
0.0
  0
LINE
  5
22B
330
6C
100
AcDbEntity
  8
Visible Narrow (ANSI)
100
AcDbLine
 10
48.20505610281114
 20
65.80315364901462
 30
0.0
 11
55.83005610281114
 21
65.80315364901462
 31
0.0
  0
LINE
  5
22C
330
6C
100
AcDbEntity
  8
Visible (ANSI)
100
AcDbLine
 10
55.83005610281114
 20
59.9909716050475
 30
0.0
 11
55.83005610281114
 21
60.01316585546477
 31
0.0
  0
LINE
  5
22D
330
6C
100
AcDbEntity
  8
Visible (ANSI)
100
AcDbLine
 10
48.20505610281114
 20
60.0131658554647
 30
0.0
 11
48.20505610281114
 21
59.9909716050475
 31
0.0
  0
MTEXT
  5
22E
330
6C
100
AcDbEntity
  8
Symbol (ANSI)
100
AcDbMText
 10
49.4953648927389
 20
56.64043409390354
 30
0.0
 40
0.8400000103815333
 41
0.0
 71
     7
 72
     1
  1
TOP VIEW
  7
Text Style168
 73
     1
 44
1.0
  0
LINE
  5
22F
330
6C
100
AcDbEntity
  8
Symbol (ANSI)
370
    30
100
AcDbLine
 10
49.49603689446753
 20
56.46913263227931
 30
0.0
 11
54.79606923604166
 21
56.46913263227931
 31
0.0
  0
ELLIPSE
  5
230
330
6C
100
AcDbEntity
  8
Visible (ANSI)
100
AcDbEllipse
 10
102.1183078001284
 20
64.25265074275701
 30
0.0
 11
-0.2812499999999999
 21
0.0000000000000183
 31
0.0
210
0.0
220
0.0
230
1.0
 40
0.5758617009853082
 41
0.0
 42
6.283185307179586
  0
ELLIPSE
  5
231
330
6C
100
AcDbEntity
  8
Visible (ANSI)
100
AcDbEllipse
 10
102.1183078001284
 20
64.15045735215169
 30
0.0
 11
0.2812499999999997
 21
-0.0000000000000009
 31
0.0
210
0.0
220
0.0
230
1.0
 40
0.5758617009853185
 41
0.320970292825655
 42
2.820622360764149
  0
ELLIPSE
  5
232
330
6C
100
AcDbEntity
  8
Visible (ANSI)
100
AcDbEllipse
 10
104.68156988193
 20
62.77656628026001
 30
0.0
 11
-0.2812499999999999
 21
0.0000000000000183
 31
0.0
210
0.0
220
0.0
230
1.0
 40
0.5758617009853082
 41
0.0
 42
6.283185307179586
  0
ELLIPSE
  5
233
330
6C
100
AcDbEntity
  8
Visible (ANSI)
100
AcDbEllipse
 10
104.68156988193
 20
62.67437288965469
 30
0.0
 11
0.2812499999999996
 21
-0.0000000000000009
 31
0.0
210
0.0
220
0.0
230
1.0
 40
0.5758617009853184
 41
0.3209702928256544
 42
2.820622360764147
  0
ELLIPSE
  5
234
330
6C
100
AcDbEntity
  8
Visible (ANSI)
100
AcDbEllipse
 10
100.0853758042171
 20
64.35444967120492
 30
0.0
 11
-0.2812499999999999
 21
0.0000000000000158
 31
0.0
210
0.0
220
0.0
230
1.0
 40
0.5758617009853113
 41
0.0
 42
6.283185307179586
  0
ELLIPSE
  5
235
330
6C
100
AcDbEntity
  8
Visible (ANSI)
100
AcDbEllipse
 10
100.0853758042171
 20
64.25225628059959
 30
0.0
 11
0.2812499999999999
 21
0.0
 31
0.0
210
0.0
220
0.0
230
1.0
 40
0.5758617009853118
 41
0.3209702928256534
 42
2.82062236076414
  0
ELLIPSE
  5
236
330
6C
100
AcDbEntity
  8
Visible (ANSI)
100
AcDbEllipse
 10
96.54984189828487
 20
62.31847110224293
 30
0.0
 11
-0.2812499999999999
 21
0.0000000000000158
 31
0.0
210
0.0
220
0.0
230
1.0
 40
0.5758617009853113
 41
0.0
 42
6.283185307179586
  0
ELLIPSE
  5
237
330
6C
100
AcDbEntity
  8
Visible (ANSI)
100
AcDbEllipse
 10
96.54984189828487
 20
62.21627771163762
 30
0.0
 11
0.281249999999996
 21
0.0
 31
0.0
210
0.0
220
0.0
230
1.0
 40
0.5758617009853118
 41
0.3209702928255961
 42
2.82062236076414
  0
ELLIPSE
  5
238
330
6C
100
AcDbEntity
  8
Visible (ANSI)
100
AcDbEllipse
 10
104.858346577227
 20
61.60587860310705
 30
0.0
 11
-0.2812499999999999
 21
0.0000000000000178
 31
0.0
210
0.0
220
0.0
230
1.0
 40
0.5758617009853124
 41
0.0
 42
6.283185307179586
  0
ELLIPSE
  5
239
330
6C
100
AcDbEntity
  8
Visible (ANSI)
100
AcDbEllipse
 10
104.858346577227
 20
61.50368521250175
 30
0.0
 11
0.2812500000000019
 21
0.0
 31
0.0
210
0.0
220
0.0
230
1.0
 40
0.5758617009853118
 41
0.320970292825653
 42
2.82062236076414
  0
ELLIPSE
  5
23A
330
6C
100
AcDbEntity
  8
Visible (ANSI)
100
AcDbEllipse
 10
101.3228126712948
 20
59.56990003414509
 30
0.0
 11
-0.2812499999999999
 21
0.0000000000000178
 31
0.0
210
0.0
220
0.0
230
1.0
 40
0.5758617009853124
 41
0.0
 42
6.283185307179586
  0
ELLIPSE
  5
23B
330
6C
100
AcDbEntity
  8
Visible (ANSI)
100
AcDbEllipse
 10
101.3228126712948
 20
59.46770664353977
 30
0.0
 11
0.2812500000000019
 21
0.0
 31
0.0
210
0.0
220
0.0
230
1.0
 40
0.5758617009853119
 41
0.3209702928256535
 42
2.82062236076414
  0
SPLINE
  5
23C
330
6C
100
AcDbEntity
  8
Visible (ANSI)
100
AcDbSpline
210
0.0
220
0.0
230
1.0
 70
     8
 71
     3
 72
     8
 73
     4
 74
     0
 42
0.0000000001
 43
0.0000000001
 40
0.0
 40
0.0
 40
0.0
 40
0.0
 40
0.7873318718203325
 40
0.7873318718203325
 40
0.7873318718203325
 40
0.7873318718203325
 10
106.6040164432811
 20
47.51423910146117
 30
0.0
 10
106.6014058649633
 20
47.46580070317465
 30
0.0
 10
106.5817966974511
 20
47.42760017237105
 30
0.0
 10
106.5506153880995
 20
47.40930386176731
 30
0.0
  0
SPLINE
  5
23D
330
6C
100
AcDbEntity
  8
Visible (ANSI)
100
AcDbSpline
210
0.0
220
0.0
230
1.0
 70
     8
 71
     3
 72
     8
 73
     4
 74
     0
 42
0.0000000001
 43
0.0000000001
 40
0.0
 40
0.0
 40
0.0
 40
0.0
 40
0.2101164220635832
 40
0.2101164220635832
 40
0.2101164220635832
 40
0.2101164220635832
 10
101.0797447152604
 20
50.77180481179937
 30
0.0
 10
101.0804414041603
 20
50.76603548794627
 30
0.0
 10
101.0806049838979
 20
50.75998450391764
 30
0.0
 10
101.0802884887134
 20
50.75377942540349
 30
0.0
  0
SPLINE
  5
23E
330
6C
100
AcDbEntity
  8
Visible (ANSI)
100
AcDbSpline
210
0.0
220
0.0
230
1.0
 70
     8
 71
     3
 72
     8
 73
     4
 74
     0
 42
0.0000000001
 43
0.0000000001
 40
0.0
 40
0.0
 40
0.0
 40
0.0
 40
0.7825528965236108
 40
0.7825528965236108
 40
0.7825528965236108
 40
0.7825528965236108
 10
100.9471621937879
 20
50.77180481179937
 30
0.0
 10
100.9445674612523
 20
50.75031767125182
 30
0.0
 10
100.9493674797955
 20
50.72492362563846
 30
0.0
 10
100.9588224581921
 20
50.70221282043701
 30
0.0
  0
LINE
  5
23F
330
6C
100
AcDbEntity
  8
Visible Narrow (ANSI)
100
AcDbLine
 10
102.498657306662
 20
45.15012000589134
 30
0.0
 11
106.6040164432811
 21
47.51423910146117
 31
0.0
  0
SPLINE
  5
240
330
6C
100
AcDbEntity
  8
Visible (ANSI)
100
AcDbSpline
210
0.0
220
0.0
230
1.0
 70
     8
 71
     3
 72
    11
 73
     7
 74
     0
 42
0.0000000001
 43
0.0000000001
 40
0.0
 40
0.0
 40
0.0
 40
0.0
 40
0.9120227246349417
 40
0.9120227246349417
 40
0.9120227246349417
 40
1.570796326794896
 40
1.570796326794896
 40
1.570796326794896
 40
1.570796326794896
 10
102.3613757561624
 20
45.07037450993164
 30
0.0
 10
102.4050323568059
 20
45.04135629485265
 30
0.0
 10
102.4481678297219
 20
45.03900976795441
 30
0.0
 10
102.4735861447726
 20
45.06348561761797
 30
0.0
 10
102.4919463396608
 20
45.08116504951507
 30
0.0
 10
102.5010894873056
 20
45.11224925921374
 30
0.0
 10
102.498657306662
 20
45.15012000589134
 30
0.0
  0
LINE
  5
241
330
6C
100
AcDbEntity
  8
Visible Narrow (ANSI)
100
AcDbLine
 10
102.3613757561624
 20
45.17256790053695
 30
0.0
 11
102.4103112985645
 21
45.20074800522322
 31
0.0
  0
LINE
  5
242
330
6C
100
AcDbEntity
  8
Visible (ANSI)
100
AcDbLine
 10
102.3613757561624
 20
45.17256790053695
 30
0.0
 11
102.3613757561624
 21
45.07037450993164
 31
0.0
  0
LINE
  5
243
330
6C
100
AcDbEntity
  8
Visible (ANSI)
100
AcDbLine
 10
102.4424497953571
 20
45.1824877589595
 30
0.0
 11
102.498657306662
 21
45.15012000589134
 31
0.0
  0
LINE
  5
244
330
6C
100
AcDbEntity
  8
Visible (ANSI)
100
AcDbLine
 10
102.4102689590136
 20
45.20101947011538
 30
0.0
 11
102.4424497953571
 21
45.1824877589595
 31
0.0
  0
SPLINE
  5
245
330
6C
100
AcDbEntity
  8
Visible (ANSI)
100
AcDbSpline
210
0.0
220
0.0
230
1.0
 70
     8
 71
     3
 72
    11
 73
     7
 74
     0
 42
0.0000000001
 43
0.0000000001
 40
0.0
 40
0.0
 40
0.0
 40
0.0
 40
1.127197082403419
 40
1.127197082403419
 40
1.127197082403419
 40
1.570796326794896
 40
1.570796326794896
 40
1.570796326794896
 40
1.570796326794896
 10
102.4102689590136
 20
45.20101947011538
 30
0.0
 10
102.4144305509725
 20
45.17461794860678
 30
0.0
 10
102.403249652367
 20
45.15778075931996
 30
0.0
 10
102.3849142272746
 20
45.16077251789598
 30
0.0
 10
102.3776984698498
 20
45.16194990015186
 30
0.0
 10
102.3695402465504
 20
45.16598003592455
 30
0.0
 10
102.3613757561624
 20
45.17256790053695
 30
0.0
  0
LINE
  5
246
330
6C
100
AcDbEntity
  8
Visible Narrow (ANSI)
100
AcDbLine
 10
101.0797447152604
 20
50.77180481179937
 30
0.0
 11
101.1094095131422
 21
50.75472199083176
 31
0.0
  0
SPLINE
  5
247
330
6C
100
AcDbEntity
  8
Visible (ANSI)
100
AcDbSpline
210
0.0
220
0.0
230
1.0
 70
     8
 71
     3
 72
    11
 73
     7
 74
     0
 42
0.0000000001
 43
0.0000000001
 40
0.0
 40
0.0
 40
0.0
 40
0.0
 40
0.9120227246349479
 40
0.9120227246349479
 40
0.9120227246349479
 40
1.011008818411212
 40
1.011008818411212
 40
1.011008818411212
 40
1.011008818411212
 10
96.75341470952039
 20
48.45858518045354
 30
0.0
 10
96.75678188150506
 20
48.40615596735876
 30
0.0
 10
96.78295817364286
 20
48.34119437623805
 30
0.0
 10
96.8235090911129
 20
48.28843932291362
 30
0.0
 10
96.82791027192887
 20
48.28271357012864
 30
0.0
 10
96.83246956812924
 20
48.2771373647385
 30
0.0
 10
96.83716357588911
 20
48.27173343401623
 30
0.0
  0
SPLINE
  5
248
330
6C
100
AcDbEntity
  8
Visible (ANSI)
100
AcDbSpline
210
0.0
220
0.0
230
1.0
 70
     8
 71
     3
 72
     8
 73
     4
 74
     0
 42
0.0000000001
 43
0.0000000001
 40
0.0
 40
0.0
 40
0.0
 40
0.0
 40
0.9612357747683271
 40
0.9612357747683271
 40
0.9612357747683271
 40
0.9612357747683271
 10
96.84180305716871
 20
48.40768571622952
 30
0.0
 10
96.84535192287574
 20
48.38517138632346
 30
0.0
 10
96.86005800878259
 20
48.35676230760787
 30
0.0
 10
96.88084362541619
 20
48.33467207942773
 30
0.0
  0
LINE
  5
249
330
6C
100
AcDbEntity
  8
Visible (ANSI)
100
AcDbLine
 10
96.80962222082527
 20
48.42621742738538
 30
0.0
 11
96.84180305716871
 21
48.40768571622952
 31
0.0
  0
LINE
  5
24A
330
6C
100
AcDbEntity
  8
Visible (ANSI)
100
AcDbLine
 10
96.75341470952039
 20
48.45858518045354
 30
0.0
 11
96.80962222082527
 21
48.42621742738538
 31
0.0
  0
LINE
  5
24B
330
6C
100
AcDbEntity
  8
Visible Narrow (ANSI)
100
AcDbLine
 10
96.84180305716871
 20
48.40768571622952
 30
0.0
 11
100.9471621937879
 21
50.77180481179937
 31
0.0
  0
LINE
  5
24C
330
6C
100
AcDbEntity
  8
Visible (ANSI)
100
AcDbLine
 10
102.4618614411572
 20
45.05465071283666
 30
0.0
 11
106.5506683962273
 21
47.40923804098456
 31
0.0
  0
LINE
  5
24D
330
6C
100
AcDbEntity
  8
Visible (ANSI)
100
AcDbLine
 10
102.3613757561624
 20
45.17256790053695
 30
0.0
 11
102.3392786692503
 21
45.18529276659299
 31
0.0
  0
LINE
  5
24E
330
6C
100
AcDbEntity
  8
Visible (ANSI)
100
AcDbLine
 10
102.282733174195
 20
45.11566176095328
 30
0.0
 11
102.3613757561624
 21
45.07037450993164
 31
0.0
  0
ELLIPSE
  5
24F
330
6C
100
AcDbEntity
  8
Visible (ANSI)
100
AcDbEllipse
 10
101.0134534545242
 20
50.73363021363134
 30
0.0
 11
0.09375
 21
-0.0000000000000055
 31
0.0
210
0.0
220
0.0
230
1.0
 40
0.5758617009853118
 41
0.7853981633979439
 42
2.356194490192873
  0
ELLIPSE
  5
250
330
6C
100
AcDbEntity
  8
Visible (ANSI)
100
AcDbEllipse
 10
106.4493368348966
 20
47.60331316385324
 30
0.0
 11
0.2187499999999912
 21
0.0
 31
0.0
210
0.0
220
0.0
230
1.0
 40
0.5758617009853119
 41
5.497787143782258
 42
6.283185307179586
  0
LINE
  5
251
330
6C
100
AcDbEntity
  8
Visible (ANSI)
100
AcDbLine
 10
96.75341470952039
 20
48.45858518045354
 30
0.0
 11
95.3565992050326
 21
62.01238400812343
 31
0.0
  0
LINE
  5
252
330
6C
100
AcDbEntity
  8
Visible (ANSI)
100
AcDbLine
 10
102.4102689590136
 20
45.20101947011538
 30
0.0
 11
101.0134534545258
 21
58.75481829778523
 31
0.0
  0
LINE
  5
253
330
6C
100
AcDbEntity
  8
Visible (ANSI)
100
AcDbLine
 10
101.1018418021742
 20
58.70391883356119
 30
0.0
 11
102.498657306662
 21
45.15012000589134
 31
0.0
  0
LINE
  5
254
330
6C
100
AcDbEntity
  8
Visible (ANSI)
100
AcDbLine
 10
101.0134534545258
 20
58.75481829778523
 30
0.0
 11
101.1018418021742
 21
58.70391883356119
 31
0.0
  0
LINE
  5
255
330
6C
100
AcDbEntity
  8
Visible (ANSI)
100
AcDbLine
 10
95.44498755268094
 20
61.9614845438994
 30
0.0
 11
96.84180305716871
 21
48.40768571622952
 31
0.0
  0
LINE
  5
256
330
6C
100
AcDbEntity
  8
Visible (ANSI)
100
AcDbLine
 10
95.3565992050326
 20
62.01238400812343
 30
0.0
 11
95.44498755268094
 21
61.9614845438994
 31
0.0
  0
ELLIPSE
  5
257
330
6C
100
AcDbEntity
  8
Visible (ANSI)
100
AcDbEllipse
 10
106.4493368348965
 20
61.96148454390034
 30
0.0
 11
0.2187499999999999
 21
0.0
 31
0.0
210
0.0
220
0.0
230
1.0
 40
0.5758617009853118
 41
5.497787143782266
 42
7.068583470577141
  0
ELLIPSE
  5
258
330
6C
100
AcDbEntity
  8
Visible (ANSI)
100
AcDbEllipse
 10
101.0134534545242
 20
65.09180159367843
 30
0.0
 11
-0.0937499999999996
 21
0.0
 31
0.0
210
0.0
220
0.0
230
1.0
 40
0.5758617009853118
 41
4.544940901164574
 42
4.87983705960395
  0
LINE
  5
259
330
6C
100
AcDbEntity
  8
Visible (ANSI)
100
AcDbLine
 10
95.8869292909226
 20
61.78363226573318
 30
0.0
 11
95.51127881341718
 21
61.99995498868535
 31
0.0
  0
LINE
  5
25A
330
6C
100
AcDbEntity
  8
Visible (ANSI)
100
AcDbLine
 10
100.9978284545244
 20
64.31960763785784
 30
0.0
 11
96.59403607210915
 21
61.78363226573327
 31
0.0
  0
LINE
  5
25B
330
6C
100
AcDbEntity
  8
Visible (ANSI)
100
AcDbLine
 10
95.8869292909226
 20
61.88582565633851
 30
0.0
 11
95.51127881341718
 21
62.10214837929066
 31
0.0
  0
LINE
  5
25C
330
6C
100
AcDbEntity
  8
Visible (ANSI)
100
AcDbLine
 10
100.9471621937896
 20
58.97183132951256
 30
0.0
 11
100.5715117162842
 21
59.18815405246471
 31
0.0
  0
LINE
  5
25D
330
6C
100
AcDbEntity
  8
Visible (ANSI)
100
AcDbLine
 10
100.5715117162842
 20
59.08596066185941
 30
0.0
 11
100.9471621937896
 21
58.86963793890726
 31
0.0
  0
LINE
  5
25E
330
6C
100
AcDbEntity
  8
Visible (ANSI)
100
AcDbLine
 10
104.9021982537495
 20
62.08922628215685
 30
0.0
 11
101.0290784545244
 21
64.31960763785785
 31
0.0
  0
LINE
  5
25F
330
6C
100
AcDbEntity
  8
Visible (ANSI)
100
AcDbLine
 10
104.9753040986993
 20
62.14932081653741
 30
0.0
 11
101.0290784545244
 21
64.42180102846316
 31
0.0
  0
LINE
  5
260
330
6C
100
AcDbEntity
  8
Visible (ANSI)
100
AcDbLine
 10
100.9978284545244
 20
64.42180102846316
 30
0.0
 11
96.59403607210915
 21
61.88582565633858
 31
0.0
  0
LINE
  5
261
330
6C
100
AcDbEntity
  8
Visible (ANSI)
100
AcDbLine
 10
100.5715117162841
 20
59.59534976625705
 30
0.0
 11
104.9753040986993
 21
62.13132513838161
 31
0.0
  0
ELLIPSE
  5
262
330
6C
100
AcDbEntity
  8
Visible (ANSI)
100
AcDbEllipse
 10
101.0134534545242
 20
65.09180159367843
 30
0.0
 11
0.2187499999999969
 21
0.0
 31
0.0
210
0.0
220
0.0
230
1.0
 40
0.5758617009853115
 41
1.499306876909287
 42
1.642285776680328
  0
LINE
  5
263
330
6C
100
AcDbEntity
  8
Visible Narrow (ANSI)
100
AcDbLine
 10
106.6040164432811
 20
47.51423910146117
 30
0.0
 11
106.6040164432811
 21
61.87241048150827
 31
0.0
  0
LINE
  5
264
330
6C
100
AcDbEntity
  8
Visible Narrow (ANSI)
100
AcDbLine
 10
101.0797447152604
 20
64.29043087876785
 30
0.0
 11
101.0797447152604
 21
59.88802168554452
 31
0.0
  0
LINE
  5
265
330
6C
100
AcDbEntity
  8
Visible Narrow (ANSI)
100
AcDbLine
 10
101.0797447152604
 20
59.54918554179962
 30
0.0
 11
101.0797447152604
 21
59.48842113588523
 31
0.0
  0
LINE
  5
266
330
6C
100
AcDbEntity
  8
Visible Narrow (ANSI)
100
AcDbLine
 10
101.0797447152604
 20
58.11157056095651
 30
0.0
 11
101.0797447152604
 21
50.77180481179937
 31
0.0
  0
LINE
  5
267
330
6C
100
AcDbEntity
  8
Visible Narrow (ANSI)
100
AcDbLine
 10
100.9471621937879
 20
50.77180481179937
 30
0.0
 11
100.9471621937879
 21
58.8696379389082
 31
0.0
  0
LINE
  5
268
330
6C
100
AcDbEntity
  8
Visible Narrow (ANSI)
100
AcDbLine
 10
100.9471621937879
 20
59.81167248920844
 30
0.0
 11
100.9471621937879
 21
64.29043087876755
 31
0.0
  0
LINE
  5
269
330
6C
100
AcDbEntity
  8
Visible (ANSI)
100
AcDbLine
 10
106.6680868348966
 20
61.96148454390034
 30
0.0
 11
106.6680868348966
 21
47.60331316385324
 31
0.0
  0
LINE
  5
26A
330
6C
100
AcDbEntity
  8
Visible (ANSI)
100
AcDbLine
 10
96.59403607210915
 20
61.88582565633858
 30
0.0
 11
95.8869292909226
 21
61.88582565633851
 31
0.0
  0
LINE
  5
26B
330
6C
100
AcDbEntity
  8
Visible (ANSI)
100
AcDbLine
 10
95.8869292909226
 20
61.88582565633851
 30
0.0
 11
95.8869292909226
 21
61.78363226573318
 31
0.0
  0
LINE
  5
26C
330
6C
100
AcDbEntity
  8
Visible (ANSI)
100
AcDbLine
 10
95.8869292909226
 20
61.78363226573318
 30
0.0
 11
96.59403607210915
 21
61.78363226573327
 31
0.0
  0
LINE
  5
26D
330
6C
100
AcDbEntity
  8
Visible (ANSI)
100
AcDbLine
 10
96.59403607210915
 20
61.78363226573327
 30
0.0
 11
96.59403607210915
 21
61.88582565633858
 31
0.0
  0
LINE
  5
26E
330
6C
100
AcDbEntity
  8
Visible (ANSI)
100
AcDbLine
 10
100.5715117162842
 20
59.18815405246471
 30
0.0
 11
100.5715117162841
 21
59.59534976625705
 31
0.0
  0
LINE
  5
26F
330
6C
100
AcDbEntity
  8
Visible (ANSI)
100
AcDbLine
 10
100.5715117162842
 20
59.08596066185941
 30
0.0
 11
100.5715117162842
 21
59.18815405246471
 31
0.0
  0
ELLIPSE
  5
270
330
6C
100
AcDbEntity
  8
Visible (ANSI)
100
AcDbEllipse
 10
95.51127881341718
 20
61.92330994573136
 30
0.0
 11
-0.0467842698360317
 21
0.0812421971385993
 31
0.0
210
0.0
220
0.0
230
0.9999999999999998
 40
0.5780931159158105
 41
5.499720852205022
 42
7.070517178999979
  0
ELLIPSE
  5
271
330
6C
100
AcDbEntity
  8
Visible (ANSI)
100
AcDbEllipse
 10
95.51127881341718
 20
61.92330994573136
 30
0.0
 11
-0.1091632962840841
 21
0.1895651266567494
 31
0.0
210
0.0
220
0.0
230
1.0
 40
0.5780931159158103
 41
5.499720852205022
 42
7.070517178999891
  0
ELLIPSE
  5
272
330
6C
100
AcDbEntity
  8
Visible (ANSI)
100
AcDbEllipse
 10
100.9471621937896
 20
58.79299289595325
 30
0.0
 11
-0.1091632962841041
 21
0.1895651266567572
 31
0.0
210
0.0
220
0.0
230
1.0
 40
0.578093115915817
 41
3.928924525409874
 42
5.499720852204728
  0
ELLIPSE
  5
273
330
6C
100
AcDbEntity
  8
Visible (ANSI)
100
AcDbEllipse
 10
100.9471621937896
 20
58.79299289595325
 30
0.0
 11
0.0467842698360394
 21
-0.0812421971386239
 31
0.0
210
0.0
220
0.0
230
0.9999999999999998
 40
0.5780931159158104
 41
0.7873318718207126
 42
2.358128198615697
  0
LINE
  5
274
330
6C
100
AcDbEntity
  8
Visible Narrow (ANSI)
100
AcDbLine
 10
106.4337118348966
 20
62.14932081653754
 30
0.0
 11
101.0290784545242
 21
65.26164218815985
 31
0.0
  0
LINE
  5
275
330
6C
100
AcDbEntity
  8
Visible Narrow (ANSI)
100
AcDbLine
 10
100.9978284545242
 20
65.26164218815984
 30
0.0
 11
95.51127881341718
 21
62.10214837929066
 31
0.0
  0
LINE
  5
276
330
6C
100
AcDbEntity
  8
Visible Narrow (ANSI)
100
AcDbLine
 10
95.51153568639328
 20
61.9998070653764
 30
0.0
 11
95.44498755268094
 21
61.9614845438994
 31
0.0
  0
LINE
  5
277
330
6C
100
AcDbEntity
  8
Visible Narrow (ANSI)
100
AcDbLine
 10
100.9471621937896
 20
58.97183132951256
 30
0.0
 11
106.4337118348966
 21
62.13132513838174
 31
0.0
  0
LINE
  5
278
330
6C
100
AcDbEntity
  8
Visible Narrow (ANSI)
100
AcDbLine
 10
106.6040164432811
 20
61.87241048150827
 30
0.0
 11
101.1018418021742
 21
58.70391883356119
 31
0.0
  0
LINE
  5
279
330
6C
100
AcDbEntity
  8
Visible (ANSI)
100
AcDbLine
 10
101.1304484857616
 20
65.27685672412331
 30
0.0
 11
106.5506683962272
 21
62.15555966676904
 31
0.0
  0
LINE
  5
27A
330
6C
100
AcDbEntity
  8
Visible (ANSI)
100
AcDbLine
 10
95.40211551713309
 20
62.11287507238813
 30
0.0
 11
100.8964584232867
 21
65.27685672412328
 31
0.0
  0
SPLINE
  5
27B
330
6C
100
AcDbEntity
  8
Visible (ANSI)
100
AcDbSpline
210
0.0
220
0.0
230
1.0
 70
     8
 71
     3
 72
    11
 73
     7
 74
     0
 42
0.0000000001
 43
0.0000000001
 40
0.0
 40
0.0
 40
0.0
 40
0.0
 40
0.9120227246349074
 40
0.9120227246349074
 40
0.9120227246349074
 40
1.570796326794894
 40
1.570796326794894
 40
1.570796326794894
 40
1.570796326794894
 10
106.6040164432811
 20
62.05055860629243
 30
0.0
 10
106.6009924240136
 20
62.10666826165299
 30
0.0
 10
106.5751592845931
 20
62.14904049758079
 30
0.0
 10
106.5349515198403
 20
62.16265060332264
 30
0.0
 10
106.5059085877888
 20
62.17248147501384
 30
0.0
 10
106.4698624298945
 20
62.16762283403776
 30
0.0
 10
106.4337118348966
 20
62.14932081653754
 30
0.0
  0
SPLINE
  5
27C
330
6C
100
AcDbEntity
  8
Visible (ANSI)
100
AcDbSpline
210
0.0
220
0.0
230
1.0
 70
     8
 71
     3
 72
     8
 73
     4
 74
     0
 42
0.0000000001
 43
0.0000000001
 40
0.0
 40
0.0
 40
0.0
 40
0.0
 40
0.7834644549744139
 40
0.7834644549744139
 40
0.7834644549744139
 40
0.7834644549744139
 10
101.0290784545242
 20
65.26164218815985
 30
0.0
 10
101.0668760245349
 20
65.28640025636331
 30
0.0
 10
101.1042890280389
 20
65.29147593690807
 30
0.0
 10
101.1304163954539
 20
65.27677370399468
 30
0.0
  0
LINE
  5
27D
330
6C
100
AcDbEntity
  8
Visible (ANSI)
100
AcDbLine
 10
101.0290784545244
 20
64.42180102846316
 30
0.0
 11
101.0290784545242
 21
65.26164218815985
 31
0.0
  0
LINE
  5
27E
330
6C
100
AcDbEntity
  8
Visible (ANSI)
100
AcDbLine
 10
101.0290784545244
 20
64.31960763785785
 30
0.0
 11
101.0290784545244
 21
64.42180102846316
 31
0.0
  0
LINE
  5
27F
330
6C
100
AcDbEntity
  8
Visible (ANSI)
100
AcDbLine
 10
106.4337118348966
 20
62.13132513838174
 30
0.0
 11
106.4337118348966
 21
62.14932081653754
 31
0.0
  0
SPLINE
  5
280
330
6C
100
AcDbEntity
  8
Visible (ANSI)
100
AcDbSpline
210
0.0
220
0.0
230
1.0
 70
    24
 71
     3
 72
     8
 73
     4
 74
     0
 42
0.0000000001
 43
0.0000000001
 40
-0.3175000000000004
 40
-0.3175000000000004
 40
-0.3175000000000004
 40
-0.3175000000000004
 40
-0.1275259911872294
 40
-0.1275259911872294
 40
-0.1275259911872294
 40
-0.1275259911872294
 10
106.6040164432811
 20
62.05055860629243
 30
0.0
 10
106.5863875837167
 20
62.04040682123724
 30
0.0
 10
106.5687587241523
 20
62.03025503618206
 30
0.0
 10
106.5511298645879
 20
62.02010325112686
 30
0.0
  0
LINE
  5
281
330
6C
100
AcDbEntity
  8
Visible (ANSI)
100
AcDbLine
 10
106.4337118348966
 20
62.14932081653754
 30
0.0
 11
104.9753040986993
 21
62.14932081653741
 31
0.0
  0
LINE
  5
282
330
6C
100
AcDbEntity
  8
Visible (ANSI)
100
AcDbLine
 10
104.9753040986993
 20
62.13132513838161
 30
0.0
 11
104.9753040986993
 21
62.14932081653741
 31
0.0
  0
SPLINE
  5
283
330
6C
100
AcDbEntity
  8
Visible (ANSI)
100
AcDbSpline
210
0.0
220
0.0
230
1.0
 70
     8
 71
     3
 72
    11
 73
     7
 74
     0
 42
0.0000000001
 43
0.0000000001
 40
0.7873318718202912
 40
0.7873318718202912
 40
0.7873318718202912
 40
0.7873318718202912
 40
0.9120227246350472
 40
0.9120227246350472
 40
0.9120227246350472
 40
1.570796326794894
 40
1.570796326794894
 40
1.570796326794894
 40
1.570796326794894
 10
100.8965114314145
 20
65.27679090334054
 30
0.0
 10
100.9006227772106
 20
65.27921234609532
 30
0.0
 10
100.9050243696955
 20
65.28113456112835
 30
0.0
 10
100.9096946539757
 20
65.28251915182571
 30
0.0
 10
100.9343689578954
 20
65.28983429788997
 30
0.0
 10
100.966046487658
 20
65.28245993128698
 30
0.0
 10
100.9978284545242
 20
65.26164218815984
 30
0.0
  0
LINE
  5
284
330
6C
100
AcDbEntity
  8
Visible (ANSI)
100
AcDbLine
 10
100.9978284545242
 20
65.26164218815984
 30
0.0
 11
100.9978284545244
 21
64.42180102846316
 31
0.0
  0
LINE
  5
285
330
6C
100
AcDbEntity
  8
Visible (ANSI)
100
AcDbLine
 10
100.9978284545244
 20
64.31960763785784
 30
0.0
 11
100.9978284545244
 21
64.42180102846316
 31
0.0
  0
SPLINE
  5
286
330
6C
100
AcDbEntity
  8
Visible (ANSI)
100
AcDbSpline
210
0.0
220
0.0
230
1.0
 70
     8
 71
     3
 72
    11
 73
     7
 74
     0
 42
0.0000000001
 43
0.0000000001
 40
0.0
 40
0.0
 40
0.0
 40
0.0
 40
0.9120227246350001
 40
0.9120227246350001
 40
0.9120227246350001
 40
1.570796326794894
 40
1.570796326794894
 40
1.570796326794894
 40
1.570796326794894
 10
106.4337118348966
 20
62.13132513838174
 30
0.0
 10
106.4837596267921
 20
62.10598736556855
 30
0.0
 10
106.5332862909603
 20
62.05457809957364
 30
0.0
 10
106.5650957972632
 20
61.99675172234687
 30
0.0
 10
106.5880724868609
 20
61.95498248809805
 30
0.0
 10
106.6018321292153
 20
61.91042396505499
 30
0.0
 10
106.6040164432811
 20
61.87241048150829
 30
0.0
  0
LINE
  5
287
330
6C
100
AcDbEntity
  8
Visible (ANSI)
100
AcDbLine
 10
104.9753040986993
 20
62.13132513838161
 30
0.0
 11
106.4337118348966
 21
62.13132513838174
 31
0.0
  0
ELLIPSE
  5
288
330
6C
100
AcDbEntity
  8
Visible (ANSI)
100
AcDbEllipse
 10
101.2344243236457
 20
47.75611017206425
 30
0.0
 11
0.28125
 21
-0.0000000000000168
 31
0.0
210
0.0
220
0.0
230
1.0
 40
0.5758617009853113
 41
0.0
 42
6.283185307179586
  0
ELLIPSE
  5
289
330
6C
100
AcDbEntity
  8
Visible (ANSI)
100
AcDbEllipse
 10
101.2344243236457
 20
47.65391678145892
 30
0.0
 11
0.28125
 21
-0.0000000000000001
 31
0.0
210
0.0
220
0.0
230
1.0
 40
0.5758617009853114
 41
0.3209702928256544
 42
2.82062236076414
  0
ELLIPSE
  5
28A
330
6C
100
AcDbEntity
  8
Visible (ANSI)
100
AcDbEllipse
 10
97.74308459153729
 20
47.22137446192819
 30
0.0
 11
0.28125
 21
-0.0000000000000168
 31
0.0
210
0.0
220
0.0
230
1.0
 40
0.5758617009853113
 41
0.0
 42
6.283185307179586
  0
ELLIPSE
  5
28B
330
6C
100
AcDbEntity
  8
Visible (ANSI)
100
AcDbEllipse
 10
97.74308459153729
 20
47.11918107132286
 30
0.0
 11
0.2812499999999999
 21
0.0
 31
0.0
210
0.0
220
0.0
230
1.0
 40
0.5758617009853114
 41
0.3209702928256531
 42
2.820622360764139
  0
ELLIPSE
  5
28C
330
6C
100
AcDbEntity
  8
Visible (ANSI)
100
AcDbEllipse
 10
100.4831233686356
 20
45.64349107098314
 30
0.0
 11
0.28125
 21
-0.0000000000000168
 31
0.0
210
0.0
220
0.0
230
1.0
 40
0.5758617009853113
 41
0.0
 42
6.283185307179586
  0
ELLIPSE
  5
28D
330
6C
100
AcDbEntity
  8
Visible (ANSI)
100
AcDbEllipse
 10
100.4831233686356
 20
45.54129768037781
 30
0.0
 11
0.28125
 21
-0.0000000000000001
 31
0.0
210
0.0
220
0.0
230
1.0
 40
0.5758617009853114
 41
0.3209702928256544
 42
2.82062236076414
  0
ELLIPSE
  5
28E
330
6C
100
AcDbEntity
  8
Visible (ANSI)
100
AcDbEllipse
 10
101.101841802174
 20
44.5746023222783
 30
0.0
 11
-0.1249999999999982
 21
0.0000000000000075
 31
0.0
210
0.0
220
0.0
230
1.0
 40
0.5758617009853114
 41
0.7853981633978862
 42
2.356194490192779
  0
LINE
  5
28F
330
6C
100
AcDbEntity
  8
Visible Narrow (ANSI)
100
AcDbLine
 10
101.0134534545257
 20
44.52370285805426
 30
0.0
 11
101.0134534545257
 21
44.42150946744894
 31
0.0
  0
ELLIPSE
  5
290
330
6C
100
AcDbEntity
  8
Visible (ANSI)
100
AcDbEllipse
 10
101.101841802174
 20
44.47240893167299
 30
0.0
 11
0.1249999999999982
 21
0.0000000000000074
 31
0.0
210
0.0
220
0.0
230
1.0
 40
0.5758617009853114
 41
3.92699081698711
 42
5.497787143782114
  0
LINE
  5
291
330
6C
100
AcDbEntity
  8
Visible Narrow (ANSI)
100
AcDbLine
 10
101.1902301498224
 20
44.42150946744896
 30
0.0
 11
101.1902301498224
 21
44.52370285805427
 31
0.0
  0
ELLIPSE
  5
292
330
6C
100
AcDbEntity
  8
Visible (ANSI)
100
AcDbEllipse
 10
95.88692929092252
 20
47.47547732089101
 30
0.0
 11
-0.1249999999999998
 21
0.0000000000000002
 31
0.0
210
0.0
220
0.0
230
1.0
 40
0.5758617009853113
 41
0.0000000000000056
 42
0.7853981633976048
  0
ELLIPSE
  5
293
330
6C
100
AcDbEntity
  8
Visible (ANSI)
100
AcDbEllipse
 10
95.88692929092252
 20
47.57767071149632
 30
0.0
 11
-0.1249999999999999
 21
0.0
 31
0.0
210
0.0
220
0.0
230
1.0
 40
0.5758617009853115
 41
5.497787143782288
 42
7.068583470577188
  0
LINE
  5
294
330
6C
100
AcDbEntity
  8
Visible Narrow (ANSI)
100
AcDbLine
 10
95.79854094327421
 20
47.42457785666696
 30
0.0
 11
95.79854094327421
 21
47.52677124727227
 31
0.0
  0
ELLIPSE
  5
295
330
6C
100
AcDbEntity
  8
Visible (ANSI)
100
AcDbEllipse
 10
101.1019105071459
 20
50.68286892950947
 30
0.0
 11
0.1249999999999989
 21
-0.0000000000000075
 31
0.0
210
0.0
220
0.0
230
1.0
 40
0.5758617009853115
 41
0.8248293379545614
 42
2.356194490192779
  0
LINE
  5
296
330
6C
100
AcDbEntity
  8
Visible (ANSI)
100
AcDbLine
 10
95.7619292909225
 20
47.47547732089101
 30
0.0
 11
95.7619292909225
 21
47.57767071149632
 31
0.0
  0
LINE
  5
297
330
6C
100
AcDbEntity
  8
Visible (ANSI)
100
AcDbLine
 10
101.1902301498224
 20
44.42150946744896
 30
0.0
 11
102.1624247460357
 21
44.98135910131324
 31
0.0
  0
LINE
  5
298
330
6C
100
AcDbEntity
  8
Visible (ANSI)
100
AcDbLine
 10
102.1624247460357
 20
45.08355249191856
 30
0.0
 11
101.1902301498224
 21
44.52370285805427
 31
0.0
  0
LINE
  5
299
330
6C
100
AcDbEntity
  8
Visible (ANSI)
100
AcDbLine
 10
95.79854094327421
 20
47.42457785666696
 30
0.0
 11
101.0134534545257
 21
44.42150946744894
 31
0.0
  0
LINE
  5
29A
330
6C
100
AcDbEntity
  8
Visible (ANSI)
100
AcDbLine
 10
95.79854094327419
 20
47.62857017572036
 30
0.0
 11
96.7707355394875
 21
48.18841980958464
 31
0.0
  0
LINE
  5
29B
330
6C
100
AcDbEntity
  8
Visible (ANSI)
100
AcDbLine
 10
101.0134534545257
 20
44.52370285805426
 30
0.0
 11
95.79854094327421
 21
47.52677124727227
 31
0.0
  0
ELLIPSE
  5
29C
330
6C
100
AcDbEntity
  8
Visible (ANSI)
100
AcDbEllipse
 10
102.1624247460357
 20
45.16019753487254
 30
0.0
 11
0.1091632962840284
 21
0.1895651266567912
 31
0.0
210
0.0
220
0.0
230
0.9999999999999998
 40
0.5780931159156393
 41
3.925057108564034
 42
4.710455271961559
  0
ELLIPSE
  5
29D
330
6C
100
AcDbEntity
  8
Visible (ANSI)
100
AcDbEllipse
 10
102.1624247460357
 20
45.16019753487255
 30
0.0
 11
0.0467842698360126
 21
0.0812421971386255
 31
0.0
210
0.0
220
0.0
230
0.9999999999999998
 40
0.5780931159156396
 41
3.925057108564035
 42
4.71045527196146
  0
ELLIPSE
  5
29E
330
6C
100
AcDbEntity
  8
Visible (ANSI)
100
AcDbEllipse
 10
96.7707355394875
 20
48.26506485253863
 30
0.0
 11
0.0467842698360126
 21
0.0812421971386257
 31
0.0
210
0.0
220
0.0
230
1.0
 40
0.5780931159156394
 41
3.925057108564034
 42
4.71045527196146
  0
LINE
  5
29F
330
6C
100
AcDbEntity
  8
Visible Narrow (ANSI)
100
AcDbLine
 10
102.2092997460357
 20
45.13299482248913
 30
0.0
 11
96.81761053948747
 21
48.23786214015523
 31
0.0
  0
LINE
  5
2A0
330
6C
100
AcDbEntity
  8
Visible Narrow (ANSI)
100
AcDbLine
 10
102.1624247460357
 20
45.08355249191856
 30
0.0
 11
96.7707355394875
 21
48.18841980958464
 31
0.0
  0
LINE
  5
2A1
330
6C
100
AcDbEntity
  8
Visible (ANSI)
100
AcDbLine
 10
102.2953780292666
 20
45.13756325604068
 30
0.0
 11
102.2717997460357
 21
45.09672453931126
 31
0.0
  0
LINE
  5
2A2
330
6C
100
AcDbEntity
  8
Visible (ANSI)
100
AcDbLine
 10
102.2092997460357
 20
45.13299482248913
 30
0.0
 11
102.2328780292665
 21
45.17383353921856
 31
0.0
  0
LINE
  5
2A3
330
6C
100
AcDbEntity
  8
Visible (ANSI)
100
AcDbLine
 10
96.84118882271835
 20
48.27870085688465
 30
0.0
 11
96.81761053948747
 21
48.23786214015523
 31
0.0
  0
ELLIPSE
  5
2A4
330
6C
100
AcDbEntity
  8
Visible (ANSI)
100
AcDbEllipse
 10
102.3422530292666
 20
45.11036054365727
 30
0.0
 11
0.046784269836017
 21
0.0812421971386221
 31
0.0
210
0.0
220
0.0
230
1.0
 40
0.5780931159156394
 41
0.8283475791860688
 42
1.568862618371897
  0
ELLIPSE
  5
2A5
330
6C
100
AcDbEntity
  8
Visible (ANSI)
100
AcDbEllipse
 10
102.3422530292666
 20
45.11036054365727
 30
0.0
 11
0.1091632962840393
 21
0.1895651266567841
 31
0.0
210
0.0
220
0.0
230
1.0
 40
0.5780931159156394
 41
0.7834644549744141
 42
1.56886261837184
  0
ELLIPSE
  5
2A6
330
6C
100
AcDbEntity
  8
Visible (ANSI)
100
AcDbEllipse
 10
96.95056382271836
 20
48.21522786132335
 30
0.0
 11
0.10916329628404
 21
0.1895651266567852
 31
0.0
210
0.0
220
0.0
230
1.0
 40
0.5780931159156412
 41
0.7834644549744132
 42
1.56886261837184
  0
LINE
  5
2A7
330
6C
100
AcDbEntity
  8
Visible Narrow (ANSI)
100
AcDbLine
 10
102.3422530292665
 20
45.28919897721658
 30
0.0
 11
96.95056382271836
 21
48.39406629488267
 31
0.0
  0
LINE
  5
2A8
330
6C
100
AcDbEntity
  8
Visible Narrow (ANSI)
100
AcDbLine
 10
102.2328780292665
 20
45.17383353921856
 30
0.0
 11
96.84118882271835
 21
48.27870085688465
 31
0.0
  0
LINE
  5
2A9
330
6C
100
AcDbEntity
  8
Visible (ANSI)
100
AcDbLine
 10
102.4078218968964
 20
45.22476418625632
 30
0.0
 11
102.3422530292665
 21
45.18700558661126
 31
0.0
  0
LINE
  5
2AA
330
6C
100
AcDbEntity
  8
Visible (ANSI)
100
AcDbLine
 10
102.3422530292665
 20
45.28919897721658
 30
0.0
 11
102.3978801495335
 21
45.32123250531446
 31
0.0
  0
LINE
  5
2AB
330
6C
100
AcDbEntity
  8
Visible (ANSI)
100
AcDbLine
 10
101.0135221594975
 20
50.7337683937335
 30
0.0
 11
96.95056382271836
 21
48.39406629488267
 31
0.0
  0
LINE
  5
2AC
330
6C
100
AcDbEntity
  8
Visible Narrow (ANSI)
100
AcDbLine
 10
102.3392786692503
 20
45.18529276659299
 30
0.0
 11
102.3392786692503
 21
45.18521557903039
 31
0.0
  0
LINE
  5
2AD
330
6C
100
AcDbEntity
  8
Visible Narrow (ANSI)
100
AcDbLine
 10
101.186745796542
 20
50.73573533477667
 30
0.0
 11
101.8810836970322
 21
50.33589273034191
 31
0.0
  0
LINE
  5
2AE
330
6C
100
AcDbEntity
  8
Visible Narrow (ANSI)
100
AcDbLine
 10
102.3422530292665
 20
45.18700558661126
 30
0.0
 11
102.3392786692503
 21
45.18529276659299
 31
0.0
  0
DIMENSION
  5
2AF
330
6C
100
AcDbEntity
  8
Dimension (ANSI)
100
AcDbDimension
  2
*D4
 10
43.92753914678214
 20
33.71149327845446
 30
0.0
 11
43.92753914678213
 21
42.71143020785532
 31
0.0
 70
   160
  1
<>{\PHEIGHT}
 71
     5
 42
17.99987385880176
  3
Default (ANSI)
100
AcDbAlignedDimension
 13
48.17380610280613
 23
51.71136713725621
 33
0.0
 14
48.33005610280609
 24
33.71149327845445
 34
0.0
 50
90.0
100
AcDbRotatedDimension
1001
ACAD
1000
DSTYLE
1002
{
1070
   289
1070
     1
1070
   271
1070
     2
1070
   272
1070
     2
1070
    48
1040
0.0
1070
    47
1040
0.0
1002
}
  0
DIMENSION
  5
3B0
330
6C
100
AcDbEntity
  8
Dimension (ANSI)
100
AcDbDimension
  2
*D5
 10
56.08005610280615
 20
54.48268560927738
 30
0.0
 11
52.01755610280613
 21
54.48268560927738
 31
0.0
 70
   160
  1
<>{\PWIDTH}
 71
     5
 42
8.125000000000028
  3
Default (ANSI)
100
AcDbAlignedDimension
 13
47.95505610280613
 23
51.49261713725622
 33
0.0
 14
56.08005610280615
 24
51.49261713725622
 34
0.0
100
AcDbRotatedDimension
1001
ACAD
1000
DSTYLE
1002
{
1070
   289
1070
     1
1070
    73
1070
     0
1070
    74
1070
     0
1070
   271
1070
     2
1070
   272
1070
     2
1070
    48
1040
0.0
1070
    47
1040
0.0
1002
}
  0
DIMENSION
  5
4AE
330
6C
100
AcDbEntity
  8
Dimension (ANSI)
100
AcDbDimension
  2
*D6
 10
28.83215997303644
 20
55.40074969184677
 30
0.0
 11
24.83215997303644
 21
55.40074969184677
 31
0.0
 70
   160
  1
<>
 42
8.000000000000003
  3
Default (ANSI)
100
AcDbAlignedDimension
 13
20.83215997303644
 23
51.49261713725621
 33
0.0
 14
28.83215997303644
 24
51.7113671372562
 34
0.0
100
AcDbRotatedDimension
1001
ACAD
1000
DSTYLE
1002
{
1070
   289
1070
     1
1070
    73
1070
     0
1070
    74
1070
     0
1070
   271
1070
     2
1070
   272
1070
     2
1070
    48
1040
0.0
1070
    47
1040
0.0
1002
}
  0
DIMENSION
  5
598
330
6C
100
AcDbEntity
  8
Dimension (ANSI)
100
AcDbDimension
  2
*D7
 10
31.90051212952502
 20
53.32028453547234
 30
0.0
 11
31.42365605904644
 21
54.0057259823645
 31
0.0
 70
   165
  1
<>
 42
1.45878905822519
  3
Default (ANSI)
100
AcDb3PointAngularDimension
 13
29.29426454245642
 23
51.71136713725621
 33
0.0
 14
28.90566532409644
 24
52.14612564902452
 34
0.0
 15
28.85676454245642
 25
51.71136713725621
 35
0.0
1001
ACAD_DSTYLE_DIMANGULAR_EXTENSION
1070
   387
1070
     1
1001
ACAD
1000
DSTYLE
1002
{
1070
   179
1070
     0
1070
   272
1070
     0
1070
    48
1040
0.0
1070
    47
1040
0.0
1002
}
  0
DIMENSION
  5
6C1
330
6C
100
AcDbEntity
  8
Dimension (ANSI)
100
AcDbDimension
  2
*D8
 10
56.08005610281118
 20
64.33257255464614
 30
0.0
 11
59.87789223526469
 21
64.33257255464614
 31
0.0
 70
   160
  1
<>{\P(2 PL.)}
 71
     5
 42
1.249999999999992
  3
Default (ANSI)
100
AcDbAlignedDimension
 13
54.83005610281118
 23
62.33353982550293
 33
0.0
 14
56.08005610281118
 24
62.31284149893475
 34
0.0
100
AcDbRotatedDimension
1001
ACAD
1000
DSTYLE
1002
{
1070
   289
1070
     1
1070
    73
1070
     0
1070
    74
1070
     0
1070
   271
1070
     2
1070
    76
1070
     1
1070
    75
1070
     1
1070
   272
1070
     2
1070
    48
1040
0.0
1070
    47
1040
0.0
1002
}
  0
DIMENSION
  5
7B0
330
6C
100
AcDbEntity
  8
Dimension (ANSI)
100
AcDbDimension
  2
*D9
 10
61.97438442762456
 20
59.7410687685527
 30
0.0
 11
60.04826894251587
 21
57.85309516589046
 31
0.0
 70
   160
  1
<>
 42
1.249999999999936
  3
Default (ANSI)
100
AcDbAlignedDimension
 13
54.8079590158991
 23
60.99106876855262
 33
0.0
 14
55.86130610281117
 24
59.7410687685527
 34
0.0
 50
270.0
100
AcDbRotatedDimension
1001
ACAD
1000
DSTYLE
1002
{
1070
   289
1070
     1
1070
   271
1070
     2
1070
   272
1070
     2
1070
    48
1040
0.0
1070
    47
1040
0.0
1002
}
  0
LINE
  5
8AD
330
6C
100
AcDbEntity
  8
Center Mark (ANSI)
  6
CHAIN
 48
0.1834217607975006
100
AcDbLine
 10
48.64255610280024
 20
18.50150590596686
 30
0.0
 11
48.64255610280024
 21
16.18900590596686
 31
0.0
  0
LINE
  5
8AE
330
6C
100
AcDbEntity
  8
Center Mark (ANSI)
  6
CHAIN
 48
0.1834217607975006
100
AcDbLine
 10
48.64255610280024
 20
23.50150590596686
 30
0.0
 11
48.64255610280024
 21
21.18900590596687
 31
0.0
  0
LINE
  5
8AF
330
6C
100
AcDbEntity
  8
Centerline (ANSI)
  6
CHAIN
 48
0.9524481296539306
100
AcDbLine
 10
48.64255610280024
 20
16.18900590596686
 30
0.0
 11
48.64255610280024
 21
23.50150590596686
 31
0.0
  0
LINE
  5
8B0
330
6C
100
AcDbEntity
  8
Center Mark (ANSI)
  6
CHAIN
 48
0.1834217607975006
100
AcDbLine
 10
50.20505610280023
 20
24.81400590596687
 30
0.0
 11
50.20505610280023
 21
22.50150590596687
 31
0.0
  0
LINE
  5
8B1
330
6C
100
AcDbEntity
  8
Center Mark (ANSI)
  6
CHAIN
 48
0.1834217607975006
100
AcDbLine
 10
53.83005610280023
 20
24.81400590596687
 30
0.0
 11
53.83005610280023
 21
22.50150590596687
 31
0.0
  0
LINE
  5
8B2
330
6C
100
AcDbEntity
  8
Centerline (ANSI)
  6
CHAIN
 48
0.4711045026779175
100
AcDbLine
 10
49.04880610280024
 20
23.65775590596687
 30
0.0
 11
54.98630610280024
 21
23.65775590596687
 31
0.0
  0
LINE
  5
8B3
330
6C
100
AcDbEntity
  8
Center Mark (ANSI)
  6
CHAIN
 48
0.1834217607975006
100
AcDbLine
 10
55.39255610280024
 20
23.50150590596686
 30
0.0
 11
55.39255610280024
 21
21.18900590596687
 31
0.0
  0
LINE
  5
8B4
330
6C
100
AcDbEntity
  8
Center Mark (ANSI)
  6
CHAIN
 48
0.1834217607975006
100
AcDbLine
 10
55.39255610280027
 20
18.50150590596687
 30
0.0
 11
55.39255610280027
 21
16.18900590596687
 31
0.0
  0
LINE
  5
8B5
330
6C
100
AcDbEntity
  8
Centerline (ANSI)
  6
CHAIN
 48
0.9524481296539306
100
AcDbLine
 10
55.39255610280022
 20
23.50150590596686
 30
0.0
 11
55.39255610280028
 21
16.18900590596687
 31
0.0
  0
DIMENSION
  5
8B6
330
6C
100
AcDbEntity
  8
Dimension (ANSI)
100
AcDbDimension
  2
*D10
 10
45.81160137839079
 20
22.34525590596687
 30
0.0
 11
45.81160137839078
 21
23.34525590596684
 31
0.0
 70
   160
  1
<>
 42
1.999999999999939
  3
Default (ANSI)
100
AcDbAlignedDimension
 13
48.17380610280023
 23
24.34525590596681
 33
0.0
 14
47.48630610280023
 24
22.34525590596687
 34
0.0
 50
270.0
100
AcDbRotatedDimension
1001
ACAD
1000
DSTYLE
1002
{
1070
   289
1070
     1
1070
   271
1070
     2
1070
   272
1070
     2
1070
    48
1040
0.0
1070
    47
1040
0.0
1002
}
  0
DIMENSION
  5
9A9
330
6C
100
AcDbEntity
  8
Dimension (ANSI)
100
AcDbDimension
  2
*D11
 10
42.88427734030083
 20
17.34525590596686
 30
0.0
 11
42.88427734030082
 21
20.84525590596684
 31
0.0
 70
   160
  1
<>
 42
6.999999999999939
  3
Default (ANSI)
100
AcDbAlignedDimension
 13
48.17380610280023
 23
24.34525590596681
 33
0.0
 14
47.48630610280023
 24
17.34525590596686
 34
0.0
 50
270.0
100
AcDbRotatedDimension
1001
ACAD
1000
DSTYLE
1002
{
1070
   289
1070
     1
1070
   271
1070
     2
1070
   272
1070
     2
1070
    48
1040
0.0
1070
    47
1040
0.0
1002
}
  0
DIMENSION
  5
A99
330
6C
100
AcDbEntity
  8
Dimension (ANSI)
100
AcDbDimension
  2
*D12
 10
57.82468314453272
 20
23.65775590596687
 30
0.0
 11
59.7841319634714
 21
25.94214544208653
 31
0.0
 70
   160
  1
<>
 42
0.6874999999999361
  3
Default (ANSI)
100
AcDbAlignedDimension
 13
55.86130610280023
 23
24.34525590596681
 33
0.0
 14
54.98630610280024
 24
23.65775590596687
 34
0.0
 50
270.0
100
AcDbRotatedDimension
1001
ACAD
1000
DSTYLE
1002
{
1070
   289
1070
     1
1070
   271
1070
     2
1070
   272
1070
     2
1070
    48
1040
0.0
1070
    47
1040
0.0
1002
}
  0
DIMENSION
  5
B99
330
6C
100
AcDbEntity
  8
Dimension (ANSI)
100
AcDbDimension
  2
*D13
 10
53.83005610280023
 20
27.81434950325339
 30
0.0
 11
58.05617158865395
 21
27.81434950325339
 31
0.0
 70
   160
  1
<>
 42
2.249999999999992
  3
Default (ANSI)
100
AcDbAlignedDimension
 13
56.08005610280023
 23
24.12650590596681
 33
0.0
 14
53.83005610280023
 24
24.81400590596687
 34
0.0
 50
180.0
100
AcDbRotatedDimension
1001
ACAD
1000
DSTYLE
1002
{
1070
   289
1070
     2
1070
    73
1070
     0
1070
    74
1070
     0
1070
   271
1070
     2
1070
   272
1070
     2
1070
    48
1040
0.0
1070
    47
1040
0.0
1002
}
  0
DIMENSION
  5
C83
330
6C
100
AcDbEntity
  8
Dimension (ANSI)
100
AcDbDimension
  2
*D14
 10
50.20505610280023
 20
27.78207012288845
 30
0.0
 11
45.97894061694652
 21
27.78207012288845
 31
0.0
 70
   160
  1
<>
 42
2.249999999999992
  3
Default (ANSI)
100
AcDbAlignedDimension
 13
47.95505610280024
 23
24.12650590596681
 33
0.0
 14
50.20505610280023
 24
24.81400590596687
 34
0.0
100
AcDbRotatedDimension
1001
ACAD
1000
DSTYLE
1002
{
1070
   289
1070
     2
1070
    73
1070
     0
1070
    74
1070
     0
1070
   271
1070
     2
1070
   272
1070
     2
1070
    48
1040
0.0
1070
    47
1040
0.0
1002
}
  0
LINE
  5
D6D
330
6C
100
AcDbEntity
  8
Centerline (ANSI)
  6
CHAIN
 48
0.9524481296539306
100
AcDbLine
 10
47.48630610280023
 20
22.34525590596687
 30
0.0
 11
56.54880610280024
 21
22.34525590596687
 31
0.0
  0
LINE
  5
D6E
330
6C
100
AcDbEntity
  8
Centerline (ANSI)
  6
CHAIN
 48
0.9524481296539306
100
AcDbLine
 10
47.48630610280023
 20
17.34525590596686
 30
0.0
 11
56.54880610280027
 21
17.34525590596687
 31
0.0
  0
DIMENSION
  5
D6F
330
6C
100
AcDbEntity
  8
Dimension (ANSI)
100
AcDbDimension
  2
*D15
 10
48.64255610280024
 20
14.80575903658356
 30
0.0
 11
44.48370465363546
 21
14.80575903658356
 31
0.0
 70
   160
  1
<>{\P(2 PL.)}
 71
     5
 42
0.6875
  3
Default (ANSI)
100
AcDbAlignedDimension
 13
47.95505610280024
 23
16.3452559059668
 33
0.0
 14
48.64255610280024
 24
16.18900590596687
 34
0.0
100
AcDbRotatedDimension
1001
ACAD
1000
DSTYLE
1002
{
1070
   289
1070
     1
1070
    73
1070
     0
1070
    74
1070
     0
1070
   271
1070
     2
1070
   272
1070
     2
1070
    48
1040
0.0
1070
    47
1040
0.0
1002
}
  0
DIMENSION
  5
E6D
330
6C
100
AcDbEntity
  8
Dimension (ANSI)
100
AcDbDimension
  2
*D16
 10
55.21909524139461
 20
17.12386735147409
 30
0.0
 11
61.23670415222284
 21
20.04424127676694
 31
0.0
 70
   163
  1
<>{\P(6 PL.)}
 71
     5
 42
0.5625
  3
Default (ANSI)
100
AcDbDiametricDimension
 15
55.56601696420596
 25
17.56664446045965
 35
0.0
 40
0.0
1001
ACAD
1000
DSTYLE
1002
{
1070
   144
1040
0.9999999999999873
1070
   271
1070
     3
1070
   272
1070
     2
1070
    48
1040
0.0
1070
    47
1040
0.0
1002
}
1001
ACAD_DSTYLE_DIMRADIAL_EXTENSION
1070
   387
1070
     1
1070
   388
1040
0.0
1070
   390
1040
0.0
  0
LINE
  5
F27
330
6C
100
AcDbEntity
  8
Center Mark (ANSI)
  6
CHAIN
 48
0.1834217607975006
100
AcDbLine
 10
50.08005610281115
 20
67.64731876855264
 30
0.0
 11
50.08005610281115
 21
65.33481876855262
 31
0.0
  0
LINE
  5
F28
330
6C
100
AcDbEntity
  8
Center Mark (ANSI)
  6
CHAIN
 48
0.1834217607975006
100
AcDbLine
 10
53.95505610281114
 20
67.64731876855264
 30
0.0
 11
53.95505610281114
 21
65.33481876855262
 31
0.0
  0
LINE
  5
F29
330
6C
100
AcDbEntity
  8
Centerline (ANSI)
  6
CHAIN
 48
0.4909446835517884
100
AcDbLine
 10
48.92380610281114
 20
66.49106876855262
 30
0.0
 11
55.11130610281114
 21
66.49106876855262
 31
0.0
  0
LINE
  5
F2A
330
6C
100
AcDbEntity
  8
Center Mark (ANSI)
  6
CHAIN
 48
0.1834217607975006
100
AcDbLine
 10
53.17380610281114
 20
63.49106876855266
 30
0.0
 11
50.86130610281113
 21
63.49106876855266
 31
0.0
  0
LINE
  5
F2B
330
6C
100
AcDbEntity
  8
Center Mark (ANSI)
  6
CHAIN
 48
0.1834217607975006
100
AcDbLine
 10
52.01755610281113
 20
64.64731876855267
 30
0.0
 11
52.01755610281113
 21
62.33481876855266
 31
0.0
  0
DIMENSION
  5
F2C
330
6C
100
AcDbEntity
  8
Dimension (ANSI)
100
AcDbDimension
  2
*D17
 10
50.08005610281115
 20
69.60992904111273
 30
0.0
 11
45.50016822950137
 21
69.60992904111273
 31
0.0
 70
   160
  1
<>
 42
2.124999999999971
  3
Default (ANSI)
100
AcDbAlignedDimension
 13
47.95505610281117
 23
67.74106876855791
 33
0.0
 14
50.08005610281115
 24
67.64731876855264
 34
0.0
 50
180.0
100
AcDbRotatedDimension
1001
ACAD
1000
DSTYLE
1002
{
1070
   289
1070
     2
1070
    73
1070
     0
1070
    74
1070
     0
1070
   271
1070
     2
1070
   272
1070
     2
1070
    48
1040
0.0
1070
    47
1040
0.0
1002
}
  0
DIMENSION
  5
1016
330
6C
100
AcDbEntity
  8
Dimension (ANSI)
100
AcDbDimension
  2
*D18
 10
52.01755610281113
 20
71.03900947870323
 30
0.0
 11
45.50016822950137
 21
71.03900947870323
 31
0.0
 70
   160
  1
<>
 42
4.062499999999957
  3
Default (ANSI)
100
AcDbAlignedDimension
 13
47.95505610281117
 23
67.74106876855791
 33
0.0
 14
52.01755610281113
 24
64.64731876855267
 34
0.0
 50
180.0
100
AcDbRotatedDimension
1001
ACAD
1000
DSTYLE
1002
{
1070
   289
1070
     2
1070
    73
1070
     0
1070
    74
1070
     0
1070
   271
1070
     2
1070
   272
1070
     2
1070
    48
1040
0.0
1070
    47
1040
0.0
1002
}
  0
DIMENSION
  5
1100
330
6C
100
AcDbEntity
  8
Dimension (ANSI)
100
AcDbDimension
  2
*D19
 10
53.95505610281114
 20
69.5485323128453
 30
0.0
 11
58.534943976121
 21
69.5485323128453
 31
0.0
 70
   160
  1
<>
 42
2.125000000000063
  3
Default (ANSI)
100
AcDbAlignedDimension
 13
56.08005610281121
 23
67.74106876855789
 33
0.0
 14
53.95505610281114
 24
67.64731876855264
 34
0.0
 50
180.0
100
AcDbRotatedDimension
1001
ACAD
1000
DSTYLE
1002
{
1070
   289
1070
     2
1070
    73
1070
     0
1070
    74
1070
     0
1070
   271
1070
     2
1070
   272
1070
     2
1070
    48
1040
0.0
1070
    47
1040
0.0
1002
}
  0
DIMENSION
  5
11EA
330
6C
100
AcDbEntity
  8
Dimension (ANSI)
100
AcDbDimension
  2
*D20
 10
40.39600050414938
 20
66.49106876855262
 30
0.0
 11
42.32211598925804
 21
69.62904237122015
 31
0.0
 70
   160
  1
<>
 42
1.250000000005286
  3
Default (ANSI)
100
AcDbAlignedDimension
 13
47.95505610281117
 23
67.74106876855791
 33
0.0
 14
48.92380610281114
 24
66.49106876855262
 34
0.0
 50
90.0
100
AcDbRotatedDimension
1001
ACAD
1000
DSTYLE
1002
{
1070
   289
1070
     1
1070
   271
1070
     2
1070
   272
1070
     2
1070
    48
1040
0.0
1070
    47
1040
0.0
1002
}
  0
DIMENSION
  5
12E7
330
6C
100
AcDbEntity
  8
Dimension (ANSI)
100
AcDbDimension
  2
*D21
 10
39.42209458656289
 20
63.49106876855267
 30
0.0
 11
39.42209458656288
 21
65.61606876855528
 31
0.0
 70
   160
  1
<>
 42
4.250000000005243
  3
Default (ANSI)
100
AcDbAlignedDimension
 13
47.95505610281117
 23
67.74106876855791
 33
0.0
 14
50.86130610281113
 24
63.49106876855266
 34
0.0
 50
90.0
100
AcDbRotatedDimension
1001
ACAD
1000
DSTYLE
1002
{
1070
   289
1070
     1
1070
   271
1070
     2
1070
   272
1070
     2
1070
    48
1040
0.0
1070
    47
1040
0.0
1002
}
  0
DIMENSION
  5
13D1
330
6C
100
AcDbEntity
  8
Dimension (ANSI)
100
AcDbDimension
  2
*D22
 10
52.24983625076177
 20
63.64964838694056
 30
0.0
 11
43.51672317850856
 21
59.7574970768744
 31
0.0
 70
   163
  1
<>{\P(3 PL.)}
 71
     5
 42
0.5625
  3
Default (ANSI)
100
AcDbDiametricDimension
 15
51.78527595486055
 25
63.33248915016479
 35
0.0
 40
0.0
1001
ACAD
1000
DSTYLE
1002
{
1070
   144
1040
1.0
1070
   271
1070
     3
1070
   272
1070
     3
1070
    48
1040
0.0
1070
    47
1040
0.0
1002
}
1001
ACAD_DSTYLE_DIMRADIAL_EXTENSION
1070
   387
1070
     1
1070
   388
1040
0.0
1070
   390
1040
0.0
  0
DIMENSION
  5
148A
330
6C
100
AcDbEntity
  8
Dimension (ANSI)
100
AcDbDimension
  2
*D23
 10
28.58215997303649
 20
31.34928855404499
 30
0.0
 11
24.70715997303646
 21
31.34928855404499
 31
0.0
 70
   160
  1
<>
 42
7.750000000000046
  3
Default (ANSI)
100
AcDbAlignedDimension
 13
20.83215997303644
 23
33.93011713725623
 33
0.0
 14
28.58215997303649
 24
33.71149327845444
 34
0.0
100
AcDbRotatedDimension
1001
ACAD
1000
DSTYLE
1002
{
1070
   289
1070
     1
1070
    73
1070
     0
1070
    74
1070
     0
1070
   271
1070
     2
1070
   272
1070
     2
1070
    48
1040
0.0
1070
    47
1040
0.0
1002
}
  0
LINE
  5
1574
330
6C
100
AcDbEntity
  8
Center Mark (ANSI)
  6
CHAIN
 48
0.1834217607975006
100
AcDbLine
 10
53.17380610280021
 20
20.59525590596161
 30
0.0
 11
50.8613061028002
 21
20.59525590596161
 31
0.0
  0
LINE
  5
1575
330
6C
100
AcDbEntity
  8
Center Mark (ANSI)
  6
CHAIN
 48
0.1834217607975006
100
AcDbLine
 10
52.0175561028002
 20
21.75150590596161
 30
0.0
 11
52.0175561028002
 21
19.4390059059616
 31
0.0
  0
LINE
  5
1576
330
6C
100
AcDbEntity
  8
Center Mark (ANSI)
  6
CHAIN
 48
0.1834217607975006
100
AcDbLine
 10
51.23630610280021
 20
17.59525590596157
 30
0.0
 11
48.92380610280021
 21
17.59525590596157
 31
0.0
  0
LINE
  5
1577
330
6C
100
AcDbEntity
  8
Center Mark (ANSI)
  6
CHAIN
 48
0.1834217607975006
100
AcDbLine
 10
50.08005610280021
 20
18.75150590596157
 30
0.0
 11
50.08005610280021
 21
16.43900590596157
 31
0.0
  0
LINE
  5
1578
330
6C
100
AcDbEntity
  8
Center Mark (ANSI)
  6
CHAIN
 48
0.1834217607975006
100
AcDbLine
 10
55.1113061028002
 20
17.59525590596157
 30
0.0
 11
52.7988061028002
 21
17.59525590596157
 31
0.0
  0
LINE
  5
1579
330
6C
100
AcDbEntity
  8
Center Mark (ANSI)
  6
CHAIN
 48
0.1834217607975006
100
AcDbLine
 10
53.9550561028002
 20
18.75150590596157
 30
0.0
 11
53.9550561028002
 21
16.43900590596157
 31
0.0
  0
MTEXT
  5
157A
102
{ACAD_XDICTIONARY
360
1586
102
}
330
6C
100
AcDbEntity
  8
Symbol (ANSI)
100
AcDbMText
 10
66.02102966573394
 20
6.571545338632133
 30
0.0
 40
0.7000000223400085
 41
51.68370975284125
 71
     4
 72
     1
  3
{\fRomanS|b0|i0|c0|p2;\H2x;PART#: FK1808\P(DATA SUBJECT TO CHANGE WITHOUT NOTICE)\H1.6157x; \H0.61894x;\P \H1.352x; \H0.73963x;\P\H0.6x;THIS DRAWING IS PROPERTY OF HUBBELL INC. WIEGMANN\H1.5633x; \H0.63966x;\PALL INFORMATION IS PROPRIETARY AND NOT TO
  1
 BE DUPLICATED\H1.234x; \H0.81039x;\P\H1.2571x; }
  7
Note Text (ANSI)
 73
     1
 44
0.8026435375213623
  0
ENDSEC
  0
SECTION
  2
OBJECTS
  0
DICTIONARY
  5
C
330
0
100
AcDbDictionary
281
     1
  3
ACAD_CIP_PREVIOUS_PRODUCT_INFO
350
157C
  3
ACAD_COLOR
350
63
  3
ACAD_GROUP
350
D
  3
ACAD_LAYOUT
350
62
  3
ACAD_MATERIAL
350
10
  3
ACAD_MLEADERSTYLE
350
66
  3
ACAD_MLINESTYLE
350
5F
  3
ACAD_PLOTSETTINGS
350
61
  3
ACAD_PLOTSTYLENAME
350
E
  3
ACAD_SCALELIST
350
42
  3
ACAD_TABLESTYLE
350
64
  3
ACAD_VISUALSTYLE
350
29
  3
ACDB_RECOMPOSE_DATA
350
1588
  3
AcDbVariableDictionary
350
76
  0
DICTIONARY
  5
15BE
330
F21
100
AcDbDictionary
280
     1
281
     1
  3
ACAD_MTEXT_2008_RT
360
15BF
  0
DICTIONARY
  5
15C0
330
1484
100
AcDbDictionary
280
     1
281
     1
  3
ACAD_MTEXT_2008_RT
360
15C1
  0
DICTIONARY
  5
1586
330
157A
100
AcDbDictionary
280
     1
281
     1
  3
ACAD_MTEXT_2008_RT
360
1587
  0
XRECORD
  5
157C
102
{ACAD_REACTORS
330
C
102
}
330
C
100
AcDbXrecord
280
     1
300
INVPROSA
300
2012
300
INVPROSA_F_S
  0
DICTIONARY
  5
63
102
{ACAD_REACTORS
330
C
102
}
330
C
100
AcDbDictionary
281
     1
  0
DICTIONARY
  5
D
102
{ACAD_REACTORS
330
C
102
}
330
C
100
AcDbDictionary
281
     1
  0
DICTIONARY
  5
62
102
{ACAD_REACTORS
330
C
102
}
330
C
100
AcDbDictionary
281
     1
  3
Layout1
350
6B
  3
Layout2
350
73
  3
Model
350
6F
  0
DICTIONARY
  5
10
102
{ACAD_REACTORS
330
C
102
}
330
C
100
AcDbDictionary
281
     1
  3
ByBlock
350
19
  3
ByLayer
350
11
  3
Global
350
21
  0
DICTIONARY
  5
66
102
{ACAD_REACTORS
330
C
102
}
330
C
100
AcDbDictionary
281
     1
  3
Standard
350
67
  0
DICTIONARY
  5
5F
102
{ACAD_REACTORS
330
C
102
}
330
C
100
AcDbDictionary
281
     1
  3
Standard
350
60
  0
DICTIONARY
  5
61
102
{ACAD_REACTORS
330
C
102
}
330
C
100
AcDbDictionary
281
     1
  0
ACDBDICTIONARYWDFLT
  5
E
102
{ACAD_REACTORS
330
C
102
}
330
C
100
AcDbDictionary
281
     1
  3
Normal
350
F
100
AcDbDictionaryWithDefault
340
F
  0
DICTIONARY
  5
42
102
{ACAD_REACTORS
330
C
102
}
330
C
100
AcDbDictionary
281
     1
  3
A0
350
43
  3
A1
350
44
  3
A2
350
45
  3
A3
350
46
  3
A4
350
47
  3
A5
350
48
  3
A6
350
49
  3
A7
350
4A
  3
A8
350
4B
  3
A9
350
4C
  3
B0
350
4D
  3
B1
350
4E
  3
B2
350
4F
  3
B3
350
50
  3
B4
350
51
  3
B5
350
52
  3
B6
350
53
  0
DICTIONARY
  5
64
102
{ACAD_REACTORS
330
C
102
}
330
C
100
AcDbDictionary
281
     1
  3
Standard
350
65
  0
DICTIONARY
  5
29
102
{ACAD_REACTORS
330
C
102
}
330
C
100
AcDbDictionary
281
     1
  3
2dWireframe
350
2F
  3
Basic
350
2E
  3
Brighten
350
35
  3
ColorChange
350
39
  3
Conceptual
350
32
  3
Dim
350
34
  3
EdgeColorOff
350
41
  3
Facepattern
350
38
  3
Flat
350
2A
  3
FlatWithEdges
350
2B
  3
Gouraud
350
2C
  3
GouraudWithEdges
350
2D
  3
Hidden
350
31
  3
JitterOff
350
3F
  3
Linepattern
350
37
  3
OverhangOff
350
40
  3
Realistic
350
33
  3
Shaded
350
3E
  3
Shaded with edges
350
3D
  3
Shades of Gray
350
3A
  3
Sketchy
350
3B
  3
Thicken
350
36
  3
Wireframe
350
30
  3
X-Ray
350
3C
  0
XRECORD
  5
1588
102
{ACAD_REACTORS
330
C
102
}
330
C
100
AcDbXrecord
280
     1
 90
        1
330
65
330
B99
330
C83
330
F2C
330
1016
330
1100
330
157A
  0
DICTIONARY
  5
76
102
{ACAD_REACTORS
330
C
102
}
330
C
100
AcDbDictionary
281
     1
  3
CANNOSCALE
350
79
  3
CMLEADERSTYLE
350
78
  3
CTABLESTYLE
350
77
  3
LAYEREVAL
350
157F
  3
LAYERNOTIFY
350
1580
  3
LIGHTINGUNITS
350
157E
  3
MSLTSCALE
350
157D
  3
XCLIPFRAME
350
1581
  0
XRECORD
  5
15BF
102
{ACAD_REACTORS
330
15BE
102
}
330
15BE
100
AcDbXrecord
280
     1
 40
24491.0
  1
\A1;\U+22050.563{\P(6 PL.)}
  0
XRECORD
  5
15C1
102
{ACAD_REACTORS
330
15C0
102
}
330
15C0
100
AcDbXrecord
280
     1
 40
24428.0
  1
\A1;\U+22050.563{\P(3 PL.)}
  0
XRECORD
  5
1587
102
{ACAD_REACTORS
330
1586
102
}
330
1586
100
AcDbXrecord
280
     1
 40
3027708.0
  1
\pxsm0.94;{\fRomanS|b0|i0;\H1.4000;PART#: FK1808\P(DATA SUBJECT TO CHANGE WITHOUT NOTICE)\P \P\fRomanS|b0|i0;\H0.8400;THIS DRAWING IS PROPERTY OF HUBBELL INC. WIEGMANN\PALL INFORMATION IS PROPRIETARY AND NOT TO BE DUPLICATED\P}
  0
LAYOUT
  5
6B
102
{ACAD_REACTORS
330
62
102
}
330
62
100
AcDbPlotSettings
  1

  2

  4

  6

 40
0.0
 41
0.0
 42
0.0
 43
0.0
 44
0.0
 45
0.0
 46
0.0
 47
0.0
 48
0.0
 49
0.0
140
0.0
141
0.0
142
1.0
143
1.0
 70
   688
 72
     0
 73
     0
 74
     5
  7

 75
    16
147
1.0
 76
     0
 77
     2
 78
   300
148
0.0
149
0.0
100
AcDbLayout
  1
Layout1
 70
     1
 71
     1
 10
0.0
 20
0.0
 11
12.0
 21
9.0
 12
0.0
 22
0.0
 32
0.0
 14
0.0
 24
0.0
 34
0.0
 15
0.0
 25
0.0
 35
0.0
146
0.0
 13
0.0
 23
0.0
 33
0.0
 16
1.0
 26
0.0
 36
0.0
 17
0.0
 27
1.0
 37
0.0
 76
     0
330
68
  0
LAYOUT
  5
73
102
{ACAD_REACTORS
330
62
102
}
330
62
100
AcDbPlotSettings
  1

  2

  4

  6

 40
0.0
 41
0.0
 42
0.0
 43
0.0
 44
0.0
 45
0.0
 46
0.0
 47
0.0
 48
0.0
 49
0.0
140
0.0
141
0.0
142
1.0
143
1.0
 70
   688
 72
     0
 73
     0
 74
     5
  7

 75
    16
147
1.0
 76
     0
 77
     2
 78
   300
148
0.0
149
0.0
100
AcDbLayout
  1
Layout2
 70
     1
 71
     2
 10
0.0
 20
0.0
 11
12.0
 21
9.0
 12
0.0
 22
0.0
 32
0.0
 14
0.0
 24
0.0
 34
0.0
 15
0.0
 25
0.0
 35
0.0
146
0.0
 13
0.0
 23
0.0
 33
0.0
 16
1.0
 26
0.0
 36
0.0
 17
0.0
 27
1.0
 37
0.0
 76
     0
330
70
  0
LAYOUT
  5
6F
102
{ACAD_REACTORS
330
62
102
}
330
62
100
AcDbPlotSettings
  1

  2

  4

  6

 40
0.0
 41
0.0
 42
0.0
 43
0.0
 44
0.0
 45
0.0
 46
0.0
 47
0.0
 48
0.0
 49
0.0
140
0.0
141
0.0
142
1.0
143
1.0
 70
  1712
 72
     0
 73
     0
 74
     0
  7

 75
     0
147
1.0
 76
     0
 77
     2
 78
   300
148
0.0
149
0.0
100
AcDbLayout
  1
Model
 70
     1
 71
     0
 10
0.0
 20
0.0
 11
12.0
 21
9.0
 12
0.0
 22
0.0
 32
0.0
 14
0.0
 24
0.0
 34
0.0
 15
0.0
 25
0.0
 35
0.0
146
0.0
 13
0.0
 23
0.0
 33
0.0
 16
1.0
 26
0.0
 36
0.0
 17
0.0
 27
1.0
 37
0.0
 76
     0
330
6C
  0
MATERIAL
  5
19
102
{ACAD_XDICTIONARY
360
1A
102
}
102
{ACAD_REACTORS
330
10
102
}
330
10
100
AcDbMaterial
  1
ByBlock
 72
     0
 43
0.0208333333333333
 43
0.0
 43
0.0
 43
0.0
 43
0.0
 43
0.0208333333333333
 43
0.0
 43
0.0
 43
0.0
 43
0.0
 43
1.0
 43
0.0
 43
0.0
 43
0.0
 43
0.0
 43
1.0
 77
     0
 47
0.0208333333333333
 47
0.0
 47
0.0
 47
0.0
 47
0.0
 47
0.0208333333333333
 47
0.0
 47
0.0
 47
0.0
 47
0.0
 47
1.0
 47
0.0
 47
0.0
 47
0.0
 47
0.0
 47
1.0
171
     0
 49
0.0208333333333333
 49
0.0
 49
0.0
 49
0.0
 49
0.0
 49
0.0208333333333333
 49
0.0
 49
0.0
 49
0.0
 49
0.0
 49
1.0
 49
0.0
 49
0.0
 49
0.0
 49
0.0
 49
1.0
175
     0
142
0.0208333333333333
142
0.0
142
0.0
142
0.0
142
0.0
142
0.0208333333333333
142
0.0
142
0.0
142
0.0
142
0.0
142
1.0
142
0.0
142
0.0
142
0.0
142
0.0
142
1.0
179
     0
144
0.0208333333333333
144
0.0
144
0.0
144
0.0
144
0.0
144
0.0208333333333333
144
0.0
144
0.0
144
0.0
144
0.0
144
1.0
144
0.0
144
0.0
144
0.0
144
0.0
144
1.0
147
0.0208333333333333
147
0.0
147
0.0
147
0.0
147
0.0
147
0.0208333333333333
147
0.0
147
0.0
147
0.0
147
0.0
147
1.0
147
0.0
147
0.0
147
0.0
147
0.0
147
1.0
  0
MATERIAL
  5
11
102
{ACAD_XDICTIONARY
360
12
102
}
102
{ACAD_REACTORS
330
10
102
}
330
10
100
AcDbMaterial
  1
ByLayer
 72
     0
 43
0.0208333333333333
 43
0.0
 43
0.0
 43
0.0
 43
0.0
 43
0.0208333333333333
 43
0.0
 43
0.0
 43
0.0
 43
0.0
 43
1.0
 43
0.0
 43
0.0
 43
0.0
 43
0.0
 43
1.0
 77
     0
 47
0.0208333333333333
 47
0.0
 47
0.0
 47
0.0
 47
0.0
 47
0.0208333333333333
 47
0.0
 47
0.0
 47
0.0
 47
0.0
 47
1.0
 47
0.0
 47
0.0
 47
0.0
 47
0.0
 47
1.0
171
     0
 49
0.0208333333333333
 49
0.0
 49
0.0
 49
0.0
 49
0.0
 49
0.0208333333333333
 49
0.0
 49
0.0
 49
0.0
 49
0.0
 49
1.0
 49
0.0
 49
0.0
 49
0.0
 49
0.0
 49
1.0
175
     0
142
0.0208333333333333
142
0.0
142
0.0
142
0.0
142
0.0
142
0.0208333333333333
142
0.0
142
0.0
142
0.0
142
0.0
142
1.0
142
0.0
142
0.0
142
0.0
142
0.0
142
1.0
179
     0
144
0.0208333333333333
144
0.0
144
0.0
144
0.0
144
0.0
144
0.0208333333333333
144
0.0
144
0.0
144
0.0
144
0.0
144
1.0
144
0.0
144
0.0
144
0.0
144
0.0
144
1.0
147
0.0208333333333333
147
0.0
147
0.0
147
0.0
147
0.0
147
0.0208333333333333
147
0.0
147
0.0
147
0.0
147
0.0
147
1.0
147
0.0
147
0.0
147
0.0
147
0.0
147
1.0
  0
MATERIAL
  5
21
102
{ACAD_XDICTIONARY
360
22
102
}
102
{ACAD_REACTORS
330
10
102
}
330
10
100
AcDbMaterial
  1
Global
 72
     0
 43
0.0208333333333333
 43
0.0
 43
0.0
 43
0.0
 43
0.0
 43
0.0208333333333333
 43
0.0
 43
0.0
 43
0.0
 43
0.0
 43
1.0
 43
0.0
 43
0.0
 43
0.0
 43
0.0
 43
1.0
 77
     0
 47
0.0208333333333333
 47
0.0
 47
0.0
 47
0.0
 47
0.0
 47
0.0208333333333333
 47
0.0
 47
0.0
 47
0.0
 47
0.0
 47
1.0
 47
0.0
 47
0.0
 47
0.0
 47
0.0
 47
1.0
171
     0
 49
0.0208333333333333
 49
0.0
 49
0.0
 49
0.0
 49
0.0
 49
0.0208333333333333
 49
0.0
 49
0.0
 49
0.0
 49
0.0
 49
1.0
 49
0.0
 49
0.0
 49
0.0
 49
0.0
 49
1.0
175
     0
142
0.0208333333333333
142
0.0
142
0.0
142
0.0
142
0.0
142
0.0208333333333333
142
0.0
142
0.0
142
0.0
142
0.0
142
1.0
142
0.0
142
0.0
142
0.0
142
0.0
142
1.0
179
     0
144
0.0208333333333333
144
0.0
144
0.0
144
0.0
144
0.0
144
0.0208333333333333
144
0.0
144
0.0
144
0.0
144
0.0
144
1.0
144
0.0
144
0.0
144
0.0
144
0.0
144
1.0
147
0.0208333333333333
147
0.0
147
0.0
147
0.0
147
0.0
147
0.0208333333333333
147
0.0
147
0.0
147
0.0
147
0.0
147
1.0
147
0.0
147
0.0
147
0.0
147
0.0
147
1.0
  0
MLEADERSTYLE
  5
67
102
{ACAD_XDICTIONARY
360
1584
102
}
102
{ACAD_REACTORS
330
66
102
}
330
66
100
AcDbMLeaderStyle
170
     2
171
     1
172
     0
 90
        2
 40
0.0
 41
0.0
173
     1
 91
-1056964608
340
5B
 92
       -2
290
     1
 42
0.09
291
     1
 43
0.36
  3
Standard
 44
0.18
300

342
55
174
     1
178
     6
175
     1
176
     0
 93
-1056964608
 45
0.18
292
     0
297
     0
 46
0.18
 94
-1056964608
 47
1.0
 49
1.0
140
1.0
293
     1
141
0.0
294
     1
177
     0
142
1.0
295
     0
296
     0
143
0.125
1001
ACAD_MLEADERVER
1070
     2
  0
MLINESTYLE
  5
60
102
{ACAD_REACTORS
330
5F
102
}
330
5F
100
AcDbMlineStyle
  2
STANDARD
 70
     0
  3

 62
   256
 51
90.0
 52
90.0
 71
     2
 49
0.5
 62
   256
  6
BYLAYER
 49
-0.5
 62
   256
  6
BYLAYER
  0
ACDBPLACEHOLDER
  5
F
102
{ACAD_REACTORS
330
E
102
}
330
E
  0
SCALE
  5
43
102
{ACAD_REACTORS
330
42
102
}
330
42
100
AcDbScale
 70
     0
300
1:1
140
1.0
141
1.0
290
     1
  0
SCALE
  5
44
102
{ACAD_REACTORS
330
42
102
}
330
42
100
AcDbScale
 70
     0
300
1/128" = 1'-0"
140
0.0078125
141
12.0
290
     0
  0
SCALE
  5
45
102
{ACAD_REACTORS
330
42
102
}
330
42
100
AcDbScale
 70
     0
300
1/64" = 1'-0"
140
0.015625
141
12.0
290
     0
  0
SCALE
  5
46
102
{ACAD_REACTORS
330
42
102
}
330
42
100
AcDbScale
 70
     0
300
1/32" = 1'-0"
140
0.03125
141
12.0
290
     0
  0
SCALE
  5
47
102
{ACAD_REACTORS
330
42
102
}
330
42
100
AcDbScale
 70
     0
300
1/16" = 1'-0"
140
0.0625
141
12.0
290
     0
  0
SCALE
  5
48
102
{ACAD_REACTORS
330
42
102
}
330
42
100
AcDbScale
 70
     0
300
3/32" = 1'-0"
140
0.09375
141
12.0
290
     0
  0
SCALE
  5
49
102
{ACAD_REACTORS
330
42
102
}
330
42
100
AcDbScale
 70
     0
300
1/8" = 1'-0"
140
0.125
141
12.0
290
     0
  0
SCALE
  5
4A
102
{ACAD_REACTORS
330
42
102
}
330
42
100
AcDbScale
 70
     0
300
3/16" = 1'-0"
140
0.1875
141
12.0
290
     0
  0
SCALE
  5
4B
102
{ACAD_REACTORS
330
42
102
}
330
42
100
AcDbScale
 70
     0
300
1/4" = 1'-0"
140
0.25
141
12.0
290
     0
  0
SCALE
  5
4C
102
{ACAD_REACTORS
330
42
102
}
330
42
100
AcDbScale
 70
     0
300
3/8" = 1'-0"
140
0.375
141
12.0
290
     0
  0
SCALE
  5
4D
102
{ACAD_REACTORS
330
42
102
}
330
42
100
AcDbScale
 70
     0
300
1/2" = 1'-0"
140
0.5
141
12.0
290
     0
  0
SCALE
  5
4E
102
{ACAD_REACTORS
330
42
102
}
330
42
100
AcDbScale
 70
     0
300
3/4" = 1'-0"
140
0.75
141
12.0
290
     0
  0
SCALE
  5
4F
102
{ACAD_REACTORS
330
42
102
}
330
42
100
AcDbScale
 70
     0
300
1" = 1'-0"
140
1.0
141
12.0
290
     0
  0
SCALE
  5
50
102
{ACAD_REACTORS
330
42
102
}
330
42
100
AcDbScale
 70
     0
300
1-1/2" = 1'-0"
140
1.5
141
12.0
290
     0
  0
SCALE
  5
51
102
{ACAD_REACTORS
330
42
102
}
330
42
100
AcDbScale
 70
     0
300
3" = 1'-0"
140
3.0
141
12.0
290
     0
  0
SCALE
  5
52
102
{ACAD_REACTORS
330
42
102
}
330
42
100
AcDbScale
 70
     0
300
6" = 1'-0"
140
6.0
141
12.0
290
     0
  0
SCALE
  5
53
102
{ACAD_REACTORS
330
42
102
}
330
42
100
AcDbScale
 70
     0
300
1'-0" = 1'-0"
140
12.0
141
12.0
290
     0
  0
TABLESTYLE
  5
65
102
{ACAD_XDICTIONARY
360
1582
102
}
102
{ACAD_REACTORS
330
64
102
}
330
64
100
AcDbTableStyle
  3
Standard
 70
     0
 71
     0
 40
0.06
 41
0.06
280
     0
281
     0
  7
Standard
140
0.18
170
     2
 62
     0
 63
     7
283
     0
274
    -2
284
     1
 64
     0
275
    -2
285
     1
 65
     0
276
    -2
286
     1
 66
     0
277
    -2
287
     1
 67
     0
278
    -2
288
     1
 68
     0
279
    -2
289
     1
 69
     0
  7
Standard
140
0.25
170
     5
 62
     0
 63
     7
283
     0
274
    -2
284
     1
 64
     0
275
    -2
285
     1
 65
     0
276
    -2
286
     1
 66
     0
277
    -2
287
     1
 67
     0
278
    -2
288
     1
 68
     0
279
    -2
289
     1
 69
     0
  7
Standard
140
0.18
170
     5
 62
     0
 63
     7
283
     0
274
    -2
284
     1
 64
     0
275
    -2
285
     1
 65
     0
276
    -2
286
     1
 66
     0
277
    -2
287
     1
 67
     0
278
    -2
288
     1
 68
     0
279
    -2
289
     1
 69
     0
  0
VISUALSTYLE
  5
2F
102
{ACAD_XDICTIONARY
360
1596
102
}
102
{ACAD_REACTORS
330
29
102
}
330
29
100
AcDbVisualStyle
  2
2dWireframe
 70
     4
 71
     0
 72
     2
 73
     0
 90
        0
 40
-0.6
 41
-30.0
 62
     5
 63
     7
421
 16777215
 74
     1
 91
        4
 64
     7
 65
   257
 75
     1
175
     1
 42
1.0
 92
        0
 66
   257
 43
1.0
 76
     1
 77
     6
 78
     2
 67
     7
 79
     5
170
     0
171
     0
290
     0
174
     0
 93
        1
 44
0.0
173
     0
291
     0
 45
0.0
1001
ACAD
1000
AcDbSavedByObjectVersion
1070
     0
  0
VISUALSTYLE
  5
2E
102
{ACAD_XDICTIONARY
360
1594
102
}
102
{ACAD_REACTORS
330
29
102
}
330
29
100
AcDbVisualStyle
  2
Basic
 70
     7
 71
     1
 72
     0
 73
     1
 90
        0
 40
-0.6
 41
-30.0
 62
     5
 63
     7
421
 16777215
 74
     0
 91
        4
 64
     7
 65
   257
 75
     1
175
     1
 42
1.0
 92
        8
 66
     7
 43
1.0
 76
     1
 77
     6
 78
     2
 67
     7
 79
     5
170
     0
171
     0
290
     0
174
     0
 93
        1
 44
0.0
173
     0
291
     1
 45
0.0
1001
ACAD
1000
AcDbSavedByObjectVersion
1070
     0
  0
VISUALSTYLE
  5
35
102
{ACAD_XDICTIONARY
360
15A2
102
}
102
{ACAD_REACTORS
330
29
102
}
330
29
100
AcDbVisualStyle
  2
Brighten
 70
    12
 71
     2
 72
     2
 73
     0
 90
        0
 40
-0.6
 41
-30.0
 62
     5
 63
     7
421
 16777215
 74
     1
 91
        4
 64
     7
 65
   257
 75
     1
175
     1
 42
1.0
 92
        8
 66
     7
 43
1.0
 76
     1
 77
     6
 78
     2
 67
     7
 79
     5
170
     0
171
     0
290
     0
174
     0
 93
        1
 44
50.0
173
     0
291
     1
 45
0.0
1001
ACAD
1000
AcDbSavedByObjectVersion
1070
     0
  0
VISUALSTYLE
  5
39
102
{ACAD_XDICTIONARY
360
15AA
102
}
102
{ACAD_REACTORS
330
29
102
}
330
29
100
AcDbVisualStyle
  2
ColorChange
 70
    16
 71
     2
 72
     2
 73
     3
 90
        0
 40
-0.6
 41
-30.0
 62
     5
 63
     8
421
  8421504
 74
     1
 91
        4
 64
     7
 65
   257
 75
     1
175
     1
 42
1.0
 92
        8
 66
     8
424
  8421504
 43
1.0
 76
     1
 77
     6
 78
     2
 67
     7
 79
     5
170
     0
171
     0
290
     0
174
     0
 93
        1
 44
0.0
173
     0
291
     1
 45
0.0
1001
ACAD
1000
AcDbSavedByObjectVersion
1070
     0
  0
VISUALSTYLE
  5
32
102
{ACAD_XDICTIONARY
360
159C
102
}
102
{ACAD_REACTORS
330
29
102
}
330
29
100
AcDbVisualStyle
  2
Conceptual
 70
     9
 71
     3
 72
     2
 73
     0
 90
        0
 40
-0.6
 41
-30.0
 62
     5
 63
     7
421
 16777215
 74
     2
 91
        2
 64
     7
 65
   257
 75
     1
175
     1
 42
179.0
 92
        8
 66
     7
 43
1.0
 76
     1
 77
     6
 78
     2
 67
     7
 79
     3
170
     0
171
     0
290
     0
174
     0
 93
        1
 44
0.0
173
     0
291
     0
 45
0.0
1001
ACAD
1000
AcDbSavedByObjectVersion
1070
     0
  0
VISUALSTYLE
  5
34
102
{ACAD_XDICTIONARY
360
15A0
102
}
102
{ACAD_REACTORS
330
29
102
}
330
29
100
AcDbVisualStyle
  2
Dim
 70
    11
 71
     2
 72
     2
 73
     0
 90
        0
 40
-0.6
 41
-30.0
 62
     5
 63
     7
421
 16777215
 74
     1
 91
        4
 64
     7
 65
   257
 75
     1
175
     1
 42
1.0
 92
        8
 66
     7
 43
1.0
 76
     1
 77
     6
 78
     2
 67
     7
 79
     5
170
     0
171
     0
290
     0
174
     0
 93
        1
 44
-50.0
173
     0
291
     1
 45
0.0
1001
ACAD
1000
AcDbSavedByObjectVersion
1070
     0
  0
VISUALSTYLE
  5
41
102
{ACAD_XDICTIONARY
360
15BA
102
}
102
{ACAD_REACTORS
330
29
102
}
330
29
100
AcDbVisualStyle
  2
EdgeColorOff
 70
    22
 71
     2
 72
     2
 73
     0
 90
        0
 40
-0.6
 41
-30.0
 62
     5
 63
     7
421
 16777215
 74
     1
 91
        4
 64
     7
 65
   257
 75
     1
175
     1
 42
1.0
 92
        8
 66
     7
 43
1.0
 76
     1
 77
     6
 78
     2
 67
     7
 79
     5
170
     0
171
     0
290
     0
174
     0
 93
        1
 44
0.0
173
     0
291
     1
 45
0.0
1001
ACAD
1000
AcDbSavedByObjectVersion
1070
     0
  0
VISUALSTYLE
  5
38
102
{ACAD_XDICTIONARY
360
15A8
102
}
102
{ACAD_REACTORS
330
29
102
}
330
29
100
AcDbVisualStyle
  2
Facepattern
 70
    15
 71
     2
 72
     2
 73
     0
 90
        0
 40
-0.6
 41
-30.0
 62
     5
 63
     7
421
 16777215
 74
     1
 91
        4
 64
     7
 65
   257
 75
     1
175
     1
 42
1.0
 92
        8
 66
     7
 43
1.0
 76
     1
 77
     6
 78
     2
 67
     7
 79
     5
170
     0
171
     0
290
     0
174
     0
 93
        1
 44
0.0
173
     0
291
     1
 45
0.0
1001
ACAD
1000
AcDbSavedByObjectVersion
1070
     0
  0
VISUALSTYLE
  5
2A
102
{ACAD_XDICTIONARY
360
158C
102
}
102
{ACAD_REACTORS
330
29
102
}
330
29
100
AcDbVisualStyle
  2
Flat
 70
     0
 71
     2
 72
     1
 73
     1
 90
        2
 40
-0.6
 41
30.0
 62
     5
 63
     7
421
 16777215
 74
     0
 91
        0
 64
     7
 65
   257
 75
     1
175
     1
 42
1.0
 92
        8
 66
     7
 43
1.0
 76
     1
 77
     6
 78
     2
 67
     7
 79
     5
170
     0
171
     0
290
     0
174
     0
 93
       13
 44
0.0
173
     0
291
     1
 45
0.0
1001
ACAD
1000
AcDbSavedByObjectVersion
1070
     0
  0
VISUALSTYLE
  5
2B
102
{ACAD_XDICTIONARY
360
158E
102
}
102
{ACAD_REACTORS
330
29
102
}
330
29
100
AcDbVisualStyle
  2
FlatWithEdges
 70
     1
 71
     2
 72
     1
 73
     1
 90
        2
 40
-0.6
 41
30.0
 62
     5
 63
     7
421
 16777215
 74
     1
 91
        0
 64
     7
 65
   257
 75
     1
175
     1
 42
1.0
 92
        0
 66
   257
 43
1.0
 76
     1
 77
     6
 78
     2
 67
     7
 79
     5
170
     0
171
     0
290
     0
174
     0
 93
       13
 44
0.0
173
     0
291
     1
 45
0.0
1001
ACAD
1000
AcDbSavedByObjectVersion
1070
     0
  0
VISUALSTYLE
  5
2C
102
{ACAD_XDICTIONARY
360
1590
102
}
102
{ACAD_REACTORS
330
29
102
}
330
29
100
AcDbVisualStyle
  2
Gouraud
 70
     2
 71
     2
 72
     2
 73
     1
 90
        2
 40
-0.6
 41
30.0
 62
     5
 63
     7
421
 16777215
 74
     0
 91
        0
 64
     7
 65
   257
 75
     1
175
     1
 42
1.0
 92
        0
 66
     7
 43
1.0
 76
     1
 77
     6
 78
     2
 67
     7
 79
     5
170
     0
171
     0
290
     0
174
     0
 93
       13
 44
0.0
173
     0
291
     1
 45
0.0
1001
ACAD
1000
AcDbSavedByObjectVersion
1070
     0
  0
VISUALSTYLE
  5
2D
102
{ACAD_XDICTIONARY
360
1592
102
}
102
{ACAD_REACTORS
330
29
102
}
330
29
100
AcDbVisualStyle
  2
GouraudWithEdges
 70
     3
 71
     2
 72
     2
 73
     1
 90
        2
 40
-0.6
 41
30.0
 62
     5
 63
     7
421
 16777215
 74
     1
 91
        0
 64
     7
 65
   257
 75
     1
175
     1
 42
1.0
 92
        0
 66
   257
 43
1.0
 76
     1
 77
     6
 78
     2
 67
     7
 79
     5
170
     0
171
     0
290
     0
174
     0
 93
       13
 44
0.0
173
     0
291
     1
 45
0.0
1001
ACAD
1000
AcDbSavedByObjectVersion
1070
     0
  0
VISUALSTYLE
  5
31
102
{ACAD_XDICTIONARY
360
159A
102
}
102
{ACAD_REACTORS
330
29
102
}
330
29
100
AcDbVisualStyle
  2
Hidden
 70
     6
 71
     1
 72
     2
 73
     2
 90
        0
 40
-0.6
 41
-30.0
 62
     5
 63
     7
421
 16777215
 74
     2
 91
        2
 64
     7
 65
   257
 75
     2
175
     1
 42
40.0
 92
        0
 66
   257
 43
1.0
 76
     1
 77
     6
 78
     2
 67
     7
 79
     3
170
     0
171
     0
290
     0
174
     0
 93
        1
 44
0.0
173
     0
291
     0
 45
0.0
1001
ACAD
1000
AcDbSavedByObjectVersion
1070
     0
  0
VISUALSTYLE
  5
3F
102
{ACAD_XDICTIONARY
360
15B6
102
}
102
{ACAD_REACTORS
330
29
102
}
330
29
100
AcDbVisualStyle
  2
JitterOff
 70
    20
 71
     2
 72
     2
 73
     0
 90
        0
 40
-0.6
 41
-30.0
 62
     5
 63
     7
421
 16777215
 74
     1
 91
        4
 64
     7
 65
   257
 75
     1
175
     1
 42
1.0
 92
       10
 66
     7
 43
1.0
 76
     1
 77
     6
 78
     2
 67
     7
 79
     5
170
     0
171
     0
290
     0
174
     0
 93
        1
 44
0.0
173
     0
291
     1
 45
0.0
1001
ACAD
1000
AcDbSavedByObjectVersion
1070
     0
  0
VISUALSTYLE
  5
37
102
{ACAD_XDICTIONARY
360
15A6
102
}
102
{ACAD_REACTORS
330
29
102
}
330
29
100
AcDbVisualStyle
  2
Linepattern
 70
    14
 71
     2
 72
     2
 73
     0
 90
        0
 40
-0.6
 41
-30.0
 62
     5
 63
     7
421
 16777215
 74
     1
 91
        4
 64
     7
 65
   257
 75
     7
175
     7
 42
1.0
 92
        8
 66
     7
 43
1.0
 76
     1
 77
     6
 78
     2
 67
     7
 79
     5
170
     0
171
     0
290
     0
174
     0
 93
        1
 44
0.0
173
     0
291
     1
 45
0.0
1001
ACAD
1000
AcDbSavedByObjectVersion
1070
     0
  0
VISUALSTYLE
  5
40
102
{ACAD_XDICTIONARY
360
15B8
102
}
102
{ACAD_REACTORS
330
29
102
}
330
29
100
AcDbVisualStyle
  2
OverhangOff
 70
    21
 71
     2
 72
     2
 73
     0
 90
        0
 40
-0.6
 41
-30.0
 62
     5
 63
     7
421
 16777215
 74
     1
 91
        4
 64
     7
 65
   257
 75
     1
175
     1
 42
1.0
 92
        9
 66
     7
 43
1.0
 76
     1
 77
     6
 78
     2
 67
     7
 79
     5
170
     0
171
     0
290
     0
174
     0
 93
        1
 44
0.0
173
     0
291
     1
 45
0.0
1001
ACAD
1000
AcDbSavedByObjectVersion
1070
     0
  0
VISUALSTYLE
  5
33
102
{ACAD_XDICTIONARY
360
159E
102
}
102
{ACAD_REACTORS
330
29
102
}
330
29
100
AcDbVisualStyle
  2
Realistic
 70
     8
 71
     2
 72
     3
 73
     0
 90
        2
 40
-0.6
 41
30.0
 62
     5
 63
     7
421
 16777215
 74
     0
 91
        0
 64
     7
 65
   257
 75
     1
175
     1
 42
1.0
 92
        8
 66
   257
 43
1.0
 76
     1
 77
     6
 78
     2
 67
     7
 79
     3
170
     0
171
     0
290
     0
174
     0
 93
       13
 44
0.0
173
     0
291
     0
 45
0.0
1001
ACAD
1000
AcDbSavedByObjectVersion
1070
     0
  0
VISUALSTYLE
  5
3E
102
{ACAD_XDICTIONARY
360
15B4
102
}
102
{ACAD_REACTORS
330
29
102
}
330
29
100
AcDbVisualStyle
  2
Shaded
 70
    27
 71
     2
 72
     2
 73
     1
 90
        2
 40
-0.6
 41
30.0
 62
     5
 63
     7
421
 16777215
 74
     0
 91
        4
 64
     7
 65
   257
 75
     1
175
     1
 42
1.0
 92
        8
 66
   257
 43
1.0
 76
     1
 77
     6
 78
     2
 67
     8
425
  7895160
 79
     3
170
     0
171
     0
290
     0
174
     0
 93
        5
 44
0.0
173
     0
291
     0
 45
0.0
1001
ACAD
1000
AcDbSavedByObjectVersion
1070
     0
  0
VISUALSTYLE
  5
3D
102
{ACAD_XDICTIONARY
360
15B2
102
}
102
{ACAD_REACTORS
330
29
102
}
330
29
100
AcDbVisualStyle
  2
Shaded with edges
 70
    26
 71
     2
 72
     2
 73
     1
 90
        2
 40
-0.6
 41
30.0
 62
     5
 63
     7
421
 16777215
 74
     1
 91
       10
 64
     7
 65
   257
 75
     2
175
     1
 42
1.0
 92
        8
 66
   257
 43
1.0
 76
     1
 77
     6
 78
     2
 67
     7
 79
     3
170
     0
171
     0
290
     0
174
     0
 93
        5
 44
0.0
173
     0
291
     0
 45
0.0
1001
ACAD
1000
AcDbSavedByObjectVersion
1070
     0
  0
VISUALSTYLE
  5
3A
102
{ACAD_XDICTIONARY
360
15AC
102
}
102
{ACAD_REACTORS
330
29
102
}
330
29
100
AcDbVisualStyle
  2
Shades of Gray
 70
    23
 71
     2
 72
     2
 73
     3
 90
        0
 40
-0.6
 41
-30.0
 62
     5
 63
     7
421
 16777215
 74
     2
 91
        2
 64
     7
 65
     7
 75
     1
175
     1
 42
40.0
 92
        8
 66
     7
 43
1.0
 76
     1
 77
     6
 78
     2
 67
     7
 79
     3
170
     0
171
     0
290
     0
174
     0
 93
        1
 44
0.0
173
     0
291
     0
 45
0.0
1001
ACAD
1000
AcDbSavedByObjectVersion
1070
     0
  0
VISUALSTYLE
  5
3B
102
{ACAD_XDICTIONARY
360
15AE
102
}
102
{ACAD_REACTORS
330
29
102
}
330
29
100
AcDbVisualStyle
  2
Sketchy
 70
    24
 71
     1
 72
     2
 73
     2
 90
        0
 40
-0.6
 41
-30.0
 62
     5
 63
     7
421
 16777215
 74
     2
 91
        2
 64
     7
 65
     7
 75
     1
175
     1
 42
40.0
 92
       11
 66
     7
 43
1.0
 76
     1
 77
     6
 78
     2
 67
     7
 79
     6
170
     0
171
     0
290
     0
174
     0
 93
        1
 44
0.0
173
     0
291
     0
 45
0.0
1001
ACAD
1000
AcDbSavedByObjectVersion
1070
     0
  0
VISUALSTYLE
  5
36
102
{ACAD_XDICTIONARY
360
15A4
102
}
102
{ACAD_REACTORS
330
29
102
}
330
29
100
AcDbVisualStyle
  2
Thicken
 70
    13
 71
     2
 72
     2
 73
     0
 90
        0
 40
-0.6
 41
-30.0
 62
     5
 63
     7
421
 16777215
 74
     1
 91
        4
 64
     7
 65
   257
 75
     1
175
     1
 42
1.0
 92
       12
 66
     7
 43
1.0
 76
     1
 77
     6
 78
     2
 67
     7
 79
     5
170
     0
171
     0
290
     0
174
     0
 93
        1
 44
0.0
173
     0
291
     1
 45
0.0
1001
ACAD
1000
AcDbSavedByObjectVersion
1070
     0
  0
VISUALSTYLE
  5
30
102
{ACAD_XDICTIONARY
360
1598
102
}
102
{ACAD_REACTORS
330
29
102
}
330
29
100
AcDbVisualStyle
  2
Wireframe
 70
     5
 71
     0
 72
     2
 73
     0
 90
        0
 40
-0.6
 41
-30.0
 62
     5
 63
     7
421
 16777215
 74
     1
 91
        4
 64
     7
 65
   257
 75
     1
175
     1
 42
1.0
 92
        0
 66
   257
 43
1.0
 76
     1
 77
     6
 78
     2
 67
     7
 79
     3
170
     0
171
     0
290
     0
174
     0
 93
        1
 44
0.0
173
     0
291
     0
 45
0.0
1001
ACAD
1000
AcDbSavedByObjectVersion
1070
     0
  0
VISUALSTYLE
  5
3C
102
{ACAD_XDICTIONARY
360
15B0
102
}
102
{ACAD_REACTORS
330
29
102
}
330
29
100
AcDbVisualStyle
  2
X-Ray
 70
    25
 71
     2
 72
     2
 73
     1
 90
        1
 40
0.5
 41
-30.0
 62
     5
 63
     7
421
 16777215
 74
     1
 91
        0
 64
     7
 65
   257
 75
     1
175
     1
 42
1.0
 92
        8
 66
     7
 43
1.0
 76
     1
 77
     6
 78
     2
 67
     7
 79
     3
170
     0
171
     0
290
     0
174
     0
 93
       13
 44
0.0
173
     0
291
     0
 45
0.0
1001
ACAD
1000
AcDbSavedByObjectVersion
1070
     0
  0
DICTIONARYVAR
  5
79
102
{ACAD_REACTORS
330
76
102
}
330
76
100
DictionaryVariables
280
     0
  1
1:1
  0
DICTIONARYVAR
  5
78
102
{ACAD_REACTORS
330
76
102
}
330
76
100
DictionaryVariables
280
     0
  1
STANDARD
  0
DICTIONARYVAR
  5
77
102
{ACAD_REACTORS
330
76
102
}
330
76
100
DictionaryVariables
280
     0
  1
STANDARD
  0
DICTIONARYVAR
  5
157F
102
{ACAD_REACTORS
330
76
102
}
330
76
100
DictionaryVariables
280
     0
  1
0
  0
DICTIONARYVAR
  5
1580
102
{ACAD_REACTORS
330
76
102
}
330
76
100
DictionaryVariables
280
     0
  1
0
  0
DICTIONARYVAR
  5
157E
102
{ACAD_REACTORS
330
76
102
}
330
76
100
DictionaryVariables
280
     0
  1
2
  0
DICTIONARYVAR
  5
157D
102
{ACAD_REACTORS
330
76
102
}
330
76
100
DictionaryVariables
280
     0
  1
1
  0
DICTIONARYVAR
  5
1581
102
{ACAD_REACTORS
330
76
102
}
330
76
100
DictionaryVariables
280
     0
  1
2
  0
DICTIONARY
  5
1A
330
19
100
AcDbDictionary
280
     1
281
     1
  3
ACAD_XREC_ROUNDTRIP
360
158A
  3
BUMPTILE
360
1C
  3
DIFFUSETILE
360
1B
  3
OPACITYTILE
360
1F
  3
REFLECTIONTILE
360
1E
  3
REFRACTIONTILE
360
20
  3
SPECULARTILE
360
1D
  0
DICTIONARY
  5
12
330
11
100
AcDbDictionary
280
     1
281
     1
  3
ACAD_XREC_ROUNDTRIP
360
1589
  3
BUMPTILE
360
14
  3
DIFFUSETILE
360
13
  3
FBXASSET
360
F5
  3
OPACITYTILE
360
17
  3
REFLECTIONTILE
360
16
  3
REFRACTIONTILE
360
18
  3
SPECULARTILE
360
15
  0
DICTIONARY
  5
22
330
21
100
AcDbDictionary
280
     1
281
     1
  3
ACAD_XREC_ROUNDTRIP
360
158B
  3
BUMPTILE
360
24
  3
DIFFUSETILE
360
23
  3
FBXASSET
360
BA
  3
OPACITYTILE
360
27
  3
REFLECTIONTILE
360
26
  3
REFRACTIONTILE
360
28
  3
SPECULARTILE
360
25
  0
DICTIONARY
  5
1584
330
67
100
AcDbDictionary
280
     1
281
     1
  3
ACAD_XREC_ROUNDTRIP
360
1585
  0
DICTIONARY
  5
1582
330
65
100
AcDbDictionary
280
     1
281
     1
  3
ACAD_ROUNDTRIP_2008_TABLESTYLE_CELLSTYLEMAP
360
1583
  3
ACAD_XREC_ROUNDTRIP
360
15BC
  0
DICTIONARY
  5
1596
330
2F
100
AcDbDictionary
280
     1
281
     1
  3
ACAD_XREC_ROUNDTRIP
360
1597
  0
DICTIONARY
  5
1594
330
2E
100
AcDbDictionary
280
     1
281
     1
  3
ACAD_XREC_ROUNDTRIP
360
1595
  0
DICTIONARY
  5
15A2
330
35
100
AcDbDictionary
280
     1
281
     1
  3
ACAD_XREC_ROUNDTRIP
360
15A3
  0
DICTIONARY
  5
15AA
330
39
100
AcDbDictionary
280
     1
281
     1
  3
ACAD_XREC_ROUNDTRIP
360
15AB
  0
DICTIONARY
  5
159C
330
32
100
AcDbDictionary
280
     1
281
     1
  3
ACAD_XREC_ROUNDTRIP
360
159D
  0
DICTIONARY
  5
15A0
330
34
100
AcDbDictionary
280
     1
281
     1
  3
ACAD_XREC_ROUNDTRIP
360
15A1
  0
DICTIONARY
  5
15BA
330
41
100
AcDbDictionary
280
     1
281
     1
  3
ACAD_XREC_ROUNDTRIP
360
15BB
  0
DICTIONARY
  5
15A8
330
38
100
AcDbDictionary
280
     1
281
     1
  3
ACAD_XREC_ROUNDTRIP
360
15A9
  0
DICTIONARY
  5
158C
330
2A
100
AcDbDictionary
280
     1
281
     1
  3
ACAD_XREC_ROUNDTRIP
360
158D
  0
DICTIONARY
  5
158E
330
2B
100
AcDbDictionary
280
     1
281
     1
  3
ACAD_XREC_ROUNDTRIP
360
158F
  0
DICTIONARY
  5
1590
330
2C
100
AcDbDictionary
280
     1
281
     1
  3
ACAD_XREC_ROUNDTRIP
360
1591
  0
DICTIONARY
  5
1592
330
2D
100
AcDbDictionary
280
     1
281
     1
  3
ACAD_XREC_ROUNDTRIP
360
1593
  0
DICTIONARY
  5
159A
330
31
100
AcDbDictionary
280
     1
281
     1
  3
ACAD_XREC_ROUNDTRIP
360
159B
  0
DICTIONARY
  5
15B6
330
3F
100
AcDbDictionary
280
     1
281
     1
  3
ACAD_XREC_ROUNDTRIP
360
15B7
  0
DICTIONARY
  5
15A6
330
37
100
AcDbDictionary
280
     1
281
     1
  3
ACAD_XREC_ROUNDTRIP
360
15A7
  0
DICTIONARY
  5
15B8
330
40
100
AcDbDictionary
280
     1
281
     1
  3
ACAD_XREC_ROUNDTRIP
360
15B9
  0
DICTIONARY
  5
159E
330
33
100
AcDbDictionary
280
     1
281
     1
  3
ACAD_XREC_ROUNDTRIP
360
159F
  0
DICTIONARY
  5
15B4
330
3E
100
AcDbDictionary
280
     1
281
     1
  3
ACAD_XREC_ROUNDTRIP
360
15B5
  0
DICTIONARY
  5
15B2
330
3D
100
AcDbDictionary
280
     1
281
     1
  3
ACAD_XREC_ROUNDTRIP
360
15B3
  0
DICTIONARY
  5
15AC
330
3A
100
AcDbDictionary
280
     1
281
     1
  3
ACAD_XREC_ROUNDTRIP
360
15AD
  0
DICTIONARY
  5
15AE
330
3B
100
AcDbDictionary
280
     1
281
     1
  3
ACAD_XREC_ROUNDTRIP
360
15AF
  0
DICTIONARY
  5
15A4
330
36
100
AcDbDictionary
280
     1
281
     1
  3
ACAD_XREC_ROUNDTRIP
360
15A5
  0
DICTIONARY
  5
1598
330
30
100
AcDbDictionary
280
     1
281
     1
  3
ACAD_XREC_ROUNDTRIP
360
1599
  0
DICTIONARY
  5
15B0
330
3C
100
AcDbDictionary
280
     1
281
     1
  3
ACAD_XREC_ROUNDTRIP
360
15B1
  0
XRECORD
  5
158A
102
{ACAD_REACTORS
330
1A
102
}
330
1A
100
AcDbXrecord
280
     1
102
MATERIAL
148
0.0
149
0.0
149
0.0
 93
        0
 94
      127
282
     0
 72
     0
 77
     0
171
     0
175
     0
179
     0
273
     0
  0
XRECORD
  5
1C
102
{ACAD_REACTORS
330
1A
102
}
330
1A
100
AcDbXrecord
280
     1
270
     1
271
     1
  0
XRECORD
  5
1B
102
{ACAD_REACTORS
330
1A
102
}
330
1A
100
AcDbXrecord
280
     1
270
     1
271
     1
  0
XRECORD
  5
1F
102
{ACAD_REACTORS
330
1A
102
}
330
1A
100
AcDbXrecord
280
     1
270
     1
271
     1
  0
XRECORD
  5
1E
102
{ACAD_REACTORS
330
1A
102
}
330
1A
100
AcDbXrecord
280
     1
270
     1
271
     1
  0
XRECORD
  5
20
102
{ACAD_REACTORS
330
1A
102
}
330
1A
100
AcDbXrecord
280
     1
270
     1
271
     1
  0
XRECORD
  5
1D
102
{ACAD_REACTORS
330
1A
102
}
330
1A
100
AcDbXrecord
280
     1
270
     1
271
     1
  0
XRECORD
  5
1589
102
{ACAD_REACTORS
330
12
102
}
330
12
100
AcDbXrecord
280
     1
102
MATERIAL
148
0.0
149
0.0
149
0.0
 93
        0
 94
      127
282
     0
 72
     0
 77
     0
171
     0
175
     0
179
     0
273
     0
  0
XRECORD
  5
14
102
{ACAD_REACTORS
330
12
102
}
330
12
100
AcDbXrecord
280
     1
270
     1
271
     1
  0
XRECORD
  5
13
102
{ACAD_REACTORS
330
12
102
}
330
12
100
AcDbXrecord
280
     1
270
     1
271
     1
  0
XRECORD
  5
F5
102
{ACAD_REACTORS
330
12
102
}
330
12
100
AcDbXrecord
280
     1
 70
     1
 90
1959938040
 71
     1
  1
ADAB041D-B51F-4150-B9B1-70E3CA35F0B6
311
504B03040A000008000083A0AF423DEE336E79000000790000001B0000006175746F6465736B2D64657369676E2D7061636B6167652E786D6C3C3F786D6C2076657273696F6E3D22312E302220656E636F64696E673D227574662D3822203F3E3C666F726D6174733E3C666F726D61743E687474703A2F2F736368656D612E
311
6175746F6465736B2E636F6D2F64657369676E2D7061636B6167652F323030393C2F666F726D61743E3C2F666F726D6174733E504B030414000608080083A0AF42D486FD9CA0000000F4000000130000005B436F6E74656E745F54797065735D2E786D6C7D8EC10E82300C865F65E91D8A1E8C310C0EEA1BF002731658846E
311
D98AC1B77784ABF1D8FE5FBFBF75BBCE937A534CCEB38643598122B6FEE978D0B0485F9C41B54DDD7D022595594E1A469170414C76A4D9A4D207E29CF43ECE46F218070CC6BECC4078ACAA135ACF422C856C0E68EA1BF5669944DDD7BCDE7B1F8E415D77AECB980613C2E4AC91FC167A2B244592486606FC29C8FD7F045B9A
311
EF7053A7E60B504B030414000608080083A0AF4226CEA92FEC0000007C01000008000000636F72652E786D6C8D904D6EC3201085AF82665B6163FC13C7C244695D9FA01740405C94182C03558F5F9C3852BBEB6A466FDE37337AECF43DDFD0975EBD71B687222380B4954E193BF510C305B7804E9CADCE855F364056CCBA87
311
4D06CEA6D5C56597A4B341DB9054EB94DE45E1BD0E80E42D353D78F9A96791891892C35FB345C8AB9874563CBB04C768147A1C312AED3317A357E074A886BA1D281ECFEF6FB83A34236E4B7AC4E3613CD3961CDBF2B561F9067316CCFCBC2F572D825689274589498D8BFA83928E541D695E48DD9584E59BFD0F1417F54F28
311
1A1B4ABABFFBC03CF0223D721F70966F59A4720F2AD52D37FE03504B030414000608080083A0AF4255019EA25F0000007C00000007000000636E782E786D6C4DCB3B0E80201045D1AD90E915ED2CF8AC45050C11660C8261F98AB1B07AC9C97D42D718D865D3E909258CFD00CCE24AC6E326A164D74DC0B4128928FF326038
311
472BA13128B1252AC747C6BAB984FC68F0B87FE8960A5C09FE86CFB69FBA01504B030414000608080083A0AF42647AE5E868010000020300000C0000006662782F636F72652E786D6C8D525B6E833010BC8AE5DF0A6C5E09898CA3B42927E8051C70280AD8C8D828C7EFF28868AA28AA908C35B3B33B3BC00EB7B64183347D
311
AD5586039F622455A1CB5A551976F6E2A5181D38335ADB5F651829D1CA0C8F30E6AC32DA750B546865A5B2802A5DCA05147D2F2D464503970CF7C5B76C852F9C858AFEEA77A2B88A4AFA810F34D471D65B0306D03C643C31BF9C6F8CCC3867CED5E5C2D6254CAB2FB5349887A7F894A4A7D0CB8F9F1F5EBCDDE45E1A853B2F
311
DFE6C730A5BB347ADF30328A39B3757B77571829AC2C414F83C8A38917245F21DDD3784F376F34D9479491B1FC41E4BAF29F22572B1B858BDD59D6631E809189F8B32D4464512F06F04338236388F09A127E0C1A028190AD3837F73DAE000DB2B0DAC4C094DAADD4201A27612A45D3C3C8CC42E7A9016CF6B44FF8A2CFEB1E
311
F00185AAC09AB0703D3B3B4E67F3D4258A4E1A6FB037A4B46945B39A9B2DAEE73AE8A9BCD08D36FF51936555B28449C6BF97FF00504B030414000608080083A0AF42026083A57E0000009D0000000B0000006662782F636E782E786D6C4DCCD10E82201886E15B61FF399958C401E07E51EFC3253A174223685D7EDA3CE8E8
311
DB9E7D7B65FD591D79DBF85A8257509ECE40ACBF8771F1B3829C262A80D45AC610D2DF0D881F56AB6067D0728E213F0F1AED34649736758B7F1CD872D362736B2817ACA297123B2AB0428A3D67C87AD35D8D8042CBE257DA760FEB2F504B030414000608080083A0AF42F4BF5DD22D01000015020000310000006662782F44
311
364344414237422D363832332D343141452D384133412D4146363241324643453543382F636F72652E786D6C8D515B6EC32010BC8AC557AA0A1BFCA04E84899CD7097A0162488A1283C5A3CAF10BB523B57FF961D1ECCCEC68976E1FE33DFB96D629A33B80730432A9072394BE7620F80B6C41B665D41AE3FFD040A6F9283B
311
9060C0E8D59A302DD060B497DA47541B2117903B273DC8867BFC74C00D5F72E4390F3E32DC2D9FF870E35799E33CB6238F51E76D0C90CD43D20BD881EC0FFDEE6307495B56B0C6FD11B67DD5C3FE44CABE3CED8FCDBEA5C52C6434042516B912318EBA28695F35496246BD1A9FF1072BB99702B012E10AA206E2E6B3441B54
311
6F107947CDA642B448F47FA23089174541695F954BDC59E600C3B4981B8C0A13CEF76718F9988CF5599AB7727278030CE508B598ACAB35A1C5CC8D1B88A6A45E4C9D37366E78753B473A6E666752335AA423C5F27BC158D341D90F504B030414000608080083A0AF421F968DE64E01000033030000300000006662782F4436
311
4344414237422D363832332D343141452D384133412D4146363241324643453543382F636E782E786D6CD593CD6EC32010845F0571AD6CE3C489AA0813A9873E410FBD12D8A434182C7EAAE6EDBB2424CD25871E7B41D6EC30B3FA84F9F67BB2E40B4234DE8DB46F1925E094D7C61D469AD3BE79A6642B78F03EDDD9287172
311
829116990A7E083ECF55D2B097D92654AD71C72A06883E070511E5729358AFA4C500704D4611A61D680D9ADC8CF8B58780ABA0B83B91F401E4F5E59DF8DD27A81479575204EF4A87E0E5AC4D77264A9495318E34AA0F98642B73F21AE2B1D532C9B66FAF5D0F76FA4D22E5C2B53207434AF948CB4945DDA8458EBCC3A1E031
311
05A4574DE9340315729EAD513221E4EE6CBC7804CFC6A5F550BD06C10774F7EBE53060D8792678321354870A2013682A16AC5F366CD5F4ABB705DBB061C3D64F6CB55932DE15BBE03BEF6DBD843110FC4C9477095CA2A2E75D193FC2577D449B80AC7D38FD012402A8AD173AB78CFFCCA73BBF6FC415F02F103F504B030414
311
000608080083A0AF423276D2E6A405000081100000340000006662782F44364344414237422D363832332D343141452D384133412D4146363241324643453543382F6F626A656374732E786D6CAD575B6FDB3614FE2B82F6B23DD8B26C274D0645832F4D6174698B1A2DF660C0A0254AE1425D4052A9B35FBF8F22254BAE9D
311
7A435F74E1E5F09CEF7CE7C2E08F7DC69D672A242BF23BD71F8E5C87E65111B33CBD732B950C6E5CE78F301045A13ACB5C272719BD73F5B01B06A928AAD20EC53421155747A3F7F3BF1C19D19CBA4EC4899477AE8C1E694686A452454CE5D330268A0CD3643FF48766615F6C2A48F97824B42482E60A9A623C8714C728E5F7
311
7F47AE17069E9E0F03FDB4AB26E75779B53DFDF3592E15C9A3EF0E3B1233F1A7CBB7E3ABDBC1D5743A194CAFC7FE607E3F5F0EFC3793D1E27AB1B89DBDBDC5C1520948B29A089AB8E13B6023581478662A0C2A96ABC9D82EB10EF2047D66DA536E3876FCC0336B5AEBAC91A7D48F8A3CA7518D15D0A8EDB3A2635AD23C86CF
311
1995D0AC83D0A8FFEB6B1C3BD313FD6F8FEC0E5F864077474750A37BF3EE6A5AECFE8609F21206094935030D96D650C3D5D101E15D51703BC7A49311450523DCE16C27887871432CD54BC2A027463359E868D016B821BC60A6FB744118FD98E7A7B44C2ACE358DDDB08E822D62852A596BC6FEA1E2A07D1719E8045F6936DC
311
5883D44B49DDF0D650E4E6884D064827E12485CB61A6DE39191F19BAD071BA5ABAE1FBFBDD7EAD63F7F4E1A5284A2A94A60FA8D538AE796B94AC4EFE459ED31BDC23550EA07C06F21F10EA0755E037C1F6D3FDD49EA204C96552880CBE7146CE6084C7C8F1EBA7FEEE7C055EBBB9EFBD7378C2D91AAA9F8067DF86AE2F3B70
311
86C133085F8889356D1D118EB4F1C07200A449E2F00243C8C3C96EEF862B64396465EC223CF46132D47DC667E059314814F5499D770E2C8FD2E205091AB0D58C841A86FC56C1839FBE4B67F5C176D93978AF7E0A5D67CBF5FB75251212D1071BD34B9AB09C2994B8036FBA0AF530EF59F4445FBE152286A1DFE3BDEEE29DD9
311
A324D0D6986BE0D326A7EB9FC3C9BD0322EC4B0B9D6E821F9C00237461EDC87F6032A29C939C165573EEABF50365C340AC835D33B92D3087C202D29899A31844918E042B35886DB56A93E6F08C755F561FC048379CBFFC495EBAD96B77C8BD51C10BB1DDBD6C4D5A3A09F5D73EB72D069E9602BAD741D2C4BF057D1BB324A9
311
2492E0095CBFAE165DDFE9B48014D14835D13285FD082E222C691BB9A8D682A09216F996A16E22EE4E1ED0950F482D036A81E7349694275BC679956D13C6518DB61929CFC0F1FFF5DF5559B9255951E5EA8CEC9EEAA80E7DDD7BEC95DF888A1EDD705DBF0773E4DE98C667C8A06BC909AC7AAE9D2D67F3D1D45F0EE657FEFD
311
60EA5F8D06F3DBB93F78337A3B59CC2657F7A3F975E327A3491834A5A61BD1F0124A5B500966DDF76585F8B149C00D1F88929B77263C9BF797D510BD70E0610FEA65BB71163FA3EFA3F18F051C569E14B4CA4A4E339A2BA263E8417FF0CF047D464F1933BECA484A2F90F2F1DDFAC8188C5CB0EF938E77FAED68AF1D5DE880
311
3C29443D56D92E278C1F6D4C0D92C3324F2D7E8D4FDAB72934CDAFFEB38E41672A0BCE62E4C1D849699151856C784111121995A05EB7A78FEDDDE382DDCFA6435464C769A3C9234193CC25C202D4AA22D51F777E4153A7FBAA3B17E576F88487CD14AE03CEDCB968D2158BA81CEE50A0752B540B0797BA9D3C1A7F92A71CBD
311
B6D9D4FEB7BB3436BD92DC2EB9A47FB27699146E0D401A29D137A02182776A65C2A0D6CDCE47FFC9F0461D87287CEE2AD5DA7218688DA98F41881AA3EC6D014DCC933D7A8F407DDD2C7F58AFE92172D12DEB551218A90345445ADF14B47E56A5D9F293870EC5597D744A5EA5F0E5E592068282CC950E70B008ACB0324BA240
311
D5C5EF9B4FA2C04D3673EE1928E0FCBABFB9FE6DB328B2ACC8CDD06666EFC3CEFA11B7DB7883E440F5B5446EC6237FBCA9AF03F686B2DD11498724964F188067056B81EEB91FBC347746D42133D1AEF3B42B8E18BA5A3AB6B04D21D4D2A59B5B3538683C72EA2086F49552474C7741F9EA8DC0AB974205815E3EFC17504B03
311
0414000608000083A0AF42000000000000000000000000350000006662782F44364344414237422D363832332D343141452D384133412D4146363241324643453543382F76657274696365732E62696E504B030414000608080083A0AF42F270F1330600000004000000360000006662782F44364344414237422D36383233
311
2D343141452D384133412D4146363241324643453543382F747269616E676C65732E62696E636660600000504B030414000608000083A0AF42000000000000000000000000370000006662782F44364344414237422D363832332D343141452D384133412D4146363241324643453543382F617474726962757465732E6269
311
6E504B030414000608080083A0AF42D5987DFC8F00000041010000360000006662782F44364344414237422D363832332D343141452D384133412D4146363241324643453543382F6469726563746F72792E786D6C858F410EC2201045AF4266AF15DDB800BA74E7C21B903225242D6328188F2FA5C4183471359997F9FF81
311
E89FF3C41E1816475E02DF1F80A11FC8386F25A438EECEC07A250251FC3803E6F58C12560C4AD840E95E91C151A72936F496F35732D860FE635F62C8F2DA16B505C545B74125BAA2FA9E05D7CC053D063734D5C7665FD55B6B8D15D5E9BFEAFD8490FFA45E504B030414000608080083A0AF424E24F41EFE000000A0010000
311
3B0000006662782F44364344414237422D363832332D343141452D384133412D4146363241324643453543382F7265736F75726365732F636F72652E786D6C8D50596E833010BD8AE5DFCA60B68420E3282DE504BD80654F889560232F558F5F13A8D4FEF56766F416CDD363E7AFF9813EC1796D4D8F8B8C6204465AA5CDD4
311
E318AEA4C5E8CC99B336FC926164C40C3D5E61CCD9E46C5C76485A13C084841AAB600785F71030928F74F4D8CB1BCC2213312485BF678B907731415664894E3ACE7C702900DA9EAC137307DE4627C1B37C63398B51AB5DA355FAA9AF1A1CE6E5500F4D3B1464BCBCBF91FA7818495B9527321EC74BD9D2535BBD1E58BE9A39
311
0B7AFEC9281D88002AF9695111DA90A2F9286947EB8E1E5E68D35594E5ABFC8F292EEA9FA6A84DA8CA3DEE66F3981729C893E02C5FFB4AEB5966DA6BB7FC1B504B010214000A000008000083A0AF423DEE336E79000000790000001B00000000000000000000000000000000006175746F6465736B2D64657369676E2D7061
311
636B6167652E786D6C504B0102140014000608080083A0AF42D486FD9CA0000000F40000001300000000000000000000000000B20000005B436F6E74656E745F54797065735D2E786D6C504B0102140014000608080083A0AF4226CEA92FEC0000007C010000080000000000000000000000000083010000636F72652E786D
311
6C504B0102140014000608080083A0AF4255019EA25F0000007C000000070000000000000000000000000095020000636E782E786D6C504B0102140014000608080083A0AF42647AE5E868010000020300000C00000000000000000000000000190300006662782F636F72652E786D6C504B0102140014000608080083A0AF
311
42026083A57E0000009D0000000B00000000000000000000000000AB0400006662782F636E782E786D6C504B0102140014000608080083A0AF42F4BF5DD22D010000150200003100000000000000000000000000520500006662782F44364344414237422D363832332D343141452D384133412D4146363241324643453543
311
382F636F72652E786D6C504B0102140014000608080083A0AF421F968DE64E010000330300003000000000000000000000000000CE0600006662782F44364344414237422D363832332D343141452D384133412D4146363241324643453543382F636E782E786D6C504B0102140014000608080083A0AF423276D2E6A40500
311
008110000034000000000000000000000000006A0800006662782F44364344414237422D363832332D343141452D384133412D4146363241324643453543382F6F626A656374732E786D6C504B0102140014000608000083A0AF420000000000000000000000003500000000000000000000000000600E00006662782F4436
311
4344414237422D363832332D343141452D384133412D4146363241324643453543382F76657274696365732E62696E504B0102140014000608080083A0AF42F270F13306000000040000003600000000000000000000000000B30E00006662782F44364344414237422D363832332D343141452D384133412D414636324132
311
4643453543382F747269616E676C65732E62696E504B0102140014000608000083A0AF4200000000000000000000000037000000000000000000000000000D0F00006662782F44364344414237422D363832332D343141452D384133412D4146363241324643453543382F617474726962757465732E62696E504B01021400
311
14000608080083A0AF42D5987DFC8F000000410100003600000000000000000000000000620F00006662782F44364344414237422D363832332D343141452D384133412D4146363241324643453543382F6469726563746F72792E786D6C504B0102140014000608080083A0AF424E24F41EFE000000A00100003B00000000
311
000000000000000000451000006662782F44364344414237422D363832332D343141452D384133412D4146363241324643453543382F7265736F75726365732F636F72652E786D6C504B0506000000000E000E00800400009C1100000000
310
504B03040A000008000083A0AF423DEE336E79000000790000001B0000006175746F6465736B2D64657369676E2D7061636B6167652E786D6C3C3F786D6C2076657273696F6E3D22312E302220656E636F64696E673D227574662D3822203F3E3C666F726D6174733E3C666F726D61743E687474703A2F2F736368656D612E
310
6175746F6465736B2E636F6D2F64657369676E2D7061636B6167652F323030393C2F666F726D61743E3C2F666F726D6174733E504B030414000608080083A0AF42D486FD9CA0000000F4000000130000005B436F6E74656E745F54797065735D2E786D6C7D8EC10E82300C865F65E91D8A1E8C310C0EEA1BF002731658846E
310
D98AC1B77784ABF1D8FE5FBFBF75BBCE937A534CCEB38643598122B6FEE978D0B0485F9C41B54DDD7D022595594E1A469170414C76A4D9A4D207E29CF43ECE46F218070CC6BECC4078ACAA135ACF422C856C0E68EA1BF5669944DDD7BCDE7B1F8E415D77AECB980613C2E4AC91FC167A2B244592486606FC29C8FD7F045B9A
310
EF7053A7E60B504B030414000608080083A0AF42A3449868EC0000007C01000008000000636F72652E786D6C8D90416EC3201045AF82D856D860829D5898C86DED13F40208888B128365A0EAF18B13476A775DCDE8CF7F33A3CFCFDFF30D7C993558EF3A480A0C8171CA6BEBA60EA678414708CE82AFDEC75F36089C9C4D07
310
37190A3EAD3E2DBBA4BC8BC6C5AC3AAFCD2ECA104C8440DD72D3C1A03ECD2C0B996276846BB14875959329C8B3CB704A5683C711ABF33E7BB16685028FB41F9ABA47AFC3D0A3037B1FD191D427C49A9152C2DE9ABEA2BCDC60C1A39D9FF7D56A64341A8A0A138A3043847D54B8C58716D72F98B514F372B3FF81D2A2FF0925
310
EB22ADF6771F588082E447EE03C1CB2D8B5CEE41E5BAE5267E00504B030414000608080083A0AF4255019EA25F0000007C00000007000000636E782E786D6C4DCB3B0E80201045D1AD90E915ED2CF8AC45050C11660C8261F98AB1B07AC9C97D42D718D865D3E909258CFD00CCE24AC6E326A164D74DC0B4128928FF326038
310
472BA13128B1252AC747C6BAB984FC68F0B87FE8960A5C09FE86CFB69FBA01504B030414000608080083A0AF423F4B344368010000020300000C0000006662782F636F72652E786D6C8D52ED8E8230107C95A67F2FD002A29E2935DC9D3EC1BD4085CA35424B4A4B7CFC5B3E0CE7C51843529A999DDDD901B6BF3635EAA5ED
310
94D1198E428A91D4852995AE32ECDD39D862B4E7CC1AE3FE9461A44523333CC098B3CA1ADFCE5061B493DA01AA4D296750749D741815355C32DC153FB211A1F00E2ABA4BD88AE2222A194621D050C759E72C1840D390E1C4FC7CBA3232E19C79AFCA9955254C5367252DE6F498E487CD3A0F3E0E873C58A55FC7601BADDF83
310
74734C9228FDDCE471C2C820E6CCA9E6E6AEB0523859621ED32809681A44E9774C7774B5A3EB379AEE12CAC8507E27F26DF9A2C82BED9278B63BC93ACC23303212FFB685881CEA440F7E08676408115E63C2F741432010B213A7FAB6C705A05E16CED81530A5F10BD58BDA4B984AD1F83032B1D0796C009B3DEC133FE9F3BC
310
077C40A12BB0261C5C4FDE0DD3D934758EA29536E8DD1569631B512FE6268BCBB90C7A282F4C6DEC2B6A32AF4AE630C9F0F7F25F504B030414000608080083A0AF42FB7AD1AA7D0000009D0000000B0000006662782F636E782E786D6C4DCCD10A83201886E15B91FFDCD291E1408D89F33E6259C84C87D3D8E5AF46073BFA
310
E0E1E315C3670D6873F9ED5394401B02C8C5479A7C5C24D432630E685022A754FE6E80E2B83A090783124B4EF575D2E4E6B186B26BF0F17922375CD3BB21D8124D70C7FA1BD69C6ACCAE1DBDF4CC5A6338B44AB4BFD2BE47587D01504B030414000608080083A0AF42710C38292C01000015020000310000006662782F3844
310
3842314544302D463042302D343536412D423831422D3539343132363546464444382F636F72652E786D6C8D515B6EC32010BC0AE22B55850D36B69C0813D57273825E806292A2C460F1A872FC42ED48ED5F7E58343B333BDA65C7FB7C03DFCA796D4D0F4981215046DA499B4B0F6338A30E822367CEDAF087068111B3EA61
310
8621671767E3B241D29AA04C48A8B193DA40E1BD0A10C85BFAF4D0CB2F358B42C49018FE5A2C425EC54515A448EDC4E3CC0797028075487E21EFC66E20EF2346273C60449BF60D0D1D1950B3A7A46A9BD3691C3B56AE42CE62D4D326D7538AA3CF5AB9674DB298B3A0E7477CE994086A82BCC2A446B841A4F9A8F001D3036E
310
5F7173A8312B33FD9F282ED393A2A84DA8AB2DEE2AF3901356AE0DCE261B3F6F8F30EABE5817409EB7F34ABE408E0B8CBBAADBD39AB272E5A60D24D3966EA63E589736BCBB7E267ABD39B794B3321F2995DF0BA69A0FCA7F00504B030414000608080083A0AF42793142F15601000033030000300000006662782F38443842
310
314544302D463042302D343536412D423831422D3539343132363546464444382F636E782E786D6CBD93CD6EC32010845F0571ADFC173B56146122F5D027E8A1570C9B94068305B86ADEBE4B42D25C72A854F582ACD96166F509B3DDD764C827F8A09D1D6853D69480954E697B18E812F7C586921D67DEB97867A3C48A0906
310
9A64CAD9C1BB65CE9282BD584C44D5687BCCA287E0162F21A09C6E12E3A4301800B65850846904A540919B11BFF6E0711514C71389EF405E9EDF881B3F40C6C0AA94C259953A384B676EBA3351228D0861A041BEC3244AB144A7201C4B25A2289BF2DAF560A79F24922E5C2B17AF492A1F683A29CF1B95C8915538E42C448F
310
F4B2299E66A05CCCB3D15244845C9D8D170F678BB6B1EFB25723788FEE76D56F3618769E7116F504D9213D88088AF255DDB445BD2E9AF5EBAADED6DDB6EE9FEAF5B6AD5995EC9C8DCE997C0963C0BB99486723D84879C3AA347E842FFB88D21E593B7FFA054804905B2F746E197FC9A7E9DBAEFB473ED5F97D232E8F7F01FF
310
06504B030414000608080083A0AF42749B3EC8650700009A1B0000340000006662782F38443842314544302D463042302D343536412D423831422D3539343132363546464444382F6F626A656374732E786D6CED59DD73A33812FF5728EE65EFC118623B3BB9226CC5F664CAB597DDA9F5CED63DB88A924126BA0841492213
310
DF5F7FAD0F301093E0DBDCDB3ED880905ADDBFFE5413FEF49253E71973410A76EB069EEF3A9825454A5876EB56F230F9E43A3F45212F0AD99AE63A0CE5F8D655C36E1466BCA84A3B94E203AAA8EC8DDE2FFFE5880433EC3A094542DCBA2279C439F250258B148B272F451279D9E1C50B3C33B14B36E3A87CEC112D11C74C02
310
A730CE808A63980ABA8FBE3B8DC2A97A1F85EADFCE9A8D9A351F9E35D55277B9244C48C492572CF5C8CC46B1340BE6EBCF578B9BC9623E9F4DE6D757C16479BF5C4F821F67FEEA7AB5BAB9FB7C03ECED8B825A99525C629682FE8E6E148453F5A611DD22708EEBA4600C271A48804A8BD52748B080AD5AF0F9DDC74049D47A
310
AD256C3DCFD57BCB426B78D6A532346B1C101DBA2088DDAE96B8BEB6E52BF6FF06C1C518A3E4024BE056480EDAB5F070F00A37F2C3A9198DC2FD4917443839929813441D4AF61C71500A4C5553A2D02CB06494737020E52809B4E6CCEBAE6D8167BEEF3AE7B83C54942ACF7023ED5831B81F96427346FE83F989FB3632C013
310
485B11263F592EE5B1C46E74134EF56014AACBECCABE34403A078A32A111316F7B82AE94EB6FD66EF4F3FDFE65ABC2C1F9CD4B5E94984B65744A8F9A2F30647B5528D96D83519A530B401803AA5D7902E53740FE17881E2756406F9CBCCC5FE676AEE4888943C173D08DE33B131FFE7C27D0FFEABE75174E9BC55DED0DE109
310
6EAAA0FAF4E7F1ECCAA0B1B2FCB7E08CC26730F882CFECAB6D8228D8F303610090321287163004A1FDB07F71A30D044E08F4B00AD128009181DD67B80DA796CC492BB57B59AF6380A8DD63364649009BB6486063404F5F207B70929CD4D4167108DEC58798EBDD7AFBF3B6E20794E007EBD36B7C208C48C89AE719EA60DE91
310
E8091FBF173C05415FE3BD6DE39DDBAD04A0AD3057C0673508EAE1B473678304D665850A37E13B3B80102A57B7E83F1091604A11C34555EFDB443765A88DC7DB9AC18DAE0CC4B3AB9E0973FC4C5455014E739AD16114F27EC249A94074A32F46B226687A03D27DDBFC0216D9CC1F98B561107A19A2BFEBA07506878E65D748
310
5B201A81F7A7709E14B4E0F1FE189B48E7422D016C74BDE58F0E5188F546498A0A7890F6BB3AA46446DA382587432520AE9E61F18FCDAA6D0EBE370B164EFBBFE78C7388B6E0BB885BBFEBED11931C65383EA07468BBF66E0D6DA1490E90E6F840412EF24CE4314632F6539C5D02CD45C46F3E947A460B2108C302F2D559F0
310
DB68F81E0412A3CD9A65A5D51ED044C43996885E8280223300AE4E3BBAC64DA074789FC7C67ADFD2589BE8FFC92238825AB2603181521472C8BB8C07DE026248175D83720F5FB0B69AB6168356504224C7F83B26D9A3BC0475437E00F7048E24958C8B122560D623C8BEF215A5D41EEF7B943CA9FC112715FD280311981E62
310
426995C7F0230C4E1E635CBB094C6FA2D0226E629FC439146548567CCC26D70BFFD53EA666E887C0D6460742216CC7392A0750EF04445D8F380DF896FA8052F7555EC6282F2A36CA50BC59DF9B2CF9BE5A15D991FCAA5211CAC69AB025188584C926ABD6311B4C5D075670231DA88EB1407949CD29EC9DC41334DEA4290F6E
310
C0AD9F7EEC0639147E03DA6B47D4790D83E5B1531888EF48268F6EB4D5D7C912EAEF14A7A7545FD79AED0A10105391BCE2C4AAE8DB06CA1B5BA3B9D1039262F7C564DDFAFA6DE341F7239CC21AA85D9A851B05748E9944AA32795037F4370421B843C38C6F544EBD84CA5D9AEAAA11D17B32A4CE4E19D1D934275EF9885991
310
C38FED084B6895E21D4AC553FC2069BC258A752BA597931AE33705FCF5CBB6070F8C8C10E9AB2AF0F0F7DE5A3BBA52E5D25922F2B1CAF70C1108821DD132A31BAF6499D548ADE5E6AACE14507781815915CFFF3A59B4DB117F9D2C326B187FEA64B13CFE131DDB7D91563A4F945D5F740C68F293A2F211C700DD7668A83659
310
C424732BBF75A61882621DE547576375D030048738FE9FB3F6501634DBF5F8BF2C6B07AF2A8E8BB24A67B2EA529DA95C37ED1C76B7BE5BFAF3603D592E82FBC93C58F893E5CD3298FCE87F9EADEE668B7B7F79DDA0A91D350A9B60A673173C9BA0560FAB278B0174654541490AA7F9D4C930C47C0967FA11ED739E6301C9B3
310
DDEC4E6D537EC4EA67D3E794684F71CDC9238206311590D601A32A91DD71E76FD09A9470D0BE75A169E43DC19FB54AD781CC73EB42AB4092040B6F0F6D26D5D0D3C421E5EADC6F89013E88652A259A45CD73B34A61D309FFCD943169C0CAD5E96140E15642F7ABD3A1D0BC599E928B04AFD9719084DB7D25A15A33B29C061A
310
61F43627F51BD928614F76EB1770DDB7C50A3C3DA783C8A84F066F1A81A13A918867BADFAD18B32CDDADBF4EA1CFE66C7E754A5A65A0CBF194261C833157AAA0022B02ABB0344B24C15457FFD87DE5057CE2C91D5D15393FBC7CBAFEFB6E55E479C1CCD0EE0E4E65297C2872B68FF0D927DD41F18055735DECAEFCE06AA79B
310
DAB6CF1EEF91C09EAA8A60A02E2694203D9303BB7CD5A0B2EDCBA952456FFA66EDD8200ACD006347AF7ABCE62397033EA43EA7288FD17E5E4BFB665F7BAAA7824D70E84847FF05504B030414000608000083A0AF42000000000000000000000000350000006662782F38443842314544302D463042302D343536412D423831
310
422D3539343132363546464444382F76657274696365732E62696E504B030414000608080083A0AF42F270F1330600000004000000360000006662782F38443842314544302D463042302D343536412D423831422D3539343132363546464444382F747269616E676C65732E62696E636660600000504B0304140006080000
310
83A0AF42000000000000000000000000370000006662782F38443842314544302D463042302D343536412D423831422D3539343132363546464444382F617474726962757465732E62696E504B030414000608080083A0AF42D5987DFC8F00000041010000360000006662782F38443842314544302D463042302D34353641
310
2D423831422D3539343132363546464444382F6469726563746F72792E786D6C858F410EC2201045AF4266AF15DDB800BA74E7C21B903225242D6328188F2FA5C4183471359997F9FF81E89FF3C41E1816475E02DF1F80A11FC8386F25A438EECEC07A250251FC3803E6F58C12560C4AD840E95E91C151A72936F496F35732
310
D860FE635F62C8F2DA16B505C545B74125BAA2FA9E05D7CC053D063734D5C7665FD55B6B8D15D5E9BFEAFD8490FFA45E504B030414000608080083A0AF421E8DFBA9FD000000A00100003B0000006662782F38443842314544302D463042302D343536412D423831422D3539343132363546464444382F7265736F75726365
310
732F636F72652E786D6C8D504B6E833010BD0A9A6D05D8382429328E680B27E8052C33A156828DFCA97AFC9A40A576D78DC7F33E9AA7C72F5FF33DFB44E7B5352DD082408646D9519BA98518AEF919B28BE0CEDAF04B06999133B6B0C220F8E46C5C76485913D084841A3BE20E4AEF3140A6EEE9D382571F38CB42C69014FE
310
562C52DDE484052D129D7482FBE052806C3BB2BE201C7A1B9D42CFCB8D153C463DEE1A3DA69BFAAAD1812003EBFAD3F1397FE9FB2E3FD46F437EA669AD4F0363B47E3D7515E3E56A163CE8F927A37228038E202A42594EEA9CD6EF1569C8A121C72752378CF07295FF31C565FCA7296A1358B5C7DD6C1E044D411E84E0E5DA
310
571A8F32D35CBB15DF504B010214000A000008000083A0AF423DEE336E79000000790000001B00000000000000000000000000000000006175746F6465736B2D64657369676E2D7061636B6167652E786D6C504B0102140014000608080083A0AF42D486FD9CA0000000F40000001300000000000000000000000000B20000
310
005B436F6E74656E745F54797065735D2E786D6C504B0102140014000608080083A0AF42A3449868EC0000007C010000080000000000000000000000000083010000636F72652E786D6C504B0102140014000608080083A0AF4255019EA25F0000007C000000070000000000000000000000000095020000636E782E786D6C
310
504B0102140014000608080083A0AF423F4B344368010000020300000C00000000000000000000000000190300006662782F636F72652E786D6C504B0102140014000608080083A0AF42FB7AD1AA7D0000009D0000000B00000000000000000000000000AB0400006662782F636E782E786D6C504B01021400140006080800
310
83A0AF42710C38292C010000150200003100000000000000000000000000510500006662782F38443842314544302D463042302D343536412D423831422D3539343132363546464444382F636F72652E786D6C504B0102140014000608080083A0AF42793142F156010000330300003000000000000000000000000000CC06
310
00006662782F38443842314544302D463042302D343536412D423831422D3539343132363546464444382F636E782E786D6C504B0102140014000608080083A0AF42749B3EC8650700009A1B00003400000000000000000000000000700800006662782F38443842314544302D463042302D343536412D423831422D353934
310
3132363546464444382F6F626A656374732E786D6C504B0102140014000608000083A0AF420000000000000000000000003500000000000000000000000000271000006662782F38443842314544302D463042302D343536412D423831422D3539343132363546464444382F76657274696365732E62696E504B0102140014
310
000608080083A0AF42F270F133060000000400000036000000000000000000000000007A1000006662782F38443842314544302D463042302D343536412D423831422D3539343132363546464444382F747269616E676C65732E62696E504B0102140014000608000083A0AF42000000000000000000000000370000000000
310
0000000000000000D41000006662782F38443842314544302D463042302D343536412D423831422D3539343132363546464444382F617474726962757465732E62696E504B0102140014000608080083A0AF42D5987DFC8F000000410100003600000000000000000000000000291100006662782F38443842314544302D46
310
3042302D343536412D423831422D3539343132363546464444382F6469726563746F72792E786D6C504B0102140014000608080083A0AF421E8DFBA9FD000000A00100003B000000000000000000000000000C1200006662782F38443842314544302D463042302D343536412D423831422D3539343132363546464444382F
310
7265736F75726365732F636F72652E786D6C504B0506000000000E000E0080040000621300000000
  0
XRECORD
  5
17
102
{ACAD_REACTORS
330
12
102
}
330
12
100
AcDbXrecord
280
     1
270
     1
271
     1
  0
XRECORD
  5
16
102
{ACAD_REACTORS
330
12
102
}
330
12
100
AcDbXrecord
280
     1
270
     1
271
     1
  0
XRECORD
  5
18
102
{ACAD_REACTORS
330
12
102
}
330
12
100
AcDbXrecord
280
     1
270
     1
271
     1
  0
XRECORD
  5
15
102
{ACAD_REACTORS
330
12
102
}
330
12
100
AcDbXrecord
280
     1
270
     1
271
     1
  0
XRECORD
  5
158B
102
{ACAD_REACTORS
330
22
102
}
330
22
100
AcDbXrecord
280
     1
102
MATERIAL
148
0.0
149
0.0
149
0.0
 93
        0
 94
      127
282
     0
 72
     0
 77
     0
171
     0
175
     0
179
     0
273
     0
  0
XRECORD
  5
24
102
{ACAD_REACTORS
330
22
102
}
330
22
100
AcDbXrecord
280
     1
270
     1
271
     1
  0
XRECORD
  5
23
102
{ACAD_REACTORS
330
22
102
}
330
22
100
AcDbXrecord
280
     1
270
     1
271
     1
  0
XRECORD
  5
BA
102
{ACAD_REACTORS
330
22
102
}
330
22
100
AcDbXrecord
280
     1
 70
     1
 90
1959938040
 71
     1
  1
FBBD4E51-9920-48FA-A28F-0C626F1C5F8C
311
504B03040A000008000082A0AF423DEE336E79000000790000001B0000006175746F6465736B2D64657369676E2D7061636B6167652E786D6C3C3F786D6C2076657273696F6E3D22312E302220656E636F64696E673D227574662D3822203F3E3C666F726D6174733E3C666F726D61743E687474703A2F2F736368656D612E
311
6175746F6465736B2E636F6D2F64657369676E2D7061636B6167652F323030393C2F666F726D61743E3C2F666F726D6174733E504B030414000608080082A0AF42D486FD9CA0000000F4000000130000005B436F6E74656E745F54797065735D2E786D6C7D8EC10E82300C865F65E91D8A1E8C310C0EEA1BF002731658846E
311
D98AC1B77784ABF1D8FE5FBFBF75BBCE937A534CCEB38643598122B6FEE978D0B0485F9C41B54DDD7D022595594E1A469170414C76A4D9A4D207E29CF43ECE46F218070CC6BECC4078ACAA135ACF422C856C0E68EA1BF5669944DDD7BCDE7B1F8E415D77AECB980613C2E4AC91FC167A2B244592486606FC29C8FD7F045B9A
311
EF7053A7E60B504B030414000608080082A0AF42D8E6735DEB0000007C01000008000000636F72652E786D6C8D90618AC3201085AF22F3773151932C4D31966C373DC15E40D466A58D86A8A5C75FD3A6B0FB6F4198E1F9BE99E1F1C37DBAA29B5982F5AE035A1040C629AFAD1B3B48F18C77800E822FDEC75F36404E4EA683
311
5506C1C7C5A779939477D1B89855E7B5D94419828980D435371D04F56D2659C814B3235C8A59AA8B1C4D415F5D8653B21A3D97589DE7D9B3350B889E1D4F4772DA613A108AEBBAA5F883F614F7C3276BDBA1AEAB77C6CB15163CDAE9B55F2D4646A34130422B4C1A4C9B2F46F6A4CEEF8D34FB8AF072B5FF81D2ACFF0925EB
311
62C5B6739F580041F3218F0FC1CB358B5C1E41E5BAE6267E00504B030414000608080082A0AF4255019EA25F0000007C00000007000000636E782E786D6C4DCB3B0E80201045D1AD90E915ED2CF8AC45050C11660C8261F98AB1B07AC9C97D42D718D865D3E909258CFD00CCE24AC6E326A164D74DC0B4128928FF32603847
311
2BA13128B1252AC747C6BAB984FC68F0B87FE8960A5C09FE86CFB69FBA01504B030414000608080082A0AF4286D4331066010000020300000C0000006662782F636F72652E786D6C8D52ED8E8230107C95A67F2FA52DE0454DA9F13C7D827B810A9523424B4A4B7CFC5B3E0CE7C5980B049A999DDDD901B1BB3535EAB5EB2A
311
6B32CC23869136B92D2A536638F80B5963B493C259EB7F95616454A3333CC0588AD2D9D0CE506E8DD7C6036A6CA16750759DF618E5351C32DCE5DFBA51910A1E2ABA6BD4AAFCAA4A1DF10868A893A2F30E0CA069C8F0C4F272BE093AE152845015335B1530ADBA54DA61B98F0FA7033BAD093F324ED274C3C907DF73B23F7E
311
C69BCD314D93F758D0412C85AF9ABBBBDC69E5758165CC7842D88AF0D557CCB62C85FB8DADB6091374287F1085B6F8A72854C627F16C77927558723032127FB685883CEA540F7EA8147408115E63C28F41432010B257E7FABEC715A05EE7DEBA1498C28685EA551D344C6568BC049D58E83C3680CD9EF6895FF479DD033EA0
311
322558531E8EE7E087E9629A3A47D16A477A7F43C6BA46D58BB9C9E2F25C063D95E7B6B6EE3F6A3AAF4AE730E9F0F7CA1F504B030414000608080082A0AF421A37E5F97D0000009D0000000B0000006662782F636E782E786D6C4DCCD10A83201805E05791FFDEA5A9E4408DADB5F7886511990EA7638F3F1B5DECEA703E0E
311
47B59FCDA1B78DAF25780DF4440059FF08E3E2670D394D58026A8D8A21A4BF19203F6C56C3CE60D41C437E1E34DA69C82E15758B5F0F94978E4B5A379888DB1DF39E717C168295CAEB2B214DD753069551D5EFA9E47E6CBE504B030414000608080082A0AF42E908993D2901000014020000310000006662782F3841433438
311
3132372D303544462D344533342D393535332D3035343242303037434531332F636F72652E786D6C8D515B6EC32010BC0AE22B55651BFC88DD0813B5697A825E8060E2A2C460F1A872FC2EB523B57F91100BCBCCECB0CBF6B7E98ABE95F3DA9A1ED39C60A48CB48336638F6338671D467BCE9CB5E10F0C232326D5E394C69C
311
8DCEC6794D496B823201B2C60E6A4D0AEF55C0485EE1D0632FBFD42472110320FC259F85BC8851E5348767C071E683030368299276CCBBD743DDD1B2CD48F3FE91D5C7AACE5E9AA6826B5DBE11D21E8EB462C542E42C463DAC743D801D7DD6CA3D2A92C89C053DDDED4BA7445003E625A1A962469BCF92EC480DEB9934BB8A
311
B022C1FF91E23C3C488ADA84AA5CED2E348F3965C5F2C0D960E3E97A37A36EB37501A57A1BAFE413E62487FF772DE95A562C506800686EEB55D307EBA0C19BCB09D0B45984B73567459A1184DF01424CF3E43F504B030414000608080082A0AF421DBC85054E01000033030000300000006662782F38414334383132372D30
311
3544462D344533342D393535332D3035343242303037434531332F636E782E786D6CD593CD6EC23010845FC5F2B5CA1F045421C7483DF4097AE8D5B117303876E49FAABC7DD76028170E3D568AAC68763CB3FA94B0EDF764C817F8A09D1D6857B79480954E69BB1F688ABBEA95922D67DEB9F860A3C48A09069A65CAD9DEBB
311
341749C14E24135135DA9E8AE821B8E4250494F34D629C140603C05609459846500A14B91BF16D071E5741713C937800F2FEF649DC780419036B720A674DEEE02C9FA5E9C144893422848106798049D42245A7209C6A25A2A8BBFAD6F564A7DF24922FDC2A93D724970F349F94978D6AE4C81A1C7216A2477AC514CF33502E
311
E6D9682922426E2EC6AB87B3A46D5CF7C5AB11BC4777B75EF63D865D669C453D4171480F2282A27CD176CBAA5D55DDEA63D16EDA1E9F9776B559B6ACC976CE46E74CB98431E0DD4CA4B3116CA4BC634D1E3FC3577C44698FAC9D3FFF01240228AD573AF78CFFCCA7B97CDF88CBE35FC07F00504B030414000608080082A0AF
311
42877E7B61A505000080100000340000006662782F38414334383132372D303544462D344533342D393535332D3035343242303037434531332F6F626A656374732E786D6CAD575D8F9B3814FD2B887DD97DC80749669A59315433495345D5B455A356FB1029326018EF188C6C33CDECAFDF633004D2649A5DF52504737D7D
311
EFB9E77ED87FBBCFB8F34CA56222BF75BDE1D875681E8998E5E9AD5BEA6430779DB7812F85D01D31D7C949466F5DB3EC067E2A4559D8A59826A4E4FA687575FF97A3229A53D7893851EAD655D123CDC890945AC4543D0D63A2C9304DF6436F580BF6D5A692148F474A0B2269AE6129D67368716AA3BCFEEBD81D05FEC87C0F
311
7CF36BA5A6E7A546953FFDF359AE34C9A31F0E3B5233F566CB7793AB9BC1D56C361DCCAE27DEE07E75BF1C786FA6E3C5F5627173F7EE06072B2DA1C95A2269E206EF818D64913FAA3F057EC9723D9D58111BA091A4CFCC44CA0D268EE78F6A99D63BEBE429F32391E734AAB0021A957F56754C0B9AC78839A30A9675101AF7
311
5F3D8363E7F3D4BCDB23BBCB9721D0DDD151D4D8DE3CBB968AF06FB8A02E619054D430B0C6D23A5A73757C40381482DB6F4C3919D15432C21DCE4249E48B1B40D488047E4F8D61B234D9603C700344A1FEDCA70BD2E8E73C3F656552726E68EC065516EC902B54ABCA32F60F9507EBBBC8C026C4CAB0616E1DD22F0575839B
311
9A22F32336D5403A092729420E37CDCEE9E4C8D185C9D3F5D20D3EACC2FDC6E4EEE9C30B290A2AB5A10FA8D504AE791A94AC4DDE4591331BDC23530EA07C01F21F91EA07531037C9F6B3FDCC9EA225C955226486D838636730C6CFD8F1AA5FF3BFF3CF1FB59BFBD13B8727826DA0FA0578F67DE8C6B20367E03F83F0424EAD
311
6B9B8870948D079603204312870B2CA10E27E1DE0DD6A872A8CAD84578E0C16598FB8CBFFEC8AA41A1A84EEA3C73607954162F28D080AD6224CCA8C96F0D3CC4E98772561D6CC5CEC17BF54BE87AB7DC7CD8943221117DB039BDA409CB99468B3BF0A66B500FF39E474FF4E5BB90311CFD11EF4D17EFCC1EA580B6C1DC009F
311
3635DDBC1C4EEE1D10615F2A4CB9F17F72029C308DB5A3FF81A988724E722ACAE6DC57FB07DA460DB14976C3E4B6C11C1A0B48537F39CA4134E948B2C280D876ABB6680ECF78F775FD118C843C1721E107A1F0507A23C185DC852FBBBA2A9D44FA5B9FDA168291D102B65739D2A4BFC57C17B32429156AE00958BFAD17DDD0
311
99AA800AD168AD936506F7915B445ACE367AD1AC25412315F98EA16D22ED4E1ED0D50F442D012A85E72C5694273BC67999ED12C6D18C761929CEC0F1FFED0FCBACD8914C94B93EA3BB673A9A43DFF61E79D577A2A34737D854CFC13D4A6F4CE343987BC2A6959CC0AA17DAD5FDFD72F6EECA1BDCDC4CC683D97C7537B89BCC
311
5703CC4E93EB95B7B85ACDE1BAB5A89AA102BFE934DD844694D0D9FC52321BBEAF6BA48FAD016EF040B4DABEAFB3B3797E5D0F310AFB23EC41BB6C37DEC5CF18FB68FC730507C9938AD659C16946734D4C0A3D983FFC0BC198D133A65E5F6724A51768F9F47E73E40C562ED8F7D9A43BFD7EB4D7AE2E4C429E54A21FCB2CCC
311
09E3471BD31AC96191A716BF2626EDB3EE33CDAB79B381C160AA046731CA60ECA4546454A3185ED083644615A8D71DE9637BF5B860F7733D206A1272DA58F24830237385B4006FCB48F7D79DDF30D399B1EAD645B71D3EE1C7560AD701676E5DCCE89A45540D43F467330955CAC1A5EE200FCE923CE518B5EB4DED7BBBCB60
311
D3EBC8ADC825E393F5ABAEE0D6019491026303E62144A73226F02BDBECF7E83F39DE98E3108DBF61A95B5F0E0BAD33D53148D1DA297B59C00CF3648FDE23515F77CB1B56323D442EBA64BD4A825AEB401399561705639F35E96EF9798401C5597F720A5EA688E5E59A069282CCA54970B008ACB03A0BA241D5C59FDBCF52E0
311
229B392B060A38BFEFE7D77F6C1722CB445E2F6DEFEC75D8D93CE2721B6F511CA8B995A8ED64EC4DB6D56DC05E50762151744862F584054456B216E85EF8C1CBFACA883E547F68E5462614470C5D2F1DDBD866506AE9D2ADAD061CCC1D39759043E6466932A62B50BC7A211855A2304162940FFE05504B0304140006080000
311
82A0AF42000000000000000000000000350000006662782F38414334383132372D303544462D344533342D393535332D3035343242303037434531332F76657274696365732E62696E504B030414000608080082A0AF42F270F1330600000004000000360000006662782F38414334383132372D303544462D344533342D39
311
3535332D3035343242303037434531332F747269616E676C65732E62696E636660600000504B030414000608000082A0AF42000000000000000000000000370000006662782F38414334383132372D303544462D344533342D393535332D3035343242303037434531332F617474726962757465732E62696E504B03041400
311
0608080082A0AF42D5987DFC8F00000041010000360000006662782F38414334383132372D303544462D344533342D393535332D3035343242303037434531332F6469726563746F72792E786D6C858F410EC2201045AF4266AF15DDB800BA74E7C21B903225242D6328188F2FA5C4183471359997F9FF81E89FF3C41E1816
311
475E02DF1F80A11FC8386F25A438EECEC07A250251FC3803E6F58C12560C4AD840E95E91C151A72936F496F35732D860FE635F62C8F2DA16B505C545B74125BAA2FA9E05D7CC053D063734D5C7665FD55B6B8D15D5E9BFEAFD8490FFA45E504B030414000608080082A0AF422887E72DFD000000A00100003B000000666278
311
2F38414334383132372D303544462D344533342D393535332D3035343242303037434531332F7265736F75726365732F636F72652E786D6C8D50596AC33010BD8A99DF225BF2D2D641567053E704BD8090278E482C192DA5C7AF1CBBD0FE158466780BF378FCF835DFB34F745E5BD301CB296468941DB5993A88E1425E213B
311
0AEEAC0DBF6490193963072B0C824FCEC665879435014D48A8B123EEA0F41E0364EA9E960EBCBAE22C73194352F85BBE48759313E62C4F74D209EE834B01B2EDC8FA8370E86D740A3D2F3656F018F5B86BF4986EEA8B4607A22F4FE7133DBF10365046EABA65E48DF58CF4C37BD9B6435D57CF252F56B3E041CF3F19954319
311
700451525611DA10D67C94F440EBF49E6873A8282F56F91F535CC67F9AA236A12AF7B89BCD836029C88310BC58FB4AE351669A6BB7E21B504B010214000A000008000082A0AF423DEE336E79000000790000001B00000000000000000000000000000000006175746F6465736B2D64657369676E2D7061636B6167652E786D
311
6C504B0102140014000608080082A0AF42D486FD9CA0000000F40000001300000000000000000000000000B20000005B436F6E74656E745F54797065735D2E786D6C504B0102140014000608080082A0AF42D8E6735DEB0000007C010000080000000000000000000000000083010000636F72652E786D6C504B0102140014
311
000608080082A0AF4255019EA25F0000007C000000070000000000000000000000000094020000636E782E786D6C504B0102140014000608080082A0AF4286D4331066010000020300000C00000000000000000000000000180300006662782F636F72652E786D6C504B0102140014000608080082A0AF421A37E5F97D0000
311
009D0000000B00000000000000000000000000A80400006662782F636E782E786D6C504B0102140014000608080082A0AF42E908993D290100001402000031000000000000000000000000004E0500006662782F38414334383132372D303544462D344533342D393535332D3035343242303037434531332F636F72652E78
311
6D6C504B0102140014000608080082A0AF421DBC85054E010000330300003000000000000000000000000000C60600006662782F38414334383132372D303544462D344533342D393535332D3035343242303037434531332F636E782E786D6C504B0102140014000608080082A0AF42877E7B61A505000080100000340000
311
0000000000000000000000620800006662782F38414334383132372D303544462D344533342D393535332D3035343242303037434531332F6F626A656374732E786D6C504B0102140014000608000082A0AF420000000000000000000000003500000000000000000000000000590E00006662782F38414334383132372D30
311
3544462D344533342D393535332D3035343242303037434531332F76657274696365732E62696E504B0102140014000608080082A0AF42F270F13306000000040000003600000000000000000000000000AC0E00006662782F38414334383132372D303544462D344533342D393535332D3035343242303037434531332F74
311
7269616E676C65732E62696E504B0102140014000608000082A0AF420000000000000000000000003700000000000000000000000000060F00006662782F38414334383132372D303544462D344533342D393535332D3035343242303037434531332F617474726962757465732E62696E504B0102140014000608080082A0
311
AF42D5987DFC8F0000004101000036000000000000000000000000005B0F00006662782F38414334383132372D303544462D344533342D393535332D3035343242303037434531332F6469726563746F72792E786D6C504B0102140014000608080082A0AF422887E72DFD000000A00100003B000000000000000000000000
311
003E1000006662782F38414334383132372D303544462D344533342D393535332D3035343242303037434531332F7265736F75726365732F636F72652E786D6C504B0506000000000E000E0080040000941100000000
310
504B03040A000008000082A0AF423DEE336E79000000790000001B0000006175746F6465736B2D64657369676E2D7061636B6167652E786D6C3C3F786D6C2076657273696F6E3D22312E302220656E636F64696E673D227574662D3822203F3E3C666F726D6174733E3C666F726D61743E687474703A2F2F736368656D612E
310
6175746F6465736B2E636F6D2F64657369676E2D7061636B6167652F323030393C2F666F726D61743E3C2F666F726D6174733E504B030414000608080082A0AF42D486FD9CA0000000F4000000130000005B436F6E74656E745F54797065735D2E786D6C7D8EC10E82300C865F65E91D8A1E8C310C0EEA1BF002731658846E
310
D98AC1B77784ABF1D8FE5FBFBF75BBCE937A534CCEB38643598122B6FEE978D0B0485F9C41B54DDD7D022595594E1A469170414C76A4D9A4D207E29CF43ECE46F218070CC6BECC4078ACAA135ACF422C856C0E68EA1BF5669944DDD7BCDE7B1F8E415D77AECB980613C2E4AC91FC167A2B244592486606FC29C8FD7F045B9A
310
EF7053A7E60B504B030414000608080082A0AF4262879979E80000007C01000008000000636F72652E786D6C8D50ED8AC320107C15D9BF8789E6A329C5584873F704F702A23695361AA2963EFE699BC2DDBF83851D6667769761C7C77C4377BD7AE36C0FB42080B4954E193BF510C319EF011D395B9D0BBF6480AC98750F99
310
06CEA6D5C565A3A4B341DB9058EB94DE48E1BD0E80E42D811EBCBCE859142286A4F0D76211F22A265DD0374AE6188D42AF2346A57DE66CF40AFC444E4DB71B6A3C8E43879BBA1BF0BEF9FAC46342B41A7723AD282BB399B360E6F77DB96A11B4025E115A63D262DA7E57E4409A541FA43DD4849559FEC71417F54F533436D4
310
D5F6EECBE681E7479E03CECA9C456ACFA052CFB9F11F504B030414000608080082A0AF4255019EA25F0000007C00000007000000636E782E786D6C4DCB3B0E80201045D1AD90E915ED2CF8AC45050C11660C8261F98AB1B07AC9C97D42D718D865D3E909258CFD00CCE24AC6E326A164D74DC0B4128928FF326038472BA131
310
28B1252AC747C6BAB984FC68F0B87FE8960A5C09FE86CFB69FBA01504B030414000608080082A0AF42E717657664010000020300000C0000006662782F636F72652E786D6C8D52DB8E832014FC15C2EB46C14B2F699026ADBB5FB03F4091BAA60A06C1F4F3F7A036DD6E9AA6D1E0C99CCBCC1961FB6BD7A251D9A131BAC049
310
4C31525A9AAAD17581BD3B475B8CF69C5963DC9F328CB4E85481038C39ABADF1FD0249A39DD20E506D2AB580621894C348B6101478903FAA13B1F00E2A864BDC0B7911B58A9318D250C7D9E02C0840334938313F9FAE8CCC3867DE37D5926D2A606BCE8DB2981FE931DFAC0F595496874D94679B43B4CDBF3EA312A2242DD7
310
6592268C8466CE5CD3DDD449AB845315E6294DB288AEA264F59DD21DCDE1FDA0AB5D461909E50F4DBEAFDE6CF28D7659BAC89DDB06CC839029F16F5BB0C8A1418CA08770468289F0991C7E341A0C01939D38B5B73D2E008D4A3A6373C854C6DF53A368BD02568AA68791390B93A701B0D9D339E98B39AF67C00F14BA0669C2
310
4178F22EB0B39975B1A257361ADD1569633BD1DEC5CD12EFE79DE869BB34ADB1EF74936555B29849C2EDE5BF504B030414000608080082A0AF42CFA3D5A07D0000009D0000000B0000006662782F636E782E786D6C4DCCD10AC2201886E15B91FFDCA6A036411D2BD77D8CE686E4344CA3CB6F8B1D74F4C1C3C7ABBACF1AD0
310
DBE5974F51033D11402EDED3E4E3A2A19619B7803AA3724AE5EF06288EABD3B03318B5E4549F074D6E1E6B289B061F1F07921BB7C25282E5555C30EB078125E11453DB0EECCC08EFA580C6A8E657DA760F9B2F504B030414000608080082A0AF42834176632C01000014020000310000006662782F30463544364431302D39
310
4336422D344145362D393035312D3144384534373430354139362F636F72652E786D6C8D515B6EC32010BC0AE22B55850DB6214E8489D2263D412FE0D8244589C1E251E5F85DD78ED4FE45422CDA9D991D76E5EE3EDCD0B7F6C138DB6096518CB4ED5C6FECA5C1299E498DD14E49EF5CFC03C3C8B6836EF094C64A5EBC4BE3
310
92EA9C8DDA46C85AD7EB25D986A02346DD0D1E0D0EDD971EDAAC4D1110E19A8D6D776D2F3A63199401A764881E0CA0B9C97463453FF8411C18259B77F146AAFD51900DE58CB0437DACD615E5FB8D90F94C543225D32F74D3831D7336DA3F2B3291958C6678D8EFBC6EA3EEB12A282B09E584F1CF826E6905E795F26D49653E
310
C1FF91D2D83F494AC6C6B258ECCEB4801593F95C50B277E9747B98D1F7D1F988A67EABA0BB17F8554669CD055F17329FA13000D014D5A219A2F330E0D5F504E87211169592F9B42308BF0B8438ED53FD00504B030414000608080082A0AF427B1B4A125501000033030000300000006662782F30463544364431302D394336
310
422D344145362D393035312D3144384534373430354139362F636E782E786D6CBD93CD6AC33010845F45E85AFC173B210459811EFA043DF4AA489B548D2C19FD94E6EDBB4A9434971C0AA56084991DCD2C1F36DB7E4D867C820FDAD99176754B0958E994B68791A6B8AFD6946C39F3CEC53B1B25564C30D22C53CE0EDEA5B9
310
480AF6229988AAD1F658440FC1252F21A09C6F12E3A4301800B64A28C2B403A540919B11DFF6E0711514772712DF81BC3CBF11B7FB0019036B720A674DEEE02C9FA5E9CE44893422849106F90E93A8458A4E4138D64A445177F5B5EBC14E3F49245FB85626AF492E1F693E292F1BD5C8913538E42C448FF48A299E66A05CCC
310
B3D1524484DC9C8D170F6749DBB81A8A5723788FEE7EB15AAF31EC3CE32CEA098A437A101114E58BB6EBAB765975CBD745BB69077C9EDAE5A66F5993ED9CED9C33E512C680773391CE46B091F28E3579FC085FF111A53DB276FEF40B9008A0B45EE8DC32FE924FB7EA87E11FF934E7EF1B7179FC0BF837504B030414000608
310
080082A0AF42EC59FC1162070000991B0000340000006662782F30463544364431302D394336422D344145362D393035312D3144384534373430354139362F6F626A656374732E786D6CED595B739B3814FE2B0CFBB2FB606C6C279BEC103A8953773C9DB49D7ADBD907CF3032C8441B211849E4B2BF7E8F2E602026C1DBEC
310
5B1F6C404847E77CE7AA43F0EE31A3CE3DE682E4ECC2F5BD89EB6016E70961E9855BCADDE8CC75DE8501CF73D998E63A0C65F8C255C36E18A43C2F0B3B94E01D2AA9EC8C2EAFFE72448C19769D9822212E5C11DFE20C79A8947982C59D972089BC74F7E8F99E99D8269B7254DC7688168863268153186740C5314CF9EDC789
310
3B0E83B17A1F06EADFCE9A0D9A35EF9F35D652B7B9244C48C4E2672C75C8CC06B134F3E7D7EFA727E7A393F97C369A9F4EFDD1D5F2EA7AE4FF3E9B2C4E178BF3CBF7E7C0DE36CFA99529C1056609E8EFC90DFD60ACDED4A25B040E711DE78CE15803095069B1BA040916B05503BE49FBD15712355E6B091BCF73F5DEB2D018
310
9EB5A9F4CD1A06448B2E0862B7AB24AEAE4DF9F2EDDF20B81862945C6009DC0AC941BB161E0E5EE18693606C46C360BBD705114E8624E6045187922D471C940253D59430300B2C19E51C1C48394A02AD39F3BA6D5BE099AFBBCE212E7725A5CA33DC503B5604EE87A5D09C917F30DF73DF44067802694BC2E499E5523E15D8
310
0DCF83B11E0C0375994DED4B03A4B3A328151A11F3B623E842B9FEEADA0D3F2EB78F6B150E0E6F5EF0BCC05C2AA3537AD47C8121DBAB42C96EEB0FD29C5A00C21850EDCA3D285F01F94F103DF6AC80DE38799C3FCEED5CC91113BB9C67A01B67E28C26F037717CFDAFEE1B77C1B85EDCD65E1F9EE0A60AAAB31FC7B32D83C6
310
CAF2DF80330CEEC1E0733EB3AFD631A260CF37840140CA481C9AC31084F6DDF6D10D57103821D0C32A44431F440676EFE136185B327BAD54EE65BD8E01A2768FD91025016CDA22818D1E3D7D80ECC149BC575353C43E784FDEC45C2FAFD71FD725DFA118DF589FBEC63BC28884AC7998A116E62D89EEF0D343CE1310F439DE
310
EB26DE99DD4A00DA0A73057C5A81A01EF63BB73688615D9AAB7013BCB20308A1727583FE0D1131A614319C97D5BE757453865A7BBCAD19DC706A209E4D3B26CCF13D51550538CD7E468B51C8FB31278502D10D3F18C9EAA0E9F548F76DF5092CB29EDF336BC520F43244FFD441EB000E2DCBAE90B640D4026FF7E13CCE69CE
310
A3ED5364229D0BB504B0D1F696EF2DA210EB8D921415F020ED775548498DB4514276BB52405C3DC0E2F7D5A2690E136FE69F38CDFF8E33CE21DA82EF226EFDAEB347443294E2688792BEED9ABBD5B48526D9439AE31D05B9C83D914F1192D124C1E931D01C45FCFC4DA9A7341782302C205F1D04BF89C6C4834062B459B1AC
310
B4DA019A8828C312D1631050647AC0D56947D7B831940EAFF3585BEF4B1A6B12FD9F2C8223A82573161128452187BCCAB8EF9D400C69A36B50EEE00BD656D1D662D0124A88F8297AC024BD95C7A06EC8F7E01EC391A494515EA018CC7A00D967BEA294DAE17D8BE23B953FA2B8A46F652002D35D44282DB3087E84C1C96388
310
6BD781E945141AC44DEC933883A20CC9920FD9E4F464F26C1F533374436063A31DA110B6A30C153DA8B702A2AE479C1A7C4BBD47A9DB322B2294E5251B6428DEACEB4D967C57AD8AEC407E55A908656345D8120C03C2649D55AB980DA6AE032BB8910E544F91405941CD29EC95C4E3D7DEA429F76EC0AD9FBEED0619147E3D
310
DA6B46D4790583E5B15518880724E35B375CEBEBE80AEAEF0427FB545FD59ACD0A10105391BCE4C4AAE8DB0ACA1B5BA3B9E10D9262F3C164DDEAFA6DE541F72318C31AA85DEA852B0574869944AA32B95137F42B8210DCA261C6572AA71E43E5324974D588E892F4A9B35546B436CD8857DC629667F0631BC2625A26788312
310
7117DD481AAD8962DD4AE965A4C2F845013F7F5877E0819101227D51051E7EE8ACB5A30B552E1D24226FCB6CCB108120D8122D35BAF10A965A8D545AAEAFEA4C017517189855F1FCE7C9A2D98EF879B248AD61FCD8C982E65B44F7D1A691CD6365D6479D02EAF4A4A8BCC52940771D6AAA751231B9DC8A6F7D2982985805F9
310
C1C55815330CC13E8EFF73D2EE4B8266BB0EFFC7256DFF59C1715452694D564DAA0385EBAA99C2965757D7F3F727FEE8FC7C3A19CDCF9697A3CBE9D97204CDD9E9E9D25F9C2CCF16359ADA4FC3A08E653A75C1B38969D5B07AB218405356E4942470984F9C1443C89770A41FD03DE71916903B9BBDEEC4F6E407ACBE376D4E
310
89B614579CDC22E80F5301591D302A63D91E777E81CEA48473F6850B3D23EF0EFEAC55BA0E249E0B173A0592C458785BE832A97E9E260E1957A77E4B0CF0412C5519D12CAA9FEB550A9B56F4AFA70CC90256AE560B03EAB6029A5FAD0685E6CDF2141F2578C58E8324DC6E4B09C59A91653F500BA3B7D9ABDFC84609BBB35B
310
3F82EBBE2C96EFE9392D44067D3178D1080CD591443CD5ED6EC59865E9F2FACB18DA6CCEEAB353D032055D0EA734E2188CB954F51458115885A5592009A6BAF863F385E7F08527737451E4FCFA7876FADB66916759CECCD0E6120E65097C2772D6B7F0D527D940ED80556F5D6CA6137FBAD13D6DDB668FB648604F15453050
310
D5124A908EC9815D3EEB4FD9EEE558A9A2337D75EDD8200ABD006347CF5ABCE61B97033EA4BEA6288FD17E5E49FB625B7BACA7824D70684887FF02504B030414000608000082A0AF42000000000000000000000000350000006662782F30463544364431302D394336422D344145362D393035312D31443845343734303541
310
39362F76657274696365732E62696E504B030414000608080082A0AF42F270F1330600000004000000360000006662782F30463544364431302D394336422D344145362D393035312D3144384534373430354139362F747269616E676C65732E62696E636660600000504B030414000608000082A0AF420000000000000000
310
00000000370000006662782F30463544364431302D394336422D344145362D393035312D3144384534373430354139362F617474726962757465732E62696E504B030414000608080082A0AF42D5987DFC8F00000041010000360000006662782F30463544364431302D394336422D344145362D393035312D314438453437
310
3430354139362F6469726563746F72792E786D6C858F410EC2201045AF4266AF15DDB800BA74E7C21B903225242D6328188F2FA5C4183471359997F9FF81E89FF3C41E1816475E02DF1F80A11FC8386F25A438EECEC07A250251FC3803E6F58C12560C4AD840E95E91C151A72936F496F35732D860FE635F62C8F2DA16B505
310
C545B74125BAA2FA9E05D7CC053D063734D5C7665FD55B6B8D15D5E9BFEAFD8490FFA45E504B030414000608080082A0AF42712CB7E1FB000000A00100003B0000006662782F30463544364431302D394336422D344145362D393035312D3144384534373430354139362F7265736F75726365732F636F72652E786D6C8D50
310
596AC33010BD8A99DF225BF29284202BE0B83D412F20E4892B124B464BE9F12BC52EB47F05A119DEC23C1EBF7C2D8FE2139DD7D6F4C04A0A051A65276DE61E62B891131417C19DB5E1970C0A2317EC21C320F8EC6C5C77485913D084841A3BE10E4AEF3140A11E69E9C1AB0F5C642963480A7F2F57A9EE72C69295894E3AC1
310
7D702940B11DC93F0887DE46A7D0F36A63058F514FBB464FE9A6BE697420AEF4DA1E0F434DC6713892B6390EE4D4BEBD92316DAC1E0F23AB19AFB259F0A0979F8CCAA10C3881A8296B08ED08EBDE6B7AA66D7A2FB43B37945759FEC714D7E99FA6A84D68EA3DEE66F320729027217895FB4AE359669AB95BF10D504B010214
310
000A000008000082A0AF423DEE336E79000000790000001B00000000000000000000000000000000006175746F6465736B2D64657369676E2D7061636B6167652E786D6C504B0102140014000608080082A0AF42D486FD9CA0000000F40000001300000000000000000000000000B20000005B436F6E74656E745F54797065
310
735D2E786D6C504B0102140014000608080082A0AF4262879979E80000007C010000080000000000000000000000000083010000636F72652E786D6C504B0102140014000608080082A0AF4255019EA25F0000007C000000070000000000000000000000000091020000636E782E786D6C504B0102140014000608080082A0
310
AF42E717657664010000020300000C00000000000000000000000000150300006662782F636F72652E786D6C504B0102140014000608080082A0AF42CFA3D5A07D0000009D0000000B00000000000000000000000000A30400006662782F636E782E786D6C504B0102140014000608080082A0AF42834176632C0100001402
310
00003100000000000000000000000000490500006662782F30463544364431302D394336422D344145362D393035312D3144384534373430354139362F636F72652E786D6C504B0102140014000608080082A0AF427B1B4A1255010000330300003000000000000000000000000000C40600006662782F3046354436443130
310
2D394336422D344145362D393035312D3144384534373430354139362F636E782E786D6C504B0102140014000608080082A0AF42EC59FC1162070000991B00003400000000000000000000000000670800006662782F30463544364431302D394336422D344145362D393035312D3144384534373430354139362F6F626A65
310
6374732E786D6C504B0102140014000608000082A0AF4200000000000000000000000035000000000000000000000000001B1000006662782F30463544364431302D394336422D344145362D393035312D3144384534373430354139362F76657274696365732E62696E504B0102140014000608080082A0AF42F270F13306
310
0000000400000036000000000000000000000000006E1000006662782F30463544364431302D394336422D344145362D393035312D3144384534373430354139362F747269616E676C65732E62696E504B0102140014000608000082A0AF420000000000000000000000003700000000000000000000000000C81000006662
310
782F30463544364431302D394336422D344145362D393035312D3144384534373430354139362F617474726962757465732E62696E504B0102140014000608080082A0AF42D5987DFC8F0000004101000036000000000000000000000000001D1100006662782F30463544364431302D394336422D344145362D393035312D
310
3144384534373430354139362F6469726563746F72792E786D6C504B0102140014000608080082A0AF42712CB7E1FB000000A00100003B00000000000000000000000000001200006662782F30463544364431302D394336422D344145362D393035312D3144384534373430354139362F7265736F75726365732F636F7265
310
2E786D6C504B0506000000000E000E0080040000541300000000
  0
XRECORD
  5
27
102
{ACAD_REACTORS
330
22
102
}
330
22
100
AcDbXrecord
280
     1
270
     1
271
     1
  0
XRECORD
  5
26
102
{ACAD_REACTORS
330
22
102
}
330
22
100
AcDbXrecord
280
     1
270
     1
271
     1
  0
XRECORD
  5
28
102
{ACAD_REACTORS
330
22
102
}
330
22
100
AcDbXrecord
280
     1
270
     1
271
     1
  0
XRECORD
  5
25
102
{ACAD_REACTORS
330
22
102
}
330
22
100
AcDbXrecord
280
     1
270
     1
271
     1
  0
XRECORD
  5
1585
102
{ACAD_REACTORS
330
1584
102
}
330
1584
100
AcDbXrecord
280
     1
102
ACAD_ROUNDTRIP_2012_MLEADER_STYLE
298
     1
  0
CELLSTYLEMAP
  5
1583
102
{ACAD_REACTORS
330
1582
102
}
330
1582
100
AcDbCellStyleMap
 90
        3
300
CELLSTYLE
  1
TABLEFORMAT_BEGIN
 90
        5
170
     1
 91
        0
 92
    32768
 62
   257
 93
        1
300
CONTENTFORMAT
  1
CONTENTFORMAT_BEGIN
 90
        0
 91
        0
 92
      512
 93
        0
300

 40
0.0
140
1.0
 94
        5
 62
     0
340
55
144
0.25
309
CONTENTFORMAT_END
171
     0
 94
        0
309
TABLEFORMAT_END
  1
CELLSTYLE_BEGIN
 90
        1
 91
        1
300
_TITLE
309
CELLSTYLE_END
300
CELLSTYLE
  1
TABLEFORMAT_BEGIN
 90
        5
170
     1
 91
        0
 92
        0
 62
   257
 93
        1
300
CONTENTFORMAT
  1
CONTENTFORMAT_BEGIN
 90
        0
 91
        0
 92
      512
 93
        0
300

 40
0.0
140
1.0
 94
        5
 62
     0
340
55
144
0.18
309
CONTENTFORMAT_END
171
     0
 94
        0
309
TABLEFORMAT_END
  1
CELLSTYLE_BEGIN
 90
        2
 91
        1
300
_HEADER
309
CELLSTYLE_END
300
CELLSTYLE
  1
TABLEFORMAT_BEGIN
 90
        5
170
     1
 91
        0
 92
        0
 62
   257
 93
        1
300
CONTENTFORMAT
  1
CONTENTFORMAT_BEGIN
 90
        0
 91
        0
 92
      512
 93
        0
300

 40
0.0
140
1.0
 94
        2
 62
     0
340
55
144
0.18
309
CONTENTFORMAT_END
171
     0
 94
        0
309
TABLEFORMAT_END
  1
CELLSTYLE_BEGIN
 90
        3
 91
        2
300
_DATA
309
CELLSTYLE_END
  0
XRECORD
  5
15BC
102
{ACAD_REACTORS
330
1582
102
}
330
1582
100
AcDbXrecord
280
     1
102
ACAD_ROUNDTRIP_PRE2007_TABLESTYLE
 90
      512
 91
        0
  1

 92
      512
 93
        0
  2

 94
      512
 95
        0
  3

  0
XRECORD
  5
1597
102
{ACAD_REACTORS
330
1596
102
}
330
1596
100
AcDbXrecord
280
     1
102
RTVSPropertyOp0
 70
     1
102
RTVSPropertyOp1
 70
     1
102
RTVSPropertyOp2
 70
     1
102
RTVSPropertyOp3
 70
     1
102
RTVSPropertyOp4
 70
     1
102
RTVSPropertyOp5
 70
     1
102
RTVSPropertyOp6
 70
     1
102
RTVSPropertyOp7
 70
     1
102
RTVSPropertyOp8
 70
     1
102
RTVSPropertyOp9
 70
     1
102
RTVSPropertyOp10
 70
     1
102
RTVSPropertyOp11
 70
     1
102
RTVSPropertyOp12
 70
     1
102
RTVSPropertyOp13
 70
     1
102
RTVSPropertyOp14
 70
     1
102
RTVSPropertyOp15
 70
     1
102
RTVSPropertyOp16
 70
     1
102
RTVSPropertyOp17
 70
     1
102
RTVSPropertyOp18
 70
     1
102
RTVSPropertyOp19
 70
     1
102
RTVSPropertyOp20
 70
     1
102
RTVSPropertyOp21
 70
     1
102
RTVSPropertyOp22
 70
     1
102
RTVSPropertyOp23
 70
     1
102
RTVSPropertyOp24
 70
     1
102
RTVSPropertyOp25
 70
     1
102
RTVSPropertyOp26
 70
     1
102
RTVSPropertyOp27
 70
     1
102
RTVSPropertyOp28
 70
     1
102
RTVSPropertyOp29
 70
     1
102
RTVSPropertyOp30
 70
     1
102
RTVSPropertyOp31
 70
     1
102
RTVSPropertyOp32
 70
     1
  0
XRECORD
  5
1595
102
{ACAD_REACTORS
330
1594
102
}
330
1594
100
AcDbXrecord
280
     1
102
RTVSPropertyOp0
 70
     1
102
RTVSPropertyOp1
 70
     1
102
RTVSPropertyOp2
 70
     1
102
RTVSPropertyOp3
 70
     1
102
RTVSPropertyOp4
 70
     1
102
RTVSPropertyOp5
 70
     1
102
RTVSPropertyOp6
 70
     1
102
RTVSPropertyOp7
 70
     1
102
RTVSPropertyOp8
 70
     1
102
RTVSPropertyOp9
 70
     1
102
RTVSPropertyOp10
 70
     1
102
RTVSPropertyOp11
 70
     1
102
RTVSPropertyOp12
 70
     1
102
RTVSPropertyOp13
 70
     1
102
RTVSPropertyOp14
 70
     1
102
RTVSPropertyOp15
 70
     1
102
RTVSPropertyOp16
 70
     1
102
RTVSPropertyOp17
 70
     1
102
RTVSPropertyOp18
 70
     1
102
RTVSPropertyOp19
 70
     1
102
RTVSPropertyOp20
 70
     1
102
RTVSPropertyOp21
 70
     1
102
RTVSPropertyOp22
 70
     1
102
RTVSPropertyOp23
 70
     1
102
RTVSPropertyOp24
 70
     1
102
RTVSPropertyOp25
 70
     1
102
RTVSPropertyOp26
 70
     1
102
RTVSPropertyOp27
 70
     1
102
RTVSPropertyOp28
 70
     1
102
RTVSPropertyOp29
 70
     1
102
RTVSPropertyOp30
 70
     1
102
RTVSPropertyOp31
 70
     1
102
RTVSPropertyOp32
 70
     1
  0
XRECORD
  5
15A3
102
{ACAD_REACTORS
330
15A2
102
}
330
15A2
100
AcDbXrecord
280
     1
102
RTVSPropertyOp0
 70
     1
102
RTVSPropertyOp1
 70
     1
102
RTVSPropertyOp2
 70
     1
102
RTVSPropertyOp3
 70
     1
102
RTVSPropertyOp4
 70
     1
102
RTVSPropertyOp5
 70
     1
102
RTVSPropertyOp6
 70
     1
102
RTVSPropertyOp7
 70
     1
102
RTVSPropertyOp8
 70
     1
102
RTVSPropertyOp9
 70
     1
102
RTVSPropertyOp10
 70
     1
102
RTVSPropertyOp11
 70
     1
102
RTVSPropertyOp12
 70
     1
102
RTVSPropertyOp13
 70
     1
102
RTVSPropertyOp14
 70
     1
102
RTVSPropertyOp15
 70
     1
102
RTVSPropertyOp16
 70
     1
102
RTVSPropertyOp17
 70
     1
102
RTVSPropertyOp18
 70
     1
102
RTVSPropertyOp19
 70
     1
102
RTVSPropertyOp20
 70
     1
102
RTVSPropertyOp21
 70
     1
102
RTVSPropertyOp22
 70
     1
102
RTVSPropertyOp23
 70
     1
102
RTVSPropertyOp24
 70
     1
102
RTVSPropertyOp25
 70
     1
102
RTVSPropertyOp26
 70
     1
102
RTVSPropertyOp27
 70
     1
102
RTVSPropertyOp28
 70
     1
102
RTVSPropertyOp29
 70
     1
102
RTVSPropertyOp30
 70
     1
102
RTVSPropertyOp31
 70
     1
102
RTVSPropertyOp32
 70
     1
  0
XRECORD
  5
15AB
102
{ACAD_REACTORS
330
15AA
102
}
330
15AA
100
AcDbXrecord
280
     1
102
RTVSPropertyOp0
 70
     1
102
RTVSPropertyOp1
 70
     1
102
RTVSPropertyOp2
 70
     1
102
RTVSPropertyOp3
 70
     1
102
RTVSPropertyOp4
 70
     1
102
RTVSPropertyOp5
 70
     1
102
RTVSPropertyOp6
 70
     1
102
RTVSPropertyOp7
 70
     1
102
RTVSPropertyOp8
 70
     1
102
RTVSPropertyOp9
 70
     1
102
RTVSPropertyOp10
 70
     1
102
RTVSPropertyOp11
 70
     1
102
RTVSPropertyOp12
 70
     1
102
RTVSPropertyOp13
 70
     1
102
RTVSPropertyOp14
 70
     1
102
RTVSPropertyOp15
 70
     1
102
RTVSPropertyOp16
 70
     1
102
RTVSPropertyOp17
 70
     1
102
RTVSPropertyOp18
 70
     1
102
RTVSPropertyOp19
 70
     1
102
RTVSPropertyOp20
 70
     1
102
RTVSPropertyOp21
 70
     1
102
RTVSPropertyOp22
 70
     1
102
RTVSPropertyOp23
 70
     1
102
RTVSPropertyOp24
 70
     1
102
RTVSPropertyOp25
 70
     1
102
RTVSPropertyOp26
 70
     1
102
RTVSPropertyOp27
 70
     1
102
RTVSPropertyOp28
 70
     1
102
RTVSPropertyOp29
 70
     1
102
RTVSPropertyOp30
 70
     1
102
RTVSPropertyOp31
 70
     1
102
RTVSPropertyOp32
 70
     1
  0
XRECORD
  5
159D
102
{ACAD_REACTORS
330
159C
102
}
330
159C
100
AcDbXrecord
280
     1
102
RTVSPropertyOp0
 70
     1
102
RTVSPropertyOp1
 70
     1
102
RTVSPropertyOp2
 70
     1
102
RTVSPropertyOp3
 70
     1
102
RTVSPropertyOp4
 70
     1
102
RTVSPropertyOp5
 70
     1
102
RTVSPropertyOp6
 70
     1
102
RTVSPropertyOp7
 70
     1
102
RTVSPropertyOp8
 70
     1
102
RTVSPropertyOp9
 70
     1
102
RTVSPropertyOp10
 70
     1
102
RTVSPropertyOp11
 70
     1
102
RTVSPropertyOp12
 70
     1
102
RTVSPropertyOp13
 70
     1
102
RTVSPropertyOp14
 70
     1
102
RTVSPropertyOp15
 70
     1
102
RTVSPropertyOp16
 70
     1
102
RTVSPropertyOp17
 70
     1
102
RTVSPropertyOp18
 70
     1
102
RTVSPropertyOp19
 70
     1
102
RTVSPropertyOp20
 70
     1
102
RTVSPropertyOp21
 70
     1
102
RTVSPropertyOp22
 70
     1
102
RTVSPropertyOp23
 70
     1
102
RTVSPropertyOp24
 70
     1
102
RTVSPropertyOp25
 70
     1
102
RTVSPropertyOp26
 70
     1
102
RTVSPropertyOp27
 70
     1
102
RTVSPropertyOp28
 70
     1
102
RTVSPropertyOp29
 70
     1
102
RTVSPropertyOp30
 70
     1
102
RTVSPropertyOp31
 70
     1
102
RTVSPropertyOp32
 70
     1
  0
XRECORD
  5
15A1
102
{ACAD_REACTORS
330
15A0
102
}
330
15A0
100
AcDbXrecord
280
     1
102
RTVSPropertyOp0
 70
     1
102
RTVSPropertyOp1
 70
     1
102
RTVSPropertyOp2
 70
     1
102
RTVSPropertyOp3
 70
     1
102
RTVSPropertyOp4
 70
     1
102
RTVSPropertyOp5
 70
     1
102
RTVSPropertyOp6
 70
     1
102
RTVSPropertyOp7
 70
     1
102
RTVSPropertyOp8
 70
     1
102
RTVSPropertyOp9
 70
     1
102
RTVSPropertyOp10
 70
     1
102
RTVSPropertyOp11
 70
     1
102
RTVSPropertyOp12
 70
     1
102
RTVSPropertyOp13
 70
     1
102
RTVSPropertyOp14
 70
     1
102
RTVSPropertyOp15
 70
     1
102
RTVSPropertyOp16
 70
     1
102
RTVSPropertyOp17
 70
     1
102
RTVSPropertyOp18
 70
     1
102
RTVSPropertyOp19
 70
     1
102
RTVSPropertyOp20
 70
     1
102
RTVSPropertyOp21
 70
     1
102
RTVSPropertyOp22
 70
     1
102
RTVSPropertyOp23
 70
     1
102
RTVSPropertyOp24
 70
     1
102
RTVSPropertyOp25
 70
     1
102
RTVSPropertyOp26
 70
     1
102
RTVSPropertyOp27
 70
     1
102
RTVSPropertyOp28
 70
     1
102
RTVSPropertyOp29
 70
     1
102
RTVSPropertyOp30
 70
     1
102
RTVSPropertyOp31
 70
     1
102
RTVSPropertyOp32
 70
     1
  0
XRECORD
  5
15BB
102
{ACAD_REACTORS
330
15BA
102
}
330
15BA
100
AcDbXrecord
280
     1
102
RTVSPropertyOp0
 70
     0
102
RTVSPropertyOp1
 70
     0
102
RTVSPropertyOp2
 70
     0
102
RTVSPropertyOp3
 70
     0
102
RTVSPropertyOp4
 70
     0
102
RTVSPropertyOp5
 70
     0
102
RTVSPropertyOp6
 70
     0
102
RTVSPropertyOp7
 70
     0
102
RTVSPropertyOp8
 70
     0
102
RTVSPropertyOp9
 70
     0
102
RTVSPropertyOp10
 70
     0
102
RTVSPropertyOp11
 70
     0
102
RTVSPropertyOp12
 70
     0
102
RTVSPropertyOp13
 70
     0
102
RTVSPropertyOp14
 70
     2
102
RTVSPropertyOp15
 70
     0
102
RTVSPropertyOp16
 70
     0
102
RTVSPropertyOp17
 70
     0
102
RTVSPropertyOp18
 70
     0
102
RTVSPropertyOp19
 70
     0
102
RTVSPropertyOp20
 70
     0
102
RTVSPropertyOp21
 70
     0
102
RTVSPropertyOp22
 70
     0
102
RTVSPropertyOp23
 70
     0
102
RTVSPropertyOp24
 70
     0
102
RTVSPropertyOp25
 70
     0
102
RTVSPropertyOp26
 70
     0
102
RTVSPropertyOp27
 70
     0
102
RTVSPropertyOp28
 70
     1
102
RTVSPropertyOp29
 70
     1
102
RTVSPropertyOp30
 70
     1
102
RTVSPropertyOp31
 70
     1
102
RTVSPropertyOp32
 70
     1
  0
XRECORD
  5
15A9
102
{ACAD_REACTORS
330
15A8
102
}
330
15A8
100
AcDbXrecord
280
     1
102
RTVSPropertyOp0
 70
     1
102
RTVSPropertyOp1
 70
     1
102
RTVSPropertyOp2
 70
     1
102
RTVSPropertyOp3
 70
     1
102
RTVSPropertyOp4
 70
     1
102
RTVSPropertyOp5
 70
     1
102
RTVSPropertyOp6
 70
     1
102
RTVSPropertyOp7
 70
     1
102
RTVSPropertyOp8
 70
     1
102
RTVSPropertyOp9
 70
     1
102
RTVSPropertyOp10
 70
     1
102
RTVSPropertyOp11
 70
     1
102
RTVSPropertyOp12
 70
     1
102
RTVSPropertyOp13
 70
     1
102
RTVSPropertyOp14
 70
     1
102
RTVSPropertyOp15
 70
     1
102
RTVSPropertyOp16
 70
     1
102
RTVSPropertyOp17
 70
     1
102
RTVSPropertyOp18
 70
     1
102
RTVSPropertyOp19
 70
     1
102
RTVSPropertyOp20
 70
     1
102
RTVSPropertyOp21
 70
     1
102
RTVSPropertyOp22
 70
     1
102
RTVSPropertyOp23
 70
     1
102
RTVSPropertyOp24
 70
     1
102
RTVSPropertyOp25
 70
     1
102
RTVSPropertyOp26
 70
     1
102
RTVSPropertyOp27
 70
     1
102
RTVSPropertyOp28
 70
     1
102
RTVSPropertyOp29
 70
     1
102
RTVSPropertyOp30
 70
     1
102
RTVSPropertyOp31
 70
     1
102
RTVSPropertyOp32
 70
     1
  0
XRECORD
  5
158D
102
{ACAD_REACTORS
330
158C
102
}
330
158C
100
AcDbXrecord
280
     1
102
RTVSPropertyOp0
 70
     1
102
RTVSPropertyOp1
 70
     1
102
RTVSPropertyOp2
 70
     1
102
RTVSPropertyOp3
 70
     1
102
RTVSPropertyOp4
 70
     1
102
RTVSPropertyOp5
 70
     1
102
RTVSPropertyOp6
 70
     1
102
RTVSPropertyOp7
 70
     1
102
RTVSPropertyOp8
 70
     1
102
RTVSPropertyOp9
 70
     1
102
RTVSPropertyOp10
 70
     1
102
RTVSPropertyOp11
 70
     1
102
RTVSPropertyOp12
 70
     1
102
RTVSPropertyOp13
 70
     1
102
RTVSPropertyOp14
 70
     1
102
RTVSPropertyOp15
 70
     1
102
RTVSPropertyOp16
 70
     1
102
RTVSPropertyOp17
 70
     1
102
RTVSPropertyOp18
 70
     1
102
RTVSPropertyOp19
 70
     1
102
RTVSPropertyOp20
 70
     1
102
RTVSPropertyOp21
 70
     1
102
RTVSPropertyOp22
 70
     1
102
RTVSPropertyOp23
 70
     1
102
RTVSPropertyOp24
 70
     1
102
RTVSPropertyOp25
 70
     1
102
RTVSPropertyOp26
 70
     1
102
RTVSPropertyOp27
 70
     1
102
RTVSPropertyOp28
 70
     1
102
RTVSPropertyOp29
 70
     1
102
RTVSPropertyOp30
 70
     1
102
RTVSPropertyOp31
 70
     1
102
RTVSPropertyOp32
 70
     1
  0
XRECORD
  5
158F
102
{ACAD_REACTORS
330
158E
102
}
330
158E
100
AcDbXrecord
280
     1
102
RTVSPropertyOp0
 70
     1
102
RTVSPropertyOp1
 70
     1
102
RTVSPropertyOp2
 70
     1
102
RTVSPropertyOp3
 70
     1
102
RTVSPropertyOp4
 70
     1
102
RTVSPropertyOp5
 70
     1
102
RTVSPropertyOp6
 70
     1
102
RTVSPropertyOp7
 70
     1
102
RTVSPropertyOp8
 70
     1
102
RTVSPropertyOp9
 70
     1
102
RTVSPropertyOp10
 70
     1
102
RTVSPropertyOp11
 70
     1
102
RTVSPropertyOp12
 70
     1
102
RTVSPropertyOp13
 70
     1
102
RTVSPropertyOp14
 70
     1
102
RTVSPropertyOp15
 70
     1
102
RTVSPropertyOp16
 70
     1
102
RTVSPropertyOp17
 70
     1
102
RTVSPropertyOp18
 70
     1
102
RTVSPropertyOp19
 70
     1
102
RTVSPropertyOp20
 70
     1
102
RTVSPropertyOp21
 70
     1
102
RTVSPropertyOp22
 70
     1
102
RTVSPropertyOp23
 70
     1
102
RTVSPropertyOp24
 70
     1
102
RTVSPropertyOp25
 70
     1
102
RTVSPropertyOp26
 70
     1
102
RTVSPropertyOp27
 70
     1
102
RTVSPropertyOp28
 70
     1
102
RTVSPropertyOp29
 70
     1
102
RTVSPropertyOp30
 70
     1
102
RTVSPropertyOp31
 70
     1
102
RTVSPropertyOp32
 70
     1
  0
XRECORD
  5
1591
102
{ACAD_REACTORS
330
1590
102
}
330
1590
100
AcDbXrecord
280
     1
102
RTVSPropertyOp0
 70
     1
102
RTVSPropertyOp1
 70
     1
102
RTVSPropertyOp2
 70
     1
102
RTVSPropertyOp3
 70
     1
102
RTVSPropertyOp4
 70
     1
102
RTVSPropertyOp5
 70
     1
102
RTVSPropertyOp6
 70
     1
102
RTVSPropertyOp7
 70
     1
102
RTVSPropertyOp8
 70
     1
102
RTVSPropertyOp9
 70
     1
102
RTVSPropertyOp10
 70
     1
102
RTVSPropertyOp11
 70
     1
102
RTVSPropertyOp12
 70
     1
102
RTVSPropertyOp13
 70
     1
102
RTVSPropertyOp14
 70
     1
102
RTVSPropertyOp15
 70
     1
102
RTVSPropertyOp16
 70
     1
102
RTVSPropertyOp17
 70
     1
102
RTVSPropertyOp18
 70
     1
102
RTVSPropertyOp19
 70
     1
102
RTVSPropertyOp20
 70
     1
102
RTVSPropertyOp21
 70
     1
102
RTVSPropertyOp22
 70
     1
102
RTVSPropertyOp23
 70
     1
102
RTVSPropertyOp24
 70
     1
102
RTVSPropertyOp25
 70
     1
102
RTVSPropertyOp26
 70
     1
102
RTVSPropertyOp27
 70
     1
102
RTVSPropertyOp28
 70
     1
102
RTVSPropertyOp29
 70
     1
102
RTVSPropertyOp30
 70
     1
102
RTVSPropertyOp31
 70
     1
102
RTVSPropertyOp32
 70
     1
  0
XRECORD
  5
1593
102
{ACAD_REACTORS
330
1592
102
}
330
1592
100
AcDbXrecord
280
     1
102
RTVSPropertyOp0
 70
     1
102
RTVSPropertyOp1
 70
     1
102
RTVSPropertyOp2
 70
     1
102
RTVSPropertyOp3
 70
     1
102
RTVSPropertyOp4
 70
     1
102
RTVSPropertyOp5
 70
     1
102
RTVSPropertyOp6
 70
     1
102
RTVSPropertyOp7
 70
     1
102
RTVSPropertyOp8
 70
     1
102
RTVSPropertyOp9
 70
     1
102
RTVSPropertyOp10
 70
     1
102
RTVSPropertyOp11
 70
     1
102
RTVSPropertyOp12
 70
     1
102
RTVSPropertyOp13
 70
     1
102
RTVSPropertyOp14
 70
     1
102
RTVSPropertyOp15
 70
     1
102
RTVSPropertyOp16
 70
     1
102
RTVSPropertyOp17
 70
     1
102
RTVSPropertyOp18
 70
     1
102
RTVSPropertyOp19
 70
     1
102
RTVSPropertyOp20
 70
     1
102
RTVSPropertyOp21
 70
     1
102
RTVSPropertyOp22
 70
     1
102
RTVSPropertyOp23
 70
     1
102
RTVSPropertyOp24
 70
     1
102
RTVSPropertyOp25
 70
     1
102
RTVSPropertyOp26
 70
     1
102
RTVSPropertyOp27
 70
     1
102
RTVSPropertyOp28
 70
     1
102
RTVSPropertyOp29
 70
     1
102
RTVSPropertyOp30
 70
     1
102
RTVSPropertyOp31
 70
     1
102
RTVSPropertyOp32
 70
     1
  0
XRECORD
  5
159B
102
{ACAD_REACTORS
330
159A
102
}
330
159A
100
AcDbXrecord
280
     1
102
RTVSPropertyOp0
 70
     1
102
RTVSPropertyOp1
 70
     1
102
RTVSPropertyOp2
 70
     1
102
RTVSPropertyOp3
 70
     1
102
RTVSPropertyOp4
 70
     1
102
RTVSPropertyOp5
 70
     1
102
RTVSPropertyOp6
 70
     1
102
RTVSPropertyOp7
 70
     1
102
RTVSPropertyOp8
 70
     1
102
RTVSPropertyOp9
 70
     1
102
RTVSPropertyOp10
 70
     1
102
RTVSPropertyOp11
 70
     1
102
RTVSPropertyOp12
 70
     1
102
RTVSPropertyOp13
 70
     1
102
RTVSPropertyOp14
 70
     1
102
RTVSPropertyOp15
 70
     1
102
RTVSPropertyOp16
 70
     1
102
RTVSPropertyOp17
 70
     1
102
RTVSPropertyOp18
 70
     1
102
RTVSPropertyOp19
 70
     1
102
RTVSPropertyOp20
 70
     1
102
RTVSPropertyOp21
 70
     1
102
RTVSPropertyOp22
 70
     1
102
RTVSPropertyOp23
 70
     1
102
RTVSPropertyOp24
 70
     1
102
RTVSPropertyOp25
 70
     1
102
RTVSPropertyOp26
 70
     1
102
RTVSPropertyOp27
 70
     1
102
RTVSPropertyOp28
 70
     1
102
RTVSPropertyOp29
 70
     1
102
RTVSPropertyOp30
 70
     1
102
RTVSPropertyOp31
 70
     1
102
RTVSPropertyOp32
 70
     1
  0
XRECORD
  5
15B7
102
{ACAD_REACTORS
330
15B6
102
}
330
15B6
100
AcDbXrecord
280
     1
102
RTVSPropertyOp0
 70
     0
102
RTVSPropertyOp1
 70
     0
102
RTVSPropertyOp2
 70
     0
102
RTVSPropertyOp3
 70
     0
102
RTVSPropertyOp4
 70
     0
102
RTVSPropertyOp5
 70
     0
102
RTVSPropertyOp6
 70
     0
102
RTVSPropertyOp7
 70
     0
102
RTVSPropertyOp8
 70
     0
102
RTVSPropertyOp9
 70
     0
102
RTVSPropertyOp10
 70
     0
102
RTVSPropertyOp11
 70
     0
102
RTVSPropertyOp12
 70
     0
102
RTVSPropertyOp13
 70
     0
102
RTVSPropertyOp14
 70
     2
102
RTVSPropertyOp15
 70
     0
102
RTVSPropertyOp16
 70
     0
102
RTVSPropertyOp17
 70
     0
102
RTVSPropertyOp18
 70
     0
102
RTVSPropertyOp19
 70
     0
102
RTVSPropertyOp20
 70
     0
102
RTVSPropertyOp21
 70
     0
102
RTVSPropertyOp22
 70
     0
102
RTVSPropertyOp23
 70
     0
102
RTVSPropertyOp24
 70
     0
102
RTVSPropertyOp25
 70
     0
102
RTVSPropertyOp26
 70
     0
102
RTVSPropertyOp27
 70
     0
102
RTVSPropertyOp28
 70
     1
102
RTVSPropertyOp29
 70
     1
102
RTVSPropertyOp30
 70
     1
102
RTVSPropertyOp31
 70
     1
102
RTVSPropertyOp32
 70
     1
  0
XRECORD
  5
15A7
102
{ACAD_REACTORS
330
15A6
102
}
330
15A6
100
AcDbXrecord
280
     1
102
RTVSPropertyOp0
 70
     1
102
RTVSPropertyOp1
 70
     1
102
RTVSPropertyOp2
 70
     1
102
RTVSPropertyOp3
 70
     1
102
RTVSPropertyOp4
 70
     1
102
RTVSPropertyOp5
 70
     1
102
RTVSPropertyOp6
 70
     1
102
RTVSPropertyOp7
 70
     1
102
RTVSPropertyOp8
 70
     1
102
RTVSPropertyOp9
 70
     1
102
RTVSPropertyOp10
 70
     1
102
RTVSPropertyOp11
 70
     1
102
RTVSPropertyOp12
 70
     1
102
RTVSPropertyOp13
 70
     1
102
RTVSPropertyOp14
 70
     1
102
RTVSPropertyOp15
 70
     1
102
RTVSPropertyOp16
 70
     1
102
RTVSPropertyOp17
 70
     1
102
RTVSPropertyOp18
 70
     1
102
RTVSPropertyOp19
 70
     1
102
RTVSPropertyOp20
 70
     1
102
RTVSPropertyOp21
 70
     1
102
RTVSPropertyOp22
 70
     1
102
RTVSPropertyOp23
 70
     1
102
RTVSPropertyOp24
 70
     1
102
RTVSPropertyOp25
 70
     1
102
RTVSPropertyOp26
 70
     1
102
RTVSPropertyOp27
 70
     1
102
RTVSPropertyOp28
 70
     1
102
RTVSPropertyOp29
 70
     1
102
RTVSPropertyOp30
 70
     1
102
RTVSPropertyOp31
 70
     1
102
RTVSPropertyOp32
 70
     1
  0
XRECORD
  5
15B9
102
{ACAD_REACTORS
330
15B8
102
}
330
15B8
100
AcDbXrecord
280
     1
102
RTVSPropertyOp0
 70
     0
102
RTVSPropertyOp1
 70
     0
102
RTVSPropertyOp2
 70
     0
102
RTVSPropertyOp3
 70
     0
102
RTVSPropertyOp4
 70
     0
102
RTVSPropertyOp5
 70
     0
102
RTVSPropertyOp6
 70
     0
102
RTVSPropertyOp7
 70
     0
102
RTVSPropertyOp8
 70
     0
102
RTVSPropertyOp9
 70
     0
102
RTVSPropertyOp10
 70
     0
102
RTVSPropertyOp11
 70
     0
102
RTVSPropertyOp12
 70
     0
102
RTVSPropertyOp13
 70
     0
102
RTVSPropertyOp14
 70
     2
102
RTVSPropertyOp15
 70
     0
102
RTVSPropertyOp16
 70
     0
102
RTVSPropertyOp17
 70
     0
102
RTVSPropertyOp18
 70
     0
102
RTVSPropertyOp19
 70
     0
102
RTVSPropertyOp20
 70
     0
102
RTVSPropertyOp21
 70
     0
102
RTVSPropertyOp22
 70
     0
102
RTVSPropertyOp23
 70
     0
102
RTVSPropertyOp24
 70
     0
102
RTVSPropertyOp25
 70
     0
102
RTVSPropertyOp26
 70
     0
102
RTVSPropertyOp27
 70
     0
102
RTVSPropertyOp28
 70
     1
102
RTVSPropertyOp29
 70
     1
102
RTVSPropertyOp30
 70
     1
102
RTVSPropertyOp31
 70
     1
102
RTVSPropertyOp32
 70
     1
  0
XRECORD
  5
159F
102
{ACAD_REACTORS
330
159E
102
}
330
159E
100
AcDbXrecord
280
     1
102
RTVSPropertyOp0
 70
     1
102
RTVSPropertyOp1
 70
     1
102
RTVSPropertyOp2
 70
     1
102
RTVSPropertyOp3
 70
     1
102
RTVSPropertyOp4
 70
     1
102
RTVSPropertyOp5
 70
     1
102
RTVSPropertyOp6
 70
     1
102
RTVSPropertyOp7
 70
     1
102
RTVSPropertyOp8
 70
     1
102
RTVSPropertyOp9
 70
     1
102
RTVSPropertyOp10
 70
     1
102
RTVSPropertyOp11
 70
     1
102
RTVSPropertyOp12
 70
     1
102
RTVSPropertyOp13
 70
     1
102
RTVSPropertyOp14
 70
     1
102
RTVSPropertyOp15
 70
     1
102
RTVSPropertyOp16
 70
     1
102
RTVSPropertyOp17
 70
     1
102
RTVSPropertyOp18
 70
     1
102
RTVSPropertyOp19
 70
     1
102
RTVSPropertyOp20
 70
     1
102
RTVSPropertyOp21
 70
     1
102
RTVSPropertyOp22
 70
     1
102
RTVSPropertyOp23
 70
     1
102
RTVSPropertyOp24
 70
     1
102
RTVSPropertyOp25
 70
     1
102
RTVSPropertyOp26
 70
     1
102
RTVSPropertyOp27
 70
     1
102
RTVSPropertyOp28
 70
     1
102
RTVSPropertyOp29
 70
     1
102
RTVSPropertyOp30
 70
     1
102
RTVSPropertyOp31
 70
     1
102
RTVSPropertyOp32
 70
     1
  0
XRECORD
  5
15B5
102
{ACAD_REACTORS
330
15B4
102
}
330
15B4
100
AcDbXrecord
280
     1
102
RTVSPropertyOp0
 70
     1
102
RTVSPropertyOp1
 70
     1
102
RTVSPropertyOp2
 70
     1
102
RTVSPropertyOp3
 70
     1
102
RTVSPropertyOp4
 70
     1
102
RTVSPropertyOp5
 70
     1
102
RTVSPropertyOp6
 70
     1
102
RTVSPropertyOp7
 70
     1
102
RTVSPropertyOp8
 70
     1
102
RTVSPropertyOp9
 70
     1
102
RTVSPropertyOp10
 70
     1
102
RTVSPropertyOp11
 70
     1
102
RTVSPropertyOp12
 70
     1
102
RTVSPropertyOp13
 70
     1
102
RTVSPropertyOp14
 70
     1
102
RTVSPropertyOp15
 70
     1
102
RTVSPropertyOp16
 70
     1
102
RTVSPropertyOp17
 70
     1
102
RTVSPropertyOp18
 70
     1
102
RTVSPropertyOp19
 70
     1
102
RTVSPropertyOp20
 70
     1
102
RTVSPropertyOp21
 70
     1
102
RTVSPropertyOp22
 70
     1
102
RTVSPropertyOp23
 70
     1
102
RTVSPropertyOp24
 70
     1
102
RTVSPropertyOp25
 70
     1
102
RTVSPropertyOp26
 70
     1
102
RTVSPropertyOp27
 70
     1
102
RTVSPropertyOp28
 70
     1
102
RTVSPropertyOp29
 70
     1
102
RTVSPropertyOp30
 70
     1
102
RTVSPropertyOp31
 70
     1
102
RTVSPropertyOp32
 70
     1
  0
XRECORD
  5
15B3
102
{ACAD_REACTORS
330
15B2
102
}
330
15B2
100
AcDbXrecord
280
     1
102
RTVSPropertyOp0
 70
     1
102
RTVSPropertyOp1
 70
     1
102
RTVSPropertyOp2
 70
     1
102
RTVSPropertyOp3
 70
     1
102
RTVSPropertyOp4
 70
     1
102
RTVSPropertyOp5
 70
     1
102
RTVSPropertyOp6
 70
     1
102
RTVSPropertyOp7
 70
     1
102
RTVSPropertyOp8
 70
     1
102
RTVSPropertyOp9
 70
     1
102
RTVSPropertyOp10
 70
     1
102
RTVSPropertyOp11
 70
     1
102
RTVSPropertyOp12
 70
     1
102
RTVSPropertyOp13
 70
     1
102
RTVSPropertyOp14
 70
     1
102
RTVSPropertyOp15
 70
     1
102
RTVSPropertyOp16
 70
     1
102
RTVSPropertyOp17
 70
     1
102
RTVSPropertyOp18
 70
     1
102
RTVSPropertyOp19
 70
     1
102
RTVSPropertyOp20
 70
     1
102
RTVSPropertyOp21
 70
     1
102
RTVSPropertyOp22
 70
     1
102
RTVSPropertyOp23
 70
     1
102
RTVSPropertyOp24
 70
     1
102
RTVSPropertyOp25
 70
     1
102
RTVSPropertyOp26
 70
     1
102
RTVSPropertyOp27
 70
     1
102
RTVSPropertyOp28
 70
     1
102
RTVSPropertyOp29
 70
     1
102
RTVSPropertyOp30
 70
     1
102
RTVSPropertyOp31
 70
     1
102
RTVSPropertyOp32
 70
     1
  0
XRECORD
  5
15AD
102
{ACAD_REACTORS
330
15AC
102
}
330
15AC
100
AcDbXrecord
280
     1
102
RTVSPropertyOp0
 70
     1
102
RTVSPropertyOp1
 70
     1
102
RTVSPropertyOp2
 70
     1
102
RTVSPropertyOp3
 70
     1
102
RTVSPropertyOp4
 70
     1
102
RTVSPropertyOp5
 70
     1
102
RTVSPropertyOp6
 70
     1
102
RTVSPropertyOp7
 70
     1
102
RTVSPropertyOp8
 70
     1
102
RTVSPropertyOp9
 70
     1
102
RTVSPropertyOp10
 70
     1
102
RTVSPropertyOp11
 70
     1
102
RTVSPropertyOp12
 70
     1
102
RTVSPropertyOp13
 70
     1
102
RTVSPropertyOp14
 70
     1
102
RTVSPropertyOp15
 70
     1
102
RTVSPropertyOp16
 70
     1
102
RTVSPropertyOp17
 70
     1
102
RTVSPropertyOp18
 70
     1
102
RTVSPropertyOp19
 70
     1
102
RTVSPropertyOp20
 70
     1
102
RTVSPropertyOp21
 70
     1
102
RTVSPropertyOp22
 70
     1
102
RTVSPropertyOp23
 70
     1
102
RTVSPropertyOp24
 70
     1
102
RTVSPropertyOp25
 70
     1
102
RTVSPropertyOp26
 70
     1
102
RTVSPropertyOp27
 70
     1
102
RTVSPropertyOp28
 70
     1
102
RTVSPropertyOp29
 70
     1
102
RTVSPropertyOp30
 70
     1
102
RTVSPropertyOp31
 70
     1
102
RTVSPropertyOp32
 70
     1
  0
XRECORD
  5
15AF
102
{ACAD_REACTORS
330
15AE
102
}
330
15AE
100
AcDbXrecord
280
     1
102
RTVSPropertyOp0
 70
     1
102
RTVSPropertyOp1
 70
     1
102
RTVSPropertyOp2
 70
     1
102
RTVSPropertyOp3
 70
     1
102
RTVSPropertyOp4
 70
     1
102
RTVSPropertyOp5
 70
     1
102
RTVSPropertyOp6
 70
     1
102
RTVSPropertyOp7
 70
     1
102
RTVSPropertyOp8
 70
     1
102
RTVSPropertyOp9
 70
     1
102
RTVSPropertyOp10
 70
     1
102
RTVSPropertyOp11
 70
     1
102
RTVSPropertyOp12
 70
     1
102
RTVSPropertyOp13
 70
     1
102
RTVSPropertyOp14
 70
     1
102
RTVSPropertyOp15
 70
     1
102
RTVSPropertyOp16
 70
     1
102
RTVSPropertyOp17
 70
     1
102
RTVSPropertyOp18
 70
     1
102
RTVSPropertyOp19
 70
     1
102
RTVSPropertyOp20
 70
     1
102
RTVSPropertyOp21
 70
     1
102
RTVSPropertyOp22
 70
     1
102
RTVSPropertyOp23
 70
     1
102
RTVSPropertyOp24
 70
     1
102
RTVSPropertyOp25
 70
     1
102
RTVSPropertyOp26
 70
     1
102
RTVSPropertyOp27
 70
     1
102
RTVSPropertyOp28
 70
     1
102
RTVSPropertyOp29
 70
     1
102
RTVSPropertyOp30
 70
     1
102
RTVSPropertyOp31
 70
     1
102
RTVSPropertyOp32
 70
     1
  0
XRECORD
  5
15A5
102
{ACAD_REACTORS
330
15A4
102
}
330
15A4
100
AcDbXrecord
280
     1
102
RTVSPropertyOp0
 70
     1
102
RTVSPropertyOp1
 70
     1
102
RTVSPropertyOp2
 70
     1
102
RTVSPropertyOp3
 70
     1
102
RTVSPropertyOp4
 70
     1
102
RTVSPropertyOp5
 70
     1
102
RTVSPropertyOp6
 70
     1
102
RTVSPropertyOp7
 70
     1
102
RTVSPropertyOp8
 70
     1
102
RTVSPropertyOp9
 70
     1
102
RTVSPropertyOp10
 70
     1
102
RTVSPropertyOp11
 70
     1
102
RTVSPropertyOp12
 70
     1
102
RTVSPropertyOp13
 70
     1
102
RTVSPropertyOp14
 70
     1
102
RTVSPropertyOp15
 70
     1
102
RTVSPropertyOp16
 70
     1
102
RTVSPropertyOp17
 70
     1
102
RTVSPropertyOp18
 70
     1
102
RTVSPropertyOp19
 70
     1
102
RTVSPropertyOp20
 70
     1
102
RTVSPropertyOp21
 70
     1
102
RTVSPropertyOp22
 70
     1
102
RTVSPropertyOp23
 70
     1
102
RTVSPropertyOp24
 70
     1
102
RTVSPropertyOp25
 70
     1
102
RTVSPropertyOp26
 70
     1
102
RTVSPropertyOp27
 70
     1
102
RTVSPropertyOp28
 70
     1
102
RTVSPropertyOp29
 70
     1
102
RTVSPropertyOp30
 70
     1
102
RTVSPropertyOp31
 70
     1
102
RTVSPropertyOp32
 70
     1
  0
XRECORD
  5
1599
102
{ACAD_REACTORS
330
1598
102
}
330
1598
100
AcDbXrecord
280
     1
102
RTVSPropertyOp0
 70
     1
102
RTVSPropertyOp1
 70
     1
102
RTVSPropertyOp2
 70
     1
102
RTVSPropertyOp3
 70
     1
102
RTVSPropertyOp4
 70
     1
102
RTVSPropertyOp5
 70
     1
102
RTVSPropertyOp6
 70
     1
102
RTVSPropertyOp7
 70
     1
102
RTVSPropertyOp8
 70
     1
102
RTVSPropertyOp9
 70
     1
102
RTVSPropertyOp10
 70
     1
102
RTVSPropertyOp11
 70
     1
102
RTVSPropertyOp12
 70
     1
102
RTVSPropertyOp13
 70
     1
102
RTVSPropertyOp14
 70
     1
102
RTVSPropertyOp15
 70
     1
102
RTVSPropertyOp16
 70
     1
102
RTVSPropertyOp17
 70
     1
102
RTVSPropertyOp18
 70
     1
102
RTVSPropertyOp19
 70
     1
102
RTVSPropertyOp20
 70
     1
102
RTVSPropertyOp21
 70
     1
102
RTVSPropertyOp22
 70
     1
102
RTVSPropertyOp23
 70
     1
102
RTVSPropertyOp24
 70
     1
102
RTVSPropertyOp25
 70
     1
102
RTVSPropertyOp26
 70
     1
102
RTVSPropertyOp27
 70
     1
102
RTVSPropertyOp28
 70
     1
102
RTVSPropertyOp29
 70
     1
102
RTVSPropertyOp30
 70
     1
102
RTVSPropertyOp31
 70
     1
102
RTVSPropertyOp32
 70
     1
  0
XRECORD
  5
15B1
102
{ACAD_REACTORS
330
15B0
102
}
330
15B0
100
AcDbXrecord
280
     1
102
RTVSPropertyOp0
 70
     1
102
RTVSPropertyOp1
 70
     1
102
RTVSPropertyOp2
 70
     1
102
RTVSPropertyOp3
 70
     1
102
RTVSPropertyOp4
 70
     1
102
RTVSPropertyOp5
 70
     1
102
RTVSPropertyOp6
 70
     1
102
RTVSPropertyOp7
 70
     1
102
RTVSPropertyOp8
 70
     1
102
RTVSPropertyOp9
 70
     1
102
RTVSPropertyOp10
 70
     1
102
RTVSPropertyOp11
 70
     1
102
RTVSPropertyOp12
 70
     1
102
RTVSPropertyOp13
 70
     1
102
RTVSPropertyOp14
 70
     1
102
RTVSPropertyOp15
 70
     1
102
RTVSPropertyOp16
 70
     1
102
RTVSPropertyOp17
 70
     1
102
RTVSPropertyOp18
 70
     1
102
RTVSPropertyOp19
 70
     1
102
RTVSPropertyOp20
 70
     1
102
RTVSPropertyOp21
 70
     1
102
RTVSPropertyOp22
 70
     1
102
RTVSPropertyOp23
 70
     1
102
RTVSPropertyOp24
 70
     1
102
RTVSPropertyOp25
 70
     1
102
RTVSPropertyOp26
 70
     1
102
RTVSPropertyOp27
 70
     1
102
RTVSPropertyOp28
 70
     1
102
RTVSPropertyOp29
 70
     1
102
RTVSPropertyOp30
 70
     1
102
RTVSPropertyOp31
 70
     1
102
RTVSPropertyOp32
 70
     1
  0
ENDSEC
  0
EOF
