  0
SECTION
  2
HEADER
  9
$ACADVER
  1
AC1018
  9
$ACADMAINTVER
 70
   104
  9
$DWGCODEPAGE
  3
ANSI_1252
  9
$AUTHOR
  1
PS
  9
$REVISIONNUMBER
  1
-
  9
$CUSTOMPROPERTYTAG
  1
Manager
  9
$CUSTOMPROPERTY
  1

  9
$CUSTOMPROPERTYTAG
  1
Company
  9
$CUSTOMPROPERTY
  1

  9
$CUSTOMPROPERTYTAG
  1
Category
  9
$CUSTOMPROPERTY
  1

  9
$CUSTOMPROPERTYTAG
  1
Part Number
  9
$CUSTOMPROPERTY
  1
FK1810-S
  9
$CUSTOMPROPERTYTAG
  1
Description
  9
$CUSTOMPROPERTY
  1

  9
$CUSTOMPROPERTYTAG
  1
Project
  9
$CUSTOMPROPERTY
  1

  9
$CUSTOMPROPERTYTAG
  1
Designer
  9
$CUSTOMPROPERTY
  1
PS
  9
$CUSTOMPROPERTYTAG
  1
Engineer
  9
$CUSTOMPROPERTY
  1

  9
$CUSTOMPROPERTYTAG
  1
Authority
  9
$CUSTOMPROPERTY
  1

  9
$CUSTOMPROPERTYTAG
  1
Cost Center
  9
$CUSTOMPROPERTY
  1

  9
$CUSTOMPROPERTYTAG
  1
Vendor
  9
$CUSTOMPROPERTY
  1

  9
$CUSTOMPROPERTYTAG
  1
User Status
  9
$CUSTOMPROPERTY
  1

  9
$CUSTOMPROPERTYTAG
  1
Design Status
  9
$CUSTOMPROPERTY
  1
WorkInProgress
  9
$CUSTOMPROPERTYTAG
  1
Checked by
  9
$CUSTOMPROPERTY
  1
NJ
  9
$CUSTOMPROPERTYTAG
  1
Date Checked
  9
$CUSTOMPROPERTY
  1
05/03/2013
  9
$CUSTOMPROPERTYTAG
  1
Engr Approved by
  9
$CUSTOMPROPERTY
  1

  9
$CUSTOMPROPERTYTAG
  1
Date Eng Approved
  9
$CUSTOMPROPERTY
  1
05/03/2013
  9
$CUSTOMPROPERTYTAG
  1
Mfg Approved by
  9
$CUSTOMPROPERTY
  1

  9
$CUSTOMPROPERTYTAG
  1
Date Mfg Approved
  9
$CUSTOMPROPERTY
  1
05/03/2013
  9
$CUSTOMPROPERTYTAG
  1
DWG. NO
  9
$CUSTOMPROPERTY
  1

  9
$CUSTOMPROPERTYTAG
  1
NUMBER OF SHEETS
  9
$CUSTOMPROPERTY
  1
1
  9
$CUSTOMPROPERTYTAG
  1
DRAWING #
  9
$CUSTOMPROPERTY
  1

  9
$INSBASE
 10
0.0
 20
0.0
 30
0.0
  9
$EXTMIN
 10
0.0
 20
0.0
 30
0.0
  9
$EXTMAX
 10
119.0
 20
77.0
 30
0.0
  9
$LIMMIN
 10
0.0
 20
0.0
  9
$LIMMAX
 10
119.0
 20
77.0
  9
$ORTHOMODE
 70
     0
  9
$REGENMODE
 70
     1
  9
$FILLMODE
 70
     1
  9
$QTEXTMODE
 70
     0
  9
$MIRRTEXT
 70
     0
  9
$LTSCALE
 40
7.0
  9
$ATTMODE
 70
     1
  9
$TEXTSIZE
 40
0.2
  9
$TRACEWID
 40
0.05
  9
$TEXTSTYLE
  7
Standard
  9
$CLAYER
  8
0
  9
$CELTYPE
  6
ByLayer
  9
$CECOLOR
 62
   256
  9
$CELTSCALE
 40
1.0
  9
$DISPSILH
 70
     0
  9
$DIMSCALE
 40
1.0
  9
$DIMASZ
 40
0.0708661417322835
  9
$DIMEXO
 40
0.0625
  9
$DIMDLI
 40
0.38
  9
$DIMRND
 40
0.0
  9
$DIMDLE
 40
0.0
  9
$DIMEXE
 40
0.18
  9
$DIMTP
 40
0.0
  9
$DIMTM
 40
0.0
  9
$DIMTXT
 40
0.0708661417322835
  9
$DIMCEN
 40
0.09
  9
$DIMTSZ
 40
0.0
  9
$DIMTOL
 70
     0
  9
$DIMLIM
 70
     0
  9
$DIMTIH
 70
     1
  9
$DIMTOH
 70
     1
  9
$DIMSE1
 70
     0
  9
$DIMSE2
 70
     0
  9
$DIMTAD
 70
     0
  9
$DIMZIN
 70
     0
  9
$DIMBLK
  1

  9
$DIMASO
 70
     1
  9
$DIMSHO
 70
     1
  9
$DIMPOST
  1

  9
$DIMAPOST
  1

  9
$DIMALT
 70
     0
  9
$DIMALTD
 70
     2
  9
$DIMALTF
 40
25.4
  9
$DIMLFAC
 40
1.0
  9
$DIMTOFL
 70
     0
  9
$DIMTVP
 40
0.0
  9
$DIMTIX
 70
     0
  9
$DIMSOXD
 70
     0
  9
$DIMSAH
 70
     0
  9
$DIMBLK1
  1

  9
$DIMBLK2
  1

  9
$DIMSTYLE
  2
Standard
  9
$DIMCLRD
 70
     0
  9
$DIMCLRE
 70
     0
  9
$DIMCLRT
 70
     0
  9
$DIMTFAC
 40
1.0
  9
$DIMGAP
 40
0.09
  9
$DIMJUST
 70
     0
  9
$DIMSD1
 70
     0
  9
$DIMSD2
 70
     0
  9
$DIMTOLJ
 70
     1
  9
$DIMTZIN
 70
     0
  9
$DIMALTZ
 70
     0
  9
$DIMALTTZ
 70
     0
  9
$DIMUPT
 70
     0
  9
$DIMDEC
 70
     4
  9
$DIMTDEC
 70
     4
  9
$DIMALTU
 70
     2
  9
$DIMALTTD
 70
     2
  9
$DIMTXSTY
  7
Standard
  9
$DIMAUNIT
 70
     0
  9
$DIMADEC
 70
     0
  9
$DIMALTRND
 40
0.0
  9
$DIMAZIN
 70
     0
  9
$DIMDSEP
 70
    46
  9
$DIMATFIT
 70
     3
  9
$DIMFRAC
 70
     0
  9
$DIMLDRBLK
  1

  9
$DIMLUNIT
 70
     2
  9
$DIMLWD
 70
    -2
  9
$DIMLWE
 70
    -2
  9
$DIMTMOVE
 70
     0
  9
$LUNITS
 70
     2
  9
$LUPREC
 70
     4
  9
$SKETCHINC
 40
0.1
  9
$FILLETRAD
 40
0.0
  9
$AUNITS
 70
     0
  9
$AUPREC
 70
     0
  9
$MENU
  1
.
  9
$ELEVATION
 40
0.0
  9
$PELEVATION
 40
0.0
  9
$THICKNESS
 40
0.0
  9
$LIMCHECK
 70
     0
  9
$CHAMFERA
 40
0.0
  9
$CHAMFERB
 40
0.0
  9
$CHAMFERC
 40
0.0
  9
$CHAMFERD
 40
0.0
  9
$SKPOLY
 70
     0
  9
$TDCREATE
 40
2456428.835989028
  9
$TDUCREATE
 40
2456428.606822361
  9
$TDUPDATE
 40
2456428.835989040
  9
$TDUUPDATE
 40
2456428.606822373
  9
$TDINDWG
 40
0.0000441551
  9
$TDUSRTIMER
 40
0.0000441551
  9
$USRTIMER
 70
     1
  9
$ANGBASE
 50
0.0
  9
$ANGDIR
 70
     0
  9
$PDMODE
 70
     0
  9
$PDSIZE
 40
0.0
  9
$PLINEWID
 40
0.0
  9
$SPLFRAME
 70
     0
  9
$SPLINETYPE
 70
     6
  9
$SPLINESEGS
 70
     8
  9
$HANDSEED
  5
15BF
  9
$SURFTAB1
 70
     6
  9
$SURFTAB2
 70
     6
  9
$SURFTYPE
 70
     6
  9
$SURFU
 70
     6
  9
$SURFV
 70
     6
  9
$UCSBASE
  2

  9
$UCSNAME
  2

  9
$UCSORG
 10
0.0
 20
0.0
 30
0.0
  9
$UCSXDIR
 10
1.0
 20
0.0
 30
0.0
  9
$UCSYDIR
 10
0.0
 20
1.0
 30
0.0
  9
$UCSORTHOREF
  2

  9
$UCSORTHOVIEW
 70
     0
  9
$UCSORGTOP
 10
0.0
 20
0.0
 30
0.0
  9
$UCSORGBOTTOM
 10
0.0
 20
0.0
 30
0.0
  9
$UCSORGLEFT
 10
0.0
 20
0.0
 30
0.0
  9
$UCSORGRIGHT
 10
0.0
 20
0.0
 30
0.0
  9
$UCSORGFRONT
 10
0.0
 20
0.0
 30
0.0
  9
$UCSORGBACK
 10
0.0
 20
0.0
 30
0.0
  9
$PUCSBASE
  2

  9
$PUCSNAME
  2

  9
$PUCSORG
 10
0.0
 20
0.0
 30
0.0
  9
$PUCSXDIR
 10
1.0
 20
0.0
 30
0.0
  9
$PUCSYDIR
 10
0.0
 20
1.0
 30
0.0
  9
$PUCSORTHOREF
  2

  9
$PUCSORTHOVIEW
 70
     0
  9
$PUCSORGTOP
 10
0.0
 20
0.0
 30
0.0
  9
$PUCSORGBOTTOM
 10
0.0
 20
0.0
 30
0.0
  9
$PUCSORGLEFT
 10
0.0
 20
0.0
 30
0.0
  9
$PUCSORGRIGHT
 10
0.0
 20
0.0
 30
0.0
  9
$PUCSORGFRONT
 10
0.0
 20
0.0
 30
0.0
  9
$PUCSORGBACK
 10
0.0
 20
0.0
 30
0.0
  9
$USERI1
 70
     0
  9
$USERI2
 70
     0
  9
$USERI3
 70
     0
  9
$USERI4
 70
     0
  9
$USERI5
 70
     0
  9
$USERR1
 40
0.0
  9
$USERR2
 40
0.0
  9
$USERR3
 40
0.0
  9
$USERR4
 40
0.0
  9
$USERR5
 40
0.0
  9
$WORLDVIEW
 70
     1
  9
$SHADEDGE
 70
     3
  9
$SHADEDIF
 70
    70
  9
$TILEMODE
 70
     1
  9
$MAXACTVP
 70
    64
  9
$PINSBASE
 10
0.0
 20
0.0
 30
0.0
  9
$PLIMCHECK
 70
     0
  9
$PEXTMIN
 10
0.0
 20
0.0
 30
0.0
  9
$PEXTMAX
 10
119.0
 20
77.0
 30
0.0
  9
$PLIMMIN
 10
0.0
 20
0.0
  9
$PLIMMAX
 10
119.0
 20
77.0
  9
$UNITMODE
 70
     0
  9
$VISRETAIN
 70
     1
  9
$PLINEGEN
 70
     0
  9
$PSLTSCALE
 70
     1
  9
$TREEDEPTH
 70
  3020
  9
$CMLSTYLE
  2
Standard
  9
$CMLJUST
 70
     0
  9
$CMLSCALE
 40
1.0
  9
$PROXYGRAPHICS
 70
     1
  9
$MEASUREMENT
 70
     0
  9
$CELWEIGHT
370
    -1
  9
$ENDCAPS
280
     0
  9
$JOINSTYLE
280
     0
  9
$LWDISPLAY
290
     0
  9
$INSUNITS
 70
     1
  9
$HYPERLINKBASE
  1

  9
$STYLESHEET
  1

  9
$XEDIT
290
     1
  9
$CEPSNTYPE
380
     0
  9
$PSTYLEMODE
290
     1
  9
$FINGERPRINTGUID
  2
{6F5F8B80-EA72-4CC9-A1D8-1A370AC3D842}
  9
$VERSIONGUID
  2
{9F8D4519-5723-4370-AABB-5478C325AC62}
  9
$EXTNAMES
290
     1
  9
$PSVPSCALE
 40
0.0
  9
$OLESTARTUP
290
     0
  9
$SORTENTS
280
   127
  9
$INDEXCTL
280
     0
  9
$HIDETEXT
280
     1
  9
$XCLIPFRAME
290
     0
  9
$HALOGAP
280
     0
  9
$OBSCOLOR
 70
   257
  9
$OBSLTYPE
280
     0
  9
$INTERSECTIONDISPLAY
280
     0
  9
$INTERSECTIONCOLOR
 70
   257
  9
$DIMASSOC
280
     1
  9
$PROJECTNAME
  1

  0
ENDSEC
  0
SECTION
  2
CLASSES
  0
CLASS
  1
ACDBDICTIONARYWDFLT
  2
AcDbDictionaryWithDefault
  3
ObjectDBX Classes
 90
        0
 91
        1
280
     0
281
     0
  0
CLASS
  1
MATERIAL
  2
AcDbMaterial
  3
ObjectDBX Classes
 90
     1153
 91
        3
280
     0
281
     0
  0
CLASS
  1
VISUALSTYLE
  2
AcDbVisualStyle
  3
ObjectDBX Classes
 90
     4095
 91
       24
280
     0
281
     0
  0
CLASS
  1
SCALE
  2
AcDbScale
  3
ObjectDBX Classes
 90
     1153
 91
       17
280
     0
281
     0
  0
CLASS
  1
TABLESTYLE
  2
AcDbTableStyle
  3
ObjectDBX Classes
 90
     4095
 91
        1
280
     0
281
     0
  0
CLASS
  1
MLEADERSTYLE
  2
AcDbMLeaderStyle
  3
ACDB_MLEADERSTYLE_CLASS
 90
     4095
 91
        1
280
     0
281
     0
  0
CLASS
  1
DICTIONARYVAR
  2
AcDbDictionaryVar
  3
ObjectDBX Classes
 90
        0
 91
        8
280
     0
281
     0
  0
CLASS
  1
CELLSTYLEMAP
  2
AcDbCellStyleMap
  3
ObjectDBX Classes
 90
     1152
 91
        1
280
     0
281
     0
  0
ENDSEC
  0
SECTION
  2
TABLES
  0
TABLE
  2
VPORT
  5
8
330
0
100
AcDbSymbolTable
 70
     1
  0
VPORT
  5
57
330
8
100
AcDbSymbolTableRecord
100
AcDbViewportTableRecord
  2
*Active
 70
     0
 10
0.0
 20
0.0
 11
1.0
 21
1.0
 12
59.5
 22
38.5
 13
0.0
 23
0.0
 14
1.0
 24
1.0
 15
0.0
 25
0.0
 16
0.0
 26
0.0
 36
1.0
 17
0.0
 27
0.0
 37
0.0
 40
77.0
 41
1.545454545454545
 42
50.0
 43
0.0
 44
0.0
 50
0.0
 51
0.0
 71
     0
 72
   100
 73
     1
 74
     1
 75
     0
 76
     0
 77
     0
 78
     0
281
     0
 65
     1
110
0.0
120
0.0
130
0.0
111
1.0
121
0.0
131
0.0
112
0.0
122
1.0
132
0.0
 79
     0
146
0.0
  0
ENDTAB
  0
TABLE
  2
LTYPE
  5
5
330
0
100
AcDbSymbolTable
 70
    59
  0
LTYPE
  5
5B
330
5
100
AcDbSymbolTableRecord
100
AcDbLinetypeTableRecord
  2
ByBlock
 70
     0
  3

 72
    65
 73
     0
 40
0.0
  0
LTYPE
  5
5C
330
5
100
AcDbSymbolTableRecord
100
AcDbLinetypeTableRecord
  2
ByLayer
 70
     0
  3

 72
    65
 73
     0
 40
0.0
  0
LTYPE
  5
5D
330
5
100
AcDbSymbolTableRecord
100
AcDbLinetypeTableRecord
  2
Continuous
 70
     0
  3
Solid line
 72
    65
 73
     0
 40
0.0
  0
LTYPE
  5
7C
330
5
100
AcDbSymbolTableRecord
100
AcDbLinetypeTableRecord
  2
BY_STANDARD
 70
     0
  3
By Standard ____________    ____    ____   _
 72
    65
 73
     6
 40
1.240299999999999
 49
0.6614
 74
     0
 49
-0.0827
 74
     0
 49
0.1654
 74
     0
 49
-0.0827
 74
     0
 49
0.1654
 74
     0
 49
-0.0827
 74
     0
  0
LTYPE
  5
7D
330
5
100
AcDbSymbolTableRecord
100
AcDbLinetypeTableRecord
  2
CHAIN
 70
     0
  3
Chain ____ _ ____ _ ____ _ ____ _ ____ _ ____
 72
    65
 73
     4
 40
0.7087
 49
0.4724000000000001
 74
     0
 49
-0.0591
 74
     0
 49
0.1181
 74
     0
 49
-0.0591
 74
     0
  0
LTYPE
  5
7E
330
5
100
AcDbSymbolTableRecord
100
AcDbLinetypeTableRecord
  2
DASH_DOT
 70
     0
  3
Dash dot __ . __ . __ . __ . __ . __ . __ . __
 72
    65
 73
     4
 40
0.37
 49
0.24
 74
     0
 49
-0.06
 74
     0
 49
0.01
 74
     0
 49
-0.06
 74
     0
  0
LTYPE
  5
7F
330
5
100
AcDbSymbolTableRecord
100
AcDbLinetypeTableRecord
  2
DOUBLE_DASH_DOT
 70
     0
  3
Double-Dash Dot __ __ . __ __ . __ __ . __ _
 72
    65
 73
     6
 40
0.4398
 49
0.24
 74
     0
 49
-0.06
 74
     0
 49
0.0098
 74
     0
 49
-0.06
 74
     0
 49
0.01
 74
     0
 49
-0.06
 74
     0
  0
LTYPE
  5
80
330
5
100
AcDbSymbolTableRecord
100
AcDbLinetypeTableRecord
  2
DASH_TRIPLE_DOT
 70
     0
  3
Dash Triple-Dot _ . . . _ . . . _ . . . _
 72
    65
 73
     8
 40
0.51
 49
0.24
 74
     0
 49
-0.06
 74
     0
 49
0.01
 74
     0
 49
-0.06
 74
     0
 49
0.01
 74
     0
 49
-0.06
 74
     0
 49
0.01
 74
     0
 49
-0.06
 74
     0
  0
LTYPE
  5
81
330
5
100
AcDbSymbolTableRecord
100
AcDbLinetypeTableRecord
  2
DASHED
 70
     0
  3
Dashed __ __ __ __ __ __ __ __ __ __ __ __ __ _
 72
    65
 73
     2
 40
0.2067
 49
0.1654
 74
     0
 49
-0.0413
 74
     0
  0
LTYPE
  5
82
330
5
100
AcDbSymbolTableRecord
100
AcDbLinetypeTableRecord
  2
DASH_DOUBLE_DOT
 70
     0
  3
Dash Double-Dot __ . . __ . . __ . . __ . .
 72
    65
 73
     6
 40
0.4398
 49
0.24
 74
     0
 49
-0.06
 74
     0
 49
0.0098
 74
     0
 49
-0.06
 74
     0
 49
0.01
 74
     0
 49
-0.06
 74
     0
  0
LTYPE
  5
83
330
5
100
AcDbSymbolTableRecord
100
AcDbLinetypeTableRecord
  2
DASHED_SPACE
 70
     0
  3
Dashed Space __ __ __ __ __ __ __ __ __ __ __ _
 72
    65
 73
     2
 40
0.2067
 49
0.1654
 74
     0
 49
-0.0413
 74
     0
  0
LTYPE
  5
84
330
5
100
AcDbSymbolTableRecord
100
AcDbLinetypeTableRecord
  2
DOTTED
 70
     0
  3
Dotted . . . . . . . . . . . . . . . . . . . . 
 72
    65
 73
     2
 40
0.0482
 49
0.0069
 74
     0
 49
-0.0413
 74
     0
  0
LTYPE
  5
85
330
5
100
AcDbSymbolTableRecord
100
AcDbLinetypeTableRecord
  2
DOUBLE_DASH_CHAIN
 70
     0
  3
Double-Dash Chain ______  __  __  ______  __  _
 72
    65
 73
     6
 40
1.240299999999999
 49
0.6614
 74
     0
 49
-0.0827
 74
     0
 49
0.1654
 74
     0
 49
-0.0827
 74
     0
 49
0.1654
 74
     0
 49
-0.0827
 74
     0
  0
LTYPE
  5
87
330
5
100
AcDbSymbolTableRecord
100
AcDbLinetypeTableRecord
  2
DOUBLE_DASH_DOUBLE_DOT
 70
     0
  3
Double-Dash Double-dot _ _ . . _ _ . . _
 72
    65
 73
     8
 40
0.7400000000000001
 49
0.24
 74
     0
 49
-0.06
 74
     0
 49
0.24
 74
     0
 49
-0.06
 74
     0
 49
0.01
 74
     0
 49
-0.06
 74
     0
 49
0.01
 74
     0
 49
-0.06
 74
     0
  0
LTYPE
  5
88
330
5
100
AcDbSymbolTableRecord
100
AcDbLinetypeTableRecord
  2
DOUBLE_DASH_TRIPLE_DOT
 70
     0
  3
Double Dash Triple Dot __ __ . . . __ __ . .
 72
    65
 73
    10
 40
0.8100000000000001
 49
0.24
 74
     0
 49
-0.06
 74
     0
 49
0.24
 74
     0
 49
-0.06
 74
     0
 49
0.01
 74
     0
 49
-0.06
 74
     0
 49
0.01
 74
     0
 49
-0.06
 74
     0
 49
0.01
 74
     0
 49
-0.06
 74
     0
  0
LTYPE
  5
89
330
5
100
AcDbSymbolTableRecord
100
AcDbLinetypeTableRecord
  2
LONG_DASH_DOTTED
 70
     0
  3
Long Dash Dotted ____ . ____ . ____ . ____ . _
 72
    65
 73
     4
 40
0.3543
 49
0.2362
 74
     0
 49
-0.0295
 74
     0
 49
0.0591
 74
     0
 49
-0.0295
 74
     0
  0
LTYPE
  5
8A
330
5
100
AcDbSymbolTableRecord
100
AcDbLinetypeTableRecord
  2
LONG_DASH_DOUBLE_DOT
 70
     0
  3
Long Dash Double Dot ________  .  .  ________  
 72
    65
 73
     6
 40
0.6799999999999999
 49
0.48
 74
     0
 49
-0.06
 74
     0
 49
0.01
 74
     0
 49
-0.06
 74
     0
 49
0.01
 74
     0
 49
-0.06
 74
     0
  0
LTYPE
  5
8B
330
5
100
AcDbSymbolTableRecord
100
AcDbLinetypeTableRecord
  2
LONG_DASH_TRIPLE_DOT
 70
     0
  3
Long Dash Triple Dot ____ ... ____ ... ____
 72
    65
 73
     8
 40
0.3689
 49
0.2362
 74
     0
 49
-0.0295
 74
     0
 49
0.0049
 74
     0
 49
-0.0295
 74
     0
 49
0.0049
 74
     0
 49
-0.0295
 74
     0
 49
0.0049
 74
     0
 49
-0.0295
 74
     0
  0
LTYPE
  5
8C
330
5
100
AcDbSymbolTableRecord
100
AcDbLinetypeTableRecord
  2
BORDER
 70
     0
  3
Border __ __ . __ __ . __ __ . __ __ . __ __ .
 72
    65
 73
     6
 40
1.75
 49
0.5
 74
     0
 49
-0.25
 74
     0
 49
0.5
 74
     0
 49
-0.25
 74
     0
 49
0.0
 74
     0
 49
-0.25
 74
     0
  0
LTYPE
  5
8D
330
5
100
AcDbSymbolTableRecord
100
AcDbLinetypeTableRecord
  2
BORDER2
 70
     0
  3
Border (.5x) __.__.__.__.__.__.__.__.__.__.__.
 72
    65
 73
     6
 40
0.875
 49
0.25
 74
     0
 49
-0.125
 74
     0
 49
0.25
 74
     0
 49
-0.125
 74
     0
 49
0.0
 74
     0
 49
-0.125
 74
     0
  0
LTYPE
  5
8E
330
5
100
AcDbSymbolTableRecord
100
AcDbLinetypeTableRecord
  2
BORDERX2
 70
     0
  3
Border (2x) ____  ____  .  ____  ____  .  ___
 72
    65
 73
     6
 40
3.5
 49
1.0
 74
     0
 49
-0.5
 74
     0
 49
1.0
 74
     0
 49
-0.5
 74
     0
 49
0.0
 74
     0
 49
-0.5
 74
     0
  0
LTYPE
  5
8F
330
5
100
AcDbSymbolTableRecord
100
AcDbLinetypeTableRecord
  2
CENTER
 70
     0
  3
Center ____ _ ____ _ ____ _ ____ _ ____ _ ____
 72
    65
 73
     4
 40
2.0
 49
1.25
 74
     0
 49
-0.25
 74
     0
 49
0.25
 74
     0
 49
-0.25
 74
     0
  0
LTYPE
  5
90
330
5
100
AcDbSymbolTableRecord
100
AcDbLinetypeTableRecord
  2
CENTER2
 70
     0
  3
Center (.5x) ___ _ ___ _ ___ _ ___ _ ___ _ ___
 72
    65
 73
     4
 40
1.125
 49
0.75
 74
     0
 49
-0.125
 74
     0
 49
0.125
 74
     0
 49
-0.125
 74
     0
  0
LTYPE
  5
91
330
5
100
AcDbSymbolTableRecord
100
AcDbLinetypeTableRecord
  2
CENTERX2
 70
     0
  3
Center (2x) ________  __  ________  __  _____
 72
    65
 73
     4
 40
4.0
 49
2.5
 74
     0
 49
-0.5
 74
     0
 49
0.5
 74
     0
 49
-0.5
 74
     0
  0
LTYPE
  5
92
330
5
100
AcDbSymbolTableRecord
100
AcDbLinetypeTableRecord
  2
DASHDOT2
 70
     0
  3
Dash dot (.5x) _._._._._._._._._._._._._._._.
 72
    65
 73
     4
 40
0.5
 49
0.25
 74
     0
 49
-0.125
 74
     0
 49
0.0
 74
     0
 49
-0.125
 74
     0
  0
LTYPE
  5
93
330
5
100
AcDbSymbolTableRecord
100
AcDbLinetypeTableRecord
  2
DASHDOTX2
 70
     0
  3
Dash dot (2x) ____  .  ____  .  ____  .  ___
 72
    65
 73
     4
 40
2.0
 49
1.0
 74
     0
 49
-0.5
 74
     0
 49
0.0
 74
     0
 49
-0.5
 74
     0
  0
LTYPE
  5
95
330
5
100
AcDbSymbolTableRecord
100
AcDbLinetypeTableRecord
  2
DASHED2
 70
     0
  3
Dashed (.5x) _ _ _ _ _ _ _ _ _ _ _ _ _ _ _ _ _
 72
    65
 73
     2
 40
0.375
 49
0.25
 74
     0
 49
-0.125
 74
     0
  0
LTYPE
  5
96
330
5
100
AcDbSymbolTableRecord
100
AcDbLinetypeTableRecord
  2
DASHEDX2
 70
     0
  3
Dashed (2x) ____  ____  ____  ____  ____  ___
 72
    65
 73
     2
 40
1.5
 49
1.0
 74
     0
 49
-0.5
 74
     0
  0
LTYPE
  5
97
330
5
100
AcDbSymbolTableRecord
100
AcDbLinetypeTableRecord
  2
DIVIDE
 70
     0
  3
Divide ____ . . ____ . . ____ . . ____ . . ____
 72
    65
 73
     6
 40
1.25
 49
0.5
 74
     0
 49
-0.25
 74
     0
 49
0.0
 74
     0
 49
-0.25
 74
     0
 49
0.0
 74
     0
 49
-0.25
 74
     0
  0
LTYPE
  5
98
330
5
100
AcDbSymbolTableRecord
100
AcDbLinetypeTableRecord
  2
DIVIDE2
 70
     0
  3
Divide (.5x) __..__..__..__..__..__..__..__.._
 72
    65
 73
     6
 40
0.625
 49
0.25
 74
     0
 49
-0.125
 74
     0
 49
0.0
 74
     0
 49
-0.125
 74
     0
 49
0.0
 74
     0
 49
-0.125
 74
     0
  0
LTYPE
  5
99
330
5
100
AcDbSymbolTableRecord
100
AcDbLinetypeTableRecord
  2
DIVIDEX2
 70
     0
  3
Divide (2x) ________  .  .  ________  .  .  _
 72
    65
 73
     6
 40
2.5
 49
1.0
 74
     0
 49
-0.5
 74
     0
 49
0.0
 74
     0
 49
-0.5
 74
     0
 49
0.0
 74
     0
 49
-0.5
 74
     0
  0
LTYPE
  5
9A
330
5
100
AcDbSymbolTableRecord
100
AcDbLinetypeTableRecord
  2
DOT
 70
     0
  3
Dot . . . . . . . . . . . . . . . . . . . . . .
 72
    65
 73
     2
 40
0.25
 49
0.0
 74
     0
 49
-0.25
 74
     0
  0
LTYPE
  5
9B
330
5
100
AcDbSymbolTableRecord
100
AcDbLinetypeTableRecord
  2
DOT2
 70
     0
  3
Dot (.5x) .....................................
 72
    65
 73
     2
 40
0.125
 49
0.0
 74
     0
 49
-0.125
 74
     0
  0
LTYPE
  5
9C
330
5
100
AcDbSymbolTableRecord
100
AcDbLinetypeTableRecord
  2
DOTX2
 70
     0
  3
Dot (2x) .  .  .  .  .  .  .  .  .  .  .  .  . 
 72
    65
 73
     2
 40
0.5
 49
0.0
 74
     0
 49
-0.5
 74
     0
  0
LTYPE
  5
9D
330
5
100
AcDbSymbolTableRecord
100
AcDbLinetypeTableRecord
  2
HIDDEN
 70
     0
  3
Hidden __ __ __ __ __ __ __ __ __ __ __ __ __ _
 72
    65
 73
     2
 40
0.375
 49
0.25
 74
     0
 49
-0.125
 74
     0
  0
LTYPE
  5
9E
330
5
100
AcDbSymbolTableRecord
100
AcDbLinetypeTableRecord
  2
HIDDEN2
 70
     0
  3
Hidden (.5x) _ _ _ _ _ _ _ _ _ _ _ _ _ _ _ _ _
 72
    65
 73
     2
 40
0.1875
 49
0.125
 74
     0
 49
-0.0625
 74
     0
  0
LTYPE
  5
9F
330
5
100
AcDbSymbolTableRecord
100
AcDbLinetypeTableRecord
  2
HIDDENX2
 70
     0
  3
Hidden (2x) ____ ____ ____ ____ ____ ____ ____
 72
    65
 73
     2
 40
0.75
 49
0.5
 74
     0
 49
-0.25
 74
     0
  0
LTYPE
  5
A0
330
5
100
AcDbSymbolTableRecord
100
AcDbLinetypeTableRecord
  2
PHANTOM
 70
     0
  3
Phantom ______  __  __  ______  __  __  ______
 72
    65
 73
     6
 40
2.5
 49
1.25
 74
     0
 49
-0.25
 74
     0
 49
0.25
 74
     0
 49
-0.25
 74
     0
 49
0.25
 74
     0
 49
-0.25
 74
     0
  0
LTYPE
  5
A1
330
5
100
AcDbSymbolTableRecord
100
AcDbLinetypeTableRecord
  2
PHANTOM2
 70
     0
  3
Phantom (.5x) ___ _ _ ___ _ _ ___ _ _ ___ _ _
 72
    65
 73
     6
 40
1.25
 49
0.625
 74
     0
 49
-0.125
 74
     0
 49
0.125
 74
     0
 49
-0.125
 74
     0
 49
0.125
 74
     0
 49
-0.125
 74
     0
  0
LTYPE
  5
A2
330
5
100
AcDbSymbolTableRecord
100
AcDbLinetypeTableRecord
  2
PHANTOMX2
 70
     0
  3
Phantom (2x) ____________    ____    ____   _
 72
    65
 73
     6
 40
5.0
 49
2.5
 74
     0
 49
-0.5
 74
     0
 49
0.5
 74
     0
 49
-0.5
 74
     0
 49
0.5
 74
     0
 49
-0.5
 74
     0
  0
LTYPE
  5
A3
330
5
100
AcDbSymbolTableRecord
100
AcDbLinetypeTableRecord
  2
ACAD_ISO02W100
 70
     0
  3
ISO dash __ __ __ __ __ __ __ __ __ __ __ __ __
 72
    65
 73
     2
 40
0.59
 49
0.47
 74
     0
 49
-0.12
 74
     0
  0
LTYPE
  5
A4
330
5
100
AcDbSymbolTableRecord
100
AcDbLinetypeTableRecord
  2
ACAD_ISO03W100
 70
     0
  3
ISO dash space __    __    __    __    __    __
 72
    65
 73
     2
 40
1.179999999999999
 49
0.47
 74
     0
 49
-0.71
 74
     0
  0
LTYPE
  5
A5
330
5
100
AcDbSymbolTableRecord
100
AcDbLinetypeTableRecord
  2
ACAD_ISO04W100
 70
     0
  3
ISO long-dash dot ____ . ____ . ____ . ____ . _
 72
    65
 73
     4
 40
1.179999999999999
 49
0.9399999999999998
 74
     0
 49
-0.12
 74
     0
 49
0.0
 74
     0
 49
-0.12
 74
     0
  0
LTYPE
  5
A6
330
5
100
AcDbSymbolTableRecord
100
AcDbLinetypeTableRecord
  2
ACAD_ISO05W100
 70
     0
  3
ISO long-dash double-dot ____ .. ____ .. ____ .
 72
    65
 73
     6
 40
1.299999999999999
 49
0.9399999999999998
 74
     0
 49
-0.12
 74
     0
 49
0.0
 74
     0
 49
-0.12
 74
     0
 49
0.0
 74
     0
 49
-0.12
 74
     0
  0
LTYPE
  5
A7
330
5
100
AcDbSymbolTableRecord
100
AcDbLinetypeTableRecord
  2
ACAD_ISO06W100
 70
     0
  3
ISO long-dash triple-dot ____ ... ____ ... ____
 72
    65
 73
     8
 40
1.419999999999999
 49
0.9399999999999998
 74
     0
 49
-0.12
 74
     0
 49
0.0
 74
     0
 49
-0.12
 74
     0
 49
0.0
 74
     0
 49
-0.12
 74
     0
 49
0.0
 74
     0
 49
-0.12
 74
     0
  0
LTYPE
  5
A8
330
5
100
AcDbSymbolTableRecord
100
AcDbLinetypeTableRecord
  2
ACAD_ISO07W100
 70
     0
  3
ISO dot . . . . . . . . . . . . . . . . . . . .
 72
    65
 73
     2
 40
0.12
 49
0.0
 74
     0
 49
-0.12
 74
     0
  0
LTYPE
  5
A9
330
5
100
AcDbSymbolTableRecord
100
AcDbLinetypeTableRecord
  2
ACAD_ISO08W100
 70
     0
  3
ISO long-dash short-dash ____ __ ____ __ ____ _
 72
    65
 73
     4
 40
0.95
 49
0.47
 74
     0
 49
-0.12
 74
     0
 49
0.24
 74
     0
 49
-0.12
 74
     0
  0
LTYPE
  5
AA
330
5
100
AcDbSymbolTableRecord
100
AcDbLinetypeTableRecord
  2
ACAD_ISO09W100
 70
     0
  3
ISO long-dash double-short-dash ____ __ __ ____
 72
    65
 73
     6
 40
1.31
 49
0.47
 74
     0
 49
-0.12
 74
     0
 49
0.24
 74
     0
 49
-0.12
 74
     0
 49
0.24
 74
     0
 49
-0.12
 74
     0
  0
LTYPE
  5
AB
330
5
100
AcDbSymbolTableRecord
100
AcDbLinetypeTableRecord
  2
ACAD_ISO10W100
 70
     0
  3
ISO dash dot __ . __ . __ . __ . __ . __ . __ .
 72
    65
 73
     4
 40
0.71
 49
0.47
 74
     0
 49
-0.12
 74
     0
 49
0.0
 74
     0
 49
-0.12
 74
     0
  0
LTYPE
  5
AC
330
5
100
AcDbSymbolTableRecord
100
AcDbLinetypeTableRecord
  2
ACAD_ISO11W100
 70
     0
  3
ISO double-dash dot __ __ . __ __ . __ __ . __ 
 72
    65
 73
     6
 40
1.299999999999999
 49
0.47
 74
     0
 49
-0.12
 74
     0
 49
0.47
 74
     0
 49
-0.12
 74
     0
 49
0.0
 74
     0
 49
-0.12
 74
     0
  0
LTYPE
  5
AD
330
5
100
AcDbSymbolTableRecord
100
AcDbLinetypeTableRecord
  2
ACAD_ISO12W100
 70
     0
  3
ISO dash double-dot __ . . __ . . __ . . __ . .
 72
    65
 73
     6
 40
0.8299999999999998
 49
0.47
 74
     0
 49
-0.12
 74
     0
 49
0.0
 74
     0
 49
-0.12
 74
     0
 49
0.0
 74
     0
 49
-0.12
 74
     0
  0
LTYPE
  5
AE
330
5
100
AcDbSymbolTableRecord
100
AcDbLinetypeTableRecord
  2
ACAD_ISO13W100
 70
     0
  3
ISO double-dash double-dot __ __ . . __ __ . . 
 72
    65
 73
     8
 40
1.419999999999999
 49
0.47
 74
     0
 49
-0.12
 74
     0
 49
0.47
 74
     0
 49
-0.12
 74
     0
 49
0.0
 74
     0
 49
-0.12
 74
     0
 49
0.0
 74
     0
 49
-0.12
 74
     0
  0
LTYPE
  5
AF
330
5
100
AcDbSymbolTableRecord
100
AcDbLinetypeTableRecord
  2
ACAD_ISO14W100
 70
     0
  3
ISO dash triple-dot __ . . . __ . . . __ . . . 
 72
    65
 73
     8
 40
0.95
 49
0.47
 74
     0
 49
-0.12
 74
     0
 49
0.0
 74
     0
 49
-0.12
 74
     0
 49
0.0
 74
     0
 49
-0.12
 74
     0
 49
0.0
 74
     0
 49
-0.12
 74
     0
  0
LTYPE
  5
B0
330
5
100
AcDbSymbolTableRecord
100
AcDbLinetypeTableRecord
  2
ACAD_ISO15W100
 70
     0
  3
ISO double-dash triple-dot __ __ . . . __ __ . 
 72
    65
 73
    10
 40
1.539999999999999
 49
0.47
 74
     0
 49
-0.12
 74
     0
 49
0.47
 74
     0
 49
-0.12
 74
     0
 49
0.0
 74
     0
 49
-0.12
 74
     0
 49
0.0
 74
     0
 49
-0.12
 74
     0
 49
0.0
 74
     0
 49
-0.12
 74
     0
  0
LTYPE
  5
B3
330
5
100
AcDbSymbolTableRecord
100
AcDbLinetypeTableRecord
  2
FENCELINE1
 70
     0
  3
Fenceline circle ----0-----0----0-----0----0---
 72
    65
 73
     4
 40
1.45
 49
0.25
 74
     0
 49
-0.1
 74
     4
 75
   133
340
B2
 46
0.1
 50
0.0
 44
-0.1
 45
0.0
 49
-0.1
 74
     0
 49
1.0
 74
     0
  0
LTYPE
  5
B4
330
5
100
AcDbSymbolTableRecord
100
AcDbLinetypeTableRecord
  2
FENCELINE2
 70
     0
  3
Fenceline square ----[]-----[]----[]-----[]----
 72
    65
 73
     4
 40
1.45
 49
0.25
 74
     0
 49
-0.1
 74
     4
 75
   132
340
B2
 46
0.1
 50
0.0
 44
-0.1
 45
0.0
 49
-0.1
 74
     0
 49
1.0
 74
     0
  0
LTYPE
  5
B5
330
5
100
AcDbSymbolTableRecord
100
AcDbLinetypeTableRecord
  2
TRACKS
 70
     0
  3
Tracks -|-|-|-|-|-|-|-|-|-|-|-|-|-|-|-|-|-|-|-|
 72
    65
 73
     2
 40
0.3
 49
0.15
 74
     4
 75
   130
340
B2
 46
0.25
 50
0.0
 44
0.0
 45
0.0
 49
0.15
 74
     0
  0
LTYPE
  5
B6
330
5
100
AcDbSymbolTableRecord
100
AcDbLinetypeTableRecord
  2
BATTING
 70
     0
  3
Batting SSSSSSSSSSSSSSSSSSSSSSSSSSSSSSSSSSSSSSS
 72
    65
 73
     4
 40
0.4001000000000001
 49
0.0001
 74
     0
 49
-0.1
 74
     4
 75
   134
340
B2
 46
0.1
 50
0.0
 44
-0.1
 45
0.0
 49
-0.2
 74
     4
 75
   134
340
B2
 46
0.1
 50
180.0
 44
0.1
 45
0.0
 49
-0.1
 74
     0
  0
LTYPE
  5
B7
330
5
100
AcDbSymbolTableRecord
100
AcDbLinetypeTableRecord
  2
HOT_WATER_SUPPLY
 70
     0
  3
Hot water supply ---- HW ---- HW ---- HW ----
 72
    65
 73
     3
 40
0.9
 49
0.5
 74
     0
 49
-0.2
 74
     2
 75
     0
340
55
 46
0.1
 50
0.0
 44
-0.1
 45
-0.05
  9
HW
 49
-0.2
 74
     0
  0
LTYPE
  5
B8
330
5
100
AcDbSymbolTableRecord
100
AcDbLinetypeTableRecord
  2
GAS_LINE
 70
     0
  3
Gas line ----GAS----GAS----GAS----GAS----GAS---
 72
    65
 73
     3
 40
0.95
 49
0.5
 74
     0
 49
-0.2
 74
     2
 75
     0
340
55
 46
0.1
 50
0.0
 44
-0.1
 45
-0.05
  9
GAS
 49
-0.25
 74
     0
  0
LTYPE
  5
B9
330
5
100
AcDbSymbolTableRecord
100
AcDbLinetypeTableRecord
  2
ZIGZAG
 70
     0
  3
Zig zag /\/\/\/\/\/\/\/\/\/\/\/\/\/\/\/\/\/\/\/
 72
    65
 73
     4
 40
0.8001000000000001
 49
0.0001
 74
     0
 49
-0.2
 74
     4
 75
   131
340
B2
 46
0.2
 50
0.0
 44
-0.2
 45
0.0
 49
-0.4
 74
     4
 75
   131
340
B2
 46
0.2
 50
180.0
 44
0.2
 45
0.0
 49
-0.2
 74
     0
  0
ENDTAB
  0
TABLE
  2
LAYER
  5
2
330
0
100
AcDbSymbolTable
 70
    27
  0
LAYER
  5
54
330
2
100
AcDbSymbolTableRecord
100
AcDbLayerTableRecord
  2
0
 70
     0
 62
     7
  6
Continuous
370
     0
390
F
  0
LAYER
  5
C0
330
2
100
AcDbSymbolTableRecord
100
AcDbLayerTableRecord
  2
Center Mark (ANSI)
 70
     0
 62
     7
  6
Continuous
370
     5
390
F
  0
LAYER
  5
C1
330
2
100
AcDbSymbolTableRecord
100
AcDbLayerTableRecord
  2
Centerline (ANSI)
 70
     0
 62
     7
  6
Continuous
370
     5
390
F
  0
LAYER
  5
C3
330
2
100
AcDbSymbolTableRecord
100
AcDbLayerTableRecord
  2
Dimension (ANSI)
 70
     0
 62
     7
  6
Continuous
370
     5
390
F
  0
LAYER
  5
CC
330
2
100
AcDbSymbolTableRecord
100
AcDbLayerTableRecord
  2
Symbol (ANSI)
 70
     0
 62
     7
  6
Continuous
370
     5
390
F
  0
LAYER
  5
CF
330
2
100
AcDbSymbolTableRecord
100
AcDbLayerTableRecord
  2
Visible (ANSI)
 70
     0
 62
     7
  6
Continuous
370
     5
390
F
  0
LAYER
  5
D0
330
2
100
AcDbSymbolTableRecord
100
AcDbLayerTableRecord
  2
Visible Narrow (ANSI)
 70
     0
 62
     7
  6
Continuous
370
     5
390
F
  0
LAYER
  5
2AE
330
2
100
AcDbSymbolTableRecord
100
AcDbLayerTableRecord
  2
Defpoints
 70
     0
 62
     7
  6
Continuous
290
     0
370
    -3
390
F
  0
ENDTAB
  0
TABLE
  2
STYLE
  5
3
330
0
100
AcDbSymbolTable
 70
    10
  0
STYLE
  5
55
330
3
100
AcDbSymbolTableRecord
100
AcDbTextStyleTableRecord
  2
Standard
 70
     0
 40
0.0
 41
1.0
 50
0.0
 71
     0
 42
0.2
  3
txt
  4

  0
STYLE
  5
5A
330
3
100
AcDbSymbolTableRecord
100
AcDbTextStyleTableRecord
  2
Annotative
 70
     0
 40
0.0
 41
1.0
 50
0.0
 71
     0
 42
0.2
  3
txt
  4

1001
AcadAnnotative
1000
AnnotativeData
1002
{
1070
     1
1070
     1
1002
}
  0
STYLE
  5
B2
330
3
100
AcDbSymbolTableRecord
100
AcDbTextStyleTableRecord
  2

 70
     1
 40
0.0
 41
1.0
 50
0.0
 71
     0
 42
0.2
  3
ltypeshp.shx
  4

  0
STYLE
  5
D4
330
3
100
AcDbSymbolTableRecord
100
AcDbTextStyleTableRecord
  2
ITALICC_120
 70
     0
 40
0.0
 41
1.0
 50
0.0
 71
     0
 42
0.2
  3
italicc.shx
  4

  0
STYLE
  5
D5
330
3
100
AcDbSymbolTableRecord
100
AcDbTextStyleTableRecord
  2
Label Text (ANSI)
 70
     0
 40
0.0
 41
1.0
 50
0.0
 71
     0
 42
0.2
  3
tahoma.ttf
  4

1001
ACAD
1000
Tahoma
1071
      256
  0
STYLE
  5
D6
330
3
100
AcDbSymbolTableRecord
100
AcDbTextStyleTableRecord
  2
Note Text (ANSI)
 70
     0
 40
0.0
 41
1.0
 50
0.0
 71
     0
 42
0.2
  3
RomanS.shx
  4

  0
STYLE
  5
D7
330
3
100
AcDbSymbolTableRecord
100
AcDbTextStyleTableRecord
  2
ROMANS
 70
     0
 40
0.0
 41
1.0
 50
0.0
 71
     0
 42
0.2
  3
romans.shx
  4

  0
STYLE
  5
D8
330
3
100
AcDbSymbolTableRecord
100
AcDbTextStyleTableRecord
  2
SANSSERIF_114
 70
     0
 40
0.0
 41
1.0
 50
0.0
 71
     0
 42
0.2
  3
tahoma.ttf
  4

1001
ACAD
1000
Tahoma
1071
      256
  0
STYLE
  5
D9
330
3
100
AcDbSymbolTableRecord
100
AcDbTextStyleTableRecord
  2
SANSSERIF_117
 70
     0
 40
0.0
 41
1.0
 50
0.0
 71
     0
 42
0.2
  3
tahoma.ttf
  4

1001
ACAD
1000
Tahoma
1071
      256
  0
STYLE
  5
15E
330
3
100
AcDbSymbolTableRecord
100
AcDbTextStyleTableRecord
  2
Text Style168
 70
     0
 40
0.0
 41
1.0
 50
0.0
 71
     0
 42
0.2
  3
tahoma.ttf
  4

1001
ACAD
1000
Tahoma
1071
      256
  0
ENDTAB
  0
TABLE
  2
VIEW
  5
6
330
0
100
AcDbSymbolTable
 70
     0
  0
ENDTAB
  0
TABLE
  2
UCS
  5
7
330
0
100
AcDbSymbolTable
 70
     0
  0
ENDTAB
  0
TABLE
  2
APPID
  5
9
330
0
100
AcDbSymbolTable
 70
     5
  0
APPID
  5
56
330
9
100
AcDbSymbolTableRecord
100
AcDbRegAppTableRecord
  2
ACAD
 70
     0
  0
APPID
  5
5E
330
9
100
AcDbSymbolTableRecord
100
AcDbRegAppTableRecord
  2
AcadAnnotative
 70
     0
  0
APPID
  5
618
330
9
100
AcDbSymbolTableRecord
100
AcDbRegAppTableRecord
  2
ACAD_DSTYLE_DIMANGULAR_EXTENSION
 70
     0
  0
APPID
  5
F03
330
9
100
AcDbSymbolTableRecord
100
AcDbRegAppTableRecord
  2
ACAD_DSTYLE_DIMRADIAL_EXTENSION
 70
     0
  0
APPID
  5
15BA
330
9
100
AcDbSymbolTableRecord
100
AcDbRegAppTableRecord
  2
ACAD_MLEADERVER
 70
     0
  0
ENDTAB
  0
TABLE
  2
DIMSTYLE
  5
A
330
0
100
AcDbSymbolTable
 70
    15
100
AcDbDimStyleTable
 71
     2
340
E2
340
58
  0
DIMSTYLE
105
58
330
A
100
AcDbSymbolTableRecord
100
AcDbDimStyleTableRecord
  2
Standard
 70
     0
340
55
  0
DIMSTYLE
105
59
330
A
100
AcDbSymbolTableRecord
100
AcDbDimStyleTableRecord
  2
Annotative
 70
     0
340
55
1001
AcadAnnotative
1000
AnnotativeData
1002
{
1070
     1
1070
     1
1002
}
  0
DIMSTYLE
105
DA
330
A
100
AcDbSymbolTableRecord
100
AcDbDimStyleTableRecord
  2
Architectural (ANSI)
 70
     0
 40
7.0
 41
0.0984251946210861
 43
0.2362204724409449
 44
0.125
 45
0.00000001
 46
0.3937007874015748
 78
     3
 79
     3
140
0.1000000014901161
146
1.200000047683715
147
0.031496062992126
171
     1
176
   256
177
   256
178
   256
272
     2
274
     1
276
     2
277
     4
284
    12
285
     4
286
    12
340
D6
371
    -1
372
    -1
  0
DIMSTYLE
105
DB
330
A
100
AcDbSymbolTableRecord
100
AcDbDimStyleTableRecord
  2
Architectural (ANSI)$7
 70
     0
 40
7.0
 41
0.0984251946210861
 43
0.2362204724409449
 44
0.125
 45
0.00000001
 46
0.3937007874015748
 78
     3
 79
     3
140
0.1000000014901161
146
1.200000047683715
147
0.031496062992126
171
     1
176
   256
177
   256
178
   256
272
     2
274
     1
276
     2
277
     4
284
    12
285
     4
286
    12
340
D6
371
    -1
372
    -1
  0
DIMSTYLE
105
DC
330
A
100
AcDbSymbolTableRecord
100
AcDbDimStyleTableRecord
  2
Default - Fraction (ANSI)
 70
     0
 40
7.0
 41
0.0984251946210861
 43
0.2362204724409449
 44
0.125
 45
0.00000001
 46
0.3937007874015748
 79
     3
140
0.1000000014901161
146
1.200000047683715
147
0.031496062992126
171
     1
176
   256
177
   256
178
   256
272
     2
274
     1
276
     2
277
     5
284
    12
285
     4
286
    12
340
D6
371
    -1
372
    -1
  0
DIMSTYLE
105
DD
330
A
100
AcDbSymbolTableRecord
100
AcDbDimStyleTableRecord
  2
Default - Fraction (ANSI)$7
 70
     0
 40
7.0
 41
0.0984251946210861
 43
0.2362204724409449
 44
0.125
 45
0.00000001
 46
0.3937007874015748
 79
     3
140
0.1000000014901161
146
1.200000047683715
147
0.031496062992126
171
     1
176
   256
177
   256
178
   256
272
     2
274
     1
276
     2
277
     5
284
    12
285
     4
286
    12
340
D6
371
    -1
372
    -1
  0
DIMSTYLE
105
DE
330
A
100
AcDbSymbolTableRecord
100
AcDbDimStyleTableRecord
  2
Default - mm (ANSI)
 70
     0
 40
7.0
 41
0.0984251946210861
 42
0.063
 43
0.2362204724409449
 44
0.125
 45
0.00000001
 46
0.3937007874015748
 73
     0
 78
     4
 79
     1
140
0.1000000014901161
143
1.0
144
25.4
146
1.200000047683715
147
0.031496062992126
171
     1
176
   256
177
   256
178
   256
179
     1
271
     2
272
     2
274
     1
284
     4
285
     4
340
D6
371
    -1
372
    -1
  0
DIMSTYLE
105
DF
330
A
100
AcDbSymbolTableRecord
100
AcDbDimStyleTableRecord
  2
Default - mm (ANSI)$7
 70
     0
 40
7.0
 41
0.0984251946210861
 42
0.063
 43
0.2362204724409449
 44
0.125
 45
0.00000001
 46
0.3937007874015748
 73
     0
 78
     4
 79
     1
140
0.1000000014901161
143
1.0
144
25.4
146
1.200000047683715
147
0.031496062992126
171
     1
176
   256
177
   256
178
   256
179
     1
271
     2
272
     2
274
     1
284
     4
285
     4
340
D6
371
    -1
372
    -1
  0
DIMSTYLE
105
E0
330
A
100
AcDbSymbolTableRecord
100
AcDbDimStyleTableRecord
  2
Default - mm [in] (ANSI)
 70
     0
  4
 in
 40
7.0
 41
0.0984251946210861
 42
0.063
 43
0.25
 44
0.125
 45
0.00000001
 46
0.3937007874015748
 73
     0
 78
     4
 79
     1
140
0.1000000014901161
143
0.03937
144
25.4
146
1.200000047683715
147
0.031496062992126
170
     1
171
     3
176
   256
177
   256
178
   256
179
     1
271
     2
272
     2
274
     3
284
     4
285
     4
286
     4
340
D6
371
    -1
372
    -1
  0
DIMSTYLE
105
E1
330
A
100
AcDbSymbolTableRecord
100
AcDbDimStyleTableRecord
  2
Default - mm [in] (ANSI)$7
 70
     0
  4
 in
 40
7.0
 41
0.0984251946210861
 42
0.063
 43
0.25
 44
0.125
 45
0.00000001
 46
0.3937007874015748
 73
     0
 78
     4
 79
     1
140
0.1000000014901161
143
0.03937
144
25.4
146
1.200000047683715
147
0.031496062992126
170
     1
171
     3
176
   256
177
   256
178
   256
179
     1
271
     2
272
     2
274
     3
284
     4
285
     4
286
     4
340
D6
371
    -1
372
    -1
  0
DIMSTYLE
105
E2
102
{ACAD_REACTORS
330
2AC
330
3AD
330
4AB
330
595
330
6BE
330
7AD
330
8B3
330
9A6
330
A96
330
B96
330
C80
330
D6C
330
E6A
330
F29
330
1013
330
10FD
330
11E7
330
12E4
330
13CE
330
1487
102
}
330
A
100
AcDbSymbolTableRecord
100
AcDbDimStyleTableRecord
  2
Default (ANSI)
 70
     0
 40
7.0
 41
0.0984251946210861
 43
0.2362204724409449
 44
0.125
 45
0.00000001
 46
0.3937007874015748
140
0.1000000014901161
147
0.031496062992126
176
   256
177
   256
178
   256
271
     2
272
     2
340
D7
371
    -1
372
    -1
  0
DIMSTYLE
105
E3
330
A
100
AcDbSymbolTableRecord
100
AcDbDimStyleTableRecord
  2
Default (ANSI)$7
 70
     0
 40
7.0
 41
0.0984251946210861
 43
0.2362204724409449
 44
0.125
 45
0.00000001
 46
0.3937007874015748
140
0.1000000014901161
147
0.031496062992126
176
   256
177
   256
178
   256
271
     2
272
     2
340
D7
371
    -1
372
    -1
  0
DIMSTYLE
105
E4
330
A
100
AcDbSymbolTableRecord
100
AcDbDimStyleTableRecord
  2
Alternate (ANSI)
 70
     0
 40
7.0
 41
0.0979999974370003
340
55
342
E5
  0
DIMSTYLE
105
F7
330
A
100
AcDbSymbolTableRecord
100
AcDbDimStyleTableRecord
  2
Datum (ANSI)
 70
     0
 40
7.0
 41
0.0979999974370003
340
55
342
E5
  0
DIMSTYLE
105
106
330
A
100
AcDbSymbolTableRecord
100
AcDbDimStyleTableRecord
  2
Large (ANSI)
 70
     0
 40
7.0
 41
0.1959999948740005
340
55
342
E5
  0
ENDTAB
  0
TABLE
  2
BLOCK_RECORD
  5
1
330
0
100
AcDbSymbolTable
 70
    24
  0
BLOCK_RECORD
  5
6C
330
1
100
AcDbSymbolTableRecord
100
AcDbBlockTableRecord
  2
*Model_Space
340
6F
  0
BLOCK_RECORD
  5
68
330
1
100
AcDbSymbolTableRecord
100
AcDbBlockTableRecord
  2
*Paper_Space
340
6B
  0
BLOCK_RECORD
  5
70
330
1
100
AcDbSymbolTableRecord
100
AcDbBlockTableRecord
  2
*Paper_Space0
340
73
  0
BLOCK_RECORD
  5
E5
330
1
100
AcDbSymbolTableRecord
100
AcDbBlockTableRecord
  2
_Closed
340
0
  0
BLOCK_RECORD
  5
EC
330
1
100
AcDbSymbolTableRecord
100
AcDbBlockTableRecord
  2
DatumFilled45
340
0
  0
BLOCK_RECORD
  5
F8
330
1
100
AcDbSymbolTableRecord
100
AcDbBlockTableRecord
  2
Filled-1
340
0
  0
BLOCK_RECORD
  5
2AF
330
1
100
AcDbSymbolTableRecord
100
AcDbBlockTableRecord
  2
*D4
340
0
  0
BLOCK_RECORD
  5
3AE
330
1
100
AcDbSymbolTableRecord
100
AcDbBlockTableRecord
  2
*D5
340
0
  0
BLOCK_RECORD
  5
4AC
330
1
100
AcDbSymbolTableRecord
100
AcDbBlockTableRecord
  2
*D6
340
0
  0
BLOCK_RECORD
  5
596
330
1
100
AcDbSymbolTableRecord
100
AcDbBlockTableRecord
  2
*D7
340
0
  0
BLOCK_RECORD
  5
6BF
330
1
100
AcDbSymbolTableRecord
100
AcDbBlockTableRecord
  2
*D8
340
0
  0
BLOCK_RECORD
  5
7AE
330
1
100
AcDbSymbolTableRecord
100
AcDbBlockTableRecord
  2
*D9
340
0
  0
BLOCK_RECORD
  5
8B4
330
1
100
AcDbSymbolTableRecord
100
AcDbBlockTableRecord
  2
*D10
340
0
  0
BLOCK_RECORD
  5
9A7
330
1
100
AcDbSymbolTableRecord
100
AcDbBlockTableRecord
  2
*D11
340
0
  0
BLOCK_RECORD
  5
A97
330
1
100
AcDbSymbolTableRecord
100
AcDbBlockTableRecord
  2
*D12
340
0
  0
BLOCK_RECORD
  5
B97
330
1
100
AcDbSymbolTableRecord
100
AcDbBlockTableRecord
  2
*D13
340
0
  0
BLOCK_RECORD
  5
C81
330
1
100
AcDbSymbolTableRecord
100
AcDbBlockTableRecord
  2
*D14
340
0
  0
BLOCK_RECORD
  5
D6D
330
1
100
AcDbSymbolTableRecord
100
AcDbBlockTableRecord
  2
*D15
340
0
  0
BLOCK_RECORD
  5
E6B
330
1
100
AcDbSymbolTableRecord
100
AcDbBlockTableRecord
  2
*D16
340
0
  0
BLOCK_RECORD
  5
F2A
330
1
100
AcDbSymbolTableRecord
100
AcDbBlockTableRecord
  2
*D17
340
0
  0
BLOCK_RECORD
  5
1014
330
1
100
AcDbSymbolTableRecord
100
AcDbBlockTableRecord
  2
*D18
340
0
  0
BLOCK_RECORD
  5
10FE
330
1
100
AcDbSymbolTableRecord
100
AcDbBlockTableRecord
  2
*D19
340
0
  0
BLOCK_RECORD
  5
11E8
330
1
100
AcDbSymbolTableRecord
100
AcDbBlockTableRecord
  2
*D20
340
0
  0
BLOCK_RECORD
  5
12E5
330
1
100
AcDbSymbolTableRecord
100
AcDbBlockTableRecord
  2
*D21
340
0
  0
BLOCK_RECORD
  5
13CF
330
1
100
AcDbSymbolTableRecord
100
AcDbBlockTableRecord
  2
*D22
340
0
  0
BLOCK_RECORD
  5
1488
330
1
100
AcDbSymbolTableRecord
100
AcDbBlockTableRecord
  2
*D23
340
0
  0
ENDTAB
  0
ENDSEC
  0
SECTION
  2
BLOCKS
  0
BLOCK
  5
6D
330
6C
100
AcDbEntity
  8
0
100
AcDbBlockBegin
  2
*Model_Space
 70
     0
 10
0.0
 20
0.0
 30
0.0
  3
*Model_Space
  1

  0
ENDBLK
  5
6E
330
6C
100
AcDbEntity
  8
0
100
AcDbBlockEnd
  0
BLOCK
  5
69
330
68
100
AcDbEntity
 67
     1
  8
0
100
AcDbBlockBegin
  2
*Paper_Space
 70
     0
 10
0.0
 20
0.0
 30
0.0
  3
*Paper_Space
  1

  0
ENDBLK
  5
6A
330
68
100
AcDbEntity
 67
     1
  8
0
100
AcDbBlockEnd
  0
BLOCK
  5
71
330
70
100
AcDbEntity
 67
     1
  8
0
100
AcDbBlockBegin
  2
*Paper_Space0
 70
     0
 10
0.0
 20
0.0
 30
0.0
  3
*Paper_Space0
  1

  0
ENDBLK
  5
72
330
70
100
AcDbEntity
 67
     1
  8
0
100
AcDbBlockEnd
  0
BLOCK
  5
EA
330
E5
100
AcDbEntity
  8
0
100
AcDbBlockBegin
  2
_Closed
 70
     0
 10
0.0
 20
0.0
 30
0.0
  3
_Closed
  1

  0
LINE
  5
E6
330
E5
100
AcDbEntity
  8
0
  6
ByBlock
 62
     0
370
    -2
100
AcDbLine
 10
-1.0
 20
0.1666666666666666
 30
0.0
 11
0.0
 21
0.0
 31
0.0
  0
LINE
  5
E7
330
E5
100
AcDbEntity
  8
0
  6
ByBlock
 62
     0
370
    -2
100
AcDbLine
 10
0.0
 20
0.0
 30
0.0
 11
-1.0
 21
-0.1666666666666666
 31
0.0
  0
LINE
  5
E8
330
E5
100
AcDbEntity
  8
0
  6
ByBlock
 62
     0
370
    -2
100
AcDbLine
 10
-1.0
 20
0.1666666666666666
 30
0.0
 11
-1.0
 21
-0.1666666666666666
 31
0.0
  0
LINE
  5
E9
330
E5
100
AcDbEntity
  8
0
  6
ByBlock
 62
     0
370
    -2
100
AcDbLine
 10
0.0
 20
0.0
 30
0.0
 11
-1.0
 21
0.0
 31
0.0
  0
ENDBLK
  5
EB
330
E5
100
AcDbEntity
  8
0
100
AcDbBlockEnd
  0
BLOCK
  5
ED
330
EC
100
AcDbEntity
  8
0
100
AcDbBlockBegin
  2
DatumFilled45
 70
     0
 10
0.0
 20
0.0
 30
0.0
  3
DatumFilled45
  1

  0
POLYLINE
  5
EF
330
EC
100
AcDbEntity
  8
0
 62
     0
100
AcDb2dPolyline
 66
     1
 10
0.0
 20
0.0
 30
0.0
 70
   128
  0
VERTEX
  5
F0
330
EF
100
AcDbEntity
  8
0
 62
     0
100
AcDbVertex
100
AcDb2dVertex
 10
0.0
 20
0.9999999999999998
 30
0.0
  0
VERTEX
  5
F1
330
EF
100
AcDbEntity
  8
0
 62
     0
100
AcDbVertex
100
AcDb2dVertex
 10
0.0
 20
-0.9999999999999998
 30
0.0
  0
VERTEX
  5
F3
330
EF
100
AcDbEntity
  8
0
 62
     0
100
AcDbVertex
100
AcDb2dVertex
 10
-0.9999999999999998
 20
0.0
 30
0.0
  0
VERTEX
  5
F4
330
EF
100
AcDbEntity
  8
0
 62
     0
100
AcDbVertex
100
AcDb2dVertex
 10
0.0
 20
0.9999999999999998
 30
0.0
  0
SEQEND
  5
F2
330
EF
100
AcDbEntity
  8
0
 62
     0
  0
SOLID
  5
F6
330
EC
100
AcDbEntity
  8
0
 62
     0
100
AcDbTrace
 10
0.0
 20
0.9999999999999998
 30
0.0
 11
0.0
 21
-0.9999999999999998
 31
0.0
 12
-0.9999999999999998
 22
0.0
 32
0.0
 13
0.0
 23
0.9999999999999998
 33
0.0
  0
ENDBLK
  5
EE
330
EC
100
AcDbEntity
  8
0
100
AcDbBlockEnd
  0
BLOCK
  5
F9
330
F8
100
AcDbEntity
  8
0
100
AcDbBlockBegin
  2
Filled-1
 70
     0
 10
0.0
 20
0.0
 30
0.0
  3
Filled-1
  1

  0
LINE
  5
FB
330
F8
100
AcDbEntity
  8
0
 62
     0
100
AcDbLine
 10
-0.9999999999999998
 20
0.0
 30
0.0
 11
0.0
 21
0.0
 31
0.0
  0
POLYLINE
  5
FC
330
F8
100
AcDbEntity
  8
0
 62
     0
100
AcDb2dPolyline
 66
     1
 10
0.0
 20
0.0
 30
0.0
 70
   128
  0
VERTEX
  5
FD
330
FC
100
AcDbEntity
  8
0
 62
     0
100
AcDbVertex
100
AcDb2dVertex
 10
-0.9999999999999998
 20
-0.0994897959183674
 30
0.0
  0
VERTEX
  5
FE
330
FC
100
AcDbEntity
  8
0
 62
     0
100
AcDbVertex
100
AcDb2dVertex
 10
0.0
 20
0.0
 30
0.0
  0
VERTEX
  5
100
330
FC
100
AcDbEntity
  8
0
 62
     0
100
AcDbVertex
100
AcDb2dVertex
 10
-0.9999999999999998
 20
0.0994897959183674
 30
0.0
  0
VERTEX
  5
101
330
FC
100
AcDbEntity
  8
0
 62
     0
100
AcDbVertex
100
AcDb2dVertex
 10
-0.9999999999999998
 20
-0.0994897959183674
 30
0.0
  0
SEQEND
  5
FF
330
FC
100
AcDbEntity
  8
0
 62
     0
  0
SOLID
  5
102
330
F8
100
AcDbEntity
  8
0
 62
     0
100
AcDbTrace
 10
-0.9999999999999998
 20
-0.0994897959183674
 30
0.0
 11
0.0
 21
0.0
 31
0.0
 12
-0.9999999999999998
 22
0.0994897959183674
 32
0.0
 13
-0.9999999999999998
 23
-0.0994897959183674
 33
0.0
  0
LINE
  5
103
330
F8
100
AcDbEntity
  8
0
 62
     0
100
AcDbLine
 10
-0.9999999999999998
 20
-0.0994897959183674
 30
0.0
 11
0.0
 21
0.0
 31
0.0
  0
LINE
  5
104
330
F8
100
AcDbEntity
  8
0
 62
     0
100
AcDbLine
 10
0.0
 20
0.0
 30
0.0
 11
-0.9999999999999998
 21
0.0994897959183674
 31
0.0
  0
LINE
  5
105
330
F8
100
AcDbEntity
  8
0
 62
     0
100
AcDbLine
 10
-0.9999999999999998
 20
0.0994897959183674
 30
0.0
 11
-0.9999999999999998
 21
-0.0994897959183674
 31
0.0
  0
ENDBLK
  5
FA
330
F8
100
AcDbEntity
  8
0
100
AcDbBlockEnd
  0
BLOCK
  5
2B0
330
2AF
100
AcDbEntity
  8
0
100
AcDbBlockBegin
  2
*D4
 70
     1
 10
0.0
 20
0.0
 30
0.0
  3
*D4
  1

  0
LINE
  5
3A3
330
2AF
100
AcDbEntity
  8
Dimension (ANSI)
440
 16777216
100
AcDbLine
 10
46.7363061028061
 20
51.71136713725623
 30
0.0
 11
40.80170804896339
 21
51.71136713725623
 31
0.0
  0
LINE
  5
3A4
330
2AF
100
AcDbEntity
  8
Dimension (ANSI)
440
 16777216
100
AcDbLine
 10
46.89255610280605
 20
33.71149327845446
 30
0.0
 11
40.80170804896338
 21
33.71149327845446
 31
0.0
  0
LINE
  5
3A5
330
2AF
100
AcDbEntity
  8
Dimension (ANSI)
440
 16777216
100
AcDbLine
 10
41.67670804896339
 20
51.02239077490863
 30
0.0
 11
41.67670804896338
 21
43.8652359960413
 31
0.0
  0
LINE
  5
3A6
330
2AF
100
AcDbEntity
  8
Dimension (ANSI)
440
 16777216
100
AcDbLine
 10
41.67670804896338
 20
34.40046964080206
 30
0.0
 11
41.67670804896338
 21
41.55762441966937
 31
0.0
  0
SOLID
  5
3A7
330
2AF
100
AcDbEntity
  8
Dimension (ANSI)
440
 16777216
100
AcDbTrace
 10
41.56187865523879
 20
51.02239077490863
 30
0.0
 11
41.79153744268798
 21
51.02239077490863
 31
0.0
 12
41.67670804896339
 22
51.71136713725623
 32
0.0
 13
41.67670804896339
 23
51.71136713725623
 33
0.0
  0
SOLID
  5
3A8
330
2AF
100
AcDbEntity
  8
Dimension (ANSI)
440
 16777216
100
AcDbTrace
 10
41.56187865523878
 20
34.40046964080206
 30
0.0
 11
41.79153744268798
 21
34.40046964080206
 31
0.0
 12
41.67670804896338
 22
33.71149327845446
 32
0.0
 13
41.67670804896338
 23
33.71149327845446
 33
0.0
  0
MTEXT
  5
3A9
330
2AF
100
AcDbEntity
  8
Dimension (ANSI)
440
 16777216
100
AcDbMText
 10
41.67670804896338
 20
42.71143020785534
 30
0.0
 40
0.7000000104308129
 41
0.0
 71
     5
 72
     1
  1
\A1;18.00{\PHEIGHT}
  7
ROMANS
 73
     1
 44
1.0
  0
POINT
  5
3AA
330
2AF
100
AcDbEntity
  8
Defpoints
 62
     0
440
 16777216
100
AcDbPoint
 10
47.17380610280609
 20
51.71136713725623
 30
0.0
  0
POINT
  5
3AB
330
2AF
100
AcDbEntity
  8
Defpoints
 62
     0
440
 16777216
100
AcDbPoint
 10
47.33005610280605
 20
33.71149327845446
 30
0.0
  0
POINT
  5
3AC
330
2AF
100
AcDbEntity
  8
Defpoints
 62
     0
440
 16777216
100
AcDbPoint
 10
41.67670804896338
 20
33.71149327845446
 30
0.0
  0
ENDBLK
  5
2B1
330
2AF
100
AcDbEntity
  8
0
100
AcDbBlockEnd
  0
BLOCK
  5
3AF
330
3AE
100
AcDbEntity
  8
0
100
AcDbBlockBegin
  2
*D5
 70
     1
 10
0.0
 20
0.0
 30
0.0
  3
*D5
  1

  0
LINE
  5
4A1
330
3AE
100
AcDbEntity
  8
Dimension (ANSI)
440
 16777216
100
AcDbLine
 10
46.95505610280608
 20
51.93011713725624
 30
0.0
 11
46.95505610280608
 21
55.35768560927739
 31
0.0
  0
LINE
  5
4A2
330
3AE
100
AcDbEntity
  8
Dimension (ANSI)
440
 16777216
100
AcDbLine
 10
57.08005610280613
 20
51.93011713725624
 30
0.0
 11
57.08005610280613
 21
55.35768560927739
 31
0.0
  0
LINE
  5
4A3
330
3AE
100
AcDbEntity
  8
Dimension (ANSI)
440
 16777216
100
AcDbLine
 10
47.64403246515369
 20
54.4826856092774
 30
0.0
 11
50.38041697408458
 21
54.4826856092774
 31
0.0
  0
LINE
  5
4A4
330
3AE
100
AcDbEntity
  8
Dimension (ANSI)
440
 16777216
100
AcDbLine
 10
56.39107974045852
 20
54.4826856092774
 30
0.0
 11
53.65469523152764
 21
54.4826856092774
 31
0.0
  0
SOLID
  5
4A5
330
3AE
100
AcDbEntity
  8
Dimension (ANSI)
440
 16777216
100
AcDbTrace
 10
47.64403246515369
 20
54.597515003002
 30
0.0
 11
47.64403246515369
 21
54.3678562155528
 31
0.0
 12
46.95505610280608
 22
54.4826856092774
 32
0.0
 13
46.95505610280608
 23
54.4826856092774
 33
0.0
  0
SOLID
  5
4A6
330
3AE
100
AcDbEntity
  8
Dimension (ANSI)
440
 16777216
100
AcDbTrace
 10
56.39107974045852
 20
54.597515003002
 30
0.0
 11
56.39107974045852
 21
54.3678562155528
 31
0.0
 12
57.08005610280613
 22
54.4826856092774
 32
0.0
 13
57.08005610280613
 23
54.4826856092774
 33
0.0
  0
MTEXT
  5
4A7
330
3AE
100
AcDbEntity
  8
Dimension (ANSI)
440
 16777216
100
AcDbMText
 10
52.01755610280611
 20
54.4826856092774
 30
0.0
 40
0.7000000104308129
 41
0.0
 71
     5
 72
     1
  1
\A1;10.13{\PWIDTH}
  7
ROMANS
 73
     1
 44
1.0
  0
POINT
  5
4A8
330
3AE
100
AcDbEntity
  8
Defpoints
 62
     0
440
 16777216
100
AcDbPoint
 10
46.95505610280608
 20
51.49261713725625
 30
0.0
  0
POINT
  5
4A9
330
3AE
100
AcDbEntity
  8
Defpoints
 62
     0
440
 16777216
100
AcDbPoint
 10
57.08005610280613
 20
51.49261713725625
 30
0.0
  0
POINT
  5
4AA
330
3AE
100
AcDbEntity
  8
Defpoints
 62
     0
440
 16777216
100
AcDbPoint
 10
57.08005610280613
 20
54.4826856092774
 30
0.0
  0
ENDBLK
  5
3B0
330
3AE
100
AcDbEntity
  8
0
100
AcDbBlockEnd
  0
BLOCK
  5
4AD
330
4AC
100
AcDbEntity
  8
0
100
AcDbBlockBegin
  2
*D6
 70
     1
 10
0.0
 20
0.0
 30
0.0
  3
*D6
  1

  0
LINE
  5
58B
330
4AC
100
AcDbEntity
  8
Dimension (ANSI)
440
 16777216
100
AcDbLine
 10
20.83215997303613
 20
51.93011713725623
 30
0.0
 11
20.83215997303613
 21
56.27574969184679
 31
0.0
  0
LINE
  5
58C
330
4AC
100
AcDbEntity
  8
Dimension (ANSI)
440
 16777216
100
AcDbLine
 10
28.83215997303614
 20
52.14886713725622
 30
0.0
 11
28.83215997303614
 21
56.27574969184679
 31
0.0
  0
LINE
  5
58D
330
4AC
100
AcDbEntity
  8
Dimension (ANSI)
440
 16777216
100
AcDbLine
 10
21.52113633538374
 20
55.40074969184679
 30
0.0
 11
23.54502084953002
 21
55.40074969184679
 31
0.0
  0
LINE
  5
58E
330
4AC
100
AcDbEntity
  8
Dimension (ANSI)
440
 16777216
100
AcDbLine
 10
28.14318361068854
 20
55.40074969184679
 30
0.0
 11
26.11929909654226
 21
55.40074969184679
 31
0.0
  0
SOLID
  5
58F
330
4AC
100
AcDbEntity
  8
Dimension (ANSI)
440
 16777216
100
AcDbTrace
 10
21.52113633538374
 20
55.51557908557139
 30
0.0
 11
21.52113633538374
 21
55.28592029812219
 31
0.0
 12
20.83215997303613
 22
55.40074969184679
 32
0.0
 13
20.83215997303613
 23
55.40074969184679
 33
0.0
  0
SOLID
  5
590
330
4AC
100
AcDbEntity
  8
Dimension (ANSI)
440
 16777216
100
AcDbTrace
 10
28.14318361068854
 20
55.51557908557139
 30
0.0
 11
28.14318361068854
 21
55.28592029812219
 31
0.0
 12
28.83215997303614
 22
55.40074969184679
 32
0.0
 13
28.83215997303614
 23
55.40074969184679
 33
0.0
  0
MTEXT
  5
591
330
4AC
100
AcDbEntity
  8
Dimension (ANSI)
440
 16777216
100
AcDbMText
 10
23.7654932904749
 20
55.7507496970622
 30
0.0
 40
0.7000000104308129
 41
0.0
 71
     1
 72
     1
  1
\A1;8.00
  7
ROMANS
 73
     1
 44
1.0
  0
POINT
  5
592
330
4AC
100
AcDbEntity
  8
Defpoints
 62
     0
440
 16777216
100
AcDbPoint
 10
20.83215997303613
 20
51.49261713725623
 30
0.0
  0
POINT
  5
593
330
4AC
100
AcDbEntity
  8
Defpoints
 62
     0
440
 16777216
100
AcDbPoint
 10
28.83215997303614
 20
51.71136713725622
 30
0.0
  0
POINT
  5
594
330
4AC
100
AcDbEntity
  8
Defpoints
 62
     0
440
 16777216
100
AcDbPoint
 10
28.83215997303614
 20
55.40074969184679
 30
0.0
  0
ENDBLK
  5
4AE
330
4AC
100
AcDbEntity
  8
0
100
AcDbBlockEnd
  0
BLOCK
  5
597
330
596
100
AcDbEntity
  8
0
100
AcDbBlockBegin
  2
*D7
 70
     1
 10
0.0
 20
0.0
 30
0.0
  3
*D7
  1

  0
LINE
  5
6B3
330
596
100
AcDbEntity
  8
Dimension (ANSI)
440
 16777216
100
AcDbLine
 10
29.73176454245611
 20
51.71136713725623
 30
0.0
 11
33.17458527088068
 21
51.71136713725621
 31
0.0
  0
LINE
  5
6B4
330
596
100
AcDbEntity
  8
Dimension (ANSI)
440
 16777216
100
AcDbLine
 10
28.95456610573616
 20
52.58088416079285
 30
0.0
 11
29.33938124783087
 21
56.00213128347845
 31
0.0
  0
ARC
  5
6B5
330
596
100
AcDbEntity
  8
Dimension (ANSI)
440
 16777216
100
AcDbCircle
 10
28.85676454245612
 20
51.71136713725623
 30
0.0
 40
3.442820728424563
100
AcDbArc
 50
11.48523568800359
 51
30.0475925007202
  0
ARC
  5
6B6
330
596
100
AcDbEntity
  8
Dimension (ANSI)
440
 16777216
100
AcDbCircle
 10
28.85676454245612
 20
51.71136713725623
 30
0.0
 40
3.442820728424563
100
AcDbArc
 50
56.31687228711914
 51
72.09722054816412
  0
SOLID
  5
6B7
330
596
100
AcDbEntity
  8
Dimension (ANSI)
440
 16777216
100
AcDbTrace
 10
32.34489950135722
 20
52.40837562935169
 30
0.0
 11
32.11639327524645
 21
52.38539600182541
 31
0.0
 12
32.29958527088068
 22
51.71136713725621
 32
0.0
 13
32.29958527088068
 23
51.71136713725621
 33
0.0
  0
SOLID
  5
6B8
330
596
100
AcDbEntity
  8
Dimension (ANSI)
440
 16777216
100
AcDbTrace
 10
29.89090895145888
 20
54.87523181944998
 30
0.0
 11
29.93928545827201
 21
55.09973765955487
 31
0.0
 12
29.24157968455082
 22
55.13261425994183
 32
0.0
 13
29.24157968455082
 23
55.13261425994183
 33
0.0
  0
MTEXT
  5
6B9
330
596
100
AcDbEntity
  8
Dimension (ANSI)
440
 16777216
100
AcDbMText
 10
30.72365604861562
 20
54.35572598757991
 30
0.0
 40
0.7000000104308129
 41
0.0
 71
     1
 72
     1
  1
\A1;84\U+00B0
  7
ROMANS
 73
     1
 44
1.0
  0
POINT
  5
6BA
330
596
100
AcDbEntity
  8
Defpoints
 62
     0
440
 16777216
100
AcDbPoint
 10
28.85676454245612
 20
51.71136713725623
 30
0.0
  0
POINT
  5
6BB
330
596
100
AcDbEntity
  8
Defpoints
 62
     0
440
 16777216
100
AcDbPoint
 10
29.29426454245611
 20
51.71136713725623
 30
0.0
  0
POINT
  5
6BC
330
596
100
AcDbEntity
  8
Defpoints
 62
     0
440
 16777216
100
AcDbPoint
 10
28.90566532409614
 20
52.14612564902454
 30
0.0
  0
POINT
  5
6BD
330
596
100
AcDbEntity
  8
Defpoints
 62
     0
440
 16777216
100
AcDbPoint
 10
31.90051212952492
 20
53.32028453547242
 30
0.0
  0
ENDBLK
  5
598
330
596
100
AcDbEntity
  8
0
100
AcDbBlockEnd
  0
BLOCK
  5
6C0
330
6BF
100
AcDbEntity
  8
0
100
AcDbBlockBegin
  2
*D8
 70
     1
 10
0.0
 20
0.0
 30
0.0
  3
*D8
  1

  0
LINE
  5
7A5
330
6BF
100
AcDbEntity
  8
Dimension (ANSI)
440
 16777216
100
AcDbLine
 10
55.14107974046352
 20
64.33257255464615
 30
0.0
 11
54.45210337811591
 21
64.33257255464615
 31
0.0
  0
LINE
  5
7A6
330
6BF
100
AcDbEntity
  8
Dimension (ANSI)
440
 16777216
100
AcDbLine
 10
57.76903246515875
 20
64.33257255464615
 30
0.0
 11
58.84075310058263
 21
64.33257255464615
 31
0.0
  0
SOLID
  5
7A7
330
6BF
100
AcDbEntity
  8
Dimension (ANSI)
440
 16777216
100
AcDbTrace
 10
55.14107974046352
 20
64.44740194837075
 30
0.0
 11
55.14107974046352
 21
64.21774316092154
 31
0.0
 12
55.83005610281112
 22
64.33257255464615
 32
0.0
 13
55.83005610281112
 23
64.33257255464615
 33
0.0
  0
SOLID
  5
7A8
330
6BF
100
AcDbEntity
  8
Dimension (ANSI)
440
 16777216
100
AcDbTrace
 10
57.76903246515875
 20
64.44740194837075
 30
0.0
 11
57.76903246515875
 21
64.21774316092154
 31
0.0
 12
57.08005610281114
 22
64.33257255464615
 32
0.0
 13
57.08005610281114
 23
64.33257255464615
 33
0.0
  0
MTEXT
  5
7A9
330
6BF
100
AcDbEntity
  8
Dimension (ANSI)
440
 16777216
100
AcDbMText
 10
60.87789223526463
 20
64.33257255464615
 30
0.0
 40
0.7000000104308129
 41
0.0
 71
     5
 72
     1
  1
\A1;1.25{\P(2 PL.)}
  7
ROMANS
 73
     1
 44
1.0
  0
POINT
  5
7AA
330
6BF
100
AcDbEntity
  8
Defpoints
 62
     0
440
 16777216
100
AcDbPoint
 10
55.83005610281112
 20
62.33353982550294
 30
0.0
  0
POINT
  5
7AB
330
6BF
100
AcDbEntity
  8
Defpoints
 62
     0
440
 16777216
100
AcDbPoint
 10
57.08005610281114
 20
62.31284149893474
 30
0.0
  0
POINT
  5
7AC
330
6BF
100
AcDbEntity
  8
Defpoints
 62
     0
440
 16777216
100
AcDbPoint
 10
57.08005610281114
 20
64.33257255464615
 30
0.0
  0
ENDBLK
  5
6C1
330
6BF
100
AcDbEntity
  8
0
100
AcDbBlockEnd
  0
BLOCK
  5
7AF
330
7AE
100
AcDbEntity
  8
0
100
AcDbBlockBegin
  2
*D9
 70
     1
 10
0.0
 20
0.0
 30
0.0
  3
*D9
  1

  0
LINE
  5
89F
330
7AE
100
AcDbEntity
  8
Dimension (ANSI)
440
 16777216
100
AcDbLine
 10
56.24545901589904
 20
60.99106876855262
 30
0.0
 11
62.2599921415175
 21
60.99106876855262
 31
0.0
  0
LINE
  5
8A0
330
7AE
100
AcDbEntity
  8
Dimension (ANSI)
440
 16777216
100
AcDbLine
 10
57.29880610281114
 20
59.74106876855269
 30
0.0
 11
62.2599921415175
 21
59.74106876855269
 31
0.0
  0
LINE
  5
8A1
330
7AE
100
AcDbEntity
  8
Dimension (ANSI)
440
 16777216
100
AcDbLine
 10
61.3849921415175
 20
61.68004513090022
 30
0.0
 11
61.3849921415175
 21
62.36902149324783
 31
0.0
  0
LINE
  5
8A2
330
7AE
100
AcDbEntity
  8
Dimension (ANSI)
440
 16777216
100
AcDbLine
 10
61.3849921415175
 20
59.05209240620508
 30
0.0
 11
61.3849921415175
 21
57.85309516589043
 31
0.0
  0
LINE
  5
8A3
330
7AE
100
AcDbEntity
  8
Dimension (ANSI)
440
 16777216
100
AcDbLine
 10
61.3849921415175
 20
57.85309516589043
 30
0.0
 11
60.6960157791699
 21
57.85309516589043
 31
0.0
  0
SOLID
  5
8A4
330
7AE
100
AcDbEntity
  8
Dimension (ANSI)
440
 16777216
100
AcDbTrace
 10
61.2701627477929
 20
61.68004513090022
 30
0.0
 11
61.49982153524209
 21
61.68004513090022
 31
0.0
 12
61.3849921415175
 22
60.99106876855262
 32
0.0
 13
61.3849921415175
 23
60.99106876855262
 33
0.0
  0
SOLID
  5
8A5
330
7AE
100
AcDbEntity
  8
Dimension (ANSI)
440
 16777216
100
AcDbTrace
 10
61.2701627477929
 20
59.05209240620508
 30
0.0
 11
61.49982153524209
 21
59.05209240620508
 31
0.0
 12
61.3849921415175
 22
59.74106876855269
 32
0.0
 13
61.3849921415175
 23
59.74106876855269
 33
0.0
  0
MTEXT
  5
8A6
330
7AE
100
AcDbEntity
  8
Dimension (ANSI)
440
 16777216
100
AcDbMText
 10
58.44220997459263
 20
58.20309517110584
 30
0.0
 40
0.7000000104308129
 41
0.0
 71
     1
 72
     1
  1
\A1;1.25
  7
ROMANS
 73
     1
 44
1.0
  0
POINT
  5
8A7
330
7AE
100
AcDbEntity
  8
Defpoints
 62
     0
440
 16777216
100
AcDbPoint
 10
55.80795901589905
 20
60.99106876855262
 30
0.0
  0
POINT
  5
8A8
330
7AE
100
AcDbEntity
  8
Defpoints
 62
     0
440
 16777216
100
AcDbPoint
 10
56.86130610281114
 20
59.74106876855269
 30
0.0
  0
POINT
  5
8A9
330
7AE
100
AcDbEntity
  8
Defpoints
 62
     0
440
 16777216
100
AcDbPoint
 10
61.3849921415175
 20
59.74106876855269
 30
0.0
  0
ENDBLK
  5
7B0
330
7AE
100
AcDbEntity
  8
0
100
AcDbBlockEnd
  0
BLOCK
  5
8B5
330
8B4
100
AcDbEntity
  8
0
100
AcDbBlockBegin
  2
*D10
 70
     1
 10
0.0
 20
0.0
 30
0.0
  3
*D10
  1

  0
LINE
  5
99C
330
8B4
100
AcDbEntity
  8
Dimension (ANSI)
440
 16777216
100
AcDbLine
 10
46.7363061028002
 20
24.34525590596682
 30
0.0
 11
43.93660137839076
 21
24.34525590596682
 31
0.0
  0
LINE
  5
99D
330
8B4
100
AcDbEntity
  8
Dimension (ANSI)
440
 16777216
100
AcDbLine
 10
46.04880610280019
 20
22.34525590596688
 30
0.0
 11
43.93660137839076
 21
22.34525590596688
 31
0.0
  0
LINE
  5
99E
330
8B4
100
AcDbEntity
  8
Dimension (ANSI)
440
 16777216
100
AcDbLine
 10
44.81160137839076
 20
25.03423226831442
 30
0.0
 11
44.81160137839076
 21
25.72320863066202
 31
0.0
  0
LINE
  5
99F
330
8B4
100
AcDbEntity
  8
Dimension (ANSI)
440
 16777216
100
AcDbLine
 10
44.81160137839076
 20
21.65627954361927
 30
0.0
 11
44.81160137839076
 21
20.96730318127167
 31
0.0
  0
SOLID
  5
9A0
330
8B4
100
AcDbEntity
  8
Dimension (ANSI)
440
 16777216
100
AcDbTrace
 10
44.69677198466616
 20
25.03423226831442
 30
0.0
 11
44.92643077211535
 21
25.03423226831442
 31
0.0
 12
44.81160137839076
 22
24.34525590596682
 32
0.0
 13
44.81160137839076
 23
24.34525590596682
 33
0.0
  0
SOLID
  5
9A1
330
8B4
100
AcDbEntity
  8
Dimension (ANSI)
440
 16777216
100
AcDbTrace
 10
44.69677198466616
 20
21.65627954361927
 30
0.0
 11
44.92643077211535
 21
21.65627954361927
 31
0.0
 12
44.81160137839076
 22
22.34525590596688
 32
0.0
 13
44.81160137839076
 23
22.34525590596688
 33
0.0
  0
MTEXT
  5
9A2
330
8B4
100
AcDbEntity
  8
Dimension (ANSI)
440
 16777216
100
AcDbMText
 10
43.74493469582951
 20
23.69525591118225
 30
0.0
 40
0.7000000104308129
 41
0.0
 71
     1
 72
     1
  1
\A1;2.00
  7
ROMANS
 73
     1
 44
1.0
  0
POINT
  5
9A3
330
8B4
100
AcDbEntity
  8
Defpoints
 62
     0
440
 16777216
100
AcDbPoint
 10
47.17380610280019
 20
24.34525590596682
 30
0.0
  0
POINT
  5
9A4
330
8B4
100
AcDbEntity
  8
Defpoints
 62
     0
440
 16777216
100
AcDbPoint
 10
46.4863061028002
 20
22.34525590596688
 30
0.0
  0
POINT
  5
9A5
330
8B4
100
AcDbEntity
  8
Defpoints
 62
     0
440
 16777216
100
AcDbPoint
 10
44.81160137839076
 20
22.34525590596688
 30
0.0
  0
ENDBLK
  5
8B6
330
8B4
100
AcDbEntity
  8
0
100
AcDbBlockEnd
  0
BLOCK
  5
9A8
330
9A7
100
AcDbEntity
  8
0
100
AcDbBlockBegin
  2
*D11
 70
     1
 10
0.0
 20
0.0
 30
0.0
  3
*D11
  1

  0
LINE
  5
A8C
330
9A7
100
AcDbEntity
  8
Dimension (ANSI)
440
 16777216
100
AcDbLine
 10
46.7363061028002
 20
24.34525590596682
 30
0.0
 11
41.00927734030079
 21
24.34525590596682
 31
0.0
  0
LINE
  5
A8D
330
9A7
100
AcDbEntity
  8
Dimension (ANSI)
440
 16777216
100
AcDbLine
 10
46.04880610280019
 20
17.34525590596687
 30
0.0
 11
41.00927734030079
 21
17.34525590596687
 31
0.0
  0
LINE
  5
A8E
330
9A7
100
AcDbEntity
  8
Dimension (ANSI)
440
 16777216
100
AcDbLine
 10
41.8842773403008
 20
23.65627954361921
 30
0.0
 11
41.8842773403008
 21
21.41572835212713
 31
0.0
  0
LINE
  5
A8F
330
9A7
100
AcDbEntity
  8
Dimension (ANSI)
440
 16777216
100
AcDbLine
 10
41.8842773403008
 20
18.03423226831447
 30
0.0
 11
41.8842773403008
 21
20.27478345980655
 31
0.0
  0
SOLID
  5
A90
330
9A7
100
AcDbEntity
  8
Dimension (ANSI)
440
 16777216
100
AcDbTrace
 10
41.7694479465762
 20
23.65627954361921
 30
0.0
 11
41.99910673402539
 21
23.65627954361921
 31
0.0
 12
41.8842773403008
 22
24.34525590596682
 32
0.0
 13
41.8842773403008
 23
24.34525590596682
 33
0.0
  0
SOLID
  5
A91
330
9A7
100
AcDbEntity
  8
Dimension (ANSI)
440
 16777216
100
AcDbTrace
 10
41.7694479465762
 20
18.03423226831447
 30
0.0
 11
41.99910673402539
 21
18.03423226831447
 31
0.0
 12
41.8842773403008
 22
17.34525590596687
 32
0.0
 13
41.8842773403008
 23
17.34525590596687
 33
0.0
  0
MTEXT
  5
A92
330
9A7
100
AcDbEntity
  8
Dimension (ANSI)
440
 16777216
100
AcDbMText
 10
40.81761065773955
 20
21.19525591118225
 30
0.0
 40
0.7000000104308129
 41
0.0
 71
     1
 72
     1
  1
\A1;7.00
  7
ROMANS
 73
     1
 44
1.0
  0
POINT
  5
A93
330
9A7
100
AcDbEntity
  8
Defpoints
 62
     0
440
 16777216
100
AcDbPoint
 10
47.17380610280019
 20
24.34525590596682
 30
0.0
  0
POINT
  5
A94
330
9A7
100
AcDbEntity
  8
Defpoints
 62
     0
440
 16777216
100
AcDbPoint
 10
46.4863061028002
 20
17.34525590596687
 30
0.0
  0
POINT
  5
A95
330
9A7
100
AcDbEntity
  8
Defpoints
 62
     0
440
 16777216
100
AcDbPoint
 10
41.8842773403008
 20
17.34525590596687
 30
0.0
  0
ENDBLK
  5
9A9
330
9A7
100
AcDbEntity
  8
0
100
AcDbBlockEnd
  0
BLOCK
  5
A98
330
A97
100
AcDbEntity
  8
0
100
AcDbBlockBegin
  2
*D12
 70
     1
 10
0.0
 20
0.0
 30
0.0
  3
*D12
  1

  0
LINE
  5
B8B
330
A97
100
AcDbEntity
  8
Dimension (ANSI)
440
 16777216
100
AcDbLine
 10
57.2988061028002
 20
24.34525590596682
 30
0.0
 11
59.69968314453269
 21
24.34525590596682
 31
0.0
  0
LINE
  5
B8C
330
A97
100
AcDbEntity
  8
Dimension (ANSI)
440
 16777216
100
AcDbLine
 10
56.4238061028002
 20
23.65775590596688
 30
0.0
 11
59.69968314453269
 21
23.65775590596688
 31
0.0
  0
LINE
  5
B8D
330
A97
100
AcDbEntity
  8
Dimension (ANSI)
440
 16777216
100
AcDbLine
 10
58.82468314453269
 20
22.96877954361927
 30
0.0
 11
58.82468314453269
 21
22.27980318127167
 31
0.0
  0
LINE
  5
B8E
330
A97
100
AcDbEntity
  8
Dimension (ANSI)
440
 16777216
100
AcDbLine
 10
58.82468314453269
 20
25.03423226831442
 30
0.0
 11
58.82468314453269
 21
25.94214544208653
 31
0.0
  0
LINE
  5
B8F
330
A97
100
AcDbEntity
  8
Dimension (ANSI)
440
 16777216
100
AcDbLine
 10
58.82468314453269
 20
25.94214544208653
 30
0.0
 11
59.51365950688029
 21
25.94214544208653
 31
0.0
  0
SOLID
  5
B90
330
A97
100
AcDbEntity
  8
Dimension (ANSI)
440
 16777216
100
AcDbTrace
 10
58.7098537508081
 20
22.96877954361927
 30
0.0
 11
58.93951253825729
 21
22.96877954361927
 31
0.0
 12
58.82468314453269
 22
23.65775590596688
 32
0.0
 13
58.82468314453269
 23
23.65775590596688
 33
0.0
  0
SOLID
  5
B91
330
A97
100
AcDbEntity
  8
Dimension (ANSI)
440
 16777216
100
AcDbTrace
 10
58.7098537508081
 20
25.03423226831442
 30
0.0
 11
58.93951253825729
 21
25.03423226831442
 31
0.0
 12
58.82468314453269
 22
24.34525590596682
 32
0.0
 13
58.82468314453269
 23
24.34525590596682
 33
0.0
  0
MTEXT
  5
B92
330
A97
100
AcDbEntity
  8
Dimension (ANSI)
440
 16777216
100
AcDbMText
 10
59.73413194782517
 20
26.29214544730194
 30
0.0
 40
0.7000000104308129
 41
0.0
 71
     1
 72
     1
  1
\A1;0.69
  7
ROMANS
 73
     1
 44
1.0
  0
POINT
  5
B93
330
A97
100
AcDbEntity
  8
Defpoints
 62
     0
440
 16777216
100
AcDbPoint
 10
56.8613061028002
 20
24.34525590596682
 30
0.0
  0
POINT
  5
B94
330
A97
100
AcDbEntity
  8
Defpoints
 62
     0
440
 16777216
100
AcDbPoint
 10
55.9863061028002
 20
23.65775590596688
 30
0.0
  0
POINT
  5
B95
330
A97
100
AcDbEntity
  8
Defpoints
 62
     0
440
 16777216
100
AcDbPoint
 10
58.82468314453269
 20
23.65775590596688
 30
0.0
  0
ENDBLK
  5
A99
330
A97
100
AcDbEntity
  8
0
100
AcDbBlockEnd
  0
BLOCK
  5
B98
330
B97
100
AcDbEntity
  8
0
100
AcDbBlockBegin
  2
*D13
 70
     1
 10
0.0
 20
0.0
 30
0.0
  3
*D13
  1

  0
LINE
  5
C76
330
B97
100
AcDbEntity
  8
Dimension (ANSI)
440
 16777216
100
AcDbLine
 10
57.08005610280019
 20
24.56400590596681
 30
0.0
 11
57.08005610280019
 21
28.6893495032534
 31
0.0
  0
LINE
  5
C77
330
B97
100
AcDbEntity
  8
Dimension (ANSI)
440
 16777216
100
AcDbLine
 10
54.8300561028002
 20
25.25150590596688
 30
0.0
 11
54.8300561028002
 21
28.6893495032534
 31
0.0
  0
LINE
  5
C78
330
B97
100
AcDbEntity
  8
Dimension (ANSI)
440
 16777216
100
AcDbLine
 10
55.5190324651478
 20
27.8143495032534
 30
0.0
 11
56.39107974045259
 21
27.8143495032534
 31
0.0
  0
LINE
  5
C79
330
B97
100
AcDbEntity
  8
Dimension (ANSI)
440
 16777216
100
AcDbLine
 10
57.08005610280019
 20
27.8143495032534
 30
0.0
 11
57.7690324651478
 21
27.8143495032534
 31
0.0
  0
SOLID
  5
C7A
330
B97
100
AcDbEntity
  8
Dimension (ANSI)
440
 16777216
100
AcDbTrace
 10
55.5190324651478
 20
27.929178896978
 30
0.0
 11
55.5190324651478
 21
27.6995201095288
 31
0.0
 12
54.8300561028002
 22
27.8143495032534
 32
0.0
 13
54.8300561028002
 23
27.8143495032534
 33
0.0
  0
SOLID
  5
C7B
330
B97
100
AcDbEntity
  8
Dimension (ANSI)
440
 16777216
100
AcDbTrace
 10
56.39107974045259
 20
27.929178896978
 30
0.0
 11
56.39107974045259
 21
27.6995201095288
 31
0.0
 12
57.08005610280019
 22
27.8143495032534
 32
0.0
 13
57.08005610280019
 23
27.8143495032534
 33
0.0
  0
MTEXT
  5
C7C
330
B97
100
AcDbEntity
  8
Dimension (ANSI)
440
 16777216
100
AcDbMText
 10
57.98950490609268
 20
28.16434950846881
 30
0.0
 40
0.7000000104308129
 41
0.0
 71
     1
 72
     1
  1
\A1;2.25
  7
ROMANS
 73
     1
 44
1.0
  0
POINT
  5
C7D
330
B97
100
AcDbEntity
  8
Defpoints
 62
     0
440
 16777216
100
AcDbPoint
 10
57.08005610280019
 20
24.12650590596681
 30
0.0
  0
POINT
  5
C7E
330
B97
100
AcDbEntity
  8
Defpoints
 62
     0
440
 16777216
100
AcDbPoint
 10
54.8300561028002
 20
24.81400590596688
 30
0.0
  0
POINT
  5
C7F
330
B97
100
AcDbEntity
  8
Defpoints
 62
     0
440
 16777216
100
AcDbPoint
 10
54.8300561028002
 20
27.8143495032534
 30
0.0
  0
ENDBLK
  5
B99
330
B97
100
AcDbEntity
  8
0
100
AcDbBlockEnd
  0
BLOCK
  5
C82
330
C81
100
AcDbEntity
  8
0
100
AcDbBlockBegin
  2
*D14
 70
     1
 10
0.0
 20
0.0
 30
0.0
  3
*D14
  1

  0
LINE
  5
D60
330
C81
100
AcDbEntity
  8
Dimension (ANSI)
440
 16777216
100
AcDbLine
 10
46.95505610280021
 20
24.56400590596682
 30
0.0
 11
46.95505610280021
 21
28.65707012288846
 31
0.0
  0
LINE
  5
D61
330
C81
100
AcDbEntity
  8
Dimension (ANSI)
440
 16777216
100
AcDbLine
 10
49.2050561028002
 20
25.25150590596688
 30
0.0
 11
49.2050561028002
 21
28.65707012288846
 31
0.0
  0
LINE
  5
D62
330
C81
100
AcDbEntity
  8
Dimension (ANSI)
440
 16777216
100
AcDbLine
 10
48.5160797404526
 20
27.78207012288846
 30
0.0
 11
47.6440324651478
 21
27.78207012288846
 31
0.0
  0
LINE
  5
D63
330
C81
100
AcDbEntity
  8
Dimension (ANSI)
440
 16777216
100
AcDbLine
 10
46.95505610280021
 20
27.78207012288846
 30
0.0
 11
46.2660797404526
 21
27.78207012288846
 31
0.0
  0
SOLID
  5
D64
330
C81
100
AcDbEntity
  8
Dimension (ANSI)
440
 16777216
100
AcDbTrace
 10
48.5160797404526
 20
27.89689951661306
 30
0.0
 11
48.5160797404526
 21
27.66724072916386
 31
0.0
 12
49.2050561028002
 22
27.78207012288846
 32
0.0
 13
49.2050561028002
 23
27.78207012288846
 33
0.0
  0
SOLID
  5
D65
330
C81
100
AcDbEntity
  8
Dimension (ANSI)
440
 16777216
100
AcDbTrace
 10
47.6440324651478
 20
27.89689951661306
 30
0.0
 11
47.6440324651478
 21
27.66724072916386
 31
0.0
 12
46.95505610280021
 22
27.78207012288846
 32
0.0
 13
46.95505610280021
 23
27.78207012288846
 33
0.0
  0
MTEXT
  5
D66
330
C81
100
AcDbEntity
  8
Dimension (ANSI)
440
 16777216
100
AcDbMText
 10
43.91227393438524
 20
28.13207012810387
 30
0.0
 40
0.7000000104308129
 41
0.0
 71
     1
 72
     1
  1
\A1;2.25
  7
ROMANS
 73
     1
 44
1.0
  0
POINT
  5
D67
330
C81
100
AcDbEntity
  8
Defpoints
 62
     0
440
 16777216
100
AcDbPoint
 10
46.95505610280021
 20
24.12650590596682
 30
0.0
  0
POINT
  5
D68
330
C81
100
AcDbEntity
  8
Defpoints
 62
     0
440
 16777216
100
AcDbPoint
 10
49.2050561028002
 20
24.81400590596688
 30
0.0
  0
POINT
  5
D69
330
C81
100
AcDbEntity
  8
Defpoints
 62
     0
440
 16777216
100
AcDbPoint
 10
49.2050561028002
 20
27.78207012288846
 30
0.0
  0
ENDBLK
  5
C83
330
C81
100
AcDbEntity
  8
0
100
AcDbBlockEnd
  0
BLOCK
  5
D6E
330
D6D
100
AcDbEntity
  8
0
100
AcDbBlockBegin
  2
*D15
 70
     1
 10
0.0
 20
0.0
 30
0.0
  3
*D15
  1

  0
LINE
  5
E60
330
D6D
100
AcDbEntity
  8
Dimension (ANSI)
440
 16777216
100
AcDbLine
 10
46.95505610280021
 20
15.90775590596681
 30
0.0
 11
46.95505610280021
 21
13.93075903658357
 31
0.0
  0
LINE
  5
E61
330
D6D
100
AcDbEntity
  8
Dimension (ANSI)
440
 16777216
100
AcDbLine
 10
47.6425561028002
 20
15.75150590596687
 30
0.0
 11
47.6425561028002
 21
13.93075903658357
 31
0.0
  0
LINE
  5
E62
330
D6D
100
AcDbEntity
  8
Dimension (ANSI)
440
 16777216
100
AcDbLine
 10
48.33153246514781
 20
14.80575903658357
 30
0.0
 11
49.02050882749541
 21
14.80575903658357
 31
0.0
  0
LINE
  5
E63
330
D6D
100
AcDbEntity
  8
Dimension (ANSI)
440
 16777216
100
AcDbLine
 10
46.2660797404526
 20
14.80575903658357
 30
0.0
 11
45.52084378831742
 21
14.80575903658357
 31
0.0
  0
SOLID
  5
E64
330
D6D
100
AcDbEntity
  8
Dimension (ANSI)
440
 16777216
100
AcDbTrace
 10
48.33153246514781
 20
14.92058843030817
 30
0.0
 11
48.33153246514781
 21
14.69092964285897
 31
0.0
 12
47.6425561028002
 22
14.80575903658357
 32
0.0
 13
47.6425561028002
 23
14.80575903658357
 33
0.0
  0
SOLID
  5
E65
330
D6D
100
AcDbEntity
  8
Dimension (ANSI)
440
 16777216
100
AcDbTrace
 10
46.2660797404526
 20
14.92058843030817
 30
0.0
 11
46.2660797404526
 21
14.69092964285897
 31
0.0
 12
46.95505610280021
 22
14.80575903658357
 32
0.0
 13
46.95505610280021
 23
14.80575903658357
 33
0.0
  0
MTEXT
  5
E66
330
D6D
100
AcDbEntity
  8
Dimension (ANSI)
440
 16777216
100
AcDbMText
 10
43.48370465363543
 20
14.80575903658357
 30
0.0
 40
0.7000000104308129
 41
0.0
 71
     5
 72
     1
  1
\A1;0.69{\P(2 PL.)}
  7
ROMANS
 73
     1
 44
1.0
  0
POINT
  5
E67
330
D6D
100
AcDbEntity
  8
Defpoints
 62
     0
440
 16777216
100
AcDbPoint
 10
46.95505610280021
 20
16.34525590596681
 30
0.0
  0
POINT
  5
E68
330
D6D
100
AcDbEntity
  8
Defpoints
 62
     0
440
 16777216
100
AcDbPoint
 10
47.6425561028002
 20
16.18900590596687
 30
0.0
  0
POINT
  5
E69
330
D6D
100
AcDbEntity
  8
Defpoints
 62
     0
440
 16777216
100
AcDbPoint
 10
47.6425561028002
 20
14.80575903658357
 30
0.0
  0
ENDBLK
  5
D6F
330
D6D
100
AcDbEntity
  8
0
100
AcDbBlockEnd
  0
BLOCK
  5
E6C
330
E6B
100
AcDbEntity
  8
0
100
AcDbBlockBegin
  2
*D16
 70
     1
 10
0.0
 20
0.0
 30
0.0
  3
*D16
  1

  0
LINE
  5
F1C
330
E6B
100
AcDbEntity
  8
Dimension (ANSI)
440
 16777216
100
AcDbLine
 10
60.1995650175408
 20
20.04424127676692
 30
0.0
 11
58.5072468482766
 21
20.04424127676692
 31
0.0
  0
LINE
  5
F1D
330
E6B
100
AcDbEntity
  8
Dimension (ANSI)
440
 16777216
100
AcDbLine
 10
58.5072468482766
 20
20.04424127676692
 30
0.0
 11
56.99094294927599
 21
18.10897861491238
 31
0.0
  0
MTEXT
  5
F1E
102
{ACAD_XDICTIONARY
360
15BB
102
}
330
E6B
100
AcDbEntity
  8
Dimension (ANSI)
440
 16777216
100
AcDbMText
 10
62.23670415222279
 20
20.04424127676692
 30
0.0
 40
0.7000000104308129
 41
0.0
 71
     5
 72
     1
  1
\A1;\U+22050.563{\P(6 PL.)}
  7
ROMANS
 73
     1
 44
1.0
  0
SOLID
  5
F1F
330
E6B
100
AcDbEntity
  8
Dimension (ANSI)
440
 16777216
100
AcDbTrace
 10
56.90055392353387
 20
18.17979961242405
 30
0.0
 11
57.08133197501812
 21
18.0381576174007
 31
0.0
 12
56.56601696420591
 22
17.56664446045964
 32
0.0
 13
56.56601696420591
 23
17.56664446045964
 33
0.0
  0
LINE
  5
F20
330
E6B
100
AcDbEntity
  8
Dimension (ANSI)
440
 16777216
100
AcDbLine
 10
55.76255610280024
 20
17.34525590596686
 30
0.0
 11
57.02255610280025
 21
17.34525590596686
 31
0.0
  0
LINE
  5
F21
330
E6B
100
AcDbEntity
  8
Dimension (ANSI)
440
 16777216
100
AcDbLine
 10
56.39255610280024
 20
16.71525590596685
 30
0.0
 11
56.39255610280024
 21
17.97525590596686
 31
0.0
  0
POINT
  5
F22
330
E6B
100
AcDbEntity
  8
Defpoints
 62
     0
440
 16777216
100
AcDbPoint
 10
56.56601696420591
 20
17.56664446045964
 30
0.0
  0
POINT
  5
F23
330
E6B
100
AcDbEntity
  8
Defpoints
 62
     0
440
 16777216
100
AcDbPoint
 10
56.21909524139457
 20
17.12386735147408
 30
0.0
  0
ENDBLK
  5
E6D
330
E6B
100
AcDbEntity
  8
0
100
AcDbBlockEnd
  0
BLOCK
  5
F2B
330
F2A
100
AcDbEntity
  8
0
100
AcDbBlockBegin
  2
*D17
 70
     1
 10
0.0
 20
0.0
 30
0.0
  3
*D17
  1

  0
LINE
  5
1009
330
F2A
100
AcDbEntity
  8
Dimension (ANSI)
440
 16777216
100
AcDbLine
 10
46.95505610281114
 20
68.17856876855789
 30
0.0
 11
46.95505610281114
 21
70.48492904111272
 31
0.0
  0
LINE
  5
100A
330
F2A
100
AcDbEntity
  8
Dimension (ANSI)
440
 16777216
100
AcDbLine
 10
49.08005610281112
 20
68.08481876855262
 30
0.0
 11
49.08005610281112
 21
70.48492904111272
 31
0.0
  0
LINE
  5
100B
330
F2A
100
AcDbEntity
  8
Dimension (ANSI)
440
 16777216
100
AcDbLine
 10
48.39107974046351
 20
69.60992904111272
 30
0.0
 11
47.64403246515874
 21
69.60992904111272
 31
0.0
  0
LINE
  5
100C
330
F2A
100
AcDbEntity
  8
Dimension (ANSI)
440
 16777216
100
AcDbLine
 10
46.95505610281114
 20
69.60992904111272
 30
0.0
 11
45.78730735300746
 21
69.60992904111272
 31
0.0
  0
SOLID
  5
100D
330
F2A
100
AcDbEntity
  8
Dimension (ANSI)
440
 16777216
100
AcDbTrace
 10
48.39107974046351
 20
69.72475843483732
 30
0.0
 11
48.39107974046351
 21
69.49509964738812
 31
0.0
 12
49.08005610281112
 22
69.60992904111272
 32
0.0
 13
49.08005610281112
 23
69.60992904111272
 33
0.0
  0
SOLID
  5
100E
330
F2A
100
AcDbEntity
  8
Dimension (ANSI)
440
 16777216
100
AcDbTrace
 10
47.64403246515874
 20
69.72475843483732
 30
0.0
 11
47.64403246515874
 21
69.49509964738812
 31
0.0
 12
46.95505610281114
 22
69.60992904111272
 32
0.0
 13
46.95505610281114
 23
69.60992904111272
 33
0.0
  0
MTEXT
  5
100F
330
F2A
100
AcDbEntity
  8
Dimension (ANSI)
440
 16777216
100
AcDbMText
 10
43.4335015469401
 20
69.95992904632813
 30
0.0
 40
0.7000000104308129
 41
0.0
 71
     1
 72
     1
  1
\A1;2.13
  7
ROMANS
 73
     1
 44
1.0
  0
POINT
  5
1010
330
F2A
100
AcDbEntity
  8
Defpoints
 62
     0
440
 16777216
100
AcDbPoint
 10
46.95505610281114
 20
67.74106876855789
 30
0.0
  0
POINT
  5
1011
330
F2A
100
AcDbEntity
  8
Defpoints
 62
     0
440
 16777216
100
AcDbPoint
 10
49.08005610281112
 20
67.64731876855262
 30
0.0
  0
POINT
  5
1012
330
F2A
100
AcDbEntity
  8
Defpoints
 62
     0
440
 16777216
100
AcDbPoint
 10
49.08005610281112
 20
69.60992904111272
 30
0.0
  0
ENDBLK
  5
F2C
330
F2A
100
AcDbEntity
  8
0
100
AcDbBlockEnd
  0
BLOCK
  5
1015
330
1014
100
AcDbEntity
  8
0
100
AcDbBlockBegin
  2
*D18
 70
     1
 10
0.0
 20
0.0
 30
0.0
  3
*D18
  1

  0
LINE
  5
10F3
330
1014
100
AcDbEntity
  8
Dimension (ANSI)
440
 16777216
100
AcDbLine
 10
46.95505610281114
 20
68.17856876855789
 30
0.0
 11
46.95505610281114
 21
72.3299291474335
 31
0.0
  0
LINE
  5
10F4
330
1014
100
AcDbEntity
  8
Dimension (ANSI)
440
 16777216
100
AcDbLine
 10
52.01755610281111
 20
65.08481876855267
 30
0.0
 11
52.01755610281111
 21
72.3299291474335
 31
0.0
  0
LINE
  5
10F5
330
1014
100
AcDbEntity
  8
Dimension (ANSI)
440
 16777216
100
AcDbLine
 10
47.64403246515874
 20
71.4549291474335
 30
0.0
 11
48.19916697930501
 21
71.4549291474335
 31
0.0
  0
LINE
  5
10F6
330
1014
100
AcDbEntity
  8
Dimension (ANSI)
440
 16777216
100
AcDbLine
 10
51.3285797404635
 20
71.4549291474335
 30
0.0
 11
50.77344522631725
 21
71.4549291474335
 31
0.0
  0
SOLID
  5
10F7
330
1014
100
AcDbEntity
  8
Dimension (ANSI)
440
 16777216
100
AcDbTrace
 10
47.64403246515874
 20
71.56975854115811
 30
0.0
 11
47.64403246515874
 21
71.3400997537089
 31
0.0
 12
46.95505610281114
 22
71.4549291474335
 32
0.0
 13
46.95505610281114
 23
71.4549291474335
 33
0.0
  0
SOLID
  5
10F8
330
1014
100
AcDbEntity
  8
Dimension (ANSI)
440
 16777216
100
AcDbTrace
 10
51.3285797404635
 20
71.56975854115811
 30
0.0
 11
51.3285797404635
 21
71.3400997537089
 31
0.0
 12
52.01755610281111
 22
71.4549291474335
 32
0.0
 13
52.01755610281111
 23
71.4549291474335
 33
0.0
  0
MTEXT
  5
10F9
330
1014
100
AcDbEntity
  8
Dimension (ANSI)
440
 16777216
100
AcDbMText
 10
48.41963942024989
 20
71.80492915264891
 30
0.0
 40
0.7000000104308129
 41
0.0
 71
     1
 72
     1
  1
\A1;5.06
  7
ROMANS
 73
     1
 44
1.0
  0
POINT
  5
10FA
330
1014
100
AcDbEntity
  8
Defpoints
 62
     0
440
 16777216
100
AcDbPoint
 10
46.95505610281114
 20
67.74106876855789
 30
0.0
  0
POINT
  5
10FB
330
1014
100
AcDbEntity
  8
Defpoints
 62
     0
440
 16777216
100
AcDbPoint
 10
52.01755610281111
 20
64.64731876855267
 30
0.0
  0
POINT
  5
10FC
330
1014
100
AcDbEntity
  8
Defpoints
 62
     0
440
 16777216
100
AcDbPoint
 10
52.01755610281111
 20
71.4549291474335
 30
0.0
  0
ENDBLK
  5
1016
330
1014
100
AcDbEntity
  8
0
100
AcDbBlockEnd
  0
BLOCK
  5
10FF
330
10FE
100
AcDbEntity
  8
0
100
AcDbBlockBegin
  2
*D19
 70
     1
 10
0.0
 20
0.0
 30
0.0
  3
*D19
  1

  0
LINE
  5
11DD
330
10FE
100
AcDbEntity
  8
Dimension (ANSI)
440
 16777216
100
AcDbLine
 10
57.08005610281118
 20
68.17856876855789
 30
0.0
 11
57.08005610281118
 21
70.42353231284529
 31
0.0
  0
LINE
  5
11DE
330
10FE
100
AcDbEntity
  8
Dimension (ANSI)
440
 16777216
100
AcDbLine
 10
54.95505610281111
 20
68.08481876855262
 30
0.0
 11
54.95505610281111
 21
70.42353231284529
 31
0.0
  0
LINE
  5
11DF
330
10FE
100
AcDbEntity
  8
Dimension (ANSI)
440
 16777216
100
AcDbLine
 10
55.64403246515872
 20
69.5485323128453
 30
0.0
 11
56.39107974046358
 21
69.5485323128453
 31
0.0
  0
LINE
  5
11E0
330
10FE
100
AcDbEntity
  8
Dimension (ANSI)
440
 16777216
100
AcDbLine
 10
57.08005610281118
 20
69.5485323128453
 30
0.0
 11
58.24780485261485
 21
69.5485323128453
 31
0.0
  0
SOLID
  5
11E1
330
10FE
100
AcDbEntity
  8
Dimension (ANSI)
440
 16777216
100
AcDbTrace
 10
55.64403246515872
 20
69.6633617065699
 30
0.0
 11
55.64403246515872
 21
69.43370291912069
 31
0.0
 12
54.95505610281111
 22
69.5485323128453
 32
0.0
 13
54.95505610281111
 23
69.5485323128453
 33
0.0
  0
SOLID
  5
11E2
330
10FE
100
AcDbEntity
  8
Dimension (ANSI)
440
 16777216
100
AcDbTrace
 10
56.39107974046358
 20
69.6633617065699
 30
0.0
 11
56.39107974046358
 21
69.43370291912069
 31
0.0
 12
57.08005610281118
 22
69.5485323128453
 32
0.0
 13
57.08005610281118
 23
69.5485323128453
 33
0.0
  0
MTEXT
  5
11E3
330
10FE
100
AcDbEntity
  8
Dimension (ANSI)
440
 16777216
100
AcDbMText
 10
58.46827729355974
 20
69.8985323180607
 30
0.0
 40
0.7000000104308129
 41
0.0
 71
     1
 72
     1
  1
\A1;2.13
  7
ROMANS
 73
     1
 44
1.0
  0
POINT
  5
11E4
330
10FE
100
AcDbEntity
  8
Defpoints
 62
     0
440
 16777216
100
AcDbPoint
 10
57.08005610281118
 20
67.74106876855789
 30
0.0
  0
POINT
  5
11E5
330
10FE
100
AcDbEntity
  8
Defpoints
 62
     0
440
 16777216
100
AcDbPoint
 10
54.95505610281111
 20
67.64731876855262
 30
0.0
  0
POINT
  5
11E6
330
10FE
100
AcDbEntity
  8
Defpoints
 62
     0
440
 16777216
100
AcDbPoint
 10
54.95505610281111
 20
69.5485323128453
 30
0.0
  0
ENDBLK
  5
1100
330
10FE
100
AcDbEntity
  8
0
100
AcDbBlockEnd
  0
BLOCK
  5
11E9
330
11E8
100
AcDbEntity
  8
0
100
AcDbBlockBegin
  2
*D20
 70
     1
 10
0.0
 20
0.0
 30
0.0
  3
*D20
  1

  0
LINE
  5
12D9
330
11E8
100
AcDbEntity
  8
Dimension (ANSI)
440
 16777216
100
AcDbLine
 10
46.51755610281114
 20
67.74106876855789
 30
0.0
 11
38.52100050414935
 21
67.74106876855789
 31
0.0
  0
LINE
  5
12DA
330
11E8
100
AcDbEntity
  8
Dimension (ANSI)
440
 16777216
100
AcDbLine
 10
47.4863061028111
 20
66.49106876855262
 30
0.0
 11
38.52100050414935
 21
66.49106876855262
 31
0.0
  0
LINE
  5
12DB
330
11E8
100
AcDbEntity
  8
Dimension (ANSI)
440
 16777216
100
AcDbLine
 10
39.39600050414935
 20
65.80209240620502
 30
0.0
 11
39.39600050414935
 21
65.11311604385742
 31
0.0
  0
LINE
  5
12DC
330
11E8
100
AcDbEntity
  8
Dimension (ANSI)
440
 16777216
100
AcDbLine
 10
39.39600050414935
 20
68.4300451309055
 30
0.0
 11
39.39600050414935
 21
69.62904237122012
 31
0.0
  0
LINE
  5
12DD
330
11E8
100
AcDbEntity
  8
Dimension (ANSI)
440
 16777216
100
AcDbLine
 10
39.39600050414935
 20
69.62904237122012
 30
0.0
 11
40.08497686649695
 21
69.62904237122012
 31
0.0
  0
SOLID
  5
12DE
330
11E8
100
AcDbEntity
  8
Dimension (ANSI)
440
 16777216
100
AcDbTrace
 10
39.28117111042475
 20
65.80209240620502
 30
0.0
 11
39.51082989787395
 21
65.80209240620502
 31
0.0
 12
39.39600050414935
 22
66.49106876855262
 32
0.0
 13
39.39600050414935
 23
66.49106876855262
 33
0.0
  0
SOLID
  5
12DF
330
11E8
100
AcDbEntity
  8
Dimension (ANSI)
440
 16777216
100
AcDbTrace
 10
39.28117111042475
 20
68.4300451309055
 30
0.0
 11
39.51082989787395
 21
68.4300451309055
 31
0.0
 12
39.39600050414935
 22
67.74106876855789
 32
0.0
 13
39.39600050414935
 23
67.74106876855789
 33
0.0
  0
MTEXT
  5
12E0
330
11E8
100
AcDbEntity
  8
Dimension (ANSI)
440
 16777216
100
AcDbMText
 10
40.30544930744182
 20
69.97904237643554
 30
0.0
 40
0.7000000104308129
 41
0.0
 71
     1
 72
     1
  1
\A1;1.25
  7
ROMANS
 73
     1
 44
1.0
  0
POINT
  5
12E1
330
11E8
100
AcDbEntity
  8
Defpoints
 62
     0
440
 16777216
100
AcDbPoint
 10
46.95505610281114
 20
67.74106876855789
 30
0.0
  0
POINT
  5
12E2
330
11E8
100
AcDbEntity
  8
Defpoints
 62
     0
440
 16777216
100
AcDbPoint
 10
47.9238061028111
 20
66.49106876855262
 30
0.0
  0
POINT
  5
12E3
330
11E8
100
AcDbEntity
  8
Defpoints
 62
     0
440
 16777216
100
AcDbPoint
 10
39.39600050414935
 20
66.49106876855262
 30
0.0
  0
ENDBLK
  5
11EA
330
11E8
100
AcDbEntity
  8
0
100
AcDbBlockEnd
  0
BLOCK
  5
12E6
330
12E5
100
AcDbEntity
  8
0
100
AcDbBlockBegin
  2
*D21
 70
     1
 10
0.0
 20
0.0
 30
0.0
  3
*D21
  1

  0
LINE
  5
13C4
330
12E5
100
AcDbEntity
  8
Dimension (ANSI)
440
 16777216
100
AcDbLine
 10
46.51755610281114
 20
67.74106876855789
 30
0.0
 11
37.54709458656285
 21
67.74106876855789
 31
0.0
  0
LINE
  5
13C5
330
12E5
100
AcDbEntity
  8
Dimension (ANSI)
440
 16777216
100
AcDbLine
 10
50.4238061028111
 20
63.49106876855266
 30
0.0
 11
37.54709458656285
 21
63.49106876855267
 31
0.0
  0
LINE
  5
13C6
330
12E5
100
AcDbEntity
  8
Dimension (ANSI)
440
 16777216
100
AcDbLine
 10
38.42209458656285
 20
67.05209240621029
 30
0.0
 11
38.42209458656285
 21
66.18654121471556
 31
0.0
  0
LINE
  5
13C7
330
12E5
100
AcDbEntity
  8
Dimension (ANSI)
440
 16777216
100
AcDbLine
 10
38.42209458656285
 20
64.18004513090027
 30
0.0
 11
38.42209458656285
 21
65.04559632239497
 31
0.0
  0
SOLID
  5
13C8
330
12E5
100
AcDbEntity
  8
Dimension (ANSI)
440
 16777216
100
AcDbTrace
 10
38.30726519283825
 20
67.05209240621029
 30
0.0
 11
38.53692398028745
 21
67.05209240621029
 31
0.0
 12
38.42209458656285
 22
67.74106876855789
 32
0.0
 13
38.42209458656285
 23
67.74106876855789
 33
0.0
  0
SOLID
  5
13C9
330
12E5
100
AcDbEntity
  8
Dimension (ANSI)
440
 16777216
100
AcDbTrace
 10
38.30726519283825
 20
64.18004513090027
 30
0.0
 11
38.53692398028745
 21
64.18004513090027
 31
0.0
 12
38.42209458656285
 22
63.49106876855267
 32
0.0
 13
38.42209458656285
 23
63.49106876855267
 33
0.0
  0
MTEXT
  5
13CA
330
12E5
100
AcDbEntity
  8
Dimension (ANSI)
440
 16777216
100
AcDbMText
 10
37.3554279040016
 20
65.96606877377069
 30
0.0
 40
0.7000000104308129
 41
0.0
 71
     1
 72
     1
  1
\A1;4.25
  7
ROMANS
 73
     1
 44
1.0
  0
POINT
  5
13CB
330
12E5
100
AcDbEntity
  8
Defpoints
 62
     0
440
 16777216
100
AcDbPoint
 10
46.95505610281114
 20
67.74106876855789
 30
0.0
  0
POINT
  5
13CC
330
12E5
100
AcDbEntity
  8
Defpoints
 62
     0
440
 16777216
100
AcDbPoint
 10
50.8613061028111
 20
63.49106876855266
 30
0.0
  0
POINT
  5
13CD
330
12E5
100
AcDbEntity
  8
Defpoints
 62
     0
440
 16777216
100
AcDbPoint
 10
38.42209458656285
 20
63.49106876855267
 30
0.0
  0
ENDBLK
  5
12E7
330
12E5
100
AcDbEntity
  8
0
100
AcDbBlockEnd
  0
BLOCK
  5
13D0
330
13CF
100
AcDbEntity
  8
0
100
AcDbBlockBegin
  2
*D22
 70
     1
 10
0.0
 20
0.0
 30
0.0
  3
*D22
  1

  0
LINE
  5
147F
330
13CF
100
AcDbEntity
  8
Dimension (ANSI)
440
 16777216
100
AcDbLine
 10
44.69078547701307
 20
59.09272723572807
 30
0.0
 11
45.68571478262613
 21
59.09272723572807
 31
0.0
  0
LINE
  5
1480
330
13CF
100
AcDbEntity
  8
Dimension (ANSI)
440
 16777216
100
AcDbLine
 10
45.68571478262613
 20
59.09272723572807
 30
0.0
 11
51.22071380732541
 21
62.93755133403116
 31
0.0
  0
MTEXT
  5
1481
102
{ACAD_XDICTIONARY
360
15BD
102
}
330
13CF
100
AcDbEntity
  8
Dimension (ANSI)
440
 16777216
100
AcDbMText
 10
42.65364634233107
 20
59.09272723572806
 30
0.0
 40
0.7000000104308129
 41
0.0
 71
     5
 72
     1
  1
\A1;\U+22050.563{\P(3 PL.)}
  7
ROMANS
 73
     1
 44
1.0
  0
SOLID
  5
1482
330
13CF
100
AcDbEntity
  8
Dimension (ANSI)
440
 16777216
100
AcDbTrace
 10
51.15520324825514
 20
63.03186016878942
 30
0.0
 11
51.28622436639568
 21
62.84324249927291
 31
0.0
 12
51.78656681587496
 22
63.33061468845277
 32
0.0
 13
51.78656681587496
 23
63.33061468845277
 33
0.0
  0
LINE
  5
1483
330
13CF
100
AcDbEntity
  8
Dimension (ANSI)
440
 16777216
100
AcDbLine
 10
51.38755610281112
 20
63.49106876855266
 30
0.0
 11
52.64755610281113
 21
63.49106876855266
 31
0.0
  0
LINE
  5
1484
330
13CF
100
AcDbEntity
  8
Dimension (ANSI)
440
 16777216
100
AcDbLine
 10
52.01755610281111
 20
62.86106876855266
 30
0.0
 11
52.01755610281113
 21
64.12106876855268
 31
0.0
  0
POINT
  5
1485
330
13CF
100
AcDbEntity
  8
Defpoints
 62
     0
440
 16777216
100
AcDbPoint
 10
51.78656681587496
 20
63.33061468845277
 30
0.0
  0
POINT
  5
1486
330
13CF
100
AcDbEntity
  8
Defpoints
 62
     0
440
 16777216
100
AcDbPoint
 10
52.24854538974728
 20
63.65152284865257
 30
0.0
  0
ENDBLK
  5
13D1
330
13CF
100
AcDbEntity
  8
0
100
AcDbBlockEnd
  0
BLOCK
  5
1489
330
1488
100
AcDbEntity
  8
0
100
AcDbBlockBegin
  2
*D23
 70
     1
 10
0.0
 20
0.0
 30
0.0
  3
*D23
  1

  0
LINE
  5
1567
330
1488
100
AcDbEntity
  8
Dimension (ANSI)
440
 16777216
100
AcDbLine
 10
20.83215997303613
 20
33.49261713725623
 30
0.0
 11
20.83215997303613
 21
30.474288554045
 31
0.0
  0
LINE
  5
1568
330
1488
100
AcDbEntity
  8
Dimension (ANSI)
440
 16777216
100
AcDbLine
 10
28.58215997303619
 20
33.27399327845446
 30
0.0
 11
28.58215997303619
 21
30.474288554045
 31
0.0
  0
LINE
  5
1569
330
1488
100
AcDbEntity
  8
Dimension (ANSI)
440
 16777216
100
AcDbLine
 10
21.52113633538374
 20
31.349288554045
 30
0.0
 11
23.42002084953004
 21
31.349288554045
 31
0.0
  0
LINE
  5
156A
330
1488
100
AcDbEntity
  8
Dimension (ANSI)
440
 16777216
100
AcDbLine
 10
27.89318361068858
 20
31.349288554045
 30
0.0
 11
25.99429909654228
 21
31.349288554045
 31
0.0
  0
SOLID
  5
156B
330
1488
100
AcDbEntity
  8
Dimension (ANSI)
440
 16777216
100
AcDbTrace
 10
21.52113633538374
 20
31.4641179477696
 30
0.0
 11
21.52113633538374
 21
31.2344591603204
 31
0.0
 12
20.83215997303613
 22
31.349288554045
 32
0.0
 13
20.83215997303613
 23
31.349288554045
 33
0.0
  0
SOLID
  5
156C
330
1488
100
AcDbEntity
  8
Dimension (ANSI)
440
 16777216
100
AcDbTrace
 10
27.89318361068858
 20
31.4641179477696
 30
0.0
 11
27.89318361068858
 21
31.2344591603204
 31
0.0
 12
28.58215997303619
 22
31.349288554045
 32
0.0
 13
28.58215997303619
 23
31.349288554045
 33
0.0
  0
MTEXT
  5
156D
330
1488
100
AcDbEntity
  8
Dimension (ANSI)
440
 16777216
100
AcDbMText
 10
23.64049329047492
 20
31.6992885592604
 30
0.0
 40
0.7000000104308129
 41
0.0
 71
     1
 72
     1
  1
\A1;7.75
  7
ROMANS
 73
     1
 44
1.0
  0
POINT
  5
156E
330
1488
100
AcDbEntity
  8
Defpoints
 62
     0
440
 16777216
100
AcDbPoint
 10
20.83215997303613
 20
33.93011713725623
 30
0.0
  0
POINT
  5
156F
330
1488
100
AcDbEntity
  8
Defpoints
 62
     0
440
 16777216
100
AcDbPoint
 10
28.58215997303619
 20
33.71149327845446
 30
0.0
  0
POINT
  5
1570
330
1488
100
AcDbEntity
  8
Defpoints
 62
     0
440
 16777216
100
AcDbPoint
 10
28.58215997303619
 20
31.349288554045
 30
0.0
  0
ENDBLK
  5
148A
330
1488
100
AcDbEntity
  8
0
100
AcDbBlockEnd
  0
ENDSEC
  0
SECTION
  2
ENTITIES
  0
SPLINE
  5
107
330
6C
100
AcDbEntity
  8
Visible (ANSI)
100
AcDbSpline
210
0.0
220
0.0
230
1.0
 70
     8
 71
     3
 72
    11
 73
     7
 74
     0
 42
0.0000000001
 43
0.0000000001
 40
0.0
 40
0.0
 40
0.0
 40
0.0
 40
0.9120227246350253
 40
0.9120227246350253
 40
0.9120227246350253
 40
1.570796326794911
 40
1.570796326794911
 40
1.570796326794911
 40
1.570796326794911
 10
56.86130610280608
 20
33.71136713725628
 30
0.0
 10
56.92780775981071
 20
33.71136713725628
 30
0.0
 10
56.99357243091555
 20
33.74362410432262
 30
0.0
 10
57.03428125708049
 20
33.79620986148778
 30
0.0
 10
57.06368611655162
 20
33.83419368330962
 30
0.0
 10
57.08005610280604
 20
33.88208156209877
 30
0.0
 10
57.08005610280604
 20
33.93011713725625
 30
0.0
  0
LINE
  5
108
330
6C
100
AcDbEntity
  8
Visible (ANSI)
100
AcDbLine
 10
56.86130610280608
 20
33.83636713725628
 30
0.0
 11
56.86130610280608
 21
33.71136713725628
 31
0.0
  0
LINE
  5
109
330
6C
100
AcDbEntity
  8
Visible (ANSI)
100
AcDbLine
 10
57.0005666780115
 20
33.93011713725625
 30
0.0
 11
57.08005610280611
 21
33.93011713725625
 31
0.0
  0
LINE
  5
10A
330
6C
100
AcDbEntity
  8
Visible (ANSI)
100
AcDbLine
 10
56.95505610280612
 20
33.93011713725625
 30
0.0
 11
57.0005666780115
 21
33.93011713725625
 31
0.0
  0
SPLINE
  5
10B
330
6C
100
AcDbEntity
  8
Visible (ANSI)
100
AcDbSpline
210
0.0
220
0.0
230
1.0
 70
     8
 71
     3
 72
    11
 73
     7
 74
     0
 42
0.0000000001
 43
0.0000000001
 40
0.0
 40
0.0
 40
0.0
 40
0.0
 40
1.127197082403468
 40
1.127197082403468
 40
1.127197082403468
 40
1.570796326794911
 40
1.570796326794911
 40
1.570796326794911
 40
1.570796326794911
 10
56.95505610280605
 20
33.93011713725625
 30
0.0
 10
56.95505610280605
 20
33.89489222843116
 30
0.0
 10
56.93335854456944
 20
33.86055923089279
 30
0.0
 10
56.90154295794279
 20
33.84544094232106
 30
0.0
 10
56.88902219257906
 20
33.83949126280928
 30
0.0
 10
56.87516857919331
 20
33.83636713725628
 30
0.0
 10
56.86130610280608
 20
33.83636713725628
 30
0.0
  0
LINE
  5
10C
330
6C
100
AcDbEntity
  8
Visible Narrow (ANSI)
100
AcDbLine
 10
47.17380610280609
 20
33.93011713725625
 30
0.0
 11
47.20505610280605
 21
33.93011713725625
 31
0.0
  0
LINE
  5
10D
330
6C
100
AcDbEntity
  8
Visible Narrow (ANSI)
100
AcDbLine
 10
56.83005610280606
 20
33.93011713725625
 30
0.0
 11
56.8613061028061
 21
33.93011713725625
 31
0.0
  0
SPLINE
  5
10E
330
6C
100
AcDbEntity
  8
Visible (ANSI)
100
AcDbSpline
210
0.0
220
0.0
230
1.0
 70
     8
 71
     3
 72
    11
 73
     7
 74
     0
 42
0.0000000001
 43
0.0000000001
 40
0.0
 40
0.0
 40
0.0
 40
0.0
 40
0.912022724634949
 40
0.912022724634949
 40
0.912022724634949
 40
1.570796326794896
 40
1.570796326794896
 40
1.570796326794896
 40
1.570796326794896
 10
46.95505610280609
 20
33.93011713725625
 30
0.0
 10
46.95505610280609
 20
33.86361548025162
 30
0.0
 10
46.98731306987244
 20
33.79785080914677
 30
0.0
 10
47.03989882703759
 20
33.75714198298183
 30
0.0
 10
47.07788264885945
 20
33.72773712351068
 30
0.0
 10
47.12577052764859
 20
33.71136713725625
 30
0.0
 10
47.17380610280609
 20
33.71136713725625
 30
0.0
  0
LINE
  5
10F
330
6C
100
AcDbEntity
  8
Visible (ANSI)
100
AcDbLine
 10
47.17380610280609
 20
33.83636713725625
 30
0.0
 11
47.17380610280609
 21
33.71136713725625
 31
0.0
  0
SPLINE
  5
110
330
6C
100
AcDbEntity
  8
Visible (ANSI)
100
AcDbSpline
210
0.0
220
0.0
230
1.0
 70
     8
 71
     3
 72
    11
 73
     7
 74
     0
 42
0.0000000001
 43
0.0000000001
 40
0.0
 40
0.0
 40
0.0
 40
0.0
 40
1.127197082403386
 40
1.127197082403386
 40
1.127197082403386
 40
1.570796326794896
 40
1.570796326794896
 40
1.570796326794896
 40
1.570796326794896
 10
47.0800561028061
 20
33.93011713725625
 30
0.0
 10
47.0800561028061
 20
33.89489222843114
 30
0.0
 10
47.10175366104271
 20
33.86055923089277
 30
0.0
 10
47.13356924766937
 20
33.84544094232103
 30
0.0
 10
47.14609001303311
 20
33.83949126280925
 30
0.0
 10
47.15994362641886
 20
33.83636713725625
 30
0.0
 10
47.17380610280609
 20
33.83636713725625
 30
0.0
  0
LINE
  5
111
330
6C
100
AcDbEntity
  8
Visible (ANSI)
100
AcDbLine
 10
47.03454552760069
 20
33.93011713725625
 30
0.0
 11
47.0800561028061
 21
33.93011713725625
 31
0.0
  0
LINE
  5
112
330
6C
100
AcDbEntity
  8
Visible (ANSI)
100
AcDbLine
 10
46.95505610280609
 20
33.93011713725625
 30
0.0
 11
47.03454552760069
 21
33.93011713725625
 31
0.0
  0
LINE
  5
113
330
6C
100
AcDbEntity
  8
Visible (ANSI)
100
AcDbLine
 10
56.86130610280608
 20
33.83636713725628
 30
0.0
 11
56.83005610280606
 21
33.83636713725628
 31
0.0
  0
LINE
  5
114
330
6C
100
AcDbEntity
  8
Visible (ANSI)
100
AcDbLine
 10
55.83005610280609
 20
33.71136713725628
 30
0.0
 11
56.86130610280608
 21
33.71136713725628
 31
0.0
  0
LINE
  5
115
330
6C
100
AcDbEntity
  8
Visible (ANSI)
100
AcDbLine
 10
55.83005610280609
 20
33.71149327845447
 30
0.0
 11
55.83005610280609
 21
33.71136713725628
 31
0.0
  0
LINE
  5
116
330
6C
100
AcDbEntity
  8
Visible (ANSI)
100
AcDbLine
 10
48.22715318971818
 20
33.71136713725625
 30
0.0
 11
55.807959015894
 21
33.71136713725625
 31
0.0
  0
LINE
  5
117
330
6C
100
AcDbEntity
  8
Visible (ANSI)
100
AcDbLine
 10
47.17380610280609
 20
33.83636713725625
 30
0.0
 11
47.20505610280606
 21
33.83636713725625
 31
0.0
  0
LINE
  5
118
330
6C
100
AcDbEntity
  8
Visible (ANSI)
100
AcDbLine
 10
47.17380610280609
 20
33.71136713725625
 30
0.0
 11
48.2050561028061
 21
33.71136713725625
 31
0.0
  0
LINE
  5
119
330
6C
100
AcDbEntity
  8
Visible (ANSI)
100
AcDbLine
 10
48.2050561028061
 20
33.71149327845446
 30
0.0
 11
48.2050561028061
 21
33.71136713725625
 31
0.0
  0
LINE
  5
11A
330
6C
100
AcDbEntity
  8
Visible (ANSI)
100
AcDbLine
 10
47.0800561028061
 20
33.93011713725625
 30
0.0
 11
47.17380610280609
 21
33.93011713725625
 31
0.0
  0
LINE
  5
11B
330
6C
100
AcDbEntity
  8
Visible (ANSI)
100
AcDbLine
 10
56.86130610280609
 20
33.93011713725625
 30
0.0
 11
56.95505610280608
 21
33.93011713725625
 31
0.0
  0
SPLINE
  5
11C
330
6C
100
AcDbEntity
  8
Visible (ANSI)
100
AcDbSpline
210
0.0
220
0.0
230
1.0
 70
     8
 71
     3
 72
     8
 73
     4
 74
     0
 42
0.0000000001
 43
0.0000000001
 40
0.0
 40
0.0
 40
0.0
 40
0.0
 40
0.4429110440736467
 40
0.4429110440736467
 40
0.4429110440736467
 40
0.4429110440736467
 10
47.17380610280609
 20
33.93011713725625
 30
0.0
 10
47.17588297801227
 20
33.89782154029254
 30
0.0
 10
47.17795985321845
 20
33.86569975577787
 30
0.0
 10
47.18003672842463
 20
33.8365371078663
 30
0.0
  0
SPLINE
  5
11D
330
6C
100
AcDbEntity
  8
Visible (ANSI)
100
AcDbSpline
210
0.0
220
0.0
230
1.0
 70
     8
 71
     3
 72
     8
 73
     4
 74
     0
 42
0.0000000001
 43
0.0000000001
 40
1.127885282721411
 40
1.127885282721411
 40
1.127885282721411
 40
1.127885282721411
 40
1.570796326794896
 40
1.570796326794896
 40
1.570796326794896
 40
1.570796326794896
 10
56.85507547718756
 20
33.83639566094474
 30
0.0
 10
56.85715235239374
 20
33.86559270550123
 30
0.0
 10
56.85922922759992
 20
33.89782154029255
 30
0.0
 10
56.86130610280609
 20
33.93011713725625
 30
0.0
  0
LINE
  5
11E
330
6C
100
AcDbEntity
  8
Visible (ANSI)
100
AcDbLine
 10
55.807959015894
 20
33.71136713725625
 30
0.0
 11
55.83005610280606
 21
33.71136713725625
 31
0.0
  0
LINE
  5
11F
330
6C
100
AcDbEntity
  8
Visible (ANSI)
100
AcDbLine
 10
55.807959015894
 20
33.71149327845447
 30
0.0
 11
55.807959015894
 21
33.71136713725625
 31
0.0
  0
SPLINE
  5
120
330
6C
100
AcDbEntity
  8
Visible (ANSI)
100
AcDbSpline
210
0.0
220
0.0
230
1.0
 70
     8
 71
     3
 72
    11
 73
     7
 74
     0
 42
0.0000000001
 43
0.0000000001
 40
0.0
 40
0.0
 40
0.0
 40
0.0
 40
1.12719708240338
 40
1.12719708240338
 40
1.12719708240338
 40
1.570796326794896
 40
1.570796326794896
 40
1.570796326794896
 40
1.570796326794896
 10
56.86130610280609
 20
33.93011713725625
 30
0.0
 10
56.85602050944769
 20
33.89489222843114
 30
0.0
 10
56.85073491608928
 20
33.86055923089277
 30
0.0
 10
56.84544932273089
 20
33.84544094232103
 30
0.0
 10
56.84336922045193
 20
33.83949126280926
 30
0.0
 10
56.84128911817297
 20
33.83636713725625
 30
0.0
 10
56.839209015894
 20
33.83636713725625
 30
0.0
  0
SPLINE
  5
121
330
6C
100
AcDbEntity
  8
Visible (ANSI)
100
AcDbSpline
210
0.0
220
0.0
230
1.0
 70
     8
 71
     3
 72
    11
 73
     7
 74
     0
 42
0.0000000001
 43
0.0000000001
 40
0.0
 40
0.0
 40
0.0
 40
0.0
 40
1.127197082403391
 40
1.127197082403391
 40
1.127197082403391
 40
1.570796326794895
 40
1.570796326794895
 40
1.570796326794895
 40
1.570796326794895
 10
47.17380610280609
 20
33.93011713725625
 30
0.0
 10
47.17909169616449
 20
33.89489222843114
 30
0.0
 10
47.1843772895229
 20
33.86055923089277
 30
0.0
 10
47.18966288288129
 20
33.84544094232103
 30
0.0
 10
47.19174298516025
 20
33.83949126280926
 30
0.0
 10
47.19382308743922
 20
33.83636713725625
 30
0.0
 10
47.19590318971818
 20
33.83636713725625
 30
0.0
  0
LINE
  5
122
330
6C
100
AcDbEntity
  8
Visible (ANSI)
100
AcDbLine
 10
48.2050561028061
 20
33.71136713725625
 30
0.0
 11
48.22715318971818
 21
33.71136713725625
 31
0.0
  0
LINE
  5
123
330
6C
100
AcDbEntity
  8
Visible (ANSI)
100
AcDbLine
 10
48.22715318971818
 20
33.71149327845446
 30
0.0
 11
48.22715318971818
 21
33.71136713725625
 31
0.0
  0
LINE
  5
124
330
6C
100
AcDbEntity
  8
Visible (ANSI)
100
AcDbLine
 10
46.95505610280609
 20
33.93011713725625
 30
0.0
 11
46.95505610280609
 21
51.49261713725625
 31
0.0
  0
LINE
  5
125
330
6C
100
AcDbEntity
  8
Visible (ANSI)
100
AcDbLine
 10
56.95505610280612
 20
33.93011713725625
 30
0.0
 11
56.95505610280613
 21
51.49261713725625
 31
0.0
  0
LINE
  5
126
330
6C
100
AcDbEntity
  8
Visible (ANSI)
100
AcDbLine
 10
57.08005610280613
 20
51.49261713725625
 30
0.0
 11
57.08005610280611
 21
33.93011713725625
 31
0.0
  0
LINE
  5
127
330
6C
100
AcDbEntity
  8
Visible (ANSI)
100
AcDbLine
 10
56.95505610280613
 20
51.49261713725625
 30
0.0
 11
57.08005610280613
 21
51.49261713725625
 31
0.0
  0
LINE
  5
128
330
6C
100
AcDbEntity
  8
Visible (ANSI)
100
AcDbLine
 10
47.0800561028061
 20
51.49261713725625
 30
0.0
 11
47.0800561028061
 21
33.93011713725625
 31
0.0
  0
LINE
  5
129
330
6C
100
AcDbEntity
  8
Visible (ANSI)
100
AcDbLine
 10
46.95505610280609
 20
51.49261713725625
 30
0.0
 11
47.0800561028061
 21
51.49261713725625
 31
0.0
  0
LINE
  5
12A
330
6C
100
AcDbEntity
  8
Visible Narrow (ANSI)
100
AcDbLine
 10
47.17380610280609
 20
51.49261713725625
 30
0.0
 11
47.17380610280609
 21
33.93011713725625
 31
0.0
  0
LINE
  5
12B
330
6C
100
AcDbEntity
  8
Visible Narrow (ANSI)
100
AcDbLine
 10
56.8613061028061
 20
33.93011713725625
 30
0.0
 11
56.86130610280609
 21
51.49261713725625
 31
0.0
  0
LINE
  5
12C
330
6C
100
AcDbEntity
  8
Visible (ANSI)
100
AcDbLine
 10
47.17380610280609
 20
51.49261713725625
 30
0.0
 11
47.0800561028061
 21
51.49261713725625
 31
0.0
  0
LINE
  5
12D
330
6C
100
AcDbEntity
  8
Visible (ANSI)
100
AcDbLine
 10
47.7050561028061
 20
51.58636713725621
 30
0.0
 11
47.17380610280609
 21
51.58636713725623
 31
0.0
  0
LINE
  5
12E
330
6C
100
AcDbEntity
  8
Visible (ANSI)
100
AcDbLine
 10
47.7050561028061
 20
51.71136713725621
 30
0.0
 11
47.17380610280609
 21
51.71136713725623
 31
0.0
  0
LINE
  5
12F
330
6C
100
AcDbEntity
  8
Visible (ANSI)
100
AcDbLine
 10
56.86130610280631
 20
51.71136713725633
 30
0.0
 11
56.3300561028065
 21
51.71136713725633
 31
0.0
  0
LINE
  5
130
330
6C
100
AcDbEntity
  8
Visible (ANSI)
100
AcDbLine
 10
56.3300561028065
 20
51.58636713725635
 30
0.0
 11
56.86130610280631
 21
51.58636713725634
 31
0.0
  0
LINE
  5
131
330
6C
100
AcDbEntity
  8
Visible (ANSI)
100
AcDbLine
 10
55.80795901589404
 20
51.58636713725625
 30
0.0
 11
48.22715318971818
 21
51.58636713725625
 31
0.0
  0
LINE
  5
132
330
6C
100
AcDbEntity
  8
Visible (ANSI)
100
AcDbLine
 10
55.80795901589404
 20
51.71136713725625
 30
0.0
 11
48.22715318971818
 21
51.71136713725625
 31
0.0
  0
LINE
  5
133
330
6C
100
AcDbEntity
  8
Visible (ANSI)
100
AcDbLine
 10
56.95505610280608
 20
51.49261713725625
 30
0.0
 11
56.86130610280609
 21
51.49261713725625
 31
0.0
  0
LINE
  5
134
330
6C
100
AcDbEntity
  8
Visible (ANSI)
100
AcDbLine
 10
48.2050561028061
 20
51.71136713725623
 30
0.0
 11
47.7050561028061
 21
51.71136713725621
 31
0.0
  0
LINE
  5
135
330
6C
100
AcDbEntity
  8
Visible (ANSI)
100
AcDbLine
 10
47.7050561028061
 20
51.71136713725621
 30
0.0
 11
47.7050561028061
 21
51.58636713725621
 31
0.0
  0
LINE
  5
136
330
6C
100
AcDbEntity
  8
Visible (ANSI)
100
AcDbLine
 10
47.7050561028061
 20
51.58636713725621
 30
0.0
 11
48.2050561028061
 21
51.58636713725623
 31
0.0
  0
LINE
  5
137
330
6C
100
AcDbEntity
  8
Visible (ANSI)
100
AcDbLine
 10
48.2050561028061
 20
51.58636713725623
 30
0.0
 11
48.2050561028061
 21
51.71136713725623
 31
0.0
  0
LINE
  5
138
330
6C
100
AcDbEntity
  8
Visible (ANSI)
100
AcDbLine
 10
56.3300561028065
 20
51.71136713725633
 30
0.0
 11
55.83005610280649
 21
51.71136713725633
 31
0.0
  0
LINE
  5
139
330
6C
100
AcDbEntity
  8
Visible (ANSI)
100
AcDbLine
 10
55.83005610280649
 20
51.71136713725633
 30
0.0
 11
55.83005610280649
 21
51.58636713725633
 31
0.0
  0
LINE
  5
13A
330
6C
100
AcDbEntity
  8
Visible (ANSI)
100
AcDbLine
 10
55.83005610280649
 20
51.58636713725633
 30
0.0
 11
56.3300561028065
 21
51.58636713725635
 31
0.0
  0
LINE
  5
13B
330
6C
100
AcDbEntity
  8
Visible (ANSI)
100
AcDbLine
 10
56.3300561028065
 20
51.58636713725635
 30
0.0
 11
56.3300561028065
 21
51.71136713725633
 31
0.0
  0
ARC
  5
13C
330
6C
100
AcDbEntity
  8
Visible (ANSI)
100
AcDbCircle
 10
47.17380610280609
 20
51.49261713725623
 30
0.0
 40
0.0937499999999875
100
AcDbArc
 50
90.0
 51
180.0
  0
ARC
  5
13D
330
6C
100
AcDbEntity
  8
Visible (ANSI)
100
AcDbCircle
 10
47.17380610280609
 20
51.49261713725623
 30
0.0
 40
0.2187499999999912
100
AcDbArc
 50
90.0
 51
180.0
  0
ARC
  5
13E
330
6C
100
AcDbEntity
  8
Visible (ANSI)
100
AcDbCircle
 10
56.86130610280631
 20
51.49261713725625
 30
0.0
 40
0.218750000000092
100
AcDbArc
 50
0.0
 51
90.0
  0
ARC
  5
13F
330
6C
100
AcDbEntity
  8
Visible (ANSI)
100
AcDbCircle
 10
56.86130610280631
 20
51.49261713725623
 30
0.0
 40
0.0937500000000994
100
AcDbArc
 50
0.0
 51
90.0
  0
LINE
  5
140
330
6C
100
AcDbEntity
  8
Visible Narrow (ANSI)
100
AcDbLine
 10
56.86130610280609
 20
51.49261713725625
 30
0.0
 11
47.17380610280609
 21
51.49261713725625
 31
0.0
  0
SPLINE
  5
141
330
6C
100
AcDbEntity
  8
Visible (ANSI)
100
AcDbSpline
210
0.0
220
0.0
230
1.0
 70
     8
 71
     3
 72
     8
 73
     4
 74
     0
 42
0.0000000001
 43
0.0000000001
 40
0.0
 40
0.0
 40
0.0
 40
0.0
 40
0.4429110440741254
 40
0.4429110440741254
 40
0.4429110440741254
 40
0.4429110440741254
 10
56.86130610280609
 20
51.49261713725625
 30
0.0
 10
56.85922922759991
 20
51.52491273421997
 30
0.0
 10
56.85715235239374
 20
51.55703451873469
 30
0.0
 10
56.85507547718755
 20
51.58619716664628
 30
0.0
  0
SPLINE
  5
142
330
6C
100
AcDbEntity
  8
Visible (ANSI)
100
AcDbSpline
210
0.0
220
0.0
230
1.0
 70
     8
 71
     3
 72
     8
 73
     4
 74
     0
 42
0.0000000001
 43
0.0000000001
 40
1.127885282721323
 40
1.127885282721323
 40
1.127885282721323
 40
1.127885282721323
 40
1.570796326794894
 40
1.570796326794894
 40
1.570796326794894
 40
1.570796326794894
 10
47.18003672842463
 20
51.58633861356776
 30
0.0
 10
47.17795985321844
 20
51.55714156901127
 30
0.0
 10
47.17588297801227
 20
51.52491273421993
 30
0.0
 10
47.17380610280609
 20
51.49261713725625
 30
0.0
  0
LINE
  5
143
330
6C
100
AcDbEntity
  8
Visible (ANSI)
100
AcDbLine
 10
55.83005610280631
 20
51.58636713725623
 30
0.0
 11
55.80795901589404
 21
51.58636713725625
 31
0.0
  0
LINE
  5
144
330
6C
100
AcDbEntity
  8
Visible (ANSI)
100
AcDbLine
 10
48.2050561028061
 20
51.58636713725623
 30
0.0
 11
48.22715318971818
 21
51.58636713725625
 31
0.0
  0
LINE
  5
145
330
6C
100
AcDbEntity
  8
Visible (ANSI)
100
AcDbLine
 10
48.22715318971818
 20
51.71136713725625
 30
0.0
 11
48.2050561028061
 21
51.71136713725625
 31
0.0
  0
LINE
  5
146
330
6C
100
AcDbEntity
  8
Visible (ANSI)
100
AcDbLine
 10
48.22715318971818
 20
51.58636713725625
 30
0.0
 11
48.22715318971818
 21
51.71136713725625
 31
0.0
  0
SPLINE
  5
147
330
6C
100
AcDbEntity
  8
Visible (ANSI)
100
AcDbSpline
210
0.0
220
0.0
230
1.0
 70
     8
 71
     3
 72
    11
 73
     7
 74
     0
 42
0.0000000001
 43
0.0000000001
 40
0.0
 40
0.0
 40
0.0
 40
0.0
 40
1.127197082403222
 40
1.127197082403222
 40
1.127197082403222
 40
1.570796326794894
 40
1.570796326794894
 40
1.570796326794894
 40
1.570796326794894
 10
47.17380610280609
 20
51.49261713725625
 30
0.0
 10
47.17909169616449
 20
51.52784204608135
 30
0.0
 10
47.18437728952289
 20
51.56217504361971
 30
0.0
 10
47.18966288288128
 20
51.57729333219145
 30
0.0
 10
47.19174298516025
 20
51.58324301170323
 30
0.0
 10
47.1938230874392
 20
51.58636713725623
 30
0.0
 10
47.19590318971817
 20
51.58636713725623
 30
0.0
  0
SPLINE
  5
148
330
6C
100
AcDbEntity
  8
Visible (ANSI)
100
AcDbSpline
210
0.0
220
0.0
230
1.0
 70
     8
 71
     3
 72
    11
 73
     7
 74
     0
 42
0.0000000001
 43
0.0000000001
 40
0.0
 40
0.0
 40
0.0
 40
0.0
 40
1.127197082403222
 40
1.127197082403222
 40
1.127197082403222
 40
1.570796326794894
 40
1.570796326794894
 40
1.570796326794894
 40
1.570796326794894
 10
56.86130610280609
 20
51.49261713725625
 30
0.0
 10
56.85602050944769
 20
51.52784204608135
 30
0.0
 10
56.85073491608928
 20
51.56217504361971
 30
0.0
 10
56.84544932273089
 20
51.57729333219145
 30
0.0
 10
56.84336922045193
 20
51.58324301170323
 30
0.0
 10
56.84128911817296
 20
51.58636713725623
 30
0.0
 10
56.839209015894
 20
51.58636713725623
 30
0.0
  0
LINE
  5
149
330
6C
100
AcDbEntity
  8
Visible (ANSI)
100
AcDbLine
 10
55.83005610280631
 20
51.71136713725625
 30
0.0
 11
55.80795901589404
 21
51.71136713725625
 31
0.0
  0
LINE
  5
14A
330
6C
100
AcDbEntity
  8
Visible (ANSI)
100
AcDbLine
 10
55.80795901589404
 20
51.58636713725625
 30
0.0
 11
55.80795901589404
 21
51.71136713725625
 31
0.0
  0
LINE
  5
14B
330
6C
100
AcDbEntity
  8
Visible (ANSI)
100
AcDbLine
 10
56.70505610280605
 20
33.83649327845446
 30
0.0
 11
56.83005610280606
 21
33.83649327845446
 31
0.0
  0
LINE
  5
14C
330
6C
100
AcDbEntity
  8
Visible Narrow (ANSI)
100
AcDbLine
 10
56.70505610280605
 20
33.83649327845446
 30
0.0
 11
56.70505610280605
 21
33.71149327845446
 31
0.0
  0
LINE
  5
14D
330
6C
100
AcDbEntity
  8
Visible (ANSI)
100
AcDbLine
 10
56.83005610280606
 20
33.71149327845446
 30
0.0
 11
56.70505610280605
 21
33.71149327845446
 31
0.0
  0
LINE
  5
14E
330
6C
100
AcDbEntity
  8
Visible (ANSI)
100
AcDbLine
 10
56.83005610280606
 20
33.71149327845446
 30
0.0
 11
56.83005610280606
 21
33.83649327845446
 31
0.0
  0
LINE
  5
14F
330
6C
100
AcDbEntity
  8
Visible (ANSI)
100
AcDbLine
 10
47.33005610280605
 20
33.71149327845446
 30
0.0
 11
47.20505610280605
 21
33.71149327845446
 31
0.0
  0
LINE
  5
150
330
6C
100
AcDbEntity
  8
Visible (ANSI)
100
AcDbLine
 10
47.20505610280605
 20
33.83649327845446
 30
0.0
 11
47.33005610280605
 21
33.83649327845446
 31
0.0
  0
LINE
  5
151
330
6C
100
AcDbEntity
  8
Visible (ANSI)
100
AcDbLine
 10
47.20505610280605
 20
33.83649327845446
 30
0.0
 11
47.20505610280605
 21
33.71149327845446
 31
0.0
  0
LINE
  5
152
330
6C
100
AcDbEntity
  8
Visible Narrow (ANSI)
100
AcDbLine
 10
47.33005610280605
 20
33.71149327845446
 30
0.0
 11
47.33005610280605
 21
33.83649327845446
 31
0.0
  0
LINE
  5
153
330
6C
100
AcDbEntity
  8
Visible (ANSI)
100
AcDbLine
 10
56.83005610280606
 20
33.96136713725626
 30
0.0
 11
56.83005610280606
 21
33.89729674564082
 31
0.0
  0
LINE
  5
154
330
6C
100
AcDbEntity
  8
Visible (ANSI)
100
AcDbLine
 10
47.20505610280605
 20
33.96136713725626
 30
0.0
 11
47.20505610280605
 21
33.89729674564082
 31
0.0
  0
LINE
  5
155
330
6C
100
AcDbEntity
  8
Visible (ANSI)
100
AcDbLine
 10
56.83005610280606
 20
33.96136713725626
 30
0.0
 11
47.20505610280605
 21
33.96136713725626
 31
0.0
  0
LINE
  5
156
330
6C
100
AcDbEntity
  8
Visible Narrow (ANSI)
100
AcDbLine
 10
56.83005610280606
 20
33.89729674564082
 30
0.0
 11
47.20505610280605
 21
33.89729674564082
 31
0.0
  0
LINE
  5
157
330
6C
100
AcDbEntity
  8
Visible (ANSI)
100
AcDbLine
 10
56.83005610280606
 20
33.86395201771823
 30
0.0
 11
56.83005610280606
 21
33.89729674564082
 31
0.0
  0
LINE
  5
158
330
6C
100
AcDbEntity
  8
Visible (ANSI)
100
AcDbLine
 10
47.20505610280605
 20
33.89729674564082
 30
0.0
 11
47.20505610280605
 21
33.86395201771822
 31
0.0
  0
LINE
  5
159
330
6C
100
AcDbEntity
  8
Visible (ANSI)
100
AcDbLine
 10
56.83005610280606
 20
33.83649327845446
 30
0.0
 11
56.83005610280606
 21
33.86395201771823
 31
0.0
  0
LINE
  5
15A
330
6C
100
AcDbEntity
  8
Visible (ANSI)
100
AcDbLine
 10
47.20505610280605
 20
33.83649327845446
 30
0.0
 11
47.20505610280605
 21
33.86395201771822
 31
0.0
  0
LINE
  5
15B
330
6C
100
AcDbEntity
  8
Visible Narrow (ANSI)
100
AcDbLine
 10
56.83005610280606
 20
33.86395201771823
 30
0.0
 11
47.20505610280605
 21
33.86395201771822
 31
0.0
  0
LINE
  5
15C
330
6C
100
AcDbEntity
  8
Visible (ANSI)
100
AcDbLine
 10
47.33005610280605
 20
33.71149327845446
 30
0.0
 11
56.70505610280605
 21
33.71149327845446
 31
0.0
  0
LINE
  5
15D
330
6C
100
AcDbEntity
  8
Visible (ANSI)
100
AcDbLine
 10
56.70505610280605
 20
33.83649327845446
 30
0.0
 11
47.33005610280605
 21
33.83649327845446
 31
0.0
  0
MTEXT
  5
15F
330
6C
100
AcDbEntity
  8
Symbol (ANSI)
100
AcDbMText
 10
48.75300671859367
 20
30.3828687193311
 30
0.0
 40
0.8400000103815333
 41
0.0
 71
     7
 72
     1
  1
FRONT VIEW
  7
Text Style168
 73
     1
 44
1.0
  0
LINE
  5
161
330
6C
100
AcDbEntity
  8
Symbol (ANSI)
370
    30
100
AcDbLine
 10
48.66900650251496
 20
30.21156725770687
 30
0.0
 11
55.4223615325147
 21
30.21156725770687
 31
0.0
  0
SPLINE
  5
162
330
6C
100
AcDbEntity
  8
Visible (ANSI)
100
AcDbSpline
210
0.0
220
0.0
230
1.0
 70
     8
 71
     3
 72
    11
 73
     7
 74
     0
 42
0.0000000001
 43
0.0000000001
 40
0.0
 40
0.0
 40
0.0
 40
0.0
 40
0.9120227246349509
 40
0.9120227246349509
 40
0.9120227246349509
 40
1.570796326794895
 40
1.570796326794895
 40
1.570796326794895
 40
1.570796326794895
 10
20.83215997303614
 20
33.93011713725624
 30
0.0
 10
20.83215997303614
 20
33.8636154802516
 30
0.0
 10
20.86441694010247
 20
33.79785080914676
 30
0.0
 10
20.91700269726764
 20
33.75714198298182
 30
0.0
 10
20.95498651908949
 20
33.72773712351067
 30
0.0
 10
21.00287439787865
 20
33.71136713725624
 30
0.0
 10
21.05090997303614
 20
33.71136713725624
 30
0.0
  0
LINE
  5
163
330
6C
100
AcDbEntity
  8
Visible (ANSI)
100
AcDbLine
 10
21.05090997303614
 20
33.83636713725624
 30
0.0
 11
21.05714059865467
 21
33.83636713725624
 31
0.0
  0
LINE
  5
164
330
6C
100
AcDbEntity
  8
Visible (ANSI)
100
AcDbLine
 10
21.05090997303614
 20
33.83636713725624
 30
0.0
 11
21.05090997303614
 21
33.71136713725624
 31
0.0
  0
SPLINE
  5
165
330
6C
100
AcDbEntity
  8
Visible (ANSI)
100
AcDbSpline
210
0.0
220
0.0
230
1.0
 70
     8
 71
     3
 72
    11
 73
     7
 74
     0
 42
0.0000000001
 43
0.0000000001
 40
0.0
 40
0.0
 40
0.0
 40
0.0
 40
1.127197082403391
 40
1.127197082403391
 40
1.127197082403391
 40
1.570796326794895
 40
1.570796326794895
 40
1.570796326794895
 40
1.570796326794895
 10
20.95715997303614
 20
33.93011713725624
 30
0.0
 10
20.95715997303614
 20
33.89489222843113
 30
0.0
 10
20.97885753127275
 20
33.86055923089275
 30
0.0
 10
21.01067311789942
 20
33.84544094232103
 30
0.0
 10
21.02319388326316
 20
33.83949126280925
 30
0.0
 10
21.03704749664891
 20
33.83636713725624
 30
0.0
 10
21.05090997303614
 20
33.83636713725624
 30
0.0
  0
LINE
  5
166
330
6C
100
AcDbEntity
  8
Visible (ANSI)
100
AcDbLine
 10
21.05090997303614
 20
33.71136713725624
 30
0.0
 11
21.07300705994823
 21
33.71136713725624
 31
0.0
  0
SPLINE
  5
167
330
6C
100
AcDbEntity
  8
Visible (ANSI)
100
AcDbSpline
210
0.0
220
0.0
230
1.0
 70
     8
 71
     3
 72
    11
 73
     7
 74
     0
 42
0.0000000001
 43
0.0000000001
 40
0.0
 40
0.0
 40
0.0
 40
0.0
 40
0.912022724634949
 40
0.912022724634949
 40
0.912022724634949
 40
1.570796326794896
 40
1.570796326794896
 40
1.570796326794896
 40
1.570796326794896
 10
21.07300705994822
 20
33.71136713725624
 30
0.0
 10
21.06873045088729
 20
33.71136713725624
 30
0.0
 10
21.06445384182636
 20
33.74362410432257
 30
0.0
 10
21.06017723276544
 20
33.79620986148774
 30
0.0
 10
21.05708814618898
 20
33.83419368330958
 30
0.0
 10
21.05399905961252
 20
33.88208156209874
 30
0.0
 10
21.05090997303607
 20
33.93011713725624
 30
0.0
  0
LINE
  5
168
330
6C
100
AcDbEntity
  8
Visible (ANSI)
100
AcDbLine
 10
26.8321599730362
 20
33.71136713725624
 30
0.0
 11
21.07300705994822
 21
33.71136713725624
 31
0.0
  0
SPLINE
  5
169
330
6C
100
AcDbEntity
  8
Visible (ANSI)
100
AcDbSpline
210
0.0
220
0.0
230
1.0
 70
     8
 71
     3
 72
    11
 73
     7
 74
     0
 42
0.0000000001
 43
0.0000000001
 40
0.0
 40
0.0
 40
0.0
 40
0.0
 40
0.912022724634949
 40
0.912022724634949
 40
0.912022724634949
 40
1.570796326794896
 40
1.570796326794896
 40
1.570796326794896
 40
1.570796326794896
 10
26.85676454245617
 20
33.93011713725623
 30
0.0
 10
26.85200264216857
 20
33.8636154802516
 30
0.0
 10
26.847240741881
 20
33.79785080914676
 30
0.0
 10
26.84247884159342
 20
33.75714198298182
 30
0.0
 10
26.83903921874101
 20
33.72773712351067
 30
0.0
 10
26.8355995958886
 20
33.71136713725624
 30
0.0
 10
26.8321599730362
 20
33.71136713725624
 30
0.0
  0
LINE
  5
16A
330
6C
100
AcDbEntity
  8
Visible Narrow (ANSI)
100
AcDbLine
 10
21.05090997303607
 20
33.93011713725624
 30
0.0
 11
26.85676454245616
 21
33.93011713725623
 31
0.0
  0
LINE
  5
16B
330
6C
100
AcDbEntity
  8
Visible (ANSI)
100
AcDbLine
 10
21.05090997303607
 20
33.93011713725624
 30
0.0
 11
20.83215997303614
 21
33.93011713725624
 31
0.0
  0
LINE
  5
16C
330
6C
100
AcDbEntity
  8
Visible (ANSI)
100
AcDbLine
 10
26.85676454245617
 20
33.93011713725623
 30
0.0
 11
28.83215997303608
 21
51.49261713725623
 31
0.0
  0
LINE
  5
16D
330
6C
100
AcDbEntity
  8
Visible Narrow (ANSI)
100
AcDbLine
 10
28.83215997303608
 20
51.49261713725623
 30
0.0
 11
21.05090997303607
 21
51.49261713725623
 31
0.0
  0
LINE
  5
16E
330
6C
100
AcDbEntity
  8
Visible (ANSI)
100
AcDbLine
 10
28.83215997303608
 20
51.49261713725622
 30
0.0
 11
28.83215997303614
 21
51.71136713725621
 31
0.0
  0
LINE
  5
16F
330
6C
100
AcDbEntity
  8
Visible (ANSI)
100
AcDbLine
 10
21.07300705994822
 20
51.71136713725623
 30
0.0
 11
28.83215997303614
 21
51.71136713725622
 31
0.0
  0
LINE
  5
170
330
6C
100
AcDbEntity
  8
Visible Narrow (ANSI)
100
AcDbLine
 10
21.05090997303607
 20
51.49261713725623
 30
0.0
 11
21.05090997303607
 21
33.93011713725624
 31
0.0
  0
LINE
  5
171
330
6C
100
AcDbEntity
  8
Visible (ANSI)
100
AcDbLine
 10
20.83215997303613
 20
33.93011713725624
 30
0.0
 11
20.83215997303614
 21
51.49261713725623
 31
0.0
  0
SPLINE
  5
172
330
6C
100
AcDbEntity
  8
Visible (ANSI)
100
AcDbSpline
210
0.0
220
0.0
230
1.0
 70
     8
 71
     3
 72
    11
 73
     7
 74
     0
 42
0.0000000001
 43
0.0000000001
 40
0.0
 40
0.0
 40
0.0
 40
0.0
 40
0.9120227246349069
 40
0.9120227246349069
 40
0.9120227246349069
 40
1.570796326794894
 40
1.570796326794894
 40
1.570796326794894
 40
1.570796326794894
 10
21.05090997303614
 20
51.71136713725623
 30
0.0
 10
20.98440831603151
 20
51.71136713725623
 30
0.0
 10
20.91864364492667
 20
51.6791101701899
 30
0.0
 10
20.87793481876173
 20
51.62652441302474
 30
0.0
 10
20.84852995929058
 20
51.58854059120289
 30
0.0
 10
20.83215997303614
 20
51.54065271241373
 30
0.0
 10
20.83215997303614
 20
51.49261713725623
 30
0.0
  0
LINE
  5
173
330
6C
100
AcDbEntity
  8
Visible (ANSI)
100
AcDbLine
 10
21.05090997303614
 20
51.58636713725623
 30
0.0
 11
21.05714059865468
 21
51.58636713725623
 31
0.0
  0
LINE
  5
174
330
6C
100
AcDbEntity
  8
Visible (ANSI)
100
AcDbLine
 10
21.07300705994823
 20
51.71136713725623
 30
0.0
 11
21.05090997303614
 21
51.71136713725623
 31
0.0
  0
LINE
  5
175
330
6C
100
AcDbEntity
  8
Visible (ANSI)
100
AcDbLine
 10
21.05090997303614
 20
51.58636713725623
 30
0.0
 11
21.05090997303614
 21
51.71136713725623
 31
0.0
  0
SPLINE
  5
176
330
6C
100
AcDbEntity
  8
Visible (ANSI)
100
AcDbSpline
210
0.0
220
0.0
230
1.0
 70
     8
 71
     3
 72
    11
 73
     7
 74
     0
 42
0.0000000001
 43
0.0000000001
 40
0.0
 40
0.0
 40
0.0
 40
0.0
 40
1.127197082403222
 40
1.127197082403222
 40
1.127197082403222
 40
1.570796326794894
 40
1.570796326794894
 40
1.570796326794894
 40
1.570796326794894
 10
20.95715997303614
 20
51.49261713725623
 30
0.0
 10
20.95715997303614
 20
51.52784204608133
 30
0.0
 10
20.97885753127274
 20
51.5621750436197
 30
0.0
 10
21.0106731178994
 20
51.57729333219143
 30
0.0
 10
21.02319388326314
 20
51.58324301170322
 30
0.0
 10
21.0370474966489
 20
51.58636713725623
 30
0.0
 10
21.05090997303614
 20
51.58636713725623
 30
0.0
  0
SPLINE
  5
177
330
6C
100
AcDbEntity
  8
Visible (ANSI)
100
AcDbSpline
210
0.0
220
0.0
230
1.0
 70
     8
 71
     3
 72
    11
 73
     7
 74
     0
 42
0.0000000001
 43
0.0000000001
 40
0.0
 40
0.0
 40
0.0
 40
0.0
 40
0.9120227246350472
 40
0.9120227246350472
 40
0.9120227246350472
 40
1.570796326794894
 40
1.570796326794894
 40
1.570796326794894
 40
1.570796326794894
 10
21.05090997303607
 20
51.49261713725623
 30
0.0
 10
21.05518658209698
 20
51.55911879426088
 30
0.0
 10
21.0594631911579
 20
51.62488346536573
 30
0.0
 10
21.06373980021883
 20
51.66559229153067
 30
0.0
 10
21.06682888679529
 20
51.6949971510018
 30
0.0
 10
21.06991797337176
 20
51.71136713725623
 30
0.0
 10
21.07300705994822
 20
51.71136713725623
 30
0.0
  0
LINE
  5
178
330
6C
100
AcDbEntity
  8
Visible (ANSI)
100
AcDbLine
 10
20.83215997303614
 20
51.49261713725623
 30
0.0
 11
21.05090997303607
 21
51.49261713725623
 31
0.0
  0
LINE
  5
179
330
6C
100
AcDbEntity
  8
Visible (ANSI)
100
AcDbLine
 10
28.58215997303618
 20
33.71149327845446
 30
0.0
 11
28.45715997303614
 21
33.71149327845446
 31
0.0
  0
LINE
  5
17A
330
6C
100
AcDbEntity
  8
Visible (ANSI)
100
AcDbLine
 10
28.45715997303614
 20
33.83649327845445
 30
0.0
 11
28.58215997303618
 21
33.83649327845445
 31
0.0
  0
LINE
  5
17B
330
6C
100
AcDbEntity
  8
Visible Narrow (ANSI)
100
AcDbLine
 10
28.45715997303615
 20
33.83649327845445
 30
0.0
 11
28.45715997303615
 21
33.71149327845446
 31
0.0
  0
LINE
  5
17C
330
6C
100
AcDbEntity
  8
Visible (ANSI)
100
AcDbLine
 10
28.58215997303619
 20
33.71149327845446
 30
0.0
 11
28.58215997303619
 21
33.83649327845445
 31
0.0
  0
LINE
  5
17D
330
6C
100
AcDbEntity
  8
Visible (ANSI)
100
AcDbLine
 10
27.08226918980526
 20
33.71149327845446
 30
0.0
 11
28.45715997303615
 21
33.71149327845446
 31
0.0
  0
LINE
  5
17E
330
6C
100
AcDbEntity
  8
Visible (ANSI)
100
AcDbLine
 10
28.45715997303615
 20
33.83649327845445
 30
0.0
 11
27.08226918980526
 21
33.83649327845445
 31
0.0
  0
ARC
  5
17F
330
6C
100
AcDbEntity
  8
Visible (ANSI)
100
AcDbCircle
 10
27.08226918980526
 20
33.93024327845445
 30
0.0
 40
0.0937499999999998
100
AcDbArc
 50
225.0
 51
270.0
  0
ARC
  5
180
330
6C
100
AcDbEntity
  8
Visible (ANSI)
100
AcDbCircle
 10
27.08226918980526
 20
33.93024327845445
 30
0.0
 40
0.218749999999999
100
AcDbArc
 50
225.0000000000009
 51
270.0000000000013
  0
LINE
  5
181
330
6C
100
AcDbEntity
  8
Visible (ANSI)
100
AcDbLine
 10
26.98263320114643
 20
33.8972967456408
 30
0.0
 11
27.01597792906902
 21
33.86395201771821
 31
0.0
  0
LINE
  5
182
330
6C
100
AcDbEntity
  8
Visible (ANSI)
100
AcDbLine
 10
26.9275895814207
 20
33.77556367006989
 30
0.0
 11
26.89424485349811
 21
33.80890839799248
 31
0.0
  0
ARC
  5
183
330
6C
100
AcDbEntity
  8
Visible (ANSI)
100
AcDbCircle
 10
26.82795359276187
 20
33.74261713725625
 30
0.0
 40
0.2187500000000017
100
AcDbArc
 50
44.99999999999999
 51
81.57232142648966
  0
ARC
  5
184
330
6C
100
AcDbEntity
  8
Visible (ANSI)
100
AcDbCircle
 10
26.82795359276187
 20
33.74261713725625
 30
0.0
 40
0.0937500000000009
100
AcDbArc
 50
44.99999999999999
 51
76.63450641583406
  0
MTEXT
  5
185
330
6C
100
AcDbEntity
  8
Symbol (ANSI)
100
AcDbMText
 10
21.33089202894736
 20
28.63505780131532
 30
0.0
 40
0.8400000103815333
 41
0.0
 71
     7
 72
     1
  1
LEFT VIEW
  7
Text Style168
 73
     1
 44
1.0
  0
LINE
  5
186
330
6C
100
AcDbEntity
  8
Symbol (ANSI)
370
    30
100
AcDbLine
 10
21.24689181286865
 20
28.44605779897947
 30
0.0
 11
26.91723213688003
 21
28.44605779897947
 31
0.0
  0
LINE
  5
187
330
6C
100
AcDbEntity
  8
Visible (ANSI)
100
AcDbLine
 10
79.65914159083725
 20
33.71136713725621
 30
0.0
 11
73.89998867774933
 21
33.71136713725628
 31
0.0
  0
LINE
  5
188
330
6C
100
AcDbEntity
  8
Visible Narrow (ANSI)
100
AcDbLine
 10
73.87538410832937
 20
33.93011713725625
 30
0.0
 11
79.68123867774941
 21
33.93011713725625
 31
0.0
  0
SPLINE
  5
189
330
6C
100
AcDbEntity
  8
Visible (ANSI)
100
AcDbSpline
210
0.0
220
0.0
230
1.0
 70
     8
 71
     3
 72
    11
 73
     7
 74
     0
 42
0.0000000001
 43
0.0000000001
 40
0.0
 40
0.0
 40
0.0
 40
0.0
 40
0.9120227246350253
 40
0.9120227246350253
 40
0.9120227246350253
 40
1.570796326794911
 40
1.570796326794911
 40
1.570796326794911
 40
1.570796326794911
 10
73.89998867774933
 20
33.71136713725628
 30
0.0
 10
73.89522677746175
 20
33.71136713725628
 30
0.0
 10
73.89046487717418
 20
33.74362410432261
 30
0.0
 10
73.88570297688662
 20
33.79620986148778
 30
0.0
 10
73.8822633540342
 20
33.83419368330962
 30
0.0
 10
73.87882373118178
 20
33.88208156209876
 30
0.0
 10
73.87538410832937
 20
33.93011713725625
 30
0.0
  0
SPLINE
  5
18A
330
6C
100
AcDbEntity
  8
Visible (ANSI)
100
AcDbSpline
210
0.0
220
0.0
230
1.0
 70
     8
 71
     3
 72
    11
 73
     7
 74
     0
 42
0.0000000001
 43
0.0000000001
 40
0.0
 40
0.0
 40
0.0
 40
0.0
 40
0.912022724634893
 40
0.912022724634893
 40
0.912022724634893
 40
1.570796326794896
 40
1.570796326794896
 40
1.570796326794896
 40
1.570796326794896
 10
79.68123867774939
 20
33.93011713725625
 30
0.0
 10
79.67696206868848
 20
33.8636154802516
 30
0.0
 10
79.67268545962756
 20
33.79785080914675
 30
0.0
 10
79.66840885056663
 20
33.7571419829818
 30
0.0
 10
79.66531976399018
 20
33.72773712351065
 30
0.0
 10
79.66223067741371
 20
33.71136713725621
 30
0.0
 10
79.65914159083725
 20
33.71136713725621
 30
0.0
  0
SPLINE
  5
18B
330
6C
100
AcDbEntity
  8
Visible (ANSI)
100
AcDbSpline
210
0.0
220
0.0
230
1.0
 70
     8
 71
     3
 72
    11
 73
     7
 74
     0
 42
0.0000000001
 43
0.0000000001
 40
0.0
 40
0.0
 40
0.0
 40
0.0
 40
0.91202272463495
 40
0.91202272463495
 40
0.91202272463495
 40
1.570796326794896
 40
1.570796326794896
 40
1.570796326794896
 40
1.570796326794896
 10
79.68123867774932
 20
33.71136713725624
 30
0.0
 10
79.74774033475395
 20
33.71136713725624
 30
0.0
 10
79.81350500585882
 20
33.74362410432257
 30
0.0
 10
79.85421383202375
 20
33.79620986148775
 30
0.0
 10
79.8836186914949
 20
33.83419368330959
 30
0.0
 10
79.89998867774933
 20
33.88208156209875
 30
0.0
 10
79.89998867774933
 20
33.93011713725625
 30
0.0
  0
LINE
  5
18C
330
6C
100
AcDbEntity
  8
Visible (ANSI)
100
AcDbLine
 10
79.68123867774932
 20
33.83636713725624
 30
0.0
 11
79.67500805213081
 21
33.83636713725624
 31
0.0
  0
LINE
  5
18D
330
6C
100
AcDbEntity
  8
Visible (ANSI)
100
AcDbLine
 10
79.65914159083723
 20
33.71136713725624
 30
0.0
 11
79.68123867774932
 21
33.71136713725624
 31
0.0
  0
LINE
  5
18E
330
6C
100
AcDbEntity
  8
Visible (ANSI)
100
AcDbLine
 10
79.68123867774932
 20
33.83636713725624
 30
0.0
 11
79.68123867774932
 21
33.71136713725624
 31
0.0
  0
SPLINE
  5
18F
330
6C
100
AcDbEntity
  8
Visible (ANSI)
100
AcDbSpline
210
0.0
220
0.0
230
1.0
 70
     8
 71
     3
 72
    11
 73
     7
 74
     0
 42
0.0000000001
 43
0.0000000001
 40
0.0
 40
0.0
 40
0.0
 40
0.0
 40
1.12719708240338
 40
1.12719708240338
 40
1.12719708240338
 40
1.570796326794896
 40
1.570796326794896
 40
1.570796326794896
 40
1.570796326794896
 10
79.77498867774933
 20
33.93011713725625
 30
0.0
 10
79.77498867774933
 20
33.89489222843113
 30
0.0
 10
79.75329111951272
 20
33.86055923089276
 30
0.0
 10
79.72147553288604
 20
33.84544094232103
 30
0.0
 10
79.70895476752231
 20
33.83949126280925
 30
0.0
 10
79.69510115413656
 20
33.83636713725624
 30
0.0
 10
79.68123867774932
 20
33.83636713725624
 30
0.0
  0
LINE
  5
190
330
6C
100
AcDbEntity
  8
Visible (ANSI)
100
AcDbLine
 10
79.89998867774933
 20
33.93011713725625
 30
0.0
 11
79.68123867774941
 21
33.93011713725625
 31
0.0
  0
LINE
  5
191
330
6C
100
AcDbEntity
  8
Visible (ANSI)
100
AcDbLine
 10
79.89998867774933
 20
51.49261713725623
 30
0.0
 11
79.89998867774933
 21
33.93011713725625
 31
0.0
  0
LINE
  5
192
330
6C
100
AcDbEntity
  8
Visible Narrow (ANSI)
100
AcDbLine
 10
79.68123867774939
 20
33.93011713725625
 30
0.0
 11
79.68123867774939
 21
51.49261713725623
 31
0.0
  0
LINE
  5
193
330
6C
100
AcDbEntity
  8
Visible (ANSI)
100
AcDbLine
 10
79.68123867774939
 20
51.49261713725623
 30
0.0
 11
79.89998867774933
 21
51.49261713725623
 31
0.0
  0
LINE
  5
194
330
6C
100
AcDbEntity
  8
Visible (ANSI)
100
AcDbLine
 10
71.8999886777494
 20
51.49261713725623
 30
0.0
 11
73.87538410832937
 21
33.93011713725625
 31
0.0
  0
LINE
  5
195
330
6C
100
AcDbEntity
  8
Visible (ANSI)
100
AcDbLine
 10
71.89998867774933
 20
51.71136713725633
 30
0.0
 11
71.8999886777494
 21
51.49261713725625
 31
0.0
  0
LINE
  5
196
330
6C
100
AcDbEntity
  8
Visible (ANSI)
100
AcDbLine
 10
71.89998867774933
 20
51.71136713725633
 30
0.0
 11
79.65914159083735
 21
51.71136713725613
 31
0.0
  0
LINE
  5
197
330
6C
100
AcDbEntity
  8
Visible Narrow (ANSI)
100
AcDbLine
 10
79.68123867774939
 20
51.49261713725623
 30
0.0
 11
71.8999886777494
 21
51.49261713725623
 31
0.0
  0
SPLINE
  5
198
330
6C
100
AcDbEntity
  8
Visible (ANSI)
100
AcDbSpline
210
0.0
220
0.0
230
1.0
 70
     8
 71
     3
 72
    11
 73
     7
 74
     0
 42
0.0000000001
 43
0.0000000001
 40
0.0
 40
0.0
 40
0.0
 40
0.0
 40
0.9120227246349074
 40
0.9120227246349074
 40
0.9120227246349074
 40
1.570796326794894
 40
1.570796326794894
 40
1.570796326794894
 40
1.570796326794894
 10
79.89998867774933
 20
51.49261713725623
 30
0.0
 10
79.89998867774933
 20
51.55911879426086
 30
0.0
 10
79.867731710683
 20
51.6248834653657
 30
0.0
 10
79.81514595351782
 20
51.66559229153065
 30
0.0
 10
79.77716213169599
 20
51.6949971510018
 30
0.0
 10
79.72927425290682
 20
51.71136713725624
 30
0.0
 10
79.68123867774932
 20
51.71136713725624
 30
0.0
  0
LINE
  5
199
330
6C
100
AcDbEntity
  8
Visible (ANSI)
100
AcDbLine
 10
79.68123867774932
 20
51.58636713725623
 30
0.0
 11
79.67500805213082
 21
51.58636713725623
 31
0.0
  0
LINE
  5
19A
330
6C
100
AcDbEntity
  8
Visible (ANSI)
100
AcDbLine
 10
79.68123867774932
 20
51.58636713725623
 30
0.0
 11
79.68123867774932
 21
51.71136713725623
 31
0.0
  0
SPLINE
  5
19B
330
6C
100
AcDbEntity
  8
Visible (ANSI)
100
AcDbSpline
210
0.0
220
0.0
230
1.0
 70
     8
 71
     3
 72
    11
 73
     7
 74
     0
 42
0.0000000001
 43
0.0000000001
 40
0.0
 40
0.0
 40
0.0
 40
0.0
 40
1.127197082403222
 40
1.127197082403222
 40
1.127197082403222
 40
1.570796326794894
 40
1.570796326794894
 40
1.570796326794894
 40
1.570796326794894
 10
79.77498867774933
 20
51.49261713725623
 30
0.0
 10
79.77498867774933
 20
51.52784204608135
 30
0.0
 10
79.75329111951272
 20
51.56217504361971
 30
0.0
 10
79.72147553288606
 20
51.57729333219144
 30
0.0
 10
79.70895476752232
 20
51.58324301170323
 30
0.0
 10
79.69510115413656
 20
51.58636713725623
 30
0.0
 10
79.68123867774932
 20
51.58636713725623
 30
0.0
  0
LINE
  5
19C
330
6C
100
AcDbEntity
  8
Visible (ANSI)
100
AcDbLine
 10
79.68123867774932
 20
51.71136713725623
 30
0.0
 11
79.65914159083734
 21
51.71136713725623
 31
0.0
  0
SPLINE
  5
19D
330
6C
100
AcDbEntity
  8
Visible (ANSI)
100
AcDbSpline
210
0.0
220
0.0
230
1.0
 70
     8
 71
     3
 72
    11
 73
     7
 74
     0
 42
0.0000000001
 43
0.0000000001
 40
0.0
 40
0.0
 40
0.0
 40
0.0
 40
0.9120227246350678
 40
0.9120227246350678
 40
0.9120227246350678
 40
1.570796326794894
 40
1.570796326794894
 40
1.570796326794894
 40
1.570796326794894
 10
79.65914159083735
 20
51.71136713725614
 30
0.0
 10
79.66341819989827
 20
51.71136713725614
 30
0.0
 10
79.66769480895918
 20
51.67911017018981
 30
0.0
 10
79.67197141802007
 20
51.62652441302466
 30
0.0
 10
79.67506050459651
 20
51.58854059120283
 30
0.0
 10
79.67814959117297
 20
51.5406527124137
 30
0.0
 10
79.68123867774939
 20
51.49261713725623
 30
0.0
  0
LINE
  5
19E
330
6C
100
AcDbEntity
  8
Visible (ANSI)
100
AcDbLine
 10
72.14998867774929
 20
33.83649327845446
 30
0.0
 11
72.27498867774932
 21
33.83649327845446
 31
0.0
  0
LINE
  5
19F
330
6C
100
AcDbEntity
  8
Visible (ANSI)
100
AcDbLine
 10
72.14998867774929
 20
33.83649327845446
 30
0.0
 11
72.14998867774929
 21
33.71149327845446
 31
0.0
  0
LINE
  5
1A0
330
6C
100
AcDbEntity
  8
Visible (ANSI)
100
AcDbLine
 10
72.27498867774932
 20
33.71149327845446
 30
0.0
 11
72.14998867774929
 21
33.71149327845446
 31
0.0
  0
LINE
  5
1A1
330
6C
100
AcDbEntity
  8
Visible Narrow (ANSI)
100
AcDbLine
 10
72.27498867774932
 20
33.71149327845446
 30
0.0
 11
72.27498867774932
 21
33.83649327845446
 31
0.0
  0
LINE
  5
1A2
330
6C
100
AcDbEntity
  8
Visible (ANSI)
100
AcDbLine
 10
72.27498867774932
 20
33.71149327845446
 30
0.0
 11
73.64987946098022
 21
33.71149327845446
 31
0.0
  0
LINE
  5
1A3
330
6C
100
AcDbEntity
  8
Visible (ANSI)
100
AcDbLine
 10
73.64987946098022
 20
33.83649327845446
 30
0.0
 11
72.27498867774932
 21
33.83649327845446
 31
0.0
  0
ARC
  5
1A4
330
6C
100
AcDbEntity
  8
Visible (ANSI)
100
AcDbCircle
 10
73.64987946098022
 20
33.93024327845446
 30
0.0
 40
0.2187500000000006
100
AcDbArc
 50
270.0
 51
315.0000000000009
  0
ARC
  5
1A5
330
6C
100
AcDbEntity
  8
Visible (ANSI)
100
AcDbCircle
 10
73.64987946098022
 20
33.93024327845446
 30
0.0
 40
0.0937499999999999
100
AcDbArc
 50
270.0
 51
315.0
  0
LINE
  5
1A6
330
6C
100
AcDbEntity
  8
Visible (ANSI)
100
AcDbLine
 10
73.83790379728736
 20
33.8089083979925
 30
0.0
 11
73.80455906936477
 21
33.7755636700699
 31
0.0
  0
LINE
  5
1A7
330
6C
100
AcDbEntity
  8
Visible (ANSI)
100
AcDbLine
 10
73.71617072171645
 20
33.86395201771822
 30
0.0
 11
73.74951544963903
 21
33.89729674564082
 31
0.0
  0
ARC
  5
1A8
330
6C
100
AcDbEntity
  8
Visible (ANSI)
100
AcDbCircle
 10
73.9041950580236
 20
33.74261713725625
 30
0.0
 40
0.0937500000000017
100
AcDbArc
 50
103.3654935841383
 51
135.0
  0
ARC
  5
1A9
330
6C
100
AcDbEntity
  8
Visible (ANSI)
100
AcDbCircle
 10
73.9041950580236
 20
33.74261713725625
 30
0.0
 40
0.218750000000001
100
AcDbArc
 50
98.4276785734962
 51
134.9999999999991
  0
MTEXT
  5
1AA
330
6C
100
AcDbEntity
  8
Symbol (ANSI)
100
AcDbMText
 10
73.21187417361409
 20
30.74523356524254
 30
0.0
 40
0.8400000103815333
 41
0.0
 71
     7
 72
     1
  1
RIGHT VIEW
  7
Text Style168
 73
     1
 44
1.0
  0
LINE
  5
1AB
330
6C
100
AcDbEntity
  8
Symbol (ANSI)
370
    30
100
AcDbLine
 10
73.12787395753538
 20
30.57257067721229
 30
0.0
 11
79.67225003421116
 21
30.57257067721229
 31
0.0
  0
CIRCLE
  5
1AC
330
6C
100
AcDbEntity
  8
Visible (ANSI)
100
AcDbCircle
 10
49.20505610280021
 20
23.65775590596688
 30
0.0
 40
0.28125
  0
CIRCLE
  5
1AD
330
6C
100
AcDbEntity
  8
Visible (ANSI)
100
AcDbCircle
 10
54.8300561028002
 20
23.65775590596688
 30
0.0
 40
0.28125
  0
CIRCLE
  5
1AE
330
6C
100
AcDbEntity
  8
Visible (ANSI)
100
AcDbCircle
 10
47.6425561028002
 20
22.34525590596687
 30
0.0
 40
0.28125
  0
CIRCLE
  5
1AF
330
6C
100
AcDbEntity
  8
Visible (ANSI)
100
AcDbCircle
 10
47.64255610280021
 20
17.34525590596687
 30
0.0
 40
0.28125
  0
CIRCLE
  5
1B0
330
6C
100
AcDbEntity
  8
Visible (ANSI)
100
AcDbCircle
 10
56.39255610280021
 20
22.34525590596685
 30
0.0
 40
0.28125
  0
CIRCLE
  5
1B1
330
6C
100
AcDbEntity
  8
Visible (ANSI)
100
AcDbCircle
 10
56.39255610280024
 20
17.34525590596686
 30
0.0
 40
0.28125
  0
LINE
  5
1B2
330
6C
100
AcDbEntity
  8
Visible (ANSI)
100
AcDbLine
 10
46.95505610280021
 20
16.34525590596681
 30
0.0
 11
46.95505610280021
 21
24.12650590596681
 31
0.0
  0
LINE
  5
1B3
330
6C
100
AcDbEntity
  8
Visible (ANSI)
100
AcDbLine
 10
46.95505610280022
 20
16.34525590596681
 30
0.0
 11
47.17380610280021
 21
16.34525590596687
 31
0.0
  0
LINE
  5
1B4
330
6C
100
AcDbEntity
  8
Visible (ANSI)
100
AcDbLine
 10
56.86130610280043
 20
16.34525590596688
 30
0.0
 11
57.08005610280053
 21
16.34525590596681
 31
0.0
  0
LINE
  5
1B5
330
6C
100
AcDbEntity
  8
Visible Narrow (ANSI)
100
AcDbLine
 10
56.83920901588813
 20
24.12650590596688
 30
0.0
 11
47.19590318971229
 21
24.12650590596688
 31
0.0
  0
LINE
  5
1B6
330
6C
100
AcDbEntity
  8
Visible (ANSI)
100
AcDbLine
 10
47.17380610280021
 20
24.34525590596682
 30
0.0
 11
56.8613061028002
 21
24.34525590596682
 31
0.0
  0
LINE
  5
1B7
330
6C
100
AcDbEntity
  8
Visible Narrow (ANSI)
100
AcDbLine
 10
47.17380610280021
 20
24.1044088190548
 30
0.0
 11
47.17380610280021
 21
16.34525590596687
 31
0.0
  0
LINE
  5
1B8
330
6C
100
AcDbEntity
  8
Visible Narrow (ANSI)
100
AcDbLine
 10
56.86130610280043
 20
16.34525590596687
 30
0.0
 11
56.86130610280038
 21
24.1044088190549
 31
0.0
  0
LINE
  5
1B9
330
6C
100
AcDbEntity
  8
Visible (ANSI)
100
AcDbLine
 10
57.08005610280021
 20
24.12650590596681
 30
0.0
 11
57.08005610280024
 21
16.34525590596681
 31
0.0
  0
ARC
  5
1BA
330
6C
100
AcDbEntity
  8
Visible (ANSI)
100
AcDbCircle
 10
56.8613061028002
 20
24.12650590596681
 30
0.0
 40
0.2187500000000012
100
AcDbArc
 50
0.0
 51
89.99999999999744
  0
ARC
  5
1BB
330
6C
100
AcDbEntity
  8
Visible (ANSI)
100
AcDbCircle
 10
47.17380610280021
 20
24.12650590596681
 30
0.0
 40
0.09375
100
AcDbArc
 50
90.0
 51
180.0
  0
LINE
  5
1BC
330
6C
100
AcDbEntity
  8
Visible (ANSI)
100
AcDbLine
 10
47.70505610280021
 20
16.34525590596687
 30
0.0
 11
47.17380610280021
 21
16.34525590596687
 31
0.0
  0
LINE
  5
1BD
330
6C
100
AcDbEntity
  8
Visible (ANSI)
100
AcDbLine
 10
56.86130610280043
 20
16.34525590596687
 30
0.0
 11
56.33005610280061
 21
16.34525590596685
 31
0.0
  0
LINE
  5
1BE
330
6C
100
AcDbEntity
  8
Visible (ANSI)
100
AcDbLine
 10
55.80795901588816
 20
23.09525590596688
 30
0.0
 11
48.22715318971229
 21
23.09525590596688
 31
0.0
  0
LINE
  5
1BF
330
6C
100
AcDbEntity
  8
Visible (ANSI)
100
AcDbLine
 10
48.20505610280021
 20
23.0731588190548
 30
0.0
 11
48.20505610280021
 21
16.84525590596687
 31
0.0
  0
LINE
  5
1C0
330
6C
100
AcDbEntity
  8
Visible (ANSI)
100
AcDbLine
 10
55.83005610280061
 20
16.84525590596684
 30
0.0
 11
55.83005610280043
 21
23.07315881905489
 31
0.0
  0
ARC
  5
1C1
330
6C
100
AcDbEntity
  8
Visible (ANSI)
100
AcDbCircle
 10
47.17380610280021
 20
24.12650590596681
 30
0.0
 40
0.21875
100
AcDbArc
 50
90.0
 51
180.0
  0
ARC
  5
1C2
330
6C
100
AcDbEntity
  8
Visible (ANSI)
100
AcDbCircle
 10
56.8613061028002
 20
24.12650590596681
 30
0.0
 40
0.0937500000000028
100
AcDbArc
 50
0.0
 51
89.99999999999401
  0
LINE
  5
1C3
330
6C
100
AcDbEntity
  8
Visible (ANSI)
100
AcDbLine
 10
48.20505610280021
 20
16.84525590596687
 30
0.0
 11
47.70505610280021
 21
16.34525590596687
 31
0.0
  0
LINE
  5
1C4
330
6C
100
AcDbEntity
  8
Visible (ANSI)
100
AcDbLine
 10
56.33005610280061
 20
16.34525590596685
 30
0.0
 11
55.83005610280061
 21
16.84525590596684
 31
0.0
  0
SPLINE
  5
1C5
330
6C
100
AcDbEntity
  8
Visible (ANSI)
100
AcDbSpline
210
0.0
220
0.0
230
1.0
 70
     8
 71
     3
 72
    11
 73
     7
 74
     0
 42
0.0000000001
 43
0.0000000001
 40
0.0
 40
0.0
 40
0.0
 40
0.0
 40
0.9120227246349074
 40
0.9120227246349074
 40
0.9120227246349074
 40
1.570796326794894
 40
1.570796326794894
 40
1.570796326794894
 40
1.570796326794894
 10
56.8613061028002
 20
24.34525590596682
 30
0.0
 10
56.85702949373929
 20
24.34525590596683
 30
0.0
 10
56.85275288467838
 20
24.31299893890052
 30
0.0
 10
56.84847627561747
 20
24.26041318173537
 30
0.0
 10
56.84538718904103
 20
24.22242935991353
 30
0.0
 10
56.84229810246457
 20
24.17454148112438
 30
0.0
 10
56.83920901588813
 20
24.12650590596687
 30
0.0
  0
SPLINE
  5
1C6
330
6C
100
AcDbEntity
  8
Visible (ANSI)
100
AcDbSpline
210
0.0
220
0.0
230
1.0
 70
     8
 71
     3
 72
    11
 73
     7
 74
     0
 42
0.0000000001
 43
0.0000000001
 40
0.0
 40
0.0
 40
0.0
 40
0.0
 40
0.9120227246349069
 40
0.9120227246349069
 40
0.9120227246349069
 40
1.570796326794894
 40
1.570796326794894
 40
1.570796326794894
 40
1.570796326794894
 10
47.19590318971229
 20
24.12650590596688
 30
0.0
 10
47.19162658065138
 20
24.19300756297151
 30
0.0
 10
47.18734997159046
 20
24.25877223407634
 30
0.0
 10
47.18307336252955
 20
24.29948106024127
 30
0.0
 10
47.1799842759531
 20
24.3288859197124
 30
0.0
 10
47.17689518937667
 20
24.34525590596683
 30
0.0
 10
47.17380610280021
 20
24.34525590596682
 30
0.0
  0
LINE
  5
1C7
330
6C
100
AcDbEntity
  8
Visible (ANSI)
100
AcDbLine
 10
48.22715318971229
 20
23.09525590596688
 30
0.0
 11
47.19590318971229
 21
24.12650590596688
 31
0.0
  0
SPLINE
  5
1C8
330
6C
100
AcDbEntity
  8
Visible (ANSI)
100
AcDbSpline
210
0.0
220
0.0
230
1.0
 70
    24
 71
     3
 72
     8
 73
     4
 74
     0
 42
0.0000000001
 43
0.0000000001
 40
-0.0000000000000001
 40
-0.0000000000000001
 40
-0.0000000000000001
 40
-0.0000000000000001
 40
0.3175000000000003
 40
0.3175000000000003
 40
0.3175000000000003
 40
0.3175000000000003
 10
47.17380610280021
 20
24.22025590596681
 30
0.0
 10
47.17380610280021
 20
24.26192257263348
 30
0.0
 10
47.17380610280021
 20
24.30358923930014
 30
0.0
 10
47.17380610280021
 20
24.34525590596682
 30
0.0
  0
SPLINE
  5
1C9
330
6C
100
AcDbEntity
  8
Visible (ANSI)
100
AcDbSpline
210
0.0
220
0.0
230
1.0
 70
     8
 71
     3
 72
    11
 73
     7
 74
     0
 42
0.0000000001
 43
0.0000000001
 40
0.0
 40
0.0
 40
0.0
 40
0.0
 40
1.127197082403222
 40
1.127197082403222
 40
1.127197082403222
 40
1.570796326794894
 40
1.570796326794894
 40
1.570796326794894
 40
1.570796326794894
 10
47.17380610280021
 20
24.22025590596681
 30
0.0
 10
47.1790916961586
 20
24.22025590596682
 30
0.0
 10
47.184377289517
 20
24.19855834773023
 30
0.0
 10
47.1896628828754
 20
24.16674276110358
 30
0.0
 10
47.19174298515437
 20
24.15422199573983
 30
0.0
 10
47.19382308743332
 20
24.14036838235408
 30
0.0
 10
47.19590318971229
 20
24.12650590596684
 30
0.0
  0
SPLINE
  5
1CA
330
6C
100
AcDbEntity
  8
Visible (ANSI)
100
AcDbSpline
210
0.0
220
0.0
230
1.0
 70
     8
 71
     3
 72
    11
 73
     7
 74
     0
 42
0.0000000001
 43
0.0000000001
 40
0.0
 40
0.0
 40
0.0
 40
0.0
 40
1.127197082403222
 40
1.127197082403222
 40
1.127197082403222
 40
1.570796326794894
 40
1.570796326794894
 40
1.570796326794894
 40
1.570796326794894
 10
56.8613061028002
 20
24.22025590596681
 30
0.0
 10
56.85602050944181
 20
24.22025590596682
 30
0.0
 10
56.8507349160834
 20
24.19855834773023
 30
0.0
 10
56.84544932272501
 20
24.16674276110358
 30
0.0
 10
56.84336922044604
 20
24.15422199573983
 30
0.0
 10
56.84128911816709
 20
24.14036838235408
 30
0.0
 10
56.83920901588813
 20
24.12650590596684
 30
0.0
  0
SPLINE
  5
1CB
330
6C
100
AcDbEntity
  8
Visible (ANSI)
100
AcDbSpline
210
0.0
220
0.0
230
1.0
 70
    24
 71
     3
 72
     8
 73
     4
 74
     0
 42
0.0000000001
 43
0.0000000001
 40
-0.3175000000000005
 40
-0.3175000000000005
 40
-0.3175000000000005
 40
-0.3175000000000005
 40
0.0
 40
0.0
 40
0.0
 40
0.0
 10
56.8613061028002
 20
24.34525590596682
 30
0.0
 10
56.8613061028002
 20
24.30358923930014
 30
0.0
 10
56.8613061028002
 20
24.26192257263348
 30
0.0
 10
56.8613061028002
 20
24.22025590596681
 30
0.0
  0
LINE
  5
1CC
330
6C
100
AcDbEntity
  8
Visible (ANSI)
100
AcDbLine
 10
56.83920901588813
 20
24.12650590596688
 30
0.0
 11
55.80795901588816
 21
23.09525590596688
 31
0.0
  0
SPLINE
  5
1CD
330
6C
100
AcDbEntity
  8
Visible (ANSI)
100
AcDbSpline
210
0.0
220
0.0
230
1.0
 70
     8
 71
     3
 72
    11
 73
     7
 74
     0
 42
0.0000000001
 43
0.0000000001
 40
0.0
 40
0.0
 40
0.0
 40
0.0
 40
0.9120227246350472
 40
0.9120227246350472
 40
0.9120227246350472
 40
1.570796326794894
 40
1.570796326794894
 40
1.570796326794894
 40
1.570796326794894
 10
46.95505610280021
 20
24.12650590596681
 30
0.0
 10
46.95505610280021
 20
24.12222929690592
 30
0.0
 10
46.98731306986656
 20
24.11795268784503
 30
0.0
 10
47.03989882703173
 20
24.11367607878413
 30
0.0
 10
47.07788264885357
 20
24.11058699220769
 30
0.0
 10
47.12577052764273
 20
24.10749790563125
 30
0.0
 10
47.17380610280022
 20
24.1044088190548
 30
0.0
  0
SPLINE
  5
1CE
330
6C
100
AcDbEntity
  8
Visible (ANSI)
100
AcDbSpline
210
0.0
220
0.0
230
1.0
 70
     8
 71
     3
 72
    11
 73
     7
 74
     0
 42
0.0000000001
 43
0.0000000001
 40
0.0
 40
0.0
 40
0.0
 40
0.0
 40
1.127197082403415
 40
1.127197082403415
 40
1.127197082403415
 40
1.570796326794894
 40
1.570796326794894
 40
1.570796326794894
 40
1.570796326794894
 10
47.08005610280021
 20
24.12650590596681
 30
0.0
 10
47.08005610280021
 20
24.12122031260842
 30
0.0
 10
47.10175366103682
 20
24.11593471925004
 30
0.0
 10
47.13356924766349
 20
24.11064912589164
 30
0.0
 10
47.14609001302723
 20
24.10856902361268
 30
0.0
 10
47.15994362641298
 20
24.10648892133372
 30
0.0
 10
47.17380610280021
 20
24.10440881905476
 30
0.0
  0
SPLINE
  5
1CF
330
6C
100
AcDbEntity
  8
Visible (ANSI)
100
AcDbSpline
210
0.0
220
0.0
230
1.0
 70
    24
 71
     3
 72
     8
 73
     4
 74
     0
 42
0.0000000001
 43
0.0000000001
 40
-0.317500000000005
 40
-0.317500000000005
 40
-0.317500000000005
 40
-0.317500000000005
 40
0.0
 40
0.0
 40
0.0
 40
0.0
 10
46.95505610280021
 20
24.12650590596681
 30
0.0
 10
46.99672276946688
 20
24.12650590596681
 30
0.0
 10
47.03838943613354
 20
24.12650590596681
 30
0.0
 10
47.08005610280021
 20
24.12650590596681
 30
0.0
  0
LINE
  5
1D0
330
6C
100
AcDbEntity
  8
Visible (ANSI)
100
AcDbLine
 10
47.17380610280021
 20
24.1044088190548
 30
0.0
 11
48.20505610280021
 21
23.0731588190548
 31
0.0
  0
SPLINE
  5
1D1
330
6C
100
AcDbEntity
  8
Visible (ANSI)
100
AcDbSpline
210
0.0
220
0.0
230
1.0
 70
     8
 71
     3
 72
    11
 73
     7
 74
     0
 42
0.0000000001
 43
0.0000000001
 40
0.0
 40
0.0
 40
0.0
 40
0.0
 40
0.9120227246350678
 40
0.9120227246350678
 40
0.9120227246350678
 40
1.570796326794894
 40
1.570796326794894
 40
1.570796326794894
 40
1.570796326794894
 10
56.86130610280039
 20
24.1044088190549
 30
0.0
 10
56.92780775980501
 20
24.10868542811579
 30
0.0
 10
56.99357243090982
 20
24.11296203717667
 30
0.0
 10
57.03428125707475
 20
24.11723864623755
 30
0.0
 10
57.06368611654588
 20
24.12032773281397
 30
0.0
 10
57.08005610280029
 20
24.12341681939039
 30
0.0
 10
57.08005610280029
 20
24.12650590596681
 30
0.0
  0
LINE
  5
1D2
330
6C
100
AcDbEntity
  8
Visible (ANSI)
100
AcDbLine
 10
55.83005610280043
 20
23.07315881905489
 30
0.0
 11
56.86130610280038
 21
24.1044088190549
 31
0.0
  0
SPLINE
  5
1D3
330
6C
100
AcDbEntity
  8
Visible (ANSI)
100
AcDbSpline
210
0.0
220
0.0
230
1.0
 70
    24
 71
     3
 72
     8
 73
     4
 74
     0
 42
0.0000000001
 43
0.0000000001
 40
0.0
 40
0.0
 40
0.0
 40
0.0
 40
0.3175000000000061
 40
0.3175000000000061
 40
0.3175000000000061
 40
0.3175000000000061
 10
56.95505610280029
 20
24.12650590596681
 30
0.0
 10
56.99672276946696
 20
24.12650590596681
 30
0.0
 10
57.03838943613362
 20
24.12650590596681
 30
0.0
 10
57.08005610280029
 20
24.12650590596681
 30
0.0
  0
SPLINE
  5
1D4
330
6C
100
AcDbEntity
  8
Visible (ANSI)
100
AcDbSpline
210
0.0
220
0.0
230
1.0
 70
     8
 71
     3
 72
    11
 73
     7
 74
     0
 42
0.0000000001
 43
0.0000000001
 40
0.0
 40
0.0
 40
0.0
 40
0.0
 40
1.127197082403739
 40
1.127197082403739
 40
1.127197082403739
 40
1.570796326794894
 40
1.570796326794894
 40
1.570796326794894
 40
1.570796326794894
 10
56.95505610280029
 20
24.12650590596681
 30
0.0
 10
56.95505610280029
 20
24.12122031260845
 30
0.0
 10
56.93335854456369
 20
24.11593471925008
 30
0.0
 10
56.90154295793703
 20
24.11064912589171
 30
0.0
 10
56.88902219257332
 20
24.10856902361276
 30
0.0
 10
56.8751685791876
 20
24.10648892133381
 30
0.0
 10
56.86130610280039
 20
24.10440881905486
 30
0.0
  0
CIRCLE
  5
1D5
330
6C
100
AcDbEntity
  8
Visible (ANSI)
100
AcDbCircle
 10
52.01755610280017
 20
20.59525590596161
 30
0.0
 40
0.28125
  0
CIRCLE
  5
1D6
330
6C
100
AcDbEntity
  8
Visible (ANSI)
100
AcDbCircle
 10
49.08005610280017
 20
17.59525590596157
 30
0.0
 40
0.28125
  0
CIRCLE
  5
1D7
330
6C
100
AcDbEntity
  8
Visible (ANSI)
100
AcDbCircle
 10
54.95505610280017
 20
17.59525590596157
 30
0.0
 40
0.28125
  0
LINE
  5
1D8
330
6C
100
AcDbEntity
  8
Visible (ANSI)
100
AcDbLine
 10
56.83005610280017
 20
24.07315881904942
 30
0.0
 11
56.83005610280017
 21
24.09535306946677
 31
0.0
  0
LINE
  5
1D9
330
6C
100
AcDbEntity
  8
Visible (ANSI)
100
AcDbLine
 10
47.20505610280016
 20
24.09535306946677
 30
0.0
 11
47.20505610280016
 21
24.07315881904958
 31
0.0
  0
ARC
  5
1DA
330
6C
100
AcDbEntity
  8
Visible (ANSI)
100
AcDbCircle
 10
47.33005610280014
 20
24.09535306946678
 30
0.0
 40
0.1249999999999734
100
AcDbArc
 50
170.6375988628184
 51
180.0
  0
ARC
  5
1DB
330
6C
100
AcDbEntity
  8
Visible (ANSI)
100
AcDbCircle
 10
56.70505610280017
 20
24.09535306946677
 30
0.0
 40
0.1250000000000051
100
AcDbArc
 50
0.0
 51
9.362401137154352
  0
LINE
  5
1DC
330
6C
100
AcDbEntity
  8
Visible Narrow (ANSI)
100
AcDbLine
 10
55.83005610280055
 20
18.34946228623587
 30
0.0
 11
48.20505610280021
 21
18.34946228623588
 31
0.0
  0
LINE
  5
1DD
330
6C
100
AcDbEntity
  8
Visible Narrow (ANSI)
100
AcDbLine
 10
55.83005610280057
 20
18.19478267785131
 30
0.0
 11
48.20505610280021
 21
18.19478267785131
 31
0.0
  0
LINE
  5
1DE
330
6C
100
AcDbEntity
  8
Visible Narrow (ANSI)
100
AcDbLine
 10
55.83005610280057
 20
18.16143794992871
 30
0.0
 11
48.20505610280021
 21
18.16143794992871
 31
0.0
  0
LINE
  5
1DF
330
6C
100
AcDbEntity
  8
Visible Narrow (ANSI)
100
AcDbLine
 10
55.83005610280057
 20
18.09514668919246
 30
0.0
 11
48.20505610280021
 21
18.09514668919246
 31
0.0
  0
LINE
  5
1E0
330
6C
100
AcDbEntity
  8
Visible (ANSI)
100
AcDbLine
 10
56.08005610280058
 20
16.59525590596157
 30
0.0
 11
47.95505610280021
 21
16.59525590596157
 31
0.0
  0
MTEXT
  5
1E1
330
6C
100
AcDbEntity
  8
Symbol (ANSI)
100
AcDbMText
 10
48.10722641896554
 20
12.31647264566333
 30
0.0
 40
0.8400000103815333
 41
0.0
 71
     7
 72
     1
  1
BOTTOM VIEW
  7
Text Style168
 73
     1
 44
1.0
  0
LINE
  5
1E2
330
6C
100
AcDbEntity
  8
Symbol (ANSI)
370
    30
100
AcDbLine
 10
48.02322620288684
 20
12.1451711840391
 30
0.0
 11
55.74932039998738
 21
12.1451711840391
 31
0.0
  0
LINE
  5
1E3
330
6C
100
AcDbEntity
  8
Visible Narrow (ANSI)
100
AcDbLine
 10
56.86130610281111
 20
59.9819158554647
 30
0.0
 11
56.86130610281113
 21
65.74106876855262
 31
0.0
  0
LINE
  5
1E4
330
6C
100
AcDbEntity
  8
Visible (ANSI)
100
AcDbLine
 10
57.08005610281117
 20
65.76567333797273
 30
0.0
 11
57.08005610281114
 21
59.95981876855268
 31
0.0
  0
SPLINE
  5
1E5
330
6C
100
AcDbEntity
  8
Visible (ANSI)
100
AcDbSpline
210
0.0
220
0.0
230
1.0
 70
     8
 71
     3
 72
    11
 73
     7
 74
     0
 42
0.0000000001
 43
0.0000000001
 40
0.0
 40
0.0
 40
0.0
 40
0.0
 40
0.9120227246350253
 40
0.9120227246350253
 40
0.9120227246350253
 40
1.570796326794911
 40
1.570796326794911
 40
1.570796326794911
 40
1.570796326794911
 10
56.86130610281113
 20
65.74106876855262
 30
0.0
 10
56.92780775981576
 20
65.74583066884021
 30
0.0
 10
56.99357243092061
 20
65.75059256912782
 30
0.0
 10
57.03428125708554
 20
65.75535446941541
 30
0.0
 10
57.06368611655667
 20
65.75879409226785
 30
0.0
 10
57.0800561028111
 20
65.76223371512027
 30
0.0
 10
57.0800561028111
 20
65.76567333797273
 30
0.0
  0
LINE
  5
1E6
330
6C
100
AcDbEntity
  8
Visible (ANSI)
100
AcDbLine
 10
57.00056667801655
 20
65.76567333797273
 30
0.0
 11
57.08005610281117
 21
65.76567333797273
 31
0.0
  0
LINE
  5
1E7
330
6C
100
AcDbEntity
  8
Visible (ANSI)
100
AcDbLine
 10
56.95505610281117
 20
65.76567333797273
 30
0.0
 11
57.00056667801655
 21
65.76567333797273
 31
0.0
  0
SPLINE
  5
1E8
330
6C
100
AcDbEntity
  8
Visible (ANSI)
100
AcDbSpline
210
0.0
220
0.0
230
1.0
 70
     8
 71
     3
 72
    11
 73
     7
 74
     0
 42
0.0000000001
 43
0.0000000001
 40
0.0
 40
0.0
 40
0.0
 40
0.0
 40
1.127197082403468
 40
1.127197082403468
 40
1.127197082403468
 40
1.570796326794911
 40
1.570796326794911
 40
1.570796326794911
 40
1.570796326794911
 10
56.9550561028111
 20
65.76567333797273
 30
0.0
 10
56.9550561028111
 20
65.7597879581835
 30
0.0
 10
56.93335854457449
 20
65.75390257839427
 30
0.0
 10
56.90154295794783
 20
65.74801719860507
 30
0.0
 10
56.88902219258411
 20
65.74570105525426
 30
0.0
 10
56.87516857919836
 20
65.74338491190346
 30
0.0
 10
56.86130610281113
 20
65.74106876855267
 30
0.0
  0
LINE
  5
1E9
330
6C
100
AcDbEntity
  8
Visible Narrow (ANSI)
100
AcDbLine
 10
47.19590318972323
 20
59.95981876855261
 30
0.0
 11
56.83920901589906
 21
59.95981876855261
 31
0.0
  0
LINE
  5
1EA
330
6C
100
AcDbEntity
  8
Visible (ANSI)
100
AcDbLine
 10
56.86130610281115
 20
59.74106876855269
 30
0.0
 11
47.17380610281114
 21
59.74106876855269
 31
0.0
  0
LINE
  5
1EB
330
6C
100
AcDbEntity
  8
Visible Narrow (ANSI)
100
AcDbLine
 10
47.17380610281114
 20
65.74106876855267
 30
0.0
 11
47.17380610281114
 21
59.9819158554647
 31
0.0
  0
SPLINE
  5
1EC
330
6C
100
AcDbEntity
  8
Visible (ANSI)
100
AcDbSpline
210
0.0
220
0.0
230
1.0
 70
     8
 71
     3
 72
    11
 73
     7
 74
     0
 42
0.0000000001
 43
0.0000000001
 40
0.0
 40
0.0
 40
0.0
 40
0.0
 40
0.912022724634949
 40
0.912022724634949
 40
0.912022724634949
 40
1.570796326794896
 40
1.570796326794896
 40
1.570796326794896
 40
1.570796326794896
 10
46.95505610281115
 20
65.76567333797277
 30
0.0
 10
46.95505610281115
 20
65.76091143768517
 30
0.0
 10
46.98731306987748
 20
65.75614953739756
 30
0.0
 10
47.03989882704265
 20
65.75138763710994
 30
0.0
 10
47.0778826488645
 20
65.74794801425752
 30
0.0
 10
47.12577052765364
 20
65.74450839140509
 30
0.0
 10
47.17380610281114
 20
65.74106876855267
 30
0.0
  0
LINE
  5
1ED
330
6C
100
AcDbEntity
  8
Visible (ANSI)
100
AcDbLine
 10
46.95505610281115
 20
59.95981876855268
 30
0.0
 11
46.95505610281115
 21
65.76567333797277
 31
0.0
  0
SPLINE
  5
1EE
330
6C
100
AcDbEntity
  8
Visible (ANSI)
100
AcDbSpline
210
0.0
220
0.0
230
1.0
 70
     8
 71
     3
 72
    11
 73
     7
 74
     0
 42
0.0000000001
 43
0.0000000001
 40
0.0
 40
0.0
 40
0.0
 40
0.0
 40
1.127197082403386
 40
1.127197082403386
 40
1.127197082403386
 40
1.570796326794896
 40
1.570796326794896
 40
1.570796326794896
 40
1.570796326794896
 10
47.08005610281115
 20
65.76567333797277
 30
0.0
 10
47.08005610281115
 20
65.75978795818355
 30
0.0
 10
47.10175366104777
 20
65.75390257839433
 30
0.0
 10
47.13356924767443
 20
65.74801719860511
 30
0.0
 10
47.14609001303816
 20
65.74570105525431
 30
0.0
 10
47.15994362642391
 20
65.74338491190352
 30
0.0
 10
47.17380610281114
 20
65.74106876855271
 30
0.0
  0
LINE
  5
1EF
330
6C
100
AcDbEntity
  8
Visible (ANSI)
100
AcDbLine
 10
47.03454552760574
 20
65.76567333797277
 30
0.0
 11
47.08005610281115
 21
65.76567333797277
 31
0.0
  0
LINE
  5
1F0
330
6C
100
AcDbEntity
  8
Visible (ANSI)
100
AcDbLine
 10
46.95505610281115
 20
65.76567333797277
 30
0.0
 11
47.03454552760574
 21
65.76567333797277
 31
0.0
  0
SPLINE
  5
1F1
330
6C
100
AcDbEntity
  8
Visible (ANSI)
100
AcDbSpline
210
0.0
220
0.0
230
1.0
 70
     8
 71
     3
 72
    11
 73
     7
 74
     0
 42
0.0000000001
 43
0.0000000001
 40
0.0
 40
0.0
 40
0.0
 40
0.0
 40
0.912022724634893
 40
0.912022724634893
 40
0.912022724634893
 40
1.570796326794896
 40
1.570796326794896
 40
1.570796326794896
 40
1.570796326794896
 10
57.08005610281114
 20
59.95981876855268
 30
0.0
 10
57.08005610281114
 20
59.96409537761357
 30
0.0
 10
57.04779913574481
 20
59.96837198667447
 30
0.0
 10
56.99521337857963
 20
59.97264859573537
 30
0.0
 10
56.95722955675778
 20
59.9757376823118
 30
0.0
 10
56.90934167796861
 20
59.97882676888824
 30
0.0
 10
56.86130610281111
 20
59.9819158554647
 30
0.0
  0
SPLINE
  5
1F2
330
6C
100
AcDbEntity
  8
Visible (ANSI)
100
AcDbSpline
210
0.0
220
0.0
230
1.0
 70
     8
 71
     3
 72
    11
 73
     7
 74
     0
 42
0.0000000001
 43
0.0000000001
 40
0.0
 40
0.0
 40
0.0
 40
0.0
 40
1.127197082403273
 40
1.127197082403273
 40
1.127197082403273
 40
1.570796326794896
 40
1.570796326794896
 40
1.570796326794896
 40
1.570796326794896
 10
56.95505610281113
 20
59.95981876855268
 30
0.0
 10
56.95505610281113
 20
59.96510436191107
 30
0.0
 10
56.93335854457452
 20
59.97038995526946
 30
0.0
 10
56.90154295794785
 20
59.97567554862786
 30
0.0
 10
56.88902219258411
 20
59.9777556509068
 30
0.0
 10
56.87516857919835
 20
59.97983575318578
 30
0.0
 10
56.86130610281111
 20
59.98191585546472
 30
0.0
  0
SPLINE
  5
1F3
330
6C
100
AcDbEntity
  8
Visible (ANSI)
100
AcDbSpline
210
0.0
220
0.0
230
1.0
 70
    24
 71
     3
 72
     8
 73
     4
 74
     0
 42
0.0000000001
 43
0.0000000001
 40
-0.317499999999999
 40
-0.317499999999999
 40
-0.317499999999999
 40
-0.317499999999999
 40
0.0
 40
0.0
 40
0.0
 40
0.0
 10
57.08005610281114
 20
59.95981876855268
 30
0.0
 10
57.03838943614447
 20
59.95981876855268
 30
0.0
 10
56.9967227694778
 20
59.95981876855268
 30
0.0
 10
56.95505610281113
 20
59.95981876855268
 30
0.0
  0
LINE
  5
1F4
330
6C
100
AcDbEntity
  8
Visible (ANSI)
100
AcDbLine
 10
56.86130610281111
 20
59.9819158554647
 30
0.0
 11
55.83005610281111
 21
61.0131658554647
 31
0.0
  0
SPLINE
  5
1F5
330
6C
100
AcDbEntity
  8
Visible (ANSI)
100
AcDbSpline
210
0.0
220
0.0
230
1.0
 70
     8
 71
     3
 72
    11
 73
     7
 74
     0
 42
0.0000000001
 43
0.0000000001
 40
0.0
 40
0.0
 40
0.0
 40
0.0
 40
0.9120227246349509
 40
0.9120227246349509
 40
0.9120227246349509
 40
1.570796326794895
 40
1.570796326794895
 40
1.570796326794895
 40
1.570796326794895
 10
47.17380610281114
 20
59.74106876855269
 30
0.0
 10
47.17808271187205
 20
59.74106876855266
 30
0.0
 10
47.18235932093296
 20
59.77332573561898
 30
0.0
 10
47.18663592999388
 20
59.82591149278413
 30
0.0
 10
47.18972501657034
 20
59.86389531460597
 30
0.0
 10
47.19281410314677
 20
59.91178319339511
 30
0.0
 10
47.19590318972323
 20
59.95981876855261
 30
0.0
  0
SPLINE
  5
1F6
330
6C
100
AcDbEntity
  8
Visible (ANSI)
100
AcDbSpline
210
0.0
220
0.0
230
1.0
 70
     8
 71
     3
 72
    11
 73
     7
 74
     0
 42
0.0000000001
 43
0.0000000001
 40
0.0
 40
0.0
 40
0.0
 40
0.0
 40
0.91202272463495
 40
0.91202272463495
 40
0.91202272463495
 40
1.570796326794896
 40
1.570796326794896
 40
1.570796326794896
 40
1.570796326794896
 10
56.83920901589906
 20
59.95981876855261
 30
0.0
 10
56.84348562495997
 20
59.89331711154799
 30
0.0
 10
56.84776223402089
 20
59.82755244044315
 30
0.0
 10
56.8520388430818
 20
59.78684361427823
 30
0.0
 10
56.85512792965824
 20
59.75743875480709
 30
0.0
 10
56.8582170162347
 20
59.74106876855266
 30
0.0
 10
56.86130610281114
 20
59.74106876855269
 30
0.0
  0
LINE
  5
1F7
330
6C
100
AcDbEntity
  8
Visible (ANSI)
100
AcDbLine
 10
55.80795901589905
 20
60.99106876855262
 30
0.0
 11
56.83920901589906
 21
59.95981876855261
 31
0.0
  0
SPLINE
  5
1F8
330
6C
100
AcDbEntity
  8
Visible (ANSI)
100
AcDbSpline
210
0.0
220
0.0
230
1.0
 70
    24
 71
     3
 72
     8
 73
     4
 74
     0
 42
0.0000000001
 43
0.0000000001
 40
0.0
 40
0.0
 40
0.0
 40
0.0
 40
0.3175000000000001
 40
0.3175000000000001
 40
0.3175000000000001
 40
0.3175000000000001
 10
56.86130610281114
 20
59.86606876855269
 30
0.0
 10
56.86130610281114
 20
59.82440210188602
 30
0.0
 10
56.86130610281114
 20
59.78273543521934
 30
0.0
 10
56.86130610281114
 20
59.74106876855269
 30
0.0
  0
SPLINE
  5
1F9
330
6C
100
AcDbEntity
  8
Visible (ANSI)
100
AcDbSpline
210
0.0
220
0.0
230
1.0
 70
     8
 71
     3
 72
    11
 73
     7
 74
     0
 42
0.0000000001
 43
0.0000000001
 40
0.0
 40
0.0
 40
0.0
 40
0.0
 40
1.12719708240338
 40
1.12719708240338
 40
1.12719708240338
 40
1.570796326794896
 40
1.570796326794896
 40
1.570796326794896
 40
1.570796326794896
 10
56.86130610281114
 20
59.86606876855269
 30
0.0
 10
56.85602050945274
 20
59.86606876855267
 30
0.0
 10
56.85073491609434
 20
59.88776632678927
 30
0.0
 10
56.84544932273595
 20
59.91958191341592
 30
0.0
 10
56.84336922045698
 20
59.93210267877966
 30
0.0
 10
56.84128911817802
 20
59.94595629216542
 30
0.0
 10
56.83920901589906
 20
59.95981876855265
 30
0.0
  0
SPLINE
  5
1FA
330
6C
100
AcDbEntity
  8
Visible (ANSI)
100
AcDbSpline
210
0.0
220
0.0
230
1.0
 70
     8
 71
     3
 72
    11
 73
     7
 74
     0
 42
0.0000000001
 43
0.0000000001
 40
0.0
 40
0.0
 40
0.0
 40
0.0
 40
1.127197082403391
 40
1.127197082403391
 40
1.127197082403391
 40
1.570796326794895
 40
1.570796326794895
 40
1.570796326794895
 40
1.570796326794895
 10
47.17380610281114
 20
59.86606876855269
 30
0.0
 10
47.17909169616954
 20
59.86606876855267
 30
0.0
 10
47.18437728952795
 20
59.88776632678927
 30
0.0
 10
47.18966288288634
 20
59.91958191341594
 30
0.0
 10
47.1917429851653
 20
59.93210267877966
 30
0.0
 10
47.19382308744427
 20
59.94595629216542
 30
0.0
 10
47.19590318972323
 20
59.95981876855265
 30
0.0
  0
SPLINE
  5
1FB
330
6C
100
AcDbEntity
  8
Visible (ANSI)
100
AcDbSpline
210
0.0
220
0.0
230
1.0
 70
    24
 71
     3
 72
     8
 73
     4
 74
     0
 42
0.0000000001
 43
0.0000000001
 40
-0.3175
 40
-0.3175
 40
-0.3175
 40
-0.3175
 40
0.0000000000000001
 40
0.0000000000000001
 40
0.0000000000000001
 40
0.0000000000000001
 10
47.17380610281114
 20
59.74106876855269
 30
0.0
 10
47.17380610281114
 20
59.78273543521934
 30
0.0
 10
47.17380610281114
 20
59.82440210188602
 30
0.0
 10
47.17380610281114
 20
59.86606876855269
 30
0.0
  0
LINE
  5
1FC
330
6C
100
AcDbEntity
  8
Visible (ANSI)
100
AcDbLine
 10
47.19590318972323
 20
59.95981876855261
 30
0.0
 11
48.22715318972323
 21
60.99106876855262
 31
0.0
  0
SPLINE
  5
1FD
330
6C
100
AcDbEntity
  8
Visible (ANSI)
100
AcDbSpline
210
0.0
220
0.0
230
1.0
 70
     8
 71
     3
 72
    11
 73
     7
 74
     0
 42
0.0000000001
 43
0.0000000001
 40
0.0
 40
0.0
 40
0.0
 40
0.0
 40
0.912022724634949
 40
0.912022724634949
 40
0.912022724634949
 40
1.570796326794896
 40
1.570796326794896
 40
1.570796326794896
 40
1.570796326794896
 10
47.17380610281114
 20
59.9819158554647
 30
0.0
 10
47.10730444580652
 20
59.97763924640379
 30
0.0
 10
47.04153977470167
 20
59.97336263734289
 30
0.0
 10
47.00083094853673
 20
59.96908602828199
 30
0.0
 10
46.97142608906559
 20
59.96599694170555
 30
0.0
 10
46.95505610281115
 20
59.96290785512911
 30
0.0
 10
46.95505610281115
 20
59.95981876855268
 30
0.0
  0
LINE
  5
1FE
330
6C
100
AcDbEntity
  8
Visible (ANSI)
100
AcDbLine
 10
48.20505610281116
 20
61.0131658554647
 30
0.0
 11
47.17380610281114
 21
59.9819158554647
 31
0.0
  0
SPLINE
  5
1FF
330
6C
100
AcDbEntity
  8
Visible (ANSI)
100
AcDbSpline
210
0.0
220
0.0
230
1.0
 70
    24
 71
     3
 72
     8
 73
     4
 74
     0
 42
0.0000000001
 43
0.0000000001
 40
0.0
 40
0.0
 40
0.0
 40
0.0
 40
0.3175000000000001
 40
0.3175000000000001
 40
0.3175000000000001
 40
0.3175000000000001
 10
47.08005610281115
 20
59.95981876855268
 30
0.0
 10
47.03838943614448
 20
59.95981876855268
 30
0.0
 10
46.99672276947782
 20
59.95981876855268
 30
0.0
 10
46.95505610281115
 20
59.95981876855268
 30
0.0
  0
SPLINE
  5
200
330
6C
100
AcDbEntity
  8
Visible (ANSI)
100
AcDbSpline
210
0.0
220
0.0
230
1.0
 70
     8
 71
     3
 72
    11
 73
     7
 74
     0
 42
0.0000000001
 43
0.0000000001
 40
0.0
 40
0.0
 40
0.0
 40
0.0
 40
1.127197082403381
 40
1.127197082403381
 40
1.127197082403381
 40
1.570796326794896
 40
1.570796326794896
 40
1.570796326794896
 40
1.570796326794896
 10
47.08005610281115
 20
59.95981876855268
 30
0.0
 10
47.08005610281115
 20
59.96510436191107
 30
0.0
 10
47.10175366104777
 20
59.97038995526946
 30
0.0
 10
47.13356924767442
 20
59.97567554862786
 30
0.0
 10
47.14609001303816
 20
59.9777556509068
 30
0.0
 10
47.15994362642391
 20
59.97983575318578
 30
0.0
 10
47.17380610281114
 20
59.98191585546472
 30
0.0
  0
LINE
  5
201
330
6C
100
AcDbEntity
  8
Visible (ANSI)
100
AcDbLine
 10
55.83005610281114
 20
65.74106876855262
 30
0.0
 11
56.86130610281113
 21
65.74106876855262
 31
0.0
  0
LINE
  5
202
330
6C
100
AcDbEntity
  8
Visible (ANSI)
100
AcDbLine
 10
55.83005610281111
 20
61.0131658554647
 30
0.0
 11
55.83005610281114
 21
65.74106876855262
 31
0.0
  0
LINE
  5
203
330
6C
100
AcDbEntity
  8
Visible (ANSI)
100
AcDbLine
 10
48.22715318972323
 20
60.99106876855262
 30
0.0
 11
55.80795901589905
 21
60.99106876855262
 31
0.0
  0
LINE
  5
204
330
6C
100
AcDbEntity
  8
Visible (ANSI)
100
AcDbLine
 10
47.17380610281114
 20
65.74106876855267
 30
0.0
 11
48.20505610281116
 21
65.74106876855267
 31
0.0
  0
LINE
  5
205
330
6C
100
AcDbEntity
  8
Visible (ANSI)
100
AcDbLine
 10
48.20505610281116
 20
65.74106876855267
 30
0.0
 11
48.20505610281116
 21
61.0131658554647
 31
0.0
  0
ARC
  5
206
330
6C
100
AcDbEntity
  8
Visible (ANSI)
100
AcDbCircle
 10
47.17380610281114
 20
59.95981876855268
 30
0.0
 40
0.09375
100
AcDbArc
 50
180.0
 51
270.0
  0
ARC
  5
207
330
6C
100
AcDbEntity
  8
Visible (ANSI)
100
AcDbCircle
 10
47.17380610281114
 20
59.95981876855268
 30
0.0
 40
0.2187499999999999
100
AcDbArc
 50
180.0
 51
270.0
  0
ARC
  5
208
330
6C
100
AcDbEntity
  8
Visible (ANSI)
100
AcDbCircle
 10
56.86130610281113
 20
59.95981876855268
 30
0.0
 40
0.0937500000000035
100
AcDbArc
 50
270.000000000006
 51
0.0
  0
ARC
  5
209
330
6C
100
AcDbEntity
  8
Visible (ANSI)
100
AcDbCircle
 10
56.86130610281113
 20
59.95981876855268
 30
0.0
 40
0.218750000000001
100
AcDbArc
 50
270.0000000000051
 51
0.0
  0
LINE
  5
20A
330
6C
100
AcDbEntity
  8
Visible (ANSI)
100
AcDbLine
 10
46.95505610281115
 20
65.76567333797277
 30
0.0
 11
46.95505610281115
 21
67.74106876855789
 31
0.0
  0
LINE
  5
20B
330
6C
100
AcDbEntity
  8
Visible (ANSI)
100
AcDbLine
 10
56.95505610281117
 20
65.76567333797273
 30
0.0
 11
56.95505610281118
 21
67.74106876855789
 31
0.0
  0
LINE
  5
20C
330
6C
100
AcDbEntity
  8
Visible (ANSI)
100
AcDbLine
 10
57.08005610281118
 20
67.74106876855789
 30
0.0
 11
57.08005610281117
 21
65.76567333797273
 31
0.0
  0
LINE
  5
20D
330
6C
100
AcDbEntity
  8
Visible (ANSI)
100
AcDbLine
 10
56.95505610281118
 20
67.74106876855789
 30
0.0
 11
57.08005610281118
 21
67.74106876855789
 31
0.0
  0
LINE
  5
20E
330
6C
100
AcDbEntity
  8
Visible (ANSI)
100
AcDbLine
 10
47.08005610281115
 20
67.74106876855789
 30
0.0
 11
47.08005610281115
 21
65.76567333797277
 31
0.0
  0
LINE
  5
20F
330
6C
100
AcDbEntity
  8
Visible (ANSI)
100
AcDbLine
 10
46.95505610281115
 20
67.74106876855789
 30
0.0
 11
47.08005610281115
 21
67.74106876855789
 31
0.0
  0
LINE
  5
210
330
6C
100
AcDbEntity
  8
Visible (ANSI)
100
AcDbLine
 10
47.70505610281115
 20
67.74106876855793
 30
0.0
 11
47.95505610281115
 21
67.49106876855792
 31
0.0
  0
LINE
  5
211
330
6C
100
AcDbEntity
  8
Visible (ANSI)
100
AcDbLine
 10
56.08005610281152
 20
67.49106876855792
 30
0.0
 11
56.33005610281156
 21
67.74106876855793
 31
0.0
  0
LINE
  5
212
330
6C
100
AcDbEntity
  8
Visible (ANSI)
100
AcDbLine
 10
47.70505610281115
 20
67.74106876855793
 30
0.0
 11
47.17380610281114
 21
67.74106876855793
 31
0.0
  0
LINE
  5
213
330
6C
100
AcDbEntity
  8
Visible (ANSI)
100
AcDbLine
 10
56.33005610281156
 20
67.74106876855793
 30
0.0
 11
56.86130610281137
 21
67.74106876855793
 31
0.0
  0
LINE
  5
214
330
6C
100
AcDbEntity
  8
Visible Narrow (ANSI)
100
AcDbLine
 10
47.17380610281114
 20
67.74106876855793
 30
0.0
 11
47.17380610281114
 21
65.74106876855798
 31
0.0
  0
LINE
  5
215
330
6C
100
AcDbEntity
  8
Visible (ANSI)
100
AcDbLine
 10
47.17380610281114
 20
67.74106876855793
 30
0.0
 11
47.08005610281115
 21
67.74106876855789
 31
0.0
  0
LINE
  5
216
330
6C
100
AcDbEntity
  8
Visible (ANSI)
100
AcDbLine
 10
56.86130610281137
 20
67.74106876855793
 30
0.0
 11
56.95505610281147
 21
67.74106876855789
 31
0.0
  0
LINE
  5
217
330
6C
100
AcDbEntity
  8
Visible Narrow (ANSI)
100
AcDbLine
 10
56.86130610281135
 20
65.74106876855792
 30
0.0
 11
56.86130610281137
 21
67.74106876855793
 31
0.0
  0
CIRCLE
  5
218
330
6C
100
AcDbEntity
  8
Visible (ANSI)
100
AcDbCircle
 10
52.01755610281111
 20
63.49106876855266
 30
0.0
 40
0.28125
  0
CIRCLE
  5
219
330
6C
100
AcDbEntity
  8
Visible (ANSI)
100
AcDbCircle
 10
49.08005610281112
 20
66.49106876855262
 30
0.0
 40
0.28125
  0
CIRCLE
  5
21A
330
6C
100
AcDbEntity
  8
Visible (ANSI)
100
AcDbCircle
 10
54.9550561028111
 20
66.49106876855262
 30
0.0
 40
0.28125
  0
ARC
  5
21B
330
6C
100
AcDbEntity
  8
Visible (ANSI)
100
AcDbCircle
 10
56.70505610281111
 20
67.36606876855262
 30
0.0
 40
0.1249999999999988
100
AcDbArc
 50
0.0
 51
90.0
  0
ARC
  5
21C
330
6C
100
AcDbEntity
  8
Visible (ANSI)
100
AcDbCircle
 10
47.3300561028111
 20
67.36606876855262
 30
0.0
 40
0.125
100
AcDbArc
 50
90.0
 51
180.0
  0
ARC
  5
21D
330
6C
100
AcDbEntity
  8
Visible (ANSI)
100
AcDbCircle
 10
47.33005610281108
 20
59.9909716050475
 30
0.0
 40
0.1249999999999834
100
AcDbArc
 50
180.0
 51
189.3624011371786
  0
ARC
  5
21E
330
6C
100
AcDbEntity
  8
Visible (ANSI)
100
AcDbCircle
 10
56.70505610281126
 20
59.99097160504749
 30
0.0
 40
0.1249999999998415
100
AcDbArc
 50
350.6375988628333
 51
0.0
  0
LINE
  5
21F
330
6C
100
AcDbEntity
  8
Visible (ANSI)
100
AcDbLine
 10
56.8300561028111
 20
67.36606876855262
 30
0.0
 11
56.8300561028111
 21
65.99117798532174
 31
0.0
  0
LINE
  5
220
330
6C
100
AcDbEntity
  8
Visible (ANSI)
100
AcDbLine
 10
47.3300561028111
 20
67.49106876855262
 30
0.0
 11
56.70505610281111
 21
67.49106876855262
 31
0.0
  0
LINE
  5
221
330
6C
100
AcDbEntity
  8
Visible (ANSI)
100
AcDbLine
 10
47.20505610281111
 20
65.99117798532174
 30
0.0
 11
47.20505610281111
 21
67.36606876855262
 31
0.0
  0
LINE
  5
222
330
6C
100
AcDbEntity
  8
Visible (ANSI)
100
AcDbLine
 10
56.8300561028111
 20
65.8364983769372
 30
0.0
 11
56.8300561028111
 21
65.99117798532174
 31
0.0
  0
LINE
  5
223
330
6C
100
AcDbEntity
  8
Visible Narrow (ANSI)
100
AcDbLine
 10
47.20505610281111
 20
65.99117798532174
 30
0.0
 11
56.8300561028111
 21
65.99117798532174
 31
0.0
  0
LINE
  5
224
330
6C
100
AcDbEntity
  8
Visible (ANSI)
100
AcDbLine
 10
47.20505610281111
 20
65.8364983769372
 30
0.0
 11
47.20505610281111
 21
65.99117798532174
 31
0.0
  0
LINE
  5
225
330
6C
100
AcDbEntity
  8
Visible Narrow (ANSI)
100
AcDbLine
 10
47.20505610281111
 20
65.8364983769372
 30
0.0
 11
56.8300561028111
 21
65.8364983769372
 31
0.0
  0
LINE
  5
226
330
6C
100
AcDbEntity
  8
Visible (ANSI)
100
AcDbLine
 10
56.8300561028111
 20
65.80315364901462
 30
0.0
 11
56.8300561028111
 21
65.8364983769372
 31
0.0
  0
LINE
  5
227
330
6C
100
AcDbEntity
  8
Visible (ANSI)
100
AcDbLine
 10
47.20505610281111
 20
65.8364983769372
 30
0.0
 11
47.20505610281111
 21
65.80315364901462
 31
0.0
  0
LINE
  5
228
330
6C
100
AcDbEntity
  8
Visible (ANSI)
100
AcDbLine
 10
56.8300561028111
 20
65.80315364901462
 30
0.0
 11
56.8300561028111
 21
65.74106876855267
 31
0.0
  0
LINE
  5
229
330
6C
100
AcDbEntity
  8
Visible (ANSI)
100
AcDbLine
 10
47.20505610281111
 20
65.80315364901462
 30
0.0
 11
47.20505610281111
 21
65.74106876855272
 31
0.0
  0
LINE
  5
22A
330
6C
100
AcDbEntity
  8
Visible Narrow (ANSI)
100
AcDbLine
 10
48.20505610281116
 20
65.73686238827838
 30
0.0
 11
55.83005610281112
 21
65.73686238827841
 31
0.0
  0
LINE
  5
22B
330
6C
100
AcDbEntity
  8
Visible Narrow (ANSI)
100
AcDbLine
 10
47.20505610281111
 20
65.80315364901462
 30
0.0
 11
56.8300561028111
 21
65.80315364901462
 31
0.0
  0
LINE
  5
22C
330
6C
100
AcDbEntity
  8
Visible (ANSI)
100
AcDbLine
 10
56.8300561028111
 20
59.9909716050475
 30
0.0
 11
56.8300561028111
 21
60.01316585546474
 31
0.0
  0
LINE
  5
22D
330
6C
100
AcDbEntity
  8
Visible (ANSI)
100
AcDbLine
 10
47.20505610281111
 20
60.0131658554647
 30
0.0
 11
47.20505610281111
 21
59.9909716050475
 31
0.0
  0
MTEXT
  5
22E
330
6C
100
AcDbEntity
  8
Symbol (ANSI)
100
AcDbMText
 10
49.4953648927389
 20
56.64043409390354
 30
0.0
 40
0.8400000103815333
 41
0.0
 71
     7
 72
     1
  1
TOP VIEW
  7
Text Style168
 73
     1
 44
1.0
  0
LINE
  5
22F
330
6C
100
AcDbEntity
  8
Symbol (ANSI)
370
    30
100
AcDbLine
 10
49.49603689446753
 20
56.46913263227931
 30
0.0
 11
54.79606923604166
 21
56.46913263227931
 31
0.0
  0
ELLIPSE
  5
230
330
6C
100
AcDbEntity
  8
Visible (ANSI)
100
AcDbEllipse
 10
105.2723367562408
 20
68.60678570234849
 30
0.0
 11
-0.28125
 21
0.0000000000000182
 31
0.0
210
0.0
220
0.0
230
1.0
 40
0.5758617009853082
 41
0.0
 42
6.283185307179586
  0
ELLIPSE
  5
231
330
6C
100
AcDbEntity
  8
Visible (ANSI)
100
AcDbEllipse
 10
105.2723367562408
 20
68.50459231174316
 30
0.0
 11
0.2812499999999996
 21
-0.0000000000000009
 31
0.0
210
0.0
220
0.0
230
1.0
 40
0.5758617009853185
 41
0.3209702928256549
 42
2.820622360764148
  0
ELLIPSE
  5
232
330
6C
100
AcDbEntity
  8
Visible (ANSI)
100
AcDbEllipse
 10
109.2498124004157
 20
66.31630981226695
 30
0.0
 11
-0.28125
 21
0.0000000000000182
 31
0.0
210
0.0
220
0.0
230
1.0
 40
0.5758617009853082
 41
0.0
 42
6.283185307179586
  0
ELLIPSE
  5
233
330
6C
100
AcDbEntity
  8
Visible (ANSI)
100
AcDbEllipse
 10
109.2498124004157
 20
66.21411642166163
 30
0.0
 11
0.281249999999999
 21
-0.0000000000000009
 31
0.0
210
0.0
220
0.0
230
1.0
 40
0.5758617009853185
 41
0.3209702928256544
 42
2.820622360764148
  0
ELLIPSE
  5
234
330
6C
100
AcDbEntity
  8
Visible (ANSI)
100
AcDbEllipse
 10
103.2394047603294
 20
68.70858463079639
 30
0.0
 11
-0.28125
 21
0.0000000000000158
 31
0.0
210
0.0
220
0.0
230
1.0
 40
0.5758617009853113
 41
0.0
 42
6.283185307179586
  0
ELLIPSE
  5
235
330
6C
100
AcDbEntity
  8
Visible (ANSI)
100
AcDbEllipse
 10
103.2394047603294
 20
68.60639124019107
 30
0.0
 11
0.2812499999999999
 21
0.0
 31
0.0
210
0.0
220
0.0
230
1.0
 40
0.5758617009853118
 41
0.3209702928256534
 42
2.82062236076414
  0
ELLIPSE
  5
236
330
6C
100
AcDbEntity
  8
Visible (ANSI)
100
AcDbEllipse
 10
99.70387085439725
 20
66.67260606183441
 30
0.0
 11
-0.28125
 21
0.0000000000000158
 31
0.0
210
0.0
220
0.0
230
1.0
 40
0.5758617009853113
 41
0.0
 42
6.283185307179586
  0
ELLIPSE
  5
237
330
6C
100
AcDbEntity
  8
Visible (ANSI)
100
AcDbEllipse
 10
99.70387085439725
 20
66.5704126712291
 30
0.0
 11
0.281249999999996
 21
0.0
 31
0.0
210
0.0
220
0.0
230
1.0
 40
0.5758617009853119
 41
0.320970292825596
 42
2.82062236076414
  0
ELLIPSE
  5
238
330
6C
100
AcDbEntity
  8
Visible (ANSI)
100
AcDbEllipse
 10
109.4265890957126
 20
65.14562213511395
 30
0.0
 11
-0.2812499999999999
 21
0.0000000000000235
 31
0.0
210
0.0
220
0.0
230
1.0
 40
0.575861700985299
 41
0.0
 42
6.283185307179586
  0
ELLIPSE
  5
239
330
6C
100
AcDbEntity
  8
Visible (ANSI)
100
AcDbEllipse
 10
109.4265890957126
 20
65.04342874450864
 30
0.0
 11
0.2812499999999979
 21
-0.000000000000008
 31
0.0
210
0.0
220
0.0
230
1.0
 40
0.5758617009852919
 41
0.3209702928256522
 42
2.820622360764118
  0
ELLIPSE
  5
23A
330
6C
100
AcDbEntity
  8
Visible (ANSI)
100
AcDbEllipse
 10
105.8910551897805
 20
63.10964356615206
 30
0.0
 11
-0.2812499999999999
 21
0.0000000000000235
 31
0.0
210
0.0
220
0.0
230
1.0
 40
0.575861700985299
 41
0.0
 42
6.283185307179586
  0
ELLIPSE
  5
23B
330
6C
100
AcDbEntity
  8
Visible (ANSI)
100
AcDbEllipse
 10
105.8910551897804
 20
63.00745017554675
 30
0.0
 11
0.28125
 21
-0.000000000000008
 31
0.0
210
0.0
220
0.0
230
1.0
 40
0.5758617009852918
 41
0.3209702928256521
 42
2.820622360764118
  0
SPLINE
  5
23C
330
6C
100
AcDbEntity
  8
Visible (ANSI)
100
AcDbSpline
210
0.0
220
0.0
230
1.0
 70
     8
 71
     3
 72
     8
 73
     4
 74
     0
 42
0.0000000001
 43
0.0000000001
 40
0.0
 40
0.0
 40
0.0
 40
0.0
 40
0.7873318718203454
 40
0.7873318718203454
 40
0.7873318718203454
 40
0.7873318718203454
 10
111.1722589617668
 20
51.05398263346812
 30
0.0
 10
111.169648383449
 20
51.00554423518158
 30
0.0
 10
111.1500392159368
 20
50.96734370437797
 30
0.0
 10
111.1188579065852
 20
50.94904739377423
 30
0.0
  0
SPLINE
  5
23D
330
6C
100
AcDbEntity
  8
Visible (ANSI)
100
AcDbSpline
210
0.0
220
0.0
230
1.0
 70
     8
 71
     3
 72
     8
 73
     4
 74
     0
 42
0.0000000001
 43
0.0000000001
 40
0.0
 40
0.0
 40
0.0
 40
0.0
 40
0.210116422063561
 40
0.210116422063561
 40
0.210116422063561
 40
0.210116422063561
 10
104.2337736713728
 20
55.12593977139086
 30
0.0
 10
104.2344703602727
 20
55.12017044753775
 30
0.0
 10
104.2346339400103
 20
55.11411946350913
 30
0.0
 10
104.2343174448258
 20
55.10791438499498
 30
0.0
  0
SPLINE
  5
23E
330
6C
100
AcDbEntity
  8
Visible (ANSI)
100
AcDbSpline
210
0.0
220
0.0
230
1.0
 70
     8
 71
     3
 72
     8
 73
     4
 74
     0
 42
0.0000000001
 43
0.0000000001
 40
0.0
 40
0.0
 40
0.0
 40
0.0
 40
0.7825528965235888
 40
0.7825528965235888
 40
0.7825528965235888
 40
0.7825528965235888
 10
104.1011911499003
 20
55.12593977139085
 30
0.0
 10
104.0985964173646
 20
55.10445263084331
 30
0.0
 10
104.1033964359079
 20
55.07905858522994
 30
0.0
 10
104.1128514143045
 20
55.0563477800285
 30
0.0
  0
LINE
  5
23F
330
6C
100
AcDbEntity
  8
Visible Narrow (ANSI)
100
AcDbLine
 10
107.0668998251476
 20
48.68986353789829
 30
0.0
 11
111.1722589617668
 21
51.05398263346812
 31
0.0
  0
SPLINE
  5
240
330
6C
100
AcDbEntity
  8
Visible (ANSI)
100
AcDbSpline
210
0.0
220
0.0
230
1.0
 70
     8
 71
     3
 72
    11
 73
     7
 74
     0
 42
0.0000000001
 43
0.0000000001
 40
0.0
 40
0.0
 40
0.0
 40
0.0
 40
0.9120227246350253
 40
0.9120227246350253
 40
0.9120227246350253
 40
1.570796326794911
 40
1.570796326794911
 40
1.570796326794911
 40
1.570796326794911
 10
106.9296182746481
 20
48.61011804193862
 30
0.0
 10
106.9732748752916
 20
48.58109982685963
 30
0.0
 10
107.0164103482076
 20
48.57875329996139
 30
0.0
 10
107.0418286632583
 20
48.60322914962496
 30
0.0
 10
107.0601888581465
 20
48.62090858152206
 30
0.0
 10
107.0693320057913
 20
48.65199279122071
 30
0.0
 10
107.0668998251476
 20
48.6898635378983
 30
0.0
  0
LINE
  5
241
330
6C
100
AcDbEntity
  8
Visible Narrow (ANSI)
100
AcDbLine
 10
106.9296182746481
 20
48.71231143254393
 30
0.0
 11
106.9785538170501
 21
48.74049153723017
 31
0.0
  0
LINE
  5
242
330
6C
100
AcDbEntity
  8
Visible (ANSI)
100
AcDbLine
 10
106.9296182746481
 20
48.71231143254393
 30
0.0
 11
106.9296182746481
 21
48.61011804193862
 31
0.0
  0
LINE
  5
243
330
6C
100
AcDbEntity
  8
Visible (ANSI)
100
AcDbLine
 10
107.0106923138427
 20
48.72223129096646
 30
0.0
 11
107.0668998251476
 21
48.68986353789829
 31
0.0
  0
LINE
  5
244
330
6C
100
AcDbEntity
  8
Visible (ANSI)
100
AcDbLine
 10
106.9785114774993
 20
48.74076300212231
 30
0.0
 11
107.0106923138427
 21
48.72223129096646
 31
0.0
  0
SPLINE
  5
245
330
6C
100
AcDbEntity
  8
Visible (ANSI)
100
AcDbSpline
210
0.0
220
0.0
230
1.0
 70
     8
 71
     3
 72
    11
 73
     7
 74
     0
 42
0.0000000001
 43
0.0000000001
 40
0.0
 40
0.0
 40
0.0
 40
0.0
 40
1.127197082403468
 40
1.127197082403468
 40
1.127197082403468
 40
1.570796326794911
 40
1.570796326794911
 40
1.570796326794911
 40
1.570796326794911
 10
106.9785114774993
 20
48.74076300212234
 30
0.0
 10
106.9826730694581
 20
48.71436148061374
 30
0.0
 10
106.9714921708526
 20
48.69752429132695
 30
0.0
 10
106.9531567457602
 20
48.70051604990297
 30
0.0
 10
106.9459409883354
 20
48.70169343215885
 30
0.0
 10
106.937782765036
 20
48.70572356793154
 30
0.0
 10
106.9296182746481
 20
48.71231143254393
 30
0.0
  0
LINE
  5
246
330
6C
100
AcDbEntity
  8
Visible Narrow (ANSI)
100
AcDbLine
 10
104.2337736713728
 20
55.12593977139086
 30
0.0
 11
104.2634384692546
 21
55.10885695042325
 31
0.0
  0
SPLINE
  5
247
330
6C
100
AcDbEntity
  8
Visible (ANSI)
100
AcDbSpline
210
0.0
220
0.0
230
1.0
 70
     8
 71
     3
 72
    11
 73
     7
 74
     0
 42
0.0000000001
 43
0.0000000001
 40
0.0
 40
0.0
 40
0.0
 40
0.0
 40
0.912022724634949
 40
0.912022724634949
 40
0.912022724634949
 40
1.011008818411223
 40
1.011008818411223
 40
1.011008818411223
 40
1.011008818411223
 10
99.90744366563276
 20
52.81272014004503
 30
0.0
 10
99.91081083761745
 20
52.76029092695024
 30
0.0
 10
99.93698712975525
 20
52.69532933582953
 30
0.0
 10
99.97753804722528
 20
52.6425742825051
 30
0.0
 10
99.98193922804126
 20
52.63684852972011
 30
0.0
 10
99.98649852424163
 20
52.63127232432998
 30
0.0
 10
99.99119253200149
 20
52.62586839360771
 30
0.0
  0
SPLINE
  5
248
330
6C
100
AcDbEntity
  8
Visible (ANSI)
100
AcDbSpline
210
0.0
220
0.0
230
1.0
 70
     8
 71
     3
 72
     8
 73
     4
 74
     0
 42
0.0000000001
 43
0.0000000001
 40
0.0
 40
0.0
 40
0.0
 40
0.0
 40
0.9612357747683081
 40
0.9612357747683081
 40
0.9612357747683081
 40
0.9612357747683081
 10
99.99583201328109
 20
52.761820675821
 30
0.0
 10
99.99938087898812
 20
52.73930634591494
 30
0.0
 10
100.0140869648949
 20
52.71089726719935
 30
0.0
 10
100.0348725815285
 20
52.68880703901921
 30
0.0
  0
LINE
  5
249
330
6C
100
AcDbEntity
  8
Visible (ANSI)
100
AcDbLine
 10
99.96365117693764
 20
52.78035238697686
 30
0.0
 11
99.99583201328109
 21
52.761820675821
 31
0.0
  0
LINE
  5
24A
330
6C
100
AcDbEntity
  8
Visible (ANSI)
100
AcDbLine
 10
99.90744366563276
 20
52.81272014004503
 30
0.0
 11
99.96365117693764
 21
52.78035238697686
 31
0.0
  0
LINE
  5
24B
330
6C
100
AcDbEntity
  8
Visible Narrow (ANSI)
100
AcDbLine
 10
99.99583201328109
 20
52.761820675821
 30
0.0
 11
104.1011911499003
 21
55.12593977139085
 31
0.0
  0
LINE
  5
24C
330
6C
100
AcDbEntity
  8
Visible (ANSI)
100
AcDbLine
 10
107.0301039596429
 20
48.59439424484357
 30
0.0
 11
111.1189109147129
 21
50.94898157299149
 31
0.0
  0
LINE
  5
24D
330
6C
100
AcDbEntity
  8
Visible (ANSI)
100
AcDbLine
 10
106.9296182746481
 20
48.71231143254393
 30
0.0
 11
106.907521187736
 21
48.72503629859996
 31
0.0
  0
LINE
  5
24E
330
6C
100
AcDbEntity
  8
Visible (ANSI)
100
AcDbLine
 10
106.8509756926807
 20
48.65540529296024
 30
0.0
 11
106.9296182746481
 21
48.61011804193862
 31
0.0
  0
ELLIPSE
  5
24F
330
6C
100
AcDbEntity
  8
Visible (ANSI)
100
AcDbEllipse
 10
104.1674824106366
 20
55.08776517322282
 30
0.0
 11
0.09375
 21
-0.0000000000000055
 31
0.0
210
0.0
220
0.0
230
1.0
 40
0.5758617009853115
 41
0.7853981633979439
 42
2.356194490192873
  0
ELLIPSE
  5
250
330
6C
100
AcDbEntity
  8
Visible (ANSI)
100
AcDbEllipse
 10
111.0175793533823
 20
51.14305669586017
 30
0.0
 11
0.2187499999999912
 21
0.0
 31
0.0
210
0.0
220
0.0
230
1.0
 40
0.5758617009853119
 41
5.497787143782257
 42
6.283185307179585
  0
LINE
  5
251
330
6C
100
AcDbEntity
  8
Visible (ANSI)
100
AcDbLine
 10
99.90744366563276
 20
52.81272014004503
 30
0.0
 11
98.51062816114499
 21
66.36651896771493
 31
0.0
  0
LINE
  5
252
330
6C
100
AcDbEntity
  8
Visible (ANSI)
100
AcDbLine
 10
106.9785114774993
 20
48.74076300212231
 30
0.0
 11
105.5816959730115
 21
62.29456182979217
 31
0.0
  0
LINE
  5
253
330
6C
100
AcDbEntity
  8
Visible (ANSI)
100
AcDbLine
 10
105.6700843206598
 20
62.24366236556813
 30
0.0
 11
107.0668998251476
 21
48.68986353789829
 31
0.0
  0
LINE
  5
254
330
6C
100
AcDbEntity
  8
Visible (ANSI)
100
AcDbLine
 10
105.5816959730115
 20
62.29456182979217
 30
0.0
 11
105.6700843206598
 21
62.24366236556813
 31
0.0
  0
LINE
  5
255
330
6C
100
AcDbEntity
  8
Visible (ANSI)
100
AcDbLine
 10
98.59901650879333
 20
66.31561950349087
 30
0.0
 11
99.99583201328109
 21
52.761820675821
 31
0.0
  0
LINE
  5
256
330
6C
100
AcDbEntity
  8
Visible (ANSI)
100
AcDbLine
 10
98.51062816114499
 20
66.36651896771493
 30
0.0
 11
98.59901650879333
 21
66.31561950349087
 31
0.0
  0
ELLIPSE
  5
257
330
6C
100
AcDbEntity
  8
Visible (ANSI)
100
AcDbEllipse
 10
111.0175793533822
 20
65.50122807590728
 30
0.0
 11
0.2187500000000012
 21
0.0
 31
0.0
210
0.0
220
0.0
230
1.0
 40
0.5758617009853119
 41
5.497787143782266
 42
7.068583470577141
  0
ELLIPSE
  5
258
330
6C
100
AcDbEntity
  8
Visible (ANSI)
100
AcDbEllipse
 10
104.1674824106366
 20
69.44593655326992
 30
0.0
 11
-0.0937499999999994
 21
0.0
 31
0.0
210
0.0
220
0.0
230
1.0
 40
0.5758617009853119
 41
4.544940901164574
 42
4.87983705960395
  0
LINE
  5
259
330
6C
100
AcDbEntity
  8
Visible (ANSI)
100
AcDbLine
 10
99.04095824703496
 20
66.13776722532467
 30
0.0
 11
98.66530776952956
 21
66.35408994827682
 31
0.0
  0
LINE
  5
25A
330
6C
100
AcDbEntity
  8
Visible (ANSI)
100
AcDbLine
 10
104.1518574106368
 20
68.67374259744933
 30
0.0
 11
99.74806502822152
 21
66.13776722532475
 31
0.0
  0
LINE
  5
25B
330
6C
100
AcDbEntity
  8
Visible (ANSI)
100
AcDbLine
 10
99.04095824703496
 20
66.23996061592999
 30
0.0
 11
98.66530776952956
 21
66.45628333888215
 31
0.0
  0
LINE
  5
25C
330
6C
100
AcDbEntity
  8
Visible (ANSI)
100
AcDbLine
 10
105.5154047122754
 20
62.51157486151949
 30
0.0
 11
105.1397542347701
 21
62.72789758447157
 31
0.0
  0
LINE
  5
25D
330
6C
100
AcDbEntity
  8
Visible (ANSI)
100
AcDbLine
 10
105.1397542347701
 20
62.62570419386626
 30
0.0
 11
105.5154047122754
 21
62.40938147091418
 31
0.0
  0
LINE
  5
25E
330
6C
100
AcDbEntity
  8
Visible (ANSI)
100
AcDbLine
 10
109.4704407722354
 20
65.62896981416367
 30
0.0
 11
104.1831074106368
 21
68.67374259744933
 31
0.0
  0
LINE
  5
25F
330
6C
100
AcDbEntity
  8
Visible (ANSI)
100
AcDbLine
 10
109.543546617185
 20
65.68906434854433
 30
0.0
 11
104.1831074106368
 21
68.77593598805465
 31
0.0
  0
LINE
  5
260
330
6C
100
AcDbEntity
  8
Visible (ANSI)
100
AcDbLine
 10
104.1518574106368
 20
68.77593598805464
 30
0.0
 11
99.74806502822152
 21
66.23996061593006
 31
0.0
  0
LINE
  5
261
330
6C
100
AcDbEntity
  8
Visible (ANSI)
100
AcDbLine
 10
105.13975423477
 20
63.13509329826389
 30
0.0
 11
109.5435466171852
 21
65.67106867038845
 31
0.0
  0
ELLIPSE
  5
262
330
6C
100
AcDbEntity
  8
Visible (ANSI)
100
AcDbEllipse
 10
104.1674824106366
 20
69.44593655326993
 30
0.0
 11
0.2187499999999913
 21
0.0000000000000001
 31
0.0
210
0.0
220
0.0
230
1.0
 40
0.5758617009853118
 41
1.499306876909287
 42
1.642285776680328
  0
LINE
  5
263
330
6C
100
AcDbEntity
  8
Visible Narrow (ANSI)
100
AcDbLine
 10
111.1722589617668
 20
51.05398263346812
 30
0.0
 11
111.1722589617668
 21
65.41215401351522
 31
0.0
  0
LINE
  5
264
330
6C
100
AcDbEntity
  8
Visible Narrow (ANSI)
100
AcDbLine
 10
104.2337736713728
 20
68.64456583835934
 30
0.0
 11
104.2337736713728
 21
55.12593977139086
 31
0.0
  0
LINE
  5
265
330
6C
100
AcDbEntity
  8
Visible Narrow (ANSI)
100
AcDbLine
 10
104.1011911499003
 20
55.12593977139085
 30
0.0
 11
104.1011911499003
 21
68.64456583835904
 31
0.0
  0
LINE
  5
266
330
6C
100
AcDbEntity
  8
Visible (ANSI)
100
AcDbLine
 10
111.2363293533822
 20
65.50122807590728
 30
0.0
 11
111.2363293533822
 21
51.14305669586017
 31
0.0
  0
LINE
  5
267
330
6C
100
AcDbEntity
  8
Visible (ANSI)
100
AcDbLine
 10
99.74806502822152
 20
66.23996061593006
 30
0.0
 11
99.04095824703496
 21
66.23996061592999
 31
0.0
  0
LINE
  5
268
330
6C
100
AcDbEntity
  8
Visible (ANSI)
100
AcDbLine
 10
99.04095824703496
 20
66.23996061592999
 30
0.0
 11
99.04095824703496
 21
66.13776722532467
 31
0.0
  0
LINE
  5
269
330
6C
100
AcDbEntity
  8
Visible (ANSI)
100
AcDbLine
 10
99.04095824703496
 20
66.13776722532467
 30
0.0
 11
99.74806502822152
 21
66.13776722532475
 31
0.0
  0
LINE
  5
26A
330
6C
100
AcDbEntity
  8
Visible (ANSI)
100
AcDbLine
 10
99.74806502822152
 20
66.13776722532475
 30
0.0
 11
99.74806502822152
 21
66.23996061593006
 31
0.0
  0
LINE
  5
26B
330
6C
100
AcDbEntity
  8
Visible (ANSI)
100
AcDbLine
 10
105.1397542347701
 20
62.72789758447157
 30
0.0
 11
105.13975423477
 21
63.13509329826389
 31
0.0
  0
LINE
  5
26C
330
6C
100
AcDbEntity
  8
Visible (ANSI)
100
AcDbLine
 10
105.1397542347701
 20
62.62570419386626
 30
0.0
 11
105.1397542347701
 21
62.72789758447157
 31
0.0
  0
ELLIPSE
  5
26D
330
6C
100
AcDbEntity
  8
Visible (ANSI)
100
AcDbEllipse
 10
98.66530776952956
 20
66.27744490532285
 30
0.0
 11
-0.0467842698360317
 21
0.0812421971385993
 31
0.0
210
0.0
220
0.0
230
1.0
 40
0.5780931159158104
 41
5.499720852205022
 42
7.070517178999979
  0
ELLIPSE
  5
26E
330
6C
100
AcDbEntity
  8
Visible (ANSI)
100
AcDbEllipse
 10
98.66530776952956
 20
66.27744490532285
 30
0.0
 11
-0.1091632962840842
 21
0.1895651266567493
 31
0.0
210
0.0
220
0.0
230
0.9999999999999998
 40
0.5780931159158105
 41
5.499720852205022
 42
7.070517178999891
  0
ELLIPSE
  5
26F
330
6C
100
AcDbEntity
  8
Visible (ANSI)
100
AcDbEllipse
 10
105.5154047122754
 20
62.33273642796011
 30
0.0
 11
-0.1091632962841471
 21
0.1895651266568293
 31
0.0
210
0.0
220
0.0
230
1.0
 40
0.5780931159158204
 41
3.92892452540989
 42
5.49972085220485
  0
ELLIPSE
  5
270
330
6C
100
AcDbEntity
  8
Visible (ANSI)
100
AcDbEllipse
 10
105.5154047122754
 20
62.33273642796011
 30
0.0
 11
0.0467842698360827
 21
-0.081242197138699
 31
0.0
210
0.0
220
0.0
230
0.9999999999999998
 40
0.5780931159158106
 41
0.7873318718206424
 42
2.358128198615402
  0
LINE
  5
271
330
6C
100
AcDbEntity
  8
Visible Narrow (ANSI)
100
AcDbLine
 10
111.0019543533822
 20
65.68906434854447
 30
0.0
 11
104.1831074106366
 21
69.61577714775133
 31
0.0
  0
LINE
  5
272
330
6C
100
AcDbEntity
  8
Visible Narrow (ANSI)
100
AcDbLine
 10
104.1518574106365
 20
69.61577714775133
 30
0.0
 11
98.66530776952956
 21
66.45628333888215
 31
0.0
  0
LINE
  5
273
330
6C
100
AcDbEntity
  8
Visible Narrow (ANSI)
100
AcDbLine
 10
98.66556464250567
 20
66.35394202496788
 30
0.0
 11
98.59901650879333
 21
66.31561950349087
 31
0.0
  0
LINE
  5
274
330
6C
100
AcDbEntity
  8
Visible Narrow (ANSI)
100
AcDbLine
 10
105.5154047122754
 20
62.51157486151949
 30
0.0
 11
111.0019543533824
 21
65.67106867038856
 31
0.0
  0
LINE
  5
275
330
6C
100
AcDbEntity
  8
Visible Narrow (ANSI)
100
AcDbLine
 10
111.1722589617668
 20
65.41215401351522
 30
0.0
 11
105.6700843206598
 21
62.24366236556813
 31
0.0
  0
LINE
  5
276
330
6C
100
AcDbEntity
  8
Visible (ANSI)
100
AcDbLine
 10
104.284477441874
 20
69.6309916837148
 30
0.0
 11
111.1189109147129
 21
65.69530319877597
 31
0.0
  0
LINE
  5
277
330
6C
100
AcDbEntity
  8
Visible (ANSI)
100
AcDbLine
 10
98.55614447324548
 20
66.46701003197961
 30
0.0
 11
104.0504873793991
 21
69.63099168371475
 31
0.0
  0
SPLINE
  5
278
330
6C
100
AcDbEntity
  8
Visible (ANSI)
100
AcDbSpline
210
0.0
220
0.0
230
1.0
 70
     8
 71
     3
 72
    11
 73
     7
 74
     0
 42
0.0000000001
 43
0.0000000001
 40
0.0
 40
0.0
 40
0.0
 40
0.0
 40
0.9120227246349074
 40
0.9120227246349074
 40
0.9120227246349074
 40
1.570796326794894
 40
1.570796326794894
 40
1.570796326794894
 40
1.570796326794894
 10
111.1722589617668
 20
65.59030213829936
 30
0.0
 10
111.1692349424993
 20
65.64641179365994
 30
0.0
 10
111.1434018030788
 20
65.68878402958772
 30
0.0
 10
111.103194038326
 20
65.70239413532957
 30
0.0
 10
111.0741511062745
 20
65.71222500702076
 30
0.0
 10
111.0381049483802
 20
65.70736636604469
 30
0.0
 10
111.0019543533822
 20
65.68906434854447
 30
0.0
  0
SPLINE
  5
279
330
6C
100
AcDbEntity
  8
Visible (ANSI)
100
AcDbSpline
210
0.0
220
0.0
230
1.0
 70
     8
 71
     3
 72
     8
 73
     4
 74
     0
 42
0.0000000001
 43
0.0000000001
 40
0.0
 40
0.0
 40
0.0
 40
0.0
 40
0.7834644549744141
 40
0.7834644549744141
 40
0.7834644549744141
 40
0.7834644549744141
 10
104.1831074106366
 20
69.61577714775133
 30
0.0
 10
104.2209049806472
 20
69.64053521595478
 30
0.0
 10
104.2583179841513
 20
69.64561089649956
 30
0.0
 10
104.2844453515663
 20
69.63090866358614
 30
0.0
  0
LINE
  5
27A
330
6C
100
AcDbEntity
  8
Visible (ANSI)
100
AcDbLine
 10
104.1831074106368
 20
68.77593598805465
 30
0.0
 11
104.1831074106366
 21
69.61577714775133
 31
0.0
  0
LINE
  5
27B
330
6C
100
AcDbEntity
  8
Visible (ANSI)
100
AcDbLine
 10
104.1831074106368
 20
68.67374259744933
 30
0.0
 11
104.1831074106368
 21
68.77593598805465
 31
0.0
  0
LINE
  5
27C
330
6C
100
AcDbEntity
  8
Visible (ANSI)
100
AcDbLine
 10
111.0019543533822
 20
65.67106867038856
 30
0.0
 11
111.0019543533822
 21
65.68906434854447
 31
0.0
  0
SPLINE
  5
27D
330
6C
100
AcDbEntity
  8
Visible (ANSI)
100
AcDbSpline
210
0.0
220
0.0
230
1.0
 70
    24
 71
     3
 72
     8
 73
     4
 74
     0
 42
0.0000000001
 43
0.0000000001
 40
-0.3175000000000005
 40
-0.3175000000000005
 40
-0.3175000000000005
 40
-0.3175000000000005
 40
-0.1275259911874089
 40
-0.1275259911874089
 40
-0.1275259911874089
 40
-0.1275259911874089
 10
111.1722589617668
 20
65.59030213829936
 30
0.0
 10
111.1546301022024
 20
65.58015035324418
 30
0.0
 10
111.137001242638
 20
65.56999856818901
 30
0.0
 10
111.1193723830736
 20
65.55984678313383
 30
0.0
  0
LINE
  5
27E
330
6C
100
AcDbEntity
  8
Visible (ANSI)
100
AcDbLine
 10
111.0019543533822
 20
65.68906434854447
 30
0.0
 11
109.543546617185
 21
65.68906434854433
 31
0.0
  0
LINE
  5
27F
330
6C
100
AcDbEntity
  8
Visible (ANSI)
100
AcDbLine
 10
109.543546617185
 20
65.67106867038845
 30
0.0
 11
109.543546617185
 21
65.68906434854433
 31
0.0
  0
SPLINE
  5
280
330
6C
100
AcDbEntity
  8
Visible (ANSI)
100
AcDbSpline
210
0.0
220
0.0
230
1.0
 70
     8
 71
     3
 72
    11
 73
     7
 74
     0
 42
0.0000000001
 43
0.0000000001
 40
0.787331871820291
 40
0.787331871820291
 40
0.787331871820291
 40
0.787331871820291
 40
0.9120227246350472
 40
0.9120227246350472
 40
0.9120227246350472
 40
1.570796326794894
 40
1.570796326794894
 40
1.570796326794894
 40
1.570796326794894
 10
104.0505403875268
 20
69.63092586293202
 30
0.0
 10
104.054651733323
 20
69.63334730568681
 30
0.0
 10
104.0590533258079
 20
69.63526952071984
 30
0.0
 10
104.0637236100881
 20
69.6366541114172
 30
0.0
 10
104.0883979140078
 20
69.64396925748146
 30
0.0
 10
104.1200754437704
 20
69.63659489087847
 30
0.0
 10
104.1518574106365
 20
69.61577714775133
 30
0.0
  0
LINE
  5
281
330
6C
100
AcDbEntity
  8
Visible (ANSI)
100
AcDbLine
 10
104.1518574106365
 20
69.61577714775133
 30
0.0
 11
104.1518574106368
 21
68.77593598805464
 31
0.0
  0
LINE
  5
282
330
6C
100
AcDbEntity
  8
Visible (ANSI)
100
AcDbLine
 10
104.1518574106368
 20
68.67374259744933
 30
0.0
 11
104.1518574106368
 21
68.77593598805464
 31
0.0
  0
SPLINE
  5
283
330
6C
100
AcDbEntity
  8
Visible (ANSI)
100
AcDbSpline
210
0.0
220
0.0
230
1.0
 70
     8
 71
     3
 72
    11
 73
     7
 74
     0
 42
0.0000000001
 43
0.0000000001
 40
0.0
 40
0.0
 40
0.0
 40
0.0
 40
0.9120227246350678
 40
0.9120227246350678
 40
0.9120227246350678
 40
1.570796326794894
 40
1.570796326794894
 40
1.570796326794894
 40
1.570796326794894
 10
111.0019543533824
 20
65.67106867038856
 30
0.0
 10
111.052002145278
 20
65.64573089757537
 30
0.0
 10
111.1015288094462
 20
65.59432163158047
 30
0.0
 10
111.133338315749
 20
65.53649525435372
 30
0.0
 10
111.1563150053467
 20
65.4947260201049
 30
0.0
 10
111.170074647701
 20
65.45016749706187
 30
0.0
 10
111.1722589617669
 20
65.41215401351518
 30
0.0
  0
LINE
  5
284
330
6C
100
AcDbEntity
  8
Visible (ANSI)
100
AcDbLine
 10
109.5435466171852
 20
65.67106867038845
 30
0.0
 11
111.0019543533824
 21
65.67106867038856
 31
0.0
  0
ELLIPSE
  5
285
330
6C
100
AcDbEntity
  8
Visible (ANSI)
100
AcDbEllipse
 10
105.0955600609448
 20
51.70304941786345
 30
0.0
 11
0.2812499999999999
 21
-0.0000000000000169
 31
0.0
210
0.0
220
0.0
230
1.0
 40
0.5758617009853113
 41
0.0
 42
6.283185307179586
  0
ELLIPSE
  5
286
330
6C
100
AcDbEntity
  8
Visible (ANSI)
100
AcDbEllipse
 10
105.0955600609448
 20
51.60085602725814
 30
0.0
 11
0.28125
 21
-0.0000000000000001
 31
0.0
210
0.0
220
0.0
230
1.0
 40
0.5758617009853114
 41
0.3209702928256544
 42
2.82062236076414
  0
ELLIPSE
  5
287
330
6C
100
AcDbEntity
  8
Visible (ANSI)
100
AcDbEllipse
 10
100.8971135476496
 20
51.57550942151967
 30
0.0
 11
0.28125
 21
-0.0000000000000168
 31
0.0
210
0.0
220
0.0
230
1.0
 40
0.5758617009853114
 41
0.0
 42
6.283185307179586
  0
ELLIPSE
  5
288
330
6C
100
AcDbEntity
  8
Visible (ANSI)
100
AcDbEllipse
 10
100.8971135476496
 20
51.47331603091435
 30
0.0
 11
0.28125
 21
0.0
 31
0.0
210
0.0
220
0.0
230
1.0
 40
0.5758617009853114
 41
0.3209702928256535
 42
2.82062236076414
  0
ELLIPSE
  5
289
330
6C
100
AcDbEntity
  8
Visible (ANSI)
100
AcDbEllipse
 10
105.0513658871212
 20
49.18323460299007
 30
0.0
 11
0.28125
 21
-0.0000000000000168
 31
0.0
210
0.0
220
0.0
230
1.0
 40
0.5758617009853114
 41
0.0
 42
6.283185307179586
  0
ELLIPSE
  5
28A
330
6C
100
AcDbEntity
  8
Visible (ANSI)
100
AcDbEllipse
 10
105.0513658871212
 20
49.08104121238475
 30
0.0
 11
0.2812499999999994
 21
0.0
 31
0.0
210
0.0
220
0.0
230
1.0
 40
0.5758617009853114
 41
0.3209702928256534
 42
2.82062236076414
  0
ELLIPSE
  5
28B
330
6C
100
AcDbEntity
  8
Visible (ANSI)
100
AcDbEllipse
 10
105.6700843206597
 20
48.11434585428525
 30
0.0
 11
-0.1249999999999982
 21
0.0000000000000075
 31
0.0
210
0.0
220
0.0
230
1.0
 40
0.5758617009853114
 41
0.7853981633978862
 42
2.356194490192779
  0
LINE
  5
28C
330
6C
100
AcDbEntity
  8
Visible Narrow (ANSI)
100
AcDbLine
 10
105.5816959730114
 20
48.0634463900612
 30
0.0
 11
105.5816959730114
 21
47.96125299945588
 31
0.0
  0
ELLIPSE
  5
28D
330
6C
100
AcDbEntity
  8
Visible (ANSI)
100
AcDbEllipse
 10
105.6700843206597
 20
48.01215246367992
 30
0.0
 11
0.1249999999999988
 21
0.0000000000000074
 31
0.0
210
0.0
220
0.0
230
1.0
 40
0.5758617009853114
 41
3.92699081698711
 42
5.497787143782114
  0
LINE
  5
28E
330
6C
100
AcDbEntity
  8
Visible Narrow (ANSI)
100
AcDbLine
 10
105.758472668308
 20
47.9612529994559
 30
0.0
 11
105.758472668308
 21
48.06344639006122
 31
0.0
  0
ELLIPSE
  5
28F
330
6C
100
AcDbEntity
  8
Visible (ANSI)
100
AcDbEllipse
 10
99.04095824703487
 20
51.8296122804825
 30
0.0
 11
-0.1249999999999998
 21
0.0000000000000001
 31
0.0
210
0.0
220
0.0
230
1.0
 40
0.5758617009853115
 41
0.0000000000000056
 42
0.7853981633976046
  0
ELLIPSE
  5
290
330
6C
100
AcDbEntity
  8
Visible (ANSI)
100
AcDbEllipse
 10
99.04095824703487
 20
51.93180567108781
 30
0.0
 11
-0.125
 21
0.0
 31
0.0
210
0.0
220
0.0
230
1.0
 40
0.5758617009853115
 41
5.497787143782288
 42
7.068583470577187
  0
LINE
  5
291
330
6C
100
AcDbEntity
  8
Visible Narrow (ANSI)
100
AcDbLine
 10
98.95256989938657
 20
51.77871281625844
 30
0.0
 11
98.95256989938657
 21
51.88090620686376
 31
0.0
  0
ELLIPSE
  5
292
330
6C
100
AcDbEntity
  8
Visible (ANSI)
100
AcDbEllipse
 10
104.2559394632583
 20
55.03700388910096
 30
0.0
 11
0.1249999999999987
 21
-0.0000000000000074
 31
0.0
210
0.0
220
0.0
230
1.0
 40
0.5758617009853115
 41
0.8248293379545614
 42
2.356194490192779
  0
LINE
  5
293
330
6C
100
AcDbEntity
  8
Visible (ANSI)
100
AcDbLine
 10
98.91595824703486
 20
51.8296122804825
 30
0.0
 11
98.91595824703486
 21
51.93180567108781
 31
0.0
  0
LINE
  5
294
330
6C
100
AcDbEntity
  8
Visible (ANSI)
100
AcDbLine
 10
105.758472668308
 20
47.9612529994559
 30
0.0
 11
106.7306672645214
 21
48.52110263332018
 31
0.0
  0
LINE
  5
295
330
6C
100
AcDbEntity
  8
Visible (ANSI)
100
AcDbLine
 10
106.7306672645214
 20
48.62329602392549
 30
0.0
 11
105.758472668308
 21
48.06344639006122
 31
0.0
  0
LINE
  5
296
330
6C
100
AcDbEntity
  8
Visible (ANSI)
100
AcDbLine
 10
98.95256989938657
 20
51.77871281625844
 30
0.0
 11
105.5816959730114
 21
47.96125299945588
 31
0.0
  0
LINE
  5
297
330
6C
100
AcDbEntity
  8
Visible (ANSI)
100
AcDbLine
 10
98.95256989938655
 20
51.98270513531184
 30
0.0
 11
99.92476449559985
 21
52.54255476917613
 31
0.0
  0
LINE
  5
298
330
6C
100
AcDbEntity
  8
Visible (ANSI)
100
AcDbLine
 10
105.5816959730114
 20
48.0634463900612
 30
0.0
 11
98.95256989938657
 21
51.88090620686376
 31
0.0
  0
ELLIPSE
  5
299
330
6C
100
AcDbEntity
  8
Visible (ANSI)
100
AcDbEllipse
 10
106.7306672645214
 20
48.69994106687949
 30
0.0
 11
0.1091632962840288
 21
0.1895651266567921
 31
0.0
210
0.0
220
0.0
230
0.9999999999999996
 40
0.5780931159156392
 41
3.925057108564034
 42
4.710455271961559
  0
ELLIPSE
  5
29A
330
6C
100
AcDbEntity
  8
Visible (ANSI)
100
AcDbEllipse
 10
106.7306672645214
 20
48.69994106687949
 30
0.0
 11
0.0467842698360122
 21
0.0812421971386248
 31
0.0
210
0.0
220
0.0
230
1.0
 40
0.5780931159156393
 41
3.925057108564035
 42
4.71045527196146
  0
ELLIPSE
  5
29B
330
6C
100
AcDbEntity
  8
Visible (ANSI)
100
AcDbEllipse
 10
99.92476449559985
 20
52.61919981213011
 30
0.0
 11
0.0467842698360121
 21
0.0812421971386248
 31
0.0
210
0.0
220
0.0
230
0.9999999999999998
 40
0.5780931159156392
 41
3.925057108564035
 42
4.71045527196146
  0
LINE
  5
29C
330
6C
100
AcDbEntity
  8
Visible Narrow (ANSI)
100
AcDbLine
 10
106.7775422645214
 20
48.67273835449608
 30
0.0
 11
99.97163949559983
 21
52.59199709974669
 31
0.0
  0
LINE
  5
29D
330
6C
100
AcDbEntity
  8
Visible Narrow (ANSI)
100
AcDbLine
 10
106.7306672645214
 20
48.62329602392549
 30
0.0
 11
99.92476449559985
 21
52.54255476917613
 31
0.0
  0
LINE
  5
29E
330
6C
100
AcDbEntity
  8
Visible (ANSI)
100
AcDbLine
 10
106.8636205477522
 20
48.67730678804762
 30
0.0
 11
106.8400422645213
 21
48.6364680713182
 31
0.0
  0
LINE
  5
29F
330
6C
100
AcDbEntity
  8
Visible (ANSI)
100
AcDbLine
 10
106.7775422645214
 20
48.67273835449608
 30
0.0
 11
106.8011205477522
 21
48.7135770712255
 31
0.0
  0
LINE
  5
2A0
330
6C
100
AcDbEntity
  8
Visible (ANSI)
100
AcDbLine
 10
99.99521777883071
 20
52.63283581647613
 30
0.0
 11
99.97163949559983
 21
52.59199709974669
 31
0.0
  0
ELLIPSE
  5
2A1
330
6C
100
AcDbEntity
  8
Visible (ANSI)
100
AcDbEllipse
 10
106.9104955477522
 20
48.65010407566421
 30
0.0
 11
0.0467842698360164
 21
0.0812421971386209
 31
0.0
210
0.0
220
0.0
230
1.0
 40
0.5780931159156394
 41
0.8283475791860697
 42
1.568862618371897
  0
ELLIPSE
  5
2A2
330
6C
100
AcDbEntity
  8
Visible (ANSI)
100
AcDbEllipse
 10
106.9104955477522
 20
48.65010407566421
 30
0.0
 11
0.1091632962840401
 21
0.1895651266567853
 31
0.0
210
0.0
220
0.0
230
0.9999999999999998
 40
0.5780931159156394
 41
0.7834644549744141
 42
1.56886261837184
  0
ELLIPSE
  5
2A3
330
6C
100
AcDbEntity
  8
Visible (ANSI)
100
AcDbEllipse
 10
100.1045927788307
 20
52.56936282091485
 30
0.0
 11
0.1091632962840405
 21
0.1895651266567861
 31
0.0
210
0.0
220
0.0
230
1.0
 40
0.5780931159156417
 41
0.7834644549744123
 42
1.56886261837184
  0
LINE
  5
2A4
330
6C
100
AcDbEntity
  8
Visible Narrow (ANSI)
100
AcDbLine
 10
106.9104955477522
 20
48.82894250922351
 30
0.0
 11
100.1045927788307
 21
52.74820125447416
 31
0.0
  0
LINE
  5
2A5
330
6C
100
AcDbEntity
  8
Visible Narrow (ANSI)
100
AcDbLine
 10
106.8011205477522
 20
48.7135770712255
 30
0.0
 11
99.99521777883071
 21
52.63283581647613
 31
0.0
  0
LINE
  5
2A6
330
6C
100
AcDbEntity
  8
Visible (ANSI)
100
AcDbLine
 10
106.9760644153821
 20
48.76450771826325
 30
0.0
 11
106.9104955477522
 21
48.72674911861819
 31
0.0
  0
LINE
  5
2A7
330
6C
100
AcDbEntity
  8
Visible (ANSI)
100
AcDbLine
 10
106.9104955477522
 20
48.82894250922351
 30
0.0
 11
106.9661226680192
 21
48.8609760373214
 31
0.0
  0
LINE
  5
2A8
330
6C
100
AcDbEntity
  8
Visible (ANSI)
100
AcDbLine
 10
104.1675511156099
 20
55.08790335332498
 30
0.0
 11
100.1045927788307
 21
52.74820125447416
 31
0.0
  0
LINE
  5
2A9
330
6C
100
AcDbEntity
  8
Visible Narrow (ANSI)
100
AcDbLine
 10
106.907521187736
 20
48.72503629859996
 30
0.0
 11
106.907521187736
 21
48.72495911103733
 31
0.0
  0
LINE
  5
2AA
330
6C
100
AcDbEntity
  8
Visible Narrow (ANSI)
100
AcDbLine
 10
104.3407747526543
 20
55.08987029436815
 30
0.0
 11
106.4493262155179
 21
53.87563626234886
 31
0.0
  0
LINE
  5
2AB
330
6C
100
AcDbEntity
  8
Visible Narrow (ANSI)
100
AcDbLine
 10
106.9104955477522
 20
48.72674911861821
 30
0.0
 11
106.907521187736
 21
48.72503629859996
 31
0.0
  0
DIMENSION
  5
2AC
330
6C
100
AcDbEntity
  8
Dimension (ANSI)
100
AcDbDimension
  2
*D4
 10
41.67670804896338
 20
33.71149327845446
 30
0.0
 11
41.67670804896338
 21
42.71143020785534
 31
0.0
 70
   160
  1
<>{\PHEIGHT}
 71
     5
 42
17.99987385880177
  3
Default (ANSI)
100
AcDbAlignedDimension
 13
47.17380610280609
 23
51.71136713725623
 33
0.0
 14
47.33005610280605
 24
33.71149327845446
 34
0.0
 50
90.0
100
AcDbRotatedDimension
1001
ACAD
1000
DSTYLE
1002
{
1070
   289
1070
     1
1070
   271
1070
     2
1070
   272
1070
     2
1070
    48
1040
0.0
1070
    47
1040
0.0
1002
}
  0
DIMENSION
  5
3AD
330
6C
100
AcDbEntity
  8
Dimension (ANSI)
100
AcDbDimension
  2
*D5
 10
57.08005610280613
 20
54.4826856092774
 30
0.0
 11
52.01755610280611
 21
54.4826856092774
 31
0.0
 70
   160
  1
<>{\PWIDTH}
 71
     5
 42
10.12500000000004
  3
Default (ANSI)
100
AcDbAlignedDimension
 13
46.95505610280608
 23
51.49261713725625
 33
0.0
 14
57.08005610280613
 24
51.49261713725625
 34
0.0
100
AcDbRotatedDimension
1001
ACAD
1000
DSTYLE
1002
{
1070
   289
1070
     1
1070
    73
1070
     0
1070
    74
1070
     0
1070
   271
1070
     2
1070
   272
1070
     2
1070
    48
1040
0.0
1070
    47
1040
0.0
1002
}
  0
DIMENSION
  5
4AB
330
6C
100
AcDbEntity
  8
Dimension (ANSI)
100
AcDbDimension
  2
*D6
 10
28.83215997303614
 20
55.40074969184679
 30
0.0
 11
24.83215997303614
 21
55.40074969184679
 31
0.0
 70
   160
  1
<>
 42
8.000000000000007
  3
Default (ANSI)
100
AcDbAlignedDimension
 13
20.83215997303613
 23
51.49261713725623
 33
0.0
 14
28.83215997303614
 24
51.71136713725622
 34
0.0
100
AcDbRotatedDimension
1001
ACAD
1000
DSTYLE
1002
{
1070
   289
1070
     1
1070
    73
1070
     0
1070
    74
1070
     0
1070
   271
1070
     2
1070
   272
1070
     2
1070
    48
1040
0.0
1070
    47
1040
0.0
1002
}
  0
DIMENSION
  5
595
330
6C
100
AcDbEntity
  8
Dimension (ANSI)
100
AcDbDimension
  2
*D7
 10
31.90051212952492
 20
53.32028453547242
 30
0.0
 11
31.42365605904643
 21
54.0057259823645
 31
0.0
 70
   165
  1
<>
 42
1.458789058225205
  3
Default (ANSI)
100
AcDb3PointAngularDimension
 13
29.29426454245611
 23
51.71136713725623
 33
0.0
 14
28.90566532409613
 24
52.14612564902454
 34
0.0
 15
28.85676454245612
 25
51.71136713725623
 35
0.0
1001
ACAD_DSTYLE_DIMANGULAR_EXTENSION
1070
   387
1070
     1
1001
ACAD
1000
DSTYLE
1002
{
1070
   179
1070
     0
1070
   272
1070
     0
1070
    48
1040
0.0
1070
    47
1040
0.0
1002
}
  0
DIMENSION
  5
6BE
330
6C
100
AcDbEntity
  8
Dimension (ANSI)
100
AcDbDimension
  2
*D8
 10
57.08005610281114
 20
64.33257255464615
 30
0.0
 11
60.87789223526463
 21
64.33257255464615
 31
0.0
 70
   160
  1
<>{\P(2 PL.)}
 71
     5
 42
1.250000000000021
  3
Default (ANSI)
100
AcDbAlignedDimension
 13
55.83005610281112
 23
62.33353982550294
 33
0.0
 14
57.08005610281114
 24
62.31284149893474
 34
0.0
100
AcDbRotatedDimension
1001
ACAD
1000
DSTYLE
1002
{
1070
   289
1070
     1
1070
    73
1070
     0
1070
    74
1070
     0
1070
   271
1070
     2
1070
    76
1070
     1
1070
    75
1070
     1
1070
   272
1070
     2
1070
    48
1040
0.0
1070
    47
1040
0.0
1002
}
  0
DIMENSION
  5
7AD
330
6C
100
AcDbEntity
  8
Dimension (ANSI)
100
AcDbDimension
  2
*D9
 10
61.3849921415175
 20
59.74106876855269
 30
0.0
 11
59.45887665640881
 21
57.85309516589044
 31
0.0
 70
   160
  1
<>
 42
1.249999999999936
  3
Default (ANSI)
100
AcDbAlignedDimension
 13
55.80795901589905
 23
60.99106876855262
 33
0.0
 14
56.86130610281114
 24
59.74106876855269
 34
0.0
 50
270.0
100
AcDbRotatedDimension
1001
ACAD
1000
DSTYLE
1002
{
1070
   289
1070
     1
1070
   271
1070
     2
1070
   272
1070
     2
1070
    48
1040
0.0
1070
    47
1040
0.0
1002
}
  0
LINE
  5
8AA
330
6C
100
AcDbEntity
  8
Center Mark (ANSI)
  6
CHAIN
 48
0.1834217607975006
100
AcDbLine
 10
47.6425561028002
 20
18.50150590596687
 30
0.0
 11
47.6425561028002
 21
16.18900590596687
 31
0.0
  0
LINE
  5
8AB
330
6C
100
AcDbEntity
  8
Center Mark (ANSI)
  6
CHAIN
 48
0.1834217607975006
100
AcDbLine
 10
47.6425561028002
 20
23.50150590596687
 30
0.0
 11
47.6425561028002
 21
21.18900590596688
 31
0.0
  0
LINE
  5
8AC
330
6C
100
AcDbEntity
  8
Centerline (ANSI)
  6
CHAIN
 48
0.9524481296539306
100
AcDbLine
 10
47.6425561028002
 20
16.18900590596687
 30
0.0
 11
47.6425561028002
 21
23.50150590596687
 31
0.0
  0
LINE
  5
8AD
330
6C
100
AcDbEntity
  8
Center Mark (ANSI)
  6
CHAIN
 48
0.1834217607975006
100
AcDbLine
 10
49.2050561028002
 20
24.81400590596688
 30
0.0
 11
49.2050561028002
 21
22.50150590596688
 31
0.0
  0
LINE
  5
8AE
330
6C
100
AcDbEntity
  8
Center Mark (ANSI)
  6
CHAIN
 48
0.1834217607975006
100
AcDbLine
 10
54.8300561028002
 20
24.81400590596688
 30
0.0
 11
54.8300561028002
 21
22.50150590596688
 31
0.0
  0
LINE
  5
8AF
330
6C
100
AcDbEntity
  8
Centerline (ANSI)
  6
CHAIN
 48
0.9524481296539306
100
AcDbLine
 10
48.0488061028002
 20
23.65775590596688
 30
0.0
 11
55.9863061028002
 21
23.65775590596688
 31
0.0
  0
LINE
  5
8B0
330
6C
100
AcDbEntity
  8
Center Mark (ANSI)
  6
CHAIN
 48
0.1834217607975006
100
AcDbLine
 10
56.3925561028002
 20
23.50150590596686
 30
0.0
 11
56.3925561028002
 21
21.18900590596686
 31
0.0
  0
LINE
  5
8B1
330
6C
100
AcDbEntity
  8
Center Mark (ANSI)
  6
CHAIN
 48
0.1834217607975006
100
AcDbLine
 10
56.39255610280024
 20
18.50150590596686
 30
0.0
 11
56.39255610280024
 21
16.18900590596686
 31
0.0
  0
LINE
  5
8B2
330
6C
100
AcDbEntity
  8
Centerline (ANSI)
  6
CHAIN
 48
0.9524481296539306
100
AcDbLine
 10
56.39255610280019
 20
23.50150590596686
 30
0.0
 11
56.39255610280024
 21
16.18900590596686
 31
0.0
  0
DIMENSION
  5
8B3
330
6C
100
AcDbEntity
  8
Dimension (ANSI)
100
AcDbDimension
  2
*D10
 10
44.81160137839076
 20
22.34525590596688
 30
0.0
 11
44.81160137839075
 21
23.34525590596684
 31
0.0
 70
   160
  1
<>
 42
1.999999999999936
  3
Default (ANSI)
100
AcDbAlignedDimension
 13
47.17380610280019
 23
24.34525590596682
 33
0.0
 14
46.4863061028002
 24
22.34525590596688
 34
0.0
 50
270.0
100
AcDbRotatedDimension
1001
ACAD
1000
DSTYLE
1002
{
1070
   289
1070
     1
1070
   271
1070
     2
1070
   272
1070
     2
1070
    48
1040
0.0
1070
    47
1040
0.0
1002
}
  0
DIMENSION
  5
9A6
330
6C
100
AcDbEntity
  8
Dimension (ANSI)
100
AcDbDimension
  2
*D11
 10
41.8842773403008
 20
17.34525590596687
 30
0.0
 11
41.88427734030079
 21
20.84525590596685
 31
0.0
 70
   160
  1
<>
 42
6.999999999999939
  3
Default (ANSI)
100
AcDbAlignedDimension
 13
47.17380610280019
 23
24.34525590596682
 33
0.0
 14
46.4863061028002
 24
17.34525590596687
 34
0.0
 50
270.0
100
AcDbRotatedDimension
1001
ACAD
1000
DSTYLE
1002
{
1070
   289
1070
     1
1070
   271
1070
     2
1070
   272
1070
     2
1070
    48
1040
0.0
1070
    47
1040
0.0
1002
}
  0
DIMENSION
  5
A96
330
6C
100
AcDbEntity
  8
Dimension (ANSI)
100
AcDbDimension
  2
*D12
 10
58.82468314453269
 20
23.65775590596688
 30
0.0
 11
60.78413196347138
 21
25.94214544208654
 31
0.0
 70
   160
  1
<>
 42
0.6874999999999361
  3
Default (ANSI)
100
AcDbAlignedDimension
 13
56.8613061028002
 23
24.34525590596682
 33
0.0
 14
55.9863061028002
 24
23.65775590596688
 34
0.0
 50
270.0
100
AcDbRotatedDimension
1001
ACAD
1000
DSTYLE
1002
{
1070
   289
1070
     1
1070
   271
1070
     2
1070
   272
1070
     2
1070
    48
1040
0.0
1070
    47
1040
0.0
1002
}
  0
DIMENSION
  5
B96
330
6C
100
AcDbEntity
  8
Dimension (ANSI)
100
AcDbDimension
  2
*D13
 10
54.8300561028002
 20
27.8143495032534
 30
0.0
 11
59.05617158865392
 21
27.8143495032534
 31
0.0
 70
   160
  1
<>
 42
2.249999999999992
  3
Default (ANSI)
100
AcDbAlignedDimension
 13
57.08005610280019
 23
24.12650590596681
 33
0.0
 14
54.8300561028002
 24
24.81400590596688
 34
0.0
 50
180.0
100
AcDbRotatedDimension
1001
ACAD
1000
DSTYLE
1002
{
1070
   289
1070
     2
1070
    73
1070
     0
1070
    74
1070
     0
1070
   271
1070
     2
1070
   272
1070
     2
1070
    48
1040
0.0
1070
    47
1040
0.0
1002
}
  0
DIMENSION
  5
C80
330
6C
100
AcDbEntity
  8
Dimension (ANSI)
100
AcDbDimension
  2
*D14
 10
49.2050561028002
 20
27.78207012288846
 30
0.0
 11
44.97894061694648
 21
27.78207012288846
 31
0.0
 70
   160
  1
<>
 42
2.249999999999992
  3
Default (ANSI)
100
AcDbAlignedDimension
 13
46.95505610280021
 23
24.12650590596682
 33
0.0
 14
49.2050561028002
 24
24.81400590596688
 34
0.0
100
AcDbRotatedDimension
1001
ACAD
1000
DSTYLE
1002
{
1070
   289
1070
     2
1070
    73
1070
     0
1070
    74
1070
     0
1070
   271
1070
     2
1070
   272
1070
     2
1070
    48
1040
0.0
1070
    47
1040
0.0
1002
}
  0
LINE
  5
D6A
330
6C
100
AcDbEntity
  8
Centerline (ANSI)
  6
CHAIN
 48
0.9524481296539306
100
AcDbLine
 10
46.4863061028002
 20
22.34525590596688
 30
0.0
 11
57.54880610280021
 21
22.34525590596686
 31
0.0
  0
LINE
  5
D6B
330
6C
100
AcDbEntity
  8
Centerline (ANSI)
  6
CHAIN
 48
0.9524481296539306
100
AcDbLine
 10
46.4863061028002
 20
17.34525590596687
 30
0.0
 11
57.54880610280023
 21
17.34525590596685
 31
0.0
  0
DIMENSION
  5
D6C
330
6C
100
AcDbEntity
  8
Dimension (ANSI)
100
AcDbDimension
  2
*D15
 10
47.6425561028002
 20
14.80575903658357
 30
0.0
 11
43.48370465363543
 21
14.80575903658357
 31
0.0
 70
   160
  1
<>{\P(2 PL.)}
 71
     5
 42
0.6875
  3
Default (ANSI)
100
AcDbAlignedDimension
 13
46.95505610280021
 23
16.34525590596681
 33
0.0
 14
47.6425561028002
 24
16.18900590596687
 34
0.0
100
AcDbRotatedDimension
1001
ACAD
1000
DSTYLE
1002
{
1070
   289
1070
     1
1070
    73
1070
     0
1070
    74
1070
     0
1070
   271
1070
     2
1070
   272
1070
     2
1070
    48
1040
0.0
1070
    47
1040
0.0
1002
}
  0
DIMENSION
  5
E6A
330
6C
100
AcDbEntity
  8
Dimension (ANSI)
100
AcDbDimension
  2
*D16
 10
56.21909524139457
 20
17.12386735147408
 30
0.0
 11
62.23670415222279
 21
20.04424127676692
 31
0.0
 70
   163
  1
<>{\P(6 PL.)}
 71
     5
 42
0.5625
  3
Default (ANSI)
100
AcDbDiametricDimension
 15
56.56601696420591
 25
17.56664446045964
 35
0.0
 40
0.0
1001
ACAD
1000
DSTYLE
1002
{
1070
   144
1040
1.0
1070
   271
1070
     3
1070
   272
1070
     2
1070
    48
1040
0.0
1070
    47
1040
0.0
1002
}
1001
ACAD_DSTYLE_DIMRADIAL_EXTENSION
1070
   387
1070
     1
1070
   388
1040
0.0
1070
   390
1040
0.0
  0
LINE
  5
F24
330
6C
100
AcDbEntity
  8
Center Mark (ANSI)
  6
CHAIN
 48
0.1834217607975006
100
AcDbLine
 10
49.08005610281112
 20
67.64731876855262
 30
0.0
 11
49.08005610281112
 21
65.33481876855262
 31
0.0
  0
LINE
  5
F25
330
6C
100
AcDbEntity
  8
Center Mark (ANSI)
  6
CHAIN
 48
0.1834217607975006
100
AcDbLine
 10
54.95505610281111
 20
67.64731876855262
 30
0.0
 11
54.95505610281111
 21
65.33481876855262
 31
0.0
  0
LINE
  5
F26
330
6C
100
AcDbEntity
  8
Centerline (ANSI)
  6
CHAIN
 48
0.9524481296539306
100
AcDbLine
 10
47.9238061028111
 20
66.49106876855262
 30
0.0
 11
56.11130610281112
 21
66.49106876855262
 31
0.0
  0
LINE
  5
F27
330
6C
100
AcDbEntity
  8
Center Mark (ANSI)
  6
CHAIN
 48
0.1834217607975006
100
AcDbLine
 10
53.17380610281111
 20
63.49106876855266
 30
0.0
 11
50.8613061028111
 21
63.49106876855266
 31
0.0
  0
LINE
  5
F28
330
6C
100
AcDbEntity
  8
Center Mark (ANSI)
  6
CHAIN
 48
0.1834217607975006
100
AcDbLine
 10
52.01755610281111
 20
64.64731876855267
 30
0.0
 11
52.01755610281111
 21
62.33481876855266
 31
0.0
  0
DIMENSION
  5
F29
330
6C
100
AcDbEntity
  8
Dimension (ANSI)
100
AcDbDimension
  2
*D17
 10
49.08005610281112
 20
69.60992904111272
 30
0.0
 11
44.50016822950134
 21
69.60992904111272
 31
0.0
 70
   160
  1
<>
 42
2.124999999999971
  3
Default (ANSI)
100
AcDbAlignedDimension
 13
46.95505610281114
 23
67.74106876855789
 33
0.0
 14
49.08005610281112
 24
67.64731876855262
 34
0.0
 50
180.0
100
AcDbRotatedDimension
1001
ACAD
1000
DSTYLE
1002
{
1070
   289
1070
     2
1070
    73
1070
     0
1070
    74
1070
     0
1070
   271
1070
     2
1070
   272
1070
     2
1070
    48
1040
0.0
1070
    47
1040
0.0
1002
}
  0
DIMENSION
  5
1013
330
6C
100
AcDbEntity
  8
Dimension (ANSI)
100
AcDbDimension
  2
*D18
 10
52.01755610281111
 20
71.4549291474335
 30
0.0
 11
49.48630610281113
 21
71.4549291474335
 31
0.0
 70
   160
  1
<>
 42
5.062499999999964
  3
Default (ANSI)
100
AcDbAlignedDimension
 13
46.95505610281114
 23
67.74106876855789
 33
0.0
 14
52.01755610281111
 24
64.64731876855267
 34
0.0
 50
180.0
100
AcDbRotatedDimension
1001
ACAD
1000
DSTYLE
1002
{
1070
   289
1070
     1
1070
    73
1070
     0
1070
    74
1070
     0
1070
   271
1070
     2
1070
   272
1070
     2
1070
    48
1040
0.0
1070
    47
1040
0.0
1002
}
  0
DIMENSION
  5
10FD
330
6C
100
AcDbEntity
  8
Dimension (ANSI)
100
AcDbDimension
  2
*D19
 10
54.95505610281111
 20
69.5485323128453
 30
0.0
 11
59.53494397612097
 21
69.5485323128453
 31
0.0
 70
   160
  1
<>
 42
2.125000000000071
  3
Default (ANSI)
100
AcDbAlignedDimension
 13
57.08005610281118
 23
67.74106876855789
 33
0.0
 14
54.95505610281111
 24
67.64731876855262
 34
0.0
 50
180.0
100
AcDbRotatedDimension
1001
ACAD
1000
DSTYLE
1002
{
1070
   289
1070
     2
1070
    73
1070
     0
1070
    74
1070
     0
1070
   271
1070
     2
1070
   272
1070
     2
1070
    48
1040
0.0
1070
    47
1040
0.0
1002
}
  0
DIMENSION
  5
11E7
330
6C
100
AcDbEntity
  8
Dimension (ANSI)
100
AcDbDimension
  2
*D20
 10
39.39600050414935
 20
66.49106876855262
 30
0.0
 11
41.32211598925801
 21
69.62904237122014
 31
0.0
 70
   160
  1
<>
 42
1.250000000005272
  3
Default (ANSI)
100
AcDbAlignedDimension
 13
46.95505610281114
 23
67.74106876855789
 33
0.0
 14
47.9238061028111
 24
66.49106876855262
 34
0.0
 50
90.0
100
AcDbRotatedDimension
1001
ACAD
1000
DSTYLE
1002
{
1070
   289
1070
     1
1070
   271
1070
     2
1070
   272
1070
     2
1070
    48
1040
0.0
1070
    47
1040
0.0
1002
}
  0
DIMENSION
  5
12E4
330
6C
100
AcDbEntity
  8
Dimension (ANSI)
100
AcDbDimension
  2
*D21
 10
38.42209458656285
 20
63.49106876855267
 30
0.0
 11
38.42209458656284
 21
65.61606876855528
 31
0.0
 70
   160
  1
<>
 42
4.250000000005229
  3
Default (ANSI)
100
AcDbAlignedDimension
 13
46.95505610281114
 23
67.74106876855789
 33
0.0
 14
50.8613061028111
 24
63.49106876855266
 34
0.0
 50
90.0
100
AcDbRotatedDimension
1001
ACAD
1000
DSTYLE
1002
{
1070
   289
1070
     1
1070
   271
1070
     2
1070
   272
1070
     2
1070
    48
1040
0.0
1070
    47
1040
0.0
1002
}
  0
DIMENSION
  5
13CE
330
6C
100
AcDbEntity
  8
Dimension (ANSI)
100
AcDbDimension
  2
*D22
 10
52.24854538974728
 20
63.65152284865257
 30
0.0
 11
42.65364634233107
 21
59.09272723572806
 31
0.0
 70
   163
  1
<>{\P(3 PL.)}
 71
     5
 42
0.5625
  3
Default (ANSI)
100
AcDbDiametricDimension
 15
51.78656681587496
 25
63.33061468845277
 35
0.0
 40
0.0
1001
ACAD
1000
DSTYLE
1002
{
1070
   144
1040
1.000000000000126
1070
   271
1070
     3
1070
   272
1070
     3
1070
    48
1040
0.0
1070
    47
1040
0.0
1002
}
1001
ACAD_DSTYLE_DIMRADIAL_EXTENSION
1070
   387
1070
     1
1070
   388
1040
0.0
1070
   390
1040
0.0
  0
DIMENSION
  5
1487
330
6C
100
AcDbEntity
  8
Dimension (ANSI)
100
AcDbDimension
  2
*D23
 10
28.58215997303619
 20
31.349288554045
 30
0.0
 11
24.70715997303616
 21
31.349288554045
 31
0.0
 70
   160
  1
<>
 42
7.750000000000049
  3
Default (ANSI)
100
AcDbAlignedDimension
 13
20.83215997303613
 23
33.93011713725623
 33
0.0
 14
28.58215997303619
 24
33.71149327845446
 34
0.0
100
AcDbRotatedDimension
1001
ACAD
1000
DSTYLE
1002
{
1070
   289
1070
     1
1070
    73
1070
     0
1070
    74
1070
     0
1070
   271
1070
     2
1070
   272
1070
     2
1070
    48
1040
0.0
1070
    47
1040
0.0
1002
}
  0
LINE
  5
1571
330
6C
100
AcDbEntity
  8
Center Mark (ANSI)
  6
CHAIN
 48
0.1834217607975006
100
AcDbLine
 10
53.17380610280017
 20
20.59525590596161
 30
0.0
 11
50.86130610280017
 21
20.59525590596161
 31
0.0
  0
LINE
  5
1572
330
6C
100
AcDbEntity
  8
Center Mark (ANSI)
  6
CHAIN
 48
0.1834217607975006
100
AcDbLine
 10
52.01755610280017
 20
21.75150590596161
 30
0.0
 11
52.01755610280017
 21
19.43900590596161
 31
0.0
  0
LINE
  5
1573
330
6C
100
AcDbEntity
  8
Center Mark (ANSI)
  6
CHAIN
 48
0.1834217607975006
100
AcDbLine
 10
50.23630610280018
 20
17.59525590596157
 30
0.0
 11
47.92380610280017
 21
17.59525590596157
 31
0.0
  0
LINE
  5
1574
330
6C
100
AcDbEntity
  8
Center Mark (ANSI)
  6
CHAIN
 48
0.1834217607975006
100
AcDbLine
 10
49.08005610280017
 20
18.75150590596157
 30
0.0
 11
49.08005610280017
 21
16.43900590596157
 31
0.0
  0
LINE
  5
1575
330
6C
100
AcDbEntity
  8
Center Mark (ANSI)
  6
CHAIN
 48
0.1834217607975006
100
AcDbLine
 10
56.11130610280017
 20
17.59525590596157
 30
0.0
 11
53.79880610280018
 21
17.59525590596157
 31
0.0
  0
LINE
  5
1576
330
6C
100
AcDbEntity
  8
Center Mark (ANSI)
  6
CHAIN
 48
0.1834217607975006
100
AcDbLine
 10
54.95505610280018
 20
18.75150590596157
 30
0.0
 11
54.95505610280018
 21
16.43900590596157
 31
0.0
  0
MTEXT
  5
1577
102
{ACAD_XDICTIONARY
360
1583
102
}
330
6C
100
AcDbEntity
  8
Symbol (ANSI)
100
AcDbMText
 10
65.93522664934951
 20
6.657348365714731
 30
0.0
 40
0.7000000223400085
 41
51.68370975284125
 71
     4
 72
     1
  3
{\fRomanS|b0|i0|c0|p2;\H2x;PART#: FK1810\P(DATA SUBJECT TO CHANGE WITHOUT NOTICE)\H1.6157x; \H0.61894x;\P \H1.352x; \H0.73963x;\P\H0.6x;THIS DRAWING IS PROPERTY OF HUBBELL INC. WIEGMANN\H1.5633x; \H0.63966x;\PALL INFORMATION IS PROPRIETARY AND NOT TO
  1
 BE DUPLICATED\H1.234x; \H0.81039x;\P\H1.2571x; }
  7
Note Text (ANSI)
 73
     1
 44
0.8026435375213623
  0
ENDSEC
  0
SECTION
  2
OBJECTS
  0
DICTIONARY
  5
C
330
0
100
AcDbDictionary
281
     1
  3
ACAD_CIP_PREVIOUS_PRODUCT_INFO
350
1579
  3
ACAD_COLOR
350
63
  3
ACAD_GROUP
350
D
  3
ACAD_LAYOUT
350
62
  3
ACAD_MATERIAL
350
10
  3
ACAD_MLEADERSTYLE
350
66
  3
ACAD_MLINESTYLE
350
5F
  3
ACAD_PLOTSETTINGS
350
61
  3
ACAD_PLOTSTYLENAME
350
E
  3
ACAD_SCALELIST
350
42
  3
ACAD_TABLESTYLE
350
64
  3
ACAD_VISUALSTYLE
350
29
  3
ACDB_RECOMPOSE_DATA
350
1585
  3
AcDbVariableDictionary
350
76
  0
DICTIONARY
  5
15BB
330
F1E
100
AcDbDictionary
280
     1
281
     1
  3
ACAD_MTEXT_2008_RT
360
15BC
  0
DICTIONARY
  5
15BD
330
1481
100
AcDbDictionary
280
     1
281
     1
  3
ACAD_MTEXT_2008_RT
360
15BE
  0
DICTIONARY
  5
1583
330
1577
100
AcDbDictionary
280
     1
281
     1
  3
ACAD_MTEXT_2008_RT
360
1584
  0
XRECORD
  5
1579
102
{ACAD_REACTORS
330
C
102
}
330
C
100
AcDbXrecord
280
     1
300
INVPROSA
300
2012
300
INVPROSA_F_S
  0
DICTIONARY
  5
63
102
{ACAD_REACTORS
330
C
102
}
330
C
100
AcDbDictionary
281
     1
  0
DICTIONARY
  5
D
102
{ACAD_REACTORS
330
C
102
}
330
C
100
AcDbDictionary
281
     1
  0
DICTIONARY
  5
62
102
{ACAD_REACTORS
330
C
102
}
330
C
100
AcDbDictionary
281
     1
  3
Layout1
350
6B
  3
Layout2
350
73
  3
Model
350
6F
  0
DICTIONARY
  5
10
102
{ACAD_REACTORS
330
C
102
}
330
C
100
AcDbDictionary
281
     1
  3
ByBlock
350
19
  3
ByLayer
350
11
  3
Global
350
21
  0
DICTIONARY
  5
66
102
{ACAD_REACTORS
330
C
102
}
330
C
100
AcDbDictionary
281
     1
  3
Standard
350
67
  0
DICTIONARY
  5
5F
102
{ACAD_REACTORS
330
C
102
}
330
C
100
AcDbDictionary
281
     1
  3
Standard
350
60
  0
DICTIONARY
  5
61
102
{ACAD_REACTORS
330
C
102
}
330
C
100
AcDbDictionary
281
     1
  0
ACDBDICTIONARYWDFLT
  5
E
102
{ACAD_REACTORS
330
C
102
}
330
C
100
AcDbDictionary
281
     1
  3
Normal
350
F
100
AcDbDictionaryWithDefault
340
F
  0
DICTIONARY
  5
42
102
{ACAD_REACTORS
330
C
102
}
330
C
100
AcDbDictionary
281
     1
  3
A0
350
43
  3
A1
350
44
  3
A2
350
45
  3
A3
350
46
  3
A4
350
47
  3
A5
350
48
  3
A6
350
49
  3
A7
350
4A
  3
A8
350
4B
  3
A9
350
4C
  3
B0
350
4D
  3
B1
350
4E
  3
B2
350
4F
  3
B3
350
50
  3
B4
350
51
  3
B5
350
52
  3
B6
350
53
  0
DICTIONARY
  5
64
102
{ACAD_REACTORS
330
C
102
}
330
C
100
AcDbDictionary
281
     1
  3
Standard
350
65
  0
DICTIONARY
  5
29
102
{ACAD_REACTORS
330
C
102
}
330
C
100
AcDbDictionary
281
     1
  3
2dWireframe
350
2F
  3
Basic
350
2E
  3
Brighten
350
35
  3
ColorChange
350
39
  3
Conceptual
350
32
  3
Dim
350
34
  3
EdgeColorOff
350
41
  3
Facepattern
350
38
  3
Flat
350
2A
  3
FlatWithEdges
350
2B
  3
Gouraud
350
2C
  3
GouraudWithEdges
350
2D
  3
Hidden
350
31
  3
JitterOff
350
3F
  3
Linepattern
350
37
  3
OverhangOff
350
40
  3
Realistic
350
33
  3
Shaded
350
3E
  3
Shaded with edges
350
3D
  3
Shades of Gray
350
3A
  3
Sketchy
350
3B
  3
Thicken
350
36
  3
Wireframe
350
30
  3
X-Ray
350
3C
  0
XRECORD
  5
1585
102
{ACAD_REACTORS
330
C
102
}
330
C
100
AcDbXrecord
280
     1
 90
        1
330
65
330
B96
330
C80
330
F29
330
10FD
330
1577
  0
DICTIONARY
  5
76
102
{ACAD_REACTORS
330
C
102
}
330
C
100
AcDbDictionary
281
     1
  3
CANNOSCALE
350
79
  3
CMLEADERSTYLE
350
78
  3
CTABLESTYLE
350
77
  3
LAYEREVAL
350
157C
  3
LAYERNOTIFY
350
157D
  3
LIGHTINGUNITS
350
157B
  3
MSLTSCALE
350
157A
  3
XCLIPFRAME
350
157E
  0
XRECORD
  5
15BC
102
{ACAD_REACTORS
330
15BB
102
}
330
15BB
100
AcDbXrecord
280
     1
 40
24491.0
  1
\A1;\U+22050.563{\P(6 PL.)}
  0
XRECORD
  5
15BE
102
{ACAD_REACTORS
330
15BD
102
}
330
15BD
100
AcDbXrecord
280
     1
 40
24428.0
  1
\A1;\U+22050.563{\P(3 PL.)}
  0
XRECORD
  5
1584
102
{ACAD_REACTORS
330
1583
102
}
330
1583
100
AcDbXrecord
280
     1
 40
3027427.0
  1
\pxsm0.94;{\fRomanS|b0|i0;\H1.4000;PART#: FK1810\P(DATA SUBJECT TO CHANGE WITHOUT NOTICE)\P \P\fRomanS|b0|i0;\H0.8400;THIS DRAWING IS PROPERTY OF HUBBELL INC. WIEGMANN\PALL INFORMATION IS PROPRIETARY AND NOT TO BE DUPLICATED\P}
  0
LAYOUT
  5
6B
102
{ACAD_REACTORS
330
62
102
}
330
62
100
AcDbPlotSettings
  1

  2

  4

  6

 40
0.0
 41
0.0
 42
0.0
 43
0.0
 44
0.0
 45
0.0
 46
0.0
 47
0.0
 48
0.0
 49
0.0
140
0.0
141
0.0
142
1.0
143
1.0
 70
   688
 72
     0
 73
     0
 74
     5
  7

 75
    16
147
1.0
 76
     0
 77
     2
 78
   300
148
0.0
149
0.0
100
AcDbLayout
  1
Layout1
 70
     1
 71
     1
 10
0.0
 20
0.0
 11
12.0
 21
9.0
 12
0.0
 22
0.0
 32
0.0
 14
0.0
 24
0.0
 34
0.0
 15
0.0
 25
0.0
 35
0.0
146
0.0
 13
0.0
 23
0.0
 33
0.0
 16
1.0
 26
0.0
 36
0.0
 17
0.0
 27
1.0
 37
0.0
 76
     0
330
68
  0
LAYOUT
  5
73
102
{ACAD_REACTORS
330
62
102
}
330
62
100
AcDbPlotSettings
  1

  2

  4

  6

 40
0.0
 41
0.0
 42
0.0
 43
0.0
 44
0.0
 45
0.0
 46
0.0
 47
0.0
 48
0.0
 49
0.0
140
0.0
141
0.0
142
1.0
143
1.0
 70
   688
 72
     0
 73
     0
 74
     5
  7

 75
    16
147
1.0
 76
     0
 77
     2
 78
   300
148
0.0
149
0.0
100
AcDbLayout
  1
Layout2
 70
     1
 71
     2
 10
0.0
 20
0.0
 11
12.0
 21
9.0
 12
0.0
 22
0.0
 32
0.0
 14
0.0
 24
0.0
 34
0.0
 15
0.0
 25
0.0
 35
0.0
146
0.0
 13
0.0
 23
0.0
 33
0.0
 16
1.0
 26
0.0
 36
0.0
 17
0.0
 27
1.0
 37
0.0
 76
     0
330
70
  0
LAYOUT
  5
6F
102
{ACAD_REACTORS
330
62
102
}
330
62
100
AcDbPlotSettings
  1

  2

  4

  6

 40
0.0
 41
0.0
 42
0.0
 43
0.0
 44
0.0
 45
0.0
 46
0.0
 47
0.0
 48
0.0
 49
0.0
140
0.0
141
0.0
142
1.0
143
1.0
 70
  1712
 72
     0
 73
     0
 74
     0
  7

 75
     0
147
1.0
 76
     0
 77
     2
 78
   300
148
0.0
149
0.0
100
AcDbLayout
  1
Model
 70
     1
 71
     0
 10
0.0
 20
0.0
 11
12.0
 21
9.0
 12
0.0
 22
0.0
 32
0.0
 14
0.0
 24
0.0
 34
0.0
 15
0.0
 25
0.0
 35
0.0
146
0.0
 13
0.0
 23
0.0
 33
0.0
 16
1.0
 26
0.0
 36
0.0
 17
0.0
 27
1.0
 37
0.0
 76
     0
330
6C
  0
MATERIAL
  5
19
102
{ACAD_XDICTIONARY
360
1A
102
}
102
{ACAD_REACTORS
330
10
102
}
330
10
100
AcDbMaterial
  1
ByBlock
 72
     0
 43
0.0208333333333333
 43
0.0
 43
0.0
 43
0.0
 43
0.0
 43
0.0208333333333333
 43
0.0
 43
0.0
 43
0.0
 43
0.0
 43
1.0
 43
0.0
 43
0.0
 43
0.0
 43
0.0
 43
1.0
 77
     0
 47
0.0208333333333333
 47
0.0
 47
0.0
 47
0.0
 47
0.0
 47
0.0208333333333333
 47
0.0
 47
0.0
 47
0.0
 47
0.0
 47
1.0
 47
0.0
 47
0.0
 47
0.0
 47
0.0
 47
1.0
171
     0
 49
0.0208333333333333
 49
0.0
 49
0.0
 49
0.0
 49
0.0
 49
0.0208333333333333
 49
0.0
 49
0.0
 49
0.0
 49
0.0
 49
1.0
 49
0.0
 49
0.0
 49
0.0
 49
0.0
 49
1.0
175
     0
142
0.0208333333333333
142
0.0
142
0.0
142
0.0
142
0.0
142
0.0208333333333333
142
0.0
142
0.0
142
0.0
142
0.0
142
1.0
142
0.0
142
0.0
142
0.0
142
0.0
142
1.0
179
     0
144
0.0208333333333333
144
0.0
144
0.0
144
0.0
144
0.0
144
0.0208333333333333
144
0.0
144
0.0
144
0.0
144
0.0
144
1.0
144
0.0
144
0.0
144
0.0
144
0.0
144
1.0
147
0.0208333333333333
147
0.0
147
0.0
147
0.0
147
0.0
147
0.0208333333333333
147
0.0
147
0.0
147
0.0
147
0.0
147
1.0
147
0.0
147
0.0
147
0.0
147
0.0
147
1.0
  0
MATERIAL
  5
11
102
{ACAD_XDICTIONARY
360
12
102
}
102
{ACAD_REACTORS
330
10
102
}
330
10
100
AcDbMaterial
  1
ByLayer
 72
     0
 43
0.0208333333333333
 43
0.0
 43
0.0
 43
0.0
 43
0.0
 43
0.0208333333333333
 43
0.0
 43
0.0
 43
0.0
 43
0.0
 43
1.0
 43
0.0
 43
0.0
 43
0.0
 43
0.0
 43
1.0
 77
     0
 47
0.0208333333333333
 47
0.0
 47
0.0
 47
0.0
 47
0.0
 47
0.0208333333333333
 47
0.0
 47
0.0
 47
0.0
 47
0.0
 47
1.0
 47
0.0
 47
0.0
 47
0.0
 47
0.0
 47
1.0
171
     0
 49
0.0208333333333333
 49
0.0
 49
0.0
 49
0.0
 49
0.0
 49
0.0208333333333333
 49
0.0
 49
0.0
 49
0.0
 49
0.0
 49
1.0
 49
0.0
 49
0.0
 49
0.0
 49
0.0
 49
1.0
175
     0
142
0.0208333333333333
142
0.0
142
0.0
142
0.0
142
0.0
142
0.0208333333333333
142
0.0
142
0.0
142
0.0
142
0.0
142
1.0
142
0.0
142
0.0
142
0.0
142
0.0
142
1.0
179
     0
144
0.0208333333333333
144
0.0
144
0.0
144
0.0
144
0.0
144
0.0208333333333333
144
0.0
144
0.0
144
0.0
144
0.0
144
1.0
144
0.0
144
0.0
144
0.0
144
0.0
144
1.0
147
0.0208333333333333
147
0.0
147
0.0
147
0.0
147
0.0
147
0.0208333333333333
147
0.0
147
0.0
147
0.0
147
0.0
147
1.0
147
0.0
147
0.0
147
0.0
147
0.0
147
1.0
  0
MATERIAL
  5
21
102
{ACAD_XDICTIONARY
360
22
102
}
102
{ACAD_REACTORS
330
10
102
}
330
10
100
AcDbMaterial
  1
Global
 72
     0
 43
0.0208333333333333
 43
0.0
 43
0.0
 43
0.0
 43
0.0
 43
0.0208333333333333
 43
0.0
 43
0.0
 43
0.0
 43
0.0
 43
1.0
 43
0.0
 43
0.0
 43
0.0
 43
0.0
 43
1.0
 77
     0
 47
0.0208333333333333
 47
0.0
 47
0.0
 47
0.0
 47
0.0
 47
0.0208333333333333
 47
0.0
 47
0.0
 47
0.0
 47
0.0
 47
1.0
 47
0.0
 47
0.0
 47
0.0
 47
0.0
 47
1.0
171
     0
 49
0.0208333333333333
 49
0.0
 49
0.0
 49
0.0
 49
0.0
 49
0.0208333333333333
 49
0.0
 49
0.0
 49
0.0
 49
0.0
 49
1.0
 49
0.0
 49
0.0
 49
0.0
 49
0.0
 49
1.0
175
     0
142
0.0208333333333333
142
0.0
142
0.0
142
0.0
142
0.0
142
0.0208333333333333
142
0.0
142
0.0
142
0.0
142
0.0
142
1.0
142
0.0
142
0.0
142
0.0
142
0.0
142
1.0
179
     0
144
0.0208333333333333
144
0.0
144
0.0
144
0.0
144
0.0
144
0.0208333333333333
144
0.0
144
0.0
144
0.0
144
0.0
144
1.0
144
0.0
144
0.0
144
0.0
144
0.0
144
1.0
147
0.0208333333333333
147
0.0
147
0.0
147
0.0
147
0.0
147
0.0208333333333333
147
0.0
147
0.0
147
0.0
147
0.0
147
1.0
147
0.0
147
0.0
147
0.0
147
0.0
147
1.0
  0
MLEADERSTYLE
  5
67
102
{ACAD_XDICTIONARY
360
1581
102
}
102
{ACAD_REACTORS
330
66
102
}
330
66
100
AcDbMLeaderStyle
170
     2
171
     1
172
     0
 90
        2
 40
0.0
 41
0.0
173
     1
 91
-1056964608
340
5B
 92
       -2
290
     1
 42
0.09
291
     1
 43
0.36
  3
Standard
 44
0.18
300

342
55
174
     1
178
     6
175
     1
176
     0
 93
-1056964608
 45
0.18
292
     0
297
     0
 46
0.18
 94
-1056964608
 47
1.0
 49
1.0
140
1.0
293
     1
141
0.0
294
     1
177
     0
142
1.0
295
     0
296
     0
143
0.125
1001
ACAD_MLEADERVER
1070
     2
  0
MLINESTYLE
  5
60
102
{ACAD_REACTORS
330
5F
102
}
330
5F
100
AcDbMlineStyle
  2
STANDARD
 70
     0
  3

 62
   256
 51
90.0
 52
90.0
 71
     2
 49
0.5
 62
   256
  6
BYLAYER
 49
-0.5
 62
   256
  6
BYLAYER
  0
ACDBPLACEHOLDER
  5
F
102
{ACAD_REACTORS
330
E
102
}
330
E
  0
SCALE
  5
43
102
{ACAD_REACTORS
330
42
102
}
330
42
100
AcDbScale
 70
     0
300
1:1
140
1.0
141
1.0
290
     1
  0
SCALE
  5
44
102
{ACAD_REACTORS
330
42
102
}
330
42
100
AcDbScale
 70
     0
300
1/128" = 1'-0"
140
0.0078125
141
12.0
290
     0
  0
SCALE
  5
45
102
{ACAD_REACTORS
330
42
102
}
330
42
100
AcDbScale
 70
     0
300
1/64" = 1'-0"
140
0.015625
141
12.0
290
     0
  0
SCALE
  5
46
102
{ACAD_REACTORS
330
42
102
}
330
42
100
AcDbScale
 70
     0
300
1/32" = 1'-0"
140
0.03125
141
12.0
290
     0
  0
SCALE
  5
47
102
{ACAD_REACTORS
330
42
102
}
330
42
100
AcDbScale
 70
     0
300
1/16" = 1'-0"
140
0.0625
141
12.0
290
     0
  0
SCALE
  5
48
102
{ACAD_REACTORS
330
42
102
}
330
42
100
AcDbScale
 70
     0
300
3/32" = 1'-0"
140
0.09375
141
12.0
290
     0
  0
SCALE
  5
49
102
{ACAD_REACTORS
330
42
102
}
330
42
100
AcDbScale
 70
     0
300
1/8" = 1'-0"
140
0.125
141
12.0
290
     0
  0
SCALE
  5
4A
102
{ACAD_REACTORS
330
42
102
}
330
42
100
AcDbScale
 70
     0
300
3/16" = 1'-0"
140
0.1875
141
12.0
290
     0
  0
SCALE
  5
4B
102
{ACAD_REACTORS
330
42
102
}
330
42
100
AcDbScale
 70
     0
300
1/4" = 1'-0"
140
0.25
141
12.0
290
     0
  0
SCALE
  5
4C
102
{ACAD_REACTORS
330
42
102
}
330
42
100
AcDbScale
 70
     0
300
3/8" = 1'-0"
140
0.375
141
12.0
290
     0
  0
SCALE
  5
4D
102
{ACAD_REACTORS
330
42
102
}
330
42
100
AcDbScale
 70
     0
300
1/2" = 1'-0"
140
0.5
141
12.0
290
     0
  0
SCALE
  5
4E
102
{ACAD_REACTORS
330
42
102
}
330
42
100
AcDbScale
 70
     0
300
3/4" = 1'-0"
140
0.75
141
12.0
290
     0
  0
SCALE
  5
4F
102
{ACAD_REACTORS
330
42
102
}
330
42
100
AcDbScale
 70
     0
300
1" = 1'-0"
140
1.0
141
12.0
290
     0
  0
SCALE
  5
50
102
{ACAD_REACTORS
330
42
102
}
330
42
100
AcDbScale
 70
     0
300
1-1/2" = 1'-0"
140
1.5
141
12.0
290
     0
  0
SCALE
  5
51
102
{ACAD_REACTORS
330
42
102
}
330
42
100
AcDbScale
 70
     0
300
3" = 1'-0"
140
3.0
141
12.0
290
     0
  0
SCALE
  5
52
102
{ACAD_REACTORS
330
42
102
}
330
42
100
AcDbScale
 70
     0
300
6" = 1'-0"
140
6.0
141
12.0
290
     0
  0
SCALE
  5
53
102
{ACAD_REACTORS
330
42
102
}
330
42
100
AcDbScale
 70
     0
300
1'-0" = 1'-0"
140
12.0
141
12.0
290
     0
  0
TABLESTYLE
  5
65
102
{ACAD_XDICTIONARY
360
157F
102
}
102
{ACAD_REACTORS
330
64
102
}
330
64
100
AcDbTableStyle
  3
Standard
 70
     0
 71
     0
 40
0.06
 41
0.06
280
     0
281
     0
  7
Standard
140
0.18
170
     2
 62
     0
 63
     7
283
     0
274
    -2
284
     1
 64
     0
275
    -2
285
     1
 65
     0
276
    -2
286
     1
 66
     0
277
    -2
287
     1
 67
     0
278
    -2
288
     1
 68
     0
279
    -2
289
     1
 69
     0
  7
Standard
140
0.25
170
     5
 62
     0
 63
     7
283
     0
274
    -2
284
     1
 64
     0
275
    -2
285
     1
 65
     0
276
    -2
286
     1
 66
     0
277
    -2
287
     1
 67
     0
278
    -2
288
     1
 68
     0
279
    -2
289
     1
 69
     0
  7
Standard
140
0.18
170
     5
 62
     0
 63
     7
283
     0
274
    -2
284
     1
 64
     0
275
    -2
285
     1
 65
     0
276
    -2
286
     1
 66
     0
277
    -2
287
     1
 67
     0
278
    -2
288
     1
 68
     0
279
    -2
289
     1
 69
     0
  0
VISUALSTYLE
  5
2F
102
{ACAD_XDICTIONARY
360
1593
102
}
102
{ACAD_REACTORS
330
29
102
}
330
29
100
AcDbVisualStyle
  2
2dWireframe
 70
     4
 71
     0
 72
     2
 73
     0
 90
        0
 40
-0.6
 41
-30.0
 62
     5
 63
     7
421
 16777215
 74
     1
 91
        4
 64
     7
 65
   257
 75
     1
175
     1
 42
1.0
 92
        0
 66
   257
 43
1.0
 76
     1
 77
     6
 78
     2
 67
     7
 79
     5
170
     0
171
     0
290
     0
174
     0
 93
        1
 44
0.0
173
     0
291
     0
 45
0.0
1001
ACAD
1000
AcDbSavedByObjectVersion
1070
     0
  0
VISUALSTYLE
  5
2E
102
{ACAD_XDICTIONARY
360
1591
102
}
102
{ACAD_REACTORS
330
29
102
}
330
29
100
AcDbVisualStyle
  2
Basic
 70
     7
 71
     1
 72
     0
 73
     1
 90
        0
 40
-0.6
 41
-30.0
 62
     5
 63
     7
421
 16777215
 74
     0
 91
        4
 64
     7
 65
   257
 75
     1
175
     1
 42
1.0
 92
        8
 66
     7
 43
1.0
 76
     1
 77
     6
 78
     2
 67
     7
 79
     5
170
     0
171
     0
290
     0
174
     0
 93
        1
 44
0.0
173
     0
291
     1
 45
0.0
1001
ACAD
1000
AcDbSavedByObjectVersion
1070
     0
  0
VISUALSTYLE
  5
35
102
{ACAD_XDICTIONARY
360
159F
102
}
102
{ACAD_REACTORS
330
29
102
}
330
29
100
AcDbVisualStyle
  2
Brighten
 70
    12
 71
     2
 72
     2
 73
     0
 90
        0
 40
-0.6
 41
-30.0
 62
     5
 63
     7
421
 16777215
 74
     1
 91
        4
 64
     7
 65
   257
 75
     1
175
     1
 42
1.0
 92
        8
 66
     7
 43
1.0
 76
     1
 77
     6
 78
     2
 67
     7
 79
     5
170
     0
171
     0
290
     0
174
     0
 93
        1
 44
50.0
173
     0
291
     1
 45
0.0
1001
ACAD
1000
AcDbSavedByObjectVersion
1070
     0
  0
VISUALSTYLE
  5
39
102
{ACAD_XDICTIONARY
360
15A7
102
}
102
{ACAD_REACTORS
330
29
102
}
330
29
100
AcDbVisualStyle
  2
ColorChange
 70
    16
 71
     2
 72
     2
 73
     3
 90
        0
 40
-0.6
 41
-30.0
 62
     5
 63
     8
421
  8421504
 74
     1
 91
        4
 64
     7
 65
   257
 75
     1
175
     1
 42
1.0
 92
        8
 66
     8
424
  8421504
 43
1.0
 76
     1
 77
     6
 78
     2
 67
     7
 79
     5
170
     0
171
     0
290
     0
174
     0
 93
        1
 44
0.0
173
     0
291
     1
 45
0.0
1001
ACAD
1000
AcDbSavedByObjectVersion
1070
     0
  0
VISUALSTYLE
  5
32
102
{ACAD_XDICTIONARY
360
1599
102
}
102
{ACAD_REACTORS
330
29
102
}
330
29
100
AcDbVisualStyle
  2
Conceptual
 70
     9
 71
     3
 72
     2
 73
     0
 90
        0
 40
-0.6
 41
-30.0
 62
     5
 63
     7
421
 16777215
 74
     2
 91
        2
 64
     7
 65
   257
 75
     1
175
     1
 42
179.0
 92
        8
 66
     7
 43
1.0
 76
     1
 77
     6
 78
     2
 67
     7
 79
     3
170
     0
171
     0
290
     0
174
     0
 93
        1
 44
0.0
173
     0
291
     0
 45
0.0
1001
ACAD
1000
AcDbSavedByObjectVersion
1070
     0
  0
VISUALSTYLE
  5
34
102
{ACAD_XDICTIONARY
360
159D
102
}
102
{ACAD_REACTORS
330
29
102
}
330
29
100
AcDbVisualStyle
  2
Dim
 70
    11
 71
     2
 72
     2
 73
     0
 90
        0
 40
-0.6
 41
-30.0
 62
     5
 63
     7
421
 16777215
 74
     1
 91
        4
 64
     7
 65
   257
 75
     1
175
     1
 42
1.0
 92
        8
 66
     7
 43
1.0
 76
     1
 77
     6
 78
     2
 67
     7
 79
     5
170
     0
171
     0
290
     0
174
     0
 93
        1
 44
-50.0
173
     0
291
     1
 45
0.0
1001
ACAD
1000
AcDbSavedByObjectVersion
1070
     0
  0
VISUALSTYLE
  5
41
102
{ACAD_XDICTIONARY
360
15B7
102
}
102
{ACAD_REACTORS
330
29
102
}
330
29
100
AcDbVisualStyle
  2
EdgeColorOff
 70
    22
 71
     2
 72
     2
 73
     0
 90
        0
 40
-0.6
 41
-30.0
 62
     5
 63
     7
421
 16777215
 74
     1
 91
        4
 64
     7
 65
   257
 75
     1
175
     1
 42
1.0
 92
        8
 66
     7
 43
1.0
 76
     1
 77
     6
 78
     2
 67
     7
 79
     5
170
     0
171
     0
290
     0
174
     0
 93
        1
 44
0.0
173
     0
291
     1
 45
0.0
1001
ACAD
1000
AcDbSavedByObjectVersion
1070
     0
  0
VISUALSTYLE
  5
38
102
{ACAD_XDICTIONARY
360
15A5
102
}
102
{ACAD_REACTORS
330
29
102
}
330
29
100
AcDbVisualStyle
  2
Facepattern
 70
    15
 71
     2
 72
     2
 73
     0
 90
        0
 40
-0.6
 41
-30.0
 62
     5
 63
     7
421
 16777215
 74
     1
 91
        4
 64
     7
 65
   257
 75
     1
175
     1
 42
1.0
 92
        8
 66
     7
 43
1.0
 76
     1
 77
     6
 78
     2
 67
     7
 79
     5
170
     0
171
     0
290
     0
174
     0
 93
        1
 44
0.0
173
     0
291
     1
 45
0.0
1001
ACAD
1000
AcDbSavedByObjectVersion
1070
     0
  0
VISUALSTYLE
  5
2A
102
{ACAD_XDICTIONARY
360
1589
102
}
102
{ACAD_REACTORS
330
29
102
}
330
29
100
AcDbVisualStyle
  2
Flat
 70
     0
 71
     2
 72
     1
 73
     1
 90
        2
 40
-0.6
 41
30.0
 62
     5
 63
     7
421
 16777215
 74
     0
 91
        0
 64
     7
 65
   257
 75
     1
175
     1
 42
1.0
 92
        8
 66
     7
 43
1.0
 76
     1
 77
     6
 78
     2
 67
     7
 79
     5
170
     0
171
     0
290
     0
174
     0
 93
       13
 44
0.0
173
     0
291
     1
 45
0.0
1001
ACAD
1000
AcDbSavedByObjectVersion
1070
     0
  0
VISUALSTYLE
  5
2B
102
{ACAD_XDICTIONARY
360
158B
102
}
102
{ACAD_REACTORS
330
29
102
}
330
29
100
AcDbVisualStyle
  2
FlatWithEdges
 70
     1
 71
     2
 72
     1
 73
     1
 90
        2
 40
-0.6
 41
30.0
 62
     5
 63
     7
421
 16777215
 74
     1
 91
        0
 64
     7
 65
   257
 75
     1
175
     1
 42
1.0
 92
        0
 66
   257
 43
1.0
 76
     1
 77
     6
 78
     2
 67
     7
 79
     5
170
     0
171
     0
290
     0
174
     0
 93
       13
 44
0.0
173
     0
291
     1
 45
0.0
1001
ACAD
1000
AcDbSavedByObjectVersion
1070
     0
  0
VISUALSTYLE
  5
2C
102
{ACAD_XDICTIONARY
360
158D
102
}
102
{ACAD_REACTORS
330
29
102
}
330
29
100
AcDbVisualStyle
  2
Gouraud
 70
     2
 71
     2
 72
     2
 73
     1
 90
        2
 40
-0.6
 41
30.0
 62
     5
 63
     7
421
 16777215
 74
     0
 91
        0
 64
     7
 65
   257
 75
     1
175
     1
 42
1.0
 92
        0
 66
     7
 43
1.0
 76
     1
 77
     6
 78
     2
 67
     7
 79
     5
170
     0
171
     0
290
     0
174
     0
 93
       13
 44
0.0
173
     0
291
     1
 45
0.0
1001
ACAD
1000
AcDbSavedByObjectVersion
1070
     0
  0
VISUALSTYLE
  5
2D
102
{ACAD_XDICTIONARY
360
158F
102
}
102
{ACAD_REACTORS
330
29
102
}
330
29
100
AcDbVisualStyle
  2
GouraudWithEdges
 70
     3
 71
     2
 72
     2
 73
     1
 90
        2
 40
-0.6
 41
30.0
 62
     5
 63
     7
421
 16777215
 74
     1
 91
        0
 64
     7
 65
   257
 75
     1
175
     1
 42
1.0
 92
        0
 66
   257
 43
1.0
 76
     1
 77
     6
 78
     2
 67
     7
 79
     5
170
     0
171
     0
290
     0
174
     0
 93
       13
 44
0.0
173
     0
291
     1
 45
0.0
1001
ACAD
1000
AcDbSavedByObjectVersion
1070
     0
  0
VISUALSTYLE
  5
31
102
{ACAD_XDICTIONARY
360
1597
102
}
102
{ACAD_REACTORS
330
29
102
}
330
29
100
AcDbVisualStyle
  2
Hidden
 70
     6
 71
     1
 72
     2
 73
     2
 90
        0
 40
-0.6
 41
-30.0
 62
     5
 63
     7
421
 16777215
 74
     2
 91
        2
 64
     7
 65
   257
 75
     2
175
     1
 42
40.0
 92
        0
 66
   257
 43
1.0
 76
     1
 77
     6
 78
     2
 67
     7
 79
     3
170
     0
171
     0
290
     0
174
     0
 93
        1
 44
0.0
173
     0
291
     0
 45
0.0
1001
ACAD
1000
AcDbSavedByObjectVersion
1070
     0
  0
VISUALSTYLE
  5
3F
102
{ACAD_XDICTIONARY
360
15B3
102
}
102
{ACAD_REACTORS
330
29
102
}
330
29
100
AcDbVisualStyle
  2
JitterOff
 70
    20
 71
     2
 72
     2
 73
     0
 90
        0
 40
-0.6
 41
-30.0
 62
     5
 63
     7
421
 16777215
 74
     1
 91
        4
 64
     7
 65
   257
 75
     1
175
     1
 42
1.0
 92
       10
 66
     7
 43
1.0
 76
     1
 77
     6
 78
     2
 67
     7
 79
     5
170
     0
171
     0
290
     0
174
     0
 93
        1
 44
0.0
173
     0
291
     1
 45
0.0
1001
ACAD
1000
AcDbSavedByObjectVersion
1070
     0
  0
VISUALSTYLE
  5
37
102
{ACAD_XDICTIONARY
360
15A3
102
}
102
{ACAD_REACTORS
330
29
102
}
330
29
100
AcDbVisualStyle
  2
Linepattern
 70
    14
 71
     2
 72
     2
 73
     0
 90
        0
 40
-0.6
 41
-30.0
 62
     5
 63
     7
421
 16777215
 74
     1
 91
        4
 64
     7
 65
   257
 75
     7
175
     7
 42
1.0
 92
        8
 66
     7
 43
1.0
 76
     1
 77
     6
 78
     2
 67
     7
 79
     5
170
     0
171
     0
290
     0
174
     0
 93
        1
 44
0.0
173
     0
291
     1
 45
0.0
1001
ACAD
1000
AcDbSavedByObjectVersion
1070
     0
  0
VISUALSTYLE
  5
40
102
{ACAD_XDICTIONARY
360
15B5
102
}
102
{ACAD_REACTORS
330
29
102
}
330
29
100
AcDbVisualStyle
  2
OverhangOff
 70
    21
 71
     2
 72
     2
 73
     0
 90
        0
 40
-0.6
 41
-30.0
 62
     5
 63
     7
421
 16777215
 74
     1
 91
        4
 64
     7
 65
   257
 75
     1
175
     1
 42
1.0
 92
        9
 66
     7
 43
1.0
 76
     1
 77
     6
 78
     2
 67
     7
 79
     5
170
     0
171
     0
290
     0
174
     0
 93
        1
 44
0.0
173
     0
291
     1
 45
0.0
1001
ACAD
1000
AcDbSavedByObjectVersion
1070
     0
  0
VISUALSTYLE
  5
33
102
{ACAD_XDICTIONARY
360
159B
102
}
102
{ACAD_REACTORS
330
29
102
}
330
29
100
AcDbVisualStyle
  2
Realistic
 70
     8
 71
     2
 72
     3
 73
     0
 90
        2
 40
-0.6
 41
30.0
 62
     5
 63
     7
421
 16777215
 74
     0
 91
        0
 64
     7
 65
   257
 75
     1
175
     1
 42
1.0
 92
        8
 66
   257
 43
1.0
 76
     1
 77
     6
 78
     2
 67
     7
 79
     3
170
     0
171
     0
290
     0
174
     0
 93
       13
 44
0.0
173
     0
291
     0
 45
0.0
1001
ACAD
1000
AcDbSavedByObjectVersion
1070
     0
  0
VISUALSTYLE
  5
3E
102
{ACAD_XDICTIONARY
360
15B1
102
}
102
{ACAD_REACTORS
330
29
102
}
330
29
100
AcDbVisualStyle
  2
Shaded
 70
    27
 71
     2
 72
     2
 73
     1
 90
        2
 40
-0.6
 41
30.0
 62
     5
 63
     7
421
 16777215
 74
     0
 91
        4
 64
     7
 65
   257
 75
     1
175
     1
 42
1.0
 92
        8
 66
   257
 43
1.0
 76
     1
 77
     6
 78
     2
 67
     8
425
  7895160
 79
     3
170
     0
171
     0
290
     0
174
     0
 93
        5
 44
0.0
173
     0
291
     0
 45
0.0
1001
ACAD
1000
AcDbSavedByObjectVersion
1070
     0
  0
VISUALSTYLE
  5
3D
102
{ACAD_XDICTIONARY
360
15AF
102
}
102
{ACAD_REACTORS
330
29
102
}
330
29
100
AcDbVisualStyle
  2
Shaded with edges
 70
    26
 71
     2
 72
     2
 73
     1
 90
        2
 40
-0.6
 41
30.0
 62
     5
 63
     7
421
 16777215
 74
     1
 91
       10
 64
     7
 65
   257
 75
     2
175
     1
 42
1.0
 92
        8
 66
   257
 43
1.0
 76
     1
 77
     6
 78
     2
 67
     7
 79
     3
170
     0
171
     0
290
     0
174
     0
 93
        5
 44
0.0
173
     0
291
     0
 45
0.0
1001
ACAD
1000
AcDbSavedByObjectVersion
1070
     0
  0
VISUALSTYLE
  5
3A
102
{ACAD_XDICTIONARY
360
15A9
102
}
102
{ACAD_REACTORS
330
29
102
}
330
29
100
AcDbVisualStyle
  2
Shades of Gray
 70
    23
 71
     2
 72
     2
 73
     3
 90
        0
 40
-0.6
 41
-30.0
 62
     5
 63
     7
421
 16777215
 74
     2
 91
        2
 64
     7
 65
     7
 75
     1
175
     1
 42
40.0
 92
        8
 66
     7
 43
1.0
 76
     1
 77
     6
 78
     2
 67
     7
 79
     3
170
     0
171
     0
290
     0
174
     0
 93
        1
 44
0.0
173
     0
291
     0
 45
0.0
1001
ACAD
1000
AcDbSavedByObjectVersion
1070
     0
  0
VISUALSTYLE
  5
3B
102
{ACAD_XDICTIONARY
360
15AB
102
}
102
{ACAD_REACTORS
330
29
102
}
330
29
100
AcDbVisualStyle
  2
Sketchy
 70
    24
 71
     1
 72
     2
 73
     2
 90
        0
 40
-0.6
 41
-30.0
 62
     5
 63
     7
421
 16777215
 74
     2
 91
        2
 64
     7
 65
     7
 75
     1
175
     1
 42
40.0
 92
       11
 66
     7
 43
1.0
 76
     1
 77
     6
 78
     2
 67
     7
 79
     6
170
     0
171
     0
290
     0
174
     0
 93
        1
 44
0.0
173
     0
291
     0
 45
0.0
1001
ACAD
1000
AcDbSavedByObjectVersion
1070
     0
  0
VISUALSTYLE
  5
36
102
{ACAD_XDICTIONARY
360
15A1
102
}
102
{ACAD_REACTORS
330
29
102
}
330
29
100
AcDbVisualStyle
  2
Thicken
 70
    13
 71
     2
 72
     2
 73
     0
 90
        0
 40
-0.6
 41
-30.0
 62
     5
 63
     7
421
 16777215
 74
     1
 91
        4
 64
     7
 65
   257
 75
     1
175
     1
 42
1.0
 92
       12
 66
     7
 43
1.0
 76
     1
 77
     6
 78
     2
 67
     7
 79
     5
170
     0
171
     0
290
     0
174
     0
 93
        1
 44
0.0
173
     0
291
     1
 45
0.0
1001
ACAD
1000
AcDbSavedByObjectVersion
1070
     0
  0
VISUALSTYLE
  5
30
102
{ACAD_XDICTIONARY
360
1595
102
}
102
{ACAD_REACTORS
330
29
102
}
330
29
100
AcDbVisualStyle
  2
Wireframe
 70
     5
 71
     0
 72
     2
 73
     0
 90
        0
 40
-0.6
 41
-30.0
 62
     5
 63
     7
421
 16777215
 74
     1
 91
        4
 64
     7
 65
   257
 75
     1
175
     1
 42
1.0
 92
        0
 66
   257
 43
1.0
 76
     1
 77
     6
 78
     2
 67
     7
 79
     3
170
     0
171
     0
290
     0
174
     0
 93
        1
 44
0.0
173
     0
291
     0
 45
0.0
1001
ACAD
1000
AcDbSavedByObjectVersion
1070
     0
  0
VISUALSTYLE
  5
3C
102
{ACAD_XDICTIONARY
360
15AD
102
}
102
{ACAD_REACTORS
330
29
102
}
330
29
100
AcDbVisualStyle
  2
X-Ray
 70
    25
 71
     2
 72
     2
 73
     1
 90
        1
 40
0.5
 41
-30.0
 62
     5
 63
     7
421
 16777215
 74
     1
 91
        0
 64
     7
 65
   257
 75
     1
175
     1
 42
1.0
 92
        8
 66
     7
 43
1.0
 76
     1
 77
     6
 78
     2
 67
     7
 79
     3
170
     0
171
     0
290
     0
174
     0
 93
       13
 44
0.0
173
     0
291
     0
 45
0.0
1001
ACAD
1000
AcDbSavedByObjectVersion
1070
     0
  0
DICTIONARYVAR
  5
79
102
{ACAD_REACTORS
330
76
102
}
330
76
100
DictionaryVariables
280
     0
  1
1:1
  0
DICTIONARYVAR
  5
78
102
{ACAD_REACTORS
330
76
102
}
330
76
100
DictionaryVariables
280
     0
  1
STANDARD
  0
DICTIONARYVAR
  5
77
102
{ACAD_REACTORS
330
76
102
}
330
76
100
DictionaryVariables
280
     0
  1
STANDARD
  0
DICTIONARYVAR
  5
157C
102
{ACAD_REACTORS
330
76
102
}
330
76
100
DictionaryVariables
280
     0
  1
0
  0
DICTIONARYVAR
  5
157D
102
{ACAD_REACTORS
330
76
102
}
330
76
100
DictionaryVariables
280
     0
  1
0
  0
DICTIONARYVAR
  5
157B
102
{ACAD_REACTORS
330
76
102
}
330
76
100
DictionaryVariables
280
     0
  1
2
  0
DICTIONARYVAR
  5
157A
102
{ACAD_REACTORS
330
76
102
}
330
76
100
DictionaryVariables
280
     0
  1
1
  0
DICTIONARYVAR
  5
157E
102
{ACAD_REACTORS
330
76
102
}
330
76
100
DictionaryVariables
280
     0
  1
2
  0
DICTIONARY
  5
1A
330
19
100
AcDbDictionary
280
     1
281
     1
  3
ACAD_XREC_ROUNDTRIP
360
1587
  3
BUMPTILE
360
1C
  3
DIFFUSETILE
360
1B
  3
OPACITYTILE
360
1F
  3
REFLECTIONTILE
360
1E
  3
REFRACTIONTILE
360
20
  3
SPECULARTILE
360
1D
  0
DICTIONARY
  5
12
330
11
100
AcDbDictionary
280
     1
281
     1
  3
ACAD_XREC_ROUNDTRIP
360
1586
  3
BUMPTILE
360
14
  3
DIFFUSETILE
360
13
  3
FBXASSET
360
F5
  3
OPACITYTILE
360
17
  3
REFLECTIONTILE
360
16
  3
REFRACTIONTILE
360
18
  3
SPECULARTILE
360
15
  0
DICTIONARY
  5
22
330
21
100
AcDbDictionary
280
     1
281
     1
  3
ACAD_XREC_ROUNDTRIP
360
1588
  3
BUMPTILE
360
24
  3
DIFFUSETILE
360
23
  3
FBXASSET
360
BA
  3
OPACITYTILE
360
27
  3
REFLECTIONTILE
360
26
  3
REFRACTIONTILE
360
28
  3
SPECULARTILE
360
25
  0
DICTIONARY
  5
1581
330
67
100
AcDbDictionary
280
     1
281
     1
  3
ACAD_XREC_ROUNDTRIP
360
1582
  0
DICTIONARY
  5
157F
330
65
100
AcDbDictionary
280
     1
281
     1
  3
ACAD_ROUNDTRIP_2008_TABLESTYLE_CELLSTYLEMAP
360
1580
  3
ACAD_XREC_ROUNDTRIP
360
15B9
  0
DICTIONARY
  5
1593
330
2F
100
AcDbDictionary
280
     1
281
     1
  3
ACAD_XREC_ROUNDTRIP
360
1594
  0
DICTIONARY
  5
1591
330
2E
100
AcDbDictionary
280
     1
281
     1
  3
ACAD_XREC_ROUNDTRIP
360
1592
  0
DICTIONARY
  5
159F
330
35
100
AcDbDictionary
280
     1
281
     1
  3
ACAD_XREC_ROUNDTRIP
360
15A0
  0
DICTIONARY
  5
15A7
330
39
100
AcDbDictionary
280
     1
281
     1
  3
ACAD_XREC_ROUNDTRIP
360
15A8
  0
DICTIONARY
  5
1599
330
32
100
AcDbDictionary
280
     1
281
     1
  3
ACAD_XREC_ROUNDTRIP
360
159A
  0
DICTIONARY
  5
159D
330
34
100
AcDbDictionary
280
     1
281
     1
  3
ACAD_XREC_ROUNDTRIP
360
159E
  0
DICTIONARY
  5
15B7
330
41
100
AcDbDictionary
280
     1
281
     1
  3
ACAD_XREC_ROUNDTRIP
360
15B8
  0
DICTIONARY
  5
15A5
330
38
100
AcDbDictionary
280
     1
281
     1
  3
ACAD_XREC_ROUNDTRIP
360
15A6
  0
DICTIONARY
  5
1589
330
2A
100
AcDbDictionary
280
     1
281
     1
  3
ACAD_XREC_ROUNDTRIP
360
158A
  0
DICTIONARY
  5
158B
330
2B
100
AcDbDictionary
280
     1
281
     1
  3
ACAD_XREC_ROUNDTRIP
360
158C
  0
DICTIONARY
  5
158D
330
2C
100
AcDbDictionary
280
     1
281
     1
  3
ACAD_XREC_ROUNDTRIP
360
158E
  0
DICTIONARY
  5
158F
330
2D
100
AcDbDictionary
280
     1
281
     1
  3
ACAD_XREC_ROUNDTRIP
360
1590
  0
DICTIONARY
  5
1597
330
31
100
AcDbDictionary
280
     1
281
     1
  3
ACAD_XREC_ROUNDTRIP
360
1598
  0
DICTIONARY
  5
15B3
330
3F
100
AcDbDictionary
280
     1
281
     1
  3
ACAD_XREC_ROUNDTRIP
360
15B4
  0
DICTIONARY
  5
15A3
330
37
100
AcDbDictionary
280
     1
281
     1
  3
ACAD_XREC_ROUNDTRIP
360
15A4
  0
DICTIONARY
  5
15B5
330
40
100
AcDbDictionary
280
     1
281
     1
  3
ACAD_XREC_ROUNDTRIP
360
15B6
  0
DICTIONARY
  5
159B
330
33
100
AcDbDictionary
280
     1
281
     1
  3
ACAD_XREC_ROUNDTRIP
360
159C
  0
DICTIONARY
  5
15B1
330
3E
100
AcDbDictionary
280
     1
281
     1
  3
ACAD_XREC_ROUNDTRIP
360
15B2
  0
DICTIONARY
  5
15AF
330
3D
100
AcDbDictionary
280
     1
281
     1
  3
ACAD_XREC_ROUNDTRIP
360
15B0
  0
DICTIONARY
  5
15A9
330
3A
100
AcDbDictionary
280
     1
281
     1
  3
ACAD_XREC_ROUNDTRIP
360
15AA
  0
DICTIONARY
  5
15AB
330
3B
100
AcDbDictionary
280
     1
281
     1
  3
ACAD_XREC_ROUNDTRIP
360
15AC
  0
DICTIONARY
  5
15A1
330
36
100
AcDbDictionary
280
     1
281
     1
  3
ACAD_XREC_ROUNDTRIP
360
15A2
  0
DICTIONARY
  5
1595
330
30
100
AcDbDictionary
280
     1
281
     1
  3
ACAD_XREC_ROUNDTRIP
360
1596
  0
DICTIONARY
  5
15AD
330
3C
100
AcDbDictionary
280
     1
281
     1
  3
ACAD_XREC_ROUNDTRIP
360
15AE
  0
XRECORD
  5
1587
102
{ACAD_REACTORS
330
1A
102
}
330
1A
100
AcDbXrecord
280
     1
102
MATERIAL
148
0.0
149
0.0
149
0.0
 93
        0
 94
      127
282
     0
 72
     0
 77
     0
171
     0
175
     0
179
     0
273
     0
  0
XRECORD
  5
1C
102
{ACAD_REACTORS
330
1A
102
}
330
1A
100
AcDbXrecord
280
     1
270
     1
271
     1
  0
XRECORD
  5
1B
102
{ACAD_REACTORS
330
1A
102
}
330
1A
100
AcDbXrecord
280
     1
270
     1
271
     1
  0
XRECORD
  5
1F
102
{ACAD_REACTORS
330
1A
102
}
330
1A
100
AcDbXrecord
280
     1
270
     1
271
     1
  0
XRECORD
  5
1E
102
{ACAD_REACTORS
330
1A
102
}
330
1A
100
AcDbXrecord
280
     1
270
     1
271
     1
  0
XRECORD
  5
20
102
{ACAD_REACTORS
330
1A
102
}
330
1A
100
AcDbXrecord
280
     1
270
     1
271
     1
  0
XRECORD
  5
1D
102
{ACAD_REACTORS
330
1A
102
}
330
1A
100
AcDbXrecord
280
     1
270
     1
271
     1
  0
XRECORD
  5
1586
102
{ACAD_REACTORS
330
12
102
}
330
12
100
AcDbXrecord
280
     1
102
MATERIAL
148
0.0
149
0.0
149
0.0
 93
        0
 94
      127
282
     0
 72
     0
 77
     0
171
     0
175
     0
179
     0
273
     0
  0
XRECORD
  5
14
102
{ACAD_REACTORS
330
12
102
}
330
12
100
AcDbXrecord
280
     1
270
     1
271
     1
  0
XRECORD
  5
13
102
{ACAD_REACTORS
330
12
102
}
330
12
100
AcDbXrecord
280
     1
270
     1
271
     1
  0
XRECORD
  5
F5
102
{ACAD_REACTORS
330
12
102
}
330
12
100
AcDbXrecord
280
     1
 70
     1
 90
1959938040
 71
     1
  1
F3BE58BD-7758-411A-BF15-93B3AAE8F630
311
504B03040A00000800007AA0AF423DEE336E79000000790000001B0000006175746F6465736B2D64657369676E2D7061636B6167652E786D6C3C3F786D6C2076657273696F6E3D22312E302220656E636F64696E673D227574662D3822203F3E3C666F726D6174733E3C666F726D61743E687474703A2F2F736368656D612E
311
6175746F6465736B2E636F6D2F64657369676E2D7061636B6167652F323030393C2F666F726D61743E3C2F666F726D6174733E504B03041400060808007AA0AF42D486FD9CA0000000F4000000130000005B436F6E74656E745F54797065735D2E786D6C7D8EC10E82300C865F65E91D8A1E8C310C0EEA1BF002731658846E
311
D98AC1B77784ABF1D8FE5FBFBF75BBCE937A534CCEB38643598122B6FEE978D0B0485F9C41B54DDD7D022595594E1A469170414C76A4D9A4D207E29CF43ECE46F218070CC6BECC4078ACAA135ACF422C856C0E68EA1BF5669944DDD7BCDE7B1F8E415D77AECB980613C2E4AC91FC167A2B244592486606FC29C8FD7F045B9A
311
EF7053A7E60B504B03041400060808007AA0AF424D4A0FA7EA0000007C01000008000000636F72652E786D6C8D90416EC3201045AF82665BE1000E716C6122A7CA0D7A0104C44589C13250F5F8C58923B5BBAE66F4E7BF99D117A7EFE98EBEEC125DF03DD08A00B25E07E3FCD8434E577C047492620921FDB201F26AB23DAC
311
3248312E21CF9BA4834FD6A7A2FA60EC26AA186D02A4EFA5E921EA4F3BA94AE5541CF156CD4ADFD4682BFAEA0A9CB333E879C499B2CF5D9D5D409E396DDA4BC3F0F03E5CF0BEA52D3E92438DF9D09EE9A1E1C39E30B15B6129929B5EF7F56255B2062423B4C68463CA3F18E948DD71F646785713B15BED7FA03C9B7F42D9F9
311
54B3EDDD271641D2F2C86320C56ECDA2944750A5AEB9C91F504B03041400060808007AA0AF4255019EA25F0000007C00000007000000636E782E786D6C4DCB3B0E80201045D1AD90E915ED2CF8AC45050C11660C8261F98AB1B07AC9C97D42D718D865D3E909258CFD00CCE24AC6E326A164D74DC0B4128928FF326038472B
311
A13128B1252AC747C6BAB984FC68F0B87FE8960A5C09FE86CFB69FBA01504B03041400060808007AA0AF4258656FAB67010000020300000C0000006662782F636F72652E786D6C8D52ED8E8320107C15C2DF8B025ADBB3411A7BE91BDC0B50A59EA98241307DFC5B3F1AAF97A6694C90CCECECCE8EF2C3AD6DD0A06C5F1B9D
311
6116528C942E4C59EB2AC3DE5D824F8C0E825B63DC9F328CB46C558647180B5E59E3BB052A8C764A3B40B529D502CABE570EA3A2814B86FBE247B53294DE41457F0D3B595C65A54216020D7582F7CE8201340F194F2C2EE71B27332EB8F775B9B07509D3EA4BAD2C16C784EDD2D32E0AF2AFFC146C5296069F741B07499E1E
311
D97697E41B1A71328A0577757B775758259D2AB188288B039A042CF98EE89EC6FB24FAA0C93EA69C8CE50F22DF956F8A7CAD5D1C2D7667598F05032313F16F5B88C8A15E0EE087084EC610E13525FC18340402213B796EEE7B5C011A54E18CDD00531ABF52836CBC82A9144D0F27330B9DA706B0D9D33ED18B3EAF7BC00794
311
BA026BD2C1F5ECDD389DCF5397283A6583C1DD9036B695CD6A6EB6B89EEBA0A7F2C234C6BEA326CBAA6409938C7FAFF805504B03041400060808007AA0AF42BE1984617D0000009D0000000B0000006662782F636E782E786D6C4DCCD10AC2201886E15B91FFDC666E98813A70DA7D8CE686E4344CA3CB6F8B1D74F4C1C3C7
311
2BFACF1AD0DBE5974F51C2F94400B9784F938F8B845A66CC01F54AE494CADF0D501C572761675062C9A93E0F9ADC3CD650360D3E3E0EA4DC7076B5145F5ADDE18E598D3523167343CD60593BDC0C814689E657DA760FAB2F504B03041400060808007AA0AF42818E41DC2D01000015020000310000006662782F3238443836
311
3945322D373342342D343645422D423630452D3844324443453633434644302F636F72652E786D6C8D515B6E833010BC8AE5AF54156030101219474AA027E8051C70522BC1467E54397ED78548ED5F7EBCD6ECCCEC68971D1ED31D7D4BEB94D12DCE538291D4831995BEB638F84BD26074E0CC1AE3FFD030D262922D8E30E6
311
EC6A4D98576830DA4BED01D566942B289C931EA3E10E9F16BBE14B4E2215C103C3DDD2590C377195699E421B789C396F21005A86C417F3A2E99A7AD717C9961ECBA4ACFB6372AC499F345DD19DFA9A9E3E3AC2B245C859086A5CE56A8438EAA2A47DD5248A39F36A7AC61FAC145E8EA027394D4895E4D56741F684EEABE29D
311
547B0A9323FD9F28CCE38BA2A0B4A7C51A779139CC73962D0DCE4613CEF76718F9988DF528CEDB3839BC614E5242B6BB86D0AA61D9C2850D80695DAEA6CE1B0B1BDEDCCE40CFABC5B92E39CBE291A0FC5E106A3C28FF01504B03041400060808007AA0AF4246DECEF04E01000033030000300000006662782F323844383639
311
45322D373342342D343645422D423630452D3844324443453633434644302F636E782E786D6CD593CD6EC32010845F0571ADFC17C751156122F5D027E8A1570C9B940683C54FD5BC7D9784A4B9E4D0632FC89A1D66569F30DB7DCF867C810FDAD99176754B0958E994B68791A6B8AF9E29D971E69D8B77364AAC9861A459A6
311
9C1DBC4B4B9114EC45321155A3EDB1881E824B5E424039DF24C6496130006C9550847902A540919B11BFF6E0711514A713891F405E5FDE899B3E41C6C09A9CC259933B38CB6769BA3351228D0861A4417EC02C6A91A253108EB51251D45D7DED7AB0D36F12C917AE95C96B92CB479A4FCACB463572640D0E390BD123BD628A
311
A7052817CB62B41411213767E3C5C359D2366ED6C5AB11BC4777B7E9D76B0C3BCF388B7A86E2901E440445F9AAEDFAAA1DAA6E785BB5DBB6DF0EABA776D8F62D6BB29DB3C939532E610C78B710E96C041B29EF5893C78FF0151F51DA236BE74F7F0089004AEB85CE2DE33FF369CEEF1B7179FC0BF80F504B03041400060808
311
007AA0AF4231494B68A305000081100000340000006662782F32384438363945322D373342342D343645422D423630452D3844324443453633434644302F6F626A656374732E786D6CAD57D96EDB3814FD1541F332F360CBB29DD419282ABC2485D1A62D6AB49807030625510A27D402924A9DF9FA3994285972EDD433E88B
311
162E97F79E7BEE42EFED3EE5D6331592E5D9ADED0E47B645B3308F5896DCDAA58A0733DB7AEB7B22CF5567996D6524A5B7B61EB67D2F11795998A188C6A4E4EA68F47EF19725439A51DB0A3991F2D696E1234DC990942A8FA87C1A4644916112EF87EEB05ED8179B08523C1E092D88A09982A618CF20C5AA9572FBBF23DBF1
311
3D47CFFB9E7E9A5593F3AB9CCA9EFEF92C938A64E10F871D8999B8D3D5DDF8EA6670359D4E06D3EBB13B58DC2F5603F7CD64B4BC5E2E6FE6773738582A014946134163DB7F076C040B3DA79EF2BD92656A32364B8C831C419F99F694ED8F2DD773EA35AD75C6C853EA877996D1B0C20A6854F619D1112D6816C1E78C4A68D6
311
4168D4FF75358E9DE989FE374776872F43A0BBA323A8D1BD797735CD83BF6182BC84414252CDC01A4B6368CDD5D101E120CFB99963D24A89A282116E711608225E6C1F4BF512DFEB89D14C163A1AB405B60F2FD4D37DBA208C7ECEF3535AC625E79AC6B65F45C10EB14295AC3463FF5071D0BE8B0C7482AF341B66C620F552
311
50DBBFA929323B62530DA4157392C0E53053EF9C8C8F0C5DEA385DAF6CFFFD7DB0DFE8D83D7D7821F2820AA5E9036A358E6BDE1A25A3937B91E7F406FB489503285F80FC4784FA4115F84DB0FD743F35A728413219E722856FAC913518E131B2DCEAA9BF3B5F9ED36EEE7BEF1C9E70B686EA17E0D9B7A1EBCB0E9CBEF70CC2
311
E762624CDB8484236D3CB00C006992583CC710F2701CEC6D7F8D2C87AC8C5D84FB2E4C86BACFF8F41C230689A23AA9F3CE80E5515ABC204103B68A9150A326BF51F0E0A71FD25975B059760EDEAB5F42D7F96AF37E538A9884F4C1C4F48AC62C630A25EEC09BAE423DCC7B163DD197EFB98860E88F786FBA78A7E62809B435
311
E61AF8A4C9E9FAE77072EF8010FB925CA71BEF2727C0085D583BF21F980C29E724A379D99CFB6AFD40D9A821D6C1AE99DC169843610169EA99A31844910E052B34886DB56A93E6F08C755FD71FC148DB5FBC7C202FDDEC151C726F98F35CEC82975D9D964E42FDADCF6D8381A3A580EE559034F16F40DF452C8E4B89247802
311
D76FEB65D7773A2D20453452EB6899C27E04171186B48D5C546B415049F36CC750371177270FE8CA07A4860195C0731A4BCAE31DE3BC4C7731E3A846BB941467E0F8FFFA07655AEC489A97993A23BBA73AAA435FF71E7BE577A2C247DBDF54EFC102B937A2D11932E85A7202AB9E6BEF278BBBAB191AA6376FAE6683A9EBCE
311
D13FB957839BC962329FDFCDEEAF27078DAA26CAF79A52D38D687809A5CD2B0533EEFBBA46FC982460FB0F44C9EDBB3A3C9BF7D7F510BDB0E7600FEA65BB711E3DA3EFA3D1CF051C569E14B44E0B4E539A29A263E8417FF02F047D464F997A7C9D92845E20E5D3BBCD913118B960DF671DEFF4FBD15E33BAD4017952887A2C
311
D320238C1F6D4C6A2487459618FC1A9FB4EFBAD034BFFACF38069DA9CC398B9007232BA1794A15B2E1054548A454827ADD9E3E32778F0B763FD71DA22201A78D268F044D3297080B90BC0C557FDCFA0D4D9DEEAB6E6D94DBE1131E2653D81638736BA349572CA47218A040EB56A8120E2E753B797096640947AF5D6F6AFFDB
311
5D1A9B5E496E975CD23F19BBEA146E0C401A29D037A02182772A657CAFD2CDCC87FFC9F0461D8B287C06A56A6D390CB4C654C720446BA3CC6D014DCC93397A8F407DDD2C7758ADE92172D12DEB5512D452078A88A4BA2968FD8C4AF3D567071D8AB5FE6415BC4CE0CBCB250D0405994B1DE06011586164164481AACB3FB79F
311
458E9B6C6ADD3350C0FA7D3FBBFE63BBCCD334CFEAA1EDDCDC87ADCD236EB7D116C981EA6B89DC8E47EE785B5D07CC0D651710498724924F188067056B81EEB91FBCACEF8CA843F544BBCED1AE3862E87A6599C236855043976E6ED5E0A0F1C8A88518D2574A1D31DD05C5AB3702A75A0A15047A79FF5F504B030414000608
311
00007AA0AF42000000000000000000000000350000006662782F32384438363945322D373342342D343645422D423630452D3844324443453633434644302F76657274696365732E62696E504B03041400060808007AA0AF42F270F1330600000004000000360000006662782F32384438363945322D373342342D34364542
311
2D423630452D3844324443453633434644302F747269616E676C65732E62696E636660600000504B03041400060800007AA0AF42000000000000000000000000370000006662782F32384438363945322D373342342D343645422D423630452D3844324443453633434644302F617474726962757465732E62696E504B0304
311
1400060808007AA0AF42D5987DFC8F00000041010000360000006662782F32384438363945322D373342342D343645422D423630452D3844324443453633434644302F6469726563746F72792E786D6C858F410EC2201045AF4266AF15DDB800BA74E7C21B903225242D6328188F2FA5C4183471359997F9FF81E89FF3C41E
311
1816475E02DF1F80A11FC8386F25A438EECEC07A250251FC3803E6F58C12560C4AD840E95E91C151A72936F496F35732D860FE635F62C8F2DA16B505C545B74125BAA2FA9E05D7CC053D063734D5C7665FD55B6B8D15D5E9BFEAFD8490FFA45E504B03041400060808007AA0AF4225A05296FD000000A00100003B00000066
311
62782F32384438363945322D373342342D343645422D423630452D3844324443453633434644302F7265736F75726365732F636F72652E786D6C8D504B6E833010BD0A9A6D65B0210E21328E48951BF4029699102BC18EFCA97AFC9A40A576D7CDCCE87D344F4F9CBEE647F1893E18677B60258502AD76A3B1530F295EC901
311
8A9314DEB9F84B06855533F6B0C020C5E45D7A6E907636A28D19B56EC40D54216084423FF2D143D0379C55A952CC8A702F9F4ADFD584252B339D755284E87380627DB24C901E834B5E6310D5CA4A919219378D19F34F7335E8419E396BBB4BCBC8F03E5CC8AE631D39D07D43F8D09DD9BEE5C38ED6A25ACC524433FF64D41E
311
55C411644D594328278C7FD4F4489B23AFDF283F3654548BFC8F293DC77F9A92B1B1A9B7B8AB2D806439C88B90A25AFACAEB5566DE4BB7F21B504B010214000A00000800007AA0AF423DEE336E79000000790000001B00000000000000000000000000000000006175746F6465736B2D64657369676E2D7061636B6167652E
311
786D6C504B010214001400060808007AA0AF42D486FD9CA0000000F40000001300000000000000000000000000B20000005B436F6E74656E745F54797065735D2E786D6C504B010214001400060808007AA0AF424D4A0FA7EA0000007C010000080000000000000000000000000083010000636F72652E786D6C504B010214
311
001400060808007AA0AF4255019EA25F0000007C000000070000000000000000000000000093020000636E782E786D6C504B010214001400060808007AA0AF4258656FAB67010000020300000C00000000000000000000000000170300006662782F636F72652E786D6C504B010214001400060808007AA0AF42BE1984617D
311
0000009D0000000B00000000000000000000000000A80400006662782F636E782E786D6C504B010214001400060808007AA0AF42818E41DC2D0100001502000031000000000000000000000000004E0500006662782F32384438363945322D373342342D343645422D423630452D3844324443453633434644302F636F7265
311
2E786D6C504B010214001400060808007AA0AF4246DECEF04E010000330300003000000000000000000000000000CA0600006662782F32384438363945322D373342342D343645422D423630452D3844324443453633434644302F636E782E786D6C504B010214001400060808007AA0AF4231494B68A30500008110000034
311
00000000000000000000000000660800006662782F32384438363945322D373342342D343645422D423630452D3844324443453633434644302F6F626A656374732E786D6C504B010214001400060800007AA0AF4200000000000000000000000035000000000000000000000000005B0E00006662782F3238443836394532
311
2D373342342D343645422D423630452D3844324443453633434644302F76657274696365732E62696E504B010214001400060808007AA0AF42F270F13306000000040000003600000000000000000000000000AE0E00006662782F32384438363945322D373342342D343645422D423630452D384432444345363343464430
311
2F747269616E676C65732E62696E504B010214001400060800007AA0AF420000000000000000000000003700000000000000000000000000080F00006662782F32384438363945322D373342342D343645422D423630452D3844324443453633434644302F617474726962757465732E62696E504B01021400140006080800
311
7AA0AF42D5987DFC8F0000004101000036000000000000000000000000005D0F00006662782F32384438363945322D373342342D343645422D423630452D3844324443453633434644302F6469726563746F72792E786D6C504B010214001400060808007AA0AF4225A05296FD000000A00100003B00000000000000000000
311
000000401000006662782F32384438363945322D373342342D343645422D423630452D3844324443453633434644302F7265736F75726365732F636F72652E786D6C504B0506000000000E000E0080040000961100000000
310
504B03040A00000800007AA0AF423DEE336E79000000790000001B0000006175746F6465736B2D64657369676E2D7061636B6167652E786D6C3C3F786D6C2076657273696F6E3D22312E302220656E636F64696E673D227574662D3822203F3E3C666F726D6174733E3C666F726D61743E687474703A2F2F736368656D612E
310
6175746F6465736B2E636F6D2F64657369676E2D7061636B6167652F323030393C2F666F726D61743E3C2F666F726D6174733E504B03041400060808007AA0AF42D486FD9CA0000000F4000000130000005B436F6E74656E745F54797065735D2E786D6C7D8EC10E82300C865F65E91D8A1E8C310C0EEA1BF002731658846E
310
D98AC1B77784ABF1D8FE5FBFBF75BBCE937A534CCEB38643598122B6FEE978D0B0485F9C41B54DDD7D022595594E1A469170414C76A4D9A4D207E29CF43ECE46F218070CC6BECC4078ACAA135ACF422C856C0E68EA1BF5669944DDD7BCDE7B1F8E415D77AECB980613C2E4AC91FC167A2B244592486606FC29C8FD7F045B9A
310
EF7053A7E60B504B03041400060808007AA0AF428A9DD883EC0000007C01000008000000636F72652E786D6C8D904D6EC3201085AF82D856D8804DFD234CE4C8ED097A0104C44589C13250F5F8C58923B5BBAE66F4E67D33A3C74FDFCB0D7C992D58EF06480A0C8171CA6BEBE601A678412D0427C137EFE32F1B044E2E6680
310
BB0C059F379FD64352DE45E362569DD7E61065082642A06EB91960509F6691854C313BC2B558A5BACAD914E4D9653825ABC1E388D5799FBD58B341D1B4EF239D2A82BAB63BA37A6CCEA8ADD98868FD36BE4EF5D460D6F17287058F7679DE579B91D16828282615C20C11F641718FAB9ED117CCFA0AF372B7FF81D2AAFF0925
310
EB62458F771F588082E447EE03C1CB3D8B5CEE41E5BAE7267E00504B03041400060808007AA0AF4255019EA25F0000007C00000007000000636E782E786D6C4DCB3B0E80201045D1AD90E915ED2CF8AC45050C11660C8261F98AB1B07AC9C97D42D718D865D3E909258CFD00CCE24AC6E326A164D74DC0B4128928FF326038
310
472BA13128B1252AC747C6BAB984FC68F0B87FE8960A5C09FE86CFB69FBA01504B03041400060808007AA0AF429A03A1D568010000020300000C0000006662782F636F72652E786D6C8D525B6E833010BC8AE5DFCAD8BC9A878C23A2B427E8051C70280AD8C8D828C7EFF28868AA28AA908C35B3B33B3BC00FB7B64183B27D
310
6D7486C38061A47461CA5A5719F6EE42B6181D04B7C6B85F651869D9AA0C8F3016BCB2C6770B5418ED9476806A53AA05947DAF1C464503970CF7C5B76A6520BD838AFE1A74B2B8CA4A05610034D409DE3B0B06D03C643CB1B89C6F9CCEB8E0DED7E5C2D6254CAB2FB5B2586CB69F79748A43B2DBEE8E24C93747B24DD29C44
310
C947FE7E4A4E1B96EE381DC582BBBABDBB2BAC924E9558442C8C094B49987E456CCFE27D1ABDB1741F334EC7F20791EFCA7F8A7CAD5D1C2D7667598F45084626E2CFB6109143BD1CC00F159C8E21C26B4AF8316808044276F2DCDCF7B80234A8C2199B00531ABF52836CBC82A90C4D0FA7330B9DA706B0D9D33ED18B3EAF7B
310
C00794BA026BD2C1F5ECDD389DCF5397283A65C9E06E481BDBCA6635375B5CCF75D05379611A63FFA3A6CBAA7409938E7FAFF801504B03041400060808007AA0AF42EC6BBFE07E0000009D0000000B0000006662782F636E782E786D6C4DCCD10A83201886E15B91FFDC55DAA4811AD3EA3E625948A6C3E9D8E5AF46073BFA
310
E0E1E3E5ED6773E86DE2CB062FA0BA94808C7F84C9FA45404E336E00B592C710D2DF0D901F3723E060907C89213F4F9ACC3C66977675D6AF272A3A105D560ADFC995E0BAD7142B466ADCD0AE63373A30DD5328242F7EA57D8FB0FC02504B03041400060808007AA0AF424C613D822C01000015020000310000006662782F42
310
334632433031422D413235322D344543332D423632342D3833444436393346364345332F636F72652E786D6C8D515B6EC32010BC8AC557AA0A9B876DB911266A5E27E8051C20294A0C168F2AC72FC48ED4FEE58745B333B3A35DB6B98FB7E24739AFADE9012E11289411566A73E9410C67D88162C399B336FCA181C20CA3EA
310
418601671767E3B440C29AA04C48A8B1522DE0E0BD0AA010B7F4E98117DF6A1CCA2186C4F0D7721AC475B8A81297A99D789CF9E05280621E925FC0B7F44876086FE1276908AC0F3B0AB72DA96147F7FBF6831EDBDD81B2CA3F849CC5A8E522D732C5D167ADDCAB2659CC59D0E333BE706A084A024E10A6103510375F04AD11
310
5D37E41D356B8A5895E9FF4471922F8AA236819225EE2CF3806356CD0DCEA48DA7DB338CBA4FD68522CF5B7925DE004725421DA1A8C6690333376D2099B6F562EA837569C3ABEB29D1E9E2DCD69C55F948A93C2E986A3E28FF05504B03041400060808007AA0AF42207901E75501000033030000300000006662782F423346
310
32433031422D413235322D344543332D423632342D3833444436393346364345332F636E782E786D6CBD93CD6EC32010845F0571ADFC1F47518489D4439FA0875E316C521A0C16E0AA79FB2E094973C9A152D50BB2668799D527CC765F93219FE0837676A04D595302563AA5ED61A04BDC171B4A769C79E7E29D8D122B2618
310
6892296707EF96394B0AF662311155A3ED318B1E825BBC848072BA498C93C26000D8624111A6119402456E46FCDA83C755501C4F24BE0379797E236EFC001903AB520A6755EAE02C9DB9E9CE44893422848106F90E9328C5129D82702C9588A26CCA6BD7839D7E9248BA70AD5CBC26A97CA0E9A43C6F54224756E190B3103D
310
D2CBA6789A817231CF464B11117275365E3C9C2DDAC6F52A7B3582F7E8EEDAF5668361E71967514F901DD28388A0286FEBA62BEABE68FAD7B6DED6DDB66F9FEA7EDBD5AC4A76CE46E74CBE8431E0DD4CA4B3116CA4BC61551A3FC2977D44698FAC9D3FFD022402C8AD173AB78CBFE4D3ACBBD5EA1FF954E7F78DB83CFE05FC
310
1B504B03041400060808007AA0AF42EBB49BC3620700009A1B0000340000006662782F42334632433031422D413235322D344543332D423632342D3833444436393346364345332F6F626A656374732E786D6CED595B739B3814FE2B0CFBB2FB606C623B4D76089D5C3B9E6EDA4EBDEDEC8367181964A28D108C2492787FFD
310
1E5DC0404C82B7D9B73ED880908ECEF9CE5587E0FD53469D07CC05C9D999EB7B13D7C12CCE13C2D233B7949BD189EBBC0F039EE7B231CD7518CAF099AB86DD3048795E167628C11B5452D919BDB9F8CB113166D875628A843873457C8733E4A152E60916F75E8224F2D2CD93E77B66629B6CCA5171D7215A208E99044E619C
310
0115C730E5B71F27EE380CC6EA7D18A87F3B6B3A68D6AC7FD6584BDDE6923021118B9FB1D421331DC4D2D49F5D5D1FCD4F47F3D96C3A9A1D1FF9A38B9B8BAB91FF6E3AB93CBEBC3C3DBF3E05F6D6794EAD4C092E304B407F5B37F483B17A538B6E11D8C7759C3386630D2440A5C5EA122458C0560DF826ED475F49D478AD25
310
6C3CCFD47BCB426378DAA6D2376B18102DBA2088DDAE92B8BA36E5CBD77F83E0628851728125702B2407ED5A783878851B4E82B1190D83F54E17443819929813441D4AD61C71500A4C5553C2C02CB06494737020E52809B4E6CCEBB66D8167BEEE3AFBB8DC94942ACF7043ED5811B81F96427346FEC17CC77D1319E009A42D
310
099327964BB92DB01B9E06633D1806EA323DB22F0D90CE86A2546844CCDB8EA097CAF517576EF8F166FDB454E160FFE605CF0BCCA5323AA547CD1718B2BD2A94ECB6FE20CDA905208C01D5AEDC81F21590FF04D163C70AE88D93A7D9D3CCCE951C31B1C97906BA7126CE68027F13C7D7FFEABE71178CEBC56DEDF5E1096EAA
310
A03AF9713CDB3268AC2CFF0D38C3E0010C3EE753FB6A19230AF67C4B1800A48CC4A1390C4168DFAC9FDC70018113023DAC4234F4416460F7016E83B125B3D34AE55ED6EB18206AF7980E5112C0A62D12D8E8D1D307C81E9CC43B353545EC8377FE26E67A7EB5FCB82CF906C5F8D6FAF415DE10462464CDFD0CB5306F49748F
310
B78F394F40D0E7782F9B7867762B01682BCC15F06905827AD8EDDCDA20867569AEC24DF0CA0E2084CAD50DFAB744C49852C4705E56FBD6D14D196AEDF1B66670C32303F1F4A863C21C3F10555580D3EC66B41885BC1F73522810DDF08391AC0E9A5E8F74DF169FC022EBF93DB3160C422F43F44F1DB4F6E0D0B2EC0A690B44
310
2DF07A17CEE39CE63C5A6F2313E95CA825808DB6B77C6F1185586F94A4A8800769BFAB424A6AA48D12B2D99402E2EA1E16BF2F2E9BE630F1A6FEDC69FE779C7106D1167C1771EB779D3D2292A114471B94F46DD7DCADA62D34C91ED21C6F28C8451E88DC4648469304A787407310F1D337A59ED25C08C2B0807CB517FC261A
310
130F0289D166C5B2D26A076822A20C4B440F414091E90157A71D5DE3C6503ABCCE636DBD2F69AC49F47FB2088EA096CC5944A014851CF22AE3BE378718D246D7A0DCC117ACADA2ADC5A0259410F1367AC424BD9387A06EC8F7E01EC391A494515EA018CC7A00D967BEA294DAE17D8DE27B953FA2B8A46F652002D34D44282D
310
B3087E84C1C963886BD781E945141AC44DEC933883A20CC9920FD9E4783E79B68FA919BA21B0B1D1865008DB51868A1ED45B0151D7234E0DBEA5DEA3D475991511CAF2920D32146FDAF5264BBEAB56457620BFAA5484B2B1226C09860161B2CEAA55CC0653D78115DC4807AA6D24505650730A7B25F1F8B53769CABD1B70EB
310
A76FBB4106855F8FF69A117556C160796C1506E211C9F8CE0D97FA3ABA80FA3BC1C92ED557B566B30204C454242F39B12AFAB680F2C6D6686E788BA4587D3059B7BA7E5B78D0FD08C6B0066A977AE142019D612691AA4C6ED50DFD8A2004B76898F185CAA98750394F125D35227A43FAD4D92A235A9B66C42BEE30CB33F8B1
310
1561312D13BC4289B88F6E258D9644B16EA5F4325261FCA2809F3F2C3BF0C0C80091BEA8020F3F76D6DAD14B552EED2522EFCA6CCD108120D8122D35BAF10A965A8D545AAEAFEA4C017517189855F1ECE7C9A2D98EF879B248AD61FCD0C9E262FB07DA36FB228D741E2BBB3EE81850E72745E52D8E01BAED5053ADB38849E6
310
567EEB4C1104C52ACA0FAEC6AAA06108F671FC9FB3765F1634DB75F83F2C6BFBCF2A8E83B24A6BB2EA52EDA95C17CD1C7633BDB89E9F4047F6DDBBF9C968E6FBE7D0A0F5E7A3D3E9C5F4FCFCFAE4E678BAE3483B6A18D4C14CE72E783641AD1A564F1603E8CA8A9C92044EF389936288F912CEF403DAE73CC3029267B3D99D
310
D8A6FC80D50FA6CF29D19AE28A933B040D622A20AD0346652CDBE3CE2FD09A9470D03E73A169E4DDC39FB54AD781CC73E642AB4092180B6F0D6D26D5D0D3C421E5EADC6F89013E88A52A259A45F573BD4A61D30AFFF5942169C0CAD5EA6140E15640F7ABD5A1D0BC599EE28304AFD8719084DB7529A15A33B2EC066A61F436
310
3BF51BD92861F776EB2770DD97C5F23D3DA785C8A04F062F1A81A13A9288A7BADFAD18B32C9D5F7D19439FCD597C760A5AA6A0CBE194461C833197AAA0022B02ABB0340B24C1542F7F5F7DE1397CE2C91C5D1539BF3E9D1CFFB6BACCB32C676668750EA7B2043E1439CB3BF8EC93ACA078C0AAB92E564713FF68A59BDAB6CF
310
1EAD91C09EAA8A60A02A2694201D9303BB7CD6A0B2EDCBB1524567FAE2CAB141149A01C68E9EF578CD472E077C487D4E511EA3FDBC92F6C5BEF6584F059BE0D0910EFF05504B03041400060800007AA0AF42000000000000000000000000350000006662782F42334632433031422D413235322D344543332D423632342D38
310
33444436393346364345332F76657274696365732E62696E504B03041400060808007AA0AF42F270F1330600000004000000360000006662782F42334632433031422D413235322D344543332D423632342D3833444436393346364345332F747269616E676C65732E62696E636660600000504B03041400060800007AA0AF
310
42000000000000000000000000370000006662782F42334632433031422D413235322D344543332D423632342D3833444436393346364345332F617474726962757465732E62696E504B03041400060808007AA0AF42D5987DFC8F00000041010000360000006662782F42334632433031422D413235322D344543332D4236
310
32342D3833444436393346364345332F6469726563746F72792E786D6C858F410EC2201045AF4266AF15DDB800BA74E7C21B903225242D6328188F2FA5C4183471359997F9FF81E89FF3C41E1816475E02DF1F80A11FC8386F25A438EECEC07A250251FC3803E6F58C12560C4AD840E95E91C151A72936F496F35732D860FE
310
635F62C8F2DA16B505C545B74125BAA2FA9E05D7CC053D063734D5C7665FD55B6B8D15D5E9BFEAFD8490FFA45E504B03041400060808007AA0AF429936F61BFE000000A00100003B0000006662782F42334632433031422D413235322D344543332D423632342D3833444436393346364345332F7265736F75726365732F63
310
6F72652E786D6C8D50596E833010BD0A9ADFCA60B606907144447B825EC032136225D8C84BD5E3D7042AB57FFD9919BD45F3F4D8F96B79249F689D32BA873CA590A09666527AEE21F82B69203973668DF1BF649068B1600F1B0C9CCDD684F580A4D11EB58FA836131EA0700E3D24F2118F1E9CBCE12252117C54B87BBA0A79
310
1733A6791AE9A8E3CC791B0324FB936D02B7E84CB0121DCB7696B310D47468D4147FAAAB420BFCD4BC0FC55852D236ED8554C3E9429AAA1E4851BD0DAF63359E68DDB26C3373E6D5F293515A141E27E005CD4B426B92D71F05ED68D9D5C50BADBB92B26C93FF318575FAA72928EDCBE288BBDB1CF03C0679129C655B5F713D
310
CB8C7BEB967F03504B010214000A00000800007AA0AF423DEE336E79000000790000001B00000000000000000000000000000000006175746F6465736B2D64657369676E2D7061636B6167652E786D6C504B010214001400060808007AA0AF42D486FD9CA0000000F40000001300000000000000000000000000B20000005B
310
436F6E74656E745F54797065735D2E786D6C504B010214001400060808007AA0AF428A9DD883EC0000007C010000080000000000000000000000000083010000636F72652E786D6C504B010214001400060808007AA0AF4255019EA25F0000007C000000070000000000000000000000000095020000636E782E786D6C504B
310
010214001400060808007AA0AF429A03A1D568010000020300000C00000000000000000000000000190300006662782F636F72652E786D6C504B010214001400060808007AA0AF42EC6BBFE07E0000009D0000000B00000000000000000000000000AB0400006662782F636E782E786D6C504B010214001400060808007AA0
310
AF424C613D822C010000150200003100000000000000000000000000520500006662782F42334632433031422D413235322D344543332D423632342D3833444436393346364345332F636F72652E786D6C504B010214001400060808007AA0AF42207901E755010000330300003000000000000000000000000000CD060000
310
6662782F42334632433031422D413235322D344543332D423632342D3833444436393346364345332F636E782E786D6C504B010214001400060808007AA0AF42EBB49BC3620700009A1B00003400000000000000000000000000700800006662782F42334632433031422D413235322D344543332D423632342D3833444436
310
393346364345332F6F626A656374732E786D6C504B010214001400060800007AA0AF420000000000000000000000003500000000000000000000000000241000006662782F42334632433031422D413235322D344543332D423632342D3833444436393346364345332F76657274696365732E62696E504B01021400140006
310
0808007AA0AF42F270F13306000000040000003600000000000000000000000000771000006662782F42334632433031422D413235322D344543332D423632342D3833444436393346364345332F747269616E676C65732E62696E504B010214001400060800007AA0AF420000000000000000000000003700000000000000
310
000000000000D11000006662782F42334632433031422D413235322D344543332D423632342D3833444436393346364345332F617474726962757465732E62696E504B010214001400060808007AA0AF42D5987DFC8F000000410100003600000000000000000000000000261100006662782F42334632433031422D413235
310
322D344543332D423632342D3833444436393346364345332F6469726563746F72792E786D6C504B010214001400060808007AA0AF429936F61BFE000000A00100003B00000000000000000000000000091200006662782F42334632433031422D413235322D344543332D423632342D3833444436393346364345332F7265
310
736F75726365732F636F72652E786D6C504B0506000000000E000E0080040000601300000000
  0
XRECORD
  5
17
102
{ACAD_REACTORS
330
12
102
}
330
12
100
AcDbXrecord
280
     1
270
     1
271
     1
  0
XRECORD
  5
16
102
{ACAD_REACTORS
330
12
102
}
330
12
100
AcDbXrecord
280
     1
270
     1
271
     1
  0
XRECORD
  5
18
102
{ACAD_REACTORS
330
12
102
}
330
12
100
AcDbXrecord
280
     1
270
     1
271
     1
  0
XRECORD
  5
15
102
{ACAD_REACTORS
330
12
102
}
330
12
100
AcDbXrecord
280
     1
270
     1
271
     1
  0
XRECORD
  5
1588
102
{ACAD_REACTORS
330
22
102
}
330
22
100
AcDbXrecord
280
     1
102
MATERIAL
148
0.0
149
0.0
149
0.0
 93
        0
 94
      127
282
     0
 72
     0
 77
     0
171
     0
175
     0
179
     0
273
     0
  0
XRECORD
  5
24
102
{ACAD_REACTORS
330
22
102
}
330
22
100
AcDbXrecord
280
     1
270
     1
271
     1
  0
XRECORD
  5
23
102
{ACAD_REACTORS
330
22
102
}
330
22
100
AcDbXrecord
280
     1
270
     1
271
     1
  0
XRECORD
  5
BA
102
{ACAD_REACTORS
330
22
102
}
330
22
100
AcDbXrecord
280
     1
 70
     1
 90
1959938040
 71
     1
  1
F29A174D-EF51-475C-82DB-0ACF1BD23977
311
504B03040A000008000079A0AF423DEE336E79000000790000001B0000006175746F6465736B2D64657369676E2D7061636B6167652E786D6C3C3F786D6C2076657273696F6E3D22312E302220656E636F64696E673D227574662D3822203F3E3C666F726D6174733E3C666F726D61743E687474703A2F2F736368656D612E
311
6175746F6465736B2E636F6D2F64657369676E2D7061636B6167652F323030393C2F666F726D61743E3C2F666F726D6174733E504B030414000608080079A0AF42D486FD9CA0000000F4000000130000005B436F6E74656E745F54797065735D2E786D6C7D8EC10E82300C865F65E91D8A1E8C310C0EEA1BF002731658846E
311
D98AC1B77784ABF1D8FE5FBFBF75BBCE937A534CCEB38643598122B6FEE978D0B0485F9C41B54DDD7D022595594E1A469170414C76A4D9A4D207E29CF43ECE46F218070CC6BECC4078ACAA135ACF422C856C0E68EA1BF5669944DDD7BCDE7B1F8E415D77AECB980613C2E4AC91FC167A2B244592486606FC29C8FD7F045B9A
311
EF7053A7E60B504B030414000608080079A0AF422BBA55C2EB0000007C01000008000000636F72652E786D6C8D905B6EC3201045B782E6B7C2E651A7898589DC3C56D00D20202E4A0C9681AACB2F4E1CA9FDEBD78CEEDC3333BA62FF3DDED0979DA30BBE035A1140D6EB609C1F3AC8E982B780F652CC21A45F36405E8DB683
311
4506298639E4699574F0C9FA54541F8C5D4515A34D80F4AD341D44FD694755A99C8A235EAB49E9AB1A6C459F5D817376063D8E3853F6B98BB333C863CF7B4A4F6F9833B2C1AF4DBFC13B7678C7E7EDE6C8293F73763A887A81A5486E7CDED7B355C91A908C508E498369F3C1484B78DB9017D2B49C887AB1FF81F264FE0965
311
E71367EBBB0F2C82A4E591FB408A7AC9A2947B50A52EB9C91F504B030414000608080079A0AF4255019EA25F0000007C00000007000000636E782E786D6C4DCB3B0E80201045D1AD90E915ED2CF8AC45050C11660C8261F98AB1B07AC9C97D42D718D865D3E909258CFD00CCE24AC6E326A164D74DC0B4128928FF32603847
311
2BA13128B1252AC747C6BAB984FC68F0B87FE8960A5C09FE86CFB69FBA01504B030414000608080079A0AF42D1787B3268010000020300000C0000006662782F636F72652E786D6C8D525B6E833010BC8AE5DF0A6CE390A6917194E671825EC00187A2808D8C8D72FC2E8F284D55451192B16676766707C4E6DAD4A8D7AEAB
311
ACC9308B2946DAE4B6A84C99E1E0CFD10AA38D14CE5AFFAB0C23A31A9DE101C65294CE867686726BBC361E50630B3D83AAEBB4C728AFE192E12EFFD68D8A55F050D15DE256E51755EA98C540439D149D7760004D438613CBF3E92AC8844B114255CC6C55C0B4EA5C6987E57ECBB78C1DDE239ED065B448B7CBE823D97D46C7
311
D572CF193FF2E4B01364104BE1ABE6E62E775A795D609950C6239A462CFD4AE89AF2754ADF68BAE65490A1FC4114DAE24551A88CE7C96C77927558323032127FB685883CEA540F7E88146408115E63C28F41432010B257A7FAB6C705A05EE7DEBA0530850D77AA5775D03095A2F1116462A1F3D80036FBB74FF2A4CFF31EF0
311
019529C19AF2703D053F4C17D3D4398A56BBA8F75764AC6B547D373759BC9FF741FFCA735B5BF78A9ACCAB92394C32FCBDF207504B030414000608080079A0AF424D32F7657C0000009D0000000B0000006662782F636E782E786D6C4DCCD10A83201805E05791FFDEE5D2C10435C2E67BC4B290990EA7A3C7CF4617BB3A87
311
8FC311DDB67AF4B5E9E3629070BD1040363CE3E4C222A1E419DF01754AA418F3DF0C5018572BE160506249B1BC4F9AEC3C169FAB7A175E273233106A6E1A73DD12CCDAA1C79CF4143F6AE34C33AA8D864689E6F754F338563B504B030414000608080079A0AF4213583FD52C01000015020000310000006662782F34464430
311
334635432D394332302D343244412D393041332D4532444139344334334346432F636F72652E786D6C8D515B6EC32010BC0AE22B55850DC64E930813454E73825E8002495162B07854397EA176A4F62F3F2C9A9D991DEDB2FD7DBC816FED8371B687A4C210682B9D32F6D2C314CF6803C19E33EF5CFC4383C08A51F7B0C090
311
B38B77695A20E96CD43666D43AA5175084A02304F2963F3D0CF24B8FA212296646B85693905771D115A9723BF3380BD1E700601E525EC8DBD311D35337A0EDD060D436C703DAE20345EFF9B76D87960EA781D5B390B3948C5AE446E538E66CB47FD6A488398B667CC4975E8BA815E40D2614E10E91EEA3C13B4C771D7EC5DD
311
8E625617FA3F519AD493A2646CA4CD12779605C809ABE70667CAA5CFDB238CBE4FCE4750E6AD82962F90E30AE3B7CDBAA584B27AE6E60D64D375BB9886E87CDEF0EAFA99E9A49B9DD72D677539522EBF17CCB51C94FF00504B030414000608080079A0AF4244F4C6134E01000033030000300000006662782F344644303346
311
35432D394332302D343244412D393041332D4532444139344334334346432F636E782E786D6CD593C16EC32010447F0571AD6CE3388EAA0813A9877E410FBD62D8A434182CC055F3F75D1292E692438FBD206B7698593D61BEFB9E2CF982108D77036D6B460938E5B57187812E695F3D53B2133C789FEE6C943839C140B34C
311
053F04BFCC45D2B0978B4DA85AE38E450C10FD12144494F34D62BD921603C0550B8A308DA035687233E2D71E02AE82E27822E903C8EBCB3BF1E327A814799353046F7287E0F92C4D77264A9495310E34AA0F98642D97E435C463AD6592755B5FBB1EECF49B44F2856BE5120CC9E503CD271565A31A39F2068782C714905E31
311
A5D30C54C879B646C984909BB3F1E2117C312E6DD6C56B107C4077BBE9D66B0C3BCF044F6682E2500164024DC58AB55DC5FAAAEDDF566CCBBA6DCF9E58BFED186FB25DF0D17B5B2E610C043F13E55D0297A8687993C78FF0151FD126206B1F4E7F0089004AEB85CE2DE33FF369CEEF1B7105FC0BC40F504B03041400060808
311
0079A0AF4224A40979A505000080100000340000006662782F34464430334635432D394332302D343244412D393041332D4532444139344334334346432F6F626A656374732E786D6CAD57DB6EDB3810FD1541FBB2FBE08B6CA749168A0AC7AE0BA3485BD468B10F060C4AA2146EA80B482A75F6EBF750A464C9B553EFA22F
311
96450D873367CE5CE8BFDD67DC79A642B222BF73BDE1D875681E1531CBD33BB752C9E0C675DE06BE280AD511739D9C64F4CED5CB6EE0A7A2A84ABB14D384545C1DADAEEEFF72644473EA3A112752DEB9327AA41919924A1531954FC39828324C93FDD01B1AC1BEDA5490F2F148694904CD152CC57A0E2D8E31CAEBBF8EDD51
311
E08FF4F7C0D7BF566A7A5E6A54FBD33F9FE552913CFAE1B02335536FB67C37B9BA1D5CCD66D3C1ECCDC41BDCAFEE9703EF7A3A5EBC592C6EE7EF6E71B054029AAC2582266EF01ED80816F923F329F02B96ABE9C48AD8008D047D663A526E30713C7F64645AEFAC93A7CC8F8A3CA7518D15D0A8FDB3AA635AD23C46CC1995B0
311
AC83D0B8FFEA691C3B9FA7FADD1ED95DBE0C81EE8E8EA2C6F6E6D9B5B408FF860BF21206094935030D96D651C3D5F101E1B028B8FDC6A49311450523DCE12C1444BCB80144B548E0F7D468260B9D0DDA03374014CCE73E5D90463FE7F9292B938A734D6337A8B360875CA14AD696B17FA83858DF45063621569A0D37D621F5
311
525237B83514B939629301D24938491172B8A9774E27478E2E749EAE976EF06115EE373A774F1F5E8AA2A44269FA805A4DE09AA746C9DAE45D1439BDC13D32E500CA1720FF11A97E300571136C3FDBCFEC294A905C2685C8101B67EC0CC6F8193B5EFDABFF77FEF9A376733F7AE7F044B03554BF00CFBE0FDD5876E00CFC67
311
10BE1053EBDA26221C65E381E5004893C4E1059650879370EF066B54395465EC223CF0E032CC7DC65F7F64D5A050D427759E39B03C2A8B171468C05633126618F25B030F71FAA19CD5075BB173F05EFD12BACE979B0F9B4A2424A20F36A79734613953687107DE740DEA61DEF3E889BE7C2F440C477FC47BD3C53BB34749A0
311
AD31D7C0A74D4DD72F87937B0744D89716BADCF83F39014EE8C6DAD1FFC064443927392DAAE6DC57FB07DA86815827BB6672DB600E8D05A4315F8E72104D3A12ACD420B6DDAA2D9AC333DE7D5D7F042321CF8B90F083507828BD51C10BB10B5F76A62A9D44FA5B9FDA168291D602B6D739D2A4BFC57C17B324A9246AE00958
311
BFAD17DDD0E9AA800AD16835C93283FBC82D222C671BBD68D682A09116F98EA16D22ED4E1ED0D50F442D016A85E72C9694273BC67995ED12C6D18C761929CFC0F1FFED0FABACDC91ACA872754677CF743487BEED3DF2CAEF44458F6EB0A99F837B94DE98C68730F784752B3981552FB4ABC9EDDCBB9E2D07EF5657DE60767D
311
B518DC4C96F783F17CB1F2EE9793E9EDF5751327A33CF09B4ED34D6844099DCDAF04B3E1FBBA46FAD81AE0060F44C9ED7B939DCDF3EB7A8851D81F610FDA65BB711E3F63ECA3F1CF151C244F2A5A6725A719CD15D129F4A0FFF02F046346CF18B3BECE484A2FD0F2E9FDE6C819AC5CB0EFB34E77FAFD68AF5D5DE8843CA944
311
3D56599813C68F36A606C96199A716BF2626EDD3F499E655BFD9C0603095056731CA60ECA4B4C8A84231BCA007898C4A50AF3BD2C7F6EA71C1EE6733202A1272DA58F24830237389B400B5AA48F5D79DDF30D3E9B1EACE45B71D3EE1C7560AD70167EE5CCCE88A45540E43F4673D09D5CAC1A5EE208FB99FE429C7A86D36B5
311
EFED2E8D4DAF23B722978C4FD62F53C1AD03282325C606CC43884E6D4CE0D7B6D9EFD17F72BC31C7210A7FC34AB5BE1C165A67EA6390A2C6297B59C00CF3648FDE23515F77CB1BD6323D442EBA64BD4A02A375A08848EB8B82B6CF9A345F7E1E614071D69F9C9257296279B9A681A02073A5131C2C022BACCE92285075F1E7
311
F6B3287091CD9C1503059CDFF7376FFED82E8A2C2B72B3B49DDBEBB0B379C4E536DEA238507D2B91DBC9D89B6CEBDB80BDA0EC4222E990C4F2090B88AC602DD0BDF08397E6CA883E643EB472231D8A2386AE978E6D6C3328B574E9D6560D0EE68E9C3AC8217DA3D419D315285FBD108C6A51982030CA07FF02504B03041400
311
0608000079A0AF42000000000000000000000000350000006662782F34464430334635432D394332302D343244412D393041332D4532444139344334334346432F76657274696365732E62696E504B030414000608080079A0AF42F270F1330600000004000000360000006662782F34464430334635432D394332302D3432
311
44412D393041332D4532444139344334334346432F747269616E676C65732E62696E636660600000504B030414000608000079A0AF42000000000000000000000000370000006662782F34464430334635432D394332302D343244412D393041332D4532444139344334334346432F617474726962757465732E62696E504B
311
030414000608080079A0AF42D5987DFC8F00000041010000360000006662782F34464430334635432D394332302D343244412D393041332D4532444139344334334346432F6469726563746F72792E786D6C858F410EC2201045AF4266AF15DDB800BA74E7C21B903225242D6328188F2FA5C4183471359997F9FF81E89FF3
311
C41E1816475E02DF1F80A11FC8386F25A438EECEC07A250251FC3803E6F58C12560C4AD840E95E91C151A72936F496F35732D860FE635F62C8F2DA16B505C545B74125BAA2FA9E05D7CC053D063734D5C7665FD55B6B8D15D5E9BFEAFD8490FFA45E504B030414000608080079A0AF4238117B5AFD000000A00100003B0000
311
006662782F34464430334635432D394332302D343244412D393041332D4532444139344334334346432F7265736F75726365732F636F72652E786D6C8D50596E833010BD0A9ADFCA60E38252641CA5594ED00B586642AC041B79A97AFC9A40A5F6AF3F33A3B7689E9ED87F4D8FE2137D30CEF6C04A0A055AED0663C71E52BC
311
921D147B29BC73F1970C0AAB26EC6181418AD1BB346F907636A28D19B56EC00D54216084423FF2D143D0379C54A952CC8A702F67A5EF6AC4929599CE3A2942F43940B13E5926488FC125AF31886A65A548C90C9BC60CF9A7B91AF4204F077E60ECDC125ED396BC368796BCD5C77772D9B527CEF885D7E7A3A816B314D14C3F
311
19B5471571005953C6096D086B3E6ADA51DE35F485361DA7A25AE47F4C691EFE694AC6465E6F71575B00C97290272145B5F495D7B3CCBC976EE537504B010214000A000008000079A0AF423DEE336E79000000790000001B00000000000000000000000000000000006175746F6465736B2D64657369676E2D7061636B6167
311
652E786D6C504B0102140014000608080079A0AF42D486FD9CA0000000F40000001300000000000000000000000000B20000005B436F6E74656E745F54797065735D2E786D6C504B0102140014000608080079A0AF422BBA55C2EB0000007C010000080000000000000000000000000083010000636F72652E786D6C504B01
311
02140014000608080079A0AF4255019EA25F0000007C000000070000000000000000000000000094020000636E782E786D6C504B0102140014000608080079A0AF42D1787B3268010000020300000C00000000000000000000000000180300006662782F636F72652E786D6C504B0102140014000608080079A0AF424D32F7
311
657C0000009D0000000B00000000000000000000000000AA0400006662782F636E782E786D6C504B0102140014000608080079A0AF4213583FD52C0100001502000031000000000000000000000000004F0500006662782F34464430334635432D394332302D343244412D393041332D4532444139344334334346432F636F
311
72652E786D6C504B0102140014000608080079A0AF4244F4C6134E010000330300003000000000000000000000000000CA0600006662782F34464430334635432D394332302D343244412D393041332D4532444139344334334346432F636E782E786D6C504B0102140014000608080079A0AF4224A40979A5050000801000
311
003400000000000000000000000000660800006662782F34464430334635432D394332302D343244412D393041332D4532444139344334334346432F6F626A656374732E786D6C504B0102140014000608000079A0AF4200000000000000000000000035000000000000000000000000005D0E00006662782F344644303346
311
35432D394332302D343244412D393041332D4532444139344334334346432F76657274696365732E62696E504B0102140014000608080079A0AF42F270F13306000000040000003600000000000000000000000000B00E00006662782F34464430334635432D394332302D343244412D393041332D45324441393443343343
311
46432F747269616E676C65732E62696E504B0102140014000608000079A0AF4200000000000000000000000037000000000000000000000000000A0F00006662782F34464430334635432D394332302D343244412D393041332D4532444139344334334346432F617474726962757465732E62696E504B0102140014000608
311
080079A0AF42D5987DFC8F0000004101000036000000000000000000000000005F0F00006662782F34464430334635432D394332302D343244412D393041332D4532444139344334334346432F6469726563746F72792E786D6C504B0102140014000608080079A0AF4238117B5AFD000000A00100003B0000000000000000
311
0000000000421000006662782F34464430334635432D394332302D343244412D393041332D4532444139344334334346432F7265736F75726365732F636F72652E786D6C504B0506000000000E000E0080040000981100000000
310
504B03040A000008000079A0AF423DEE336E79000000790000001B0000006175746F6465736B2D64657369676E2D7061636B6167652E786D6C3C3F786D6C2076657273696F6E3D22312E302220656E636F64696E673D227574662D3822203F3E3C666F726D6174733E3C666F726D61743E687474703A2F2F736368656D612E
310
6175746F6465736B2E636F6D2F64657369676E2D7061636B6167652F323030393C2F666F726D61743E3C2F666F726D6174733E504B030414000608080079A0AF42D486FD9CA0000000F4000000130000005B436F6E74656E745F54797065735D2E786D6C7D8EC10E82300C865F65E91D8A1E8C310C0EEA1BF002731658846E
310
D98AC1B77784ABF1D8FE5FBFBF75BBCE937A534CCEB38643598122B6FEE978D0B0485F9C41B54DDD7D022595594E1A469170414C76A4D9A4D207E29CF43ECE46F218070CC6BECC4078ACAA135ACF422C856C0E68EA1BF5669944DDD7BCDE7B1F8E415D77AECB980613C2E4AC91FC167A2B244592486606FC29C8FD7F045B9A
310
EF7053A7E60B504B030414000608080079A0AF422FB7EDA9EC0000007C01000008000000636F72652E786D6C8D904D6EC3201085AF82665B618329F9B130915B3B27E80510262E4A0C9681AAC72F4E1CA9DD7535A337EF9B193D71FA9E6EE8CB2CC17AD7002D0820E3B41FAC1B1B48F1820F804E522CDEC75F36404E4DA681
310
550629C6C5A77993B477D1B89855E707B3892A041301E95B6E1A08FAD34CAA50296647B816B3D257359A823EBB0CA76407F4386287BCCF5EAC5940B6FBBEADE8FB199FFB7E8F5FBB638B8F07DEE11D67A4DB73B2E36F4C942B2C45B4D3F3BE5E8C8A66005911CA30E198F28F8AD484D59CBC105E3322CAD5FE074AF3F04F28
310
591759B5BDFBC002489A1FB90FA428D72C72B90795EB9A9BFC01504B030414000608080079A0AF4255019EA25F0000007C00000007000000636E782E786D6C4DCB3B0E80201045D1AD90E915ED2CF8AC45050C11660C8261F98AB1B07AC9C97D42D718D865D3E909258CFD00CCE24AC6E326A164D74DC0B4128928FF326038
310
472BA13128B1252AC747C6BAB984FC68F0B87FE8960A5C09FE86CFB69FBA01504B030414000608080079A0AF42C7967CCD68010000020300000C0000006662782F636F72652E786D6C8D52ED8E8320107C15C2DF8B825AFB15A4E95DDB27B817A04A3D52058360FAF8B77E345E2F4DD3982099D9D99D1D65BB5B5DA14EDA56
310
199DE128A418499D9B42E932C3DE5D8235463BCEAC31EE4F19465AD432C33D8C392BADF1CD04E5463BA91DA0DA14720245DB4A87515EC125C36DFE236B110AEFA0A2BD868DC8AFA2946114020D759CB5CE8201340EE94FCC2FE71B2323CE99F7AA985855C0347551D262BE5F1DF771F4750A4EC7E32A581C36FB60B34E0FC1
310
324DE86195D265FA9930D28B3973AABEBBCBAD144E1698C7344A029A0651FA1DD32D4DB629FDA0E936A18CF4E50F22DF146F8ABCD22E8927BBA3ACC53C022303F16F5B88C8A15674E0877046FA10E13524FC18340402213B71AEEE7B5C01EA64EE8C5D0053183F539DA8BC84A9140D0F23230B9D8706B0D9D33EF18B3EAF7B
310
C00714BA046BC2C1F5EC5D3F9D8D53A7281A6983CEDD9036B616D56C6EB4389FF3A0A7F2DC54C6BEA326D3AA640A93F47F2FFF05504B030414000608080079A0AF42557173BD7F0000009D0000000B0000006662782F636E782E786D6C4DCCDF0E82201C86E15B61BF73B2C03FB4010E28EFC3253A274223685D7EDA3CE8E8
310
DB9E7D7B79FB591D7ADBF89A831770399D0159FF08C3EC2701398D98016A258F21A4BF1B20DFAF56C0CE20F914437E1E34D8B1CF2E6DEA66BF1CA8AA9A754CD75837CAE0B2BA11CCA8A1F84A88A24D7737A56650485EFC4ADBEE61F905504B030414000608080079A0AF424B5C3F0C2D01000015020000310000006662782F
310
41353638463842362D423741432D343544322D383343332D3932324133374645433442382F636F72652E786D6C8D515B6EC32010BC8AC557ABCA3606E3900813256973825EC00192A2C460F1A872FC42ED48ED5F7E58343B333BDA65DBFB782BBE95F3DA9A1E3415048532C24A6D2E3D88E15C52506C3973D6863F34509861
310
543DC830E0ECE26C9C164858139409093556AA051CBC570114E2963E3DF0E24B8D4335C49018FE5A4D83B80E175535556A271E673EB814A09887E417F01DE9E891EEBB72BFDA1DCA96BCA392E2032ED708EDF0EAF87168F794D5B390B318B55CE45AA638FAAC957BD6248B390B7A7CC4174E0D4149C0116C700949D9904F04
310
37106F087C83648321AB33FD9F284EF24951D42660B4C49D651EF086D573833369E3E9F608A3EE9375A1C8F35EBC12AF80C30A424A68B35E2156CFDCB48164DAB58BA90FD6A50DBF5C4F898E17E7AEE5ACCE474AE5F782A9E683F21F504B030414000608080079A0AF42225309045601000033030000300000006662782F41
310
353638463842362D423741432D343544322D383343332D3932324133374645433442382F636E782E786D6CBD93CD6E022114855F85B06DE6CF718C310C265DF409BAE816E16AA90C4CF869EADBF7A268DDB868D2744326E71ECEB9F9C2B0EDD764C827F8A09D1D6957B79480954E697B18698AFB6A4DC99633EF5CBCB35162
310
C50423CD32E5ECE05D9A8BA4602F9289A81A6D8F45F4105CF21202CAF926314E0A830160AB84224C3B500A14B919F16B0F1E5741717722F11DC8CBF31B71BB0F9031B026A770D6E40ECEF2599AEE4C94482342186990EF30895AA4E8148463AD441475575FBB1EECF49344F2856B65F29AE4F291E693F2B2518D1C598343CE
310
42F448AF98E26906CAC53C1B2D4544C8CDD978F17096B48DAB65F16A04EFD1DD2F56EB35869D679C453D4171480F2282A27CD1767DD50E5537BC2EDA4DDB6F86F6A91D367DCB9A6CE76CE79C29973006BC9B897436828D9477ACC9E347F88A8F28ED91B5F3A75F804400A5F542E796F1977CBA55BF5CFE239FE6FCBE1197C7
310
BF807F03504B030414000608080079A0AF42BDA5307562070000991B0000340000006662782F41353638463842362D423741432D343544322D383343332D3932324133374645433442382F6F626A656374732E786D6CED595B739B3814FE2B0CFBB2FB606C6CA74976083B89DD743C9DB49D7ADBD907CF3032C8441B211849
310
E4B2BF7E8F2E602026C1DBEC5B1F6C404847E77CE7AA43F0C763469D7BCC05C9D985EB7B13D7C12CCE13C2D20BB794BBD199EBFC11063CCF65639AEB3094E10B570DBB6190F2BC2CEC508277A8A4B2337A7DF5972362CCB0EBC4140971E18AF81667C843A5CC132CEEBC0449E4A5BB47CFF7CCC436D994A3E2B643B4401C33
310
099CC238032A8E61CA6F3F4EDC71188CD5FB3050FF76D66CD0AC79FFACB196BACD25614222163F63A943663688A5993F5FBE9F9E9C8F4EE6F3D968FE6EEA8FAEAEAF9623FF743659BC5B2CCE2FDF9F037BDB3CA756A604179825A0BF2737F483B17A538B6E1138C4759C3386630D2440A5C5EA122458C0560DF826ED475F49
310
D478AD256C3CCFD57BCB426378D6A6D2376B18102DBA2088DDAE92B8BA36E5CBB77F83E0628851728125702B2407ED5A783878851B4E82B1190D83ED5E17443819929813441D4AB61C71500A4C5553C2C02CB06494737020E52809B4E6CCEBB66D8167BEEE3A87B8DC95942ACF7043ED5811B81F96427346FEC17CCF7D1319
310
E009A42D099367964BF95460373C0FC67A300CD46536B52F0D90CE8EA2546844CCDB8EA00BE5FAABA51B7EBCDE3EAE553838BC79C1F30273A98C4EE951F305866CAF0A25BBAD3F48736A01086340B52BF7A07C05E43F41F4D8B3027AE3E471FE38B77325474CEC729E816E9C89339AC0DFC4F1F5BFBA6FDC05E37A715B7B7D
310
78829B2AA8CE7E1CCFB60C1A2BCB7F03CE30B80783CFF9CCBE5AC788823DDF100600292371680E4310DA77DB47375C41E084400FAB100D7D1019D8BD87DB606CC9ECB552B997F53A0688DA3D66439404B0698B04367AF4F401B20727F15E4D4D11FBE03D791373BD5CAE3FAE4BBE4331BEB13EBDC43BC28884AC7998A116E6
310
2D89EEF0D343CE1310F439DEEB26DE99DD4A00DA0A73057C5A81A01EF63BB73688615D9AAB7013BCB20308A1727583FE0D1131A614319C97D5BE757453865A7BBCAD19DC706A209E4D3B26CCF13D51550538CD7E468B51C8FB31278502D10D3F18C9EAA0E9F548F76DF5092CB29EDF336BC520F43244FFD441EB000E2DCBAE
310
90B640D4026FF7E13CCE69CEA3ED5364229D0BB504B0D1F696EF2DA210EB8D921415F020ED775548498DB4514276BB52405C3DC0E2F7D5A2690E136FE69F38CDFF8E33CE21DA82EF226EFDAEB347443294E2688792BEED9ABBD5B48526D9439AE31D05B9C83D914F1192D124C1E931D01C45FCFC4DA9A7341782302C205F1D
310
04BF89C6C4834062B459B1ACB4DA019A8828C312D1631050647AC0D56947D7B831940EAFF3585BEF4B1A6B12FD9F2C8223A82573161128452187BCCAB8EF9D400C69A36B50EEE00BD656D1D662D0124A88F8297AC024BD95C7A06EC8F7E01EC391A494515EA018CC7A00D967BEA294DAE17D8BE23B953FA2B8A46F652002D3
310
5D44282DB3087E84C1C963886BD781E945141AC44DEC933883A20CC9920FD9E4DDC9E4D93EA666E886C0C6463B42216C47192A7A506F05445D8F3835F8967A8F52B765564428CB4B36C850BC59D79B2CF9AE5A15D981FCAA5211CAC68AB025180684C93AAB56311B4C5D075670231DA89E2281B2829A53D82B89C7AFBD4953
310
EEDD805B3F7DDB0D3228FC7AB4D78CA8F30A06CB63AB30100F48C6B76EB8D6D7D115D4DF094EF6A9BEAA359B152020A62279C98955D1B7159437B64673C31B24C5E683C9BAD5F5DBCA83EE4730863550BBD40B570AE80C3389546572A36EE8570421B845C38CAF544E3D86CA6592E8AA11D16BD2A7CE5619D1DA34235E718B
310
599EC18F6D088B6999E00D4AC45D742369B4268A752BA597910AE31705FCFC61DD8107460688F4451578F8A1B3D68E2E54B9749088BC2DB32D430482604BB4D4E8C62B586A355269B9BEAA3305D45D606056C5F39F278B663BE2E7C922B586F163270B9A6F11DD479B46368F95591F750AA8D393A2F216A700DD75A8A9D649
310
C4E4722BBEF5A508626215E407176355CC3004FB38FECF49BB2F099AED3AFC1F97B4FD6705C75149A5355935A90E14AEAB660ABB9E9E5FFAA7F3E5E8FDF5893F9A9F9E2C4667D3E5D56872B9B8F6AF96D3D9F9E9698DA6F6D330A863994E5DF06C625A35AC9E2C06D094153925091CE61327C510F2251CE90774CF798605E4
310
CE66AF3BB13DF901ABEF4D9B53A22DC51527B708FAC3544056078CCA58B6C79D5FA03329E19C7DE142CFC8BB833F6B95AE0389E7C2854E81243116DE16BA4CAA9FA78943C6D5A9DF12037C104B5546348BEAE77A95C2A615FDEB2943B28095ABD5C280BAAD80E657AB41A179B33CC547095EB1E32009B7DB5242B16664D90F
310
D4C2E86DF6EA37B251C2EEECD68FE0BA2F8BE57B7A4E0B91415F0C5E3402437524114F75BB5B316659BA5C7E19439BCD597D760A5AA6A0CBE194461C833197AA9E022B02ABB0340B24C15417BF6FBEF01CBEF0648E2E8A9C5F1FCFDEFDB659E459963333B4B984435902DF899CF52D7CF54936503B60D55B179BE9C49F6E74
310
4FDBB6D9A32D12D85345110C54B58412A463726097CFFA53B67B3956AAE84C5F2D1D1B44A11760ECE8598BD77CE372C087D4D714E531DACF2B695F6C6B8FF554B0090E0DE9F05F504B030414000608000079A0AF42000000000000000000000000350000006662782F41353638463842362D423741432D343544322D383343
310
332D3932324133374645433442382F76657274696365732E62696E504B030414000608080079A0AF42F270F1330600000004000000360000006662782F41353638463842362D423741432D343544322D383343332D3932324133374645433442382F747269616E676C65732E62696E636660600000504B0304140006080000
310
79A0AF42000000000000000000000000370000006662782F41353638463842362D423741432D343544322D383343332D3932324133374645433442382F617474726962757465732E62696E504B030414000608080079A0AF42D5987DFC8F00000041010000360000006662782F41353638463842362D423741432D34354432
310
2D383343332D3932324133374645433442382F6469726563746F72792E786D6C858F410EC2201045AF4266AF15DDB800BA74E7C21B903225242D6328188F2FA5C4183471359997F9FF81E89FF3C41E1816475E02DF1F80A11FC8386F25A438EECEC07A250251FC3803E6F58C12560C4AD840E95E91C151A72936F496F35732
310
D860FE635F62C8F2DA16B505C545B74125BAA2FA9E05D7CC053D063734D5C7665FD55B6B8D15D5E9BFEAFD8490FFA45E504B030414000608080079A0AF42475DB098FE000000A00100003B0000006662782F41353638463842362D423741432D343544322D383343332D3932324133374645433442382F7265736F75726365
310
732F636F72652E786D6C8D50DB4E843010FD1532AFA650C0EE85946E50F00BFC81A6CC62B34B4B7A317EBE65C144DF7C99999C4BE6E4F0CBD77CCF3ED1796D4D0B654E2143A3ECA8CDD4420C577282EC22B8B336FC924166E48C2DAC30083E391B971D52D6043421A1C68EB883D27B0C90A97B3A5AF0EA036799CB1892C2DF
310
F245AA9B9C302FF344279DE03EB81420DB9EAC1384436FA353E879B1B182C7A8C75DA3C7F4535F353A10DD71E8AAF275206FC37024CFFDB923E713EBC981D5B43F327A602F352F56B3E041CF3F19954319700451D1B226949192BD57B4A175C3E813654D4D79B1CAFF98E232FED314B50975B5C7DD6C1E4499823C08C18BB5
310
AFB41E65A6BD762BBE01504B010214000A000008000079A0AF423DEE336E79000000790000001B00000000000000000000000000000000006175746F6465736B2D64657369676E2D7061636B6167652E786D6C504B0102140014000608080079A0AF42D486FD9CA0000000F40000001300000000000000000000000000B200
310
00005B436F6E74656E745F54797065735D2E786D6C504B0102140014000608080079A0AF422FB7EDA9EC0000007C010000080000000000000000000000000083010000636F72652E786D6C504B0102140014000608080079A0AF4255019EA25F0000007C000000070000000000000000000000000095020000636E782E786D
310
6C504B0102140014000608080079A0AF42C7967CCD68010000020300000C00000000000000000000000000190300006662782F636F72652E786D6C504B0102140014000608080079A0AF42557173BD7F0000009D0000000B00000000000000000000000000AB0400006662782F636E782E786D6C504B010214001400060808
310
0079A0AF424B5C3F0C2D010000150200003100000000000000000000000000530500006662782F41353638463842362D423741432D343544322D383343332D3932324133374645433442382F636F72652E786D6C504B0102140014000608080079A0AF422253090456010000330300003000000000000000000000000000CF
310
0600006662782F41353638463842362D423741432D343544322D383343332D3932324133374645433442382F636E782E786D6C504B0102140014000608080079A0AF42BDA5307562070000991B00003400000000000000000000000000730800006662782F41353638463842362D423741432D343544322D383343332D3932
310
324133374645433442382F6F626A656374732E786D6C504B0102140014000608000079A0AF420000000000000000000000003500000000000000000000000000271000006662782F41353638463842362D423741432D343544322D383343332D3932324133374645433442382F76657274696365732E62696E504B01021400
310
14000608080079A0AF42F270F133060000000400000036000000000000000000000000007A1000006662782F41353638463842362D423741432D343544322D383343332D3932324133374645433442382F747269616E676C65732E62696E504B0102140014000608000079A0AF420000000000000000000000003700000000
310
000000000000000000D41000006662782F41353638463842362D423741432D343544322D383343332D3932324133374645433442382F617474726962757465732E62696E504B0102140014000608080079A0AF42D5987DFC8F000000410100003600000000000000000000000000291100006662782F41353638463842362D
310
423741432D343544322D383343332D3932324133374645433442382F6469726563746F72792E786D6C504B0102140014000608080079A0AF42475DB098FE000000A00100003B000000000000000000000000000C1200006662782F41353638463842362D423741432D343544322D383343332D393232413337464543344238
310
2F7265736F75726365732F636F72652E786D6C504B0506000000000E000E0080040000631300000000
  0
XRECORD
  5
27
102
{ACAD_REACTORS
330
22
102
}
330
22
100
AcDbXrecord
280
     1
270
     1
271
     1
  0
XRECORD
  5
26
102
{ACAD_REACTORS
330
22
102
}
330
22
100
AcDbXrecord
280
     1
270
     1
271
     1
  0
XRECORD
  5
28
102
{ACAD_REACTORS
330
22
102
}
330
22
100
AcDbXrecord
280
     1
270
     1
271
     1
  0
XRECORD
  5
25
102
{ACAD_REACTORS
330
22
102
}
330
22
100
AcDbXrecord
280
     1
270
     1
271
     1
  0
XRECORD
  5
1582
102
{ACAD_REACTORS
330
1581
102
}
330
1581
100
AcDbXrecord
280
     1
102
ACAD_ROUNDTRIP_2012_MLEADER_STYLE
298
     1
  0
CELLSTYLEMAP
  5
1580
102
{ACAD_REACTORS
330
157F
102
}
330
157F
100
AcDbCellStyleMap
 90
        3
300
CELLSTYLE
  1
TABLEFORMAT_BEGIN
 90
        5
170
     1
 91
        0
 92
    32768
 62
   257
 93
        1
300
CONTENTFORMAT
  1
CONTENTFORMAT_BEGIN
 90
        0
 91
        0
 92
      512
 93
        0
300

 40
0.0
140
1.0
 94
        5
 62
     0
340
55
144
0.25
309
CONTENTFORMAT_END
171
     0
 94
        0
309
TABLEFORMAT_END
  1
CELLSTYLE_BEGIN
 90
        1
 91
        1
300
_TITLE
309
CELLSTYLE_END
300
CELLSTYLE
  1
TABLEFORMAT_BEGIN
 90
        5
170
     1
 91
        0
 92
        0
 62
   257
 93
        1
300
CONTENTFORMAT
  1
CONTENTFORMAT_BEGIN
 90
        0
 91
        0
 92
      512
 93
        0
300

 40
0.0
140
1.0
 94
        5
 62
     0
340
55
144
0.18
309
CONTENTFORMAT_END
171
     0
 94
        0
309
TABLEFORMAT_END
  1
CELLSTYLE_BEGIN
 90
        2
 91
        1
300
_HEADER
309
CELLSTYLE_END
300
CELLSTYLE
  1
TABLEFORMAT_BEGIN
 90
        5
170
     1
 91
        0
 92
        0
 62
   257
 93
        1
300
CONTENTFORMAT
  1
CONTENTFORMAT_BEGIN
 90
        0
 91
        0
 92
      512
 93
        0
300

 40
0.0
140
1.0
 94
        2
 62
     0
340
55
144
0.18
309
CONTENTFORMAT_END
171
     0
 94
        0
309
TABLEFORMAT_END
  1
CELLSTYLE_BEGIN
 90
        3
 91
        2
300
_DATA
309
CELLSTYLE_END
  0
XRECORD
  5
15B9
102
{ACAD_REACTORS
330
157F
102
}
330
157F
100
AcDbXrecord
280
     1
102
ACAD_ROUNDTRIP_PRE2007_TABLESTYLE
 90
      512
 91
        0
  1

 92
      512
 93
        0
  2

 94
      512
 95
        0
  3

  0
XRECORD
  5
1594
102
{ACAD_REACTORS
330
1593
102
}
330
1593
100
AcDbXrecord
280
     1
102
RTVSPropertyOp0
 70
     1
102
RTVSPropertyOp1
 70
     1
102
RTVSPropertyOp2
 70
     1
102
RTVSPropertyOp3
 70
     1
102
RTVSPropertyOp4
 70
     1
102
RTVSPropertyOp5
 70
     1
102
RTVSPropertyOp6
 70
     1
102
RTVSPropertyOp7
 70
     1
102
RTVSPropertyOp8
 70
     1
102
RTVSPropertyOp9
 70
     1
102
RTVSPropertyOp10
 70
     1
102
RTVSPropertyOp11
 70
     1
102
RTVSPropertyOp12
 70
     1
102
RTVSPropertyOp13
 70
     1
102
RTVSPropertyOp14
 70
     1
102
RTVSPropertyOp15
 70
     1
102
RTVSPropertyOp16
 70
     1
102
RTVSPropertyOp17
 70
     1
102
RTVSPropertyOp18
 70
     1
102
RTVSPropertyOp19
 70
     1
102
RTVSPropertyOp20
 70
     1
102
RTVSPropertyOp21
 70
     1
102
RTVSPropertyOp22
 70
     1
102
RTVSPropertyOp23
 70
     1
102
RTVSPropertyOp24
 70
     1
102
RTVSPropertyOp25
 70
     1
102
RTVSPropertyOp26
 70
     1
102
RTVSPropertyOp27
 70
     1
102
RTVSPropertyOp28
 70
     1
102
RTVSPropertyOp29
 70
     1
102
RTVSPropertyOp30
 70
     1
102
RTVSPropertyOp31
 70
     1
102
RTVSPropertyOp32
 70
     1
  0
XRECORD
  5
1592
102
{ACAD_REACTORS
330
1591
102
}
330
1591
100
AcDbXrecord
280
     1
102
RTVSPropertyOp0
 70
     1
102
RTVSPropertyOp1
 70
     1
102
RTVSPropertyOp2
 70
     1
102
RTVSPropertyOp3
 70
     1
102
RTVSPropertyOp4
 70
     1
102
RTVSPropertyOp5
 70
     1
102
RTVSPropertyOp6
 70
     1
102
RTVSPropertyOp7
 70
     1
102
RTVSPropertyOp8
 70
     1
102
RTVSPropertyOp9
 70
     1
102
RTVSPropertyOp10
 70
     1
102
RTVSPropertyOp11
 70
     1
102
RTVSPropertyOp12
 70
     1
102
RTVSPropertyOp13
 70
     1
102
RTVSPropertyOp14
 70
     1
102
RTVSPropertyOp15
 70
     1
102
RTVSPropertyOp16
 70
     1
102
RTVSPropertyOp17
 70
     1
102
RTVSPropertyOp18
 70
     1
102
RTVSPropertyOp19
 70
     1
102
RTVSPropertyOp20
 70
     1
102
RTVSPropertyOp21
 70
     1
102
RTVSPropertyOp22
 70
     1
102
RTVSPropertyOp23
 70
     1
102
RTVSPropertyOp24
 70
     1
102
RTVSPropertyOp25
 70
     1
102
RTVSPropertyOp26
 70
     1
102
RTVSPropertyOp27
 70
     1
102
RTVSPropertyOp28
 70
     1
102
RTVSPropertyOp29
 70
     1
102
RTVSPropertyOp30
 70
     1
102
RTVSPropertyOp31
 70
     1
102
RTVSPropertyOp32
 70
     1
  0
XRECORD
  5
15A0
102
{ACAD_REACTORS
330
159F
102
}
330
159F
100
AcDbXrecord
280
     1
102
RTVSPropertyOp0
 70
     1
102
RTVSPropertyOp1
 70
     1
102
RTVSPropertyOp2
 70
     1
102
RTVSPropertyOp3
 70
     1
102
RTVSPropertyOp4
 70
     1
102
RTVSPropertyOp5
 70
     1
102
RTVSPropertyOp6
 70
     1
102
RTVSPropertyOp7
 70
     1
102
RTVSPropertyOp8
 70
     1
102
RTVSPropertyOp9
 70
     1
102
RTVSPropertyOp10
 70
     1
102
RTVSPropertyOp11
 70
     1
102
RTVSPropertyOp12
 70
     1
102
RTVSPropertyOp13
 70
     1
102
RTVSPropertyOp14
 70
     1
102
RTVSPropertyOp15
 70
     1
102
RTVSPropertyOp16
 70
     1
102
RTVSPropertyOp17
 70
     1
102
RTVSPropertyOp18
 70
     1
102
RTVSPropertyOp19
 70
     1
102
RTVSPropertyOp20
 70
     1
102
RTVSPropertyOp21
 70
     1
102
RTVSPropertyOp22
 70
     1
102
RTVSPropertyOp23
 70
     1
102
RTVSPropertyOp24
 70
     1
102
RTVSPropertyOp25
 70
     1
102
RTVSPropertyOp26
 70
     1
102
RTVSPropertyOp27
 70
     1
102
RTVSPropertyOp28
 70
     1
102
RTVSPropertyOp29
 70
     1
102
RTVSPropertyOp30
 70
     1
102
RTVSPropertyOp31
 70
     1
102
RTVSPropertyOp32
 70
     1
  0
XRECORD
  5
15A8
102
{ACAD_REACTORS
330
15A7
102
}
330
15A7
100
AcDbXrecord
280
     1
102
RTVSPropertyOp0
 70
     1
102
RTVSPropertyOp1
 70
     1
102
RTVSPropertyOp2
 70
     1
102
RTVSPropertyOp3
 70
     1
102
RTVSPropertyOp4
 70
     1
102
RTVSPropertyOp5
 70
     1
102
RTVSPropertyOp6
 70
     1
102
RTVSPropertyOp7
 70
     1
102
RTVSPropertyOp8
 70
     1
102
RTVSPropertyOp9
 70
     1
102
RTVSPropertyOp10
 70
     1
102
RTVSPropertyOp11
 70
     1
102
RTVSPropertyOp12
 70
     1
102
RTVSPropertyOp13
 70
     1
102
RTVSPropertyOp14
 70
     1
102
RTVSPropertyOp15
 70
     1
102
RTVSPropertyOp16
 70
     1
102
RTVSPropertyOp17
 70
     1
102
RTVSPropertyOp18
 70
     1
102
RTVSPropertyOp19
 70
     1
102
RTVSPropertyOp20
 70
     1
102
RTVSPropertyOp21
 70
     1
102
RTVSPropertyOp22
 70
     1
102
RTVSPropertyOp23
 70
     1
102
RTVSPropertyOp24
 70
     1
102
RTVSPropertyOp25
 70
     1
102
RTVSPropertyOp26
 70
     1
102
RTVSPropertyOp27
 70
     1
102
RTVSPropertyOp28
 70
     1
102
RTVSPropertyOp29
 70
     1
102
RTVSPropertyOp30
 70
     1
102
RTVSPropertyOp31
 70
     1
102
RTVSPropertyOp32
 70
     1
  0
XRECORD
  5
159A
102
{ACAD_REACTORS
330
1599
102
}
330
1599
100
AcDbXrecord
280
     1
102
RTVSPropertyOp0
 70
     1
102
RTVSPropertyOp1
 70
     1
102
RTVSPropertyOp2
 70
     1
102
RTVSPropertyOp3
 70
     1
102
RTVSPropertyOp4
 70
     1
102
RTVSPropertyOp5
 70
     1
102
RTVSPropertyOp6
 70
     1
102
RTVSPropertyOp7
 70
     1
102
RTVSPropertyOp8
 70
     1
102
RTVSPropertyOp9
 70
     1
102
RTVSPropertyOp10
 70
     1
102
RTVSPropertyOp11
 70
     1
102
RTVSPropertyOp12
 70
     1
102
RTVSPropertyOp13
 70
     1
102
RTVSPropertyOp14
 70
     1
102
RTVSPropertyOp15
 70
     1
102
RTVSPropertyOp16
 70
     1
102
RTVSPropertyOp17
 70
     1
102
RTVSPropertyOp18
 70
     1
102
RTVSPropertyOp19
 70
     1
102
RTVSPropertyOp20
 70
     1
102
RTVSPropertyOp21
 70
     1
102
RTVSPropertyOp22
 70
     1
102
RTVSPropertyOp23
 70
     1
102
RTVSPropertyOp24
 70
     1
102
RTVSPropertyOp25
 70
     1
102
RTVSPropertyOp26
 70
     1
102
RTVSPropertyOp27
 70
     1
102
RTVSPropertyOp28
 70
     1
102
RTVSPropertyOp29
 70
     1
102
RTVSPropertyOp30
 70
     1
102
RTVSPropertyOp31
 70
     1
102
RTVSPropertyOp32
 70
     1
  0
XRECORD
  5
159E
102
{ACAD_REACTORS
330
159D
102
}
330
159D
100
AcDbXrecord
280
     1
102
RTVSPropertyOp0
 70
     1
102
RTVSPropertyOp1
 70
     1
102
RTVSPropertyOp2
 70
     1
102
RTVSPropertyOp3
 70
     1
102
RTVSPropertyOp4
 70
     1
102
RTVSPropertyOp5
 70
     1
102
RTVSPropertyOp6
 70
     1
102
RTVSPropertyOp7
 70
     1
102
RTVSPropertyOp8
 70
     1
102
RTVSPropertyOp9
 70
     1
102
RTVSPropertyOp10
 70
     1
102
RTVSPropertyOp11
 70
     1
102
RTVSPropertyOp12
 70
     1
102
RTVSPropertyOp13
 70
     1
102
RTVSPropertyOp14
 70
     1
102
RTVSPropertyOp15
 70
     1
102
RTVSPropertyOp16
 70
     1
102
RTVSPropertyOp17
 70
     1
102
RTVSPropertyOp18
 70
     1
102
RTVSPropertyOp19
 70
     1
102
RTVSPropertyOp20
 70
     1
102
RTVSPropertyOp21
 70
     1
102
RTVSPropertyOp22
 70
     1
102
RTVSPropertyOp23
 70
     1
102
RTVSPropertyOp24
 70
     1
102
RTVSPropertyOp25
 70
     1
102
RTVSPropertyOp26
 70
     1
102
RTVSPropertyOp27
 70
     1
102
RTVSPropertyOp28
 70
     1
102
RTVSPropertyOp29
 70
     1
102
RTVSPropertyOp30
 70
     1
102
RTVSPropertyOp31
 70
     1
102
RTVSPropertyOp32
 70
     1
  0
XRECORD
  5
15B8
102
{ACAD_REACTORS
330
15B7
102
}
330
15B7
100
AcDbXrecord
280
     1
102
RTVSPropertyOp0
 70
     0
102
RTVSPropertyOp1
 70
     0
102
RTVSPropertyOp2
 70
     0
102
RTVSPropertyOp3
 70
     0
102
RTVSPropertyOp4
 70
     0
102
RTVSPropertyOp5
 70
     0
102
RTVSPropertyOp6
 70
     0
102
RTVSPropertyOp7
 70
     0
102
RTVSPropertyOp8
 70
     0
102
RTVSPropertyOp9
 70
     0
102
RTVSPropertyOp10
 70
     0
102
RTVSPropertyOp11
 70
     0
102
RTVSPropertyOp12
 70
     0
102
RTVSPropertyOp13
 70
     0
102
RTVSPropertyOp14
 70
     2
102
RTVSPropertyOp15
 70
     0
102
RTVSPropertyOp16
 70
     0
102
RTVSPropertyOp17
 70
     0
102
RTVSPropertyOp18
 70
     0
102
RTVSPropertyOp19
 70
     0
102
RTVSPropertyOp20
 70
     0
102
RTVSPropertyOp21
 70
     0
102
RTVSPropertyOp22
 70
     0
102
RTVSPropertyOp23
 70
     0
102
RTVSPropertyOp24
 70
     0
102
RTVSPropertyOp25
 70
     0
102
RTVSPropertyOp26
 70
     0
102
RTVSPropertyOp27
 70
     0
102
RTVSPropertyOp28
 70
     1
102
RTVSPropertyOp29
 70
     1
102
RTVSPropertyOp30
 70
     1
102
RTVSPropertyOp31
 70
     1
102
RTVSPropertyOp32
 70
     1
  0
XRECORD
  5
15A6
102
{ACAD_REACTORS
330
15A5
102
}
330
15A5
100
AcDbXrecord
280
     1
102
RTVSPropertyOp0
 70
     1
102
RTVSPropertyOp1
 70
     1
102
RTVSPropertyOp2
 70
     1
102
RTVSPropertyOp3
 70
     1
102
RTVSPropertyOp4
 70
     1
102
RTVSPropertyOp5
 70
     1
102
RTVSPropertyOp6
 70
     1
102
RTVSPropertyOp7
 70
     1
102
RTVSPropertyOp8
 70
     1
102
RTVSPropertyOp9
 70
     1
102
RTVSPropertyOp10
 70
     1
102
RTVSPropertyOp11
 70
     1
102
RTVSPropertyOp12
 70
     1
102
RTVSPropertyOp13
 70
     1
102
RTVSPropertyOp14
 70
     1
102
RTVSPropertyOp15
 70
     1
102
RTVSPropertyOp16
 70
     1
102
RTVSPropertyOp17
 70
     1
102
RTVSPropertyOp18
 70
     1
102
RTVSPropertyOp19
 70
     1
102
RTVSPropertyOp20
 70
     1
102
RTVSPropertyOp21
 70
     1
102
RTVSPropertyOp22
 70
     1
102
RTVSPropertyOp23
 70
     1
102
RTVSPropertyOp24
 70
     1
102
RTVSPropertyOp25
 70
     1
102
RTVSPropertyOp26
 70
     1
102
RTVSPropertyOp27
 70
     1
102
RTVSPropertyOp28
 70
     1
102
RTVSPropertyOp29
 70
     1
102
RTVSPropertyOp30
 70
     1
102
RTVSPropertyOp31
 70
     1
102
RTVSPropertyOp32
 70
     1
  0
XRECORD
  5
158A
102
{ACAD_REACTORS
330
1589
102
}
330
1589
100
AcDbXrecord
280
     1
102
RTVSPropertyOp0
 70
     1
102
RTVSPropertyOp1
 70
     1
102
RTVSPropertyOp2
 70
     1
102
RTVSPropertyOp3
 70
     1
102
RTVSPropertyOp4
 70
     1
102
RTVSPropertyOp5
 70
     1
102
RTVSPropertyOp6
 70
     1
102
RTVSPropertyOp7
 70
     1
102
RTVSPropertyOp8
 70
     1
102
RTVSPropertyOp9
 70
     1
102
RTVSPropertyOp10
 70
     1
102
RTVSPropertyOp11
 70
     1
102
RTVSPropertyOp12
 70
     1
102
RTVSPropertyOp13
 70
     1
102
RTVSPropertyOp14
 70
     1
102
RTVSPropertyOp15
 70
     1
102
RTVSPropertyOp16
 70
     1
102
RTVSPropertyOp17
 70
     1
102
RTVSPropertyOp18
 70
     1
102
RTVSPropertyOp19
 70
     1
102
RTVSPropertyOp20
 70
     1
102
RTVSPropertyOp21
 70
     1
102
RTVSPropertyOp22
 70
     1
102
RTVSPropertyOp23
 70
     1
102
RTVSPropertyOp24
 70
     1
102
RTVSPropertyOp25
 70
     1
102
RTVSPropertyOp26
 70
     1
102
RTVSPropertyOp27
 70
     1
102
RTVSPropertyOp28
 70
     1
102
RTVSPropertyOp29
 70
     1
102
RTVSPropertyOp30
 70
     1
102
RTVSPropertyOp31
 70
     1
102
RTVSPropertyOp32
 70
     1
  0
XRECORD
  5
158C
102
{ACAD_REACTORS
330
158B
102
}
330
158B
100
AcDbXrecord
280
     1
102
RTVSPropertyOp0
 70
     1
102
RTVSPropertyOp1
 70
     1
102
RTVSPropertyOp2
 70
     1
102
RTVSPropertyOp3
 70
     1
102
RTVSPropertyOp4
 70
     1
102
RTVSPropertyOp5
 70
     1
102
RTVSPropertyOp6
 70
     1
102
RTVSPropertyOp7
 70
     1
102
RTVSPropertyOp8
 70
     1
102
RTVSPropertyOp9
 70
     1
102
RTVSPropertyOp10
 70
     1
102
RTVSPropertyOp11
 70
     1
102
RTVSPropertyOp12
 70
     1
102
RTVSPropertyOp13
 70
     1
102
RTVSPropertyOp14
 70
     1
102
RTVSPropertyOp15
 70
     1
102
RTVSPropertyOp16
 70
     1
102
RTVSPropertyOp17
 70
     1
102
RTVSPropertyOp18
 70
     1
102
RTVSPropertyOp19
 70
     1
102
RTVSPropertyOp20
 70
     1
102
RTVSPropertyOp21
 70
     1
102
RTVSPropertyOp22
 70
     1
102
RTVSPropertyOp23
 70
     1
102
RTVSPropertyOp24
 70
     1
102
RTVSPropertyOp25
 70
     1
102
RTVSPropertyOp26
 70
     1
102
RTVSPropertyOp27
 70
     1
102
RTVSPropertyOp28
 70
     1
102
RTVSPropertyOp29
 70
     1
102
RTVSPropertyOp30
 70
     1
102
RTVSPropertyOp31
 70
     1
102
RTVSPropertyOp32
 70
     1
  0
XRECORD
  5
158E
102
{ACAD_REACTORS
330
158D
102
}
330
158D
100
AcDbXrecord
280
     1
102
RTVSPropertyOp0
 70
     1
102
RTVSPropertyOp1
 70
     1
102
RTVSPropertyOp2
 70
     1
102
RTVSPropertyOp3
 70
     1
102
RTVSPropertyOp4
 70
     1
102
RTVSPropertyOp5
 70
     1
102
RTVSPropertyOp6
 70
     1
102
RTVSPropertyOp7
 70
     1
102
RTVSPropertyOp8
 70
     1
102
RTVSPropertyOp9
 70
     1
102
RTVSPropertyOp10
 70
     1
102
RTVSPropertyOp11
 70
     1
102
RTVSPropertyOp12
 70
     1
102
RTVSPropertyOp13
 70
     1
102
RTVSPropertyOp14
 70
     1
102
RTVSPropertyOp15
 70
     1
102
RTVSPropertyOp16
 70
     1
102
RTVSPropertyOp17
 70
     1
102
RTVSPropertyOp18
 70
     1
102
RTVSPropertyOp19
 70
     1
102
RTVSPropertyOp20
 70
     1
102
RTVSPropertyOp21
 70
     1
102
RTVSPropertyOp22
 70
     1
102
RTVSPropertyOp23
 70
     1
102
RTVSPropertyOp24
 70
     1
102
RTVSPropertyOp25
 70
     1
102
RTVSPropertyOp26
 70
     1
102
RTVSPropertyOp27
 70
     1
102
RTVSPropertyOp28
 70
     1
102
RTVSPropertyOp29
 70
     1
102
RTVSPropertyOp30
 70
     1
102
RTVSPropertyOp31
 70
     1
102
RTVSPropertyOp32
 70
     1
  0
XRECORD
  5
1590
102
{ACAD_REACTORS
330
158F
102
}
330
158F
100
AcDbXrecord
280
     1
102
RTVSPropertyOp0
 70
     1
102
RTVSPropertyOp1
 70
     1
102
RTVSPropertyOp2
 70
     1
102
RTVSPropertyOp3
 70
     1
102
RTVSPropertyOp4
 70
     1
102
RTVSPropertyOp5
 70
     1
102
RTVSPropertyOp6
 70
     1
102
RTVSPropertyOp7
 70
     1
102
RTVSPropertyOp8
 70
     1
102
RTVSPropertyOp9
 70
     1
102
RTVSPropertyOp10
 70
     1
102
RTVSPropertyOp11
 70
     1
102
RTVSPropertyOp12
 70
     1
102
RTVSPropertyOp13
 70
     1
102
RTVSPropertyOp14
 70
     1
102
RTVSPropertyOp15
 70
     1
102
RTVSPropertyOp16
 70
     1
102
RTVSPropertyOp17
 70
     1
102
RTVSPropertyOp18
 70
     1
102
RTVSPropertyOp19
 70
     1
102
RTVSPropertyOp20
 70
     1
102
RTVSPropertyOp21
 70
     1
102
RTVSPropertyOp22
 70
     1
102
RTVSPropertyOp23
 70
     1
102
RTVSPropertyOp24
 70
     1
102
RTVSPropertyOp25
 70
     1
102
RTVSPropertyOp26
 70
     1
102
RTVSPropertyOp27
 70
     1
102
RTVSPropertyOp28
 70
     1
102
RTVSPropertyOp29
 70
     1
102
RTVSPropertyOp30
 70
     1
102
RTVSPropertyOp31
 70
     1
102
RTVSPropertyOp32
 70
     1
  0
XRECORD
  5
1598
102
{ACAD_REACTORS
330
1597
102
}
330
1597
100
AcDbXrecord
280
     1
102
RTVSPropertyOp0
 70
     1
102
RTVSPropertyOp1
 70
     1
102
RTVSPropertyOp2
 70
     1
102
RTVSPropertyOp3
 70
     1
102
RTVSPropertyOp4
 70
     1
102
RTVSPropertyOp5
 70
     1
102
RTVSPropertyOp6
 70
     1
102
RTVSPropertyOp7
 70
     1
102
RTVSPropertyOp8
 70
     1
102
RTVSPropertyOp9
 70
     1
102
RTVSPropertyOp10
 70
     1
102
RTVSPropertyOp11
 70
     1
102
RTVSPropertyOp12
 70
     1
102
RTVSPropertyOp13
 70
     1
102
RTVSPropertyOp14
 70
     1
102
RTVSPropertyOp15
 70
     1
102
RTVSPropertyOp16
 70
     1
102
RTVSPropertyOp17
 70
     1
102
RTVSPropertyOp18
 70
     1
102
RTVSPropertyOp19
 70
     1
102
RTVSPropertyOp20
 70
     1
102
RTVSPropertyOp21
 70
     1
102
RTVSPropertyOp22
 70
     1
102
RTVSPropertyOp23
 70
     1
102
RTVSPropertyOp24
 70
     1
102
RTVSPropertyOp25
 70
     1
102
RTVSPropertyOp26
 70
     1
102
RTVSPropertyOp27
 70
     1
102
RTVSPropertyOp28
 70
     1
102
RTVSPropertyOp29
 70
     1
102
RTVSPropertyOp30
 70
     1
102
RTVSPropertyOp31
 70
     1
102
RTVSPropertyOp32
 70
     1
  0
XRECORD
  5
15B4
102
{ACAD_REACTORS
330
15B3
102
}
330
15B3
100
AcDbXrecord
280
     1
102
RTVSPropertyOp0
 70
     0
102
RTVSPropertyOp1
 70
     0
102
RTVSPropertyOp2
 70
     0
102
RTVSPropertyOp3
 70
     0
102
RTVSPropertyOp4
 70
     0
102
RTVSPropertyOp5
 70
     0
102
RTVSPropertyOp6
 70
     0
102
RTVSPropertyOp7
 70
     0
102
RTVSPropertyOp8
 70
     0
102
RTVSPropertyOp9
 70
     0
102
RTVSPropertyOp10
 70
     0
102
RTVSPropertyOp11
 70
     0
102
RTVSPropertyOp12
 70
     0
102
RTVSPropertyOp13
 70
     0
102
RTVSPropertyOp14
 70
     2
102
RTVSPropertyOp15
 70
     0
102
RTVSPropertyOp16
 70
     0
102
RTVSPropertyOp17
 70
     0
102
RTVSPropertyOp18
 70
     0
102
RTVSPropertyOp19
 70
     0
102
RTVSPropertyOp20
 70
     0
102
RTVSPropertyOp21
 70
     0
102
RTVSPropertyOp22
 70
     0
102
RTVSPropertyOp23
 70
     0
102
RTVSPropertyOp24
 70
     0
102
RTVSPropertyOp25
 70
     0
102
RTVSPropertyOp26
 70
     0
102
RTVSPropertyOp27
 70
     0
102
RTVSPropertyOp28
 70
     1
102
RTVSPropertyOp29
 70
     1
102
RTVSPropertyOp30
 70
     1
102
RTVSPropertyOp31
 70
     1
102
RTVSPropertyOp32
 70
     1
  0
XRECORD
  5
15A4
102
{ACAD_REACTORS
330
15A3
102
}
330
15A3
100
AcDbXrecord
280
     1
102
RTVSPropertyOp0
 70
     1
102
RTVSPropertyOp1
 70
     1
102
RTVSPropertyOp2
 70
     1
102
RTVSPropertyOp3
 70
     1
102
RTVSPropertyOp4
 70
     1
102
RTVSPropertyOp5
 70
     1
102
RTVSPropertyOp6
 70
     1
102
RTVSPropertyOp7
 70
     1
102
RTVSPropertyOp8
 70
     1
102
RTVSPropertyOp9
 70
     1
102
RTVSPropertyOp10
 70
     1
102
RTVSPropertyOp11
 70
     1
102
RTVSPropertyOp12
 70
     1
102
RTVSPropertyOp13
 70
     1
102
RTVSPropertyOp14
 70
     1
102
RTVSPropertyOp15
 70
     1
102
RTVSPropertyOp16
 70
     1
102
RTVSPropertyOp17
 70
     1
102
RTVSPropertyOp18
 70
     1
102
RTVSPropertyOp19
 70
     1
102
RTVSPropertyOp20
 70
     1
102
RTVSPropertyOp21
 70
     1
102
RTVSPropertyOp22
 70
     1
102
RTVSPropertyOp23
 70
     1
102
RTVSPropertyOp24
 70
     1
102
RTVSPropertyOp25
 70
     1
102
RTVSPropertyOp26
 70
     1
102
RTVSPropertyOp27
 70
     1
102
RTVSPropertyOp28
 70
     1
102
RTVSPropertyOp29
 70
     1
102
RTVSPropertyOp30
 70
     1
102
RTVSPropertyOp31
 70
     1
102
RTVSPropertyOp32
 70
     1
  0
XRECORD
  5
15B6
102
{ACAD_REACTORS
330
15B5
102
}
330
15B5
100
AcDbXrecord
280
     1
102
RTVSPropertyOp0
 70
     0
102
RTVSPropertyOp1
 70
     0
102
RTVSPropertyOp2
 70
     0
102
RTVSPropertyOp3
 70
     0
102
RTVSPropertyOp4
 70
     0
102
RTVSPropertyOp5
 70
     0
102
RTVSPropertyOp6
 70
     0
102
RTVSPropertyOp7
 70
     0
102
RTVSPropertyOp8
 70
     0
102
RTVSPropertyOp9
 70
     0
102
RTVSPropertyOp10
 70
     0
102
RTVSPropertyOp11
 70
     0
102
RTVSPropertyOp12
 70
     0
102
RTVSPropertyOp13
 70
     0
102
RTVSPropertyOp14
 70
     2
102
RTVSPropertyOp15
 70
     0
102
RTVSPropertyOp16
 70
     0
102
RTVSPropertyOp17
 70
     0
102
RTVSPropertyOp18
 70
     0
102
RTVSPropertyOp19
 70
     0
102
RTVSPropertyOp20
 70
     0
102
RTVSPropertyOp21
 70
     0
102
RTVSPropertyOp22
 70
     0
102
RTVSPropertyOp23
 70
     0
102
RTVSPropertyOp24
 70
     0
102
RTVSPropertyOp25
 70
     0
102
RTVSPropertyOp26
 70
     0
102
RTVSPropertyOp27
 70
     0
102
RTVSPropertyOp28
 70
     1
102
RTVSPropertyOp29
 70
     1
102
RTVSPropertyOp30
 70
     1
102
RTVSPropertyOp31
 70
     1
102
RTVSPropertyOp32
 70
     1
  0
XRECORD
  5
159C
102
{ACAD_REACTORS
330
159B
102
}
330
159B
100
AcDbXrecord
280
     1
102
RTVSPropertyOp0
 70
     1
102
RTVSPropertyOp1
 70
     1
102
RTVSPropertyOp2
 70
     1
102
RTVSPropertyOp3
 70
     1
102
RTVSPropertyOp4
 70
     1
102
RTVSPropertyOp5
 70
     1
102
RTVSPropertyOp6
 70
     1
102
RTVSPropertyOp7
 70
     1
102
RTVSPropertyOp8
 70
     1
102
RTVSPropertyOp9
 70
     1
102
RTVSPropertyOp10
 70
     1
102
RTVSPropertyOp11
 70
     1
102
RTVSPropertyOp12
 70
     1
102
RTVSPropertyOp13
 70
     1
102
RTVSPropertyOp14
 70
     1
102
RTVSPropertyOp15
 70
     1
102
RTVSPropertyOp16
 70
     1
102
RTVSPropertyOp17
 70
     1
102
RTVSPropertyOp18
 70
     1
102
RTVSPropertyOp19
 70
     1
102
RTVSPropertyOp20
 70
     1
102
RTVSPropertyOp21
 70
     1
102
RTVSPropertyOp22
 70
     1
102
RTVSPropertyOp23
 70
     1
102
RTVSPropertyOp24
 70
     1
102
RTVSPropertyOp25
 70
     1
102
RTVSPropertyOp26
 70
     1
102
RTVSPropertyOp27
 70
     1
102
RTVSPropertyOp28
 70
     1
102
RTVSPropertyOp29
 70
     1
102
RTVSPropertyOp30
 70
     1
102
RTVSPropertyOp31
 70
     1
102
RTVSPropertyOp32
 70
     1
  0
XRECORD
  5
15B2
102
{ACAD_REACTORS
330
15B1
102
}
330
15B1
100
AcDbXrecord
280
     1
102
RTVSPropertyOp0
 70
     1
102
RTVSPropertyOp1
 70
     1
102
RTVSPropertyOp2
 70
     1
102
RTVSPropertyOp3
 70
     1
102
RTVSPropertyOp4
 70
     1
102
RTVSPropertyOp5
 70
     1
102
RTVSPropertyOp6
 70
     1
102
RTVSPropertyOp7
 70
     1
102
RTVSPropertyOp8
 70
     1
102
RTVSPropertyOp9
 70
     1
102
RTVSPropertyOp10
 70
     1
102
RTVSPropertyOp11
 70
     1
102
RTVSPropertyOp12
 70
     1
102
RTVSPropertyOp13
 70
     1
102
RTVSPropertyOp14
 70
     1
102
RTVSPropertyOp15
 70
     1
102
RTVSPropertyOp16
 70
     1
102
RTVSPropertyOp17
 70
     1
102
RTVSPropertyOp18
 70
     1
102
RTVSPropertyOp19
 70
     1
102
RTVSPropertyOp20
 70
     1
102
RTVSPropertyOp21
 70
     1
102
RTVSPropertyOp22
 70
     1
102
RTVSPropertyOp23
 70
     1
102
RTVSPropertyOp24
 70
     1
102
RTVSPropertyOp25
 70
     1
102
RTVSPropertyOp26
 70
     1
102
RTVSPropertyOp27
 70
     1
102
RTVSPropertyOp28
 70
     1
102
RTVSPropertyOp29
 70
     1
102
RTVSPropertyOp30
 70
     1
102
RTVSPropertyOp31
 70
     1
102
RTVSPropertyOp32
 70
     1
  0
XRECORD
  5
15B0
102
{ACAD_REACTORS
330
15AF
102
}
330
15AF
100
AcDbXrecord
280
     1
102
RTVSPropertyOp0
 70
     1
102
RTVSPropertyOp1
 70
     1
102
RTVSPropertyOp2
 70
     1
102
RTVSPropertyOp3
 70
     1
102
RTVSPropertyOp4
 70
     1
102
RTVSPropertyOp5
 70
     1
102
RTVSPropertyOp6
 70
     1
102
RTVSPropertyOp7
 70
     1
102
RTVSPropertyOp8
 70
     1
102
RTVSPropertyOp9
 70
     1
102
RTVSPropertyOp10
 70
     1
102
RTVSPropertyOp11
 70
     1
102
RTVSPropertyOp12
 70
     1
102
RTVSPropertyOp13
 70
     1
102
RTVSPropertyOp14
 70
     1
102
RTVSPropertyOp15
 70
     1
102
RTVSPropertyOp16
 70
     1
102
RTVSPropertyOp17
 70
     1
102
RTVSPropertyOp18
 70
     1
102
RTVSPropertyOp19
 70
     1
102
RTVSPropertyOp20
 70
     1
102
RTVSPropertyOp21
 70
     1
102
RTVSPropertyOp22
 70
     1
102
RTVSPropertyOp23
 70
     1
102
RTVSPropertyOp24
 70
     1
102
RTVSPropertyOp25
 70
     1
102
RTVSPropertyOp26
 70
     1
102
RTVSPropertyOp27
 70
     1
102
RTVSPropertyOp28
 70
     1
102
RTVSPropertyOp29
 70
     1
102
RTVSPropertyOp30
 70
     1
102
RTVSPropertyOp31
 70
     1
102
RTVSPropertyOp32
 70
     1
  0
XRECORD
  5
15AA
102
{ACAD_REACTORS
330
15A9
102
}
330
15A9
100
AcDbXrecord
280
     1
102
RTVSPropertyOp0
 70
     1
102
RTVSPropertyOp1
 70
     1
102
RTVSPropertyOp2
 70
     1
102
RTVSPropertyOp3
 70
     1
102
RTVSPropertyOp4
 70
     1
102
RTVSPropertyOp5
 70
     1
102
RTVSPropertyOp6
 70
     1
102
RTVSPropertyOp7
 70
     1
102
RTVSPropertyOp8
 70
     1
102
RTVSPropertyOp9
 70
     1
102
RTVSPropertyOp10
 70
     1
102
RTVSPropertyOp11
 70
     1
102
RTVSPropertyOp12
 70
     1
102
RTVSPropertyOp13
 70
     1
102
RTVSPropertyOp14
 70
     1
102
RTVSPropertyOp15
 70
     1
102
RTVSPropertyOp16
 70
     1
102
RTVSPropertyOp17
 70
     1
102
RTVSPropertyOp18
 70
     1
102
RTVSPropertyOp19
 70
     1
102
RTVSPropertyOp20
 70
     1
102
RTVSPropertyOp21
 70
     1
102
RTVSPropertyOp22
 70
     1
102
RTVSPropertyOp23
 70
     1
102
RTVSPropertyOp24
 70
     1
102
RTVSPropertyOp25
 70
     1
102
RTVSPropertyOp26
 70
     1
102
RTVSPropertyOp27
 70
     1
102
RTVSPropertyOp28
 70
     1
102
RTVSPropertyOp29
 70
     1
102
RTVSPropertyOp30
 70
     1
102
RTVSPropertyOp31
 70
     1
102
RTVSPropertyOp32
 70
     1
  0
XRECORD
  5
15AC
102
{ACAD_REACTORS
330
15AB
102
}
330
15AB
100
AcDbXrecord
280
     1
102
RTVSPropertyOp0
 70
     1
102
RTVSPropertyOp1
 70
     1
102
RTVSPropertyOp2
 70
     1
102
RTVSPropertyOp3
 70
     1
102
RTVSPropertyOp4
 70
     1
102
RTVSPropertyOp5
 70
     1
102
RTVSPropertyOp6
 70
     1
102
RTVSPropertyOp7
 70
     1
102
RTVSPropertyOp8
 70
     1
102
RTVSPropertyOp9
 70
     1
102
RTVSPropertyOp10
 70
     1
102
RTVSPropertyOp11
 70
     1
102
RTVSPropertyOp12
 70
     1
102
RTVSPropertyOp13
 70
     1
102
RTVSPropertyOp14
 70
     1
102
RTVSPropertyOp15
 70
     1
102
RTVSPropertyOp16
 70
     1
102
RTVSPropertyOp17
 70
     1
102
RTVSPropertyOp18
 70
     1
102
RTVSPropertyOp19
 70
     1
102
RTVSPropertyOp20
 70
     1
102
RTVSPropertyOp21
 70
     1
102
RTVSPropertyOp22
 70
     1
102
RTVSPropertyOp23
 70
     1
102
RTVSPropertyOp24
 70
     1
102
RTVSPropertyOp25
 70
     1
102
RTVSPropertyOp26
 70
     1
102
RTVSPropertyOp27
 70
     1
102
RTVSPropertyOp28
 70
     1
102
RTVSPropertyOp29
 70
     1
102
RTVSPropertyOp30
 70
     1
102
RTVSPropertyOp31
 70
     1
102
RTVSPropertyOp32
 70
     1
  0
XRECORD
  5
15A2
102
{ACAD_REACTORS
330
15A1
102
}
330
15A1
100
AcDbXrecord
280
     1
102
RTVSPropertyOp0
 70
     1
102
RTVSPropertyOp1
 70
     1
102
RTVSPropertyOp2
 70
     1
102
RTVSPropertyOp3
 70
     1
102
RTVSPropertyOp4
 70
     1
102
RTVSPropertyOp5
 70
     1
102
RTVSPropertyOp6
 70
     1
102
RTVSPropertyOp7
 70
     1
102
RTVSPropertyOp8
 70
     1
102
RTVSPropertyOp9
 70
     1
102
RTVSPropertyOp10
 70
     1
102
RTVSPropertyOp11
 70
     1
102
RTVSPropertyOp12
 70
     1
102
RTVSPropertyOp13
 70
     1
102
RTVSPropertyOp14
 70
     1
102
RTVSPropertyOp15
 70
     1
102
RTVSPropertyOp16
 70
     1
102
RTVSPropertyOp17
 70
     1
102
RTVSPropertyOp18
 70
     1
102
RTVSPropertyOp19
 70
     1
102
RTVSPropertyOp20
 70
     1
102
RTVSPropertyOp21
 70
     1
102
RTVSPropertyOp22
 70
     1
102
RTVSPropertyOp23
 70
     1
102
RTVSPropertyOp24
 70
     1
102
RTVSPropertyOp25
 70
     1
102
RTVSPropertyOp26
 70
     1
102
RTVSPropertyOp27
 70
     1
102
RTVSPropertyOp28
 70
     1
102
RTVSPropertyOp29
 70
     1
102
RTVSPropertyOp30
 70
     1
102
RTVSPropertyOp31
 70
     1
102
RTVSPropertyOp32
 70
     1
  0
XRECORD
  5
1596
102
{ACAD_REACTORS
330
1595
102
}
330
1595
100
AcDbXrecord
280
     1
102
RTVSPropertyOp0
 70
     1
102
RTVSPropertyOp1
 70
     1
102
RTVSPropertyOp2
 70
     1
102
RTVSPropertyOp3
 70
     1
102
RTVSPropertyOp4
 70
     1
102
RTVSPropertyOp5
 70
     1
102
RTVSPropertyOp6
 70
     1
102
RTVSPropertyOp7
 70
     1
102
RTVSPropertyOp8
 70
     1
102
RTVSPropertyOp9
 70
     1
102
RTVSPropertyOp10
 70
     1
102
RTVSPropertyOp11
 70
     1
102
RTVSPropertyOp12
 70
     1
102
RTVSPropertyOp13
 70
     1
102
RTVSPropertyOp14
 70
     1
102
RTVSPropertyOp15
 70
     1
102
RTVSPropertyOp16
 70
     1
102
RTVSPropertyOp17
 70
     1
102
RTVSPropertyOp18
 70
     1
102
RTVSPropertyOp19
 70
     1
102
RTVSPropertyOp20
 70
     1
102
RTVSPropertyOp21
 70
     1
102
RTVSPropertyOp22
 70
     1
102
RTVSPropertyOp23
 70
     1
102
RTVSPropertyOp24
 70
     1
102
RTVSPropertyOp25
 70
     1
102
RTVSPropertyOp26
 70
     1
102
RTVSPropertyOp27
 70
     1
102
RTVSPropertyOp28
 70
     1
102
RTVSPropertyOp29
 70
     1
102
RTVSPropertyOp30
 70
     1
102
RTVSPropertyOp31
 70
     1
102
RTVSPropertyOp32
 70
     1
  0
XRECORD
  5
15AE
102
{ACAD_REACTORS
330
15AD
102
}
330
15AD
100
AcDbXrecord
280
     1
102
RTVSPropertyOp0
 70
     1
102
RTVSPropertyOp1
 70
     1
102
RTVSPropertyOp2
 70
     1
102
RTVSPropertyOp3
 70
     1
102
RTVSPropertyOp4
 70
     1
102
RTVSPropertyOp5
 70
     1
102
RTVSPropertyOp6
 70
     1
102
RTVSPropertyOp7
 70
     1
102
RTVSPropertyOp8
 70
     1
102
RTVSPropertyOp9
 70
     1
102
RTVSPropertyOp10
 70
     1
102
RTVSPropertyOp11
 70
     1
102
RTVSPropertyOp12
 70
     1
102
RTVSPropertyOp13
 70
     1
102
RTVSPropertyOp14
 70
     1
102
RTVSPropertyOp15
 70
     1
102
RTVSPropertyOp16
 70
     1
102
RTVSPropertyOp17
 70
     1
102
RTVSPropertyOp18
 70
     1
102
RTVSPropertyOp19
 70
     1
102
RTVSPropertyOp20
 70
     1
102
RTVSPropertyOp21
 70
     1
102
RTVSPropertyOp22
 70
     1
102
RTVSPropertyOp23
 70
     1
102
RTVSPropertyOp24
 70
     1
102
RTVSPropertyOp25
 70
     1
102
RTVSPropertyOp26
 70
     1
102
RTVSPropertyOp27
 70
     1
102
RTVSPropertyOp28
 70
     1
102
RTVSPropertyOp29
 70
     1
102
RTVSPropertyOp30
 70
     1
102
RTVSPropertyOp31
 70
     1
102
RTVSPropertyOp32
 70
     1
  0
ENDSEC
  0
EOF
