  0
SECTION
  2
HEADER
  9
$ACADVER
  1
AC1018
  9
$ACADMAINTVER
 70
   104
  9
$DWGCODEPAGE
  3
ANSI_1252
  9
$AUTHOR
  1
PS
  9
$REVISIONNUMBER
  1
-
  9
$CUSTOMPROPERTYTAG
  1
Manager
  9
$CUSTOMPROPERTY
  1

  9
$CUSTOMPROPERTYTAG
  1
Company
  9
$CUSTOMPROPERTY
  1

  9
$CUSTOMPROPERTYTAG
  1
Category
  9
$CUSTOMPROPERTY
  1

  9
$CUSTOMPROPERTYTAG
  1
Part Number
  9
$CUSTOMPROPERTY
  1
FK1816-S
  9
$CUSTOMPROPERTYTAG
  1
Description
  9
$CUSTOMPROPERTY
  1

  9
$CUSTOMPROPERTYTAG
  1
Project
  9
$CUSTOMPROPERTY
  1

  9
$CUSTOMPROPERTYTAG
  1
Designer
  9
$CUSTOMPROPERTY
  1
PS
  9
$CUSTOMPROPERTYTAG
  1
Engineer
  9
$CUSTOMPROPERTY
  1

  9
$CUSTOMPROPERTYTAG
  1
Authority
  9
$CUSTOMPROPERTY
  1

  9
$CUSTOMPROPERTYTAG
  1
Cost Center
  9
$CUSTOMPROPERTY
  1

  9
$CUSTOMPROPERTYTAG
  1
Vendor
  9
$CUSTOMPROPERTY
  1

  9
$CUSTOMPROPERTYTAG
  1
User Status
  9
$CUSTOMPROPERTY
  1

  9
$CUSTOMPROPERTYTAG
  1
Design Status
  9
$CUSTOMPROPERTY
  1
WorkInProgress
  9
$CUSTOMPROPERTYTAG
  1
Checked by
  9
$CUSTOMPROPERTY
  1
NJ
  9
$CUSTOMPROPERTYTAG
  1
Date Checked
  9
$CUSTOMPROPERTY
  1
05/03/2013
  9
$CUSTOMPROPERTYTAG
  1
Engr Approved by
  9
$CUSTOMPROPERTY
  1

  9
$CUSTOMPROPERTYTAG
  1
Date Eng Approved
  9
$CUSTOMPROPERTY
  1
05/03/2013
  9
$CUSTOMPROPERTYTAG
  1
Mfg Approved by
  9
$CUSTOMPROPERTY
  1

  9
$CUSTOMPROPERTYTAG
  1
Date Mfg Approved
  9
$CUSTOMPROPERTY
  1
05/03/2013
  9
$CUSTOMPROPERTYTAG
  1
DWG. NO
  9
$CUSTOMPROPERTY
  1

  9
$CUSTOMPROPERTYTAG
  1
NUMBER OF SHEETS
  9
$CUSTOMPROPERTY
  1
1
  9
$CUSTOMPROPERTYTAG
  1
DRAWING #
  9
$CUSTOMPROPERTY
  1

  9
$INSBASE
 10
0.0
 20
0.0
 30
0.0
  9
$EXTMIN
 10
0.0
 20
0.0
 30
0.0
  9
$EXTMAX
 10
119.0
 20
77.0
 30
0.0
  9
$LIMMIN
 10
0.0
 20
0.0
  9
$LIMMAX
 10
119.0
 20
77.0
  9
$ORTHOMODE
 70
     0
  9
$REGENMODE
 70
     1
  9
$FILLMODE
 70
     1
  9
$QTEXTMODE
 70
     0
  9
$MIRRTEXT
 70
     0
  9
$LTSCALE
 40
7.0
  9
$ATTMODE
 70
     1
  9
$TEXTSIZE
 40
0.2
  9
$TRACEWID
 40
0.05
  9
$TEXTSTYLE
  7
Standard
  9
$CLAYER
  8
0
  9
$CELTYPE
  6
ByLayer
  9
$CECOLOR
 62
   256
  9
$CELTSCALE
 40
1.0
  9
$DISPSILH
 70
     0
  9
$DIMSCALE
 40
1.0
  9
$DIMASZ
 40
0.0708661417322835
  9
$DIMEXO
 40
0.0625
  9
$DIMDLI
 40
0.38
  9
$DIMRND
 40
0.0
  9
$DIMDLE
 40
0.0
  9
$DIMEXE
 40
0.18
  9
$DIMTP
 40
0.0
  9
$DIMTM
 40
0.0
  9
$DIMTXT
 40
0.0708661417322835
  9
$DIMCEN
 40
0.09
  9
$DIMTSZ
 40
0.0
  9
$DIMTOL
 70
     0
  9
$DIMLIM
 70
     0
  9
$DIMTIH
 70
     1
  9
$DIMTOH
 70
     1
  9
$DIMSE1
 70
     0
  9
$DIMSE2
 70
     0
  9
$DIMTAD
 70
     0
  9
$DIMZIN
 70
     0
  9
$DIMBLK
  1

  9
$DIMASO
 70
     1
  9
$DIMSHO
 70
     1
  9
$DIMPOST
  1

  9
$DIMAPOST
  1

  9
$DIMALT
 70
     0
  9
$DIMALTD
 70
     2
  9
$DIMALTF
 40
25.4
  9
$DIMLFAC
 40
1.0
  9
$DIMTOFL
 70
     0
  9
$DIMTVP
 40
0.0
  9
$DIMTIX
 70
     0
  9
$DIMSOXD
 70
     0
  9
$DIMSAH
 70
     0
  9
$DIMBLK1
  1

  9
$DIMBLK2
  1

  9
$DIMSTYLE
  2
Standard
  9
$DIMCLRD
 70
     0
  9
$DIMCLRE
 70
     0
  9
$DIMCLRT
 70
     0
  9
$DIMTFAC
 40
1.0
  9
$DIMGAP
 40
0.09
  9
$DIMJUST
 70
     0
  9
$DIMSD1
 70
     0
  9
$DIMSD2
 70
     0
  9
$DIMTOLJ
 70
     1
  9
$DIMTZIN
 70
     0
  9
$DIMALTZ
 70
     0
  9
$DIMALTTZ
 70
     0
  9
$DIMUPT
 70
     0
  9
$DIMDEC
 70
     4
  9
$DIMTDEC
 70
     4
  9
$DIMALTU
 70
     2
  9
$DIMALTTD
 70
     2
  9
$DIMTXSTY
  7
Standard
  9
$DIMAUNIT
 70
     0
  9
$DIMADEC
 70
     0
  9
$DIMALTRND
 40
0.0
  9
$DIMAZIN
 70
     0
  9
$DIMDSEP
 70
    46
  9
$DIMATFIT
 70
     3
  9
$DIMFRAC
 70
     0
  9
$DIMLDRBLK
  1

  9
$DIMLUNIT
 70
     2
  9
$DIMLWD
 70
    -2
  9
$DIMLWE
 70
    -2
  9
$DIMTMOVE
 70
     0
  9
$LUNITS
 70
     2
  9
$LUPREC
 70
     4
  9
$SKETCHINC
 40
0.1
  9
$FILLETRAD
 40
0.0
  9
$AUNITS
 70
     0
  9
$AUPREC
 70
     0
  9
$MENU
  1
.
  9
$ELEVATION
 40
0.0
  9
$PELEVATION
 40
0.0
  9
$THICKNESS
 40
0.0
  9
$LIMCHECK
 70
     0
  9
$CHAMFERA
 40
0.0
  9
$CHAMFERB
 40
0.0
  9
$CHAMFERC
 40
0.0
  9
$CHAMFERD
 40
0.0
  9
$SKPOLY
 70
     0
  9
$TDCREATE
 40
2456428.835597222
  9
$TDUCREATE
 40
2456428.606430556
  9
$TDUPDATE
 40
2456428.835597234
  9
$TDUUPDATE
 40
2456428.606430567
  9
$TDINDWG
 40
0.0000442014
  9
$TDUSRTIMER
 40
0.0000442014
  9
$USRTIMER
 70
     1
  9
$ANGBASE
 50
0.0
  9
$ANGDIR
 70
     0
  9
$PDMODE
 70
     0
  9
$PDSIZE
 40
0.0
  9
$PLINEWID
 40
0.0
  9
$SPLFRAME
 70
     0
  9
$SPLINETYPE
 70
     6
  9
$SPLINESEGS
 70
     8
  9
$HANDSEED
  5
15B6
  9
$SURFTAB1
 70
     6
  9
$SURFTAB2
 70
     6
  9
$SURFTYPE
 70
     6
  9
$SURFU
 70
     6
  9
$SURFV
 70
     6
  9
$UCSBASE
  2

  9
$UCSNAME
  2

  9
$UCSORG
 10
0.0
 20
0.0
 30
0.0
  9
$UCSXDIR
 10
1.0
 20
0.0
 30
0.0
  9
$UCSYDIR
 10
0.0
 20
1.0
 30
0.0
  9
$UCSORTHOREF
  2

  9
$UCSORTHOVIEW
 70
     0
  9
$UCSORGTOP
 10
0.0
 20
0.0
 30
0.0
  9
$UCSORGBOTTOM
 10
0.0
 20
0.0
 30
0.0
  9
$UCSORGLEFT
 10
0.0
 20
0.0
 30
0.0
  9
$UCSORGRIGHT
 10
0.0
 20
0.0
 30
0.0
  9
$UCSORGFRONT
 10
0.0
 20
0.0
 30
0.0
  9
$UCSORGBACK
 10
0.0
 20
0.0
 30
0.0
  9
$PUCSBASE
  2

  9
$PUCSNAME
  2

  9
$PUCSORG
 10
0.0
 20
0.0
 30
0.0
  9
$PUCSXDIR
 10
1.0
 20
0.0
 30
0.0
  9
$PUCSYDIR
 10
0.0
 20
1.0
 30
0.0
  9
$PUCSORTHOREF
  2

  9
$PUCSORTHOVIEW
 70
     0
  9
$PUCSORGTOP
 10
0.0
 20
0.0
 30
0.0
  9
$PUCSORGBOTTOM
 10
0.0
 20
0.0
 30
0.0
  9
$PUCSORGLEFT
 10
0.0
 20
0.0
 30
0.0
  9
$PUCSORGRIGHT
 10
0.0
 20
0.0
 30
0.0
  9
$PUCSORGFRONT
 10
0.0
 20
0.0
 30
0.0
  9
$PUCSORGBACK
 10
0.0
 20
0.0
 30
0.0
  9
$USERI1
 70
     0
  9
$USERI2
 70
     0
  9
$USERI3
 70
     0
  9
$USERI4
 70
     0
  9
$USERI5
 70
     0
  9
$USERR1
 40
0.0
  9
$USERR2
 40
0.0
  9
$USERR3
 40
0.0
  9
$USERR4
 40
0.0
  9
$USERR5
 40
0.0
  9
$WORLDVIEW
 70
     1
  9
$SHADEDGE
 70
     3
  9
$SHADEDIF
 70
    70
  9
$TILEMODE
 70
     1
  9
$MAXACTVP
 70
    64
  9
$PINSBASE
 10
0.0
 20
0.0
 30
0.0
  9
$PLIMCHECK
 70
     0
  9
$PEXTMIN
 10
0.0
 20
0.0
 30
0.0
  9
$PEXTMAX
 10
119.0
 20
77.0
 30
0.0
  9
$PLIMMIN
 10
0.0
 20
0.0
  9
$PLIMMAX
 10
119.0
 20
77.0
  9
$UNITMODE
 70
     0
  9
$VISRETAIN
 70
     1
  9
$PLINEGEN
 70
     0
  9
$PSLTSCALE
 70
     1
  9
$TREEDEPTH
 70
  3020
  9
$CMLSTYLE
  2
Standard
  9
$CMLJUST
 70
     0
  9
$CMLSCALE
 40
1.0
  9
$PROXYGRAPHICS
 70
     1
  9
$MEASUREMENT
 70
     0
  9
$CELWEIGHT
370
    -1
  9
$ENDCAPS
280
     0
  9
$JOINSTYLE
280
     0
  9
$LWDISPLAY
290
     0
  9
$INSUNITS
 70
     1
  9
$HYPERLINKBASE
  1

  9
$STYLESHEET
  1

  9
$XEDIT
290
     1
  9
$CEPSNTYPE
380
     0
  9
$PSTYLEMODE
290
     1
  9
$FINGERPRINTGUID
  2
{1F82B7A2-62BA-4762-9A6F-7577E7D7F0CE}
  9
$VERSIONGUID
  2
{ED6A5A8A-B349-423F-87CD-E5961CD6B83E}
  9
$EXTNAMES
290
     1
  9
$PSVPSCALE
 40
0.0
  9
$OLESTARTUP
290
     0
  9
$SORTENTS
280
   127
  9
$INDEXCTL
280
     0
  9
$HIDETEXT
280
     1
  9
$XCLIPFRAME
290
     0
  9
$HALOGAP
280
     0
  9
$OBSCOLOR
 70
   257
  9
$OBSLTYPE
280
     0
  9
$INTERSECTIONDISPLAY
280
     0
  9
$INTERSECTIONCOLOR
 70
   257
  9
$DIMASSOC
280
     1
  9
$PROJECTNAME
  1

  0
ENDSEC
  0
SECTION
  2
CLASSES
  0
CLASS
  1
ACDBDICTIONARYWDFLT
  2
AcDbDictionaryWithDefault
  3
ObjectDBX Classes
 90
        0
 91
        1
280
     0
281
     0
  0
CLASS
  1
MATERIAL
  2
AcDbMaterial
  3
ObjectDBX Classes
 90
     1153
 91
        3
280
     0
281
     0
  0
CLASS
  1
VISUALSTYLE
  2
AcDbVisualStyle
  3
ObjectDBX Classes
 90
     4095
 91
       24
280
     0
281
     0
  0
CLASS
  1
SCALE
  2
AcDbScale
  3
ObjectDBX Classes
 90
     1153
 91
       17
280
     0
281
     0
  0
CLASS
  1
TABLESTYLE
  2
AcDbTableStyle
  3
ObjectDBX Classes
 90
     4095
 91
        1
280
     0
281
     0
  0
CLASS
  1
MLEADERSTYLE
  2
AcDbMLeaderStyle
  3
ACDB_MLEADERSTYLE_CLASS
 90
     4095
 91
        1
280
     0
281
     0
  0
CLASS
  1
DICTIONARYVAR
  2
AcDbDictionaryVar
  3
ObjectDBX Classes
 90
        0
 91
        8
280
     0
281
     0
  0
CLASS
  1
CELLSTYLEMAP
  2
AcDbCellStyleMap
  3
ObjectDBX Classes
 90
     1152
 91
        1
280
     0
281
     0
  0
ENDSEC
  0
SECTION
  2
TABLES
  0
TABLE
  2
VPORT
  5
8
330
0
100
AcDbSymbolTable
 70
     1
  0
VPORT
  5
57
330
8
100
AcDbSymbolTableRecord
100
AcDbViewportTableRecord
  2
*Active
 70
     0
 10
0.0
 20
0.0
 11
1.0
 21
1.0
 12
59.5
 22
38.5
 13
0.0
 23
0.0
 14
1.0
 24
1.0
 15
0.0
 25
0.0
 16
0.0
 26
0.0
 36
1.0
 17
0.0
 27
0.0
 37
0.0
 40
77.0
 41
1.545454545454545
 42
50.0
 43
0.0
 44
0.0
 50
0.0
 51
0.0
 71
     0
 72
   100
 73
     1
 74
     1
 75
     0
 76
     0
 77
     0
 78
     0
281
     0
 65
     1
110
0.0
120
0.0
130
0.0
111
1.0
121
0.0
131
0.0
112
0.0
122
1.0
132
0.0
 79
     0
146
0.0
  0
ENDTAB
  0
TABLE
  2
LTYPE
  5
5
330
0
100
AcDbSymbolTable
 70
    59
  0
LTYPE
  5
5B
330
5
100
AcDbSymbolTableRecord
100
AcDbLinetypeTableRecord
  2
ByBlock
 70
     0
  3

 72
    65
 73
     0
 40
0.0
  0
LTYPE
  5
5C
330
5
100
AcDbSymbolTableRecord
100
AcDbLinetypeTableRecord
  2
ByLayer
 70
     0
  3

 72
    65
 73
     0
 40
0.0
  0
LTYPE
  5
5D
330
5
100
AcDbSymbolTableRecord
100
AcDbLinetypeTableRecord
  2
Continuous
 70
     0
  3
Solid line
 72
    65
 73
     0
 40
0.0
  0
LTYPE
  5
7C
330
5
100
AcDbSymbolTableRecord
100
AcDbLinetypeTableRecord
  2
BY_STANDARD
 70
     0
  3
By Standard ____________    ____    ____   _
 72
    65
 73
     6
 40
1.240299999999999
 49
0.6614
 74
     0
 49
-0.0827
 74
     0
 49
0.1654
 74
     0
 49
-0.0827
 74
     0
 49
0.1654
 74
     0
 49
-0.0827
 74
     0
  0
LTYPE
  5
7D
330
5
100
AcDbSymbolTableRecord
100
AcDbLinetypeTableRecord
  2
CHAIN
 70
     0
  3
Chain ____ _ ____ _ ____ _ ____ _ ____ _ ____
 72
    65
 73
     4
 40
0.7087
 49
0.4724000000000001
 74
     0
 49
-0.0591
 74
     0
 49
0.1181
 74
     0
 49
-0.0591
 74
     0
  0
LTYPE
  5
7E
330
5
100
AcDbSymbolTableRecord
100
AcDbLinetypeTableRecord
  2
DASH_DOT
 70
     0
  3
Dash dot __ . __ . __ . __ . __ . __ . __ . __
 72
    65
 73
     4
 40
0.37
 49
0.24
 74
     0
 49
-0.06
 74
     0
 49
0.01
 74
     0
 49
-0.06
 74
     0
  0
LTYPE
  5
7F
330
5
100
AcDbSymbolTableRecord
100
AcDbLinetypeTableRecord
  2
DOUBLE_DASH_DOT
 70
     0
  3
Double-Dash Dot __ __ . __ __ . __ __ . __ _
 72
    65
 73
     6
 40
0.4398
 49
0.24
 74
     0
 49
-0.06
 74
     0
 49
0.0098
 74
     0
 49
-0.06
 74
     0
 49
0.01
 74
     0
 49
-0.06
 74
     0
  0
LTYPE
  5
80
330
5
100
AcDbSymbolTableRecord
100
AcDbLinetypeTableRecord
  2
DASH_TRIPLE_DOT
 70
     0
  3
Dash Triple-Dot _ . . . _ . . . _ . . . _
 72
    65
 73
     8
 40
0.51
 49
0.24
 74
     0
 49
-0.06
 74
     0
 49
0.01
 74
     0
 49
-0.06
 74
     0
 49
0.01
 74
     0
 49
-0.06
 74
     0
 49
0.01
 74
     0
 49
-0.06
 74
     0
  0
LTYPE
  5
81
330
5
100
AcDbSymbolTableRecord
100
AcDbLinetypeTableRecord
  2
DASHED
 70
     0
  3
Dashed __ __ __ __ __ __ __ __ __ __ __ __ __ _
 72
    65
 73
     2
 40
0.2067
 49
0.1654
 74
     0
 49
-0.0413
 74
     0
  0
LTYPE
  5
82
330
5
100
AcDbSymbolTableRecord
100
AcDbLinetypeTableRecord
  2
DASH_DOUBLE_DOT
 70
     0
  3
Dash Double-Dot __ . . __ . . __ . . __ . .
 72
    65
 73
     6
 40
0.4398
 49
0.24
 74
     0
 49
-0.06
 74
     0
 49
0.0098
 74
     0
 49
-0.06
 74
     0
 49
0.01
 74
     0
 49
-0.06
 74
     0
  0
LTYPE
  5
83
330
5
100
AcDbSymbolTableRecord
100
AcDbLinetypeTableRecord
  2
DASHED_SPACE
 70
     0
  3
Dashed Space __ __ __ __ __ __ __ __ __ __ __ _
 72
    65
 73
     2
 40
0.2067
 49
0.1654
 74
     0
 49
-0.0413
 74
     0
  0
LTYPE
  5
84
330
5
100
AcDbSymbolTableRecord
100
AcDbLinetypeTableRecord
  2
DOTTED
 70
     0
  3
Dotted . . . . . . . . . . . . . . . . . . . . 
 72
    65
 73
     2
 40
0.0482
 49
0.0069
 74
     0
 49
-0.0413
 74
     0
  0
LTYPE
  5
85
330
5
100
AcDbSymbolTableRecord
100
AcDbLinetypeTableRecord
  2
DOUBLE_DASH_CHAIN
 70
     0
  3
Double-Dash Chain ______  __  __  ______  __  _
 72
    65
 73
     6
 40
1.240299999999999
 49
0.6614
 74
     0
 49
-0.0827
 74
     0
 49
0.1654
 74
     0
 49
-0.0827
 74
     0
 49
0.1654
 74
     0
 49
-0.0827
 74
     0
  0
LTYPE
  5
87
330
5
100
AcDbSymbolTableRecord
100
AcDbLinetypeTableRecord
  2
DOUBLE_DASH_DOUBLE_DOT
 70
     0
  3
Double-Dash Double-dot _ _ . . _ _ . . _
 72
    65
 73
     8
 40
0.7400000000000001
 49
0.24
 74
     0
 49
-0.06
 74
     0
 49
0.24
 74
     0
 49
-0.06
 74
     0
 49
0.01
 74
     0
 49
-0.06
 74
     0
 49
0.01
 74
     0
 49
-0.06
 74
     0
  0
LTYPE
  5
88
330
5
100
AcDbSymbolTableRecord
100
AcDbLinetypeTableRecord
  2
DOUBLE_DASH_TRIPLE_DOT
 70
     0
  3
Double Dash Triple Dot __ __ . . . __ __ . .
 72
    65
 73
    10
 40
0.8100000000000001
 49
0.24
 74
     0
 49
-0.06
 74
     0
 49
0.24
 74
     0
 49
-0.06
 74
     0
 49
0.01
 74
     0
 49
-0.06
 74
     0
 49
0.01
 74
     0
 49
-0.06
 74
     0
 49
0.01
 74
     0
 49
-0.06
 74
     0
  0
LTYPE
  5
89
330
5
100
AcDbSymbolTableRecord
100
AcDbLinetypeTableRecord
  2
LONG_DASH_DOTTED
 70
     0
  3
Long Dash Dotted ____ . ____ . ____ . ____ . _
 72
    65
 73
     4
 40
0.3543
 49
0.2362
 74
     0
 49
-0.0295
 74
     0
 49
0.0591
 74
     0
 49
-0.0295
 74
     0
  0
LTYPE
  5
8A
330
5
100
AcDbSymbolTableRecord
100
AcDbLinetypeTableRecord
  2
LONG_DASH_DOUBLE_DOT
 70
     0
  3
Long Dash Double Dot ________  .  .  ________  
 72
    65
 73
     6
 40
0.6799999999999999
 49
0.48
 74
     0
 49
-0.06
 74
     0
 49
0.01
 74
     0
 49
-0.06
 74
     0
 49
0.01
 74
     0
 49
-0.06
 74
     0
  0
LTYPE
  5
8B
330
5
100
AcDbSymbolTableRecord
100
AcDbLinetypeTableRecord
  2
LONG_DASH_TRIPLE_DOT
 70
     0
  3
Long Dash Triple Dot ____ ... ____ ... ____
 72
    65
 73
     8
 40
0.3689
 49
0.2362
 74
     0
 49
-0.0295
 74
     0
 49
0.0049
 74
     0
 49
-0.0295
 74
     0
 49
0.0049
 74
     0
 49
-0.0295
 74
     0
 49
0.0049
 74
     0
 49
-0.0295
 74
     0
  0
LTYPE
  5
8C
330
5
100
AcDbSymbolTableRecord
100
AcDbLinetypeTableRecord
  2
BORDER
 70
     0
  3
Border __ __ . __ __ . __ __ . __ __ . __ __ .
 72
    65
 73
     6
 40
1.75
 49
0.5
 74
     0
 49
-0.25
 74
     0
 49
0.5
 74
     0
 49
-0.25
 74
     0
 49
0.0
 74
     0
 49
-0.25
 74
     0
  0
LTYPE
  5
8D
330
5
100
AcDbSymbolTableRecord
100
AcDbLinetypeTableRecord
  2
BORDER2
 70
     0
  3
Border (.5x) __.__.__.__.__.__.__.__.__.__.__.
 72
    65
 73
     6
 40
0.875
 49
0.25
 74
     0
 49
-0.125
 74
     0
 49
0.25
 74
     0
 49
-0.125
 74
     0
 49
0.0
 74
     0
 49
-0.125
 74
     0
  0
LTYPE
  5
8E
330
5
100
AcDbSymbolTableRecord
100
AcDbLinetypeTableRecord
  2
BORDERX2
 70
     0
  3
Border (2x) ____  ____  .  ____  ____  .  ___
 72
    65
 73
     6
 40
3.5
 49
1.0
 74
     0
 49
-0.5
 74
     0
 49
1.0
 74
     0
 49
-0.5
 74
     0
 49
0.0
 74
     0
 49
-0.5
 74
     0
  0
LTYPE
  5
8F
330
5
100
AcDbSymbolTableRecord
100
AcDbLinetypeTableRecord
  2
CENTER
 70
     0
  3
Center ____ _ ____ _ ____ _ ____ _ ____ _ ____
 72
    65
 73
     4
 40
2.0
 49
1.25
 74
     0
 49
-0.25
 74
     0
 49
0.25
 74
     0
 49
-0.25
 74
     0
  0
LTYPE
  5
90
330
5
100
AcDbSymbolTableRecord
100
AcDbLinetypeTableRecord
  2
CENTER2
 70
     0
  3
Center (.5x) ___ _ ___ _ ___ _ ___ _ ___ _ ___
 72
    65
 73
     4
 40
1.125
 49
0.75
 74
     0
 49
-0.125
 74
     0
 49
0.125
 74
     0
 49
-0.125
 74
     0
  0
LTYPE
  5
91
330
5
100
AcDbSymbolTableRecord
100
AcDbLinetypeTableRecord
  2
CENTERX2
 70
     0
  3
Center (2x) ________  __  ________  __  _____
 72
    65
 73
     4
 40
4.0
 49
2.5
 74
     0
 49
-0.5
 74
     0
 49
0.5
 74
     0
 49
-0.5
 74
     0
  0
LTYPE
  5
92
330
5
100
AcDbSymbolTableRecord
100
AcDbLinetypeTableRecord
  2
DASHDOT2
 70
     0
  3
Dash dot (.5x) _._._._._._._._._._._._._._._.
 72
    65
 73
     4
 40
0.5
 49
0.25
 74
     0
 49
-0.125
 74
     0
 49
0.0
 74
     0
 49
-0.125
 74
     0
  0
LTYPE
  5
93
330
5
100
AcDbSymbolTableRecord
100
AcDbLinetypeTableRecord
  2
DASHDOTX2
 70
     0
  3
Dash dot (2x) ____  .  ____  .  ____  .  ___
 72
    65
 73
     4
 40
2.0
 49
1.0
 74
     0
 49
-0.5
 74
     0
 49
0.0
 74
     0
 49
-0.5
 74
     0
  0
LTYPE
  5
95
330
5
100
AcDbSymbolTableRecord
100
AcDbLinetypeTableRecord
  2
DASHED2
 70
     0
  3
Dashed (.5x) _ _ _ _ _ _ _ _ _ _ _ _ _ _ _ _ _
 72
    65
 73
     2
 40
0.375
 49
0.25
 74
     0
 49
-0.125
 74
     0
  0
LTYPE
  5
96
330
5
100
AcDbSymbolTableRecord
100
AcDbLinetypeTableRecord
  2
DASHEDX2
 70
     0
  3
Dashed (2x) ____  ____  ____  ____  ____  ___
 72
    65
 73
     2
 40
1.5
 49
1.0
 74
     0
 49
-0.5
 74
     0
  0
LTYPE
  5
97
330
5
100
AcDbSymbolTableRecord
100
AcDbLinetypeTableRecord
  2
DIVIDE
 70
     0
  3
Divide ____ . . ____ . . ____ . . ____ . . ____
 72
    65
 73
     6
 40
1.25
 49
0.5
 74
     0
 49
-0.25
 74
     0
 49
0.0
 74
     0
 49
-0.25
 74
     0
 49
0.0
 74
     0
 49
-0.25
 74
     0
  0
LTYPE
  5
98
330
5
100
AcDbSymbolTableRecord
100
AcDbLinetypeTableRecord
  2
DIVIDE2
 70
     0
  3
Divide (.5x) __..__..__..__..__..__..__..__.._
 72
    65
 73
     6
 40
0.625
 49
0.25
 74
     0
 49
-0.125
 74
     0
 49
0.0
 74
     0
 49
-0.125
 74
     0
 49
0.0
 74
     0
 49
-0.125
 74
     0
  0
LTYPE
  5
99
330
5
100
AcDbSymbolTableRecord
100
AcDbLinetypeTableRecord
  2
DIVIDEX2
 70
     0
  3
Divide (2x) ________  .  .  ________  .  .  _
 72
    65
 73
     6
 40
2.5
 49
1.0
 74
     0
 49
-0.5
 74
     0
 49
0.0
 74
     0
 49
-0.5
 74
     0
 49
0.0
 74
     0
 49
-0.5
 74
     0
  0
LTYPE
  5
9A
330
5
100
AcDbSymbolTableRecord
100
AcDbLinetypeTableRecord
  2
DOT
 70
     0
  3
Dot . . . . . . . . . . . . . . . . . . . . . .
 72
    65
 73
     2
 40
0.25
 49
0.0
 74
     0
 49
-0.25
 74
     0
  0
LTYPE
  5
9B
330
5
100
AcDbSymbolTableRecord
100
AcDbLinetypeTableRecord
  2
DOT2
 70
     0
  3
Dot (.5x) .....................................
 72
    65
 73
     2
 40
0.125
 49
0.0
 74
     0
 49
-0.125
 74
     0
  0
LTYPE
  5
9C
330
5
100
AcDbSymbolTableRecord
100
AcDbLinetypeTableRecord
  2
DOTX2
 70
     0
  3
Dot (2x) .  .  .  .  .  .  .  .  .  .  .  .  . 
 72
    65
 73
     2
 40
0.5
 49
0.0
 74
     0
 49
-0.5
 74
     0
  0
LTYPE
  5
9D
330
5
100
AcDbSymbolTableRecord
100
AcDbLinetypeTableRecord
  2
HIDDEN
 70
     0
  3
Hidden __ __ __ __ __ __ __ __ __ __ __ __ __ _
 72
    65
 73
     2
 40
0.375
 49
0.25
 74
     0
 49
-0.125
 74
     0
  0
LTYPE
  5
9E
330
5
100
AcDbSymbolTableRecord
100
AcDbLinetypeTableRecord
  2
HIDDEN2
 70
     0
  3
Hidden (.5x) _ _ _ _ _ _ _ _ _ _ _ _ _ _ _ _ _
 72
    65
 73
     2
 40
0.1875
 49
0.125
 74
     0
 49
-0.0625
 74
     0
  0
LTYPE
  5
9F
330
5
100
AcDbSymbolTableRecord
100
AcDbLinetypeTableRecord
  2
HIDDENX2
 70
     0
  3
Hidden (2x) ____ ____ ____ ____ ____ ____ ____
 72
    65
 73
     2
 40
0.75
 49
0.5
 74
     0
 49
-0.25
 74
     0
  0
LTYPE
  5
A0
330
5
100
AcDbSymbolTableRecord
100
AcDbLinetypeTableRecord
  2
PHANTOM
 70
     0
  3
Phantom ______  __  __  ______  __  __  ______
 72
    65
 73
     6
 40
2.5
 49
1.25
 74
     0
 49
-0.25
 74
     0
 49
0.25
 74
     0
 49
-0.25
 74
     0
 49
0.25
 74
     0
 49
-0.25
 74
     0
  0
LTYPE
  5
A1
330
5
100
AcDbSymbolTableRecord
100
AcDbLinetypeTableRecord
  2
PHANTOM2
 70
     0
  3
Phantom (.5x) ___ _ _ ___ _ _ ___ _ _ ___ _ _
 72
    65
 73
     6
 40
1.25
 49
0.625
 74
     0
 49
-0.125
 74
     0
 49
0.125
 74
     0
 49
-0.125
 74
     0
 49
0.125
 74
     0
 49
-0.125
 74
     0
  0
LTYPE
  5
A2
330
5
100
AcDbSymbolTableRecord
100
AcDbLinetypeTableRecord
  2
PHANTOMX2
 70
     0
  3
Phantom (2x) ____________    ____    ____   _
 72
    65
 73
     6
 40
5.0
 49
2.5
 74
     0
 49
-0.5
 74
     0
 49
0.5
 74
     0
 49
-0.5
 74
     0
 49
0.5
 74
     0
 49
-0.5
 74
     0
  0
LTYPE
  5
A3
330
5
100
AcDbSymbolTableRecord
100
AcDbLinetypeTableRecord
  2
ACAD_ISO02W100
 70
     0
  3
ISO dash __ __ __ __ __ __ __ __ __ __ __ __ __
 72
    65
 73
     2
 40
0.59
 49
0.47
 74
     0
 49
-0.12
 74
     0
  0
LTYPE
  5
A4
330
5
100
AcDbSymbolTableRecord
100
AcDbLinetypeTableRecord
  2
ACAD_ISO03W100
 70
     0
  3
ISO dash space __    __    __    __    __    __
 72
    65
 73
     2
 40
1.179999999999999
 49
0.47
 74
     0
 49
-0.71
 74
     0
  0
LTYPE
  5
A5
330
5
100
AcDbSymbolTableRecord
100
AcDbLinetypeTableRecord
  2
ACAD_ISO04W100
 70
     0
  3
ISO long-dash dot ____ . ____ . ____ . ____ . _
 72
    65
 73
     4
 40
1.179999999999999
 49
0.9399999999999998
 74
     0
 49
-0.12
 74
     0
 49
0.0
 74
     0
 49
-0.12
 74
     0
  0
LTYPE
  5
A6
330
5
100
AcDbSymbolTableRecord
100
AcDbLinetypeTableRecord
  2
ACAD_ISO05W100
 70
     0
  3
ISO long-dash double-dot ____ .. ____ .. ____ .
 72
    65
 73
     6
 40
1.299999999999999
 49
0.9399999999999998
 74
     0
 49
-0.12
 74
     0
 49
0.0
 74
     0
 49
-0.12
 74
     0
 49
0.0
 74
     0
 49
-0.12
 74
     0
  0
LTYPE
  5
A7
330
5
100
AcDbSymbolTableRecord
100
AcDbLinetypeTableRecord
  2
ACAD_ISO06W100
 70
     0
  3
ISO long-dash triple-dot ____ ... ____ ... ____
 72
    65
 73
     8
 40
1.419999999999999
 49
0.9399999999999998
 74
     0
 49
-0.12
 74
     0
 49
0.0
 74
     0
 49
-0.12
 74
     0
 49
0.0
 74
     0
 49
-0.12
 74
     0
 49
0.0
 74
     0
 49
-0.12
 74
     0
  0
LTYPE
  5
A8
330
5
100
AcDbSymbolTableRecord
100
AcDbLinetypeTableRecord
  2
ACAD_ISO07W100
 70
     0
  3
ISO dot . . . . . . . . . . . . . . . . . . . .
 72
    65
 73
     2
 40
0.12
 49
0.0
 74
     0
 49
-0.12
 74
     0
  0
LTYPE
  5
A9
330
5
100
AcDbSymbolTableRecord
100
AcDbLinetypeTableRecord
  2
ACAD_ISO08W100
 70
     0
  3
ISO long-dash short-dash ____ __ ____ __ ____ _
 72
    65
 73
     4
 40
0.95
 49
0.47
 74
     0
 49
-0.12
 74
     0
 49
0.24
 74
     0
 49
-0.12
 74
     0
  0
LTYPE
  5
AA
330
5
100
AcDbSymbolTableRecord
100
AcDbLinetypeTableRecord
  2
ACAD_ISO09W100
 70
     0
  3
ISO long-dash double-short-dash ____ __ __ ____
 72
    65
 73
     6
 40
1.31
 49
0.47
 74
     0
 49
-0.12
 74
     0
 49
0.24
 74
     0
 49
-0.12
 74
     0
 49
0.24
 74
     0
 49
-0.12
 74
     0
  0
LTYPE
  5
AB
330
5
100
AcDbSymbolTableRecord
100
AcDbLinetypeTableRecord
  2
ACAD_ISO10W100
 70
     0
  3
ISO dash dot __ . __ . __ . __ . __ . __ . __ .
 72
    65
 73
     4
 40
0.71
 49
0.47
 74
     0
 49
-0.12
 74
     0
 49
0.0
 74
     0
 49
-0.12
 74
     0
  0
LTYPE
  5
AC
330
5
100
AcDbSymbolTableRecord
100
AcDbLinetypeTableRecord
  2
ACAD_ISO11W100
 70
     0
  3
ISO double-dash dot __ __ . __ __ . __ __ . __ 
 72
    65
 73
     6
 40
1.299999999999999
 49
0.47
 74
     0
 49
-0.12
 74
     0
 49
0.47
 74
     0
 49
-0.12
 74
     0
 49
0.0
 74
     0
 49
-0.12
 74
     0
  0
LTYPE
  5
AD
330
5
100
AcDbSymbolTableRecord
100
AcDbLinetypeTableRecord
  2
ACAD_ISO12W100
 70
     0
  3
ISO dash double-dot __ . . __ . . __ . . __ . .
 72
    65
 73
     6
 40
0.8299999999999998
 49
0.47
 74
     0
 49
-0.12
 74
     0
 49
0.0
 74
     0
 49
-0.12
 74
     0
 49
0.0
 74
     0
 49
-0.12
 74
     0
  0
LTYPE
  5
AE
330
5
100
AcDbSymbolTableRecord
100
AcDbLinetypeTableRecord
  2
ACAD_ISO13W100
 70
     0
  3
ISO double-dash double-dot __ __ . . __ __ . . 
 72
    65
 73
     8
 40
1.419999999999999
 49
0.47
 74
     0
 49
-0.12
 74
     0
 49
0.47
 74
     0
 49
-0.12
 74
     0
 49
0.0
 74
     0
 49
-0.12
 74
     0
 49
0.0
 74
     0
 49
-0.12
 74
     0
  0
LTYPE
  5
AF
330
5
100
AcDbSymbolTableRecord
100
AcDbLinetypeTableRecord
  2
ACAD_ISO14W100
 70
     0
  3
ISO dash triple-dot __ . . . __ . . . __ . . . 
 72
    65
 73
     8
 40
0.95
 49
0.47
 74
     0
 49
-0.12
 74
     0
 49
0.0
 74
     0
 49
-0.12
 74
     0
 49
0.0
 74
     0
 49
-0.12
 74
     0
 49
0.0
 74
     0
 49
-0.12
 74
     0
  0
LTYPE
  5
B0
330
5
100
AcDbSymbolTableRecord
100
AcDbLinetypeTableRecord
  2
ACAD_ISO15W100
 70
     0
  3
ISO double-dash triple-dot __ __ . . . __ __ . 
 72
    65
 73
    10
 40
1.539999999999999
 49
0.47
 74
     0
 49
-0.12
 74
     0
 49
0.47
 74
     0
 49
-0.12
 74
     0
 49
0.0
 74
     0
 49
-0.12
 74
     0
 49
0.0
 74
     0
 49
-0.12
 74
     0
 49
0.0
 74
     0
 49
-0.12
 74
     0
  0
LTYPE
  5
B3
330
5
100
AcDbSymbolTableRecord
100
AcDbLinetypeTableRecord
  2
FENCELINE1
 70
     0
  3
Fenceline circle ----0-----0----0-----0----0---
 72
    65
 73
     4
 40
1.45
 49
0.25
 74
     0
 49
-0.1
 74
     4
 75
   133
340
B2
 46
0.1
 50
0.0
 44
-0.1
 45
0.0
 49
-0.1
 74
     0
 49
1.0
 74
     0
  0
LTYPE
  5
B4
330
5
100
AcDbSymbolTableRecord
100
AcDbLinetypeTableRecord
  2
FENCELINE2
 70
     0
  3
Fenceline square ----[]-----[]----[]-----[]----
 72
    65
 73
     4
 40
1.45
 49
0.25
 74
     0
 49
-0.1
 74
     4
 75
   132
340
B2
 46
0.1
 50
0.0
 44
-0.1
 45
0.0
 49
-0.1
 74
     0
 49
1.0
 74
     0
  0
LTYPE
  5
B5
330
5
100
AcDbSymbolTableRecord
100
AcDbLinetypeTableRecord
  2
TRACKS
 70
     0
  3
Tracks -|-|-|-|-|-|-|-|-|-|-|-|-|-|-|-|-|-|-|-|
 72
    65
 73
     2
 40
0.3
 49
0.15
 74
     4
 75
   130
340
B2
 46
0.25
 50
0.0
 44
0.0
 45
0.0
 49
0.15
 74
     0
  0
LTYPE
  5
B6
330
5
100
AcDbSymbolTableRecord
100
AcDbLinetypeTableRecord
  2
BATTING
 70
     0
  3
Batting SSSSSSSSSSSSSSSSSSSSSSSSSSSSSSSSSSSSSSS
 72
    65
 73
     4
 40
0.4001000000000001
 49
0.0001
 74
     0
 49
-0.1
 74
     4
 75
   134
340
B2
 46
0.1
 50
0.0
 44
-0.1
 45
0.0
 49
-0.2
 74
     4
 75
   134
340
B2
 46
0.1
 50
180.0
 44
0.1
 45
0.0
 49
-0.1
 74
     0
  0
LTYPE
  5
B7
330
5
100
AcDbSymbolTableRecord
100
AcDbLinetypeTableRecord
  2
HOT_WATER_SUPPLY
 70
     0
  3
Hot water supply ---- HW ---- HW ---- HW ----
 72
    65
 73
     3
 40
0.9
 49
0.5
 74
     0
 49
-0.2
 74
     2
 75
     0
340
55
 46
0.1
 50
0.0
 44
-0.1
 45
-0.05
  9
HW
 49
-0.2
 74
     0
  0
LTYPE
  5
B8
330
5
100
AcDbSymbolTableRecord
100
AcDbLinetypeTableRecord
  2
GAS_LINE
 70
     0
  3
Gas line ----GAS----GAS----GAS----GAS----GAS---
 72
    65
 73
     3
 40
0.95
 49
0.5
 74
     0
 49
-0.2
 74
     2
 75
     0
340
55
 46
0.1
 50
0.0
 44
-0.1
 45
-0.05
  9
GAS
 49
-0.25
 74
     0
  0
LTYPE
  5
B9
330
5
100
AcDbSymbolTableRecord
100
AcDbLinetypeTableRecord
  2
ZIGZAG
 70
     0
  3
Zig zag /\/\/\/\/\/\/\/\/\/\/\/\/\/\/\/\/\/\/\/
 72
    65
 73
     4
 40
0.8001000000000001
 49
0.0001
 74
     0
 49
-0.2
 74
     4
 75
   131
340
B2
 46
0.2
 50
0.0
 44
-0.2
 45
0.0
 49
-0.4
 74
     4
 75
   131
340
B2
 46
0.2
 50
180.0
 44
0.2
 45
0.0
 49
-0.2
 74
     0
  0
ENDTAB
  0
TABLE
  2
LAYER
  5
2
330
0
100
AcDbSymbolTable
 70
    27
  0
LAYER
  5
54
330
2
100
AcDbSymbolTableRecord
100
AcDbLayerTableRecord
  2
0
 70
     0
 62
     7
  6
Continuous
370
     0
390
F
  0
LAYER
  5
C0
330
2
100
AcDbSymbolTableRecord
100
AcDbLayerTableRecord
  2
Center Mark (ANSI)
 70
     0
 62
     7
  6
Continuous
370
     5
390
F
  0
LAYER
  5
C1
330
2
100
AcDbSymbolTableRecord
100
AcDbLayerTableRecord
  2
Centerline (ANSI)
 70
     0
 62
     7
  6
Continuous
370
     5
390
F
  0
LAYER
  5
C3
330
2
100
AcDbSymbolTableRecord
100
AcDbLayerTableRecord
  2
Dimension (ANSI)
 70
     0
 62
     7
  6
Continuous
370
     5
390
F
  0
LAYER
  5
CC
330
2
100
AcDbSymbolTableRecord
100
AcDbLayerTableRecord
  2
Symbol (ANSI)
 70
     0
 62
     7
  6
Continuous
370
     5
390
F
  0
LAYER
  5
CF
330
2
100
AcDbSymbolTableRecord
100
AcDbLayerTableRecord
  2
Visible (ANSI)
 70
     0
 62
     7
  6
Continuous
370
     5
390
F
  0
LAYER
  5
D0
330
2
100
AcDbSymbolTableRecord
100
AcDbLayerTableRecord
  2
Visible Narrow (ANSI)
 70
     0
 62
     7
  6
Continuous
370
     5
390
F
  0
LAYER
  5
2AE
330
2
100
AcDbSymbolTableRecord
100
AcDbLayerTableRecord
  2
Defpoints
 70
     0
 62
     7
  6
Continuous
290
     0
370
    -3
390
F
  0
ENDTAB
  0
TABLE
  2
STYLE
  5
3
330
0
100
AcDbSymbolTable
 70
    10
  0
STYLE
  5
55
330
3
100
AcDbSymbolTableRecord
100
AcDbTextStyleTableRecord
  2
Standard
 70
     0
 40
0.0
 41
1.0
 50
0.0
 71
     0
 42
0.2
  3
txt
  4

  0
STYLE
  5
5A
330
3
100
AcDbSymbolTableRecord
100
AcDbTextStyleTableRecord
  2
Annotative
 70
     0
 40
0.0
 41
1.0
 50
0.0
 71
     0
 42
0.2
  3
txt
  4

1001
AcadAnnotative
1000
AnnotativeData
1002
{
1070
     1
1070
     1
1002
}
  0
STYLE
  5
B2
330
3
100
AcDbSymbolTableRecord
100
AcDbTextStyleTableRecord
  2

 70
     1
 40
0.0
 41
1.0
 50
0.0
 71
     0
 42
0.2
  3
ltypeshp.shx
  4

  0
STYLE
  5
D4
330
3
100
AcDbSymbolTableRecord
100
AcDbTextStyleTableRecord
  2
ITALICC_120
 70
     0
 40
0.0
 41
1.0
 50
0.0
 71
     0
 42
0.2
  3
italicc.shx
  4

  0
STYLE
  5
D5
330
3
100
AcDbSymbolTableRecord
100
AcDbTextStyleTableRecord
  2
Label Text (ANSI)
 70
     0
 40
0.0
 41
1.0
 50
0.0
 71
     0
 42
0.2
  3
tahoma.ttf
  4

1001
ACAD
1000
Tahoma
1071
      256
  0
STYLE
  5
D6
330
3
100
AcDbSymbolTableRecord
100
AcDbTextStyleTableRecord
  2
Note Text (ANSI)
 70
     0
 40
0.0
 41
1.0
 50
0.0
 71
     0
 42
0.2
  3
RomanS.shx
  4

  0
STYLE
  5
D7
330
3
100
AcDbSymbolTableRecord
100
AcDbTextStyleTableRecord
  2
ROMANS
 70
     0
 40
0.0
 41
1.0
 50
0.0
 71
     0
 42
0.2
  3
romans.shx
  4

  0
STYLE
  5
D8
330
3
100
AcDbSymbolTableRecord
100
AcDbTextStyleTableRecord
  2
SANSSERIF_114
 70
     0
 40
0.0
 41
1.0
 50
0.0
 71
     0
 42
0.2
  3
tahoma.ttf
  4

1001
ACAD
1000
Tahoma
1071
      256
  0
STYLE
  5
D9
330
3
100
AcDbSymbolTableRecord
100
AcDbTextStyleTableRecord
  2
SANSSERIF_117
 70
     0
 40
0.0
 41
1.0
 50
0.0
 71
     0
 42
0.2
  3
tahoma.ttf
  4

1001
ACAD
1000
Tahoma
1071
      256
  0
STYLE
  5
15E
330
3
100
AcDbSymbolTableRecord
100
AcDbTextStyleTableRecord
  2
Text Style168
 70
     0
 40
0.0
 41
1.0
 50
0.0
 71
     0
 42
0.2
  3
tahoma.ttf
  4

1001
ACAD
1000
Tahoma
1071
      256
  0
ENDTAB
  0
TABLE
  2
VIEW
  5
6
330
0
100
AcDbSymbolTable
 70
     0
  0
ENDTAB
  0
TABLE
  2
UCS
  5
7
330
0
100
AcDbSymbolTable
 70
     0
  0
ENDTAB
  0
TABLE
  2
APPID
  5
9
330
0
100
AcDbSymbolTable
 70
     5
  0
APPID
  5
56
330
9
100
AcDbSymbolTableRecord
100
AcDbRegAppTableRecord
  2
ACAD
 70
     0
  0
APPID
  5
5E
330
9
100
AcDbSymbolTableRecord
100
AcDbRegAppTableRecord
  2
AcadAnnotative
 70
     0
  0
APPID
  5
618
330
9
100
AcDbSymbolTableRecord
100
AcDbRegAppTableRecord
  2
ACAD_DSTYLE_DIMANGULAR_EXTENSION
 70
     0
  0
APPID
  5
EFA
330
9
100
AcDbSymbolTableRecord
100
AcDbRegAppTableRecord
  2
ACAD_DSTYLE_DIMRADIAL_EXTENSION
 70
     0
  0
APPID
  5
15B1
330
9
100
AcDbSymbolTableRecord
100
AcDbRegAppTableRecord
  2
ACAD_MLEADERVER
 70
     0
  0
ENDTAB
  0
TABLE
  2
DIMSTYLE
  5
A
330
0
100
AcDbSymbolTable
 70
    15
100
AcDbDimStyleTable
 71
     2
340
E2
340
58
  0
DIMSTYLE
105
58
330
A
100
AcDbSymbolTableRecord
100
AcDbDimStyleTableRecord
  2
Standard
 70
     0
340
55
  0
DIMSTYLE
105
59
330
A
100
AcDbSymbolTableRecord
100
AcDbDimStyleTableRecord
  2
Annotative
 70
     0
340
55
1001
AcadAnnotative
1000
AnnotativeData
1002
{
1070
     1
1070
     1
1002
}
  0
DIMSTYLE
105
DA
330
A
100
AcDbSymbolTableRecord
100
AcDbDimStyleTableRecord
  2
Architectural (ANSI)
 70
     0
 40
7.0
 41
0.0984251946210861
 43
0.2362204724409449
 44
0.125
 45
0.00000001
 46
0.3937007874015748
 78
     3
 79
     3
140
0.1000000014901161
146
1.200000047683715
147
0.031496062992126
171
     1
176
   256
177
   256
178
   256
272
     2
274
     1
276
     2
277
     4
284
    12
285
     4
286
    12
340
D6
371
    -1
372
    -1
  0
DIMSTYLE
105
DB
330
A
100
AcDbSymbolTableRecord
100
AcDbDimStyleTableRecord
  2
Architectural (ANSI)$7
 70
     0
 40
7.0
 41
0.0984251946210861
 43
0.2362204724409449
 44
0.125
 45
0.00000001
 46
0.3937007874015748
 78
     3
 79
     3
140
0.1000000014901161
146
1.200000047683715
147
0.031496062992126
171
     1
176
   256
177
   256
178
   256
272
     2
274
     1
276
     2
277
     4
284
    12
285
     4
286
    12
340
D6
371
    -1
372
    -1
  0
DIMSTYLE
105
DC
330
A
100
AcDbSymbolTableRecord
100
AcDbDimStyleTableRecord
  2
Default - Fraction (ANSI)
 70
     0
 40
7.0
 41
0.0984251946210861
 43
0.2362204724409449
 44
0.125
 45
0.00000001
 46
0.3937007874015748
 79
     3
140
0.1000000014901161
146
1.200000047683715
147
0.031496062992126
171
     1
176
   256
177
   256
178
   256
272
     2
274
     1
276
     2
277
     5
284
    12
285
     4
286
    12
340
D6
371
    -1
372
    -1
  0
DIMSTYLE
105
DD
330
A
100
AcDbSymbolTableRecord
100
AcDbDimStyleTableRecord
  2
Default - Fraction (ANSI)$7
 70
     0
 40
7.0
 41
0.0984251946210861
 43
0.2362204724409449
 44
0.125
 45
0.00000001
 46
0.3937007874015748
 79
     3
140
0.1000000014901161
146
1.200000047683715
147
0.031496062992126
171
     1
176
   256
177
   256
178
   256
272
     2
274
     1
276
     2
277
     5
284
    12
285
     4
286
    12
340
D6
371
    -1
372
    -1
  0
DIMSTYLE
105
DE
330
A
100
AcDbSymbolTableRecord
100
AcDbDimStyleTableRecord
  2
Default - mm (ANSI)
 70
     0
 40
7.0
 41
0.0984251946210861
 42
0.063
 43
0.2362204724409449
 44
0.125
 45
0.00000001
 46
0.3937007874015748
 73
     0
 78
     4
 79
     1
140
0.1000000014901161
143
1.0
144
25.4
146
1.200000047683715
147
0.031496062992126
171
     1
176
   256
177
   256
178
   256
179
     1
271
     2
272
     2
274
     1
284
     4
285
     4
340
D6
371
    -1
372
    -1
  0
DIMSTYLE
105
DF
330
A
100
AcDbSymbolTableRecord
100
AcDbDimStyleTableRecord
  2
Default - mm (ANSI)$7
 70
     0
 40
7.0
 41
0.0984251946210861
 42
0.063
 43
0.2362204724409449
 44
0.125
 45
0.00000001
 46
0.3937007874015748
 73
     0
 78
     4
 79
     1
140
0.1000000014901161
143
1.0
144
25.4
146
1.200000047683715
147
0.031496062992126
171
     1
176
   256
177
   256
178
   256
179
     1
271
     2
272
     2
274
     1
284
     4
285
     4
340
D6
371
    -1
372
    -1
  0
DIMSTYLE
105
E0
330
A
100
AcDbSymbolTableRecord
100
AcDbDimStyleTableRecord
  2
Default - mm [in] (ANSI)
 70
     0
  4
 in
 40
7.0
 41
0.0984251946210861
 42
0.063
 43
0.25
 44
0.125
 45
0.00000001
 46
0.3937007874015748
 73
     0
 78
     4
 79
     1
140
0.1000000014901161
143
0.03937
144
25.4
146
1.200000047683715
147
0.031496062992126
170
     1
171
     3
176
   256
177
   256
178
   256
179
     1
271
     2
272
     2
274
     3
284
     4
285
     4
286
     4
340
D6
371
    -1
372
    -1
  0
DIMSTYLE
105
E1
330
A
100
AcDbSymbolTableRecord
100
AcDbDimStyleTableRecord
  2
Default - mm [in] (ANSI)$7
 70
     0
  4
 in
 40
7.0
 41
0.0984251946210861
 42
0.063
 43
0.25
 44
0.125
 45
0.00000001
 46
0.3937007874015748
 73
     0
 78
     4
 79
     1
140
0.1000000014901161
143
0.03937
144
25.4
146
1.200000047683715
147
0.031496062992126
170
     1
171
     3
176
   256
177
   256
178
   256
179
     1
271
     2
272
     2
274
     3
284
     4
285
     4
286
     4
340
D6
371
    -1
372
    -1
  0
DIMSTYLE
105
E2
102
{ACAD_REACTORS
330
2AC
330
3AD
330
4AB
330
595
330
6BE
330
7AD
330
8AA
330
99D
330
A8D
330
B8D
330
C77
330
D63
330
E61
330
F20
330
100A
330
10F4
330
11DE
330
12DB
330
13C5
330
147E
102
}
330
A
100
AcDbSymbolTableRecord
100
AcDbDimStyleTableRecord
  2
Default (ANSI)
 70
     0
 40
7.0
 41
0.0984251946210861
 43
0.2362204724409449
 44
0.125
 45
0.00000001
 46
0.3937007874015748
140
0.1000000014901161
147
0.031496062992126
176
   256
177
   256
178
   256
271
     2
272
     2
340
D7
371
    -1
372
    -1
  0
DIMSTYLE
105
E3
330
A
100
AcDbSymbolTableRecord
100
AcDbDimStyleTableRecord
  2
Default (ANSI)$7
 70
     0
 40
7.0
 41
0.0984251946210861
 43
0.2362204724409449
 44
0.125
 45
0.00000001
 46
0.3937007874015748
140
0.1000000014901161
147
0.031496062992126
176
   256
177
   256
178
   256
271
     2
272
     2
340
D7
371
    -1
372
    -1
  0
DIMSTYLE
105
E4
330
A
100
AcDbSymbolTableRecord
100
AcDbDimStyleTableRecord
  2
Alternate (ANSI)
 70
     0
 40
7.0
 41
0.0979999974370003
340
55
342
E5
  0
DIMSTYLE
105
F7
330
A
100
AcDbSymbolTableRecord
100
AcDbDimStyleTableRecord
  2
Datum (ANSI)
 70
     0
 40
7.0
 41
0.0979999974370003
340
55
342
E5
  0
DIMSTYLE
105
106
330
A
100
AcDbSymbolTableRecord
100
AcDbDimStyleTableRecord
  2
Large (ANSI)
 70
     0
 40
7.0
 41
0.1959999948740005
340
55
342
E5
  0
ENDTAB
  0
TABLE
  2
BLOCK_RECORD
  5
1
330
0
100
AcDbSymbolTable
 70
    24
  0
BLOCK_RECORD
  5
6C
330
1
100
AcDbSymbolTableRecord
100
AcDbBlockTableRecord
  2
*Model_Space
340
6F
  0
BLOCK_RECORD
  5
68
330
1
100
AcDbSymbolTableRecord
100
AcDbBlockTableRecord
  2
*Paper_Space
340
6B
  0
BLOCK_RECORD
  5
70
330
1
100
AcDbSymbolTableRecord
100
AcDbBlockTableRecord
  2
*Paper_Space0
340
73
  0
BLOCK_RECORD
  5
E5
330
1
100
AcDbSymbolTableRecord
100
AcDbBlockTableRecord
  2
_Closed
340
0
  0
BLOCK_RECORD
  5
EC
330
1
100
AcDbSymbolTableRecord
100
AcDbBlockTableRecord
  2
DatumFilled45
340
0
  0
BLOCK_RECORD
  5
F8
330
1
100
AcDbSymbolTableRecord
100
AcDbBlockTableRecord
  2
Filled-1
340
0
  0
BLOCK_RECORD
  5
2AF
330
1
100
AcDbSymbolTableRecord
100
AcDbBlockTableRecord
  2
*D4
340
0
  0
BLOCK_RECORD
  5
3AE
330
1
100
AcDbSymbolTableRecord
100
AcDbBlockTableRecord
  2
*D5
340
0
  0
BLOCK_RECORD
  5
4AC
330
1
100
AcDbSymbolTableRecord
100
AcDbBlockTableRecord
  2
*D6
340
0
  0
BLOCK_RECORD
  5
596
330
1
100
AcDbSymbolTableRecord
100
AcDbBlockTableRecord
  2
*D7
340
0
  0
BLOCK_RECORD
  5
6BF
330
1
100
AcDbSymbolTableRecord
100
AcDbBlockTableRecord
  2
*D8
340
0
  0
BLOCK_RECORD
  5
7AE
330
1
100
AcDbSymbolTableRecord
100
AcDbBlockTableRecord
  2
*D9
340
0
  0
BLOCK_RECORD
  5
8AB
330
1
100
AcDbSymbolTableRecord
100
AcDbBlockTableRecord
  2
*D10
340
0
  0
BLOCK_RECORD
  5
99E
330
1
100
AcDbSymbolTableRecord
100
AcDbBlockTableRecord
  2
*D11
340
0
  0
BLOCK_RECORD
  5
A8E
330
1
100
AcDbSymbolTableRecord
100
AcDbBlockTableRecord
  2
*D12
340
0
  0
BLOCK_RECORD
  5
B8E
330
1
100
AcDbSymbolTableRecord
100
AcDbBlockTableRecord
  2
*D13
340
0
  0
BLOCK_RECORD
  5
C78
330
1
100
AcDbSymbolTableRecord
100
AcDbBlockTableRecord
  2
*D14
340
0
  0
BLOCK_RECORD
  5
D64
330
1
100
AcDbSymbolTableRecord
100
AcDbBlockTableRecord
  2
*D15
340
0
  0
BLOCK_RECORD
  5
E62
330
1
100
AcDbSymbolTableRecord
100
AcDbBlockTableRecord
  2
*D16
340
0
  0
BLOCK_RECORD
  5
F21
330
1
100
AcDbSymbolTableRecord
100
AcDbBlockTableRecord
  2
*D17
340
0
  0
BLOCK_RECORD
  5
100B
330
1
100
AcDbSymbolTableRecord
100
AcDbBlockTableRecord
  2
*D18
340
0
  0
BLOCK_RECORD
  5
10F5
330
1
100
AcDbSymbolTableRecord
100
AcDbBlockTableRecord
  2
*D19
340
0
  0
BLOCK_RECORD
  5
11DF
330
1
100
AcDbSymbolTableRecord
100
AcDbBlockTableRecord
  2
*D20
340
0
  0
BLOCK_RECORD
  5
12DC
330
1
100
AcDbSymbolTableRecord
100
AcDbBlockTableRecord
  2
*D21
340
0
  0
BLOCK_RECORD
  5
13C6
330
1
100
AcDbSymbolTableRecord
100
AcDbBlockTableRecord
  2
*D22
340
0
  0
BLOCK_RECORD
  5
147F
330
1
100
AcDbSymbolTableRecord
100
AcDbBlockTableRecord
  2
*D23
340
0
  0
ENDTAB
  0
ENDSEC
  0
SECTION
  2
BLOCKS
  0
BLOCK
  5
6D
330
6C
100
AcDbEntity
  8
0
100
AcDbBlockBegin
  2
*Model_Space
 70
     0
 10
0.0
 20
0.0
 30
0.0
  3
*Model_Space
  1

  0
ENDBLK
  5
6E
330
6C
100
AcDbEntity
  8
0
100
AcDbBlockEnd
  0
BLOCK
  5
69
330
68
100
AcDbEntity
 67
     1
  8
0
100
AcDbBlockBegin
  2
*Paper_Space
 70
     0
 10
0.0
 20
0.0
 30
0.0
  3
*Paper_Space
  1

  0
ENDBLK
  5
6A
330
68
100
AcDbEntity
 67
     1
  8
0
100
AcDbBlockEnd
  0
BLOCK
  5
71
330
70
100
AcDbEntity
 67
     1
  8
0
100
AcDbBlockBegin
  2
*Paper_Space0
 70
     0
 10
0.0
 20
0.0
 30
0.0
  3
*Paper_Space0
  1

  0
ENDBLK
  5
72
330
70
100
AcDbEntity
 67
     1
  8
0
100
AcDbBlockEnd
  0
BLOCK
  5
EA
330
E5
100
AcDbEntity
  8
0
100
AcDbBlockBegin
  2
_Closed
 70
     0
 10
0.0
 20
0.0
 30
0.0
  3
_Closed
  1

  0
LINE
  5
E6
330
E5
100
AcDbEntity
  8
0
  6
ByBlock
 62
     0
370
    -2
100
AcDbLine
 10
-1.0
 20
0.1666666666666666
 30
0.0
 11
0.0
 21
0.0
 31
0.0
  0
LINE
  5
E7
330
E5
100
AcDbEntity
  8
0
  6
ByBlock
 62
     0
370
    -2
100
AcDbLine
 10
0.0
 20
0.0
 30
0.0
 11
-1.0
 21
-0.1666666666666666
 31
0.0
  0
LINE
  5
E8
330
E5
100
AcDbEntity
  8
0
  6
ByBlock
 62
     0
370
    -2
100
AcDbLine
 10
-1.0
 20
0.1666666666666666
 30
0.0
 11
-1.0
 21
-0.1666666666666666
 31
0.0
  0
LINE
  5
E9
330
E5
100
AcDbEntity
  8
0
  6
ByBlock
 62
     0
370
    -2
100
AcDbLine
 10
0.0
 20
0.0
 30
0.0
 11
-1.0
 21
0.0
 31
0.0
  0
ENDBLK
  5
EB
330
E5
100
AcDbEntity
  8
0
100
AcDbBlockEnd
  0
BLOCK
  5
ED
330
EC
100
AcDbEntity
  8
0
100
AcDbBlockBegin
  2
DatumFilled45
 70
     0
 10
0.0
 20
0.0
 30
0.0
  3
DatumFilled45
  1

  0
POLYLINE
  5
EF
330
EC
100
AcDbEntity
  8
0
 62
     0
100
AcDb2dPolyline
 66
     1
 10
0.0
 20
0.0
 30
0.0
 70
   128
  0
VERTEX
  5
F0
330
EF
100
AcDbEntity
  8
0
 62
     0
100
AcDbVertex
100
AcDb2dVertex
 10
0.0
 20
0.9999999999999998
 30
0.0
  0
VERTEX
  5
F1
330
EF
100
AcDbEntity
  8
0
 62
     0
100
AcDbVertex
100
AcDb2dVertex
 10
0.0
 20
-0.9999999999999998
 30
0.0
  0
VERTEX
  5
F3
330
EF
100
AcDbEntity
  8
0
 62
     0
100
AcDbVertex
100
AcDb2dVertex
 10
-0.9999999999999998
 20
0.0
 30
0.0
  0
VERTEX
  5
F4
330
EF
100
AcDbEntity
  8
0
 62
     0
100
AcDbVertex
100
AcDb2dVertex
 10
0.0
 20
0.9999999999999998
 30
0.0
  0
SEQEND
  5
F2
330
EF
100
AcDbEntity
  8
0
 62
     0
  0
SOLID
  5
F6
330
EC
100
AcDbEntity
  8
0
 62
     0
100
AcDbTrace
 10
0.0
 20
0.9999999999999998
 30
0.0
 11
0.0
 21
-0.9999999999999998
 31
0.0
 12
-0.9999999999999998
 22
0.0
 32
0.0
 13
0.0
 23
0.9999999999999998
 33
0.0
  0
ENDBLK
  5
EE
330
EC
100
AcDbEntity
  8
0
100
AcDbBlockEnd
  0
BLOCK
  5
F9
330
F8
100
AcDbEntity
  8
0
100
AcDbBlockBegin
  2
Filled-1
 70
     0
 10
0.0
 20
0.0
 30
0.0
  3
Filled-1
  1

  0
LINE
  5
FB
330
F8
100
AcDbEntity
  8
0
 62
     0
100
AcDbLine
 10
-0.9999999999999998
 20
0.0
 30
0.0
 11
0.0
 21
0.0
 31
0.0
  0
POLYLINE
  5
FC
330
F8
100
AcDbEntity
  8
0
 62
     0
100
AcDb2dPolyline
 66
     1
 10
0.0
 20
0.0
 30
0.0
 70
   128
  0
VERTEX
  5
FD
330
FC
100
AcDbEntity
  8
0
 62
     0
100
AcDbVertex
100
AcDb2dVertex
 10
-0.9999999999999998
 20
-0.0994897959183674
 30
0.0
  0
VERTEX
  5
FE
330
FC
100
AcDbEntity
  8
0
 62
     0
100
AcDbVertex
100
AcDb2dVertex
 10
0.0
 20
0.0
 30
0.0
  0
VERTEX
  5
100
330
FC
100
AcDbEntity
  8
0
 62
     0
100
AcDbVertex
100
AcDb2dVertex
 10
-0.9999999999999998
 20
0.0994897959183674
 30
0.0
  0
VERTEX
  5
101
330
FC
100
AcDbEntity
  8
0
 62
     0
100
AcDbVertex
100
AcDb2dVertex
 10
-0.9999999999999998
 20
-0.0994897959183674
 30
0.0
  0
SEQEND
  5
FF
330
FC
100
AcDbEntity
  8
0
 62
     0
  0
SOLID
  5
102
330
F8
100
AcDbEntity
  8
0
 62
     0
100
AcDbTrace
 10
-0.9999999999999998
 20
-0.0994897959183674
 30
0.0
 11
0.0
 21
0.0
 31
0.0
 12
-0.9999999999999998
 22
0.0994897959183674
 32
0.0
 13
-0.9999999999999998
 23
-0.0994897959183674
 33
0.0
  0
LINE
  5
103
330
F8
100
AcDbEntity
  8
0
 62
     0
100
AcDbLine
 10
-0.9999999999999998
 20
-0.0994897959183674
 30
0.0
 11
0.0
 21
0.0
 31
0.0
  0
LINE
  5
104
330
F8
100
AcDbEntity
  8
0
 62
     0
100
AcDbLine
 10
0.0
 20
0.0
 30
0.0
 11
-0.9999999999999998
 21
0.0994897959183674
 31
0.0
  0
LINE
  5
105
330
F8
100
AcDbEntity
  8
0
 62
     0
100
AcDbLine
 10
-0.9999999999999998
 20
0.0994897959183674
 30
0.0
 11
-0.9999999999999998
 21
-0.0994897959183674
 31
0.0
  0
ENDBLK
  5
FA
330
F8
100
AcDbEntity
  8
0
100
AcDbBlockEnd
  0
BLOCK
  5
2B0
330
2AF
100
AcDbEntity
  8
0
100
AcDbBlockBegin
  2
*D4
 70
     1
 10
0.0
 20
0.0
 30
0.0
  3
*D4
  1

  0
LINE
  5
3A3
330
2AF
100
AcDbEntity
  8
Dimension (ANSI)
440
 16777216
100
AcDbLine
 10
43.73630610280609
 20
51.71136713725621
 30
0.0
 11
38.49372407736627
 21
51.71136713725621
 31
0.0
  0
LINE
  5
3A4
330
2AF
100
AcDbEntity
  8
Dimension (ANSI)
440
 16777216
100
AcDbLine
 10
43.89255610280605
 20
33.71149327845446
 30
0.0
 11
38.49372407736627
 21
33.71149327845446
 31
0.0
  0
LINE
  5
3A5
330
2AF
100
AcDbEntity
  8
Dimension (ANSI)
440
 16777216
100
AcDbLine
 10
39.36872407736628
 20
51.0223907749086
 30
0.0
 11
39.36872407736627
 21
43.86523599604128
 31
0.0
  0
LINE
  5
3A6
330
2AF
100
AcDbEntity
  8
Dimension (ANSI)
440
 16777216
100
AcDbLine
 10
39.36872407736627
 20
34.40046964080206
 30
0.0
 11
39.36872407736627
 21
41.55762441966936
 31
0.0
  0
SOLID
  5
3A7
330
2AF
100
AcDbEntity
  8
Dimension (ANSI)
440
 16777216
100
AcDbTrace
 10
39.25389468364168
 20
51.0223907749086
 30
0.0
 11
39.48355347109087
 21
51.0223907749086
 31
0.0
 12
39.36872407736628
 22
51.71136713725621
 32
0.0
 13
39.36872407736628
 23
51.71136713725621
 33
0.0
  0
SOLID
  5
3A8
330
2AF
100
AcDbEntity
  8
Dimension (ANSI)
440
 16777216
100
AcDbTrace
 10
39.25389468364167
 20
34.40046964080206
 30
0.0
 11
39.48355347109087
 21
34.40046964080206
 31
0.0
 12
39.36872407736627
 22
33.71149327845446
 32
0.0
 13
39.36872407736627
 23
33.71149327845446
 33
0.0
  0
MTEXT
  5
3A9
330
2AF
100
AcDbEntity
  8
Dimension (ANSI)
440
 16777216
100
AcDbMText
 10
39.36872407736626
 20
42.71143020785532
 30
0.0
 40
0.7000000104308129
 41
0.0
 71
     5
 72
     1
  1
\A1;18.00{\PHEIGHT}
  7
ROMANS
 73
     1
 44
1.0
  0
POINT
  5
3AA
330
2AF
100
AcDbEntity
  8
Defpoints
 62
     0
440
 16777216
100
AcDbPoint
 10
44.17380610280608
 20
51.71136713725621
 30
0.0
  0
POINT
  5
3AB
330
2AF
100
AcDbEntity
  8
Defpoints
 62
     0
440
 16777216
100
AcDbPoint
 10
44.33005610280606
 20
33.71149327845446
 30
0.0
  0
POINT
  5
3AC
330
2AF
100
AcDbEntity
  8
Defpoints
 62
     0
440
 16777216
100
AcDbPoint
 10
39.36872407736627
 20
33.71149327845446
 30
0.0
  0
ENDBLK
  5
2B1
330
2AF
100
AcDbEntity
  8
0
100
AcDbBlockEnd
  0
BLOCK
  5
3AF
330
3AE
100
AcDbEntity
  8
0
100
AcDbBlockBegin
  2
*D5
 70
     1
 10
0.0
 20
0.0
 30
0.0
  3
*D5
  1

  0
LINE
  5
4A1
330
3AE
100
AcDbEntity
  8
Dimension (ANSI)
440
 16777216
100
AcDbLine
 10
43.95505610280609
 20
51.93011713725623
 30
0.0
 11
43.95505610280609
 21
55.71405014871626
 31
0.0
  0
LINE
  5
4A2
330
3AE
100
AcDbEntity
  8
Dimension (ANSI)
440
 16777216
100
AcDbLine
 10
60.08005610280612
 20
51.93011713725623
 30
0.0
 11
60.08005610280612
 21
55.71405014871626
 31
0.0
  0
LINE
  5
4A3
330
3AE
100
AcDbEntity
  8
Dimension (ANSI)
440
 16777216
100
AcDbLine
 10
44.64403246515369
 20
54.83905014871627
 30
0.0
 11
50.38041697408457
 21
54.83905014871627
 31
0.0
  0
LINE
  5
4A4
330
3AE
100
AcDbEntity
  8
Dimension (ANSI)
440
 16777216
100
AcDbLine
 10
59.39107974045852
 20
54.83905014871627
 30
0.0
 11
53.65469523152763
 21
54.83905014871627
 31
0.0
  0
SOLID
  5
4A5
330
3AE
100
AcDbEntity
  8
Dimension (ANSI)
440
 16777216
100
AcDbTrace
 10
44.64403246515369
 20
54.95387954244087
 30
0.0
 11
44.64403246515369
 21
54.72422075499167
 31
0.0
 12
43.95505610280609
 22
54.83905014871627
 32
0.0
 13
43.95505610280609
 23
54.83905014871627
 33
0.0
  0
SOLID
  5
4A6
330
3AE
100
AcDbEntity
  8
Dimension (ANSI)
440
 16777216
100
AcDbTrace
 10
59.39107974045852
 20
54.95387954244087
 30
0.0
 11
59.39107974045852
 21
54.72422075499167
 31
0.0
 12
60.08005610280612
 22
54.83905014871627
 32
0.0
 13
60.08005610280612
 23
54.83905014871627
 33
0.0
  0
MTEXT
  5
4A7
330
3AE
100
AcDbEntity
  8
Dimension (ANSI)
440
 16777216
100
AcDbMText
 10
52.0175561028061
 20
54.83905014871627
 30
0.0
 40
0.7000000104308129
 41
0.0
 71
     5
 72
     1
  1
\A1;16.13{\PWIDTH}
  7
ROMANS
 73
     1
 44
1.0
  0
POINT
  5
4A8
330
3AE
100
AcDbEntity
  8
Defpoints
 62
     0
440
 16777216
100
AcDbPoint
 10
43.95505610280609
 20
51.49261713725623
 30
0.0
  0
POINT
  5
4A9
330
3AE
100
AcDbEntity
  8
Defpoints
 62
     0
440
 16777216
100
AcDbPoint
 10
60.08005610280612
 20
51.49261713725623
 30
0.0
  0
POINT
  5
4AA
330
3AE
100
AcDbEntity
  8
Defpoints
 62
     0
440
 16777216
100
AcDbPoint
 10
60.08005610280612
 20
54.83905014871627
 30
0.0
  0
ENDBLK
  5
3B0
330
3AE
100
AcDbEntity
  8
0
100
AcDbBlockEnd
  0
BLOCK
  5
4AD
330
4AC
100
AcDbEntity
  8
0
100
AcDbBlockBegin
  2
*D6
 70
     1
 10
0.0
 20
0.0
 30
0.0
  3
*D6
  1

  0
LINE
  5
58B
330
4AC
100
AcDbEntity
  8
Dimension (ANSI)
440
 16777216
100
AcDbLine
 10
20.83215997303523
 20
51.93011713725622
 30
0.0
 11
20.83215997303523
 21
56.27574969184678
 31
0.0
  0
LINE
  5
58C
330
4AC
100
AcDbEntity
  8
Dimension (ANSI)
440
 16777216
100
AcDbLine
 10
28.83215997303524
 20
52.14886713725621
 30
0.0
 11
28.83215997303524
 21
56.27574969184678
 31
0.0
  0
LINE
  5
58D
330
4AC
100
AcDbEntity
  8
Dimension (ANSI)
440
 16777216
100
AcDbLine
 10
21.52113633538283
 20
55.40074969184678
 30
0.0
 11
23.54502084952911
 21
55.40074969184678
 31
0.0
  0
LINE
  5
58E
330
4AC
100
AcDbEntity
  8
Dimension (ANSI)
440
 16777216
100
AcDbLine
 10
28.14318361068763
 20
55.40074969184678
 30
0.0
 11
26.11929909654135
 21
55.40074969184678
 31
0.0
  0
SOLID
  5
58F
330
4AC
100
AcDbEntity
  8
Dimension (ANSI)
440
 16777216
100
AcDbTrace
 10
21.52113633538283
 20
55.51557908557138
 30
0.0
 11
21.52113633538283
 21
55.28592029812219
 31
0.0
 12
20.83215997303523
 22
55.40074969184678
 32
0.0
 13
20.83215997303523
 23
55.40074969184678
 33
0.0
  0
SOLID
  5
590
330
4AC
100
AcDbEntity
  8
Dimension (ANSI)
440
 16777216
100
AcDbTrace
 10
28.14318361068763
 20
55.51557908557138
 30
0.0
 11
28.14318361068763
 21
55.28592029812219
 31
0.0
 12
28.83215997303524
 22
55.40074969184678
 32
0.0
 13
28.83215997303524
 23
55.40074969184678
 33
0.0
  0
MTEXT
  5
591
330
4AC
100
AcDbEntity
  8
Dimension (ANSI)
440
 16777216
100
AcDbMText
 10
23.76549329047399
 20
55.75074969706219
 30
0.0
 40
0.7000000104308129
 41
0.0
 71
     1
 72
     1
  1
\A1;8.00
  7
ROMANS
 73
     1
 44
1.0
  0
POINT
  5
592
330
4AC
100
AcDbEntity
  8
Defpoints
 62
     0
440
 16777216
100
AcDbPoint
 10
20.83215997303523
 20
51.49261713725622
 30
0.0
  0
POINT
  5
593
330
4AC
100
AcDbEntity
  8
Defpoints
 62
     0
440
 16777216
100
AcDbPoint
 10
28.83215997303524
 20
51.71136713725621
 30
0.0
  0
POINT
  5
594
330
4AC
100
AcDbEntity
  8
Defpoints
 62
     0
440
 16777216
100
AcDbPoint
 10
28.83215997303524
 20
55.40074969184678
 30
0.0
  0
ENDBLK
  5
4AE
330
4AC
100
AcDbEntity
  8
0
100
AcDbBlockEnd
  0
BLOCK
  5
597
330
596
100
AcDbEntity
  8
0
100
AcDbBlockBegin
  2
*D7
 70
     1
 10
0.0
 20
0.0
 30
0.0
  3
*D7
  1

  0
LINE
  5
6B3
330
596
100
AcDbEntity
  8
Dimension (ANSI)
440
 16777216
100
AcDbLine
 10
29.7317645424552
 20
51.71136713725622
 30
0.0
 11
33.17458527088046
 21
51.71136713725624
 31
0.0
  0
LINE
  5
6B4
330
596
100
AcDbEntity
  8
Dimension (ANSI)
440
 16777216
100
AcDbLine
 10
28.95456610573523
 20
52.58088416079284
 30
0.0
 11
29.33938124782991
 21
56.00213128347913
 31
0.0
  0
ARC
  5
6B5
330
596
100
AcDbEntity
  8
Dimension (ANSI)
440
 16777216
100
AcDbCircle
 10
28.8567645424552
 20
51.71136713725622
 30
0.0
 40
3.44282072842526
100
AcDbArc
 50
11.48523568800195
 51
30.04759250071392
  0
ARC
  5
6B6
330
596
100
AcDbEntity
  8
Dimension (ANSI)
440
 16777216
100
AcDbCircle
 10
28.8567645424552
 20
51.71136713725622
 30
0.0
 40
3.44282072842526
100
AcDbArc
 50
56.31687228710239
 51
72.09722054816818
  0
SOLID
  5
6B7
330
596
100
AcDbEntity
  8
Dimension (ANSI)
440
 16777216
100
AcDbTrace
 10
32.34489950135702
 20
52.4083756293517
 30
0.0
 11
32.11639327524624
 21
52.38539600182543
 31
0.0
 12
32.29958527088046
 22
51.71136713725623
 32
0.0
 13
32.29958527088046
 23
51.71136713725623
 33
0.0
  0
SOLID
  5
6B8
330
596
100
AcDbEntity
  8
Dimension (ANSI)
440
 16777216
100
AcDbTrace
 10
29.89090895145795
 20
54.87523181945071
 30
0.0
 11
29.93928545827108
 21
55.09973765955558
 31
0.0
 12
29.24157968454988
 22
55.13261425994251
 32
0.0
 13
29.24157968454988
 23
55.13261425994251
 33
0.0
  0
MTEXT
  5
6B9
330
596
100
AcDbEntity
  8
Dimension (ANSI)
440
 16777216
100
AcDbMText
 10
30.72365604861561
 20
54.35572598757992
 30
0.0
 40
0.7000000104308129
 41
0.0
 71
     1
 72
     1
  1
\A1;84\U+00B0
  7
ROMANS
 73
     1
 44
1.0
  0
POINT
  5
6BA
330
596
100
AcDbEntity
  8
Defpoints
 62
     0
440
 16777216
100
AcDbPoint
 10
28.8567645424552
 20
51.71136713725622
 30
0.0
  0
POINT
  5
6BB
330
596
100
AcDbEntity
  8
Defpoints
 62
     0
440
 16777216
100
AcDbPoint
 10
29.2942645424552
 20
51.71136713725622
 30
0.0
  0
POINT
  5
6BC
330
596
100
AcDbEntity
  8
Defpoints
 62
     0
440
 16777216
100
AcDbPoint
 10
28.90566532409521
 20
52.14612564902452
 30
0.0
  0
POINT
  5
6BD
330
596
100
AcDbEntity
  8
Defpoints
 62
     0
440
 16777216
100
AcDbPoint
 10
31.90051212952459
 20
53.32028453547278
 30
0.0
  0
ENDBLK
  5
598
330
596
100
AcDbEntity
  8
0
100
AcDbBlockEnd
  0
BLOCK
  5
6C0
330
6BF
100
AcDbEntity
  8
0
100
AcDbBlockBegin
  2
*D8
 70
     1
 10
0.0
 20
0.0
 30
0.0
  3
*D8
  1

  0
LINE
  5
7A5
330
6BF
100
AcDbEntity
  8
Dimension (ANSI)
440
 16777216
100
AcDbLine
 10
58.14107974046355
 20
64.33257255464612
 30
0.0
 11
57.45210337811595
 21
64.33257255464612
 31
0.0
  0
LINE
  5
7A6
330
6BF
100
AcDbEntity
  8
Dimension (ANSI)
440
 16777216
100
AcDbLine
 10
60.76903246515875
 20
64.33257255464612
 30
0.0
 11
61.84075310058267
 21
64.33257255464612
 31
0.0
  0
SOLID
  5
7A7
330
6BF
100
AcDbEntity
  8
Dimension (ANSI)
440
 16777216
100
AcDbTrace
 10
58.14107974046355
 20
64.44740194837073
 30
0.0
 11
58.14107974046355
 21
64.21774316092151
 31
0.0
 12
58.83005610281116
 22
64.33257255464612
 32
0.0
 13
58.83005610281116
 23
64.33257255464612
 33
0.0
  0
SOLID
  5
7A8
330
6BF
100
AcDbEntity
  8
Dimension (ANSI)
440
 16777216
100
AcDbTrace
 10
60.76903246515875
 20
64.44740194837073
 30
0.0
 11
60.76903246515875
 21
64.21774316092151
 31
0.0
 12
60.08005610281115
 22
64.33257255464612
 32
0.0
 13
60.08005610281115
 23
64.33257255464612
 33
0.0
  0
MTEXT
  5
7A9
330
6BF
100
AcDbEntity
  8
Dimension (ANSI)
440
 16777216
100
AcDbMText
 10
63.87789223526466
 20
64.33257255464612
 30
0.0
 40
0.7000000104308129
 41
0.0
 71
     5
 72
     1
  1
\A1;1.25{\P(2 PL.)}
  7
ROMANS
 73
     1
 44
1.0
  0
POINT
  5
7AA
330
6BF
100
AcDbEntity
  8
Defpoints
 62
     0
440
 16777216
100
AcDbPoint
 10
58.83005610281116
 20
62.33353982550291
 30
0.0
  0
POINT
  5
7AB
330
6BF
100
AcDbEntity
  8
Defpoints
 62
     0
440
 16777216
100
AcDbPoint
 10
60.08005610281115
 20
62.31284149893472
 30
0.0
  0
POINT
  5
7AC
330
6BF
100
AcDbEntity
  8
Defpoints
 62
     0
440
 16777216
100
AcDbPoint
 10
60.08005610281115
 20
64.33257255464612
 30
0.0
  0
ENDBLK
  5
6C1
330
6BF
100
AcDbEntity
  8
0
100
AcDbBlockEnd
  0
BLOCK
  5
7AF
330
7AE
100
AcDbEntity
  8
0
100
AcDbBlockBegin
  2
*D9
 70
     1
 10
0.0
 20
0.0
 30
0.0
  3
*D9
  1

  0
LINE
  5
898
330
7AE
100
AcDbEntity
  8
Dimension (ANSI)
440
 16777216
100
AcDbLine
 10
59.6168152831964
 20
61.6800451309002
 30
0.0
 11
59.6168152831964
 21
62.3690214932478
 31
0.0
  0
LINE
  5
899
330
7AE
100
AcDbEntity
  8
Dimension (ANSI)
440
 16777216
100
AcDbLine
 10
59.6168152831964
 20
59.05209240620506
 30
0.0
 11
59.6168152831964
 21
57.85309516589041
 31
0.0
  0
LINE
  5
89A
330
7AE
100
AcDbEntity
  8
Dimension (ANSI)
440
 16777216
100
AcDbLine
 10
59.6168152831964
 20
57.85309516589041
 30
0.0
 11
58.9278389208488
 21
57.85309516589041
 31
0.0
  0
SOLID
  5
89B
330
7AE
100
AcDbEntity
  8
Dimension (ANSI)
440
 16777216
100
AcDbTrace
 10
59.50198588947181
 20
61.6800451309002
 30
0.0
 11
59.731644676921
 21
61.6800451309002
 31
0.0
 12
59.6168152831964
 22
60.9910687685526
 32
0.0
 13
59.6168152831964
 23
60.9910687685526
 33
0.0
  0
SOLID
  5
89C
330
7AE
100
AcDbEntity
  8
Dimension (ANSI)
440
 16777216
100
AcDbTrace
 10
59.50198588947181
 20
59.05209240620506
 30
0.0
 11
59.731644676921
 21
59.05209240620506
 31
0.0
 12
59.6168152831964
 22
59.74106876855266
 32
0.0
 13
59.6168152831964
 23
59.74106876855266
 33
0.0
  0
MTEXT
  5
89D
330
7AE
100
AcDbEntity
  8
Dimension (ANSI)
440
 16777216
100
AcDbMText
 10
56.67403311627154
 20
58.20309517110583
 30
0.0
 40
0.7000000104308129
 41
0.0
 71
     1
 72
     1
  1
\A1;1.25
  7
ROMANS
 73
     1
 44
1.0
  0
POINT
  5
89E
330
7AE
100
AcDbEntity
  8
Defpoints
 62
     0
440
 16777216
100
AcDbPoint
 10
48.0153450062784
 20
60.9910687685526
 30
0.0
  0
POINT
  5
89F
330
7AE
100
AcDbEntity
  8
Defpoints
 62
     0
440
 16777216
100
AcDbPoint
 10
48.66141683469522
 20
59.74106876855266
 30
0.0
  0
POINT
  5
8A0
330
7AE
100
AcDbEntity
  8
Defpoints
 62
     0
440
 16777216
100
AcDbPoint
 10
59.6168152831964
 20
59.74106876855266
 30
0.0
  0
ENDBLK
  5
7B0
330
7AE
100
AcDbEntity
  8
0
100
AcDbBlockEnd
  0
BLOCK
  5
8AC
330
8AB
100
AcDbEntity
  8
0
100
AcDbBlockBegin
  2
*D10
 70
     1
 10
0.0
 20
0.0
 30
0.0
  3
*D10
  1

  0
LINE
  5
993
330
8AB
100
AcDbEntity
  8
Dimension (ANSI)
440
 16777216
100
AcDbLine
 10
43.73630610280019
 20
24.34525590596683
 30
0.0
 11
40.93660137839076
 21
24.34525590596683
 31
0.0
  0
LINE
  5
994
330
8AB
100
AcDbEntity
  8
Dimension (ANSI)
440
 16777216
100
AcDbLine
 10
43.0488061028002
 20
22.34525590596689
 30
0.0
 11
40.93660137839076
 21
22.34525590596689
 31
0.0
  0
LINE
  5
995
330
8AB
100
AcDbEntity
  8
Dimension (ANSI)
440
 16777216
100
AcDbLine
 10
41.81160137839075
 20
25.03423226831444
 30
0.0
 11
41.81160137839075
 21
25.72320863066204
 31
0.0
  0
LINE
  5
996
330
8AB
100
AcDbEntity
  8
Dimension (ANSI)
440
 16777216
100
AcDbLine
 10
41.81160137839075
 20
21.65627954361929
 30
0.0
 11
41.81160137839075
 21
20.96730318127169
 31
0.0
  0
SOLID
  5
997
330
8AB
100
AcDbEntity
  8
Dimension (ANSI)
440
 16777216
100
AcDbTrace
 10
41.69677198466615
 20
25.03423226831444
 30
0.0
 11
41.92643077211535
 21
25.03423226831444
 31
0.0
 12
41.81160137839075
 22
24.34525590596683
 32
0.0
 13
41.81160137839075
 23
24.34525590596683
 33
0.0
  0
SOLID
  5
998
330
8AB
100
AcDbEntity
  8
Dimension (ANSI)
440
 16777216
100
AcDbTrace
 10
41.69677198466615
 20
21.65627954361929
 30
0.0
 11
41.92643077211535
 21
21.65627954361929
 31
0.0
 12
41.81160137839075
 22
22.34525590596689
 32
0.0
 13
41.81160137839075
 23
22.34525590596689
 33
0.0
  0
MTEXT
  5
999
330
8AB
100
AcDbEntity
  8
Dimension (ANSI)
440
 16777216
100
AcDbMText
 10
40.7449346958295
 20
23.69525591118227
 30
0.0
 40
0.7000000104308129
 41
0.0
 71
     1
 72
     1
  1
\A1;2.00
  7
ROMANS
 73
     1
 44
1.0
  0
POINT
  5
99A
330
8AB
100
AcDbEntity
  8
Defpoints
 62
     0
440
 16777216
100
AcDbPoint
 10
44.17380610280019
 20
24.34525590596683
 30
0.0
  0
POINT
  5
99B
330
8AB
100
AcDbEntity
  8
Defpoints
 62
     0
440
 16777216
100
AcDbPoint
 10
43.4863061028002
 20
22.34525590596689
 30
0.0
  0
POINT
  5
99C
330
8AB
100
AcDbEntity
  8
Defpoints
 62
     0
440
 16777216
100
AcDbPoint
 10
41.81160137839075
 20
22.34525590596689
 30
0.0
  0
ENDBLK
  5
8AD
330
8AB
100
AcDbEntity
  8
0
100
AcDbBlockEnd
  0
BLOCK
  5
99F
330
99E
100
AcDbEntity
  8
0
100
AcDbBlockBegin
  2
*D11
 70
     1
 10
0.0
 20
0.0
 30
0.0
  3
*D11
  1

  0
LINE
  5
A83
330
99E
100
AcDbEntity
  8
Dimension (ANSI)
440
 16777216
100
AcDbLine
 10
43.73630610280019
 20
24.34525590596683
 30
0.0
 11
38.00927734030079
 21
24.34525590596683
 31
0.0
  0
LINE
  5
A84
330
99E
100
AcDbEntity
  8
Dimension (ANSI)
440
 16777216
100
AcDbLine
 10
43.0488061028002
 20
17.34525590596689
 30
0.0
 11
38.00927734030079
 21
17.34525590596689
 31
0.0
  0
LINE
  5
A85
330
99E
100
AcDbEntity
  8
Dimension (ANSI)
440
 16777216
100
AcDbLine
 10
38.88427734030079
 20
23.65627954361923
 30
0.0
 11
38.88427734030079
 21
21.41572835212715
 31
0.0
  0
LINE
  5
A86
330
99E
100
AcDbEntity
  8
Dimension (ANSI)
440
 16777216
100
AcDbLine
 10
38.88427734030079
 20
18.0342322683145
 30
0.0
 11
38.88427734030079
 21
20.27478345980657
 31
0.0
  0
SOLID
  5
A87
330
99E
100
AcDbEntity
  8
Dimension (ANSI)
440
 16777216
100
AcDbTrace
 10
38.7694479465762
 20
23.65627954361923
 30
0.0
 11
38.99910673402539
 21
23.65627954361923
 31
0.0
 12
38.88427734030079
 22
24.34525590596683
 32
0.0
 13
38.88427734030079
 23
24.34525590596683
 33
0.0
  0
SOLID
  5
A88
330
99E
100
AcDbEntity
  8
Dimension (ANSI)
440
 16777216
100
AcDbTrace
 10
38.7694479465762
 20
18.0342322683145
 30
0.0
 11
38.99910673402539
 21
18.0342322683145
 31
0.0
 12
38.88427734030079
 22
17.34525590596689
 32
0.0
 13
38.88427734030079
 23
17.34525590596689
 33
0.0
  0
MTEXT
  5
A89
330
99E
100
AcDbEntity
  8
Dimension (ANSI)
440
 16777216
100
AcDbMText
 10
37.81761065773955
 20
21.19525591118227
 30
0.0
 40
0.7000000104308129
 41
0.0
 71
     1
 72
     1
  1
\A1;7.00
  7
ROMANS
 73
     1
 44
1.0
  0
POINT
  5
A8A
330
99E
100
AcDbEntity
  8
Defpoints
 62
     0
440
 16777216
100
AcDbPoint
 10
44.17380610280019
 20
24.34525590596683
 30
0.0
  0
POINT
  5
A8B
330
99E
100
AcDbEntity
  8
Defpoints
 62
     0
440
 16777216
100
AcDbPoint
 10
43.4863061028002
 20
17.34525590596689
 30
0.0
  0
POINT
  5
A8C
330
99E
100
AcDbEntity
  8
Defpoints
 62
     0
440
 16777216
100
AcDbPoint
 10
38.88427734030079
 20
17.34525590596689
 30
0.0
  0
ENDBLK
  5
9A0
330
99E
100
AcDbEntity
  8
0
100
AcDbBlockEnd
  0
BLOCK
  5
A8F
330
A8E
100
AcDbEntity
  8
0
100
AcDbBlockBegin
  2
*D12
 70
     1
 10
0.0
 20
0.0
 30
0.0
  3
*D12
  1

  0
LINE
  5
B82
330
A8E
100
AcDbEntity
  8
Dimension (ANSI)
440
 16777216
100
AcDbLine
 10
60.2988061028002
 20
24.34525590596683
 30
0.0
 11
62.69968314453269
 21
24.34525590596683
 31
0.0
  0
LINE
  5
B83
330
A8E
100
AcDbEntity
  8
Dimension (ANSI)
440
 16777216
100
AcDbLine
 10
59.42380610280021
 20
23.65775590596689
 30
0.0
 11
62.69968314453269
 21
23.65775590596689
 31
0.0
  0
LINE
  5
B84
330
A8E
100
AcDbEntity
  8
Dimension (ANSI)
440
 16777216
100
AcDbLine
 10
61.82468314453268
 20
22.96877954361929
 30
0.0
 11
61.82468314453268
 21
22.27980318127169
 31
0.0
  0
LINE
  5
B85
330
A8E
100
AcDbEntity
  8
Dimension (ANSI)
440
 16777216
100
AcDbLine
 10
61.82468314453268
 20
25.03423226831444
 30
0.0
 11
61.82468314453268
 21
25.94214544208655
 31
0.0
  0
LINE
  5
B86
330
A8E
100
AcDbEntity
  8
Dimension (ANSI)
440
 16777216
100
AcDbLine
 10
61.82468314453268
 20
25.94214544208655
 30
0.0
 11
62.51365950688029
 21
25.94214544208655
 31
0.0
  0
SOLID
  5
B87
330
A8E
100
AcDbEntity
  8
Dimension (ANSI)
440
 16777216
100
AcDbTrace
 10
61.70985375080809
 20
22.96877954361929
 30
0.0
 11
61.93951253825728
 21
22.96877954361929
 31
0.0
 12
61.82468314453268
 22
23.65775590596689
 32
0.0
 13
61.82468314453268
 23
23.65775590596689
 33
0.0
  0
SOLID
  5
B88
330
A8E
100
AcDbEntity
  8
Dimension (ANSI)
440
 16777216
100
AcDbTrace
 10
61.70985375080809
 20
25.03423226831444
 30
0.0
 11
61.93951253825728
 21
25.03423226831444
 31
0.0
 12
61.82468314453268
 22
24.34525590596683
 32
0.0
 13
61.82468314453268
 23
24.34525590596683
 33
0.0
  0
MTEXT
  5
B89
330
A8E
100
AcDbEntity
  8
Dimension (ANSI)
440
 16777216
100
AcDbMText
 10
62.73413194782516
 20
26.29214544730196
 30
0.0
 40
0.7000000104308129
 41
0.0
 71
     1
 72
     1
  1
\A1;0.69
  7
ROMANS
 73
     1
 44
1.0
  0
POINT
  5
B8A
330
A8E
100
AcDbEntity
  8
Defpoints
 62
     0
440
 16777216
100
AcDbPoint
 10
59.86130610280021
 20
24.34525590596683
 30
0.0
  0
POINT
  5
B8B
330
A8E
100
AcDbEntity
  8
Defpoints
 62
     0
440
 16777216
100
AcDbPoint
 10
58.98630610280021
 20
23.65775590596689
 30
0.0
  0
POINT
  5
B8C
330
A8E
100
AcDbEntity
  8
Defpoints
 62
     0
440
 16777216
100
AcDbPoint
 10
61.82468314453268
 20
23.65775590596689
 30
0.0
  0
ENDBLK
  5
A90
330
A8E
100
AcDbEntity
  8
0
100
AcDbBlockEnd
  0
BLOCK
  5
B8F
330
B8E
100
AcDbEntity
  8
0
100
AcDbBlockBegin
  2
*D13
 70
     1
 10
0.0
 20
0.0
 30
0.0
  3
*D13
  1

  0
LINE
  5
C6D
330
B8E
100
AcDbEntity
  8
Dimension (ANSI)
440
 16777216
100
AcDbLine
 10
60.0800561028002
 20
24.56400590596683
 30
0.0
 11
60.0800561028002
 21
28.68934950325341
 31
0.0
  0
LINE
  5
C6E
330
B8E
100
AcDbEntity
  8
Dimension (ANSI)
440
 16777216
100
AcDbLine
 10
57.83005610280021
 20
25.2515059059669
 30
0.0
 11
57.83005610280021
 21
28.68934950325341
 31
0.0
  0
LINE
  5
C6F
330
B8E
100
AcDbEntity
  8
Dimension (ANSI)
440
 16777216
100
AcDbLine
 10
58.51903246514781
 20
27.81434950325341
 30
0.0
 11
59.3910797404526
 21
27.81434950325341
 31
0.0
  0
LINE
  5
C70
330
B8E
100
AcDbEntity
  8
Dimension (ANSI)
440
 16777216
100
AcDbLine
 10
60.0800561028002
 20
27.81434950325341
 30
0.0
 11
60.7690324651478
 21
27.81434950325341
 31
0.0
  0
SOLID
  5
C71
330
B8E
100
AcDbEntity
  8
Dimension (ANSI)
440
 16777216
100
AcDbTrace
 10
58.51903246514781
 20
27.92917889697802
 30
0.0
 11
58.51903246514781
 21
27.69952010952881
 31
0.0
 12
57.83005610280021
 22
27.81434950325341
 32
0.0
 13
57.83005610280021
 23
27.81434950325341
 33
0.0
  0
SOLID
  5
C72
330
B8E
100
AcDbEntity
  8
Dimension (ANSI)
440
 16777216
100
AcDbTrace
 10
59.3910797404526
 20
27.92917889697802
 30
0.0
 11
59.3910797404526
 21
27.69952010952881
 31
0.0
 12
60.0800561028002
 22
27.81434950325341
 32
0.0
 13
60.0800561028002
 23
27.81434950325341
 33
0.0
  0
MTEXT
  5
C73
330
B8E
100
AcDbEntity
  8
Dimension (ANSI)
440
 16777216
100
AcDbMText
 10
60.98950490609269
 20
28.16434950846882
 30
0.0
 40
0.7000000104308129
 41
0.0
 71
     1
 72
     1
  1
\A1;2.25
  7
ROMANS
 73
     1
 44
1.0
  0
POINT
  5
C74
330
B8E
100
AcDbEntity
  8
Defpoints
 62
     0
440
 16777216
100
AcDbPoint
 10
60.0800561028002
 20
24.12650590596682
 30
0.0
  0
POINT
  5
C75
330
B8E
100
AcDbEntity
  8
Defpoints
 62
     0
440
 16777216
100
AcDbPoint
 10
57.83005610280021
 20
24.8140059059669
 30
0.0
  0
POINT
  5
C76
330
B8E
100
AcDbEntity
  8
Defpoints
 62
     0
440
 16777216
100
AcDbPoint
 10
57.83005610280021
 20
27.81434950325341
 30
0.0
  0
ENDBLK
  5
B90
330
B8E
100
AcDbEntity
  8
0
100
AcDbBlockEnd
  0
BLOCK
  5
C79
330
C78
100
AcDbEntity
  8
0
100
AcDbBlockBegin
  2
*D14
 70
     1
 10
0.0
 20
0.0
 30
0.0
  3
*D14
  1

  0
LINE
  5
D57
330
C78
100
AcDbEntity
  8
Dimension (ANSI)
440
 16777216
100
AcDbLine
 10
43.9550561028002
 20
24.56400590596683
 30
0.0
 11
43.9550561028002
 21
28.65707012288848
 31
0.0
  0
LINE
  5
D58
330
C78
100
AcDbEntity
  8
Dimension (ANSI)
440
 16777216
100
AcDbLine
 10
46.2050561028002
 20
25.2515059059669
 30
0.0
 11
46.2050561028002
 21
28.65707012288848
 31
0.0
  0
LINE
  5
D59
330
C78
100
AcDbEntity
  8
Dimension (ANSI)
440
 16777216
100
AcDbLine
 10
45.5160797404526
 20
27.78207012288847
 30
0.0
 11
44.6440324651478
 21
27.78207012288847
 31
0.0
  0
LINE
  5
D5A
330
C78
100
AcDbEntity
  8
Dimension (ANSI)
440
 16777216
100
AcDbLine
 10
43.9550561028002
 20
27.78207012288847
 30
0.0
 11
43.26607974045259
 21
27.78207012288847
 31
0.0
  0
SOLID
  5
D5B
330
C78
100
AcDbEntity
  8
Dimension (ANSI)
440
 16777216
100
AcDbTrace
 10
45.5160797404526
 20
27.89689951661308
 30
0.0
 11
45.5160797404526
 21
27.66724072916387
 31
0.0
 12
46.2050561028002
 22
27.78207012288847
 32
0.0
 13
46.2050561028002
 23
27.78207012288847
 33
0.0
  0
SOLID
  5
D5C
330
C78
100
AcDbEntity
  8
Dimension (ANSI)
440
 16777216
100
AcDbTrace
 10
44.6440324651478
 20
27.89689951661308
 30
0.0
 11
44.6440324651478
 21
27.66724072916387
 31
0.0
 12
43.9550561028002
 22
27.78207012288847
 32
0.0
 13
43.9550561028002
 23
27.78207012288847
 33
0.0
  0
MTEXT
  5
D5D
330
C78
100
AcDbEntity
  8
Dimension (ANSI)
440
 16777216
100
AcDbMText
 10
40.91227393438523
 20
28.13207012810388
 30
0.0
 40
0.7000000104308129
 41
0.0
 71
     1
 72
     1
  1
\A1;2.25
  7
ROMANS
 73
     1
 44
1.0
  0
POINT
  5
D5E
330
C78
100
AcDbEntity
  8
Defpoints
 62
     0
440
 16777216
100
AcDbPoint
 10
43.9550561028002
 20
24.12650590596683
 30
0.0
  0
POINT
  5
D5F
330
C78
100
AcDbEntity
  8
Defpoints
 62
     0
440
 16777216
100
AcDbPoint
 10
46.2050561028002
 20
24.8140059059669
 30
0.0
  0
POINT
  5
D60
330
C78
100
AcDbEntity
  8
Defpoints
 62
     0
440
 16777216
100
AcDbPoint
 10
46.2050561028002
 20
27.78207012288847
 30
0.0
  0
ENDBLK
  5
C7A
330
C78
100
AcDbEntity
  8
0
100
AcDbBlockEnd
  0
BLOCK
  5
D65
330
D64
100
AcDbEntity
  8
0
100
AcDbBlockBegin
  2
*D15
 70
     1
 10
0.0
 20
0.0
 30
0.0
  3
*D15
  1

  0
LINE
  5
E57
330
D64
100
AcDbEntity
  8
Dimension (ANSI)
440
 16777216
100
AcDbLine
 10
43.95505610280021
 20
15.90775590596683
 30
0.0
 11
43.95505610280021
 21
13.39420670557071
 31
0.0
  0
LINE
  5
E58
330
D64
100
AcDbEntity
  8
Dimension (ANSI)
440
 16777216
100
AcDbLine
 10
44.64255610280019
 20
15.75150590596689
 30
0.0
 11
44.64255610280019
 21
13.39420670557071
 31
0.0
  0
LINE
  5
E59
330
D64
100
AcDbEntity
  8
Dimension (ANSI)
440
 16777216
100
AcDbLine
 10
45.3315324651478
 20
14.26920670557072
 30
0.0
 11
46.0205088274954
 21
14.26920670557072
 31
0.0
  0
LINE
  5
E5A
330
D64
100
AcDbEntity
  8
Dimension (ANSI)
440
 16777216
100
AcDbLine
 10
43.2660797404526
 20
14.26920670557072
 30
0.0
 11
42.52084378831741
 21
14.26920670557072
 31
0.0
  0
SOLID
  5
E5B
330
D64
100
AcDbEntity
  8
Dimension (ANSI)
440
 16777216
100
AcDbTrace
 10
45.3315324651478
 20
14.38403609929532
 30
0.0
 11
45.3315324651478
 21
14.15437731184612
 31
0.0
 12
44.64255610280019
 22
14.26920670557072
 32
0.0
 13
44.64255610280019
 23
14.26920670557072
 33
0.0
  0
SOLID
  5
E5C
330
D64
100
AcDbEntity
  8
Dimension (ANSI)
440
 16777216
100
AcDbTrace
 10
43.2660797404526
 20
14.38403609929532
 30
0.0
 11
43.2660797404526
 21
14.15437731184612
 31
0.0
 12
43.95505610280021
 22
14.26920670557072
 32
0.0
 13
43.95505610280021
 23
14.26920670557072
 33
0.0
  0
MTEXT
  5
E5D
330
D64
100
AcDbEntity
  8
Dimension (ANSI)
440
 16777216
100
AcDbMText
 10
40.48370465363542
 20
14.26920670557072
 30
0.0
 40
0.7000000104308129
 41
0.0
 71
     5
 72
     1
  1
\A1;0.69{\P(2 PL.)}
  7
ROMANS
 73
     1
 44
1.0
  0
POINT
  5
E5E
330
D64
100
AcDbEntity
  8
Defpoints
 62
     0
440
 16777216
100
AcDbPoint
 10
43.95505610280021
 20
16.34525590596683
 30
0.0
  0
POINT
  5
E5F
330
D64
100
AcDbEntity
  8
Defpoints
 62
     0
440
 16777216
100
AcDbPoint
 10
44.64255610280019
 20
16.18900590596689
 30
0.0
  0
POINT
  5
E60
330
D64
100
AcDbEntity
  8
Defpoints
 62
     0
440
 16777216
100
AcDbPoint
 10
44.64255610280019
 20
14.26920670557072
 30
0.0
  0
ENDBLK
  5
D66
330
D64
100
AcDbEntity
  8
0
100
AcDbBlockEnd
  0
BLOCK
  5
E63
330
E62
100
AcDbEntity
  8
0
100
AcDbBlockBegin
  2
*D16
 70
     1
 10
0.0
 20
0.0
 30
0.0
  3
*D16
  1

  0
LINE
  5
F13
330
E62
100
AcDbEntity
  8
Dimension (ANSI)
440
 16777216
100
AcDbLine
 10
63.19956501754081
 20
20.04424127676696
 30
0.0
 11
61.50724684827665
 21
20.04424127676696
 31
0.0
  0
LINE
  5
F14
330
E62
100
AcDbEntity
  8
Dimension (ANSI)
440
 16777216
100
AcDbLine
 10
61.50724684827665
 20
20.04424127676696
 30
0.0
 11
59.99094294927599
 21
18.10897861491239
 31
0.0
  0
MTEXT
  5
F15
102
{ACAD_XDICTIONARY
360
15B2
102
}
330
E62
100
AcDbEntity
  8
Dimension (ANSI)
440
 16777216
100
AcDbMText
 10
65.2367041522228
 20
20.04424127676696
 30
0.0
 40
0.7000000104308129
 41
0.0
 71
     5
 72
     1
  1
\A1;\U+22050.563{\P(6 PL.)}
  7
ROMANS
 73
     1
 44
1.0
  0
SOLID
  5
F16
330
E62
100
AcDbEntity
  8
Dimension (ANSI)
440
 16777216
100
AcDbTrace
 10
59.90055392353387
 20
18.17979961242407
 30
0.0
 11
60.08133197501812
 21
18.03815761740072
 31
0.0
 12
59.56601696420591
 22
17.56664446045967
 32
0.0
 13
59.56601696420591
 23
17.56664446045967
 33
0.0
  0
LINE
  5
F17
330
E62
100
AcDbEntity
  8
Dimension (ANSI)
440
 16777216
100
AcDbLine
 10
58.76255610280024
 20
17.34525590596689
 30
0.0
 11
60.02255610280024
 21
17.34525590596688
 31
0.0
  0
LINE
  5
F18
330
E62
100
AcDbEntity
  8
Dimension (ANSI)
440
 16777216
100
AcDbLine
 10
59.39255610280024
 20
16.71525590596688
 30
0.0
 11
59.39255610280024
 21
17.97525590596689
 31
0.0
  0
POINT
  5
F19
330
E62
100
AcDbEntity
  8
Defpoints
 62
     0
440
 16777216
100
AcDbPoint
 10
59.56601696420591
 20
17.56664446045967
 30
0.0
  0
POINT
  5
F1A
330
E62
100
AcDbEntity
  8
Defpoints
 62
     0
440
 16777216
100
AcDbPoint
 10
59.21909524139457
 20
17.1238673514741
 30
0.0
  0
ENDBLK
  5
E64
330
E62
100
AcDbEntity
  8
0
100
AcDbBlockEnd
  0
BLOCK
  5
F22
330
F21
100
AcDbEntity
  8
0
100
AcDbBlockBegin
  2
*D17
 70
     1
 10
0.0
 20
0.0
 30
0.0
  3
*D17
  1

  0
LINE
  5
1000
330
F21
100
AcDbEntity
  8
Dimension (ANSI)
440
 16777216
100
AcDbLine
 10
43.95505610281114
 20
68.17856876855788
 30
0.0
 11
43.95505610281114
 21
70.4849290411127
 31
0.0
  0
LINE
  5
1001
330
F21
100
AcDbEntity
  8
Dimension (ANSI)
440
 16777216
100
AcDbLine
 10
46.0800561028111
 20
68.0848187685526
 30
0.0
 11
46.0800561028111
 21
70.4849290411127
 31
0.0
  0
LINE
  5
1002
330
F21
100
AcDbEntity
  8
Dimension (ANSI)
440
 16777216
100
AcDbLine
 10
45.3910797404635
 20
69.60992904111271
 30
0.0
 11
44.64403246515874
 21
69.60992904111271
 31
0.0
  0
LINE
  5
1003
330
F21
100
AcDbEntity
  8
Dimension (ANSI)
440
 16777216
100
AcDbLine
 10
43.95505610281114
 20
69.60992904111271
 30
0.0
 11
42.78730735300745
 21
69.60992904111271
 31
0.0
  0
SOLID
  5
1004
330
F21
100
AcDbEntity
  8
Dimension (ANSI)
440
 16777216
100
AcDbTrace
 10
45.3910797404635
 20
69.72475843483731
 30
0.0
 11
45.3910797404635
 21
69.4950996473881
 31
0.0
 12
46.0800561028111
 22
69.60992904111271
 32
0.0
 13
46.0800561028111
 23
69.60992904111271
 33
0.0
  0
SOLID
  5
1005
330
F21
100
AcDbEntity
  8
Dimension (ANSI)
440
 16777216
100
AcDbTrace
 10
44.64403246515874
 20
69.72475843483731
 30
0.0
 11
44.64403246515874
 21
69.4950996473881
 31
0.0
 12
43.95505610281114
 22
69.60992904111271
 32
0.0
 13
43.95505610281114
 23
69.60992904111271
 33
0.0
  0
MTEXT
  5
1006
330
F21
100
AcDbEntity
  8
Dimension (ANSI)
440
 16777216
100
AcDbMText
 10
40.43350154694009
 20
69.95992904632811
 30
0.0
 40
0.7000000104308129
 41
0.0
 71
     1
 72
     1
  1
\A1;2.13
  7
ROMANS
 73
     1
 44
1.0
  0
POINT
  5
1007
330
F21
100
AcDbEntity
  8
Defpoints
 62
     0
440
 16777216
100
AcDbPoint
 10
43.95505610281114
 20
67.74106876855788
 30
0.0
  0
POINT
  5
1008
330
F21
100
AcDbEntity
  8
Defpoints
 62
     0
440
 16777216
100
AcDbPoint
 10
46.0800561028111
 20
67.64731876855261
 30
0.0
  0
POINT
  5
1009
330
F21
100
AcDbEntity
  8
Defpoints
 62
     0
440
 16777216
100
AcDbPoint
 10
46.0800561028111
 20
69.60992904111271
 30
0.0
  0
ENDBLK
  5
F23
330
F21
100
AcDbEntity
  8
0
100
AcDbBlockEnd
  0
BLOCK
  5
100C
330
100B
100
AcDbEntity
  8
0
100
AcDbBlockBegin
  2
*D18
 70
     1
 10
0.0
 20
0.0
 30
0.0
  3
*D18
  1

  0
LINE
  5
10EA
330
100B
100
AcDbEntity
  8
Dimension (ANSI)
440
 16777216
100
AcDbLine
 10
43.95505610281114
 20
68.17856876855788
 30
0.0
 11
43.95505610281114
 21
71.95332783963599
 31
0.0
  0
LINE
  5
10EB
330
100B
100
AcDbEntity
  8
Dimension (ANSI)
440
 16777216
100
AcDbLine
 10
52.01755610281111
 20
65.08481876855265
 30
0.0
 11
52.01755610281111
 21
71.95332783963599
 31
0.0
  0
LINE
  5
10EC
330
100B
100
AcDbEntity
  8
Dimension (ANSI)
440
 16777216
100
AcDbLine
 10
44.64403246515874
 20
71.07832783963599
 30
0.0
 11
46.41975020811916
 21
71.07832783963599
 31
0.0
  0
LINE
  5
10ED
330
100B
100
AcDbEntity
  8
Dimension (ANSI)
440
 16777216
100
AcDbLine
 10
51.3285797404635
 20
71.07832783963599
 30
0.0
 11
48.9940284551314
 21
71.07832783963599
 31
0.0
  0
SOLID
  5
10EE
330
100B
100
AcDbEntity
  8
Dimension (ANSI)
440
 16777216
100
AcDbTrace
 10
44.64403246515874
 20
71.19315723336059
 30
0.0
 11
44.64403246515874
 21
70.96349844591138
 31
0.0
 12
43.95505610281114
 22
71.07832783963599
 32
0.0
 13
43.95505610281114
 23
71.07832783963599
 33
0.0
  0
SOLID
  5
10EF
330
100B
100
AcDbEntity
  8
Dimension (ANSI)
440
 16777216
100
AcDbTrace
 10
51.3285797404635
 20
71.19315723336059
 30
0.0
 11
51.3285797404635
 21
70.96349844591138
 31
0.0
 12
52.01755610281111
 22
71.07832783963599
 32
0.0
 13
52.01755610281111
 23
71.07832783963599
 33
0.0
  0
MTEXT
  5
10F0
330
100B
100
AcDbEntity
  8
Dimension (ANSI)
440
 16777216
100
AcDbMText
 10
46.64022264906404
 20
71.4283278448514
 30
0.0
 40
0.7000000104308129
 41
0.0
 71
     1
 72
     1
  1
\A1;8.06
  7
ROMANS
 73
     1
 44
1.0
  0
POINT
  5
10F1
330
100B
100
AcDbEntity
  8
Defpoints
 62
     0
440
 16777216
100
AcDbPoint
 10
43.95505610281114
 20
67.74106876855788
 30
0.0
  0
POINT
  5
10F2
330
100B
100
AcDbEntity
  8
Defpoints
 62
     0
440
 16777216
100
AcDbPoint
 10
52.01755610281111
 20
64.64731876855265
 30
0.0
  0
POINT
  5
10F3
330
100B
100
AcDbEntity
  8
Defpoints
 62
     0
440
 16777216
100
AcDbPoint
 10
52.01755610281111
 20
71.07832783963599
 30
0.0
  0
ENDBLK
  5
100D
330
100B
100
AcDbEntity
  8
0
100
AcDbBlockEnd
  0
BLOCK
  5
10F6
330
10F5
100
AcDbEntity
  8
0
100
AcDbBlockBegin
  2
*D19
 70
     1
 10
0.0
 20
0.0
 30
0.0
  3
*D19
  1

  0
LINE
  5
11D4
330
10F5
100
AcDbEntity
  8
Dimension (ANSI)
440
 16777216
100
AcDbLine
 10
60.08005610281117
 20
68.17856876855788
 30
0.0
 11
60.08005610281117
 21
70.42353231284526
 31
0.0
  0
LINE
  5
11D5
330
10F5
100
AcDbEntity
  8
Dimension (ANSI)
440
 16777216
100
AcDbLine
 10
57.9550561028111
 20
68.0848187685526
 30
0.0
 11
57.9550561028111
 21
70.42353231284526
 31
0.0
  0
LINE
  5
11D6
330
10F5
100
AcDbEntity
  8
Dimension (ANSI)
440
 16777216
100
AcDbLine
 10
58.6440324651587
 20
69.54853231284527
 30
0.0
 11
59.39107974046358
 21
69.54853231284527
 31
0.0
  0
LINE
  5
11D7
330
10F5
100
AcDbEntity
  8
Dimension (ANSI)
440
 16777216
100
AcDbLine
 10
60.08005610281117
 20
69.54853231284527
 30
0.0
 11
61.24780485261485
 21
69.54853231284527
 31
0.0
  0
SOLID
  5
11D8
330
10F5
100
AcDbEntity
  8
Dimension (ANSI)
440
 16777216
100
AcDbTrace
 10
58.6440324651587
 20
69.66336170656987
 30
0.0
 11
58.6440324651587
 21
69.43370291912066
 31
0.0
 12
57.9550561028111
 22
69.54853231284527
 32
0.0
 13
57.9550561028111
 23
69.54853231284527
 33
0.0
  0
SOLID
  5
11D9
330
10F5
100
AcDbEntity
  8
Dimension (ANSI)
440
 16777216
100
AcDbTrace
 10
59.39107974046358
 20
69.66336170656987
 30
0.0
 11
59.39107974046358
 21
69.43370291912066
 31
0.0
 12
60.08005610281117
 22
69.54853231284527
 32
0.0
 13
60.08005610281117
 23
69.54853231284527
 33
0.0
  0
MTEXT
  5
11DA
330
10F5
100
AcDbEntity
  8
Dimension (ANSI)
440
 16777216
100
AcDbMText
 10
61.46827729355973
 20
69.89853231806067
 30
0.0
 40
0.7000000104308129
 41
0.0
 71
     1
 72
     1
  1
\A1;2.13
  7
ROMANS
 73
     1
 44
1.0
  0
POINT
  5
11DB
330
10F5
100
AcDbEntity
  8
Defpoints
 62
     0
440
 16777216
100
AcDbPoint
 10
60.08005610281117
 20
67.74106876855788
 30
0.0
  0
POINT
  5
11DC
330
10F5
100
AcDbEntity
  8
Defpoints
 62
     0
440
 16777216
100
AcDbPoint
 10
57.9550561028111
 20
67.64731876855261
 30
0.0
  0
POINT
  5
11DD
330
10F5
100
AcDbEntity
  8
Defpoints
 62
     0
440
 16777216
100
AcDbPoint
 10
57.9550561028111
 20
69.54853231284527
 30
0.0
  0
ENDBLK
  5
10F7
330
10F5
100
AcDbEntity
  8
0
100
AcDbBlockEnd
  0
BLOCK
  5
11E0
330
11DF
100
AcDbEntity
  8
0
100
AcDbBlockBegin
  2
*D20
 70
     1
 10
0.0
 20
0.0
 30
0.0
  3
*D20
  1

  0
LINE
  5
12D0
330
11DF
100
AcDbEntity
  8
Dimension (ANSI)
440
 16777216
100
AcDbLine
 10
43.51755610281114
 20
67.74106876855788
 30
0.0
 11
35.52100050414935
 21
67.74106876855788
 31
0.0
  0
LINE
  5
12D1
330
11DF
100
AcDbEntity
  8
Dimension (ANSI)
440
 16777216
100
AcDbLine
 10
44.48630610281109
 20
66.4910687685526
 30
0.0
 11
35.52100050414935
 21
66.4910687685526
 31
0.0
  0
LINE
  5
12D2
330
11DF
100
AcDbEntity
  8
Dimension (ANSI)
440
 16777216
100
AcDbLine
 10
36.39600050414935
 20
65.80209240620499
 30
0.0
 11
36.39600050414935
 21
65.11311604385738
 31
0.0
  0
LINE
  5
12D3
330
11DF
100
AcDbEntity
  8
Dimension (ANSI)
440
 16777216
100
AcDbLine
 10
36.39600050414935
 20
68.43004513090548
 30
0.0
 11
36.39600050414935
 21
69.62904237122012
 31
0.0
  0
LINE
  5
12D4
330
11DF
100
AcDbEntity
  8
Dimension (ANSI)
440
 16777216
100
AcDbLine
 10
36.39600050414935
 20
69.62904237122012
 30
0.0
 11
37.08497686649695
 21
69.62904237122012
 31
0.0
  0
SOLID
  5
12D5
330
11DF
100
AcDbEntity
  8
Dimension (ANSI)
440
 16777216
100
AcDbTrace
 10
36.28117111042475
 20
65.80209240620499
 30
0.0
 11
36.51082989787395
 21
65.80209240620499
 31
0.0
 12
36.39600050414935
 22
66.4910687685526
 32
0.0
 13
36.39600050414935
 23
66.4910687685526
 33
0.0
  0
SOLID
  5
12D6
330
11DF
100
AcDbEntity
  8
Dimension (ANSI)
440
 16777216
100
AcDbTrace
 10
36.28117111042475
 20
68.43004513090548
 30
0.0
 11
36.51082989787395
 21
68.43004513090548
 31
0.0
 12
36.39600050414935
 22
67.74106876855788
 32
0.0
 13
36.39600050414935
 23
67.74106876855788
 33
0.0
  0
MTEXT
  5
12D7
330
11DF
100
AcDbEntity
  8
Dimension (ANSI)
440
 16777216
100
AcDbMText
 10
37.30544930744183
 20
69.97904237643554
 30
0.0
 40
0.7000000104308129
 41
0.0
 71
     1
 72
     1
  1
\A1;1.25
  7
ROMANS
 73
     1
 44
1.0
  0
POINT
  5
12D8
330
11DF
100
AcDbEntity
  8
Defpoints
 62
     0
440
 16777216
100
AcDbPoint
 10
43.95505610281114
 20
67.74106876855788
 30
0.0
  0
POINT
  5
12D9
330
11DF
100
AcDbEntity
  8
Defpoints
 62
     0
440
 16777216
100
AcDbPoint
 10
44.92380610281109
 20
66.4910687685526
 30
0.0
  0
POINT
  5
12DA
330
11DF
100
AcDbEntity
  8
Defpoints
 62
     0
440
 16777216
100
AcDbPoint
 10
36.39600050414935
 20
66.4910687685526
 30
0.0
  0
ENDBLK
  5
11E1
330
11DF
100
AcDbEntity
  8
0
100
AcDbBlockEnd
  0
BLOCK
  5
12DD
330
12DC
100
AcDbEntity
  8
0
100
AcDbBlockBegin
  2
*D21
 70
     1
 10
0.0
 20
0.0
 30
0.0
  3
*D21
  1

  0
LINE
  5
13BB
330
12DC
100
AcDbEntity
  8
Dimension (ANSI)
440
 16777216
100
AcDbLine
 10
43.51755610281114
 20
67.74106876855788
 30
0.0
 11
34.54709458656285
 21
67.74106876855788
 31
0.0
  0
LINE
  5
13BC
330
12DC
100
AcDbEntity
  8
Dimension (ANSI)
440
 16777216
100
AcDbLine
 10
50.4238061028111
 20
63.49106876855264
 30
0.0
 11
34.54709458656285
 21
63.49106876855265
 31
0.0
  0
LINE
  5
13BD
330
12DC
100
AcDbEntity
  8
Dimension (ANSI)
440
 16777216
100
AcDbLine
 10
35.42209458656285
 20
67.05209240621027
 30
0.0
 11
35.42209458656285
 21
66.18654121471554
 31
0.0
  0
LINE
  5
13BE
330
12DC
100
AcDbEntity
  8
Dimension (ANSI)
440
 16777216
100
AcDbLine
 10
35.42209458656285
 20
64.18004513090024
 30
0.0
 11
35.42209458656285
 21
65.04559632239495
 31
0.0
  0
SOLID
  5
13BF
330
12DC
100
AcDbEntity
  8
Dimension (ANSI)
440
 16777216
100
AcDbTrace
 10
35.30726519283825
 20
67.05209240621027
 30
0.0
 11
35.53692398028745
 21
67.05209240621027
 31
0.0
 12
35.42209458656285
 22
67.74106876855788
 32
0.0
 13
35.42209458656285
 23
67.74106876855788
 33
0.0
  0
SOLID
  5
13C0
330
12DC
100
AcDbEntity
  8
Dimension (ANSI)
440
 16777216
100
AcDbTrace
 10
35.30726519283825
 20
64.18004513090024
 30
0.0
 11
35.53692398028745
 21
64.18004513090024
 31
0.0
 12
35.42209458656285
 22
63.49106876855265
 32
0.0
 13
35.42209458656285
 23
63.49106876855265
 33
0.0
  0
MTEXT
  5
13C1
330
12DC
100
AcDbEntity
  8
Dimension (ANSI)
440
 16777216
100
AcDbMText
 10
34.3554279040016
 20
65.96606877377067
 30
0.0
 40
0.7000000104308129
 41
0.0
 71
     1
 72
     1
  1
\A1;4.25
  7
ROMANS
 73
     1
 44
1.0
  0
POINT
  5
13C2
330
12DC
100
AcDbEntity
  8
Defpoints
 62
     0
440
 16777216
100
AcDbPoint
 10
43.95505610281114
 20
67.74106876855788
 30
0.0
  0
POINT
  5
13C3
330
12DC
100
AcDbEntity
  8
Defpoints
 62
     0
440
 16777216
100
AcDbPoint
 10
50.8613061028111
 20
63.49106876855264
 30
0.0
  0
POINT
  5
13C4
330
12DC
100
AcDbEntity
  8
Defpoints
 62
     0
440
 16777216
100
AcDbPoint
 10
35.42209458656285
 20
63.49106876855265
 30
0.0
  0
ENDBLK
  5
12DE
330
12DC
100
AcDbEntity
  8
0
100
AcDbBlockEnd
  0
BLOCK
  5
13C7
330
13C6
100
AcDbEntity
  8
0
100
AcDbBlockBegin
  2
*D22
 70
     1
 10
0.0
 20
0.0
 30
0.0
  3
*D22
  1

  0
LINE
  5
1476
330
13C6
100
AcDbEntity
  8
Dimension (ANSI)
440
 16777216
100
AcDbLine
 10
42.28224631175518
 20
58.44480774246336
 30
0.0
 11
43.27717561736692
 21
58.44480774246337
 31
0.0
  0
LINE
  5
1477
330
13C6
100
AcDbEntity
  8
Dimension (ANSI)
440
 16777216
100
AcDbLine
 10
43.27717561736692
 20
58.44480774246337
 30
0.0
 11
51.17731542559659
 21
63.00595558737889
 31
0.0
  0
MTEXT
  5
1478
102
{ACAD_XDICTIONARY
360
15B4
102
}
330
13C6
100
AcDbEntity
  8
Dimension (ANSI)
440
 16777216
100
AcDbMText
 10
40.24510717707319
 20
58.44480774246337
 30
0.0
 40
0.7000000104308129
 41
0.0
 71
     5
 72
     1
  1
\A1;\U+22050.563{\P(3 PL.)}
  7
ROMANS
 73
     1
 44
1.0
  0
SOLID
  5
1479
330
13C6
100
AcDbEntity
  8
Dimension (ANSI)
440
 16777216
100
AcDbTrace
 10
51.1199007287343
 20
63.10540075944557
 30
0.0
 11
51.23473012245887
 21
62.90651041531221
 31
0.0
 12
51.77398645799666
 22
63.35044376855261
 32
0.0
 13
51.77398645799666
 23
63.35044376855261
 33
0.0
  0
LINE
  5
147A
330
13C6
100
AcDbEntity
  8
Dimension (ANSI)
440
 16777216
100
AcDbLine
 10
51.38755610281105
 20
63.49106876855258
 30
0.0
 11
52.64755610281106
 21
63.49106876855257
 31
0.0
  0
LINE
  5
147B
330
13C6
100
AcDbEntity
  8
Dimension (ANSI)
440
 16777216
100
AcDbLine
 10
52.01755610281106
 20
62.86106876855257
 30
0.0
 11
52.01755610281105
 21
64.12106876855256
 31
0.0
  0
POINT
  5
147C
330
13C6
100
AcDbEntity
  8
Defpoints
 62
     0
440
 16777216
100
AcDbPoint
 10
51.77398645799666
 20
63.35044376855261
 30
0.0
  0
POINT
  5
147D
330
13C6
100
AcDbEntity
  8
Defpoints
 62
     0
440
 16777216
100
AcDbPoint
 10
52.26112574762547
 20
63.63169376855255
 30
0.0
  0
ENDBLK
  5
13C8
330
13C6
100
AcDbEntity
  8
0
100
AcDbBlockEnd
  0
BLOCK
  5
1480
330
147F
100
AcDbEntity
  8
0
100
AcDbBlockBegin
  2
*D23
 70
     1
 10
0.0
 20
0.0
 30
0.0
  3
*D23
  1

  0
LINE
  5
155E
330
147F
100
AcDbEntity
  8
Dimension (ANSI)
440
 16777216
100
AcDbLine
 10
20.83215997303523
 20
33.49261713725623
 30
0.0
 11
20.83215997303523
 21
30.47428855404499
 31
0.0
  0
LINE
  5
155F
330
147F
100
AcDbEntity
  8
Dimension (ANSI)
440
 16777216
100
AcDbLine
 10
28.58215997303528
 20
33.27399327845444
 30
0.0
 11
28.58215997303528
 21
30.47428855404499
 31
0.0
  0
LINE
  5
1560
330
147F
100
AcDbEntity
  8
Dimension (ANSI)
440
 16777216
100
AcDbLine
 10
21.52113633538283
 20
31.34928855404499
 30
0.0
 11
23.42002084952913
 21
31.34928855404499
 31
0.0
  0
LINE
  5
1561
330
147F
100
AcDbEntity
  8
Dimension (ANSI)
440
 16777216
100
AcDbLine
 10
27.89318361068767
 20
31.34928855404499
 30
0.0
 11
25.99429909654137
 21
31.34928855404499
 31
0.0
  0
SOLID
  5
1562
330
147F
100
AcDbEntity
  8
Dimension (ANSI)
440
 16777216
100
AcDbTrace
 10
21.52113633538283
 20
31.46411794776959
 30
0.0
 11
21.52113633538283
 21
31.23445916032039
 31
0.0
 12
20.83215997303523
 22
31.34928855404499
 32
0.0
 13
20.83215997303523
 23
31.34928855404499
 33
0.0
  0
SOLID
  5
1563
330
147F
100
AcDbEntity
  8
Dimension (ANSI)
440
 16777216
100
AcDbTrace
 10
27.89318361068767
 20
31.46411794776959
 30
0.0
 11
27.89318361068767
 21
31.23445916032039
 31
0.0
 12
28.58215997303528
 22
31.34928855404499
 32
0.0
 13
28.58215997303528
 23
31.34928855404499
 33
0.0
  0
MTEXT
  5
1564
330
147F
100
AcDbEntity
  8
Dimension (ANSI)
440
 16777216
100
AcDbMText
 10
23.64049329047401
 20
31.6992885592604
 30
0.0
 40
0.7000000104308129
 41
0.0
 71
     1
 72
     1
  1
\A1;7.75
  7
ROMANS
 73
     1
 44
1.0
  0
POINT
  5
1565
330
147F
100
AcDbEntity
  8
Defpoints
 62
     0
440
 16777216
100
AcDbPoint
 10
20.83215997303523
 20
33.93011713725623
 30
0.0
  0
POINT
  5
1566
330
147F
100
AcDbEntity
  8
Defpoints
 62
     0
440
 16777216
100
AcDbPoint
 10
28.58215997303528
 20
33.71149327845444
 30
0.0
  0
POINT
  5
1567
330
147F
100
AcDbEntity
  8
Defpoints
 62
     0
440
 16777216
100
AcDbPoint
 10
28.58215997303528
 20
31.34928855404499
 30
0.0
  0
ENDBLK
  5
1481
330
147F
100
AcDbEntity
  8
0
100
AcDbBlockEnd
  0
ENDSEC
  0
SECTION
  2
ENTITIES
  0
SPLINE
  5
107
330
6C
100
AcDbEntity
  8
Visible (ANSI)
100
AcDbSpline
210
0.0
220
0.0
230
1.0
 70
     8
 71
     3
 72
    11
 73
     7
 74
     0
 42
0.0000000001
 43
0.0000000001
 40
0.0
 40
0.0
 40
0.0
 40
0.0
 40
0.9120227246349724
 40
0.9120227246349724
 40
0.9120227246349724
 40
1.570796326794926
 40
1.570796326794926
 40
1.570796326794926
 40
1.570796326794926
 10
59.86130610280611
 20
33.71136713725622
 30
0.0
 10
59.92780775981075
 20
33.71136713725623
 30
0.0
 10
59.9935724309156
 20
33.74362410432257
 30
0.0
 10
60.03428125708055
 20
33.79620986148773
 30
0.0
 10
60.06368611655169
 20
33.83419368330959
 30
0.0
 10
60.08005610280612
 20
33.88208156209874
 30
0.0
 10
60.08005610280612
 20
33.93011713725625
 30
0.0
  0
LINE
  5
108
330
6C
100
AcDbEntity
  8
Visible (ANSI)
100
AcDbLine
 10
59.86130610280611
 20
33.83636713725624
 30
0.0
 11
59.86130610280611
 21
33.71136713725623
 31
0.0
  0
LINE
  5
109
330
6C
100
AcDbEntity
  8
Visible (ANSI)
100
AcDbLine
 10
60.00056667801152
 20
33.93011713725624
 30
0.0
 11
60.08005610280612
 21
33.93011713725624
 31
0.0
  0
LINE
  5
10A
330
6C
100
AcDbEntity
  8
Visible (ANSI)
100
AcDbLine
 10
59.95505610280612
 20
33.93011713725624
 30
0.0
 11
60.00056667801152
 21
33.93011713725624
 31
0.0
  0
SPLINE
  5
10B
330
6C
100
AcDbEntity
  8
Visible (ANSI)
100
AcDbSpline
210
0.0
220
0.0
230
1.0
 70
     8
 71
     3
 72
    11
 73
     7
 74
     0
 42
0.0000000001
 43
0.0000000001
 40
0.0
 40
0.0
 40
0.0
 40
0.0
 40
1.127197082403422
 40
1.127197082403422
 40
1.127197082403422
 40
1.570796326794926
 40
1.570796326794926
 40
1.570796326794926
 40
1.570796326794926
 10
59.95505610280612
 20
33.93011713725624
 30
0.0
 10
59.95505610280612
 20
33.89489222843113
 30
0.0
 10
59.93335854456951
 20
33.86055923089275
 30
0.0
 10
59.90154295794284
 20
33.84544094232103
 30
0.0
 10
59.8890221925791
 20
33.83949126280925
 30
0.0
 10
59.87516857919334
 20
33.83636713725624
 30
0.0
 10
59.86130610280611
 20
33.83636713725624
 30
0.0
  0
LINE
  5
10C
330
6C
100
AcDbEntity
  8
Visible Narrow (ANSI)
100
AcDbLine
 10
44.17380610280608
 20
33.93011713725624
 30
0.0
 11
44.20505610280605
 21
33.93011713725624
 31
0.0
  0
LINE
  5
10D
330
6C
100
AcDbEntity
  8
Visible Narrow (ANSI)
100
AcDbLine
 10
59.83005610280605
 20
33.93011713725624
 30
0.0
 11
59.8613061028061
 21
33.93011713725624
 31
0.0
  0
SPLINE
  5
10E
330
6C
100
AcDbEntity
  8
Visible (ANSI)
100
AcDbSpline
210
0.0
220
0.0
230
1.0
 70
     8
 71
     3
 72
    11
 73
     7
 74
     0
 42
0.0000000001
 43
0.0000000001
 40
0.0
 40
0.0
 40
0.0
 40
0.0
 40
0.9120227246349479
 40
0.9120227246349479
 40
0.9120227246349479
 40
1.570796326794896
 40
1.570796326794896
 40
1.570796326794896
 40
1.570796326794896
 10
43.9550561028061
 20
33.93011713725623
 30
0.0
 10
43.9550561028061
 20
33.8636154802516
 30
0.0
 10
43.98731306987243
 20
33.79785080914676
 30
0.0
 10
44.0398988270376
 20
33.75714198298182
 30
0.0
 10
44.07788264885944
 20
33.72773712351067
 30
0.0
 10
44.12577052764858
 20
33.71136713725624
 30
0.0
 10
44.17380610280608
 20
33.71136713725624
 30
0.0
  0
LINE
  5
10F
330
6C
100
AcDbEntity
  8
Visible (ANSI)
100
AcDbLine
 10
44.17380610280608
 20
33.83636713725624
 30
0.0
 11
44.17380610280608
 21
33.71136713725624
 31
0.0
  0
SPLINE
  5
110
330
6C
100
AcDbEntity
  8
Visible (ANSI)
100
AcDbSpline
210
0.0
220
0.0
230
1.0
 70
     8
 71
     3
 72
    11
 73
     7
 74
     0
 42
0.0000000001
 43
0.0000000001
 40
0.0
 40
0.0
 40
0.0
 40
0.0
 40
1.127197082403383
 40
1.127197082403383
 40
1.127197082403383
 40
1.570796326794896
 40
1.570796326794896
 40
1.570796326794896
 40
1.570796326794896
 10
44.0800561028061
 20
33.93011713725623
 30
0.0
 10
44.0800561028061
 20
33.89489222843113
 30
0.0
 10
44.10175366104271
 20
33.86055923089275
 30
0.0
 10
44.13356924766937
 20
33.84544094232103
 30
0.0
 10
44.1460900130331
 20
33.83949126280924
 30
0.0
 10
44.15994362641885
 20
33.83636713725624
 30
0.0
 10
44.17380610280608
 20
33.83636713725624
 30
0.0
  0
LINE
  5
111
330
6C
100
AcDbEntity
  8
Visible (ANSI)
100
AcDbLine
 10
44.03454552760069
 20
33.93011713725623
 30
0.0
 11
44.0800561028061
 21
33.93011713725623
 31
0.0
  0
LINE
  5
112
330
6C
100
AcDbEntity
  8
Visible (ANSI)
100
AcDbLine
 10
43.9550561028061
 20
33.93011713725623
 30
0.0
 11
44.03454552760069
 21
33.93011713725623
 31
0.0
  0
LINE
  5
113
330
6C
100
AcDbEntity
  8
Visible (ANSI)
100
AcDbLine
 10
59.86130610280611
 20
33.83636713725624
 30
0.0
 11
59.83005610280605
 21
33.83636713725624
 31
0.0
  0
LINE
  5
114
330
6C
100
AcDbEntity
  8
Visible (ANSI)
100
AcDbLine
 10
58.83005610280612
 20
33.71136713725624
 30
0.0
 11
59.86130610280611
 21
33.71136713725623
 31
0.0
  0
LINE
  5
115
330
6C
100
AcDbEntity
  8
Visible (ANSI)
100
AcDbLine
 10
58.83005610280612
 20
33.71149327845446
 30
0.0
 11
58.83005610280612
 21
33.71136713725624
 31
0.0
  0
LINE
  5
116
330
6C
100
AcDbEntity
  8
Visible (ANSI)
100
AcDbLine
 10
45.22715318971817
 20
33.71136713725624
 30
0.0
 11
58.80795901589401
 21
33.71136713725624
 31
0.0
  0
LINE
  5
117
330
6C
100
AcDbEntity
  8
Visible (ANSI)
100
AcDbLine
 10
44.17380610280608
 20
33.83636713725624
 30
0.0
 11
44.20505610280605
 21
33.83636713725624
 31
0.0
  0
LINE
  5
118
330
6C
100
AcDbEntity
  8
Visible (ANSI)
100
AcDbLine
 10
44.17380610280608
 20
33.71136713725624
 30
0.0
 11
45.2050561028061
 21
33.71136713725624
 31
0.0
  0
LINE
  5
119
330
6C
100
AcDbEntity
  8
Visible (ANSI)
100
AcDbLine
 10
45.2050561028061
 20
33.71149327845446
 30
0.0
 11
45.2050561028061
 21
33.71136713725624
 31
0.0
  0
LINE
  5
11A
330
6C
100
AcDbEntity
  8
Visible (ANSI)
100
AcDbLine
 10
44.08005610280609
 20
33.93011713725624
 30
0.0
 11
44.17380610280608
 21
33.93011713725624
 31
0.0
  0
LINE
  5
11B
330
6C
100
AcDbEntity
  8
Visible (ANSI)
100
AcDbLine
 10
59.8613061028061
 20
33.93011713725624
 30
0.0
 11
59.95505610280609
 21
33.93011713725624
 31
0.0
  0
SPLINE
  5
11C
330
6C
100
AcDbEntity
  8
Visible (ANSI)
100
AcDbSpline
210
0.0
220
0.0
230
1.0
 70
     8
 71
     3
 72
     8
 73
     4
 74
     0
 42
0.0000000001
 43
0.0000000001
 40
0.0
 40
0.0
 40
0.0
 40
0.0
 40
0.4429110440736466
 40
0.4429110440736466
 40
0.4429110440736466
 40
0.4429110440736466
 10
44.17380610280608
 20
33.93011713725624
 30
0.0
 10
44.17588297801227
 20
33.89782154029254
 30
0.0
 10
44.17795985321844
 20
33.86569975577785
 30
0.0
 10
44.18003672842462
 20
33.83653710786629
 30
0.0
  0
SPLINE
  5
11D
330
6C
100
AcDbEntity
  8
Visible (ANSI)
100
AcDbSpline
210
0.0
220
0.0
230
1.0
 70
     8
 71
     3
 72
     8
 73
     4
 74
     0
 42
0.0000000001
 43
0.0000000001
 40
1.127885282721248
 40
1.127885282721248
 40
1.127885282721248
 40
1.127885282721248
 40
1.570796326794896
 40
1.570796326794896
 40
1.570796326794896
 40
1.570796326794896
 10
59.85507547718756
 20
33.8363956609447
 30
0.0
 10
59.85715235239373
 20
33.86559270550119
 30
0.0
 10
59.85922922759992
 20
33.89782154029254
 30
0.0
 10
59.86130610280609
 20
33.93011713725624
 30
0.0
  0
LINE
  5
11E
330
6C
100
AcDbEntity
  8
Visible (ANSI)
100
AcDbLine
 10
58.80795901589401
 20
33.71136713725624
 30
0.0
 11
58.8300561028061
 21
33.71136713725624
 31
0.0
  0
LINE
  5
11F
330
6C
100
AcDbEntity
  8
Visible (ANSI)
100
AcDbLine
 10
58.80795901589401
 20
33.71149327845446
 30
0.0
 11
58.80795901589401
 21
33.71136713725624
 31
0.0
  0
SPLINE
  5
120
330
6C
100
AcDbEntity
  8
Visible (ANSI)
100
AcDbSpline
210
0.0
220
0.0
230
1.0
 70
     8
 71
     3
 72
    11
 73
     7
 74
     0
 42
0.0000000001
 43
0.0000000001
 40
0.0
 40
0.0
 40
0.0
 40
0.0
 40
1.12719708240338
 40
1.12719708240338
 40
1.12719708240338
 40
1.570796326794896
 40
1.570796326794896
 40
1.570796326794896
 40
1.570796326794896
 10
59.86130610280609
 20
33.93011713725624
 30
0.0
 10
59.85602050944769
 20
33.89489222843113
 30
0.0
 10
59.85073491608929
 20
33.86055923089275
 30
0.0
 10
59.84544932273088
 20
33.84544094232103
 30
0.0
 10
59.84336922045193
 20
33.83949126280925
 30
0.0
 10
59.84128911817297
 20
33.83636713725624
 30
0.0
 10
59.83920901589399
 20
33.83636713725624
 30
0.0
  0
SPLINE
  5
121
330
6C
100
AcDbEntity
  8
Visible (ANSI)
100
AcDbSpline
210
0.0
220
0.0
230
1.0
 70
     8
 71
     3
 72
    11
 73
     7
 74
     0
 42
0.0000000001
 43
0.0000000001
 40
0.0
 40
0.0
 40
0.0
 40
0.0
 40
1.12719708240338
 40
1.12719708240338
 40
1.12719708240338
 40
1.570796326794896
 40
1.570796326794896
 40
1.570796326794896
 40
1.570796326794896
 10
44.17380610280608
 20
33.93011713725624
 30
0.0
 10
44.17909169616448
 20
33.89489222843113
 30
0.0
 10
44.18437728952289
 20
33.86055923089275
 30
0.0
 10
44.18966288288129
 20
33.84544094232103
 30
0.0
 10
44.19174298516025
 20
33.83949126280925
 30
0.0
 10
44.19382308743921
 20
33.83636713725624
 30
0.0
 10
44.19590318971818
 20
33.83636713725624
 30
0.0
  0
LINE
  5
122
330
6C
100
AcDbEntity
  8
Visible (ANSI)
100
AcDbLine
 10
45.2050561028061
 20
33.71136713725624
 30
0.0
 11
45.22715318971817
 21
33.71136713725624
 31
0.0
  0
LINE
  5
123
330
6C
100
AcDbEntity
  8
Visible (ANSI)
100
AcDbLine
 10
45.22715318971817
 20
33.71149327845446
 30
0.0
 11
45.22715318971817
 21
33.71136713725624
 31
0.0
  0
LINE
  5
124
330
6C
100
AcDbEntity
  8
Visible (ANSI)
100
AcDbLine
 10
43.9550561028061
 20
33.93011713725623
 30
0.0
 11
43.95505610280609
 21
51.49261713725623
 31
0.0
  0
LINE
  5
125
330
6C
100
AcDbEntity
  8
Visible (ANSI)
100
AcDbLine
 10
59.95505610280612
 20
33.93011713725624
 30
0.0
 11
59.95505610280613
 21
51.49261713725623
 31
0.0
  0
LINE
  5
126
330
6C
100
AcDbEntity
  8
Visible (ANSI)
100
AcDbLine
 10
60.08005610280612
 20
51.49261713725623
 30
0.0
 11
60.08005610280612
 21
33.93011713725624
 31
0.0
  0
LINE
  5
127
330
6C
100
AcDbEntity
  8
Visible (ANSI)
100
AcDbLine
 10
59.95505610280613
 20
51.49261713725623
 30
0.0
 11
60.08005610280612
 21
51.49261713725623
 31
0.0
  0
LINE
  5
128
330
6C
100
AcDbEntity
  8
Visible (ANSI)
100
AcDbLine
 10
44.08005610280609
 20
51.49261713725623
 30
0.0
 11
44.0800561028061
 21
33.93011713725624
 31
0.0
  0
LINE
  5
129
330
6C
100
AcDbEntity
  8
Visible (ANSI)
100
AcDbLine
 10
43.95505610280609
 20
51.49261713725623
 30
0.0
 11
44.08005610280609
 21
51.49261713725623
 31
0.0
  0
LINE
  5
12A
330
6C
100
AcDbEntity
  8
Visible Narrow (ANSI)
100
AcDbLine
 10
44.17380610280608
 20
51.49261713725623
 30
0.0
 11
44.17380610280608
 21
33.93011713725624
 31
0.0
  0
LINE
  5
12B
330
6C
100
AcDbEntity
  8
Visible Narrow (ANSI)
100
AcDbLine
 10
59.8613061028061
 20
33.93011713725624
 30
0.0
 11
59.86130610280609
 21
51.49261713725623
 31
0.0
  0
LINE
  5
12C
330
6C
100
AcDbEntity
  8
Visible (ANSI)
100
AcDbLine
 10
44.17380610280608
 20
51.49261713725623
 30
0.0
 11
44.08005610280609
 21
51.49261713725623
 31
0.0
  0
LINE
  5
12D
330
6C
100
AcDbEntity
  8
Visible (ANSI)
100
AcDbLine
 10
44.70505610280609
 20
51.58636713725619
 30
0.0
 11
44.17380610280608
 21
51.58636713725621
 31
0.0
  0
LINE
  5
12E
330
6C
100
AcDbEntity
  8
Visible (ANSI)
100
AcDbLine
 10
44.70505610280609
 20
51.71136713725619
 30
0.0
 11
44.17380610280608
 21
51.71136713725622
 31
0.0
  0
LINE
  5
12F
330
6C
100
AcDbEntity
  8
Visible (ANSI)
100
AcDbLine
 10
59.86130610280632
 20
51.71136713725632
 30
0.0
 11
59.33005610280649
 21
51.71136713725631
 31
0.0
  0
LINE
  5
130
330
6C
100
AcDbEntity
  8
Visible (ANSI)
100
AcDbLine
 10
59.33005610280651
 20
51.58636713725631
 30
0.0
 11
59.86130610280632
 21
51.58636713725631
 31
0.0
  0
LINE
  5
131
330
6C
100
AcDbEntity
  8
Visible (ANSI)
100
AcDbLine
 10
58.80795901589403
 20
51.58636713725623
 30
0.0
 11
45.22715318971817
 21
51.58636713725623
 31
0.0
  0
LINE
  5
132
330
6C
100
AcDbEntity
  8
Visible (ANSI)
100
AcDbLine
 10
58.80795901589403
 20
51.71136713725623
 30
0.0
 11
45.22715318971817
 21
51.71136713725623
 31
0.0
  0
LINE
  5
133
330
6C
100
AcDbEntity
  8
Visible (ANSI)
100
AcDbLine
 10
59.95505610280609
 20
51.49261713725623
 30
0.0
 11
59.86130610280609
 21
51.49261713725623
 31
0.0
  0
LINE
  5
134
330
6C
100
AcDbEntity
  8
Visible (ANSI)
100
AcDbLine
 10
45.2050561028061
 20
51.71136713725622
 30
0.0
 11
44.70505610280609
 21
51.71136713725619
 31
0.0
  0
LINE
  5
135
330
6C
100
AcDbEntity
  8
Visible (ANSI)
100
AcDbLine
 10
44.70505610280609
 20
51.71136713725619
 30
0.0
 11
44.70505610280609
 21
51.58636713725619
 31
0.0
  0
LINE
  5
136
330
6C
100
AcDbEntity
  8
Visible (ANSI)
100
AcDbLine
 10
44.70505610280609
 20
51.58636713725619
 30
0.0
 11
45.2050561028061
 21
51.58636713725623
 31
0.0
  0
LINE
  5
137
330
6C
100
AcDbEntity
  8
Visible (ANSI)
100
AcDbLine
 10
45.2050561028061
 20
51.58636713725623
 30
0.0
 11
45.2050561028061
 21
51.71136713725622
 31
0.0
  0
LINE
  5
138
330
6C
100
AcDbEntity
  8
Visible (ANSI)
100
AcDbLine
 10
59.33005610280649
 20
51.71136713725631
 30
0.0
 11
58.83005610280648
 21
51.71136713725629
 31
0.0
  0
LINE
  5
139
330
6C
100
AcDbEntity
  8
Visible (ANSI)
100
AcDbLine
 10
58.83005610280648
 20
51.71136713725629
 30
0.0
 11
58.83005610280649
 21
51.58636713725629
 31
0.0
  0
LINE
  5
13A
330
6C
100
AcDbEntity
  8
Visible (ANSI)
100
AcDbLine
 10
58.83005610280649
 20
51.58636713725629
 30
0.0
 11
59.33005610280651
 21
51.58636713725631
 31
0.0
  0
LINE
  5
13B
330
6C
100
AcDbEntity
  8
Visible (ANSI)
100
AcDbLine
 10
59.33005610280651
 20
51.58636713725631
 30
0.0
 11
59.33005610280649
 21
51.71136713725631
 31
0.0
  0
ARC
  5
13C
330
6C
100
AcDbEntity
  8
Visible (ANSI)
100
AcDbCircle
 10
44.17380610280608
 20
51.49261713725623
 30
0.0
 40
0.0937499999999875
100
AcDbArc
 50
90.0
 51
180.0
  0
ARC
  5
13D
330
6C
100
AcDbEntity
  8
Visible (ANSI)
100
AcDbCircle
 10
44.17380610280608
 20
51.49261713725622
 30
0.0
 40
0.2187499999999912
100
AcDbArc
 50
90.0
 51
180.0
  0
ARC
  5
13E
330
6C
100
AcDbEntity
  8
Visible (ANSI)
100
AcDbCircle
 10
59.86130610280632
 20
51.49261713725622
 30
0.0
 40
0.2187500000000947
100
AcDbArc
 50
0.0
 51
90.0
  0
ARC
  5
13F
330
6C
100
AcDbEntity
  8
Visible (ANSI)
100
AcDbCircle
 10
59.86130610280632
 20
51.49261713725623
 30
0.0
 40
0.0937500000000882
100
AcDbArc
 50
0.0
 51
90.0
  0
LINE
  5
140
330
6C
100
AcDbEntity
  8
Visible Narrow (ANSI)
100
AcDbLine
 10
59.86130610280609
 20
51.49261713725623
 30
0.0
 11
44.17380610280608
 21
51.49261713725623
 31
0.0
  0
SPLINE
  5
141
330
6C
100
AcDbEntity
  8
Visible (ANSI)
100
AcDbSpline
210
0.0
220
0.0
230
1.0
 70
     8
 71
     3
 72
     8
 73
     4
 74
     0
 42
0.0000000001
 43
0.0000000001
 40
0.0
 40
0.0
 40
0.0
 40
0.0
 40
0.4429110440740797
 40
0.4429110440740797
 40
0.4429110440740797
 40
0.4429110440740797
 10
59.86130610280609
 20
51.49261713725623
 30
0.0
 10
59.8592292275999
 20
51.52491273421996
 30
0.0
 10
59.85715235239372
 20
51.55703451873467
 30
0.0
 10
59.85507547718754
 20
51.58619716664627
 30
0.0
  0
SPLINE
  5
142
330
6C
100
AcDbEntity
  8
Visible (ANSI)
100
AcDbSpline
210
0.0
220
0.0
230
1.0
 70
     8
 71
     3
 72
     8
 73
     4
 74
     0
 42
0.0000000001
 43
0.0000000001
 40
1.127885282721323
 40
1.127885282721323
 40
1.127885282721323
 40
1.127885282721323
 40
1.570796326794894
 40
1.570796326794894
 40
1.570796326794894
 40
1.570796326794894
 10
44.18003672842462
 20
51.58633861356776
 30
0.0
 10
44.17795985321843
 20
51.55714156901126
 30
0.0
 10
44.17588297801226
 20
51.52491273421993
 30
0.0
 10
44.17380610280608
 20
51.49261713725623
 30
0.0
  0
LINE
  5
143
330
6C
100
AcDbEntity
  8
Visible (ANSI)
100
AcDbLine
 10
58.83005610280631
 20
51.58636713725623
 30
0.0
 11
58.80795901589403
 21
51.58636713725623
 31
0.0
  0
LINE
  5
144
330
6C
100
AcDbEntity
  8
Visible (ANSI)
100
AcDbLine
 10
45.2050561028061
 20
51.58636713725623
 30
0.0
 11
45.22715318971817
 21
51.58636713725623
 31
0.0
  0
LINE
  5
145
330
6C
100
AcDbEntity
  8
Visible (ANSI)
100
AcDbLine
 10
45.22715318971817
 20
51.71136713725623
 30
0.0
 11
45.2050561028061
 21
51.71136713725623
 31
0.0
  0
LINE
  5
146
330
6C
100
AcDbEntity
  8
Visible (ANSI)
100
AcDbLine
 10
45.22715318971817
 20
51.58636713725623
 30
0.0
 11
45.22715318971817
 21
51.71136713725623
 31
0.0
  0
SPLINE
  5
147
330
6C
100
AcDbEntity
  8
Visible (ANSI)
100
AcDbSpline
210
0.0
220
0.0
230
1.0
 70
     8
 71
     3
 72
    11
 73
     7
 74
     0
 42
0.0000000001
 43
0.0000000001
 40
0.0
 40
0.0
 40
0.0
 40
0.0
 40
1.127197082403218
 40
1.127197082403218
 40
1.127197082403218
 40
1.570796326794894
 40
1.570796326794894
 40
1.570796326794894
 40
1.570796326794894
 10
44.17380610280608
 20
51.49261713725623
 30
0.0
 10
44.17909169616448
 20
51.52784204608133
 30
0.0
 10
44.18437728952288
 20
51.5621750436197
 30
0.0
 10
44.18966288288127
 20
51.57729333219143
 30
0.0
 10
44.19174298516024
 20
51.58324301170322
 30
0.0
 10
44.19382308743919
 20
51.58636713725623
 30
0.0
 10
44.19590318971816
 20
51.58636713725623
 30
0.0
  0
SPLINE
  5
148
330
6C
100
AcDbEntity
  8
Visible (ANSI)
100
AcDbSpline
210
0.0
220
0.0
230
1.0
 70
     8
 71
     3
 72
    11
 73
     7
 74
     0
 42
0.0000000001
 43
0.0000000001
 40
0.0
 40
0.0
 40
0.0
 40
0.0
 40
1.127197082403218
 40
1.127197082403218
 40
1.127197082403218
 40
1.570796326794894
 40
1.570796326794894
 40
1.570796326794894
 40
1.570796326794894
 10
59.86130610280609
 20
51.49261713725623
 30
0.0
 10
59.85602050944768
 20
51.52784204608133
 30
0.0
 10
59.85073491608929
 20
51.5621750436197
 30
0.0
 10
59.84544932273088
 20
51.57729333219143
 30
0.0
 10
59.84336922045192
 20
51.58324301170322
 30
0.0
 10
59.84128911817296
 20
51.58636713725623
 30
0.0
 10
59.83920901589399
 20
51.58636713725623
 30
0.0
  0
LINE
  5
149
330
6C
100
AcDbEntity
  8
Visible (ANSI)
100
AcDbLine
 10
58.83005610280631
 20
51.71136713725623
 30
0.0
 11
58.80795901589403
 21
51.71136713725623
 31
0.0
  0
LINE
  5
14A
330
6C
100
AcDbEntity
  8
Visible (ANSI)
100
AcDbLine
 10
58.80795901589403
 20
51.58636713725623
 30
0.0
 11
58.80795901589403
 21
51.71136713725623
 31
0.0
  0
LINE
  5
14B
330
6C
100
AcDbEntity
  8
Visible (ANSI)
100
AcDbLine
 10
59.70505610280604
 20
33.83649327845446
 30
0.0
 11
59.83005610280605
 21
33.83649327845446
 31
0.0
  0
LINE
  5
14C
330
6C
100
AcDbEntity
  8
Visible Narrow (ANSI)
100
AcDbLine
 10
59.70505610280604
 20
33.83649327845446
 30
0.0
 11
59.70505610280604
 21
33.71149327845446
 31
0.0
  0
LINE
  5
14D
330
6C
100
AcDbEntity
  8
Visible (ANSI)
100
AcDbLine
 10
59.83005610280604
 20
33.71149327845446
 30
0.0
 11
59.70505610280604
 21
33.71149327845446
 31
0.0
  0
LINE
  5
14E
330
6C
100
AcDbEntity
  8
Visible (ANSI)
100
AcDbLine
 10
59.83005610280605
 20
33.71149327845446
 30
0.0
 11
59.83005610280605
 21
33.83649327845446
 31
0.0
  0
LINE
  5
14F
330
6C
100
AcDbEntity
  8
Visible (ANSI)
100
AcDbLine
 10
44.33005610280605
 20
33.71149327845446
 30
0.0
 11
44.20505610280605
 21
33.71149327845446
 31
0.0
  0
LINE
  5
150
330
6C
100
AcDbEntity
  8
Visible (ANSI)
100
AcDbLine
 10
44.20505610280605
 20
33.83649327845445
 30
0.0
 11
44.33005610280605
 21
33.83649327845445
 31
0.0
  0
LINE
  5
151
330
6C
100
AcDbEntity
  8
Visible (ANSI)
100
AcDbLine
 10
44.20505610280605
 20
33.83649327845445
 30
0.0
 11
44.20505610280605
 21
33.71149327845446
 31
0.0
  0
LINE
  5
152
330
6C
100
AcDbEntity
  8
Visible Narrow (ANSI)
100
AcDbLine
 10
44.33005610280605
 20
33.71149327845446
 30
0.0
 11
44.33005610280605
 21
33.83649327845445
 31
0.0
  0
LINE
  5
153
330
6C
100
AcDbEntity
  8
Visible (ANSI)
100
AcDbLine
 10
59.83005610280605
 20
33.96136713725625
 30
0.0
 11
59.83005610280605
 21
33.89729674564081
 31
0.0
  0
LINE
  5
154
330
6C
100
AcDbEntity
  8
Visible (ANSI)
100
AcDbLine
 10
44.20505610280605
 20
33.96136713725625
 30
0.0
 11
44.20505610280605
 21
33.8972967456408
 31
0.0
  0
LINE
  5
155
330
6C
100
AcDbEntity
  8
Visible (ANSI)
100
AcDbLine
 10
59.83005610280605
 20
33.96136713725625
 30
0.0
 11
44.20505610280605
 21
33.96136713725625
 31
0.0
  0
LINE
  5
156
330
6C
100
AcDbEntity
  8
Visible Narrow (ANSI)
100
AcDbLine
 10
59.83005610280605
 20
33.89729674564081
 30
0.0
 11
44.20505610280605
 21
33.8972967456408
 31
0.0
  0
LINE
  5
157
330
6C
100
AcDbEntity
  8
Visible (ANSI)
100
AcDbLine
 10
59.83005610280605
 20
33.86395201771821
 30
0.0
 11
59.83005610280605
 21
33.89729674564081
 31
0.0
  0
LINE
  5
158
330
6C
100
AcDbEntity
  8
Visible (ANSI)
100
AcDbLine
 10
44.20505610280605
 20
33.8972967456408
 30
0.0
 11
44.20505610280605
 21
33.86395201771821
 31
0.0
  0
LINE
  5
159
330
6C
100
AcDbEntity
  8
Visible (ANSI)
100
AcDbLine
 10
59.83005610280605
 20
33.83649327845446
 30
0.0
 11
59.83005610280605
 21
33.86395201771821
 31
0.0
  0
LINE
  5
15A
330
6C
100
AcDbEntity
  8
Visible (ANSI)
100
AcDbLine
 10
44.20505610280605
 20
33.83649327845446
 30
0.0
 11
44.20505610280605
 21
33.86395201771821
 31
0.0
  0
LINE
  5
15B
330
6C
100
AcDbEntity
  8
Visible Narrow (ANSI)
100
AcDbLine
 10
59.83005610280605
 20
33.86395201771821
 30
0.0
 11
44.20505610280605
 21
33.86395201771821
 31
0.0
  0
LINE
  5
15C
330
6C
100
AcDbEntity
  8
Visible (ANSI)
100
AcDbLine
 10
44.33005610280605
 20
33.71149327845446
 30
0.0
 11
59.70505610280604
 21
33.71149327845446
 31
0.0
  0
LINE
  5
15D
330
6C
100
AcDbEntity
  8
Visible (ANSI)
100
AcDbLine
 10
59.70505610280604
 20
33.83649327845446
 30
0.0
 11
44.33005610280605
 21
33.83649327845445
 31
0.0
  0
MTEXT
  5
15F
330
6C
100
AcDbEntity
  8
Symbol (ANSI)
100
AcDbMText
 10
48.75300671859367
 20
30.3828687193311
 30
0.0
 40
0.8400000103815333
 41
0.0
 71
     7
 72
     1
  1
FRONT VIEW
  7
Text Style168
 73
     1
 44
1.0
  0
LINE
  5
161
330
6C
100
AcDbEntity
  8
Symbol (ANSI)
370
    30
100
AcDbLine
 10
48.66900650251496
 20
30.21156725770687
 30
0.0
 11
55.4223615325147
 21
30.21156725770687
 31
0.0
  0
SPLINE
  5
162
330
6C
100
AcDbEntity
  8
Visible (ANSI)
100
AcDbSpline
210
0.0
220
0.0
230
1.0
 70
     8
 71
     3
 72
    11
 73
     7
 74
     0
 42
0.0000000001
 43
0.0000000001
 40
0.0
 40
0.0
 40
0.0
 40
0.0
 40
0.912022724634949
 40
0.912022724634949
 40
0.912022724634949
 40
1.570796326794896
 40
1.570796326794896
 40
1.570796326794896
 40
1.570796326794896
 10
20.83215997303523
 20
33.93011713725623
 30
0.0
 10
20.83215997303523
 20
33.8636154802516
 30
0.0
 10
20.86441694010156
 20
33.79785080914675
 30
0.0
 10
20.91700269726673
 20
33.75714198298181
 30
0.0
 10
20.95498651908858
 20
33.72773712351067
 30
0.0
 10
21.00287439787773
 20
33.71136713725622
 30
0.0
 10
21.05090997303523
 20
33.71136713725622
 30
0.0
  0
LINE
  5
163
330
6C
100
AcDbEntity
  8
Visible (ANSI)
100
AcDbLine
 10
21.05090997303523
 20
33.83636713725623
 30
0.0
 11
21.05714059865376
 21
33.83636713725623
 31
0.0
  0
LINE
  5
164
330
6C
100
AcDbEntity
  8
Visible (ANSI)
100
AcDbLine
 10
21.05090997303523
 20
33.83636713725623
 30
0.0
 11
21.05090997303523
 21
33.71136713725622
 31
0.0
  0
SPLINE
  5
165
330
6C
100
AcDbEntity
  8
Visible (ANSI)
100
AcDbSpline
210
0.0
220
0.0
230
1.0
 70
     8
 71
     3
 72
    11
 73
     7
 74
     0
 42
0.0000000001
 43
0.0000000001
 40
0.0
 40
0.0
 40
0.0
 40
0.0
 40
1.12719708240338
 40
1.12719708240338
 40
1.12719708240338
 40
1.570796326794896
 40
1.570796326794896
 40
1.570796326794896
 40
1.570796326794896
 10
20.95715997303523
 20
33.93011713725623
 30
0.0
 10
20.95715997303523
 20
33.89489222843112
 30
0.0
 10
20.97885753127184
 20
33.86055923089275
 30
0.0
 10
21.01067311789851
 20
33.84544094232101
 30
0.0
 10
21.02319388326225
 20
33.83949126280923
 30
0.0
 10
21.037047496648
 20
33.83636713725623
 30
0.0
 10
21.05090997303523
 20
33.83636713725623
 30
0.0
  0
LINE
  5
166
330
6C
100
AcDbEntity
  8
Visible (ANSI)
100
AcDbLine
 10
21.05090997303523
 20
33.71136713725622
 30
0.0
 11
21.07300705994732
 21
33.71136713725622
 31
0.0
  0
SPLINE
  5
167
330
6C
100
AcDbEntity
  8
Visible (ANSI)
100
AcDbSpline
210
0.0
220
0.0
230
1.0
 70
     8
 71
     3
 72
    11
 73
     7
 74
     0
 42
0.0000000001
 43
0.0000000001
 40
0.0
 40
0.0
 40
0.0
 40
0.0
 40
0.912022724634949
 40
0.912022724634949
 40
0.912022724634949
 40
1.570796326794896
 40
1.570796326794896
 40
1.570796326794896
 40
1.570796326794896
 10
21.07300705994731
 20
33.71136713725622
 30
0.0
 10
21.06873045088638
 20
33.71136713725622
 30
0.0
 10
21.06445384182545
 20
33.74362410432256
 30
0.0
 10
21.06017723276452
 20
33.79620986148773
 30
0.0
 10
21.05708814618807
 20
33.83419368330957
 30
0.0
 10
21.05399905961161
 20
33.88208156209874
 30
0.0
 10
21.05090997303516
 20
33.93011713725623
 30
0.0
  0
LINE
  5
168
330
6C
100
AcDbEntity
  8
Visible (ANSI)
100
AcDbLine
 10
26.83215997303532
 20
33.71136713725622
 30
0.0
 11
21.07300705994731
 21
33.71136713725622
 31
0.0
  0
SPLINE
  5
169
330
6C
100
AcDbEntity
  8
Visible (ANSI)
100
AcDbSpline
210
0.0
220
0.0
230
1.0
 70
     8
 71
     3
 72
    11
 73
     7
 74
     0
 42
0.0000000001
 43
0.0000000001
 40
0.0
 40
0.0
 40
0.0
 40
0.0
 40
0.9120227246349479
 40
0.9120227246349479
 40
0.9120227246349479
 40
1.570796326794896
 40
1.570796326794896
 40
1.570796326794896
 40
1.570796326794896
 10
26.85676454245529
 20
33.93011713725623
 30
0.0
 10
26.85200264216771
 20
33.8636154802516
 30
0.0
 10
26.84724074188013
 20
33.79785080914675
 30
0.0
 10
26.84247884159255
 20
33.75714198298181
 30
0.0
 10
26.83903921874014
 20
33.72773712351067
 30
0.0
 10
26.83559959588773
 20
33.71136713725622
 30
0.0
 10
26.83215997303532
 20
33.71136713725622
 30
0.0
  0
LINE
  5
16A
330
6C
100
AcDbEntity
  8
Visible Narrow (ANSI)
100
AcDbLine
 10
21.05090997303516
 20
33.93011713725623
 30
0.0
 11
26.85676454245529
 21
33.93011713725623
 31
0.0
  0
LINE
  5
16B
330
6C
100
AcDbEntity
  8
Visible (ANSI)
100
AcDbLine
 10
21.05090997303516
 20
33.93011713725623
 30
0.0
 11
20.83215997303523
 21
33.93011713725623
 31
0.0
  0
LINE
  5
16C
330
6C
100
AcDbEntity
  8
Visible (ANSI)
100
AcDbLine
 10
26.85676454245529
 20
33.93011713725623
 30
0.0
 11
28.83215997303516
 21
51.49261713725622
 31
0.0
  0
LINE
  5
16D
330
6C
100
AcDbEntity
  8
Visible Narrow (ANSI)
100
AcDbLine
 10
28.83215997303516
 20
51.49261713725622
 30
0.0
 11
21.05090997303516
 21
51.49261713725622
 31
0.0
  0
LINE
  5
16E
330
6C
100
AcDbEntity
  8
Visible (ANSI)
100
AcDbLine
 10
28.83215997303517
 20
51.49261713725621
 30
0.0
 11
28.83215997303524
 21
51.7113671372562
 31
0.0
  0
LINE
  5
16F
330
6C
100
AcDbEntity
  8
Visible (ANSI)
100
AcDbLine
 10
21.07300705994731
 20
51.71136713725622
 30
0.0
 11
28.83215997303524
 21
51.71136713725621
 31
0.0
  0
LINE
  5
170
330
6C
100
AcDbEntity
  8
Visible Narrow (ANSI)
100
AcDbLine
 10
21.05090997303516
 20
51.49261713725622
 30
0.0
 11
21.05090997303516
 21
33.93011713725623
 31
0.0
  0
LINE
  5
171
330
6C
100
AcDbEntity
  8
Visible (ANSI)
100
AcDbLine
 10
20.83215997303523
 20
33.93011713725623
 30
0.0
 11
20.83215997303523
 21
51.49261713725622
 31
0.0
  0
SPLINE
  5
172
330
6C
100
AcDbEntity
  8
Visible (ANSI)
100
AcDbSpline
210
0.0
220
0.0
230
1.0
 70
     8
 71
     3
 72
    11
 73
     7
 74
     0
 42
0.0000000001
 43
0.0000000001
 40
0.0
 40
0.0
 40
0.0
 40
0.0
 40
0.9120227246349079
 40
0.9120227246349079
 40
0.9120227246349079
 40
1.570796326794894
 40
1.570796326794894
 40
1.570796326794894
 40
1.570796326794894
 10
21.05090997303523
 20
51.71136713725622
 30
0.0
 10
20.98440831603061
 20
51.71136713725622
 30
0.0
 10
20.91864364492576
 20
51.67911017018989
 30
0.0
 10
20.87793481876082
 20
51.62652441302473
 30
0.0
 10
20.84852995928967
 20
51.58854059120288
 30
0.0
 10
20.83215997303523
 20
51.54065271241371
 30
0.0
 10
20.83215997303523
 20
51.49261713725622
 30
0.0
  0
LINE
  5
173
330
6C
100
AcDbEntity
  8
Visible (ANSI)
100
AcDbLine
 10
21.05090997303523
 20
51.58636713725621
 30
0.0
 11
21.05714059865376
 21
51.58636713725621
 31
0.0
  0
LINE
  5
174
330
6C
100
AcDbEntity
  8
Visible (ANSI)
100
AcDbLine
 10
21.07300705994732
 20
51.71136713725622
 30
0.0
 11
21.05090997303523
 21
51.71136713725622
 31
0.0
  0
LINE
  5
175
330
6C
100
AcDbEntity
  8
Visible (ANSI)
100
AcDbLine
 10
21.05090997303523
 20
51.58636713725621
 30
0.0
 11
21.05090997303523
 21
51.71136713725622
 31
0.0
  0
SPLINE
  5
176
330
6C
100
AcDbEntity
  8
Visible (ANSI)
100
AcDbSpline
210
0.0
220
0.0
230
1.0
 70
     8
 71
     3
 72
    11
 73
     7
 74
     0
 42
0.0000000001
 43
0.0000000001
 40
0.0
 40
0.0
 40
0.0
 40
0.0
 40
1.127197082403218
 40
1.127197082403218
 40
1.127197082403218
 40
1.570796326794894
 40
1.570796326794894
 40
1.570796326794894
 40
1.570796326794894
 10
20.95715997303523
 20
51.49261713725622
 30
0.0
 10
20.95715997303523
 20
51.52784204608132
 30
0.0
 10
20.97885753127184
 20
51.56217504361968
 30
0.0
 10
21.01067311789849
 20
51.57729333219143
 30
0.0
 10
21.02319388326224
 20
51.58324301170321
 30
0.0
 10
21.037047496648
 20
51.58636713725623
 30
0.0
 10
21.05090997303523
 20
51.58636713725623
 30
0.0
  0
SPLINE
  5
177
330
6C
100
AcDbEntity
  8
Visible (ANSI)
100
AcDbSpline
210
0.0
220
0.0
230
1.0
 70
     8
 71
     3
 72
    11
 73
     7
 74
     0
 42
0.0000000001
 43
0.0000000001
 40
0.0
 40
0.0
 40
0.0
 40
0.0
 40
0.9120227246350472
 40
0.9120227246350472
 40
0.9120227246350472
 40
1.570796326794894
 40
1.570796326794894
 40
1.570796326794894
 40
1.570796326794894
 10
21.05090997303516
 20
51.49261713725623
 30
0.0
 10
21.05518658209608
 20
51.55911879426088
 30
0.0
 10
21.059463191157
 20
51.62488346536572
 30
0.0
 10
21.06373980021793
 20
51.66559229153065
 30
0.0
 10
21.06682888679438
 20
51.6949971510018
 30
0.0
 10
21.06991797337085
 20
51.71136713725623
 30
0.0
 10
21.07300705994731
 20
51.71136713725622
 30
0.0
  0
LINE
  5
178
330
6C
100
AcDbEntity
  8
Visible (ANSI)
100
AcDbLine
 10
20.83215997303523
 20
51.49261713725622
 30
0.0
 11
21.05090997303516
 21
51.49261713725622
 31
0.0
  0
LINE
  5
179
330
6C
100
AcDbEntity
  8
Visible (ANSI)
100
AcDbLine
 10
28.58215997303527
 20
33.71149327845444
 30
0.0
 11
28.45715997303523
 21
33.71149327845444
 31
0.0
  0
LINE
  5
17A
330
6C
100
AcDbEntity
  8
Visible (ANSI)
100
AcDbLine
 10
28.45715997303523
 20
33.83649327845444
 30
0.0
 11
28.58215997303527
 21
33.83649327845444
 31
0.0
  0
LINE
  5
17B
330
6C
100
AcDbEntity
  8
Visible Narrow (ANSI)
100
AcDbLine
 10
28.45715997303524
 20
33.83649327845444
 30
0.0
 11
28.45715997303524
 21
33.71149327845444
 31
0.0
  0
LINE
  5
17C
330
6C
100
AcDbEntity
  8
Visible (ANSI)
100
AcDbLine
 10
28.58215997303528
 20
33.71149327845444
 30
0.0
 11
28.58215997303528
 21
33.83649327845444
 31
0.0
  0
LINE
  5
17D
330
6C
100
AcDbEntity
  8
Visible (ANSI)
100
AcDbLine
 10
27.08226918980435
 20
33.71149327845444
 30
0.0
 11
28.45715997303524
 21
33.71149327845444
 31
0.0
  0
LINE
  5
17E
330
6C
100
AcDbEntity
  8
Visible (ANSI)
100
AcDbLine
 10
28.45715997303524
 20
33.83649327845444
 30
0.0
 11
27.08226918980435
 21
33.83649327845444
 31
0.0
  0
ARC
  5
17F
330
6C
100
AcDbEntity
  8
Visible (ANSI)
100
AcDbCircle
 10
27.08226918980435
 20
33.93024327845444
 30
0.0
 40
0.0937500000000001
100
AcDbArc
 50
225.0
 51
270.000000000003
  0
ARC
  5
180
330
6C
100
AcDbEntity
  8
Visible (ANSI)
100
AcDbCircle
 10
27.08226918980435
 20
33.93024327845444
 30
0.0
 40
0.2187499999999992
100
AcDbArc
 50
225.0000000000018
 51
270.0000000000013
  0
LINE
  5
181
330
6C
100
AcDbEntity
  8
Visible (ANSI)
100
AcDbLine
 10
26.98263320114552
 20
33.8972967456408
 30
0.0
 11
27.01597792906812
 21
33.8639520177182
 31
0.0
  0
LINE
  5
182
330
6C
100
AcDbEntity
  8
Visible (ANSI)
100
AcDbLine
 10
26.92758958141979
 20
33.77556367006988
 30
0.0
 11
26.8942448534972
 21
33.80890839799248
 31
0.0
  0
ARC
  5
183
330
6C
100
AcDbEntity
  8
Visible (ANSI)
100
AcDbCircle
 10
26.82795359276096
 20
33.74261713725624
 30
0.0
 40
0.2187499999999988
100
AcDbArc
 50
44.99999999999999
 51
81.57232142647915
  0
ARC
  5
184
330
6C
100
AcDbEntity
  8
Visible (ANSI)
100
AcDbCircle
 10
26.82795359276096
 20
33.74261713725624
 30
0.0
 40
0.0937499999999992
100
AcDbArc
 50
44.99999999999999
 51
76.6345064158094
  0
MTEXT
  5
185
330
6C
100
AcDbEntity
  8
Symbol (ANSI)
100
AcDbMText
 10
21.33089202894736
 20
28.63505780131532
 30
0.0
 40
0.8400000103815333
 41
0.0
 71
     7
 72
     1
  1
LEFT VIEW
  7
Text Style168
 73
     1
 44
1.0
  0
LINE
  5
186
330
6C
100
AcDbEntity
  8
Symbol (ANSI)
370
    30
100
AcDbLine
 10
21.24689181286865
 20
28.44605779897947
 30
0.0
 11
26.91723213688003
 21
28.44605779897947
 31
0.0
  0
LINE
  5
187
330
6C
100
AcDbEntity
  8
Visible (ANSI)
100
AcDbLine
 10
79.65914159083816
 20
33.71136713725623
 30
0.0
 11
73.89998867775023
 21
33.71136713725622
 31
0.0
  0
LINE
  5
188
330
6C
100
AcDbEntity
  8
Visible Narrow (ANSI)
100
AcDbLine
 10
73.87538410833027
 20
33.93011713725623
 30
0.0
 11
79.6812386777503
 21
33.93011713725623
 31
0.0
  0
SPLINE
  5
189
330
6C
100
AcDbEntity
  8
Visible (ANSI)
100
AcDbSpline
210
0.0
220
0.0
230
1.0
 70
     8
 71
     3
 72
    11
 73
     7
 74
     0
 42
0.0000000001
 43
0.0000000001
 40
0.0
 40
0.0
 40
0.0
 40
0.0
 40
0.9120227246349724
 40
0.9120227246349724
 40
0.9120227246349724
 40
1.570796326794926
 40
1.570796326794926
 40
1.570796326794926
 40
1.570796326794926
 10
73.89998867775024
 20
33.71136713725622
 30
0.0
 10
73.89522677746267
 20
33.71136713725622
 30
0.0
 10
73.89046487717509
 20
33.74362410432256
 30
0.0
 10
73.88570297688753
 20
33.79620986148772
 30
0.0
 10
73.88226335403512
 20
33.83419368330958
 30
0.0
 10
73.87882373118269
 20
33.88208156209874
 30
0.0
 10
73.87538410833027
 20
33.93011713725623
 30
0.0
  0
SPLINE
  5
18A
330
6C
100
AcDbEntity
  8
Visible (ANSI)
100
AcDbSpline
210
0.0
220
0.0
230
1.0
 70
     8
 71
     3
 72
    11
 73
     7
 74
     0
 42
0.0000000001
 43
0.0000000001
 40
0.0
 40
0.0
 40
0.0
 40
0.0
 40
0.9120227246350397
 40
0.9120227246350397
 40
0.9120227246350397
 40
1.570796326794866
 40
1.570796326794866
 40
1.570796326794866
 40
1.570796326794866
 10
79.6812386777503
 20
33.93011713725623
 30
0.0
 10
79.67696206868939
 20
33.86361548025159
 30
0.0
 10
79.67268545962847
 20
33.79785080914674
 30
0.0
 10
79.66840885056754
 20
33.7571419829818
 30
0.0
 10
79.66531976399108
 20
33.72773712351066
 30
0.0
 10
79.66223067741463
 20
33.71136713725622
 30
0.0
 10
79.65914159083816
 20
33.71136713725622
 30
0.0
  0
SPLINE
  5
18B
330
6C
100
AcDbEntity
  8
Visible (ANSI)
100
AcDbSpline
210
0.0
220
0.0
230
1.0
 70
     8
 71
     3
 72
    11
 73
     7
 74
     0
 42
0.0000000001
 43
0.0000000001
 40
0.0
 40
0.0
 40
0.0
 40
0.0
 40
0.9120227246349513
 40
0.9120227246349513
 40
0.9120227246349513
 40
1.570796326794896
 40
1.570796326794896
 40
1.570796326794896
 40
1.570796326794896
 10
79.68123867775023
 20
33.71136713725622
 30
0.0
 10
79.74774033475487
 20
33.71136713725622
 30
0.0
 10
79.81350500585971
 20
33.74362410432256
 30
0.0
 10
79.85421383202467
 20
33.79620986148773
 30
0.0
 10
79.88361869149581
 20
33.83419368330957
 30
0.0
 10
79.89998867775025
 20
33.88208156209874
 30
0.0
 10
79.89998867775025
 20
33.93011713725623
 30
0.0
  0
LINE
  5
18C
330
6C
100
AcDbEntity
  8
Visible (ANSI)
100
AcDbLine
 10
79.68123867775023
 20
33.83636713725623
 30
0.0
 11
79.6750080521317
 21
33.83636713725623
 31
0.0
  0
LINE
  5
18D
330
6C
100
AcDbEntity
  8
Visible (ANSI)
100
AcDbLine
 10
79.65914159083815
 20
33.71136713725622
 30
0.0
 11
79.68123867775023
 21
33.71136713725622
 31
0.0
  0
LINE
  5
18E
330
6C
100
AcDbEntity
  8
Visible (ANSI)
100
AcDbLine
 10
79.68123867775023
 20
33.83636713725623
 30
0.0
 11
79.68123867775023
 21
33.71136713725622
 31
0.0
  0
SPLINE
  5
18F
330
6C
100
AcDbEntity
  8
Visible (ANSI)
100
AcDbSpline
210
0.0
220
0.0
230
1.0
 70
     8
 71
     3
 72
    11
 73
     7
 74
     0
 42
0.0000000001
 43
0.0000000001
 40
0.0
 40
0.0
 40
0.0
 40
0.0
 40
1.12719708240338
 40
1.12719708240338
 40
1.12719708240338
 40
1.570796326794896
 40
1.570796326794896
 40
1.570796326794896
 40
1.570796326794896
 10
79.77498867775024
 20
33.93011713725623
 30
0.0
 10
79.77498867775024
 20
33.89489222843112
 30
0.0
 10
79.75329111951364
 20
33.86055923089275
 30
0.0
 10
79.72147553288696
 20
33.84544094232101
 30
0.0
 10
79.70895476752322
 20
33.83949126280923
 30
0.0
 10
79.69510115413747
 20
33.83636713725623
 30
0.0
 10
79.68123867775023
 20
33.83636713725623
 30
0.0
  0
LINE
  5
190
330
6C
100
AcDbEntity
  8
Visible (ANSI)
100
AcDbLine
 10
79.89998867775025
 20
33.93011713725623
 30
0.0
 11
79.6812386777503
 21
33.93011713725623
 31
0.0
  0
LINE
  5
191
330
6C
100
AcDbEntity
  8
Visible (ANSI)
100
AcDbLine
 10
79.89998867775025
 20
51.49261713725622
 30
0.0
 11
79.89998867775025
 21
33.93011713725623
 31
0.0
  0
LINE
  5
192
330
6C
100
AcDbEntity
  8
Visible Narrow (ANSI)
100
AcDbLine
 10
79.6812386777503
 20
33.93011713725623
 30
0.0
 11
79.6812386777503
 21
51.49261713725622
 31
0.0
  0
LINE
  5
193
330
6C
100
AcDbEntity
  8
Visible (ANSI)
100
AcDbLine
 10
79.6812386777503
 20
51.49261713725621
 30
0.0
 11
79.89998867775023
 21
51.49261713725621
 31
0.0
  0
LINE
  5
194
330
6C
100
AcDbEntity
  8
Visible (ANSI)
100
AcDbLine
 10
71.89998867775031
 20
51.49261713725622
 30
0.0
 11
73.87538410833027
 21
33.93011713725623
 31
0.0
  0
LINE
  5
195
330
6C
100
AcDbEntity
  8
Visible (ANSI)
100
AcDbLine
 10
71.89998867775024
 20
51.71136713725631
 30
0.0
 11
71.89998867775031
 21
51.49261713725622
 31
0.0
  0
LINE
  5
196
330
6C
100
AcDbEntity
  8
Visible (ANSI)
100
AcDbLine
 10
71.89998867775024
 20
51.71136713725631
 30
0.0
 11
79.65914159083826
 21
51.71136713725613
 31
0.0
  0
LINE
  5
197
330
6C
100
AcDbEntity
  8
Visible Narrow (ANSI)
100
AcDbLine
 10
79.6812386777503
 20
51.49261713725622
 30
0.0
 11
71.89998867775031
 21
51.49261713725622
 31
0.0
  0
SPLINE
  5
198
330
6C
100
AcDbEntity
  8
Visible (ANSI)
100
AcDbSpline
210
0.0
220
0.0
230
1.0
 70
     8
 71
     3
 72
    11
 73
     7
 74
     0
 42
0.0000000001
 43
0.0000000001
 40
0.0
 40
0.0
 40
0.0
 40
0.0
 40
0.9120227246349069
 40
0.9120227246349069
 40
0.9120227246349069
 40
1.570796326794894
 40
1.570796326794894
 40
1.570796326794894
 40
1.570796326794894
 10
79.89998867775025
 20
51.49261713725622
 30
0.0
 10
79.89998867775025
 20
51.55911879426085
 30
0.0
 10
79.86773171068391
 20
51.62488346536568
 30
0.0
 10
79.81514595351875
 20
51.66559229153063
 30
0.0
 10
79.77716213169689
 20
51.69499715100179
 30
0.0
 10
79.72927425290773
 20
51.71136713725622
 30
0.0
 10
79.68123867775023
 20
51.71136713725622
 30
0.0
  0
LINE
  5
199
330
6C
100
AcDbEntity
  8
Visible (ANSI)
100
AcDbLine
 10
79.68123867775023
 20
51.58636713725621
 30
0.0
 11
79.67500805213173
 21
51.58636713725621
 31
0.0
  0
LINE
  5
19A
330
6C
100
AcDbEntity
  8
Visible (ANSI)
100
AcDbLine
 10
79.68123867775023
 20
51.58636713725621
 30
0.0
 11
79.68123867775023
 21
51.71136713725622
 31
0.0
  0
SPLINE
  5
19B
330
6C
100
AcDbEntity
  8
Visible (ANSI)
100
AcDbSpline
210
0.0
220
0.0
230
1.0
 70
     8
 71
     3
 72
    11
 73
     7
 74
     0
 42
0.0000000001
 43
0.0000000001
 40
0.0
 40
0.0
 40
0.0
 40
0.0
 40
1.127197082403218
 40
1.127197082403218
 40
1.127197082403218
 40
1.570796326794894
 40
1.570796326794894
 40
1.570796326794894
 40
1.570796326794894
 10
79.77498867775023
 20
51.49261713725622
 30
0.0
 10
79.77498867775023
 20
51.52784204608132
 30
0.0
 10
79.75329111951364
 20
51.56217504361968
 30
0.0
 10
79.72147553288697
 20
51.57729333219143
 30
0.0
 10
79.70895476752324
 20
51.58324301170321
 30
0.0
 10
79.69510115413747
 20
51.58636713725623
 30
0.0
 10
79.68123867775023
 20
51.58636713725623
 30
0.0
  0
LINE
  5
19C
330
6C
100
AcDbEntity
  8
Visible (ANSI)
100
AcDbLine
 10
79.68123867775023
 20
51.71136713725622
 30
0.0
 11
79.65914159083824
 21
51.71136713725622
 31
0.0
  0
SPLINE
  5
19D
330
6C
100
AcDbEntity
  8
Visible (ANSI)
100
AcDbSpline
210
0.0
220
0.0
230
1.0
 70
     8
 71
     3
 72
    11
 73
     7
 74
     0
 42
0.0000000001
 43
0.0000000001
 40
0.0
 40
0.0
 40
0.0
 40
0.0
 40
0.9120227246350001
 40
0.9120227246350001
 40
0.9120227246350001
 40
1.570796326794894
 40
1.570796326794894
 40
1.570796326794894
 40
1.570796326794894
 10
79.65914159083826
 20
51.71136713725613
 30
0.0
 10
79.66341819989918
 20
51.71136713725613
 30
0.0
 10
79.66769480896009
 20
51.67911017018981
 30
0.0
 10
79.67197141802099
 20
51.62652441302466
 30
0.0
 10
79.67506050459743
 20
51.58854059120283
 30
0.0
 10
79.67814959117387
 20
51.5406527124137
 30
0.0
 10
79.6812386777503
 20
51.49261713725623
 30
0.0
  0
LINE
  5
19E
330
6C
100
AcDbEntity
  8
Visible (ANSI)
100
AcDbLine
 10
72.14998867775019
 20
33.83649327845445
 30
0.0
 11
72.27498867775023
 21
33.83649327845445
 31
0.0
  0
LINE
  5
19F
330
6C
100
AcDbEntity
  8
Visible (ANSI)
100
AcDbLine
 10
72.1499886777502
 20
33.83649327845445
 30
0.0
 11
72.1499886777502
 21
33.71149327845446
 31
0.0
  0
LINE
  5
1A0
330
6C
100
AcDbEntity
  8
Visible (ANSI)
100
AcDbLine
 10
72.27498867775023
 20
33.71149327845446
 30
0.0
 11
72.1499886777502
 21
33.71149327845446
 31
0.0
  0
LINE
  5
1A1
330
6C
100
AcDbEntity
  8
Visible Narrow (ANSI)
100
AcDbLine
 10
72.27498867775023
 20
33.71149327845446
 30
0.0
 11
72.27498867775023
 21
33.83649327845445
 31
0.0
  0
LINE
  5
1A2
330
6C
100
AcDbEntity
  8
Visible (ANSI)
100
AcDbLine
 10
72.27498867775023
 20
33.71149327845446
 30
0.0
 11
73.64987946098111
 21
33.71149327845446
 31
0.0
  0
LINE
  5
1A3
330
6C
100
AcDbEntity
  8
Visible (ANSI)
100
AcDbLine
 10
73.64987946098111
 20
33.83649327845445
 30
0.0
 11
72.27498867775023
 21
33.83649327845445
 31
0.0
  0
ARC
  5
1A4
330
6C
100
AcDbEntity
  8
Visible (ANSI)
100
AcDbCircle
 10
73.64987946098112
 20
33.93024327845445
 30
0.0
 40
0.2187500000000006
100
AcDbArc
 50
270.0
 51
315.0000000000018
  0
ARC
  5
1A5
330
6C
100
AcDbEntity
  8
Visible (ANSI)
100
AcDbCircle
 10
73.64987946098112
 20
33.93024327845445
 30
0.0
 40
0.0937500000000004
100
AcDbArc
 50
270.0
 51
315.0
  0
LINE
  5
1A6
330
6C
100
AcDbEntity
  8
Visible (ANSI)
100
AcDbLine
 10
73.83790379728826
 20
33.80890839799248
 30
0.0
 11
73.80455906936568
 21
33.77556367006989
 31
0.0
  0
LINE
  5
1A7
330
6C
100
AcDbEntity
  8
Visible (ANSI)
100
AcDbLine
 10
73.71617072171736
 20
33.86395201771821
 30
0.0
 11
73.74951544963995
 21
33.8972967456408
 31
0.0
  0
ARC
  5
1A8
330
6C
100
AcDbEntity
  8
Visible (ANSI)
100
AcDbCircle
 10
73.9041950580245
 20
33.74261713725625
 30
0.0
 40
0.0937499999999983
100
AcDbArc
 50
103.3654935841325
 51
135.0
  0
ARC
  5
1A9
330
6C
100
AcDbEntity
  8
Visible (ANSI)
100
AcDbCircle
 10
73.9041950580245
 20
33.74261713725625
 30
0.0
 40
0.2187499999999979
100
AcDbArc
 50
98.4276785734964
 51
135.0
  0
MTEXT
  5
1AA
330
6C
100
AcDbEntity
  8
Symbol (ANSI)
100
AcDbMText
 10
73.21187417361409
 20
30.74523356524254
 30
0.0
 40
0.8400000103815333
 41
0.0
 71
     7
 72
     1
  1
RIGHT VIEW
  7
Text Style168
 73
     1
 44
1.0
  0
LINE
  5
1AB
330
6C
100
AcDbEntity
  8
Symbol (ANSI)
370
    30
100
AcDbLine
 10
73.12787395753538
 20
30.57257067721229
 30
0.0
 11
79.67225003421116
 21
30.57257067721229
 31
0.0
  0
CIRCLE
  5
1AC
330
6C
100
AcDbEntity
  8
Visible (ANSI)
100
AcDbCircle
 10
46.2050561028002
 20
23.65775590596689
 30
0.0
 40
0.28125
  0
CIRCLE
  5
1AD
330
6C
100
AcDbEntity
  8
Visible (ANSI)
100
AcDbCircle
 10
57.83005610280021
 20
23.65775590596689
 30
0.0
 40
0.28125
  0
CIRCLE
  5
1AE
330
6C
100
AcDbEntity
  8
Visible (ANSI)
100
AcDbCircle
 10
44.64255610280019
 20
22.34525590596689
 30
0.0
 40
0.28125
  0
CIRCLE
  5
1AF
330
6C
100
AcDbEntity
  8
Visible (ANSI)
100
AcDbCircle
 10
44.6425561028002
 20
17.34525590596689
 30
0.0
 40
0.28125
  0
CIRCLE
  5
1B0
330
6C
100
AcDbEntity
  8
Visible (ANSI)
100
AcDbCircle
 10
59.3925561028002
 20
22.34525590596688
 30
0.0
 40
0.28125
  0
CIRCLE
  5
1B1
330
6C
100
AcDbEntity
  8
Visible (ANSI)
100
AcDbCircle
 10
59.39255610280023
 20
17.34525590596688
 30
0.0
 40
0.28125
  0
LINE
  5
1B2
330
6C
100
AcDbEntity
  8
Visible (ANSI)
100
AcDbLine
 10
43.95505610280021
 20
16.34525590596682
 30
0.0
 11
43.95505610280021
 21
24.12650590596683
 31
0.0
  0
LINE
  5
1B3
330
6C
100
AcDbEntity
  8
Visible (ANSI)
100
AcDbLine
 10
43.95505610280021
 20
16.34525590596682
 30
0.0
 11
44.1738061028002
 21
16.34525590596689
 31
0.0
  0
LINE
  5
1B4
330
6C
100
AcDbEntity
  8
Visible (ANSI)
100
AcDbLine
 10
59.86130610280042
 20
16.3452559059669
 30
0.0
 11
60.08005610280051
 21
16.34525590596684
 31
0.0
  0
LINE
  5
1B5
330
6C
100
AcDbEntity
  8
Visible Narrow (ANSI)
100
AcDbLine
 10
59.83920901588811
 20
24.1265059059669
 30
0.0
 11
44.19590318971228
 21
24.1265059059669
 31
0.0
  0
LINE
  5
1B6
330
6C
100
AcDbEntity
  8
Visible (ANSI)
100
AcDbLine
 10
44.1738061028002
 20
24.34525590596683
 30
0.0
 11
59.86130610280021
 21
24.34525590596683
 31
0.0
  0
LINE
  5
1B7
330
6C
100
AcDbEntity
  8
Visible Narrow (ANSI)
100
AcDbLine
 10
44.1738061028002
 20
24.10440881905482
 30
0.0
 11
44.1738061028002
 21
16.34525590596689
 31
0.0
  0
LINE
  5
1B8
330
6C
100
AcDbEntity
  8
Visible Narrow (ANSI)
100
AcDbLine
 10
59.86130610280042
 20
16.34525590596689
 30
0.0
 11
59.86130610280038
 21
24.10440881905492
 31
0.0
  0
LINE
  5
1B9
330
6C
100
AcDbEntity
  8
Visible (ANSI)
100
AcDbLine
 10
60.0800561028002
 20
24.12650590596682
 30
0.0
 11
60.08005610280024
 21
16.34525590596683
 31
0.0
  0
ARC
  5
1BA
330
6C
100
AcDbEntity
  8
Visible (ANSI)
100
AcDbCircle
 10
59.86130610280019
 20
24.12650590596683
 30
0.0
 40
0.2187500000000015
100
AcDbArc
 50
0.0
 51
89.99999999999744
  0
ARC
  5
1BB
330
6C
100
AcDbEntity
  8
Visible (ANSI)
100
AcDbCircle
 10
44.1738061028002
 20
24.12650590596683
 30
0.0
 40
0.09375
100
AcDbArc
 50
90.0
 51
180.0
  0
LINE
  5
1BC
330
6C
100
AcDbEntity
  8
Visible (ANSI)
100
AcDbLine
 10
44.7050561028002
 20
16.34525590596689
 30
0.0
 11
44.1738061028002
 21
16.34525590596689
 31
0.0
  0
LINE
  5
1BD
330
6C
100
AcDbEntity
  8
Visible (ANSI)
100
AcDbLine
 10
59.86130610280042
 20
16.34525590596689
 30
0.0
 11
59.33005610280062
 21
16.34525590596688
 31
0.0
  0
LINE
  5
1BE
330
6C
100
AcDbEntity
  8
Visible (ANSI)
100
AcDbLine
 10
58.80795901588815
 20
23.0952559059669
 30
0.0
 11
45.22715318971228
 21
23.0952559059669
 31
0.0
  0
LINE
  5
1BF
330
6C
100
AcDbEntity
  8
Visible (ANSI)
100
AcDbLine
 10
45.20505610280021
 20
23.07315881905482
 30
0.0
 11
45.20505610280021
 21
16.84525590596689
 31
0.0
  0
LINE
  5
1C0
330
6C
100
AcDbEntity
  8
Visible (ANSI)
100
AcDbLine
 10
58.83005610280061
 20
16.84525590596686
 30
0.0
 11
58.83005610280043
 21
23.07315881905491
 31
0.0
  0
ARC
  5
1C1
330
6C
100
AcDbEntity
  8
Visible (ANSI)
100
AcDbCircle
 10
44.1738061028002
 20
24.12650590596683
 30
0.0
 40
0.21875
100
AcDbArc
 50
90.0
 51
180.0
  0
ARC
  5
1C2
330
6C
100
AcDbEntity
  8
Visible (ANSI)
100
AcDbCircle
 10
59.86130610280019
 20
24.12650590596683
 30
0.0
 40
0.0937500000000042
100
AcDbArc
 50
0.0
 51
89.99999999999401
  0
LINE
  5
1C3
330
6C
100
AcDbEntity
  8
Visible (ANSI)
100
AcDbLine
 10
45.20505610280021
 20
16.84525590596689
 30
0.0
 11
44.7050561028002
 21
16.34525590596689
 31
0.0
  0
LINE
  5
1C4
330
6C
100
AcDbEntity
  8
Visible (ANSI)
100
AcDbLine
 10
59.33005610280062
 20
16.34525590596688
 30
0.0
 11
58.83005610280061
 21
16.84525590596686
 31
0.0
  0
SPLINE
  5
1C5
330
6C
100
AcDbEntity
  8
Visible (ANSI)
100
AcDbSpline
210
0.0
220
0.0
230
1.0
 70
     8
 71
     3
 72
    11
 73
     7
 74
     0
 42
0.0000000001
 43
0.0000000001
 40
0.0
 40
0.0
 40
0.0
 40
0.0
 40
0.9120227246349069
 40
0.9120227246349069
 40
0.9120227246349069
 40
1.570796326794894
 40
1.570796326794894
 40
1.570796326794894
 40
1.570796326794894
 10
59.86130610280021
 20
24.34525590596683
 30
0.0
 10
59.85702949373929
 20
24.34525590596685
 30
0.0
 10
59.85275288467838
 20
24.31299893890054
 30
0.0
 10
59.84847627561746
 20
24.26041318173539
 30
0.0
 10
59.84538718904101
 20
24.22242935991355
 30
0.0
 10
59.84229810246457
 20
24.17454148112439
 30
0.0
 10
59.83920901588811
 20
24.12650590596689
 30
0.0
  0
SPLINE
  5
1C6
330
6C
100
AcDbEntity
  8
Visible (ANSI)
100
AcDbSpline
210
0.0
220
0.0
230
1.0
 70
     8
 71
     3
 72
    11
 73
     7
 74
     0
 42
0.0000000001
 43
0.0000000001
 40
0.0
 40
0.0
 40
0.0
 40
0.0
 40
0.9120227246349079
 40
0.9120227246349079
 40
0.9120227246349079
 40
1.570796326794894
 40
1.570796326794894
 40
1.570796326794894
 40
1.570796326794894
 10
44.19590318971228
 20
24.1265059059669
 30
0.0
 10
44.19162658065137
 20
24.19300756297153
 30
0.0
 10
44.18734997159046
 20
24.25877223407636
 30
0.0
 10
44.18307336252954
 20
24.29948106024129
 30
0.0
 10
44.1799842759531
 20
24.32888591971242
 30
0.0
 10
44.17689518937666
 20
24.34525590596685
 30
0.0
 10
44.1738061028002
 20
24.34525590596683
 30
0.0
  0
LINE
  5
1C7
330
6C
100
AcDbEntity
  8
Visible (ANSI)
100
AcDbLine
 10
45.22715318971228
 20
23.0952559059669
 30
0.0
 11
44.19590318971228
 21
24.1265059059669
 31
0.0
  0
SPLINE
  5
1C8
330
6C
100
AcDbEntity
  8
Visible (ANSI)
100
AcDbSpline
210
0.0
220
0.0
230
1.0
 70
    24
 71
     3
 72
     8
 73
     4
 74
     0
 42
0.0000000001
 43
0.0000000001
 40
-0.0000000000000001
 40
-0.0000000000000001
 40
-0.0000000000000001
 40
-0.0000000000000001
 40
0.3175000000000002
 40
0.3175000000000002
 40
0.3175000000000002
 40
0.3175000000000002
 10
44.1738061028002
 20
24.22025590596683
 30
0.0
 10
44.1738061028002
 20
24.2619225726335
 30
0.0
 10
44.1738061028002
 20
24.30358923930016
 30
0.0
 10
44.1738061028002
 20
24.34525590596683
 30
0.0
  0
SPLINE
  5
1C9
330
6C
100
AcDbEntity
  8
Visible (ANSI)
100
AcDbSpline
210
0.0
220
0.0
230
1.0
 70
     8
 71
     3
 72
    11
 73
     7
 74
     0
 42
0.0000000001
 43
0.0000000001
 40
0.0
 40
0.0
 40
0.0
 40
0.0
 40
1.127197082403218
 40
1.127197082403218
 40
1.127197082403218
 40
1.570796326794894
 40
1.570796326794894
 40
1.570796326794894
 40
1.570796326794894
 10
44.1738061028002
 20
24.22025590596683
 30
0.0
 10
44.17909169615859
 20
24.22025590596684
 30
0.0
 10
44.184377289517
 20
24.19855834773025
 30
0.0
 10
44.18966288287539
 20
24.1667427611036
 30
0.0
 10
44.19174298515435
 20
24.15422199573985
 30
0.0
 10
44.19382308743331
 20
24.1403683823541
 30
0.0
 10
44.19590318971228
 20
24.12650590596686
 30
0.0
  0
SPLINE
  5
1CA
330
6C
100
AcDbEntity
  8
Visible (ANSI)
100
AcDbSpline
210
0.0
220
0.0
230
1.0
 70
     8
 71
     3
 72
    11
 73
     7
 74
     0
 42
0.0000000001
 43
0.0000000001
 40
0.0
 40
0.0
 40
0.0
 40
0.0
 40
1.127197082403218
 40
1.127197082403218
 40
1.127197082403218
 40
1.570796326794894
 40
1.570796326794894
 40
1.570796326794894
 40
1.570796326794894
 10
59.86130610280021
 20
24.22025590596683
 30
0.0
 10
59.8560205094418
 20
24.22025590596684
 30
0.0
 10
59.8507349160834
 20
24.19855834773025
 30
0.0
 10
59.845449322725
 20
24.1667427611036
 30
0.0
 10
59.84336922044604
 20
24.15422199573985
 30
0.0
 10
59.84128911816707
 20
24.1403683823541
 30
0.0
 10
59.83920901588811
 20
24.12650590596686
 30
0.0
  0
SPLINE
  5
1CB
330
6C
100
AcDbEntity
  8
Visible (ANSI)
100
AcDbSpline
210
0.0
220
0.0
230
1.0
 70
    24
 71
     3
 72
     8
 73
     4
 74
     0
 42
0.0000000001
 43
0.0000000001
 40
-0.3175000000000004
 40
-0.3175000000000004
 40
-0.3175000000000004
 40
-0.3175000000000004
 40
0.0
 40
0.0
 40
0.0
 40
0.0
 10
59.86130610280021
 20
24.34525590596683
 30
0.0
 10
59.86130610280021
 20
24.30358923930016
 30
0.0
 10
59.86130610280021
 20
24.2619225726335
 30
0.0
 10
59.86130610280021
 20
24.22025590596683
 30
0.0
  0
LINE
  5
1CC
330
6C
100
AcDbEntity
  8
Visible (ANSI)
100
AcDbLine
 10
59.83920901588811
 20
24.1265059059669
 30
0.0
 11
58.80795901588815
 21
23.0952559059669
 31
0.0
  0
SPLINE
  5
1CD
330
6C
100
AcDbEntity
  8
Visible (ANSI)
100
AcDbSpline
210
0.0
220
0.0
230
1.0
 70
     8
 71
     3
 72
    11
 73
     7
 74
     0
 42
0.0000000001
 43
0.0000000001
 40
0.0
 40
0.0
 40
0.0
 40
0.0
 40
0.9120227246350472
 40
0.9120227246350472
 40
0.9120227246350472
 40
1.570796326794894
 40
1.570796326794894
 40
1.570796326794894
 40
1.570796326794894
 10
43.95505610280021
 20
24.12650590596683
 30
0.0
 10
43.95505610280021
 20
24.12222929690594
 30
0.0
 10
43.98731306986655
 20
24.11795268784505
 30
0.0
 10
44.03989882703173
 20
24.11367607878414
 30
0.0
 10
44.07788264885357
 20
24.11058699220771
 30
0.0
 10
44.12577052764272
 20
24.10749790563126
 30
0.0
 10
44.17380610280021
 20
24.10440881905482
 30
0.0
  0
SPLINE
  5
1CE
330
6C
100
AcDbEntity
  8
Visible (ANSI)
100
AcDbSpline
210
0.0
220
0.0
230
1.0
 70
     8
 71
     3
 72
    11
 73
     7
 74
     0
 42
0.0000000001
 43
0.0000000001
 40
0.0
 40
0.0
 40
0.0
 40
0.0
 40
1.127197082403415
 40
1.127197082403415
 40
1.127197082403415
 40
1.570796326794894
 40
1.570796326794894
 40
1.570796326794894
 40
1.570796326794894
 10
44.0800561028002
 20
24.12650590596683
 30
0.0
 10
44.0800561028002
 20
24.12122031260845
 30
0.0
 10
44.10175366103682
 20
24.11593471925006
 30
0.0
 10
44.13356924766349
 20
24.11064912589166
 30
0.0
 10
44.14609001302722
 20
24.1085690236127
 30
0.0
 10
44.15994362641297
 20
24.10648892133374
 30
0.0
 10
44.1738061028002
 20
24.10440881905478
 30
0.0
  0
SPLINE
  5
1CF
330
6C
100
AcDbEntity
  8
Visible (ANSI)
100
AcDbSpline
210
0.0
220
0.0
230
1.0
 70
    24
 71
     3
 72
     8
 73
     4
 74
     0
 42
0.0000000001
 43
0.0000000001
 40
-0.317500000000005
 40
-0.317500000000005
 40
-0.317500000000005
 40
-0.317500000000005
 40
0.0
 40
0.0
 40
0.0
 40
0.0
 10
43.95505610280021
 20
24.12650590596683
 30
0.0
 10
43.99672276946687
 20
24.12650590596683
 30
0.0
 10
44.03838943613354
 20
24.12650590596683
 30
0.0
 10
44.0800561028002
 20
24.12650590596683
 30
0.0
  0
LINE
  5
1D0
330
6C
100
AcDbEntity
  8
Visible (ANSI)
100
AcDbLine
 10
44.1738061028002
 20
24.10440881905482
 30
0.0
 11
45.20505610280021
 21
23.07315881905482
 31
0.0
  0
SPLINE
  5
1D1
330
6C
100
AcDbEntity
  8
Visible (ANSI)
100
AcDbSpline
210
0.0
220
0.0
230
1.0
 70
     8
 71
     3
 72
    11
 73
     7
 74
     0
 42
0.0000000001
 43
0.0000000001
 40
0.0
 40
0.0
 40
0.0
 40
0.0
 40
0.9120227246350001
 40
0.9120227246350001
 40
0.9120227246350001
 40
1.570796326794894
 40
1.570796326794894
 40
1.570796326794894
 40
1.570796326794894
 10
59.86130610280038
 20
24.10440881905492
 30
0.0
 10
59.92780775980499
 20
24.10868542811581
 30
0.0
 10
59.9935724309098
 20
24.11296203717669
 30
0.0
 10
60.03428125707474
 20
24.11723864623756
 30
0.0
 10
60.06368611654586
 20
24.12032773281399
 30
0.0
 10
60.08005610280029
 20
24.12341681939041
 30
0.0
 10
60.08005610280029
 20
24.12650590596683
 30
0.0
  0
LINE
  5
1D2
330
6C
100
AcDbEntity
  8
Visible (ANSI)
100
AcDbLine
 10
58.83005610280043
 20
23.07315881905491
 30
0.0
 11
59.86130610280038
 21
24.10440881905492
 31
0.0
  0
SPLINE
  5
1D3
330
6C
100
AcDbEntity
  8
Visible (ANSI)
100
AcDbSpline
210
0.0
220
0.0
230
1.0
 70
    24
 71
     3
 72
     8
 73
     4
 74
     0
 42
0.0000000001
 43
0.0000000001
 40
0.0
 40
0.0
 40
0.0
 40
0.0
 40
0.3175000000000097
 40
0.3175000000000097
 40
0.3175000000000097
 40
0.3175000000000097
 10
59.95505610280029
 20
24.12650590596683
 30
0.0
 10
59.99672276946697
 20
24.12650590596683
 30
0.0
 10
60.03838943613363
 20
24.12650590596683
 30
0.0
 10
60.08005610280029
 20
24.12650590596683
 30
0.0
  0
SPLINE
  5
1D4
330
6C
100
AcDbEntity
  8
Visible (ANSI)
100
AcDbSpline
210
0.0
220
0.0
230
1.0
 70
     8
 71
     3
 72
    11
 73
     7
 74
     0
 42
0.0000000001
 43
0.0000000001
 40
0.0
 40
0.0
 40
0.0
 40
0.0
 40
1.127197082403837
 40
1.127197082403837
 40
1.127197082403837
 40
1.570796326794894
 40
1.570796326794894
 40
1.570796326794894
 40
1.570796326794894
 10
59.9550561028003
 20
24.12650590596683
 30
0.0
 10
59.9550561028003
 20
24.12122031260846
 30
0.0
 10
59.93335854456368
 20
24.1159347192501
 30
0.0
 10
59.90154295793703
 20
24.11064912589173
 30
0.0
 10
59.88902219257331
 20
24.10856902361278
 30
0.0
 10
59.87516857918759
 20
24.10648892133383
 30
0.0
 10
59.86130610280038
 20
24.10440881905488
 30
0.0
  0
CIRCLE
  5
1D5
330
6C
100
AcDbEntity
  8
Visible (ANSI)
100
AcDbCircle
 10
52.01755610280017
 20
20.59525590596163
 30
0.0
 40
0.28125
  0
CIRCLE
  5
1D6
330
6C
100
AcDbEntity
  8
Visible (ANSI)
100
AcDbCircle
 10
46.08005610280017
 20
17.59525590596159
 30
0.0
 40
0.28125
  0
CIRCLE
  5
1D7
330
6C
100
AcDbEntity
  8
Visible (ANSI)
100
AcDbCircle
 10
57.95505610280017
 20
17.59525590596159
 30
0.0
 40
0.28125
  0
LINE
  5
1D8
330
6C
100
AcDbEntity
  8
Visible (ANSI)
100
AcDbLine
 10
59.83005610280017
 20
24.07315881904943
 30
0.0
 11
59.83005610280017
 21
24.09535306946679
 31
0.0
  0
LINE
  5
1D9
330
6C
100
AcDbEntity
  8
Visible (ANSI)
100
AcDbLine
 10
44.20505610280016
 20
24.09535306946679
 30
0.0
 11
44.20505610280016
 21
24.07315881904958
 31
0.0
  0
ARC
  5
1DA
330
6C
100
AcDbEntity
  8
Visible (ANSI)
100
AcDbCircle
 10
44.33005610280018
 20
24.09535306946679
 30
0.0
 40
0.1250000000000104
100
AcDbArc
 50
170.6375988628257
 51
180.0
  0
ARC
  5
1DB
330
6C
100
AcDbEntity
  8
Visible (ANSI)
100
AcDbCircle
 10
59.70505610280101
 20
24.09535306946686
 30
0.0
 40
0.1249999999991561
100
AcDbArc
 50
0.0
 51
9.36240113718461
  0
LINE
  5
1DC
330
6C
100
AcDbEntity
  8
Visible Narrow (ANSI)
100
AcDbLine
 10
58.83005610280056
 20
18.34946228623585
 30
0.0
 11
45.2050561028002
 21
18.3494622862359
 31
0.0
  0
LINE
  5
1DD
330
6C
100
AcDbEntity
  8
Visible Narrow (ANSI)
100
AcDbLine
 10
58.83005610280056
 20
18.19478267785133
 30
0.0
 11
45.2050561028002
 21
18.19478267785132
 31
0.0
  0
LINE
  5
1DE
330
6C
100
AcDbEntity
  8
Visible Narrow (ANSI)
100
AcDbLine
 10
58.83005610280056
 20
18.16143794992872
 30
0.0
 11
45.2050561028002
 21
18.16143794992872
 31
0.0
  0
LINE
  5
1DF
330
6C
100
AcDbEntity
  8
Visible Narrow (ANSI)
100
AcDbLine
 10
58.83005610280056
 20
18.09514668919248
 30
0.0
 11
45.2050561028002
 21
18.09514668919248
 31
0.0
  0
LINE
  5
1E0
330
6C
100
AcDbEntity
  8
Visible (ANSI)
100
AcDbLine
 10
59.08005610280057
 20
16.59525590596159
 30
0.0
 11
44.9550561028002
 21
16.59525590596159
 31
0.0
  0
MTEXT
  5
1E1
330
6C
100
AcDbEntity
  8
Symbol (ANSI)
100
AcDbMText
 10
48.10722641896554
 20
12.31647264566333
 30
0.0
 40
0.8400000103815333
 41
0.0
 71
     7
 72
     1
  1
BOTTOM VIEW
  7
Text Style168
 73
     1
 44
1.0
  0
LINE
  5
1E2
330
6C
100
AcDbEntity
  8
Symbol (ANSI)
370
    30
100
AcDbLine
 10
48.02322620288684
 20
12.1451711840391
 30
0.0
 11
55.74932039998738
 21
12.1451711840391
 31
0.0
  0
LINE
  5
1E3
330
6C
100
AcDbEntity
  8
Visible Narrow (ANSI)
100
AcDbLine
 10
59.86130610281114
 20
59.98191585546469
 30
0.0
 11
59.86130610281117
 21
65.7410687685526
 31
0.0
  0
LINE
  5
1E4
330
6C
100
AcDbEntity
  8
Visible (ANSI)
100
AcDbLine
 10
60.08005610281117
 20
65.76567333797271
 30
0.0
 11
60.08005610281113
 21
59.95981876855267
 31
0.0
  0
SPLINE
  5
1E5
330
6C
100
AcDbEntity
  8
Visible (ANSI)
100
AcDbSpline
210
0.0
220
0.0
230
1.0
 70
     8
 71
     3
 72
    11
 73
     7
 74
     0
 42
0.0000000001
 43
0.0000000001
 40
0.0
 40
0.0
 40
0.0
 40
0.0
 40
0.9120227246349724
 40
0.9120227246349724
 40
0.9120227246349724
 40
1.570796326794926
 40
1.570796326794926
 40
1.570796326794926
 40
1.570796326794926
 10
59.86130610281117
 20
65.7410687685526
 30
0.0
 10
59.9278077598158
 20
65.7458306688402
 30
0.0
 10
59.99357243092065
 20
65.7505925691278
 30
0.0
 10
60.03428125708559
 20
65.75535446941541
 30
0.0
 10
60.06368611655673
 20
65.75879409226783
 30
0.0
 10
60.08005610281117
 20
65.76223371512027
 30
0.0
 10
60.08005610281117
 20
65.76567333797271
 30
0.0
  0
LINE
  5
1E6
330
6C
100
AcDbEntity
  8
Visible (ANSI)
100
AcDbLine
 10
60.00056667801658
 20
65.76567333797271
 30
0.0
 11
60.08005610281117
 21
65.76567333797271
 31
0.0
  0
LINE
  5
1E7
330
6C
100
AcDbEntity
  8
Visible (ANSI)
100
AcDbLine
 10
59.95505610281117
 20
65.76567333797271
 30
0.0
 11
60.00056667801658
 21
65.76567333797271
 31
0.0
  0
SPLINE
  5
1E8
330
6C
100
AcDbEntity
  8
Visible (ANSI)
100
AcDbSpline
210
0.0
220
0.0
230
1.0
 70
     8
 71
     3
 72
    11
 73
     7
 74
     0
 42
0.0000000001
 43
0.0000000001
 40
0.0
 40
0.0
 40
0.0
 40
0.0
 40
1.127197082403422
 40
1.127197082403422
 40
1.127197082403422
 40
1.570796326794926
 40
1.570796326794926
 40
1.570796326794926
 40
1.570796326794926
 10
59.95505610281117
 20
65.76567333797271
 30
0.0
 10
59.95505610281117
 20
65.75978795818349
 30
0.0
 10
59.93335854457455
 20
65.75390257839426
 30
0.0
 10
59.90154295794789
 20
65.74801719860506
 30
0.0
 10
59.88902219258416
 20
65.74570105525426
 30
0.0
 10
59.8751685791984
 20
65.74338491190346
 30
0.0
 10
59.86130610281117
 20
65.74106876855265
 30
0.0
  0
LINE
  5
1E9
330
6C
100
AcDbEntity
  8
Visible Narrow (ANSI)
100
AcDbLine
 10
44.19590318972323
 20
59.9598187685526
 30
0.0
 11
59.83920901589905
 21
59.9598187685526
 31
0.0
  0
LINE
  5
1EA
330
6C
100
AcDbEntity
  8
Visible (ANSI)
100
AcDbLine
 10
59.86130610281115
 20
59.74106876855268
 30
0.0
 11
44.17380610281114
 21
59.74106876855268
 31
0.0
  0
LINE
  5
1EB
330
6C
100
AcDbEntity
  8
Visible Narrow (ANSI)
100
AcDbLine
 10
44.17380610281114
 20
65.74106876855271
 30
0.0
 11
44.17380610281114
 21
59.98191585546469
 31
0.0
  0
SPLINE
  5
1EC
330
6C
100
AcDbEntity
  8
Visible (ANSI)
100
AcDbSpline
210
0.0
220
0.0
230
1.0
 70
     8
 71
     3
 72
    11
 73
     7
 74
     0
 42
0.0000000001
 43
0.0000000001
 40
0.0
 40
0.0
 40
0.0
 40
0.0
 40
0.9120227246349479
 40
0.9120227246349479
 40
0.9120227246349479
 40
1.570796326794896
 40
1.570796326794896
 40
1.570796326794896
 40
1.570796326794896
 10
43.95505610281115
 20
65.7656733379728
 30
0.0
 10
43.95505610281115
 20
65.76091143768519
 30
0.0
 10
43.98731306987747
 20
65.75614953739759
 30
0.0
 10
44.03989882704265
 20
65.75138763710999
 30
0.0
 10
44.07788264886449
 20
65.74794801425756
 30
0.0
 10
44.12577052765364
 20
65.74450839140512
 30
0.0
 10
44.17380610281114
 20
65.74106876855271
 30
0.0
  0
LINE
  5
1ED
330
6C
100
AcDbEntity
  8
Visible (ANSI)
100
AcDbLine
 10
43.95505610281115
 20
59.95981876855267
 30
0.0
 11
43.95505610281115
 21
65.7656733379728
 31
0.0
  0
SPLINE
  5
1EE
330
6C
100
AcDbEntity
  8
Visible (ANSI)
100
AcDbSpline
210
0.0
220
0.0
230
1.0
 70
     8
 71
     3
 72
    11
 73
     7
 74
     0
 42
0.0000000001
 43
0.0000000001
 40
0.0
 40
0.0
 40
0.0
 40
0.0
 40
1.127197082403383
 40
1.127197082403383
 40
1.127197082403383
 40
1.570796326794896
 40
1.570796326794896
 40
1.570796326794896
 40
1.570796326794896
 10
44.08005610281114
 20
65.7656733379728
 30
0.0
 10
44.08005610281114
 20
65.75978795818357
 30
0.0
 10
44.10175366104776
 20
65.75390257839436
 30
0.0
 10
44.13356924767442
 20
65.74801719860514
 30
0.0
 10
44.14609001303816
 20
65.74570105525435
 30
0.0
 10
44.15994362642391
 20
65.74338491190355
 30
0.0
 10
44.17380610281114
 20
65.74106876855274
 30
0.0
  0
LINE
  5
1EF
330
6C
100
AcDbEntity
  8
Visible (ANSI)
100
AcDbLine
 10
44.03454552760574
 20
65.7656733379728
 30
0.0
 11
44.08005610281114
 21
65.7656733379728
 31
0.0
  0
LINE
  5
1F0
330
6C
100
AcDbEntity
  8
Visible (ANSI)
100
AcDbLine
 10
43.95505610281115
 20
65.7656733379728
 30
0.0
 11
44.03454552760574
 21
65.7656733379728
 31
0.0
  0
SPLINE
  5
1F1
330
6C
100
AcDbEntity
  8
Visible (ANSI)
100
AcDbSpline
210
0.0
220
0.0
230
1.0
 70
     8
 71
     3
 72
    11
 73
     7
 74
     0
 42
0.0000000001
 43
0.0000000001
 40
0.0
 40
0.0
 40
0.0
 40
0.0
 40
0.9120227246350397
 40
0.9120227246350397
 40
0.9120227246350397
 40
1.570796326794866
 40
1.570796326794866
 40
1.570796326794866
 40
1.570796326794866
 10
60.08005610281113
 20
59.95981876855267
 30
0.0
 10
60.08005610281113
 20
59.96409537761357
 30
0.0
 10
60.04779913574481
 20
59.96837198667446
 30
0.0
 10
59.99521337857963
 20
59.97264859573536
 30
0.0
 10
59.95722955675779
 20
59.9757376823118
 30
0.0
 10
59.90934167796864
 20
59.97882676888824
 30
0.0
 10
59.86130610281115
 20
59.98191585546469
 30
0.0
  0
SPLINE
  5
1F2
330
6C
100
AcDbEntity
  8
Visible (ANSI)
100
AcDbSpline
210
0.0
220
0.0
230
1.0
 70
     8
 71
     3
 72
    11
 73
     7
 74
     0
 42
0.0000000001
 43
0.0000000001
 40
0.0
 40
0.0
 40
0.0
 40
0.0
 40
1.127197082403218
 40
1.127197082403218
 40
1.127197082403218
 40
1.570796326794866
 40
1.570796326794866
 40
1.570796326794866
 40
1.570796326794866
 10
59.95505610281114
 20
59.95981876855267
 30
0.0
 10
59.95505610281114
 20
59.96510436191106
 30
0.0
 10
59.93335854457453
 20
59.97038995526945
 30
0.0
 10
59.90154295794788
 20
59.97567554862785
 30
0.0
 10
59.88902219258414
 20
59.9777556509068
 30
0.0
 10
59.87516857919838
 20
59.97983575318577
 30
0.0
 10
59.86130610281114
 20
59.98191585546472
 30
0.0
  0
SPLINE
  5
1F3
330
6C
100
AcDbEntity
  8
Visible (ANSI)
100
AcDbSpline
210
0.0
220
0.0
230
1.0
 70
    24
 71
     3
 72
     8
 73
     4
 74
     0
 42
0.0000000001
 43
0.0000000001
 40
-0.3175000000000026
 40
-0.3175000000000026
 40
-0.3175000000000026
 40
-0.3175000000000026
 40
0.0
 40
0.0
 40
0.0
 40
0.0
 10
60.08005610281113
 20
59.95981876855267
 30
0.0
 10
60.03838943614447
 20
59.95981876855267
 30
0.0
 10
59.9967227694778
 20
59.95981876855267
 30
0.0
 10
59.95505610281114
 20
59.95981876855267
 30
0.0
  0
LINE
  5
1F4
330
6C
100
AcDbEntity
  8
Visible (ANSI)
100
AcDbLine
 10
59.86130610281114
 20
59.98191585546469
 30
0.0
 11
58.83005610281116
 21
61.01316585546468
 31
0.0
  0
SPLINE
  5
1F5
330
6C
100
AcDbEntity
  8
Visible (ANSI)
100
AcDbSpline
210
0.0
220
0.0
230
1.0
 70
     8
 71
     3
 72
    11
 73
     7
 74
     0
 42
0.0000000001
 43
0.0000000001
 40
0.0
 40
0.0
 40
0.0
 40
0.0
 40
0.912022724634949
 40
0.912022724634949
 40
0.912022724634949
 40
1.570796326794896
 40
1.570796326794896
 40
1.570796326794896
 40
1.570796326794896
 10
44.17380610281114
 20
59.74106876855268
 30
0.0
 10
44.17808271187205
 20
59.74106876855266
 30
0.0
 10
44.18235932093296
 20
59.77332573561897
 30
0.0
 10
44.18663592999387
 20
59.82591149278412
 30
0.0
 10
44.18972501657033
 20
59.86389531460595
 30
0.0
 10
44.19281410314678
 20
59.9117831933951
 30
0.0
 10
44.19590318972323
 20
59.9598187685526
 30
0.0
  0
SPLINE
  5
1F6
330
6C
100
AcDbEntity
  8
Visible (ANSI)
100
AcDbSpline
210
0.0
220
0.0
230
1.0
 70
     8
 71
     3
 72
    11
 73
     7
 74
     0
 42
0.0000000001
 43
0.0000000001
 40
0.0
 40
0.0
 40
0.0
 40
0.0
 40
0.9120227246349513
 40
0.9120227246349513
 40
0.9120227246349513
 40
1.570796326794896
 40
1.570796326794896
 40
1.570796326794896
 40
1.570796326794896
 10
59.83920901589905
 20
59.9598187685526
 30
0.0
 10
59.84348562495997
 20
59.89331711154798
 30
0.0
 10
59.84776223402088
 20
59.82755244044314
 30
0.0
 10
59.8520388430818
 20
59.78684361427822
 30
0.0
 10
59.85512792965824
 20
59.75743875480708
 30
0.0
 10
59.85821701623469
 20
59.74106876855266
 30
0.0
 10
59.86130610281114
 20
59.74106876855268
 30
0.0
  0
LINE
  5
1F7
330
6C
100
AcDbEntity
  8
Visible (ANSI)
100
AcDbLine
 10
58.80795901589905
 20
60.99106876855261
 30
0.0
 11
59.83920901589905
 21
59.9598187685526
 31
0.0
  0
SPLINE
  5
1F8
330
6C
100
AcDbEntity
  8
Visible (ANSI)
100
AcDbSpline
210
0.0
220
0.0
230
1.0
 70
    24
 71
     3
 72
     8
 73
     4
 74
     0
 42
0.0000000001
 43
0.0000000001
 40
0.0
 40
0.0
 40
0.0
 40
0.0
 40
0.3175000000000001
 40
0.3175000000000001
 40
0.3175000000000001
 40
0.3175000000000001
 10
59.86130610281114
 20
59.86606876855267
 30
0.0
 10
59.86130610281114
 20
59.82440210188601
 30
0.0
 10
59.86130610281114
 20
59.78273543521933
 30
0.0
 10
59.86130610281114
 20
59.74106876855268
 30
0.0
  0
SPLINE
  5
1F9
330
6C
100
AcDbEntity
  8
Visible (ANSI)
100
AcDbSpline
210
0.0
220
0.0
230
1.0
 70
     8
 71
     3
 72
    11
 73
     7
 74
     0
 42
0.0000000001
 43
0.0000000001
 40
0.0
 40
0.0
 40
0.0
 40
0.0
 40
1.12719708240338
 40
1.12719708240338
 40
1.12719708240338
 40
1.570796326794896
 40
1.570796326794896
 40
1.570796326794896
 40
1.570796326794896
 10
59.86130610281114
 20
59.86606876855267
 30
0.0
 10
59.85602050945274
 20
59.86606876855266
 30
0.0
 10
59.85073491609434
 20
59.88776632678926
 30
0.0
 10
59.84544932273593
 20
59.91958191341591
 30
0.0
 10
59.84336922045699
 20
59.93210267877966
 30
0.0
 10
59.84128911817801
 20
59.94595629216541
 30
0.0
 10
59.83920901589905
 20
59.95981876855264
 30
0.0
  0
SPLINE
  5
1FA
330
6C
100
AcDbEntity
  8
Visible (ANSI)
100
AcDbSpline
210
0.0
220
0.0
230
1.0
 70
     8
 71
     3
 72
    11
 73
     7
 74
     0
 42
0.0000000001
 43
0.0000000001
 40
0.0
 40
0.0
 40
0.0
 40
0.0
 40
1.12719708240338
 40
1.12719708240338
 40
1.12719708240338
 40
1.570796326794896
 40
1.570796326794896
 40
1.570796326794896
 40
1.570796326794896
 10
44.17380610281114
 20
59.86606876855267
 30
0.0
 10
44.17909169616954
 20
59.86606876855266
 30
0.0
 10
44.18437728952794
 20
59.88776632678926
 30
0.0
 10
44.18966288288634
 20
59.91958191341591
 30
0.0
 10
44.19174298516529
 20
59.93210267877966
 30
0.0
 10
44.19382308744427
 20
59.94595629216541
 30
0.0
 10
44.19590318972323
 20
59.95981876855264
 30
0.0
  0
SPLINE
  5
1FB
330
6C
100
AcDbEntity
  8
Visible (ANSI)
100
AcDbSpline
210
0.0
220
0.0
230
1.0
 70
    24
 71
     3
 72
     8
 73
     4
 74
     0
 42
0.0000000001
 43
0.0000000001
 40
-0.3175
 40
-0.3175
 40
-0.3175
 40
-0.3175
 40
0.0000000000000001
 40
0.0000000000000001
 40
0.0000000000000001
 40
0.0000000000000001
 10
44.17380610281114
 20
59.74106876855268
 30
0.0
 10
44.17380610281114
 20
59.78273543521933
 30
0.0
 10
44.17380610281114
 20
59.82440210188601
 30
0.0
 10
44.17380610281114
 20
59.86606876855267
 30
0.0
  0
LINE
  5
1FC
330
6C
100
AcDbEntity
  8
Visible (ANSI)
100
AcDbLine
 10
44.19590318972323
 20
59.9598187685526
 30
0.0
 11
45.22715318972323
 21
60.99106876855261
 31
0.0
  0
SPLINE
  5
1FD
330
6C
100
AcDbEntity
  8
Visible (ANSI)
100
AcDbSpline
210
0.0
220
0.0
230
1.0
 70
     8
 71
     3
 72
    11
 73
     7
 74
     0
 42
0.0000000001
 43
0.0000000001
 40
0.0
 40
0.0
 40
0.0
 40
0.0
 40
0.912022724634949
 40
0.912022724634949
 40
0.912022724634949
 40
1.570796326794896
 40
1.570796326794896
 40
1.570796326794896
 40
1.570796326794896
 10
44.17380610281114
 20
59.98191585546469
 30
0.0
 10
44.10730444580651
 20
59.97763924640378
 30
0.0
 10
44.04153977470167
 20
59.97336263734288
 30
0.0
 10
44.00083094853672
 20
59.96908602828198
 30
0.0
 10
43.97142608906558
 20
59.96599694170555
 30
0.0
 10
43.95505610281115
 20
59.9629078551291
 30
0.0
 10
43.95505610281115
 20
59.95981876855267
 30
0.0
  0
LINE
  5
1FE
330
6C
100
AcDbEntity
  8
Visible (ANSI)
100
AcDbLine
 10
45.20505610281115
 20
61.01316585546468
 30
0.0
 11
44.17380610281114
 21
59.98191585546469
 31
0.0
  0
SPLINE
  5
1FF
330
6C
100
AcDbEntity
  8
Visible (ANSI)
100
AcDbSpline
210
0.0
220
0.0
230
1.0
 70
    24
 71
     3
 72
     8
 73
     4
 74
     0
 42
0.0000000001
 43
0.0000000001
 40
0.0
 40
0.0
 40
0.0
 40
0.0
 40
0.3175000000000001
 40
0.3175000000000001
 40
0.3175000000000001
 40
0.3175000000000001
 10
44.08005610281114
 20
59.95981876855267
 30
0.0
 10
44.03838943614448
 20
59.95981876855267
 30
0.0
 10
43.99672276947781
 20
59.95981876855267
 30
0.0
 10
43.95505610281115
 20
59.95981876855267
 30
0.0
  0
SPLINE
  5
200
330
6C
100
AcDbEntity
  8
Visible (ANSI)
100
AcDbSpline
210
0.0
220
0.0
230
1.0
 70
     8
 71
     3
 72
    11
 73
     7
 74
     0
 42
0.0000000001
 43
0.0000000001
 40
0.0
 40
0.0
 40
0.0
 40
0.0
 40
1.127197082403381
 40
1.127197082403381
 40
1.127197082403381
 40
1.570796326794896
 40
1.570796326794896
 40
1.570796326794896
 40
1.570796326794896
 10
44.08005610281114
 20
59.95981876855267
 30
0.0
 10
44.08005610281114
 20
59.96510436191106
 30
0.0
 10
44.10175366104776
 20
59.97038995526945
 30
0.0
 10
44.13356924767441
 20
59.97567554862785
 30
0.0
 10
44.14609001303816
 20
59.9777556509068
 30
0.0
 10
44.15994362642391
 20
59.97983575318577
 30
0.0
 10
44.17380610281114
 20
59.98191585546472
 30
0.0
  0
LINE
  5
201
330
6C
100
AcDbEntity
  8
Visible (ANSI)
100
AcDbLine
 10
58.83005610281117
 20
65.74106876855262
 30
0.0
 11
59.86130610281117
 21
65.7410687685526
 31
0.0
  0
LINE
  5
202
330
6C
100
AcDbEntity
  8
Visible (ANSI)
100
AcDbLine
 10
58.83005610281116
 20
61.01316585546468
 30
0.0
 11
58.83005610281117
 21
65.74106876855262
 31
0.0
  0
LINE
  5
203
330
6C
100
AcDbEntity
  8
Visible (ANSI)
100
AcDbLine
 10
45.22715318972323
 20
60.99106876855261
 30
0.0
 11
58.80795901589905
 21
60.99106876855261
 31
0.0
  0
LINE
  5
204
330
6C
100
AcDbEntity
  8
Visible (ANSI)
100
AcDbLine
 10
44.17380610281114
 20
65.74106876855271
 30
0.0
 11
45.20505610281115
 21
65.74106876855271
 31
0.0
  0
LINE
  5
205
330
6C
100
AcDbEntity
  8
Visible (ANSI)
100
AcDbLine
 10
45.20505610281115
 20
65.74106876855271
 30
0.0
 11
45.20505610281115
 21
61.01316585546468
 31
0.0
  0
ARC
  5
206
330
6C
100
AcDbEntity
  8
Visible (ANSI)
100
AcDbCircle
 10
44.17380610281114
 20
59.95981876855267
 30
0.0
 40
0.09375
100
AcDbArc
 50
180.0
 51
270.0
  0
ARC
  5
207
330
6C
100
AcDbEntity
  8
Visible (ANSI)
100
AcDbCircle
 10
44.17380610281114
 20
59.95981876855267
 30
0.0
 40
0.2187499999999999
100
AcDbArc
 50
180.0
 51
270.0
  0
ARC
  5
208
330
6C
100
AcDbEntity
  8
Visible (ANSI)
100
AcDbCircle
 10
59.86130610281114
 20
59.95981876855267
 30
0.0
 40
0.0937499999999999
100
AcDbArc
 50
270.000000000006
 51
0.0
  0
ARC
  5
209
330
6C
100
AcDbEntity
  8
Visible (ANSI)
100
AcDbCircle
 10
59.86130610281112
 20
59.95981876855267
 30
0.0
 40
0.2187500000000024
100
AcDbArc
 50
270.0000000000077
 51
0.0
  0
LINE
  5
20A
330
6C
100
AcDbEntity
  8
Visible (ANSI)
100
AcDbLine
 10
43.95505610281115
 20
65.7656733379728
 30
0.0
 11
43.95505610281114
 21
67.74106876855788
 31
0.0
  0
LINE
  5
20B
330
6C
100
AcDbEntity
  8
Visible (ANSI)
100
AcDbLine
 10
59.95505610281117
 20
65.76567333797271
 30
0.0
 11
59.95505610281117
 21
67.74106876855788
 31
0.0
  0
LINE
  5
20C
330
6C
100
AcDbEntity
  8
Visible (ANSI)
100
AcDbLine
 10
60.08005610281117
 20
67.74106876855788
 30
0.0
 11
60.08005610281117
 21
65.76567333797271
 31
0.0
  0
LINE
  5
20D
330
6C
100
AcDbEntity
  8
Visible (ANSI)
100
AcDbLine
 10
59.95505610281117
 20
67.74106876855788
 30
0.0
 11
60.08005610281117
 21
67.74106876855788
 31
0.0
  0
LINE
  5
20E
330
6C
100
AcDbEntity
  8
Visible (ANSI)
100
AcDbLine
 10
44.08005610281114
 20
67.74106876855788
 30
0.0
 11
44.08005610281114
 21
65.7656733379728
 31
0.0
  0
LINE
  5
20F
330
6C
100
AcDbEntity
  8
Visible (ANSI)
100
AcDbLine
 10
43.95505610281114
 20
67.74106876855788
 30
0.0
 11
44.08005610281114
 21
67.74106876855788
 31
0.0
  0
LINE
  5
210
330
6C
100
AcDbEntity
  8
Visible (ANSI)
100
AcDbLine
 10
44.70505610281114
 20
67.74106876855793
 30
0.0
 11
44.95505610281115
 21
67.4910687685579
 31
0.0
  0
LINE
  5
211
330
6C
100
AcDbEntity
  8
Visible (ANSI)
100
AcDbLine
 10
59.08005610281152
 20
67.4910687685579
 30
0.0
 11
59.33005610281156
 21
67.74106876855793
 31
0.0
  0
LINE
  5
212
330
6C
100
AcDbEntity
  8
Visible (ANSI)
100
AcDbLine
 10
44.70505610281114
 20
67.74106876855793
 30
0.0
 11
44.17380610281114
 21
67.74106876855793
 31
0.0
  0
LINE
  5
213
330
6C
100
AcDbEntity
  8
Visible (ANSI)
100
AcDbLine
 10
59.33005610281156
 20
67.74106876855793
 30
0.0
 11
59.86130610281136
 21
67.74106876855791
 31
0.0
  0
LINE
  5
214
330
6C
100
AcDbEntity
  8
Visible Narrow (ANSI)
100
AcDbLine
 10
44.17380610281114
 20
67.74106876855793
 30
0.0
 11
44.17380610281114
 21
65.741068768558
 31
0.0
  0
LINE
  5
215
330
6C
100
AcDbEntity
  8
Visible (ANSI)
100
AcDbLine
 10
44.17380610281114
 20
67.74106876855793
 30
0.0
 11
44.08005610281115
 21
67.74106876855788
 31
0.0
  0
LINE
  5
216
330
6C
100
AcDbEntity
  8
Visible (ANSI)
100
AcDbLine
 10
59.86130610281136
 20
67.74106876855791
 30
0.0
 11
59.95505610281146
 21
67.74106876855788
 31
0.0
  0
LINE
  5
217
330
6C
100
AcDbEntity
  8
Visible Narrow (ANSI)
100
AcDbLine
 10
59.86130610281136
 20
65.74106876855792
 30
0.0
 11
59.86130610281136
 21
67.74106876855791
 31
0.0
  0
CIRCLE
  5
218
330
6C
100
AcDbEntity
  8
Visible (ANSI)
100
AcDbCircle
 10
52.0175561028111
 20
63.49106876855264
 30
0.0
 40
0.28125
  0
CIRCLE
  5
219
330
6C
100
AcDbEntity
  8
Visible (ANSI)
100
AcDbCircle
 10
46.0800561028111
 20
66.49106876855261
 30
0.0
 40
0.28125
  0
CIRCLE
  5
21A
330
6C
100
AcDbEntity
  8
Visible (ANSI)
100
AcDbCircle
 10
57.9550561028111
 20
66.49106876855261
 30
0.0
 40
0.28125
  0
ARC
  5
21B
330
6C
100
AcDbEntity
  8
Visible (ANSI)
100
AcDbCircle
 10
59.70505610281109
 20
67.36606876855261
 30
0.0
 40
0.1250000000000015
100
AcDbArc
 50
0.0
 51
90.0
  0
ARC
  5
21C
330
6C
100
AcDbEntity
  8
Visible (ANSI)
100
AcDbCircle
 10
44.33005610281109
 20
67.36606876855261
 30
0.0
 40
0.125
100
AcDbArc
 50
90.0
 51
180.0
  0
ARC
  5
21D
330
6C
100
AcDbEntity
  8
Visible (ANSI)
100
AcDbCircle
 10
44.33005610281109
 20
59.99097160504748
 30
0.0
 40
0.1249999999999984
100
AcDbArc
 50
180.0
 51
189.3624011371779
  0
ARC
  5
21E
330
6C
100
AcDbEntity
  8
Visible (ANSI)
100
AcDbCircle
 10
59.70505610281121
 20
59.99097160504745
 30
0.0
 40
0.1249999999998807
100
AcDbArc
 50
350.6375988628546
 51
0.0
  0
LINE
  5
21F
330
6C
100
AcDbEntity
  8
Visible (ANSI)
100
AcDbLine
 10
59.8300561028111
 20
67.36606876855261
 30
0.0
 11
59.8300561028111
 21
65.99117798532171
 31
0.0
  0
LINE
  5
220
330
6C
100
AcDbEntity
  8
Visible (ANSI)
100
AcDbLine
 10
44.33005610281109
 20
67.49106876855261
 30
0.0
 11
59.70505610281109
 21
67.49106876855261
 31
0.0
  0
LINE
  5
221
330
6C
100
AcDbEntity
  8
Visible (ANSI)
100
AcDbLine
 10
44.2050561028111
 20
65.99117798532171
 30
0.0
 11
44.2050561028111
 21
67.36606876855261
 31
0.0
  0
LINE
  5
222
330
6C
100
AcDbEntity
  8
Visible (ANSI)
100
AcDbLine
 10
59.8300561028111
 20
65.83649837693719
 30
0.0
 11
59.8300561028111
 21
65.99117798532171
 31
0.0
  0
LINE
  5
223
330
6C
100
AcDbEntity
  8
Visible Narrow (ANSI)
100
AcDbLine
 10
44.2050561028111
 20
65.99117798532171
 30
0.0
 11
59.8300561028111
 21
65.99117798532171
 31
0.0
  0
LINE
  5
224
330
6C
100
AcDbEntity
  8
Visible (ANSI)
100
AcDbLine
 10
44.2050561028111
 20
65.83649837693719
 30
0.0
 11
44.2050561028111
 21
65.99117798532171
 31
0.0
  0
LINE
  5
225
330
6C
100
AcDbEntity
  8
Visible Narrow (ANSI)
100
AcDbLine
 10
44.2050561028111
 20
65.83649837693719
 30
0.0
 11
59.8300561028111
 21
65.83649837693717
 31
0.0
  0
LINE
  5
226
330
6C
100
AcDbEntity
  8
Visible (ANSI)
100
AcDbLine
 10
59.8300561028111
 20
65.8031536490146
 30
0.0
 11
59.8300561028111
 21
65.83649837693717
 31
0.0
  0
LINE
  5
227
330
6C
100
AcDbEntity
  8
Visible (ANSI)
100
AcDbLine
 10
44.2050561028111
 20
65.83649837693719
 30
0.0
 11
44.2050561028111
 21
65.8031536490146
 31
0.0
  0
LINE
  5
228
330
6C
100
AcDbEntity
  8
Visible (ANSI)
100
AcDbLine
 10
59.8300561028111
 20
65.8031536490146
 30
0.0
 11
59.8300561028111
 21
65.74106876855265
 31
0.0
  0
LINE
  5
229
330
6C
100
AcDbEntity
  8
Visible (ANSI)
100
AcDbLine
 10
44.2050561028111
 20
65.8031536490146
 30
0.0
 11
44.2050561028111
 21
65.74106876855274
 31
0.0
  0
LINE
  5
22A
330
6C
100
AcDbEntity
  8
Visible Narrow (ANSI)
100
AcDbLine
 10
45.20505610281113
 20
65.73686238827836
 30
0.0
 11
58.83005610281117
 21
65.73686238827843
 31
0.0
  0
LINE
  5
22B
330
6C
100
AcDbEntity
  8
Visible Narrow (ANSI)
100
AcDbLine
 10
44.2050561028111
 20
65.8031536490146
 30
0.0
 11
59.8300561028111
 21
65.8031536490146
 31
0.0
  0
LINE
  5
22C
330
6C
100
AcDbEntity
  8
Visible (ANSI)
100
AcDbLine
 10
59.8300561028111
 20
59.99097160504748
 30
0.0
 11
59.8300561028111
 21
60.01316585546477
 31
0.0
  0
LINE
  5
22D
330
6C
100
AcDbEntity
  8
Visible (ANSI)
100
AcDbLine
 10
44.2050561028111
 20
60.01316585546469
 30
0.0
 11
44.2050561028111
 21
59.99097160504748
 31
0.0
  0
MTEXT
  5
22E
330
6C
100
AcDbEntity
  8
Symbol (ANSI)
100
AcDbMText
 10
49.4953648927389
 20
56.64043409390354
 30
0.0
 40
0.8400000103815333
 41
0.0
 71
     7
 72
     1
  1
TOP VIEW
  7
Text Style168
 73
     1
 44
1.0
  0
LINE
  5
22F
330
6C
100
AcDbEntity
  8
Symbol (ANSI)
370
    30
100
AcDbLine
 10
49.49603689446753
 20
56.46913263227931
 30
0.0
 11
54.79606923604166
 21
56.46913263227931
 31
0.0
  0
ELLIPSE
  5
230
330
6C
100
AcDbEntity
  8
Visible (ANSI)
100
AcDbEllipse
 10
102.4645922816055
 20
66.48205478750426
 30
0.0
 11
-0.2812499999999999
 21
0.0000000000000182
 31
0.0
210
0.0
220
0.0
230
1.0
 40
0.5758617009853086
 41
0.0
 42
6.283185307179586
  0
ELLIPSE
  5
231
330
6C
100
AcDbEntity
  8
Visible (ANSI)
100
AcDbEllipse
 10
102.4645922816055
 20
66.37986139689894
 30
0.0
 11
0.2812499999999995
 21
-0.0000000000000009
 31
0.0
210
0.0
220
0.0
230
1.0
 40
0.575861700985319
 41
0.3209702928256545
 42
2.820622360764149
  0
ELLIPSE
  5
232
330
6C
100
AcDbEntity
  8
Visible (ANSI)
100
AcDbEllipse
 10
110.6847086129003
 20
61.74840461466908
 30
0.0
 11
-0.2812499999999999
 21
0.0000000000000182
 31
0.0
210
0.0
220
0.0
230
1.0
 40
0.5758617009853086
 41
0.0
 42
6.283185307179586
  0
ELLIPSE
  5
233
330
6C
100
AcDbEntity
  8
Visible (ANSI)
100
AcDbEllipse
 10
110.6847086129003
 20
61.64621122406376
 30
0.0
 11
0.2812499999999988
 21
-0.0000000000000009
 31
0.0
210
0.0
220
0.0
230
1.0
 40
0.5758617009853188
 41
0.3209702928256547
 42
2.820622360764149
  0
ELLIPSE
  5
234
330
6C
100
AcDbEntity
  8
Visible (ANSI)
100
AcDbEllipse
 10
100.4316602856941
 20
66.58385371595217
 30
0.0
 11
-0.2812499999999999
 21
0.0000000000000158
 31
0.0
210
0.0
220
0.0
230
1.0
 40
0.5758617009853115
 41
0.0
 42
6.283185307179586
  0
ELLIPSE
  5
235
330
6C
100
AcDbEntity
  8
Visible (ANSI)
100
AcDbEllipse
 10
100.4316602856941
 20
66.48166032534685
 30
0.0
 11
0.2812499999999998
 21
0.0000000000000001
 31
0.0
210
0.0
220
0.0
230
1.0
 40
0.5758617009853121
 41
0.3209702928256528
 42
2.82062236076414
  0
ELLIPSE
  5
236
330
6C
100
AcDbEntity
  8
Visible (ANSI)
100
AcDbEllipse
 10
96.89612637976194
 20
64.54787514699019
 30
0.0
 11
-0.2812499999999999
 21
0.0000000000000158
 31
0.0
210
0.0
220
0.0
230
1.0
 40
0.5758617009853115
 41
0.0
 42
6.283185307179586
  0
ELLIPSE
  5
237
330
6C
100
AcDbEntity
  8
Visible (ANSI)
100
AcDbEllipse
 10
96.89612637976194
 20
64.44568175638488
 30
0.0
 11
0.281249999999996
 21
0.0000000000000001
 31
0.0
210
0.0
220
0.0
230
1.0
 40
0.5758617009853121
 41
0.3209702928255955
 42
2.82062236076414
  0
ELLIPSE
  5
238
330
6C
100
AcDbEntity
  8
Visible (ANSI)
100
AcDbEllipse
 10
110.8614853081972
 20
60.57771693751607
 30
0.0
 11
-0.2812499999999999
 21
0.0000000000000166
 31
0.0
210
0.0
220
0.0
230
1.0
 40
0.5758617009852843
 41
0.0
 42
6.283185307179586
  0
ELLIPSE
  5
239
330
6C
100
AcDbEntity
  8
Visible (ANSI)
100
AcDbEllipse
 10
110.8614853081972
 20
60.47552354691077
 30
0.0
 11
0.2812499999999994
 21
-0.0000000000000019
 31
0.0
210
0.0
220
0.0
230
1.0
 40
0.575861700985275
 41
0.3209702928256837
 42
2.820622360764131
  0
ELLIPSE
  5
23A
330
6C
100
AcDbEntity
  8
Visible (ANSI)
100
AcDbEllipse
 10
107.3259514022651
 20
58.54173836855419
 30
0.0
 11
-0.2812499999999999
 21
0.0000000000000166
 31
0.0
210
0.0
220
0.0
230
1.0
 40
0.5758617009852843
 41
0.0
 42
6.283185307179586
  0
ELLIPSE
  5
23B
330
6C
100
AcDbEntity
  8
Visible (ANSI)
100
AcDbEllipse
 10
107.3259514022651
 20
58.43954497794888
 30
0.0
 11
0.2812500000000018
 21
-0.0000000000000019
 31
0.0
210
0.0
220
0.0
230
1.0
 40
0.5758617009852749
 41
0.3209702928256831
 42
2.820622360764131
  0
SPLINE
  5
23C
330
6C
100
AcDbEntity
  8
Visible (ANSI)
100
AcDbSpline
210
0.0
220
0.0
230
1.0
 70
     8
 71
     3
 72
     8
 73
     4
 74
     0
 42
0.0000000001
 43
0.0000000001
 40
0.0
 40
0.0
 40
0.0
 40
0.0
 40
0.7873318718203637
 40
0.7873318718203637
 40
0.7873318718203637
 40
0.7873318718203637
 10
112.6071551742514
 20
46.48607743587024
 30
0.0
 10
112.6045445959336
 20
46.43763903758372
 30
0.0
 10
112.5849354284214
 20
46.39943850678011
 30
0.0
 10
112.5537541190698
 20
46.38114219617637
 30
0.0
  0
SPLINE
  5
23D
330
6C
100
AcDbEntity
  8
Visible (ANSI)
100
AcDbSpline
210
0.0
220
0.0
230
1.0
 70
     8
 71
     3
 72
     8
 73
     4
 74
     0
 42
0.0000000001
 43
0.0000000001
 40
0.0
 40
0.0
 40
0.0
 40
0.0
 40
0.2101164220635823
 40
0.2101164220635823
 40
0.2101164220635823
 40
0.2101164220635823
 10
101.4260291967375
 20
53.00120885654663
 30
0.0
 10
101.4267258856374
 20
52.99543953269354
 30
0.0
 10
101.426889465375
 20
52.98938854866489
 30
0.0
 10
101.4265729701905
 20
52.98318347015076
 30
0.0
  0
SPLINE
  5
23E
330
6C
100
AcDbEntity
  8
Visible (ANSI)
100
AcDbSpline
210
0.0
220
0.0
230
1.0
 70
     8
 71
     3
 72
     8
 73
     4
 74
     0
 42
0.0000000001
 43
0.0000000001
 40
0.0
 40
0.0
 40
0.0
 40
0.0
 40
0.7825528965236103
 40
0.7825528965236103
 40
0.7825528965236103
 40
0.7825528965236103
 10
101.293446675265
 20
53.00120885654663
 30
0.0
 10
101.2908519427293
 20
52.97972171599909
 30
0.0
 10
101.2956519612726
 20
52.95432767038572
 30
0.0
 10
101.3051069396692
 20
52.93161686518427
 30
0.0
  0
LINE
  5
23F
330
6C
100
AcDbEntity
  8
Visible Narrow (ANSI)
100
AcDbLine
 10
108.5017960376323
 20
44.12195834030042
 30
0.0
 11
112.6071551742514
 21
46.48607743587024
 31
0.0
  0
SPLINE
  5
240
330
6C
100
AcDbEntity
  8
Visible (ANSI)
100
AcDbSpline
210
0.0
220
0.0
230
1.0
 70
     8
 71
     3
 72
    11
 73
     7
 74
     0
 42
0.0000000001
 43
0.0000000001
 40
0.0
 40
0.0
 40
0.0
 40
0.0
 40
0.9120227246349724
 40
0.9120227246349724
 40
0.9120227246349724
 40
1.570796326794926
 40
1.570796326794926
 40
1.570796326794926
 40
1.570796326794926
 10
108.3645144871328
 20
44.04221284434069
 30
0.0
 10
108.4081710877762
 20
44.01319462926171
 30
0.0
 10
108.4513065606922
 20
44.01084810236347
 30
0.0
 10
108.4767248757429
 20
44.03532395202703
 30
0.0
 10
108.4950850706312
 20
44.05300338392413
 30
0.0
 10
108.5042282182759
 20
44.0840875936228
 30
0.0
 10
108.5017960376323
 20
44.1219583403004
 30
0.0
  0
LINE
  5
241
330
6C
100
AcDbEntity
  8
Visible Narrow (ANSI)
100
AcDbLine
 10
108.3645144871328
 20
44.14440623494602
 30
0.0
 11
108.4134500295347
 21
44.17258633963228
 31
0.0
  0
LINE
  5
242
330
6C
100
AcDbEntity
  8
Visible (ANSI)
100
AcDbLine
 10
108.3645144871328
 20
44.14440623494602
 30
0.0
 11
108.3645144871328
 21
44.0422128443407
 31
0.0
  0
LINE
  5
243
330
6C
100
AcDbEntity
  8
Visible (ANSI)
100
AcDbLine
 10
108.4455885263274
 20
44.15432609336858
 30
0.0
 11
108.5017960376323
 21
44.12195834030042
 31
0.0
  0
LINE
  5
244
330
6C
100
AcDbEntity
  8
Visible (ANSI)
100
AcDbLine
 10
108.4134076899839
 20
44.17285780452444
 30
0.0
 11
108.4455885263274
 21
44.15432609336858
 31
0.0
  0
SPLINE
  5
245
330
6C
100
AcDbEntity
  8
Visible (ANSI)
100
AcDbSpline
210
0.0
220
0.0
230
1.0
 70
     8
 71
     3
 72
    11
 73
     7
 74
     0
 42
0.0000000001
 43
0.0000000001
 40
0.0
 40
0.0
 40
0.0
 40
0.0
 40
1.127197082403422
 40
1.127197082403422
 40
1.127197082403422
 40
1.570796326794926
 40
1.570796326794926
 40
1.570796326794926
 40
1.570796326794926
 10
108.4134076899839
 20
44.17285780452443
 30
0.0
 10
108.4175692819427
 20
44.14645628301584
 30
0.0
 10
108.4063883833372
 20
44.12961909372903
 30
0.0
 10
108.3880529582449
 20
44.13261085230503
 30
0.0
 10
108.3808372008201
 20
44.13378823456094
 30
0.0
 10
108.3726789775206
 20
44.13781837033361
 30
0.0
 10
108.3645144871328
 20
44.14440623494602
 30
0.0
  0
LINE
  5
246
330
6C
100
AcDbEntity
  8
Visible Narrow (ANSI)
100
AcDbLine
 10
101.4260291967375
 20
53.00120885654663
 30
0.0
 11
101.4556939946193
 21
52.98412603557902
 31
0.0
  0
SPLINE
  5
247
330
6C
100
AcDbEntity
  8
Visible (ANSI)
100
AcDbSpline
210
0.0
220
0.0
230
1.0
 70
     8
 71
     3
 72
    11
 73
     7
 74
     0
 42
0.0000000001
 43
0.0000000001
 40
0.0
 40
0.0
 40
0.0
 40
0.0
 40
0.9120227246349479
 40
0.9120227246349479
 40
0.9120227246349479
 40
1.011008818411305
 40
1.011008818411305
 40
1.011008818411305
 40
1.011008818411305
 10
97.09969919099743
 20
50.68798922520079
 30
0.0
 10
97.10306636298213
 20
50.635560012106
 30
0.0
 10
97.12924265511993
 20
50.57059842098528
 30
0.0
 10
97.16979357258994
 20
50.51784336766086
 30
0.0
 10
97.17419475340593
 20
50.51211761487587
 30
0.0
 10
97.17875404960629
 20
50.50654140948572
 30
0.0
 10
97.18344805736615
 20
50.50113747876345
 30
0.0
  0
SPLINE
  5
248
330
6C
100
AcDbEntity
  8
Visible (ANSI)
100
AcDbSpline
210
0.0
220
0.0
230
1.0
 70
     8
 71
     3
 72
     8
 73
     4
 74
     0
 42
0.0000000001
 43
0.0000000001
 40
0.0
 40
0.0
 40
0.0
 40
0.0
 40
0.961235774768458
 40
0.961235774768458
 40
0.961235774768458
 40
0.961235774768458
 10
97.18808753864577
 20
50.63708976097675
 30
0.0
 10
97.19163640435278
 20
50.61457543107069
 30
0.0
 10
97.20634249025964
 20
50.5861663523551
 30
0.0
 10
97.22712810689323
 20
50.56407612417496
 30
0.0
  0
LINE
  5
249
330
6C
100
AcDbEntity
  8
Visible (ANSI)
100
AcDbLine
 10
97.15590670230232
 20
50.65562147213262
 30
0.0
 11
97.18808753864577
 21
50.63708976097675
 31
0.0
  0
LINE
  5
24A
330
6C
100
AcDbEntity
  8
Visible (ANSI)
100
AcDbLine
 10
97.09969919099743
 20
50.68798922520079
 30
0.0
 11
97.15590670230232
 21
50.65562147213262
 31
0.0
  0
LINE
  5
24B
330
6C
100
AcDbEntity
  8
Visible Narrow (ANSI)
100
AcDbLine
 10
97.18808753864577
 20
50.63708976097675
 30
0.0
 11
101.293446675265
 21
53.00120885654663
 31
0.0
  0
LINE
  5
24C
330
6C
100
AcDbEntity
  8
Visible (ANSI)
100
AcDbLine
 10
108.4650001721275
 20
44.02648904724571
 30
0.0
 11
112.5538071271976
 21
46.38107637539363
 31
0.0
  0
LINE
  5
24D
330
6C
100
AcDbEntity
  8
Visible (ANSI)
100
AcDbLine
 10
108.3645144871328
 20
44.14440623494602
 30
0.0
 11
108.3424174002206
 21
44.15713110100205
 31
0.0
  0
LINE
  5
24E
330
6C
100
AcDbEntity
  8
Visible (ANSI)
100
AcDbLine
 10
108.2858719051653
 20
44.08750009536235
 30
0.0
 11
108.3645144871328
 21
44.0422128443407
 31
0.0
  0
ELLIPSE
  5
24F
330
6C
100
AcDbEntity
  8
Visible (ANSI)
100
AcDbEllipse
 10
101.3597379360012
 20
52.9630342583786
 30
0.0
 11
0.09375
 21
-0.0000000000000054
 31
0.0
210
0.0
220
0.0
230
1.0
 40
0.5758617009853115
 41
0.7853981633979421
 42
2.356194490192873
  0
ELLIPSE
  5
250
330
6C
100
AcDbEntity
  8
Visible (ANSI)
100
AcDbEllipse
 10
112.4524755658669
 20
46.5751514982623
 30
0.0
 11
0.2187499999999884
 21
0.0000000000000001
 31
0.0
210
0.0
220
0.0
230
1.0
 40
0.5758617009853121
 41
5.497787143782258
 42
6.283185307179585
  0
LINE
  5
251
330
6C
100
AcDbEntity
  8
Visible (ANSI)
100
AcDbLine
 10
97.09969919099743
 20
50.68798922520079
 30
0.0
 11
95.70288368650967
 21
64.24178805287069
 31
0.0
  0
LINE
  5
252
330
6C
100
AcDbEntity
  8
Visible (ANSI)
100
AcDbLine
 10
108.4134076899839
 20
44.17285780452444
 30
0.0
 11
107.0165921854961
 21
57.7266566321943
 31
0.0
  0
LINE
  5
253
330
6C
100
AcDbEntity
  8
Visible (ANSI)
100
AcDbLine
 10
107.1049805331445
 20
57.67575716797026
 30
0.0
 11
108.5017960376323
 21
44.12195834030042
 31
0.0
  0
LINE
  5
254
330
6C
100
AcDbEntity
  8
Visible (ANSI)
100
AcDbLine
 10
107.0165921854961
 20
57.7266566321943
 30
0.0
 11
107.1049805331445
 21
57.67575716797026
 31
0.0
  0
LINE
  5
255
330
6C
100
AcDbEntity
  8
Visible (ANSI)
100
AcDbLine
 10
95.79127203415801
 20
64.19088858864665
 30
0.0
 11
97.18808753864577
 21
50.63708976097675
 31
0.0
  0
LINE
  5
256
330
6C
100
AcDbEntity
  8
Visible (ANSI)
100
AcDbLine
 10
95.70288368650967
 20
64.24178805287069
 30
0.0
 11
95.79127203415801
 21
64.19088858864665
 31
0.0
  0
ELLIPSE
  5
257
330
6C
100
AcDbEntity
  8
Visible (ANSI)
100
AcDbEllipse
 10
112.4524755658668
 20
60.93332287830941
 30
0.0
 11
0.2187500000000015
 21
0.0000000000000001
 31
0.0
210
0.0
220
0.0
230
1.0
 40
0.5758617009853121
 41
5.497787143782266
 42
7.068583470577141
  0
ELLIPSE
  5
258
330
6C
100
AcDbEntity
  8
Visible (ANSI)
100
AcDbEllipse
 10
101.3597379360012
 20
67.3212056384257
 30
0.0
 11
-0.0937499999999991
 21
0.0
 31
0.0
210
0.0
220
0.0
230
1.0
 40
0.5758617009853121
 41
4.544940901164574
 42
4.87983705960395
  0
LINE
  5
259
330
6C
100
AcDbEntity
  8
Visible (ANSI)
100
AcDbLine
 10
96.23321377239966
 20
64.01303631048044
 30
0.0
 11
95.85756329489425
 21
64.2293590334326
 31
0.0
  0
LINE
  5
25A
330
6C
100
AcDbEntity
  8
Visible (ANSI)
100
AcDbLine
 10
101.3441129360014
 20
66.54901168260511
 30
0.0
 11
96.94032055358622
 21
64.01303631048053
 31
0.0
  0
LINE
  5
25B
330
6C
100
AcDbEntity
  8
Visible (ANSI)
100
AcDbLine
 10
96.23321377239966
 20
64.11522970108577
 30
0.0
 11
95.85756329489425
 21
64.33155242403792
 31
0.0
  0
LINE
  5
25C
330
6C
100
AcDbEntity
  8
Visible (ANSI)
100
AcDbLine
 10
106.95030092476
 20
57.94366966392162
 30
0.0
 11
106.5746504472547
 21
58.15999238687368
 31
0.0
  0
LINE
  5
25D
330
6C
100
AcDbEntity
  8
Visible (ANSI)
100
AcDbLine
 10
106.5746504472547
 20
58.05779899626836
 30
0.0
 11
106.95030092476
 21
57.84147627331631
 31
0.0
  0
LINE
  5
25E
330
6C
100
AcDbEntity
  8
Visible (ANSI)
100
AcDbLine
 10
110.90533698472
 20
61.06106461656579
 30
0.0
 11
101.3753629360015
 21
66.54901168260511
 31
0.0
  0
LINE
  5
25F
330
6C
100
AcDbEntity
  8
Visible (ANSI)
100
AcDbLine
 10
110.9784428296696
 20
61.12115915094648
 30
0.0
 11
101.3753629360015
 21
66.65120507321041
 31
0.0
  0
LINE
  5
260
330
6C
100
AcDbEntity
  8
Visible (ANSI)
100
AcDbLine
 10
101.3441129360014
 20
66.65120507321041
 30
0.0
 11
96.94032055358622
 21
64.11522970108584
 31
0.0
  0
LINE
  5
261
330
6C
100
AcDbEntity
  8
Visible (ANSI)
100
AcDbLine
 10
106.5746504472546
 20
58.56718810066599
 30
0.0
 11
110.9784428296698
 21
61.10316347279058
 31
0.0
  0
ELLIPSE
  5
262
330
6C
100
AcDbEntity
  8
Visible (ANSI)
100
AcDbEllipse
 10
101.3597379360012
 20
67.3212056384257
 30
0.0
 11
0.2187500000000063
 21
0.0000000000000001
 31
0.0
210
0.0
220
0.0
230
1.0
 40
0.5758617009853122
 41
1.499306876909292
 42
1.642285776680322
  0
LINE
  5
263
330
6C
100
AcDbEntity
  8
Visible Narrow (ANSI)
100
AcDbLine
 10
112.6071551742514
 20
46.48607743587024
 30
0.0
 11
112.6071551742514
 21
60.84424881591735
 31
0.0
  0
LINE
  5
264
330
6C
100
AcDbEntity
  8
Visible Narrow (ANSI)
100
AcDbLine
 10
101.4260291967375
 20
66.51983492351511
 30
0.0
 11
101.4260291967375
 21
53.00120885654663
 31
0.0
  0
LINE
  5
265
330
6C
100
AcDbEntity
  8
Visible Narrow (ANSI)
100
AcDbLine
 10
101.293446675265
 20
53.00120885654663
 30
0.0
 11
101.293446675265
 21
66.51983492351482
 31
0.0
  0
LINE
  5
266
330
6C
100
AcDbEntity
  8
Visible (ANSI)
100
AcDbLine
 10
112.6712255658668
 20
60.93332287830941
 30
0.0
 11
112.6712255658669
 21
46.5751514982623
 31
0.0
  0
LINE
  5
267
330
6C
100
AcDbEntity
  8
Visible (ANSI)
100
AcDbLine
 10
96.94032055358622
 20
64.11522970108584
 30
0.0
 11
96.23321377239966
 21
64.11522970108577
 31
0.0
  0
LINE
  5
268
330
6C
100
AcDbEntity
  8
Visible (ANSI)
100
AcDbLine
 10
96.23321377239966
 20
64.11522970108577
 30
0.0
 11
96.23321377239966
 21
64.01303631048044
 31
0.0
  0
LINE
  5
269
330
6C
100
AcDbEntity
  8
Visible (ANSI)
100
AcDbLine
 10
96.23321377239966
 20
64.01303631048044
 30
0.0
 11
96.94032055358622
 21
64.01303631048053
 31
0.0
  0
LINE
  5
26A
330
6C
100
AcDbEntity
  8
Visible (ANSI)
100
AcDbLine
 10
96.94032055358622
 20
64.01303631048053
 30
0.0
 11
96.94032055358622
 21
64.11522970108584
 31
0.0
  0
LINE
  5
26B
330
6C
100
AcDbEntity
  8
Visible (ANSI)
100
AcDbLine
 10
106.5746504472547
 20
58.15999238687368
 30
0.0
 11
106.5746504472546
 21
58.56718810066599
 31
0.0
  0
LINE
  5
26C
330
6C
100
AcDbEntity
  8
Visible (ANSI)
100
AcDbLine
 10
106.5746504472547
 20
58.05779899626836
 30
0.0
 11
106.5746504472547
 21
58.15999238687368
 31
0.0
  0
ELLIPSE
  5
26D
330
6C
100
AcDbEntity
  8
Visible (ANSI)
100
AcDbEllipse
 10
95.85756329489425
 20
64.15271399047863
 30
0.0
 11
-0.0467842698360317
 21
0.0812421971385993
 31
0.0
210
0.0
220
0.0
230
1.0
 40
0.5780931159158103
 41
5.499720852205022
 42
7.07051717899998
  0
ELLIPSE
  5
26E
330
6C
100
AcDbEntity
  8
Visible (ANSI)
100
AcDbEllipse
 10
95.85756329489425
 20
64.15271399047863
 30
0.0
 11
-0.1091632962840841
 21
0.1895651266567494
 31
0.0
210
0.0
220
0.0
230
1.0
 40
0.5780931159158103
 41
5.499720852205022
 42
7.070517178999892
  0
ELLIPSE
  5
26F
330
6C
100
AcDbEntity
  8
Visible (ANSI)
100
AcDbEllipse
 10
106.95030092476
 20
57.76483123036225
 30
0.0
 11
-0.1091632962841474
 21
0.1895651266568323
 31
0.0
210
0.0
220
0.0
230
1.0
 40
0.5780931159158167
 41
3.928924525409843
 42
5.499720852204727
  0
ELLIPSE
  5
270
330
6C
100
AcDbEntity
  8
Visible (ANSI)
100
AcDbEllipse
 10
106.95030092476
 20
57.76483123036225
 30
0.0
 11
0.0467842698360771
 21
-0.0812421971386893
 31
0.0
210
0.0
220
0.0
230
1.0
 40
0.5780931159158106
 41
0.7873318718206433
 42
2.358128198615402
  0
LINE
  5
271
330
6C
100
AcDbEntity
  8
Visible Narrow (ANSI)
100
AcDbLine
 10
112.4368505658668
 20
61.12115915094661
 30
0.0
 11
101.3753629360012
 21
67.49104623290711
 31
0.0
  0
LINE
  5
272
330
6C
100
AcDbEntity
  8
Visible Narrow (ANSI)
100
AcDbLine
 10
101.3441129360012
 20
67.49104623290711
 30
0.0
 11
95.85756329489425
 21
64.33155242403792
 31
0.0
  0
LINE
  5
273
330
6C
100
AcDbEntity
  8
Visible Narrow (ANSI)
100
AcDbLine
 10
95.85782016787034
 20
64.22921111012366
 30
0.0
 11
95.79127203415801
 21
64.19088858864665
 31
0.0
  0
LINE
  5
274
330
6C
100
AcDbEntity
  8
Visible Narrow (ANSI)
100
AcDbLine
 10
106.95030092476
 20
57.94366966392162
 30
0.0
 11
112.436850565867
 21
61.1031634727907
 31
0.0
  0
LINE
  5
275
330
6C
100
AcDbEntity
  8
Visible Narrow (ANSI)
100
AcDbLine
 10
112.6071551742514
 20
60.84424881591735
 30
0.0
 11
107.1049805331445
 21
57.67575716797026
 31
0.0
  0
LINE
  5
276
330
6C
100
AcDbEntity
  8
Visible (ANSI)
100
AcDbLine
 10
101.4767329672386
 20
67.50626076887058
 30
0.0
 11
112.5538071271975
 21
61.12739800117811
 31
0.0
  0
LINE
  5
277
330
6C
100
AcDbEntity
  8
Visible (ANSI)
100
AcDbLine
 10
95.74839999861016
 20
64.34227911713539
 30
0.0
 11
101.2427429047638
 21
67.50626076887055
 31
0.0
  0
SPLINE
  5
278
330
6C
100
AcDbEntity
  8
Visible (ANSI)
100
AcDbSpline
210
0.0
220
0.0
230
1.0
 70
     8
 71
     3
 72
    11
 73
     7
 74
     0
 42
0.0000000001
 43
0.0000000001
 40
0.0
 40
0.0
 40
0.0
 40
0.0
 40
0.9120227246349069
 40
0.9120227246349069
 40
0.9120227246349069
 40
1.570796326794894
 40
1.570796326794894
 40
1.570796326794894
 40
1.570796326794894
 10
112.6071551742514
 20
61.02239694070149
 30
0.0
 10
112.6041311549839
 20
61.07850659606206
 30
0.0
 10
112.5782980155634
 20
61.12087883198985
 30
0.0
 10
112.5380902508106
 20
61.13448893773171
 30
0.0
 10
112.5090473187591
 20
61.1443198094229
 30
0.0
 10
112.4730011608648
 20
61.13946116844683
 30
0.0
 10
112.4368505658668
 20
61.12115915094662
 30
0.0
  0
SPLINE
  5
279
330
6C
100
AcDbEntity
  8
Visible (ANSI)
100
AcDbSpline
210
0.0
220
0.0
230
1.0
 70
     8
 71
     3
 72
     8
 73
     4
 74
     0
 42
0.0000000001
 43
0.0000000001
 40
0.0
 40
0.0
 40
0.0
 40
0.0
 40
0.7834644549744146
 40
0.7834644549744146
 40
0.7834644549744146
 40
0.7834644549744146
 10
101.3753629360012
 20
67.49104623290711
 30
0.0
 10
101.4131605060119
 20
67.51580430111056
 30
0.0
 10
101.450573509516
 20
67.52087998165534
 30
0.0
 10
101.476700876931
 20
67.50617774874193
 30
0.0
  0
LINE
  5
27A
330
6C
100
AcDbEntity
  8
Visible (ANSI)
100
AcDbLine
 10
101.3753629360015
 20
66.65120507321041
 30
0.0
 11
101.3753629360012
 21
67.49104623290711
 31
0.0
  0
LINE
  5
27B
330
6C
100
AcDbEntity
  8
Visible (ANSI)
100
AcDbLine
 10
101.3753629360015
 20
66.54901168260511
 30
0.0
 11
101.3753629360015
 21
66.65120507321041
 31
0.0
  0
LINE
  5
27C
330
6C
100
AcDbEntity
  8
Visible (ANSI)
100
AcDbLine
 10
112.4368505658668
 20
61.10316347279071
 30
0.0
 11
112.4368505658668
 21
61.12115915094661
 31
0.0
  0
SPLINE
  5
27D
330
6C
100
AcDbEntity
  8
Visible (ANSI)
100
AcDbSpline
210
0.0
220
0.0
230
1.0
 70
    24
 71
     3
 72
     8
 73
     4
 74
     0
 42
0.0000000001
 43
0.0000000001
 40
-0.3175000000000004
 40
-0.3175000000000004
 40
-0.3175000000000004
 40
-0.3175000000000004
 40
-0.127525991187428
 40
-0.127525991187428
 40
-0.127525991187428
 40
-0.127525991187428
 10
112.6071551742514
 20
61.02239694070149
 30
0.0
 10
112.589526314687
 20
61.01224515564632
 30
0.0
 10
112.5718974551226
 20
61.00209337059115
 30
0.0
 10
112.5542685955583
 20
60.99194158553597
 30
0.0
  0
LINE
  5
27E
330
6C
100
AcDbEntity
  8
Visible (ANSI)
100
AcDbLine
 10
112.4368505658668
 20
61.12115915094661
 30
0.0
 11
110.9784428296696
 21
61.12115915094648
 31
0.0
  0
LINE
  5
27F
330
6C
100
AcDbEntity
  8
Visible (ANSI)
100
AcDbLine
 10
110.9784428296696
 20
61.10316347279058
 30
0.0
 11
110.9784428296696
 21
61.12115915094648
 31
0.0
  0
SPLINE
  5
280
330
6C
100
AcDbEntity
  8
Visible (ANSI)
100
AcDbSpline
210
0.0
220
0.0
230
1.0
 70
     8
 71
     3
 72
    11
 73
     7
 74
     0
 42
0.0000000001
 43
0.0000000001
 40
0.7873318718202912
 40
0.7873318718202912
 40
0.7873318718202912
 40
0.7873318718202912
 40
0.9120227246350472
 40
0.9120227246350472
 40
0.9120227246350472
 40
1.570796326794894
 40
1.570796326794894
 40
1.570796326794894
 40
1.570796326794894
 10
101.2427959128915
 20
67.5061949480878
 30
0.0
 10
101.2469072586877
 20
67.50861639084257
 30
0.0
 10
101.2513088511726
 20
67.5105386058756
 30
0.0
 10
101.2559791354528
 20
67.51192319657298
 30
0.0
 10
101.2806534393725
 20
67.51923834263724
 30
0.0
 10
101.3123309691351
 20
67.51186397603425
 30
0.0
 10
101.3441129360012
 20
67.49104623290709
 30
0.0
  0
LINE
  5
281
330
6C
100
AcDbEntity
  8
Visible (ANSI)
100
AcDbLine
 10
101.3441129360012
 20
67.49104623290711
 30
0.0
 11
101.3441129360014
 21
66.65120507321041
 31
0.0
  0
LINE
  5
282
330
6C
100
AcDbEntity
  8
Visible (ANSI)
100
AcDbLine
 10
101.3441129360014
 20
66.54901168260511
 30
0.0
 11
101.3441129360014
 21
66.65120507321041
 31
0.0
  0
SPLINE
  5
283
330
6C
100
AcDbEntity
  8
Visible (ANSI)
100
AcDbSpline
210
0.0
220
0.0
230
1.0
 70
     8
 71
     3
 72
    11
 73
     7
 74
     0
 42
0.0000000001
 43
0.0000000001
 40
0.0
 40
0.0
 40
0.0
 40
0.0
 40
0.9120227246350001
 40
0.9120227246350001
 40
0.9120227246350001
 40
1.570796326794894
 40
1.570796326794894
 40
1.570796326794894
 40
1.570796326794894
 10
112.436850565867
 20
61.10316347279071
 30
0.0
 10
112.4868983577626
 20
61.07782569997751
 30
0.0
 10
112.5364250219307
 20
61.02641643398261
 30
0.0
 10
112.5682345282336
 20
60.96859005675587
 30
0.0
 10
112.5912112178313
 20
60.92682082250706
 30
0.0
 10
112.6049708601856
 20
60.88226229946401
 30
0.0
 10
112.6071551742515
 20
60.84424881591732
 30
0.0
  0
LINE
  5
284
330
6C
100
AcDbEntity
  8
Visible (ANSI)
100
AcDbLine
 10
110.9784428296698
 20
61.10316347279058
 30
0.0
 11
112.436850565867
 21
61.10316347279071
 31
0.0
  0
ELLIPSE
  5
285
330
6C
100
AcDbEntity
  8
Visible (ANSI)
100
AcDbEllipse
 10
104.4091359298694
 20
48.35673136164241
 30
0.0
 11
0.2812499999999999
 21
-0.0000000000000167
 31
0.0
210
0.0
220
0.0
230
1.0
 40
0.5758617009853119
 41
0.0
 42
6.283185307179586
  0
ELLIPSE
  5
286
330
6C
100
AcDbEntity
  8
Visible (ANSI)
100
AcDbEllipse
 10
104.4091359298694
 20
48.25453797103708
 30
0.0
 11
0.28125
 21
0.0
 31
0.0
210
0.0
220
0.0
230
1.0
 40
0.5758617009853117
 41
0.3209702928256531
 42
2.82062236076414
  0
ELLIPSE
  5
287
330
6C
100
AcDbEntity
  8
Visible (ANSI)
100
AcDbEllipse
 10
98.08936907301434
 20
49.45077850667545
 30
0.0
 11
0.2812499999999999
 21
-0.0000000000000167
 31
0.0
210
0.0
220
0.0
230
1.0
 40
0.5758617009853119
 41
0.0
 42
6.283185307179586
  0
ELLIPSE
  5
288
330
6C
100
AcDbEntity
  8
Visible (ANSI)
100
AcDbEllipse
 10
98.08936907301434
 20
49.34858511607013
 30
0.0
 11
0.2812500000000002
 21
0.0000000000000001
 31
0.0
210
0.0
220
0.0
230
1.0
 40
0.5758617009853115
 41
0.3209702928256528
 42
2.820622360764139
  0
ELLIPSE
  5
289
330
6C
100
AcDbEntity
  8
Visible (ANSI)
100
AcDbEllipse
 10
106.4862620996058
 20
44.6153294053922
 30
0.0
 11
0.2812499999999999
 21
-0.0000000000000167
 31
0.0
210
0.0
220
0.0
230
1.0
 40
0.5758617009853119
 41
0.0
 42
6.283185307179586
  0
ELLIPSE
  5
28A
330
6C
100
AcDbEntity
  8
Visible (ANSI)
100
AcDbEllipse
 10
106.4862620996058
 20
44.51313601478688
 30
0.0
 11
0.2812499999999991
 21
0.0000000000000001
 31
0.0
210
0.0
220
0.0
230
1.0
 40
0.5758617009853117
 41
0.3209702928256528
 42
2.820622360764139
  0
ELLIPSE
  5
28B
330
6C
100
AcDbEntity
  8
Visible (ANSI)
100
AcDbEllipse
 10
107.1049805331443
 20
43.54644065668738
 30
0.0
 11
-0.1250000000000038
 21
0.0000000000000074
 31
0.0
210
0.0
220
0.0
230
1.0
 40
0.5758617009853115
 41
0.7853981633979333
 42
2.356194490192731
  0
LINE
  5
28C
330
6C
100
AcDbEntity
  8
Visible Narrow (ANSI)
100
AcDbLine
 10
107.016592185496
 20
43.49554119246333
 30
0.0
 11
107.016592185496
 21
43.39334780185801
 31
0.0
  0
ELLIPSE
  5
28D
330
6C
100
AcDbEntity
  8
Visible (ANSI)
100
AcDbEllipse
 10
107.1049805331443
 20
43.44424726608206
 30
0.0
 11
0.1250000000000015
 21
0.0000000000000075
 31
0.0
210
0.0
220
0.0
230
1.0
 40
0.5758617009853118
 41
3.926990816987061
 42
5.497787143781907
  0
LINE
  5
28E
330
6C
100
AcDbEntity
  8
Visible Narrow (ANSI)
100
AcDbLine
 10
107.1933688807926
 20
43.39334780185803
 30
0.0
 11
107.1933688807926
 21
43.49554119246334
 31
0.0
  0
ELLIPSE
  5
28F
330
6C
100
AcDbEntity
  8
Visible (ANSI)
100
AcDbEllipse
 10
96.23321377239955
 20
49.70488136563826
 30
0.0
 11
-0.1250000000000001
 21
0.0000000000000001
 31
0.0
210
0.0
220
0.0
230
1.0
 40
0.5758617009853117
 41
0.0000000000000029
 42
0.785398163397603
  0
ELLIPSE
  5
290
330
6C
100
AcDbEntity
  8
Visible (ANSI)
100
AcDbEllipse
 10
96.23321377239955
 20
49.80707475624359
 30
0.0
 11
-0.125
 21
0.0
 31
0.0
210
0.0
220
0.0
230
1.0
 40
0.5758617009853118
 41
5.497787143782288
 42
7.068583470577187
  0
LINE
  5
291
330
6C
100
AcDbEntity
  8
Visible Narrow (ANSI)
100
AcDbLine
 10
96.14482542475125
 20
49.65398190141422
 30
0.0
 11
96.14482542475125
 21
49.75617529201953
 31
0.0
  0
ELLIPSE
  5
292
330
6C
100
AcDbEntity
  8
Visible (ANSI)
100
AcDbEllipse
 10
101.4481949886229
 20
52.91227297425674
 30
0.0
 11
0.124999999999997
 21
-0.0000000000000074
 31
0.0
210
0.0
220
0.0
230
1.0
 40
0.5758617009853118
 41
0.8248293379545605
 42
2.356194490192777
  0
LINE
  5
293
330
6C
100
AcDbEntity
  8
Visible (ANSI)
100
AcDbLine
 10
96.10821377239957
 20
49.70488136563826
 30
0.0
 11
96.10821377239957
 21
49.80707475624359
 31
0.0
  0
LINE
  5
294
330
6C
100
AcDbEntity
  8
Visible (ANSI)
100
AcDbLine
 10
107.1933688807926
 20
43.39334780185803
 30
0.0
 11
108.1655634770059
 21
43.95319743572231
 31
0.0
  0
LINE
  5
295
330
6C
100
AcDbEntity
  8
Visible (ANSI)
100
AcDbLine
 10
108.1655634770059
 20
44.05539082632762
 30
0.0
 11
107.1933688807926
 21
43.49554119246334
 31
0.0
  0
LINE
  5
296
330
6C
100
AcDbEntity
  8
Visible (ANSI)
100
AcDbLine
 10
96.14482542475125
 20
49.65398190141422
 30
0.0
 11
107.016592185496
 21
43.39334780185801
 31
0.0
  0
LINE
  5
297
330
6C
100
AcDbEntity
  8
Visible (ANSI)
100
AcDbLine
 10
96.14482542475123
 20
49.85797422046762
 30
0.0
 11
97.11702002096455
 21
50.4178238543319
 31
0.0
  0
LINE
  5
298
330
6C
100
AcDbEntity
  8
Visible (ANSI)
100
AcDbLine
 10
107.016592185496
 20
43.49554119246333
 30
0.0
 11
96.14482542475125
 21
49.75617529201953
 31
0.0
  0
ELLIPSE
  5
299
330
6C
100
AcDbEntity
  8
Visible (ANSI)
100
AcDbEllipse
 10
108.1655634770059
 20
44.13203586928162
 30
0.0
 11
0.1091632962840288
 21
0.1895651266567921
 31
0.0
210
0.0
220
0.0
230
0.9999999999999998
 40
0.5780931159156392
 41
3.925057108564034
 42
4.710455271961559
  0
ELLIPSE
  5
29A
330
6C
100
AcDbEntity
  8
Visible (ANSI)
100
AcDbEllipse
 10
108.1655634770059
 20
44.13203586928162
 30
0.0
 11
0.0467842698360124
 21
0.0812421971386254
 31
0.0
210
0.0
220
0.0
230
0.9999999999999996
 40
0.5780931159156393
 41
3.925057108564034
 42
4.71045527196146
  0
ELLIPSE
  5
29B
330
6C
100
AcDbEntity
  8
Visible (ANSI)
100
AcDbEllipse
 10
97.11702002096455
 20
50.49446889728589
 30
0.0
 11
0.0467842698360123
 21
0.0812421971386251
 31
0.0
210
0.0
220
0.0
230
1.0
 40
0.5780931159156392
 41
3.925057108564034
 42
4.71045527196146
  0
LINE
  5
29C
330
6C
100
AcDbEntity
  8
Visible Narrow (ANSI)
100
AcDbLine
 10
108.2124384770059
 20
44.10483315689821
 30
0.0
 11
97.16389502096452
 21
50.46726618490247
 31
0.0
  0
LINE
  5
29D
330
6C
100
AcDbEntity
  8
Visible Narrow (ANSI)
100
AcDbLine
 10
108.1655634770059
 20
44.05539082632762
 30
0.0
 11
97.11702002096455
 21
50.4178238543319
 31
0.0
  0
LINE
  5
29E
330
6C
100
AcDbEntity
  8
Visible (ANSI)
100
AcDbLine
 10
108.2985167602368
 20
44.10940159044976
 30
0.0
 11
108.2749384770059
 21
44.06856287372033
 31
0.0
  0
LINE
  5
29F
330
6C
100
AcDbEntity
  8
Visible (ANSI)
100
AcDbLine
 10
108.2124384770059
 20
44.10483315689821
 30
0.0
 11
108.2360167602368
 21
44.14567187362763
 31
0.0
  0
LINE
  5
2A0
330
6C
100
AcDbEntity
  8
Visible (ANSI)
100
AcDbLine
 10
97.18747330419539
 20
50.50810490163191
 30
0.0
 11
97.16389502096452
 21
50.46726618490247
 31
0.0
  0
ELLIPSE
  5
2A1
330
6C
100
AcDbEntity
  8
Visible (ANSI)
100
AcDbEllipse
 10
108.3453917602368
 20
44.08219887806635
 30
0.0
 11
0.046784269836018
 21
0.0812421971386238
 31
0.0
210
0.0
220
0.0
230
1.0
 40
0.5780931159156393
 41
0.8283475791860661
 42
1.568862618371852
  0
ELLIPSE
  5
2A2
330
6C
100
AcDbEntity
  8
Visible (ANSI)
100
AcDbEllipse
 10
108.3453917602368
 20
44.08219887806635
 30
0.0
 11
0.1091632962840402
 21
0.1895651266567857
 31
0.0
210
0.0
220
0.0
230
1.0
 40
0.5780931159156396
 41
0.7834644549746681
 42
1.568862618371859
  0
ELLIPSE
  5
2A3
330
6C
100
AcDbEntity
  8
Visible (ANSI)
100
AcDbEllipse
 10
97.2968483041954
 20
50.44463190607062
 30
0.0
 11
0.1091632962840408
 21
0.1895651266567868
 31
0.0
210
0.0
220
0.0
230
1.0
 40
0.5780931159156441
 41
0.7834644549744106
 42
1.56886261837184
  0
LINE
  5
2A4
330
6C
100
AcDbEntity
  8
Visible Narrow (ANSI)
100
AcDbLine
 10
108.3453917602368
 20
44.26103731162562
 30
0.0
 11
97.2968483041954
 21
50.62347033962993
 31
0.0
  0
LINE
  5
2A5
330
6C
100
AcDbEntity
  8
Visible Narrow (ANSI)
100
AcDbLine
 10
108.2360167602368
 20
44.14567187362763
 30
0.0
 11
97.18747330419539
 21
50.50810490163191
 31
0.0
  0
LINE
  5
2A6
330
6C
100
AcDbEntity
  8
Visible (ANSI)
100
AcDbLine
 10
108.4109606278667
 20
44.19660252066538
 30
0.0
 11
108.3453917602368
 21
44.15884392102031
 31
0.0
  0
LINE
  5
2A7
330
6C
100
AcDbEntity
  8
Visible (ANSI)
100
AcDbLine
 10
108.3453917602368
 20
44.26103731162562
 30
0.0
 11
108.4010188805038
 21
44.29307083972354
 31
0.0
  0
LINE
  5
2A8
330
6C
100
AcDbEntity
  8
Visible (ANSI)
100
AcDbLine
 10
101.3598066409746
 20
52.96317243848077
 30
0.0
 11
97.2968483041954
 21
50.62347033962993
 31
0.0
  0
LINE
  5
2A9
330
6C
100
AcDbEntity
  8
Visible Narrow (ANSI)
100
AcDbLine
 10
108.3424174002206
 20
44.15713110100205
 30
0.0
 11
108.3424174002206
 21
44.15705391343947
 31
0.0
  0
LINE
  5
2AA
330
6C
100
AcDbEntity
  8
Visible Narrow (ANSI)
100
AcDbLine
 10
101.533030278019
 20
52.96513937952392
 30
0.0
 11
107.8842224280025
 21
49.30773106475098
 31
0.0
  0
LINE
  5
2AB
330
6C
100
AcDbEntity
  8
Visible Narrow (ANSI)
100
AcDbLine
 10
108.3453917602368
 20
44.1588439210203
 30
0.0
 11
108.3424174002206
 21
44.15713110100205
 31
0.0
  0
DIMENSION
  5
2AC
330
6C
100
AcDbEntity
  8
Dimension (ANSI)
100
AcDbDimension
  2
*D4
 10
39.36872407736627
 20
33.71149327845446
 30
0.0
 11
39.36872407736626
 21
42.71143020785532
 31
0.0
 70
   160
  1
<>{\PHEIGHT}
 71
     5
 42
17.99987385880175
  3
Default (ANSI)
100
AcDbAlignedDimension
 13
44.17380610280608
 23
51.71136713725621
 33
0.0
 14
44.33005610280606
 24
33.71149327845446
 34
0.0
 50
90.0
100
AcDbRotatedDimension
1001
ACAD
1000
DSTYLE
1002
{
1070
   289
1070
     1
1070
   271
1070
     2
1070
   272
1070
     2
1070
    48
1040
0.0
1070
    47
1040
0.0
1002
}
  0
DIMENSION
  5
3AD
330
6C
100
AcDbEntity
  8
Dimension (ANSI)
100
AcDbDimension
  2
*D5
 10
60.08005610280612
 20
54.83905014871627
 30
0.0
 11
52.0175561028061
 21
54.83905014871627
 31
0.0
 70
   160
  1
<>{\PWIDTH}
 71
     5
 42
16.12500000000003
  3
Default (ANSI)
100
AcDbAlignedDimension
 13
43.95505610280609
 23
51.49261713725623
 33
0.0
 14
60.08005610280612
 24
51.49261713725623
 34
0.0
100
AcDbRotatedDimension
1001
ACAD
1000
DSTYLE
1002
{
1070
   289
1070
     1
1070
    73
1070
     0
1070
    74
1070
     0
1070
   271
1070
     2
1070
   272
1070
     2
1070
    48
1040
0.0
1070
    47
1040
0.0
1002
}
  0
DIMENSION
  5
4AB
330
6C
100
AcDbEntity
  8
Dimension (ANSI)
100
AcDbDimension
  2
*D6
 10
28.83215997303524
 20
55.40074969184678
 30
0.0
 11
24.83215997303523
 21
55.40074969184678
 31
0.0
 70
   160
  1
<>
 42
8.000000000000007
  3
Default (ANSI)
100
AcDbAlignedDimension
 13
20.83215997303523
 23
51.49261713725622
 33
0.0
 14
28.83215997303524
 24
51.71136713725621
 34
0.0
100
AcDbRotatedDimension
1001
ACAD
1000
DSTYLE
1002
{
1070
   289
1070
     1
1070
    73
1070
     0
1070
    74
1070
     0
1070
   271
1070
     2
1070
   272
1070
     2
1070
    48
1040
0.0
1070
    47
1040
0.0
1002
}
  0
DIMENSION
  5
595
330
6C
100
AcDbEntity
  8
Dimension (ANSI)
100
AcDbDimension
  2
*D7
 10
31.90051212952459
 20
53.32028453547278
 30
0.0
 11
31.42365605904643
 21
54.0057259823645
 31
0.0
 70
   165
  1
<>
 42
1.458789058225223
  3
Default (ANSI)
100
AcDb3PointAngularDimension
 13
29.2942645424552
 23
51.71136713725622
 33
0.0
 14
28.90566532409522
 24
52.14612564902453
 34
0.0
 15
28.85676454245521
 25
51.71136713725622
 35
0.0
1001
ACAD_DSTYLE_DIMANGULAR_EXTENSION
1070
   387
1070
     1
1001
ACAD
1000
DSTYLE
1002
{
1070
   179
1070
     0
1070
   272
1070
     0
1070
    48
1040
0.0
1070
    47
1040
0.0
1002
}
  0
DIMENSION
  5
6BE
330
6C
100
AcDbEntity
  8
Dimension (ANSI)
100
AcDbDimension
  2
*D8
 10
60.08005610281115
 20
64.33257255464612
 30
0.0
 11
63.87789223526466
 21
64.33257255464612
 31
0.0
 70
   160
  1
<>{\P(2 PL.)}
 71
     5
 42
1.249999999999992
  3
Default (ANSI)
100
AcDbAlignedDimension
 13
58.83005610281116
 23
62.33353982550291
 33
0.0
 14
60.08005610281115
 24
62.31284149893472
 34
0.0
100
AcDbRotatedDimension
1001
ACAD
1000
DSTYLE
1002
{
1070
   289
1070
     1
1070
    73
1070
     0
1070
    74
1070
     0
1070
   271
1070
     2
1070
    76
1070
     1
1070
    75
1070
     1
1070
   272
1070
     2
1070
    48
1040
0.0
1070
    47
1040
0.0
1002
}
  0
DIMENSION
  5
7AD
330
6C
100
AcDbEntity
  8
Dimension (ANSI)
100
AcDbDimension
  2
*D9
 10
59.6168152831964
 20
59.74106876855266
 30
0.0
 11
57.69069979808772
 21
57.85309516589042
 31
0.0
 70
   160
  1
<>
 42
1.249999999999936
  3
Default (ANSI)
100
AcDbAlignedDimension
 13
48.0153450062784
 23
60.9910687685526
 33
0.0
 14
48.66141683469522
 24
59.74106876855266
 34
0.0
 50
270.0
100
AcDbRotatedDimension
1001
ACAD
1000
DSTYLE
1002
{
1070
   289
1070
     1
1070
   271
1070
     2
1070
    76
1070
     1
1070
    75
1070
     1
1070
   272
1070
     2
1070
    48
1040
0.0
1070
    47
1040
0.0
1002
}
  0
LINE
  5
8A1
330
6C
100
AcDbEntity
  8
Center Mark (ANSI)
  6
CHAIN
 48
0.1834217607975006
100
AcDbLine
 10
44.64255610280019
 20
18.50150590596689
 30
0.0
 11
44.64255610280019
 21
16.18900590596689
 31
0.0
  0
LINE
  5
8A2
330
6C
100
AcDbEntity
  8
Center Mark (ANSI)
  6
CHAIN
 48
0.1834217607975006
100
AcDbLine
 10
44.64255610280019
 20
23.50150590596689
 30
0.0
 11
44.64255610280019
 21
21.18900590596689
 31
0.0
  0
LINE
  5
8A3
330
6C
100
AcDbEntity
  8
Centerline (ANSI)
  6
CHAIN
 48
0.9524481296539306
100
AcDbLine
 10
44.64255610280019
 20
16.18900590596689
 30
0.0
 11
44.64255610280019
 21
23.50150590596689
 31
0.0
  0
LINE
  5
8A4
330
6C
100
AcDbEntity
  8
Center Mark (ANSI)
  6
CHAIN
 48
0.1834217607975006
100
AcDbLine
 10
46.2050561028002
 20
24.8140059059669
 30
0.0
 11
46.2050561028002
 21
22.5015059059669
 31
0.0
  0
LINE
  5
8A5
330
6C
100
AcDbEntity
  8
Center Mark (ANSI)
  6
CHAIN
 48
0.1834217607975006
100
AcDbLine
 10
57.83005610280021
 20
24.8140059059669
 30
0.0
 11
57.83005610280021
 21
22.5015059059669
 31
0.0
  0
LINE
  5
8A6
330
6C
100
AcDbEntity
  8
Centerline (ANSI)
  6
CHAIN
 48
0.9524481296539306
100
AcDbLine
 10
45.04880610280021
 20
23.65775590596689
 30
0.0
 11
58.98630610280021
 21
23.65775590596689
 31
0.0
  0
LINE
  5
8A7
330
6C
100
AcDbEntity
  8
Center Mark (ANSI)
  6
CHAIN
 48
0.1834217607975006
100
AcDbLine
 10
59.3925561028002
 20
23.50150590596688
 30
0.0
 11
59.3925561028002
 21
21.18900590596688
 31
0.0
  0
LINE
  5
8A8
330
6C
100
AcDbEntity
  8
Center Mark (ANSI)
  6
CHAIN
 48
0.1834217607975006
100
AcDbLine
 10
59.39255610280023
 20
18.50150590596688
 30
0.0
 11
59.39255610280023
 21
16.18900590596688
 31
0.0
  0
LINE
  5
8A9
330
6C
100
AcDbEntity
  8
Centerline (ANSI)
  6
CHAIN
 48
0.9524481296539306
100
AcDbLine
 10
59.39255610280019
 20
23.50150590596688
 30
0.0
 11
59.39255610280024
 21
16.18900590596688
 31
0.0
  0
DIMENSION
  5
8AA
330
6C
100
AcDbEntity
  8
Dimension (ANSI)
100
AcDbDimension
  2
*D10
 10
41.81160137839075
 20
22.34525590596689
 30
0.0
 11
41.81160137839074
 21
23.34525590596686
 31
0.0
 70
   160
  1
<>
 42
1.999999999999939
  3
Default (ANSI)
100
AcDbAlignedDimension
 13
44.17380610280019
 23
24.34525590596683
 33
0.0
 14
43.4863061028002
 24
22.34525590596689
 34
0.0
 50
270.0
100
AcDbRotatedDimension
1001
ACAD
1000
DSTYLE
1002
{
1070
   289
1070
     1
1070
   271
1070
     2
1070
   272
1070
     2
1070
    48
1040
0.0
1070
    47
1040
0.0
1002
}
  0
DIMENSION
  5
99D
330
6C
100
AcDbEntity
  8
Dimension (ANSI)
100
AcDbDimension
  2
*D11
 10
38.88427734030079
 20
17.34525590596689
 30
0.0
 11
38.88427734030079
 21
20.84525590596686
 31
0.0
 70
   160
  1
<>
 42
6.999999999999939
  3
Default (ANSI)
100
AcDbAlignedDimension
 13
44.17380610280019
 23
24.34525590596683
 33
0.0
 14
43.4863061028002
 24
17.34525590596689
 34
0.0
 50
270.0
100
AcDbRotatedDimension
1001
ACAD
1000
DSTYLE
1002
{
1070
   289
1070
     1
1070
   271
1070
     2
1070
   272
1070
     2
1070
    48
1040
0.0
1070
    47
1040
0.0
1002
}
  0
DIMENSION
  5
A8D
330
6C
100
AcDbEntity
  8
Dimension (ANSI)
100
AcDbDimension
  2
*D12
 10
61.82468314453268
 20
23.65775590596689
 30
0.0
 11
63.78413196347138
 21
25.94214544208656
 31
0.0
 70
   160
  1
<>
 42
0.6874999999999361
  3
Default (ANSI)
100
AcDbAlignedDimension
 13
59.86130610280021
 23
24.34525590596683
 33
0.0
 14
58.98630610280021
 24
23.65775590596689
 34
0.0
 50
270.0
100
AcDbRotatedDimension
1001
ACAD
1000
DSTYLE
1002
{
1070
   289
1070
     1
1070
   271
1070
     2
1070
   272
1070
     2
1070
    48
1040
0.0
1070
    47
1040
0.0
1002
}
  0
DIMENSION
  5
B8D
330
6C
100
AcDbEntity
  8
Dimension (ANSI)
100
AcDbDimension
  2
*D13
 10
57.83005610280021
 20
27.81434950325341
 30
0.0
 11
62.05617158865393
 21
27.81434950325341
 31
0.0
 70
   160
  1
<>
 42
2.249999999999992
  3
Default (ANSI)
100
AcDbAlignedDimension
 13
60.0800561028002
 23
24.12650590596682
 33
0.0
 14
57.83005610280021
 24
24.8140059059669
 34
0.0
 50
180.0
100
AcDbRotatedDimension
1001
ACAD
1000
DSTYLE
1002
{
1070
   289
1070
     2
1070
    73
1070
     0
1070
    74
1070
     0
1070
   271
1070
     2
1070
   272
1070
     2
1070
    48
1040
0.0
1070
    47
1040
0.0
1002
}
  0
DIMENSION
  5
C77
330
6C
100
AcDbEntity
  8
Dimension (ANSI)
100
AcDbDimension
  2
*D14
 10
46.2050561028002
 20
27.78207012288847
 30
0.0
 11
41.97894061694647
 21
27.78207012288847
 31
0.0
 70
   160
  1
<>
 42
2.250000000000007
  3
Default (ANSI)
100
AcDbAlignedDimension
 13
43.9550561028002
 23
24.12650590596683
 33
0.0
 14
46.2050561028002
 24
24.8140059059669
 34
0.0
100
AcDbRotatedDimension
1001
ACAD
1000
DSTYLE
1002
{
1070
   289
1070
     2
1070
    73
1070
     0
1070
    74
1070
     0
1070
   271
1070
     2
1070
   272
1070
     2
1070
    48
1040
0.0
1070
    47
1040
0.0
1002
}
  0
LINE
  5
D61
330
6C
100
AcDbEntity
  8
Centerline (ANSI)
  6
CHAIN
 48
0.9524481296539306
100
AcDbLine
 10
43.4863061028002
 20
22.34525590596689
 30
0.0
 11
60.54880610280021
 21
22.34525590596688
 31
0.0
  0
LINE
  5
D62
330
6C
100
AcDbEntity
  8
Centerline (ANSI)
  6
CHAIN
 48
0.9524481296539306
100
AcDbLine
 10
43.4863061028002
 20
17.34525590596689
 30
0.0
 11
60.54880610280023
 21
17.34525590596688
 31
0.0
  0
DIMENSION
  5
D63
330
6C
100
AcDbEntity
  8
Dimension (ANSI)
100
AcDbDimension
  2
*D15
 10
44.64255610280019
 20
14.26920670557072
 30
0.0
 11
40.48370465363542
 21
14.26920670557072
 31
0.0
 70
   160
  1
<>{\P(2 PL.)}
 71
     5
 42
0.6874999999999929
  3
Default (ANSI)
100
AcDbAlignedDimension
 13
43.95505610280021
 23
16.34525590596683
 33
0.0
 14
44.64255610280019
 24
16.18900590596689
 34
0.0
100
AcDbRotatedDimension
1001
ACAD
1000
DSTYLE
1002
{
1070
   289
1070
     1
1070
    73
1070
     0
1070
    74
1070
     0
1070
   271
1070
     2
1070
   272
1070
     2
1070
    48
1040
0.0
1070
    47
1040
0.0
1002
}
  0
DIMENSION
  5
E61
330
6C
100
AcDbEntity
  8
Dimension (ANSI)
100
AcDbDimension
  2
*D16
 10
59.21909524139457
 20
17.1238673514741
 30
0.0
 11
65.2367041522228
 21
20.04424127676696
 31
0.0
 70
   163
  1
<>{\P(6 PL.)}
 71
     5
 42
0.5625
  3
Default (ANSI)
100
AcDbDiametricDimension
 15
59.56601696420591
 25
17.56664446045967
 35
0.0
 40
0.0
1001
ACAD
1000
DSTYLE
1002
{
1070
   144
1040
0.9999999999999873
1070
   271
1070
     3
1070
   272
1070
     2
1070
    48
1040
0.0
1070
    47
1040
0.0
1002
}
1001
ACAD_DSTYLE_DIMRADIAL_EXTENSION
1070
   387
1070
     1
1070
   388
1040
0.0
1070
   390
1040
0.0
  0
LINE
  5
F1B
330
6C
100
AcDbEntity
  8
Center Mark (ANSI)
  6
CHAIN
 48
0.1834217607975006
100
AcDbLine
 10
46.0800561028111
 20
67.64731876855261
 30
0.0
 11
46.0800561028111
 21
65.33481876855259
 31
0.0
  0
LINE
  5
F1C
330
6C
100
AcDbEntity
  8
Center Mark (ANSI)
  6
CHAIN
 48
0.1834217607975006
100
AcDbLine
 10
57.9550561028111
 20
67.64731876855261
 30
0.0
 11
57.9550561028111
 21
65.33481876855259
 31
0.0
  0
LINE
  5
F1D
330
6C
100
AcDbEntity
  8
Centerline (ANSI)
  6
CHAIN
 48
0.9524481296539306
100
AcDbLine
 10
44.92380610281109
 20
66.4910687685526
 30
0.0
 11
59.1113061028111
 21
66.4910687685526
 31
0.0
  0
LINE
  5
F1E
330
6C
100
AcDbEntity
  8
Center Mark (ANSI)
  6
CHAIN
 48
0.1834217607975006
100
AcDbLine
 10
53.17380610281111
 20
63.49106876855264
 30
0.0
 11
50.8613061028111
 21
63.49106876855264
 31
0.0
  0
LINE
  5
F1F
330
6C
100
AcDbEntity
  8
Center Mark (ANSI)
  6
CHAIN
 48
0.1834217607975006
100
AcDbLine
 10
52.01755610281111
 20
64.64731876855265
 30
0.0
 11
52.01755610281111
 21
62.33481876855264
 31
0.0
  0
DIMENSION
  5
F20
330
6C
100
AcDbEntity
  8
Dimension (ANSI)
100
AcDbDimension
  2
*D17
 10
46.0800561028111
 20
69.60992904111271
 30
0.0
 11
41.50016822950133
 21
69.60992904111271
 31
0.0
 70
   160
  1
<>
 42
2.124999999999964
  3
Default (ANSI)
100
AcDbAlignedDimension
 13
43.95505610281114
 23
67.74106876855788
 33
0.0
 14
46.0800561028111
 24
67.64731876855261
 34
0.0
 50
180.0
100
AcDbRotatedDimension
1001
ACAD
1000
DSTYLE
1002
{
1070
   289
1070
     2
1070
    73
1070
     0
1070
    74
1070
     0
1070
   271
1070
     2
1070
   272
1070
     2
1070
    48
1040
0.0
1070
    47
1040
0.0
1002
}
  0
DIMENSION
  5
100A
330
6C
100
AcDbEntity
  8
Dimension (ANSI)
100
AcDbDimension
  2
*D18
 10
52.01755610281111
 20
71.07832783963599
 30
0.0
 11
47.70688933162528
 21
71.07832783963599
 31
0.0
 70
   160
  1
<>
 42
8.062499999999964
  3
Default (ANSI)
100
AcDbAlignedDimension
 13
43.95505610281114
 23
67.74106876855788
 33
0.0
 14
52.01755610281111
 24
64.64731876855265
 34
0.0
 50
180.0
100
AcDbRotatedDimension
1001
ACAD
1000
DSTYLE
1002
{
1070
   289
1070
     1
1070
    73
1070
     0
1070
    74
1070
     0
1070
   271
1070
     2
1070
   272
1070
     2
1070
    48
1040
0.0
1070
    47
1040
0.0
1002
}
  0
DIMENSION
  5
10F4
330
6C
100
AcDbEntity
  8
Dimension (ANSI)
100
AcDbDimension
  2
*D19
 10
57.9550561028111
 20
69.54853231284527
 30
0.0
 11
62.53494397612097
 21
69.54853231284527
 31
0.0
 70
   160
  1
<>
 42
2.125000000000078
  3
Default (ANSI)
100
AcDbAlignedDimension
 13
60.08005610281117
 23
67.74106876855788
 33
0.0
 14
57.9550561028111
 24
67.64731876855261
 34
0.0
 50
180.0
100
AcDbRotatedDimension
1001
ACAD
1000
DSTYLE
1002
{
1070
   289
1070
     2
1070
    73
1070
     0
1070
    74
1070
     0
1070
   271
1070
     2
1070
   272
1070
     2
1070
    48
1040
0.0
1070
    47
1040
0.0
1002
}
  0
DIMENSION
  5
11DE
330
6C
100
AcDbEntity
  8
Dimension (ANSI)
100
AcDbDimension
  2
*D20
 10
36.39600050414935
 20
66.4910687685526
 30
0.0
 11
38.32211598925801
 21
69.62904237122014
 31
0.0
 70
   160
  1
<>
 42
1.250000000005286
  3
Default (ANSI)
100
AcDbAlignedDimension
 13
43.95505610281114
 23
67.74106876855788
 33
0.0
 14
44.92380610281109
 24
66.4910687685526
 34
0.0
 50
90.0
100
AcDbRotatedDimension
1001
ACAD
1000
DSTYLE
1002
{
1070
   289
1070
     1
1070
   271
1070
     2
1070
   272
1070
     2
1070
    48
1040
0.0
1070
    47
1040
0.0
1002
}
  0
DIMENSION
  5
12DB
330
6C
100
AcDbEntity
  8
Dimension (ANSI)
100
AcDbDimension
  2
*D21
 10
35.42209458656285
 20
63.49106876855265
 30
0.0
 11
35.42209458656284
 21
65.61606876855527
 31
0.0
 70
   160
  1
<>
 42
4.250000000005236
  3
Default (ANSI)
100
AcDbAlignedDimension
 13
43.95505610281114
 23
67.74106876855788
 33
0.0
 14
50.8613061028111
 24
63.49106876855264
 34
0.0
 50
90.0
100
AcDbRotatedDimension
1001
ACAD
1000
DSTYLE
1002
{
1070
   289
1070
     1
1070
   271
1070
     2
1070
   272
1070
     2
1070
    48
1040
0.0
1070
    47
1040
0.0
1002
}
  0
DIMENSION
  5
13C5
330
6C
100
AcDbEntity
  8
Dimension (ANSI)
100
AcDbDimension
  2
*D22
 10
52.26112574762547
 20
63.63169376855255
 30
0.0
 11
40.24510717707319
 21
58.44480774246337
 31
0.0
 70
   163
  1
<>{\P(3 PL.)}
 71
     5
 42
0.5625
  3
Default (ANSI)
100
AcDbDiametricDimension
 15
51.77398645799666
 25
63.35044376855261
 35
0.0
 40
0.0
1001
ACAD
1000
DSTYLE
1002
{
1070
   144
1040
0.9999999999999495
1070
   271
1070
     3
1070
   272
1070
     3
1070
    48
1040
0.0
1070
    47
1040
0.0
1002
}
1001
ACAD_DSTYLE_DIMRADIAL_EXTENSION
1070
   387
1070
     1
1070
   388
1040
0.0
1070
   390
1040
0.0
  0
DIMENSION
  5
147E
330
6C
100
AcDbEntity
  8
Dimension (ANSI)
100
AcDbDimension
  2
*D23
 10
28.58215997303528
 20
31.34928855404499
 30
0.0
 11
24.70715997303525
 21
31.34928855404499
 31
0.0
 70
   160
  1
<>
 42
7.750000000000049
  3
Default (ANSI)
100
AcDbAlignedDimension
 13
20.83215997303523
 23
33.93011713725623
 33
0.0
 14
28.58215997303528
 24
33.71149327845444
 34
0.0
100
AcDbRotatedDimension
1001
ACAD
1000
DSTYLE
1002
{
1070
   289
1070
     1
1070
    73
1070
     0
1070
    74
1070
     0
1070
   271
1070
     2
1070
   272
1070
     2
1070
    48
1040
0.0
1070
    47
1040
0.0
1002
}
  0
LINE
  5
1568
330
6C
100
AcDbEntity
  8
Center Mark (ANSI)
  6
CHAIN
 48
0.1834217607975006
100
AcDbLine
 10
53.17380610280017
 20
20.59525590596163
 30
0.0
 11
50.86130610280017
 21
20.59525590596163
 31
0.0
  0
LINE
  5
1569
330
6C
100
AcDbEntity
  8
Center Mark (ANSI)
  6
CHAIN
 48
0.1834217607975006
100
AcDbLine
 10
52.01755610280017
 20
21.75150590596163
 30
0.0
 11
52.01755610280017
 21
19.43900590596163
 31
0.0
  0
LINE
  5
156A
330
6C
100
AcDbEntity
  8
Center Mark (ANSI)
  6
CHAIN
 48
0.1834217607975006
100
AcDbLine
 10
47.23630610280017
 20
17.59525590596159
 30
0.0
 11
44.92380610280016
 21
17.59525590596159
 31
0.0
  0
LINE
  5
156B
330
6C
100
AcDbEntity
  8
Center Mark (ANSI)
  6
CHAIN
 48
0.1834217607975006
100
AcDbLine
 10
46.08005610280017
 20
18.75150590596159
 30
0.0
 11
46.08005610280017
 21
16.43900590596159
 31
0.0
  0
LINE
  5
156C
330
6C
100
AcDbEntity
  8
Center Mark (ANSI)
  6
CHAIN
 48
0.1834217607975006
100
AcDbLine
 10
59.11130610280016
 20
17.59525590596159
 30
0.0
 11
56.79880610280016
 21
17.59525590596159
 31
0.0
  0
LINE
  5
156D
330
6C
100
AcDbEntity
  8
Center Mark (ANSI)
  6
CHAIN
 48
0.1834217607975006
100
AcDbLine
 10
57.95505610280017
 20
18.75150590596159
 30
0.0
 11
57.95505610280017
 21
16.43900590596159
 31
0.0
  0
MTEXT
  5
156E
102
{ACAD_XDICTIONARY
360
157A
102
}
330
6C
100
AcDbEntity
  8
Symbol (ANSI)
100
AcDbMText
 10
65.8494236329651
 20
6.571545338632137
 30
0.0
 40
0.7000000223400085
 41
51.68370975284125
 71
     4
 72
     1
  3
{\fRomanS|b0|i0|c0|p2;\H2x;PART#: FK1816\P(DATA SUBJECT TO CHANGE WITHOUT NOTICE)\H1.6157x; \H0.61894x;\P \H1.352x; \H0.73963x;\P\H0.6x;THIS DRAWING IS PROPERTY OF HUBBELL INC. WIEGMANN\H1.5633x; \H0.63966x;\PALL INFORMATION IS PROPRIETARY AND NOT TO
  1
 BE DUPLICATED\H1.234x; \H0.81039x;\P\H1.2571x; }
  7
Note Text (ANSI)
 73
     1
 44
0.8026435375213623
  0
ENDSEC
  0
SECTION
  2
OBJECTS
  0
DICTIONARY
  5
C
330
0
100
AcDbDictionary
281
     1
  3
ACAD_CIP_PREVIOUS_PRODUCT_INFO
350
1570
  3
ACAD_COLOR
350
63
  3
ACAD_GROUP
350
D
  3
ACAD_LAYOUT
350
62
  3
ACAD_MATERIAL
350
10
  3
ACAD_MLEADERSTYLE
350
66
  3
ACAD_MLINESTYLE
350
5F
  3
ACAD_PLOTSETTINGS
350
61
  3
ACAD_PLOTSTYLENAME
350
E
  3
ACAD_SCALELIST
350
42
  3
ACAD_TABLESTYLE
350
64
  3
ACAD_VISUALSTYLE
350
29
  3
ACDB_RECOMPOSE_DATA
350
157C
  3
AcDbVariableDictionary
350
76
  0
DICTIONARY
  5
15B2
330
F15
100
AcDbDictionary
280
     1
281
     1
  3
ACAD_MTEXT_2008_RT
360
15B3
  0
DICTIONARY
  5
15B4
330
1478
100
AcDbDictionary
280
     1
281
     1
  3
ACAD_MTEXT_2008_RT
360
15B5
  0
DICTIONARY
  5
157A
330
156E
100
AcDbDictionary
280
     1
281
     1
  3
ACAD_MTEXT_2008_RT
360
157B
  0
XRECORD
  5
1570
102
{ACAD_REACTORS
330
C
102
}
330
C
100
AcDbXrecord
280
     1
300
INVPROSA
300
2012
300
INVPROSA_F_S
  0
DICTIONARY
  5
63
102
{ACAD_REACTORS
330
C
102
}
330
C
100
AcDbDictionary
281
     1
  0
DICTIONARY
  5
D
102
{ACAD_REACTORS
330
C
102
}
330
C
100
AcDbDictionary
281
     1
  0
DICTIONARY
  5
62
102
{ACAD_REACTORS
330
C
102
}
330
C
100
AcDbDictionary
281
     1
  3
Layout1
350
6B
  3
Layout2
350
73
  3
Model
350
6F
  0
DICTIONARY
  5
10
102
{ACAD_REACTORS
330
C
102
}
330
C
100
AcDbDictionary
281
     1
  3
ByBlock
350
19
  3
ByLayer
350
11
  3
Global
350
21
  0
DICTIONARY
  5
66
102
{ACAD_REACTORS
330
C
102
}
330
C
100
AcDbDictionary
281
     1
  3
Standard
350
67
  0
DICTIONARY
  5
5F
102
{ACAD_REACTORS
330
C
102
}
330
C
100
AcDbDictionary
281
     1
  3
Standard
350
60
  0
DICTIONARY
  5
61
102
{ACAD_REACTORS
330
C
102
}
330
C
100
AcDbDictionary
281
     1
  0
ACDBDICTIONARYWDFLT
  5
E
102
{ACAD_REACTORS
330
C
102
}
330
C
100
AcDbDictionary
281
     1
  3
Normal
350
F
100
AcDbDictionaryWithDefault
340
F
  0
DICTIONARY
  5
42
102
{ACAD_REACTORS
330
C
102
}
330
C
100
AcDbDictionary
281
     1
  3
A0
350
43
  3
A1
350
44
  3
A2
350
45
  3
A3
350
46
  3
A4
350
47
  3
A5
350
48
  3
A6
350
49
  3
A7
350
4A
  3
A8
350
4B
  3
A9
350
4C
  3
B0
350
4D
  3
B1
350
4E
  3
B2
350
4F
  3
B3
350
50
  3
B4
350
51
  3
B5
350
52
  3
B6
350
53
  0
DICTIONARY
  5
64
102
{ACAD_REACTORS
330
C
102
}
330
C
100
AcDbDictionary
281
     1
  3
Standard
350
65
  0
DICTIONARY
  5
29
102
{ACAD_REACTORS
330
C
102
}
330
C
100
AcDbDictionary
281
     1
  3
2dWireframe
350
2F
  3
Basic
350
2E
  3
Brighten
350
35
  3
ColorChange
350
39
  3
Conceptual
350
32
  3
Dim
350
34
  3
EdgeColorOff
350
41
  3
Facepattern
350
38
  3
Flat
350
2A
  3
FlatWithEdges
350
2B
  3
Gouraud
350
2C
  3
GouraudWithEdges
350
2D
  3
Hidden
350
31
  3
JitterOff
350
3F
  3
Linepattern
350
37
  3
OverhangOff
350
40
  3
Realistic
350
33
  3
Shaded
350
3E
  3
Shaded with edges
350
3D
  3
Shades of Gray
350
3A
  3
Sketchy
350
3B
  3
Thicken
350
36
  3
Wireframe
350
30
  3
X-Ray
350
3C
  0
XRECORD
  5
157C
102
{ACAD_REACTORS
330
C
102
}
330
C
100
AcDbXrecord
280
     1
 90
        1
330
65
330
B8D
330
C77
330
F20
330
10F4
330
156E
  0
DICTIONARY
  5
76
102
{ACAD_REACTORS
330
C
102
}
330
C
100
AcDbDictionary
281
     1
  3
CANNOSCALE
350
79
  3
CMLEADERSTYLE
350
78
  3
CTABLESTYLE
350
77
  3
LAYEREVAL
350
1573
  3
LAYERNOTIFY
350
1574
  3
LIGHTINGUNITS
350
1572
  3
MSLTSCALE
350
1571
  3
XCLIPFRAME
350
1575
  0
XRECORD
  5
15B3
102
{ACAD_REACTORS
330
15B2
102
}
330
15B2
100
AcDbXrecord
280
     1
 40
24491.0
  1
\A1;\U+22050.563{\P(6 PL.)}
  0
XRECORD
  5
15B5
102
{ACAD_REACTORS
330
15B4
102
}
330
15B4
100
AcDbXrecord
280
     1
 40
24428.0
  1
\A1;\U+22050.563{\P(3 PL.)}
  0
XRECORD
  5
157B
102
{ACAD_REACTORS
330
157A
102
}
330
157A
100
AcDbXrecord
280
     1
 40
3027667.0
  1
\pxsm0.94;{\fRomanS|b0|i0;\H1.4000;PART#: FK1816\P(DATA SUBJECT TO CHANGE WITHOUT NOTICE)\P \P\fRomanS|b0|i0;\H0.8400;THIS DRAWING IS PROPERTY OF HUBBELL INC. WIEGMANN\PALL INFORMATION IS PROPRIETARY AND NOT TO BE DUPLICATED\P}
  0
LAYOUT
  5
6B
102
{ACAD_REACTORS
330
62
102
}
330
62
100
AcDbPlotSettings
  1

  2

  4

  6

 40
0.0
 41
0.0
 42
0.0
 43
0.0
 44
0.0
 45
0.0
 46
0.0
 47
0.0
 48
0.0
 49
0.0
140
0.0
141
0.0
142
1.0
143
1.0
 70
   688
 72
     0
 73
     0
 74
     5
  7

 75
    16
147
1.0
 76
     0
 77
     2
 78
   300
148
0.0
149
0.0
100
AcDbLayout
  1
Layout1
 70
     1
 71
     1
 10
0.0
 20
0.0
 11
12.0
 21
9.0
 12
0.0
 22
0.0
 32
0.0
 14
0.0
 24
0.0
 34
0.0
 15
0.0
 25
0.0
 35
0.0
146
0.0
 13
0.0
 23
0.0
 33
0.0
 16
1.0
 26
0.0
 36
0.0
 17
0.0
 27
1.0
 37
0.0
 76
     0
330
68
  0
LAYOUT
  5
73
102
{ACAD_REACTORS
330
62
102
}
330
62
100
AcDbPlotSettings
  1

  2

  4

  6

 40
0.0
 41
0.0
 42
0.0
 43
0.0
 44
0.0
 45
0.0
 46
0.0
 47
0.0
 48
0.0
 49
0.0
140
0.0
141
0.0
142
1.0
143
1.0
 70
   688
 72
     0
 73
     0
 74
     5
  7

 75
    16
147
1.0
 76
     0
 77
     2
 78
   300
148
0.0
149
0.0
100
AcDbLayout
  1
Layout2
 70
     1
 71
     2
 10
0.0
 20
0.0
 11
12.0
 21
9.0
 12
0.0
 22
0.0
 32
0.0
 14
0.0
 24
0.0
 34
0.0
 15
0.0
 25
0.0
 35
0.0
146
0.0
 13
0.0
 23
0.0
 33
0.0
 16
1.0
 26
0.0
 36
0.0
 17
0.0
 27
1.0
 37
0.0
 76
     0
330
70
  0
LAYOUT
  5
6F
102
{ACAD_REACTORS
330
62
102
}
330
62
100
AcDbPlotSettings
  1

  2

  4

  6

 40
0.0
 41
0.0
 42
0.0
 43
0.0
 44
0.0
 45
0.0
 46
0.0
 47
0.0
 48
0.0
 49
0.0
140
0.0
141
0.0
142
1.0
143
1.0
 70
  1712
 72
     0
 73
     0
 74
     0
  7

 75
     0
147
1.0
 76
     0
 77
     2
 78
   300
148
0.0
149
0.0
100
AcDbLayout
  1
Model
 70
     1
 71
     0
 10
0.0
 20
0.0
 11
12.0
 21
9.0
 12
0.0
 22
0.0
 32
0.0
 14
0.0
 24
0.0
 34
0.0
 15
0.0
 25
0.0
 35
0.0
146
0.0
 13
0.0
 23
0.0
 33
0.0
 16
1.0
 26
0.0
 36
0.0
 17
0.0
 27
1.0
 37
0.0
 76
     0
330
6C
  0
MATERIAL
  5
19
102
{ACAD_XDICTIONARY
360
1A
102
}
102
{ACAD_REACTORS
330
10
102
}
330
10
100
AcDbMaterial
  1
ByBlock
 72
     0
 43
0.0208333333333333
 43
0.0
 43
0.0
 43
0.0
 43
0.0
 43
0.0208333333333333
 43
0.0
 43
0.0
 43
0.0
 43
0.0
 43
1.0
 43
0.0
 43
0.0
 43
0.0
 43
0.0
 43
1.0
 77
     0
 47
0.0208333333333333
 47
0.0
 47
0.0
 47
0.0
 47
0.0
 47
0.0208333333333333
 47
0.0
 47
0.0
 47
0.0
 47
0.0
 47
1.0
 47
0.0
 47
0.0
 47
0.0
 47
0.0
 47
1.0
171
     0
 49
0.0208333333333333
 49
0.0
 49
0.0
 49
0.0
 49
0.0
 49
0.0208333333333333
 49
0.0
 49
0.0
 49
0.0
 49
0.0
 49
1.0
 49
0.0
 49
0.0
 49
0.0
 49
0.0
 49
1.0
175
     0
142
0.0208333333333333
142
0.0
142
0.0
142
0.0
142
0.0
142
0.0208333333333333
142
0.0
142
0.0
142
0.0
142
0.0
142
1.0
142
0.0
142
0.0
142
0.0
142
0.0
142
1.0
179
     0
144
0.0208333333333333
144
0.0
144
0.0
144
0.0
144
0.0
144
0.0208333333333333
144
0.0
144
0.0
144
0.0
144
0.0
144
1.0
144
0.0
144
0.0
144
0.0
144
0.0
144
1.0
147
0.0208333333333333
147
0.0
147
0.0
147
0.0
147
0.0
147
0.0208333333333333
147
0.0
147
0.0
147
0.0
147
0.0
147
1.0
147
0.0
147
0.0
147
0.0
147
0.0
147
1.0
  0
MATERIAL
  5
11
102
{ACAD_XDICTIONARY
360
12
102
}
102
{ACAD_REACTORS
330
10
102
}
330
10
100
AcDbMaterial
  1
ByLayer
 72
     0
 43
0.0208333333333333
 43
0.0
 43
0.0
 43
0.0
 43
0.0
 43
0.0208333333333333
 43
0.0
 43
0.0
 43
0.0
 43
0.0
 43
1.0
 43
0.0
 43
0.0
 43
0.0
 43
0.0
 43
1.0
 77
     0
 47
0.0208333333333333
 47
0.0
 47
0.0
 47
0.0
 47
0.0
 47
0.0208333333333333
 47
0.0
 47
0.0
 47
0.0
 47
0.0
 47
1.0
 47
0.0
 47
0.0
 47
0.0
 47
0.0
 47
1.0
171
     0
 49
0.0208333333333333
 49
0.0
 49
0.0
 49
0.0
 49
0.0
 49
0.0208333333333333
 49
0.0
 49
0.0
 49
0.0
 49
0.0
 49
1.0
 49
0.0
 49
0.0
 49
0.0
 49
0.0
 49
1.0
175
     0
142
0.0208333333333333
142
0.0
142
0.0
142
0.0
142
0.0
142
0.0208333333333333
142
0.0
142
0.0
142
0.0
142
0.0
142
1.0
142
0.0
142
0.0
142
0.0
142
0.0
142
1.0
179
     0
144
0.0208333333333333
144
0.0
144
0.0
144
0.0
144
0.0
144
0.0208333333333333
144
0.0
144
0.0
144
0.0
144
0.0
144
1.0
144
0.0
144
0.0
144
0.0
144
0.0
144
1.0
147
0.0208333333333333
147
0.0
147
0.0
147
0.0
147
0.0
147
0.0208333333333333
147
0.0
147
0.0
147
0.0
147
0.0
147
1.0
147
0.0
147
0.0
147
0.0
147
0.0
147
1.0
  0
MATERIAL
  5
21
102
{ACAD_XDICTIONARY
360
22
102
}
102
{ACAD_REACTORS
330
10
102
}
330
10
100
AcDbMaterial
  1
Global
 72
     0
 43
0.0208333333333333
 43
0.0
 43
0.0
 43
0.0
 43
0.0
 43
0.0208333333333333
 43
0.0
 43
0.0
 43
0.0
 43
0.0
 43
1.0
 43
0.0
 43
0.0
 43
0.0
 43
0.0
 43
1.0
 77
     0
 47
0.0208333333333333
 47
0.0
 47
0.0
 47
0.0
 47
0.0
 47
0.0208333333333333
 47
0.0
 47
0.0
 47
0.0
 47
0.0
 47
1.0
 47
0.0
 47
0.0
 47
0.0
 47
0.0
 47
1.0
171
     0
 49
0.0208333333333333
 49
0.0
 49
0.0
 49
0.0
 49
0.0
 49
0.0208333333333333
 49
0.0
 49
0.0
 49
0.0
 49
0.0
 49
1.0
 49
0.0
 49
0.0
 49
0.0
 49
0.0
 49
1.0
175
     0
142
0.0208333333333333
142
0.0
142
0.0
142
0.0
142
0.0
142
0.0208333333333333
142
0.0
142
0.0
142
0.0
142
0.0
142
1.0
142
0.0
142
0.0
142
0.0
142
0.0
142
1.0
179
     0
144
0.0208333333333333
144
0.0
144
0.0
144
0.0
144
0.0
144
0.0208333333333333
144
0.0
144
0.0
144
0.0
144
0.0
144
1.0
144
0.0
144
0.0
144
0.0
144
0.0
144
1.0
147
0.0208333333333333
147
0.0
147
0.0
147
0.0
147
0.0
147
0.0208333333333333
147
0.0
147
0.0
147
0.0
147
0.0
147
1.0
147
0.0
147
0.0
147
0.0
147
0.0
147
1.0
  0
MLEADERSTYLE
  5
67
102
{ACAD_XDICTIONARY
360
1578
102
}
102
{ACAD_REACTORS
330
66
102
}
330
66
100
AcDbMLeaderStyle
170
     2
171
     1
172
     0
 90
        2
 40
0.0
 41
0.0
173
     1
 91
-1056964608
340
5B
 92
       -2
290
     1
 42
0.09
291
     1
 43
0.36
  3
Standard
 44
0.18
300

342
55
174
     1
178
     6
175
     1
176
     0
 93
-1056964608
 45
0.18
292
     0
297
     0
 46
0.18
 94
-1056964608
 47
1.0
 49
1.0
140
1.0
293
     1
141
0.0
294
     1
177
     0
142
1.0
295
     0
296
     0
143
0.125
1001
ACAD_MLEADERVER
1070
     2
  0
MLINESTYLE
  5
60
102
{ACAD_REACTORS
330
5F
102
}
330
5F
100
AcDbMlineStyle
  2
STANDARD
 70
     0
  3

 62
   256
 51
90.0
 52
90.0
 71
     2
 49
0.5
 62
   256
  6
BYLAYER
 49
-0.5
 62
   256
  6
BYLAYER
  0
ACDBPLACEHOLDER
  5
F
102
{ACAD_REACTORS
330
E
102
}
330
E
  0
SCALE
  5
43
102
{ACAD_REACTORS
330
42
102
}
330
42
100
AcDbScale
 70
     0
300
1:1
140
1.0
141
1.0
290
     1
  0
SCALE
  5
44
102
{ACAD_REACTORS
330
42
102
}
330
42
100
AcDbScale
 70
     0
300
1/128" = 1'-0"
140
0.0078125
141
12.0
290
     0
  0
SCALE
  5
45
102
{ACAD_REACTORS
330
42
102
}
330
42
100
AcDbScale
 70
     0
300
1/64" = 1'-0"
140
0.015625
141
12.0
290
     0
  0
SCALE
  5
46
102
{ACAD_REACTORS
330
42
102
}
330
42
100
AcDbScale
 70
     0
300
1/32" = 1'-0"
140
0.03125
141
12.0
290
     0
  0
SCALE
  5
47
102
{ACAD_REACTORS
330
42
102
}
330
42
100
AcDbScale
 70
     0
300
1/16" = 1'-0"
140
0.0625
141
12.0
290
     0
  0
SCALE
  5
48
102
{ACAD_REACTORS
330
42
102
}
330
42
100
AcDbScale
 70
     0
300
3/32" = 1'-0"
140
0.09375
141
12.0
290
     0
  0
SCALE
  5
49
102
{ACAD_REACTORS
330
42
102
}
330
42
100
AcDbScale
 70
     0
300
1/8" = 1'-0"
140
0.125
141
12.0
290
     0
  0
SCALE
  5
4A
102
{ACAD_REACTORS
330
42
102
}
330
42
100
AcDbScale
 70
     0
300
3/16" = 1'-0"
140
0.1875
141
12.0
290
     0
  0
SCALE
  5
4B
102
{ACAD_REACTORS
330
42
102
}
330
42
100
AcDbScale
 70
     0
300
1/4" = 1'-0"
140
0.25
141
12.0
290
     0
  0
SCALE
  5
4C
102
{ACAD_REACTORS
330
42
102
}
330
42
100
AcDbScale
 70
     0
300
3/8" = 1'-0"
140
0.375
141
12.0
290
     0
  0
SCALE
  5
4D
102
{ACAD_REACTORS
330
42
102
}
330
42
100
AcDbScale
 70
     0
300
1/2" = 1'-0"
140
0.5
141
12.0
290
     0
  0
SCALE
  5
4E
102
{ACAD_REACTORS
330
42
102
}
330
42
100
AcDbScale
 70
     0
300
3/4" = 1'-0"
140
0.75
141
12.0
290
     0
  0
SCALE
  5
4F
102
{ACAD_REACTORS
330
42
102
}
330
42
100
AcDbScale
 70
     0
300
1" = 1'-0"
140
1.0
141
12.0
290
     0
  0
SCALE
  5
50
102
{ACAD_REACTORS
330
42
102
}
330
42
100
AcDbScale
 70
     0
300
1-1/2" = 1'-0"
140
1.5
141
12.0
290
     0
  0
SCALE
  5
51
102
{ACAD_REACTORS
330
42
102
}
330
42
100
AcDbScale
 70
     0
300
3" = 1'-0"
140
3.0
141
12.0
290
     0
  0
SCALE
  5
52
102
{ACAD_REACTORS
330
42
102
}
330
42
100
AcDbScale
 70
     0
300
6" = 1'-0"
140
6.0
141
12.0
290
     0
  0
SCALE
  5
53
102
{ACAD_REACTORS
330
42
102
}
330
42
100
AcDbScale
 70
     0
300
1'-0" = 1'-0"
140
12.0
141
12.0
290
     0
  0
TABLESTYLE
  5
65
102
{ACAD_XDICTIONARY
360
1576
102
}
102
{ACAD_REACTORS
330
64
102
}
330
64
100
AcDbTableStyle
  3
Standard
 70
     0
 71
     0
 40
0.06
 41
0.06
280
     0
281
     0
  7
Standard
140
0.18
170
     2
 62
     0
 63
     7
283
     0
274
    -2
284
     1
 64
     0
275
    -2
285
     1
 65
     0
276
    -2
286
     1
 66
     0
277
    -2
287
     1
 67
     0
278
    -2
288
     1
 68
     0
279
    -2
289
     1
 69
     0
  7
Standard
140
0.25
170
     5
 62
     0
 63
     7
283
     0
274
    -2
284
     1
 64
     0
275
    -2
285
     1
 65
     0
276
    -2
286
     1
 66
     0
277
    -2
287
     1
 67
     0
278
    -2
288
     1
 68
     0
279
    -2
289
     1
 69
     0
  7
Standard
140
0.18
170
     5
 62
     0
 63
     7
283
     0
274
    -2
284
     1
 64
     0
275
    -2
285
     1
 65
     0
276
    -2
286
     1
 66
     0
277
    -2
287
     1
 67
     0
278
    -2
288
     1
 68
     0
279
    -2
289
     1
 69
     0
  0
VISUALSTYLE
  5
2F
102
{ACAD_XDICTIONARY
360
158A
102
}
102
{ACAD_REACTORS
330
29
102
}
330
29
100
AcDbVisualStyle
  2
2dWireframe
 70
     4
 71
     0
 72
     2
 73
     0
 90
        0
 40
-0.6
 41
-30.0
 62
     5
 63
     7
421
 16777215
 74
     1
 91
        4
 64
     7
 65
   257
 75
     1
175
     1
 42
1.0
 92
        0
 66
   257
 43
1.0
 76
     1
 77
     6
 78
     2
 67
     7
 79
     5
170
     0
171
     0
290
     0
174
     0
 93
        1
 44
0.0
173
     0
291
     0
 45
0.0
1001
ACAD
1000
AcDbSavedByObjectVersion
1070
     0
  0
VISUALSTYLE
  5
2E
102
{ACAD_XDICTIONARY
360
1588
102
}
102
{ACAD_REACTORS
330
29
102
}
330
29
100
AcDbVisualStyle
  2
Basic
 70
     7
 71
     1
 72
     0
 73
     1
 90
        0
 40
-0.6
 41
-30.0
 62
     5
 63
     7
421
 16777215
 74
     0
 91
        4
 64
     7
 65
   257
 75
     1
175
     1
 42
1.0
 92
        8
 66
     7
 43
1.0
 76
     1
 77
     6
 78
     2
 67
     7
 79
     5
170
     0
171
     0
290
     0
174
     0
 93
        1
 44
0.0
173
     0
291
     1
 45
0.0
1001
ACAD
1000
AcDbSavedByObjectVersion
1070
     0
  0
VISUALSTYLE
  5
35
102
{ACAD_XDICTIONARY
360
1596
102
}
102
{ACAD_REACTORS
330
29
102
}
330
29
100
AcDbVisualStyle
  2
Brighten
 70
    12
 71
     2
 72
     2
 73
     0
 90
        0
 40
-0.6
 41
-30.0
 62
     5
 63
     7
421
 16777215
 74
     1
 91
        4
 64
     7
 65
   257
 75
     1
175
     1
 42
1.0
 92
        8
 66
     7
 43
1.0
 76
     1
 77
     6
 78
     2
 67
     7
 79
     5
170
     0
171
     0
290
     0
174
     0
 93
        1
 44
50.0
173
     0
291
     1
 45
0.0
1001
ACAD
1000
AcDbSavedByObjectVersion
1070
     0
  0
VISUALSTYLE
  5
39
102
{ACAD_XDICTIONARY
360
159E
102
}
102
{ACAD_REACTORS
330
29
102
}
330
29
100
AcDbVisualStyle
  2
ColorChange
 70
    16
 71
     2
 72
     2
 73
     3
 90
        0
 40
-0.6
 41
-30.0
 62
     5
 63
     8
421
  8421504
 74
     1
 91
        4
 64
     7
 65
   257
 75
     1
175
     1
 42
1.0
 92
        8
 66
     8
424
  8421504
 43
1.0
 76
     1
 77
     6
 78
     2
 67
     7
 79
     5
170
     0
171
     0
290
     0
174
     0
 93
        1
 44
0.0
173
     0
291
     1
 45
0.0
1001
ACAD
1000
AcDbSavedByObjectVersion
1070
     0
  0
VISUALSTYLE
  5
32
102
{ACAD_XDICTIONARY
360
1590
102
}
102
{ACAD_REACTORS
330
29
102
}
330
29
100
AcDbVisualStyle
  2
Conceptual
 70
     9
 71
     3
 72
     2
 73
     0
 90
        0
 40
-0.6
 41
-30.0
 62
     5
 63
     7
421
 16777215
 74
     2
 91
        2
 64
     7
 65
   257
 75
     1
175
     1
 42
179.0
 92
        8
 66
     7
 43
1.0
 76
     1
 77
     6
 78
     2
 67
     7
 79
     3
170
     0
171
     0
290
     0
174
     0
 93
        1
 44
0.0
173
     0
291
     0
 45
0.0
1001
ACAD
1000
AcDbSavedByObjectVersion
1070
     0
  0
VISUALSTYLE
  5
34
102
{ACAD_XDICTIONARY
360
1594
102
}
102
{ACAD_REACTORS
330
29
102
}
330
29
100
AcDbVisualStyle
  2
Dim
 70
    11
 71
     2
 72
     2
 73
     0
 90
        0
 40
-0.6
 41
-30.0
 62
     5
 63
     7
421
 16777215
 74
     1
 91
        4
 64
     7
 65
   257
 75
     1
175
     1
 42
1.0
 92
        8
 66
     7
 43
1.0
 76
     1
 77
     6
 78
     2
 67
     7
 79
     5
170
     0
171
     0
290
     0
174
     0
 93
        1
 44
-50.0
173
     0
291
     1
 45
0.0
1001
ACAD
1000
AcDbSavedByObjectVersion
1070
     0
  0
VISUALSTYLE
  5
41
102
{ACAD_XDICTIONARY
360
15AE
102
}
102
{ACAD_REACTORS
330
29
102
}
330
29
100
AcDbVisualStyle
  2
EdgeColorOff
 70
    22
 71
     2
 72
     2
 73
     0
 90
        0
 40
-0.6
 41
-30.0
 62
     5
 63
     7
421
 16777215
 74
     1
 91
        4
 64
     7
 65
   257
 75
     1
175
     1
 42
1.0
 92
        8
 66
     7
 43
1.0
 76
     1
 77
     6
 78
     2
 67
     7
 79
     5
170
     0
171
     0
290
     0
174
     0
 93
        1
 44
0.0
173
     0
291
     1
 45
0.0
1001
ACAD
1000
AcDbSavedByObjectVersion
1070
     0
  0
VISUALSTYLE
  5
38
102
{ACAD_XDICTIONARY
360
159C
102
}
102
{ACAD_REACTORS
330
29
102
}
330
29
100
AcDbVisualStyle
  2
Facepattern
 70
    15
 71
     2
 72
     2
 73
     0
 90
        0
 40
-0.6
 41
-30.0
 62
     5
 63
     7
421
 16777215
 74
     1
 91
        4
 64
     7
 65
   257
 75
     1
175
     1
 42
1.0
 92
        8
 66
     7
 43
1.0
 76
     1
 77
     6
 78
     2
 67
     7
 79
     5
170
     0
171
     0
290
     0
174
     0
 93
        1
 44
0.0
173
     0
291
     1
 45
0.0
1001
ACAD
1000
AcDbSavedByObjectVersion
1070
     0
  0
VISUALSTYLE
  5
2A
102
{ACAD_XDICTIONARY
360
1580
102
}
102
{ACAD_REACTORS
330
29
102
}
330
29
100
AcDbVisualStyle
  2
Flat
 70
     0
 71
     2
 72
     1
 73
     1
 90
        2
 40
-0.6
 41
30.0
 62
     5
 63
     7
421
 16777215
 74
     0
 91
        0
 64
     7
 65
   257
 75
     1
175
     1
 42
1.0
 92
        8
 66
     7
 43
1.0
 76
     1
 77
     6
 78
     2
 67
     7
 79
     5
170
     0
171
     0
290
     0
174
     0
 93
       13
 44
0.0
173
     0
291
     1
 45
0.0
1001
ACAD
1000
AcDbSavedByObjectVersion
1070
     0
  0
VISUALSTYLE
  5
2B
102
{ACAD_XDICTIONARY
360
1582
102
}
102
{ACAD_REACTORS
330
29
102
}
330
29
100
AcDbVisualStyle
  2
FlatWithEdges
 70
     1
 71
     2
 72
     1
 73
     1
 90
        2
 40
-0.6
 41
30.0
 62
     5
 63
     7
421
 16777215
 74
     1
 91
        0
 64
     7
 65
   257
 75
     1
175
     1
 42
1.0
 92
        0
 66
   257
 43
1.0
 76
     1
 77
     6
 78
     2
 67
     7
 79
     5
170
     0
171
     0
290
     0
174
     0
 93
       13
 44
0.0
173
     0
291
     1
 45
0.0
1001
ACAD
1000
AcDbSavedByObjectVersion
1070
     0
  0
VISUALSTYLE
  5
2C
102
{ACAD_XDICTIONARY
360
1584
102
}
102
{ACAD_REACTORS
330
29
102
}
330
29
100
AcDbVisualStyle
  2
Gouraud
 70
     2
 71
     2
 72
     2
 73
     1
 90
        2
 40
-0.6
 41
30.0
 62
     5
 63
     7
421
 16777215
 74
     0
 91
        0
 64
     7
 65
   257
 75
     1
175
     1
 42
1.0
 92
        0
 66
     7
 43
1.0
 76
     1
 77
     6
 78
     2
 67
     7
 79
     5
170
     0
171
     0
290
     0
174
     0
 93
       13
 44
0.0
173
     0
291
     1
 45
0.0
1001
ACAD
1000
AcDbSavedByObjectVersion
1070
     0
  0
VISUALSTYLE
  5
2D
102
{ACAD_XDICTIONARY
360
1586
102
}
102
{ACAD_REACTORS
330
29
102
}
330
29
100
AcDbVisualStyle
  2
GouraudWithEdges
 70
     3
 71
     2
 72
     2
 73
     1
 90
        2
 40
-0.6
 41
30.0
 62
     5
 63
     7
421
 16777215
 74
     1
 91
        0
 64
     7
 65
   257
 75
     1
175
     1
 42
1.0
 92
        0
 66
   257
 43
1.0
 76
     1
 77
     6
 78
     2
 67
     7
 79
     5
170
     0
171
     0
290
     0
174
     0
 93
       13
 44
0.0
173
     0
291
     1
 45
0.0
1001
ACAD
1000
AcDbSavedByObjectVersion
1070
     0
  0
VISUALSTYLE
  5
31
102
{ACAD_XDICTIONARY
360
158E
102
}
102
{ACAD_REACTORS
330
29
102
}
330
29
100
AcDbVisualStyle
  2
Hidden
 70
     6
 71
     1
 72
     2
 73
     2
 90
        0
 40
-0.6
 41
-30.0
 62
     5
 63
     7
421
 16777215
 74
     2
 91
        2
 64
     7
 65
   257
 75
     2
175
     1
 42
40.0
 92
        0
 66
   257
 43
1.0
 76
     1
 77
     6
 78
     2
 67
     7
 79
     3
170
     0
171
     0
290
     0
174
     0
 93
        1
 44
0.0
173
     0
291
     0
 45
0.0
1001
ACAD
1000
AcDbSavedByObjectVersion
1070
     0
  0
VISUALSTYLE
  5
3F
102
{ACAD_XDICTIONARY
360
15AA
102
}
102
{ACAD_REACTORS
330
29
102
}
330
29
100
AcDbVisualStyle
  2
JitterOff
 70
    20
 71
     2
 72
     2
 73
     0
 90
        0
 40
-0.6
 41
-30.0
 62
     5
 63
     7
421
 16777215
 74
     1
 91
        4
 64
     7
 65
   257
 75
     1
175
     1
 42
1.0
 92
       10
 66
     7
 43
1.0
 76
     1
 77
     6
 78
     2
 67
     7
 79
     5
170
     0
171
     0
290
     0
174
     0
 93
        1
 44
0.0
173
     0
291
     1
 45
0.0
1001
ACAD
1000
AcDbSavedByObjectVersion
1070
     0
  0
VISUALSTYLE
  5
37
102
{ACAD_XDICTIONARY
360
159A
102
}
102
{ACAD_REACTORS
330
29
102
}
330
29
100
AcDbVisualStyle
  2
Linepattern
 70
    14
 71
     2
 72
     2
 73
     0
 90
        0
 40
-0.6
 41
-30.0
 62
     5
 63
     7
421
 16777215
 74
     1
 91
        4
 64
     7
 65
   257
 75
     7
175
     7
 42
1.0
 92
        8
 66
     7
 43
1.0
 76
     1
 77
     6
 78
     2
 67
     7
 79
     5
170
     0
171
     0
290
     0
174
     0
 93
        1
 44
0.0
173
     0
291
     1
 45
0.0
1001
ACAD
1000
AcDbSavedByObjectVersion
1070
     0
  0
VISUALSTYLE
  5
40
102
{ACAD_XDICTIONARY
360
15AC
102
}
102
{ACAD_REACTORS
330
29
102
}
330
29
100
AcDbVisualStyle
  2
OverhangOff
 70
    21
 71
     2
 72
     2
 73
     0
 90
        0
 40
-0.6
 41
-30.0
 62
     5
 63
     7
421
 16777215
 74
     1
 91
        4
 64
     7
 65
   257
 75
     1
175
     1
 42
1.0
 92
        9
 66
     7
 43
1.0
 76
     1
 77
     6
 78
     2
 67
     7
 79
     5
170
     0
171
     0
290
     0
174
     0
 93
        1
 44
0.0
173
     0
291
     1
 45
0.0
1001
ACAD
1000
AcDbSavedByObjectVersion
1070
     0
  0
VISUALSTYLE
  5
33
102
{ACAD_XDICTIONARY
360
1592
102
}
102
{ACAD_REACTORS
330
29
102
}
330
29
100
AcDbVisualStyle
  2
Realistic
 70
     8
 71
     2
 72
     3
 73
     0
 90
        2
 40
-0.6
 41
30.0
 62
     5
 63
     7
421
 16777215
 74
     0
 91
        0
 64
     7
 65
   257
 75
     1
175
     1
 42
1.0
 92
        8
 66
   257
 43
1.0
 76
     1
 77
     6
 78
     2
 67
     7
 79
     3
170
     0
171
     0
290
     0
174
     0
 93
       13
 44
0.0
173
     0
291
     0
 45
0.0
1001
ACAD
1000
AcDbSavedByObjectVersion
1070
     0
  0
VISUALSTYLE
  5
3E
102
{ACAD_XDICTIONARY
360
15A8
102
}
102
{ACAD_REACTORS
330
29
102
}
330
29
100
AcDbVisualStyle
  2
Shaded
 70
    27
 71
     2
 72
     2
 73
     1
 90
        2
 40
-0.6
 41
30.0
 62
     5
 63
     7
421
 16777215
 74
     0
 91
        4
 64
     7
 65
   257
 75
     1
175
     1
 42
1.0
 92
        8
 66
   257
 43
1.0
 76
     1
 77
     6
 78
     2
 67
     8
425
  7895160
 79
     3
170
     0
171
     0
290
     0
174
     0
 93
        5
 44
0.0
173
     0
291
     0
 45
0.0
1001
ACAD
1000
AcDbSavedByObjectVersion
1070
     0
  0
VISUALSTYLE
  5
3D
102
{ACAD_XDICTIONARY
360
15A6
102
}
102
{ACAD_REACTORS
330
29
102
}
330
29
100
AcDbVisualStyle
  2
Shaded with edges
 70
    26
 71
     2
 72
     2
 73
     1
 90
        2
 40
-0.6
 41
30.0
 62
     5
 63
     7
421
 16777215
 74
     1
 91
       10
 64
     7
 65
   257
 75
     2
175
     1
 42
1.0
 92
        8
 66
   257
 43
1.0
 76
     1
 77
     6
 78
     2
 67
     7
 79
     3
170
     0
171
     0
290
     0
174
     0
 93
        5
 44
0.0
173
     0
291
     0
 45
0.0
1001
ACAD
1000
AcDbSavedByObjectVersion
1070
     0
  0
VISUALSTYLE
  5
3A
102
{ACAD_XDICTIONARY
360
15A0
102
}
102
{ACAD_REACTORS
330
29
102
}
330
29
100
AcDbVisualStyle
  2
Shades of Gray
 70
    23
 71
     2
 72
     2
 73
     3
 90
        0
 40
-0.6
 41
-30.0
 62
     5
 63
     7
421
 16777215
 74
     2
 91
        2
 64
     7
 65
     7
 75
     1
175
     1
 42
40.0
 92
        8
 66
     7
 43
1.0
 76
     1
 77
     6
 78
     2
 67
     7
 79
     3
170
     0
171
     0
290
     0
174
     0
 93
        1
 44
0.0
173
     0
291
     0
 45
0.0
1001
ACAD
1000
AcDbSavedByObjectVersion
1070
     0
  0
VISUALSTYLE
  5
3B
102
{ACAD_XDICTIONARY
360
15A2
102
}
102
{ACAD_REACTORS
330
29
102
}
330
29
100
AcDbVisualStyle
  2
Sketchy
 70
    24
 71
     1
 72
     2
 73
     2
 90
        0
 40
-0.6
 41
-30.0
 62
     5
 63
     7
421
 16777215
 74
     2
 91
        2
 64
     7
 65
     7
 75
     1
175
     1
 42
40.0
 92
       11
 66
     7
 43
1.0
 76
     1
 77
     6
 78
     2
 67
     7
 79
     6
170
     0
171
     0
290
     0
174
     0
 93
        1
 44
0.0
173
     0
291
     0
 45
0.0
1001
ACAD
1000
AcDbSavedByObjectVersion
1070
     0
  0
VISUALSTYLE
  5
36
102
{ACAD_XDICTIONARY
360
1598
102
}
102
{ACAD_REACTORS
330
29
102
}
330
29
100
AcDbVisualStyle
  2
Thicken
 70
    13
 71
     2
 72
     2
 73
     0
 90
        0
 40
-0.6
 41
-30.0
 62
     5
 63
     7
421
 16777215
 74
     1
 91
        4
 64
     7
 65
   257
 75
     1
175
     1
 42
1.0
 92
       12
 66
     7
 43
1.0
 76
     1
 77
     6
 78
     2
 67
     7
 79
     5
170
     0
171
     0
290
     0
174
     0
 93
        1
 44
0.0
173
     0
291
     1
 45
0.0
1001
ACAD
1000
AcDbSavedByObjectVersion
1070
     0
  0
VISUALSTYLE
  5
30
102
{ACAD_XDICTIONARY
360
158C
102
}
102
{ACAD_REACTORS
330
29
102
}
330
29
100
AcDbVisualStyle
  2
Wireframe
 70
     5
 71
     0
 72
     2
 73
     0
 90
        0
 40
-0.6
 41
-30.0
 62
     5
 63
     7
421
 16777215
 74
     1
 91
        4
 64
     7
 65
   257
 75
     1
175
     1
 42
1.0
 92
        0
 66
   257
 43
1.0
 76
     1
 77
     6
 78
     2
 67
     7
 79
     3
170
     0
171
     0
290
     0
174
     0
 93
        1
 44
0.0
173
     0
291
     0
 45
0.0
1001
ACAD
1000
AcDbSavedByObjectVersion
1070
     0
  0
VISUALSTYLE
  5
3C
102
{ACAD_XDICTIONARY
360
15A4
102
}
102
{ACAD_REACTORS
330
29
102
}
330
29
100
AcDbVisualStyle
  2
X-Ray
 70
    25
 71
     2
 72
     2
 73
     1
 90
        1
 40
0.5
 41
-30.0
 62
     5
 63
     7
421
 16777215
 74
     1
 91
        0
 64
     7
 65
   257
 75
     1
175
     1
 42
1.0
 92
        8
 66
     7
 43
1.0
 76
     1
 77
     6
 78
     2
 67
     7
 79
     3
170
     0
171
     0
290
     0
174
     0
 93
       13
 44
0.0
173
     0
291
     0
 45
0.0
1001
ACAD
1000
AcDbSavedByObjectVersion
1070
     0
  0
DICTIONARYVAR
  5
79
102
{ACAD_REACTORS
330
76
102
}
330
76
100
DictionaryVariables
280
     0
  1
1:1
  0
DICTIONARYVAR
  5
78
102
{ACAD_REACTORS
330
76
102
}
330
76
100
DictionaryVariables
280
     0
  1
STANDARD
  0
DICTIONARYVAR
  5
77
102
{ACAD_REACTORS
330
76
102
}
330
76
100
DictionaryVariables
280
     0
  1
STANDARD
  0
DICTIONARYVAR
  5
1573
102
{ACAD_REACTORS
330
76
102
}
330
76
100
DictionaryVariables
280
     0
  1
0
  0
DICTIONARYVAR
  5
1574
102
{ACAD_REACTORS
330
76
102
}
330
76
100
DictionaryVariables
280
     0
  1
0
  0
DICTIONARYVAR
  5
1572
102
{ACAD_REACTORS
330
76
102
}
330
76
100
DictionaryVariables
280
     0
  1
2
  0
DICTIONARYVAR
  5
1571
102
{ACAD_REACTORS
330
76
102
}
330
76
100
DictionaryVariables
280
     0
  1
1
  0
DICTIONARYVAR
  5
1575
102
{ACAD_REACTORS
330
76
102
}
330
76
100
DictionaryVariables
280
     0
  1
2
  0
DICTIONARY
  5
1A
330
19
100
AcDbDictionary
280
     1
281
     1
  3
ACAD_XREC_ROUNDTRIP
360
157E
  3
BUMPTILE
360
1C
  3
DIFFUSETILE
360
1B
  3
OPACITYTILE
360
1F
  3
REFLECTIONTILE
360
1E
  3
REFRACTIONTILE
360
20
  3
SPECULARTILE
360
1D
  0
DICTIONARY
  5
12
330
11
100
AcDbDictionary
280
     1
281
     1
  3
ACAD_XREC_ROUNDTRIP
360
157D
  3
BUMPTILE
360
14
  3
DIFFUSETILE
360
13
  3
FBXASSET
360
F5
  3
OPACITYTILE
360
17
  3
REFLECTIONTILE
360
16
  3
REFRACTIONTILE
360
18
  3
SPECULARTILE
360
15
  0
DICTIONARY
  5
22
330
21
100
AcDbDictionary
280
     1
281
     1
  3
ACAD_XREC_ROUNDTRIP
360
157F
  3
BUMPTILE
360
24
  3
DIFFUSETILE
360
23
  3
FBXASSET
360
BA
  3
OPACITYTILE
360
27
  3
REFLECTIONTILE
360
26
  3
REFRACTIONTILE
360
28
  3
SPECULARTILE
360
25
  0
DICTIONARY
  5
1578
330
67
100
AcDbDictionary
280
     1
281
     1
  3
ACAD_XREC_ROUNDTRIP
360
1579
  0
DICTIONARY
  5
1576
330
65
100
AcDbDictionary
280
     1
281
     1
  3
ACAD_ROUNDTRIP_2008_TABLESTYLE_CELLSTYLEMAP
360
1577
  3
ACAD_XREC_ROUNDTRIP
360
15B0
  0
DICTIONARY
  5
158A
330
2F
100
AcDbDictionary
280
     1
281
     1
  3
ACAD_XREC_ROUNDTRIP
360
158B
  0
DICTIONARY
  5
1588
330
2E
100
AcDbDictionary
280
     1
281
     1
  3
ACAD_XREC_ROUNDTRIP
360
1589
  0
DICTIONARY
  5
1596
330
35
100
AcDbDictionary
280
     1
281
     1
  3
ACAD_XREC_ROUNDTRIP
360
1597
  0
DICTIONARY
  5
159E
330
39
100
AcDbDictionary
280
     1
281
     1
  3
ACAD_XREC_ROUNDTRIP
360
159F
  0
DICTIONARY
  5
1590
330
32
100
AcDbDictionary
280
     1
281
     1
  3
ACAD_XREC_ROUNDTRIP
360
1591
  0
DICTIONARY
  5
1594
330
34
100
AcDbDictionary
280
     1
281
     1
  3
ACAD_XREC_ROUNDTRIP
360
1595
  0
DICTIONARY
  5
15AE
330
41
100
AcDbDictionary
280
     1
281
     1
  3
ACAD_XREC_ROUNDTRIP
360
15AF
  0
DICTIONARY
  5
159C
330
38
100
AcDbDictionary
280
     1
281
     1
  3
ACAD_XREC_ROUNDTRIP
360
159D
  0
DICTIONARY
  5
1580
330
2A
100
AcDbDictionary
280
     1
281
     1
  3
ACAD_XREC_ROUNDTRIP
360
1581
  0
DICTIONARY
  5
1582
330
2B
100
AcDbDictionary
280
     1
281
     1
  3
ACAD_XREC_ROUNDTRIP
360
1583
  0
DICTIONARY
  5
1584
330
2C
100
AcDbDictionary
280
     1
281
     1
  3
ACAD_XREC_ROUNDTRIP
360
1585
  0
DICTIONARY
  5
1586
330
2D
100
AcDbDictionary
280
     1
281
     1
  3
ACAD_XREC_ROUNDTRIP
360
1587
  0
DICTIONARY
  5
158E
330
31
100
AcDbDictionary
280
     1
281
     1
  3
ACAD_XREC_ROUNDTRIP
360
158F
  0
DICTIONARY
  5
15AA
330
3F
100
AcDbDictionary
280
     1
281
     1
  3
ACAD_XREC_ROUNDTRIP
360
15AB
  0
DICTIONARY
  5
159A
330
37
100
AcDbDictionary
280
     1
281
     1
  3
ACAD_XREC_ROUNDTRIP
360
159B
  0
DICTIONARY
  5
15AC
330
40
100
AcDbDictionary
280
     1
281
     1
  3
ACAD_XREC_ROUNDTRIP
360
15AD
  0
DICTIONARY
  5
1592
330
33
100
AcDbDictionary
280
     1
281
     1
  3
ACAD_XREC_ROUNDTRIP
360
1593
  0
DICTIONARY
  5
15A8
330
3E
100
AcDbDictionary
280
     1
281
     1
  3
ACAD_XREC_ROUNDTRIP
360
15A9
  0
DICTIONARY
  5
15A6
330
3D
100
AcDbDictionary
280
     1
281
     1
  3
ACAD_XREC_ROUNDTRIP
360
15A7
  0
DICTIONARY
  5
15A0
330
3A
100
AcDbDictionary
280
     1
281
     1
  3
ACAD_XREC_ROUNDTRIP
360
15A1
  0
DICTIONARY
  5
15A2
330
3B
100
AcDbDictionary
280
     1
281
     1
  3
ACAD_XREC_ROUNDTRIP
360
15A3
  0
DICTIONARY
  5
1598
330
36
100
AcDbDictionary
280
     1
281
     1
  3
ACAD_XREC_ROUNDTRIP
360
1599
  0
DICTIONARY
  5
158C
330
30
100
AcDbDictionary
280
     1
281
     1
  3
ACAD_XREC_ROUNDTRIP
360
158D
  0
DICTIONARY
  5
15A4
330
3C
100
AcDbDictionary
280
     1
281
     1
  3
ACAD_XREC_ROUNDTRIP
360
15A5
  0
XRECORD
  5
157E
102
{ACAD_REACTORS
330
1A
102
}
330
1A
100
AcDbXrecord
280
     1
102
MATERIAL
148
0.0
149
0.0
149
0.0
 93
        0
 94
      127
282
     0
 72
     0
 77
     0
171
     0
175
     0
179
     0
273
     0
  0
XRECORD
  5
1C
102
{ACAD_REACTORS
330
1A
102
}
330
1A
100
AcDbXrecord
280
     1
270
     1
271
     1
  0
XRECORD
  5
1B
102
{ACAD_REACTORS
330
1A
102
}
330
1A
100
AcDbXrecord
280
     1
270
     1
271
     1
  0
XRECORD
  5
1F
102
{ACAD_REACTORS
330
1A
102
}
330
1A
100
AcDbXrecord
280
     1
270
     1
271
     1
  0
XRECORD
  5
1E
102
{ACAD_REACTORS
330
1A
102
}
330
1A
100
AcDbXrecord
280
     1
270
     1
271
     1
  0
XRECORD
  5
20
102
{ACAD_REACTORS
330
1A
102
}
330
1A
100
AcDbXrecord
280
     1
270
     1
271
     1
  0
XRECORD
  5
1D
102
{ACAD_REACTORS
330
1A
102
}
330
1A
100
AcDbXrecord
280
     1
270
     1
271
     1
  0
XRECORD
  5
157D
102
{ACAD_REACTORS
330
12
102
}
330
12
100
AcDbXrecord
280
     1
102
MATERIAL
148
0.0
149
0.0
149
0.0
 93
        0
 94
      127
282
     0
 72
     0
 77
     0
171
     0
175
     0
179
     0
273
     0
  0
XRECORD
  5
14
102
{ACAD_REACTORS
330
12
102
}
330
12
100
AcDbXrecord
280
     1
270
     1
271
     1
  0
XRECORD
  5
13
102
{ACAD_REACTORS
330
12
102
}
330
12
100
AcDbXrecord
280
     1
270
     1
271
     1
  0
XRECORD
  5
F5
102
{ACAD_REACTORS
330
12
102
}
330
12
100
AcDbXrecord
280
     1
 70
     1
 90
1959938040
 71
     1
  1
86A196C7-181D-4E68-889E-CA59668FDDB5
311
504B03040A000008000069A0AF423DEE336E79000000790000001B0000006175746F6465736B2D64657369676E2D7061636B6167652E786D6C3C3F786D6C2076657273696F6E3D22312E302220656E636F64696E673D227574662D3822203F3E3C666F726D6174733E3C666F726D61743E687474703A2F2F736368656D612E
311
6175746F6465736B2E636F6D2F64657369676E2D7061636B6167652F323030393C2F666F726D61743E3C2F666F726D6174733E504B030414000608080069A0AF42D486FD9CA0000000F4000000130000005B436F6E74656E745F54797065735D2E786D6C7D8EC10E82300C865F65E91D8A1E8C310C0EEA1BF002731658846E
311
D98AC1B77784ABF1D8FE5FBFBF75BBCE937A534CCEB38643598122B6FEE978D0B0485F9C41B54DDD7D022595594E1A469170414C76A4D9A4D207E29CF43ECE46F218070CC6BECC4078ACAA135ACF422C856C0E68EA1BF5669944DDD7BCDE7B1F8E415D77AECB980613C2E4AC91FC167A2B244592486606FC29C8FD7F045B9A
311
EF7053A7E60B504B030414000608080069A0AF42D5E29CF4EC0000007C01000008000000636F72652E786D6C8D90416E83301045AF62CDB632D8801141C65168C2097A01CB38D44AB011B6AB1EBF262152BBEB6A467FFE9B197D7EFC9EEFE84BAFDE38DB01CD08206D951B8D9D3A88E18A1B4047C157E7C22F1B202B67DDC1
311
2683E0D3EAE2B24BCAD9A06D48AA75A3DE45E9BD0E80D43D351D78F5A96799C91892C3DFB245AA9B9C74465F5D826334237A1E3163DA67AE46AF2058D537E7811D703D34275C9D6B824F17C670F15E37437F18AA9E5E78BEC1820733BFEEAB55CBA0471005A125260C53F6519096942D6DDE086B4BC2F3CDFE078ACBF84F28
311
1A1BCA627FF7897910343DF218089E6F59A4F2082AD52D37F103504B030414000608080069A0AF4255019EA25F0000007C00000007000000636E782E786D6C4DCB3B0E80201045D1AD90E915ED2CF8AC45050C11660C8261F98AB1B07AC9C97D42D718D865D3E909258CFD00CCE24AC6E326A164D74DC0B4128928FF326038
311
472BA13128B1252AC747C6BAB984FC68F0B87FE8960A5C09FE86CFB69FBA01504B030414000608080069A0AF42DE9CA84168010000020300000C0000006662782F636F72652E786D6C8D52ED8A8330107C9590BF87267E15AFC494F65A9FE05E20D5D4936A2231913EFEAD1FC5EB514A116298D9D99D1D65BB5BDBA0419ABE
311
D62AC3814F3192AAD065ADAA0C3B7BF1528C769C19ADED9F328C946865864718735619EDBA052AB4B2525940952EE5028ABE9716A3A2814B86FBE247B6C217CE42457FF53B515C4525FDC0071AEA38EBAD0103681E329E985FCE3746669C33E7EA7261EB12A6D5975A1ACC93F8901EF3E4D3DBE4E9DE8B8F1BEAED4F49E285
311
5F9B343F7CE6F1213831328A39B3757B77571829AC2C310F69107934F182E43BA45B1A6D83F48326DB883232963F885C57BE2972B5B251B8D89D653DE6011899887FDB424416F562003F8433328608AF29E1C7A0211008D98A7373DFE30AD0200BAB4D0C4CA9DD4A0DA27112A652343D8CCC2C749E1AC0664FFB842FFABCEE
311
011F50A80AAC090BD7B3B3E374364F5DA2E8A4F1067B434A9B5634ABB9D9E27AAE839ECA0BDD68F38E9A2CAB92254C32FEBDFC17504B030414000608080069A0AF4289E5B4297E0000009D0000000B0000006662782F636E782E786D6C4DCCDF0A83201C86E15B91DFB94BCBFE086A90ACFB886521330DA76397BF1A1DECE8
311
83878F57F49FCDA1B7892F1BBC047A23808C7F84D9FA55424E0BEE00F54AC410D2DF0D909F3623E16450628D21EF17CD6699B24B873AEB9F17B271686A52325C12DE61466A8E39A70CB7D59D36ED58E9416B2894287EA563CFB0FA02504B030414000608080069A0AF4216B1C58D2C01000015020000310000006662782F34
311
464236353032342D323039382D343035392D393931342D3733453136374633434243432F636F72652E786D6C8D515B6EC32010BC0AE22B55850DC676EC0813295173825E801892A2C460F1A872FC42ED48ED5F7E58343B333BDA65FBC77407DFCA796DCD004981215066B4529BEB0063B8A00E823D67CEDAF087068111931A
311
608621675767E3BC42A3354199905063A55A41E1BD0A108CF7F419A01FBFD4240A114362F85B318BF126AEAA20456A271E673EB814002C43F20B797D3AB40DAE6A54E1BE43356E7AD4F7A4465BFA41DAED891E0FC7232B172167316AB9CAB54C71F4452BF7AA49167316F4F48C3F3A25829290579850841B449ACF0AEF30DD
311
91EE1D373B8A5999E9FF4471962F8AA23681566BDC45E62127AC5C1A9C491BCFF76718F598AD0B20CFDB7835BE418E0B8CB75DD7552D65E5C24D1B48A66DBD9AFA605DDAF0E6764E74D22CCE6DCD59998F94CAEF0553CD07E53F504B030414000608080069A0AF428384AF2F4E01000033030000300000006662782F344642
311
36353032342D323039382D343035392D393931342D3733453136374633434243432F636E782E786D6CD593CD6E022114855F85B06DE6CF51630C8349177D822EBA65E0AA540626FC34F5ED7B51B46E5C74D90D999C7B38E7E60BC376DF93215FE0837676A05DDD5202563AA5ED61A029EEAB0D253BCEBC73F1C1468915130C
311
34CB94B38377692E9282BD4826A26AB43D15D14370C94B0828E79BC438290C0680AD128A308DA014287237E2D71E3CAE82E27826F108E4EDF583B8F113640CACC9299C35B983B37C96A6071325D28810061AE41126518B149D8270AA9588A2EEEA5BD7939D7E9348BE70AB4C5E935C3ED07C525E36AA91236B70C859881EE9
311
15533CCF40B99867A3A58808B9B918AF1ECE92B671BD2C5E8DE03DBABB75BF5C62D865C659D4131487F4202228CA176DD757EDAAEA56EF8B76DBF6DB6EF3D2AEB67DCB9A6CE76C74CE944B1803DECD443A1BC146CA3BD6E4F1337CC54794F6C8DAF9F31F402280D27AA573CFF8CF7C9ACBFB465C1EFF02FE03504B03041400
311
0608080069A0AF42471AFDA7A605000081100000340000006662782F34464236353032342D323039382D343035392D393931342D3733453136374633434243432F6F626A656374732E786D6CAD57D96EDB3814FD1541F332F3E045B6E3DA034585632785D1A62D6AA49807030625510A27D402924A9DF9FA3994285972ECD4
311
33E88B162E97F79E7BEE42F7FD3EE1D633159265E9B5EDF487B645D3200B591A5FDB858A7A33DB7AEFB922CB546B996DA524A1D7B61EB63D371659919BA19046A4E0EA68F4EEE62F4B0634A5B6157022E5B52D83479A903E29541652F9D40F8922FD38DAF79D7EB5B02B3616247F3C129A134153054D319E428A5529E5747F
311
87F6C073077ADE73F5D3AC1A9F5F3528EDE99ECF52A9481ABC3AEC48CCD899AC6E4757F3DED56432EE4DA623A7777377B3EA39EFC6C3E574B99C2F6EE738582A014946134123DBFB006C040BDC4135E5B9054BD578649618070D047D66DA53B637B21C7750AD69AC33469E523FC8D29406255640A3B4CF880E694ED3103E67
311
5442B31642C3EEAFA3716C4D8FF5BF39B23D7C1902ED1D2D41B5EEF5BBAD69E6FF0D13E4250C12926A0656581A432BAE0E0F08FB59C6CD1C93564214158C708B335F10F1627B58AA97786E478C66B2D0D1A02DB03D78A19AEED20561F4739E9FD2322A38D734B6BD320A768815AA64A919FB878A83F66D64A0137CA5D93033
311
06A9979CDADEBCA2C8EC884D159056C4490C97C34CBD733C3A3274A9E374BDB2BD8F77FE7EA363F7F4E1B9C8722A94A60FA8553BAE7E6B948C4ECE459ED31BEC23550EA07C03F29F11EA0755E037C1F693FDC49CA2044965948904BEB186566F88C7D072CAA7FE6E7DB9836673D77BE7F084B33554BF00CFAE0D6D5FB6E0F4
311
DC67103E136363DA26201C69E39EA5004893C4E219869087237F6F7B6B64396465EC22DC736032D47DC6A73B30629028CA935AEF14581EA5C50B1234602B1909352AF21B050F7E7A95CECA83CDB273F05EFD12BA2E569B8F9B424424A0F726A65734622953287107DEB415EA60DEB1E889BEFCC84408435FE3BD69E39D98A3
311
24D0D6986BE0E33AA7EB9FC3C99D0302EC8B339D6EDC9F9C002374616DC9BF6732A09C939466457DEE9BF50365A3825807BB667253600E8505A4A9668E6210453A102CD72036D5AA499AFD33D63DAC3F8391B677F3F289BCB4B3977FC8BD41C633B1F35F76555A3A09F5F72EB70D06032D05742F83A48E7F03FA2E64515448
311
24C113B87E5F2FDBBED3690129A2965A45CB04F623B88830A4ADE5A25A0B824A9AA53B86BA89B83B79405B3E20350C28059ED358521EED18E745B28B184735DA25243F03C7FFD7DF2F927C4792AC48D519D91DD5511DBABA77D82B7F10153CDADEA67CF76E907B431A9E2183AE2527B0EAB876365D38F3E9F25DCF9939ABDE
311
E4763AEBCD66F3DBDE7271359F4E6777ABD50DB284D1A86CA23CB72E35ED88869750DADC4230E3BE8735E2C72401DBBB274A6E3F54E159BF1FD67DF4C2EE007B502F9B8D8BF0197D1F0D7F2EE0B0F2A4A07592739AD054111D43F7FA837F23E8333ACA54E3EB84C4F402295F3E6C8E8CC1C805FBBEEA78A73F8EF69AD1A50E
311
C89342D46391F82961FC68635C21D9CFD3D8E057FBA4795785A6FED57FC631E84C65C659883C185A31CD12AA900D2F284222A112D46BF7F4A1B97B5CB0FBB9EA1015F139AD3579246892B9445880E445A0BAE3D66F68EA745F756DA3DCF69FF03099C2B6C0996B1B4DBA6201957D1F055AB742A57070A9DDC983B3248D397A
311
ED6A53F3DFECD2D8744A72B3E492FEC9D855A5706300D2488EBE010D11BC532AE3B9A56E663EF84F86D7EA5844E1D32F5463CB61A031A63C06215A19656E0B68629ECCD17B04EADB6639FD724D07918B6E596F92A092DA5344C4E54D41EB67545AACBE0ED0A158EB2F56CE8B18BEBC5C524F5090B9D0010E16811546664E14
311
A8BAFC73FB5564B8C926D61D0305ACDFF7B3E91FDB659624595A0D6D17E63E6C6D1E71BB0DB7480E545F4BE476347446DBF23A606E283B9F48DA27A17CC2003C2B580374C7FDE0657567441DAA269A7503ED8A2386AE5796296C1308357469E7560D0E1A8F945A88217DA5D411D35E90BF792318944BA182402FEFFD0B504B
311
030414000608000069A0AF42000000000000000000000000350000006662782F34464236353032342D323039382D343035392D393931342D3733453136374633434243432F76657274696365732E62696E504B030414000608080069A0AF42F270F1330600000004000000360000006662782F34464236353032342D323039
311
382D343035392D393931342D3733453136374633434243432F747269616E676C65732E62696E636660600000504B030414000608000069A0AF42000000000000000000000000370000006662782F34464236353032342D323039382D343035392D393931342D3733453136374633434243432F617474726962757465732E62
311
696E504B030414000608080069A0AF42D5987DFC8F00000041010000360000006662782F34464236353032342D323039382D343035392D393931342D3733453136374633434243432F6469726563746F72792E786D6C858F410EC2201045AF4266AF15DDB800BA74E7C21B903225242D6328188F2FA5C4183471359997F9FF
311
81E89FF3C41E1816475E02DF1F80A11FC8386F25A438EECEC07A250251FC3803E6F58C12560C4AD840E95E91C151A72936F496F35732D860FE635F62C8F2DA16B505C545B74125BAA2FA9E05D7CC053D063734D5C7665FD55B6B8D15D5E9BFEAFD8490FFA45E504B030414000608080069A0AF42C649B26CFE000000A00100
311
003B0000006662782F34464236353032342D323039382D343035392D393931342D3733453136374633434243432F7265736F75726365732F636F72652E786D6C8D504B6E833010BD0A9A6D65B00147141947A10927E8052C3349AD043BF2A7EAF16B122AB5BB6E6646EFA3797A62FFB5DC8A4FF4C1383B002B291468B59B8D
311
BD0C90E2997450ECA5F0CEC55F3228AC5A70801506292EDEA5FB06696723DA9851EB66DC4015024628F42D1F0304FD818B2A558A5911AEE55DE9ABBA60C9CA4C679D1421FA1CA0783E5927488FC125AF3188EAC94A919299378D99F34F7336E841F276EC8E13EFC86EEA0EA43DEE28399C3827F5DBAE9BC6D7A91DD94954AB
311
598A68969F8CDAA38A3883AC296B08E584F1F79AF6B4E959F74279DF5051ADF23FA6749FFF694AC6C6A6DEE23E6D0124CB411E8414D5DA575E8F32F35EBB95DF504B010214000A000008000069A0AF423DEE336E79000000790000001B00000000000000000000000000000000006175746F6465736B2D64657369676E2D70
311
61636B6167652E786D6C504B0102140014000608080069A0AF42D486FD9CA0000000F40000001300000000000000000000000000B20000005B436F6E74656E745F54797065735D2E786D6C504B0102140014000608080069A0AF42D5E29CF4EC0000007C010000080000000000000000000000000083010000636F72652E78
311
6D6C504B0102140014000608080069A0AF4255019EA25F0000007C000000070000000000000000000000000095020000636E782E786D6C504B0102140014000608080069A0AF42DE9CA84168010000020300000C00000000000000000000000000190300006662782F636F72652E786D6C504B0102140014000608080069A0
311
AF4289E5B4297E0000009D0000000B00000000000000000000000000AB0400006662782F636E782E786D6C504B0102140014000608080069A0AF4216B1C58D2C010000150200003100000000000000000000000000520500006662782F34464236353032342D323039382D343035392D393931342D37334531363746334342
311
43432F636F72652E786D6C504B0102140014000608080069A0AF428384AF2F4E010000330300003000000000000000000000000000CD0600006662782F34464236353032342D323039382D343035392D393931342D3733453136374633434243432F636E782E786D6C504B0102140014000608080069A0AF42471AFDA7A605
311
0000811000003400000000000000000000000000690800006662782F34464236353032342D323039382D343035392D393931342D3733453136374633434243432F6F626A656374732E786D6C504B0102140014000608000069A0AF420000000000000000000000003500000000000000000000000000610E00006662782F34
311
464236353032342D323039382D343035392D393931342D3733453136374633434243432F76657274696365732E62696E504B0102140014000608080069A0AF42F270F13306000000040000003600000000000000000000000000B40E00006662782F34464236353032342D323039382D343035392D393931342D3733453136
311
374633434243432F747269616E676C65732E62696E504B0102140014000608000069A0AF4200000000000000000000000037000000000000000000000000000E0F00006662782F34464236353032342D323039382D343035392D393931342D3733453136374633434243432F617474726962757465732E62696E504B010214
311
0014000608080069A0AF42D5987DFC8F000000410100003600000000000000000000000000630F00006662782F34464236353032342D323039382D343035392D393931342D3733453136374633434243432F6469726563746F72792E786D6C504B0102140014000608080069A0AF42C649B26CFE000000A00100003B000000
311
00000000000000000000461000006662782F34464236353032342D323039382D343035392D393931342D3733453136374633434243432F7265736F75726365732F636F72652E786D6C504B0506000000000E000E00800400009D1100000000
310
504B03040A000008000069A0AF423DEE336E79000000790000001B0000006175746F6465736B2D64657369676E2D7061636B6167652E786D6C3C3F786D6C2076657273696F6E3D22312E302220656E636F64696E673D227574662D3822203F3E3C666F726D6174733E3C666F726D61743E687474703A2F2F736368656D612E
310
6175746F6465736B2E636F6D2F64657369676E2D7061636B6167652F323030393C2F666F726D61743E3C2F666F726D6174733E504B030414000608080069A0AF42D486FD9CA0000000F4000000130000005B436F6E74656E745F54797065735D2E786D6C7D8EC10E82300C865F65E91D8A1E8C310C0EEA1BF002731658846E
310
D98AC1B77784ABF1D8FE5FBFBF75BBCE937A534CCEB38643598122B6FEE978D0B0485F9C41B54DDD7D022595594E1A469170414C76A4D9A4D207E29CF43ECE46F218070CC6BECC4078ACAA135ACF422C856C0E68EA1BF5669944DDD7BCDE7B1F8E415D77AECB980613C2E4AC91FC167A2B244592486606FC29C8FD7F045B9A
310
EF7053A7E60B504B030414000608080069A0AF42BBB7680BEA0000007C01000008000000636F72652E786D6C8D904D6EC3201085AF82D856D8FC84CAB53091932627E8051010172506CB40D5E31712476A775DCDE8CDFB66464FECBFE71BF8B26B74C10F90341802EB7530CE4F03CCE9823A08F652AC21A45F3608BC9AED00
310
AB0CA598D690974DD2C127EB53517D307613558C3641A06FA51960D49F76568DCAA938E2B55994BEAAC936E4D915386767C0E38833659FBB38BB42D9BD6336627A42E76EC7D18ED011BD1D4E4774A6FC7860AF23EF08116D85A5486E7EDED7AB55C91A2829260C618E08FFA0B8C7AC27DD0BE63DC3A2ADF63F505ECC3FA1EC
310
7C62747BF7814528EB23F781146DCDA2947B50A5D6DCE40F504B030414000608080069A0AF4255019EA25F0000007C00000007000000636E782E786D6C4DCB3B0E80201045D1AD90E915ED2CF8AC45050C11660C8261F98AB1B07AC9C97D42D718D865D3E909258CFD00CCE24AC6E326A164D74DC0B4128928FF326038472B
310
A13128B1252AC747C6BAB984FC68F0B87FE8960A5C09FE86CFB69FBA01504B030414000608080069A0AF42A2FB9EA767010000020300000C0000006662782F636F72652E786D6C8D52ED8E8230107C95A67F2FD00272E14CA9514F9FE05EA042E588D0927E101FFFB680F1BC18732129CDCCCEEEEC00DB5CFB0E8DD2D856AB
310
122731C548AA4AD7AD6A4AECDD392A30DA7066B476BFCA3052A297250E30E6AC31DA0F0B5469E5A472802A5DCB0514D64A8751D5C1A5C4B6FA96BD88857750612FF120AA8B68649CC440431D67D6193080E621E1C4FC7CBA3232E39C79DFD60BDBD630AD3DB7D2605E7CD26C4BD343742C5679B44AD26DF4B13BECA3639AEF
310
77D9FB362F92849120E6CCB5FDCD5D65A470B2C63CA54916D13C4AF2AF94AE69B64E8A379AAF33CA48287F10F9A1FEA7C8B7CA65E962779659CC839189F8B32D44E4901523F8219C911022BCA6841F8386402064274EDD6D8F0B40A3AC9C362B606AEDEFD4283A2F612A45D3C3C8CC42E7A9016CF6B44FFAA2CFEB1EF00185
310
6AC09A70703D7917A6B379EA12C5204D34BA2B52DAF4A2BB9B9B2DDECFFBA0A7F24A77DAFC474D9655C91226097F2FFF01504B030414000608080069A0AF42F78466E97E0000009D0000000B0000006662782F636E782E786D6C4DCCD10E82201886E15B61FF392985C101E0EA0FEFC3253A174223685D7EDA3CE8E8DB9E7D
310
7B55FB593C79BBF49A63D0C00E351017EE7198C3A4A1E4914A20AD5129C6FC770312FAC569D8188C9A522CCF9D0637F6C5E755FD1C1E3B62CD8E378B48B9E51DE5E262E99509A4D276D8A06CCE4C9CA032AAFA95D6DDC2E60B504B030414000608080069A0AF42518EF8592B01000015020000310000006662782F43303132
310
444543432D344534462D343741452D423137432D3845464335433835363137332F636F72652E786D6C8D515B6EC32010BC0AE22B55850D7E2BC244ADEB9CA01720405294182C1E558E5F5C3B52FB971F16CDCECC8E76E9E13EDDC0B7725E5BD3439261089411566A73E9610C67D4417060D4591BFED020307C523D5C60C8E8
310
C5D9386F90B0262813126AAC541BC8BD570102714B9F1E7AF1A5269EF11812C35FB3998B2BBFA88C64A99D788CFAE05200B00E595EC8064C8A8F71185035564754B56F237A27ED80BAF138D4435737A42D69BE0A198D51CB4DAE658AA3CF5AB9674D1631A3414F8FF8C2291E9484ACC0A444B846A4FE2CF01E977BD2BDE27A
310
5F629A2FF47FA238CB2745519B50165BDC55E62123345F1B8C4A1B4FB74718759FAD0B6099B7F34ABC4086338CBBA2A9AB2E6D60E5A60D24D3A6DA4C7DB02E6D78773D257AB9393715A3F972A4547E2F98EA7250F603504B030414000608080069A0AF42E52360385601000033030000300000006662782F43303132444543
310
432D344534462D343741452D423137432D3845464335433835363137332F636E782E786D6CBD93CD6E022114855F85B06DE6CF5133310C265DF409BAE816E16AA90C4CF869EADBF7A268DDB868D2744326E71ECEB9F9C2B0EDD764C827F8A09D1D6957B79480954E697B18698AFB6AA064CB99772EDED928B1628291669972
310
76F02ECD4552B017C944548DB6C7227A082E790901E57C93182785C100B0554211A61D28058ADC8CF8B5078FABA0B83B91F80EE4E5F98DB8DD07C818589353386B720767F92C4D77264AA411218C34C87798442D52740AC2B156228ABAABAF5D0F76FA4922F9C2B532794D72F948F34979D9A8468EACC12167217AA4574CF1
310
3403E5629E8D962222E4E66CBC78384BDAC6F5B2783582F7E8EE17EB61C0B0F38CB3A827280EE9414450942FDAAEAFDA55D5AD5E17EDA6ED37DDF0D4AE367DCB9A6CE76CE79C29973006BC9B897436828D9477ACC9E347F88A8F28ED91B5F3A75F804400A5F542E796F1977CBA75BF5CFE239FE6FCBE1197C7BF807F03504B
310
030414000608080069A0AF42CED3791B630700009A1B0000340000006662782F43303132444543432D344534462D343741452D423137432D3845464335433835363137332F6F626A656374732E786D6CED59DD73A33610FF5718FAD23E189BD8719D0EA193D8971BCF35ED4DDDEBF4C1338C0C3251230423895CDCBFBEAB0F
310
301093E0367DEB830D0869B5FBDB4F2DC18FCF19759E30172467D7AEEF4D5C07B3384F084BAFDD52EE470BD7F9310C789ECBC634D76128C3D7AE1A76C320E57959D8A104EF51496567F4EEF60F47C49861D7892912E2DA15F103CE90874A9927583C7A0992C84BF7CF9EEF99896DB22947C54387688138661238857106541C
310
C394DF7E9CB8E33018ABF761A0FEEDACE9A059B3FE59632D759B4BC284442C7EC15287CC74104B537FB6FA70717935BA9CCDA6A3D9FCC21FDDDEDDAE46FEF7D3C972BE5C5EDD7CB802F676794EAD4C092E304B407F0737F483B17A538B6E1138C5759C3386630D2440A5C5EA122458C0560DF826ED475F49D478AD256C3CCF
310
D47BCB426378DAA6D2376B18102DBA2088DDAE92B8BA36E5CB777F82E0628851728125702B2407ED5A783878851B4E82B1190D83DD5117443819929813441D4A761C71500A4C5553C2C02CB06494737020E52809B4E6CCEBB66D8167BEED3AA7B8DC97942ACF7043ED5811B81F96427346FEC2FCC87D1319E009A42D09930B
310
CBA53C14D80DAF82B11E0C0375995ED8970648674F512A3422E66D47D0A572FDF5CA0D3FDDED9E372A1C9CDEBCE07981B95446A7F4A8F90243B6578592DDD61FA439B5008431A0DA9547507E05E47F86E8716405F4C6C9F3EC7966E74A8E98D8E73C03DD3813673481BF89E3EB7F75DFB80BC6F5E2B6F6FAF0043755502DFE
310
3D9E6D19345696FF069C61F004069FF3A97DB58911057BBE270C005246E2D01C8620B4EF77CF6EB886C009811E56211AFA2032B0FB04B7C1D892396AA5722FEB750C10B57B4C87280960D316096CF4E8E923640F4EE2A39A9A22F6C17BF92EE67AB3DA7CDA947C8F627C6F7D7A85F784110959F334432DCC5B123DE2C3D79C
310
2720E84BBC374DBC33BB9500B415E60AF8B402413D1C776E6D10C3BA3457E1267863071042E5EA06FD7B22624C2962382FAB7DEBE8A60CB5F6785B33B8E18581787AD131618E9F88AA2AC0698E335A8C42DE8F392914886EF8D14856074DAF47BA2FEB9FC122EBF93DB3D60C422F43F4371DB44EE0D0B2EC0A690B442DF0EE
310
18CEE39CE63CDA1D2213E95CA825808DB6B7FCDE220AB1DE284951010FD27E578594D4481B2564BF2F05C4D5132CFEBE5E36CD61E24DFD4BA7F9DF71C619445BF05DC4ADDF75F6884886521CED51D2B75D73B79AB6D0247B4873BCA720177922F21021194D129C9E03CD59C4AFDE957A4A732108C302F2D549F09B684C3C08
310
24469B15CB4AAB1DA08988322C113D070145A6075C9D76748D1B43E9F0368FB5F5BEA6B126D1FFC82238825A32671181521472C89B8CFBDE25C49036BA06E50EBE606D156D2D062DA184880FD1574CD207790EEA867C0FEE311C494A19E5058AC1AC07907DE12B4AA91DDE77287E54F9238A4BFA5E062230DD4784D2328BE0
310
47189C3C86B8761D985E45A141DCC43E893328CA902CF9904DE6979317FB989AA11B021B1BED0985B01D65A8E841BD1510753DE2D4E05BEA3D4ADD955911A12C2FD92043F1A65D6FB2E4BB6A556407F2AB4A45281B2BC29660181026EBAC5AC56C30751D58C18D74A03A4402650535A7B037128F5F7B93A6DCBB01B77EFABE
310
1B6450F8F568AF195167150C96C7566120BE22193FB8E1465F47B7507F273839A6FAAAD66C568080988AE4252756455FD650DED81ACD0DEF9114DB8F26EB56D72F6B0FBA1FC118D640ED522F5C2BA033CC245295C9BDBAA1BF2208C12D1A667CAD72EA39546E9244578D88DE913E75B6CA88D6A619F18A07CCF20C7E6C4B58
310
4CCB046F51221EA37B49A30D51AC5B29BD8C5418BF2AE02F1F371D78606480489F558187BF76D6DAD1A52A974E12910F65B6638840106C89961ADD78054BAD462A2DD75775A680BA0B0CCCAA78F6FFC9A2D98EF8FF64915AC3F857278BDBC34FE8D0EC8B34D279ACECFAAC63409D9F1495F73806E8B6434DB5CE2226995BF9
310
AD33451014AB283FB81AAB828621D8C7F13FCEDA7D59D06CD7E1FFBCACEDBFA838CECA2AADC9AA4B75A2725D3773D8627EE35FCD97DF8FFC85BF1ACD3ECC17A3C5E2EAC368797379359F2FEE56ABDBE3B1413B6A18D4C14CE72E783641AD1A564F1603E8CA8A9C92044EF389936288F912CEF403DAE73CC3029267B3D99DD8
310
A6FC80D54FA6CF29D18EE28A9307040D622A20AD0346652CDBE3CE37D09A9470D0BE76A169E43DC29FB54AD781CC73ED42AB4092180B6F076D26D5D0D3C421E5EADC6F89013E88A52A259A45F573BD4A61D30AFFF5942169C0CAD5EA6140E15640F7ABD5A1D0BC599EE2B304AFD8719084DB5D29A15A33B21C076A61F43647
310
F51BD928618F76EB6770DDD7C5F23D3DA785C8A04F06AF1A81A13A9288A7BADFAD18B32CDDAC3E8FA1CFE6AC7F710A5AA6A0CBE194461C833197AAA0022B02ABB0340B24C154973F6C3FF31C3EF1648EAE8A9C6F9F17F3EFB6CB3CCB726686B637702A4BE04391B37980CF3EC9168A07AC9AEB627B31F12FB6BAA96DFBECD1
310
0E09ECA9AA0806AA624209D23139B0CB170D2ADBBE1C2B5574A6AF578E0DA2E0D5C68E5EF478CD472E077C487D4E511EA3FDBC92F6D5BEF6584F059BE0D0910EFF06504B030414000608000069A0AF42000000000000000000000000350000006662782F43303132444543432D344534462D343741452D423137432D384546
310
4335433835363137332F76657274696365732E62696E504B030414000608080069A0AF42F270F1330600000004000000360000006662782F43303132444543432D344534462D343741452D423137432D3845464335433835363137332F747269616E676C65732E62696E636660600000504B030414000608000069A0AF4200
310
0000000000000000000000370000006662782F43303132444543432D344534462D343741452D423137432D3845464335433835363137332F617474726962757465732E62696E504B030414000608080069A0AF42D5987DFC8F00000041010000360000006662782F43303132444543432D344534462D343741452D42313743
310
2D3845464335433835363137332F6469726563746F72792E786D6C858F410EC2201045AF4266AF15DDB800BA74E7C21B903225242D6328188F2FA5C4183471359997F9FF81E89FF3C41E1816475E02DF1F80A11FC8386F25A438EECEC07A250251FC3803E6F58C12560C4AD840E95E91C151A72936F496F35732D860FE635F
310
62C8F2DA16B505C545B74125BAA2FA9E05D7CC053D063734D5C7665FD55B6B8D15D5E9BFEAFD8490FFA45E504B030414000608080069A0AF42A81C4693FD000000A00100003B0000006662782F43303132444543432D344534462D343741452D423137432D3845464335433835363137332F7265736F75726365732F636F72
310
652E786D6C8D504B6E833010BD0A9A6D65B0215414194724694ED00B586642AC041BF953F5F8B5132AB5BB6E6646EFA3797A7CFFB5DC8B4F745E5B33002B291468949DB4990788E1423A28F6823B6BC32F1914462E38408641F0D9D9B86E90B226A009093576C20D94DE638042DDD3318057575C642963480A7F2B57A96E72
310
C69295894E3AC17D702940F17C92270887DE46A7D0F3EAC90A1EA39E368D9ED24F7DD1E8407427DA8CB43E9173B76BC98ED523793BBC1FC9B96E8F87E6756C3BC67895CD8207BDFC64540E65C009444D5943684B58FB51D39E363DEB5E68DB37945759FEC714D7E99FA6A84D68EA2DEED3E641E4200F42F02AF795D6A3CCB4
310
73B7E21B504B010214000A000008000069A0AF423DEE336E79000000790000001B00000000000000000000000000000000006175746F6465736B2D64657369676E2D7061636B6167652E786D6C504B0102140014000608080069A0AF42D486FD9CA0000000F40000001300000000000000000000000000B20000005B436F6E
310
74656E745F54797065735D2E786D6C504B0102140014000608080069A0AF42BBB7680BEA0000007C010000080000000000000000000000000083010000636F72652E786D6C504B0102140014000608080069A0AF4255019EA25F0000007C000000070000000000000000000000000093020000636E782E786D6C504B010214
310
0014000608080069A0AF42A2FB9EA767010000020300000C00000000000000000000000000170300006662782F636F72652E786D6C504B0102140014000608080069A0AF42F78466E97E0000009D0000000B00000000000000000000000000A80400006662782F636E782E786D6C504B0102140014000608080069A0AF4251
310
8EF8592B0100001502000031000000000000000000000000004F0500006662782F43303132444543432D344534462D343741452D423137432D3845464335433835363137332F636F72652E786D6C504B0102140014000608080069A0AF42E523603856010000330300003000000000000000000000000000C9060000666278
310
2F43303132444543432D344534462D343741452D423137432D3845464335433835363137332F636E782E786D6C504B0102140014000608080069A0AF42CED3791B630700009A1B000034000000000000000000000000006D0800006662782F43303132444543432D344534462D343741452D423137432D3845464335433835
310
363137332F6F626A656374732E786D6C504B0102140014000608000069A0AF420000000000000000000000003500000000000000000000000000221000006662782F43303132444543432D344534462D343741452D423137432D3845464335433835363137332F76657274696365732E62696E504B01021400140006080800
310
69A0AF42F270F13306000000040000003600000000000000000000000000751000006662782F43303132444543432D344534462D343741452D423137432D3845464335433835363137332F747269616E676C65732E62696E504B0102140014000608000069A0AF420000000000000000000000003700000000000000000000
310
000000CF1000006662782F43303132444543432D344534462D343741452D423137432D3845464335433835363137332F617474726962757465732E62696E504B0102140014000608080069A0AF42D5987DFC8F000000410100003600000000000000000000000000241100006662782F43303132444543432D344534462D34
310
3741452D423137432D3845464335433835363137332F6469726563746F72792E786D6C504B0102140014000608080069A0AF42A81C4693FD000000A00100003B00000000000000000000000000071200006662782F43303132444543432D344534462D343741452D423137432D3845464335433835363137332F7265736F75
310
726365732F636F72652E786D6C504B0506000000000E000E00800400005D1300000000
  0
XRECORD
  5
17
102
{ACAD_REACTORS
330
12
102
}
330
12
100
AcDbXrecord
280
     1
270
     1
271
     1
  0
XRECORD
  5
16
102
{ACAD_REACTORS
330
12
102
}
330
12
100
AcDbXrecord
280
     1
270
     1
271
     1
  0
XRECORD
  5
18
102
{ACAD_REACTORS
330
12
102
}
330
12
100
AcDbXrecord
280
     1
270
     1
271
     1
  0
XRECORD
  5
15
102
{ACAD_REACTORS
330
12
102
}
330
12
100
AcDbXrecord
280
     1
270
     1
271
     1
  0
XRECORD
  5
157F
102
{ACAD_REACTORS
330
22
102
}
330
22
100
AcDbXrecord
280
     1
102
MATERIAL
148
0.0
149
0.0
149
0.0
 93
        0
 94
      127
282
     0
 72
     0
 77
     0
171
     0
175
     0
179
     0
273
     0
  0
XRECORD
  5
24
102
{ACAD_REACTORS
330
22
102
}
330
22
100
AcDbXrecord
280
     1
270
     1
271
     1
  0
XRECORD
  5
23
102
{ACAD_REACTORS
330
22
102
}
330
22
100
AcDbXrecord
280
     1
270
     1
271
     1
  0
XRECORD
  5
BA
102
{ACAD_REACTORS
330
22
102
}
330
22
100
AcDbXrecord
280
     1
 70
     1
 90
1959938040
 71
     1
  1
B13E7A2F-6C77-4815-8AF5-976B9C9BFDF4
311
504B03040A000008000068A0AF423DEE336E79000000790000001B0000006175746F6465736B2D64657369676E2D7061636B6167652E786D6C3C3F786D6C2076657273696F6E3D22312E302220656E636F64696E673D227574662D3822203F3E3C666F726D6174733E3C666F726D61743E687474703A2F2F736368656D612E
311
6175746F6465736B2E636F6D2F64657369676E2D7061636B6167652F323030393C2F666F726D61743E3C2F666F726D6174733E504B030414000608080068A0AF42D486FD9CA0000000F4000000130000005B436F6E74656E745F54797065735D2E786D6C7D8EC10E82300C865F65E91D8A1E8C310C0EEA1BF002731658846E
311
D98AC1B77784ABF1D8FE5FBFBF75BBCE937A534CCEB38643598122B6FEE978D0B0485F9C41B54DDD7D022595594E1A469170414C76A4D9A4D207E29CF43ECE46F218070CC6BECC4078ACAA135ACF422C856C0E68EA1BF5669944DDD7BCDE7B1F8E415D77AECB980613C2E4AC91FC167A2B244592486606FC29C8FD7F045B9A
311
EF7053A7E60B504B030414000608080068A0AF427B20BFFAEC0000007C01000008000000636F72652E786D6C8D90416EC3201045AF82665B6183094E6461223B4D4FD00B204C1C94182C03558F5F9C3852BBEB6A467FFE9B197D71FC9EEEE8CB2CC17AD7022D0820E3B41FAC1B5B48F1820F808E522CDEC75F36404E4DA685
311
550629C6C5A77993B477D1B89855E707B3892A041301E97B6E5A08FA6A2655A814B323DC8A59E99B1A4D415F5D8653B2037A1EB143DE672FD62C20FBEED0D7B4AFF0A9DF31BC3B318EFB7DBDC7B47B67FB8FF3B9E61D17E50A4B11EDF4BAAF17A3A219405684324C38A6FCB3220D610DADDF086F1811E56AFF03A579F82794
311
AC8BACDADE7D620124CD8F3C0652946B16B93C82CA75CD4DFE00504B030414000608080068A0AF4255019EA25F0000007C00000007000000636E782E786D6C4DCB3B0E80201045D1AD90E915ED2CF8AC45050C11660C8261F98AB1B07AC9C97D42D718D865D3E909258CFD00CCE24AC6E326A164D74DC0B4128928FF326038
311
472BA13128B1252AC747C6BAB984FC68F0B87FE8960A5C09FE86CFB69FBA01504B030414000608080068A0AF42988891E468010000020300000C0000006662782F636F72652E786D6C8D52ED8E8230107C95A67F2F503E048D2935E2794F702F504BE51AA125A5253EFE2D1FC6F3628C2129CDCCCEEEEC00DD5DDB060DD2F6
311
CAE802C7618491D4C2544AD705F6EE1C6C30DA316A8D717FCA30D2BC95051E61CC686D8DEF164818EDA476806A53C905E47D2F1D46A2814B817BF1235B1E72EFA0A2BF841D17175ECB300E81863A467B67C1009A878C2766E7D395921967D47B552DACAA609A3A2B69312BF79B328FCB243894AB34581DD22C28D7F93A88F7
311
9FE9FAEB78CCB37D46C92866D4A9F6E64E58C99DAC304BA2380DA22C88B3EF24DA46E936CE3FA26C9B46948CE50F22DF556F8ABCD22E4D16BBB3ACC72C062313F16F5B88C8A19E0FE087304AC610E13525FC18340402213B7E6A6E7B5C001AA470C6AE80A98CBF53036FBC84A9119A1E4A66163A4F0D60B3A77D92177D5EF7
311
800FC8750DD6B883EBC9BB713A9DA72E5174D20683BB226D6CCB9BBBB9D9E2FDBC0F7A2A17A631F61D355956254B9864FC7BD92F504B030414000608080068A0AF427EB751327D0000009D0000000B0000006662782F636E782E786D6C4DCCD10AC2201886E15B91FFDCA653CA401D73D87D8CE686E4344CA3CB6F8B1D74F4
311
C1C3C72BBBCF1AD0DBE5974F51013D11402EDED3E4E3A2A096190B409D9639A5F2770314C7D529D819B45C72AACF8326378F35944D838F8F035BCAC8F5C22C2683BD614E7B8685310613DE726385ED87338546CBE657DA760FEB2F504B030414000608080068A0AF423F552AB12D01000015020000310000006662782F3231
311
3330393733452D304345462D343141332D384242422D3034323442453845414336312F636F72652E786D6C8D515B6E833010BC0AF257AACA6063A034328E42444FD00B1070A89560233FAA1CBFEB42A4F62F92E5B5766766C7BBFC709F6FC9B7B44E19DD209A1294483D9851E9A941C15F708D9283E0D618FF078612DDCFB2
311
41318D049FAC09CB961A8CF6527BC86A33CA2DD93B273D4A861B3C1AE4862F39F7691F3C20DC355DFAE1DA4F32A529940127B8F3160C246B937823915346DEDF5887C9A9FBC0053D325CB76D8B4991176D5777C7534579B612050F418D1B5D8D60475D94B4CF8A44B2E05ECD0FFB8395BD9723F00965989498969F39D913B6
311
A7D52B29F78CF02CC2FF91C2323E490A4A7B966F76579A43027EB316041F4D38DF1E66E47D31D627B1DFCEC9E10509921252C329EB8A672B162600A255B1893A6F2C4C78773D039C963C8BCA552178169704E1778310E342C50F504B030414000608080068A0AF424E5804EB4E01000033030000300000006662782F323133
311
30393733452D304345462D343141332D384242422D3034323442453845414336312F636E782E786D6CD593CD6E022114855F85B06DE6CF51D31806932EFA045D74CBC055510626FC34F5ED7B51B46E5C74D90D999C7B38E7E60BC3B6DF93215FE0837676A05DDD5202563AA5ED7EA029EEAA574AB69C79E7E2838D122B2618
311
689629677BEFD25C24053B914C44D5687B2AA287E092971050CE37897152180C005B2514611A412950E46EC4AF1D785C05C5F14CE201C8FBDB2771E311640CACC9299C35B983B37C96A6071325D28810061AE40126518B149D8270AA9588A2EEEA5BD7939D7E9348BE70AB4C5E935C3ED07C525E36AA91236B70C859881EE9
311
15533CCF40B99867A3A58808B9B918AF1ECE92B671BD2C5E8DE03DBABB75BF5C62D865C659D4131487F4202228CA176DD757EDAAEA561F8B76D3F69B6EFDD2AE367DCB9A6CE76C74CE944B1803DECD443A1BC146CA3BD6E4F1337CC54794F6C8DAF9F31F402280D27AA573CFF8CF7C9ACBFB465C1EFF02FE03504B03041400
311
0608080068A0AF42CDC4F76FA405000080100000340000006662782F32313330393733452D304345462D343141332D384242422D3034323442453845414336312F6F626A656374732E786D6CAD57DB8EA33810FD15C4BEEC3EE44292BE644533CA65328A463D339A6846FB1029326068B60D46C674A7F7EBF7181B02E9A43B
311
BB9A97104CB95C75EAD4C5EE877DCAAC272A8A846777B6D31FDA16CD021E26597C679732EADDDAD607CF159CCB96986D6524A577B65AB63D3716BCCCCD524823523279B4BA9AFF651501CDA86D058C14C59D5D040F34257D524A1ED2E2B11F1249FA71B4EF3B7D2DD8551B0B923F1C29CD89A09984A558CFA0C5D24639DDD7
311
A13DF0DC81FAEEB9EAD7488DCF4B0D2A7FBAE72759214916BC3AEC48CDD8992C3F8EAEA6BDABC964DC9B5C8F9CDE7C355FF69C9BF17071BD584C671FA738B890029A8C258246B6F709D888247007FA93E7964926C7232362023410F4295191B2BD91E5B8032DD378679C3C657EC0B38C06155640A3F2CFA80E694EB310314F
311
6801CB5A080DBBAF8EC2B1F579ACDECD91EDE5CB1068EF6829AA6DAF9F6D4BB9FF375C282E619028A862A0C6D238AAB93A3C20EC73CECCB7A4B05222A94808B358E20B225E6C0FA24AC4733B6A149385CA06E581ED210AFA73972E48A3F7797ECACAA8644CD1D8F6AA2CD82157A82C2ACB927FA83858DF46063621568A0DB7
311
C621F99253DB9B6A8ADC1EB1490369458CC40839DC543BC7A32347172A4FD74BDBFBBCF2F71B95BBA70FCF05CFA9908A3EA0561DB8FAA95032363917454E6DB08F4C3980F21DC87F41AA1F4C41DC44B29FEC27E614294856445CA4888D35B47A43FC0C2DA7FA55FF5BFFDC41B3B91BBD737822D80AAA5F8067D787762C5B70
311
7AEE1308CFC5D8B8B6090843D9B84F3200A44862318E25D4E1C8DFDBDE1A550E5519BB08F31CB80C739FF0D71D18352814D549AD67062C8FCAE205051AB0558C84199AFCC6C0439C5E95B3EA6023760EDEAB5F42D7D972F379538A8804F4DEE4F49246499648B4B8036FDA067530EF78F4485F9EB908E1E86BBC376DBC5373
311
5401B415E60AF8B8AEE9EAE57072E78000FB62AECA8DFBCE09704235D696FEFBA408286324A3BCACCF7DB37FA06D688855B22B26370DE6D058401AFDE52807D1A40391E40AC4A65B3545B37FC6BB1FEB2F6024E419F7093B08F987D21B70C6C5CE7FD9E9AA7412E99F5D6A1B08064A0BD85EE5489DFE06F35D98445159A006
311
9E80F5E77AD10E9DAA0AA810B5569D2C13B88FDC22C270B6D68B662D081A29CF7609DA26D2EEE4016DFD40D410A05278CEE282B268973056A6BB28616846BB94E467E0F8FFF6FB659AEF48CACB4C9ED1DD311DCDA16B7B87BCC53391C183ED6DAA676F8ED21BD2F010E68EB06A2527B0EA8476EE8C3FDECC46ABDEF5E2E6A6
311
37B975AE7AB7B3D5556F7A733D9F2EA6F3D57235A9E3A4957B6EDD69DA098D28A1B3B9A5484CF87EAC913EA606D8DE3D91C5F693CECEFAF963DDC728EC0EB007EDB2D9380B9F30F6D1F07D0507C9938AD669CE684A3349540ADDAB3FEC3BC198D13146AFAF5312D30BB47CFDB43972062B17ECFBA6D29D3E1FED35AB0B9590
311
2795C88732F53392B0A38DB146B29F67B1C1AF8E49F3D47DA67E556F2630184C0BCE92106530B462CA532A510C2FE84122A505A8D71EE94373F5B860F7931E1025F119AD2D792098915981B400B5CA4076D7ADDF30D3A9B1EACE46B7ED3FE2C7540ADB0267EE6CCCE8320968D1F7D19FD52454290797DA833CE67E92C50CA3
311
B6DED4BC37BB14369D8EDC885C323E19BF7405370EA08CE4181B300F213A95319E5BD966BE07FFC9F1DA1C8B48FCF54BD9F87258689CA98E418A6AA7CC650133CCA3397A8F447DDB2DA75FC97410B9E892F52609B4D69E2422AE2E0ACA3E63D26CF96D8001C55A7FB57256C688E5E59A7A8282CCA54A70B008AC303A732241
311
D5C59FDB6F82E3229B5AAB0414B07EDFDF5EFFB15DF034E5995EDACECC75D8DA3CE0721B6E511CA8BA9514DBD1D0196DABDB80B9A0EC7C52D03E098B472C20B2226980EE841FBCD45746F421FDA1911BA8501C3174BDB44C6343A5ADE5DBB5558183B923A3167248DD2855C6B405F2372F04834A1426088CF2DEBF504B0304
311
14000608000068A0AF42000000000000000000000000350000006662782F32313330393733452D304345462D343141332D384242422D3034323442453845414336312F76657274696365732E62696E504B030414000608080068A0AF42F270F1330600000004000000360000006662782F32313330393733452D304345462D
311
343141332D384242422D3034323442453845414336312F747269616E676C65732E62696E636660600000504B030414000608000068A0AF42000000000000000000000000370000006662782F32313330393733452D304345462D343141332D384242422D3034323442453845414336312F617474726962757465732E62696E
311
504B030414000608080068A0AF42D5987DFC8F00000041010000360000006662782F32313330393733452D304345462D343141332D384242422D3034323442453845414336312F6469726563746F72792E786D6C858F410EC2201045AF4266AF15DDB800BA74E7C21B903225242D6328188F2FA5C4183471359997F9FF81E8
311
9FF3C41E1816475E02DF1F80A11FC8386F25A438EECEC07A250251FC3803E6F58C12560C4AD840E95E91C151A72936F496F35732D860FE635F62C8F2DA16B505C545B74125BAA2FA9E05D7CC053D063734D5C7665FD55B6B8D15D5E9BFEAFD8490FFA45E504B030414000608080068A0AF4213CAE2CBFE000000A00100003B
311
0000006662782F32313330393733452D304345462D343141332D384242422D3034323442453845414336312F7265736F75726365732F636F72652E786D6C8D504B6EC32010BD8A35DB0A1B4270220B13C5697A825E00E1898B1243C4A7EAF18B13576A77DDCC8CDE47F3F4E4E16BBE559F18A2F5AE075653A8D0193F5A37F5
311
90D385ECA13A2819BC4FBF6450393D630F0B0C4A4EC1E7FB0A19EF12BA5450E7475C411D2326A8CCAD1C3D44F381B3AE754E4511AFF55D9BAB9EB06675A18B4EC9984209503D9F2C1354C0E873301865F36495CCD98EABC68EE5A7BD580CA086E37E68D9C0C869D872B23D7141865DBB23ECF8CA776FE7732B8E42368B59C9
311
64E79F8C26A04E3882DA50C609158489F70DED28EF58FB4245C7A96C16F91F53BE8FFF3465EB12DFAC719FB6088A95200F42C966E9ABAC4799652FDDAA6F504B010214000A000008000068A0AF423DEE336E79000000790000001B00000000000000000000000000000000006175746F6465736B2D64657369676E2D706163
311
6B6167652E786D6C504B0102140014000608080068A0AF42D486FD9CA0000000F40000001300000000000000000000000000B20000005B436F6E74656E745F54797065735D2E786D6C504B0102140014000608080068A0AF427B20BFFAEC0000007C010000080000000000000000000000000083010000636F72652E786D6C
311
504B0102140014000608080068A0AF4255019EA25F0000007C000000070000000000000000000000000095020000636E782E786D6C504B0102140014000608080068A0AF42988891E468010000020300000C00000000000000000000000000190300006662782F636F72652E786D6C504B0102140014000608080068A0AF42
311
7EB751327D0000009D0000000B00000000000000000000000000AB0400006662782F636E782E786D6C504B0102140014000608080068A0AF423F552AB12D010000150200003100000000000000000000000000510500006662782F32313330393733452D304345462D343141332D384242422D303432344245384541433631
311
2F636F72652E786D6C504B0102140014000608080068A0AF424E5804EB4E010000330300003000000000000000000000000000CD0600006662782F32313330393733452D304345462D343141332D384242422D3034323442453845414336312F636E782E786D6C504B0102140014000608080068A0AF42CDC4F76FA4050000
311
801000003400000000000000000000000000690800006662782F32313330393733452D304345462D343141332D384242422D3034323442453845414336312F6F626A656374732E786D6C504B0102140014000608000068A0AF4200000000000000000000000035000000000000000000000000005F0E00006662782F323133
311
30393733452D304345462D343141332D384242422D3034323442453845414336312F76657274696365732E62696E504B0102140014000608080068A0AF42F270F13306000000040000003600000000000000000000000000B20E00006662782F32313330393733452D304345462D343141332D384242422D30343234424538
311
45414336312F747269616E676C65732E62696E504B0102140014000608000068A0AF4200000000000000000000000037000000000000000000000000000C0F00006662782F32313330393733452D304345462D343141332D384242422D3034323442453845414336312F617474726962757465732E62696E504B0102140014
311
000608080068A0AF42D5987DFC8F000000410100003600000000000000000000000000610F00006662782F32313330393733452D304345462D343141332D384242422D3034323442453845414336312F6469726563746F72792E786D6C504B0102140014000608080068A0AF4213CAE2CBFE000000A00100003B0000000000
311
0000000000000000441000006662782F32313330393733452D304345462D343141332D384242422D3034323442453845414336312F7265736F75726365732F636F72652E786D6C504B0506000000000E000E00800400009B1100000000
310
504B03040A000008000068A0AF423DEE336E79000000790000001B0000006175746F6465736B2D64657369676E2D7061636B6167652E786D6C3C3F786D6C2076657273696F6E3D22312E302220656E636F64696E673D227574662D3822203F3E3C666F726D6174733E3C666F726D61743E687474703A2F2F736368656D612E
310
6175746F6465736B2E636F6D2F64657369676E2D7061636B6167652F323030393C2F666F726D61743E3C2F666F726D6174733E504B030414000608080068A0AF42D486FD9CA0000000F4000000130000005B436F6E74656E745F54797065735D2E786D6C7D8EC10E82300C865F65E91D8A1E8C310C0EEA1BF002731658846E
310
D98AC1B77784ABF1D8FE5FBFBF75BBCE937A534CCEB38643598122B6FEE978D0B0485F9C41B54DDD7D022595594E1A469170414C76A4D9A4D207E29CF43ECE46F218070CC6BECC4078ACAA135ACF422C856C0E68EA1BF5669944DDD7BCDE7B1F8E415D77AECB980613C2E4AC91FC167A2B244592486606FC29C8FD7F045B9A
310
EF7053A7E60B504B030414000608080068A0AF42F7948B6FEA0000007C01000008000000636F72652E786D6C8D90516EC3201044AF82F6B7C2061B5AC7C244B69A9EA01740983828315806AA1EBF3871A4F6AF5F3B1AE6B1AB11C7EFF986BECC1AAC771DD08200324EFBD1BAA98314CFB801749462F53EFE8A01726A361D6C
310
364831AD3E2DBBA5BD8BC6C5EC3A3F9ADD5421980848DFB2E820E88B9955A152CC89702D16A5AF6A32057DAA0CA76447F45862C7FC9F3D5BB382E4A777FE71A00326F58961F6965543FA1E13D60C8CF787813126CA0D9622DAF9B95FAF46453382AC08AD31E198F2CF8AB4A46EE9EB0BE16D4D44B9C5FF406919FF0925EB62
310
5DEDE73EB00092E643EE0F52945B1779DC8BCA73EB4DFE00504B030414000608080068A0AF4255019EA25F0000007C00000007000000636E782E786D6C4DCB3B0E80201045D1AD90E915ED2CF8AC45050C11660C8261F98AB1B07AC9C97D42D718D865D3E909258CFD00CCE24AC6E326A164D74DC0B4128928FF326038472B
310
A13128B1252AC747C6BAB984FC68F0B87FE8960A5C09FE86CFB69FBA01504B030414000608080068A0AF42C5E4B97D66010000020300000C0000006662782F636F72652E786D6C8D525B6E833010BC8AE5DF0A6CC0B449641C256A7A825EC00187A2808DFC40397E974794A68AA208C958333BBBB3037C7BE95A3428EB1AA3
310
0B9CC41423A54B5335BA2E70F0A76885D156706B8CFF538691969D2AF00863C16B6B42BF40A5D15E690FA836955A40E99CF218952D5C0AECCA1FD5C958060F15EE1CF7B23CCB5AC5490C34D409EEBC0503681E329E589C8E174E665CF0109A6A619B0AA635A746592CF2C367FEB54EF611CD0E2C621F705BD1DD2EA26CB567
310
F96EBD678C71328A05F74D7775575A25BDAAB048699245348F92FC3BA51B9A6D92F7379A6F32CAC9587E270A7DF5A22834DA67E9627796392C12303211FFB685883C7272003F4470328608AF29E1FBA0211008D9CB637BDDE30CD0A04A6F2C03A632E1460DB20D0AA652343D9CCC2C749E1AC0660FFBA44FFA3CEF011F50EA
310
1AAC490FD763F0E3743E4F5DA2E8958D067F41DAD84EB63773B3C5DB791BF4505E9AD6D857D46459952C6192F1EF15BF504B030414000608080068A0AF422FDC28E37D0000009D0000000B0000006662782F636E782E786D6C4DCCD10AC2201886E15B91FFDCA6C3CC401D6CE97D8CE686E4344CA3CB6F8B1D74F4C1C3C72B
310
BBCF1AD0DBE5974F51013D11402EDED3E4E3A2A096190B409D9639A5F2770314C7D529D819B45C72AACF8326378F35944D838F8F033925A23F5B865B315C30E303C13DBB092C0C3357CAAD619641A365F32B6DBB87F517504B030414000608080068A0AF42163B26E02C01000015020000310000006662782F363130384235
310
46342D323843372D343643302D423444382D3845344539313646453446342F636F72652E786D6C8D515B6EC32010BC0AE22B55850D36769C0813296972825E806092A2C460F1A872FC42ED48ED5F7E58343B333BDA65BBC77807DFCA796D4D0F4981215046DA419B6B0F63B8A00E821D67CEDAF087068111A3EA6186216757
310
67E3B440D29AA04C48A8B1835A40E1BD0A10C87BFAF4D0CB2F358A42C49018FE564C42DEC45515A448EDC4E3CC0797028079487E216F09EEF6CD89A2AA3BAC116D0F18EDE94787BA233D6E487B3AD21365E52CE42C463D2C723DA438FAA2957BD5248B390B7A7CC6974E89A006C82B4C6A841B449ACF0A6F71BD25ED3B6EB6
310
356665A6FF13C569785114B50975B5C49D651E72C2CAB9C1D960E3F9FE0CA31E937501E4792BAFE41BE4B8C0B85B6F485377AC9CB96903C9B4A58BA90FD6A50DAF6EE744AF17E7967256E623A5F27BC154F341F90F504B030414000608080068A0AF4228FFCBFC5601000033030000300000006662782F3631303842354634
310
2D323843372D343643302D423444382D3845344539313646453446342F636E782E786D6CBD93CD6E022114855F85B06DE6CF51630C8349177D822EBA65E06AA90C4CF869EADBF7A268DDB868D2744326E71ECEB9F9C2B0DDD764C827F8A09D1D6857B79480954E697B18688AFB6A43C98E33EF5CBCB35162C50403CD32E5EC
310
E05D9A8BA4602F9289A81A6D8F45F4105CF21202CAF926314E0A830160AB84224C2328058ADC8CF8B5078FABA0389E487C07F2F2FC46DCF8013206D6E414CE9ADCC1593E4BD39D8912694408030DF21D26518B149D8270AC9588A2EEEA6BD7839D7E9248BE70AD4C5E935C3ED07C525E36AA91236B70C859881EE915533CCD
310
40B99867A3A58808B9391B2F1ECE92B671BD2C5E8DE03DBAFBC57AB3C1B0F38CB3A827280EE9414450942FDAAEAFDA55D5AD5E17EDB6EDB7DDFAA95D6DFB9635D9CED9E89C29973006BC9B897436828D9477ACC9E347F88A8F28ED91B5F3A75F804400A5F542E796F1977CBA75BF5CFE239FE6FCBE1197C7BF807F03504B03
310
0414000608080068A0AF42CBE0504163070000991B0000340000006662782F36313038423546342D323843372D343643302D423444382D3845344539313646453446342F6F626A656374732E786D6CED595B73A33614FE2B0C7D691F8C4DECDC3A844EE26C329E9DECEEACBB3B7DF00C23834CD408C1482271FAEB7B740103
310
3109EEA66FFB6003423A3AE73B571D823FB619751E3117246717AEEF4D5C07B3384F084B2FDC526E4667AEF34718F03C978D69AEC350862F5C35EC8641CAF3B2B04309DEA092CACEE8CDD55F8E8831C3AE135324C4852BE27B9C210F95324FB078F0122491976EB69EEF99896DB22947C57D87688138661238857106541CC3
310
94DF7E9CB8E33018ABF761A0FEEDACE9A059B3FE59632D759B4BC284442C7EC15287CC74104B537F76FDE1E8F87C743C9B4D47B393237F747573753DF24FA793F9C97C7E7EF9E11CD85BE739B53225B8C02C01FD3DBBA11F8CD59B5A748BC03EAEE39C311C6B20012A2D569720C102B66AC037693FFA4AA2C66B2D61E379A6
310
DE5B161AC3D33695BE59C38068D10541EC7695C4D5B5295FBEFE1B0417438C920B2C815B213968D7C2C3C12BDC70128CCD6818AC77BA20C2C990C49C20EA50B2E688835260AA9A1206668125A39C8303294749A035675EB76D0B3CF36DD7D9C7E5A6A45479861B6AC78AC0FDB0149A33F20FE63BEE9BC8004F206D49983CB3
310
5CCAE702BBE17930D68361A02ED323FBD200E96C284A8546C4BCED083A57AEBFB876C38F37EBED528583FD9B173C2F3097CAE8941E355F60C8F6AA50B2DBFA8334A71680300654BB7207CA5740FE13448F1D2BA0374EB6B3EDCCCE951C31B1C97906BA7126CE68027F13C7D7FFEABE71178CEBC56DEDF5E1096EAAA03AFB71
310
3CDB3268AC2CFF0D38C3E0110C3EE753FB6A19230AF67C471800A48CC4A1390C4168DFACB76EB880C009811E56211AFA2032B0FB08B7C1D892D969A5722FEB750C10B57B4C87280960D316096CF4E8E916B20727F14E4D4D11FBE03D7E1773BDBC5E7E5C967C83627C677DFA1A6F082312B2E67E865A98B7247AC0CF4F394F
310
40D097782F9B7867762B01682BCC15F06905827AD8EDDCDA20867569AEC24DF0C60E2084CAD50DFA7744C49852C4705E56FBD6D14D196AEDF1B66670C32303F1F4A863C21C3F12555580D3EC66B41885BC1F73522810DDF0D64856074DAF47BA6F8B4F6091F5FC9E590B06A19721FAA70E5A7B7068597685B405A21678BD0B
310
E7714E731EAD9F2313E95CA825808DB6B77C6F1185586F94A4A8800769BFAB424A6AA48D12B2D99402E2EA1E16BF2FE64D73987853FFD869FE779C7106D1167C1771EB779D3D2292A114471B94F46DD7DCADA62D34C91ED21C6F28C8451E897C8E908C26094E0F81E620E2E7EF4A3DA5B910846101F96A2FF84D34261E0412
310
A3CD8A65A5D50ED044441996881E828022D303AE4E3BBAC68DA174789BC7DA7A5FD35893E8FF64111C412D99B38840290A39E44DC67DEF1862481B5D8372075FB0B68AB61683965042C4CFD11326E9BD3C047543BE07F7188E24A58CF202C560D603C8BEF015A5D40EEF6B143FA8FC11C5257D2F0311986E2242699945F023
310
0C4E1E435CBB0E4CAFA2D0206E629FC419146548967CC82627C79317FB989AA11B021B1B6D0885B01D65A8E841BD1510753DE2D4E05BEA3D4A5D975911A12C2FD92043F1A65D6FB2E4BB6A556407F2AB4A45281B2BC29660181026EBAC5AC56C30751D58C18D74A07A8E04CA0A6A4E616F241EBFF6264DB977036EFDF47D37
310
C8A0F0EBD15E33A2CE2A182C8FADC2403C2119DFBBE1525F4757507F2738D9A5FAAAD66C568080988AE425275645DF1650DED81ACD0DEF9014AB5B9375ABEBB78507DD8F600C6BA076A9172E14D0196612A9CAE44EDDD0AF0842708B86195FA89C7A0895CB24D15523A237A44F9DAD32A2B56946BCE21EB33C831F5B1116D3
310
32C12B948887E84ED2684914EB564A2F2315C6AF0AF8F976D98107460688F4451578F8A9B3D68ECE55B9B49788BC2FB335430482604BB4D4E8C62B586A355269B9BEAA3305D45D606056C5B39F278B663BE2E7C922B586F163270B9AAF11DD459B46368F95591F740AA8D393A2F21EA700DD75A8A9D649C4E4722BBEF5A508
310
626215E407176355CC3004FB38FECF49BB2F099AED3AFC1F96B4FD1705C74149A5355935A9F614AE8B660ABBF2A71F4E2F8F6E4627F3D3D3D1ECCC3F1E9D5DDE1C8FCE4F4FAECEE7E75737D737B31A4DEDA76150C7329DBAE0D9C4B46A583D590CA0292B724A1238CC274E8A21E44B38D20FE89EF30C0BC89DCD5E77627BF2
310
03563F9A36A7446B8A2B4EEE11F487A980AC0E1895B16C8F3BBF406752C239FBC2859E91F7007FD62A5D0712CF850B9D0249622CBC357499543F4F13878CAB53BF2506F82096AA8C6816D5CFF52A854D2BFAD7538664012B57AB8501755B01CDAF568342F366798A0F12BC62C741126ED7A58462CDC8B21BA885D1DBECD46F
310
64A3843DD8ADB7E0BAAF8BE57B7A4E0B91415F0C5E3502437524114F75BB5B316659BABCFE3286369BB3F8EC14B44C4197C3298D3806632E553D055604566169164882A9CE7F5F7DE1397CE1C91C5D1439BF6ECF4E7E5BCDF32CCB99195A5DC2A12C81EF44CEF21EBEFA242BA81DB0EAAD8BD5D1C43F5AE99EB66DB3476B24
310
B0A78A2218A86A092548C7E4C02E5FF4A76CF772AC54D199BEB8766C10855E80B1A3172D5EF38DCB011F525F5394C7683FAFA47DB5AD3DD653C1263834A4C37F01504B030414000608000068A0AF42000000000000000000000000350000006662782F36313038423546342D323843372D343643302D423444382D38453445
310
39313646453446342F76657274696365732E62696E504B030414000608080068A0AF42F270F1330600000004000000360000006662782F36313038423546342D323843372D343643302D423444382D3845344539313646453446342F747269616E676C65732E62696E636660600000504B030414000608000068A0AF420000
310
00000000000000000000370000006662782F36313038423546342D323843372D343643302D423444382D3845344539313646453446342F617474726962757465732E62696E504B030414000608080068A0AF42D5987DFC8F00000041010000360000006662782F36313038423546342D323843372D343643302D423444382D
310
3845344539313646453446342F6469726563746F72792E786D6C858F410EC2201045AF4266AF15DDB800BA74E7C21B903225242D6328188F2FA5C4183471359997F9FF81E89FF3C41E1816475E02DF1F80A11FC8386F25A438EECEC07A250251FC3803E6F58C12560C4AD840E95E91C151A72936F496F35732D860FE635F62
310
C8F2DA16B505C545B74125BAA2FA9E05D7CC053D063734D5C7665FD55B6B8D15D5E9BFEAFD8490FFA45E504B030414000608080068A0AF429F7ED65EFD000000A00100003B0000006662782F36313038423546342D323843372D343643302D423444382D3845344539313646453446342F7265736F75726365732F636F7265
310
2E786D6C8D504B6E833010BD0A9A6D05D8605A828C2350D313F4029699502BC146FE543D7E4DA052BBEBC6E3791FCDD3E3E7AFE59E7DA2F3DA9A1E68412043A3ECA4CDDC430CD7BC85EC2CB8B336FC924166E4823D6C30083E3B1BD70352D6043421A1C64E7880D27B0C90A97BFAF4E0D5072EB290312485BF15AB54373963
310
418B44279DE03EB81420DB8F6C2F0887DE46A7D0F37267058F514F87464FE9A6BE6A74209ACB6BF376A2434EEA0BCBD90B1DF3960C6965EDC89AE13432C678B999050F7AF9C9A81CCA8013888AD03A274D4E9BF78A74A4EEE8F31369BA9AF07293FF31C575FAA7296A13EAEA88BBDB3C089A823C08C1CBADAF341E65A6B975
310
2BBE01504B010214000A000008000068A0AF423DEE336E79000000790000001B00000000000000000000000000000000006175746F6465736B2D64657369676E2D7061636B6167652E786D6C504B0102140014000608080068A0AF42D486FD9CA0000000F40000001300000000000000000000000000B20000005B436F6E74
310
656E745F54797065735D2E786D6C504B0102140014000608080068A0AF42F7948B6FEA0000007C010000080000000000000000000000000083010000636F72652E786D6C504B0102140014000608080068A0AF4255019EA25F0000007C000000070000000000000000000000000093020000636E782E786D6C504B01021400
310
14000608080068A0AF42C5E4B97D66010000020300000C00000000000000000000000000170300006662782F636F72652E786D6C504B0102140014000608080068A0AF422FDC28E37D0000009D0000000B00000000000000000000000000A70400006662782F636E782E786D6C504B0102140014000608080068A0AF42163B
310
26E02C0100001502000031000000000000000000000000004D0500006662782F36313038423546342D323843372D343643302D423444382D3845344539313646453446342F636F72652E786D6C504B0102140014000608080068A0AF4228FFCBFC56010000330300003000000000000000000000000000C80600006662782F
310
36313038423546342D323843372D343643302D423444382D3845344539313646453446342F636E782E786D6C504B0102140014000608080068A0AF42CBE0504163070000991B000034000000000000000000000000006C0800006662782F36313038423546342D323843372D343643302D423444382D384534453931364645
310
3446342F6F626A656374732E786D6C504B0102140014000608000068A0AF420000000000000000000000003500000000000000000000000000211000006662782F36313038423546342D323843372D343643302D423444382D3845344539313646453446342F76657274696365732E62696E504B0102140014000608080068
310
A0AF42F270F13306000000040000003600000000000000000000000000741000006662782F36313038423546342D323843372D343643302D423444382D3845344539313646453446342F747269616E676C65732E62696E504B0102140014000608000068A0AF42000000000000000000000000370000000000000000000000
310
0000CE1000006662782F36313038423546342D323843372D343643302D423444382D3845344539313646453446342F617474726962757465732E62696E504B0102140014000608080068A0AF42D5987DFC8F000000410100003600000000000000000000000000231100006662782F36313038423546342D323843372D3436
310
43302D423444382D3845344539313646453446342F6469726563746F72792E786D6C504B0102140014000608080068A0AF429F7ED65EFD000000A00100003B00000000000000000000000000061200006662782F36313038423546342D323843372D343643302D423444382D3845344539313646453446342F7265736F7572
310
6365732F636F72652E786D6C504B0506000000000E000E00800400005C1300000000
  0
XRECORD
  5
27
102
{ACAD_REACTORS
330
22
102
}
330
22
100
AcDbXrecord
280
     1
270
     1
271
     1
  0
XRECORD
  5
26
102
{ACAD_REACTORS
330
22
102
}
330
22
100
AcDbXrecord
280
     1
270
     1
271
     1
  0
XRECORD
  5
28
102
{ACAD_REACTORS
330
22
102
}
330
22
100
AcDbXrecord
280
     1
270
     1
271
     1
  0
XRECORD
  5
25
102
{ACAD_REACTORS
330
22
102
}
330
22
100
AcDbXrecord
280
     1
270
     1
271
     1
  0
XRECORD
  5
1579
102
{ACAD_REACTORS
330
1578
102
}
330
1578
100
AcDbXrecord
280
     1
102
ACAD_ROUNDTRIP_2012_MLEADER_STYLE
298
     1
  0
CELLSTYLEMAP
  5
1577
102
{ACAD_REACTORS
330
1576
102
}
330
1576
100
AcDbCellStyleMap
 90
        3
300
CELLSTYLE
  1
TABLEFORMAT_BEGIN
 90
        5
170
     1
 91
        0
 92
    32768
 62
   257
 93
        1
300
CONTENTFORMAT
  1
CONTENTFORMAT_BEGIN
 90
        0
 91
        0
 92
      512
 93
        0
300

 40
0.0
140
1.0
 94
        5
 62
     0
340
55
144
0.25
309
CONTENTFORMAT_END
171
     0
 94
        0
309
TABLEFORMAT_END
  1
CELLSTYLE_BEGIN
 90
        1
 91
        1
300
_TITLE
309
CELLSTYLE_END
300
CELLSTYLE
  1
TABLEFORMAT_BEGIN
 90
        5
170
     1
 91
        0
 92
        0
 62
   257
 93
        1
300
CONTENTFORMAT
  1
CONTENTFORMAT_BEGIN
 90
        0
 91
        0
 92
      512
 93
        0
300

 40
0.0
140
1.0
 94
        5
 62
     0
340
55
144
0.18
309
CONTENTFORMAT_END
171
     0
 94
        0
309
TABLEFORMAT_END
  1
CELLSTYLE_BEGIN
 90
        2
 91
        1
300
_HEADER
309
CELLSTYLE_END
300
CELLSTYLE
  1
TABLEFORMAT_BEGIN
 90
        5
170
     1
 91
        0
 92
        0
 62
   257
 93
        1
300
CONTENTFORMAT
  1
CONTENTFORMAT_BEGIN
 90
        0
 91
        0
 92
      512
 93
        0
300

 40
0.0
140
1.0
 94
        2
 62
     0
340
55
144
0.18
309
CONTENTFORMAT_END
171
     0
 94
        0
309
TABLEFORMAT_END
  1
CELLSTYLE_BEGIN
 90
        3
 91
        2
300
_DATA
309
CELLSTYLE_END
  0
XRECORD
  5
15B0
102
{ACAD_REACTORS
330
1576
102
}
330
1576
100
AcDbXrecord
280
     1
102
ACAD_ROUNDTRIP_PRE2007_TABLESTYLE
 90
      512
 91
        0
  1

 92
      512
 93
        0
  2

 94
      512
 95
        0
  3

  0
XRECORD
  5
158B
102
{ACAD_REACTORS
330
158A
102
}
330
158A
100
AcDbXrecord
280
     1
102
RTVSPropertyOp0
 70
     1
102
RTVSPropertyOp1
 70
     1
102
RTVSPropertyOp2
 70
     1
102
RTVSPropertyOp3
 70
     1
102
RTVSPropertyOp4
 70
     1
102
RTVSPropertyOp5
 70
     1
102
RTVSPropertyOp6
 70
     1
102
RTVSPropertyOp7
 70
     1
102
RTVSPropertyOp8
 70
     1
102
RTVSPropertyOp9
 70
     1
102
RTVSPropertyOp10
 70
     1
102
RTVSPropertyOp11
 70
     1
102
RTVSPropertyOp12
 70
     1
102
RTVSPropertyOp13
 70
     1
102
RTVSPropertyOp14
 70
     1
102
RTVSPropertyOp15
 70
     1
102
RTVSPropertyOp16
 70
     1
102
RTVSPropertyOp17
 70
     1
102
RTVSPropertyOp18
 70
     1
102
RTVSPropertyOp19
 70
     1
102
RTVSPropertyOp20
 70
     1
102
RTVSPropertyOp21
 70
     1
102
RTVSPropertyOp22
 70
     1
102
RTVSPropertyOp23
 70
     1
102
RTVSPropertyOp24
 70
     1
102
RTVSPropertyOp25
 70
     1
102
RTVSPropertyOp26
 70
     1
102
RTVSPropertyOp27
 70
     1
102
RTVSPropertyOp28
 70
     1
102
RTVSPropertyOp29
 70
     1
102
RTVSPropertyOp30
 70
     1
102
RTVSPropertyOp31
 70
     1
102
RTVSPropertyOp32
 70
     1
  0
XRECORD
  5
1589
102
{ACAD_REACTORS
330
1588
102
}
330
1588
100
AcDbXrecord
280
     1
102
RTVSPropertyOp0
 70
     1
102
RTVSPropertyOp1
 70
     1
102
RTVSPropertyOp2
 70
     1
102
RTVSPropertyOp3
 70
     1
102
RTVSPropertyOp4
 70
     1
102
RTVSPropertyOp5
 70
     1
102
RTVSPropertyOp6
 70
     1
102
RTVSPropertyOp7
 70
     1
102
RTVSPropertyOp8
 70
     1
102
RTVSPropertyOp9
 70
     1
102
RTVSPropertyOp10
 70
     1
102
RTVSPropertyOp11
 70
     1
102
RTVSPropertyOp12
 70
     1
102
RTVSPropertyOp13
 70
     1
102
RTVSPropertyOp14
 70
     1
102
RTVSPropertyOp15
 70
     1
102
RTVSPropertyOp16
 70
     1
102
RTVSPropertyOp17
 70
     1
102
RTVSPropertyOp18
 70
     1
102
RTVSPropertyOp19
 70
     1
102
RTVSPropertyOp20
 70
     1
102
RTVSPropertyOp21
 70
     1
102
RTVSPropertyOp22
 70
     1
102
RTVSPropertyOp23
 70
     1
102
RTVSPropertyOp24
 70
     1
102
RTVSPropertyOp25
 70
     1
102
RTVSPropertyOp26
 70
     1
102
RTVSPropertyOp27
 70
     1
102
RTVSPropertyOp28
 70
     1
102
RTVSPropertyOp29
 70
     1
102
RTVSPropertyOp30
 70
     1
102
RTVSPropertyOp31
 70
     1
102
RTVSPropertyOp32
 70
     1
  0
XRECORD
  5
1597
102
{ACAD_REACTORS
330
1596
102
}
330
1596
100
AcDbXrecord
280
     1
102
RTVSPropertyOp0
 70
     1
102
RTVSPropertyOp1
 70
     1
102
RTVSPropertyOp2
 70
     1
102
RTVSPropertyOp3
 70
     1
102
RTVSPropertyOp4
 70
     1
102
RTVSPropertyOp5
 70
     1
102
RTVSPropertyOp6
 70
     1
102
RTVSPropertyOp7
 70
     1
102
RTVSPropertyOp8
 70
     1
102
RTVSPropertyOp9
 70
     1
102
RTVSPropertyOp10
 70
     1
102
RTVSPropertyOp11
 70
     1
102
RTVSPropertyOp12
 70
     1
102
RTVSPropertyOp13
 70
     1
102
RTVSPropertyOp14
 70
     1
102
RTVSPropertyOp15
 70
     1
102
RTVSPropertyOp16
 70
     1
102
RTVSPropertyOp17
 70
     1
102
RTVSPropertyOp18
 70
     1
102
RTVSPropertyOp19
 70
     1
102
RTVSPropertyOp20
 70
     1
102
RTVSPropertyOp21
 70
     1
102
RTVSPropertyOp22
 70
     1
102
RTVSPropertyOp23
 70
     1
102
RTVSPropertyOp24
 70
     1
102
RTVSPropertyOp25
 70
     1
102
RTVSPropertyOp26
 70
     1
102
RTVSPropertyOp27
 70
     1
102
RTVSPropertyOp28
 70
     1
102
RTVSPropertyOp29
 70
     1
102
RTVSPropertyOp30
 70
     1
102
RTVSPropertyOp31
 70
     1
102
RTVSPropertyOp32
 70
     1
  0
XRECORD
  5
159F
102
{ACAD_REACTORS
330
159E
102
}
330
159E
100
AcDbXrecord
280
     1
102
RTVSPropertyOp0
 70
     1
102
RTVSPropertyOp1
 70
     1
102
RTVSPropertyOp2
 70
     1
102
RTVSPropertyOp3
 70
     1
102
RTVSPropertyOp4
 70
     1
102
RTVSPropertyOp5
 70
     1
102
RTVSPropertyOp6
 70
     1
102
RTVSPropertyOp7
 70
     1
102
RTVSPropertyOp8
 70
     1
102
RTVSPropertyOp9
 70
     1
102
RTVSPropertyOp10
 70
     1
102
RTVSPropertyOp11
 70
     1
102
RTVSPropertyOp12
 70
     1
102
RTVSPropertyOp13
 70
     1
102
RTVSPropertyOp14
 70
     1
102
RTVSPropertyOp15
 70
     1
102
RTVSPropertyOp16
 70
     1
102
RTVSPropertyOp17
 70
     1
102
RTVSPropertyOp18
 70
     1
102
RTVSPropertyOp19
 70
     1
102
RTVSPropertyOp20
 70
     1
102
RTVSPropertyOp21
 70
     1
102
RTVSPropertyOp22
 70
     1
102
RTVSPropertyOp23
 70
     1
102
RTVSPropertyOp24
 70
     1
102
RTVSPropertyOp25
 70
     1
102
RTVSPropertyOp26
 70
     1
102
RTVSPropertyOp27
 70
     1
102
RTVSPropertyOp28
 70
     1
102
RTVSPropertyOp29
 70
     1
102
RTVSPropertyOp30
 70
     1
102
RTVSPropertyOp31
 70
     1
102
RTVSPropertyOp32
 70
     1
  0
XRECORD
  5
1591
102
{ACAD_REACTORS
330
1590
102
}
330
1590
100
AcDbXrecord
280
     1
102
RTVSPropertyOp0
 70
     1
102
RTVSPropertyOp1
 70
     1
102
RTVSPropertyOp2
 70
     1
102
RTVSPropertyOp3
 70
     1
102
RTVSPropertyOp4
 70
     1
102
RTVSPropertyOp5
 70
     1
102
RTVSPropertyOp6
 70
     1
102
RTVSPropertyOp7
 70
     1
102
RTVSPropertyOp8
 70
     1
102
RTVSPropertyOp9
 70
     1
102
RTVSPropertyOp10
 70
     1
102
RTVSPropertyOp11
 70
     1
102
RTVSPropertyOp12
 70
     1
102
RTVSPropertyOp13
 70
     1
102
RTVSPropertyOp14
 70
     1
102
RTVSPropertyOp15
 70
     1
102
RTVSPropertyOp16
 70
     1
102
RTVSPropertyOp17
 70
     1
102
RTVSPropertyOp18
 70
     1
102
RTVSPropertyOp19
 70
     1
102
RTVSPropertyOp20
 70
     1
102
RTVSPropertyOp21
 70
     1
102
RTVSPropertyOp22
 70
     1
102
RTVSPropertyOp23
 70
     1
102
RTVSPropertyOp24
 70
     1
102
RTVSPropertyOp25
 70
     1
102
RTVSPropertyOp26
 70
     1
102
RTVSPropertyOp27
 70
     1
102
RTVSPropertyOp28
 70
     1
102
RTVSPropertyOp29
 70
     1
102
RTVSPropertyOp30
 70
     1
102
RTVSPropertyOp31
 70
     1
102
RTVSPropertyOp32
 70
     1
  0
XRECORD
  5
1595
102
{ACAD_REACTORS
330
1594
102
}
330
1594
100
AcDbXrecord
280
     1
102
RTVSPropertyOp0
 70
     1
102
RTVSPropertyOp1
 70
     1
102
RTVSPropertyOp2
 70
     1
102
RTVSPropertyOp3
 70
     1
102
RTVSPropertyOp4
 70
     1
102
RTVSPropertyOp5
 70
     1
102
RTVSPropertyOp6
 70
     1
102
RTVSPropertyOp7
 70
     1
102
RTVSPropertyOp8
 70
     1
102
RTVSPropertyOp9
 70
     1
102
RTVSPropertyOp10
 70
     1
102
RTVSPropertyOp11
 70
     1
102
RTVSPropertyOp12
 70
     1
102
RTVSPropertyOp13
 70
     1
102
RTVSPropertyOp14
 70
     1
102
RTVSPropertyOp15
 70
     1
102
RTVSPropertyOp16
 70
     1
102
RTVSPropertyOp17
 70
     1
102
RTVSPropertyOp18
 70
     1
102
RTVSPropertyOp19
 70
     1
102
RTVSPropertyOp20
 70
     1
102
RTVSPropertyOp21
 70
     1
102
RTVSPropertyOp22
 70
     1
102
RTVSPropertyOp23
 70
     1
102
RTVSPropertyOp24
 70
     1
102
RTVSPropertyOp25
 70
     1
102
RTVSPropertyOp26
 70
     1
102
RTVSPropertyOp27
 70
     1
102
RTVSPropertyOp28
 70
     1
102
RTVSPropertyOp29
 70
     1
102
RTVSPropertyOp30
 70
     1
102
RTVSPropertyOp31
 70
     1
102
RTVSPropertyOp32
 70
     1
  0
XRECORD
  5
15AF
102
{ACAD_REACTORS
330
15AE
102
}
330
15AE
100
AcDbXrecord
280
     1
102
RTVSPropertyOp0
 70
     0
102
RTVSPropertyOp1
 70
     0
102
RTVSPropertyOp2
 70
     0
102
RTVSPropertyOp3
 70
     0
102
RTVSPropertyOp4
 70
     0
102
RTVSPropertyOp5
 70
     0
102
RTVSPropertyOp6
 70
     0
102
RTVSPropertyOp7
 70
     0
102
RTVSPropertyOp8
 70
     0
102
RTVSPropertyOp9
 70
     0
102
RTVSPropertyOp10
 70
     0
102
RTVSPropertyOp11
 70
     0
102
RTVSPropertyOp12
 70
     0
102
RTVSPropertyOp13
 70
     0
102
RTVSPropertyOp14
 70
     2
102
RTVSPropertyOp15
 70
     0
102
RTVSPropertyOp16
 70
     0
102
RTVSPropertyOp17
 70
     0
102
RTVSPropertyOp18
 70
     0
102
RTVSPropertyOp19
 70
     0
102
RTVSPropertyOp20
 70
     0
102
RTVSPropertyOp21
 70
     0
102
RTVSPropertyOp22
 70
     0
102
RTVSPropertyOp23
 70
     0
102
RTVSPropertyOp24
 70
     0
102
RTVSPropertyOp25
 70
     0
102
RTVSPropertyOp26
 70
     0
102
RTVSPropertyOp27
 70
     0
102
RTVSPropertyOp28
 70
     1
102
RTVSPropertyOp29
 70
     1
102
RTVSPropertyOp30
 70
     1
102
RTVSPropertyOp31
 70
     1
102
RTVSPropertyOp32
 70
     1
  0
XRECORD
  5
159D
102
{ACAD_REACTORS
330
159C
102
}
330
159C
100
AcDbXrecord
280
     1
102
RTVSPropertyOp0
 70
     1
102
RTVSPropertyOp1
 70
     1
102
RTVSPropertyOp2
 70
     1
102
RTVSPropertyOp3
 70
     1
102
RTVSPropertyOp4
 70
     1
102
RTVSPropertyOp5
 70
     1
102
RTVSPropertyOp6
 70
     1
102
RTVSPropertyOp7
 70
     1
102
RTVSPropertyOp8
 70
     1
102
RTVSPropertyOp9
 70
     1
102
RTVSPropertyOp10
 70
     1
102
RTVSPropertyOp11
 70
     1
102
RTVSPropertyOp12
 70
     1
102
RTVSPropertyOp13
 70
     1
102
RTVSPropertyOp14
 70
     1
102
RTVSPropertyOp15
 70
     1
102
RTVSPropertyOp16
 70
     1
102
RTVSPropertyOp17
 70
     1
102
RTVSPropertyOp18
 70
     1
102
RTVSPropertyOp19
 70
     1
102
RTVSPropertyOp20
 70
     1
102
RTVSPropertyOp21
 70
     1
102
RTVSPropertyOp22
 70
     1
102
RTVSPropertyOp23
 70
     1
102
RTVSPropertyOp24
 70
     1
102
RTVSPropertyOp25
 70
     1
102
RTVSPropertyOp26
 70
     1
102
RTVSPropertyOp27
 70
     1
102
RTVSPropertyOp28
 70
     1
102
RTVSPropertyOp29
 70
     1
102
RTVSPropertyOp30
 70
     1
102
RTVSPropertyOp31
 70
     1
102
RTVSPropertyOp32
 70
     1
  0
XRECORD
  5
1581
102
{ACAD_REACTORS
330
1580
102
}
330
1580
100
AcDbXrecord
280
     1
102
RTVSPropertyOp0
 70
     1
102
RTVSPropertyOp1
 70
     1
102
RTVSPropertyOp2
 70
     1
102
RTVSPropertyOp3
 70
     1
102
RTVSPropertyOp4
 70
     1
102
RTVSPropertyOp5
 70
     1
102
RTVSPropertyOp6
 70
     1
102
RTVSPropertyOp7
 70
     1
102
RTVSPropertyOp8
 70
     1
102
RTVSPropertyOp9
 70
     1
102
RTVSPropertyOp10
 70
     1
102
RTVSPropertyOp11
 70
     1
102
RTVSPropertyOp12
 70
     1
102
RTVSPropertyOp13
 70
     1
102
RTVSPropertyOp14
 70
     1
102
RTVSPropertyOp15
 70
     1
102
RTVSPropertyOp16
 70
     1
102
RTVSPropertyOp17
 70
     1
102
RTVSPropertyOp18
 70
     1
102
RTVSPropertyOp19
 70
     1
102
RTVSPropertyOp20
 70
     1
102
RTVSPropertyOp21
 70
     1
102
RTVSPropertyOp22
 70
     1
102
RTVSPropertyOp23
 70
     1
102
RTVSPropertyOp24
 70
     1
102
RTVSPropertyOp25
 70
     1
102
RTVSPropertyOp26
 70
     1
102
RTVSPropertyOp27
 70
     1
102
RTVSPropertyOp28
 70
     1
102
RTVSPropertyOp29
 70
     1
102
RTVSPropertyOp30
 70
     1
102
RTVSPropertyOp31
 70
     1
102
RTVSPropertyOp32
 70
     1
  0
XRECORD
  5
1583
102
{ACAD_REACTORS
330
1582
102
}
330
1582
100
AcDbXrecord
280
     1
102
RTVSPropertyOp0
 70
     1
102
RTVSPropertyOp1
 70
     1
102
RTVSPropertyOp2
 70
     1
102
RTVSPropertyOp3
 70
     1
102
RTVSPropertyOp4
 70
     1
102
RTVSPropertyOp5
 70
     1
102
RTVSPropertyOp6
 70
     1
102
RTVSPropertyOp7
 70
     1
102
RTVSPropertyOp8
 70
     1
102
RTVSPropertyOp9
 70
     1
102
RTVSPropertyOp10
 70
     1
102
RTVSPropertyOp11
 70
     1
102
RTVSPropertyOp12
 70
     1
102
RTVSPropertyOp13
 70
     1
102
RTVSPropertyOp14
 70
     1
102
RTVSPropertyOp15
 70
     1
102
RTVSPropertyOp16
 70
     1
102
RTVSPropertyOp17
 70
     1
102
RTVSPropertyOp18
 70
     1
102
RTVSPropertyOp19
 70
     1
102
RTVSPropertyOp20
 70
     1
102
RTVSPropertyOp21
 70
     1
102
RTVSPropertyOp22
 70
     1
102
RTVSPropertyOp23
 70
     1
102
RTVSPropertyOp24
 70
     1
102
RTVSPropertyOp25
 70
     1
102
RTVSPropertyOp26
 70
     1
102
RTVSPropertyOp27
 70
     1
102
RTVSPropertyOp28
 70
     1
102
RTVSPropertyOp29
 70
     1
102
RTVSPropertyOp30
 70
     1
102
RTVSPropertyOp31
 70
     1
102
RTVSPropertyOp32
 70
     1
  0
XRECORD
  5
1585
102
{ACAD_REACTORS
330
1584
102
}
330
1584
100
AcDbXrecord
280
     1
102
RTVSPropertyOp0
 70
     1
102
RTVSPropertyOp1
 70
     1
102
RTVSPropertyOp2
 70
     1
102
RTVSPropertyOp3
 70
     1
102
RTVSPropertyOp4
 70
     1
102
RTVSPropertyOp5
 70
     1
102
RTVSPropertyOp6
 70
     1
102
RTVSPropertyOp7
 70
     1
102
RTVSPropertyOp8
 70
     1
102
RTVSPropertyOp9
 70
     1
102
RTVSPropertyOp10
 70
     1
102
RTVSPropertyOp11
 70
     1
102
RTVSPropertyOp12
 70
     1
102
RTVSPropertyOp13
 70
     1
102
RTVSPropertyOp14
 70
     1
102
RTVSPropertyOp15
 70
     1
102
RTVSPropertyOp16
 70
     1
102
RTVSPropertyOp17
 70
     1
102
RTVSPropertyOp18
 70
     1
102
RTVSPropertyOp19
 70
     1
102
RTVSPropertyOp20
 70
     1
102
RTVSPropertyOp21
 70
     1
102
RTVSPropertyOp22
 70
     1
102
RTVSPropertyOp23
 70
     1
102
RTVSPropertyOp24
 70
     1
102
RTVSPropertyOp25
 70
     1
102
RTVSPropertyOp26
 70
     1
102
RTVSPropertyOp27
 70
     1
102
RTVSPropertyOp28
 70
     1
102
RTVSPropertyOp29
 70
     1
102
RTVSPropertyOp30
 70
     1
102
RTVSPropertyOp31
 70
     1
102
RTVSPropertyOp32
 70
     1
  0
XRECORD
  5
1587
102
{ACAD_REACTORS
330
1586
102
}
330
1586
100
AcDbXrecord
280
     1
102
RTVSPropertyOp0
 70
     1
102
RTVSPropertyOp1
 70
     1
102
RTVSPropertyOp2
 70
     1
102
RTVSPropertyOp3
 70
     1
102
RTVSPropertyOp4
 70
     1
102
RTVSPropertyOp5
 70
     1
102
RTVSPropertyOp6
 70
     1
102
RTVSPropertyOp7
 70
     1
102
RTVSPropertyOp8
 70
     1
102
RTVSPropertyOp9
 70
     1
102
RTVSPropertyOp10
 70
     1
102
RTVSPropertyOp11
 70
     1
102
RTVSPropertyOp12
 70
     1
102
RTVSPropertyOp13
 70
     1
102
RTVSPropertyOp14
 70
     1
102
RTVSPropertyOp15
 70
     1
102
RTVSPropertyOp16
 70
     1
102
RTVSPropertyOp17
 70
     1
102
RTVSPropertyOp18
 70
     1
102
RTVSPropertyOp19
 70
     1
102
RTVSPropertyOp20
 70
     1
102
RTVSPropertyOp21
 70
     1
102
RTVSPropertyOp22
 70
     1
102
RTVSPropertyOp23
 70
     1
102
RTVSPropertyOp24
 70
     1
102
RTVSPropertyOp25
 70
     1
102
RTVSPropertyOp26
 70
     1
102
RTVSPropertyOp27
 70
     1
102
RTVSPropertyOp28
 70
     1
102
RTVSPropertyOp29
 70
     1
102
RTVSPropertyOp30
 70
     1
102
RTVSPropertyOp31
 70
     1
102
RTVSPropertyOp32
 70
     1
  0
XRECORD
  5
158F
102
{ACAD_REACTORS
330
158E
102
}
330
158E
100
AcDbXrecord
280
     1
102
RTVSPropertyOp0
 70
     1
102
RTVSPropertyOp1
 70
     1
102
RTVSPropertyOp2
 70
     1
102
RTVSPropertyOp3
 70
     1
102
RTVSPropertyOp4
 70
     1
102
RTVSPropertyOp5
 70
     1
102
RTVSPropertyOp6
 70
     1
102
RTVSPropertyOp7
 70
     1
102
RTVSPropertyOp8
 70
     1
102
RTVSPropertyOp9
 70
     1
102
RTVSPropertyOp10
 70
     1
102
RTVSPropertyOp11
 70
     1
102
RTVSPropertyOp12
 70
     1
102
RTVSPropertyOp13
 70
     1
102
RTVSPropertyOp14
 70
     1
102
RTVSPropertyOp15
 70
     1
102
RTVSPropertyOp16
 70
     1
102
RTVSPropertyOp17
 70
     1
102
RTVSPropertyOp18
 70
     1
102
RTVSPropertyOp19
 70
     1
102
RTVSPropertyOp20
 70
     1
102
RTVSPropertyOp21
 70
     1
102
RTVSPropertyOp22
 70
     1
102
RTVSPropertyOp23
 70
     1
102
RTVSPropertyOp24
 70
     1
102
RTVSPropertyOp25
 70
     1
102
RTVSPropertyOp26
 70
     1
102
RTVSPropertyOp27
 70
     1
102
RTVSPropertyOp28
 70
     1
102
RTVSPropertyOp29
 70
     1
102
RTVSPropertyOp30
 70
     1
102
RTVSPropertyOp31
 70
     1
102
RTVSPropertyOp32
 70
     1
  0
XRECORD
  5
15AB
102
{ACAD_REACTORS
330
15AA
102
}
330
15AA
100
AcDbXrecord
280
     1
102
RTVSPropertyOp0
 70
     0
102
RTVSPropertyOp1
 70
     0
102
RTVSPropertyOp2
 70
     0
102
RTVSPropertyOp3
 70
     0
102
RTVSPropertyOp4
 70
     0
102
RTVSPropertyOp5
 70
     0
102
RTVSPropertyOp6
 70
     0
102
RTVSPropertyOp7
 70
     0
102
RTVSPropertyOp8
 70
     0
102
RTVSPropertyOp9
 70
     0
102
RTVSPropertyOp10
 70
     0
102
RTVSPropertyOp11
 70
     0
102
RTVSPropertyOp12
 70
     0
102
RTVSPropertyOp13
 70
     0
102
RTVSPropertyOp14
 70
     2
102
RTVSPropertyOp15
 70
     0
102
RTVSPropertyOp16
 70
     0
102
RTVSPropertyOp17
 70
     0
102
RTVSPropertyOp18
 70
     0
102
RTVSPropertyOp19
 70
     0
102
RTVSPropertyOp20
 70
     0
102
RTVSPropertyOp21
 70
     0
102
RTVSPropertyOp22
 70
     0
102
RTVSPropertyOp23
 70
     0
102
RTVSPropertyOp24
 70
     0
102
RTVSPropertyOp25
 70
     0
102
RTVSPropertyOp26
 70
     0
102
RTVSPropertyOp27
 70
     0
102
RTVSPropertyOp28
 70
     1
102
RTVSPropertyOp29
 70
     1
102
RTVSPropertyOp30
 70
     1
102
RTVSPropertyOp31
 70
     1
102
RTVSPropertyOp32
 70
     1
  0
XRECORD
  5
159B
102
{ACAD_REACTORS
330
159A
102
}
330
159A
100
AcDbXrecord
280
     1
102
RTVSPropertyOp0
 70
     1
102
RTVSPropertyOp1
 70
     1
102
RTVSPropertyOp2
 70
     1
102
RTVSPropertyOp3
 70
     1
102
RTVSPropertyOp4
 70
     1
102
RTVSPropertyOp5
 70
     1
102
RTVSPropertyOp6
 70
     1
102
RTVSPropertyOp7
 70
     1
102
RTVSPropertyOp8
 70
     1
102
RTVSPropertyOp9
 70
     1
102
RTVSPropertyOp10
 70
     1
102
RTVSPropertyOp11
 70
     1
102
RTVSPropertyOp12
 70
     1
102
RTVSPropertyOp13
 70
     1
102
RTVSPropertyOp14
 70
     1
102
RTVSPropertyOp15
 70
     1
102
RTVSPropertyOp16
 70
     1
102
RTVSPropertyOp17
 70
     1
102
RTVSPropertyOp18
 70
     1
102
RTVSPropertyOp19
 70
     1
102
RTVSPropertyOp20
 70
     1
102
RTVSPropertyOp21
 70
     1
102
RTVSPropertyOp22
 70
     1
102
RTVSPropertyOp23
 70
     1
102
RTVSPropertyOp24
 70
     1
102
RTVSPropertyOp25
 70
     1
102
RTVSPropertyOp26
 70
     1
102
RTVSPropertyOp27
 70
     1
102
RTVSPropertyOp28
 70
     1
102
RTVSPropertyOp29
 70
     1
102
RTVSPropertyOp30
 70
     1
102
RTVSPropertyOp31
 70
     1
102
RTVSPropertyOp32
 70
     1
  0
XRECORD
  5
15AD
102
{ACAD_REACTORS
330
15AC
102
}
330
15AC
100
AcDbXrecord
280
     1
102
RTVSPropertyOp0
 70
     0
102
RTVSPropertyOp1
 70
     0
102
RTVSPropertyOp2
 70
     0
102
RTVSPropertyOp3
 70
     0
102
RTVSPropertyOp4
 70
     0
102
RTVSPropertyOp5
 70
     0
102
RTVSPropertyOp6
 70
     0
102
RTVSPropertyOp7
 70
     0
102
RTVSPropertyOp8
 70
     0
102
RTVSPropertyOp9
 70
     0
102
RTVSPropertyOp10
 70
     0
102
RTVSPropertyOp11
 70
     0
102
RTVSPropertyOp12
 70
     0
102
RTVSPropertyOp13
 70
     0
102
RTVSPropertyOp14
 70
     2
102
RTVSPropertyOp15
 70
     0
102
RTVSPropertyOp16
 70
     0
102
RTVSPropertyOp17
 70
     0
102
RTVSPropertyOp18
 70
     0
102
RTVSPropertyOp19
 70
     0
102
RTVSPropertyOp20
 70
     0
102
RTVSPropertyOp21
 70
     0
102
RTVSPropertyOp22
 70
     0
102
RTVSPropertyOp23
 70
     0
102
RTVSPropertyOp24
 70
     0
102
RTVSPropertyOp25
 70
     0
102
RTVSPropertyOp26
 70
     0
102
RTVSPropertyOp27
 70
     0
102
RTVSPropertyOp28
 70
     1
102
RTVSPropertyOp29
 70
     1
102
RTVSPropertyOp30
 70
     1
102
RTVSPropertyOp31
 70
     1
102
RTVSPropertyOp32
 70
     1
  0
XRECORD
  5
1593
102
{ACAD_REACTORS
330
1592
102
}
330
1592
100
AcDbXrecord
280
     1
102
RTVSPropertyOp0
 70
     1
102
RTVSPropertyOp1
 70
     1
102
RTVSPropertyOp2
 70
     1
102
RTVSPropertyOp3
 70
     1
102
RTVSPropertyOp4
 70
     1
102
RTVSPropertyOp5
 70
     1
102
RTVSPropertyOp6
 70
     1
102
RTVSPropertyOp7
 70
     1
102
RTVSPropertyOp8
 70
     1
102
RTVSPropertyOp9
 70
     1
102
RTVSPropertyOp10
 70
     1
102
RTVSPropertyOp11
 70
     1
102
RTVSPropertyOp12
 70
     1
102
RTVSPropertyOp13
 70
     1
102
RTVSPropertyOp14
 70
     1
102
RTVSPropertyOp15
 70
     1
102
RTVSPropertyOp16
 70
     1
102
RTVSPropertyOp17
 70
     1
102
RTVSPropertyOp18
 70
     1
102
RTVSPropertyOp19
 70
     1
102
RTVSPropertyOp20
 70
     1
102
RTVSPropertyOp21
 70
     1
102
RTVSPropertyOp22
 70
     1
102
RTVSPropertyOp23
 70
     1
102
RTVSPropertyOp24
 70
     1
102
RTVSPropertyOp25
 70
     1
102
RTVSPropertyOp26
 70
     1
102
RTVSPropertyOp27
 70
     1
102
RTVSPropertyOp28
 70
     1
102
RTVSPropertyOp29
 70
     1
102
RTVSPropertyOp30
 70
     1
102
RTVSPropertyOp31
 70
     1
102
RTVSPropertyOp32
 70
     1
  0
XRECORD
  5
15A9
102
{ACAD_REACTORS
330
15A8
102
}
330
15A8
100
AcDbXrecord
280
     1
102
RTVSPropertyOp0
 70
     1
102
RTVSPropertyOp1
 70
     1
102
RTVSPropertyOp2
 70
     1
102
RTVSPropertyOp3
 70
     1
102
RTVSPropertyOp4
 70
     1
102
RTVSPropertyOp5
 70
     1
102
RTVSPropertyOp6
 70
     1
102
RTVSPropertyOp7
 70
     1
102
RTVSPropertyOp8
 70
     1
102
RTVSPropertyOp9
 70
     1
102
RTVSPropertyOp10
 70
     1
102
RTVSPropertyOp11
 70
     1
102
RTVSPropertyOp12
 70
     1
102
RTVSPropertyOp13
 70
     1
102
RTVSPropertyOp14
 70
     1
102
RTVSPropertyOp15
 70
     1
102
RTVSPropertyOp16
 70
     1
102
RTVSPropertyOp17
 70
     1
102
RTVSPropertyOp18
 70
     1
102
RTVSPropertyOp19
 70
     1
102
RTVSPropertyOp20
 70
     1
102
RTVSPropertyOp21
 70
     1
102
RTVSPropertyOp22
 70
     1
102
RTVSPropertyOp23
 70
     1
102
RTVSPropertyOp24
 70
     1
102
RTVSPropertyOp25
 70
     1
102
RTVSPropertyOp26
 70
     1
102
RTVSPropertyOp27
 70
     1
102
RTVSPropertyOp28
 70
     1
102
RTVSPropertyOp29
 70
     1
102
RTVSPropertyOp30
 70
     1
102
RTVSPropertyOp31
 70
     1
102
RTVSPropertyOp32
 70
     1
  0
XRECORD
  5
15A7
102
{ACAD_REACTORS
330
15A6
102
}
330
15A6
100
AcDbXrecord
280
     1
102
RTVSPropertyOp0
 70
     1
102
RTVSPropertyOp1
 70
     1
102
RTVSPropertyOp2
 70
     1
102
RTVSPropertyOp3
 70
     1
102
RTVSPropertyOp4
 70
     1
102
RTVSPropertyOp5
 70
     1
102
RTVSPropertyOp6
 70
     1
102
RTVSPropertyOp7
 70
     1
102
RTVSPropertyOp8
 70
     1
102
RTVSPropertyOp9
 70
     1
102
RTVSPropertyOp10
 70
     1
102
RTVSPropertyOp11
 70
     1
102
RTVSPropertyOp12
 70
     1
102
RTVSPropertyOp13
 70
     1
102
RTVSPropertyOp14
 70
     1
102
RTVSPropertyOp15
 70
     1
102
RTVSPropertyOp16
 70
     1
102
RTVSPropertyOp17
 70
     1
102
RTVSPropertyOp18
 70
     1
102
RTVSPropertyOp19
 70
     1
102
RTVSPropertyOp20
 70
     1
102
RTVSPropertyOp21
 70
     1
102
RTVSPropertyOp22
 70
     1
102
RTVSPropertyOp23
 70
     1
102
RTVSPropertyOp24
 70
     1
102
RTVSPropertyOp25
 70
     1
102
RTVSPropertyOp26
 70
     1
102
RTVSPropertyOp27
 70
     1
102
RTVSPropertyOp28
 70
     1
102
RTVSPropertyOp29
 70
     1
102
RTVSPropertyOp30
 70
     1
102
RTVSPropertyOp31
 70
     1
102
RTVSPropertyOp32
 70
     1
  0
XRECORD
  5
15A1
102
{ACAD_REACTORS
330
15A0
102
}
330
15A0
100
AcDbXrecord
280
     1
102
RTVSPropertyOp0
 70
     1
102
RTVSPropertyOp1
 70
     1
102
RTVSPropertyOp2
 70
     1
102
RTVSPropertyOp3
 70
     1
102
RTVSPropertyOp4
 70
     1
102
RTVSPropertyOp5
 70
     1
102
RTVSPropertyOp6
 70
     1
102
RTVSPropertyOp7
 70
     1
102
RTVSPropertyOp8
 70
     1
102
RTVSPropertyOp9
 70
     1
102
RTVSPropertyOp10
 70
     1
102
RTVSPropertyOp11
 70
     1
102
RTVSPropertyOp12
 70
     1
102
RTVSPropertyOp13
 70
     1
102
RTVSPropertyOp14
 70
     1
102
RTVSPropertyOp15
 70
     1
102
RTVSPropertyOp16
 70
     1
102
RTVSPropertyOp17
 70
     1
102
RTVSPropertyOp18
 70
     1
102
RTVSPropertyOp19
 70
     1
102
RTVSPropertyOp20
 70
     1
102
RTVSPropertyOp21
 70
     1
102
RTVSPropertyOp22
 70
     1
102
RTVSPropertyOp23
 70
     1
102
RTVSPropertyOp24
 70
     1
102
RTVSPropertyOp25
 70
     1
102
RTVSPropertyOp26
 70
     1
102
RTVSPropertyOp27
 70
     1
102
RTVSPropertyOp28
 70
     1
102
RTVSPropertyOp29
 70
     1
102
RTVSPropertyOp30
 70
     1
102
RTVSPropertyOp31
 70
     1
102
RTVSPropertyOp32
 70
     1
  0
XRECORD
  5
15A3
102
{ACAD_REACTORS
330
15A2
102
}
330
15A2
100
AcDbXrecord
280
     1
102
RTVSPropertyOp0
 70
     1
102
RTVSPropertyOp1
 70
     1
102
RTVSPropertyOp2
 70
     1
102
RTVSPropertyOp3
 70
     1
102
RTVSPropertyOp4
 70
     1
102
RTVSPropertyOp5
 70
     1
102
RTVSPropertyOp6
 70
     1
102
RTVSPropertyOp7
 70
     1
102
RTVSPropertyOp8
 70
     1
102
RTVSPropertyOp9
 70
     1
102
RTVSPropertyOp10
 70
     1
102
RTVSPropertyOp11
 70
     1
102
RTVSPropertyOp12
 70
     1
102
RTVSPropertyOp13
 70
     1
102
RTVSPropertyOp14
 70
     1
102
RTVSPropertyOp15
 70
     1
102
RTVSPropertyOp16
 70
     1
102
RTVSPropertyOp17
 70
     1
102
RTVSPropertyOp18
 70
     1
102
RTVSPropertyOp19
 70
     1
102
RTVSPropertyOp20
 70
     1
102
RTVSPropertyOp21
 70
     1
102
RTVSPropertyOp22
 70
     1
102
RTVSPropertyOp23
 70
     1
102
RTVSPropertyOp24
 70
     1
102
RTVSPropertyOp25
 70
     1
102
RTVSPropertyOp26
 70
     1
102
RTVSPropertyOp27
 70
     1
102
RTVSPropertyOp28
 70
     1
102
RTVSPropertyOp29
 70
     1
102
RTVSPropertyOp30
 70
     1
102
RTVSPropertyOp31
 70
     1
102
RTVSPropertyOp32
 70
     1
  0
XRECORD
  5
1599
102
{ACAD_REACTORS
330
1598
102
}
330
1598
100
AcDbXrecord
280
     1
102
RTVSPropertyOp0
 70
     1
102
RTVSPropertyOp1
 70
     1
102
RTVSPropertyOp2
 70
     1
102
RTVSPropertyOp3
 70
     1
102
RTVSPropertyOp4
 70
     1
102
RTVSPropertyOp5
 70
     1
102
RTVSPropertyOp6
 70
     1
102
RTVSPropertyOp7
 70
     1
102
RTVSPropertyOp8
 70
     1
102
RTVSPropertyOp9
 70
     1
102
RTVSPropertyOp10
 70
     1
102
RTVSPropertyOp11
 70
     1
102
RTVSPropertyOp12
 70
     1
102
RTVSPropertyOp13
 70
     1
102
RTVSPropertyOp14
 70
     1
102
RTVSPropertyOp15
 70
     1
102
RTVSPropertyOp16
 70
     1
102
RTVSPropertyOp17
 70
     1
102
RTVSPropertyOp18
 70
     1
102
RTVSPropertyOp19
 70
     1
102
RTVSPropertyOp20
 70
     1
102
RTVSPropertyOp21
 70
     1
102
RTVSPropertyOp22
 70
     1
102
RTVSPropertyOp23
 70
     1
102
RTVSPropertyOp24
 70
     1
102
RTVSPropertyOp25
 70
     1
102
RTVSPropertyOp26
 70
     1
102
RTVSPropertyOp27
 70
     1
102
RTVSPropertyOp28
 70
     1
102
RTVSPropertyOp29
 70
     1
102
RTVSPropertyOp30
 70
     1
102
RTVSPropertyOp31
 70
     1
102
RTVSPropertyOp32
 70
     1
  0
XRECORD
  5
158D
102
{ACAD_REACTORS
330
158C
102
}
330
158C
100
AcDbXrecord
280
     1
102
RTVSPropertyOp0
 70
     1
102
RTVSPropertyOp1
 70
     1
102
RTVSPropertyOp2
 70
     1
102
RTVSPropertyOp3
 70
     1
102
RTVSPropertyOp4
 70
     1
102
RTVSPropertyOp5
 70
     1
102
RTVSPropertyOp6
 70
     1
102
RTVSPropertyOp7
 70
     1
102
RTVSPropertyOp8
 70
     1
102
RTVSPropertyOp9
 70
     1
102
RTVSPropertyOp10
 70
     1
102
RTVSPropertyOp11
 70
     1
102
RTVSPropertyOp12
 70
     1
102
RTVSPropertyOp13
 70
     1
102
RTVSPropertyOp14
 70
     1
102
RTVSPropertyOp15
 70
     1
102
RTVSPropertyOp16
 70
     1
102
RTVSPropertyOp17
 70
     1
102
RTVSPropertyOp18
 70
     1
102
RTVSPropertyOp19
 70
     1
102
RTVSPropertyOp20
 70
     1
102
RTVSPropertyOp21
 70
     1
102
RTVSPropertyOp22
 70
     1
102
RTVSPropertyOp23
 70
     1
102
RTVSPropertyOp24
 70
     1
102
RTVSPropertyOp25
 70
     1
102
RTVSPropertyOp26
 70
     1
102
RTVSPropertyOp27
 70
     1
102
RTVSPropertyOp28
 70
     1
102
RTVSPropertyOp29
 70
     1
102
RTVSPropertyOp30
 70
     1
102
RTVSPropertyOp31
 70
     1
102
RTVSPropertyOp32
 70
     1
  0
XRECORD
  5
15A5
102
{ACAD_REACTORS
330
15A4
102
}
330
15A4
100
AcDbXrecord
280
     1
102
RTVSPropertyOp0
 70
     1
102
RTVSPropertyOp1
 70
     1
102
RTVSPropertyOp2
 70
     1
102
RTVSPropertyOp3
 70
     1
102
RTVSPropertyOp4
 70
     1
102
RTVSPropertyOp5
 70
     1
102
RTVSPropertyOp6
 70
     1
102
RTVSPropertyOp7
 70
     1
102
RTVSPropertyOp8
 70
     1
102
RTVSPropertyOp9
 70
     1
102
RTVSPropertyOp10
 70
     1
102
RTVSPropertyOp11
 70
     1
102
RTVSPropertyOp12
 70
     1
102
RTVSPropertyOp13
 70
     1
102
RTVSPropertyOp14
 70
     1
102
RTVSPropertyOp15
 70
     1
102
RTVSPropertyOp16
 70
     1
102
RTVSPropertyOp17
 70
     1
102
RTVSPropertyOp18
 70
     1
102
RTVSPropertyOp19
 70
     1
102
RTVSPropertyOp20
 70
     1
102
RTVSPropertyOp21
 70
     1
102
RTVSPropertyOp22
 70
     1
102
RTVSPropertyOp23
 70
     1
102
RTVSPropertyOp24
 70
     1
102
RTVSPropertyOp25
 70
     1
102
RTVSPropertyOp26
 70
     1
102
RTVSPropertyOp27
 70
     1
102
RTVSPropertyOp28
 70
     1
102
RTVSPropertyOp29
 70
     1
102
RTVSPropertyOp30
 70
     1
102
RTVSPropertyOp31
 70
     1
102
RTVSPropertyOp32
 70
     1
  0
ENDSEC
  0
EOF
