  0
SECTION
  2
HEADER
  9
$ACADVER
  1
AC1018
  9
$ACADMAINTVER
 70
   104
  9
$DWGCODEPAGE
  3
ANSI_1252
  9
$AUTHOR
  1
PS
  9
$REVISIONNUMBER
  1
-
  9
$CUSTOMPROPERTYTAG
  1
Manager
  9
$CUSTOMPROPERTY
  1

  9
$CUSTOMPROPERTYTAG
  1
Company
  9
$CUSTOMPROPERTY
  1

  9
$CUSTOMPROPERTYTAG
  1
Category
  9
$CUSTOMPROPERTY
  1

  9
$CUSTOMPROPERTYTAG
  1
Part Number
  9
$CUSTOMPROPERTY
  1
FK2408-S
  9
$CUSTOMPROPERTYTAG
  1
Description
  9
$CUSTOMPROPERTY
  1

  9
$CUSTOMPROPERTYTAG
  1
Project
  9
$CUSTOMPROPERTY
  1

  9
$CUSTOMPROPERTYTAG
  1
Designer
  9
$CUSTOMPROPERTY
  1
PS
  9
$CUSTOMPROPERTYTAG
  1
Engineer
  9
$CUSTOMPROPERTY
  1

  9
$CUSTOMPROPERTYTAG
  1
Authority
  9
$CUSTOMPROPERTY
  1

  9
$CUSTOMPROPERTYTAG
  1
Cost Center
  9
$CUSTOMPROPERTY
  1

  9
$CUSTOMPROPERTYTAG
  1
Vendor
  9
$CUSTOMPROPERTY
  1

  9
$CUSTOMPROPERTYTAG
  1
User Status
  9
$CUSTOMPROPERTY
  1

  9
$CUSTOMPROPERTYTAG
  1
Design Status
  9
$CUSTOMPROPERTY
  1
WorkInProgress
  9
$CUSTOMPROPERTYTAG
  1
Checked by
  9
$CUSTOMPROPERTY
  1
NJ
  9
$CUSTOMPROPERTYTAG
  1
Date Checked
  9
$CUSTOMPROPERTY
  1
05/03/2013
  9
$CUSTOMPROPERTYTAG
  1
Engr Approved by
  9
$CUSTOMPROPERTY
  1

  9
$CUSTOMPROPERTYTAG
  1
Date Eng Approved
  9
$CUSTOMPROPERTY
  1
05/03/2013
  9
$CUSTOMPROPERTYTAG
  1
Mfg Approved by
  9
$CUSTOMPROPERTY
  1

  9
$CUSTOMPROPERTYTAG
  1
Date Mfg Approved
  9
$CUSTOMPROPERTY
  1
05/03/2013
  9
$CUSTOMPROPERTYTAG
  1
DWG. NO
  9
$CUSTOMPROPERTY
  1

  9
$CUSTOMPROPERTYTAG
  1
NUMBER OF SHEETS
  9
$CUSTOMPROPERTY
  1
1
  9
$CUSTOMPROPERTYTAG
  1
DRAWING #
  9
$CUSTOMPROPERTY
  1

  9
$INSBASE
 10
0.0
 20
0.0
 30
0.0
  9
$EXTMIN
 10
0.0
 20
0.0
 30
0.0
  9
$EXTMAX
 10
136.0
 20
88.0
 30
0.0
  9
$LIMMIN
 10
0.0
 20
0.0
  9
$LIMMAX
 10
136.0
 20
88.0
  9
$ORTHOMODE
 70
     0
  9
$REGENMODE
 70
     1
  9
$FILLMODE
 70
     1
  9
$QTEXTMODE
 70
     0
  9
$MIRRTEXT
 70
     0
  9
$LTSCALE
 40
8.0
  9
$ATTMODE
 70
     1
  9
$TEXTSIZE
 40
0.2
  9
$TRACEWID
 40
0.05
  9
$TEXTSTYLE
  7
Standard
  9
$CLAYER
  8
0
  9
$CELTYPE
  6
ByLayer
  9
$CECOLOR
 62
   256
  9
$CELTSCALE
 40
1.0
  9
$DISPSILH
 70
     0
  9
$DIMSCALE
 40
1.0
  9
$DIMASZ
 40
0.0708661417322835
  9
$DIMEXO
 40
0.0625
  9
$DIMDLI
 40
0.38
  9
$DIMRND
 40
0.0
  9
$DIMDLE
 40
0.0
  9
$DIMEXE
 40
0.18
  9
$DIMTP
 40
0.0
  9
$DIMTM
 40
0.0
  9
$DIMTXT
 40
0.0708661417322835
  9
$DIMCEN
 40
0.09
  9
$DIMTSZ
 40
0.0
  9
$DIMTOL
 70
     0
  9
$DIMLIM
 70
     0
  9
$DIMTIH
 70
     1
  9
$DIMTOH
 70
     1
  9
$DIMSE1
 70
     0
  9
$DIMSE2
 70
     0
  9
$DIMTAD
 70
     0
  9
$DIMZIN
 70
     0
  9
$DIMBLK
  1

  9
$DIMASO
 70
     1
  9
$DIMSHO
 70
     1
  9
$DIMPOST
  1

  9
$DIMAPOST
  1

  9
$DIMALT
 70
     0
  9
$DIMALTD
 70
     2
  9
$DIMALTF
 40
25.4
  9
$DIMLFAC
 40
1.0
  9
$DIMTOFL
 70
     0
  9
$DIMTVP
 40
0.0
  9
$DIMTIX
 70
     0
  9
$DIMSOXD
 70
     0
  9
$DIMSAH
 70
     0
  9
$DIMBLK1
  1

  9
$DIMBLK2
  1

  9
$DIMSTYLE
  2
Standard
  9
$DIMCLRD
 70
     0
  9
$DIMCLRE
 70
     0
  9
$DIMCLRT
 70
     0
  9
$DIMTFAC
 40
1.0
  9
$DIMGAP
 40
0.09
  9
$DIMJUST
 70
     0
  9
$DIMSD1
 70
     0
  9
$DIMSD2
 70
     0
  9
$DIMTOLJ
 70
     1
  9
$DIMTZIN
 70
     0
  9
$DIMALTZ
 70
     0
  9
$DIMALTTZ
 70
     0
  9
$DIMUPT
 70
     0
  9
$DIMDEC
 70
     4
  9
$DIMTDEC
 70
     4
  9
$DIMALTU
 70
     2
  9
$DIMALTTD
 70
     2
  9
$DIMTXSTY
  7
Standard
  9
$DIMAUNIT
 70
     0
  9
$DIMADEC
 70
     0
  9
$DIMALTRND
 40
0.0
  9
$DIMAZIN
 70
     0
  9
$DIMDSEP
 70
    46
  9
$DIMATFIT
 70
     3
  9
$DIMFRAC
 70
     0
  9
$DIMLDRBLK
  1

  9
$DIMLUNIT
 70
     2
  9
$DIMLWD
 70
    -2
  9
$DIMLWE
 70
    -2
  9
$DIMTMOVE
 70
     0
  9
$LUNITS
 70
     2
  9
$LUPREC
 70
     4
  9
$SKETCHINC
 40
0.1
  9
$FILLETRAD
 40
0.0
  9
$AUNITS
 70
     0
  9
$AUPREC
 70
     0
  9
$MENU
  1
.
  9
$ELEVATION
 40
0.0
  9
$PELEVATION
 40
0.0
  9
$THICKNESS
 40
0.0
  9
$LIMCHECK
 70
     0
  9
$CHAMFERA
 40
0.0
  9
$CHAMFERB
 40
0.0
  9
$CHAMFERC
 40
0.0
  9
$CHAMFERD
 40
0.0
  9
$SKPOLY
 70
     0
  9
$TDCREATE
 40
2456428.835374560
  9
$TDUCREATE
 40
2456428.606207894
  9
$TDUPDATE
 40
2456428.835374572
  9
$TDUUPDATE
 40
2456428.606207905
  9
$TDINDWG
 40
0.0000452546
  9
$TDUSRTIMER
 40
0.0000452546
  9
$USRTIMER
 70
     1
  9
$ANGBASE
 50
0.0
  9
$ANGDIR
 70
     0
  9
$PDMODE
 70
     0
  9
$PDSIZE
 40
0.0
  9
$PLINEWID
 40
0.0
  9
$SPLFRAME
 70
     0
  9
$SPLINETYPE
 70
     6
  9
$SPLINESEGS
 70
     8
  9
$HANDSEED
  5
15C3
  9
$SURFTAB1
 70
     6
  9
$SURFTAB2
 70
     6
  9
$SURFTYPE
 70
     6
  9
$SURFU
 70
     6
  9
$SURFV
 70
     6
  9
$UCSBASE
  2

  9
$UCSNAME
  2

  9
$UCSORG
 10
0.0
 20
0.0
 30
0.0
  9
$UCSXDIR
 10
1.0
 20
0.0
 30
0.0
  9
$UCSYDIR
 10
0.0
 20
1.0
 30
0.0
  9
$UCSORTHOREF
  2

  9
$UCSORTHOVIEW
 70
     0
  9
$UCSORGTOP
 10
0.0
 20
0.0
 30
0.0
  9
$UCSORGBOTTOM
 10
0.0
 20
0.0
 30
0.0
  9
$UCSORGLEFT
 10
0.0
 20
0.0
 30
0.0
  9
$UCSORGRIGHT
 10
0.0
 20
0.0
 30
0.0
  9
$UCSORGFRONT
 10
0.0
 20
0.0
 30
0.0
  9
$UCSORGBACK
 10
0.0
 20
0.0
 30
0.0
  9
$PUCSBASE
  2

  9
$PUCSNAME
  2

  9
$PUCSORG
 10
0.0
 20
0.0
 30
0.0
  9
$PUCSXDIR
 10
1.0
 20
0.0
 30
0.0
  9
$PUCSYDIR
 10
0.0
 20
1.0
 30
0.0
  9
$PUCSORTHOREF
  2

  9
$PUCSORTHOVIEW
 70
     0
  9
$PUCSORGTOP
 10
0.0
 20
0.0
 30
0.0
  9
$PUCSORGBOTTOM
 10
0.0
 20
0.0
 30
0.0
  9
$PUCSORGLEFT
 10
0.0
 20
0.0
 30
0.0
  9
$PUCSORGRIGHT
 10
0.0
 20
0.0
 30
0.0
  9
$PUCSORGFRONT
 10
0.0
 20
0.0
 30
0.0
  9
$PUCSORGBACK
 10
0.0
 20
0.0
 30
0.0
  9
$USERI1
 70
     0
  9
$USERI2
 70
     0
  9
$USERI3
 70
     0
  9
$USERI4
 70
     0
  9
$USERI5
 70
     0
  9
$USERR1
 40
0.0
  9
$USERR2
 40
0.0
  9
$USERR3
 40
0.0
  9
$USERR4
 40
0.0
  9
$USERR5
 40
0.0
  9
$WORLDVIEW
 70
     1
  9
$SHADEDGE
 70
     3
  9
$SHADEDIF
 70
    70
  9
$TILEMODE
 70
     1
  9
$MAXACTVP
 70
    64
  9
$PINSBASE
 10
0.0
 20
0.0
 30
0.0
  9
$PLIMCHECK
 70
     0
  9
$PEXTMIN
 10
0.0
 20
0.0
 30
0.0
  9
$PEXTMAX
 10
136.0
 20
88.0
 30
0.0
  9
$PLIMMIN
 10
0.0
 20
0.0
  9
$PLIMMAX
 10
136.0
 20
88.0
  9
$UNITMODE
 70
     0
  9
$VISRETAIN
 70
     1
  9
$PLINEGEN
 70
     0
  9
$PSLTSCALE
 70
     1
  9
$TREEDEPTH
 70
  3020
  9
$CMLSTYLE
  2
Standard
  9
$CMLJUST
 70
     0
  9
$CMLSCALE
 40
1.0
  9
$PROXYGRAPHICS
 70
     1
  9
$MEASUREMENT
 70
     0
  9
$CELWEIGHT
370
    -1
  9
$ENDCAPS
280
     0
  9
$JOINSTYLE
280
     0
  9
$LWDISPLAY
290
     0
  9
$INSUNITS
 70
     1
  9
$HYPERLINKBASE
  1

  9
$STYLESHEET
  1

  9
$XEDIT
290
     1
  9
$CEPSNTYPE
380
     0
  9
$PSTYLEMODE
290
     1
  9
$FINGERPRINTGUID
  2
{E363EB8B-09D2-4EF9-AE12-435D3A9524B5}
  9
$VERSIONGUID
  2
{BCFBEF1D-3D6D-4573-8A12-474AD77CA18F}
  9
$EXTNAMES
290
     1
  9
$PSVPSCALE
 40
0.0
  9
$OLESTARTUP
290
     0
  9
$SORTENTS
280
   127
  9
$INDEXCTL
280
     0
  9
$HIDETEXT
280
     1
  9
$XCLIPFRAME
290
     0
  9
$HALOGAP
280
     0
  9
$OBSCOLOR
 70
   257
  9
$OBSLTYPE
280
     0
  9
$INTERSECTIONDISPLAY
280
     0
  9
$INTERSECTIONCOLOR
 70
   257
  9
$DIMASSOC
280
     1
  9
$PROJECTNAME
  1

  0
ENDSEC
  0
SECTION
  2
CLASSES
  0
CLASS
  1
ACDBDICTIONARYWDFLT
  2
AcDbDictionaryWithDefault
  3
ObjectDBX Classes
 90
        0
 91
        1
280
     0
281
     0
  0
CLASS
  1
MATERIAL
  2
AcDbMaterial
  3
ObjectDBX Classes
 90
     1153
 91
        3
280
     0
281
     0
  0
CLASS
  1
VISUALSTYLE
  2
AcDbVisualStyle
  3
ObjectDBX Classes
 90
     4095
 91
       24
280
     0
281
     0
  0
CLASS
  1
SCALE
  2
AcDbScale
  3
ObjectDBX Classes
 90
     1153
 91
       17
280
     0
281
     0
  0
CLASS
  1
TABLESTYLE
  2
AcDbTableStyle
  3
ObjectDBX Classes
 90
     4095
 91
        1
280
     0
281
     0
  0
CLASS
  1
MLEADERSTYLE
  2
AcDbMLeaderStyle
  3
ACDB_MLEADERSTYLE_CLASS
 90
     4095
 91
        1
280
     0
281
     0
  0
CLASS
  1
DICTIONARYVAR
  2
AcDbDictionaryVar
  3
ObjectDBX Classes
 90
        0
 91
        8
280
     0
281
     0
  0
CLASS
  1
CELLSTYLEMAP
  2
AcDbCellStyleMap
  3
ObjectDBX Classes
 90
     1152
 91
        1
280
     0
281
     0
  0
ENDSEC
  0
SECTION
  2
TABLES
  0
TABLE
  2
VPORT
  5
8
330
0
100
AcDbSymbolTable
 70
     1
  0
VPORT
  5
57
330
8
100
AcDbSymbolTableRecord
100
AcDbViewportTableRecord
  2
*Active
 70
     0
 10
0.0
 20
0.0
 11
1.0
 21
1.0
 12
68.0
 22
44.0
 13
0.0
 23
0.0
 14
1.0
 24
1.0
 15
0.0
 25
0.0
 16
0.0
 26
0.0
 36
1.0
 17
0.0
 27
0.0
 37
0.0
 40
88.0
 41
1.545454545454545
 42
50.0
 43
0.0
 44
0.0
 50
0.0
 51
0.0
 71
     0
 72
   100
 73
     1
 74
     1
 75
     0
 76
     0
 77
     0
 78
     0
281
     0
 65
     1
110
0.0
120
0.0
130
0.0
111
1.0
121
0.0
131
0.0
112
0.0
122
1.0
132
0.0
 79
     0
146
0.0
  0
ENDTAB
  0
TABLE
  2
LTYPE
  5
5
330
0
100
AcDbSymbolTable
 70
    59
  0
LTYPE
  5
5B
330
5
100
AcDbSymbolTableRecord
100
AcDbLinetypeTableRecord
  2
ByBlock
 70
     0
  3

 72
    65
 73
     0
 40
0.0
  0
LTYPE
  5
5C
330
5
100
AcDbSymbolTableRecord
100
AcDbLinetypeTableRecord
  2
ByLayer
 70
     0
  3

 72
    65
 73
     0
 40
0.0
  0
LTYPE
  5
5D
330
5
100
AcDbSymbolTableRecord
100
AcDbLinetypeTableRecord
  2
Continuous
 70
     0
  3
Solid line
 72
    65
 73
     0
 40
0.0
  0
LTYPE
  5
7C
330
5
100
AcDbSymbolTableRecord
100
AcDbLinetypeTableRecord
  2
BY_STANDARD
 70
     0
  3
By Standard ____________    ____    ____   _
 72
    65
 73
     6
 40
1.240299999999999
 49
0.6614
 74
     0
 49
-0.0827
 74
     0
 49
0.1654
 74
     0
 49
-0.0827
 74
     0
 49
0.1654
 74
     0
 49
-0.0827
 74
     0
  0
LTYPE
  5
7D
330
5
100
AcDbSymbolTableRecord
100
AcDbLinetypeTableRecord
  2
CHAIN
 70
     0
  3
Chain ____ _ ____ _ ____ _ ____ _ ____ _ ____
 72
    65
 73
     4
 40
0.7087
 49
0.4724000000000001
 74
     0
 49
-0.0591
 74
     0
 49
0.1181
 74
     0
 49
-0.0591
 74
     0
  0
LTYPE
  5
7E
330
5
100
AcDbSymbolTableRecord
100
AcDbLinetypeTableRecord
  2
DASH_DOT
 70
     0
  3
Dash dot __ . __ . __ . __ . __ . __ . __ . __
 72
    65
 73
     4
 40
0.37
 49
0.24
 74
     0
 49
-0.06
 74
     0
 49
0.01
 74
     0
 49
-0.06
 74
     0
  0
LTYPE
  5
7F
330
5
100
AcDbSymbolTableRecord
100
AcDbLinetypeTableRecord
  2
DOUBLE_DASH_DOT
 70
     0
  3
Double-Dash Dot __ __ . __ __ . __ __ . __ _
 72
    65
 73
     6
 40
0.4398
 49
0.24
 74
     0
 49
-0.06
 74
     0
 49
0.0098
 74
     0
 49
-0.06
 74
     0
 49
0.01
 74
     0
 49
-0.06
 74
     0
  0
LTYPE
  5
80
330
5
100
AcDbSymbolTableRecord
100
AcDbLinetypeTableRecord
  2
DASH_TRIPLE_DOT
 70
     0
  3
Dash Triple-Dot _ . . . _ . . . _ . . . _
 72
    65
 73
     8
 40
0.51
 49
0.24
 74
     0
 49
-0.06
 74
     0
 49
0.01
 74
     0
 49
-0.06
 74
     0
 49
0.01
 74
     0
 49
-0.06
 74
     0
 49
0.01
 74
     0
 49
-0.06
 74
     0
  0
LTYPE
  5
81
330
5
100
AcDbSymbolTableRecord
100
AcDbLinetypeTableRecord
  2
DASHED
 70
     0
  3
Dashed __ __ __ __ __ __ __ __ __ __ __ __ __ _
 72
    65
 73
     2
 40
0.2067
 49
0.1654
 74
     0
 49
-0.0413
 74
     0
  0
LTYPE
  5
82
330
5
100
AcDbSymbolTableRecord
100
AcDbLinetypeTableRecord
  2
DASH_DOUBLE_DOT
 70
     0
  3
Dash Double-Dot __ . . __ . . __ . . __ . .
 72
    65
 73
     6
 40
0.4398
 49
0.24
 74
     0
 49
-0.06
 74
     0
 49
0.0098
 74
     0
 49
-0.06
 74
     0
 49
0.01
 74
     0
 49
-0.06
 74
     0
  0
LTYPE
  5
83
330
5
100
AcDbSymbolTableRecord
100
AcDbLinetypeTableRecord
  2
DASHED_SPACE
 70
     0
  3
Dashed Space __ __ __ __ __ __ __ __ __ __ __ _
 72
    65
 73
     2
 40
0.2067
 49
0.1654
 74
     0
 49
-0.0413
 74
     0
  0
LTYPE
  5
84
330
5
100
AcDbSymbolTableRecord
100
AcDbLinetypeTableRecord
  2
DOTTED
 70
     0
  3
Dotted . . . . . . . . . . . . . . . . . . . . 
 72
    65
 73
     2
 40
0.0482
 49
0.0069
 74
     0
 49
-0.0413
 74
     0
  0
LTYPE
  5
85
330
5
100
AcDbSymbolTableRecord
100
AcDbLinetypeTableRecord
  2
DOUBLE_DASH_CHAIN
 70
     0
  3
Double-Dash Chain ______  __  __  ______  __  _
 72
    65
 73
     6
 40
1.240299999999999
 49
0.6614
 74
     0
 49
-0.0827
 74
     0
 49
0.1654
 74
     0
 49
-0.0827
 74
     0
 49
0.1654
 74
     0
 49
-0.0827
 74
     0
  0
LTYPE
  5
87
330
5
100
AcDbSymbolTableRecord
100
AcDbLinetypeTableRecord
  2
DOUBLE_DASH_DOUBLE_DOT
 70
     0
  3
Double-Dash Double-dot _ _ . . _ _ . . _
 72
    65
 73
     8
 40
0.7400000000000001
 49
0.24
 74
     0
 49
-0.06
 74
     0
 49
0.24
 74
     0
 49
-0.06
 74
     0
 49
0.01
 74
     0
 49
-0.06
 74
     0
 49
0.01
 74
     0
 49
-0.06
 74
     0
  0
LTYPE
  5
88
330
5
100
AcDbSymbolTableRecord
100
AcDbLinetypeTableRecord
  2
DOUBLE_DASH_TRIPLE_DOT
 70
     0
  3
Double Dash Triple Dot __ __ . . . __ __ . .
 72
    65
 73
    10
 40
0.8100000000000001
 49
0.24
 74
     0
 49
-0.06
 74
     0
 49
0.24
 74
     0
 49
-0.06
 74
     0
 49
0.01
 74
     0
 49
-0.06
 74
     0
 49
0.01
 74
     0
 49
-0.06
 74
     0
 49
0.01
 74
     0
 49
-0.06
 74
     0
  0
LTYPE
  5
89
330
5
100
AcDbSymbolTableRecord
100
AcDbLinetypeTableRecord
  2
LONG_DASH_DOTTED
 70
     0
  3
Long Dash Dotted ____ . ____ . ____ . ____ . _
 72
    65
 73
     4
 40
0.3543
 49
0.2362
 74
     0
 49
-0.0295
 74
     0
 49
0.0591
 74
     0
 49
-0.0295
 74
     0
  0
LTYPE
  5
8A
330
5
100
AcDbSymbolTableRecord
100
AcDbLinetypeTableRecord
  2
LONG_DASH_DOUBLE_DOT
 70
     0
  3
Long Dash Double Dot ________  .  .  ________  
 72
    65
 73
     6
 40
0.6799999999999999
 49
0.48
 74
     0
 49
-0.06
 74
     0
 49
0.01
 74
     0
 49
-0.06
 74
     0
 49
0.01
 74
     0
 49
-0.06
 74
     0
  0
LTYPE
  5
8B
330
5
100
AcDbSymbolTableRecord
100
AcDbLinetypeTableRecord
  2
LONG_DASH_TRIPLE_DOT
 70
     0
  3
Long Dash Triple Dot ____ ... ____ ... ____
 72
    65
 73
     8
 40
0.3689
 49
0.2362
 74
     0
 49
-0.0295
 74
     0
 49
0.0049
 74
     0
 49
-0.0295
 74
     0
 49
0.0049
 74
     0
 49
-0.0295
 74
     0
 49
0.0049
 74
     0
 49
-0.0295
 74
     0
  0
LTYPE
  5
8C
330
5
100
AcDbSymbolTableRecord
100
AcDbLinetypeTableRecord
  2
BORDER
 70
     0
  3
Border __ __ . __ __ . __ __ . __ __ . __ __ .
 72
    65
 73
     6
 40
1.75
 49
0.5
 74
     0
 49
-0.25
 74
     0
 49
0.5
 74
     0
 49
-0.25
 74
     0
 49
0.0
 74
     0
 49
-0.25
 74
     0
  0
LTYPE
  5
8D
330
5
100
AcDbSymbolTableRecord
100
AcDbLinetypeTableRecord
  2
BORDER2
 70
     0
  3
Border (.5x) __.__.__.__.__.__.__.__.__.__.__.
 72
    65
 73
     6
 40
0.875
 49
0.25
 74
     0
 49
-0.125
 74
     0
 49
0.25
 74
     0
 49
-0.125
 74
     0
 49
0.0
 74
     0
 49
-0.125
 74
     0
  0
LTYPE
  5
8E
330
5
100
AcDbSymbolTableRecord
100
AcDbLinetypeTableRecord
  2
BORDERX2
 70
     0
  3
Border (2x) ____  ____  .  ____  ____  .  ___
 72
    65
 73
     6
 40
3.5
 49
1.0
 74
     0
 49
-0.5
 74
     0
 49
1.0
 74
     0
 49
-0.5
 74
     0
 49
0.0
 74
     0
 49
-0.5
 74
     0
  0
LTYPE
  5
8F
330
5
100
AcDbSymbolTableRecord
100
AcDbLinetypeTableRecord
  2
CENTER
 70
     0
  3
Center ____ _ ____ _ ____ _ ____ _ ____ _ ____
 72
    65
 73
     4
 40
2.0
 49
1.25
 74
     0
 49
-0.25
 74
     0
 49
0.25
 74
     0
 49
-0.25
 74
     0
  0
LTYPE
  5
90
330
5
100
AcDbSymbolTableRecord
100
AcDbLinetypeTableRecord
  2
CENTER2
 70
     0
  3
Center (.5x) ___ _ ___ _ ___ _ ___ _ ___ _ ___
 72
    65
 73
     4
 40
1.125
 49
0.75
 74
     0
 49
-0.125
 74
     0
 49
0.125
 74
     0
 49
-0.125
 74
     0
  0
LTYPE
  5
91
330
5
100
AcDbSymbolTableRecord
100
AcDbLinetypeTableRecord
  2
CENTERX2
 70
     0
  3
Center (2x) ________  __  ________  __  _____
 72
    65
 73
     4
 40
4.0
 49
2.5
 74
     0
 49
-0.5
 74
     0
 49
0.5
 74
     0
 49
-0.5
 74
     0
  0
LTYPE
  5
92
330
5
100
AcDbSymbolTableRecord
100
AcDbLinetypeTableRecord
  2
DASHDOT2
 70
     0
  3
Dash dot (.5x) _._._._._._._._._._._._._._._.
 72
    65
 73
     4
 40
0.5
 49
0.25
 74
     0
 49
-0.125
 74
     0
 49
0.0
 74
     0
 49
-0.125
 74
     0
  0
LTYPE
  5
93
330
5
100
AcDbSymbolTableRecord
100
AcDbLinetypeTableRecord
  2
DASHDOTX2
 70
     0
  3
Dash dot (2x) ____  .  ____  .  ____  .  ___
 72
    65
 73
     4
 40
2.0
 49
1.0
 74
     0
 49
-0.5
 74
     0
 49
0.0
 74
     0
 49
-0.5
 74
     0
  0
LTYPE
  5
95
330
5
100
AcDbSymbolTableRecord
100
AcDbLinetypeTableRecord
  2
DASHED2
 70
     0
  3
Dashed (.5x) _ _ _ _ _ _ _ _ _ _ _ _ _ _ _ _ _
 72
    65
 73
     2
 40
0.375
 49
0.25
 74
     0
 49
-0.125
 74
     0
  0
LTYPE
  5
96
330
5
100
AcDbSymbolTableRecord
100
AcDbLinetypeTableRecord
  2
DASHEDX2
 70
     0
  3
Dashed (2x) ____  ____  ____  ____  ____  ___
 72
    65
 73
     2
 40
1.5
 49
1.0
 74
     0
 49
-0.5
 74
     0
  0
LTYPE
  5
97
330
5
100
AcDbSymbolTableRecord
100
AcDbLinetypeTableRecord
  2
DIVIDE
 70
     0
  3
Divide ____ . . ____ . . ____ . . ____ . . ____
 72
    65
 73
     6
 40
1.25
 49
0.5
 74
     0
 49
-0.25
 74
     0
 49
0.0
 74
     0
 49
-0.25
 74
     0
 49
0.0
 74
     0
 49
-0.25
 74
     0
  0
LTYPE
  5
98
330
5
100
AcDbSymbolTableRecord
100
AcDbLinetypeTableRecord
  2
DIVIDE2
 70
     0
  3
Divide (.5x) __..__..__..__..__..__..__..__.._
 72
    65
 73
     6
 40
0.625
 49
0.25
 74
     0
 49
-0.125
 74
     0
 49
0.0
 74
     0
 49
-0.125
 74
     0
 49
0.0
 74
     0
 49
-0.125
 74
     0
  0
LTYPE
  5
99
330
5
100
AcDbSymbolTableRecord
100
AcDbLinetypeTableRecord
  2
DIVIDEX2
 70
     0
  3
Divide (2x) ________  .  .  ________  .  .  _
 72
    65
 73
     6
 40
2.5
 49
1.0
 74
     0
 49
-0.5
 74
     0
 49
0.0
 74
     0
 49
-0.5
 74
     0
 49
0.0
 74
     0
 49
-0.5
 74
     0
  0
LTYPE
  5
9A
330
5
100
AcDbSymbolTableRecord
100
AcDbLinetypeTableRecord
  2
DOT
 70
     0
  3
Dot . . . . . . . . . . . . . . . . . . . . . .
 72
    65
 73
     2
 40
0.25
 49
0.0
 74
     0
 49
-0.25
 74
     0
  0
LTYPE
  5
9B
330
5
100
AcDbSymbolTableRecord
100
AcDbLinetypeTableRecord
  2
DOT2
 70
     0
  3
Dot (.5x) .....................................
 72
    65
 73
     2
 40
0.125
 49
0.0
 74
     0
 49
-0.125
 74
     0
  0
LTYPE
  5
9C
330
5
100
AcDbSymbolTableRecord
100
AcDbLinetypeTableRecord
  2
DOTX2
 70
     0
  3
Dot (2x) .  .  .  .  .  .  .  .  .  .  .  .  . 
 72
    65
 73
     2
 40
0.5
 49
0.0
 74
     0
 49
-0.5
 74
     0
  0
LTYPE
  5
9D
330
5
100
AcDbSymbolTableRecord
100
AcDbLinetypeTableRecord
  2
HIDDEN
 70
     0
  3
Hidden __ __ __ __ __ __ __ __ __ __ __ __ __ _
 72
    65
 73
     2
 40
0.375
 49
0.25
 74
     0
 49
-0.125
 74
     0
  0
LTYPE
  5
9E
330
5
100
AcDbSymbolTableRecord
100
AcDbLinetypeTableRecord
  2
HIDDEN2
 70
     0
  3
Hidden (.5x) _ _ _ _ _ _ _ _ _ _ _ _ _ _ _ _ _
 72
    65
 73
     2
 40
0.1875
 49
0.125
 74
     0
 49
-0.0625
 74
     0
  0
LTYPE
  5
9F
330
5
100
AcDbSymbolTableRecord
100
AcDbLinetypeTableRecord
  2
HIDDENX2
 70
     0
  3
Hidden (2x) ____ ____ ____ ____ ____ ____ ____
 72
    65
 73
     2
 40
0.75
 49
0.5
 74
     0
 49
-0.25
 74
     0
  0
LTYPE
  5
A0
330
5
100
AcDbSymbolTableRecord
100
AcDbLinetypeTableRecord
  2
PHANTOM
 70
     0
  3
Phantom ______  __  __  ______  __  __  ______
 72
    65
 73
     6
 40
2.5
 49
1.25
 74
     0
 49
-0.25
 74
     0
 49
0.25
 74
     0
 49
-0.25
 74
     0
 49
0.25
 74
     0
 49
-0.25
 74
     0
  0
LTYPE
  5
A1
330
5
100
AcDbSymbolTableRecord
100
AcDbLinetypeTableRecord
  2
PHANTOM2
 70
     0
  3
Phantom (.5x) ___ _ _ ___ _ _ ___ _ _ ___ _ _
 72
    65
 73
     6
 40
1.25
 49
0.625
 74
     0
 49
-0.125
 74
     0
 49
0.125
 74
     0
 49
-0.125
 74
     0
 49
0.125
 74
     0
 49
-0.125
 74
     0
  0
LTYPE
  5
A2
330
5
100
AcDbSymbolTableRecord
100
AcDbLinetypeTableRecord
  2
PHANTOMX2
 70
     0
  3
Phantom (2x) ____________    ____    ____   _
 72
    65
 73
     6
 40
5.0
 49
2.5
 74
     0
 49
-0.5
 74
     0
 49
0.5
 74
     0
 49
-0.5
 74
     0
 49
0.5
 74
     0
 49
-0.5
 74
     0
  0
LTYPE
  5
A3
330
5
100
AcDbSymbolTableRecord
100
AcDbLinetypeTableRecord
  2
ACAD_ISO02W100
 70
     0
  3
ISO dash __ __ __ __ __ __ __ __ __ __ __ __ __
 72
    65
 73
     2
 40
0.59
 49
0.47
 74
     0
 49
-0.12
 74
     0
  0
LTYPE
  5
A4
330
5
100
AcDbSymbolTableRecord
100
AcDbLinetypeTableRecord
  2
ACAD_ISO03W100
 70
     0
  3
ISO dash space __    __    __    __    __    __
 72
    65
 73
     2
 40
1.179999999999999
 49
0.47
 74
     0
 49
-0.71
 74
     0
  0
LTYPE
  5
A5
330
5
100
AcDbSymbolTableRecord
100
AcDbLinetypeTableRecord
  2
ACAD_ISO04W100
 70
     0
  3
ISO long-dash dot ____ . ____ . ____ . ____ . _
 72
    65
 73
     4
 40
1.179999999999999
 49
0.9399999999999998
 74
     0
 49
-0.12
 74
     0
 49
0.0
 74
     0
 49
-0.12
 74
     0
  0
LTYPE
  5
A6
330
5
100
AcDbSymbolTableRecord
100
AcDbLinetypeTableRecord
  2
ACAD_ISO05W100
 70
     0
  3
ISO long-dash double-dot ____ .. ____ .. ____ .
 72
    65
 73
     6
 40
1.299999999999999
 49
0.9399999999999998
 74
     0
 49
-0.12
 74
     0
 49
0.0
 74
     0
 49
-0.12
 74
     0
 49
0.0
 74
     0
 49
-0.12
 74
     0
  0
LTYPE
  5
A7
330
5
100
AcDbSymbolTableRecord
100
AcDbLinetypeTableRecord
  2
ACAD_ISO06W100
 70
     0
  3
ISO long-dash triple-dot ____ ... ____ ... ____
 72
    65
 73
     8
 40
1.419999999999999
 49
0.9399999999999998
 74
     0
 49
-0.12
 74
     0
 49
0.0
 74
     0
 49
-0.12
 74
     0
 49
0.0
 74
     0
 49
-0.12
 74
     0
 49
0.0
 74
     0
 49
-0.12
 74
     0
  0
LTYPE
  5
A8
330
5
100
AcDbSymbolTableRecord
100
AcDbLinetypeTableRecord
  2
ACAD_ISO07W100
 70
     0
  3
ISO dot . . . . . . . . . . . . . . . . . . . .
 72
    65
 73
     2
 40
0.12
 49
0.0
 74
     0
 49
-0.12
 74
     0
  0
LTYPE
  5
A9
330
5
100
AcDbSymbolTableRecord
100
AcDbLinetypeTableRecord
  2
ACAD_ISO08W100
 70
     0
  3
ISO long-dash short-dash ____ __ ____ __ ____ _
 72
    65
 73
     4
 40
0.95
 49
0.47
 74
     0
 49
-0.12
 74
     0
 49
0.24
 74
     0
 49
-0.12
 74
     0
  0
LTYPE
  5
AA
330
5
100
AcDbSymbolTableRecord
100
AcDbLinetypeTableRecord
  2
ACAD_ISO09W100
 70
     0
  3
ISO long-dash double-short-dash ____ __ __ ____
 72
    65
 73
     6
 40
1.31
 49
0.47
 74
     0
 49
-0.12
 74
     0
 49
0.24
 74
     0
 49
-0.12
 74
     0
 49
0.24
 74
     0
 49
-0.12
 74
     0
  0
LTYPE
  5
AB
330
5
100
AcDbSymbolTableRecord
100
AcDbLinetypeTableRecord
  2
ACAD_ISO10W100
 70
     0
  3
ISO dash dot __ . __ . __ . __ . __ . __ . __ .
 72
    65
 73
     4
 40
0.71
 49
0.47
 74
     0
 49
-0.12
 74
     0
 49
0.0
 74
     0
 49
-0.12
 74
     0
  0
LTYPE
  5
AC
330
5
100
AcDbSymbolTableRecord
100
AcDbLinetypeTableRecord
  2
ACAD_ISO11W100
 70
     0
  3
ISO double-dash dot __ __ . __ __ . __ __ . __ 
 72
    65
 73
     6
 40
1.299999999999999
 49
0.47
 74
     0
 49
-0.12
 74
     0
 49
0.47
 74
     0
 49
-0.12
 74
     0
 49
0.0
 74
     0
 49
-0.12
 74
     0
  0
LTYPE
  5
AD
330
5
100
AcDbSymbolTableRecord
100
AcDbLinetypeTableRecord
  2
ACAD_ISO12W100
 70
     0
  3
ISO dash double-dot __ . . __ . . __ . . __ . .
 72
    65
 73
     6
 40
0.8299999999999998
 49
0.47
 74
     0
 49
-0.12
 74
     0
 49
0.0
 74
     0
 49
-0.12
 74
     0
 49
0.0
 74
     0
 49
-0.12
 74
     0
  0
LTYPE
  5
AE
330
5
100
AcDbSymbolTableRecord
100
AcDbLinetypeTableRecord
  2
ACAD_ISO13W100
 70
     0
  3
ISO double-dash double-dot __ __ . . __ __ . . 
 72
    65
 73
     8
 40
1.419999999999999
 49
0.47
 74
     0
 49
-0.12
 74
     0
 49
0.47
 74
     0
 49
-0.12
 74
     0
 49
0.0
 74
     0
 49
-0.12
 74
     0
 49
0.0
 74
     0
 49
-0.12
 74
     0
  0
LTYPE
  5
AF
330
5
100
AcDbSymbolTableRecord
100
AcDbLinetypeTableRecord
  2
ACAD_ISO14W100
 70
     0
  3
ISO dash triple-dot __ . . . __ . . . __ . . . 
 72
    65
 73
     8
 40
0.95
 49
0.47
 74
     0
 49
-0.12
 74
     0
 49
0.0
 74
     0
 49
-0.12
 74
     0
 49
0.0
 74
     0
 49
-0.12
 74
     0
 49
0.0
 74
     0
 49
-0.12
 74
     0
  0
LTYPE
  5
B0
330
5
100
AcDbSymbolTableRecord
100
AcDbLinetypeTableRecord
  2
ACAD_ISO15W100
 70
     0
  3
ISO double-dash triple-dot __ __ . . . __ __ . 
 72
    65
 73
    10
 40
1.539999999999999
 49
0.47
 74
     0
 49
-0.12
 74
     0
 49
0.47
 74
     0
 49
-0.12
 74
     0
 49
0.0
 74
     0
 49
-0.12
 74
     0
 49
0.0
 74
     0
 49
-0.12
 74
     0
 49
0.0
 74
     0
 49
-0.12
 74
     0
  0
LTYPE
  5
B3
330
5
100
AcDbSymbolTableRecord
100
AcDbLinetypeTableRecord
  2
FENCELINE1
 70
     0
  3
Fenceline circle ----0-----0----0-----0----0---
 72
    65
 73
     4
 40
1.45
 49
0.25
 74
     0
 49
-0.1
 74
     4
 75
   133
340
B2
 46
0.1
 50
0.0
 44
-0.1
 45
0.0
 49
-0.1
 74
     0
 49
1.0
 74
     0
  0
LTYPE
  5
B4
330
5
100
AcDbSymbolTableRecord
100
AcDbLinetypeTableRecord
  2
FENCELINE2
 70
     0
  3
Fenceline square ----[]-----[]----[]-----[]----
 72
    65
 73
     4
 40
1.45
 49
0.25
 74
     0
 49
-0.1
 74
     4
 75
   132
340
B2
 46
0.1
 50
0.0
 44
-0.1
 45
0.0
 49
-0.1
 74
     0
 49
1.0
 74
     0
  0
LTYPE
  5
B5
330
5
100
AcDbSymbolTableRecord
100
AcDbLinetypeTableRecord
  2
TRACKS
 70
     0
  3
Tracks -|-|-|-|-|-|-|-|-|-|-|-|-|-|-|-|-|-|-|-|
 72
    65
 73
     2
 40
0.3
 49
0.15
 74
     4
 75
   130
340
B2
 46
0.25
 50
0.0
 44
0.0
 45
0.0
 49
0.15
 74
     0
  0
LTYPE
  5
B6
330
5
100
AcDbSymbolTableRecord
100
AcDbLinetypeTableRecord
  2
BATTING
 70
     0
  3
Batting SSSSSSSSSSSSSSSSSSSSSSSSSSSSSSSSSSSSSSS
 72
    65
 73
     4
 40
0.4001000000000001
 49
0.0001
 74
     0
 49
-0.1
 74
     4
 75
   134
340
B2
 46
0.1
 50
0.0
 44
-0.1
 45
0.0
 49
-0.2
 74
     4
 75
   134
340
B2
 46
0.1
 50
180.0
 44
0.1
 45
0.0
 49
-0.1
 74
     0
  0
LTYPE
  5
B7
330
5
100
AcDbSymbolTableRecord
100
AcDbLinetypeTableRecord
  2
HOT_WATER_SUPPLY
 70
     0
  3
Hot water supply ---- HW ---- HW ---- HW ----
 72
    65
 73
     3
 40
0.9
 49
0.5
 74
     0
 49
-0.2
 74
     2
 75
     0
340
55
 46
0.1
 50
0.0
 44
-0.1
 45
-0.05
  9
HW
 49
-0.2
 74
     0
  0
LTYPE
  5
B8
330
5
100
AcDbSymbolTableRecord
100
AcDbLinetypeTableRecord
  2
GAS_LINE
 70
     0
  3
Gas line ----GAS----GAS----GAS----GAS----GAS---
 72
    65
 73
     3
 40
0.95
 49
0.5
 74
     0
 49
-0.2
 74
     2
 75
     0
340
55
 46
0.1
 50
0.0
 44
-0.1
 45
-0.05
  9
GAS
 49
-0.25
 74
     0
  0
LTYPE
  5
B9
330
5
100
AcDbSymbolTableRecord
100
AcDbLinetypeTableRecord
  2
ZIGZAG
 70
     0
  3
Zig zag /\/\/\/\/\/\/\/\/\/\/\/\/\/\/\/\/\/\/\/
 72
    65
 73
     4
 40
0.8001000000000001
 49
0.0001
 74
     0
 49
-0.2
 74
     4
 75
   131
340
B2
 46
0.2
 50
0.0
 44
-0.2
 45
0.0
 49
-0.4
 74
     4
 75
   131
340
B2
 46
0.2
 50
180.0
 44
0.2
 45
0.0
 49
-0.2
 74
     0
  0
ENDTAB
  0
TABLE
  2
LAYER
  5
2
330
0
100
AcDbSymbolTable
 70
    27
  0
LAYER
  5
54
330
2
100
AcDbSymbolTableRecord
100
AcDbLayerTableRecord
  2
0
 70
     0
 62
     7
  6
Continuous
370
     0
390
F
  0
LAYER
  5
C0
330
2
100
AcDbSymbolTableRecord
100
AcDbLayerTableRecord
  2
Center Mark (ANSI)
 70
     0
 62
     7
  6
Continuous
370
     5
390
F
  0
LAYER
  5
C1
330
2
100
AcDbSymbolTableRecord
100
AcDbLayerTableRecord
  2
Centerline (ANSI)
 70
     0
 62
     7
  6
Continuous
370
     5
390
F
  0
LAYER
  5
C3
330
2
100
AcDbSymbolTableRecord
100
AcDbLayerTableRecord
  2
Dimension (ANSI)
 70
     0
 62
     7
  6
Continuous
370
     5
390
F
  0
LAYER
  5
CC
330
2
100
AcDbSymbolTableRecord
100
AcDbLayerTableRecord
  2
Symbol (ANSI)
 70
     0
 62
     7
  6
Continuous
370
     5
390
F
  0
LAYER
  5
CF
330
2
100
AcDbSymbolTableRecord
100
AcDbLayerTableRecord
  2
Visible (ANSI)
 70
     0
 62
     7
  6
Continuous
370
     5
390
F
  0
LAYER
  5
D0
330
2
100
AcDbSymbolTableRecord
100
AcDbLayerTableRecord
  2
Visible Narrow (ANSI)
 70
     0
 62
     7
  6
Continuous
370
     5
390
F
  0
LAYER
  5
2B1
330
2
100
AcDbSymbolTableRecord
100
AcDbLayerTableRecord
  2
Defpoints
 70
     0
 62
     7
  6
Continuous
290
     0
370
    -3
390
F
  0
ENDTAB
  0
TABLE
  2
STYLE
  5
3
330
0
100
AcDbSymbolTable
 70
    10
  0
STYLE
  5
55
330
3
100
AcDbSymbolTableRecord
100
AcDbTextStyleTableRecord
  2
Standard
 70
     0
 40
0.0
 41
1.0
 50
0.0
 71
     0
 42
0.2
  3
txt
  4

  0
STYLE
  5
5A
330
3
100
AcDbSymbolTableRecord
100
AcDbTextStyleTableRecord
  2
Annotative
 70
     0
 40
0.0
 41
1.0
 50
0.0
 71
     0
 42
0.2
  3
txt
  4

1001
AcadAnnotative
1000
AnnotativeData
1002
{
1070
     1
1070
     1
1002
}
  0
STYLE
  5
B2
330
3
100
AcDbSymbolTableRecord
100
AcDbTextStyleTableRecord
  2

 70
     1
 40
0.0
 41
1.0
 50
0.0
 71
     0
 42
0.2
  3
ltypeshp.shx
  4

  0
STYLE
  5
D4
330
3
100
AcDbSymbolTableRecord
100
AcDbTextStyleTableRecord
  2
ITALICC_120
 70
     0
 40
0.0
 41
1.0
 50
0.0
 71
     0
 42
0.2
  3
italicc.shx
  4

  0
STYLE
  5
D5
330
3
100
AcDbSymbolTableRecord
100
AcDbTextStyleTableRecord
  2
Label Text (ANSI)
 70
     0
 40
0.0
 41
1.0
 50
0.0
 71
     0
 42
0.2
  3
tahoma.ttf
  4

1001
ACAD
1000
Tahoma
1071
      256
  0
STYLE
  5
D6
330
3
100
AcDbSymbolTableRecord
100
AcDbTextStyleTableRecord
  2
Note Text (ANSI)
 70
     0
 40
0.0
 41
1.0
 50
0.0
 71
     0
 42
0.2
  3
RomanS.shx
  4

  0
STYLE
  5
D7
330
3
100
AcDbSymbolTableRecord
100
AcDbTextStyleTableRecord
  2
ROMANS
 70
     0
 40
0.0
 41
1.0
 50
0.0
 71
     0
 42
0.2
  3
romans.shx
  4

  0
STYLE
  5
D8
330
3
100
AcDbSymbolTableRecord
100
AcDbTextStyleTableRecord
  2
SANSSERIF_114
 70
     0
 40
0.0
 41
1.0
 50
0.0
 71
     0
 42
0.2
  3
tahoma.ttf
  4

1001
ACAD
1000
Tahoma
1071
      256
  0
STYLE
  5
D9
330
3
100
AcDbSymbolTableRecord
100
AcDbTextStyleTableRecord
  2
SANSSERIF_117
 70
     0
 40
0.0
 41
1.0
 50
0.0
 71
     0
 42
0.2
  3
tahoma.ttf
  4

1001
ACAD
1000
Tahoma
1071
      256
  0
STYLE
  5
15E
330
3
100
AcDbSymbolTableRecord
100
AcDbTextStyleTableRecord
  2
Text Style168
 70
     0
 40
0.0
 41
1.0
 50
0.0
 71
     0
 42
0.2
  3
tahoma.ttf
  4

1001
ACAD
1000
Tahoma
1071
      256
  0
ENDTAB
  0
TABLE
  2
VIEW
  5
6
330
0
100
AcDbSymbolTable
 70
     0
  0
ENDTAB
  0
TABLE
  2
UCS
  5
7
330
0
100
AcDbSymbolTable
 70
     0
  0
ENDTAB
  0
TABLE
  2
APPID
  5
9
330
0
100
AcDbSymbolTable
 70
     5
  0
APPID
  5
56
330
9
100
AcDbSymbolTableRecord
100
AcDbRegAppTableRecord
  2
ACAD
 70
     0
  0
APPID
  5
5E
330
9
100
AcDbSymbolTableRecord
100
AcDbRegAppTableRecord
  2
AcadAnnotative
 70
     0
  0
APPID
  5
61B
330
9
100
AcDbSymbolTableRecord
100
AcDbRegAppTableRecord
  2
ACAD_DSTYLE_DIMANGULAR_EXTENSION
 70
     0
  0
APPID
  5
F06
330
9
100
AcDbSymbolTableRecord
100
AcDbRegAppTableRecord
  2
ACAD_DSTYLE_DIMRADIAL_EXTENSION
 70
     0
  0
APPID
  5
15BE
330
9
100
AcDbSymbolTableRecord
100
AcDbRegAppTableRecord
  2
ACAD_MLEADERVER
 70
     0
  0
ENDTAB
  0
TABLE
  2
DIMSTYLE
  5
A
330
0
100
AcDbSymbolTable
 70
    15
100
AcDbDimStyleTable
 71
     2
340
E2
340
58
  0
DIMSTYLE
105
58
330
A
100
AcDbSymbolTableRecord
100
AcDbDimStyleTableRecord
  2
Standard
 70
     0
340
55
  0
DIMSTYLE
105
59
330
A
100
AcDbSymbolTableRecord
100
AcDbDimStyleTableRecord
  2
Annotative
 70
     0
340
55
1001
AcadAnnotative
1000
AnnotativeData
1002
{
1070
     1
1070
     1
1002
}
  0
DIMSTYLE
105
DA
330
A
100
AcDbSymbolTableRecord
100
AcDbDimStyleTableRecord
  2
Architectural (ANSI)
 70
     0
 40
8.0
 41
0.0984251946210861
 43
0.2362204724409449
 44
0.125
 45
0.00000001
 46
0.3937007874015748
 78
     3
 79
     3
140
0.1000000014901161
146
1.200000047683715
147
0.031496062992126
171
     1
176
   256
177
   256
178
   256
272
     2
274
     1
276
     2
277
     4
284
    12
285
     4
286
    12
340
D6
371
    -1
372
    -1
  0
DIMSTYLE
105
DB
330
A
100
AcDbSymbolTableRecord
100
AcDbDimStyleTableRecord
  2
Architectural (ANSI)$7
 70
     0
 40
8.0
 41
0.0984251946210861
 43
0.2362204724409449
 44
0.125
 45
0.00000001
 46
0.3937007874015748
 78
     3
 79
     3
140
0.1000000014901161
146
1.200000047683715
147
0.031496062992126
171
     1
176
   256
177
   256
178
   256
272
     2
274
     1
276
     2
277
     4
284
    12
285
     4
286
    12
340
D6
371
    -1
372
    -1
  0
DIMSTYLE
105
DC
330
A
100
AcDbSymbolTableRecord
100
AcDbDimStyleTableRecord
  2
Default - Fraction (ANSI)
 70
     0
 40
8.0
 41
0.0984251946210861
 43
0.2362204724409449
 44
0.125
 45
0.00000001
 46
0.3937007874015748
 79
     3
140
0.1000000014901161
146
1.200000047683715
147
0.031496062992126
171
     1
176
   256
177
   256
178
   256
272
     2
274
     1
276
     2
277
     5
284
    12
285
     4
286
    12
340
D6
371
    -1
372
    -1
  0
DIMSTYLE
105
DD
330
A
100
AcDbSymbolTableRecord
100
AcDbDimStyleTableRecord
  2
Default - Fraction (ANSI)$7
 70
     0
 40
8.0
 41
0.0984251946210861
 43
0.2362204724409449
 44
0.125
 45
0.00000001
 46
0.3937007874015748
 79
     3
140
0.1000000014901161
146
1.200000047683715
147
0.031496062992126
171
     1
176
   256
177
   256
178
   256
272
     2
274
     1
276
     2
277
     5
284
    12
285
     4
286
    12
340
D6
371
    -1
372
    -1
  0
DIMSTYLE
105
DE
330
A
100
AcDbSymbolTableRecord
100
AcDbDimStyleTableRecord
  2
Default - mm (ANSI)
 70
     0
 40
8.0
 41
0.0984251946210861
 42
0.063
 43
0.2362204724409449
 44
0.125
 45
0.00000001
 46
0.3937007874015748
 73
     0
 78
     4
 79
     1
140
0.1000000014901161
143
1.0
144
25.4
146
1.200000047683715
147
0.031496062992126
171
     1
176
   256
177
   256
178
   256
179
     1
271
     2
272
     2
274
     1
284
     4
285
     4
340
D6
371
    -1
372
    -1
  0
DIMSTYLE
105
DF
330
A
100
AcDbSymbolTableRecord
100
AcDbDimStyleTableRecord
  2
Default - mm (ANSI)$7
 70
     0
 40
8.0
 41
0.0984251946210861
 42
0.063
 43
0.2362204724409449
 44
0.125
 45
0.00000001
 46
0.3937007874015748
 73
     0
 78
     4
 79
     1
140
0.1000000014901161
143
1.0
144
25.4
146
1.200000047683715
147
0.031496062992126
171
     1
176
   256
177
   256
178
   256
179
     1
271
     2
272
     2
274
     1
284
     4
285
     4
340
D6
371
    -1
372
    -1
  0
DIMSTYLE
105
E0
330
A
100
AcDbSymbolTableRecord
100
AcDbDimStyleTableRecord
  2
Default - mm [in] (ANSI)
 70
     0
  4
 in
 40
8.0
 41
0.0984251946210861
 42
0.063
 43
0.25
 44
0.125
 45
0.00000001
 46
0.3937007874015748
 73
     0
 78
     4
 79
     1
140
0.1000000014901161
143
0.03937
144
25.4
146
1.200000047683715
147
0.031496062992126
170
     1
171
     3
176
   256
177
   256
178
   256
179
     1
271
     2
272
     2
274
     3
284
     4
285
     4
286
     4
340
D6
371
    -1
372
    -1
  0
DIMSTYLE
105
E1
330
A
100
AcDbSymbolTableRecord
100
AcDbDimStyleTableRecord
  2
Default - mm [in] (ANSI)$7
 70
     0
  4
 in
 40
8.0
 41
0.0984251946210861
 42
0.063
 43
0.25
 44
0.125
 45
0.00000001
 46
0.3937007874015748
 73
     0
 78
     4
 79
     1
140
0.1000000014901161
143
0.03937
144
25.4
146
1.200000047683715
147
0.031496062992126
170
     1
171
     3
176
   256
177
   256
178
   256
179
     1
271
     2
272
     2
274
     3
284
     4
285
     4
286
     4
340
D6
371
    -1
372
    -1
  0
DIMSTYLE
105
E2
102
{ACAD_REACTORS
330
2AF
330
3B0
330
4AE
330
598
330
6C1
330
7B0
330
8B7
330
9A9
330
A99
330
B99
330
C83
330
D6F
330
E6D
330
F2C
330
1016
330
1100
330
11EA
330
12E8
330
13D2
330
148B
102
}
330
A
100
AcDbSymbolTableRecord
100
AcDbDimStyleTableRecord
  2
Default (ANSI)
 70
     0
 40
8.0
 41
0.0984251946210861
 43
0.2362204724409449
 44
0.125
 45
0.00000001
 46
0.3937007874015748
140
0.1000000014901161
147
0.031496062992126
176
   256
177
   256
178
   256
271
     2
272
     2
340
D7
371
    -1
372
    -1
  0
DIMSTYLE
105
E3
330
A
100
AcDbSymbolTableRecord
100
AcDbDimStyleTableRecord
  2
Default (ANSI)$7
 70
     0
 40
8.0
 41
0.0984251946210861
 43
0.2362204724409449
 44
0.125
 45
0.00000001
 46
0.3937007874015748
140
0.1000000014901161
147
0.031496062992126
176
   256
177
   256
178
   256
271
     2
272
     2
340
D7
371
    -1
372
    -1
  0
DIMSTYLE
105
E4
330
A
100
AcDbSymbolTableRecord
100
AcDbDimStyleTableRecord
  2
Alternate (ANSI)
 70
     0
 40
8.0
 41
0.0979999974370003
340
55
342
E5
  0
DIMSTYLE
105
F7
330
A
100
AcDbSymbolTableRecord
100
AcDbDimStyleTableRecord
  2
Datum (ANSI)
 70
     0
 40
8.0
 41
0.0979999974370003
340
55
342
E5
  0
DIMSTYLE
105
106
330
A
100
AcDbSymbolTableRecord
100
AcDbDimStyleTableRecord
  2
Large (ANSI)
 70
     0
 40
8.0
 41
0.1959999948740005
340
55
342
E5
  0
ENDTAB
  0
TABLE
  2
BLOCK_RECORD
  5
1
330
0
100
AcDbSymbolTable
 70
    24
  0
BLOCK_RECORD
  5
6C
330
1
100
AcDbSymbolTableRecord
100
AcDbBlockTableRecord
  2
*Model_Space
340
6F
  0
BLOCK_RECORD
  5
68
330
1
100
AcDbSymbolTableRecord
100
AcDbBlockTableRecord
  2
*Paper_Space
340
6B
  0
BLOCK_RECORD
  5
70
330
1
100
AcDbSymbolTableRecord
100
AcDbBlockTableRecord
  2
*Paper_Space0
340
73
  0
BLOCK_RECORD
  5
E5
330
1
100
AcDbSymbolTableRecord
100
AcDbBlockTableRecord
  2
_Closed
340
0
  0
BLOCK_RECORD
  5
EC
330
1
100
AcDbSymbolTableRecord
100
AcDbBlockTableRecord
  2
DatumFilled45
340
0
  0
BLOCK_RECORD
  5
F8
330
1
100
AcDbSymbolTableRecord
100
AcDbBlockTableRecord
  2
Filled-1
340
0
  0
BLOCK_RECORD
  5
2B2
330
1
100
AcDbSymbolTableRecord
100
AcDbBlockTableRecord
  2
*D4
340
0
  0
BLOCK_RECORD
  5
3B1
330
1
100
AcDbSymbolTableRecord
100
AcDbBlockTableRecord
  2
*D5
340
0
  0
BLOCK_RECORD
  5
4AF
330
1
100
AcDbSymbolTableRecord
100
AcDbBlockTableRecord
  2
*D6
340
0
  0
BLOCK_RECORD
  5
599
330
1
100
AcDbSymbolTableRecord
100
AcDbBlockTableRecord
  2
*D7
340
0
  0
BLOCK_RECORD
  5
6C2
330
1
100
AcDbSymbolTableRecord
100
AcDbBlockTableRecord
  2
*D8
340
0
  0
BLOCK_RECORD
  5
7B1
330
1
100
AcDbSymbolTableRecord
100
AcDbBlockTableRecord
  2
*D9
340
0
  0
BLOCK_RECORD
  5
8B8
330
1
100
AcDbSymbolTableRecord
100
AcDbBlockTableRecord
  2
*D10
340
0
  0
BLOCK_RECORD
  5
9AA
330
1
100
AcDbSymbolTableRecord
100
AcDbBlockTableRecord
  2
*D11
340
0
  0
BLOCK_RECORD
  5
A9A
330
1
100
AcDbSymbolTableRecord
100
AcDbBlockTableRecord
  2
*D12
340
0
  0
BLOCK_RECORD
  5
B9A
330
1
100
AcDbSymbolTableRecord
100
AcDbBlockTableRecord
  2
*D13
340
0
  0
BLOCK_RECORD
  5
C84
330
1
100
AcDbSymbolTableRecord
100
AcDbBlockTableRecord
  2
*D14
340
0
  0
BLOCK_RECORD
  5
D70
330
1
100
AcDbSymbolTableRecord
100
AcDbBlockTableRecord
  2
*D15
340
0
  0
BLOCK_RECORD
  5
E6E
330
1
100
AcDbSymbolTableRecord
100
AcDbBlockTableRecord
  2
*D16
340
0
  0
BLOCK_RECORD
  5
F2D
330
1
100
AcDbSymbolTableRecord
100
AcDbBlockTableRecord
  2
*D17
340
0
  0
BLOCK_RECORD
  5
1017
330
1
100
AcDbSymbolTableRecord
100
AcDbBlockTableRecord
  2
*D18
340
0
  0
BLOCK_RECORD
  5
1101
330
1
100
AcDbSymbolTableRecord
100
AcDbBlockTableRecord
  2
*D19
340
0
  0
BLOCK_RECORD
  5
11EB
330
1
100
AcDbSymbolTableRecord
100
AcDbBlockTableRecord
  2
*D20
340
0
  0
BLOCK_RECORD
  5
12E9
330
1
100
AcDbSymbolTableRecord
100
AcDbBlockTableRecord
  2
*D21
340
0
  0
BLOCK_RECORD
  5
13D3
330
1
100
AcDbSymbolTableRecord
100
AcDbBlockTableRecord
  2
*D22
340
0
  0
BLOCK_RECORD
  5
148C
330
1
100
AcDbSymbolTableRecord
100
AcDbBlockTableRecord
  2
*D23
340
0
  0
ENDTAB
  0
ENDSEC
  0
SECTION
  2
BLOCKS
  0
BLOCK
  5
6D
330
6C
100
AcDbEntity
  8
0
100
AcDbBlockBegin
  2
*Model_Space
 70
     0
 10
0.0
 20
0.0
 30
0.0
  3
*Model_Space
  1

  0
ENDBLK
  5
6E
330
6C
100
AcDbEntity
  8
0
100
AcDbBlockEnd
  0
BLOCK
  5
69
330
68
100
AcDbEntity
 67
     1
  8
0
100
AcDbBlockBegin
  2
*Paper_Space
 70
     0
 10
0.0
 20
0.0
 30
0.0
  3
*Paper_Space
  1

  0
ENDBLK
  5
6A
330
68
100
AcDbEntity
 67
     1
  8
0
100
AcDbBlockEnd
  0
BLOCK
  5
71
330
70
100
AcDbEntity
 67
     1
  8
0
100
AcDbBlockBegin
  2
*Paper_Space0
 70
     0
 10
0.0
 20
0.0
 30
0.0
  3
*Paper_Space0
  1

  0
ENDBLK
  5
72
330
70
100
AcDbEntity
 67
     1
  8
0
100
AcDbBlockEnd
  0
BLOCK
  5
EA
330
E5
100
AcDbEntity
  8
0
100
AcDbBlockBegin
  2
_Closed
 70
     0
 10
0.0
 20
0.0
 30
0.0
  3
_Closed
  1

  0
LINE
  5
E6
330
E5
100
AcDbEntity
  8
0
  6
ByBlock
 62
     0
370
    -2
100
AcDbLine
 10
-1.0
 20
0.1666666666666666
 30
0.0
 11
0.0
 21
0.0
 31
0.0
  0
LINE
  5
E7
330
E5
100
AcDbEntity
  8
0
  6
ByBlock
 62
     0
370
    -2
100
AcDbLine
 10
0.0
 20
0.0
 30
0.0
 11
-1.0
 21
-0.1666666666666666
 31
0.0
  0
LINE
  5
E8
330
E5
100
AcDbEntity
  8
0
  6
ByBlock
 62
     0
370
    -2
100
AcDbLine
 10
-1.0
 20
0.1666666666666666
 30
0.0
 11
-1.0
 21
-0.1666666666666666
 31
0.0
  0
LINE
  5
E9
330
E5
100
AcDbEntity
  8
0
  6
ByBlock
 62
     0
370
    -2
100
AcDbLine
 10
0.0
 20
0.0
 30
0.0
 11
-1.0
 21
0.0
 31
0.0
  0
ENDBLK
  5
EB
330
E5
100
AcDbEntity
  8
0
100
AcDbBlockEnd
  0
BLOCK
  5
ED
330
EC
100
AcDbEntity
  8
0
100
AcDbBlockBegin
  2
DatumFilled45
 70
     0
 10
0.0
 20
0.0
 30
0.0
  3
DatumFilled45
  1

  0
POLYLINE
  5
EF
330
EC
100
AcDbEntity
  8
0
 62
     0
100
AcDb2dPolyline
 66
     1
 10
0.0
 20
0.0
 30
0.0
 70
   128
  0
VERTEX
  5
F0
330
EF
100
AcDbEntity
  8
0
 62
     0
100
AcDbVertex
100
AcDb2dVertex
 10
0.0
 20
0.9999999999999998
 30
0.0
  0
VERTEX
  5
F1
330
EF
100
AcDbEntity
  8
0
 62
     0
100
AcDbVertex
100
AcDb2dVertex
 10
0.0
 20
-0.9999999999999998
 30
0.0
  0
VERTEX
  5
F3
330
EF
100
AcDbEntity
  8
0
 62
     0
100
AcDbVertex
100
AcDb2dVertex
 10
-0.9999999999999998
 20
0.0
 30
0.0
  0
VERTEX
  5
F4
330
EF
100
AcDbEntity
  8
0
 62
     0
100
AcDbVertex
100
AcDb2dVertex
 10
0.0
 20
0.9999999999999998
 30
0.0
  0
SEQEND
  5
F2
330
EF
100
AcDbEntity
  8
0
 62
     0
  0
SOLID
  5
F6
330
EC
100
AcDbEntity
  8
0
 62
     0
100
AcDbTrace
 10
0.0
 20
0.9999999999999998
 30
0.0
 11
0.0
 21
-0.9999999999999998
 31
0.0
 12
-0.9999999999999998
 22
0.0
 32
0.0
 13
0.0
 23
0.9999999999999998
 33
0.0
  0
ENDBLK
  5
EE
330
EC
100
AcDbEntity
  8
0
100
AcDbBlockEnd
  0
BLOCK
  5
F9
330
F8
100
AcDbEntity
  8
0
100
AcDbBlockBegin
  2
Filled-1
 70
     0
 10
0.0
 20
0.0
 30
0.0
  3
Filled-1
  1

  0
LINE
  5
FB
330
F8
100
AcDbEntity
  8
0
 62
     0
100
AcDbLine
 10
-0.9999999999999998
 20
0.0
 30
0.0
 11
0.0
 21
0.0
 31
0.0
  0
POLYLINE
  5
FC
330
F8
100
AcDbEntity
  8
0
 62
     0
100
AcDb2dPolyline
 66
     1
 10
0.0
 20
0.0
 30
0.0
 70
   128
  0
VERTEX
  5
FD
330
FC
100
AcDbEntity
  8
0
 62
     0
100
AcDbVertex
100
AcDb2dVertex
 10
-0.9999999999999998
 20
-0.0994897959183674
 30
0.0
  0
VERTEX
  5
FE
330
FC
100
AcDbEntity
  8
0
 62
     0
100
AcDbVertex
100
AcDb2dVertex
 10
0.0
 20
0.0
 30
0.0
  0
VERTEX
  5
100
330
FC
100
AcDbEntity
  8
0
 62
     0
100
AcDbVertex
100
AcDb2dVertex
 10
-0.9999999999999998
 20
0.0994897959183674
 30
0.0
  0
VERTEX
  5
101
330
FC
100
AcDbEntity
  8
0
 62
     0
100
AcDbVertex
100
AcDb2dVertex
 10
-0.9999999999999998
 20
-0.0994897959183674
 30
0.0
  0
SEQEND
  5
FF
330
FC
100
AcDbEntity
  8
0
 62
     0
  0
SOLID
  5
102
330
F8
100
AcDbEntity
  8
0
 62
     0
100
AcDbTrace
 10
-0.9999999999999998
 20
-0.0994897959183674
 30
0.0
 11
0.0
 21
0.0
 31
0.0
 12
-0.9999999999999998
 22
0.0994897959183674
 32
0.0
 13
-0.9999999999999998
 23
-0.0994897959183674
 33
0.0
  0
LINE
  5
103
330
F8
100
AcDbEntity
  8
0
 62
     0
100
AcDbLine
 10
-0.9999999999999998
 20
-0.0994897959183674
 30
0.0
 11
0.0
 21
0.0
 31
0.0
  0
LINE
  5
104
330
F8
100
AcDbEntity
  8
0
 62
     0
100
AcDbLine
 10
0.0
 20
0.0
 30
0.0
 11
-0.9999999999999998
 21
0.0994897959183674
 31
0.0
  0
LINE
  5
105
330
F8
100
AcDbEntity
  8
0
 62
     0
100
AcDbLine
 10
-0.9999999999999998
 20
0.0994897959183674
 30
0.0
 11
-0.9999999999999998
 21
-0.0994897959183674
 31
0.0
  0
ENDBLK
  5
FA
330
F8
100
AcDbEntity
  8
0
100
AcDbBlockEnd
  0
BLOCK
  5
2B3
330
2B2
100
AcDbEntity
  8
0
100
AcDbBlockBegin
  2
*D4
 70
     1
 10
0.0
 20
0.0
 30
0.0
  3
*D4
  1

  0
LINE
  5
3A6
330
2B2
100
AcDbEntity
  8
Dimension (ANSI)
440
 16777216
100
AcDbLine
 10
55.10488554606417
 20
60.12656679734638
 30
0.0
 11
49.79980352062435
 21
60.12656679734638
 31
0.0
  0
LINE
  5
3A7
330
2B2
100
AcDbEntity
  8
Dimension (ANSI)
440
 16777216
100
AcDbLine
 10
55.26113554606413
 20
36.12669293854461
 30
0.0
 11
49.79980352062434
 21
36.12669293854461
 31
0.0
  0
LINE
  5
3A8
330
2B2
100
AcDbEntity
  8
Dimension (ANSI)
440
 16777216
100
AcDbLine
 10
50.79980352062435
 20
59.33916524037769
 30
0.0
 11
50.79980352062435
 21
49.44526505444373
 31
0.0
  0
LINE
  5
3A9
330
2B2
100
AcDbEntity
  8
Dimension (ANSI)
440
 16777216
100
AcDbLine
 10
50.79980352062435
 20
36.9140944955133
 30
0.0
 11
50.79980352062435
 21
46.80799468144723
 31
0.0
  0
SOLID
  5
3AA
330
2B2
100
AcDbEntity
  8
Dimension (ANSI)
440
 16777216
100
AcDbTrace
 10
50.66856992779623
 20
59.33916524037769
 30
0.0
 11
50.93103711345246
 21
59.33916524037769
 31
0.0
 12
50.79980352062435
 22
60.12656679734638
 32
0.0
 13
50.79980352062435
 23
60.12656679734638
 33
0.0
  0
SOLID
  5
3AB
330
2B2
100
AcDbEntity
  8
Dimension (ANSI)
440
 16777216
100
AcDbTrace
 10
50.66856992779623
 20
36.9140944955133
 30
0.0
 11
50.93103711345246
 21
36.9140944955133
 31
0.0
 12
50.79980352062435
 22
36.12669293854461
 32
0.0
 13
50.79980352062435
 23
36.12669293854461
 33
0.0
  0
MTEXT
  5
3AC
330
2B2
100
AcDbEntity
  8
Dimension (ANSI)
440
 16777216
100
AcDbMText
 10
50.79980352062434
 20
48.12662986794549
 30
0.0
 40
0.8000000119209289
 41
0.0
 71
     5
 72
     1
  1
\A1;24.00{\PHEIGHT}
  7
ROMANS
 73
     1
 44
1.0
  0
POINT
  5
3AD
330
2B2
100
AcDbEntity
  8
Defpoints
 62
     0
440
 16777216
100
AcDbPoint
 10
55.60488554606417
 20
60.12656679734638
 30
0.0
  0
POINT
  5
3AE
330
2B2
100
AcDbEntity
  8
Defpoints
 62
     0
440
 16777216
100
AcDbPoint
 10
55.76113554606413
 20
36.12669293854461
 30
0.0
  0
POINT
  5
3AF
330
2B2
100
AcDbEntity
  8
Defpoints
 62
     0
440
 16777216
100
AcDbPoint
 10
50.79980352062435
 20
36.12669293854461
 30
0.0
  0
ENDBLK
  5
2B4
330
2B2
100
AcDbEntity
  8
0
100
AcDbBlockEnd
  0
BLOCK
  5
3B2
330
3B1
100
AcDbEntity
  8
0
100
AcDbBlockBegin
  2
*D5
 70
     1
 10
0.0
 20
0.0
 30
0.0
  3
*D5
  1

  0
LINE
  5
4A4
330
3B1
100
AcDbEntity
  8
Dimension (ANSI)
440
 16777216
100
AcDbLine
 10
55.38613554606416
 20
60.40781679734639
 30
0.0
 11
55.38613554606416
 21
64.05742309655898
 31
0.0
  0
LINE
  5
4A5
330
3B1
100
AcDbEntity
  8
Dimension (ANSI)
440
 16777216
100
AcDbLine
 10
63.51113554606407
 20
60.40781679734639
 30
0.0
 11
63.51113554606407
 21
64.05742309655898
 31
0.0
  0
LINE
  5
4A6
330
3B1
100
AcDbEntity
  8
Dimension (ANSI)
440
 16777216
100
AcDbLine
 10
56.17353710303285
 20
63.05742309655898
 30
0.0
 11
57.73286536781911
 21
63.05742309655898
 31
0.0
  0
LINE
  5
4A7
330
3B1
100
AcDbEntity
  8
Dimension (ANSI)
440
 16777216
100
AcDbLine
 10
62.72373398909539
 20
63.05742309655898
 30
0.0
 11
61.47489766203975
 21
63.05742309655898
 31
0.0
  0
SOLID
  5
4A8
330
3B1
100
AcDbEntity
  8
Dimension (ANSI)
440
 16777216
100
AcDbTrace
 10
56.17353710303285
 20
63.1886566893871
 30
0.0
 11
56.17353710303285
 21
62.92618950373086
 31
0.0
 12
55.38613554606416
 22
63.05742309655898
 32
0.0
 13
55.38613554606416
 23
63.05742309655898
 33
0.0
  0
SOLID
  5
4A9
330
3B1
100
AcDbEntity
  8
Dimension (ANSI)
440
 16777216
100
AcDbTrace
 10
62.72373398909539
 20
63.1886566893871
 30
0.0
 11
62.72373398909539
 21
62.92618950373086
 31
0.0
 12
63.51113554606407
 22
63.05742309655898
 32
0.0
 13
63.51113554606407
 23
63.05742309655898
 33
0.0
  0
MTEXT
  5
4AA
330
3B1
100
AcDbEntity
  8
Dimension (ANSI)
440
 16777216
100
AcDbMText
 10
59.60388151492942
 20
63.05742309655898
 30
0.0
 40
0.8000000119209289
 41
0.0
 71
     5
 72
     1
  1
\A1;8.13{\PWIDTH}
  7
ROMANS
 73
     1
 44
1.0
  0
POINT
  5
4AB
330
3B1
100
AcDbEntity
  8
Defpoints
 62
     0
440
 16777216
100
AcDbPoint
 10
55.38613554606416
 20
59.90781679734639
 30
0.0
  0
POINT
  5
4AC
330
3B1
100
AcDbEntity
  8
Defpoints
 62
     0
440
 16777216
100
AcDbPoint
 10
63.51113554606407
 20
59.90781679734639
 30
0.0
  0
POINT
  5
4AD
330
3B1
100
AcDbEntity
  8
Defpoints
 62
     0
440
 16777216
100
AcDbPoint
 10
63.51113554606407
 20
63.05742309655898
 30
0.0
  0
ENDBLK
  5
3B3
330
3B1
100
AcDbEntity
  8
0
100
AcDbBlockEnd
  0
BLOCK
  5
4B0
330
4AF
100
AcDbEntity
  8
0
100
AcDbBlockBegin
  2
*D6
 70
     1
 10
0.0
 20
0.0
 30
0.0
  3
*D6
  1

  0
LINE
  5
58E
330
4AF
100
AcDbEntity
  8
Dimension (ANSI)
440
 16777216
100
AcDbLine
 10
24.37959531505635
 20
60.40781679734639
 30
0.0
 11
24.37959531505635
 21
64.81594935193695
 31
0.0
  0
LINE
  5
58F
330
4AF
100
AcDbEntity
  8
Dimension (ANSI)
440
 16777216
100
AcDbLine
 10
32.37959531505635
 20
60.62656679734637
 30
0.0
 11
32.37959531505635
 21
64.81594935193695
 31
0.0
  0
LINE
  5
590
330
4AF
100
AcDbEntity
  8
Dimension (ANSI)
440
 16777216
100
AcDbLine
 10
25.16699687202504
 20
63.81594935193695
 30
0.0
 11
26.9085791739065
 21
63.81594935193695
 31
0.0
  0
LINE
  5
591
330
4AF
100
AcDbEntity
  8
Dimension (ANSI)
440
 16777216
100
AcDbLine
 10
31.59219375808766
 20
63.81594935193695
 30
0.0
 11
29.8506114562062
 21
63.81594935193695
 31
0.0
  0
SOLID
  5
592
330
4AF
100
AcDbEntity
  8
Dimension (ANSI)
440
 16777216
100
AcDbTrace
 10
25.16699687202504
 20
63.94718294476507
 30
0.0
 11
25.16699687202504
 21
63.68471575910883
 31
0.0
 12
24.37959531505635
 22
63.81594935193695
 32
0.0
 13
24.37959531505635
 23
63.81594935193695
 33
0.0
  0
SOLID
  5
593
330
4AF
100
AcDbEntity
  8
Dimension (ANSI)
440
 16777216
100
AcDbTrace
 10
31.59219375808766
 20
63.94718294476507
 30
0.0
 11
31.59219375808766
 21
63.68471575910883
 31
0.0
 12
32.37959531505635
 22
63.81594935193695
 32
0.0
 13
32.37959531505635
 23
63.81594935193695
 33
0.0
  0
MTEXT
  5
594
330
4AF
100
AcDbEntity
  8
Dimension (ANSI)
440
 16777216
100
AcDbMText
 10
27.1605476778435
 20
64.21594935789741
 30
0.0
 40
0.8000000119209289
 41
0.0
 71
     1
 72
     1
  1
\A1;8.00
  7
ROMANS
 73
     1
 44
1.0
  0
POINT
  5
595
330
4AF
100
AcDbEntity
  8
Defpoints
 62
     0
440
 16777216
100
AcDbPoint
 10
24.37959531505635
 20
59.90781679734639
 30
0.0
  0
POINT
  5
596
330
4AF
100
AcDbEntity
  8
Defpoints
 62
     0
440
 16777216
100
AcDbPoint
 10
32.37959531505635
 20
60.12656679734638
 30
0.0
  0
POINT
  5
597
330
4AF
100
AcDbEntity
  8
Defpoints
 62
     0
440
 16777216
100
AcDbPoint
 10
32.37959531505635
 20
63.81594935193695
 30
0.0
  0
ENDBLK
  5
4B1
330
4AF
100
AcDbEntity
  8
0
100
AcDbBlockEnd
  0
BLOCK
  5
59A
330
599
100
AcDbEntity
  8
0
100
AcDbBlockBegin
  2
*D7
 70
     1
 10
0.0
 20
0.0
 30
0.0
  3
*D7
  1

  0
LINE
  5
6B6
330
599
100
AcDbEntity
  8
Dimension (ANSI)
440
 16777216
100
AcDbLine
 10
33.39799216131121
 20
60.12656679734639
 30
0.0
 11
36.840812889736
 21
60.12656679734645
 31
0.0
  0
LINE
  5
6B7
330
599
100
AcDbEntity
  8
Dimension (ANSI)
440
 16777216
100
AcDbLine
 10
32.48179618803718
 20
61.12304905263469
 30
0.0
 11
32.77031842837482
 21
64.55375881664885
 31
0.0
  0
ARC
  5
6B8
330
599
100
AcDbEntity
  8
Dimension (ANSI)
440
 16777216
100
AcDbCircle
 10
32.39799216131121
 20
60.12656679734636
 30
0.0
 40
3.442820728424796
100
AcDbArc
 50
13.13274765097564
 51
28.49277134936374
  0
ARC
  5
6B9
330
599
100
AcDbEntity
  8
Dimension (ANSI)
440
 16777216
100
AcDbCircle
 10
32.39799216131121
 20
60.12656679734636
 30
0.0
 40
3.442820728424796
100
AcDbArc
 50
58.84698547357556
 51
72.05999708944998
  0
SOLID
  5
6BA
330
599
100
AcDbEntity
  8
Dimension (ANSI)
440
 16777216
100
AcDbTrace
 10
35.88114297457258
 20
60.92381014291937
 30
0.0
 11
35.62039756061179
 21
60.89379593553811
 31
0.0
 12
35.84081288973599
 22
60.12656679734641
 32
0.0
 13
35.84081288973599
 23
60.12656679734641
 33
0.0
  0
SOLID
  5
6BB
330
599
100
AcDbEntity
  8
Dimension (ANSI)
440
 16777216
100
AcDbTrace
 10
33.43257293146429
 20
63.27333970589278
 30
0.0
 11
33.48433307216652
 21
63.53065257261497
 31
0.0
 12
32.68651440164885
 22
63.55727656136052
 32
0.0
 13
32.68651440164885
 23
63.55727656136052
 33
0.0
  0
MTEXT
  5
6BC
330
599
100
AcDbEntity
  8
Dimension (ANSI)
440
 16777216
100
AcDbMText
 10
34.16488366598087
 20
62.82092564841512
 30
0.0
 40
0.8000000119209289
 41
0.0
 71
     1
 72
     1
  1
\A1;85\U+00B0
  7
ROMANS
 73
     1
 44
1.0
  0
POINT
  5
6BD
330
599
100
AcDbEntity
  8
Defpoints
 62
     0
440
 16777216
100
AcDbPoint
 10
32.39799216131121
 20
60.12656679734637
 30
0.0
  0
POINT
  5
6BE
330
599
100
AcDbEntity
  8
Defpoints
 62
     0
440
 16777216
100
AcDbPoint
 10
32.89799216131121
 20
60.12656679734638
 30
0.0
  0
POINT
  5
6BF
330
599
100
AcDbEntity
  8
Defpoints
 62
     0
440
 16777216
100
AcDbPoint
 10
32.4398941746742
 20
60.62480792499052
 30
0.0
  0
POINT
  5
6C0
330
599
100
AcDbEntity
  8
Defpoints
 62
     0
440
 16777216
100
AcDbPoint
 10
34.2833973666661
 20
63.00723716718949
 30
0.0
  0
ENDBLK
  5
59B
330
599
100
AcDbEntity
  8
0
100
AcDbBlockEnd
  0
BLOCK
  5
6C3
330
6C2
100
AcDbEntity
  8
0
100
AcDbBlockBegin
  2
*D8
 70
     1
 10
0.0
 20
0.0
 30
0.0
  3
*D8
  1

  0
LINE
  5
7A8
330
6C2
100
AcDbEntity
  8
Dimension (ANSI)
440
 16777216
100
AcDbLine
 10
61.47373398910121
 20
73.43842343888197
 30
0.0
 11
60.68633243213252
 21
73.43842343888197
 31
0.0
  0
LINE
  5
7A9
330
6C2
100
AcDbEntity
  8
Dimension (ANSI)
440
 16777216
100
AcDbLine
 10
64.29853710303859
 20
73.43842343888197
 30
0.0
 11
65.08593866000729
 21
73.43842343888197
 31
0.0
  0
SOLID
  5
7AA
330
6C2
100
AcDbEntity
  8
Dimension (ANSI)
440
 16777216
100
AcDbTrace
 10
61.47373398910121
 20
73.56965703171008
 30
0.0
 11
61.47373398910121
 21
73.30718984605386
 31
0.0
 12
62.2611355460699
 22
73.43842343888197
 32
0.0
 13
62.2611355460699
 23
73.43842343888197
 33
0.0
  0
SOLID
  5
7AB
330
6C2
100
AcDbEntity
  8
Dimension (ANSI)
440
 16777216
100
AcDbTrace
 10
64.29853710303859
 20
73.56965703171008
 30
0.0
 11
64.29853710303859
 21
73.30718984605386
 31
0.0
 12
63.51113554606991
 22
73.43842343888197
 32
0.0
 13
63.51113554606991
 23
73.43842343888197
 33
0.0
  0
MTEXT
  5
7AC
330
6C2
100
AcDbEntity
  8
Dimension (ANSI)
440
 16777216
100
AcDbMText
 10
67.41409767107242
 20
73.43842343888197
 30
0.0
 40
0.8000000119209289
 41
0.0
 71
     5
 72
     1
  1
\A1;1.25{\P(2 PL.)}
  7
ROMANS
 73
     1
 44
1.0
  0
POINT
  5
7AD
330
6C2
100
AcDbEntity
  8
Defpoints
 62
     0
440
 16777216
100
AcDbPoint
 10
62.2611355460699
 20
71.43939070973876
 30
0.0
  0
POINT
  5
7AE
330
6C2
100
AcDbEntity
  8
Defpoints
 62
     0
440
 16777216
100
AcDbPoint
 10
63.51113554606991
 20
71.41617648933674
 30
0.0
  0
POINT
  5
7AF
330
6C2
100
AcDbEntity
  8
Defpoints
 62
     0
440
 16777216
100
AcDbPoint
 10
63.51113554606991
 20
73.43842343888197
 30
0.0
  0
ENDBLK
  5
6C4
330
6C2
100
AcDbEntity
  8
0
100
AcDbBlockEnd
  0
BLOCK
  5
7B2
330
7B1
100
AcDbEntity
  8
0
100
AcDbBlockBegin
  2
*D9
 70
     1
 10
0.0
 20
0.0
 30
0.0
  3
*D9
  1

  0
LINE
  5
8A3
330
7B1
100
AcDbEntity
  8
Dimension (ANSI)
440
 16777216
100
AcDbLine
 10
62.73903845915784
 20
70.09691965278847
 30
0.0
 11
69.5684910251226
 21
70.09691965278847
 31
0.0
  0
LINE
  5
8A4
330
7B1
100
AcDbEntity
  8
Dimension (ANSI)
440
 16777216
100
AcDbLine
 10
63.79238554606993
 20
68.84691965278853
 30
0.0
 11
69.5684910251226
 21
68.84691965278853
 31
0.0
  0
LINE
  5
8A5
330
7B1
100
AcDbEntity
  8
Dimension (ANSI)
440
 16777216
100
AcDbLine
 10
68.5684910251226
 20
70.88432120975716
 30
0.0
 11
68.5684910251226
 21
71.67172276672585
 31
0.0
  0
LINE
  5
8A6
330
7B1
100
AcDbEntity
  8
Dimension (ANSI)
440
 16777216
100
AcDbLine
 10
68.5684910251226
 20
68.05951809581983
 30
0.0
 11
68.5684910251226
 21
66.68923553546022
 31
0.0
  0
LINE
  5
8A7
330
7B1
100
AcDbEntity
  8
Dimension (ANSI)
440
 16777216
100
AcDbLine
 10
68.5684910251226
 20
66.68923553546022
 30
0.0
 11
67.78108946815391
 21
66.68923553546022
 31
0.0
  0
SOLID
  5
8A8
330
7B1
100
AcDbEntity
  8
Dimension (ANSI)
440
 16777216
100
AcDbTrace
 10
68.43725743229448
 20
70.88432120975716
 30
0.0
 11
68.69972461795071
 21
70.88432120975716
 31
0.0
 12
68.5684910251226
 22
70.09691965278847
 32
0.0
 13
68.5684910251226
 23
70.09691965278847
 33
0.0
  0
SOLID
  5
8A9
330
7B1
100
AcDbEntity
  8
Dimension (ANSI)
440
 16777216
100
AcDbTrace
 10
68.43725743229448
 20
68.05951809581983
 30
0.0
 11
68.69972461795071
 21
68.05951809581983
 31
0.0
 12
68.5684910251226
 22
68.84691965278853
 32
0.0
 13
68.5684910251226
 23
68.84691965278853
 33
0.0
  0
MTEXT
  5
8AA
330
7B1
100
AcDbEntity
  8
Dimension (ANSI)
440
 16777216
100
AcDbMText
 10
65.20531140577991
 20
67.08923554142071
 30
0.0
 40
0.8000000119209289
 41
0.0
 71
     1
 72
     1
  1
\A1;1.25
  7
ROMANS
 73
     1
 44
1.0
  0
POINT
  5
8AB
330
7B1
100
AcDbEntity
  8
Defpoints
 62
     0
440
 16777216
100
AcDbPoint
 10
62.23903845915784
 20
70.09691965278847
 30
0.0
  0
POINT
  5
8AC
330
7B1
100
AcDbEntity
  8
Defpoints
 62
     0
440
 16777216
100
AcDbPoint
 10
63.29238554606993
 20
68.84691965278853
 30
0.0
  0
POINT
  5
8AD
330
7B1
100
AcDbEntity
  8
Defpoints
 62
     0
440
 16777216
100
AcDbPoint
 10
68.5684910251226
 20
68.84691965278853
 30
0.0
  0
ENDBLK
  5
7B3
330
7B1
100
AcDbEntity
  8
0
100
AcDbBlockEnd
  0
BLOCK
  5
8B9
330
8B8
100
AcDbEntity
  8
0
100
AcDbBlockBegin
  2
*D10
 70
     1
 10
0.0
 20
0.0
 30
0.0
  3
*D10
  1

  0
LINE
  5
99F
330
8B8
100
AcDbEntity
  8
Dimension (ANSI)
440
 16777216
100
AcDbLine
 10
55.10488554605776
 20
26.54500623044623
 30
0.0
 11
52.24268082164831
 21
26.54500623044623
 31
0.0
  0
LINE
  5
9A0
330
8B8
100
AcDbEntity
  8
Dimension (ANSI)
440
 16777216
100
AcDbLine
 10
54.29238554605776
 20
24.5450062304463
 30
0.0
 11
52.24268082164831
 21
24.5450062304463
 31
0.0
  0
LINE
  5
9A1
330
8B8
100
AcDbEntity
  8
Dimension (ANSI)
440
 16777216
100
AcDbLine
 10
53.24268082164831
 20
27.33240778741492
 30
0.0
 11
53.24268082164831
 21
28.11980934438361
 31
0.0
  0
LINE
  5
9A2
330
8B8
100
AcDbEntity
  8
Dimension (ANSI)
440
 16777216
100
AcDbLine
 10
53.24268082164831
 20
23.75760467347761
 30
0.0
 11
53.24268082164831
 21
22.97020311650892
 31
0.0
  0
SOLID
  5
9A3
330
8B8
100
AcDbEntity
  8
Dimension (ANSI)
440
 16777216
100
AcDbTrace
 10
53.11144722882019
 20
27.33240778741492
 30
0.0
 11
53.37391441447643
 21
27.33240778741492
 31
0.0
 12
53.24268082164831
 22
26.54500623044623
 32
0.0
 13
53.24268082164831
 23
26.54500623044623
 33
0.0
  0
SOLID
  5
9A4
330
8B8
100
AcDbEntity
  8
Dimension (ANSI)
440
 16777216
100
AcDbTrace
 10
53.11144722882019
 20
23.75760467347761
 30
0.0
 11
53.37391441447643
 21
23.75760467347761
 31
0.0
 12
53.24268082164831
 22
24.5450062304463
 32
0.0
 13
53.24268082164831
 23
24.5450062304463
 33
0.0
  0
MTEXT
  5
9A5
330
8B8
100
AcDbEntity
  8
Dimension (ANSI)
440
 16777216
100
AcDbMText
 10
52.02363318443546
 20
25.94500623640674
 30
0.0
 40
0.8000000119209289
 41
0.0
 71
     1
 72
     1
  1
\A1;2.00
  7
ROMANS
 73
     1
 44
1.0
  0
POINT
  5
9A6
330
8B8
100
AcDbEntity
  8
Defpoints
 62
     0
440
 16777216
100
AcDbPoint
 10
55.60488554605775
 20
26.54500623044623
 30
0.0
  0
POINT
  5
9A7
330
8B8
100
AcDbEntity
  8
Defpoints
 62
     0
440
 16777216
100
AcDbPoint
 10
54.79238554605776
 20
24.5450062304463
 30
0.0
  0
POINT
  5
9A8
330
8B8
100
AcDbEntity
  8
Defpoints
 62
     0
440
 16777216
100
AcDbPoint
 10
53.24268082164831
 20
24.5450062304463
 30
0.0
  0
ENDBLK
  5
8BA
330
8B8
100
AcDbEntity
  8
0
100
AcDbBlockEnd
  0
BLOCK
  5
9AB
330
9AA
100
AcDbEntity
  8
0
100
AcDbBlockBegin
  2
*D11
 70
     1
 10
0.0
 20
0.0
 30
0.0
  3
*D11
  1

  0
LINE
  5
A8F
330
9AA
100
AcDbEntity
  8
Dimension (ANSI)
440
 16777216
100
AcDbLine
 10
55.10488554605776
 20
26.54500623044623
 30
0.0
 11
49.31535678355835
 21
26.54500623044623
 31
0.0
  0
LINE
  5
A90
330
9AA
100
AcDbEntity
  8
Dimension (ANSI)
440
 16777216
100
AcDbLine
 10
54.29238554605776
 20
19.54500623044629
 30
0.0
 11
49.31535678355835
 21
19.54500623044629
 31
0.0
  0
LINE
  5
A91
330
9AA
100
AcDbEntity
  8
Dimension (ANSI)
440
 16777216
100
AcDbLine
 10
50.31535678355835
 20
25.75760467347754
 30
0.0
 11
50.31535678355835
 21
23.69697474034373
 31
0.0
  0
LINE
  5
A92
330
9AA
100
AcDbEntity
  8
Dimension (ANSI)
440
 16777216
100
AcDbLine
 10
50.31535678355835
 20
20.33240778741498
 30
0.0
 11
50.31535678355835
 21
22.39303772054878
 31
0.0
  0
SOLID
  5
A93
330
9AA
100
AcDbEntity
  8
Dimension (ANSI)
440
 16777216
100
AcDbTrace
 10
50.18412319073023
 20
25.75760467347754
 30
0.0
 11
50.44659037638647
 21
25.75760467347754
 31
0.0
 12
50.31535678355835
 22
26.54500623044623
 32
0.0
 13
50.31535678355835
 23
26.54500623044623
 33
0.0
  0
SOLID
  5
A94
330
9AA
100
AcDbEntity
  8
Dimension (ANSI)
440
 16777216
100
AcDbTrace
 10
50.18412319073023
 20
20.33240778741498
 30
0.0
 11
50.44659037638647
 21
20.33240778741498
 31
0.0
 12
50.31535678355835
 22
19.54500623044629
 32
0.0
 13
50.31535678355835
 23
19.54500623044629
 33
0.0
  0
MTEXT
  5
A95
330
9AA
100
AcDbEntity
  8
Dimension (ANSI)
440
 16777216
100
AcDbMText
 10
49.0963091463455
 20
23.44500623640673
 30
0.0
 40
0.8000000119209289
 41
0.0
 71
     1
 72
     1
  1
\A1;7.00
  7
ROMANS
 73
     1
 44
1.0
  0
POINT
  5
A96
330
9AA
100
AcDbEntity
  8
Defpoints
 62
     0
440
 16777216
100
AcDbPoint
 10
55.60488554605775
 20
26.54500623044623
 30
0.0
  0
POINT
  5
A97
330
9AA
100
AcDbEntity
  8
Defpoints
 62
     0
440
 16777216
100
AcDbPoint
 10
54.79238554605776
 20
19.54500623044629
 30
0.0
  0
POINT
  5
A98
330
9AA
100
AcDbEntity
  8
Defpoints
 62
     0
440
 16777216
100
AcDbPoint
 10
50.31535678355835
 20
19.54500623044629
 30
0.0
  0
ENDBLK
  5
9AC
330
9AA
100
AcDbEntity
  8
0
100
AcDbBlockEnd
  0
BLOCK
  5
A9B
330
A9A
100
AcDbEntity
  8
0
100
AcDbBlockBegin
  2
*D12
 70
     1
 10
0.0
 20
0.0
 30
0.0
  3
*D12
  1

  0
LINE
  5
B8E
330
A9A
100
AcDbEntity
  8
Dimension (ANSI)
440
 16777216
100
AcDbLine
 10
63.79238554605776
 20
26.54500623044623
 30
0.0
 11
65.97584132794183
 21
26.54500623044623
 31
0.0
  0
LINE
  5
B8F
330
A9A
100
AcDbEntity
  8
Dimension (ANSI)
440
 16777216
100
AcDbLine
 10
63.04238554605774
 20
25.8575062304463
 30
0.0
 11
65.97584132794183
 21
25.8575062304463
 31
0.0
  0
LINE
  5
B90
330
A9A
100
AcDbEntity
  8
Dimension (ANSI)
440
 16777216
100
AcDbLine
 10
64.97584132794184
 20
25.07010467347761
 30
0.0
 11
64.97584132794184
 21
24.28270311650892
 31
0.0
  0
LINE
  5
B91
330
A9A
100
AcDbEntity
  8
Dimension (ANSI)
440
 16777216
100
AcDbLine
 10
64.97584132794184
 20
27.33240778741492
 30
0.0
 11
64.97584132794184
 21
28.70269034777451
 31
0.0
  0
LINE
  5
B92
330
A9A
100
AcDbEntity
  8
Dimension (ANSI)
440
 16777216
100
AcDbLine
 10
64.97584132794184
 20
28.70269034777451
 30
0.0
 11
65.76324288491052
 21
28.70269034777451
 31
0.0
  0
SOLID
  5
B93
330
A9A
100
AcDbEntity
  8
Dimension (ANSI)
440
 16777216
100
AcDbTrace
 10
64.84460773511372
 20
25.07010467347761
 30
0.0
 11
65.10707492076995
 21
25.07010467347761
 31
0.0
 12
64.97584132794184
 22
25.8575062304463
 32
0.0
 13
64.97584132794184
 23
25.8575062304463
 33
0.0
  0
SOLID
  5
B94
330
A9A
100
AcDbEntity
  8
Dimension (ANSI)
440
 16777216
100
AcDbTrace
 10
64.84460773511372
 20
27.33240778741492
 30
0.0
 11
65.10707492076995
 21
27.33240778741492
 31
0.0
 12
64.97584132794184
 22
26.54500623044623
 32
0.0
 13
64.97584132794184
 23
26.54500623044623
 33
0.0
  0
MTEXT
  5
B95
330
A9A
100
AcDbEntity
  8
Dimension (ANSI)
440
 16777216
100
AcDbMText
 10
66.01521138884753
 20
29.10269035373499
 30
0.0
 40
0.8000000119209289
 41
0.0
 71
     1
 72
     1
  1
\A1;0.69
  7
ROMANS
 73
     1
 44
1.0
  0
POINT
  5
B96
330
A9A
100
AcDbEntity
  8
Defpoints
 62
     0
440
 16777216
100
AcDbPoint
 10
63.29238554605776
 20
26.54500623044623
 30
0.0
  0
POINT
  5
B97
330
A9A
100
AcDbEntity
  8
Defpoints
 62
     0
440
 16777216
100
AcDbPoint
 10
62.54238554605774
 20
25.8575062304463
 30
0.0
  0
POINT
  5
B98
330
A9A
100
AcDbEntity
  8
Defpoints
 62
     0
440
 16777216
100
AcDbPoint
 10
64.97584132794184
 20
25.8575062304463
 30
0.0
  0
ENDBLK
  5
A9C
330
A9A
100
AcDbEntity
  8
0
100
AcDbBlockEnd
  0
BLOCK
  5
B9B
330
B9A
100
AcDbEntity
  8
0
100
AcDbBlockBegin
  2
*D13
 70
     1
 10
0.0
 20
0.0
 30
0.0
  3
*D13
  1

  0
LINE
  5
C79
330
B9A
100
AcDbEntity
  8
Dimension (ANSI)
440
 16777216
100
AcDbLine
 10
63.51113554605774
 20
26.82625623044623
 30
0.0
 11
63.51113554605774
 21
31.70366781267609
 31
0.0
  0
LINE
  5
C7A
330
B9A
100
AcDbEntity
  8
Dimension (ANSI)
440
 16777216
100
AcDbLine
 10
61.26113554605774
 20
27.6387562304463
 30
0.0
 11
61.26113554605774
 21
31.70366781267609
 31
0.0
  0
LINE
  5
C7B
330
B9A
100
AcDbEntity
  8
Dimension (ANSI)
440
 16777216
100
AcDbLine
 10
60.47373398908906
 20
30.70366781267609
 30
0.0
 11
59.68633243212036
 21
30.70366781267609
 31
0.0
  0
LINE
  5
C7C
330
B9A
100
AcDbEntity
  8
Dimension (ANSI)
440
 16777216
100
AcDbLine
 10
64.29853710302643
 20
30.70366781267609
 30
0.0
 11
65.58772842175095
 21
30.70366781267609
 31
0.0
  0
SOLID
  5
C7D
330
B9A
100
AcDbEntity
  8
Dimension (ANSI)
440
 16777216
100
AcDbTrace
 10
60.47373398908906
 20
30.8349014055042
 30
0.0
 11
60.47373398908906
 21
30.57243421984798
 31
0.0
 12
61.26113554605774
 22
30.70366781267609
 32
0.0
 13
61.26113554605774
 23
30.70366781267609
 33
0.0
  0
SOLID
  5
C7E
330
B9A
100
AcDbEntity
  8
Dimension (ANSI)
440
 16777216
100
AcDbTrace
 10
64.29853710302643
 20
30.8349014055042
 30
0.0
 11
64.29853710302643
 21
30.57243421984798
 31
0.0
 12
63.51113554605774
 22
30.70366781267609
 32
0.0
 13
63.51113554605774
 23
30.70366781267609
 33
0.0
  0
MTEXT
  5
C7F
330
B9A
100
AcDbEntity
  8
Dimension (ANSI)
440
 16777216
100
AcDbMText
 10
65.83969692568796
 20
31.10366781863656
 30
0.0
 40
0.8000000119209289
 41
0.0
 71
     1
 72
     1
  1
\A1;2.25
  7
ROMANS
 73
     1
 44
1.0
  0
POINT
  5
C80
330
B9A
100
AcDbEntity
  8
Defpoints
 62
     0
440
 16777216
100
AcDbPoint
 10
63.51113554605774
 20
26.32625623044623
 30
0.0
  0
POINT
  5
C81
330
B9A
100
AcDbEntity
  8
Defpoints
 62
     0
440
 16777216
100
AcDbPoint
 10
61.26113554605774
 20
27.1387562304463
 30
0.0
  0
POINT
  5
C82
330
B9A
100
AcDbEntity
  8
Defpoints
 62
     0
440
 16777216
100
AcDbPoint
 10
61.26113554605774
 20
30.70366781267609
 30
0.0
  0
ENDBLK
  5
B9C
330
B9A
100
AcDbEntity
  8
0
100
AcDbBlockEnd
  0
BLOCK
  5
C85
330
C84
100
AcDbEntity
  8
0
100
AcDbBlockBegin
  2
*D14
 70
     1
 10
0.0
 20
0.0
 30
0.0
  3
*D14
  1

  0
LINE
  5
D63
330
C84
100
AcDbEntity
  8
Dimension (ANSI)
440
 16777216
100
AcDbLine
 10
55.38613554605776
 20
26.82625623044624
 30
0.0
 11
55.38613554605776
 21
31.67735872929565
 31
0.0
  0
LINE
  5
D64
330
C84
100
AcDbEntity
  8
Dimension (ANSI)
440
 16777216
100
AcDbLine
 10
57.63613554605775
 20
27.6387562304463
 30
0.0
 11
57.63613554605775
 21
31.67735872929565
 31
0.0
  0
LINE
  5
D65
330
C84
100
AcDbEntity
  8
Dimension (ANSI)
440
 16777216
100
AcDbLine
 10
58.42353710302645
 20
30.67735872929565
 30
0.0
 11
59.21093865999513
 21
30.67735872929565
 31
0.0
  0
LINE
  5
D66
330
C84
100
AcDbEntity
  8
Dimension (ANSI)
440
 16777216
100
AcDbLine
 10
54.59873398908907
 20
30.67735872929565
 30
0.0
 11
53.26416397147896
 21
30.67735872929565
 31
0.0
  0
SOLID
  5
D67
330
C84
100
AcDbEntity
  8
Dimension (ANSI)
440
 16777216
100
AcDbTrace
 10
58.42353710302645
 20
30.80859232212376
 30
0.0
 11
58.42353710302645
 21
30.54612513646754
 31
0.0
 12
57.63613554605775
 22
30.67735872929565
 32
0.0
 13
57.63613554605775
 23
30.67735872929565
 33
0.0
  0
SOLID
  5
D68
330
C84
100
AcDbEntity
  8
Dimension (ANSI)
440
 16777216
100
AcDbTrace
 10
54.59873398908907
 20
30.80859232212376
 30
0.0
 11
54.59873398908907
 21
30.54612513646754
 31
0.0
 12
55.38613554605776
 22
30.67735872929565
 32
0.0
 13
55.38613554605776
 23
30.67735872929565
 33
0.0
  0
MTEXT
  5
D69
330
C84
100
AcDbEntity
  8
Dimension (ANSI)
440
 16777216
100
AcDbMText
 10
50.57410019311626
 20
31.07735873525611
 30
0.0
 40
0.8000000119209289
 41
0.0
 71
     1
 72
     1
  1
\A1;2.25
  7
ROMANS
 73
     1
 44
1.0
  0
POINT
  5
D6A
330
C84
100
AcDbEntity
  8
Defpoints
 62
     0
440
 16777216
100
AcDbPoint
 10
55.38613554605776
 20
26.32625623044624
 30
0.0
  0
POINT
  5
D6B
330
C84
100
AcDbEntity
  8
Defpoints
 62
     0
440
 16777216
100
AcDbPoint
 10
57.63613554605775
 20
27.1387562304463
 30
0.0
  0
POINT
  5
D6C
330
C84
100
AcDbEntity
  8
Defpoints
 62
     0
440
 16777216
100
AcDbPoint
 10
57.63613554605775
 20
30.67735872929565
 30
0.0
  0
ENDBLK
  5
C86
330
C84
100
AcDbEntity
  8
0
100
AcDbBlockEnd
  0
BLOCK
  5
D71
330
D70
100
AcDbEntity
  8
0
100
AcDbBlockBegin
  2
*D15
 70
     1
 10
0.0
 20
0.0
 30
0.0
  3
*D15
  1

  0
LINE
  5
E63
330
D70
100
AcDbEntity
  8
Dimension (ANSI)
440
 16777216
100
AcDbLine
 10
55.38613554605776
 20
18.04500623044623
 30
0.0
 11
55.38613554605776
 21
15.75847580017458
 31
0.0
  0
LINE
  5
E64
330
D70
100
AcDbEntity
  8
Dimension (ANSI)
440
 16777216
100
AcDbLine
 10
56.07363554605775
 20
17.76375623044629
 30
0.0
 11
56.07363554605775
 21
15.75847580017458
 31
0.0
  0
LINE
  5
E65
330
D70
100
AcDbEntity
  8
Dimension (ANSI)
440
 16777216
100
AcDbLine
 10
56.86103710302645
 20
16.75847580017458
 30
0.0
 11
57.64843865999513
 21
16.75847580017458
 31
0.0
  0
LINE
  5
E66
330
D70
100
AcDbEntity
  8
Dimension (ANSI)
440
 16777216
100
AcDbLine
 10
54.59873398908907
 20
16.75847580017458
 30
0.0
 11
53.81133243212038
 21
16.75847580017458
 31
0.0
  0
SOLID
  5
E67
330
D70
100
AcDbEntity
  8
Dimension (ANSI)
440
 16777216
100
AcDbTrace
 10
56.86103710302645
 20
16.8897093930027
 30
0.0
 11
56.86103710302645
 21
16.62724220734647
 31
0.0
 12
56.07363554605775
 22
16.75847580017458
 32
0.0
 13
56.07363554605775
 23
16.75847580017458
 33
0.0
  0
SOLID
  5
E68
330
D70
100
AcDbEntity
  8
Dimension (ANSI)
440
 16777216
100
AcDbTrace
 10
54.59873398908907
 20
16.8897093930027
 30
0.0
 11
54.59873398908907
 21
16.62724220734647
 31
0.0
 12
55.38613554605776
 22
16.75847580017458
 32
0.0
 13
55.38613554605776
 23
16.75847580017458
 33
0.0
  0
MTEXT
  5
E69
330
D70
100
AcDbEntity
  8
Dimension (ANSI)
440
 16777216
100
AcDbMText
 10
51.48317342105524
 20
16.75847580017458
 30
0.0
 40
0.8000000119209289
 41
0.0
 71
     5
 72
     1
  1
\A1;0.69{\P(2 PL.)}
  7
ROMANS
 73
     1
 44
1.0
  0
POINT
  5
E6A
330
D70
100
AcDbEntity
  8
Defpoints
 62
     0
440
 16777216
100
AcDbPoint
 10
55.38613554605776
 20
18.54500623044623
 30
0.0
  0
POINT
  5
E6B
330
D70
100
AcDbEntity
  8
Defpoints
 62
     0
440
 16777216
100
AcDbPoint
 10
56.07363554605775
 20
18.26375623044629
 30
0.0
  0
POINT
  5
E6C
330
D70
100
AcDbEntity
  8
Defpoints
 62
     0
440
 16777216
100
AcDbPoint
 10
56.07363554605775
 20
16.75847580017458
 30
0.0
  0
ENDBLK
  5
D72
330
D70
100
AcDbEntity
  8
0
100
AcDbBlockEnd
  0
BLOCK
  5
E6F
330
E6E
100
AcDbEntity
  8
0
100
AcDbBlockBegin
  2
*D16
 70
     1
 10
0.0
 20
0.0
 30
0.0
  3
*D16
  1

  0
LINE
  5
F1F
330
E6E
100
AcDbEntity
  8
Dimension (ANSI)
440
 16777216
100
AcDbLine
 10
66.87240419926459
 20
22.24399160124638
 30
0.0
 11
64.93832629153409
 21
22.24399160124638
 31
0.0
  0
LINE
  5
F20
330
E6E
100
AcDbEntity
  8
Dimension (ANSI)
440
 16777216
100
AcDbLine
 10
64.93832629153409
 20
22.24399160124638
 30
0.0
 11
63.4827261046863
 21
20.38620524717078
 31
0.0
  0
MTEXT
  5
F21
102
{ACAD_XDICTIONARY
360
15BF
102
}
330
E6E
100
AcDbEntity
  8
Dimension (ANSI)
440
 16777216
100
AcDbMText
 10
69.20056321032972
 20
22.24399160124639
 30
0.0
 40
0.8000000119209289
 41
0.0
 71
     5
 72
     1
  1
\A1;\U+22050.563{\P(6 PL.)}
  7
ROMANS
 73
     1
 44
1.0
  0
SOLID
  5
F22
330
E6E
100
AcDbEntity
  8
Dimension (ANSI)
440
 16777216
100
AcDbTrace
 10
63.37942436098103
 20
20.46714353004127
 30
0.0
 11
63.5860278483916
 21
20.30526696430029
 31
0.0
 12
62.99709640746335
 22
19.76639478493909
 32
0.0
 13
62.99709640746335
 23
19.76639478493909
 33
0.0
  0
LINE
  5
F23
330
E6E
100
AcDbEntity
  8
Dimension (ANSI)
440
 16777216
100
AcDbLine
 10
62.1036355460577
 20
19.54500623044631
 30
0.0
 11
63.54363554605768
 21
19.54500623044631
 31
0.0
  0
LINE
  5
F24
330
E6E
100
AcDbEntity
  8
Dimension (ANSI)
440
 16777216
100
AcDbLine
 10
62.82363554605769
 20
18.82500623044631
 30
0.0
 11
62.82363554605769
 21
20.26500623044631
 31
0.0
  0
POINT
  5
F25
330
E6E
100
AcDbEntity
  8
Defpoints
 62
     0
440
 16777216
100
AcDbPoint
 10
62.99709640746335
 20
19.76639478493909
 30
0.0
  0
POINT
  5
F26
330
E6E
100
AcDbEntity
  8
Defpoints
 62
     0
440
 16777216
100
AcDbPoint
 10
62.65017468465202
 20
19.32361767595352
 30
0.0
  0
ENDBLK
  5
E70
330
E6E
100
AcDbEntity
  8
0
100
AcDbBlockEnd
  0
BLOCK
  5
F2E
330
F2D
100
AcDbEntity
  8
0
100
AcDbBlockBegin
  2
*D17
 70
     1
 10
0.0
 20
0.0
 30
0.0
  3
*D17
  1

  0
LINE
  5
100C
330
F2D
100
AcDbEntity
  8
Dimension (ANSI)
440
 16777216
100
AcDbLine
 10
55.38613554606993
 20
77.34691965279553
 30
0.0
 11
55.38613554606993
 21
80.02693073957003
 31
0.0
  0
LINE
  5
100D
330
F2D
100
AcDbEntity
  8
Dimension (ANSI)
440
 16777216
100
AcDbLine
 10
57.5111355460699
 20
77.37816965278847
 30
0.0
 11
57.5111355460699
 21
80.02693073957003
 31
0.0
  0
LINE
  5
100E
330
F2D
100
AcDbEntity
  8
Dimension (ANSI)
440
 16777216
100
AcDbLine
 10
58.29853710303859
 20
79.02693073957002
 30
0.0
 11
59.08593866000728
 21
79.02693073957002
 31
0.0
  0
LINE
  5
100F
330
F2D
100
AcDbEntity
  8
Dimension (ANSI)
440
 16777216
100
AcDbLine
 10
54.59873398910125
 20
79.02693073957002
 30
0.0
 11
53.26416397149115
 21
79.02693073957002
 31
0.0
  0
SOLID
  5
1010
330
F2D
100
AcDbEntity
  8
Dimension (ANSI)
440
 16777216
100
AcDbTrace
 10
58.29853710303859
 20
79.15816433239813
 30
0.0
 11
58.29853710303859
 21
78.89569714674191
 31
0.0
 12
57.5111355460699
 22
79.02693073957002
 32
0.0
 13
57.5111355460699
 23
79.02693073957002
 33
0.0
  0
SOLID
  5
1011
330
F2D
100
AcDbEntity
  8
Dimension (ANSI)
440
 16777216
100
AcDbTrace
 10
54.59873398910125
 20
79.15816433239813
 30
0.0
 11
54.59873398910125
 21
78.89569714674191
 31
0.0
 12
55.38613554606993
 22
79.02693073957002
 32
0.0
 13
55.38613554606993
 23
79.02693073957002
 33
0.0
  0
MTEXT
  5
1012
330
F2D
100
AcDbEntity
  8
Dimension (ANSI)
440
 16777216
100
AcDbMText
 10
50.57410019312845
 20
79.42693074553048
 30
0.0
 40
0.8000000119209289
 41
0.0
 71
     1
 72
     1
  1
\A1;2.13
  7
ROMANS
 73
     1
 44
1.0
  0
POINT
  5
1013
330
F2D
100
AcDbEntity
  8
Defpoints
 62
     0
440
 16777216
100
AcDbPoint
 10
55.38613554606993
 20
76.84691965279554
 30
0.0
  0
POINT
  5
1014
330
F2D
100
AcDbEntity
  8
Defpoints
 62
     0
440
 16777216
100
AcDbPoint
 10
57.5111355460699
 20
76.87816965278847
 30
0.0
  0
POINT
  5
1015
330
F2D
100
AcDbEntity
  8
Defpoints
 62
     0
440
 16777216
100
AcDbPoint
 10
57.5111355460699
 20
79.02693073957002
 30
0.0
  0
ENDBLK
  5
F2F
330
F2D
100
AcDbEntity
  8
0
100
AcDbBlockEnd
  0
BLOCK
  5
1018
330
1017
100
AcDbEntity
  8
0
100
AcDbBlockBegin
  2
*D18
 70
     1
 10
0.0
 20
0.0
 30
0.0
  3
*D18
  1

  0
LINE
  5
10F6
330
1017
100
AcDbEntity
  8
Dimension (ANSI)
440
 16777216
100
AcDbLine
 10
55.38613554606993
 20
77.34691965279553
 30
0.0
 11
55.38613554606993
 21
81.76408145446306
 31
0.0
  0
LINE
  5
10F7
330
1017
100
AcDbEntity
  8
Dimension (ANSI)
440
 16777216
100
AcDbLine
 10
59.44863554606989
 20
74.3781696527885
 30
0.0
 11
59.44863554606989
 21
81.76408145446306
 31
0.0
  0
LINE
  5
10F8
330
1017
100
AcDbEntity
  8
Dimension (ANSI)
440
 16777216
100
AcDbLine
 10
58.6612339891012
 20
80.76408145446306
 30
0.0
 11
56.17353710303863
 21
80.76408145446306
 31
0.0
  0
LINE
  5
10F9
330
1017
100
AcDbEntity
  8
Dimension (ANSI)
440
 16777216
100
AcDbLine
 10
55.38613554606993
 20
80.76408145446306
 30
0.0
 11
54.05156554629431
 21
80.76408145446306
 31
0.0
  0
SOLID
  5
10FA
330
1017
100
AcDbEntity
  8
Dimension (ANSI)
440
 16777216
100
AcDbTrace
 10
58.6612339891012
 20
80.89531504729116
 30
0.0
 11
58.6612339891012
 21
80.63284786163494
 31
0.0
 12
59.44863554606989
 22
80.76408145446306
 32
0.0
 13
59.44863554606989
 23
80.76408145446306
 33
0.0
  0
SOLID
  5
10FB
330
1017
100
AcDbEntity
  8
Dimension (ANSI)
440
 16777216
100
AcDbTrace
 10
56.17353710303863
 20
80.89531504729116
 30
0.0
 11
56.17353710303863
 21
80.63284786163494
 31
0.0
 12
55.38613554606993
 22
80.76408145446306
 32
0.0
 13
55.38613554606993
 23
80.76408145446306
 33
0.0
  0
MTEXT
  5
10FC
330
1017
100
AcDbEntity
  8
Dimension (ANSI)
440
 16777216
100
AcDbMText
 10
51.36150176793161
 20
81.16408146042351
 30
0.0
 40
0.8000000119209289
 41
0.0
 71
     1
 72
     1
  1
\A1;4.06
  7
ROMANS
 73
     1
 44
1.0
  0
POINT
  5
10FD
330
1017
100
AcDbEntity
  8
Defpoints
 62
     0
440
 16777216
100
AcDbPoint
 10
55.38613554606993
 20
76.84691965279554
 30
0.0
  0
POINT
  5
10FE
330
1017
100
AcDbEntity
  8
Defpoints
 62
     0
440
 16777216
100
AcDbPoint
 10
59.44863554606989
 20
73.8781696527885
 30
0.0
  0
POINT
  5
10FF
330
1017
100
AcDbEntity
  8
Defpoints
 62
     0
440
 16777216
100
AcDbPoint
 10
59.44863554606989
 20
80.76408145446306
 30
0.0
  0
ENDBLK
  5
1019
330
1017
100
AcDbEntity
  8
0
100
AcDbBlockEnd
  0
BLOCK
  5
1102
330
1101
100
AcDbEntity
  8
0
100
AcDbBlockBegin
  2
*D19
 70
     1
 10
0.0
 20
0.0
 30
0.0
  3
*D19
  1

  0
LINE
  5
11E0
330
1101
100
AcDbEntity
  8
Dimension (ANSI)
440
 16777216
100
AcDbLine
 10
63.51113554606985
 20
77.34691965279552
 30
0.0
 11
63.51113554606985
 21
80.02693073739781
 31
0.0
  0
LINE
  5
11E1
330
1101
100
AcDbEntity
  8
Dimension (ANSI)
440
 16777216
100
AcDbLine
 10
61.3861355460699
 20
77.37816965278847
 30
0.0
 11
61.3861355460699
 21
80.02693073739781
 31
0.0
  0
LINE
  5
11E2
330
1101
100
AcDbEntity
  8
Dimension (ANSI)
440
 16777216
100
AcDbLine
 10
60.59873398910121
 20
79.0269307373978
 30
0.0
 11
59.81133243213252
 21
79.0269307373978
 31
0.0
  0
LINE
  5
11E3
330
1101
100
AcDbEntity
  8
Dimension (ANSI)
440
 16777216
100
AcDbLine
 10
64.29853710303854
 20
79.0269307373978
 30
0.0
 11
65.63310712064865
 21
79.0269307373978
 31
0.0
  0
SOLID
  5
11E4
330
1101
100
AcDbEntity
  8
Dimension (ANSI)
440
 16777216
100
AcDbTrace
 10
60.59873398910121
 20
79.15816433022591
 30
0.0
 11
60.59873398910121
 21
78.89569714456969
 31
0.0
 12
61.3861355460699
 22
79.0269307373978
 32
0.0
 13
61.3861355460699
 23
79.0269307373978
 33
0.0
  0
SOLID
  5
11E5
330
1101
100
AcDbEntity
  8
Dimension (ANSI)
440
 16777216
100
AcDbTrace
 10
64.29853710303854
 20
79.15816433022591
 30
0.0
 11
64.29853710303854
 21
78.89569714456969
 31
0.0
 12
63.51113554606985
 22
79.0269307373978
 32
0.0
 13
63.51113554606985
 23
79.0269307373978
 33
0.0
  0
MTEXT
  5
11E6
330
1101
100
AcDbEntity
  8
Dimension (ANSI)
440
 16777216
100
AcDbMText
 10
65.88507562458565
 20
79.42693074335827
 30
0.0
 40
0.8000000119209289
 41
0.0
 71
     1
 72
     1
  1
\A1;2.13
  7
ROMANS
 73
     1
 44
1.0
  0
POINT
  5
11E7
330
1101
100
AcDbEntity
  8
Defpoints
 62
     0
440
 16777216
100
AcDbPoint
 10
63.51113554606985
 20
76.84691965279552
 30
0.0
  0
POINT
  5
11E8
330
1101
100
AcDbEntity
  8
Defpoints
 62
     0
440
 16777216
100
AcDbPoint
 10
61.3861355460699
 20
76.87816965278847
 30
0.0
  0
POINT
  5
11E9
330
1101
100
AcDbEntity
  8
Defpoints
 62
     0
440
 16777216
100
AcDbPoint
 10
61.3861355460699
 20
79.0269307373978
 30
0.0
  0
ENDBLK
  5
1103
330
1101
100
AcDbEntity
  8
0
100
AcDbBlockEnd
  0
BLOCK
  5
11EC
330
11EB
100
AcDbEntity
  8
0
100
AcDbBlockBegin
  2
*D20
 70
     1
 10
0.0
 20
0.0
 30
0.0
  3
*D20
  1

  0
LINE
  5
12DD
330
11EB
100
AcDbEntity
  8
Dimension (ANSI)
440
 16777216
100
AcDbLine
 10
54.88613554606994
 20
76.84691965279554
 30
0.0
 11
44.91823640020306
 21
76.84691965279554
 31
0.0
  0
LINE
  5
12DE
330
11EB
100
AcDbEntity
  8
Dimension (ANSI)
440
 16777216
100
AcDbLine
 10
55.7298855460699
 20
75.59691965278847
 30
0.0
 11
44.91823640020306
 21
75.59691965278847
 31
0.0
  0
LINE
  5
12DF
330
11EB
100
AcDbEntity
  8
Dimension (ANSI)
440
 16777216
100
AcDbLine
 10
45.91823640020305
 20
74.80951809581978
 30
0.0
 11
45.91823640020305
 21
74.02211653885109
 31
0.0
  0
LINE
  5
12E0
330
11EB
100
AcDbEntity
  8
Dimension (ANSI)
440
 16777216
100
AcDbLine
 10
45.91823640020305
 20
77.63432120976422
 30
0.0
 11
45.91823640020305
 21
79.00460377012379
 31
0.0
  0
LINE
  5
12E1
330
11EB
100
AcDbEntity
  8
Dimension (ANSI)
440
 16777216
100
AcDbLine
 10
45.91823640020305
 20
79.00460377012379
 30
0.0
 11
46.70563795717174
 21
79.00460377012379
 31
0.0
  0
SOLID
  5
12E2
330
11EB
100
AcDbEntity
  8
Dimension (ANSI)
440
 16777216
100
AcDbTrace
 10
45.78700280737494
 20
74.80951809581978
 30
0.0
 11
46.04946999303117
 21
74.80951809581978
 31
0.0
 12
45.91823640020305
 22
75.59691965278847
 32
0.0
 13
45.91823640020305
 23
75.59691965278847
 33
0.0
  0
SOLID
  5
12E3
330
11EB
100
AcDbEntity
  8
Dimension (ANSI)
440
 16777216
100
AcDbTrace
 10
45.78700280737494
 20
77.63432120976422
 30
0.0
 11
46.04946999303117
 21
77.63432120976422
 31
0.0
 12
45.91823640020305
 22
76.84691965279554
 32
0.0
 13
45.91823640020305
 23
76.84691965279554
 33
0.0
  0
MTEXT
  5
12E4
330
11EB
100
AcDbEntity
  8
Dimension (ANSI)
440
 16777216
100
AcDbMText
 10
46.95760646110874
 20
79.40460377608427
 30
0.0
 40
0.8000000119209289
 41
0.0
 71
     1
 72
     1
  1
\A1;1.25
  7
ROMANS
 73
     1
 44
1.0
  0
POINT
  5
12E5
330
11EB
100
AcDbEntity
  8
Defpoints
 62
     0
440
 16777216
100
AcDbPoint
 10
55.38613554606993
 20
76.84691965279554
 30
0.0
  0
POINT
  5
12E6
330
11EB
100
AcDbEntity
  8
Defpoints
 62
     0
440
 16777216
100
AcDbPoint
 10
56.2298855460699
 20
75.59691965278847
 30
0.0
  0
POINT
  5
12E7
330
11EB
100
AcDbEntity
  8
Defpoints
 62
     0
440
 16777216
100
AcDbPoint
 10
45.91823640020305
 20
75.59691965278847
 30
0.0
  0
ENDBLK
  5
11ED
330
11EB
100
AcDbEntity
  8
0
100
AcDbBlockEnd
  0
BLOCK
  5
12EA
330
12E9
100
AcDbEntity
  8
0
100
AcDbBlockBegin
  2
*D21
 70
     1
 10
0.0
 20
0.0
 30
0.0
  3
*D21
  1

  0
LINE
  5
13C8
330
12E9
100
AcDbEntity
  8
Dimension (ANSI)
440
 16777216
100
AcDbLine
 10
54.88613554606994
 20
76.84691965279554
 30
0.0
 11
44.24203486071851
 21
76.84691965279554
 31
0.0
  0
LINE
  5
13C9
330
12E9
100
AcDbEntity
  8
Dimension (ANSI)
440
 16777216
100
AcDbLine
 10
57.66738554606989
 20
72.5969196527885
 30
0.0
 11
44.24203486071851
 21
72.5969196527885
 31
0.0
  0
LINE
  5
13CA
330
12E9
100
AcDbEntity
  8
Dimension (ANSI)
440
 16777216
100
AcDbLine
 10
45.24203486071851
 20
76.05951809582684
 30
0.0
 11
45.24203486071851
 21
75.37388816268947
 31
0.0
  0
LINE
  5
13CB
330
12E9
100
AcDbEntity
  8
Dimension (ANSI)
440
 16777216
100
AcDbLine
 10
45.24203486071851
 20
73.38432120975719
 30
0.0
 11
45.24203486071851
 21
74.06995114289452
 31
0.0
  0
SOLID
  5
13CC
330
12E9
100
AcDbEntity
  8
Dimension (ANSI)
440
 16777216
100
AcDbTrace
 10
45.11080126789039
 20
76.05951809582684
 30
0.0
 11
45.37326845354662
 21
76.05951809582684
 31
0.0
 12
45.24203486071851
 22
76.84691965279554
 32
0.0
 13
45.24203486071851
 23
76.84691965279554
 33
0.0
  0
SOLID
  5
13CD
330
12E9
100
AcDbEntity
  8
Dimension (ANSI)
440
 16777216
100
AcDbTrace
 10
45.11080126789039
 20
73.38432120975719
 30
0.0
 11
45.37326845354662
 21
73.38432120975719
 31
0.0
 12
45.24203486071851
 22
72.5969196527885
 32
0.0
 13
45.24203486071851
 23
72.5969196527885
 33
0.0
  0
MTEXT
  5
13CE
330
12E9
100
AcDbEntity
  8
Dimension (ANSI)
440
 16777216
100
AcDbMText
 10
44.02298722350566
 20
75.12191965875247
 30
0.0
 40
0.8000000119209289
 41
0.0
 71
     1
 72
     1
  1
\A1;4.25
  7
ROMANS
 73
     1
 44
1.0
  0
POINT
  5
13CF
330
12E9
100
AcDbEntity
  8
Defpoints
 62
     0
440
 16777216
100
AcDbPoint
 10
55.38613554606993
 20
76.84691965279554
 30
0.0
  0
POINT
  5
13D0
330
12E9
100
AcDbEntity
  8
Defpoints
 62
     0
440
 16777216
100
AcDbPoint
 10
58.16738554606989
 20
72.5969196527885
 30
0.0
  0
POINT
  5
13D1
330
12E9
100
AcDbEntity
  8
Defpoints
 62
     0
440
 16777216
100
AcDbPoint
 10
45.24203486071851
 20
72.5969196527885
 30
0.0
  0
ENDBLK
  5
12EB
330
12E9
100
AcDbEntity
  8
0
100
AcDbBlockEnd
  0
BLOCK
  5
13D4
330
13D3
100
AcDbEntity
  8
0
100
AcDbBlockBegin
  2
*D22
 70
     1
 10
0.0
 20
0.0
 30
0.0
  3
*D22
  1

  0
LINE
  5
1483
330
13D3
100
AcDbEntity
  8
Dimension (ANSI)
440
 16777216
100
AcDbLine
 10
51.97973216232719
 20
68.19857811996389
 30
0.0
 11
53.11679422588398
 21
68.19857811996389
 31
0.0
  0
LINE
  5
1484
330
13D3
100
AcDbEntity
  8
Dimension (ANSI)
440
 16777216
100
AcDbLine
 10
53.11679422588398
 20
68.19857811996389
 30
0.0
 11
58.57095710650562
 21
71.98725031049253
 31
0.0
  0
MTEXT
  5
1485
102
{ACAD_XDICTIONARY
360
15C1
102
}
330
13D3
100
AcDbEntity
  8
Dimension (ANSI)
440
 16777216
100
AcDbMText
 10
49.65157315126207
 20
68.19857811996389
 30
0.0
 40
0.8000000119209289
 41
0.0
 71
     5
 72
     1
  1
\A1;\U+22050.563{\P(3 PL.)}
  7
ROMANS
 73
     1
 44
1.0
  0
SOLID
  5
1486
330
13D3
100
AcDbEntity
  8
Dimension (ANSI)
440
 16777216
100
AcDbTrace
 10
58.49608789613961
 20
72.09503183593054
 30
0.0
 11
58.64582631687163
 21
71.87946878505451
 31
0.0
 12
59.21764625913371
 22
72.4364655726886
 32
0.0
 13
59.21764625913371
 23
72.4364655726886
 33
0.0
  0
LINE
  5
1487
330
13D3
100
AcDbEntity
  8
Dimension (ANSI)
440
 16777216
100
AcDbLine
 10
58.7286355460699
 20
72.59691965278851
 30
0.0
 11
60.16863554606989
 21
72.59691965278851
 31
0.0
  0
LINE
  5
1488
330
13D3
100
AcDbEntity
  8
Dimension (ANSI)
440
 16777216
100
AcDbLine
 10
59.44863554606989
 20
71.87691965278851
 30
0.0
 11
59.44863554606989
 21
73.31691965278851
 31
0.0
  0
POINT
  5
1489
330
13D3
100
AcDbEntity
  8
Defpoints
 62
     0
440
 16777216
100
AcDbPoint
 10
59.21764625913371
 20
72.4364655726886
 30
0.0
  0
POINT
  5
148A
330
13D3
100
AcDbEntity
  8
Defpoints
 62
     0
440
 16777216
100
AcDbPoint
 10
59.67962483300611
 20
72.75737373288842
 30
0.0
  0
ENDBLK
  5
13D5
330
13D3
100
AcDbEntity
  8
0
100
AcDbBlockEnd
  0
BLOCK
  5
148D
330
148C
100
AcDbEntity
  8
0
100
AcDbBlockBegin
  2
*D23
 70
     1
 10
0.0
 20
0.0
 30
0.0
  3
*D23
  1

  0
LINE
  5
156B
330
148C
100
AcDbEntity
  8
Dimension (ANSI)
440
 16777216
100
AcDbLine
 10
24.37959531505635
 20
35.84531679734639
 30
0.0
 11
24.37959531505635
 21
32.19571049813379
 31
0.0
  0
LINE
  5
156C
330
148C
100
AcDbEntity
  8
Dimension (ANSI)
440
 16777216
100
AcDbLine
 10
32.12959531505639
 20
35.62669293854461
 30
0.0
 11
32.12959531505639
 21
32.19571049813379
 31
0.0
  0
LINE
  5
156D
330
148C
100
AcDbEntity
  8
Dimension (ANSI)
440
 16777216
100
AcDbLine
 10
25.16699687202504
 20
33.19571049813379
 30
0.0
 11
26.78357917390652
 21
33.19571049813379
 31
0.0
  0
LINE
  5
156E
330
148C
100
AcDbEntity
  8
Dimension (ANSI)
440
 16777216
100
AcDbLine
 10
31.34219375808771
 20
33.19571049813379
 30
0.0
 11
29.72561145620622
 21
33.19571049813379
 31
0.0
  0
SOLID
  5
156F
330
148C
100
AcDbEntity
  8
Dimension (ANSI)
440
 16777216
100
AcDbTrace
 10
25.16699687202504
 20
33.32694409096191
 30
0.0
 11
25.16699687202504
 21
33.06447690530568
 31
0.0
 12
24.37959531505635
 22
33.19571049813379
 32
0.0
 13
24.37959531505635
 23
33.19571049813379
 33
0.0
  0
SOLID
  5
1570
330
148C
100
AcDbEntity
  8
Dimension (ANSI)
440
 16777216
100
AcDbTrace
 10
31.34219375808771
 20
33.32694409096191
 30
0.0
 11
31.34219375808771
 21
33.06447690530568
 31
0.0
 12
32.12959531505639
 22
33.19571049813379
 32
0.0
 13
32.12959531505639
 23
33.19571049813379
 33
0.0
  0
MTEXT
  5
1571
330
148C
100
AcDbEntity
  8
Dimension (ANSI)
440
 16777216
100
AcDbMText
 10
27.03554767784353
 20
33.59571050409426
 30
0.0
 40
0.8000000119209289
 41
0.0
 71
     1
 72
     1
  1
\A1;7.75
  7
ROMANS
 73
     1
 44
1.0
  0
POINT
  5
1572
330
148C
100
AcDbEntity
  8
Defpoints
 62
     0
440
 16777216
100
AcDbPoint
 10
24.37959531505635
 20
36.34531679734639
 30
0.0
  0
POINT
  5
1573
330
148C
100
AcDbEntity
  8
Defpoints
 62
     0
440
 16777216
100
AcDbPoint
 10
32.12959531505639
 20
36.12669293854461
 30
0.0
  0
POINT
  5
1574
330
148C
100
AcDbEntity
  8
Defpoints
 62
     0
440
 16777216
100
AcDbPoint
 10
32.12959531505639
 20
33.19571049813379
 30
0.0
  0
ENDBLK
  5
148E
330
148C
100
AcDbEntity
  8
0
100
AcDbBlockEnd
  0
ENDSEC
  0
SECTION
  2
ENTITIES
  0
SPLINE
  5
107
330
6C
100
AcDbEntity
  8
Visible (ANSI)
100
AcDbSpline
210
0.0
220
0.0
230
1.0
 70
     8
 71
     3
 72
    11
 73
     7
 74
     0
 42
0.0000000001
 43
0.0000000001
 40
0.0
 40
0.0
 40
0.0
 40
0.0
 40
0.9120227246349752
 40
0.9120227246349752
 40
0.9120227246349752
 40
1.570796326794895
 40
1.570796326794895
 40
1.570796326794895
 40
1.570796326794895
 10
63.29238554606411
 20
36.12656679734639
 30
0.0
 10
63.35888720306875
 20
36.12656679734639
 30
0.0
 10
63.4246518741736
 20
36.15882376441272
 30
0.0
 10
63.46536070033852
 20
36.2114095215779
 30
0.0
 10
63.49476555980968
 20
36.24939334339975
 30
0.0
 10
63.51113554606411
 20
36.29728122218889
 30
0.0
 10
63.51113554606411
 20
36.34531679734639
 30
0.0
  0
LINE
  5
108
330
6C
100
AcDbEntity
  8
Visible (ANSI)
100
AcDbLine
 10
63.29238554606411
 20
36.25156679734639
 30
0.0
 11
63.29238554606411
 21
36.12656679734639
 31
0.0
  0
LINE
  5
109
330
6C
100
AcDbEntity
  8
Visible (ANSI)
100
AcDbLine
 10
63.43164612126951
 20
36.34531679734639
 30
0.0
 11
63.51113554606411
 21
36.34531679734639
 31
0.0
  0
LINE
  5
10A
330
6C
100
AcDbEntity
  8
Visible (ANSI)
100
AcDbLine
 10
63.38613554606411
 20
36.34531679734639
 30
0.0
 11
63.43164612126951
 21
36.34531679734639
 31
0.0
  0
SPLINE
  5
10B
330
6C
100
AcDbEntity
  8
Visible (ANSI)
100
AcDbSpline
210
0.0
220
0.0
230
1.0
 70
     8
 71
     3
 72
    11
 73
     7
 74
     0
 42
0.0000000001
 43
0.0000000001
 40
0.0
 40
0.0
 40
0.0
 40
0.0
 40
1.127197082403416
 40
1.127197082403416
 40
1.127197082403416
 40
1.570796326794896
 40
1.570796326794896
 40
1.570796326794896
 40
1.570796326794896
 10
63.38613554606411
 20
36.34531679734639
 30
0.0
 10
63.38613554606411
 20
36.31009188852129
 30
0.0
 10
63.3644379878275
 20
36.27575889098291
 30
0.0
 10
63.33262240120084
 20
36.26064060241118
 30
0.0
 10
63.3201016358371
 20
36.2546909228994
 30
0.0
 10
63.30624802245135
 20
36.25156679734639
 30
0.0
 10
63.29238554606411
 20
36.25156679734639
 30
0.0
  0
LINE
  5
10C
330
6C
100
AcDbEntity
  8
Visible Narrow (ANSI)
100
AcDbLine
 10
55.60488554606417
 20
36.34531679734639
 30
0.0
 11
55.63613554606413
 21
36.34531679734639
 31
0.0
  0
LINE
  5
10D
330
6C
100
AcDbEntity
  8
Visible Narrow (ANSI)
100
AcDbLine
 10
63.26113554606414
 20
36.34531679734639
 30
0.0
 11
63.29238554606416
 21
36.34531679734639
 31
0.0
  0
SPLINE
  5
10E
330
6C
100
AcDbEntity
  8
Visible (ANSI)
100
AcDbSpline
210
0.0
220
0.0
230
1.0
 70
     8
 71
     3
 72
    11
 73
     7
 74
     0
 42
0.0000000001
 43
0.0000000001
 40
0.0
 40
0.0
 40
0.0
 40
0.0
 40
0.9120227246349479
 40
0.9120227246349479
 40
0.9120227246349479
 40
1.570796326794896
 40
1.570796326794896
 40
1.570796326794896
 40
1.570796326794896
 10
55.38613554606417
 20
36.34531679734639
 30
0.0
 10
55.38613554606417
 20
36.27881514034176
 30
0.0
 10
55.41839251313049
 20
36.21305046923691
 30
0.0
 10
55.47097827029567
 20
36.17234164307197
 30
0.0
 10
55.50896209211752
 20
36.14293678360083
 30
0.0
 10
55.55684997090668
 20
36.12656679734639
 30
0.0
 10
55.60488554606417
 20
36.12656679734639
 30
0.0
  0
LINE
  5
10F
330
6C
100
AcDbEntity
  8
Visible (ANSI)
100
AcDbLine
 10
55.60488554606417
 20
36.25156679734639
 30
0.0
 11
55.60488554606417
 21
36.12656679734639
 31
0.0
  0
SPLINE
  5
110
330
6C
100
AcDbEntity
  8
Visible (ANSI)
100
AcDbSpline
210
0.0
220
0.0
230
1.0
 70
     8
 71
     3
 72
    11
 73
     7
 74
     0
 42
0.0000000001
 43
0.0000000001
 40
0.0
 40
0.0
 40
0.0
 40
0.0
 40
1.127197082403386
 40
1.127197082403386
 40
1.127197082403386
 40
1.570796326794896
 40
1.570796326794896
 40
1.570796326794896
 40
1.570796326794896
 10
55.51113554606416
 20
36.34531679734639
 30
0.0
 10
55.51113554606416
 20
36.31009188852129
 30
0.0
 10
55.53283310430078
 20
36.27575889098291
 30
0.0
 10
55.56464869092744
 20
36.26064060241118
 30
0.0
 10
55.57716945629119
 20
36.2546909228994
 30
0.0
 10
55.59102306967694
 20
36.25156679734639
 30
0.0
 10
55.60488554606417
 20
36.25156679734639
 30
0.0
  0
LINE
  5
111
330
6C
100
AcDbEntity
  8
Visible (ANSI)
100
AcDbLine
 10
55.46562497085876
 20
36.34531679734639
 30
0.0
 11
55.51113554606416
 21
36.34531679734639
 31
0.0
  0
LINE
  5
112
330
6C
100
AcDbEntity
  8
Visible (ANSI)
100
AcDbLine
 10
55.38613554606417
 20
36.34531679734639
 30
0.0
 11
55.46562497085876
 21
36.34531679734639
 31
0.0
  0
LINE
  5
113
330
6C
100
AcDbEntity
  8
Visible (ANSI)
100
AcDbLine
 10
63.29238554606411
 20
36.25156679734639
 30
0.0
 11
63.26113554606414
 21
36.25156679734639
 31
0.0
  0
LINE
  5
114
330
6C
100
AcDbEntity
  8
Visible (ANSI)
100
AcDbLine
 10
62.2611355460641
 20
36.12656679734639
 30
0.0
 11
63.29238554606411
 21
36.12656679734639
 31
0.0
  0
LINE
  5
115
330
6C
100
AcDbEntity
  8
Visible (ANSI)
100
AcDbLine
 10
62.2611355460641
 20
36.12669293854461
 30
0.0
 11
62.2611355460641
 21
36.12656679734639
 31
0.0
  0
LINE
  5
116
330
6C
100
AcDbEntity
  8
Visible (ANSI)
100
AcDbLine
 10
56.65823263297625
 20
36.12656679734639
 30
0.0
 11
62.23903845915208
 21
36.12656679734639
 31
0.0
  0
LINE
  5
117
330
6C
100
AcDbEntity
  8
Visible (ANSI)
100
AcDbLine
 10
55.60488554606417
 20
36.25156679734639
 30
0.0
 11
55.63613554606413
 21
36.25156679734639
 31
0.0
  0
LINE
  5
118
330
6C
100
AcDbEntity
  8
Visible (ANSI)
100
AcDbLine
 10
55.60488554606417
 20
36.12656679734639
 30
0.0
 11
56.63613554606417
 21
36.12656679734639
 31
0.0
  0
LINE
  5
119
330
6C
100
AcDbEntity
  8
Visible (ANSI)
100
AcDbLine
 10
56.63613554606417
 20
36.12669293854461
 30
0.0
 11
56.63613554606417
 21
36.12656679734639
 31
0.0
  0
LINE
  5
11A
330
6C
100
AcDbEntity
  8
Visible (ANSI)
100
AcDbLine
 10
55.51113554606416
 20
36.34531679734639
 30
0.0
 11
55.60488554606417
 21
36.34531679734639
 31
0.0
  0
LINE
  5
11B
330
6C
100
AcDbEntity
  8
Visible (ANSI)
100
AcDbLine
 10
63.29238554606416
 20
36.34531679734639
 30
0.0
 11
63.38613554606415
 21
36.34531679734639
 31
0.0
  0
SPLINE
  5
11C
330
6C
100
AcDbEntity
  8
Visible (ANSI)
100
AcDbSpline
210
0.0
220
0.0
230
1.0
 70
     8
 71
     3
 72
     8
 73
     4
 74
     0
 42
0.0000000001
 43
0.0000000001
 40
0.0
 40
0.0
 40
0.0
 40
0.0
 40
0.4429110440736536
 40
0.4429110440736536
 40
0.4429110440736536
 40
0.4429110440736536
 10
55.60488554606417
 20
36.34531679734639
 30
0.0
 10
55.60696242127034
 20
36.31302120038269
 30
0.0
 10
55.60903929647652
 20
36.28089941586801
 30
0.0
 10
55.6111161716827
 20
36.25173676795644
 30
0.0
  0
SPLINE
  5
11D
330
6C
100
AcDbEntity
  8
Visible (ANSI)
100
AcDbSpline
210
0.0
220
0.0
230
1.0
 70
     8
 71
     3
 72
     8
 73
     4
 74
     0
 42
0.0000000001
 43
0.0000000001
 40
1.127885282721262
 40
1.127885282721262
 40
1.127885282721262
 40
1.127885282721262
 40
1.570796326794896
 40
1.570796326794896
 40
1.570796326794896
 40
1.570796326794896
 10
63.28615492044564
 20
36.25159532103486
 30
0.0
 10
63.28823179565181
 20
36.28079236559135
 30
0.0
 10
63.29030867085799
 20
36.31302120038269
 30
0.0
 10
63.29238554606416
 20
36.34531679734639
 30
0.0
  0
LINE
  5
11E
330
6C
100
AcDbEntity
  8
Visible (ANSI)
100
AcDbLine
 10
62.23903845915208
 20
36.12656679734639
 30
0.0
 11
62.2611355460641
 21
36.12656679734639
 31
0.0
  0
LINE
  5
11F
330
6C
100
AcDbEntity
  8
Visible (ANSI)
100
AcDbLine
 10
62.23903845915208
 20
36.12669293854461
 30
0.0
 11
62.23903845915208
 21
36.12656679734639
 31
0.0
  0
SPLINE
  5
120
330
6C
100
AcDbEntity
  8
Visible (ANSI)
100
AcDbSpline
210
0.0
220
0.0
230
1.0
 70
     8
 71
     3
 72
    11
 73
     7
 74
     0
 42
0.0000000001
 43
0.0000000001
 40
0.0
 40
0.0
 40
0.0
 40
0.0
 40
1.12719708240338
 40
1.12719708240338
 40
1.12719708240338
 40
1.570796326794896
 40
1.570796326794896
 40
1.570796326794896
 40
1.570796326794896
 10
63.29238554606416
 20
36.34531679734639
 30
0.0
 10
63.28709995270576
 20
36.31009188852129
 30
0.0
 10
63.28181435934737
 20
36.27575889098292
 30
0.0
 10
63.27652876598897
 20
36.26064060241118
 30
0.0
 10
63.27444866371
 20
36.2546909228994
 30
0.0
 10
63.27236856143104
 20
36.25156679734639
 30
0.0
 10
63.27028845915208
 20
36.25156679734639
 30
0.0
  0
SPLINE
  5
121
330
6C
100
AcDbEntity
  8
Visible (ANSI)
100
AcDbSpline
210
0.0
220
0.0
230
1.0
 70
     8
 71
     3
 72
    11
 73
     7
 74
     0
 42
0.0000000001
 43
0.0000000001
 40
0.0
 40
0.0
 40
0.0
 40
0.0
 40
1.127197082403383
 40
1.127197082403383
 40
1.127197082403383
 40
1.570796326794896
 40
1.570796326794896
 40
1.570796326794896
 40
1.570796326794896
 10
55.60488554606417
 20
36.34531679734639
 30
0.0
 10
55.61017113942257
 20
36.31009188852129
 30
0.0
 10
55.61545673278097
 20
36.27575889098292
 30
0.0
 10
55.62074232613936
 20
36.26064060241118
 30
0.0
 10
55.62282242841832
 20
36.2546909228994
 30
0.0
 10
55.62490253069729
 20
36.25156679734639
 30
0.0
 10
55.62698263297625
 20
36.25156679734639
 30
0.0
  0
LINE
  5
122
330
6C
100
AcDbEntity
  8
Visible (ANSI)
100
AcDbLine
 10
56.63613554606417
 20
36.12656679734639
 30
0.0
 11
56.65823263297625
 21
36.12656679734639
 31
0.0
  0
LINE
  5
123
330
6C
100
AcDbEntity
  8
Visible (ANSI)
100
AcDbLine
 10
56.65823263297625
 20
36.12669293854461
 30
0.0
 11
56.65823263297625
 21
36.12656679734639
 31
0.0
  0
LINE
  5
124
330
6C
100
AcDbEntity
  8
Visible (ANSI)
100
AcDbLine
 10
55.38613554606417
 20
36.34531679734639
 30
0.0
 11
55.38613554606416
 21
59.90781679734639
 31
0.0
  0
LINE
  5
125
330
6C
100
AcDbEntity
  8
Visible (ANSI)
100
AcDbLine
 10
63.38613554606411
 20
36.34531679734639
 30
0.0
 11
63.38613554606409
 21
59.90781679734639
 31
0.0
  0
LINE
  5
126
330
6C
100
AcDbEntity
  8
Visible (ANSI)
100
AcDbLine
 10
63.51113554606409
 20
59.90781679734639
 30
0.0
 11
63.51113554606411
 21
36.34531679734639
 31
0.0
  0
LINE
  5
127
330
6C
100
AcDbEntity
  8
Visible (ANSI)
100
AcDbLine
 10
63.38613554606409
 20
59.90781679734639
 30
0.0
 11
63.51113554606409
 21
59.90781679734639
 31
0.0
  0
LINE
  5
128
330
6C
100
AcDbEntity
  8
Visible (ANSI)
100
AcDbLine
 10
55.51113554606416
 20
59.90781679734639
 30
0.0
 11
55.51113554606416
 21
36.34531679734639
 31
0.0
  0
LINE
  5
129
330
6C
100
AcDbEntity
  8
Visible (ANSI)
100
AcDbLine
 10
55.38613554606416
 20
59.90781679734639
 30
0.0
 11
55.51113554606416
 21
59.90781679734639
 31
0.0
  0
LINE
  5
12A
330
6C
100
AcDbEntity
  8
Visible Narrow (ANSI)
100
AcDbLine
 10
55.60488554606417
 20
59.90781679734639
 30
0.0
 11
55.60488554606417
 21
36.34531679734639
 31
0.0
  0
LINE
  5
12B
330
6C
100
AcDbEntity
  8
Visible Narrow (ANSI)
100
AcDbLine
 10
63.29238554606416
 20
36.34531679734639
 30
0.0
 11
63.29238554606416
 21
59.90781679734639
 31
0.0
  0
LINE
  5
12C
330
6C
100
AcDbEntity
  8
Visible (ANSI)
100
AcDbLine
 10
55.60488554606417
 20
59.90781679734638
 30
0.0
 11
55.51113554606416
 21
59.90781679734638
 31
0.0
  0
LINE
  5
12D
330
6C
100
AcDbEntity
  8
Visible (ANSI)
100
AcDbLine
 10
56.13613554606417
 20
60.00156679734636
 30
0.0
 11
55.60488554606417
 21
60.00156679734637
 31
0.0
  0
LINE
  5
12E
330
6C
100
AcDbEntity
  8
Visible (ANSI)
100
AcDbLine
 10
56.13613554606417
 20
60.12656679734636
 30
0.0
 11
55.60488554606417
 21
60.12656679734638
 31
0.0
  0
LINE
  5
12F
330
6C
100
AcDbEntity
  8
Visible (ANSI)
100
AcDbLine
 10
63.29238554606399
 20
60.12656679734634
 30
0.0
 11
62.76113554606388
 21
60.12656679734634
 31
0.0
  0
LINE
  5
130
330
6C
100
AcDbEntity
  8
Visible (ANSI)
100
AcDbLine
 10
62.76113554606388
 20
60.00156679734636
 30
0.0
 11
63.29238554606399
 21
60.00156679734634
 31
0.0
  0
LINE
  5
131
330
6C
100
AcDbEntity
  8
Visible (ANSI)
100
AcDbLine
 10
62.23903845915206
 20
60.00156679734639
 30
0.0
 11
56.65823263297624
 21
60.00156679734639
 31
0.0
  0
LINE
  5
132
330
6C
100
AcDbEntity
  8
Visible (ANSI)
100
AcDbLine
 10
62.23903845915206
 20
60.12656679734639
 30
0.0
 11
56.65823263297624
 21
60.12656679734639
 31
0.0
  0
LINE
  5
133
330
6C
100
AcDbEntity
  8
Visible (ANSI)
100
AcDbLine
 10
63.38613554606415
 20
59.90781679734639
 30
0.0
 11
63.29238554606416
 21
59.90781679734639
 31
0.0
  0
LINE
  5
134
330
6C
100
AcDbEntity
  8
Visible (ANSI)
100
AcDbLine
 10
56.63613554606417
 20
60.12656679734639
 30
0.0
 11
56.13613554606417
 21
60.12656679734636
 31
0.0
  0
LINE
  5
135
330
6C
100
AcDbEntity
  8
Visible (ANSI)
100
AcDbLine
 10
56.13613554606417
 20
60.12656679734636
 30
0.0
 11
56.13613554606417
 21
60.00156679734636
 31
0.0
  0
LINE
  5
136
330
6C
100
AcDbEntity
  8
Visible (ANSI)
100
AcDbLine
 10
56.13613554606417
 20
60.00156679734636
 30
0.0
 11
56.63613554606417
 21
60.00156679734637
 31
0.0
  0
LINE
  5
137
330
6C
100
AcDbEntity
  8
Visible (ANSI)
100
AcDbLine
 10
56.63613554606417
 20
60.00156679734637
 30
0.0
 11
56.63613554606417
 21
60.12656679734639
 31
0.0
  0
LINE
  5
138
330
6C
100
AcDbEntity
  8
Visible (ANSI)
100
AcDbLine
 10
62.76113554606388
 20
60.12656679734634
 30
0.0
 11
62.2611355460639
 21
60.12656679734636
 31
0.0
  0
LINE
  5
139
330
6C
100
AcDbEntity
  8
Visible (ANSI)
100
AcDbLine
 10
62.2611355460639
 20
60.12656679734636
 30
0.0
 11
62.2611355460639
 21
60.00156679734634
 31
0.0
  0
LINE
  5
13A
330
6C
100
AcDbEntity
  8
Visible (ANSI)
100
AcDbLine
 10
62.2611355460639
 20
60.00156679734634
 30
0.0
 11
62.76113554606388
 21
60.00156679734636
 31
0.0
  0
LINE
  5
13B
330
6C
100
AcDbEntity
  8
Visible (ANSI)
100
AcDbLine
 10
62.76113554606388
 20
60.00156679734636
 30
0.0
 11
62.76113554606388
 21
60.12656679734634
 31
0.0
  0
ARC
  5
13C
330
6C
100
AcDbEntity
  8
Visible (ANSI)
100
AcDbCircle
 10
55.60488554606417
 20
59.90781679734639
 30
0.0
 40
0.0937499999999819
100
AcDbArc
 50
89.99999999999316
 51
180.0
  0
ARC
  5
13D
330
6C
100
AcDbEntity
  8
Visible (ANSI)
100
AcDbCircle
 10
55.60488554606417
 20
59.90781679734638
 30
0.0
 40
0.2187499999999912
100
AcDbArc
 50
90.0
 51
180.0
  0
ARC
  5
13E
330
6C
100
AcDbEntity
  8
Visible (ANSI)
100
AcDbCircle
 10
63.29238554606399
 20
59.90781679734639
 30
0.0
 40
0.2187499999999577
100
AcDbArc
 50
0.0
 51
89.99999999999706
  0
ARC
  5
13F
330
6C
100
AcDbEntity
  8
Visible (ANSI)
100
AcDbCircle
 10
63.29238554606399
 20
59.90781679734638
 30
0.0
 40
0.0937499999999623
100
AcDbArc
 50
0.0
 51
90.0
  0
LINE
  5
140
330
6C
100
AcDbEntity
  8
Visible Narrow (ANSI)
100
AcDbLine
 10
63.29238554606416
 20
59.90781679734639
 30
0.0
 11
55.60488554606417
 21
59.90781679734639
 31
0.0
  0
SPLINE
  5
141
330
6C
100
AcDbEntity
  8
Visible (ANSI)
100
AcDbSpline
210
0.0
220
0.0
230
1.0
 70
     8
 71
     3
 72
     8
 73
     4
 74
     0
 42
0.0000000001
 43
0.0000000001
 40
0.0
 40
0.0
 40
0.0
 40
0.0
 40
0.4429110440734165
 40
0.4429110440734165
 40
0.4429110440734165
 40
0.4429110440734165
 10
63.29238554606416
 20
59.90781679734639
 30
0.0
 10
63.29030867085799
 20
59.94011239431006
 30
0.0
 10
63.28823179565181
 20
59.97223417882473
 30
0.0
 10
63.28615492044564
 20
60.00139682673629
 30
0.0
  0
SPLINE
  5
142
330
6C
100
AcDbEntity
  8
Visible (ANSI)
100
AcDbSpline
210
0.0
220
0.0
230
1.0
 70
     8
 71
     3
 72
     8
 73
     4
 74
     0
 42
0.0000000001
 43
0.0000000001
 40
1.127885282721337
 40
1.127885282721337
 40
1.127885282721337
 40
1.127885282721337
 40
1.570796326794894
 40
1.570796326794894
 40
1.570796326794894
 40
1.570796326794894
 10
55.61111617168268
 20
60.00153827365792
 30
0.0
 10
55.60903929647651
 20
59.97234122910142
 30
0.0
 10
55.60696242127033
 20
59.94011239431008
 30
0.0
 10
55.60488554606417
 20
59.90781679734639
 30
0.0
  0
LINE
  5
143
330
6C
100
AcDbEntity
  8
Visible (ANSI)
100
AcDbLine
 10
62.2611355460639
 20
60.00156679734639
 30
0.0
 11
62.23903845915206
 21
60.00156679734639
 31
0.0
  0
LINE
  5
144
330
6C
100
AcDbEntity
  8
Visible (ANSI)
100
AcDbLine
 10
56.63613554606417
 20
60.00156679734639
 30
0.0
 11
56.65823263297624
 21
60.00156679734639
 31
0.0
  0
LINE
  5
145
330
6C
100
AcDbEntity
  8
Visible (ANSI)
100
AcDbLine
 10
56.65823263297624
 20
60.12656679734639
 30
0.0
 11
56.63613554606417
 21
60.12656679734639
 31
0.0
  0
LINE
  5
146
330
6C
100
AcDbEntity
  8
Visible (ANSI)
100
AcDbLine
 10
56.65823263297624
 20
60.00156679734639
 30
0.0
 11
56.65823263297624
 21
60.12656679734639
 31
0.0
  0
SPLINE
  5
147
330
6C
100
AcDbEntity
  8
Visible (ANSI)
100
AcDbSpline
210
0.0
220
0.0
230
1.0
 70
     8
 71
     3
 72
    11
 73
     7
 74
     0
 42
0.0000000001
 43
0.0000000001
 40
0.0
 40
0.0
 40
0.0
 40
0.0
 40
1.12719708240322
 40
1.12719708240322
 40
1.12719708240322
 40
1.570796326794894
 40
1.570796326794894
 40
1.570796326794894
 40
1.570796326794894
 10
55.60488554606417
 20
59.90781679734639
 30
0.0
 10
55.61017113942256
 20
59.94304170617149
 30
0.0
 10
55.61545673278097
 20
59.97737470370985
 30
0.0
 10
55.62074232613935
 20
59.99249299228159
 30
0.0
 10
55.62282242841831
 20
59.99844267179337
 30
0.0
 10
55.62490253069729
 20
60.00156679734639
 30
0.0
 10
55.62698263297624
 20
60.00156679734639
 30
0.0
  0
SPLINE
  5
148
330
6C
100
AcDbEntity
  8
Visible (ANSI)
100
AcDbSpline
210
0.0
220
0.0
230
1.0
 70
     8
 71
     3
 72
    11
 73
     7
 74
     0
 42
0.0000000001
 43
0.0000000001
 40
0.0
 40
0.0
 40
0.0
 40
0.0
 40
1.12719708240322
 40
1.12719708240322
 40
1.12719708240322
 40
1.570796326794894
 40
1.570796326794894
 40
1.570796326794894
 40
1.570796326794894
 10
63.29238554606416
 20
59.90781679734639
 30
0.0
 10
63.28709995270576
 20
59.94304170617149
 30
0.0
 10
63.28181435934737
 20
59.97737470370985
 30
0.0
 10
63.27652876598897
 20
59.99249299228159
 30
0.0
 10
63.27444866371
 20
59.99844267179337
 30
0.0
 10
63.27236856143103
 20
60.00156679734639
 30
0.0
 10
63.27028845915207
 20
60.00156679734639
 30
0.0
  0
LINE
  5
149
330
6C
100
AcDbEntity
  8
Visible (ANSI)
100
AcDbLine
 10
62.2611355460639
 20
60.12656679734639
 30
0.0
 11
62.23903845915206
 21
60.12656679734639
 31
0.0
  0
LINE
  5
14A
330
6C
100
AcDbEntity
  8
Visible (ANSI)
100
AcDbLine
 10
62.23903845915206
 20
60.00156679734639
 30
0.0
 11
62.23903845915206
 21
60.12656679734639
 31
0.0
  0
LINE
  5
14B
330
6C
100
AcDbEntity
  8
Visible (ANSI)
100
AcDbLine
 10
63.13613554606412
 20
36.25169293854461
 30
0.0
 11
63.26113554606412
 21
36.25169293854461
 31
0.0
  0
LINE
  5
14C
330
6C
100
AcDbEntity
  8
Visible Narrow (ANSI)
100
AcDbLine
 10
63.13613554606412
 20
36.25169293854461
 30
0.0
 11
63.13613554606412
 21
36.12669293854461
 31
0.0
  0
LINE
  5
14D
330
6C
100
AcDbEntity
  8
Visible (ANSI)
100
AcDbLine
 10
63.26113554606412
 20
36.12669293854461
 30
0.0
 11
63.13613554606412
 21
36.12669293854461
 31
0.0
  0
LINE
  5
14E
330
6C
100
AcDbEntity
  8
Visible (ANSI)
100
AcDbLine
 10
63.26113554606412
 20
36.12669293854461
 30
0.0
 11
63.26113554606412
 21
36.25169293854461
 31
0.0
  0
LINE
  5
14F
330
6C
100
AcDbEntity
  8
Visible (ANSI)
100
AcDbLine
 10
55.76113554606411
 20
36.12669293854461
 30
0.0
 11
55.63613554606412
 21
36.12669293854461
 31
0.0
  0
LINE
  5
150
330
6C
100
AcDbEntity
  8
Visible (ANSI)
100
AcDbLine
 10
55.63613554606412
 20
36.25169293854461
 30
0.0
 11
55.76113554606411
 21
36.25169293854461
 31
0.0
  0
LINE
  5
151
330
6C
100
AcDbEntity
  8
Visible (ANSI)
100
AcDbLine
 10
55.63613554606412
 20
36.25169293854461
 30
0.0
 11
55.63613554606412
 21
36.12669293854461
 31
0.0
  0
LINE
  5
152
330
6C
100
AcDbEntity
  8
Visible Narrow (ANSI)
100
AcDbLine
 10
55.76113554606411
 20
36.12669293854461
 30
0.0
 11
55.76113554606411
 21
36.25169293854461
 31
0.0
  0
LINE
  5
153
330
6C
100
AcDbEntity
  8
Visible (ANSI)
100
AcDbLine
 10
63.26113554606412
 20
36.37656679734641
 30
0.0
 11
63.26113554606412
 21
36.31249640573097
 31
0.0
  0
LINE
  5
154
330
6C
100
AcDbEntity
  8
Visible (ANSI)
100
AcDbLine
 10
55.63613554606412
 20
36.37656679734641
 30
0.0
 11
55.63613554606412
 21
36.31249640573096
 31
0.0
  0
LINE
  5
155
330
6C
100
AcDbEntity
  8
Visible (ANSI)
100
AcDbLine
 10
63.26113554606412
 20
36.37656679734641
 30
0.0
 11
55.63613554606412
 21
36.37656679734641
 31
0.0
  0
LINE
  5
156
330
6C
100
AcDbEntity
  8
Visible Narrow (ANSI)
100
AcDbLine
 10
63.26113554606412
 20
36.31249640573096
 30
0.0
 11
55.63613554606412
 21
36.31249640573096
 31
0.0
  0
LINE
  5
157
330
6C
100
AcDbEntity
  8
Visible (ANSI)
100
AcDbLine
 10
63.26113554606412
 20
36.27915167780837
 30
0.0
 11
63.26113554606412
 21
36.31249640573096
 31
0.0
  0
LINE
  5
158
330
6C
100
AcDbEntity
  8
Visible (ANSI)
100
AcDbLine
 10
55.63613554606412
 20
36.31249640573096
 30
0.0
 11
55.63613554606412
 21
36.27915167780837
 31
0.0
  0
LINE
  5
159
330
6C
100
AcDbEntity
  8
Visible (ANSI)
100
AcDbLine
 10
63.26113554606412
 20
36.25169293854461
 30
0.0
 11
63.26113554606412
 21
36.27915167780837
 31
0.0
  0
LINE
  5
15A
330
6C
100
AcDbEntity
  8
Visible (ANSI)
100
AcDbLine
 10
55.63613554606412
 20
36.25169293854461
 30
0.0
 11
55.63613554606412
 21
36.27915167780837
 31
0.0
  0
LINE
  5
15B
330
6C
100
AcDbEntity
  8
Visible Narrow (ANSI)
100
AcDbLine
 10
63.26113554606412
 20
36.27915167780837
 30
0.0
 11
55.63613554606412
 21
36.27915167780837
 31
0.0
  0
LINE
  5
15C
330
6C
100
AcDbEntity
  8
Visible (ANSI)
100
AcDbLine
 10
55.76113554606411
 20
36.12669293854461
 30
0.0
 11
63.13613554606412
 21
36.12669293854461
 31
0.0
  0
LINE
  5
15D
330
6C
100
AcDbEntity
  8
Visible (ANSI)
100
AcDbLine
 10
63.13613554606412
 20
36.25169293854461
 30
0.0
 11
55.76113554606411
 21
36.25169293854461
 31
0.0
  0
MTEXT
  5
15F
330
6C
100
AcDbEntity
  8
Symbol (ANSI)
100
AcDbMText
 10
55.5585186408014
 20
33.39696423126813
 30
0.0
 40
0.9600000118646095
 41
0.0
 71
     7
 72
     1
  1
FRONT VIEW
  7
Text Style168
 73
     1
 44
1.0
  0
LINE
  5
161
330
6C
100
AcDbEntity
  8
Symbol (ANSI)
370
    30
100
AcDbLine
 10
55.46251839385431
 20
33.201191132269
 30
0.0
 11
63.18063842813972
 21
33.201191132269
 31
0.0
  0
SPLINE
  5
162
330
6C
100
AcDbEntity
  8
Visible (ANSI)
100
AcDbSpline
210
0.0
220
0.0
230
1.0
 70
     8
 71
     3
 72
    11
 73
     7
 74
     0
 42
0.0000000001
 43
0.0000000001
 40
0.0
 40
0.0
 40
0.0
 40
0.0
 40
0.9120227246349516
 40
0.9120227246349516
 40
0.9120227246349516
 40
1.570796326794896
 40
1.570796326794896
 40
1.570796326794896
 40
1.570796326794896
 10
24.37959531505635
 20
36.34531679734639
 30
0.0
 10
24.37959531505635
 20
36.27881514034176
 30
0.0
 10
24.41185228212268
 20
36.21305046923692
 30
0.0
 10
24.46443803928785
 20
36.17234164307197
 30
0.0
 10
24.50242186110969
 20
36.14293678360083
 30
0.0
 10
24.55030973989885
 20
36.12656679734639
 30
0.0
 10
24.59834531505635
 20
36.12656679734639
 30
0.0
  0
LINE
  5
163
330
6C
100
AcDbEntity
  8
Visible (ANSI)
100
AcDbLine
 10
24.59834531505635
 20
36.25156679734639
 30
0.0
 11
24.60457594067488
 21
36.25156679734639
 31
0.0
  0
LINE
  5
164
330
6C
100
AcDbEntity
  8
Visible (ANSI)
100
AcDbLine
 10
24.59834531505635
 20
36.25156679734639
 30
0.0
 11
24.59834531505635
 21
36.12656679734639
 31
0.0
  0
SPLINE
  5
165
330
6C
100
AcDbEntity
  8
Visible (ANSI)
100
AcDbSpline
210
0.0
220
0.0
230
1.0
 70
     8
 71
     3
 72
    11
 73
     7
 74
     0
 42
0.0000000001
 43
0.0000000001
 40
0.0
 40
0.0
 40
0.0
 40
0.0
 40
1.127197082403383
 40
1.127197082403383
 40
1.127197082403383
 40
1.570796326794896
 40
1.570796326794896
 40
1.570796326794896
 40
1.570796326794896
 10
24.50459531505635
 20
36.34531679734639
 30
0.0
 10
24.50459531505635
 20
36.31009188852129
 30
0.0
 10
24.52629287329296
 20
36.27575889098292
 30
0.0
 10
24.55810845991962
 20
36.26064060241118
 30
0.0
 10
24.57062922528336
 20
36.2546909228994
 30
0.0
 10
24.58448283866911
 20
36.25156679734639
 30
0.0
 10
24.59834531505635
 20
36.25156679734639
 30
0.0
  0
LINE
  5
166
330
6C
100
AcDbEntity
  8
Visible (ANSI)
100
AcDbLine
 10
24.59834531505635
 20
36.12656679734639
 30
0.0
 11
24.62044240196844
 21
36.12656679734639
 31
0.0
  0
SPLINE
  5
167
330
6C
100
AcDbEntity
  8
Visible (ANSI)
100
AcDbSpline
210
0.0
220
0.0
230
1.0
 70
     8
 71
     3
 72
    11
 73
     7
 74
     0
 42
0.0000000001
 43
0.0000000001
 40
0.0
 40
0.0
 40
0.0
 40
0.0
 40
0.912022724634949
 40
0.912022724634949
 40
0.912022724634949
 40
1.570796326794896
 40
1.570796326794896
 40
1.570796326794896
 40
1.570796326794896
 10
24.62044240196842
 20
36.12656679734639
 30
0.0
 10
24.6161657929075
 20
36.12656679734639
 30
0.0
 10
24.61188918384657
 20
36.15882376441272
 30
0.0
 10
24.60761257478564
 20
36.21140952157789
 30
0.0
 10
24.60452348820918
 20
36.24939334339974
 30
0.0
 10
24.60143440163273
 20
36.29728122218889
 30
0.0
 10
24.59834531505628
 20
36.34531679734639
 30
0.0
  0
LINE
  5
168
330
6C
100
AcDbEntity
  8
Visible (ANSI)
100
AcDbLine
 10
30.37959531505628
 20
36.12656679734639
 30
0.0
 11
24.62044240196842
 21
36.12656679734639
 31
0.0
  0
SPLINE
  5
169
330
6C
100
AcDbEntity
  8
Visible (ANSI)
100
AcDbSpline
210
0.0
220
0.0
230
1.0
 70
     8
 71
     3
 72
    11
 73
     7
 74
     0
 42
0.0000000001
 43
0.0000000001
 40
0.0
 40
0.0
 40
0.0
 40
0.0
 40
0.9120227246349479
 40
0.9120227246349479
 40
0.9120227246349479
 40
1.570796326794896
 40
1.570796326794896
 40
1.570796326794896
 40
1.570796326794896
 10
30.39799216131115
 20
36.34531679734639
 30
0.0
 10
30.39443168658889
 20
36.27881514034176
 30
0.0
 10
30.39087121186664
 20
36.21305046923691
 30
0.0
 10
30.38731073714439
 20
36.17234164307197
 30
0.0
 10
30.38473892978169
 20
36.14293678360083
 30
0.0
 10
30.38216712241899
 20
36.12656679734639
 30
0.0
 10
30.37959531505628
 20
36.12656679734639
 30
0.0
  0
LINE
  5
16A
330
6C
100
AcDbEntity
  8
Visible Narrow (ANSI)
100
AcDbLine
 10
24.59834531505628
 20
36.34531679734639
 30
0.0
 11
30.39799216131115
 21
36.34531679734639
 31
0.0
  0
LINE
  5
16B
330
6C
100
AcDbEntity
  8
Visible (ANSI)
100
AcDbLine
 10
24.59834531505628
 20
36.34531679734639
 30
0.0
 11
24.37959531505635
 21
36.34531679734639
 31
0.0
  0
LINE
  5
16C
330
6C
100
AcDbEntity
  8
Visible (ANSI)
100
AcDbLine
 10
30.39799216131115
 20
36.34531679734639
 30
0.0
 11
32.37959531505629
 21
59.90781679734639
 31
0.0
  0
LINE
  5
16D
330
6C
100
AcDbEntity
  8
Visible Narrow (ANSI)
100
AcDbLine
 10
32.37959531505629
 20
59.90781679734639
 30
0.0
 11
24.59834531505628
 21
59.90781679734639
 31
0.0
  0
LINE
  5
16E
330
6C
100
AcDbEntity
  8
Visible (ANSI)
100
AcDbLine
 10
32.37959531505629
 20
59.90781679734638
 30
0.0
 11
32.37959531505635
 21
60.12656679734636
 31
0.0
  0
LINE
  5
16F
330
6C
100
AcDbEntity
  8
Visible (ANSI)
100
AcDbLine
 10
24.62044240196842
 20
60.12656679734639
 30
0.0
 11
32.37959531505635
 21
60.12656679734638
 31
0.0
  0
LINE
  5
170
330
6C
100
AcDbEntity
  8
Visible Narrow (ANSI)
100
AcDbLine
 10
24.59834531505628
 20
59.90781679734639
 30
0.0
 11
24.59834531505628
 21
36.34531679734639
 31
0.0
  0
LINE
  5
171
330
6C
100
AcDbEntity
  8
Visible (ANSI)
100
AcDbLine
 10
24.37959531505635
 20
36.34531679734639
 30
0.0
 11
24.37959531505635
 21
59.90781679734639
 31
0.0
  0
SPLINE
  5
172
330
6C
100
AcDbEntity
  8
Visible (ANSI)
100
AcDbSpline
210
0.0
220
0.0
230
1.0
 70
     8
 71
     3
 72
    11
 73
     7
 74
     0
 42
0.0000000001
 43
0.0000000001
 40
0.0
 40
0.0
 40
0.0
 40
0.0
 40
0.9120227246349079
 40
0.9120227246349079
 40
0.9120227246349079
 40
1.570796326794894
 40
1.570796326794894
 40
1.570796326794894
 40
1.570796326794894
 10
24.59834531505635
 20
60.12656679734639
 30
0.0
 10
24.53184365805172
 20
60.12656679734639
 30
0.0
 10
24.46607898694688
 20
60.09430983028006
 30
0.0
 10
24.42537016078194
 20
60.04172407311489
 30
0.0
 10
24.39596530131078
 20
60.00374025129304
 30
0.0
 10
24.37959531505635
 20
59.95585237250389
 30
0.0
 10
24.37959531505635
 20
59.90781679734639
 30
0.0
  0
LINE
  5
173
330
6C
100
AcDbEntity
  8
Visible (ANSI)
100
AcDbLine
 10
24.59834531505635
 20
60.00156679734639
 30
0.0
 11
24.60457594067488
 21
60.00156679734639
 31
0.0
  0
LINE
  5
174
330
6C
100
AcDbEntity
  8
Visible (ANSI)
100
AcDbLine
 10
24.62044240196844
 20
60.12656679734639
 30
0.0
 11
24.59834531505635
 21
60.12656679734639
 31
0.0
  0
LINE
  5
175
330
6C
100
AcDbEntity
  8
Visible (ANSI)
100
AcDbLine
 10
24.59834531505635
 20
60.00156679734639
 30
0.0
 11
24.59834531505635
 21
60.12656679734639
 31
0.0
  0
SPLINE
  5
176
330
6C
100
AcDbEntity
  8
Visible (ANSI)
100
AcDbSpline
210
0.0
220
0.0
230
1.0
 70
     8
 71
     3
 72
    11
 73
     7
 74
     0
 42
0.0000000001
 43
0.0000000001
 40
0.0
 40
0.0
 40
0.0
 40
0.0
 40
1.12719708240322
 40
1.12719708240322
 40
1.12719708240322
 40
1.570796326794894
 40
1.570796326794894
 40
1.570796326794894
 40
1.570796326794894
 10
24.50459531505635
 20
59.90781679734639
 30
0.0
 10
24.50459531505635
 20
59.94304170617149
 30
0.0
 10
24.52629287329295
 20
59.97737470370985
 30
0.0
 10
24.55810845991961
 20
59.99249299228159
 30
0.0
 10
24.57062922528335
 20
59.99844267179337
 30
0.0
 10
24.58448283866911
 20
60.00156679734639
 30
0.0
 10
24.59834531505635
 20
60.00156679734639
 30
0.0
  0
SPLINE
  5
177
330
6C
100
AcDbEntity
  8
Visible (ANSI)
100
AcDbSpline
210
0.0
220
0.0
230
1.0
 70
     8
 71
     3
 72
    11
 73
     7
 74
     0
 42
0.0000000001
 43
0.0000000001
 40
0.0
 40
0.0
 40
0.0
 40
0.0
 40
0.9120227246350466
 40
0.9120227246350466
 40
0.9120227246350466
 40
1.570796326794894
 40
1.570796326794894
 40
1.570796326794894
 40
1.570796326794894
 10
24.59834531505628
 20
59.90781679734639
 30
0.0
 10
24.60262192411719
 20
59.97431845435102
 30
0.0
 10
24.60689853317811
 20
60.04008312545589
 30
0.0
 10
24.61117514223904
 20
60.08079195162082
 30
0.0
 10
24.6142642288155
 20
60.11019681109195
 30
0.0
 10
24.61735331539196
 20
60.12656679734639
 30
0.0
 10
24.62044240196842
 20
60.12656679734639
 30
0.0
  0
LINE
  5
178
330
6C
100
AcDbEntity
  8
Visible (ANSI)
100
AcDbLine
 10
24.37959531505635
 20
59.90781679734638
 30
0.0
 11
24.59834531505628
 21
59.90781679734638
 31
0.0
  0
LINE
  5
179
330
6C
100
AcDbEntity
  8
Visible (ANSI)
100
AcDbLine
 10
32.12959531505639
 20
36.12669293854461
 30
0.0
 11
32.00459531505635
 21
36.12669293854461
 31
0.0
  0
LINE
  5
17A
330
6C
100
AcDbEntity
  8
Visible (ANSI)
100
AcDbLine
 10
32.00459531505635
 20
36.25169293854461
 30
0.0
 11
32.12959531505639
 21
36.25169293854461
 31
0.0
  0
LINE
  5
17B
330
6C
100
AcDbEntity
  8
Visible Narrow (ANSI)
100
AcDbLine
 10
32.00459531505636
 20
36.25169293854461
 30
0.0
 11
32.00459531505636
 21
36.12669293854461
 31
0.0
  0
LINE
  5
17C
330
6C
100
AcDbEntity
  8
Visible (ANSI)
100
AcDbLine
 10
32.12959531505639
 20
36.12669293854461
 30
0.0
 11
32.12959531505639
 21
36.25169293854461
 31
0.0
  0
LINE
  5
17D
330
6C
100
AcDbEntity
  8
Visible (ANSI)
100
AcDbLine
 10
30.62970453182547
 20
36.12669293854461
 30
0.0
 11
32.00459531505636
 21
36.12669293854461
 31
0.0
  0
LINE
  5
17E
330
6C
100
AcDbEntity
  8
Visible (ANSI)
100
AcDbLine
 10
32.00459531505636
 20
36.25169293854461
 30
0.0
 11
30.62970453182547
 21
36.25169293854461
 31
0.0
  0
ARC
  5
17F
330
6C
100
AcDbEntity
  8
Visible (ANSI)
100
AcDbCircle
 10
30.62970453182547
 20
36.34544293854461
 30
0.0
 40
0.0937500000000009
100
AcDbArc
 50
225.0
 51
270.0
  0
ARC
  5
180
330
6C
100
AcDbEntity
  8
Visible (ANSI)
100
AcDbCircle
 10
30.62970453182547
 20
36.3454429385446
 30
0.0
 40
0.21875
100
AcDbArc
 50
225.0
 51
270.0
  0
LINE
  5
181
330
6C
100
AcDbEntity
  8
Visible (ANSI)
100
AcDbLine
 10
30.53006854316663
 20
36.31249640573096
 30
0.0
 11
30.56341327108923
 21
36.27915167780837
 31
0.0
  0
LINE
  5
182
330
6C
100
AcDbEntity
  8
Visible (ANSI)
100
AcDbLine
 10
30.47502492344091
 20
36.19076333016005
 30
0.0
 11
30.44168019551832
 21
36.22410805808264
 31
0.0
  0
ARC
  5
183
330
6C
100
AcDbEntity
  8
Visible (ANSI)
100
AcDbCircle
 10
30.37538893478208
 20
36.1578167973464
 30
0.0
 40
0.2187500000000014
100
AcDbArc
 50
44.99999999999999
 51
83.4086367133406
  0
ARC
  5
184
330
6C
100
AcDbEntity
  8
Visible (ANSI)
100
AcDbCircle
 10
30.37538893478208
 20
36.1578167973464
 30
0.0
 40
0.0937500000000027
100
AcDbArc
 50
44.99999999999999
 51
79.35355953300171
  0
MTEXT
  5
185
330
6C
100
AcDbEntity
  8
Symbol (ANSI)
100
AcDbMText
 10
24.74394484260407
 20
30.36100127795379
 30
0.0
 40
0.9600000118646095
 41
0.0
 71
     7
 72
     1
  1
LEFT VIEW
  7
Text Style168
 73
     1
 44
1.0
  0
LINE
  5
186
330
6C
100
AcDbEntity
  8
Symbol (ANSI)
370
    30
100
AcDbLine
 10
24.64794459565698
 20
30.14500127528425
 30
0.0
 11
31.12833353738427
 21
30.14500127528425
 31
0.0
  0
LINE
  5
187
330
6C
100
AcDbEntity
  8
Visible (ANSI)
100
AcDbLine
 10
90.50201319892925
 20
36.12656679734639
 30
0.0
 11
84.74286028584133
 21
36.12656679734639
 31
0.0
  0
LINE
  5
188
330
6C
100
AcDbEntity
  8
Visible Narrow (ANSI)
100
AcDbLine
 10
84.72446343958647
 20
36.34531679734639
 30
0.0
 11
90.52411028584138
 21
36.34531679734639
 31
0.0
  0
SPLINE
  5
189
330
6C
100
AcDbEntity
  8
Visible (ANSI)
100
AcDbSpline
210
0.0
220
0.0
230
1.0
 70
     8
 71
     3
 72
    11
 73
     7
 74
     0
 42
0.0000000001
 43
0.0000000001
 40
0.0
 40
0.0
 40
0.0
 40
0.0
 40
0.9120227246349752
 40
0.9120227246349752
 40
0.9120227246349752
 40
1.570796326794895
 40
1.570796326794895
 40
1.570796326794895
 40
1.570796326794895
 10
84.74286028584133
 20
36.12656679734639
 30
0.0
 10
84.73929981111909
 20
36.12656679734639
 30
0.0
 10
84.73573933639684
 20
36.15882376441272
 30
0.0
 10
84.73217886167461
 20
36.2114095215779
 30
0.0
 10
84.72960705431189
 20
36.24939334339975
 30
0.0
 10
84.72703524694919
 20
36.29728122218889
 30
0.0
 10
84.72446343958647
 20
36.34531679734639
 30
0.0
  0
SPLINE
  5
18A
330
6C
100
AcDbEntity
  8
Visible (ANSI)
100
AcDbSpline
210
0.0
220
0.0
230
1.0
 70
     8
 71
     3
 72
    11
 73
     7
 74
     0
 42
0.0000000001
 43
0.0000000001
 40
0.0
 40
0.0
 40
0.0
 40
0.0
 40
0.9120227246349427
 40
0.9120227246349427
 40
0.9120227246349427
 40
1.570796326794897
 40
1.570796326794897
 40
1.570796326794897
 40
1.570796326794897
 10
90.5241102858414
 20
36.34531679734639
 30
0.0
 10
90.51983367678049
 20
36.27881514034176
 30
0.0
 10
90.51555706771956
 20
36.21305046923692
 30
0.0
 10
90.51128045865864
 20
36.17234164307197
 30
0.0
 10
90.50819137208218
 20
36.14293678360083
 30
0.0
 10
90.50510228550573
 20
36.12656679734639
 30
0.0
 10
90.50201319892925
 20
36.12656679734639
 30
0.0
  0
SPLINE
  5
18B
330
6C
100
AcDbEntity
  8
Visible (ANSI)
100
AcDbSpline
210
0.0
220
0.0
230
1.0
 70
     8
 71
     3
 72
    11
 73
     7
 74
     0
 42
0.0000000001
 43
0.0000000001
 40
0.0
 40
0.0
 40
0.0
 40
0.0
 40
0.9120227246349513
 40
0.9120227246349513
 40
0.9120227246349513
 40
1.570796326794896
 40
1.570796326794896
 40
1.570796326794896
 40
1.570796326794896
 10
90.52411028584133
 20
36.12656679734639
 30
0.0
 10
90.59061194284597
 20
36.12656679734639
 30
0.0
 10
90.65637661395081
 20
36.15882376441272
 30
0.0
 10
90.69708544011575
 20
36.21140952157789
 30
0.0
 10
90.72649029958689
 20
36.24939334339974
 30
0.0
 10
90.74286028584133
 20
36.29728122218889
 30
0.0
 10
90.74286028584134
 20
36.34531679734639
 30
0.0
  0
LINE
  5
18C
330
6C
100
AcDbEntity
  8
Visible (ANSI)
100
AcDbLine
 10
90.52411028584133
 20
36.25156679734639
 30
0.0
 11
90.51787966022279
 21
36.25156679734639
 31
0.0
  0
LINE
  5
18D
330
6C
100
AcDbEntity
  8
Visible (ANSI)
100
AcDbLine
 10
90.50201319892925
 20
36.12656679734639
 30
0.0
 11
90.52411028584133
 21
36.12656679734639
 31
0.0
  0
LINE
  5
18E
330
6C
100
AcDbEntity
  8
Visible (ANSI)
100
AcDbLine
 10
90.52411028584133
 20
36.25156679734639
 30
0.0
 11
90.52411028584133
 21
36.12656679734639
 31
0.0
  0
SPLINE
  5
18F
330
6C
100
AcDbEntity
  8
Visible (ANSI)
100
AcDbSpline
210
0.0
220
0.0
230
1.0
 70
     8
 71
     3
 72
    11
 73
     7
 74
     0
 42
0.0000000001
 43
0.0000000001
 40
0.0
 40
0.0
 40
0.0
 40
0.0
 40
1.12719708240338
 40
1.12719708240338
 40
1.12719708240338
 40
1.570796326794896
 40
1.570796326794896
 40
1.570796326794896
 40
1.570796326794896
 10
90.61786028584133
 20
36.34531679734639
 30
0.0
 10
90.61786028584133
 20
36.31009188852129
 30
0.0
 10
90.59616272760472
 20
36.27575889098292
 30
0.0
 10
90.56434714097806
 20
36.26064060241118
 30
0.0
 10
90.55182637561431
 20
36.2546909228994
 30
0.0
 10
90.53797276222857
 20
36.25156679734639
 30
0.0
 10
90.52411028584133
 20
36.25156679734639
 30
0.0
  0
LINE
  5
190
330
6C
100
AcDbEntity
  8
Visible (ANSI)
100
AcDbLine
 10
90.74286028584133
 20
36.34531679734639
 30
0.0
 11
90.52411028584138
 21
36.34531679734639
 31
0.0
  0
LINE
  5
191
330
6C
100
AcDbEntity
  8
Visible (ANSI)
100
AcDbLine
 10
90.74286028584134
 20
59.90781679734639
 30
0.0
 11
90.74286028584134
 21
36.34531679734639
 31
0.0
  0
LINE
  5
192
330
6C
100
AcDbEntity
  8
Visible Narrow (ANSI)
100
AcDbLine
 10
90.52411028584138
 20
36.34531679734639
 30
0.0
 11
90.5241102858414
 21
59.90781679734639
 31
0.0
  0
LINE
  5
193
330
6C
100
AcDbEntity
  8
Visible (ANSI)
100
AcDbLine
 10
90.5241102858414
 20
59.90781679734639
 30
0.0
 11
90.74286028584133
 21
59.90781679734639
 31
0.0
  0
LINE
  5
194
330
6C
100
AcDbEntity
  8
Visible (ANSI)
100
AcDbLine
 10
82.74286028584141
 20
59.90781679734639
 30
0.0
 11
84.72446343958647
 21
36.34531679734639
 31
0.0
  0
LINE
  5
195
330
6C
100
AcDbEntity
  8
Visible (ANSI)
100
AcDbLine
 10
82.74286028584134
 20
60.12656679734634
 30
0.0
 11
82.74286028584141
 21
59.90781679734639
 31
0.0
  0
LINE
  5
196
330
6C
100
AcDbEntity
  8
Visible (ANSI)
100
AcDbLine
 10
82.74286028584134
 20
60.12656679734634
 30
0.0
 11
90.50201319892922
 21
60.12656679734643
 31
0.0
  0
LINE
  5
197
330
6C
100
AcDbEntity
  8
Visible Narrow (ANSI)
100
AcDbLine
 10
90.5241102858414
 20
59.90781679734639
 30
0.0
 11
82.74286028584141
 21
59.90781679734639
 31
0.0
  0
SPLINE
  5
198
330
6C
100
AcDbEntity
  8
Visible (ANSI)
100
AcDbSpline
210
0.0
220
0.0
230
1.0
 70
     8
 71
     3
 72
    11
 73
     7
 74
     0
 42
0.0000000001
 43
0.0000000001
 40
0.0
 40
0.0
 40
0.0
 40
0.0
 40
0.9120227246349074
 40
0.9120227246349074
 40
0.9120227246349074
 40
1.570796326794894
 40
1.570796326794894
 40
1.570796326794894
 40
1.570796326794894
 10
90.74286028584133
 20
59.90781679734639
 30
0.0
 10
90.74286028584133
 20
59.97431845435102
 30
0.0
 10
90.710603318775
 20
60.04008312545586
 30
0.0
 10
90.65801756160984
 20
60.0807919516208
 30
0.0
 10
90.620033739788
 20
60.11019681109195
 30
0.0
 10
90.57214586099883
 20
60.12656679734639
 30
0.0
 10
90.52411028584133
 20
60.12656679734639
 30
0.0
  0
LINE
  5
199
330
6C
100
AcDbEntity
  8
Visible (ANSI)
100
AcDbLine
 10
90.52411028584133
 20
60.00156679734639
 30
0.0
 11
90.51787966022279
 21
60.00156679734639
 31
0.0
  0
LINE
  5
19A
330
6C
100
AcDbEntity
  8
Visible (ANSI)
100
AcDbLine
 10
90.52411028584133
 20
60.00156679734639
 30
0.0
 11
90.52411028584133
 21
60.12656679734639
 31
0.0
  0
SPLINE
  5
19B
330
6C
100
AcDbEntity
  8
Visible (ANSI)
100
AcDbSpline
210
0.0
220
0.0
230
1.0
 70
     8
 71
     3
 72
    11
 73
     7
 74
     0
 42
0.0000000001
 43
0.0000000001
 40
0.0
 40
0.0
 40
0.0
 40
0.0
 40
1.12719708240322
 40
1.12719708240322
 40
1.12719708240322
 40
1.570796326794894
 40
1.570796326794894
 40
1.570796326794894
 40
1.570796326794894
 10
90.61786028584133
 20
59.90781679734639
 30
0.0
 10
90.61786028584133
 20
59.94304170617149
 30
0.0
 10
90.59616272760473
 20
59.97737470370985
 30
0.0
 10
90.56434714097807
 20
59.99249299228159
 30
0.0
 10
90.55182637561433
 20
59.99844267179337
 30
0.0
 10
90.53797276222857
 20
60.00156679734639
 30
0.0
 10
90.52411028584133
 20
60.00156679734639
 30
0.0
  0
LINE
  5
19C
330
6C
100
AcDbEntity
  8
Visible (ANSI)
100
AcDbLine
 10
90.52411028584133
 20
60.12656679734639
 30
0.0
 11
90.5020131989292
 21
60.12656679734639
 31
0.0
  0
SPLINE
  5
19D
330
6C
100
AcDbEntity
  8
Visible (ANSI)
100
AcDbSpline
210
0.0
220
0.0
230
1.0
 70
     8
 71
     3
 72
    11
 73
     7
 74
     0
 42
0.0000000001
 43
0.0000000001
 40
0.0
 40
0.0
 40
0.0
 40
0.0
 40
0.9120227246348983
 40
0.9120227246348983
 40
0.9120227246348983
 40
1.570796326794894
 40
1.570796326794894
 40
1.570796326794894
 40
1.570796326794894
 10
90.50201319892922
 20
60.12656679734643
 30
0.0
 10
90.50628980799015
 20
60.12656679734643
 30
0.0
 10
90.51056641705109
 20
60.09430983028009
 30
0.0
 10
90.51484302611202
 20
60.04172407311492
 30
0.0
 10
90.51793211268849
 20
60.00374025129307
 30
0.0
 10
90.52102119926493
 20
59.9558523725039
 30
0.0
 10
90.5241102858414
 20
59.90781679734639
 30
0.0
  0
LINE
  5
19E
330
6C
100
AcDbEntity
  8
Visible (ANSI)
100
AcDbLine
 10
82.99286028584131
 20
36.25169293854461
 30
0.0
 11
83.11786028584133
 21
36.25169293854461
 31
0.0
  0
LINE
  5
19F
330
6C
100
AcDbEntity
  8
Visible (ANSI)
100
AcDbLine
 10
82.99286028584131
 20
36.25169293854461
 30
0.0
 11
82.99286028584131
 21
36.12669293854461
 31
0.0
  0
LINE
  5
1A0
330
6C
100
AcDbEntity
  8
Visible (ANSI)
100
AcDbLine
 10
83.11786028584133
 20
36.12669293854461
 30
0.0
 11
82.99286028584131
 21
36.12669293854461
 31
0.0
  0
LINE
  5
1A1
330
6C
100
AcDbEntity
  8
Visible Narrow (ANSI)
100
AcDbLine
 10
83.11786028584133
 20
36.12669293854461
 30
0.0
 11
83.11786028584133
 21
36.25169293854461
 31
0.0
  0
LINE
  5
1A2
330
6C
100
AcDbEntity
  8
Visible (ANSI)
100
AcDbLine
 10
83.11786028584133
 20
36.12669293854461
 30
0.0
 11
84.4927510690722
 21
36.12669293854461
 31
0.0
  0
LINE
  5
1A3
330
6C
100
AcDbEntity
  8
Visible (ANSI)
100
AcDbLine
 10
84.4927510690722
 20
36.25169293854461
 30
0.0
 11
83.11786028584133
 21
36.25169293854461
 31
0.0
  0
ARC
  5
1A4
330
6C
100
AcDbEntity
  8
Visible (ANSI)
100
AcDbCircle
 10
84.4927510690722
 20
36.34544293854461
 30
0.0
 40
0.2187499999999996
100
AcDbArc
 50
270.0
 51
315.0
  0
ARC
  5
1A5
330
6C
100
AcDbEntity
  8
Visible (ANSI)
100
AcDbCircle
 10
84.4927510690722
 20
36.34544293854461
 30
0.0
 40
0.0937500000000007
100
AcDbArc
 50
270.0
 51
314.9999999999976
  0
LINE
  5
1A6
330
6C
100
AcDbEntity
  8
Visible (ANSI)
100
AcDbLine
 10
84.68077540537937
 20
36.22410805808264
 30
0.0
 11
84.64743067745677
 21
36.19076333016006
 31
0.0
  0
LINE
  5
1A7
330
6C
100
AcDbEntity
  8
Visible (ANSI)
100
AcDbLine
 10
84.55904232980845
 20
36.27915167780837
 30
0.0
 11
84.59238705773104
 21
36.31249640573096
 31
0.0
  0
ARC
  5
1A8
330
6C
100
AcDbEntity
  8
Visible (ANSI)
100
AcDbCircle
 10
84.7470666661156
 20
36.1578167973464
 30
0.0
 40
0.0937499999999996
100
AcDbArc
 50
100.6464404670438
 51
134.9999999999976
  0
ARC
  5
1A9
330
6C
100
AcDbEntity
  8
Visible (ANSI)
100
AcDbCircle
 10
84.7470666661156
 20
36.15781679734641
 30
0.0
 40
0.2187499999999983
100
AcDbArc
 50
96.59136328667868
 51
135.0
  0
MTEXT
  5
1AA
330
6C
100
AcDbEntity
  8
Symbol (ANSI)
100
AcDbMText
 10
84.08959332929468
 20
31.2309904494
 30
0.0
 40
0.9600000118646095
 41
0.0
 71
     7
 72
     1
  1
RIGHT VIEW
  7
Text Style168
 73
     1
 44
1.0
  0
LINE
  5
1AB
330
6C
100
AcDbEntity
  8
Symbol (ANSI)
370
    30
100
AcDbLine
 10
83.99359308234757
 20
31.03366143450828
 30
0.0
 11
91.4728800271199
 21
31.03366143450828
 31
0.0
  0
CIRCLE
  5
1AC
330
6C
100
AcDbEntity
  8
Visible (ANSI)
100
AcDbCircle
 10
57.63613554605775
 20
25.8575062304463
 30
0.0
 40
0.28125
  0
CIRCLE
  5
1AD
330
6C
100
AcDbEntity
  8
Visible (ANSI)
100
AcDbCircle
 10
61.26113554605775
 20
25.8575062304463
 30
0.0
 40
0.28125
  0
CIRCLE
  5
1AE
330
6C
100
AcDbEntity
  8
Visible (ANSI)
100
AcDbCircle
 10
56.07363554605775
 20
24.5450062304463
 30
0.0
 40
0.28125
  0
CIRCLE
  5
1AF
330
6C
100
AcDbEntity
  8
Visible (ANSI)
100
AcDbCircle
 10
56.07363554605775
 20
19.54500623044629
 30
0.0
 40
0.28125
  0
CIRCLE
  5
1B0
330
6C
100
AcDbEntity
  8
Visible (ANSI)
100
AcDbCircle
 10
62.82363554605774
 20
24.54500623044631
 30
0.0
 40
0.28125
  0
CIRCLE
  5
1B1
330
6C
100
AcDbEntity
  8
Visible (ANSI)
100
AcDbCircle
 10
62.82363554605769
 20
19.54500623044631
 30
0.0
 40
0.28125
  0
LINE
  5
1B2
330
6C
100
AcDbEntity
  8
Visible (ANSI)
100
AcDbLine
 10
55.38613554605776
 20
18.54500623044623
 30
0.0
 11
55.38613554605776
 21
26.32625623044624
 31
0.0
  0
LINE
  5
1B3
330
6C
100
AcDbEntity
  8
Visible (ANSI)
100
AcDbLine
 10
55.38613554605777
 20
18.54500623044623
 30
0.0
 11
55.60488554605776
 21
18.54500623044629
 31
0.0
  0
LINE
  5
1B4
330
6C
100
AcDbEntity
  8
Visible (ANSI)
100
AcDbLine
 10
63.2923855460576
 20
18.5450062304463
 30
0.0
 11
63.51113554605754
 21
18.54500623044623
 31
0.0
  0
LINE
  5
1B5
330
6C
100
AcDbEntity
  8
Visible Narrow (ANSI)
100
AcDbLine
 10
63.27028845914568
 20
26.3262562304463
 30
0.0
 11
55.62698263296984
 21
26.3262562304463
 31
0.0
  0
LINE
  5
1B6
330
6C
100
AcDbEntity
  8
Visible (ANSI)
100
AcDbLine
 10
55.60488554605776
 20
26.54500623044623
 30
0.0
 11
63.29238554605776
 21
26.54500623044623
 31
0.0
  0
LINE
  5
1B7
330
6C
100
AcDbEntity
  8
Visible Narrow (ANSI)
100
AcDbLine
 10
55.60488554605776
 20
26.30415914353422
 30
0.0
 11
55.60488554605776
 21
18.54500623044629
 31
0.0
  0
LINE
  5
1B8
330
6C
100
AcDbEntity
  8
Visible Narrow (ANSI)
100
AcDbLine
 10
63.29238554605758
 20
18.5450062304463
 30
0.0
 11
63.29238554605765
 21
26.30415914353417
 31
0.0
  0
LINE
  5
1B9
330
6C
100
AcDbEntity
  8
Visible (ANSI)
100
AcDbLine
 10
63.51113554605775
 20
26.32625623044623
 30
0.0
 11
63.51113554605769
 21
18.54500623044623
 31
0.0
  0
ARC
  5
1BA
330
6C
100
AcDbEntity
  8
Visible (ANSI)
100
AcDbCircle
 10
63.29238554605776
 20
26.32625623044624
 30
0.0
 40
0.2187500000000022
100
AcDbArc
 50
0.0
 51
89.99999999999706
  0
ARC
  5
1BB
330
6C
100
AcDbEntity
  8
Visible (ANSI)
100
AcDbCircle
 10
55.60488554605776
 20
26.32625623044624
 30
0.0
 40
0.09375
100
AcDbArc
 50
90.0
 51
180.0
  0
LINE
  5
1BC
330
6C
100
AcDbEntity
  8
Visible (ANSI)
100
AcDbLine
 10
56.13613554605777
 20
18.54500623044629
 30
0.0
 11
55.60488554605776
 21
18.54500623044629
 31
0.0
  0
LINE
  5
1BD
330
6C
100
AcDbEntity
  8
Visible (ANSI)
100
AcDbLine
 10
63.29238554605758
 20
18.5450062304463
 30
0.0
 11
62.76113554605749
 21
18.5450062304463
 31
0.0
  0
LINE
  5
1BE
330
6C
100
AcDbEntity
  8
Visible (ANSI)
100
AcDbLine
 10
62.23903845914565
 20
25.2950062304463
 30
0.0
 11
56.65823263296984
 21
25.2950062304463
 31
0.0
  0
LINE
  5
1BF
330
6C
100
AcDbEntity
  8
Visible (ANSI)
100
AcDbLine
 10
56.63613554605777
 20
25.27290914353422
 30
0.0
 11
56.63613554605777
 21
19.04500623044629
 31
0.0
  0
LINE
  5
1C0
330
6C
100
AcDbEntity
  8
Visible (ANSI)
100
AcDbLine
 10
62.2611355460575
 20
19.04500623044632
 30
0.0
 11
62.26113554605763
 21
25.27290914353418
 31
0.0
  0
ARC
  5
1C1
330
6C
100
AcDbEntity
  8
Visible (ANSI)
100
AcDbCircle
 10
55.60488554605776
 20
26.32625623044624
 30
0.0
 40
0.21875
100
AcDbArc
 50
90.0
 51
180.0
  0
ARC
  5
1C2
330
6C
100
AcDbEntity
  8
Visible (ANSI)
100
AcDbCircle
 10
63.29238554605776
 20
26.32625623044624
 30
0.0
 40
0.0937499999999972
100
AcDbArc
 50
0.0
 51
90.0
  0
LINE
  5
1C3
330
6C
100
AcDbEntity
  8
Visible (ANSI)
100
AcDbLine
 10
56.63613554605777
 20
19.04500623044629
 30
0.0
 11
56.13613554605777
 21
18.54500623044629
 31
0.0
  0
LINE
  5
1C4
330
6C
100
AcDbEntity
  8
Visible (ANSI)
100
AcDbLine
 10
62.76113554605749
 20
18.5450062304463
 30
0.0
 11
62.2611355460575
 21
19.04500623044632
 31
0.0
  0
SPLINE
  5
1C5
330
6C
100
AcDbEntity
  8
Visible (ANSI)
100
AcDbSpline
210
0.0
220
0.0
230
1.0
 70
     8
 71
     3
 72
    11
 73
     7
 74
     0
 42
0.0000000001
 43
0.0000000001
 40
0.0
 40
0.0
 40
0.0
 40
0.0
 40
0.9120227246349074
 40
0.9120227246349074
 40
0.9120227246349074
 40
1.570796326794894
 40
1.570796326794894
 40
1.570796326794894
 40
1.570796326794894
 10
63.29238554605776
 20
26.54500623044623
 30
0.0
 10
63.28810893699685
 20
26.54500623044626
 30
0.0
 10
63.28383232793593
 20
26.51274926337995
 30
0.0
 10
63.27955571887502
 20
26.46016350621479
 30
0.0
 10
63.27646663229857
 20
26.42217968439295
 30
0.0
 10
63.27337754572212
 20
26.3742918056038
 30
0.0
 10
63.27028845914568
 20
26.3262562304463
 30
0.0
  0
SPLINE
  5
1C6
330
6C
100
AcDbEntity
  8
Visible (ANSI)
100
AcDbSpline
210
0.0
220
0.0
230
1.0
 70
     8
 71
     3
 72
    11
 73
     7
 74
     0
 42
0.0000000001
 43
0.0000000001
 40
0.0
 40
0.0
 40
0.0
 40
0.0
 40
0.9120227246349079
 40
0.9120227246349079
 40
0.9120227246349079
 40
1.570796326794894
 40
1.570796326794894
 40
1.570796326794894
 40
1.570796326794894
 10
55.62698263296984
 20
26.3262562304463
 30
0.0
 10
55.62270602390893
 20
26.39275788745093
 30
0.0
 10
55.61842941484802
 20
26.45852255855576
 30
0.0
 10
55.6141528057871
 20
26.49923138472069
 30
0.0
 10
55.61106371921066
 20
26.52863624419182
 30
0.0
 10
55.60797463263421
 20
26.54500623044625
 30
0.0
 10
55.60488554605776
 20
26.54500623044623
 30
0.0
  0
LINE
  5
1C7
330
6C
100
AcDbEntity
  8
Visible (ANSI)
100
AcDbLine
 10
56.65823263296984
 20
25.2950062304463
 30
0.0
 11
55.62698263296984
 21
26.3262562304463
 31
0.0
  0
SPLINE
  5
1C8
330
6C
100
AcDbEntity
  8
Visible (ANSI)
100
AcDbSpline
210
0.0
220
0.0
230
1.0
 70
    24
 71
     3
 72
     8
 73
     4
 74
     0
 42
0.0000000001
 43
0.0000000001
 40
-0.0000000000000001
 40
-0.0000000000000001
 40
-0.0000000000000001
 40
-0.0000000000000001
 40
0.3175000000000002
 40
0.3175000000000002
 40
0.3175000000000002
 40
0.3175000000000002
 10
55.60488554605776
 20
26.42000623044623
 30
0.0
 10
55.60488554605776
 20
26.4616728971129
 30
0.0
 10
55.60488554605776
 20
26.50333956377957
 30
0.0
 10
55.60488554605776
 20
26.54500623044623
 30
0.0
  0
SPLINE
  5
1C9
330
6C
100
AcDbEntity
  8
Visible (ANSI)
100
AcDbSpline
210
0.0
220
0.0
230
1.0
 70
     8
 71
     3
 72
    11
 73
     7
 74
     0
 42
0.0000000001
 43
0.0000000001
 40
0.0
 40
0.0
 40
0.0
 40
0.0
 40
1.12719708240322
 40
1.12719708240322
 40
1.12719708240322
 40
1.570796326794894
 40
1.570796326794894
 40
1.570796326794894
 40
1.570796326794894
 10
55.60488554605776
 20
26.42000623044623
 30
0.0
 10
55.61017113941616
 20
26.42000623044625
 30
0.0
 10
55.61545673277456
 20
26.39830867220965
 30
0.0
 10
55.62074232613295
 20
26.366493085583
 30
0.0
 10
55.62282242841192
 20
26.35397232021926
 30
0.0
 10
55.62490253069088
 20
26.3401187068335
 30
0.0
 10
55.62698263296984
 20
26.32625623044626
 30
0.0
  0
SPLINE
  5
1CA
330
6C
100
AcDbEntity
  8
Visible (ANSI)
100
AcDbSpline
210
0.0
220
0.0
230
1.0
 70
     8
 71
     3
 72
    11
 73
     7
 74
     0
 42
0.0000000001
 43
0.0000000001
 40
0.0
 40
0.0
 40
0.0
 40
0.0
 40
1.12719708240322
 40
1.12719708240322
 40
1.12719708240322
 40
1.570796326794894
 40
1.570796326794894
 40
1.570796326794894
 40
1.570796326794894
 10
63.29238554605776
 20
26.42000623044623
 30
0.0
 10
63.28709995269936
 20
26.42000623044625
 30
0.0
 10
63.28181435934096
 20
26.39830867220965
 30
0.0
 10
63.27652876598256
 20
26.366493085583
 30
0.0
 10
63.2744486637036
 20
26.35397232021926
 30
0.0
 10
63.27236856142463
 20
26.3401187068335
 30
0.0
 10
63.27028845914568
 20
26.32625623044626
 30
0.0
  0
SPLINE
  5
1CB
330
6C
100
AcDbEntity
  8
Visible (ANSI)
100
AcDbSpline
210
0.0
220
0.0
230
1.0
 70
    24
 71
     3
 72
     8
 73
     4
 74
     0
 42
0.0000000001
 43
0.0000000001
 40
-0.3175000000000004
 40
-0.3175000000000004
 40
-0.3175000000000004
 40
-0.3175000000000004
 40
0.0
 40
0.0
 40
0.0
 40
0.0
 10
63.29238554605776
 20
26.54500623044623
 30
0.0
 10
63.29238554605776
 20
26.50333956377957
 30
0.0
 10
63.29238554605776
 20
26.4616728971129
 30
0.0
 10
63.29238554605776
 20
26.42000623044623
 30
0.0
  0
LINE
  5
1CC
330
6C
100
AcDbEntity
  8
Visible (ANSI)
100
AcDbLine
 10
63.27028845914568
 20
26.3262562304463
 30
0.0
 11
62.23903845914565
 21
25.2950062304463
 31
0.0
  0
SPLINE
  5
1CD
330
6C
100
AcDbEntity
  8
Visible (ANSI)
100
AcDbSpline
210
0.0
220
0.0
230
1.0
 70
     8
 71
     3
 72
    11
 73
     7
 74
     0
 42
0.0000000001
 43
0.0000000001
 40
0.0
 40
0.0
 40
0.0
 40
0.0
 40
0.9120227246350466
 40
0.9120227246350466
 40
0.9120227246350466
 40
1.570796326794894
 40
1.570796326794894
 40
1.570796326794894
 40
1.570796326794894
 10
55.38613554605776
 20
26.32625623044624
 30
0.0
 10
55.38613554605777
 20
26.32197962138534
 30
0.0
 10
55.41839251312411
 20
26.31770301232446
 30
0.0
 10
55.47097827028929
 20
26.31342640326356
 30
0.0
 10
55.50896209211114
 20
26.31033731668712
 30
0.0
 10
55.55684997090029
 20
26.30724823011067
 30
0.0
 10
55.60488554605778
 20
26.30415914353422
 30
0.0
  0
SPLINE
  5
1CE
330
6C
100
AcDbEntity
  8
Visible (ANSI)
100
AcDbSpline
210
0.0
220
0.0
230
1.0
 70
     8
 71
     3
 72
    11
 73
     7
 74
     0
 42
0.0000000001
 43
0.0000000001
 40
0.0
 40
0.0
 40
0.0
 40
0.0
 40
1.127197082403415
 40
1.127197082403415
 40
1.127197082403415
 40
1.570796326794894
 40
1.570796326794894
 40
1.570796326794894
 40
1.570796326794894
 10
55.51113554605777
 20
26.32625623044624
 30
0.0
 10
55.51113554605777
 20
26.32097063708785
 30
0.0
 10
55.53283310429439
 20
26.31568504372946
 30
0.0
 10
55.56464869092104
 20
26.31039945037106
 30
0.0
 10
55.57716945628478
 20
26.3083193480921
 30
0.0
 10
55.59102306967053
 20
26.30623924581314
 30
0.0
 10
55.60488554605776
 20
26.30415914353418
 30
0.0
  0
SPLINE
  5
1CF
330
6C
100
AcDbEntity
  8
Visible (ANSI)
100
AcDbSpline
210
0.0
220
0.0
230
1.0
 70
    24
 71
     3
 72
     8
 73
     4
 74
     0
 42
0.0000000001
 43
0.0000000001
 40
-0.317500000000005
 40
-0.317500000000005
 40
-0.317500000000005
 40
-0.317500000000005
 40
0.0
 40
0.0
 40
0.0
 40
0.0
 10
55.38613554605776
 20
26.32625623044624
 30
0.0
 10
55.42780221272443
 20
26.32625623044624
 30
0.0
 10
55.46946887939109
 20
26.32625623044624
 30
0.0
 10
55.51113554605777
 20
26.32625623044624
 30
0.0
  0
LINE
  5
1D0
330
6C
100
AcDbEntity
  8
Visible (ANSI)
100
AcDbLine
 10
55.60488554605776
 20
26.30415914353422
 30
0.0
 11
56.63613554605777
 21
25.27290914353422
 31
0.0
  0
SPLINE
  5
1D1
330
6C
100
AcDbEntity
  8
Visible (ANSI)
100
AcDbSpline
210
0.0
220
0.0
230
1.0
 70
     8
 71
     3
 72
    11
 73
     7
 74
     0
 42
0.0000000001
 43
0.0000000001
 40
0.0
 40
0.0
 40
0.0
 40
0.0
 40
0.9120227246348983
 40
0.9120227246348983
 40
0.9120227246348983
 40
1.570796326794894
 40
1.570796326794894
 40
1.570796326794894
 40
1.570796326794894
 10
63.29238554605765
 20
26.30415914353417
 30
0.0
 10
63.3588872030623
 20
26.30843575259509
 30
0.0
 10
63.42465187416715
 20
26.312712361656
 30
0.0
 10
63.4653607003321
 20
26.31698897071691
 30
0.0
 10
63.49476555980325
 20
26.32007805729335
 30
0.0
 10
63.5111355460577
 20
26.32316714386979
 30
0.0
 10
63.5111355460577
 20
26.32625623044623
 30
0.0
  0
LINE
  5
1D2
330
6C
100
AcDbEntity
  8
Visible (ANSI)
100
AcDbLine
 10
62.26113554605763
 20
25.27290914353418
 30
0.0
 11
63.29238554605765
 21
26.30415914353417
 31
0.0
  0
SPLINE
  5
1D3
330
6C
100
AcDbEntity
  8
Visible (ANSI)
100
AcDbSpline
210
0.0
220
0.0
230
1.0
 70
    24
 71
     3
 72
     8
 73
     4
 74
     0
 42
0.0000000001
 43
0.0000000001
 40
0.0
 40
0.0
 40
0.0
 40
0.0
 40
0.3175000000000097
 40
0.3175000000000097
 40
0.3175000000000097
 40
0.3175000000000097
 10
63.3861355460577
 20
26.32625623044623
 30
0.0
 10
63.42780221272438
 20
26.32625623044623
 30
0.0
 10
63.46946887939104
 20
26.32625623044623
 30
0.0
 10
63.5111355460577
 20
26.32625623044623
 30
0.0
  0
SPLINE
  5
1D4
330
6C
100
AcDbEntity
  8
Visible (ANSI)
100
AcDbSpline
210
0.0
220
0.0
230
1.0
 70
     8
 71
     3
 72
    11
 73
     7
 74
     0
 42
0.0000000001
 43
0.0000000001
 40
0.0
 40
0.0
 40
0.0
 40
0.0
 40
1.127197082403543
 40
1.127197082403543
 40
1.127197082403543
 40
1.570796326794894
 40
1.570796326794894
 40
1.570796326794894
 40
1.570796326794894
 10
63.3861355460577
 20
26.32625623044623
 30
0.0
 10
63.3861355460577
 20
26.32097063708783
 30
0.0
 10
63.36443798782108
 20
26.31568504372943
 30
0.0
 10
63.33262240119439
 20
26.31039945037103
 30
0.0
 10
63.32010163583065
 20
26.30831934809207
 30
0.0
 10
63.30624802244489
 20
26.3062392458131
 30
0.0
 10
63.29238554605765
 20
26.30415914353414
 30
0.0
  0
CIRCLE
  5
1D5
330
6C
100
AcDbEntity
  8
Visible (ANSI)
100
AcDbCircle
 10
59.44863554605772
 20
22.79500623043925
 30
0.0
 40
0.28125
  0
CIRCLE
  5
1D6
330
6C
100
AcDbEntity
  8
Visible (ANSI)
100
AcDbCircle
 10
57.51113554605773
 20
19.79500623043921
 30
0.0
 40
0.28125
  0
CIRCLE
  5
1D7
330
6C
100
AcDbEntity
  8
Visible (ANSI)
100
AcDbCircle
 10
61.38613554605772
 20
19.79500623043921
 30
0.0
 40
0.28125
  0
LINE
  5
1D8
330
6C
100
AcDbEntity
  8
Visible (ANSI)
100
AcDbLine
 10
63.26113554605772
 20
26.2729091435272
 30
0.0
 11
63.26113554605772
 21
26.29510339394441
 31
0.0
  0
LINE
  5
1D9
330
6C
100
AcDbEntity
  8
Visible (ANSI)
100
AcDbLine
 10
55.63613554605773
 20
26.29510339394441
 30
0.0
 11
55.63613554605773
 21
26.27290914352721
 31
0.0
  0
ARC
  5
1DA
330
6C
100
AcDbEntity
  8
Visible (ANSI)
100
AcDbCircle
 10
55.76113554605771
 20
26.29510339394441
 30
0.0
 40
0.1249999999999929
100
AcDbArc
 50
170.6375988628235
 51
180.0
  0
ARC
  5
1DB
330
6C
100
AcDbEntity
  8
Visible (ANSI)
100
AcDbCircle
 10
63.13613554605759
 20
26.29510339394439
 30
0.0
 40
0.1250000000001282
100
AcDbArc
 50
0.0
 51
9.362401137156304
  0
LINE
  5
1DC
330
6C
100
AcDbEntity
  8
Visible Narrow (ANSI)
100
AcDbLine
 10
62.26113554605753
 20
20.54921261071352
 30
0.0
 11
56.63613554605775
 21
20.54921261071353
 31
0.0
  0
LINE
  5
1DD
330
6C
100
AcDbEntity
  8
Visible Narrow (ANSI)
100
AcDbLine
 10
62.26113554605753
 20
20.39453300232895
 30
0.0
 11
56.63613554605775
 21
20.39453300232895
 31
0.0
  0
LINE
  5
1DE
330
6C
100
AcDbEntity
  8
Visible Narrow (ANSI)
100
AcDbLine
 10
62.26113554605753
 20
20.36118827440635
 30
0.0
 11
56.63613554605775
 21
20.36118827440635
 31
0.0
  0
LINE
  5
1DF
330
6C
100
AcDbEntity
  8
Visible Narrow (ANSI)
100
AcDbLine
 10
62.26113554605753
 20
20.2948970136701
 30
0.0
 11
56.63613554605775
 21
20.2948970136701
 31
0.0
  0
LINE
  5
1E0
330
6C
100
AcDbEntity
  8
Visible (ANSI)
100
AcDbLine
 10
62.5111355460575
 20
18.79500623043921
 30
0.0
 11
56.38613554605776
 21
18.79500623043921
 31
0.0
  0
MTEXT
  5
1E1
330
6C
100
AcDbEntity
  8
Symbol (ANSI)
100
AcDbMText
 10
55.30824439362791
 20
14.03635539181261
 30
0.0
 40
0.9600000118646095
 41
0.0
 71
     7
 72
     1
  1
BOTTOM VIEW
  7
Text Style168
 73
     1
 44
1.0
  0
LINE
  5
1E2
330
6C
100
AcDbEntity
  8
Symbol (ANSI)
370
    30
100
AcDbLine
 10
55.21224414668082
 20
13.84058229281349
 30
0.0
 11
64.0420660862243
 21
13.84058229281349
 31
0.0
  0
LINE
  5
1E3
330
6C
100
AcDbEntity
  8
Visible Narrow (ANSI)
100
AcDbLine
 10
63.29238554606993
 20
69.08776673970054
 30
0.0
 11
63.29238554606988
 21
74.84691965278847
 31
0.0
  0
LINE
  5
1E4
330
6C
100
AcDbEntity
  8
Visible (ANSI)
100
AcDbLine
 10
63.51113554606989
 20
74.86531649904346
 30
0.0
 11
63.51113554606993
 21
69.06566965278854
 31
0.0
  0
SPLINE
  5
1E5
330
6C
100
AcDbEntity
  8
Visible (ANSI)
100
AcDbSpline
210
0.0
220
0.0
230
1.0
 70
     8
 71
     3
 72
    11
 73
     7
 74
     0
 42
0.0000000001
 43
0.0000000001
 40
0.0
 40
0.0
 40
0.0
 40
0.0
 40
0.9120227246349752
 40
0.9120227246349752
 40
0.9120227246349752
 40
1.570796326794895
 40
1.570796326794895
 40
1.570796326794895
 40
1.570796326794895
 10
63.29238554606988
 20
74.84691965278847
 30
0.0
 10
63.35888720307451
 20
74.85048012751073
 30
0.0
 10
63.42465187417936
 20
74.854040602233
 30
0.0
 10
63.46536070034431
 20
74.85760107695528
 30
0.0
 10
63.49476555981546
 20
74.860172884318
 30
0.0
 10
63.51113554606989
 20
74.86274469168073
 30
0.0
 10
63.51113554606989
 20
74.86531649904346
 30
0.0
  0
LINE
  5
1E6
330
6C
100
AcDbEntity
  8
Visible (ANSI)
100
AcDbLine
 10
63.43164612127528
 20
74.86531649904346
 30
0.0
 11
63.51113554606989
 21
74.86531649904346
 31
0.0
  0
LINE
  5
1E7
330
6C
100
AcDbEntity
  8
Visible (ANSI)
100
AcDbLine
 10
63.38613554606989
 20
74.86531649904346
 30
0.0
 11
63.43164612127528
 21
74.86531649904346
 31
0.0
  0
SPLINE
  5
1E8
330
6C
100
AcDbEntity
  8
Visible (ANSI)
100
AcDbSpline
210
0.0
220
0.0
230
1.0
 70
     8
 71
     3
 72
    11
 73
     7
 74
     0
 42
0.0000000001
 43
0.0000000001
 40
0.0
 40
0.0
 40
0.0
 40
0.0
 40
1.127197082403416
 40
1.127197082403416
 40
1.127197082403416
 40
1.570796326794896
 40
1.570796326794896
 40
1.570796326794896
 40
1.570796326794896
 10
63.38613554606989
 20
74.86531649904346
 30
0.0
 10
63.38613554606989
 20
74.86091599825494
 30
0.0
 10
63.36443798783327
 20
74.85651549746641
 30
0.0
 10
63.33262240120661
 20
74.85211499667788
 30
0.0
 10
63.32010163584286
 20
74.85038321538143
 30
0.0
 10
63.30624802245711
 20
74.84865143408497
 30
0.0
 10
63.29238554606988
 20
74.84691965278852
 30
0.0
  0
LINE
  5
1E9
330
6C
100
AcDbEntity
  8
Visible Narrow (ANSI)
100
AcDbLine
 10
55.62698263298202
 20
69.06566965278845
 30
0.0
 11
63.27028845915785
 21
69.06566965278845
 31
0.0
  0
LINE
  5
1EA
330
6C
100
AcDbEntity
  8
Visible (ANSI)
100
AcDbLine
 10
63.29238554606995
 20
68.84691965278853
 30
0.0
 11
55.60488554606994
 21
68.84691965278853
 31
0.0
  0
LINE
  5
1EB
330
6C
100
AcDbEntity
  8
Visible Narrow (ANSI)
100
AcDbLine
 10
55.60488554606994
 20
74.8469196527884
 30
0.0
 11
55.60488554606994
 21
69.08776673970054
 31
0.0
  0
SPLINE
  5
1EC
330
6C
100
AcDbEntity
  8
Visible (ANSI)
100
AcDbSpline
210
0.0
220
0.0
230
1.0
 70
     8
 71
     3
 72
    11
 73
     7
 74
     0
 42
0.0000000001
 43
0.0000000001
 40
0.0
 40
0.0
 40
0.0
 40
0.0
 40
0.9120227246349479
 40
0.9120227246349479
 40
0.9120227246349479
 40
1.570796326794896
 40
1.570796326794896
 40
1.570796326794896
 40
1.570796326794896
 10
55.38613554606994
 20
74.8653164990434
 30
0.0
 10
55.38613554606994
 20
74.86175602432111
 30
0.0
 10
55.41839251313628
 20
74.85819554959883
 30
0.0
 10
55.47097827030144
 20
74.85463507487657
 30
0.0
 10
55.50896209212329
 20
74.85206326751384
 30
0.0
 10
55.55684997091245
 20
74.84949146015111
 30
0.0
 10
55.60488554606994
 20
74.8469196527884
 30
0.0
  0
LINE
  5
1ED
330
6C
100
AcDbEntity
  8
Visible (ANSI)
100
AcDbLine
 10
55.38613554606994
 20
69.06566965278853
 30
0.0
 11
55.38613554606994
 21
74.8653164990434
 31
0.0
  0
SPLINE
  5
1EE
330
6C
100
AcDbEntity
  8
Visible (ANSI)
100
AcDbSpline
210
0.0
220
0.0
230
1.0
 70
     8
 71
     3
 72
    11
 73
     7
 74
     0
 42
0.0000000001
 43
0.0000000001
 40
0.0
 40
0.0
 40
0.0
 40
0.0
 40
1.127197082403386
 40
1.127197082403386
 40
1.127197082403386
 40
1.570796326794896
 40
1.570796326794896
 40
1.570796326794896
 40
1.570796326794896
 10
55.51113554606994
 20
74.8653164990434
 30
0.0
 10
55.51113554606994
 20
74.86091599825487
 30
0.0
 10
55.53283310430655
 20
74.85651549746633
 30
0.0
 10
55.56464869093321
 20
74.85211499667781
 30
0.0
 10
55.57716945629696
 20
74.85038321538135
 30
0.0
 10
55.5910230696827
 20
74.8486514340849
 30
0.0
 10
55.60488554606994
 20
74.84691965278843
 30
0.0
  0
LINE
  5
1EF
330
6C
100
AcDbEntity
  8
Visible (ANSI)
100
AcDbLine
 10
55.46562497086453
 20
74.8653164990434
 30
0.0
 11
55.51113554606994
 21
74.8653164990434
 31
0.0
  0
LINE
  5
1F0
330
6C
100
AcDbEntity
  8
Visible (ANSI)
100
AcDbLine
 10
55.38613554606994
 20
74.8653164990434
 30
0.0
 11
55.46562497086453
 21
74.8653164990434
 31
0.0
  0
SPLINE
  5
1F1
330
6C
100
AcDbEntity
  8
Visible (ANSI)
100
AcDbSpline
210
0.0
220
0.0
230
1.0
 70
     8
 71
     3
 72
    11
 73
     7
 74
     0
 42
0.0000000001
 43
0.0000000001
 40
0.0
 40
0.0
 40
0.0
 40
0.0
 40
0.9120227246349427
 40
0.9120227246349427
 40
0.9120227246349427
 40
1.570796326794897
 40
1.570796326794897
 40
1.570796326794897
 40
1.570796326794897
 10
63.51113554606993
 20
69.06566965278853
 30
0.0
 10
63.51113554606993
 20
69.06994626184943
 30
0.0
 10
63.4788785790036
 20
69.07422287091032
 30
0.0
 10
63.42629282183843
 20
69.07849947997121
 30
0.0
 10
63.38830900001659
 20
69.08158856654765
 30
0.0
 10
63.34042112122743
 20
69.08467765312408
 30
0.0
 10
63.29238554606993
 20
69.08776673970054
 30
0.0
  0
SPLINE
  5
1F2
330
6C
100
AcDbEntity
  8
Visible (ANSI)
100
AcDbSpline
210
0.0
220
0.0
230
1.0
 70
     8
 71
     3
 72
    11
 73
     7
 74
     0
 42
0.0000000001
 43
0.0000000001
 40
0.0
 40
0.0
 40
0.0
 40
0.0
 40
1.127197082403416
 40
1.127197082403416
 40
1.127197082403416
 40
1.570796326794897
 40
1.570796326794897
 40
1.570796326794897
 40
1.570796326794897
 10
63.38613554606994
 20
69.06566965278853
 30
0.0
 10
63.38613554606994
 20
69.07095524614693
 30
0.0
 10
63.36443798783332
 20
69.0762408395053
 30
0.0
 10
63.33262240120665
 20
69.0815264328637
 30
0.0
 10
63.32010163584293
 20
69.08360653514266
 30
0.0
 10
63.30624802245717
 20
69.08568663742162
 30
0.0
 10
63.29238554606993
 20
69.08776673970058
 30
0.0
  0
SPLINE
  5
1F3
330
6C
100
AcDbEntity
  8
Visible (ANSI)
100
AcDbSpline
210
0.0
220
0.0
230
1.0
 70
    24
 71
     3
 72
     8
 73
     4
 74
     0
 42
0.0000000001
 43
0.0000000001
 40
-0.317499999999999
 40
-0.317499999999999
 40
-0.317499999999999
 40
-0.317499999999999
 40
0.0000000000000036
 40
0.0000000000000036
 40
0.0000000000000036
 40
0.0000000000000036
 10
63.51113554606993
 20
69.06566965278853
 30
0.0
 10
63.46946887940326
 20
69.06566965278853
 30
0.0
 10
63.4278022127366
 20
69.06566965278853
 30
0.0
 10
63.38613554606993
 20
69.06566965278853
 30
0.0
  0
LINE
  5
1F4
330
6C
100
AcDbEntity
  8
Visible (ANSI)
100
AcDbLine
 10
63.29238554606993
 20
69.08776673970054
 30
0.0
 11
62.26113554606993
 21
70.11901673970054
 31
0.0
  0
SPLINE
  5
1F5
330
6C
100
AcDbEntity
  8
Visible (ANSI)
100
AcDbSpline
210
0.0
220
0.0
230
1.0
 70
     8
 71
     3
 72
    11
 73
     7
 74
     0
 42
0.0000000001
 43
0.0000000001
 40
0.0
 40
0.0
 40
0.0
 40
0.0
 40
0.9120227246349516
 40
0.9120227246349516
 40
0.9120227246349516
 40
1.570796326794896
 40
1.570796326794896
 40
1.570796326794896
 40
1.570796326794896
 10
55.60488554606994
 20
68.84691965278853
 30
0.0
 10
55.60916215513085
 20
68.84691965278851
 30
0.0
 10
55.61343876419176
 20
68.87917661985483
 30
0.0
 10
55.61771537325267
 20
68.93176237701998
 30
0.0
 10
55.62080445982912
 20
68.96974619884182
 30
0.0
 10
55.62389354640558
 20
69.01763407763097
 30
0.0
 10
55.62698263298202
 20
69.06566965278845
 30
0.0
  0
SPLINE
  5
1F6
330
6C
100
AcDbEntity
  8
Visible (ANSI)
100
AcDbSpline
210
0.0
220
0.0
230
1.0
 70
     8
 71
     3
 72
    11
 73
     7
 74
     0
 42
0.0000000001
 43
0.0000000001
 40
0.0
 40
0.0
 40
0.0
 40
0.0
 40
0.9120227246349513
 40
0.9120227246349513
 40
0.9120227246349513
 40
1.570796326794896
 40
1.570796326794896
 40
1.570796326794896
 40
1.570796326794896
 10
63.27028845915785
 20
69.06566965278845
 30
0.0
 10
63.27456506821877
 20
68.99916799578384
 30
0.0
 10
63.27884167727968
 20
68.933403324679
 30
0.0
 10
63.28311828634059
 20
68.89269449851406
 30
0.0
 10
63.28620737291704
 20
68.86328963904294
 30
0.0
 10
63.28929645949349
 20
68.84691965278851
 30
0.0
 10
63.29238554606995
 20
68.84691965278853
 30
0.0
  0
LINE
  5
1F7
330
6C
100
AcDbEntity
  8
Visible (ANSI)
100
AcDbLine
 10
62.23903845915785
 20
70.09691965278847
 30
0.0
 11
63.27028845915785
 21
69.06566965278845
 31
0.0
  0
SPLINE
  5
1F8
330
6C
100
AcDbEntity
  8
Visible (ANSI)
100
AcDbSpline
210
0.0
220
0.0
230
1.0
 70
    24
 71
     3
 72
     8
 73
     4
 74
     0
 42
0.0000000001
 43
0.0000000001
 40
0.0
 40
0.0
 40
0.0
 40
0.0
 40
0.3175000000000001
 40
0.3175000000000001
 40
0.3175000000000001
 40
0.3175000000000001
 10
63.29238554606995
 20
68.97191965278853
 30
0.0
 10
63.29238554606995
 20
68.93025298612187
 30
0.0
 10
63.29238554606995
 20
68.8885863194552
 30
0.0
 10
63.29238554606995
 20
68.84691965278853
 30
0.0
  0
SPLINE
  5
1F9
330
6C
100
AcDbEntity
  8
Visible (ANSI)
100
AcDbSpline
210
0.0
220
0.0
230
1.0
 70
     8
 71
     3
 72
    11
 73
     7
 74
     0
 42
0.0000000001
 43
0.0000000001
 40
0.0
 40
0.0
 40
0.0
 40
0.0
 40
1.12719708240338
 40
1.12719708240338
 40
1.12719708240338
 40
1.570796326794896
 40
1.570796326794896
 40
1.570796326794896
 40
1.570796326794896
 10
63.29238554606995
 20
68.97191965278853
 30
0.0
 10
63.28709995271154
 20
68.97191965278851
 30
0.0
 10
63.28181435935314
 20
68.99361721102512
 30
0.0
 10
63.27652876599475
 20
69.02543279765177
 30
0.0
 10
63.27444866371577
 20
69.0379535630155
 30
0.0
 10
63.27236856143681
 20
69.05180717640127
 30
0.0
 10
63.27028845915785
 20
69.0656696527885
 30
0.0
  0
SPLINE
  5
1FA
330
6C
100
AcDbEntity
  8
Visible (ANSI)
100
AcDbSpline
210
0.0
220
0.0
230
1.0
 70
     8
 71
     3
 72
    11
 73
     7
 74
     0
 42
0.0000000001
 43
0.0000000001
 40
0.0
 40
0.0
 40
0.0
 40
0.0
 40
1.127197082403383
 40
1.127197082403383
 40
1.127197082403383
 40
1.570796326794896
 40
1.570796326794896
 40
1.570796326794896
 40
1.570796326794896
 10
55.60488554606994
 20
68.97191965278853
 30
0.0
 10
55.61017113942835
 20
68.97191965278851
 30
0.0
 10
55.61545673278675
 20
68.99361721102512
 30
0.0
 10
55.62074232614514
 20
69.02543279765177
 30
0.0
 10
55.6228224284241
 20
69.0379535630155
 30
0.0
 10
55.62490253070306
 20
69.05180717640127
 30
0.0
 10
55.62698263298202
 20
69.0656696527885
 30
0.0
  0
SPLINE
  5
1FB
330
6C
100
AcDbEntity
  8
Visible (ANSI)
100
AcDbSpline
210
0.0
220
0.0
230
1.0
 70
    24
 71
     3
 72
     8
 73
     4
 74
     0
 42
0.0000000001
 43
0.0000000001
 40
-0.3175000000000001
 40
-0.3175000000000001
 40
-0.3175000000000001
 40
-0.3175000000000001
 40
0.0000000000000001
 40
0.0000000000000001
 40
0.0000000000000001
 40
0.0000000000000001
 10
55.60488554606994
 20
68.84691965278853
 30
0.0
 10
55.60488554606994
 20
68.8885863194552
 30
0.0
 10
55.60488554606994
 20
68.93025298612187
 30
0.0
 10
55.60488554606994
 20
68.97191965278853
 30
0.0
  0
LINE
  5
1FC
330
6C
100
AcDbEntity
  8
Visible (ANSI)
100
AcDbLine
 10
55.62698263298202
 20
69.06566965278845
 30
0.0
 11
56.65823263298203
 21
70.09691965278847
 31
0.0
  0
SPLINE
  5
1FD
330
6C
100
AcDbEntity
  8
Visible (ANSI)
100
AcDbSpline
210
0.0
220
0.0
230
1.0
 70
     8
 71
     3
 72
    11
 73
     7
 74
     0
 42
0.0000000001
 43
0.0000000001
 40
0.0
 40
0.0
 40
0.0
 40
0.0
 40
0.912022724634949
 40
0.912022724634949
 40
0.912022724634949
 40
1.570796326794896
 40
1.570796326794896
 40
1.570796326794896
 40
1.570796326794896
 10
55.60488554606994
 20
69.08776673970054
 30
0.0
 10
55.5383838890653
 20
69.08349013063963
 30
0.0
 10
55.47261921796047
 20
69.07921352157874
 30
0.0
 10
55.43191039179553
 20
69.07493691251784
 30
0.0
 10
55.40250553232437
 20
69.07184782594139
 30
0.0
 10
55.38613554606994
 20
69.06875873936496
 30
0.0
 10
55.38613554606994
 20
69.06566965278853
 30
0.0
  0
LINE
  5
1FE
330
6C
100
AcDbEntity
  8
Visible (ANSI)
100
AcDbLine
 10
56.63613554606995
 20
70.11901673970054
 30
0.0
 11
55.60488554606994
 21
69.08776673970054
 31
0.0
  0
SPLINE
  5
1FF
330
6C
100
AcDbEntity
  8
Visible (ANSI)
100
AcDbSpline
210
0.0
220
0.0
230
1.0
 70
    24
 71
     3
 72
     8
 73
     4
 74
     0
 42
0.0000000001
 43
0.0000000001
 40
0.0
 40
0.0
 40
0.0
 40
0.0
 40
0.3175000000000002
 40
0.3175000000000002
 40
0.3175000000000002
 40
0.3175000000000002
 10
55.51113554606994
 20
69.06566965278853
 30
0.0
 10
55.46946887940328
 20
69.06566965278853
 30
0.0
 10
55.42780221273661
 20
69.06566965278853
 30
0.0
 10
55.38613554606994
 20
69.06566965278853
 30
0.0
  0
SPLINE
  5
200
330
6C
100
AcDbEntity
  8
Visible (ANSI)
100
AcDbSpline
210
0.0
220
0.0
230
1.0
 70
     8
 71
     3
 72
    11
 73
     7
 74
     0
 42
0.0000000001
 43
0.0000000001
 40
0.0
 40
0.0
 40
0.0
 40
0.0
 40
1.127197082403381
 40
1.127197082403381
 40
1.127197082403381
 40
1.570796326794896
 40
1.570796326794896
 40
1.570796326794896
 40
1.570796326794896
 10
55.51113554606994
 20
69.06566965278853
 30
0.0
 10
55.51113554606994
 20
69.07095524614693
 30
0.0
 10
55.53283310430655
 20
69.0762408395053
 30
0.0
 10
55.56464869093321
 20
69.0815264328637
 30
0.0
 10
55.57716945629696
 20
69.08360653514266
 30
0.0
 10
55.5910230696827
 20
69.08568663742162
 30
0.0
 10
55.60488554606994
 20
69.08776673970058
 30
0.0
  0
LINE
  5
201
330
6C
100
AcDbEntity
  8
Visible (ANSI)
100
AcDbLine
 10
62.26113554606988
 20
74.84691965278845
 30
0.0
 11
63.29238554606988
 21
74.84691965278847
 31
0.0
  0
LINE
  5
202
330
6C
100
AcDbEntity
  8
Visible (ANSI)
100
AcDbLine
 10
62.26113554606993
 20
70.11901673970054
 30
0.0
 11
62.26113554606988
 21
74.84691965278845
 31
0.0
  0
LINE
  5
203
330
6C
100
AcDbEntity
  8
Visible (ANSI)
100
AcDbLine
 10
56.65823263298203
 20
70.09691965278847
 30
0.0
 11
62.23903845915785
 21
70.09691965278847
 31
0.0
  0
LINE
  5
204
330
6C
100
AcDbEntity
  8
Visible (ANSI)
100
AcDbLine
 10
55.60488554606994
 20
74.8469196527884
 30
0.0
 11
56.63613554606995
 21
74.8469196527884
 31
0.0
  0
LINE
  5
205
330
6C
100
AcDbEntity
  8
Visible (ANSI)
100
AcDbLine
 10
56.63613554606995
 20
74.8469196527884
 30
0.0
 11
56.63613554606995
 21
70.11901673970054
 31
0.0
  0
ARC
  5
206
330
6C
100
AcDbEntity
  8
Visible (ANSI)
100
AcDbCircle
 10
55.60488554606994
 20
69.06566965278853
 30
0.0
 40
0.09375
100
AcDbArc
 50
180.0
 51
270.0
  0
ARC
  5
207
330
6C
100
AcDbEntity
  8
Visible (ANSI)
100
AcDbCircle
 10
55.60488554606994
 20
69.06566965278853
 30
0.0
 40
0.21875
100
AcDbArc
 50
180.0
 51
270.0
  0
ARC
  5
208
330
6C
100
AcDbEntity
  8
Visible (ANSI)
100
AcDbCircle
 10
63.29238554606993
 20
69.06566965278853
 30
0.0
 40
0.0937499999999964
100
AcDbArc
 50
270.0
 51
0.0
  0
ARC
  5
209
330
6C
100
AcDbEntity
  8
Visible (ANSI)
100
AcDbCircle
 10
63.29238554606993
 20
69.06566965278853
 30
0.0
 40
0.2187500000000024
100
AcDbArc
 50
270.0
 51
0.0
  0
LINE
  5
20A
330
6C
100
AcDbEntity
  8
Visible (ANSI)
100
AcDbLine
 10
55.38613554606994
 20
74.8653164990434
 30
0.0
 11
55.38613554606993
 21
76.84691965279552
 31
0.0
  0
LINE
  5
20B
330
6C
100
AcDbEntity
  8
Visible (ANSI)
100
AcDbLine
 10
63.38613554606989
 20
74.86531649904346
 30
0.0
 11
63.38613554606986
 21
76.84691965279552
 31
0.0
  0
LINE
  5
20C
330
6C
100
AcDbEntity
  8
Visible (ANSI)
100
AcDbLine
 10
63.51113554606985
 20
76.84691965279552
 30
0.0
 11
63.51113554606989
 21
74.86531649904346
 31
0.0
  0
LINE
  5
20D
330
6C
100
AcDbEntity
  8
Visible (ANSI)
100
AcDbLine
 10
63.38613554606986
 20
76.84691965279552
 30
0.0
 11
63.51113554606985
 21
76.84691965279552
 31
0.0
  0
LINE
  5
20E
330
6C
100
AcDbEntity
  8
Visible (ANSI)
100
AcDbLine
 10
55.51113554606994
 20
76.84691965279552
 30
0.0
 11
55.51113554606994
 21
74.8653164990434
 31
0.0
  0
LINE
  5
20F
330
6C
100
AcDbEntity
  8
Visible (ANSI)
100
AcDbLine
 10
55.38613554606993
 20
76.84691965279552
 30
0.0
 11
55.51113554606994
 21
76.84691965279552
 31
0.0
  0
LINE
  5
210
330
6C
100
AcDbEntity
  8
Visible (ANSI)
100
AcDbLine
 10
56.13613554606994
 20
76.84691965279554
 30
0.0
 11
56.38613554606995
 21
76.59691965279555
 31
0.0
  0
LINE
  5
211
330
6C
100
AcDbEntity
  8
Visible (ANSI)
100
AcDbLine
 10
62.51113554606969
 20
76.59691965279555
 30
0.0
 11
62.76113554606966
 21
76.84691965279554
 31
0.0
  0
LINE
  5
212
330
6C
100
AcDbEntity
  8
Visible (ANSI)
100
AcDbLine
 10
56.13613554606994
 20
76.84691965279554
 30
0.0
 11
55.60488554606994
 21
76.84691965279554
 31
0.0
  0
LINE
  5
213
330
6C
100
AcDbEntity
  8
Visible (ANSI)
100
AcDbLine
 10
62.76113554606966
 20
76.84691965279554
 30
0.0
 11
63.29238554606977
 21
76.84691965279554
 31
0.0
  0
LINE
  5
214
330
6C
100
AcDbEntity
  8
Visible Narrow (ANSI)
100
AcDbLine
 10
55.60488554606994
 20
76.84691965279554
 30
0.0
 11
55.60488554606994
 21
74.84691965279548
 31
0.0
  0
LINE
  5
215
330
6C
100
AcDbEntity
  8
Visible (ANSI)
100
AcDbLine
 10
55.60488554606995
 20
76.84691965279554
 30
0.0
 11
55.51113554606996
 21
76.84691965279552
 31
0.0
  0
LINE
  5
216
330
6C
100
AcDbEntity
  8
Visible (ANSI)
100
AcDbLine
 10
63.29238554606977
 20
76.84691965279554
 30
0.0
 11
63.38613554606973
 21
76.84691965279552
 31
0.0
  0
LINE
  5
217
330
6C
100
AcDbEntity
  8
Visible Narrow (ANSI)
100
AcDbLine
 10
63.29238554606977
 20
74.84691965279555
 30
0.0
 11
63.29238554606977
 21
76.84691965279554
 31
0.0
  0
CIRCLE
  5
218
330
6C
100
AcDbEntity
  8
Visible (ANSI)
100
AcDbCircle
 10
59.44863554606989
 20
72.5969196527885
 30
0.0
 40
0.28125
  0
CIRCLE
  5
219
330
6C
100
AcDbEntity
  8
Visible (ANSI)
100
AcDbCircle
 10
57.5111355460699
 20
75.59691965278847
 30
0.0
 40
0.28125
  0
CIRCLE
  5
21A
330
6C
100
AcDbEntity
  8
Visible (ANSI)
100
AcDbCircle
 10
61.38613554606989
 20
75.59691965278847
 30
0.0
 40
0.28125
  0
ARC
  5
21B
330
6C
100
AcDbEntity
  8
Visible (ANSI)
100
AcDbCircle
 10
63.1361355460699
 20
76.47191965278847
 30
0.0
 40
0.1249999999999982
100
AcDbArc
 50
0.0
 51
90.0
  0
ARC
  5
21C
330
6C
100
AcDbEntity
  8
Visible (ANSI)
100
AcDbCircle
 10
55.76113554606989
 20
76.47191965278847
 30
0.0
 40
0.125
100
AcDbArc
 50
90.0
 51
180.0
  0
ARC
  5
21D
330
6C
100
AcDbEntity
  8
Visible (ANSI)
100
AcDbCircle
 10
55.76113554606987
 20
69.09682248928334
 30
0.0
 40
0.1249999999999735
100
AcDbArc
 50
180.0
 51
189.3624011371781
  0
ARC
  5
21E
330
6C
100
AcDbEntity
  8
Visible (ANSI)
100
AcDbCircle
 10
63.13613554606967
 20
69.09682248928337
 30
0.0
 40
0.1250000000002234
100
AcDbArc
 50
350.6375988628461
 51
0.0
  0
LINE
  5
21F
330
6C
100
AcDbEntity
  8
Visible (ANSI)
100
AcDbLine
 10
63.2611355460699
 20
76.47191965278847
 30
0.0
 11
63.2611355460699
 21
75.09702886955757
 31
0.0
  0
LINE
  5
220
330
6C
100
AcDbEntity
  8
Visible (ANSI)
100
AcDbLine
 10
55.76113554606989
 20
76.59691965278845
 30
0.0
 11
63.1361355460699
 21
76.59691965278845
 31
0.0
  0
LINE
  5
221
330
6C
100
AcDbEntity
  8
Visible (ANSI)
100
AcDbLine
 10
55.63613554606989
 20
75.09702886955757
 30
0.0
 11
55.63613554606989
 21
76.47191965278847
 31
0.0
  0
LINE
  5
222
330
6C
100
AcDbEntity
  8
Visible (ANSI)
100
AcDbLine
 10
63.2611355460699
 20
74.94234926117305
 30
0.0
 11
63.2611355460699
 21
75.09702886955757
 31
0.0
  0
LINE
  5
223
330
6C
100
AcDbEntity
  8
Visible Narrow (ANSI)
100
AcDbLine
 10
55.63613554606989
 20
75.09702886955757
 30
0.0
 11
63.2611355460699
 21
75.09702886955757
 31
0.0
  0
LINE
  5
224
330
6C
100
AcDbEntity
  8
Visible (ANSI)
100
AcDbLine
 10
55.63613554606989
 20
74.94234926117305
 30
0.0
 11
55.63613554606989
 21
75.09702886955757
 31
0.0
  0
LINE
  5
225
330
6C
100
AcDbEntity
  8
Visible Narrow (ANSI)
100
AcDbLine
 10
55.63613554606989
 20
74.94234926117305
 30
0.0
 11
63.2611355460699
 21
74.94234926117305
 31
0.0
  0
LINE
  5
226
330
6C
100
AcDbEntity
  8
Visible (ANSI)
100
AcDbLine
 10
63.2611355460699
 20
74.90900453325045
 30
0.0
 11
63.2611355460699
 21
74.94234926117305
 31
0.0
  0
LINE
  5
227
330
6C
100
AcDbEntity
  8
Visible (ANSI)
100
AcDbLine
 10
55.63613554606989
 20
74.94234926117305
 30
0.0
 11
55.63613554606989
 21
74.90900453325045
 31
0.0
  0
LINE
  5
228
330
6C
100
AcDbEntity
  8
Visible (ANSI)
100
AcDbLine
 10
63.2611355460699
 20
74.90900453325045
 30
0.0
 11
63.2611355460699
 21
74.8469196527885
 31
0.0
  0
LINE
  5
229
330
6C
100
AcDbEntity
  8
Visible (ANSI)
100
AcDbLine
 10
55.63613554606989
 20
74.90900453325045
 30
0.0
 11
55.63613554606989
 21
74.84691965278843
 31
0.0
  0
LINE
  5
22A
330
6C
100
AcDbEntity
  8
Visible Narrow (ANSI)
100
AcDbLine
 10
56.63613554606993
 20
74.84271327251423
 30
0.0
 11
62.26113554606986
 21
74.84271327251423
 31
0.0
  0
LINE
  5
22B
330
6C
100
AcDbEntity
  8
Visible Narrow (ANSI)
100
AcDbLine
 10
55.63613554606989
 20
74.90900453325045
 30
0.0
 11
63.2611355460699
 21
74.90900453325045
 31
0.0
  0
LINE
  5
22C
330
6C
100
AcDbEntity
  8
Visible (ANSI)
100
AcDbLine
 10
63.2611355460699
 20
69.09682248928334
 30
0.0
 11
63.2611355460699
 21
69.11901673970061
 31
0.0
  0
LINE
  5
22D
330
6C
100
AcDbEntity
  8
Visible (ANSI)
100
AcDbLine
 10
55.63613554606989
 20
69.11901673970054
 30
0.0
 11
55.63613554606989
 21
69.09682248928334
 31
0.0
  0
MTEXT
  5
22E
330
6C
100
AcDbEntity
  8
Symbol (ANSI)
100
AcDbMText
 10
56.54777459706683
 20
65.62122825037291
 30
0.0
 40
0.9600000118646095
 41
0.0
 71
     7
 72
     1
  1
TOP VIEW
  7
Text Style168
 73
     1
 44
1.0
  0
LINE
  5
22F
330
6C
100
AcDbEntity
  8
Symbol (ANSI)
370
    30
100
AcDbLine
 10
56.5485425990424
 20
65.4254551513738
 30
0.0
 11
62.60572241798426
 21
65.4254551513738
 31
0.0
  0
ELLIPSE
  5
230
330
6C
100
AcDbEntity
  8
Visible (ANSI)
100
AcDbEllipse
 10
123.4728182064612
 20
75.84237715309054
 30
0.0
 11
-0.3214285714285713
 21
0.0000000000000209
 31
0.0
210
0.0
220
0.0
230
1.0
 40
0.5758617009853082
 41
0.0
 42
6.283185307179586
  0
ELLIPSE
  5
231
330
6C
100
AcDbEntity
  8
Visible (ANSI)
100
AcDbEllipse
 10
123.4728182064612
 20
75.72558470668447
 30
0.0
 11
0.3214285714285765
 21
-0.000000000000001
 31
0.0
210
0.0
220
0.0
230
1.0
 40
0.5758617009853185
 41
0.320970292825655
 42
2.820622360764149
  0
ELLIPSE
  5
232
330
6C
100
AcDbEntity
  8
Visible (ANSI)
100
AcDbEllipse
 10
126.4022605856631
 20
74.15542348166543
 30
0.0
 11
-0.3214285714285713
 21
0.0000000000000209
 31
0.0
210
0.0
220
0.0
230
1.0
 40
0.5758617009853082
 41
0.0
 42
6.283185307179586
  0
ELLIPSE
  5
233
330
6C
100
AcDbEntity
  8
Visible (ANSI)
100
AcDbEllipse
 10
126.4022605856631
 20
74.03863103525933
 30
0.0
 11
0.3214285714285767
 21
-0.000000000000001
 31
0.0
210
0.0
220
0.0
230
1.0
 40
0.5758617009853184
 41
0.320970292825655
 42
2.820622360764148
  0
ELLIPSE
  5
234
330
6C
100
AcDbEntity
  8
Visible (ANSI)
100
AcDbEllipse
 10
121.1494673539911
 20
75.95871878560244
 30
0.0
 11
-0.3214285714285713
 21
0.0000000000000178
 31
0.0
210
0.0
220
0.0
230
1.0
 40
0.5758617009853109
 41
0.0
 42
6.283185307179586
  0
ELLIPSE
  5
235
330
6C
100
AcDbEntity
  8
Visible (ANSI)
100
AcDbEllipse
 10
121.1494673539911
 20
75.84192633919636
 30
0.0
 11
0.3214285714285768
 21
0.0000000000000001
 31
0.0
210
0.0
220
0.0
230
1.0
 40
0.5758617009853119
 41
0.3209702928256527
 42
2.820622360764139
  0
ELLIPSE
  5
236
330
6C
100
AcDbEntity
  8
Visible (ANSI)
100
AcDbEllipse
 10
117.1088571757829
 20
73.63188613536017
 30
0.0
 11
-0.3214285714285713
 21
0.0000000000000178
 31
0.0
210
0.0
220
0.0
230
1.0
 40
0.5758617009853109
 41
0.0
 42
6.283185307179586
  0
ELLIPSE
  5
237
330
6C
100
AcDbEntity
  8
Visible (ANSI)
100
AcDbEllipse
 10
117.1088571757829
 20
73.5150936889541
 30
0.0
 11
0.3214285714285735
 21
0.0000000000000001
 31
0.0
210
0.0
220
0.0
230
1.0
 40
0.5758617009853118
 41
0.3209702928256527
 42
2.820622360764139
  0
ELLIPSE
  5
238
330
6C
100
AcDbEntity
  8
Visible (ANSI)
100
AcDbEllipse
 10
126.6042910945738
 20
72.81749470777636
 30
0.0
 11
-0.3214285714285713
 21
0.0000000000000168
 31
0.0
210
0.0
220
0.0
230
1.0
 40
0.5758617009853194
 41
0.0
 42
6.283185307179586
  0
ELLIPSE
  5
239
330
6C
100
AcDbEntity
  8
Visible (ANSI)
100
AcDbEllipse
 10
126.6042910945739
 20
72.70070226137029
 30
0.0
 11
0.3214285714285743
 21
-0.0000000000000006
 31
0.0
210
0.0
220
0.0
230
1.0
 40
0.5758617009853157
 41
0.3209702928256546
 42
2.820622360764145
  0
ELLIPSE
  5
23A
330
6C
100
AcDbEntity
  8
Visible (ANSI)
100
AcDbEllipse
 10
122.5636809163656
 20
70.49066205753408
 30
0.0
 11
-0.3214285714285713
 21
0.0000000000000168
 31
0.0
210
0.0
220
0.0
230
1.0
 40
0.5758617009853194
 41
0.0
 42
6.283185307179586
  0
ELLIPSE
  5
23B
330
6C
100
AcDbEntity
  8
Visible (ANSI)
100
AcDbEllipse
 10
122.5636809163656
 20
70.373869611128
 30
0.0
 11
0.3214285714285779
 21
0.0000000000000031
 31
0.0
210
0.0
220
0.0
230
1.0
 40
0.5758617009853185
 41
0.3209702928256918
 42
2.820622360764128
  0
SPLINE
  5
23C
330
6C
100
AcDbEntity
  8
Visible (ANSI)
100
AcDbSpline
210
0.0
220
0.0
230
1.0
 70
     8
 71
     3
 72
     8
 73
     4
 74
     0
 42
0.0000000001
 43
0.0000000001
 40
0.0
 40
0.0
 40
0.0
 40
0.0
 40
0.7873318718203435
 40
0.7873318718203435
 40
0.7873318718203435
 40
0.7873318718203435
 10
128.5993423700644
 20
51.10672642126075
 30
0.0
 10
128.5963588519869
 20
51.05136825179044
 30
0.0
 10
128.57394837483
 20
51.0077105023006
 30
0.0
 10
128.538312592714
 20
50.98680043303919
 30
0.0
  0
SPLINE
  5
23D
330
6C
100
AcDbEntity
  8
Visible (ANSI)
100
AcDbSpline
210
0.0
220
0.0
230
1.0
 70
     8
 71
     3
 72
     8
 73
     4
 74
     0
 42
0.0000000001
 43
0.0000000001
 40
0.0
 40
0.0
 40
0.0
 40
0.0
 40
0.2101164220635832
 40
0.2101164220635832
 40
0.2101164220635832
 40
0.2101164220635832
 10
122.2858889666121
 20
54.82965866164726
 30
0.0
 10
122.2866851824977
 20
54.8230651486723
 30
0.0
 10
122.2868721307692
 20
54.81614973835385
 30
0.0
 10
122.2865104219869
 20
54.80905822005198
 30
0.0
  0
SPLINE
  5
23E
330
6C
100
AcDbEntity
  8
Visible (ANSI)
100
AcDbSpline
210
0.0
220
0.0
230
1.0
 70
     8
 71
     3
 72
     8
 73
     4
 74
     0
 42
0.0000000001
 43
0.0000000001
 40
0.0
 40
0.0
 40
0.0
 40
0.0
 40
0.7825528965236002
 40
0.7825528965236002
 40
0.7825528965236002
 40
0.7825528965236002
 10
122.1343660849293
 20
54.82965866164725
 30
0.0
 10
122.1314006763171
 20
54.80510192959292
 30
0.0
 10
122.1368864117951
 20
54.77608016317764
 30
0.0
 10
122.1476921013912
 20
54.75012495723314
 30
0.0
  0
LINE
  5
23F
330
6C
100
AcDbEntity
  8
Visible Narrow (ANSI)
100
AcDbLine
 10
123.9125199546661
 20
48.40776489291268
 30
0.0
 11
128.5993423700644
 21
51.10672642126075
 31
0.0
  0
SPLINE
  5
240
330
6C
100
AcDbEntity
  8
Visible (ANSI)
100
AcDbSpline
210
0.0
220
0.0
230
1.0
 70
     8
 71
     3
 72
    11
 73
     7
 74
     0
 42
0.0000000001
 43
0.0000000001
 40
0.0
 40
0.0
 40
0.0
 40
0.0
 40
0.9120227246349752
 40
0.9120227246349752
 40
0.9120227246349752
 40
1.570796326794895
 40
1.570796326794895
 40
1.570796326794895
 40
1.570796326794895
 10
123.7506101562144
 20
48.31373831665561
 30
0.0
 10
123.8014743125661
 20
48.28113374552607
 30
0.0
 10
123.8517428943723
 20
48.27901110374596
 30
0.0
 10
123.8817632957609
 20
48.30754260660791
 30
0.0
 10
123.9034476764532
 20
48.32815152391632
 30
0.0
 10
123.9145982888674
 20
48.36408018728369
 30
0.0
 10
123.9125199546661
 20
48.40776489291268
 30
0.0
  0
LINE
  5
241
330
6C
100
AcDbEntity
  8
Visible Narrow (ANSI)
100
AcDbLine
 10
123.7506101562144
 20
48.43053076306168
 30
0.0
 11
123.8115407370336
 21
48.46561835097428
 31
0.0
  0
LINE
  5
242
330
6C
100
AcDbEntity
  8
Visible (ANSI)
100
AcDbLine
 10
123.7506101562144
 20
48.43053076306168
 30
0.0
 11
123.7506101562144
 21
48.31373831665561
 31
0.0
  0
LINE
  5
243
330
6C
100
AcDbEntity
  8
Visible (ANSI)
100
AcDbLine
 10
123.8482827988891
 20
48.44475661070488
 30
0.0
 11
123.9125199546661
 21
48.40776489291268
 31
0.0
  0
LINE
  5
244
330
6C
100
AcDbEntity
  8
Visible (ANSI)
100
AcDbLine
 10
123.8115047002109
 20
48.46593570916873
 30
0.0
 11
123.8482827988891
 21
48.44475661070488
 31
0.0
  0
SPLINE
  5
245
330
6C
100
AcDbEntity
  8
Visible (ANSI)
100
AcDbSpline
210
0.0
220
0.0
230
1.0
 70
     8
 71
     3
 72
    11
 73
     7
 74
     0
 42
0.0000000001
 43
0.0000000001
 40
0.0
 40
0.0
 40
0.0
 40
0.0
 40
1.127197082403416
 40
1.127197082403416
 40
1.127197082403416
 40
1.570796326794896
 40
1.570796326794896
 40
1.570796326794896
 40
1.570796326794896
 10
123.8115047002109
 20
48.46593570916873
 30
0.0
 10
123.8150608418659
 20
48.43507152874223
 30
0.0
 10
123.8010827085904
 20
48.41513801371206
 30
0.0
 10
123.7789279736156
 20
48.41786615338226
 30
0.0
 10
123.7702091578486
 20
48.41893979056177
 30
0.0
 10
123.7604132382249
 20
48.42327371747474
 30
0.0
 10
123.7506101562144
 20
48.43053076306168
 30
0.0
  0
LINE
  5
246
330
6C
100
AcDbEntity
  8
Visible Narrow (ANSI)
100
AcDbLine
 10
122.2858889666121
 20
54.82965866164726
 30
0.0
 11
122.3197915927628
 21
54.81013543768428
 31
0.0
  0
SPLINE
  5
247
330
6C
100
AcDbEntity
  8
Visible (ANSI)
100
AcDbSpline
210
0.0
220
0.0
230
1.0
 70
     8
 71
     3
 72
    11
 73
     7
 74
     0
 42
0.0000000001
 43
0.0000000001
 40
0.0
 40
0.0
 40
0.0
 40
0.0
 40
0.9120227246349479
 40
0.9120227246349479
 40
0.9120227246349479
 40
1.006564503597651
 40
1.006564503597651
 40
1.006564503597651
 40
1.006564503597651
 10
117.3465284150759
 20
52.18886794955523
 30
0.0
 10
117.3494057131563
 20
52.12838974562902
 30
0.0
 10
117.378350577126
 20
52.05358882395889
 30
0.0
 10
117.4237235843325
 20
51.9927382311988
 30
0.0
 10
117.4284270250498
 20
51.98643035845059
 30
0.0
 10
117.433295306768
 20
51.98027839426452
 30
0.0
 10
117.4383051256443
 20
51.9743049688216
 30
0.0
  0
SPLINE
  5
248
330
6C
100
AcDbEntity
  8
Visible (ANSI)
100
AcDbSpline
210
0.0
220
0.0
230
1.0
 70
     8
 71
     3
 72
     8
 73
     4
 74
     0
 42
0.0000000001
 43
0.0000000001
 40
0.0
 40
0.0
 40
0.0
 40
0.0
 40
0.9543372514548355
 40
0.9543372514548355
 40
0.9543372514548355
 40
0.9543372514548355
 10
117.4475436695311
 20
52.13069713329918
 30
0.0
 10
117.4505544637444
 20
52.10456608880267
 30
0.0
 10
117.4661340011451
 20
52.07179453864124
 30
0.0
 10
117.4886032546914
 20
52.04604250699064
 30
0.0
  0
LINE
  5
249
330
6C
100
AcDbEntity
  8
Visible (ANSI)
100
AcDbLine
 10
117.4107655708529
 20
52.15187623176302
 30
0.0
 11
117.4475436695311
 21
52.13069713329918
 31
0.0
  0
LINE
  5
24A
330
6C
100
AcDbEntity
  8
Visible (ANSI)
100
AcDbLine
 10
117.3465284150759
 20
52.18886794955522
 30
0.0
 11
117.4107655708529
 21
52.15187623176302
 31
0.0
  0
LINE
  5
24B
330
6C
100
AcDbEntity
  8
Visible Narrow (ANSI)
100
AcDbLine
 10
117.4475436695311
 20
52.13069713329918
 30
0.0
 11
122.1343660849293
 21
54.82965866164725
 31
0.0
  0
LINE
  5
24C
330
6C
100
AcDbEntity
  8
Visible (ANSI)
100
AcDbLine
 10
123.8679530623883
 20
48.29720913982548
 30
0.0
 11
128.5383731734314
 21
50.98672520928748
 31
0.0
  0
LINE
  5
24D
330
6C
100
AcDbEntity
  8
Visible (ANSI)
100
AcDbLine
 10
123.7506101562144
 20
48.43053076306168
 30
0.0
 11
123.7253563426006
 21
48.44507346712568
 31
0.0
  0
LINE
  5
24E
330
6C
100
AcDbEntity
  8
Visible (ANSI)
100
AcDbLine
 10
123.6607329196802
 20
48.36549517496602
 30
0.0
 11
123.7506101562144
 21
48.31373831665561
 31
0.0
  0
ELLIPSE
  5
24F
330
6C
100
AcDbEntity
  8
Visible (ANSI)
100
AcDbEllipse
 10
122.2101275257707
 20
54.78603054945523
 30
0.0
 11
0.1071428571428571
 21
-0.0000000000000063
 31
0.0
210
0.0
220
0.0
230
1.0
 40
0.5758617009853118
 41
0.785398163397943
 42
2.356194490192873
  0
ELLIPSE
  5
250
330
6C
100
AcDbEntity
  8
Visible (ANSI)
100
AcDbEllipse
 10
128.4225656747677
 20
51.20852534970882
 30
0.0
 11
0.2499999999999868
 21
0.0
 31
0.0
210
0.0
220
0.0
230
1.0
 40
0.5758617009853119
 41
5.497787143782258
 42
6.283185307179663
  0
LINE
  5
251
330
6C
100
AcDbEntity
  8
Visible (ANSI)
100
AcDbLine
 10
117.3465284150759
 20
52.18886794955522
 30
0.0
 11
115.7451512406374
 21
73.28207231350932
 31
0.0
  0
LINE
  5
252
330
6C
100
AcDbEntity
  8
Visible (ANSI)
100
AcDbLine
 10
123.8115047002109
 20
48.46593570916873
 30
0.0
 11
122.2101275257725
 21
69.55914007312284
 31
0.0
  0
LINE
  5
253
330
6C
100
AcDbEntity
  8
Visible (ANSI)
100
AcDbLine
 10
122.3111427802277
 20
69.50096925686681
 30
0.0
 11
123.9125199546661
 21
48.40776489291268
 31
0.0
  0
LINE
  5
254
330
6C
100
AcDbEntity
  8
Visible (ANSI)
100
AcDbLine
 10
122.2101275257725
 20
69.55914007312284
 30
0.0
 11
122.3111427802277
 21
69.50096925686681
 31
0.0
  0
LINE
  5
255
330
6C
100
AcDbEntity
  8
Visible (ANSI)
100
AcDbLine
 10
115.8461664950927
 20
73.22390149725326
 30
0.0
 11
117.4475436695311
 21
52.13069713329918
 31
0.0
  0
LINE
  5
256
330
6C
100
AcDbEntity
  8
Visible (ANSI)
100
AcDbLine
 10
115.7451512406374
 20
73.28207231350932
 30
0.0
 11
115.8461664950927
 21
73.22390149725326
 31
0.0
  0
ELLIPSE
  5
257
330
6C
100
AcDbEntity
  8
Visible (ANSI)
100
AcDbEllipse
 10
128.4225656747677
 20
73.22390149725436
 30
0.0
 11
0.2500000000000025
 21
0.0
 31
0.0
210
0.0
220
0.0
230
1.0
 40
0.5758617009853118
 41
5.497787143782266
 42
7.068583470577141
  0
ELLIPSE
  5
258
330
6C
100
AcDbEntity
  8
Visible (ANSI)
100
AcDbEllipse
 10
122.2101275257707
 20
76.80140669700076
 30
0.0
 11
-0.1071428571428584
 21
0.0
 31
0.0
210
0.0
220
0.0
230
1.0
 40
0.5758617009853117
 41
4.544940901164574
 42
4.87983705960395
  0
LINE
  5
259
330
6C
100
AcDbEntity
  8
Visible (ANSI)
100
AcDbLine
 10
116.3512427673689
 20
73.02064175077759
 30
0.0
 11
115.9219279359341
 21
73.26786771986579
 31
0.0
  0
LINE
  5
25A
330
6C
100
AcDbEntity
  8
Visible (ANSI)
100
AcDbLine
 10
122.1922703829138
 20
75.91889931892007
 30
0.0
 11
117.1593648030106
 21
73.0206417507777
 31
0.0
  0
LINE
  5
25B
330
6C
100
AcDbEntity
  8
Visible (ANSI)
100
AcDbLine
 10
116.3512427673689
 20
73.13743419718368
 30
0.0
 11
115.9219279359341
 21
73.38466016627187
 31
0.0
  0
LINE
  5
25C
330
6C
100
AcDbEntity
  8
Visible (ANSI)
100
AcDbLine
 10
122.134366084931
 20
69.80715496652551
 30
0.0
 11
121.7050512534961
 21
70.05438093561373
 31
0.0
  0
LINE
  5
25D
330
6C
100
AcDbEntity
  8
Visible (ANSI)
100
AcDbLine
 10
121.7050512534961
 20
69.93758848920766
 30
0.0
 11
122.134366084931
 21
69.69036252011943
 31
0.0
  0
LINE
  5
25E
330
6C
100
AcDbEntity
  8
Visible (ANSI)
100
AcDbLine
 10
126.6544072963138
 20
73.36989205526186
 30
0.0
 11
122.2279846686281
 21
75.91889931892009
 31
0.0
  0
LINE
  5
25F
330
6C
100
AcDbEntity
  8
Visible (ANSI)
100
AcDbLine
 10
126.7379568333994
 20
73.43857152312532
 30
0.0
 11
122.2279846686281
 21
76.03569176532616
 31
0.0
  0
LINE
  5
260
330
6C
100
AcDbEntity
  8
Visible (ANSI)
100
AcDbLine
 10
122.1922703829138
 20
76.03569176532615
 30
0.0
 11
117.1593648030106
 21
73.13743419718377
 31
0.0
  0
LINE
  5
261
330
6C
100
AcDbEntity
  8
Visible (ANSI)
100
AcDbLine
 10
121.7050512534961
 20
70.51974746566212
 30
0.0
 11
126.7379568333993
 21
73.41800503380444
 31
0.0
  0
ELLIPSE
  5
262
330
6C
100
AcDbEntity
  8
Visible (ANSI)
100
AcDbEllipse
 10
122.2101275257707
 20
76.80140669700076
 30
0.0
 11
0.2499999999999946
 21
0.0000000000000001
 31
0.0
210
0.0
220
0.0
230
1.0
 40
0.5758617009853118
 41
1.499306876909287
 42
1.642285776680328
  0
LINE
  5
263
330
6C
100
AcDbEntity
  8
Visible Narrow (ANSI)
100
AcDbLine
 10
128.5993423700644
 20
51.10672642126075
 30
0.0
 11
128.5993423700644
 21
73.12210256880629
 31
0.0
  0
LINE
  5
264
330
6C
100
AcDbEntity
  8
Visible Narrow (ANSI)
100
AcDbLine
 10
122.2858889666121
 20
75.88555445138865
 30
0.0
 11
122.2858889666121
 21
70.85422965913363
 31
0.0
  0
LINE
  5
265
330
6C
100
AcDbEntity
  8
Visible Narrow (ANSI)
100
AcDbLine
 10
122.2858889666121
 20
70.46698835199649
 30
0.0
 11
122.2858889666121
 21
70.39754331666562
 31
0.0
  0
LINE
  5
266
330
6C
100
AcDbEntity
  8
Visible Narrow (ANSI)
100
AcDbLine
 10
122.2858889666121
 20
68.56121679805309
 30
0.0
 11
122.2858889666121
 21
54.82965866164726
 31
0.0
  0
LINE
  5
267
330
6C
100
AcDbEntity
  8
Visible Narrow (ANSI)
100
AcDbLine
 10
122.1343660849293
 20
54.82965866164725
 30
0.0
 11
122.1343660849293
 21
69.69036252012043
 31
0.0
  0
LINE
  5
268
330
6C
100
AcDbEntity
  8
Visible Narrow (ANSI)
100
AcDbLine
 10
122.1343660849293
 20
70.76697343474953
 30
0.0
 11
122.1343660849292
 21
75.88555445138833
 31
0.0
  0
LINE
  5
269
330
6C
100
AcDbEntity
  8
Visible (ANSI)
100
AcDbLine
 10
128.6725656747677
 20
73.22390149725436
 30
0.0
 11
128.6725656747677
 21
51.20852534970882
 31
0.0
  0
LINE
  5
26A
330
6C
100
AcDbEntity
  8
Visible (ANSI)
100
AcDbLine
 10
117.1593648030106
 20
73.13743419718377
 30
0.0
 11
116.3512427673689
 21
73.13743419718368
 31
0.0
  0
LINE
  5
26B
330
6C
100
AcDbEntity
  8
Visible (ANSI)
100
AcDbLine
 10
116.3512427673689
 20
73.13743419718368
 30
0.0
 11
116.3512427673689
 21
73.02064175077759
 31
0.0
  0
LINE
  5
26C
330
6C
100
AcDbEntity
  8
Visible (ANSI)
100
AcDbLine
 10
116.3512427673689
 20
73.02064175077759
 30
0.0
 11
117.1593648030106
 21
73.0206417507777
 31
0.0
  0
LINE
  5
26D
330
6C
100
AcDbEntity
  8
Visible (ANSI)
100
AcDbLine
 10
117.1593648030106
 20
73.0206417507777
 30
0.0
 11
117.1593648030106
 21
73.13743419718377
 31
0.0
  0
LINE
  5
26E
330
6C
100
AcDbEntity
  8
Visible (ANSI)
100
AcDbLine
 10
121.7050512534961
 20
70.05438093561373
 30
0.0
 11
121.7050512534961
 21
70.51974746566212
 31
0.0
  0
LINE
  5
26F
330
6C
100
AcDbEntity
  8
Visible (ANSI)
100
AcDbLine
 10
121.7050512534961
 20
69.93758848920766
 30
0.0
 11
121.7050512534961
 21
70.05438093561373
 31
0.0
  0
ELLIPSE
  5
270
330
6C
100
AcDbEntity
  8
Visible (ANSI)
100
AcDbEllipse
 10
115.9219279359341
 20
73.18027338506126
 30
0.0
 11
-0.0534677369554616
 21
0.0928482253012507
 31
0.0
210
0.0
220
0.0
230
1.0
 40
0.5780931159158103
 41
5.499720852205022
 42
7.070517178999961
  0
ELLIPSE
  5
271
330
6C
100
AcDbEntity
  8
Visible (ANSI)
100
AcDbEllipse
 10
115.9219279359341
 20
73.18027338506124
 30
0.0
 11
-0.1247580528960962
 21
0.216645859036285
 31
0.0
210
0.0
220
0.0
230
1.0
 40
0.5780931159158104
 41
5.499720852205022
 42
7.070517178999891
  0
ELLIPSE
  5
272
330
6C
100
AcDbEntity
  8
Visible (ANSI)
100
AcDbEllipse
 10
122.134366084931
 20
69.60276818531493
 30
0.0
 11
-0.1247580528960884
 21
0.2166458590362452
 31
0.0
210
0.0
220
0.0
230
0.9999999999999998
 40
0.5780931159158004
 41
3.928924525409944
 42
5.499720852204723
  0
ELLIPSE
  5
273
330
6C
100
AcDbEntity
  8
Visible (ANSI)
100
AcDbEllipse
 10
122.134366084931
 20
69.60276818531493
 30
0.0
 11
0.0534677369554445
 21
-0.0928482253012348
 31
0.0
210
0.0
220
0.0
230
1.0
 40
0.5780931159158252
 41
0.787331871820812
 42
2.358128198615418
  0
LINE
  5
274
330
6C
100
AcDbEntity
  8
Visible Narrow (ANSI)
100
AcDbLine
 10
128.4047085319106
 20
73.43857152312544
 30
0.0
 11
122.2279846686278
 21
76.99551023355095
 31
0.0
  0
LINE
  5
275
330
6C
100
AcDbEntity
  8
Visible Narrow (ANSI)
100
AcDbLine
 10
122.1922703829136
 20
76.99551023355093
 30
0.0
 11
115.9219279359341
 21
73.38466016627187
 31
0.0
  0
LINE
  5
276
330
6C
100
AcDbEntity
  8
Visible Narrow (ANSI)
100
AcDbLine
 10
115.9222215050496
 20
73.26769866465555
 30
0.0
 11
115.8461664950927
 21
73.22390149725326
 31
0.0
  0
LINE
  5
277
330
6C
100
AcDbEntity
  8
Visible Narrow (ANSI)
100
AcDbLine
 10
122.134366084931
 20
69.80715496652551
 30
0.0
 11
128.4047085319105
 21
73.4180050338046
 31
0.0
  0
LINE
  5
278
330
6C
100
AcDbEntity
  8
Visible Narrow (ANSI)
100
AcDbLine
 10
128.5993423700644
 20
73.12210256880629
 30
0.0
 11
122.3111427802277
 21
69.50096925686681
 31
0.0
  0
LINE
  5
279
330
6C
100
AcDbEntity
  8
Visible (ANSI)
100
AcDbLine
 10
122.3438361328992
 20
77.01289827465203
 30
0.0
 11
128.5383731734313
 21
73.44570163767572
 31
0.0
  0
LINE
  5
27A
330
6C
100
AcDbEntity
  8
Visible (ANSI)
100
AcDbLine
 10
115.797169883038
 20
73.39691924409753
 30
0.0
 11
122.0764189186422
 21
77.012898274652
 31
0.0
  0
SPLINE
  5
27B
330
6C
100
AcDbEntity
  8
Visible (ANSI)
100
AcDbSpline
210
0.0
220
0.0
230
1.0
 70
     8
 71
     3
 72
    11
 73
     7
 74
     0
 42
0.0000000001
 43
0.0000000001
 40
0.0
 40
0.0
 40
0.0
 40
0.0
 40
0.9120227246349074
 40
0.9120227246349074
 40
0.9120227246349074
 40
1.570796326794894
 40
1.570796326794894
 40
1.570796326794894
 40
1.570796326794894
 10
128.5993423700643
 20
73.32570042570246
 30
0.0
 10
128.5958863480444
 20
73.38982574611453
 30
0.0
 10
128.5663627601351
 20
73.43825115860345
 30
0.0
 10
128.5204110289891
 20
73.45380556516555
 30
0.0
 10
128.4872191066446
 20
73.46504084709835
 30
0.0
 10
128.4460234976225
 20
73.45948811455426
 30
0.0
 10
128.4047085319106
 20
73.43857152312544
 30
0.0
  0
SPLINE
  5
27C
330
6C
100
AcDbEntity
  8
Visible (ANSI)
100
AcDbSpline
210
0.0
220
0.0
230
1.0
 70
     8
 71
     3
 72
     8
 73
     4
 74
     0
 42
0.0000000001
 43
0.0000000001
 40
0.0
 40
0.0
 40
0.0
 40
0.0
 40
0.7834644549744143
 40
0.7834644549744143
 40
0.7834644549744143
 40
0.7834644549744143
 10
122.2279846686278
 20
76.99551023355095
 30
0.0
 10
122.2711818914972
 20
77.02380516864059
 30
0.0
 10
122.3139396097875
 20
77.02960594640605
 30
0.0
 10
122.3437994582618
 20
77.01280339450502
 30
0.0
  0
LINE
  5
27D
330
6C
100
AcDbEntity
  8
Visible (ANSI)
100
AcDbLine
 10
122.2279846686281
 20
76.03569176532616
 30
0.0
 11
122.2279846686278
 21
76.99551023355095
 31
0.0
  0
LINE
  5
27E
330
6C
100
AcDbEntity
  8
Visible (ANSI)
100
AcDbLine
 10
122.2279846686281
 20
75.91889931892009
 30
0.0
 11
122.2279846686281
 21
76.03569176532616
 31
0.0
  0
LINE
  5
27F
330
6C
100
AcDbEntity
  8
Visible (ANSI)
100
AcDbLine
 10
128.4047085319106
 20
73.4180050338046
 30
0.0
 11
128.4047085319106
 21
73.43857152312544
 31
0.0
  0
SPLINE
  5
280
330
6C
100
AcDbEntity
  8
Visible (ANSI)
100
AcDbSpline
210
0.0
220
0.0
230
1.0
 70
    24
 71
     3
 72
     8
 73
     4
 74
     0
 42
0.0000000001
 43
0.0000000001
 40
-0.3175000000000004
 40
-0.3175000000000004
 40
-0.3175000000000004
 40
-0.3175000000000004
 40
-0.1275259911871362
 40
-0.1275259911871362
 40
-0.1275259911871362
 40
-0.1275259911871362
 10
128.5993423700643
 20
73.32570042570246
 30
0.0
 10
128.5791951019907
 20
73.31409838563939
 30
0.0
 10
128.5590478339171
 20
73.3024963455763
 30
0.0
 10
128.5389005658435
 20
73.29089430551322
 30
0.0
  0
LINE
  5
281
330
6C
100
AcDbEntity
  8
Visible (ANSI)
100
AcDbLine
 10
128.4047085319106
 20
73.43857152312544
 30
0.0
 11
126.7379568333994
 21
73.43857152312532
 31
0.0
  0
LINE
  5
282
330
6C
100
AcDbEntity
  8
Visible (ANSI)
100
AcDbLine
 10
126.7379568333994
 20
73.41800503380444
 30
0.0
 11
126.7379568333994
 21
73.43857152312532
 31
0.0
  0
SPLINE
  5
283
330
6C
100
AcDbEntity
  8
Visible (ANSI)
100
AcDbSpline
210
0.0
220
0.0
230
1.0
 70
     8
 71
     3
 72
    11
 73
     7
 74
     0
 42
0.0000000001
 43
0.0000000001
 40
0.7873318718202988
 40
0.7873318718202988
 40
0.7873318718202988
 40
0.7873318718202988
 40
0.9120227246350466
 40
0.9120227246350466
 40
0.9120227246350466
 40
1.570796326794894
 40
1.570796326794894
 40
1.570796326794894
 40
1.570796326794894
 10
122.0764794993596
 20
77.01282305090028
 30
0.0
 10
122.0811781802694
 20
77.01559041404863
 30
0.0
 10
122.0862085716808
 20
77.01778723122924
 30
0.0
 10
122.0915460394296
 20
77.01936962059765
 30
0.0
 10
122.1197452439092
 20
77.02772978752823
 30
0.0
 10
122.1559481350665
 20
77.01930193998194
 30
0.0
 10
122.1922703829136
 20
76.99551023355093
 30
0.0
  0
LINE
  5
284
330
6C
100
AcDbEntity
  8
Visible (ANSI)
100
AcDbLine
 10
122.1922703829136
 20
76.99551023355093
 30
0.0
 11
122.1922703829138
 21
76.03569176532615
 31
0.0
  0
LINE
  5
285
330
6C
100
AcDbEntity
  8
Visible (ANSI)
100
AcDbLine
 10
122.1922703829138
 20
75.91889931892007
 30
0.0
 11
122.1922703829138
 21
76.03569176532615
 31
0.0
  0
SPLINE
  5
286
330
6C
100
AcDbEntity
  8
Visible (ANSI)
100
AcDbSpline
210
0.0
220
0.0
230
1.0
 70
     8
 71
     3
 72
    11
 73
     7
 74
     0
 42
0.0000000001
 43
0.0000000001
 40
0.0
 40
0.0
 40
0.0
 40
0.0
 40
0.9120227246348983
 40
0.9120227246348983
 40
0.9120227246348983
 40
1.570796326794894
 40
1.570796326794894
 40
1.570796326794894
 40
1.570796326794894
 10
128.4047085319105
 20
73.4180050338046
 30
0.0
 10
128.4619060083626
 20
73.38904757916093
 30
0.0
 10
128.5185079102691
 20
73.33029413230962
 30
0.0
 10
128.554861631758
 20
73.26420684405047
 30
0.0
 10
128.5811207055841
 20
73.2164705763375
 30
0.0
 10
128.5968460111319
 20
73.16554655000254
 30
0.0
 10
128.5993423700643
 20
73.12210256880631
 30
0.0
  0
LINE
  5
287
330
6C
100
AcDbEntity
  8
Visible (ANSI)
100
AcDbLine
 10
126.7379568333993
 20
73.41800503380444
 30
0.0
 11
128.4047085319105
 21
73.4180050338046
 31
0.0
  0
ELLIPSE
  5
288
330
6C
100
AcDbEntity
  8
Visible (ANSI)
100
AcDbEllipse
 10
122.4626656619096
 20
51.38315050194997
 30
0.0
 11
0.3214285714285713
 21
-0.0000000000000191
 31
0.0
210
0.0
220
0.0
230
1.0
 40
0.5758617009853114
 41
0.0
 42
6.283185307179586
  0
ELLIPSE
  5
289
330
6C
100
AcDbEntity
  8
Visible (ANSI)
100
AcDbEllipse
 10
122.4626656619096
 20
51.26635805554389
 30
0.0
 11
0.3214285714285716
 21
0.0
 31
0.0
210
0.0
220
0.0
230
1.0
 40
0.5758617009853113
 41
0.3209702928256533
 42
2.820622360764139
  0
ELLIPSE
  5
28A
330
6C
100
AcDbEntity
  8
Visible (ANSI)
100
AcDbEllipse
 10
118.4725631109285
 20
50.7720239760802
 30
0.0
 11
0.3214285714285713
 21
-0.0000000000000191
 31
0.0
210
0.0
220
0.0
230
1.0
 40
0.5758617009853114
 41
0.0
 42
6.283185307179586
  0
ELLIPSE
  5
28B
330
6C
100
AcDbEntity
  8
Visible (ANSI)
100
AcDbEllipse
 10
118.4725631109285
 20
50.65523152967411
 30
0.0
 11
0.3214285714285713
 21
0.0
 31
0.0
210
0.0
220
0.0
230
1.0
 40
0.5758617009853115
 41
0.3209702928256534
 42
2.82062236076414
  0
ELLIPSE
  5
28C
330
6C
100
AcDbEntity
  8
Visible (ANSI)
100
AcDbEllipse
 10
121.6040359990408
 20
48.96872867214298
 30
0.0
 11
0.3214285714285713
 21
-0.0000000000000191
 31
0.0
210
0.0
220
0.0
230
1.0
 40
0.5758617009853114
 41
0.0
 42
6.283185307179586
  0
ELLIPSE
  5
28D
330
6C
100
AcDbEntity
  8
Visible (ANSI)
100
AcDbEllipse
 10
121.6040359990408
 20
48.85193622573691
 30
0.0
 11
0.3214285714285716
 21
0.0
 31
0.0
210
0.0
220
0.0
230
1.0
 40
0.5758617009853113
 41
0.3209702928256533
 42
2.820622360764168
  0
ELLIPSE
  5
28E
330
6C
100
AcDbEntity
  8
Visible (ANSI)
100
AcDbEllipse
 10
122.3111427802276
 20
47.74714153076604
 30
0.0
 11
-0.1428571428571408
 21
0.0000000000000085
 31
0.0
210
0.0
220
0.0
230
1.0
 40
0.5758617009853117
 41
0.7853981633977743
 42
2.356194490192779
  0
LINE
  5
28F
330
6C
100
AcDbEntity
  8
Visible Narrow (ANSI)
100
AcDbLine
 10
122.2101275257724
 20
47.68897071450999
 30
0.0
 11
122.2101275257724
 21
47.57217826810391
 31
0.0
  0
ELLIPSE
  5
290
330
6C
100
AcDbEntity
  8
Visible (ANSI)
100
AcDbEllipse
 10
122.3111427802276
 20
47.63034908435996
 30
0.0
 11
0.1428571428571408
 21
0.0000000000000085
 31
0.0
210
0.0
220
0.0
230
1.0
 40
0.5758617009853114
 41
3.926990816987062
 42
5.497787143782066
  0
LINE
  5
291
330
6C
100
AcDbEntity
  8
Visible Narrow (ANSI)
100
AcDbLine
 10
122.4121580346829
 20
47.57217826810394
 30
0.0
 11
122.4121580346829
 21
47.68897071451001
 31
0.0
  0
ELLIPSE
  5
292
330
6C
100
AcDbEntity
  8
Visible (ANSI)
100
AcDbEllipse
 10
116.3512427673687
 20
51.06242724346628
 30
0.0
 11
-0.1428571428571427
 21
0.0000000000000002
 31
0.0
210
0.0
220
0.0
230
1.0
 40
0.5758617009853117
 41
0.0000000000000062
 42
0.7853981633976048
  0
ELLIPSE
  5
293
330
6C
100
AcDbEntity
  8
Visible (ANSI)
100
AcDbEllipse
 10
116.3512427673687
 20
51.17921968987236
 30
0.0
 11
-0.1428571428571428
 21
0.0
 31
0.0
210
0.0
220
0.0
230
1.0
 40
0.5758617009853113
 41
5.497787143782288
 42
7.068583470577188
  0
LINE
  5
294
330
6C
100
AcDbEntity
  8
Visible Narrow (ANSI)
100
AcDbLine
 10
116.2502275129135
 20
51.00425642721022
 30
0.0
 11
116.2502275129135
 21
51.12104887361629
 31
0.0
  0
ELLIPSE
  5
295
330
6C
100
AcDbEntity
  8
Visible (ANSI)
100
AcDbEllipse
 10
122.3112213001955
 20
54.72801765331595
 30
0.0
 11
0.1428571428571452
 21
-0.0000000000000085
 31
0.0
210
0.0
220
0.0
230
1.0
 40
0.5758617009853115
 41
0.8248293379544469
 42
2.356194490192683
  0
LINE
  5
296
330
6C
100
AcDbEntity
  8
Visible (ANSI)
100
AcDbLine
 10
116.2083856245116
 20
51.06242724346628
 30
0.0
 11
116.2083856245116
 21
51.17921968987236
 31
0.0
  0
LINE
  5
297
330
6C
100
AcDbEntity
  8
Visible (ANSI)
100
AcDbLine
 10
122.4121580346829
 20
47.57217826810394
 30
0.0
 11
123.5232375732124
 21
48.21200642109168
 31
0.0
  0
LINE
  5
298
330
6C
100
AcDbEntity
  8
Visible (ANSI)
100
AcDbLine
 10
123.5232375732124
 20
48.32879886749775
 30
0.0
 11
122.4121580346829
 21
47.68897071451001
 31
0.0
  0
LINE
  5
299
330
6C
100
AcDbEntity
  8
Visible (ANSI)
100
AcDbLine
 10
116.2502275129135
 20
51.00425642721022
 30
0.0
 11
122.2101275257724
 21
47.57217826810391
 31
0.0
  0
LINE
  5
29A
330
6C
100
AcDbEntity
  8
Visible (ANSI)
100
AcDbLine
 10
116.2502275129135
 20
51.2373905061284
 30
0.0
 11
117.361307051443
 21
51.87721865911615
 31
0.0
  0
LINE
  5
29B
330
6C
100
AcDbEntity
  8
Visible (ANSI)
100
AcDbLine
 10
122.2101275257724
 20
47.68897071450999
 30
0.0
 11
116.2502275129135
 21
51.12104887361629
 31
0.0
  0
ELLIPSE
  5
29C
330
6C
100
AcDbEntity
  8
Visible (ANSI)
100
AcDbEllipse
 10
123.5232375732124
 20
48.41639320230232
 30
0.0
 11
0.1247580528960324
 21
0.2166458590363327
 31
0.0
210
0.0
220
0.0
230
1.0
 40
0.5780931159156394
 41
3.925057108564035
 42
4.710455271961559
  0
ELLIPSE
  5
29D
330
6C
100
AcDbEntity
  8
Visible (ANSI)
100
AcDbEllipse
 10
123.5232375732124
 20
48.41639320230232
 30
0.0
 11
0.053467736955443
 21
0.0928482253012863
 31
0.0
210
0.0
220
0.0
230
1.0
 40
0.5780931159156397
 41
3.925057108564035
 42
4.71045527196146
  0
ELLIPSE
  5
29E
330
6C
100
AcDbEntity
  8
Visible (ANSI)
100
AcDbEllipse
 10
117.361307051443
 20
51.96481299392071
 30
0.0
 11
0.0534677369554431
 21
0.0928482253012865
 31
0.0
210
0.0
220
0.0
230
0.9999999999999998
 40
0.5780931159156394
 41
3.925057108564035
 42
4.71045527196146
  0
LINE
  5
29F
330
6C
100
AcDbEntity
  8
Visible Narrow (ANSI)
100
AcDbLine
 10
123.5768090017838
 20
48.38530438814985
 30
0.0
 11
117.4148784800144
 21
51.93372417976824
 31
0.0
  0
LINE
  5
2A0
330
6C
100
AcDbEntity
  8
Visible Narrow (ANSI)
100
AcDbLine
 10
123.5232375732124
 20
48.32879886749775
 30
0.0
 11
117.361307051443
 21
51.87721865911615
 31
0.0
  0
LINE
  5
2A1
330
6C
100
AcDbEntity
  8
Visible (ANSI)
100
AcDbLine
 10
123.6751841826191
 20
48.3905254550659
 30
0.0
 11
123.6482375732124
 21
48.34385263594656
 31
0.0
  0
LINE
  5
2A2
330
6C
100
AcDbEntity
  8
Visible (ANSI)
100
AcDbLine
 10
123.5768090017838
 20
48.38530438814985
 30
0.0
 11
123.6037556111905
 21
48.43197720726919
 31
0.0
  0
LINE
  5
2A3
330
6C
100
AcDbEntity
  8
Visible (ANSI)
100
AcDbLine
 10
117.4418250894211
 20
51.98039699888758
 30
0.0
 11
117.4148784800144
 21
51.93372417976824
 31
0.0
  0
ELLIPSE
  5
2A4
330
6C
100
AcDbEntity
  8
Visible (ANSI)
100
AcDbEllipse
 10
123.7287556111905
 20
48.35943664091344
 30
0.0
 11
0.0534677369554477
 21
0.0928482253012816
 31
0.0
210
0.0
220
0.0
230
0.9999999999999998
 40
0.5780931159156397
 41
0.8283475791860661
 42
1.568862618371943
  0
ELLIPSE
  5
2A5
330
6C
100
AcDbEntity
  8
Visible (ANSI)
100
AcDbEllipse
 10
123.7287556111905
 20
48.35943664091344
 30
0.0
 11
0.124758052896045
 21
0.2166458590363246
 31
0.0
210
0.0
220
0.0
230
1.0
 40
0.5780931159156394
 41
0.7834644549744141
 42
1.56886261837184
  0
ELLIPSE
  5
2A6
330
6C
100
AcDbEntity
  8
Visible (ANSI)
100
AcDbEllipse
 10
117.5668250894211
 20
51.90785643253182
 30
0.0
 11
0.1247580528960458
 21
0.216645859036326
 31
0.0
210
0.0
220
0.0
230
1.0
 40
0.5780931159156412
 41
0.7834644549744132
 42
1.56886261837184
  0
LINE
  5
2A7
330
6C
100
AcDbEntity
  8
Visible Narrow (ANSI)
100
AcDbLine
 10
123.7287556111905
 20
48.56382342212407
 30
0.0
 11
117.5668250894211
 21
52.11224321374245
 31
0.0
  0
LINE
  5
2A8
330
6C
100
AcDbEntity
  8
Visible Narrow (ANSI)
100
AcDbLine
 10
123.6037556111905
 20
48.43197720726919
 30
0.0
 11
117.4418250894211
 21
51.98039699888758
 31
0.0
  0
LINE
  5
2A9
330
6C
100
AcDbEntity
  8
Visible (ANSI)
100
AcDbLine
 10
123.8094136495712
 20
48.49347885089806
 30
0.0
 11
123.7287556111905
 21
48.44703097571799
 31
0.0
  0
LINE
  5
2AA
330
6C
100
AcDbEntity
  8
Visible (ANSI)
100
AcDbLine
 10
123.7287556111905
 20
48.56382342212407
 30
0.0
 11
123.8009182799455
 21
48.605379139301
 31
0.0
  0
LINE
  5
2AB
330
6C
100
AcDbEntity
  8
Visible (ANSI)
100
AcDbLine
 10
122.2102060457402
 20
54.78618846957199
 30
0.0
 11
117.5668250894211
 21
52.11224321374245
 31
0.0
  0
LINE
  5
2AC
330
6C
100
AcDbEntity
  8
Visible Narrow (ANSI)
100
AcDbLine
 10
123.7253563426006
 20
48.44507346712568
 30
0.0
 11
123.7253563426006
 21
48.44498525276843
 31
0.0
  0
LINE
  5
2AD
330
6C
100
AcDbEntity
  8
Visible Narrow (ANSI)
100
AcDbLine
 10
122.4081759166482
 20
54.78843640219274
 30
0.0
 11
123.3737185803038
 21
54.23241736152629
 31
0.0
  0
LINE
  5
2AE
330
6C
100
AcDbEntity
  8
Visible Narrow (ANSI)
100
AcDbLine
 10
123.7287556111905
 20
48.44703097571798
 30
0.0
 11
123.7253563426006
 21
48.44507346712568
 31
0.0
  0
DIMENSION
  5
2AF
330
6C
100
AcDbEntity
  8
Dimension (ANSI)
100
AcDbDimension
  2
*D4
 10
50.79980352062435
 20
36.12669293854461
 30
0.0
 11
50.79980352062434
 21
48.12662986794549
 31
0.0
 70
   160
  1
<>{\PHEIGHT}
 71
     5
 42
23.99987385880177
  3
Default (ANSI)
100
AcDbAlignedDimension
 13
55.60488554606417
 23
60.12656679734638
 33
0.0
 14
55.76113554606413
 24
36.12669293854461
 34
0.0
 50
90.0
100
AcDbRotatedDimension
1001
ACAD
1000
DSTYLE
1002
{
1070
   289
1070
     1
1070
   271
1070
     2
1070
   272
1070
     2
1070
    48
1040
0.0
1070
    47
1040
0.0
1002
}
  0
DIMENSION
  5
3B0
330
6C
100
AcDbEntity
  8
Dimension (ANSI)
100
AcDbDimension
  2
*D5
 10
63.51113554606407
 20
63.05742309655898
 30
0.0
 11
59.60388151492942
 21
63.05742309655898
 31
0.0
 70
   160
  1
<>{\PWIDTH}
 71
     5
 42
8.124999999999914
  3
Default (ANSI)
100
AcDbAlignedDimension
 13
55.38613554606416
 23
59.90781679734639
 33
0.0
 14
63.51113554606407
 24
59.90781679734639
 34
0.0
100
AcDbRotatedDimension
1001
ACAD
1000
DSTYLE
1002
{
1070
   289
1070
     1
1070
    73
1070
     0
1070
    74
1070
     0
1070
   271
1070
     2
1070
   272
1070
     2
1070
    48
1040
0.0
1070
    47
1040
0.0
1002
}
  0
DIMENSION
  5
4AE
330
6C
100
AcDbEntity
  8
Dimension (ANSI)
100
AcDbDimension
  2
*D6
 10
32.37959531505635
 20
63.81594935193695
 30
0.0
 11
28.37959531505635
 21
63.81594935193695
 31
0.0
 70
   160
  1
<>
 42
8.000000000000003
  3
Default (ANSI)
100
AcDbAlignedDimension
 13
24.37959531505635
 23
59.90781679734639
 33
0.0
 14
32.37959531505635
 24
60.12656679734638
 34
0.0
100
AcDbRotatedDimension
1001
ACAD
1000
DSTYLE
1002
{
1070
   289
1070
     1
1070
    73
1070
     0
1070
    74
1070
     0
1070
   271
1070
     2
1070
   272
1070
     2
1070
    48
1040
0.0
1070
    47
1040
0.0
1002
}
  0
DIMENSION
  5
598
330
6C
100
AcDbEntity
  8
Dimension (ANSI)
100
AcDbDimension
  2
*D7
 10
34.2833973666661
 20
63.00723716718949
 30
0.0
 11
34.9648836779018
 21
62.42092564245466
 31
0.0
 70
   165
  1
<>
 42
1.486893894531477
  3
Default (ANSI)
100
AcDb3PointAngularDimension
 13
32.89799216131121
 23
60.12656679734638
 33
0.0
 14
32.4398941746742
 24
60.62480792499053
 34
0.0
 15
32.39799216131121
 25
60.12656679734638
 35
0.0
1001
ACAD_DSTYLE_DIMANGULAR_EXTENSION
1070
   387
1070
     1
1001
ACAD
1000
DSTYLE
1002
{
1070
   179
1070
     0
1070
   272
1070
     0
1070
    48
1040
0.0
1070
    47
1040
0.0
1002
}
  0
DIMENSION
  5
6C1
330
6C
100
AcDbEntity
  8
Dimension (ANSI)
100
AcDbDimension
  2
*D8
 10
63.51113554606991
 20
73.43842343888197
 30
0.0
 11
67.41409767107242
 21
73.43842343888197
 31
0.0
 70
   160
  1
<>{\P(2 PL.)}
 71
     5
 42
1.250000000000007
  3
Default (ANSI)
100
AcDbAlignedDimension
 13
62.2611355460699
 23
71.43939070973876
 33
0.0
 14
63.51113554606991
 24
71.41617648933674
 34
0.0
100
AcDbRotatedDimension
1001
ACAD
1000
DSTYLE
1002
{
1070
   289
1070
     1
1070
    73
1070
     0
1070
    74
1070
     0
1070
   271
1070
     2
1070
    76
1070
     1
1070
    75
1070
     1
1070
   272
1070
     2
1070
    48
1040
0.0
1070
    47
1040
0.0
1002
}
  0
DIMENSION
  5
7B0
330
6C
100
AcDbEntity
  8
Dimension (ANSI)
100
AcDbDimension
  2
*D9
 10
68.5684910251226
 20
68.84691965278853
 30
0.0
 11
66.3672161849984
 21
66.68923553546024
 31
0.0
 70
   160
  1
<>
 42
1.249999999999943
  3
Default (ANSI)
100
AcDbAlignedDimension
 13
62.23903845915784
 23
70.09691965278847
 33
0.0
 14
63.29238554606993
 24
68.84691965278853
 34
0.0
 50
270.0
100
AcDbRotatedDimension
1001
ACAD
1000
DSTYLE
1002
{
1070
   289
1070
     1
1070
   271
1070
     2
1070
   272
1070
     2
1070
    48
1040
0.0
1070
    47
1040
0.0
1002
}
  0
LINE
  5
8AE
330
6C
100
AcDbEntity
  8
Center Mark (ANSI)
  6
CHAIN
 48
0.1778417080640793
100
AcDbLine
 10
56.07363554605775
 20
20.82625623044629
 30
0.0
 11
56.07363554605775
 21
18.26375623044629
 31
0.0
  0
LINE
  5
8AF
330
6C
100
AcDbEntity
  8
Center Mark (ANSI)
  6
CHAIN
 48
0.1778417080640793
100
AcDbLine
 10
56.07363554605775
 20
25.82625623044629
 30
0.0
 11
56.07363554605775
 21
23.26375623044629
 31
0.0
  0
LINE
  5
8B0
330
6C
100
AcDbEntity
  8
Centerline (ANSI)
  6
CHAIN
 48
0.5250450372695923
100
AcDbLine
 10
56.07363554605775
 20
18.26375623044629
 30
0.0
 11
56.07363554605775
 21
25.82625623044629
 31
0.0
  0
LINE
  5
8B1
330
6C
100
AcDbEntity
  8
Center Mark (ANSI)
  6
CHAIN
 48
0.1778417080640793
100
AcDbLine
 10
57.63613554605775
 20
27.1387562304463
 30
0.0
 11
57.63613554605775
 21
24.5762562304463
 31
0.0
  0
LINE
  5
8B2
330
6C
100
AcDbEntity
  8
Center Mark (ANSI)
  6
CHAIN
 48
0.1778417080640793
100
AcDbLine
 10
61.26113554605774
 20
27.1387562304463
 30
0.0
 11
61.26113554605774
 21
24.5762562304463
 31
0.0
  0
LINE
  5
8B3
330
6C
100
AcDbEntity
  8
Centerline (ANSI)
  6
CHAIN
 48
0.429564118385315
100
AcDbLine
 10
56.35488554605776
 20
25.8575062304463
 30
0.0
 11
62.54238554605774
 21
25.8575062304463
 31
0.0
  0
LINE
  5
8B4
330
6C
100
AcDbEntity
  8
Center Mark (ANSI)
  6
CHAIN
 48
0.1778417080640793
100
AcDbLine
 10
62.82363554605773
 20
25.82625623044631
 30
0.0
 11
62.82363554605773
 21
23.26375623044631
 31
0.0
  0
LINE
  5
8B5
330
6C
100
AcDbEntity
  8
Center Mark (ANSI)
  6
CHAIN
 48
0.1778417080640793
100
AcDbLine
 10
62.82363554605769
 20
20.82625623044631
 30
0.0
 11
62.82363554605769
 21
18.26375623044631
 31
0.0
  0
LINE
  5
8B6
330
6C
100
AcDbEntity
  8
Centerline (ANSI)
  6
CHAIN
 48
0.5250450372695923
100
AcDbLine
 10
62.82363554605774
 20
25.82625623044631
 30
0.0
 11
62.82363554605767
 21
18.26375623044631
 31
0.0
  0
DIMENSION
  5
8B7
330
6C
100
AcDbEntity
  8
Dimension (ANSI)
100
AcDbDimension
  2
*D10
 10
53.24268082164831
 20
24.5450062304463
 30
0.0
 11
53.24268082164831
 21
25.54500623044627
 31
0.0
 70
   160
  1
<>
 42
1.999999999999939
  3
Default (ANSI)
100
AcDbAlignedDimension
 13
55.60488554605775
 23
26.54500623044623
 33
0.0
 14
54.79238554605776
 24
24.5450062304463
 34
0.0
 50
270.0
100
AcDbRotatedDimension
1001
ACAD
1000
DSTYLE
1002
{
1070
   289
1070
     1
1070
   271
1070
     2
1070
   272
1070
     2
1070
    48
1040
0.0
1070
    47
1040
0.0
1002
}
  0
DIMENSION
  5
9A9
330
6C
100
AcDbEntity
  8
Dimension (ANSI)
100
AcDbDimension
  2
*D11
 10
50.31535678355835
 20
19.54500623044629
 30
0.0
 11
50.31535678355834
 21
23.04500623044626
 31
0.0
 70
   160
  1
<>
 42
6.999999999999943
  3
Default (ANSI)
100
AcDbAlignedDimension
 13
55.60488554605775
 23
26.54500623044623
 33
0.0
 14
54.79238554605776
 24
19.54500623044629
 34
0.0
 50
270.0
100
AcDbRotatedDimension
1001
ACAD
1000
DSTYLE
1002
{
1070
   289
1070
     1
1070
   271
1070
     2
1070
   272
1070
     2
1070
    48
1040
0.0
1070
    47
1040
0.0
1002
}
  0
DIMENSION
  5
A99
330
6C
100
AcDbEntity
  8
Dimension (ANSI)
100
AcDbDimension
  2
*D12
 10
64.97584132794184
 20
25.8575062304463
 30
0.0
 11
67.21521140672892
 21
28.70269034777452
 31
0.0
 70
   160
  1
<>
 42
0.6874999999999361
  3
Default (ANSI)
100
AcDbAlignedDimension
 13
63.29238554605776
 23
26.54500623044623
 33
0.0
 14
62.54238554605774
 24
25.8575062304463
 34
0.0
 50
270.0
100
AcDbRotatedDimension
1001
ACAD
1000
DSTYLE
1002
{
1070
   289
1070
     1
1070
   271
1070
     2
1070
   272
1070
     2
1070
    48
1040
0.0
1070
    47
1040
0.0
1002
}
  0
DIMENSION
  5
B99
330
6C
100
AcDbEntity
  8
Dimension (ANSI)
100
AcDbDimension
  2
*D13
 10
61.26113554605774
 20
30.70366781267609
 30
0.0
 11
67.0587445629008
 21
30.70366781267609
 31
0.0
 70
   160
  1
<>
 42
2.25
  3
Default (ANSI)
100
AcDbAlignedDimension
 13
63.51113554605774
 23
26.32625623044623
 33
0.0
 14
61.26113554605774
 24
27.1387562304463
 34
0.0
 50
180.0
100
AcDbRotatedDimension
1001
ACAD
1000
DSTYLE
1002
{
1070
   289
1070
     1
1070
    73
1070
     0
1070
    74
1070
     0
1070
   271
1070
     2
1070
   272
1070
     2
1070
    48
1040
0.0
1070
    47
1040
0.0
1002
}
  0
DIMENSION
  5
C83
330
6C
100
AcDbEntity
  8
Dimension (ANSI)
100
AcDbDimension
  2
*D14
 10
57.63613554605775
 20
30.67735872929565
 30
0.0
 11
51.79314783032911
 21
30.67735872929565
 31
0.0
 70
   160
  1
<>
 42
2.25
  3
Default (ANSI)
100
AcDbAlignedDimension
 13
55.38613554605776
 23
26.32625623044624
 33
0.0
 14
57.63613554605775
 24
27.1387562304463
 34
0.0
100
AcDbRotatedDimension
1001
ACAD
1000
DSTYLE
1002
{
1070
   289
1070
     1
1070
    73
1070
     0
1070
    74
1070
     0
1070
   271
1070
     2
1070
   272
1070
     2
1070
    48
1040
0.0
1070
    47
1040
0.0
1002
}
  0
LINE
  5
D6D
330
6C
100
AcDbEntity
  8
Centerline (ANSI)
  6
CHAIN
 48
0.9524481296539306
100
AcDbLine
 10
54.79238554605776
 20
24.54500623044629
 30
0.0
 11
64.10488554605773
 21
24.54500623044631
 31
0.0
  0
LINE
  5
D6E
330
6C
100
AcDbEntity
  8
Centerline (ANSI)
  6
CHAIN
 48
0.9524481296539306
100
AcDbLine
 10
54.79238554605776
 20
19.54500623044629
 30
0.0
 11
64.10488554605769
 21
19.54500623044631
 31
0.0
  0
DIMENSION
  5
D6F
330
6C
100
AcDbEntity
  8
Dimension (ANSI)
100
AcDbDimension
  2
*D15
 10
56.07363554605775
 20
16.75847580017458
 30
0.0
 11
51.48317342105524
 21
16.75847580017458
 31
0.0
 70
   160
  1
<>{\P(2 PL.)}
 71
     5
 42
0.6875
  3
Default (ANSI)
100
AcDbAlignedDimension
 13
55.38613554605776
 23
18.54500623044623
 33
0.0
 14
56.07363554605775
 24
18.26375623044629
 34
0.0
100
AcDbRotatedDimension
1001
ACAD
1000
DSTYLE
1002
{
1070
   289
1070
     1
1070
    73
1070
     0
1070
    74
1070
     0
1070
   271
1070
     2
1070
   272
1070
     2
1070
    48
1040
0.0
1070
    47
1040
0.0
1002
}
  0
DIMENSION
  5
E6D
330
6C
100
AcDbEntity
  8
Dimension (ANSI)
100
AcDbDimension
  2
*D16
 10
62.65017468465202
 20
19.32361767595352
 30
0.0
 11
69.20056321032972
 21
22.24399160124639
 31
0.0
 70
   163
  1
<>{\P(6 PL.)}
 71
     5
 42
0.5625
  3
Default (ANSI)
100
AcDbDiametricDimension
 15
62.99709640746335
 25
19.76639478493909
 35
0.0
 40
0.0
1001
ACAD
1000
DSTYLE
1002
{
1070
   144
1040
0.9999999999999873
1070
   271
1070
     3
1070
   272
1070
     2
1070
    48
1040
0.0
1070
    47
1040
0.0
1002
}
1001
ACAD_DSTYLE_DIMRADIAL_EXTENSION
1070
   387
1070
     1
1070
   388
1040
0.0
1070
   390
1040
0.0
  0
LINE
  5
F27
330
6C
100
AcDbEntity
  8
Center Mark (ANSI)
  6
CHAIN
 48
0.1778417080640793
100
AcDbLine
 10
57.5111355460699
 20
76.87816965278847
 30
0.0
 11
57.5111355460699
 21
74.31566965278846
 31
0.0
  0
LINE
  5
F28
330
6C
100
AcDbEntity
  8
Center Mark (ANSI)
  6
CHAIN
 48
0.1778417080640793
100
AcDbLine
 10
61.3861355460699
 20
76.87816965278847
 30
0.0
 11
61.3861355460699
 21
74.31566965278846
 31
0.0
  0
LINE
  5
F29
330
6C
100
AcDbEntity
  8
Centerline (ANSI)
  6
CHAIN
 48
0.4469242691993714
100
AcDbLine
 10
56.2298855460699
 20
75.59691965278847
 30
0.0
 11
62.66738554606991
 21
75.59691965278847
 31
0.0
  0
LINE
  5
F2A
330
6C
100
AcDbEntity
  8
Center Mark (ANSI)
  6
CHAIN
 48
0.1778417080640793
100
AcDbLine
 10
60.7298855460699
 20
72.5969196527885
 30
0.0
 11
58.16738554606989
 21
72.5969196527885
 31
0.0
  0
LINE
  5
F2B
330
6C
100
AcDbEntity
  8
Center Mark (ANSI)
  6
CHAIN
 48
0.1778417080640793
100
AcDbLine
 10
59.44863554606989
 20
73.8781696527885
 30
0.0
 11
59.44863554606989
 21
71.3156696527885
 31
0.0
  0
DIMENSION
  5
F2C
330
6C
100
AcDbEntity
  8
Dimension (ANSI)
100
AcDbDimension
  2
*D17
 10
57.5111355460699
 20
79.02693073957002
 30
0.0
 11
51.79314783034129
 21
79.02693073957002
 31
0.0
 70
   160
  1
<>
 42
2.124999999999964
  3
Default (ANSI)
100
AcDbAlignedDimension
 13
55.38613554606993
 23
76.84691965279554
 33
0.0
 14
57.5111355460699
 24
76.87816965278847
 34
0.0
 50
180.0
100
AcDbRotatedDimension
1001
ACAD
1000
DSTYLE
1002
{
1070
   289
1070
     1
1070
    73
1070
     0
1070
    74
1070
     0
1070
   271
1070
     2
1070
   272
1070
     2
1070
    48
1040
0.0
1070
    47
1040
0.0
1002
}
  0
DIMENSION
  5
1016
330
6C
100
AcDbEntity
  8
Dimension (ANSI)
100
AcDbDimension
  2
*D18
 10
59.44863554606989
 20
80.76408145446306
 30
0.0
 11
52.58054940514445
 21
80.76408145446306
 31
0.0
 70
   160
  1
<>
 42
4.062499999999957
  3
Default (ANSI)
100
AcDbAlignedDimension
 13
55.38613554606993
 23
76.84691965279554
 33
0.0
 14
59.44863554606989
 24
73.8781696527885
 34
0.0
 50
180.0
100
AcDbRotatedDimension
1001
ACAD
1000
DSTYLE
1002
{
1070
   289
1070
     2
1070
    73
1070
     0
1070
    74
1070
     0
1070
   271
1070
     2
1070
   272
1070
     2
1070
    48
1040
0.0
1070
    47
1040
0.0
1002
}
  0
DIMENSION
  5
1100
330
6C
100
AcDbEntity
  8
Dimension (ANSI)
100
AcDbDimension
  2
*D19
 10
61.3861355460699
 20
79.0269307373978
 30
0.0
 11
67.10412326179849
 21
79.0269307373978
 31
0.0
 70
   160
  1
<>
 42
2.12499999999995
  3
Default (ANSI)
100
AcDbAlignedDimension
 13
63.51113554606985
 23
76.84691965279552
 33
0.0
 14
61.3861355460699
 24
76.87816965278847
 34
0.0
 50
180.0
100
AcDbRotatedDimension
1001
ACAD
1000
DSTYLE
1002
{
1070
   289
1070
     1
1070
    73
1070
     0
1070
    74
1070
     0
1070
   271
1070
     2
1070
   272
1070
     2
1070
    48
1040
0.0
1070
    47
1040
0.0
1002
}
  0
DIMENSION
  5
11EA
330
6C
100
AcDbEntity
  8
Dimension (ANSI)
100
AcDbDimension
  2
*D20
 10
45.91823640020305
 20
75.59691965278847
 30
0.0
 11
48.11951124032724
 21
79.00460377012381
 31
0.0
 70
   160
  1
<>
 42
1.250000000007062
  3
Default (ANSI)
100
AcDbAlignedDimension
 13
55.38613554606993
 23
76.84691965279554
 33
0.0
 14
56.2298855460699
 24
75.59691965278847
 34
0.0
 50
90.0
100
AcDbRotatedDimension
1001
ACAD
1000
DSTYLE
1002
{
1070
   289
1070
     1
1070
   271
1070
     2
1070
   272
1070
     2
1070
    48
1040
0.0
1070
    47
1040
0.0
1002
}
  0
DIMENSION
  5
12E8
330
6C
100
AcDbEntity
  8
Dimension (ANSI)
100
AcDbDimension
  2
*D21
 10
45.24203486071851
 20
72.5969196527885
 30
0.0
 11
45.2420348607185
 21
74.72191965279201
 31
0.0
 70
   160
  1
<>
 42
4.250000000007034
  3
Default (ANSI)
100
AcDbAlignedDimension
 13
55.38613554606993
 23
76.84691965279554
 33
0.0
 14
58.16738554606989
 24
72.5969196527885
 34
0.0
 50
90.0
100
AcDbRotatedDimension
1001
ACAD
1000
DSTYLE
1002
{
1070
   289
1070
     1
1070
   271
1070
     2
1070
   272
1070
     2
1070
    48
1040
0.0
1070
    47
1040
0.0
1002
}
  0
DIMENSION
  5
13D2
330
6C
100
AcDbEntity
  8
Dimension (ANSI)
100
AcDbDimension
  2
*D22
 10
59.67962483300611
 20
72.75737373288842
 30
0.0
 11
49.65157315126207
 21
68.19857811996389
 31
0.0
 70
   163
  1
<>{\P(3 PL.)}
 71
     5
 42
0.5625
  3
Default (ANSI)
100
AcDbDiametricDimension
 15
59.21764625913371
 25
72.4364655726886
 35
0.0
 40
0.0
1001
ACAD
1000
DSTYLE
1002
{
1070
   144
1040
0.9999999999999747
1070
   271
1070
     3
1070
   272
1070
     3
1070
    48
1040
0.0
1070
    47
1040
0.0
1002
}
1001
ACAD_DSTYLE_DIMRADIAL_EXTENSION
1070
   387
1070
     1
1070
   388
1040
0.0
1070
   390
1040
0.0
  0
DIMENSION
  5
148B
330
6C
100
AcDbEntity
  8
Dimension (ANSI)
100
AcDbDimension
  2
*D23
 10
32.12959531505639
 20
33.19571049813379
 30
0.0
 11
28.25459531505637
 21
33.19571049813379
 31
0.0
 70
   160
  1
<>
 42
7.750000000000046
  3
Default (ANSI)
100
AcDbAlignedDimension
 13
24.37959531505635
 23
36.34531679734639
 33
0.0
 14
32.12959531505639
 24
36.12669293854461
 34
0.0
100
AcDbRotatedDimension
1001
ACAD
1000
DSTYLE
1002
{
1070
   289
1070
     1
1070
    73
1070
     0
1070
    74
1070
     0
1070
   271
1070
     2
1070
   272
1070
     2
1070
    48
1040
0.0
1070
    47
1040
0.0
1002
}
  0
LINE
  5
1575
330
6C
100
AcDbEntity
  8
Center Mark (ANSI)
  6
CHAIN
 48
0.1778417080640793
100
AcDbLine
 10
60.72988554605773
 20
22.79500623043925
 30
0.0
 11
58.16738554605772
 21
22.79500623043925
 31
0.0
  0
LINE
  5
1576
330
6C
100
AcDbEntity
  8
Center Mark (ANSI)
  6
CHAIN
 48
0.1778417080640793
100
AcDbLine
 10
59.44863554605772
 20
24.07625623043925
 30
0.0
 11
59.44863554605772
 21
21.51375623043925
 31
0.0
  0
LINE
  5
1577
330
6C
100
AcDbEntity
  8
Center Mark (ANSI)
  6
CHAIN
 48
0.1778417080640793
100
AcDbLine
 10
58.79238554605773
 20
19.79500623043922
 30
0.0
 11
56.22988554605772
 21
19.79500623043922
 31
0.0
  0
LINE
  5
1578
330
6C
100
AcDbEntity
  8
Center Mark (ANSI)
  6
CHAIN
 48
0.1778417080640793
100
AcDbLine
 10
57.51113554605773
 20
21.07625623043922
 30
0.0
 11
57.51113554605773
 21
18.51375623043922
 31
0.0
  0
LINE
  5
1579
330
6C
100
AcDbEntity
  8
Center Mark (ANSI)
  6
CHAIN
 48
0.1778417080640793
100
AcDbLine
 10
62.66738554605773
 20
19.79500623043922
 30
0.0
 11
60.10488554605772
 21
19.79500623043922
 31
0.0
  0
LINE
  5
157A
330
6C
100
AcDbEntity
  8
Center Mark (ANSI)
  6
CHAIN
 48
0.1778417080640793
100
AcDbLine
 10
61.38613554605773
 20
21.07625623043922
 30
0.0
 11
61.38613554605773
 21
18.51375623043922
 31
0.0
  0
MTEXT
  5
157B
102
{ACAD_XDICTIONARY
360
1587
102
}
330
6C
100
AcDbEntity
  8
Symbol (ANSI)
100
AcDbMText
 10
75.15842356180648
 20
7.510337529865301
 30
0.0
 40
0.8000000255314382
 41
59.06709686039
 71
     4
 72
     1
  3
{\fRomanS|b0|i0|c0|p2;\H2x;PART#: FK2408\P(DATA SUBJECT TO CHANGE WITHOUT NOTICE)\H1.6157x; \H0.61894x;\P \H1.352x; \H0.73963x;\P\H0.6x;THIS DRAWING IS PROPERTY OF HUBBELL INC. WIEGMANN\H1.5633x; \H0.63966x;\PALL INFORMATION IS PROPRIETARY AND NOT TO
  1
 BE DUPLICATED\H1.234x; \H0.81039x;\P\H1.2571x; }
  7
Note Text (ANSI)
 73
     1
 44
0.8026435375213623
  0
ENDSEC
  0
SECTION
  2
OBJECTS
  0
DICTIONARY
  5
C
330
0
100
AcDbDictionary
281
     1
  3
ACAD_CIP_PREVIOUS_PRODUCT_INFO
350
157D
  3
ACAD_COLOR
350
63
  3
ACAD_GROUP
350
D
  3
ACAD_LAYOUT
350
62
  3
ACAD_MATERIAL
350
10
  3
ACAD_MLEADERSTYLE
350
66
  3
ACAD_MLINESTYLE
350
5F
  3
ACAD_PLOTSETTINGS
350
61
  3
ACAD_PLOTSTYLENAME
350
E
  3
ACAD_SCALELIST
350
42
  3
ACAD_TABLESTYLE
350
64
  3
ACAD_VISUALSTYLE
350
29
  3
ACDB_RECOMPOSE_DATA
350
1589
  3
AcDbVariableDictionary
350
76
  0
DICTIONARY
  5
15BF
330
F21
100
AcDbDictionary
280
     1
281
     1
  3
ACAD_MTEXT_2008_RT
360
15C0
  0
DICTIONARY
  5
15C1
330
1485
100
AcDbDictionary
280
     1
281
     1
  3
ACAD_MTEXT_2008_RT
360
15C2
  0
DICTIONARY
  5
1587
330
157B
100
AcDbDictionary
280
     1
281
     1
  3
ACAD_MTEXT_2008_RT
360
1588
  0
XRECORD
  5
157D
102
{ACAD_REACTORS
330
C
102
}
330
C
100
AcDbXrecord
280
     1
300
INVPROSA
300
2012
300
INVPROSA_F_S
  0
DICTIONARY
  5
63
102
{ACAD_REACTORS
330
C
102
}
330
C
100
AcDbDictionary
281
     1
  0
DICTIONARY
  5
D
102
{ACAD_REACTORS
330
C
102
}
330
C
100
AcDbDictionary
281
     1
  0
DICTIONARY
  5
62
102
{ACAD_REACTORS
330
C
102
}
330
C
100
AcDbDictionary
281
     1
  3
Layout1
350
6B
  3
Layout2
350
73
  3
Model
350
6F
  0
DICTIONARY
  5
10
102
{ACAD_REACTORS
330
C
102
}
330
C
100
AcDbDictionary
281
     1
  3
ByBlock
350
19
  3
ByLayer
350
11
  3
Global
350
21
  0
DICTIONARY
  5
66
102
{ACAD_REACTORS
330
C
102
}
330
C
100
AcDbDictionary
281
     1
  3
Standard
350
67
  0
DICTIONARY
  5
5F
102
{ACAD_REACTORS
330
C
102
}
330
C
100
AcDbDictionary
281
     1
  3
Standard
350
60
  0
DICTIONARY
  5
61
102
{ACAD_REACTORS
330
C
102
}
330
C
100
AcDbDictionary
281
     1
  0
ACDBDICTIONARYWDFLT
  5
E
102
{ACAD_REACTORS
330
C
102
}
330
C
100
AcDbDictionary
281
     1
  3
Normal
350
F
100
AcDbDictionaryWithDefault
340
F
  0
DICTIONARY
  5
42
102
{ACAD_REACTORS
330
C
102
}
330
C
100
AcDbDictionary
281
     1
  3
A0
350
43
  3
A1
350
44
  3
A2
350
45
  3
A3
350
46
  3
A4
350
47
  3
A5
350
48
  3
A6
350
49
  3
A7
350
4A
  3
A8
350
4B
  3
A9
350
4C
  3
B0
350
4D
  3
B1
350
4E
  3
B2
350
4F
  3
B3
350
50
  3
B4
350
51
  3
B5
350
52
  3
B6
350
53
  0
DICTIONARY
  5
64
102
{ACAD_REACTORS
330
C
102
}
330
C
100
AcDbDictionary
281
     1
  3
Standard
350
65
  0
DICTIONARY
  5
29
102
{ACAD_REACTORS
330
C
102
}
330
C
100
AcDbDictionary
281
     1
  3
2dWireframe
350
2F
  3
Basic
350
2E
  3
Brighten
350
35
  3
ColorChange
350
39
  3
Conceptual
350
32
  3
Dim
350
34
  3
EdgeColorOff
350
41
  3
Facepattern
350
38
  3
Flat
350
2A
  3
FlatWithEdges
350
2B
  3
Gouraud
350
2C
  3
GouraudWithEdges
350
2D
  3
Hidden
350
31
  3
JitterOff
350
3F
  3
Linepattern
350
37
  3
OverhangOff
350
40
  3
Realistic
350
33
  3
Shaded
350
3E
  3
Shaded with edges
350
3D
  3
Shades of Gray
350
3A
  3
Sketchy
350
3B
  3
Thicken
350
36
  3
Wireframe
350
30
  3
X-Ray
350
3C
  0
XRECORD
  5
1589
102
{ACAD_REACTORS
330
C
102
}
330
C
100
AcDbXrecord
280
     1
 90
        1
330
65
330
1016
330
157B
  0
DICTIONARY
  5
76
102
{ACAD_REACTORS
330
C
102
}
330
C
100
AcDbDictionary
281
     1
  3
CANNOSCALE
350
79
  3
CMLEADERSTYLE
350
78
  3
CTABLESTYLE
350
77
  3
LAYEREVAL
350
1580
  3
LAYERNOTIFY
350
1581
  3
LIGHTINGUNITS
350
157F
  3
MSLTSCALE
350
157E
  3
XCLIPFRAME
350
1582
  0
XRECORD
  5
15C0
102
{ACAD_REACTORS
330
15BF
102
}
330
15BF
100
AcDbXrecord
280
     1
 40
24491.0
  1
\A1;\U+22050.563{\P(6 PL.)}
  0
XRECORD
  5
15C2
102
{ACAD_REACTORS
330
15C1
102
}
330
15C1
100
AcDbXrecord
280
     1
 40
24428.0
  1
\A1;\U+22050.563{\P(3 PL.)}
  0
XRECORD
  5
1588
102
{ACAD_REACTORS
330
1587
102
}
330
1587
100
AcDbXrecord
280
     1
 40
3027593.0
  1
\pxsm0.94;{\fRomanS|b0|i0;\H1.6000;PART#: FK2408\P(DATA SUBJECT TO CHANGE WITHOUT NOTICE)\P \P\fRomanS|b0|i0;\H0.9600;THIS DRAWING IS PROPERTY OF HUBBELL INC. WIEGMANN\PALL INFORMATION IS PROPRIETARY AND NOT TO BE DUPLICATED\P}
  0
LAYOUT
  5
6B
102
{ACAD_REACTORS
330
62
102
}
330
62
100
AcDbPlotSettings
  1

  2

  4

  6

 40
0.0
 41
0.0
 42
0.0
 43
0.0
 44
0.0
 45
0.0
 46
0.0
 47
0.0
 48
0.0
 49
0.0
140
0.0
141
0.0
142
1.0
143
1.0
 70
   688
 72
     0
 73
     0
 74
     5
  7

 75
    16
147
1.0
 76
     0
 77
     2
 78
   300
148
0.0
149
0.0
100
AcDbLayout
  1
Layout1
 70
     1
 71
     1
 10
0.0
 20
0.0
 11
12.0
 21
9.0
 12
0.0
 22
0.0
 32
0.0
 14
0.0
 24
0.0
 34
0.0
 15
0.0
 25
0.0
 35
0.0
146
0.0
 13
0.0
 23
0.0
 33
0.0
 16
1.0
 26
0.0
 36
0.0
 17
0.0
 27
1.0
 37
0.0
 76
     0
330
68
  0
LAYOUT
  5
73
102
{ACAD_REACTORS
330
62
102
}
330
62
100
AcDbPlotSettings
  1

  2

  4

  6

 40
0.0
 41
0.0
 42
0.0
 43
0.0
 44
0.0
 45
0.0
 46
0.0
 47
0.0
 48
0.0
 49
0.0
140
0.0
141
0.0
142
1.0
143
1.0
 70
   688
 72
     0
 73
     0
 74
     5
  7

 75
    16
147
1.0
 76
     0
 77
     2
 78
   300
148
0.0
149
0.0
100
AcDbLayout
  1
Layout2
 70
     1
 71
     2
 10
0.0
 20
0.0
 11
12.0
 21
9.0
 12
0.0
 22
0.0
 32
0.0
 14
0.0
 24
0.0
 34
0.0
 15
0.0
 25
0.0
 35
0.0
146
0.0
 13
0.0
 23
0.0
 33
0.0
 16
1.0
 26
0.0
 36
0.0
 17
0.0
 27
1.0
 37
0.0
 76
     0
330
70
  0
LAYOUT
  5
6F
102
{ACAD_REACTORS
330
62
102
}
330
62
100
AcDbPlotSettings
  1

  2

  4

  6

 40
0.0
 41
0.0
 42
0.0
 43
0.0
 44
0.0
 45
0.0
 46
0.0
 47
0.0
 48
0.0
 49
0.0
140
0.0
141
0.0
142
1.0
143
1.0
 70
  1712
 72
     0
 73
     0
 74
     0
  7

 75
     0
147
1.0
 76
     0
 77
     2
 78
   300
148
0.0
149
0.0
100
AcDbLayout
  1
Model
 70
     1
 71
     0
 10
0.0
 20
0.0
 11
12.0
 21
9.0
 12
0.0
 22
0.0
 32
0.0
 14
0.0
 24
0.0
 34
0.0
 15
0.0
 25
0.0
 35
0.0
146
0.0
 13
0.0
 23
0.0
 33
0.0
 16
1.0
 26
0.0
 36
0.0
 17
0.0
 27
1.0
 37
0.0
 76
     0
330
6C
  0
MATERIAL
  5
19
102
{ACAD_XDICTIONARY
360
1A
102
}
102
{ACAD_REACTORS
330
10
102
}
330
10
100
AcDbMaterial
  1
ByBlock
 72
     0
 43
0.0208333333333333
 43
0.0
 43
0.0
 43
0.0
 43
0.0
 43
0.0208333333333333
 43
0.0
 43
0.0
 43
0.0
 43
0.0
 43
1.0
 43
0.0
 43
0.0
 43
0.0
 43
0.0
 43
1.0
 77
     0
 47
0.0208333333333333
 47
0.0
 47
0.0
 47
0.0
 47
0.0
 47
0.0208333333333333
 47
0.0
 47
0.0
 47
0.0
 47
0.0
 47
1.0
 47
0.0
 47
0.0
 47
0.0
 47
0.0
 47
1.0
171
     0
 49
0.0208333333333333
 49
0.0
 49
0.0
 49
0.0
 49
0.0
 49
0.0208333333333333
 49
0.0
 49
0.0
 49
0.0
 49
0.0
 49
1.0
 49
0.0
 49
0.0
 49
0.0
 49
0.0
 49
1.0
175
     0
142
0.0208333333333333
142
0.0
142
0.0
142
0.0
142
0.0
142
0.0208333333333333
142
0.0
142
0.0
142
0.0
142
0.0
142
1.0
142
0.0
142
0.0
142
0.0
142
0.0
142
1.0
179
     0
144
0.0208333333333333
144
0.0
144
0.0
144
0.0
144
0.0
144
0.0208333333333333
144
0.0
144
0.0
144
0.0
144
0.0
144
1.0
144
0.0
144
0.0
144
0.0
144
0.0
144
1.0
147
0.0208333333333333
147
0.0
147
0.0
147
0.0
147
0.0
147
0.0208333333333333
147
0.0
147
0.0
147
0.0
147
0.0
147
1.0
147
0.0
147
0.0
147
0.0
147
0.0
147
1.0
  0
MATERIAL
  5
11
102
{ACAD_XDICTIONARY
360
12
102
}
102
{ACAD_REACTORS
330
10
102
}
330
10
100
AcDbMaterial
  1
ByLayer
 72
     0
 43
0.0208333333333333
 43
0.0
 43
0.0
 43
0.0
 43
0.0
 43
0.0208333333333333
 43
0.0
 43
0.0
 43
0.0
 43
0.0
 43
1.0
 43
0.0
 43
0.0
 43
0.0
 43
0.0
 43
1.0
 77
     0
 47
0.0208333333333333
 47
0.0
 47
0.0
 47
0.0
 47
0.0
 47
0.0208333333333333
 47
0.0
 47
0.0
 47
0.0
 47
0.0
 47
1.0
 47
0.0
 47
0.0
 47
0.0
 47
0.0
 47
1.0
171
     0
 49
0.0208333333333333
 49
0.0
 49
0.0
 49
0.0
 49
0.0
 49
0.0208333333333333
 49
0.0
 49
0.0
 49
0.0
 49
0.0
 49
1.0
 49
0.0
 49
0.0
 49
0.0
 49
0.0
 49
1.0
175
     0
142
0.0208333333333333
142
0.0
142
0.0
142
0.0
142
0.0
142
0.0208333333333333
142
0.0
142
0.0
142
0.0
142
0.0
142
1.0
142
0.0
142
0.0
142
0.0
142
0.0
142
1.0
179
     0
144
0.0208333333333333
144
0.0
144
0.0
144
0.0
144
0.0
144
0.0208333333333333
144
0.0
144
0.0
144
0.0
144
0.0
144
1.0
144
0.0
144
0.0
144
0.0
144
0.0
144
1.0
147
0.0208333333333333
147
0.0
147
0.0
147
0.0
147
0.0
147
0.0208333333333333
147
0.0
147
0.0
147
0.0
147
0.0
147
1.0
147
0.0
147
0.0
147
0.0
147
0.0
147
1.0
  0
MATERIAL
  5
21
102
{ACAD_XDICTIONARY
360
22
102
}
102
{ACAD_REACTORS
330
10
102
}
330
10
100
AcDbMaterial
  1
Global
 72
     0
 43
0.0208333333333333
 43
0.0
 43
0.0
 43
0.0
 43
0.0
 43
0.0208333333333333
 43
0.0
 43
0.0
 43
0.0
 43
0.0
 43
1.0
 43
0.0
 43
0.0
 43
0.0
 43
0.0
 43
1.0
 77
     0
 47
0.0208333333333333
 47
0.0
 47
0.0
 47
0.0
 47
0.0
 47
0.0208333333333333
 47
0.0
 47
0.0
 47
0.0
 47
0.0
 47
1.0
 47
0.0
 47
0.0
 47
0.0
 47
0.0
 47
1.0
171
     0
 49
0.0208333333333333
 49
0.0
 49
0.0
 49
0.0
 49
0.0
 49
0.0208333333333333
 49
0.0
 49
0.0
 49
0.0
 49
0.0
 49
1.0
 49
0.0
 49
0.0
 49
0.0
 49
0.0
 49
1.0
175
     0
142
0.0208333333333333
142
0.0
142
0.0
142
0.0
142
0.0
142
0.0208333333333333
142
0.0
142
0.0
142
0.0
142
0.0
142
1.0
142
0.0
142
0.0
142
0.0
142
0.0
142
1.0
179
     0
144
0.0208333333333333
144
0.0
144
0.0
144
0.0
144
0.0
144
0.0208333333333333
144
0.0
144
0.0
144
0.0
144
0.0
144
1.0
144
0.0
144
0.0
144
0.0
144
0.0
144
1.0
147
0.0208333333333333
147
0.0
147
0.0
147
0.0
147
0.0
147
0.0208333333333333
147
0.0
147
0.0
147
0.0
147
0.0
147
1.0
147
0.0
147
0.0
147
0.0
147
0.0
147
1.0
  0
MLEADERSTYLE
  5
67
102
{ACAD_XDICTIONARY
360
1585
102
}
102
{ACAD_REACTORS
330
66
102
}
330
66
100
AcDbMLeaderStyle
170
     2
171
     1
172
     0
 90
        2
 40
0.0
 41
0.0
173
     1
 91
-1056964608
340
5B
 92
       -2
290
     1
 42
0.09
291
     1
 43
0.36
  3
Standard
 44
0.18
300

342
55
174
     1
178
     6
175
     1
176
     0
 93
-1056964608
 45
0.18
292
     0
297
     0
 46
0.18
 94
-1056964608
 47
1.0
 49
1.0
140
1.0
293
     1
141
0.0
294
     1
177
     0
142
1.0
295
     0
296
     0
143
0.125
1001
ACAD_MLEADERVER
1070
     2
  0
MLINESTYLE
  5
60
102
{ACAD_REACTORS
330
5F
102
}
330
5F
100
AcDbMlineStyle
  2
STANDARD
 70
     0
  3

 62
   256
 51
90.0
 52
90.0
 71
     2
 49
0.5
 62
   256
  6
BYLAYER
 49
-0.5
 62
   256
  6
BYLAYER
  0
ACDBPLACEHOLDER
  5
F
102
{ACAD_REACTORS
330
E
102
}
330
E
  0
SCALE
  5
43
102
{ACAD_REACTORS
330
42
102
}
330
42
100
AcDbScale
 70
     0
300
1:1
140
1.0
141
1.0
290
     1
  0
SCALE
  5
44
102
{ACAD_REACTORS
330
42
102
}
330
42
100
AcDbScale
 70
     0
300
1/128" = 1'-0"
140
0.0078125
141
12.0
290
     0
  0
SCALE
  5
45
102
{ACAD_REACTORS
330
42
102
}
330
42
100
AcDbScale
 70
     0
300
1/64" = 1'-0"
140
0.015625
141
12.0
290
     0
  0
SCALE
  5
46
102
{ACAD_REACTORS
330
42
102
}
330
42
100
AcDbScale
 70
     0
300
1/32" = 1'-0"
140
0.03125
141
12.0
290
     0
  0
SCALE
  5
47
102
{ACAD_REACTORS
330
42
102
}
330
42
100
AcDbScale
 70
     0
300
1/16" = 1'-0"
140
0.0625
141
12.0
290
     0
  0
SCALE
  5
48
102
{ACAD_REACTORS
330
42
102
}
330
42
100
AcDbScale
 70
     0
300
3/32" = 1'-0"
140
0.09375
141
12.0
290
     0
  0
SCALE
  5
49
102
{ACAD_REACTORS
330
42
102
}
330
42
100
AcDbScale
 70
     0
300
1/8" = 1'-0"
140
0.125
141
12.0
290
     0
  0
SCALE
  5
4A
102
{ACAD_REACTORS
330
42
102
}
330
42
100
AcDbScale
 70
     0
300
3/16" = 1'-0"
140
0.1875
141
12.0
290
     0
  0
SCALE
  5
4B
102
{ACAD_REACTORS
330
42
102
}
330
42
100
AcDbScale
 70
     0
300
1/4" = 1'-0"
140
0.25
141
12.0
290
     0
  0
SCALE
  5
4C
102
{ACAD_REACTORS
330
42
102
}
330
42
100
AcDbScale
 70
     0
300
3/8" = 1'-0"
140
0.375
141
12.0
290
     0
  0
SCALE
  5
4D
102
{ACAD_REACTORS
330
42
102
}
330
42
100
AcDbScale
 70
     0
300
1/2" = 1'-0"
140
0.5
141
12.0
290
     0
  0
SCALE
  5
4E
102
{ACAD_REACTORS
330
42
102
}
330
42
100
AcDbScale
 70
     0
300
3/4" = 1'-0"
140
0.75
141
12.0
290
     0
  0
SCALE
  5
4F
102
{ACAD_REACTORS
330
42
102
}
330
42
100
AcDbScale
 70
     0
300
1" = 1'-0"
140
1.0
141
12.0
290
     0
  0
SCALE
  5
50
102
{ACAD_REACTORS
330
42
102
}
330
42
100
AcDbScale
 70
     0
300
1-1/2" = 1'-0"
140
1.5
141
12.0
290
     0
  0
SCALE
  5
51
102
{ACAD_REACTORS
330
42
102
}
330
42
100
AcDbScale
 70
     0
300
3" = 1'-0"
140
3.0
141
12.0
290
     0
  0
SCALE
  5
52
102
{ACAD_REACTORS
330
42
102
}
330
42
100
AcDbScale
 70
     0
300
6" = 1'-0"
140
6.0
141
12.0
290
     0
  0
SCALE
  5
53
102
{ACAD_REACTORS
330
42
102
}
330
42
100
AcDbScale
 70
     0
300
1'-0" = 1'-0"
140
12.0
141
12.0
290
     0
  0
TABLESTYLE
  5
65
102
{ACAD_XDICTIONARY
360
1583
102
}
102
{ACAD_REACTORS
330
64
102
}
330
64
100
AcDbTableStyle
  3
Standard
 70
     0
 71
     0
 40
0.06
 41
0.06
280
     0
281
     0
  7
Standard
140
0.18
170
     2
 62
     0
 63
     7
283
     0
274
    -2
284
     1
 64
     0
275
    -2
285
     1
 65
     0
276
    -2
286
     1
 66
     0
277
    -2
287
     1
 67
     0
278
    -2
288
     1
 68
     0
279
    -2
289
     1
 69
     0
  7
Standard
140
0.25
170
     5
 62
     0
 63
     7
283
     0
274
    -2
284
     1
 64
     0
275
    -2
285
     1
 65
     0
276
    -2
286
     1
 66
     0
277
    -2
287
     1
 67
     0
278
    -2
288
     1
 68
     0
279
    -2
289
     1
 69
     0
  7
Standard
140
0.18
170
     5
 62
     0
 63
     7
283
     0
274
    -2
284
     1
 64
     0
275
    -2
285
     1
 65
     0
276
    -2
286
     1
 66
     0
277
    -2
287
     1
 67
     0
278
    -2
288
     1
 68
     0
279
    -2
289
     1
 69
     0
  0
VISUALSTYLE
  5
2F
102
{ACAD_XDICTIONARY
360
1597
102
}
102
{ACAD_REACTORS
330
29
102
}
330
29
100
AcDbVisualStyle
  2
2dWireframe
 70
     4
 71
     0
 72
     2
 73
     0
 90
        0
 40
-0.6
 41
-30.0
 62
     5
 63
     7
421
 16777215
 74
     1
 91
        4
 64
     7
 65
   257
 75
     1
175
     1
 42
1.0
 92
        0
 66
   257
 43
1.0
 76
     1
 77
     6
 78
     2
 67
     7
 79
     5
170
     0
171
     0
290
     0
174
     0
 93
        1
 44
0.0
173
     0
291
     0
 45
0.0
1001
ACAD
1000
AcDbSavedByObjectVersion
1070
     0
  0
VISUALSTYLE
  5
2E
102
{ACAD_XDICTIONARY
360
1595
102
}
102
{ACAD_REACTORS
330
29
102
}
330
29
100
AcDbVisualStyle
  2
Basic
 70
     7
 71
     1
 72
     0
 73
     1
 90
        0
 40
-0.6
 41
-30.0
 62
     5
 63
     7
421
 16777215
 74
     0
 91
        4
 64
     7
 65
   257
 75
     1
175
     1
 42
1.0
 92
        8
 66
     7
 43
1.0
 76
     1
 77
     6
 78
     2
 67
     7
 79
     5
170
     0
171
     0
290
     0
174
     0
 93
        1
 44
0.0
173
     0
291
     1
 45
0.0
1001
ACAD
1000
AcDbSavedByObjectVersion
1070
     0
  0
VISUALSTYLE
  5
35
102
{ACAD_XDICTIONARY
360
15A3
102
}
102
{ACAD_REACTORS
330
29
102
}
330
29
100
AcDbVisualStyle
  2
Brighten
 70
    12
 71
     2
 72
     2
 73
     0
 90
        0
 40
-0.6
 41
-30.0
 62
     5
 63
     7
421
 16777215
 74
     1
 91
        4
 64
     7
 65
   257
 75
     1
175
     1
 42
1.0
 92
        8
 66
     7
 43
1.0
 76
     1
 77
     6
 78
     2
 67
     7
 79
     5
170
     0
171
     0
290
     0
174
     0
 93
        1
 44
50.0
173
     0
291
     1
 45
0.0
1001
ACAD
1000
AcDbSavedByObjectVersion
1070
     0
  0
VISUALSTYLE
  5
39
102
{ACAD_XDICTIONARY
360
15AB
102
}
102
{ACAD_REACTORS
330
29
102
}
330
29
100
AcDbVisualStyle
  2
ColorChange
 70
    16
 71
     2
 72
     2
 73
     3
 90
        0
 40
-0.6
 41
-30.0
 62
     5
 63
     8
421
  8421504
 74
     1
 91
        4
 64
     7
 65
   257
 75
     1
175
     1
 42
1.0
 92
        8
 66
     8
424
  8421504
 43
1.0
 76
     1
 77
     6
 78
     2
 67
     7
 79
     5
170
     0
171
     0
290
     0
174
     0
 93
        1
 44
0.0
173
     0
291
     1
 45
0.0
1001
ACAD
1000
AcDbSavedByObjectVersion
1070
     0
  0
VISUALSTYLE
  5
32
102
{ACAD_XDICTIONARY
360
159D
102
}
102
{ACAD_REACTORS
330
29
102
}
330
29
100
AcDbVisualStyle
  2
Conceptual
 70
     9
 71
     3
 72
     2
 73
     0
 90
        0
 40
-0.6
 41
-30.0
 62
     5
 63
     7
421
 16777215
 74
     2
 91
        2
 64
     7
 65
   257
 75
     1
175
     1
 42
179.0
 92
        8
 66
     7
 43
1.0
 76
     1
 77
     6
 78
     2
 67
     7
 79
     3
170
     0
171
     0
290
     0
174
     0
 93
        1
 44
0.0
173
     0
291
     0
 45
0.0
1001
ACAD
1000
AcDbSavedByObjectVersion
1070
     0
  0
VISUALSTYLE
  5
34
102
{ACAD_XDICTIONARY
360
15A1
102
}
102
{ACAD_REACTORS
330
29
102
}
330
29
100
AcDbVisualStyle
  2
Dim
 70
    11
 71
     2
 72
     2
 73
     0
 90
        0
 40
-0.6
 41
-30.0
 62
     5
 63
     7
421
 16777215
 74
     1
 91
        4
 64
     7
 65
   257
 75
     1
175
     1
 42
1.0
 92
        8
 66
     7
 43
1.0
 76
     1
 77
     6
 78
     2
 67
     7
 79
     5
170
     0
171
     0
290
     0
174
     0
 93
        1
 44
-50.0
173
     0
291
     1
 45
0.0
1001
ACAD
1000
AcDbSavedByObjectVersion
1070
     0
  0
VISUALSTYLE
  5
41
102
{ACAD_XDICTIONARY
360
15BB
102
}
102
{ACAD_REACTORS
330
29
102
}
330
29
100
AcDbVisualStyle
  2
EdgeColorOff
 70
    22
 71
     2
 72
     2
 73
     0
 90
        0
 40
-0.6
 41
-30.0
 62
     5
 63
     7
421
 16777215
 74
     1
 91
        4
 64
     7
 65
   257
 75
     1
175
     1
 42
1.0
 92
        8
 66
     7
 43
1.0
 76
     1
 77
     6
 78
     2
 67
     7
 79
     5
170
     0
171
     0
290
     0
174
     0
 93
        1
 44
0.0
173
     0
291
     1
 45
0.0
1001
ACAD
1000
AcDbSavedByObjectVersion
1070
     0
  0
VISUALSTYLE
  5
38
102
{ACAD_XDICTIONARY
360
15A9
102
}
102
{ACAD_REACTORS
330
29
102
}
330
29
100
AcDbVisualStyle
  2
Facepattern
 70
    15
 71
     2
 72
     2
 73
     0
 90
        0
 40
-0.6
 41
-30.0
 62
     5
 63
     7
421
 16777215
 74
     1
 91
        4
 64
     7
 65
   257
 75
     1
175
     1
 42
1.0
 92
        8
 66
     7
 43
1.0
 76
     1
 77
     6
 78
     2
 67
     7
 79
     5
170
     0
171
     0
290
     0
174
     0
 93
        1
 44
0.0
173
     0
291
     1
 45
0.0
1001
ACAD
1000
AcDbSavedByObjectVersion
1070
     0
  0
VISUALSTYLE
  5
2A
102
{ACAD_XDICTIONARY
360
158D
102
}
102
{ACAD_REACTORS
330
29
102
}
330
29
100
AcDbVisualStyle
  2
Flat
 70
     0
 71
     2
 72
     1
 73
     1
 90
        2
 40
-0.6
 41
30.0
 62
     5
 63
     7
421
 16777215
 74
     0
 91
        0
 64
     7
 65
   257
 75
     1
175
     1
 42
1.0
 92
        8
 66
     7
 43
1.0
 76
     1
 77
     6
 78
     2
 67
     7
 79
     5
170
     0
171
     0
290
     0
174
     0
 93
       13
 44
0.0
173
     0
291
     1
 45
0.0
1001
ACAD
1000
AcDbSavedByObjectVersion
1070
     0
  0
VISUALSTYLE
  5
2B
102
{ACAD_XDICTIONARY
360
158F
102
}
102
{ACAD_REACTORS
330
29
102
}
330
29
100
AcDbVisualStyle
  2
FlatWithEdges
 70
     1
 71
     2
 72
     1
 73
     1
 90
        2
 40
-0.6
 41
30.0
 62
     5
 63
     7
421
 16777215
 74
     1
 91
        0
 64
     7
 65
   257
 75
     1
175
     1
 42
1.0
 92
        0
 66
   257
 43
1.0
 76
     1
 77
     6
 78
     2
 67
     7
 79
     5
170
     0
171
     0
290
     0
174
     0
 93
       13
 44
0.0
173
     0
291
     1
 45
0.0
1001
ACAD
1000
AcDbSavedByObjectVersion
1070
     0
  0
VISUALSTYLE
  5
2C
102
{ACAD_XDICTIONARY
360
1591
102
}
102
{ACAD_REACTORS
330
29
102
}
330
29
100
AcDbVisualStyle
  2
Gouraud
 70
     2
 71
     2
 72
     2
 73
     1
 90
        2
 40
-0.6
 41
30.0
 62
     5
 63
     7
421
 16777215
 74
     0
 91
        0
 64
     7
 65
   257
 75
     1
175
     1
 42
1.0
 92
        0
 66
     7
 43
1.0
 76
     1
 77
     6
 78
     2
 67
     7
 79
     5
170
     0
171
     0
290
     0
174
     0
 93
       13
 44
0.0
173
     0
291
     1
 45
0.0
1001
ACAD
1000
AcDbSavedByObjectVersion
1070
     0
  0
VISUALSTYLE
  5
2D
102
{ACAD_XDICTIONARY
360
1593
102
}
102
{ACAD_REACTORS
330
29
102
}
330
29
100
AcDbVisualStyle
  2
GouraudWithEdges
 70
     3
 71
     2
 72
     2
 73
     1
 90
        2
 40
-0.6
 41
30.0
 62
     5
 63
     7
421
 16777215
 74
     1
 91
        0
 64
     7
 65
   257
 75
     1
175
     1
 42
1.0
 92
        0
 66
   257
 43
1.0
 76
     1
 77
     6
 78
     2
 67
     7
 79
     5
170
     0
171
     0
290
     0
174
     0
 93
       13
 44
0.0
173
     0
291
     1
 45
0.0
1001
ACAD
1000
AcDbSavedByObjectVersion
1070
     0
  0
VISUALSTYLE
  5
31
102
{ACAD_XDICTIONARY
360
159B
102
}
102
{ACAD_REACTORS
330
29
102
}
330
29
100
AcDbVisualStyle
  2
Hidden
 70
     6
 71
     1
 72
     2
 73
     2
 90
        0
 40
-0.6
 41
-30.0
 62
     5
 63
     7
421
 16777215
 74
     2
 91
        2
 64
     7
 65
   257
 75
     2
175
     1
 42
40.0
 92
        0
 66
   257
 43
1.0
 76
     1
 77
     6
 78
     2
 67
     7
 79
     3
170
     0
171
     0
290
     0
174
     0
 93
        1
 44
0.0
173
     0
291
     0
 45
0.0
1001
ACAD
1000
AcDbSavedByObjectVersion
1070
     0
  0
VISUALSTYLE
  5
3F
102
{ACAD_XDICTIONARY
360
15B7
102
}
102
{ACAD_REACTORS
330
29
102
}
330
29
100
AcDbVisualStyle
  2
JitterOff
 70
    20
 71
     2
 72
     2
 73
     0
 90
        0
 40
-0.6
 41
-30.0
 62
     5
 63
     7
421
 16777215
 74
     1
 91
        4
 64
     7
 65
   257
 75
     1
175
     1
 42
1.0
 92
       10
 66
     7
 43
1.0
 76
     1
 77
     6
 78
     2
 67
     7
 79
     5
170
     0
171
     0
290
     0
174
     0
 93
        1
 44
0.0
173
     0
291
     1
 45
0.0
1001
ACAD
1000
AcDbSavedByObjectVersion
1070
     0
  0
VISUALSTYLE
  5
37
102
{ACAD_XDICTIONARY
360
15A7
102
}
102
{ACAD_REACTORS
330
29
102
}
330
29
100
AcDbVisualStyle
  2
Linepattern
 70
    14
 71
     2
 72
     2
 73
     0
 90
        0
 40
-0.6
 41
-30.0
 62
     5
 63
     7
421
 16777215
 74
     1
 91
        4
 64
     7
 65
   257
 75
     7
175
     7
 42
1.0
 92
        8
 66
     7
 43
1.0
 76
     1
 77
     6
 78
     2
 67
     7
 79
     5
170
     0
171
     0
290
     0
174
     0
 93
        1
 44
0.0
173
     0
291
     1
 45
0.0
1001
ACAD
1000
AcDbSavedByObjectVersion
1070
     0
  0
VISUALSTYLE
  5
40
102
{ACAD_XDICTIONARY
360
15B9
102
}
102
{ACAD_REACTORS
330
29
102
}
330
29
100
AcDbVisualStyle
  2
OverhangOff
 70
    21
 71
     2
 72
     2
 73
     0
 90
        0
 40
-0.6
 41
-30.0
 62
     5
 63
     7
421
 16777215
 74
     1
 91
        4
 64
     7
 65
   257
 75
     1
175
     1
 42
1.0
 92
        9
 66
     7
 43
1.0
 76
     1
 77
     6
 78
     2
 67
     7
 79
     5
170
     0
171
     0
290
     0
174
     0
 93
        1
 44
0.0
173
     0
291
     1
 45
0.0
1001
ACAD
1000
AcDbSavedByObjectVersion
1070
     0
  0
VISUALSTYLE
  5
33
102
{ACAD_XDICTIONARY
360
159F
102
}
102
{ACAD_REACTORS
330
29
102
}
330
29
100
AcDbVisualStyle
  2
Realistic
 70
     8
 71
     2
 72
     3
 73
     0
 90
        2
 40
-0.6
 41
30.0
 62
     5
 63
     7
421
 16777215
 74
     0
 91
        0
 64
     7
 65
   257
 75
     1
175
     1
 42
1.0
 92
        8
 66
   257
 43
1.0
 76
     1
 77
     6
 78
     2
 67
     7
 79
     3
170
     0
171
     0
290
     0
174
     0
 93
       13
 44
0.0
173
     0
291
     0
 45
0.0
1001
ACAD
1000
AcDbSavedByObjectVersion
1070
     0
  0
VISUALSTYLE
  5
3E
102
{ACAD_XDICTIONARY
360
15B5
102
}
102
{ACAD_REACTORS
330
29
102
}
330
29
100
AcDbVisualStyle
  2
Shaded
 70
    27
 71
     2
 72
     2
 73
     1
 90
        2
 40
-0.6
 41
30.0
 62
     5
 63
     7
421
 16777215
 74
     0
 91
        4
 64
     7
 65
   257
 75
     1
175
     1
 42
1.0
 92
        8
 66
   257
 43
1.0
 76
     1
 77
     6
 78
     2
 67
     8
425
  7895160
 79
     3
170
     0
171
     0
290
     0
174
     0
 93
        5
 44
0.0
173
     0
291
     0
 45
0.0
1001
ACAD
1000
AcDbSavedByObjectVersion
1070
     0
  0
VISUALSTYLE
  5
3D
102
{ACAD_XDICTIONARY
360
15B3
102
}
102
{ACAD_REACTORS
330
29
102
}
330
29
100
AcDbVisualStyle
  2
Shaded with edges
 70
    26
 71
     2
 72
     2
 73
     1
 90
        2
 40
-0.6
 41
30.0
 62
     5
 63
     7
421
 16777215
 74
     1
 91
       10
 64
     7
 65
   257
 75
     2
175
     1
 42
1.0
 92
        8
 66
   257
 43
1.0
 76
     1
 77
     6
 78
     2
 67
     7
 79
     3
170
     0
171
     0
290
     0
174
     0
 93
        5
 44
0.0
173
     0
291
     0
 45
0.0
1001
ACAD
1000
AcDbSavedByObjectVersion
1070
     0
  0
VISUALSTYLE
  5
3A
102
{ACAD_XDICTIONARY
360
15AD
102
}
102
{ACAD_REACTORS
330
29
102
}
330
29
100
AcDbVisualStyle
  2
Shades of Gray
 70
    23
 71
     2
 72
     2
 73
     3
 90
        0
 40
-0.6
 41
-30.0
 62
     5
 63
     7
421
 16777215
 74
     2
 91
        2
 64
     7
 65
     7
 75
     1
175
     1
 42
40.0
 92
        8
 66
     7
 43
1.0
 76
     1
 77
     6
 78
     2
 67
     7
 79
     3
170
     0
171
     0
290
     0
174
     0
 93
        1
 44
0.0
173
     0
291
     0
 45
0.0
1001
ACAD
1000
AcDbSavedByObjectVersion
1070
     0
  0
VISUALSTYLE
  5
3B
102
{ACAD_XDICTIONARY
360
15AF
102
}
102
{ACAD_REACTORS
330
29
102
}
330
29
100
AcDbVisualStyle
  2
Sketchy
 70
    24
 71
     1
 72
     2
 73
     2
 90
        0
 40
-0.6
 41
-30.0
 62
     5
 63
     7
421
 16777215
 74
     2
 91
        2
 64
     7
 65
     7
 75
     1
175
     1
 42
40.0
 92
       11
 66
     7
 43
1.0
 76
     1
 77
     6
 78
     2
 67
     7
 79
     6
170
     0
171
     0
290
     0
174
     0
 93
        1
 44
0.0
173
     0
291
     0
 45
0.0
1001
ACAD
1000
AcDbSavedByObjectVersion
1070
     0
  0
VISUALSTYLE
  5
36
102
{ACAD_XDICTIONARY
360
15A5
102
}
102
{ACAD_REACTORS
330
29
102
}
330
29
100
AcDbVisualStyle
  2
Thicken
 70
    13
 71
     2
 72
     2
 73
     0
 90
        0
 40
-0.6
 41
-30.0
 62
     5
 63
     7
421
 16777215
 74
     1
 91
        4
 64
     7
 65
   257
 75
     1
175
     1
 42
1.0
 92
       12
 66
     7
 43
1.0
 76
     1
 77
     6
 78
     2
 67
     7
 79
     5
170
     0
171
     0
290
     0
174
     0
 93
        1
 44
0.0
173
     0
291
     1
 45
0.0
1001
ACAD
1000
AcDbSavedByObjectVersion
1070
     0
  0
VISUALSTYLE
  5
30
102
{ACAD_XDICTIONARY
360
1599
102
}
102
{ACAD_REACTORS
330
29
102
}
330
29
100
AcDbVisualStyle
  2
Wireframe
 70
     5
 71
     0
 72
     2
 73
     0
 90
        0
 40
-0.6
 41
-30.0
 62
     5
 63
     7
421
 16777215
 74
     1
 91
        4
 64
     7
 65
   257
 75
     1
175
     1
 42
1.0
 92
        0
 66
   257
 43
1.0
 76
     1
 77
     6
 78
     2
 67
     7
 79
     3
170
     0
171
     0
290
     0
174
     0
 93
        1
 44
0.0
173
     0
291
     0
 45
0.0
1001
ACAD
1000
AcDbSavedByObjectVersion
1070
     0
  0
VISUALSTYLE
  5
3C
102
{ACAD_XDICTIONARY
360
15B1
102
}
102
{ACAD_REACTORS
330
29
102
}
330
29
100
AcDbVisualStyle
  2
X-Ray
 70
    25
 71
     2
 72
     2
 73
     1
 90
        1
 40
0.5
 41
-30.0
 62
     5
 63
     7
421
 16777215
 74
     1
 91
        0
 64
     7
 65
   257
 75
     1
175
     1
 42
1.0
 92
        8
 66
     7
 43
1.0
 76
     1
 77
     6
 78
     2
 67
     7
 79
     3
170
     0
171
     0
290
     0
174
     0
 93
       13
 44
0.0
173
     0
291
     0
 45
0.0
1001
ACAD
1000
AcDbSavedByObjectVersion
1070
     0
  0
DICTIONARYVAR
  5
79
102
{ACAD_REACTORS
330
76
102
}
330
76
100
DictionaryVariables
280
     0
  1
1:1
  0
DICTIONARYVAR
  5
78
102
{ACAD_REACTORS
330
76
102
}
330
76
100
DictionaryVariables
280
     0
  1
STANDARD
  0
DICTIONARYVAR
  5
77
102
{ACAD_REACTORS
330
76
102
}
330
76
100
DictionaryVariables
280
     0
  1
STANDARD
  0
DICTIONARYVAR
  5
1580
102
{ACAD_REACTORS
330
76
102
}
330
76
100
DictionaryVariables
280
     0
  1
0
  0
DICTIONARYVAR
  5
1581
102
{ACAD_REACTORS
330
76
102
}
330
76
100
DictionaryVariables
280
     0
  1
0
  0
DICTIONARYVAR
  5
157F
102
{ACAD_REACTORS
330
76
102
}
330
76
100
DictionaryVariables
280
     0
  1
2
  0
DICTIONARYVAR
  5
157E
102
{ACAD_REACTORS
330
76
102
}
330
76
100
DictionaryVariables
280
     0
  1
1
  0
DICTIONARYVAR
  5
1582
102
{ACAD_REACTORS
330
76
102
}
330
76
100
DictionaryVariables
280
     0
  1
2
  0
DICTIONARY
  5
1A
330
19
100
AcDbDictionary
280
     1
281
     1
  3
ACAD_XREC_ROUNDTRIP
360
158B
  3
BUMPTILE
360
1C
  3
DIFFUSETILE
360
1B
  3
OPACITYTILE
360
1F
  3
REFLECTIONTILE
360
1E
  3
REFRACTIONTILE
360
20
  3
SPECULARTILE
360
1D
  0
DICTIONARY
  5
12
330
11
100
AcDbDictionary
280
     1
281
     1
  3
ACAD_XREC_ROUNDTRIP
360
158A
  3
BUMPTILE
360
14
  3
DIFFUSETILE
360
13
  3
FBXASSET
360
F5
  3
OPACITYTILE
360
17
  3
REFLECTIONTILE
360
16
  3
REFRACTIONTILE
360
18
  3
SPECULARTILE
360
15
  0
DICTIONARY
  5
22
330
21
100
AcDbDictionary
280
     1
281
     1
  3
ACAD_XREC_ROUNDTRIP
360
158C
  3
BUMPTILE
360
24
  3
DIFFUSETILE
360
23
  3
FBXASSET
360
BA
  3
OPACITYTILE
360
27
  3
REFLECTIONTILE
360
26
  3
REFRACTIONTILE
360
28
  3
SPECULARTILE
360
25
  0
DICTIONARY
  5
1585
330
67
100
AcDbDictionary
280
     1
281
     1
  3
ACAD_XREC_ROUNDTRIP
360
1586
  0
DICTIONARY
  5
1583
330
65
100
AcDbDictionary
280
     1
281
     1
  3
ACAD_ROUNDTRIP_2008_TABLESTYLE_CELLSTYLEMAP
360
1584
  3
ACAD_XREC_ROUNDTRIP
360
15BD
  0
DICTIONARY
  5
1597
330
2F
100
AcDbDictionary
280
     1
281
     1
  3
ACAD_XREC_ROUNDTRIP
360
1598
  0
DICTIONARY
  5
1595
330
2E
100
AcDbDictionary
280
     1
281
     1
  3
ACAD_XREC_ROUNDTRIP
360
1596
  0
DICTIONARY
  5
15A3
330
35
100
AcDbDictionary
280
     1
281
     1
  3
ACAD_XREC_ROUNDTRIP
360
15A4
  0
DICTIONARY
  5
15AB
330
39
100
AcDbDictionary
280
     1
281
     1
  3
ACAD_XREC_ROUNDTRIP
360
15AC
  0
DICTIONARY
  5
159D
330
32
100
AcDbDictionary
280
     1
281
     1
  3
ACAD_XREC_ROUNDTRIP
360
159E
  0
DICTIONARY
  5
15A1
330
34
100
AcDbDictionary
280
     1
281
     1
  3
ACAD_XREC_ROUNDTRIP
360
15A2
  0
DICTIONARY
  5
15BB
330
41
100
AcDbDictionary
280
     1
281
     1
  3
ACAD_XREC_ROUNDTRIP
360
15BC
  0
DICTIONARY
  5
15A9
330
38
100
AcDbDictionary
280
     1
281
     1
  3
ACAD_XREC_ROUNDTRIP
360
15AA
  0
DICTIONARY
  5
158D
330
2A
100
AcDbDictionary
280
     1
281
     1
  3
ACAD_XREC_ROUNDTRIP
360
158E
  0
DICTIONARY
  5
158F
330
2B
100
AcDbDictionary
280
     1
281
     1
  3
ACAD_XREC_ROUNDTRIP
360
1590
  0
DICTIONARY
  5
1591
330
2C
100
AcDbDictionary
280
     1
281
     1
  3
ACAD_XREC_ROUNDTRIP
360
1592
  0
DICTIONARY
  5
1593
330
2D
100
AcDbDictionary
280
     1
281
     1
  3
ACAD_XREC_ROUNDTRIP
360
1594
  0
DICTIONARY
  5
159B
330
31
100
AcDbDictionary
280
     1
281
     1
  3
ACAD_XREC_ROUNDTRIP
360
159C
  0
DICTIONARY
  5
15B7
330
3F
100
AcDbDictionary
280
     1
281
     1
  3
ACAD_XREC_ROUNDTRIP
360
15B8
  0
DICTIONARY
  5
15A7
330
37
100
AcDbDictionary
280
     1
281
     1
  3
ACAD_XREC_ROUNDTRIP
360
15A8
  0
DICTIONARY
  5
15B9
330
40
100
AcDbDictionary
280
     1
281
     1
  3
ACAD_XREC_ROUNDTRIP
360
15BA
  0
DICTIONARY
  5
159F
330
33
100
AcDbDictionary
280
     1
281
     1
  3
ACAD_XREC_ROUNDTRIP
360
15A0
  0
DICTIONARY
  5
15B5
330
3E
100
AcDbDictionary
280
     1
281
     1
  3
ACAD_XREC_ROUNDTRIP
360
15B6
  0
DICTIONARY
  5
15B3
330
3D
100
AcDbDictionary
280
     1
281
     1
  3
ACAD_XREC_ROUNDTRIP
360
15B4
  0
DICTIONARY
  5
15AD
330
3A
100
AcDbDictionary
280
     1
281
     1
  3
ACAD_XREC_ROUNDTRIP
360
15AE
  0
DICTIONARY
  5
15AF
330
3B
100
AcDbDictionary
280
     1
281
     1
  3
ACAD_XREC_ROUNDTRIP
360
15B0
  0
DICTIONARY
  5
15A5
330
36
100
AcDbDictionary
280
     1
281
     1
  3
ACAD_XREC_ROUNDTRIP
360
15A6
  0
DICTIONARY
  5
1599
330
30
100
AcDbDictionary
280
     1
281
     1
  3
ACAD_XREC_ROUNDTRIP
360
159A
  0
DICTIONARY
  5
15B1
330
3C
100
AcDbDictionary
280
     1
281
     1
  3
ACAD_XREC_ROUNDTRIP
360
15B2
  0
XRECORD
  5
158B
102
{ACAD_REACTORS
330
1A
102
}
330
1A
100
AcDbXrecord
280
     1
102
MATERIAL
148
0.0
149
0.0
149
0.0
 93
        0
 94
      127
282
     0
 72
     0
 77
     0
171
     0
175
     0
179
     0
273
     0
  0
XRECORD
  5
1C
102
{ACAD_REACTORS
330
1A
102
}
330
1A
100
AcDbXrecord
280
     1
270
     1
271
     1
  0
XRECORD
  5
1B
102
{ACAD_REACTORS
330
1A
102
}
330
1A
100
AcDbXrecord
280
     1
270
     1
271
     1
  0
XRECORD
  5
1F
102
{ACAD_REACTORS
330
1A
102
}
330
1A
100
AcDbXrecord
280
     1
270
     1
271
     1
  0
XRECORD
  5
1E
102
{ACAD_REACTORS
330
1A
102
}
330
1A
100
AcDbXrecord
280
     1
270
     1
271
     1
  0
XRECORD
  5
20
102
{ACAD_REACTORS
330
1A
102
}
330
1A
100
AcDbXrecord
280
     1
270
     1
271
     1
  0
XRECORD
  5
1D
102
{ACAD_REACTORS
330
1A
102
}
330
1A
100
AcDbXrecord
280
     1
270
     1
271
     1
  0
XRECORD
  5
158A
102
{ACAD_REACTORS
330
12
102
}
330
12
100
AcDbXrecord
280
     1
102
MATERIAL
148
0.0
149
0.0
149
0.0
 93
        0
 94
      127
282
     0
 72
     0
 77
     0
171
     0
175
     0
179
     0
273
     0
  0
XRECORD
  5
14
102
{ACAD_REACTORS
330
12
102
}
330
12
100
AcDbXrecord
280
     1
270
     1
271
     1
  0
XRECORD
  5
13
102
{ACAD_REACTORS
330
12
102
}
330
12
100
AcDbXrecord
280
     1
270
     1
271
     1
  0
XRECORD
  5
F5
102
{ACAD_REACTORS
330
12
102
}
330
12
100
AcDbXrecord
280
     1
 70
     1
 90
1959938040
 71
     1
  1
3D403BD6-EE8D-4910-9284-80E36A9528B9
311
504B03040A00000800005DA0AF423DEE336E79000000790000001B0000006175746F6465736B2D64657369676E2D7061636B6167652E786D6C3C3F786D6C2076657273696F6E3D22312E302220656E636F64696E673D227574662D3822203F3E3C666F726D6174733E3C666F726D61743E687474703A2F2F736368656D612E
311
6175746F6465736B2E636F6D2F64657369676E2D7061636B6167652F323030393C2F666F726D61743E3C2F666F726D6174733E504B03041400060808005DA0AF42D486FD9CA0000000F4000000130000005B436F6E74656E745F54797065735D2E786D6C7D8EC10E82300C865F65E91D8A1E8C310C0EEA1BF002731658846E
311
D98AC1B77784ABF1D8FE5FBFBF75BBCE937A534CCEB38643598122B6FEE978D0B0485F9C41B54DDD7D022595594E1A469170414C76A4D9A4D207E29CF43ECE46F218070CC6BECC4078ACAA135ACF422C856C0E68EA1BF5669944DDD7BCDE7B1F8E415D77AECB980613C2E4AC91FC167A2B244592486606FC29C8FD7F045B9A
311
EF7053A7E60B504B03041400060808005DA0AF42B0D256FCEC0000007C01000008000000636F72652E786D6C8D90416EC3201045AF82665B618329496C61A23A724ED00B204C1C94182C03558F5F9C3852BBEB6A467FFE9B197D71FC9EEEE8CB2CC17AD7022D0820E3B41FAC1B5B48F1820F808E522CDEC75F36404E4DA685
311
550629C6C5A77993B477D1B89855E707B3892A041301E97B6E5A08FA6A2655A814B323DC8A59E99B1A4D415F5D8653B2037A1EB143DE672FD62C204F1DDB77FC4C71C7FA1EBFF73DC31F2752E3EA5CEF0F3B4EFB1DAB45B9C252443BBDEEEBC5A868069015A10C138E29FFAC4843AA86D76F84378C8872B5FF81D23CFC134A
311
D645566DEF3EB10092E6471E0329CA358B5C1E41E5BAE6267F00504B03041400060808005DA0AF4255019EA25F0000007C00000007000000636E782E786D6C4DCB3B0E80201045D1AD90E915ED2CF8AC45050C11660C8261F98AB1B07AC9C97D42D718D865D3E909258CFD00CCE24AC6E326A164D74DC0B4128928FF326038
311
472BA13128B1252AC747C6BAB984FC68F0B87FE8960A5C09FE86CFB69FBA01504B03041400060808005DA0AF42F77D087468010000020300000C0000006662782F636F72652E786D6C8D52ED8E8230107C95A67F2FA505440F536A4E834F702F50A17244684969898F7FCB87F1BC1863484A33B3B33B3BC077D7B64183B27D
311
6D7486C38061A47461CA5A5719F6EE4C3E31DA096E8D717FCA30D2B255191E612C78658DEF16A830DA29ED00D5A6540B28FB5E398C8A062E19EE8B1FD5CA407A0715FD25E8647191950AC20068A813BC77160CA079C87862713E5D399D71C1BDAFCB85AD4B98569F6B65B138ECE3CD3E3986641FE73959E5794CBE0E2C25D1
311
31DD7CAE93305FC729A7A3587057B737778555D2A9128B88853161090993EF886D59B44DD20F966C63C6E958FE20F25DF9A6C8D7DAC5D1627796F55884606422FE6D0B1139D4CB01FC50C1E91822BCA6841F8386402064274FCD6D8F0B40832A9CB12B604AE3EFD4201BAF602A43D3C3E9CC42E7A9016CF6B44FF4A2CFEB1E
311
F001A5AEC09A74703D79374EE7F3D4258A4E5932B82BD2C6B6B2B99B9B2DDECFFBA0A7F2C234C6BEA3A6CBAA7409938E7FAFF805504B03041400060808005DA0AF42CDC3902D7F0000009D0000000B0000006662782F636E782E786D6C4DCCDD0AC22018C6F15B91F7DCF6D1DE525047D6BA8FD1DC90390DD3E8F2DB62071D
311
3DF0E3E12FDACFE2C8DBC4970D5E4275288118FF0883F593849C46CA80B44AC410D2DF0D88EF1723616350628A213F771ACCD867975675D6CF3B1E4B860D6AA437C62FB461A79A72AEEF5477D7BA3B6B865821144A14BFD2BA5B587D01504B03041400060808005DA0AF42860B82DE2D01000015020000310000006662782F
311
33303835343542352D443839412D343836322D393942462D4245433245374238353531352F636F72652E786D6C8D515B6EC32010BC0AE2AB55858D1F24768489EA363D412F4080A42831583CAA1CBF503B52FB971F16CDCECC8E76E9FE365DC1B7725E5B33C0AAC0102823ACD4E63CC0184EA88360CFA8B336FCA14160F8A4
311
069861C8E8D9D938AF90B0262813126AAC542BC8BD570102714D9F017AF1A5265EF01812C35F8A998B0B3FABA22A523BF118F5C1A5006019925FC81ADC91968C04BD77FD2B6ABB4D8DFA7EFC40E3E1AD3E6CC78E908AD07211321AA396AB5CCB14479FB4728F9A6431A3414FF7F8C2291E9484ACC65583304115F9ACF10ED7
311
3BD2BF60B26B302D33FD9F28CEF24151D42634F51A779179C82A5A2E0D46A58DC7EB3D8CBACDD60590E73D79259E21C305C6DB7E8B71DFD272E1A60D24D34DBB9AFA605DDAF0D3E598E8794FD979D3325AE623A5F27BC154F341D90F504B03041400060808005DA0AF42A48E22844E01000033030000300000006662782F33
311
303835343542352D443839412D343836322D393942462D4245433245374238353531352F636E782E786D6CD593CD6E022114855F85B06DE64F1DD31A06932EFA045D74CBC055A90C4CF869EADBF7A268DDB8E8B21B3239F770CECD17866DBF2743BEC007EDEC40BBBAA504AC744ADBFD4053DC55CF946C39F3CEC53B1B2556
311
4C30D02C53CEF6DEA5B9480A76229988AAD1F658440FC1252F21A09C6F12E3A4301800B64A28C2348252A0C8CD885F3BF0B80A8AE389C40390B7D70FE2C64F9031B026A770D6E40ECEF2599AEE4C944823421868900798442D52740AC2B156228ABAABAF5D0F76FA4D22F9C2B532794D72F940F34979D9A8468EACC1216721
311
7AA4574CF13403E5629E8D962222E4E66CBC78384BDAC6F5AA783582F7E8EED6CBD50AC3CE33CEA29EA038A407114151BE68BB65D5F655D7BF2FDA4DBBD8F42F4F6DBF59B6ACC976CE46E74CB98431E0DD4CA4B3116CA4BC634D1E3FC2577C44698FAC9D3FFD01240228AD173AB78CFFCCA739BF6FC4E5F12FE03F504B0304
311
1400060808005DA0AF42A1693F60A405000081100000340000006662782F33303835343542352D443839412D343836322D393942462D4245433245374238353531352F6F626A656374732E786D6CAD575B6FDB3614FE2B82F6B23DF822DBC9EC415111DB496174698B1A2DF660C0A0254AE1425D405289B35FBF8F22254BAE
311
9D7A435F74E1E5F09CEF7CE742FFDD3EE5CE331592E5D98DEBF587AE43B3308F5896DCB8A58A7B53D77917F822CF556B99EB6424A537AE1E76033F117959D8A188C6A4E4EA68F47EFE9723439A51D7093991F2C695E1234D499F942A8FA87CEA4744917E12EFFB5EDF2CEC8A4D04291E8F841644D04C41538C6790E218A5BC
311
EEEFD01D04FE40CF07BE7EDA55E3F3AB06953DDDF3592615C9C2EF0E3B1233F626CBBBD1D5AC7735998C7B93EB91D79BDFCF973DEFF7F17071BD58CC6EEF6638582A01495613416337780F6C040BFD81990AFC92656A3CB24BAC8306823E33ED293718399E3F306B1AEBAC91A7D40FF32CA3618515D0A8ECB3A2235AD02C82
311
CF1995D0AC85D0B0FBEB691C5BD363FD6F8F6C0F5F86407B474B50AD7BFD6E6B9AEFFE8609F21206094935030D96D650C3D5E101E15D9E733BC7A49312450523DCE16C27887875032CD54B02BF23463359E868D016B801BC60A6BB744118FD98E7A7B48C4BCE358DDDA08A822D62852A5969C6FEA1E2A07D1B19E8045F6936
311
4CAD41EAB5A06E303314991EB1C900E9C49C247039CCD43BC7A32343173A4E574B37F870BFDBAF75EC9E3EBC10794185D2F401B56AC7D56F8D92D5C9BBC8737A837BA4CA01942F40FE2342FDA00AFC26D87EB29FD8539420998C7391C237CED0E90DF1183A5EF5D4DFAD2F7FD06CEE7AEF1C9E70B686EA27E0D9B5A1EDCB16
311
9C81FF0CC2E7626C4D5B8784236D3CB00C006992383CC710F270BCDBBBC10A590E5919BB080F3C980C759FF1E90FAC18248AEAA4D63B03964769F182040DD82A46420D437EABE0C14FDFA5B3EA60BBEC1CBC573F85AEB7CBF58775296212D2071BD34B1AB38C2994B8036FDA0A7530EF58F4445F5F7211C1D0EFF15EB7F14E
311
ED5112686BCC35F0499DD3F5CFE1E4CE0121F625B94E37FE0F4E8011BAB0B6E43F301952CE4946F3B23EF7CDFA81B26120D6C1AE99DC149843610169CCCC510CA2488782151AC4A65A3549B37FC6BAAFAB8F60A41BCC5FFF24AFEDECB53BE4DE30E7B9D8EE5EB7262D9D84FA5B97DB1683819602BA574152C7BF057D1BB138
311
2E2592E0095CBFAD166DDFE9B48014514B35D13281FD082E222C696BB9A8D682A092E6D996A16E22EE4E1ED0960F482D032A81E7349694C75BC679996E63C6518DB62929CEC0F1FFF5DF9569B125695E66EA8CEC8EEAA80E5DDD3BEC952F44858F6EB0AEDEBD39726F44A33364D0B5E404561DD78E9793E178BEBCEEDDDD4D
311
97BDC9CC1BF666A3E9A4371DDE8DAF6F6757A3E97C56FBC96812F875A9694734BC84D2E6978259F77D5D217E6C12708307A2E4E6BD09CFFAFD75D5472FEC0FB007F5B2D9781B3DA3EFA3D18F051C569E14B44A0B4E539A29A263E8417FF02F047D46471933BE4A49422F90F2E9FDFAC8188C5CB0EFB38E77FA72B4D78E2E74
311
409E14A21ECB749711C68F362606C97E912516BFDA27CDDB149AFA57FF59C7A03395396711F260E424344FA94236BCA00889944A50AFDDD347F6EE71C1EE67D3212AB2E3B4D6E491A049E61261016A95A1EA8E3BBFA0A9D37DD58D8B72DB7FC2C3660AD701676E5C34E98A8554F67728D0BA15AA84834BED4E1E8D3FC9128E
311
5EDB6C6AFE9B5D1A9B4E496E965CD23F59BB4C0AB706208D14E81BD010C13B9532815FE966E7C3FF6478AD8E43143E77A56A6C390C34C654C720448D51F6B68026E6C91EBD47A0BE6D96D7AFD67410B9E896F526098CD49E2222A96E0A5A3FABD2EDF2F3001D8AB3FAE414BC4CE0CBCB25F50405994B1DE060115861651644
311
81AA8B3F369F458E9B6CEADC3350C0F9753FBDFE6DB3C8D334CFCCD0E6D6DE879DF5236EB7D106C981EA6B89DC8C86DE68535D07EC0D65BB2392F649249F3000CF0AD600DD713F7869EE8CA84366A25937D0AE3862E86AE9D8C23681504B97766ED5E0A0F1C8A88318D2574A1D31ED05C59B378241B5142A08F4F2C1BF504B
311
03041400060800005DA0AF42000000000000000000000000350000006662782F33303835343542352D443839412D343836322D393942462D4245433245374238353531352F76657274696365732E62696E504B03041400060808005DA0AF42F270F1330600000004000000360000006662782F33303835343542352D443839
311
412D343836322D393942462D4245433245374238353531352F747269616E676C65732E62696E636660600000504B03041400060800005DA0AF42000000000000000000000000370000006662782F33303835343542352D443839412D343836322D393942462D4245433245374238353531352F617474726962757465732E62
311
696E504B03041400060808005DA0AF42D5987DFC8F00000041010000360000006662782F33303835343542352D443839412D343836322D393942462D4245433245374238353531352F6469726563746F72792E786D6C858F410EC2201045AF4266AF15DDB800BA74E7C21B903225242D6328188F2FA5C4183471359997F9FF
311
81E89FF3C41E1816475E02DF1F80A11FC8386F25A438EECEC07A250251FC3803E6F58C12560C4AD840E95E91C151A72936F496F35732D860FE635F62C8F2DA16B505C545B74125BAA2FA9E05D7CC053D063734D5C7665FD55B6B8D15D5E9BFEAFD8490FFA45E504B03041400060808005DA0AF42A3797864FE000000A00100
311
003B0000006662782F33303835343542352D443839412D343836322D393942462D4245433245374238353531352F7265736F75726365732F636F72652E786D6C8D504B6E833010BD0A9A6D6530B824011947252227E8052C33A156828DFCA97AFC9A40A576D7CDCCE87D344F8F9FBFE647F689CE6B6B3A28730A191A65476D
311
A60E62B891136467C19DB5E1970C322367EC608541F0C9D9B8EC90B226A009093576C41D94DE63804C3DD2D181571F38CB5CC69014FE9E2F52DDE5847999273AE904F7C1A500D9F6649D201C7A1B9D42CF8B8D153C463DEE1A3DA69FFAA6D181B8F4ECD8D7574A7A360CE475181879BBD08654D7E6783AD4E570600D2F56B3
311
E041CF3F19954319700451D192115A93B27EAF684BABB66E5E68DD32CA8B55FEC71497F19FA6A84D60D51E77B37910650AF224042FD6BED27A9699F6DAADF806504B010214000A00000800005DA0AF423DEE336E79000000790000001B00000000000000000000000000000000006175746F6465736B2D64657369676E2D70
311
61636B6167652E786D6C504B010214001400060808005DA0AF42D486FD9CA0000000F40000001300000000000000000000000000B20000005B436F6E74656E745F54797065735D2E786D6C504B010214001400060808005DA0AF42B0D256FCEC0000007C010000080000000000000000000000000083010000636F72652E78
311
6D6C504B010214001400060808005DA0AF4255019EA25F0000007C000000070000000000000000000000000095020000636E782E786D6C504B010214001400060808005DA0AF42F77D087468010000020300000C00000000000000000000000000190300006662782F636F72652E786D6C504B010214001400060808005DA0
311
AF42CDC3902D7F0000009D0000000B00000000000000000000000000AB0400006662782F636E782E786D6C504B010214001400060808005DA0AF42860B82DE2D010000150200003100000000000000000000000000530500006662782F33303835343542352D443839412D343836322D393942462D42454332453742383535
311
31352F636F72652E786D6C504B010214001400060808005DA0AF42A48E22844E010000330300003000000000000000000000000000CF0600006662782F33303835343542352D443839412D343836322D393942462D4245433245374238353531352F636E782E786D6C504B010214001400060808005DA0AF42A1693F60A405
311
00008110000034000000000000000000000000006B0800006662782F33303835343542352D443839412D343836322D393942462D4245433245374238353531352F6F626A656374732E786D6C504B010214001400060800005DA0AF420000000000000000000000003500000000000000000000000000610E00006662782F33
311
303835343542352D443839412D343836322D393942462D4245433245374238353531352F76657274696365732E62696E504B010214001400060808005DA0AF42F270F13306000000040000003600000000000000000000000000B40E00006662782F33303835343542352D443839412D343836322D393942462D4245433245
311
374238353531352F747269616E676C65732E62696E504B010214001400060800005DA0AF4200000000000000000000000037000000000000000000000000000E0F00006662782F33303835343542352D443839412D343836322D393942462D4245433245374238353531352F617474726962757465732E62696E504B010214
311
001400060808005DA0AF42D5987DFC8F000000410100003600000000000000000000000000630F00006662782F33303835343542352D443839412D343836322D393942462D4245433245374238353531352F6469726563746F72792E786D6C504B010214001400060808005DA0AF42A3797864FE000000A00100003B000000
311
00000000000000000000461000006662782F33303835343542352D443839412D343836322D393942462D4245433245374238353531352F7265736F75726365732F636F72652E786D6C504B0506000000000E000E00800400009D1100000000
310
504B03040A00000800005DA0AF423DEE336E79000000790000001B0000006175746F6465736B2D64657369676E2D7061636B6167652E786D6C3C3F786D6C2076657273696F6E3D22312E302220656E636F64696E673D227574662D3822203F3E3C666F726D6174733E3C666F726D61743E687474703A2F2F736368656D612E
310
6175746F6465736B2E636F6D2F64657369676E2D7061636B6167652F323030393C2F666F726D61743E3C2F666F726D6174733E504B03041400060808005DA0AF42D486FD9CA0000000F4000000130000005B436F6E74656E745F54797065735D2E786D6C7D8EC10E82300C865F65E91D8A1E8C310C0EEA1BF002731658846E
310
D98AC1B77784ABF1D8FE5FBFBF75BBCE937A534CCEB38643598122B6FEE978D0B0485F9C41B54DDD7D022595594E1A469170414C76A4D9A4D207E29CF43ECE46F218070CC6BECC4078ACAA135ACF422C856C0E68EA1BF5669944DDD7BCDE7B1F8E415D77AECB980613C2E4AC91FC167A2B244592486606FC29C8FD7F045B9A
310
EF7053A7E60B504B03041400060808005DA0AF42A16B9C8BEC0000007C01000008000000636F72652E786D6C8D90416E83301045AF62CDB632D8806940C65150C8097A01CB38D44AB011B6AB1EBF262152BBEB6A467FFE9B197D7EFC9EEFE84BAFDE38DB01CD08206D951B8D9D3A88E18A0F808E82AFCE855F364056CEBA83
310
4D06C1A7D5C5659794B341DB9054EB46BD8BD27B1D00A97B6A3AF0EA53CF3293312487BF658B543739E98CBEBA04C76846F43C62C6B4CF5C8D5E41B0A61F7A7639E0E6F07EC1D5A9AE71DF930197E7A2AF4F673654B4E2F9060B1ECCFCBAAF562D831E4114849698304CD947415A52B4AC7923AC2D09CF37FB1F282EE33FA1
310
686C288BFDDD27E641D0F4C8632078BE6591CA23A854B7DCC40F504B03041400060808005DA0AF4255019EA25F0000007C00000007000000636E782E786D6C4DCB3B0E80201045D1AD90E915ED2CF8AC45050C11660C8261F98AB1B07AC9C97D42D718D865D3E909258CFD00CCE24AC6E326A164D74DC0B4128928FF326038
310
472BA13128B1252AC747C6BAB984FC68F0B87FE8960A5C09FE86CFB69FBA01504B03041400060808005DA0AF421FB24FD768010000020300000C0000006662782F636F72652E786D6C8D52ED8E8230107C95A67F2FA5E5CB53536A24EA13DC0B54A81C115A525AE2E3DFF2613C2FC65C484A33B3B33B3BC077B7B64183B27D
310
6D7486C38061A47461CA5A5719F6EE42D618ED04B7C6B85F651869D9AA0C8F3016BCB2C6770B5418ED9476806A53AA05947DAF1C464503970CF7C5B76A6520BD838AFE1A74B2B8CA4A05610034D409DE3B0B06D03C643CB1B89C6F9CCEB8E0DED7E5C2D6254CAB2FB5B258A49BFC98A7A735D9AC3F4F24D9AF5624CFD991C4
310
87285FED0FE93109134E47B1E0AE6EEFEE0AABA4532516110B63C25212A65F11DBB2689B6E3E58BA8D19A763F993C877E53F45BED62E8E16BBB3ACC722042313F1675B88C8A15E0EE0870A4EC710E13525FC1C340402213B796EEE7B5C011A54E18C4D80298D7F50836CBC82A90C4D0FA7330B9DA706B0D9CB3ED19B3EEF7B
310
C00794BA026BD2C1F5ECDD389DCF5397283A65C9E06E481BDBCAE6616EB6F8381F835ECA0BD318FB1F355D56A54B9874FC7BC50F504B03041400060808005DA0AF426D416C8E7F0000009D0000000B0000006662782F636E782E786D6C4DCCDF0A83201C86E15B91DFB96B2D6D0ED4C8FEDC472C0B99E9308D5DFE6A74B0A3
310
0F1E3E5E5E7D168B361D56E39D80FC7205A4DDD38FC6CD02529C300354491EBC8F7F37406E58B4808341F239F8F43E69D4D3906CDCD51AF73AB1241D538CDC70717FB4989494E05AF51DEE1525B52A1ADAE42D649267BFD2BE47587E01504B03041400060808005DA0AF427949AC132D01000015020000310000006662782F
310
36344538423834322D333739442D343635342D414246452D4642353441423343354331442F636F72652E786D6C8D515B6EC32010BC0AE22B55858D1FB84E8489E23C4ED00B38405294182C1E558E5FA81DA9FDCB0F8B66676647BB74FB18EFE05B5AA78CEE60916108A4E646287DED60F017D442B065D41AE3FFD020D0C328
310
3B9860C8E8D59A302D1037DA4BED23AA8D900B3838273D04FC1E3F1D74FC4B8E4336041F19EE964D03BF0D579915596C471EA3CEDB1800CC43D20B59531FDBBEAD4B547DAC0FA86E488D76FDE9884E3DA9777DB527FBE240F359C868084A2C7225621C7551D2BE6A92C48C7A353EE3732B072F0564252E2A84092AC8678937
310
B8DC90F53B269B0AD33CD1FF89C2245E1405A57D552E71679983ACA0F9DC60549870BE3FC3C8C764AC0769DECA49FE0619CE306ECBA65D6342F3991B37104D9B7A3175DED8B8E1D5ED1CE9D5E2DCD48CE6E948B1FC5E30D67450F603504B03041400060808005DA0AF42C229ED935501000033030000300000006662782F36
310
344538423834322D333739442D343635342D414246452D4642353441423343354331442F636E782E786D6CBD93CD6E022114855F85B06DE6DF31D6309874D127E8A25B84AB52199800D3D4B7EF45D1BA71D1A4E9864CCE3D9C73F385619BAFD1904FF0413B3BD0A6AC29012B9DD2763FD039EE8A15251BCEBC73F1CE468915
310
230C34C994B3BD77F39425053B319B88AAD1F698450FC1CD5E424039DD24C6496130006C31A308E3169402456E46FCDA81C75550DC9E483C00797D79276EFB01320656A514CEAAD4C1593A73D39D8912694408030DF200A328C51C9D82702C9588A26CCA6BD7839D7E9248BA70AD9CBD26A97CA0E9A43C6F54224756E190B3
310
103DD2CBA6789A8072314D464B11117275365E3C9CCDDAC6E5227B3582F7E8EEDAE56A8561E71967518F901DD28388A0286FEBA62BEABE68FAB7B65ED7EDBA7F7EAAFB7557B32AD939DB3A67F2258C01EF26229D8D6023E50DABD2F811BEEC234A7B64EDFCE9172011406EBDD0B965FC259F66D92D16FFC8A73ABF6FC4E5F1
310
2FE0DF504B03041400060808005DA0AF42BB9E2531630700009A1B0000340000006662782F36344538423834322D333739442D343635342D414246452D4642353441423343354331442F6F626A656374732E786D6CED59DD73A33610FF5718FAD23E181BDB49E30EA193C4B91BCF35773775AFD307CF3032C8448D108C2492
310
B87F7D571F602026C16DFAD6071B10D26AF7B79F5A829F9F33EA3C622E48CE2E5DDF9BB80E66719E10965EBAA5DC8D2E5CE7E730E0792E1BD35C87A10C5FBA6AD80D8394E765618712BC4325959DD10FD77F3822C60CBB4E4C911097AE88EF71863C54CA3CC1E2C14B90445EBA7BF67CCF4C6C934D392AEE3B440BC43193C0
310
298C33A0E218A6FCF6E3C41D87C158BD0F03F56F67CD06CD9AF7CF1A6BA9DB5C12262462F10B963A646683589AF9F3E5EDF46C313A9BCF67A3F9F9D41F5D7FB85E8EFC1F67939BF39B9BC5D5ED02D8DBE639B53225B8C02C01FDEDDDD00FC6EA4D2DBA45E018D771CE188E3590009516AB4B9060015B35E09BB41F7D2551E3
310
B596B0F13C57EF2D0B8DE1599B4ADFAC6140B4E8822076BB4AE2EADA942FDFFE09828B2146C90596C0AD901CB46BE1E1E0156E3809C666340CB6075D10E16448624E107528D972C4412930554D0903B3C09251CEC18194A324D09A33AFDBB6059EF9B6EB1CE3725752AA3CC30DB56345E07E580ACD19F90BF303F74D648027
310
90B6244C5E582EE5BEC06EB808C67A300CD46536B52F0D90CE8EA2546844CCDB8EA037CAF5574B37FCF461FBBC56E1E0F8E605CF0BCCA5323AA547CD1718B2BD2A94ECB6FE20CDA905208C01D5AE3C80F22B20FF19A2C78115D01B27CFF3E7B99D2B39626297F30C74E34C9CD104FE268EAFFFD57DE32E18D78BDBDAEBC313
310
DC544175F1EFF16CCBA0B1B2FC37E00C834730F89CCFECAB758C28D8F31D610090321287E63004A17DB77D76C315044E08F4B00AD1D0079181DD47B80DC696CC412B957B59AF6380A8DD63364449009BB64860A3474F1F217B70121FD4D414B10FDEB37731D7ABE5FAD3BAE43B14E33BEBD34BBC238C48C89AC7196A61DE92
310
E801EF9F729E80A02FF15E37F1CEEC5602D056982BE0D30A04F570D8B9B5410CEBD25C859BE08D1D400895AB1BF4EF888831A588E1BCACF6ADA39B32D4DAE36DCDE0865303F16CDA31618E1F89AA2AC0690E335A8C42DE8F392914886EF8D14856074DAF47BA6FABCF6091F5FC9E592B06A19721FA9B0E5A477068597685B4
310
05A216787B08E7714E731E6DF79189742ED412C046DB5B7E6F1185586F94A4A8800769BFAB424A6AA48D12B2DB9502E2EA11167F5FDD34CD61E2CDFC33A7F9DF71C639445BF05DC4ADDF75F6884886521CED50D2B75D73B79AB6D0247B4873BCA320177924721F21194D129C9E02CD49C417EF4A3DA5B910846101F9EA28F8
310
4D34261E0412A3CD8A65A5D50ED044441996889E828022D303AE4E3BBAC68DA174789BC7DA7A5FD35893E87F64111C412D99B38840290A39E44DC67DEF0C62481B5D8372075FB0B68AB61683965042C4FBE80993F45E9E82BA21DF837B0C4792524679816230EB01645FF88A526A87F72D8A1F54FE88E292BE9781084C7711
310
A1B4CC22F81106278F21AE5D07A65751681037B14FE20C8A32244B3E6493F3B3C98B7D4CCDD00D818D8D768442D88E3254F4A0DE0A88BA1E716AF02DF51EA56ECBAC885096976C90A178B3AE3759F25DB52AB203F955A522948D15614B300C08937556AD623698BA0EACE0463A50ED2381B2829A53D81B89C7AFBD4953EEDD
310
805B3F7DDF0D3228FC7AB4D78CA8F30A06CB63AB30104F48C6F76EB8D6D7D135D4DF094E0EA9BEAA359B152020A62279C98955D1B7159437B64673C33B24C5E6A3C9BAD5F5DBCA83EE4730863550BBD40B570AE80C3389546572A76EE8AF0842708B86195FA99C7A0A95AB24D15523A21F489F3A5B65446BD38C78C53D6679
310
063FB6212CA665823728110FD19DA4D19A28D6AD945E462A8C5F15F0CBC775071E181920D25755E0E1A7CE5A3B7AA3CAA5A344E47D996D192210045BA2A546375EC152AB914ACBF5559D29A0EE0203B32A9EFF7FB268B623FE3F59A4D630FED5C9E27AFF0BDA37FB228D741E2BBB3EE91850E72745E53D8E01BAED5053ADB3
310
8849E6567EEB4C1104C52ACA0FAEC6AAA06108F671FC8FB3765F1634DB75F83F2D6BFB2F2A8E93B24A6BB2EA521DA95C57CD1C365BCE27B3EBE5F9E8F6F662399A2FFCC96831BD988F2E26B7B3F3ABC5D9F4E27A51A3A91D350CEA60A673173C9BA0560DAB278B017465454E4902A7F9C44931C47C0967FA01ED739E6101C9
310
B3D9EC4E6C537EC0EA47D3E794684B71C5C93D8206311590D601A33296ED71E73B684D4A38685FBAD034F21EE0CF5AA5EB40E6B974A15520498C85B78536936AE869E2907275EEB7C4001FC4529512CDA2FAB95EA5B06985FF7ACA903460E56AF530A0702BA0FBD5EA5068DE2C4FF1498257EC3848C2EDB69450AD19590E03
310
B5307A9B83FA8D6C94B007BBF533B8EEEB62F99E9ED34264D02783578DC0501D49C453DDEF568C5996AE965FC7D06773565F9C829629E87238A511C760CCA52AA8C08AC02A2CCD024930D59B9F365F790E9F7832475745CEF7CF17E73F6C6EF22CCB9919DA5CC1A92C810F45CEFA1E3EFB241B281EB06AAE8BCD74E24F37BA
310
A96DFBECD11609ECA9AA0806AA624209D23139B0CB170D2ADBBE1C2B5574A6AF968E0DA2D00C3076F4A2C76B3E7239E043EA738AF218EDE795B4AFF6B5C77A2AD804878E74F837504B03041400060800005DA0AF42000000000000000000000000350000006662782F36344538423834322D333739442D343635342D414246
310
452D4642353441423343354331442F76657274696365732E62696E504B03041400060808005DA0AF42F270F1330600000004000000360000006662782F36344538423834322D333739442D343635342D414246452D4642353441423343354331442F747269616E676C65732E62696E636660600000504B0304140006080000
310
5DA0AF42000000000000000000000000370000006662782F36344538423834322D333739442D343635342D414246452D4642353441423343354331442F617474726962757465732E62696E504B03041400060808005DA0AF42D5987DFC8F00000041010000360000006662782F36344538423834322D333739442D34363534
310
2D414246452D4642353441423343354331442F6469726563746F72792E786D6C858F410EC2201045AF4266AF15DDB800BA74E7C21B903225242D6328188F2FA5C4183471359997F9FF81E89FF3C41E1816475E02DF1F80A11FC8386F25A438EECEC07A250251FC3803E6F58C12560C4AD840E95E91C151A72936F496F35732
310
D860FE635F62C8F2DA16B505C545B74125BAA2FA9E05D7CC053D063734D5C7665FD55B6B8D15D5E9BFEAFD8490FFA45E504B03041400060808005DA0AF42510A08FBFF000000A00100003B0000006662782F36344538423834322D333739442D343635342D414246452D4642353441423343354331442F7265736F75726365
310
732F636F72652E786D6C8D504B6EC23010BD4A34DBCA899D6020C83122229CA017B09C815A101BF953F5F875482AB5BB6E6646EFA3797AE2F8353D8A4FF4C138DB012B291468B51B8DBD7590E295ECA1384AE19D8BBF645058356107330C52DCBC4BCF15D2CE46B431A3D68DB8822A048C50E8473E3A08FA032755AA14B322
310
DCCBA7D27775C3929599CE3A2942F43940B13C9927488FC125AF31886A61A548C98CABC68CF9A7B91AF42079DB0F3DBFEC48BBDF5DC8E6B4DD92BEA70369CE75BF3D9DF9B0611B51CD6629A2997E326A8F2AE208B2A6AC219413C6DF6B7AA0F581B76F941F1A2AAA59FEC7949EE33F4DC9D8D8D46BDCC51640B21CE4454851
310
CD7DE5F52A33EFB95BF90D504B010214000A00000800005DA0AF423DEE336E79000000790000001B00000000000000000000000000000000006175746F6465736B2D64657369676E2D7061636B6167652E786D6C504B010214001400060808005DA0AF42D486FD9CA0000000F40000001300000000000000000000000000B2
310
0000005B436F6E74656E745F54797065735D2E786D6C504B010214001400060808005DA0AF42A16B9C8BEC0000007C010000080000000000000000000000000083010000636F72652E786D6C504B010214001400060808005DA0AF4255019EA25F0000007C000000070000000000000000000000000095020000636E782E78
310
6D6C504B010214001400060808005DA0AF421FB24FD768010000020300000C00000000000000000000000000190300006662782F636F72652E786D6C504B010214001400060808005DA0AF426D416C8E7F0000009D0000000B00000000000000000000000000AB0400006662782F636E782E786D6C504B0102140014000608
310
08005DA0AF427949AC132D010000150200003100000000000000000000000000530500006662782F36344538423834322D333739442D343635342D414246452D4642353441423343354331442F636F72652E786D6C504B010214001400060808005DA0AF42C229ED9355010000330300003000000000000000000000000000
310
CF0600006662782F36344538423834322D333739442D343635342D414246452D4642353441423343354331442F636E782E786D6C504B010214001400060808005DA0AF42BB9E2531630700009A1B00003400000000000000000000000000720800006662782F36344538423834322D333739442D343635342D414246452D46
310
42353441423343354331442F6F626A656374732E786D6C504B010214001400060800005DA0AF420000000000000000000000003500000000000000000000000000271000006662782F36344538423834322D333739442D343635342D414246452D4642353441423343354331442F76657274696365732E62696E504B010214
310
001400060808005DA0AF42F270F133060000000400000036000000000000000000000000007A1000006662782F36344538423834322D333739442D343635342D414246452D4642353441423343354331442F747269616E676C65732E62696E504B010214001400060800005DA0AF4200000000000000000000000037000000
310
00000000000000000000D41000006662782F36344538423834322D333739442D343635342D414246452D4642353441423343354331442F617474726962757465732E62696E504B010214001400060808005DA0AF42D5987DFC8F000000410100003600000000000000000000000000291100006662782F3634453842383432
310
2D333739442D343635342D414246452D4642353441423343354331442F6469726563746F72792E786D6C504B010214001400060808005DA0AF42510A08FBFF000000A00100003B000000000000000000000000000C1200006662782F36344538423834322D333739442D343635342D414246452D4642353441423343354331
310
442F7265736F75726365732F636F72652E786D6C504B0506000000000E000E0080040000641300000000
  0
XRECORD
  5
17
102
{ACAD_REACTORS
330
12
102
}
330
12
100
AcDbXrecord
280
     1
270
     1
271
     1
  0
XRECORD
  5
16
102
{ACAD_REACTORS
330
12
102
}
330
12
100
AcDbXrecord
280
     1
270
     1
271
     1
  0
XRECORD
  5
18
102
{ACAD_REACTORS
330
12
102
}
330
12
100
AcDbXrecord
280
     1
270
     1
271
     1
  0
XRECORD
  5
15
102
{ACAD_REACTORS
330
12
102
}
330
12
100
AcDbXrecord
280
     1
270
     1
271
     1
  0
XRECORD
  5
158C
102
{ACAD_REACTORS
330
22
102
}
330
22
100
AcDbXrecord
280
     1
102
MATERIAL
148
0.0
149
0.0
149
0.0
 93
        0
 94
      127
282
     0
 72
     0
 77
     0
171
     0
175
     0
179
     0
273
     0
  0
XRECORD
  5
24
102
{ACAD_REACTORS
330
22
102
}
330
22
100
AcDbXrecord
280
     1
270
     1
271
     1
  0
XRECORD
  5
23
102
{ACAD_REACTORS
330
22
102
}
330
22
100
AcDbXrecord
280
     1
270
     1
271
     1
  0
XRECORD
  5
BA
102
{ACAD_REACTORS
330
22
102
}
330
22
100
AcDbXrecord
280
     1
 70
     1
 90
1959938040
 71
     1
  1
193DF830-54D9-4A4A-B5D8-9F6958FD6A97
311
504B03040A00000800005CA0AF423DEE336E79000000790000001B0000006175746F6465736B2D64657369676E2D7061636B6167652E786D6C3C3F786D6C2076657273696F6E3D22312E302220656E636F64696E673D227574662D3822203F3E3C666F726D6174733E3C666F726D61743E687474703A2F2F736368656D612E
311
6175746F6465736B2E636F6D2F64657369676E2D7061636B6167652F323030393C2F666F726D61743E3C2F666F726D6174733E504B03041400060808005CA0AF42D486FD9CA0000000F4000000130000005B436F6E74656E745F54797065735D2E786D6C7D8EC10E82300C865F65E91D8A1E8C310C0EEA1BF002731658846E
311
D98AC1B77784ABF1D8FE5FBFBF75BBCE937A534CCEB38643598122B6FEE978D0B0485F9C41B54DDD7D022595594E1A469170414C76A4D9A4D207E29CF43ECE46F218070CC6BECC4078ACAA135ACF422C856C0E68EA1BF5669944DDD7BCDE7B1F8E415D77AECB980613C2E4AC91FC167A2B244592486606FC29C8FD7F045B9A
311
EF7053A7E60B504B03041400060808005CA0AF42BE7BED2BEB0000007C01000008000000636F72652E786D6C8D90516EC3201044AF82F8ADB0C136B56B61A2B84D4FD00B20D8B828315806AA1EBF3871A4F6AF5FBB1AE6B1A31187EFF98ABE600DD6BB01B38262044E7B63DD34E014CFA4C3E820C5EA7DFC65C3C8A91906BC
311
C9588A69F569D925ED5D0417B3EABC815D542140C4485FF332E0A03F6156854A313BC2A55894BEA8090AF6D8329C9235E87EC49AFC9F3D5B58B1649457AC1D3969BB634D9AA63991B1A5EFE4ED485FBBF1B9E3A7975A941B2C45B4F3E3BE5E414530585694D58472C2F847457B5AF5BC7DA2BCAFA92837FB1F282DE69F50B2
311
2ED6D51EF78E859C3507B93D48516E5DE4712B2ACFAD37F903504B03041400060808005CA0AF4255019EA25F0000007C00000007000000636E782E786D6C4DCB3B0E80201045D1AD90E915ED2CF8AC45050C11660C8261F98AB1B07AC9C97D42D718D865D3E909258CFD00CCE24AC6E326A164D74DC0B4128928FF32603847
311
2BA13128B1252AC747C6BAB984FC68F0B87FE8960A5C09FE86CFB69FBA01504B03041400060808005CA0AF42447EDD9C67010000020300000C0000006662782F636F72652E786D6C8D525B6E833010BC8AE5DF0A6C5E0D8D8CA3A44D4FD00B38E0502B602363A31CBFCB23A2A9A2A84232D6CCCEEEEC00DB5DDB060DD2F6CA
311
E8024721C548EAD2544AD705F6EE1CE418ED38B3C6B85F651869D1CA028F30E6ACB6C6770B541AEDA476806A53C905147D2F1D4665039702F7E5B76C4528BC838AFE1276A2BC885A86510834D471D63B0B06D03C643C313F9FAE8CCC3867DEAB6A615505D3D459498B7944B338DA1CB26093EF93204DD36370D8D0CFE0634F
311
DFF3C36B9E1DDF12464631674EB53777A595C2C90AF398464940B320CABE62BAA5F136DBBCD06C9B5046C6F23B91EFAA7F8ABCD22E8917BBB3AC07AF606422FE6C0B1139D48B01FC10CEC81822BCA684EF8386402064274ECD6D8F0B40832C9DB1293095F12B3588C64B984AD1F43032B3D0796A009B3DEC133FE9F3BC077C
311
40A16BB0261C5C4FDE8DD3D93C7589A2933618DC1569635BD1ACE6668BEBB90E7A282F4D63EC7FD46459952C6192F1EFE53F504B03041400060808005CA0AF424322F6617C0000009D0000000B0000006662782F636E782E786D6C4DCC410AC3201404D0ABC8DFDB6851505043A3E41EA131419A68B15A7AFC9A92453733F0
311
1846F59F7D436F9F5F21450DF44200F9784F7388AB865A162C00F546E594CADF0C509C76AFE160306ACDA93E4F9AFD32D5AD34DD427C9C282DE574B437EC6C0B360C1C0B222D266EBC4AEBA8608C436754F77B6A7D1C9B2F504B03041400060808005CA0AF42A520673B2E01000015020000310000006662782F3943313531
311
4643412D444343412D344242352D383039432D3044463239434431383434352F636F72652E786D6C8D515B6EC23010BC8AE52FAA2A899D0724C8312A419CA0173089492D881DF95171FCAE9B20B57FFC78ADD999D9D12E3B3CA63BFA96D629A35B4C538291D4BD19941E5B1CFC35A9313A70668DF17F68186931C916471873
311
365A13E615EA8DF6527B40B519E40A0AE7A4C7A8BFC3A7C5AEFF92934845F0C070B77416FD4D8C32A529B481C799F31602A065487C316F3A5AD173F7919C3A78CAE3B14A6AD27409399DF3A63BD1BA2C2B962D42CE4250C32A5703C4515725EDAB2651CC9957D3337E6FA5F072C03C27B4484895D0EA33277B92EFABDD3BA9
311
F6056159A4FF13857978511494F645BEC65D640E73CAB2A5C1D960C2E5FE0C231FB3B11EC5791B27FB37CC494AC8AE2EEAA6D8B26CE1C206C0745BAEA6CE1B0B1BDEDC2E40A7B0A7E8BC2D39CBE291A0FC5E106A3C28FF01504B03041400060808005CA0AF42695289404E01000033030000300000006662782F3943313531
311
4643412D444343412D344242352D383039432D3044463239434431383434352F636E782E786D6CD593CD6E022114855F85B06DE64F1DDB1806932EFA045D74CBC055A90C4CF869EADBF7A268DDB8E8B21B3239F770CECD17866DBF2743BEC007EDEC40BBBAA504AC744ADBFD4053DC552F946C39F3CEC53B1B25564C30D02C
311
53CEF6DEA5B9480A76229988AAD1F658440FC1252F21A09C6F12E3A4301800B64A28C2348252A0C8CD885F3BF0B80A8AE389C40390B7D70FE2C64F9031B026A770D6E40ECEF2599AEE4C944823421868900798442D52740AC2B156228ABAABAF5D0F76FA4D22F9C2B532794D72F940F34979D9A8468EACC12167217AA4574C
311
F13403E5629E8D962222E4E66CBC78384BDAC6F5AA783582F7E8EED6CBD50AC3CE33CEA29EA038A407114151BE68BB65D5F655D7BF2FDA4DBBD8F4CF4F6DBF59B6ACC976CE46E74CB98431E0DD4CA4B3116CA4BC634D1E3FC2577C44698FAC9D3FFD01240228AD173AB78CFFCCA739BF6FC4E5F12FE03F504B030414000608
311
08005CA0AF42A590AAC8A205000080100000340000006662782F39433135314643412D444343412D344242352D383039432D3044463239434431383434352F6F626A656374732E786D6CAD575D8F9B3814FD2B887DD97DC877669AAC18AA4CD25451356DD5A8D53E448A0C18C63B0623DB4C33FBEBF7180C81349966577D09
311
C15C5FDF7BEEB91FF6DE1E52EE3C53A998C8EEDC517FE83A340B45C4B2E4CE2D74DC9BB9CE5BDF9342E89698EB6424A577AE59767D2F91A2C8ED52446352707DB2BABEFFCB5121CDA8EB849C2875E7AAF091A6A44F0A2D22AA9EFA11D1A49FC487FEA85F0976D52692E48F274A732269A66129D63368712AA346DDD7A13BF0
311
BD81F9EE7BE6D74A4D2E4B0D4A7FBAE7B34C6992853F1C76A266329AAEDE8D6FE6BD9BE974D29BDE8E47BDFBF5FDAA377A33192E6F97CBF9E2DD1C072B2DA1C95A2269ECFAEF818D64A137A83EF95EC1323D195B111BA081A4CFCC44CAF5C7CEC81B54328D77D6C973E68722CB68586205344AFFACEA88E6348B107346152C
311
6B2134ECBE8E0C8EADCF13F36E8F6C2F5F87407B474B516D7BFD6C5B2A82BFE182BA86415251C3C00A4BEB68C5D5E111E140086EBF31E5A44453C90877380B24912FAE0F5123E27B1D3586C9D26483F1C0F51185EA73972E48A39FF3FC9C9571C1B9A1B1EB9759B047AE50AD4ACBD83F541EAD6F23039B102BC386997548BF
311
E4D4F5E7154566276CAA8074624E12841C6E9A9D93F189A34B93A79B95EB7F580787ADC9DDF387E752E4546A431F50AB0E5CFD3428599B465745CE6C704F4C3982F205C87F44AA1F4D41DC243B4C0F537B8A962453B1902962E30C9DDE103F436754FE9AFFAD7FDEA0D9DC8DDE253C116C03D52FC0B3EB433B962D387DEF19
311
841772625DDB8684A36C3CB00C001992385C600975380E0EAEBF41954355C62EC2FD115C86B9CFF8EB0DAC1A148AF2A4D63303962765F18A020DD84A46C28C8AFCD6C0639C7E2867E5C156EC12BC37BF84AE8BD5F6C3B6903109E983CDE9158D59C6345ADC91376D833A98773C7AA22FDF858CE0E88F786FDB78A7F62805B4
311
0DE606F8A4AEE9E6E57872E78010FB1261CA8DF79313E08469AC2DFD0F4C859473925151D4E7BEDA3FD0362A884DB21B26370DE6D858409AEACB490EA2498792E506C4A65B3545B37FC1BBAF9B8F6024E4B908083F0A05C7D21B0A2EE43E78D95755E92CD2DFBAD4B6100C8C16B0BDCC913AFD2DE6FB88C571A15003CFC0FA
311
6DB36C87CE540554885A6B952C53B88FDC22D272B6D68B662D091AA9C8F60C6D136977F680B67E206A09502ABC64B1A23CDE33CE8B741F338E66B44F497E018EFF6F7F50A4F99EA4A2C8F405DD1DD3D11CBAB677C8ABBE131D3EBAFEB67CF6EE517A231A1DC3DC1136ADE40C56DDD0CE27ABF56C32C4F8B49AF7A68BE9A277
311
7FB39AF5E6EBDBF9CD6CBDBA5DCCDFD471AA94FB5EDD69DA098D28A1B3798564367C5F37481F5B035CFF8168B57B5F6567FDFCBAE96314F606D88376D96C5C44CF18FB68F4730547C9B38A3669CE694A334D4C0A3D983FFC0BC198D131A65ADFA424A15768F9F47E7BE20C56AED8F7D9A43BFD7EB2D7AE2E4D429E55A21F8B
311
34C808E3271B930AC97E9E2516BF3A26CDB3EA33F5AB79B381C160AA046711CA60E42454A454A3185ED183644A15A8D71EE9237BF5B862F77335206A12705A5BF24830237385B400B58A5077D79DDF30D399B1EACE45B7ED3FE1C7560AD70167EE5CCCE89A8554F503F467330995CAC1A5F6208FB99F6409C7A85D6D6ADE9B
311
5D069B4E476E44AE199FAC5F5505B70EA08CE4181B300F213AA531BE57DA66BF87FFC9F1DA1C8768FC0D0ADDF8725C689C298F418A564ED9CB026698277BF40189FABA5BA37E29D341E4AA4BD6AB24A8B4F6349149795130F6599316ABCF030C28CEE69393F322412CAFD7D49314642E4C8283456085D599130DAA2EFFDC7D
311
960217D9D4593350C0F9FD30BBFD63B714692AB26A69B7B0D76167FB88CB6DB44371A0E656A276E3E168BC2B6F03F682B20F88A27D12A9272C20B292354077C20F5E565746F4A1EA43233730A13861E866E5D8C63685524B97766D35E060EEC8A8831C32374A93316D81FCD50BC1A014850912A3BCFF2F504B030414000608
311
00005CA0AF42000000000000000000000000350000006662782F39433135314643412D444343412D344242352D383039432D3044463239434431383434352F76657274696365732E62696E504B03041400060808005CA0AF42F270F1330600000004000000360000006662782F39433135314643412D444343412D34424235
311
2D383039432D3044463239434431383434352F747269616E676C65732E62696E636660600000504B03041400060800005CA0AF42000000000000000000000000370000006662782F39433135314643412D444343412D344242352D383039432D3044463239434431383434352F617474726962757465732E62696E504B0304
311
1400060808005CA0AF42D5987DFC8F00000041010000360000006662782F39433135314643412D444343412D344242352D383039432D3044463239434431383434352F6469726563746F72792E786D6C858F410EC2201045AF4266AF15DDB800BA74E7C21B903225242D6328188F2FA5C4183471359997F9FF81E89FF3C41E
311
1816475E02DF1F80A11FC8386F25A438EECEC07A250251FC3803E6F58C12560C4AD840E95E91C151A72936F496F35732D860FE635F62C8F2DA16B505C545B74125BAA2FA9E05D7CC053D063734D5C7665FD55B6B8D15D5E9BFEAFD8490FFA45E504B03041400060808005CA0AF42ADD0C3B3FE000000A00100003B00000066
311
62782F39433135314643412D444343412D344242352D383039432D3044463239434431383434352F7265736F75726365732F636F72652E786D6C8D50596EC32010BD0AE2B7C2062FB56361A2B84D4FD00B2098B82831582C558F5F9CB852FBD79F99D15B344F8F1FBF961BFA041F8CB3236605C508AC72DAD879C4295E488F
311
D15170EF5CFC25C3C8CA0546BCC158F0D9BBB4EE907236828D19B54EC30ECA102062A46EF91871501FB0C842A69815E15AAC525DE50C052B329D758287E87300F478B24D2C3C0497BC82C0CB072B784A46EF1AA3F34F7331E0B160B4AD583735A4EB4F35699AE64CA68EBE91D7137DE9A7E7BE3D1F6A5E6E66C1A3597E322A
311
0F3282C6A2A2AC26B425AC7DAFE840ABA1ED9E683BD494979BFC8F29ADFA9FA6646CACAB3DEEC31672D61CE44E085E6E7DE5752F33EFAD5BF10D504B010214000A00000800005CA0AF423DEE336E79000000790000001B00000000000000000000000000000000006175746F6465736B2D64657369676E2D7061636B616765
311
2E786D6C504B010214001400060808005CA0AF42D486FD9CA0000000F40000001300000000000000000000000000B20000005B436F6E74656E745F54797065735D2E786D6C504B010214001400060808005CA0AF42BE7BED2BEB0000007C010000080000000000000000000000000083010000636F72652E786D6C504B0102
311
14001400060808005CA0AF4255019EA25F0000007C000000070000000000000000000000000094020000636E782E786D6C504B010214001400060808005CA0AF42447EDD9C67010000020300000C00000000000000000000000000180300006662782F636F72652E786D6C504B010214001400060808005CA0AF424322F661
311
7C0000009D0000000B00000000000000000000000000A90400006662782F636E782E786D6C504B010214001400060808005CA0AF42A520673B2E0100001502000031000000000000000000000000004E0500006662782F39433135314643412D444343412D344242352D383039432D3044463239434431383434352F636F72
311
652E786D6C504B010214001400060808005CA0AF42695289404E010000330300003000000000000000000000000000CB0600006662782F39433135314643412D444343412D344242352D383039432D3044463239434431383434352F636E782E786D6C504B010214001400060808005CA0AF42A590AAC8A205000080100000
311
3400000000000000000000000000670800006662782F39433135314643412D444343412D344242352D383039432D3044463239434431383434352F6F626A656374732E786D6C504B010214001400060800005CA0AF4200000000000000000000000035000000000000000000000000005B0E00006662782F39433135314643
311
412D444343412D344242352D383039432D3044463239434431383434352F76657274696365732E62696E504B010214001400060808005CA0AF42F270F13306000000040000003600000000000000000000000000AE0E00006662782F39433135314643412D444343412D344242352D383039432D3044463239434431383434
311
352F747269616E676C65732E62696E504B010214001400060800005CA0AF420000000000000000000000003700000000000000000000000000080F00006662782F39433135314643412D444343412D344242352D383039432D3044463239434431383434352F617474726962757465732E62696E504B010214001400060808
311
005CA0AF42D5987DFC8F0000004101000036000000000000000000000000005D0F00006662782F39433135314643412D444343412D344242352D383039432D3044463239434431383434352F6469726563746F72792E786D6C504B010214001400060808005CA0AF42ADD0C3B3FE000000A00100003B000000000000000000
311
00000000401000006662782F39433135314643412D444343412D344242352D383039432D3044463239434431383434352F7265736F75726365732F636F72652E786D6C504B0506000000000E000E0080040000971100000000
310
504B03040A00000800005CA0AF423DEE336E79000000790000001B0000006175746F6465736B2D64657369676E2D7061636B6167652E786D6C3C3F786D6C2076657273696F6E3D22312E302220656E636F64696E673D227574662D3822203F3E3C666F726D6174733E3C666F726D61743E687474703A2F2F736368656D612E
310
6175746F6465736B2E636F6D2F64657369676E2D7061636B6167652F323030393C2F666F726D61743E3C2F666F726D6174733E504B03041400060808005CA0AF42D486FD9CA0000000F4000000130000005B436F6E74656E745F54797065735D2E786D6C7D8EC10E82300C865F65E91D8A1E8C310C0EEA1BF002731658846E
310
D98AC1B77784ABF1D8FE5FBFBF75BBCE937A534CCEB38643598122B6FEE978D0B0485F9C41B54DDD7D022595594E1A469170414C76A4D9A4D207E29CF43ECE46F218070CC6BECC4078ACAA135ACF422C856C0E68EA1BF5669944DDD7BCDE7B1F8E415D77AECB980613C2E4AC91FC167A2B244592486606FC29C8FD7F045B9A
310
EF7053A7E60B504B03041400060808005CA0AF4276B36175EB0000007C01000008000000636F72652E786D6C8D904D6EC3201085AF82665B61F353DCD8C2444D959CA01740983828315806AA1EBF3871A476D7D58CDEBC6F66F4E4FE7BBAA12FBB44177C0FB42280AC3761707EEC21A733DE01DA2BB984907ED900793DD91E
310
5619941C9790E74D32C127EB53517D18EC26EA186D02646EA5E9219A8B9D74A5732A8E78AD666DAE7AB4157D7605CED90DE871C40D659F3B3BBB80FA68DE792B8E0D6EF88EE157CEDEF0818A2316E270122DA327DEB4B25E6125939B9EF7CD6275B203284628C744602A3E19E908EB44F34244C789AC57FB1F28CFC33FA1EC
310
7CE26C7BF7814550B43C721F2859AF5994720FAAD43537F503504B03041400060808005CA0AF4255019EA25F0000007C00000007000000636E782E786D6C4DCB3B0E80201045D1AD90E915ED2CF8AC45050C11660C8261F98AB1B07AC9C97D42D718D865D3E909258CFD00CCE24AC6E326A164D74DC0B4128928FF32603847
310
2BA13128B1252AC747C6BAB984FC68F0B87FE8960A5C09FE86CFB69FBA01504B03041400060808005CA0AF42054E88C468010000020300000C0000006662782F636F72652E786D6C8D525B6E833010BC8AE5DF0A0C26A64D641C355572825EC00187A2808DFC40397E974794A68AA208C958333BBBB3037C7BE95A3428EB1A
310
A30B9CC609464A97A66A745DE0E04FD107465BC1AD31FE4F19465A76AAC0238C05AFAD09FD0295467BA53DA0DA546A01A573CA6354B67029B02B7F542763193C54B873DCCBF22C6B15A731D05027B8F3160CA079C87862713A5E389971C14368AA856D2A98D69C1A65B1F8CA3FB335DBE7519E7DD06895D1F76897B27DC4D8
310
EEC0D6343D64F99A93512CB86FBAABBBD22AE95585054DD22C4A5894B26F9A6C12BA61F95BC23659C2C9587E270A7DF5A22834DA6774B13BCB1C16291899887FDB42441E3939801F2238194384D794F07DD0100884ECE5B1BDEE71066850A53776054C65C28D1A641B144C4DD0F47032B3D0796A009B3DEC439FF479DE033E
310
A0D43558931EAEC7E0C7E97C9EBA44D12B1B0DFE82B4B19D6C6FE6668BB7F336E8A1BC34ADB1AFA8C9B22A59C224E3DF2B7E01504B03041400060808005CA0AF429A59DF0E7E0000009D0000000B0000006662782F636E782E786D6C4DCCD10A83201886E15B91FFDCB5D45C821A6ED47DC4B290990EA76397BF1A1DECE883
310
878F57769FD5A3B74D2F178382FA740664C33D4E2E2C0A4A9E710BA8D332C598FF6E80C2B85A053B83964B8AE579D064E7B1F8BCA977E171A02103A9F98D6221AE143333F4D8B0B6C1941ACE08EF457331506959FD4ADBEE61FD05504B03041400060808005CA0AF42ACCF1CB42D01000015020000310000006662782F4132
310
4632313643332D393942332D344146452D413438352D3333413634323645393537412F636F72652E786D6C8D515B6EC32010BC0AE22B55659B8771E20813B95572825EC00192A2C460F1A872FCE2DA95DABFFCB068766676B4CB0F8FF10EBEB40FC6D90EE21241A0AD74CAD86B0753BC143B080E827BE7E21F1A0476187507
310
67180A7EF52E4D2B249D8DDAC68C5AA7F40A0E21E80881BCE74F0783FCD4E3500E296646B895D3206FC35597B8CCEDCC133C449F038065C8FC42D19313C1CD3B2DDAF68D16757F3A167DBD6305A57D5393E6D8B26DCFAB4528784A46AD72A3721C7331DA3F6B328B058F66FC8D2FBD1EA25650108469815881D907417B44F6
310
AC79456C4F11AF66FA3F519AD493A2646CA4648DBBC8021498574B4370E5D2F9FE1B463F26E72398E76D82962F50A012A1DD96E11635BC5AB87903D9B4A957D3109DCF1BDEDCCE994E57E7A616BC9A8F94CBCF05739D0F2ABE01504B03041400060808005CA0AF420EE0C2265501000033030000300000006662782F413246
310
32313643332D393942332D344146452D413438352D3333413634323645393537412F636E782E786D6CBD93CD6EC32010845F0571ADFC1F47518489D4439FA0875E316C521A0C16E0AA79FB2E094973C9A152D50BB2668799D527CC765F93219FE0837676A04D595302563AA5ED61A04BDC171B4A769C79E7E29D8D122B2618
310
6892296707EF96394B0AF662311155A3ED318B1E825BBC848072BA498C93C26000D8624111A6119402456E46FCDA83C755501C4F24BE0379797E236EFC001903AB520A6755EAE02C9DB9E9CE44893422848106F90E9328C5129D82702C9588A26CCA6BD7839D7E9248BA70AD5CBC26A97CA0E9A43C6F54224756E190B3103D
310
D2CBA6789A817231CF464B11117275365E3C9C2DDAC6F52A7B3582F7E8EEDAF5668361E71967514F901DD28388A0286FEBA62BEABE68FAD7B6DED6EDB65F3FD5FDB6AB5995EC9C8DCE997C0963C0BB99486723D84879C3AA347E842FFB88D21E593B7FFA054804905B2F746E197FC9A75977ABD53FF2A9CEEF1B7179FC0BF8
310
37504B03041400060808005CA0AF42DF6B7B5E62070000991B0000340000006662782F41324632313643332D393942332D344146452D413438352D3333413634323645393537412F6F626A656374732E786D6CED59DD739B3810FF5718EEE5EEC1D8C44E1ADF103A497CE9783A693BF5B5730F9E616490892E423092489CFB
310
EB6FF5010662127CCDBDF5C10684B4DAFDEDA796E0FD2EA3CE03E682E4ECC2F5BD89EB6016E70961E9855BCAEDE8DC75DE8701CF73D998E63A0C65F8C255C36E18A43C2F0B3B94E02D2AA9EC8CDE5CFDE5881833EC3A3145425CB822BEC319F25029F3048B7B2F411279E976E7F99E99D8269B7254DC758816886326815318
310
6740C5314CF9EDC7893B0E83B17A1F06EADFCE9A0E9A35EB9F35D652B7B9244C48C4E2672C75C84C07B134F5678B3F4E4EE7A3D3D96C3A9A9D9DF8A3AB9BABC5C87F379D5C9F5D5FCF2FFF98037B9B3CA756A604179825A0BF2737F483B17A538B6E1138C4759C3386630D2440A5C5EA122458C0560DF826ED475F49D478AD
310
256C3CCFD47BCB426378DAA6D2376B18102DBA2088DDAE92B8BA36E5CB377F83E0628851728125702B2407ED5A783878851B4E82B1190D83CD5E17443819929813441D4A361C71500A4C5553C2C02CB06494737020E52809B4E6CCEBB66D8167BEEE3A87B8DC96942ACF7043ED5811B81F96427346FEC17CCF7D1319E009A4
310
2D0993E7964BF95460379C07633D1806EA323DB12F0D90CE96A2546844CCDB8EA0D7CAF5970B37FC78B3D9AD543838BC79C1F30273A98C4EE951F305866CAF0A25BBAD3F48736A01086340B52BF7A07C05E43F41F4D8B3027AE36437DBCDEC5CC91113DB9C67A01B67E28C26F037717CFDAFEE1B77C1B85EDCD65E1F9EE0A6
310
0AAAF31FC7B32D83C6CAF2DF80330C1EC0E0733EB5AF5631A260CFB7840140CA481C9AC31084F6ED66E7864B089C10E86115A2A10F2203BB0F701B8C2D99BD562AF7B25EC70051BBC774889200366D91C0468F9E3E40F6E024DEABA929621FBCA76F62AE978BD5C755C9B728C6B7D6A717784B189190350F33D4C2BC25D13D
310
7E7ACC7902823EC77BD5C43BB35B09405B61AE804F2B10D4C37EE7D60631AC4B73156E825776002154AE6ED0BF2522C6942286F3B2DAB78E6ECA506B8FB735831B9E1888A7271D13E6F881A8AA029C663FA3C528E4FD98934281E8861F8C6475D0F47AA4FBB6FC041659CFEF99B564107A19A27FEAA0750087966557485B20
310
6A8137FB701EE734E7D1E6293291CE855A02D8687BCBF7165188F546498A0A7890F6BB2AA4A446DA2821DB6D2920AE1E60F1FBF2BA690E136FEA9F3ACDFF8E33CE20DA82EF226EFDAEB347443294E2688B92BEED9ABBD5B48526D9439AE32D05B9C803914F1192D124C1E931D01C457CFEA6D4539A0B41181690AF0E82DF44
310
63E2412031DAAC58565AED004D44946189E8310828323DE0EAB4A36BDC184A87D779ACADF7258D3589FE4F16C111D492398B0894A290435E65DCF74E2186B4D1352877F0056BAB686B3168092544FC143D6292DEC9635037E47B708FE14852CA282F500C663D80EC335F514AEDF0BE41F1BDCA1F515CD2B7321081E9362294
310
9659043FC2E0E431C4B5EBC0F4220A0DE226F6499C41518664C9876C72763A79B68FA919BA21B0B1D1965008DB51868A1ED45B0151D7234E0DBEA5DEA3D44D991511CAF2920D32146FDAF5264BBEAB56457620BFAA5484B2B1226C09860161B2CEAA55CC0653D78115DC4807AAA748A0ACA0E614F64AE2F16B6FD2947B37E0
310
D64FDF76830C0ABF1EED3523EAAC82C1F2D82A0CC42392F19D1BAEF4757405F57782937DAAAF6ACD66050888A9485E726255F46D09E58DADD1DCF01649B1FE60B26E75FDB6F4A0FB118C610DD42EF5C2A5023AC34C225599DCAA1BFA1541086ED130E34B95538FA1729924BA6A44F486F4A9B35546B436CD8857DC619667F0
310
636BC2625A26788D12711FDD4A1AAD8862DD4AE965A4C2F845013F7F5875E0819101227D51051E7EECACB5A3D7AA5C3A4844DE95D986210241B0255A6A74E3152CB51AA9B45C5FD59902EA2E3030ABE2D9CF9345B31DF1F364915AC3F8B19305CD3788EEA34D239BC7CAAC8F3A05D4E94951798B5380EE3AD454EB246272B9
310
15DFFA520431B10AF2838BB12A6618827D1CFFE7A4DD9704CD761DFE8F4BDAFEB382E3A8A4D29AAC9A54070AD7653385F9F3E9E2E67C3A81FEEC623E9A5DCE2E4757A78BF3D1FCE66C7E7A7EB338BB9CBFABD1D47E1A06752CD3A90B9E4D4CAB86D593C5009AB222A72481C37CE2A41842BE8423FD80EE39CFB080DCD9EC75
310
27B6273F60F58369734AB4A1B8E2E40E417F980AC8EA805119CBF6B8F30B7426259CB32F5CE81979F7F067ADD27520F15CB8D0299024C6C2DB409749F5F33471C8B83AF55B62800F62A9CA886651FD5CAF52D8B4A27F3D654816B072B55A1850B715D0FC6A3528346F96A7F828C12B761C24E176534A28D68C2CFB815A18BD
310
CD5EFD46364AD8BDDD7A07AEFBB258BEA7E7B41019F4C5E0452330544712F154B7BB156396A5CBC59731B4D99CE567A7A0650ABA1C4E69C4311873A9EA29B022B00A4BB340124CF5FAF7F5179EC3179ECCD14591F3EBEEFCECB7F5759E65393343EB4B389425F09DC859DDC1579F640DB50356BD75B13E99F8276BDDD3B66D
310
F6688304F654510403552DA104E9981CD8E5B3FE94ED5E8E952A3AD3970BC70651E805183B7AD6E235DFB81CF021F53545798CF6F34ADA17DBDA633D156C8243433AFC17504B03041400060800005CA0AF42000000000000000000000000350000006662782F41324632313643332D393942332D344146452D413438352D33
310
33413634323645393537412F76657274696365732E62696E504B03041400060808005CA0AF42F270F1330600000004000000360000006662782F41324632313643332D393942332D344146452D413438352D3333413634323645393537412F747269616E676C65732E62696E636660600000504B03041400060800005CA0AF
310
42000000000000000000000000370000006662782F41324632313643332D393942332D344146452D413438352D3333413634323645393537412F617474726962757465732E62696E504B03041400060808005CA0AF42D5987DFC8F00000041010000360000006662782F41324632313643332D393942332D344146452D4134
310
38352D3333413634323645393537412F6469726563746F72792E786D6C858F410EC2201045AF4266AF15DDB800BA74E7C21B903225242D6328188F2FA5C4183471359997F9FF81E89FF3C41E1816475E02DF1F80A11FC8386F25A438EECEC07A250251FC3803E6F58C12560C4AD840E95E91C151A72936F496F35732D860FE
310
635F62C8F2DA16B505C545B74125BAA2FA9E05D7CC053D063734D5C7665FD55B6B8D15D5E9BFEAFD8490FFA45E504B03041400060808005CA0AF421E593C44FD000000A00100003B0000006662782F41324632313643332D393942332D344146452D413438352D3333413634323645393537412F7265736F75726365732F63
310
6F72652E786D6C8D50596AC33010BD8A99DF225B4BE5C64156684A72825E40C8935424968296D2E3574E5C68FFFA3333BC85793CB5FB9AAFCD27C6E4821F81B5141AF4364CCE9F4728F94436D0ECB48A21E45F3268BC9971840506ADCE3194DB0AD9E033FA5C511F265C4193126668ECB51E2324FB81B3694DC955912EEDCD
310
D88B3963CBDA4A579D5629C71AA0793C5926E88829946831A9EEC16A558A9B568D9BEA4F77721841BFF5AF629007497AB1E1E459F017B267F240A4DC1FE5C0D951F483EA16B356D9CD3F196D44937102CD2913844AC2E43BA75BCAB7B27FA2722BA8EA16F91F53B94DFF3415E7B3E06BDC872D816635C89DD0AA5BFAAAEB5E
310
66DD4BB7FA1B504B010214000A00000800005CA0AF423DEE336E79000000790000001B00000000000000000000000000000000006175746F6465736B2D64657369676E2D7061636B6167652E786D6C504B010214001400060808005CA0AF42D486FD9CA0000000F40000001300000000000000000000000000B20000005B43
310
6F6E74656E745F54797065735D2E786D6C504B010214001400060808005CA0AF4276B36175EB0000007C010000080000000000000000000000000083010000636F72652E786D6C504B010214001400060808005CA0AF4255019EA25F0000007C000000070000000000000000000000000094020000636E782E786D6C504B01
310
0214001400060808005CA0AF42054E88C468010000020300000C00000000000000000000000000180300006662782F636F72652E786D6C504B010214001400060808005CA0AF429A59DF0E7E0000009D0000000B00000000000000000000000000AA0400006662782F636E782E786D6C504B010214001400060808005CA0AF
310
42ACCF1CB42D010000150200003100000000000000000000000000510500006662782F41324632313643332D393942332D344146452D413438352D3333413634323645393537412F636F72652E786D6C504B010214001400060808005CA0AF420EE0C22655010000330300003000000000000000000000000000CD06000066
310
62782F41324632313643332D393942332D344146452D413438352D3333413634323645393537412F636E782E786D6C504B010214001400060808005CA0AF42DF6B7B5E62070000991B00003400000000000000000000000000700800006662782F41324632313643332D393942332D344146452D413438352D333341363432
310
3645393537412F6F626A656374732E786D6C504B010214001400060800005CA0AF420000000000000000000000003500000000000000000000000000241000006662782F41324632313643332D393942332D344146452D413438352D3333413634323645393537412F76657274696365732E62696E504B0102140014000608
310
08005CA0AF42F270F13306000000040000003600000000000000000000000000771000006662782F41324632313643332D393942332D344146452D413438352D3333413634323645393537412F747269616E676C65732E62696E504B010214001400060800005CA0AF42000000000000000000000000370000000000000000
310
0000000000D11000006662782F41324632313643332D393942332D344146452D413438352D3333413634323645393537412F617474726962757465732E62696E504B010214001400060808005CA0AF42D5987DFC8F000000410100003600000000000000000000000000261100006662782F41324632313643332D39394233
310
2D344146452D413438352D3333413634323645393537412F6469726563746F72792E786D6C504B010214001400060808005CA0AF421E593C44FD000000A00100003B00000000000000000000000000091200006662782F41324632313643332D393942332D344146452D413438352D3333413634323645393537412F726573
310
6F75726365732F636F72652E786D6C504B0506000000000E000E00800400005F1300000000
  0
XRECORD
  5
27
102
{ACAD_REACTORS
330
22
102
}
330
22
100
AcDbXrecord
280
     1
270
     1
271
     1
  0
XRECORD
  5
26
102
{ACAD_REACTORS
330
22
102
}
330
22
100
AcDbXrecord
280
     1
270
     1
271
     1
  0
XRECORD
  5
28
102
{ACAD_REACTORS
330
22
102
}
330
22
100
AcDbXrecord
280
     1
270
     1
271
     1
  0
XRECORD
  5
25
102
{ACAD_REACTORS
330
22
102
}
330
22
100
AcDbXrecord
280
     1
270
     1
271
     1
  0
XRECORD
  5
1586
102
{ACAD_REACTORS
330
1585
102
}
330
1585
100
AcDbXrecord
280
     1
102
ACAD_ROUNDTRIP_2012_MLEADER_STYLE
298
     1
  0
CELLSTYLEMAP
  5
1584
102
{ACAD_REACTORS
330
1583
102
}
330
1583
100
AcDbCellStyleMap
 90
        3
300
CELLSTYLE
  1
TABLEFORMAT_BEGIN
 90
        5
170
     1
 91
        0
 92
    32768
 62
   257
 93
        1
300
CONTENTFORMAT
  1
CONTENTFORMAT_BEGIN
 90
        0
 91
        0
 92
      512
 93
        0
300

 40
0.0
140
1.0
 94
        5
 62
     0
340
55
144
0.25
309
CONTENTFORMAT_END
171
     0
 94
        0
309
TABLEFORMAT_END
  1
CELLSTYLE_BEGIN
 90
        1
 91
        1
300
_TITLE
309
CELLSTYLE_END
300
CELLSTYLE
  1
TABLEFORMAT_BEGIN
 90
        5
170
     1
 91
        0
 92
        0
 62
   257
 93
        1
300
CONTENTFORMAT
  1
CONTENTFORMAT_BEGIN
 90
        0
 91
        0
 92
      512
 93
        0
300

 40
0.0
140
1.0
 94
        5
 62
     0
340
55
144
0.18
309
CONTENTFORMAT_END
171
     0
 94
        0
309
TABLEFORMAT_END
  1
CELLSTYLE_BEGIN
 90
        2
 91
        1
300
_HEADER
309
CELLSTYLE_END
300
CELLSTYLE
  1
TABLEFORMAT_BEGIN
 90
        5
170
     1
 91
        0
 92
        0
 62
   257
 93
        1
300
CONTENTFORMAT
  1
CONTENTFORMAT_BEGIN
 90
        0
 91
        0
 92
      512
 93
        0
300

 40
0.0
140
1.0
 94
        2
 62
     0
340
55
144
0.18
309
CONTENTFORMAT_END
171
     0
 94
        0
309
TABLEFORMAT_END
  1
CELLSTYLE_BEGIN
 90
        3
 91
        2
300
_DATA
309
CELLSTYLE_END
  0
XRECORD
  5
15BD
102
{ACAD_REACTORS
330
1583
102
}
330
1583
100
AcDbXrecord
280
     1
102
ACAD_ROUNDTRIP_PRE2007_TABLESTYLE
 90
      512
 91
        0
  1

 92
      512
 93
        0
  2

 94
      512
 95
        0
  3

  0
XRECORD
  5
1598
102
{ACAD_REACTORS
330
1597
102
}
330
1597
100
AcDbXrecord
280
     1
102
RTVSPropertyOp0
 70
     1
102
RTVSPropertyOp1
 70
     1
102
RTVSPropertyOp2
 70
     1
102
RTVSPropertyOp3
 70
     1
102
RTVSPropertyOp4
 70
     1
102
RTVSPropertyOp5
 70
     1
102
RTVSPropertyOp6
 70
     1
102
RTVSPropertyOp7
 70
     1
102
RTVSPropertyOp8
 70
     1
102
RTVSPropertyOp9
 70
     1
102
RTVSPropertyOp10
 70
     1
102
RTVSPropertyOp11
 70
     1
102
RTVSPropertyOp12
 70
     1
102
RTVSPropertyOp13
 70
     1
102
RTVSPropertyOp14
 70
     1
102
RTVSPropertyOp15
 70
     1
102
RTVSPropertyOp16
 70
     1
102
RTVSPropertyOp17
 70
     1
102
RTVSPropertyOp18
 70
     1
102
RTVSPropertyOp19
 70
     1
102
RTVSPropertyOp20
 70
     1
102
RTVSPropertyOp21
 70
     1
102
RTVSPropertyOp22
 70
     1
102
RTVSPropertyOp23
 70
     1
102
RTVSPropertyOp24
 70
     1
102
RTVSPropertyOp25
 70
     1
102
RTVSPropertyOp26
 70
     1
102
RTVSPropertyOp27
 70
     1
102
RTVSPropertyOp28
 70
     1
102
RTVSPropertyOp29
 70
     1
102
RTVSPropertyOp30
 70
     1
102
RTVSPropertyOp31
 70
     1
102
RTVSPropertyOp32
 70
     1
  0
XRECORD
  5
1596
102
{ACAD_REACTORS
330
1595
102
}
330
1595
100
AcDbXrecord
280
     1
102
RTVSPropertyOp0
 70
     1
102
RTVSPropertyOp1
 70
     1
102
RTVSPropertyOp2
 70
     1
102
RTVSPropertyOp3
 70
     1
102
RTVSPropertyOp4
 70
     1
102
RTVSPropertyOp5
 70
     1
102
RTVSPropertyOp6
 70
     1
102
RTVSPropertyOp7
 70
     1
102
RTVSPropertyOp8
 70
     1
102
RTVSPropertyOp9
 70
     1
102
RTVSPropertyOp10
 70
     1
102
RTVSPropertyOp11
 70
     1
102
RTVSPropertyOp12
 70
     1
102
RTVSPropertyOp13
 70
     1
102
RTVSPropertyOp14
 70
     1
102
RTVSPropertyOp15
 70
     1
102
RTVSPropertyOp16
 70
     1
102
RTVSPropertyOp17
 70
     1
102
RTVSPropertyOp18
 70
     1
102
RTVSPropertyOp19
 70
     1
102
RTVSPropertyOp20
 70
     1
102
RTVSPropertyOp21
 70
     1
102
RTVSPropertyOp22
 70
     1
102
RTVSPropertyOp23
 70
     1
102
RTVSPropertyOp24
 70
     1
102
RTVSPropertyOp25
 70
     1
102
RTVSPropertyOp26
 70
     1
102
RTVSPropertyOp27
 70
     1
102
RTVSPropertyOp28
 70
     1
102
RTVSPropertyOp29
 70
     1
102
RTVSPropertyOp30
 70
     1
102
RTVSPropertyOp31
 70
     1
102
RTVSPropertyOp32
 70
     1
  0
XRECORD
  5
15A4
102
{ACAD_REACTORS
330
15A3
102
}
330
15A3
100
AcDbXrecord
280
     1
102
RTVSPropertyOp0
 70
     1
102
RTVSPropertyOp1
 70
     1
102
RTVSPropertyOp2
 70
     1
102
RTVSPropertyOp3
 70
     1
102
RTVSPropertyOp4
 70
     1
102
RTVSPropertyOp5
 70
     1
102
RTVSPropertyOp6
 70
     1
102
RTVSPropertyOp7
 70
     1
102
RTVSPropertyOp8
 70
     1
102
RTVSPropertyOp9
 70
     1
102
RTVSPropertyOp10
 70
     1
102
RTVSPropertyOp11
 70
     1
102
RTVSPropertyOp12
 70
     1
102
RTVSPropertyOp13
 70
     1
102
RTVSPropertyOp14
 70
     1
102
RTVSPropertyOp15
 70
     1
102
RTVSPropertyOp16
 70
     1
102
RTVSPropertyOp17
 70
     1
102
RTVSPropertyOp18
 70
     1
102
RTVSPropertyOp19
 70
     1
102
RTVSPropertyOp20
 70
     1
102
RTVSPropertyOp21
 70
     1
102
RTVSPropertyOp22
 70
     1
102
RTVSPropertyOp23
 70
     1
102
RTVSPropertyOp24
 70
     1
102
RTVSPropertyOp25
 70
     1
102
RTVSPropertyOp26
 70
     1
102
RTVSPropertyOp27
 70
     1
102
RTVSPropertyOp28
 70
     1
102
RTVSPropertyOp29
 70
     1
102
RTVSPropertyOp30
 70
     1
102
RTVSPropertyOp31
 70
     1
102
RTVSPropertyOp32
 70
     1
  0
XRECORD
  5
15AC
102
{ACAD_REACTORS
330
15AB
102
}
330
15AB
100
AcDbXrecord
280
     1
102
RTVSPropertyOp0
 70
     1
102
RTVSPropertyOp1
 70
     1
102
RTVSPropertyOp2
 70
     1
102
RTVSPropertyOp3
 70
     1
102
RTVSPropertyOp4
 70
     1
102
RTVSPropertyOp5
 70
     1
102
RTVSPropertyOp6
 70
     1
102
RTVSPropertyOp7
 70
     1
102
RTVSPropertyOp8
 70
     1
102
RTVSPropertyOp9
 70
     1
102
RTVSPropertyOp10
 70
     1
102
RTVSPropertyOp11
 70
     1
102
RTVSPropertyOp12
 70
     1
102
RTVSPropertyOp13
 70
     1
102
RTVSPropertyOp14
 70
     1
102
RTVSPropertyOp15
 70
     1
102
RTVSPropertyOp16
 70
     1
102
RTVSPropertyOp17
 70
     1
102
RTVSPropertyOp18
 70
     1
102
RTVSPropertyOp19
 70
     1
102
RTVSPropertyOp20
 70
     1
102
RTVSPropertyOp21
 70
     1
102
RTVSPropertyOp22
 70
     1
102
RTVSPropertyOp23
 70
     1
102
RTVSPropertyOp24
 70
     1
102
RTVSPropertyOp25
 70
     1
102
RTVSPropertyOp26
 70
     1
102
RTVSPropertyOp27
 70
     1
102
RTVSPropertyOp28
 70
     1
102
RTVSPropertyOp29
 70
     1
102
RTVSPropertyOp30
 70
     1
102
RTVSPropertyOp31
 70
     1
102
RTVSPropertyOp32
 70
     1
  0
XRECORD
  5
159E
102
{ACAD_REACTORS
330
159D
102
}
330
159D
100
AcDbXrecord
280
     1
102
RTVSPropertyOp0
 70
     1
102
RTVSPropertyOp1
 70
     1
102
RTVSPropertyOp2
 70
     1
102
RTVSPropertyOp3
 70
     1
102
RTVSPropertyOp4
 70
     1
102
RTVSPropertyOp5
 70
     1
102
RTVSPropertyOp6
 70
     1
102
RTVSPropertyOp7
 70
     1
102
RTVSPropertyOp8
 70
     1
102
RTVSPropertyOp9
 70
     1
102
RTVSPropertyOp10
 70
     1
102
RTVSPropertyOp11
 70
     1
102
RTVSPropertyOp12
 70
     1
102
RTVSPropertyOp13
 70
     1
102
RTVSPropertyOp14
 70
     1
102
RTVSPropertyOp15
 70
     1
102
RTVSPropertyOp16
 70
     1
102
RTVSPropertyOp17
 70
     1
102
RTVSPropertyOp18
 70
     1
102
RTVSPropertyOp19
 70
     1
102
RTVSPropertyOp20
 70
     1
102
RTVSPropertyOp21
 70
     1
102
RTVSPropertyOp22
 70
     1
102
RTVSPropertyOp23
 70
     1
102
RTVSPropertyOp24
 70
     1
102
RTVSPropertyOp25
 70
     1
102
RTVSPropertyOp26
 70
     1
102
RTVSPropertyOp27
 70
     1
102
RTVSPropertyOp28
 70
     1
102
RTVSPropertyOp29
 70
     1
102
RTVSPropertyOp30
 70
     1
102
RTVSPropertyOp31
 70
     1
102
RTVSPropertyOp32
 70
     1
  0
XRECORD
  5
15A2
102
{ACAD_REACTORS
330
15A1
102
}
330
15A1
100
AcDbXrecord
280
     1
102
RTVSPropertyOp0
 70
     1
102
RTVSPropertyOp1
 70
     1
102
RTVSPropertyOp2
 70
     1
102
RTVSPropertyOp3
 70
     1
102
RTVSPropertyOp4
 70
     1
102
RTVSPropertyOp5
 70
     1
102
RTVSPropertyOp6
 70
     1
102
RTVSPropertyOp7
 70
     1
102
RTVSPropertyOp8
 70
     1
102
RTVSPropertyOp9
 70
     1
102
RTVSPropertyOp10
 70
     1
102
RTVSPropertyOp11
 70
     1
102
RTVSPropertyOp12
 70
     1
102
RTVSPropertyOp13
 70
     1
102
RTVSPropertyOp14
 70
     1
102
RTVSPropertyOp15
 70
     1
102
RTVSPropertyOp16
 70
     1
102
RTVSPropertyOp17
 70
     1
102
RTVSPropertyOp18
 70
     1
102
RTVSPropertyOp19
 70
     1
102
RTVSPropertyOp20
 70
     1
102
RTVSPropertyOp21
 70
     1
102
RTVSPropertyOp22
 70
     1
102
RTVSPropertyOp23
 70
     1
102
RTVSPropertyOp24
 70
     1
102
RTVSPropertyOp25
 70
     1
102
RTVSPropertyOp26
 70
     1
102
RTVSPropertyOp27
 70
     1
102
RTVSPropertyOp28
 70
     1
102
RTVSPropertyOp29
 70
     1
102
RTVSPropertyOp30
 70
     1
102
RTVSPropertyOp31
 70
     1
102
RTVSPropertyOp32
 70
     1
  0
XRECORD
  5
15BC
102
{ACAD_REACTORS
330
15BB
102
}
330
15BB
100
AcDbXrecord
280
     1
102
RTVSPropertyOp0
 70
     0
102
RTVSPropertyOp1
 70
     0
102
RTVSPropertyOp2
 70
     0
102
RTVSPropertyOp3
 70
     0
102
RTVSPropertyOp4
 70
     0
102
RTVSPropertyOp5
 70
     0
102
RTVSPropertyOp6
 70
     0
102
RTVSPropertyOp7
 70
     0
102
RTVSPropertyOp8
 70
     0
102
RTVSPropertyOp9
 70
     0
102
RTVSPropertyOp10
 70
     0
102
RTVSPropertyOp11
 70
     0
102
RTVSPropertyOp12
 70
     0
102
RTVSPropertyOp13
 70
     0
102
RTVSPropertyOp14
 70
     2
102
RTVSPropertyOp15
 70
     0
102
RTVSPropertyOp16
 70
     0
102
RTVSPropertyOp17
 70
     0
102
RTVSPropertyOp18
 70
     0
102
RTVSPropertyOp19
 70
     0
102
RTVSPropertyOp20
 70
     0
102
RTVSPropertyOp21
 70
     0
102
RTVSPropertyOp22
 70
     0
102
RTVSPropertyOp23
 70
     0
102
RTVSPropertyOp24
 70
     0
102
RTVSPropertyOp25
 70
     0
102
RTVSPropertyOp26
 70
     0
102
RTVSPropertyOp27
 70
     0
102
RTVSPropertyOp28
 70
     1
102
RTVSPropertyOp29
 70
     1
102
RTVSPropertyOp30
 70
     1
102
RTVSPropertyOp31
 70
     1
102
RTVSPropertyOp32
 70
     1
  0
XRECORD
  5
15AA
102
{ACAD_REACTORS
330
15A9
102
}
330
15A9
100
AcDbXrecord
280
     1
102
RTVSPropertyOp0
 70
     1
102
RTVSPropertyOp1
 70
     1
102
RTVSPropertyOp2
 70
     1
102
RTVSPropertyOp3
 70
     1
102
RTVSPropertyOp4
 70
     1
102
RTVSPropertyOp5
 70
     1
102
RTVSPropertyOp6
 70
     1
102
RTVSPropertyOp7
 70
     1
102
RTVSPropertyOp8
 70
     1
102
RTVSPropertyOp9
 70
     1
102
RTVSPropertyOp10
 70
     1
102
RTVSPropertyOp11
 70
     1
102
RTVSPropertyOp12
 70
     1
102
RTVSPropertyOp13
 70
     1
102
RTVSPropertyOp14
 70
     1
102
RTVSPropertyOp15
 70
     1
102
RTVSPropertyOp16
 70
     1
102
RTVSPropertyOp17
 70
     1
102
RTVSPropertyOp18
 70
     1
102
RTVSPropertyOp19
 70
     1
102
RTVSPropertyOp20
 70
     1
102
RTVSPropertyOp21
 70
     1
102
RTVSPropertyOp22
 70
     1
102
RTVSPropertyOp23
 70
     1
102
RTVSPropertyOp24
 70
     1
102
RTVSPropertyOp25
 70
     1
102
RTVSPropertyOp26
 70
     1
102
RTVSPropertyOp27
 70
     1
102
RTVSPropertyOp28
 70
     1
102
RTVSPropertyOp29
 70
     1
102
RTVSPropertyOp30
 70
     1
102
RTVSPropertyOp31
 70
     1
102
RTVSPropertyOp32
 70
     1
  0
XRECORD
  5
158E
102
{ACAD_REACTORS
330
158D
102
}
330
158D
100
AcDbXrecord
280
     1
102
RTVSPropertyOp0
 70
     1
102
RTVSPropertyOp1
 70
     1
102
RTVSPropertyOp2
 70
     1
102
RTVSPropertyOp3
 70
     1
102
RTVSPropertyOp4
 70
     1
102
RTVSPropertyOp5
 70
     1
102
RTVSPropertyOp6
 70
     1
102
RTVSPropertyOp7
 70
     1
102
RTVSPropertyOp8
 70
     1
102
RTVSPropertyOp9
 70
     1
102
RTVSPropertyOp10
 70
     1
102
RTVSPropertyOp11
 70
     1
102
RTVSPropertyOp12
 70
     1
102
RTVSPropertyOp13
 70
     1
102
RTVSPropertyOp14
 70
     1
102
RTVSPropertyOp15
 70
     1
102
RTVSPropertyOp16
 70
     1
102
RTVSPropertyOp17
 70
     1
102
RTVSPropertyOp18
 70
     1
102
RTVSPropertyOp19
 70
     1
102
RTVSPropertyOp20
 70
     1
102
RTVSPropertyOp21
 70
     1
102
RTVSPropertyOp22
 70
     1
102
RTVSPropertyOp23
 70
     1
102
RTVSPropertyOp24
 70
     1
102
RTVSPropertyOp25
 70
     1
102
RTVSPropertyOp26
 70
     1
102
RTVSPropertyOp27
 70
     1
102
RTVSPropertyOp28
 70
     1
102
RTVSPropertyOp29
 70
     1
102
RTVSPropertyOp30
 70
     1
102
RTVSPropertyOp31
 70
     1
102
RTVSPropertyOp32
 70
     1
  0
XRECORD
  5
1590
102
{ACAD_REACTORS
330
158F
102
}
330
158F
100
AcDbXrecord
280
     1
102
RTVSPropertyOp0
 70
     1
102
RTVSPropertyOp1
 70
     1
102
RTVSPropertyOp2
 70
     1
102
RTVSPropertyOp3
 70
     1
102
RTVSPropertyOp4
 70
     1
102
RTVSPropertyOp5
 70
     1
102
RTVSPropertyOp6
 70
     1
102
RTVSPropertyOp7
 70
     1
102
RTVSPropertyOp8
 70
     1
102
RTVSPropertyOp9
 70
     1
102
RTVSPropertyOp10
 70
     1
102
RTVSPropertyOp11
 70
     1
102
RTVSPropertyOp12
 70
     1
102
RTVSPropertyOp13
 70
     1
102
RTVSPropertyOp14
 70
     1
102
RTVSPropertyOp15
 70
     1
102
RTVSPropertyOp16
 70
     1
102
RTVSPropertyOp17
 70
     1
102
RTVSPropertyOp18
 70
     1
102
RTVSPropertyOp19
 70
     1
102
RTVSPropertyOp20
 70
     1
102
RTVSPropertyOp21
 70
     1
102
RTVSPropertyOp22
 70
     1
102
RTVSPropertyOp23
 70
     1
102
RTVSPropertyOp24
 70
     1
102
RTVSPropertyOp25
 70
     1
102
RTVSPropertyOp26
 70
     1
102
RTVSPropertyOp27
 70
     1
102
RTVSPropertyOp28
 70
     1
102
RTVSPropertyOp29
 70
     1
102
RTVSPropertyOp30
 70
     1
102
RTVSPropertyOp31
 70
     1
102
RTVSPropertyOp32
 70
     1
  0
XRECORD
  5
1592
102
{ACAD_REACTORS
330
1591
102
}
330
1591
100
AcDbXrecord
280
     1
102
RTVSPropertyOp0
 70
     1
102
RTVSPropertyOp1
 70
     1
102
RTVSPropertyOp2
 70
     1
102
RTVSPropertyOp3
 70
     1
102
RTVSPropertyOp4
 70
     1
102
RTVSPropertyOp5
 70
     1
102
RTVSPropertyOp6
 70
     1
102
RTVSPropertyOp7
 70
     1
102
RTVSPropertyOp8
 70
     1
102
RTVSPropertyOp9
 70
     1
102
RTVSPropertyOp10
 70
     1
102
RTVSPropertyOp11
 70
     1
102
RTVSPropertyOp12
 70
     1
102
RTVSPropertyOp13
 70
     1
102
RTVSPropertyOp14
 70
     1
102
RTVSPropertyOp15
 70
     1
102
RTVSPropertyOp16
 70
     1
102
RTVSPropertyOp17
 70
     1
102
RTVSPropertyOp18
 70
     1
102
RTVSPropertyOp19
 70
     1
102
RTVSPropertyOp20
 70
     1
102
RTVSPropertyOp21
 70
     1
102
RTVSPropertyOp22
 70
     1
102
RTVSPropertyOp23
 70
     1
102
RTVSPropertyOp24
 70
     1
102
RTVSPropertyOp25
 70
     1
102
RTVSPropertyOp26
 70
     1
102
RTVSPropertyOp27
 70
     1
102
RTVSPropertyOp28
 70
     1
102
RTVSPropertyOp29
 70
     1
102
RTVSPropertyOp30
 70
     1
102
RTVSPropertyOp31
 70
     1
102
RTVSPropertyOp32
 70
     1
  0
XRECORD
  5
1594
102
{ACAD_REACTORS
330
1593
102
}
330
1593
100
AcDbXrecord
280
     1
102
RTVSPropertyOp0
 70
     1
102
RTVSPropertyOp1
 70
     1
102
RTVSPropertyOp2
 70
     1
102
RTVSPropertyOp3
 70
     1
102
RTVSPropertyOp4
 70
     1
102
RTVSPropertyOp5
 70
     1
102
RTVSPropertyOp6
 70
     1
102
RTVSPropertyOp7
 70
     1
102
RTVSPropertyOp8
 70
     1
102
RTVSPropertyOp9
 70
     1
102
RTVSPropertyOp10
 70
     1
102
RTVSPropertyOp11
 70
     1
102
RTVSPropertyOp12
 70
     1
102
RTVSPropertyOp13
 70
     1
102
RTVSPropertyOp14
 70
     1
102
RTVSPropertyOp15
 70
     1
102
RTVSPropertyOp16
 70
     1
102
RTVSPropertyOp17
 70
     1
102
RTVSPropertyOp18
 70
     1
102
RTVSPropertyOp19
 70
     1
102
RTVSPropertyOp20
 70
     1
102
RTVSPropertyOp21
 70
     1
102
RTVSPropertyOp22
 70
     1
102
RTVSPropertyOp23
 70
     1
102
RTVSPropertyOp24
 70
     1
102
RTVSPropertyOp25
 70
     1
102
RTVSPropertyOp26
 70
     1
102
RTVSPropertyOp27
 70
     1
102
RTVSPropertyOp28
 70
     1
102
RTVSPropertyOp29
 70
     1
102
RTVSPropertyOp30
 70
     1
102
RTVSPropertyOp31
 70
     1
102
RTVSPropertyOp32
 70
     1
  0
XRECORD
  5
159C
102
{ACAD_REACTORS
330
159B
102
}
330
159B
100
AcDbXrecord
280
     1
102
RTVSPropertyOp0
 70
     1
102
RTVSPropertyOp1
 70
     1
102
RTVSPropertyOp2
 70
     1
102
RTVSPropertyOp3
 70
     1
102
RTVSPropertyOp4
 70
     1
102
RTVSPropertyOp5
 70
     1
102
RTVSPropertyOp6
 70
     1
102
RTVSPropertyOp7
 70
     1
102
RTVSPropertyOp8
 70
     1
102
RTVSPropertyOp9
 70
     1
102
RTVSPropertyOp10
 70
     1
102
RTVSPropertyOp11
 70
     1
102
RTVSPropertyOp12
 70
     1
102
RTVSPropertyOp13
 70
     1
102
RTVSPropertyOp14
 70
     1
102
RTVSPropertyOp15
 70
     1
102
RTVSPropertyOp16
 70
     1
102
RTVSPropertyOp17
 70
     1
102
RTVSPropertyOp18
 70
     1
102
RTVSPropertyOp19
 70
     1
102
RTVSPropertyOp20
 70
     1
102
RTVSPropertyOp21
 70
     1
102
RTVSPropertyOp22
 70
     1
102
RTVSPropertyOp23
 70
     1
102
RTVSPropertyOp24
 70
     1
102
RTVSPropertyOp25
 70
     1
102
RTVSPropertyOp26
 70
     1
102
RTVSPropertyOp27
 70
     1
102
RTVSPropertyOp28
 70
     1
102
RTVSPropertyOp29
 70
     1
102
RTVSPropertyOp30
 70
     1
102
RTVSPropertyOp31
 70
     1
102
RTVSPropertyOp32
 70
     1
  0
XRECORD
  5
15B8
102
{ACAD_REACTORS
330
15B7
102
}
330
15B7
100
AcDbXrecord
280
     1
102
RTVSPropertyOp0
 70
     0
102
RTVSPropertyOp1
 70
     0
102
RTVSPropertyOp2
 70
     0
102
RTVSPropertyOp3
 70
     0
102
RTVSPropertyOp4
 70
     0
102
RTVSPropertyOp5
 70
     0
102
RTVSPropertyOp6
 70
     0
102
RTVSPropertyOp7
 70
     0
102
RTVSPropertyOp8
 70
     0
102
RTVSPropertyOp9
 70
     0
102
RTVSPropertyOp10
 70
     0
102
RTVSPropertyOp11
 70
     0
102
RTVSPropertyOp12
 70
     0
102
RTVSPropertyOp13
 70
     0
102
RTVSPropertyOp14
 70
     2
102
RTVSPropertyOp15
 70
     0
102
RTVSPropertyOp16
 70
     0
102
RTVSPropertyOp17
 70
     0
102
RTVSPropertyOp18
 70
     0
102
RTVSPropertyOp19
 70
     0
102
RTVSPropertyOp20
 70
     0
102
RTVSPropertyOp21
 70
     0
102
RTVSPropertyOp22
 70
     0
102
RTVSPropertyOp23
 70
     0
102
RTVSPropertyOp24
 70
     0
102
RTVSPropertyOp25
 70
     0
102
RTVSPropertyOp26
 70
     0
102
RTVSPropertyOp27
 70
     0
102
RTVSPropertyOp28
 70
     1
102
RTVSPropertyOp29
 70
     1
102
RTVSPropertyOp30
 70
     1
102
RTVSPropertyOp31
 70
     1
102
RTVSPropertyOp32
 70
     1
  0
XRECORD
  5
15A8
102
{ACAD_REACTORS
330
15A7
102
}
330
15A7
100
AcDbXrecord
280
     1
102
RTVSPropertyOp0
 70
     1
102
RTVSPropertyOp1
 70
     1
102
RTVSPropertyOp2
 70
     1
102
RTVSPropertyOp3
 70
     1
102
RTVSPropertyOp4
 70
     1
102
RTVSPropertyOp5
 70
     1
102
RTVSPropertyOp6
 70
     1
102
RTVSPropertyOp7
 70
     1
102
RTVSPropertyOp8
 70
     1
102
RTVSPropertyOp9
 70
     1
102
RTVSPropertyOp10
 70
     1
102
RTVSPropertyOp11
 70
     1
102
RTVSPropertyOp12
 70
     1
102
RTVSPropertyOp13
 70
     1
102
RTVSPropertyOp14
 70
     1
102
RTVSPropertyOp15
 70
     1
102
RTVSPropertyOp16
 70
     1
102
RTVSPropertyOp17
 70
     1
102
RTVSPropertyOp18
 70
     1
102
RTVSPropertyOp19
 70
     1
102
RTVSPropertyOp20
 70
     1
102
RTVSPropertyOp21
 70
     1
102
RTVSPropertyOp22
 70
     1
102
RTVSPropertyOp23
 70
     1
102
RTVSPropertyOp24
 70
     1
102
RTVSPropertyOp25
 70
     1
102
RTVSPropertyOp26
 70
     1
102
RTVSPropertyOp27
 70
     1
102
RTVSPropertyOp28
 70
     1
102
RTVSPropertyOp29
 70
     1
102
RTVSPropertyOp30
 70
     1
102
RTVSPropertyOp31
 70
     1
102
RTVSPropertyOp32
 70
     1
  0
XRECORD
  5
15BA
102
{ACAD_REACTORS
330
15B9
102
}
330
15B9
100
AcDbXrecord
280
     1
102
RTVSPropertyOp0
 70
     0
102
RTVSPropertyOp1
 70
     0
102
RTVSPropertyOp2
 70
     0
102
RTVSPropertyOp3
 70
     0
102
RTVSPropertyOp4
 70
     0
102
RTVSPropertyOp5
 70
     0
102
RTVSPropertyOp6
 70
     0
102
RTVSPropertyOp7
 70
     0
102
RTVSPropertyOp8
 70
     0
102
RTVSPropertyOp9
 70
     0
102
RTVSPropertyOp10
 70
     0
102
RTVSPropertyOp11
 70
     0
102
RTVSPropertyOp12
 70
     0
102
RTVSPropertyOp13
 70
     0
102
RTVSPropertyOp14
 70
     2
102
RTVSPropertyOp15
 70
     0
102
RTVSPropertyOp16
 70
     0
102
RTVSPropertyOp17
 70
     0
102
RTVSPropertyOp18
 70
     0
102
RTVSPropertyOp19
 70
     0
102
RTVSPropertyOp20
 70
     0
102
RTVSPropertyOp21
 70
     0
102
RTVSPropertyOp22
 70
     0
102
RTVSPropertyOp23
 70
     0
102
RTVSPropertyOp24
 70
     0
102
RTVSPropertyOp25
 70
     0
102
RTVSPropertyOp26
 70
     0
102
RTVSPropertyOp27
 70
     0
102
RTVSPropertyOp28
 70
     1
102
RTVSPropertyOp29
 70
     1
102
RTVSPropertyOp30
 70
     1
102
RTVSPropertyOp31
 70
     1
102
RTVSPropertyOp32
 70
     1
  0
XRECORD
  5
15A0
102
{ACAD_REACTORS
330
159F
102
}
330
159F
100
AcDbXrecord
280
     1
102
RTVSPropertyOp0
 70
     1
102
RTVSPropertyOp1
 70
     1
102
RTVSPropertyOp2
 70
     1
102
RTVSPropertyOp3
 70
     1
102
RTVSPropertyOp4
 70
     1
102
RTVSPropertyOp5
 70
     1
102
RTVSPropertyOp6
 70
     1
102
RTVSPropertyOp7
 70
     1
102
RTVSPropertyOp8
 70
     1
102
RTVSPropertyOp9
 70
     1
102
RTVSPropertyOp10
 70
     1
102
RTVSPropertyOp11
 70
     1
102
RTVSPropertyOp12
 70
     1
102
RTVSPropertyOp13
 70
     1
102
RTVSPropertyOp14
 70
     1
102
RTVSPropertyOp15
 70
     1
102
RTVSPropertyOp16
 70
     1
102
RTVSPropertyOp17
 70
     1
102
RTVSPropertyOp18
 70
     1
102
RTVSPropertyOp19
 70
     1
102
RTVSPropertyOp20
 70
     1
102
RTVSPropertyOp21
 70
     1
102
RTVSPropertyOp22
 70
     1
102
RTVSPropertyOp23
 70
     1
102
RTVSPropertyOp24
 70
     1
102
RTVSPropertyOp25
 70
     1
102
RTVSPropertyOp26
 70
     1
102
RTVSPropertyOp27
 70
     1
102
RTVSPropertyOp28
 70
     1
102
RTVSPropertyOp29
 70
     1
102
RTVSPropertyOp30
 70
     1
102
RTVSPropertyOp31
 70
     1
102
RTVSPropertyOp32
 70
     1
  0
XRECORD
  5
15B6
102
{ACAD_REACTORS
330
15B5
102
}
330
15B5
100
AcDbXrecord
280
     1
102
RTVSPropertyOp0
 70
     1
102
RTVSPropertyOp1
 70
     1
102
RTVSPropertyOp2
 70
     1
102
RTVSPropertyOp3
 70
     1
102
RTVSPropertyOp4
 70
     1
102
RTVSPropertyOp5
 70
     1
102
RTVSPropertyOp6
 70
     1
102
RTVSPropertyOp7
 70
     1
102
RTVSPropertyOp8
 70
     1
102
RTVSPropertyOp9
 70
     1
102
RTVSPropertyOp10
 70
     1
102
RTVSPropertyOp11
 70
     1
102
RTVSPropertyOp12
 70
     1
102
RTVSPropertyOp13
 70
     1
102
RTVSPropertyOp14
 70
     1
102
RTVSPropertyOp15
 70
     1
102
RTVSPropertyOp16
 70
     1
102
RTVSPropertyOp17
 70
     1
102
RTVSPropertyOp18
 70
     1
102
RTVSPropertyOp19
 70
     1
102
RTVSPropertyOp20
 70
     1
102
RTVSPropertyOp21
 70
     1
102
RTVSPropertyOp22
 70
     1
102
RTVSPropertyOp23
 70
     1
102
RTVSPropertyOp24
 70
     1
102
RTVSPropertyOp25
 70
     1
102
RTVSPropertyOp26
 70
     1
102
RTVSPropertyOp27
 70
     1
102
RTVSPropertyOp28
 70
     1
102
RTVSPropertyOp29
 70
     1
102
RTVSPropertyOp30
 70
     1
102
RTVSPropertyOp31
 70
     1
102
RTVSPropertyOp32
 70
     1
  0
XRECORD
  5
15B4
102
{ACAD_REACTORS
330
15B3
102
}
330
15B3
100
AcDbXrecord
280
     1
102
RTVSPropertyOp0
 70
     1
102
RTVSPropertyOp1
 70
     1
102
RTVSPropertyOp2
 70
     1
102
RTVSPropertyOp3
 70
     1
102
RTVSPropertyOp4
 70
     1
102
RTVSPropertyOp5
 70
     1
102
RTVSPropertyOp6
 70
     1
102
RTVSPropertyOp7
 70
     1
102
RTVSPropertyOp8
 70
     1
102
RTVSPropertyOp9
 70
     1
102
RTVSPropertyOp10
 70
     1
102
RTVSPropertyOp11
 70
     1
102
RTVSPropertyOp12
 70
     1
102
RTVSPropertyOp13
 70
     1
102
RTVSPropertyOp14
 70
     1
102
RTVSPropertyOp15
 70
     1
102
RTVSPropertyOp16
 70
     1
102
RTVSPropertyOp17
 70
     1
102
RTVSPropertyOp18
 70
     1
102
RTVSPropertyOp19
 70
     1
102
RTVSPropertyOp20
 70
     1
102
RTVSPropertyOp21
 70
     1
102
RTVSPropertyOp22
 70
     1
102
RTVSPropertyOp23
 70
     1
102
RTVSPropertyOp24
 70
     1
102
RTVSPropertyOp25
 70
     1
102
RTVSPropertyOp26
 70
     1
102
RTVSPropertyOp27
 70
     1
102
RTVSPropertyOp28
 70
     1
102
RTVSPropertyOp29
 70
     1
102
RTVSPropertyOp30
 70
     1
102
RTVSPropertyOp31
 70
     1
102
RTVSPropertyOp32
 70
     1
  0
XRECORD
  5
15AE
102
{ACAD_REACTORS
330
15AD
102
}
330
15AD
100
AcDbXrecord
280
     1
102
RTVSPropertyOp0
 70
     1
102
RTVSPropertyOp1
 70
     1
102
RTVSPropertyOp2
 70
     1
102
RTVSPropertyOp3
 70
     1
102
RTVSPropertyOp4
 70
     1
102
RTVSPropertyOp5
 70
     1
102
RTVSPropertyOp6
 70
     1
102
RTVSPropertyOp7
 70
     1
102
RTVSPropertyOp8
 70
     1
102
RTVSPropertyOp9
 70
     1
102
RTVSPropertyOp10
 70
     1
102
RTVSPropertyOp11
 70
     1
102
RTVSPropertyOp12
 70
     1
102
RTVSPropertyOp13
 70
     1
102
RTVSPropertyOp14
 70
     1
102
RTVSPropertyOp15
 70
     1
102
RTVSPropertyOp16
 70
     1
102
RTVSPropertyOp17
 70
     1
102
RTVSPropertyOp18
 70
     1
102
RTVSPropertyOp19
 70
     1
102
RTVSPropertyOp20
 70
     1
102
RTVSPropertyOp21
 70
     1
102
RTVSPropertyOp22
 70
     1
102
RTVSPropertyOp23
 70
     1
102
RTVSPropertyOp24
 70
     1
102
RTVSPropertyOp25
 70
     1
102
RTVSPropertyOp26
 70
     1
102
RTVSPropertyOp27
 70
     1
102
RTVSPropertyOp28
 70
     1
102
RTVSPropertyOp29
 70
     1
102
RTVSPropertyOp30
 70
     1
102
RTVSPropertyOp31
 70
     1
102
RTVSPropertyOp32
 70
     1
  0
XRECORD
  5
15B0
102
{ACAD_REACTORS
330
15AF
102
}
330
15AF
100
AcDbXrecord
280
     1
102
RTVSPropertyOp0
 70
     1
102
RTVSPropertyOp1
 70
     1
102
RTVSPropertyOp2
 70
     1
102
RTVSPropertyOp3
 70
     1
102
RTVSPropertyOp4
 70
     1
102
RTVSPropertyOp5
 70
     1
102
RTVSPropertyOp6
 70
     1
102
RTVSPropertyOp7
 70
     1
102
RTVSPropertyOp8
 70
     1
102
RTVSPropertyOp9
 70
     1
102
RTVSPropertyOp10
 70
     1
102
RTVSPropertyOp11
 70
     1
102
RTVSPropertyOp12
 70
     1
102
RTVSPropertyOp13
 70
     1
102
RTVSPropertyOp14
 70
     1
102
RTVSPropertyOp15
 70
     1
102
RTVSPropertyOp16
 70
     1
102
RTVSPropertyOp17
 70
     1
102
RTVSPropertyOp18
 70
     1
102
RTVSPropertyOp19
 70
     1
102
RTVSPropertyOp20
 70
     1
102
RTVSPropertyOp21
 70
     1
102
RTVSPropertyOp22
 70
     1
102
RTVSPropertyOp23
 70
     1
102
RTVSPropertyOp24
 70
     1
102
RTVSPropertyOp25
 70
     1
102
RTVSPropertyOp26
 70
     1
102
RTVSPropertyOp27
 70
     1
102
RTVSPropertyOp28
 70
     1
102
RTVSPropertyOp29
 70
     1
102
RTVSPropertyOp30
 70
     1
102
RTVSPropertyOp31
 70
     1
102
RTVSPropertyOp32
 70
     1
  0
XRECORD
  5
15A6
102
{ACAD_REACTORS
330
15A5
102
}
330
15A5
100
AcDbXrecord
280
     1
102
RTVSPropertyOp0
 70
     1
102
RTVSPropertyOp1
 70
     1
102
RTVSPropertyOp2
 70
     1
102
RTVSPropertyOp3
 70
     1
102
RTVSPropertyOp4
 70
     1
102
RTVSPropertyOp5
 70
     1
102
RTVSPropertyOp6
 70
     1
102
RTVSPropertyOp7
 70
     1
102
RTVSPropertyOp8
 70
     1
102
RTVSPropertyOp9
 70
     1
102
RTVSPropertyOp10
 70
     1
102
RTVSPropertyOp11
 70
     1
102
RTVSPropertyOp12
 70
     1
102
RTVSPropertyOp13
 70
     1
102
RTVSPropertyOp14
 70
     1
102
RTVSPropertyOp15
 70
     1
102
RTVSPropertyOp16
 70
     1
102
RTVSPropertyOp17
 70
     1
102
RTVSPropertyOp18
 70
     1
102
RTVSPropertyOp19
 70
     1
102
RTVSPropertyOp20
 70
     1
102
RTVSPropertyOp21
 70
     1
102
RTVSPropertyOp22
 70
     1
102
RTVSPropertyOp23
 70
     1
102
RTVSPropertyOp24
 70
     1
102
RTVSPropertyOp25
 70
     1
102
RTVSPropertyOp26
 70
     1
102
RTVSPropertyOp27
 70
     1
102
RTVSPropertyOp28
 70
     1
102
RTVSPropertyOp29
 70
     1
102
RTVSPropertyOp30
 70
     1
102
RTVSPropertyOp31
 70
     1
102
RTVSPropertyOp32
 70
     1
  0
XRECORD
  5
159A
102
{ACAD_REACTORS
330
1599
102
}
330
1599
100
AcDbXrecord
280
     1
102
RTVSPropertyOp0
 70
     1
102
RTVSPropertyOp1
 70
     1
102
RTVSPropertyOp2
 70
     1
102
RTVSPropertyOp3
 70
     1
102
RTVSPropertyOp4
 70
     1
102
RTVSPropertyOp5
 70
     1
102
RTVSPropertyOp6
 70
     1
102
RTVSPropertyOp7
 70
     1
102
RTVSPropertyOp8
 70
     1
102
RTVSPropertyOp9
 70
     1
102
RTVSPropertyOp10
 70
     1
102
RTVSPropertyOp11
 70
     1
102
RTVSPropertyOp12
 70
     1
102
RTVSPropertyOp13
 70
     1
102
RTVSPropertyOp14
 70
     1
102
RTVSPropertyOp15
 70
     1
102
RTVSPropertyOp16
 70
     1
102
RTVSPropertyOp17
 70
     1
102
RTVSPropertyOp18
 70
     1
102
RTVSPropertyOp19
 70
     1
102
RTVSPropertyOp20
 70
     1
102
RTVSPropertyOp21
 70
     1
102
RTVSPropertyOp22
 70
     1
102
RTVSPropertyOp23
 70
     1
102
RTVSPropertyOp24
 70
     1
102
RTVSPropertyOp25
 70
     1
102
RTVSPropertyOp26
 70
     1
102
RTVSPropertyOp27
 70
     1
102
RTVSPropertyOp28
 70
     1
102
RTVSPropertyOp29
 70
     1
102
RTVSPropertyOp30
 70
     1
102
RTVSPropertyOp31
 70
     1
102
RTVSPropertyOp32
 70
     1
  0
XRECORD
  5
15B2
102
{ACAD_REACTORS
330
15B1
102
}
330
15B1
100
AcDbXrecord
280
     1
102
RTVSPropertyOp0
 70
     1
102
RTVSPropertyOp1
 70
     1
102
RTVSPropertyOp2
 70
     1
102
RTVSPropertyOp3
 70
     1
102
RTVSPropertyOp4
 70
     1
102
RTVSPropertyOp5
 70
     1
102
RTVSPropertyOp6
 70
     1
102
RTVSPropertyOp7
 70
     1
102
RTVSPropertyOp8
 70
     1
102
RTVSPropertyOp9
 70
     1
102
RTVSPropertyOp10
 70
     1
102
RTVSPropertyOp11
 70
     1
102
RTVSPropertyOp12
 70
     1
102
RTVSPropertyOp13
 70
     1
102
RTVSPropertyOp14
 70
     1
102
RTVSPropertyOp15
 70
     1
102
RTVSPropertyOp16
 70
     1
102
RTVSPropertyOp17
 70
     1
102
RTVSPropertyOp18
 70
     1
102
RTVSPropertyOp19
 70
     1
102
RTVSPropertyOp20
 70
     1
102
RTVSPropertyOp21
 70
     1
102
RTVSPropertyOp22
 70
     1
102
RTVSPropertyOp23
 70
     1
102
RTVSPropertyOp24
 70
     1
102
RTVSPropertyOp25
 70
     1
102
RTVSPropertyOp26
 70
     1
102
RTVSPropertyOp27
 70
     1
102
RTVSPropertyOp28
 70
     1
102
RTVSPropertyOp29
 70
     1
102
RTVSPropertyOp30
 70
     1
102
RTVSPropertyOp31
 70
     1
102
RTVSPropertyOp32
 70
     1
  0
ENDSEC
  0
EOF
