  0
SECTION
  2
HEADER
  9
$ACADVER
  1
AC1021
  9
$ACADMAINTVER
 70
    50
  9
$DWGCODEPAGE
  3
ANSI_1252
  9
$LASTSAVEDBY
  1
pmescher
  9
$INSBASE
 10
0.0
 20
0.0
 30
0.0
  9
$EXTMIN
 10
-0.0014638155142563
 20
-0.000954910901882
 30
-0.0000000000112498
  9
$EXTMAX
 10
96.0014651567063
 20
62.62595578582062
 30
0.0000000000002956
  9
$LIMMIN
 10
0.0
 20
0.0
  9
$LIMMAX
 10
12.0
 20
9.0
  9
$ORTHOMODE
 70
     1
  9
$REGENMODE
 70
     1
  9
$FILLMODE
 70
     1
  9
$QTEXTMODE
 70
     0
  9
$MIRRTEXT
 70
     0
  9
$LTSCALE
 40
1.0
  9
$ATTMODE
 70
     1
  9
$TEXTSIZE
 40
0.281
  9
$TRACEWID
 40
0.05
  9
$TEXTSTYLE
  7
STANDARD
  9
$CLAYER
  8
0
  9
$CELTYPE
  6
BYLAYER
  9
$CECOLOR
 62
   256
  9
$CELTSCALE
 40
1.0
  9
$DISPSILH
 70
     0
  9
$DIMSCALE
 40
1.0
  9
$DIMASZ
 40
0.28125
  9
$DIMEXO
 40
0.1875
  9
$DIMDLI
 40
0.375
  9
$DIMRND
 40
0.0
  9
$DIMDLE
 40
0.0
  9
$DIMEXE
 40
0.375
  9
$DIMTP
 40
0.0
  9
$DIMTM
 40
0.0
  9
$DIMTXT
 40
0.281
  9
$DIMCEN
 40
0.09375
  9
$DIMTSZ
 40
0.0
  9
$DIMTOL
 70
     0
  9
$DIMLIM
 70
     0
  9
$DIMTIH
 70
     1
  9
$DIMTOH
 70
     1
  9
$DIMSE1
 70
     0
  9
$DIMSE2
 70
     0
  9
$DIMTAD
 70
     0
  9
$DIMZIN
 70
     0
  9
$DIMBLK
  1

  9
$DIMASO
 70
     1
  9
$DIMSHO
 70
     0
  9
$DIMPOST
  1

  9
$DIMAPOST
  1

  9
$DIMALT
 70
     0
  9
$DIMALTD
 70
     2
  9
$DIMALTF
 40
25.4
  9
$DIMLFAC
 40
1.0
  9
$DIMTOFL
 70
     0
  9
$DIMTVP
 40
0.0
  9
$DIMTIX
 70
     0
  9
$DIMSOXD
 70
     0
  9
$DIMSAH
 70
     0
  9
$DIMBLK1
  1

  9
$DIMBLK2
  1

  9
$DIMSTYLE
  2
STANDARD
  9
$DIMCLRD
 70
     0
  9
$DIMCLRE
 70
     0
  9
$DIMCLRT
 70
     0
  9
$DIMTFAC
 40
1.0
  9
$DIMGAP
 40
0.28125
  9
$DIMJUST
 70
     0
  9
$DIMSD1
 70
     0
  9
$DIMSD2
 70
     0
  9
$DIMTOLJ
 70
     1
  9
$DIMTZIN
 70
     0
  9
$DIMALTZ
 70
     0
  9
$DIMALTTZ
 70
     0
  9
$DIMUPT
 70
     0
  9
$DIMDEC
 70
     5
  9
$DIMTDEC
 70
     4
  9
$DIMALTU
 70
     2
  9
$DIMALTTD
 70
     2
  9
$DIMTXSTY
  7
STANDARD
  9
$DIMAUNIT
 70
     0
  9
$DIMADEC
 70
     0
  9
$DIMALTRND
 40
0.0
  9
$DIMAZIN
 70
     0
  9
$DIMDSEP
 70
    46
  9
$DIMATFIT
 70
     0
  9
$DIMFRAC
 70
     2
  9
$DIMLDRBLK
  1

  9
$DIMLUNIT
 70
     5
  9
$DIMLWD
 70
    -2
  9
$DIMLWE
 70
    -2
  9
$DIMTMOVE
 70
     0
  9
$DIMFXL
 40
1.0
  9
$DIMFXLON
 70
     0
  9
$DIMJOGANG
 40
0.7853981633974483
  9
$DIMTFILL
 70
     0
  9
$DIMTFILLCLR
 70
     0
  9
$DIMARCSYM
 70
     0
  9
$DIMLTYPE
  6

  9
$DIMLTEX1
  6

  9
$DIMLTEX2
  6

  9
$LUNITS
 70
     5
  9
$LUPREC
 70
     5
  9
$SKETCHINC
 40
0.1
  9
$FILLETRAD
 40
0.0
  9
$AUNITS
 70
     1
  9
$AUPREC
 70
     4
  9
$MENU
  1
acad
  9
$ELEVATION
 40
0.0
  9
$PELEVATION
 40
0.0
  9
$THICKNESS
 40
0.0
  9
$LIMCHECK
 70
     0
  9
$CHAMFERA
 40
0.0
  9
$CHAMFERB
 40
0.0
  9
$CHAMFERC
 40
0.0
  9
$CHAMFERD
 40
0.0
  9
$SKPOLY
 70
     0
  9
$TDCREATE
 40
2448364.587405671
  9
$TDUCREATE
 40
2448364.837405672
  9
$TDUPDATE
 40
2456722.335368229
  9
$TDUUPDATE
 40
2456722.585368229
  9
$TDINDWG
 40
0.1620071875
  9
$TDUSRTIMER
 40
0.1620071875
  9
$USRTIMER
 70
     1
  9
$ANGBASE
 50
0.0
  9
$ANGDIR
 70
     0
  9
$PDMODE
 70
     0
  9
$PDSIZE
 40
0.0
  9
$PLINEWID
 40
0.0
  9
$SPLFRAME
 70
     0
  9
$SPLINETYPE
 70
     6
  9
$SPLINESEGS
 70
     8
  9
$HANDSEED
  5
12EA
  9
$SURFTAB1
 70
     6
  9
$SURFTAB2
 70
     6
  9
$SURFTYPE
 70
     6
  9
$SURFU
 70
     6
  9
$SURFV
 70
     6
  9
$UCSBASE
  2

  9
$UCSNAME
  2

  9
$UCSORG
 10
0.0
 20
0.0
 30
0.0
  9
$UCSXDIR
 10
1.0
 20
0.0
 30
0.0
  9
$UCSYDIR
 10
0.0
 20
1.0
 30
0.0
  9
$UCSORTHOREF
  2

  9
$UCSORTHOVIEW
 70
     0
  9
$UCSORGTOP
 10
0.0
 20
0.0
 30
0.0
  9
$UCSORGBOTTOM
 10
0.0
 20
0.0
 30
0.0
  9
$UCSORGLEFT
 10
0.0
 20
0.0
 30
0.0
  9
$UCSORGRIGHT
 10
0.0
 20
0.0
 30
0.0
  9
$UCSORGFRONT
 10
0.0
 20
0.0
 30
0.0
  9
$UCSORGBACK
 10
0.0
 20
0.0
 30
0.0
  9
$PUCSBASE
  2

  9
$PUCSNAME
  2

  9
$PUCSORG
 10
0.0
 20
0.0
 30
0.0
  9
$PUCSXDIR
 10
1.0
 20
0.0
 30
0.0
  9
$PUCSYDIR
 10
0.0
 20
1.0
 30
0.0
  9
$PUCSORTHOREF
  2

  9
$PUCSORTHOVIEW
 70
     0
  9
$PUCSORGTOP
 10
0.0
 20
0.0
 30
0.0
  9
$PUCSORGBOTTOM
 10
0.0
 20
0.0
 30
0.0
  9
$PUCSORGLEFT
 10
0.0
 20
0.0
 30
0.0
  9
$PUCSORGRIGHT
 10
0.0
 20
0.0
 30
0.0
  9
$PUCSORGFRONT
 10
0.0
 20
0.0
 30
0.0
  9
$PUCSORGBACK
 10
0.0
 20
0.0
 30
0.0
  9
$USERI1
 70
     0
  9
$USERI2
 70
     0
  9
$USERI3
 70
     0
  9
$USERI4
 70
     0
  9
$USERI5
 70
     0
  9
$USERR1
 40
0.0
  9
$USERR2
 40
0.0
  9
$USERR3
 40
0.0
  9
$USERR4
 40
0.0
  9
$USERR5
 40
0.0
  9
$WORLDVIEW
 70
     1
  9
$SHADEDGE
 70
     3
  9
$SHADEDIF
 70
    70
  9
$TILEMODE
 70
     1
  9
$MAXACTVP
 70
    16
  9
$PINSBASE
 10
0.0
 20
0.0
 30
0.0
  9
$PLIMCHECK
 70
     0
  9
$PEXTMIN
 10
1.000000000000000E+20
 20
1.000000000000000E+20
 30
1.000000000000000E+20
  9
$PEXTMAX
 10
-1.000000000000000E+20
 20
-1.000000000000000E+20
 30
-1.000000000000000E+20
  9
$PLIMMIN
 10
0.0
 20
0.0
  9
$PLIMMAX
 10
12.0
 20
9.0
  9
$UNITMODE
 70
     0
  9
$VISRETAIN
 70
     0
  9
$PLINEGEN
 70
     0
  9
$PSLTSCALE
 70
     0
  9
$TREEDEPTH
 70
  3020
  9
$CMLSTYLE
  2
STANDARD
  9
$CMLJUST
 70
     0
  9
$CMLSCALE
 40
1.0
  9
$PROXYGRAPHICS
 70
     1
  9
$MEASUREMENT
 70
     0
  9
$CELWEIGHT
370
    -1
  9
$ENDCAPS
280
     0
  9
$JOINSTYLE
280
     0
  9
$LWDISPLAY
290
     0
  9
$INSUNITS
 70
     0
  9
$HYPERLINKBASE
  1

  9
$STYLESHEET
  1

  9
$XEDIT
290
     1
  9
$CEPSNTYPE
380
     0
  9
$PSTYLEMODE
290
     1
  9
$FINGERPRINTGUID
  2
{680D9308-6E19-4021-B848-08CB161D5DE4}
  9
$VERSIONGUID
  2
{149ABFA2-D22E-4567-963C-22D2ED4226AF}
  9
$EXTNAMES
290
     1
  9
$PSVPSCALE
 40
0.0
  9
$OLESTARTUP
290
     0
  9
$SORTENTS
280
   127
  9
$INDEXCTL
280
     0
  9
$HIDETEXT
280
     0
  9
$XCLIPFRAME
290
     0
  9
$HALOGAP
280
     0
  9
$OBSCOLOR
 70
   257
  9
$OBSLTYPE
280
     0
  9
$INTERSECTIONDISPLAY
280
     0
  9
$INTERSECTIONCOLOR
 70
   257
  9
$DIMASSOC
280
     1
  9
$PROJECTNAME
  1

  9
$CAMERADISPLAY
290
     0
  9
$LENSLENGTH
 40
50.0
  9
$CAMERAHEIGHT
 40
0.0
  9
$STEPSPERSEC
 40
2.0
  9
$STEPSIZE
 40
6.0
  9
$3DDWFPREC
 40
2.0
  9
$PSOLWIDTH
 40
0.25
  9
$PSOLHEIGHT
 40
4.0
  9
$LOFTANG1
 40
1.570796326794896
  9
$LOFTANG2
 40
1.570796326794896
  9
$LOFTMAG1
 40
0.0
  9
$LOFTMAG2
 40
0.0
  9
$LOFTPARAM
 70
     7
  9
$LOFTNORMALS
280
     1
  9
$LATITUDE
 40
37.795
  9
$LONGITUDE
 40
-122.394
  9
$NORTHDIRECTION
 40
0.0
  9
$TIMEZONE
 70
 -8000
  9
$LIGHTGLYPHDISPLAY
280
     1
  9
$TILEMODELIGHTSYNCH
280
     1
  9
$CMATERIAL
347
127E
  9
$SOLIDHIST
280
     1
  9
$SHOWHIST
280
     1
  9
$DWFFRAME
280
     2
  9
$DGNFRAME
280
     0
  9
$REALWORLDSCALE
290
     1
  9
$INTERFERECOLOR
 62
     1
  9
$INTERFEREOBJVS
345
12A0
  9
$INTERFEREVPVS
346
129D
  9
$CSHADOW
280
     0
  9
$SHADOWPLANELOCATION
 40
0.0
  0
ENDSEC
  0
SECTION
  2
CLASSES
  0
CLASS
  1
ACDBDICTIONARYWDFLT
  2
AcDbDictionaryWithDefault
  3
ObjectDBX Classes
 90
        0
 91
        1
280
     0
281
     0
  0
CLASS
  1
DICTIONARYVAR
  2
AcDbDictionaryVar
  3
ObjectDBX Classes
 90
        0
 91
        9
280
     0
281
     0
  0
CLASS
  1
SORTENTSTABLE
  2
AcDbSortentsTable
  3
ObjectDBX Classes
 90
        0
 91
        0
280
     0
281
     0
  0
CLASS
  1
MATERIAL
  2
AcDbMaterial
  3
ObjectDBX Classes
 90
     1153
 91
        3
280
     0
281
     0
  0
CLASS
  1
VISUALSTYLE
  2
AcDbVisualStyle
  3
ObjectDBX Classes
 90
     4095
 91
       16
280
     0
281
     0
  0
CLASS
  1
TABLESTYLE
  2
AcDbTableStyle
  3
ObjectDBX Classes
 90
     4095
 91
        1
280
     0
281
     0
  0
CLASS
  1
SCALE
  2
AcDbScale
  3
ObjectDBX Classes
 90
     1153
 91
       33
280
     0
281
     0
  0
CLASS
  1
MLEADERSTYLE
  2
AcDbMLeaderStyle
  3
ACDB_MLEADERSTYLE_CLASS
 90
     4095
 91
        1
280
     0
281
     0
  0
CLASS
  1
EXACXREFPANELOBJECT
  2
ExAcXREFPanelObject
  3
EXAC_ESW
 90
     1025
 91
        1
280
     0
281
     0
  0
CLASS
  1
NPOCOLLECTION
  2
AcDbImpNonPersistentObjectsCollection
  3
ObjectDBX Classes
 90
     1153
 91
        1
280
     0
281
     0
  0
CLASS
  1
CELLSTYLEMAP
  2
AcDbCellStyleMap
  3
ObjectDBX Classes
 90
     1152
 91
        1
280
     0
281
     0
  0
ENDSEC
  0
SECTION
  2
TABLES
  0
TABLE
  2
VPORT
  5
8
330
0
100
AcDbSymbolTable
 70
     1
  0
VPORT
  5
1277
330
8
100
AcDbSymbolTableRecord
100
AcDbViewportTableRecord
  2
*Active
 70
     0
 10
0.0
 20
0.0
 11
1.0
 21
1.0
 12
48.00000067059603
 22
31.31250043745938
 13
0.0
 23
0.0
 14
1.0
 24
1.0
 15
0.0
 25
0.0
 16
0.0
 26
0.0
 36
1.0
 17
0.0
 27
0.0
 37
0.0
 40
63.05635237007146
 41
2.163615560640732
 42
50.0
 43
0.0
 44
0.0
 50
0.0
 51
0.0
 71
     0
 72
   100
 73
     1
 74
     0
 75
     0
 76
     0
 77
     0
 78
     0
281
     0
 65
     1
110
0.0
120
0.0
130
0.0
111
1.0
121
0.0
131
0.0
112
0.0
122
1.0
132
0.0
 79
     0
146
0.0
348
129C
 60
     3
 61
     5
292
     1
282
     1
141
0.0
142
0.0
 63
   250
421
  3355443
  0
ENDTAB
  0
TABLE
  2
LTYPE
  5
5
330
0
100
AcDbSymbolTable
 70
     2
  0
LTYPE
  5
12
330
5
100
AcDbSymbolTableRecord
100
AcDbLinetypeTableRecord
  2
BYBLOCK
 70
     0
  3

 72
    65
 73
     0
 40
0.0
  0
LTYPE
  5
13
330
5
100
AcDbSymbolTableRecord
100
AcDbLinetypeTableRecord
  2
BYLAYER
 70
     0
  3

 72
    65
 73
     0
 40
0.0
  0
LTYPE
  5
14
330
5
100
AcDbSymbolTableRecord
100
AcDbLinetypeTableRecord
  2
CONTINUOUS
 70
     0
  3
Solid line
 72
    65
 73
     0
 40
0.0
  0
LTYPE
  5
4A
330
5
100
AcDbSymbolTableRecord
100
AcDbLinetypeTableRecord
  2
HIDDEN
 70
     0
  3
_ _ _ _ _ _ _ _ _ _ _ _ _ _ _ _ _ _ _ _ _ _ _
 72
    65
 73
     2
 40
0.375
 49
0.25
 74
     0
 49
-0.125
 74
     0
  0
ENDTAB
  0
TABLE
  2
LAYER
  5
2
330
0
100
AcDbSymbolTable
 70
     7
  0
LAYER
  5
F
102
{ACAD_XDICTIONARY
360
12D4
102
}
330
2
100
AcDbSymbolTableRecord
100
AcDbLayerTableRecord
  2
0
 70
     0
 62
     7
  6
CONTINUOUS
370
    -3
390
118B
347
128E
  0
LAYER
  5
4E
102
{ACAD_XDICTIONARY
360
12D6
102
}
330
2
100
AcDbSymbolTableRecord
100
AcDbLayerTableRecord
  2
DIM
 70
     0
 62
     3
  6
CONTINUOUS
370
    -3
390
118B
347
128E
  0
LAYER
  5
4F
102
{ACAD_XDICTIONARY
360
12D8
102
}
330
2
100
AcDbSymbolTableRecord
100
AcDbLayerTableRecord
  2
HATCH
 70
     0
 62
     4
  6
CONTINUOUS
370
    -3
390
118B
347
128E
  0
LAYER
  5
51
102
{ACAD_XDICTIONARY
360
12DA
102
}
330
2
100
AcDbSymbolTableRecord
100
AcDbLayerTableRecord
  2
HIDE
 70
     0
 62
     5
  6
HIDDEN
370
    -3
390
118B
347
128E
  0
LAYER
  5
53
102
{ACAD_XDICTIONARY
360
12DC
102
}
330
2
100
AcDbSymbolTableRecord
100
AcDbLayerTableRecord
  2
TITLE
 70
     0
 62
     1
  6
CONTINUOUS
370
    -3
390
118B
347
128E
  0
LAYER
  5
54
330
2
100
AcDbSymbolTableRecord
100
AcDbLayerTableRecord
  2
DEFPOINTS
 70
     0
 62
    -7
  6
CONTINUOUS
290
     0
370
    -3
390
118B
347
128E
  0
LAYER
  5
55
102
{ACAD_XDICTIONARY
360
12DE
102
}
330
2
100
AcDbSymbolTableRecord
100
AcDbLayerTableRecord
  2
DF
 70
     0
 62
     7
  6
CONTINUOUS
370
    -3
390
118B
347
128E
  0
ENDTAB
  0
TABLE
  2
STYLE
  5
3
330
0
100
AcDbSymbolTable
 70
     4
  0
STYLE
  5
10
330
3
100
AcDbSymbolTableRecord
100
AcDbTextStyleTableRecord
  2
STANDARD
 70
     0
 40
0.0
 41
1.0
 50
0.0
 71
     0
 42
0.281
  3
txt
  4

  0
STYLE
  5
48
330
3
100
AcDbSymbolTableRecord
100
AcDbTextStyleTableRecord
  2
ITALIC
 70
     0
 40
0.0
 41
1.0
 50
0.0
 71
     0
 42
0.2
  3
txt
  4

  0
STYLE
  5
49
330
3
100
AcDbSymbolTableRecord
100
AcDbTextStyleTableRecord
  2
COMPLEX
 70
     0
 40
0.0
 41
1.0
 50
0.0
 71
     0
 42
0.156
  3
ROMANC
  4

  0
STYLE
  5
1160
330
3
100
AcDbSymbolTableRecord
100
AcDbTextStyleTableRecord
  2
STYLE1
 70
     0
 40
0.0
 41
1.0
 50
0.0
 71
     0
 42
0.25
  3
swiss.ttf
  4

1001
ACAD
1000
Swis721 BT
1071
       34
  0
ENDTAB
  0
TABLE
  2
VIEW
  5
6
330
0
100
AcDbSymbolTable
 70
     0
  0
ENDTAB
  0
TABLE
  2
UCS
  5
7
330
0
100
AcDbSymbolTable
 70
     0
  0
ENDTAB
  0
TABLE
  2
APPID
  5
9
330
0
100
AcDbSymbolTable
 70
     4
  0
APPID
  5
11
330
9
100
AcDbSymbolTableRecord
100
AcDbRegAppTableRecord
  2
ACAD
 70
     0
  0
APPID
  5
1204
330
9
100
AcDbSymbolTableRecord
100
AcDbRegAppTableRecord
  2
DCO15
 70
     0
  0
APPID
  5
1246
330
9
100
AcDbSymbolTableRecord
100
AcDbRegAppTableRecord
  2
ACAD_PSEXT
 70
     0
  0
APPID
  5
12CD
330
9
100
AcDbSymbolTableRecord
100
AcDbRegAppTableRecord
  2
ACAD_MLEADERVER
 70
     0
  0
ENDTAB
  0
TABLE
  2
DIMSTYLE
  5
A
330
0
100
AcDbSymbolTable
 70
     1
100
AcDbDimStyleTable
 71
     1
340
AA2
  0
DIMSTYLE
105
AA2
102
{ACAD_REACTORS
330
864
330
863
102
}
330
A
100
AcDbSymbolTableRecord
100
AcDbDimStyleTableRecord
  2
STANDARD
 70
     0
340
10
  0
ENDTAB
  0
TABLE
  2
BLOCK_RECORD
  5
1
330
0
100
AcDbSymbolTable
 70
    40
  0
BLOCK_RECORD
  5
18
330
1
100
AcDbSymbolTableRecord
100
AcDbBlockTableRecord
  2
*MODEL_SPACE
340
1190
 70
     0
280
     1
281
     0
  0
BLOCK_RECORD
  5
15
330
1
100
AcDbSymbolTableRecord
100
AcDbBlockTableRecord
  2
*PAPER_SPACE
340
1191
 70
     0
280
     1
281
     0
  0
BLOCK_RECORD
  5
22
330
1
100
AcDbSymbolTableRecord
100
AcDbBlockTableRecord
  2
*X0
340
0
102
{BLKREFS
331
840
102
}
 70
     0
280
     1
281
     0
  0
BLOCK_RECORD
  5
23
330
1
100
AcDbSymbolTableRecord
100
AcDbBlockTableRecord
  2
*X1
340
0
102
{BLKREFS
331
860
102
}
 70
     0
280
     1
281
     0
  0
BLOCK_RECORD
  5
24
330
1
100
AcDbSymbolTableRecord
100
AcDbBlockTableRecord
  2
*X2
340
0
102
{BLKREFS
331
861
102
}
 70
     0
280
     1
281
     0
  0
BLOCK_RECORD
  5
25
330
1
100
AcDbSymbolTableRecord
100
AcDbBlockTableRecord
  2
SAAL
340
0
102
{BLKREFS
331
88D
102
}
 70
     0
280
     1
281
     0
  0
BLOCK_RECORD
  5
26
330
1
100
AcDbSymbolTableRecord
100
AcDbBlockTableRecord
  2
*X4
340
0
102
{BLKREFS
331
411
102
}
 70
     0
280
     1
281
     0
  0
BLOCK_RECORD
  5
27
330
1
100
AcDbSymbolTableRecord
100
AcDbBlockTableRecord
  2
*D5
340
0
 70
     0
280
     1
281
     0
  0
BLOCK_RECORD
  5
28
330
1
100
AcDbSymbolTableRecord
100
AcDbBlockTableRecord
  2
*D6
340
0
 70
     0
280
     1
281
     0
  0
BLOCK_RECORD
  5
29
330
1
100
AcDbSymbolTableRecord
100
AcDbBlockTableRecord
  2
SAATX
340
0
102
{BLKREFS
331
890
102
}
 70
     0
280
     1
281
     0
  0
BLOCK_RECORD
  5
2A
330
1
100
AcDbSymbolTableRecord
100
AcDbBlockTableRecord
  2
SBBTX
340
0
102
{BLKREFS
331
891
102
}
 70
     0
280
     1
281
     0
  0
BLOCK_RECORD
  5
2B
330
1
100
AcDbSymbolTableRecord
100
AcDbBlockTableRecord
  2
*D9
340
0
 70
     0
280
     1
281
     0
  0
BLOCK_RECORD
  5
2C
330
1
100
AcDbSymbolTableRecord
100
AcDbBlockTableRecord
  2
*D10
340
0
 70
     0
280
     1
281
     0
  0
BLOCK_RECORD
  5
2F
330
1
100
AcDbSymbolTableRecord
100
AcDbBlockTableRecord
  2
*D13
340
0
 70
     0
280
     1
281
     0
  0
BLOCK_RECORD
  5
30
330
1
100
AcDbSymbolTableRecord
100
AcDbBlockTableRecord
  2
*D14
340
0
 70
     0
280
     1
281
     0
  0
BLOCK_RECORD
  5
31
330
1
100
AcDbSymbolTableRecord
100
AcDbBlockTableRecord
  2
*D15
340
0
 70
     0
280
     1
281
     0
  0
BLOCK_RECORD
  5
32
330
1
100
AcDbSymbolTableRecord
100
AcDbBlockTableRecord
  2
*D16
340
0
 70
     0
280
     1
281
     0
  0
BLOCK_RECORD
  5
33
330
1
100
AcDbSymbolTableRecord
100
AcDbBlockTableRecord
  2
*D17
340
0
 70
     0
280
     1
281
     0
  0
BLOCK_RECORD
  5
34
330
1
100
AcDbSymbolTableRecord
100
AcDbBlockTableRecord
  2
SAAR
340
0
102
{BLKREFS
331
88C
102
}
 70
     0
280
     1
281
     0
  0
BLOCK_RECORD
  5
35
330
1
100
AcDbSymbolTableRecord
100
AcDbBlockTableRecord
  2
*X19
340
0
102
{BLKREFS
331
4F0
102
}
 70
     0
280
     1
281
     0
  0
BLOCK_RECORD
  5
36
330
1
100
AcDbSymbolTableRecord
100
AcDbBlockTableRecord
  2
SBBB
340
0
102
{BLKREFS
331
88E
102
}
 70
     0
280
     1
281
     0
  0
BLOCK_RECORD
  5
37
330
1
100
AcDbSymbolTableRecord
100
AcDbBlockTableRecord
  2
*X21
340
0
102
{BLKREFS
331
532
102
}
 70
     0
280
     1
281
     0
  0
BLOCK_RECORD
  5
38
330
1
100
AcDbSymbolTableRecord
100
AcDbBlockTableRecord
  2
SBBT
340
0
102
{BLKREFS
331
88F
102
}
 70
     0
280
     1
281
     0
  0
BLOCK_RECORD
  5
39
330
1
100
AcDbSymbolTableRecord
100
AcDbBlockTableRecord
  2
*X23
340
0
102
{BLKREFS
331
567
102
}
 70
     0
280
     1
281
     0
  0
BLOCK_RECORD
  5
3A
330
1
100
AcDbSymbolTableRecord
100
AcDbBlockTableRecord
  2
*D24
340
0
 70
     0
280
     1
281
     0
  0
BLOCK_RECORD
  5
3B
330
1
100
AcDbSymbolTableRecord
100
AcDbBlockTableRecord
  2
*D25
340
0
 70
     0
280
     1
281
     0
  0
BLOCK_RECORD
  5
3C
330
1
100
AcDbSymbolTableRecord
100
AcDbBlockTableRecord
  2
*D26
340
0
 70
     0
280
     1
281
     0
  0
BLOCK_RECORD
  5
3D
330
1
100
AcDbSymbolTableRecord
100
AcDbBlockTableRecord
  2
*D27
340
0
 70
     0
280
     1
281
     0
  0
BLOCK_RECORD
  5
3E
330
1
100
AcDbSymbolTableRecord
100
AcDbBlockTableRecord
  2
*D28
340
0
 70
     0
280
     1
281
     0
  0
BLOCK_RECORD
  5
42
330
1
100
AcDbSymbolTableRecord
100
AcDbBlockTableRecord
  2
*D32
340
0
 70
     0
280
     1
281
     0
  0
BLOCK_RECORD
  5
45
330
1
100
AcDbSymbolTableRecord
100
AcDbBlockTableRecord
  2
*D35
340
0
 70
     0
280
     1
281
     0
  0
BLOCK_RECORD
  5
46
330
1
100
AcDbSymbolTableRecord
100
AcDbBlockTableRecord
  2
*X36
340
0
102
{BLKREFS
331
A99
102
}
 70
     0
280
     1
281
     0
  0
BLOCK_RECORD
  5
125D
330
1
100
AcDbSymbolTableRecord
100
AcDbBlockTableRecord
  2
*D38
340
0
 70
     0
280
     1
281
     0
  0
BLOCK_RECORD
  5
126A
330
1
100
AcDbSymbolTableRecord
100
AcDbBlockTableRecord
  2
*D39
340
0
 70
     0
280
     1
281
     0
  0
ENDTAB
  0
ENDSEC
  0
SECTION
  2
BLOCKS
  0
BLOCK
  5
58
330
18
100
AcDbEntity
  8
0
100
AcDbBlockBegin
  2
*MODEL_SPACE
 70
     0
 10
0.0
 20
0.0
 30
0.0
  3
*MODEL_SPACE
  1

  0
ENDBLK
  5
59
330
18
100
AcDbEntity
  8
0
100
AcDbBlockEnd
  0
BLOCK
  5
56
330
15
100
AcDbEntity
 67
     1
  8
0
100
AcDbBlockBegin
  2
*PAPER_SPACE
 70
     0
 10
0.0
 20
0.0
 30
0.0
  3
*PAPER_SPACE
  1

  0
ENDBLK
  5
57
330
15
100
AcDbEntity
 67
     1
  8
0
100
AcDbBlockEnd
  0
BLOCK
  5
338
330
22
100
AcDbEntity
  8
0
100
AcDbBlockBegin
  2
*X0
 70
     1
 10
0.0
 20
0.0
 30
0.0
  3
*X0
  1

  0
LINE
  5
339
330
22
100
AcDbEntity
  8
0
 62
     0
100
AcDbLine
 10
54.32390181033014
 20
9.315708496459141
 30
0.0
 11
54.19890181033014
 21
9.440708496459141
 31
0.0
  0
LINE
  5
33A
330
22
100
AcDbEntity
  8
0
 62
     0
100
AcDbLine
 10
53.26324163855031
 20
9.315708496459141
 30
0.0
 11
53.13824163855031
 21
9.440708496459141
 31
0.0
  0
LINE
  5
33B
330
22
100
AcDbEntity
  8
0
 62
     0
100
AcDbLine
 10
52.20258146677049
 20
9.315708496459141
 30
0.0
 11
52.07758146677049
 21
9.440708496459141
 31
0.0
  0
LINE
  5
33C
330
22
100
AcDbEntity
  8
0
 62
     0
100
AcDbLine
 10
51.14192129499066
 20
9.315708496459141
 30
0.0
 11
51.01692129499067
 21
9.440708496459141
 31
0.0
  0
LINE
  5
33D
330
22
100
AcDbEntity
  8
0
 62
     0
100
AcDbLine
 10
45.87231570649266
 20
14.58531408495715
 30
0.0
 11
45.39871032915142
 21
15.05891946229839
 31
0.0
  0
LINE
  5
33E
330
22
100
AcDbEntity
  8
0
 62
     0
100
AcDbLine
 10
50.08126112321085
 20
9.315708496459141
 30
0.0
 11
49.95626112321085
 21
9.440708496459141
 31
0.0
  0
LINE
  5
33F
330
22
100
AcDbEntity
  8
0
 62
     0
100
AcDbLine
 10
45.91486679970937
 20
13.48210281996061
 30
0.0
 11
45.78475543230793
 21
13.61221418736205
 31
0.0
  0
LINE
  5
340
330
22
100
AcDbEntity
  8
0
 62
     0
100
AcDbLine
 10
49.02060095143102
 20
9.315708496459141
 30
0.0
 11
48.89560095143103
 21
9.440708496459141
 31
0.0
  0
LINE
  5
341
330
22
100
AcDbEntity
  8
0
 62
     0
100
AcDbLine
 10
45.95741789292609
 20
12.37889155496407
 30
0.0
 11
45.82730652552466
 21
12.50900292236551
 31
0.0
  0
LINE
  5
342
330
22
100
AcDbEntity
  8
0
 62
     0
100
AcDbLine
 10
47.9599407796512
 20
9.315708496459141
 30
0.0
 11
47.8349407796512
 21
9.440708496459141
 31
0.0
  0
LINE
  5
343
330
22
100
AcDbEntity
  8
0
 62
     0
100
AcDbLine
 10
45.99996898614281
 20
11.27568028996753
 30
0.0
 11
45.86985761874138
 21
11.40579165736897
 31
0.0
  0
LINE
  5
344
330
22
100
AcDbEntity
  8
0
 62
     0
100
AcDbLine
 10
46.89928060787138
 20
9.315708496459141
 30
0.0
 11
46.77428060787138
 21
9.440708496459141
 31
0.0
  0
LINE
  5
345
330
22
100
AcDbEntity
  8
0
 62
     0
100
AcDbLine
 10
46.04252007935953
 20
10.17246902497099
 30
0.0
 11
45.9124087119581
 21
10.30258039237243
 31
0.0
  0
LINE
  5
346
330
22
100
AcDbEntity
  8
0
 62
     0
100
AcDbLine
 10
55.38456198210996
 20
9.315708496459141
 30
0.0
 11
55.25956198210995
 21
9.440708496459141
 31
0.0
  0
LINE
  5
347
330
22
100
AcDbEntity
  8
0
 62
     0
100
AcDbLine
 10
56.44522215388978
 20
9.315708496459141
 30
0.0
 11
56.32022215388977
 21
9.440708496459141
 31
0.0
  0
LINE
  5
348
330
22
100
AcDbEntity
  8
0
 62
     0
100
AcDbLine
 10
57.50312179465397
 20
9.318469027474765
 30
0.0
 11
57.38088232566959
 21
9.440708496459141
 31
0.0
  0
LINE
  5
349
330
22
100
AcDbEntity
  8
0
 62
     0
100
AcDbLine
 10
57.7385516880081
 20
10.14369930590045
 30
0.0
 11
57.61810442046677
 21
10.26414657344179
 31
0.0
  0
LINE
  5
34A
330
22
100
AcDbEntity
  8
0
 62
     0
100
AcDbLine
 10
57.7779422732522
 20
11.16496889243618
 30
0.0
 11
57.65749500571086
 21
11.28541615997753
 31
0.0
  0
LINE
  5
34B
330
22
100
AcDbEntity
  8
0
 62
     0
100
AcDbLine
 10
57.81733285849628
 20
12.18623847897192
 30
0.0
 11
57.69688559095494
 21
12.30668574651327
 31
0.0
  0
LINE
  5
34C
330
22
100
AcDbEntity
  8
0
 62
     0
100
AcDbLine
 10
57.85672344374036
 20
13.20750806550765
 30
0.0
 11
57.73627617619903
 21
13.327955333049
 31
0.0
  0
LINE
  5
34D
330
22
100
AcDbEntity
  8
0
 62
     0
100
AcDbLine
 10
57.90790757638381
 20
14.21698410464403
 30
0.0
 11
57.77566676144311
 21
14.34922491958474
 31
0.0
  0
LINE
  5
34E
330
22
100
AcDbEntity
  8
0
 62
     0
100
AcDbLine
 10
58.2534854005377
 20
14.93206645226996
 30
0.0
 11
57.86984335634851
 21
15.31570849645914
 31
0.0
  0
LINE
  5
34F
330
22
100
AcDbEntity
  8
0
 62
     0
100
AcDbLine
 10
54.50067850533013
 20
9.315708496459141
 30
0.0
 11
54.37567850533014
 21
9.440708496459141
 31
0.0
  0
LINE
  5
350
330
22
100
AcDbEntity
  8
0
 62
     0
100
AcDbLine
 10
53.44001833355031
 20
9.315708496459141
 30
0.0
 11
53.31501833355031
 21
9.440708496459141
 31
0.0
  0
LINE
  5
351
330
22
100
AcDbEntity
  8
0
 62
     0
100
AcDbLine
 10
52.37935816177049
 20
9.315708496459141
 30
0.0
 11
52.25435816177049
 21
9.440708496459141
 31
0.0
  0
LINE
  5
352
330
22
100
AcDbEntity
  8
0
 62
     0
100
AcDbLine
 10
51.31869798999067
 20
9.315708496459141
 30
0.0
 11
51.19369798999067
 21
9.440708496459141
 31
0.0
  0
LINE
  5
353
330
22
100
AcDbEntity
  8
0
 62
     0
100
AcDbLine
 10
45.86522385763511
 20
14.7691826288147
 30
0.0
 11
45.39161848029386
 21
15.24278800615595
 31
0.0
  0
LINE
  5
354
330
22
100
AcDbEntity
  8
0
 62
     0
100
AcDbLine
 10
50.25803781821085
 20
9.315708496459141
 30
0.0
 11
50.13303781821085
 21
9.440708496459141
 31
0.0
  0
LINE
  5
355
330
22
100
AcDbEntity
  8
0
 62
     0
100
AcDbLine
 10
45.90777495085182
 20
13.66597136381817
 30
0.0
 11
45.77766358345039
 21
13.79608273121961
 31
0.0
  0
LINE
  5
356
330
22
100
AcDbEntity
  8
0
 62
     0
100
AcDbLine
 10
49.19737764643103
 20
9.315708496459141
 30
0.0
 11
49.07237764643102
 21
9.440708496459141
 31
0.0
  0
LINE
  5
357
330
22
100
AcDbEntity
  8
0
 62
     0
100
AcDbLine
 10
45.95032604406855
 20
12.56276009882163
 30
0.0
 11
45.8202146766671
 21
12.69287146622307
 31
0.0
  0
LINE
  5
358
330
22
100
AcDbEntity
  8
0
 62
     0
100
AcDbLine
 10
48.13671747465121
 20
9.315708496459141
 30
0.0
 11
48.0117174746512
 21
9.440708496459141
 31
0.0
  0
LINE
  5
359
330
22
100
AcDbEntity
  8
0
 62
     0
100
AcDbLine
 10
45.99287713728526
 20
11.45954883382509
 30
0.0
 11
45.86276576988383
 21
11.58966020122653
 31
0.0
  0
LINE
  5
35A
330
22
100
AcDbEntity
  8
0
 62
     0
100
AcDbLine
 10
47.07605730287139
 20
9.315708496459141
 30
0.0
 11
46.95105730287139
 21
9.440708496459141
 31
0.0
  0
LINE
  5
35B
330
22
100
AcDbEntity
  8
0
 62
     0
100
AcDbLine
 10
46.03542823050198
 20
10.35633756882855
 30
0.0
 11
45.90531686310054
 21
10.48644893622999
 31
0.0
  0
LINE
  5
35C
330
22
100
AcDbEntity
  8
0
 62
     0
100
AcDbLine
 10
55.56133867710996
 20
9.315708496459141
 30
0.0
 11
55.43633867710996
 21
9.440708496459141
 31
0.0
  0
LINE
  5
35D
330
22
100
AcDbEntity
  8
0
 62
     0
100
AcDbLine
 10
56.62199884888978
 20
9.315708496459141
 30
0.0
 11
56.49699884888978
 21
9.440708496459141
 31
0.0
  0
LINE
  5
35E
330
22
100
AcDbEntity
  8
0
 62
     0
100
AcDbLine
 10
57.62535126016846
 20
9.37301625696028
 30
0.0
 11
57.5361608628642
 21
9.462206654264532
 31
0.0
  0
LINE
  5
35F
330
22
100
AcDbEntity
  8
0
 62
     0
100
AcDbLine
 10
57.74511678553778
 20
10.31391090337078
 30
0.0
 11
57.62466951799644
 21
10.43435817091213
 31
0.0
  0
LINE
  5
360
330
22
100
AcDbEntity
  8
0
 62
     0
100
AcDbLine
 10
57.78450737078186
 20
11.33518048990652
 30
0.0
 11
57.66406010324052
 21
11.45562775744787
 31
0.0
  0
LINE
  5
361
330
22
100
AcDbEntity
  8
0
 62
     0
100
AcDbLine
 10
57.82389795602594
 20
12.35645007644225
 30
0.0
 11
57.7034506884846
 21
12.4768973439836
 31
0.0
  0
LINE
  5
362
330
22
100
AcDbEntity
  8
0
 62
     0
100
AcDbLine
 10
57.86328854127003
 20
13.37771966297799
 30
0.0
 11
57.74284127372869
 21
13.49816693051934
 31
0.0
  0
LINE
  5
363
330
22
100
AcDbEntity
  8
0
 62
     0
100
AcDbLine
 10
57.9511495792706
 20
14.35051879675724
 30
0.0
 11
57.78223185897278
 21
14.51943651705508
 31
0.0
  0
LINE
  5
364
330
22
100
AcDbEntity
  8
0
 62
     0
100
AcDbLine
 10
58.26005049806736
 20
15.1022780497403
 30
0.0
 11
58.04662005134852
 21
15.31570849645914
 31
0.0
  0
LINE
  5
365
330
22
100
AcDbEntity
  8
0
 62
     0
100
AcDbLine
 10
54.67745520133013
 20
9.315708496459141
 30
0.0
 11
54.55245520133013
 21
9.440708496459141
 31
0.0
  0
LINE
  5
366
330
22
100
AcDbEntity
  8
0
 62
     0
100
AcDbLine
 10
53.61679502955031
 20
9.315708496459141
 30
0.0
 11
53.49179502955031
 21
9.440708496459141
 31
0.0
  0
LINE
  5
367
330
22
100
AcDbEntity
  8
0
 62
     0
100
AcDbLine
 10
52.5561348577705
 20
9.315708496459141
 30
0.0
 11
52.43113485777049
 21
9.440708496459141
 31
0.0
  0
LINE
  5
368
330
22
100
AcDbEntity
  8
0
 62
     0
100
AcDbLine
 10
51.49547468599067
 20
9.315708496459141
 30
0.0
 11
51.37047468599067
 21
9.440708496459141
 31
0.0
  0
LINE
  5
369
330
22
100
AcDbEntity
  8
0
 62
     0
100
AcDbLine
 10
45.85813200873744
 20
14.95305117371237
 30
0.0
 11
45.49547468599066
 21
15.31570849645914
 31
0.0
  0
LINE
  5
36A
330
22
100
AcDbEntity
  8
0
 62
     0
100
AcDbLine
 10
50.43481451421085
 20
9.315708496459141
 30
0.0
 11
50.30981451421085
 21
9.440708496459141
 31
0.0
  0
LINE
  5
36B
330
22
100
AcDbEntity
  8
0
 62
     0
100
AcDbLine
 10
45.90068310195415
 20
13.84983990871583
 30
0.0
 11
45.77057173455272
 21
13.97995127611727
 31
0.0
  0
LINE
  5
36C
330
22
100
AcDbEntity
  8
0
 62
     0
100
AcDbLine
 10
49.37415434243103
 20
9.315708496459141
 30
0.0
 11
49.24915434243103
 21
9.440708496459141
 31
0.0
  0
LINE
  5
36D
330
22
100
AcDbEntity
  8
0
 62
     0
100
AcDbLine
 10
45.94323419517087
 20
12.74662864371929
 30
0.0
 11
45.81312282776943
 21
12.87674001112073
 31
0.0
  0
LINE
  5
36E
330
22
100
AcDbEntity
  8
0
 62
     0
100
AcDbLine
 10
48.3134941706512
 20
9.315708496459141
 30
0.0
 11
48.1884941706512
 21
9.440708496459141
 31
0.0
  0
LINE
  5
36F
330
22
100
AcDbEntity
  8
0
 62
     0
100
AcDbLine
 10
45.9857852883876
 20
11.64341737872276
 30
0.0
 11
45.85567392098615
 21
11.77352874612419
 31
0.0
  0
LINE
  5
370
330
22
100
AcDbEntity
  8
0
 62
     0
100
AcDbLine
 10
47.25283399887138
 20
9.315708496459141
 30
0.0
 11
47.12783399887139
 21
9.440708496459141
 31
0.0
  0
LINE
  5
371
330
22
100
AcDbEntity
  8
0
 62
     0
100
AcDbLine
 10
46.02833638160431
 20
10.54020611372622
 30
0.0
 11
45.89822501420287
 21
10.67031748112765
 31
0.0
  0
LINE
  5
372
330
22
100
AcDbEntity
  8
0
 62
     0
100
AcDbLine
 10
46.19217382709156
 20
9.315708496459141
 30
0.0
 11
45.94077610741959
 21
9.567106216131115
 31
0.0
  0
LINE
  5
373
330
22
100
AcDbEntity
  8
0
 62
     0
100
AcDbLine
 10
55.73811537310995
 20
9.315708496459141
 30
0.0
 11
55.61311537310995
 21
9.440708496459141
 31
0.0
  0
LINE
  5
374
330
22
100
AcDbEntity
  8
0
 62
     0
100
AcDbLine
 10
56.79877554488978
 20
9.315708496459141
 30
0.0
 11
56.67377554488978
 21
9.440708496459141
 31
0.0
  0
LINE
  5
375
330
22
100
AcDbEntity
  8
0
 62
     0
100
AcDbLine
 10
57.69934545580988
 20
9.475798757318855
 30
0.0
 11
57.59184403031915
 21
9.583300182809592
 31
0.0
  0
LINE
  5
376
330
22
100
AcDbEntity
  8
0
 62
     0
100
AcDbLine
 10
57.75168188310457
 20
10.48412250180398
 30
0.0
 11
57.63123461556324
 21
10.60456976934533
 31
0.0
  0
LINE
  5
377
330
22
100
AcDbEntity
  8
0
 62
     0
100
AcDbLine
 10
57.79107246834866
 20
11.50539208833971
 30
0.0
 11
57.67062520080732
 21
11.62583935588106
 31
0.0
  0
LINE
  5
378
330
22
100
AcDbEntity
  8
0
 62
     0
100
AcDbLine
 10
57.83046305359274
 20
12.52666167487545
 30
0.0
 11
57.7100157860514
 21
12.6471089424168
 31
0.0
  0
LINE
  5
379
330
22
100
AcDbEntity
  8
0
 62
     0
100
AcDbLine
 10
57.86985363883683
 20
13.54793126141119
 30
0.0
 11
57.74940637129549
 21
13.66837852895254
 31
0.0
  0
LINE
  5
37A
330
22
100
AcDbEntity
  8
0
 62
     0
100
AcDbLine
 10
58.01302635262729
 20
14.46541871940056
 30
0.0
 11
57.78879695653958
 21
14.68964811548827
 31
0.0
  0
LINE
  5
37B
330
22
100
AcDbEntity
  8
0
 62
     0
100
AcDbLine
 10
58.26661559563416
 20
15.27248964817349
 30
0.0
 11
58.22339674734852
 21
15.31570849645914
 31
0.0
  0
LINE
  5
37C
330
22
100
AcDbEntity
  8
0
 62
     0
100
AcDbLine
 10
53.79357172455032
 20
9.315708496459141
 30
0.0
 11
53.66857172455032
 21
9.440708496459141
 31
0.0
  0
LINE
  5
37D
330
22
100
AcDbEntity
  8
0
 62
     0
100
AcDbLine
 10
52.7329115527705
 20
9.315708496459141
 30
0.0
 11
52.6079115527705
 21
9.440708496459141
 31
0.0
  0
LINE
  5
37E
330
22
100
AcDbEntity
  8
0
 62
     0
100
AcDbLine
 10
51.67225138099067
 20
9.315708496459141
 30
0.0
 11
51.54725138099067
 21
9.440708496459141
 31
0.0
  0
LINE
  5
37F
330
22
100
AcDbEntity
  8
0
 62
     0
100
AcDbLine
 10
45.85104015987989
 20
15.13691971756993
 30
0.0
 11
45.67225138099067
 21
15.31570849645914
 31
0.0
  0
LINE
  5
380
330
22
100
AcDbEntity
  8
0
 62
     0
100
AcDbLine
 10
50.61159120921085
 20
9.315708496459141
 30
0.0
 11
50.48659120921085
 21
9.440708496459141
 31
0.0
  0
LINE
  5
381
330
22
100
AcDbEntity
  8
0
 62
     0
100
AcDbLine
 10
45.8935912530966
 20
14.03370845257339
 30
0.0
 11
45.75824657081878
 21
14.1690531348512
 31
0.0
  0
LINE
  5
382
330
22
100
AcDbEntity
  8
0
 62
     0
100
AcDbLine
 10
49.55093103743102
 20
9.315708496459141
 30
0.0
 11
49.42593103743103
 21
9.440708496459141
 31
0.0
  0
LINE
  5
383
330
22
100
AcDbEntity
  8
0
 62
     0
100
AcDbLine
 10
45.93614234631332
 20
12.93049718757685
 30
0.0
 11
45.80603097891188
 21
13.06060855497829
 31
0.0
  0
LINE
  5
384
330
22
100
AcDbEntity
  8
0
 62
     0
100
AcDbLine
 10
48.49027086565121
 20
9.315708496459141
 30
0.0
 11
48.36527086565121
 21
9.440708496459141
 31
0.0
  0
LINE
  5
385
330
22
100
AcDbEntity
  8
0
 62
     0
100
AcDbLine
 10
45.97869343953004
 20
11.82728592258031
 30
0.0
 11
45.84858207212859
 21
11.95739728998175
 31
0.0
  0
LINE
  5
386
330
22
100
AcDbEntity
  8
0
 62
     0
100
AcDbLine
 10
47.42961069387138
 20
9.315708496459141
 30
0.0
 11
47.30461069387138
 21
9.440708496459141
 31
0.0
  0
LINE
  5
387
330
22
100
AcDbEntity
  8
0
 62
     0
100
AcDbLine
 10
46.02124453274675
 20
10.72407465758377
 30
0.0
 11
45.89113316534532
 21
10.85418602498521
 31
0.0
  0
LINE
  5
388
330
22
100
AcDbEntity
  8
0
 62
     0
100
AcDbLine
 10
46.36895052209156
 20
9.315708496459141
 30
0.0
 11
46.24395052209156
 21
9.440708496459141
 31
0.0
  0
LINE
  5
389
330
22
100
AcDbEntity
  8
0
 62
     0
100
AcDbLine
 10
46.06379562596347
 20
9.620863392587231
 30
0.0
 11
45.93368425856204
 21
9.750974759988672
 31
0.0
  0
LINE
  5
38A
330
22
100
AcDbEntity
  8
0
 62
     0
100
AcDbLine
 10
54.85423189633014
 20
9.315708496459141
 30
0.0
 11
54.72923189633013
 21
9.440708496459141
 31
0.0
  0
LINE
  5
38B
330
22
100
AcDbEntity
  8
0
 62
     0
100
AcDbLine
 10
55.91489206810996
 20
9.315708496459141
 30
0.0
 11
55.78989206810995
 21
9.440708496459141
 31
0.0
  0
LINE
  5
38C
330
22
100
AcDbEntity
  8
0
 62
     0
100
AcDbLine
 10
56.97555223988977
 20
9.315708496459141
 30
0.0
 11
56.85055223988978
 21
9.440708496459141
 31
0.0
  0
LINE
  5
38D
330
22
100
AcDbEntity
  8
0
 62
     0
100
AcDbLine
 10
57.71885639539015
 20
9.633064512738583
 30
0.0
 11
57.59840912784881
 21
9.75351178027993
 31
0.0
  0
LINE
  5
38E
330
22
100
AcDbEntity
  8
0
 62
     0
100
AcDbLine
 10
57.75824698063424
 20
10.65433409927432
 30
0.0
 11
57.6377997130929
 21
10.77478136681566
 31
0.0
  0
LINE
  5
38F
330
22
100
AcDbEntity
  8
0
 62
     0
100
AcDbLine
 10
57.79763756587833
 20
11.67560368581005
 30
0.0
 11
57.67719029833699
 21
11.7960509533514
 31
0.0
  0
LINE
  5
390
330
22
100
AcDbEntity
  8
0
 62
     0
100
AcDbLine
 10
57.83702815112241
 20
12.69687327234579
 30
0.0
 11
57.71658088358107
 21
12.81732053988714
 31
0.0
  0
LINE
  5
391
330
22
100
AcDbEntity
  8
0
 62
     0
100
AcDbLine
 10
57.87641873636649
 20
13.71814285888153
 30
0.0
 11
57.75597146882516
 21
13.83859012642287
 31
0.0
  0
LINE
  5
392
330
22
100
AcDbEntity
  8
0
 62
     0
100
AcDbLine
 10
58.09073394865525
 20
14.56448781837259
 30
0.0
 11
57.79536205406924
 21
14.85985971295861
 31
0.0
  0
ENDBLK
  5
393
330
22
100
AcDbEntity
  8
0
100
AcDbBlockEnd
  0
BLOCK
  5
394
330
23
100
AcDbEntity
  8
0
100
AcDbBlockBegin
  2
*X1
 70
     1
 10
0.0
 20
0.0
 30
0.0
  3
*X1
  1

  0
LINE
  5
395
330
23
100
AcDbEntity
  8
0
 62
     0
100
AcDbLine
 10
60.46204294254748
 20
19.09629624313445
 30
0.0
 11
60.59704294254749
 21
19.23129624313445
 31
0.0
  0
LINE
  5
396
330
23
100
AcDbEntity
  8
0
 62
     0
100
AcDbLine
 10
59.40138277076766
 20
19.09629624313445
 30
0.0
 11
59.53638277076767
 21
19.23129624313445
 31
0.0
  0
LINE
  5
397
330
23
100
AcDbEntity
  8
0
 62
     0
100
AcDbLine
 10
58.34072259898784
 20
19.09629624313445
 30
0.0
 11
58.47572259898785
 21
19.23129624313445
 31
0.0
  0
LINE
  5
398
330
23
100
AcDbEntity
  8
0
 62
     0
100
AcDbLine
 10
57.28006242720802
 20
19.09629624313445
 30
0.0
 11
57.41506242720802
 21
19.23129624313445
 31
0.0
  0
LINE
  5
399
330
23
100
AcDbEntity
  8
0
 62
     0
100
AcDbLine
 10
56.2194022554282
 20
19.09629624313445
 30
0.0
 11
56.3544022554282
 21
19.23129624313445
 31
0.0
  0
LINE
  5
39A
330
23
100
AcDbEntity
  8
0
 62
     0
100
AcDbLine
 10
55.15874208364838
 20
19.09629624313445
 30
0.0
 11
55.29374208364838
 21
19.23129624313445
 31
0.0
  0
LINE
  5
39B
330
23
100
AcDbEntity
  8
0
 62
     0
100
AcDbLine
 10
53.98944297465998
 20
18.98765730592587
 30
0.0
 11
54.23300067994703
 21
19.23121501121292
 31
0.0
  0
LINE
  5
39C
330
23
100
AcDbEntity
  8
0
 62
     0
100
AcDbLine
 10
61.5227031143273
 20
19.09629624313445
 30
0.0
 11
61.65770311432731
 21
19.23129624313445
 31
0.0
  0
LINE
  5
39D
330
23
100
AcDbEntity
  8
0
 62
     0
100
AcDbLine
 10
62.58336328610713
 20
19.09629624313445
 30
0.0
 11
62.71836328610714
 21
19.23129624313445
 31
0.0
  0
LINE
  5
39E
330
23
100
AcDbEntity
  8
0
 62
     0
100
AcDbLine
 10
63.64402345788694
 20
19.09629624313445
 30
0.0
 11
63.77902345788696
 21
19.23129624313445
 31
0.0
  0
LINE
  5
39F
330
23
100
AcDbEntity
  8
0
 62
     0
100
AcDbLine
 10
64.70468362966677
 20
19.09629624313445
 30
0.0
 11
64.83968362966678
 21
19.23129624313445
 31
0.0
  0
LINE
  5
3A0
330
23
100
AcDbEntity
  8
0
 62
     0
100
AcDbLine
 10
65.76534380144659
 20
19.09629624313445
 30
0.0
 11
65.90034380144659
 21
19.23129624313445
 31
0.0
  0
LINE
  5
3A1
330
23
100
AcDbEntity
  8
0
 62
     0
100
AcDbLine
 10
66.82600397322641
 20
19.09629624313445
 30
0.0
 11
66.96100397322642
 21
19.23129624313445
 31
0.0
  0
LINE
  5
3A2
330
23
100
AcDbEntity
  8
0
 62
     0
100
AcDbLine
 10
67.29327565447281
 20
18.50290775260103
 30
0.0
 11
67.4402363254893
 21
18.64986842361753
 31
0.0
  0
LINE
  5
3A3
330
23
100
AcDbEntity
  8
0
 62
     0
100
AcDbLine
 10
60.63881963754749
 20
19.09629624313445
 30
0.0
 11
60.77381963754749
 21
19.23129624313445
 31
0.0
  0
LINE
  5
3A4
330
23
100
AcDbEntity
  8
0
 62
     0
100
AcDbLine
 10
59.57815946576766
 20
19.09629624313445
 30
0.0
 11
59.71315946576767
 21
19.23129624313445
 31
0.0
  0
LINE
  5
3A5
330
23
100
AcDbEntity
  8
0
 62
     0
100
AcDbLine
 10
58.51749929398785
 20
19.09629624313445
 30
0.0
 11
58.65249929398785
 21
19.23129624313445
 31
0.0
  0
LINE
  5
3A6
330
23
100
AcDbEntity
  8
0
 62
     0
100
AcDbLine
 10
57.45683912220802
 20
19.09629624313445
 30
0.0
 11
57.59183912220803
 21
19.23129624313445
 31
0.0
  0
LINE
  5
3A7
330
23
100
AcDbEntity
  8
0
 62
     0
100
AcDbLine
 10
56.3961789504282
 20
19.09629624313445
 30
0.0
 11
56.53117895042822
 21
19.23129624313445
 31
0.0
  0
LINE
  5
3A8
330
23
100
AcDbEntity
  8
0
 62
     0
100
AcDbLine
 10
55.33551877864837
 20
19.09629624313445
 30
0.0
 11
55.47051877864839
 21
19.23129624313445
 31
0.0
  0
LINE
  5
3A9
330
23
100
AcDbEntity
  8
0
 62
     0
100
AcDbLine
 10
53.98304642397018
 20
18.80448406023608
 30
0.0
 11
54.14064244917249
 21
18.96208008543839
 31
0.0
  0
LINE
  5
3AA
330
23
100
AcDbEntity
  8
0
 62
     0
100
AcDbLine
 10
54.27485860686855
 20
19.09629624313445
 30
0.0
 11
54.40985860686857
 21
19.23129624313445
 31
0.0
  0
LINE
  5
3AB
330
23
100
AcDbEntity
  8
0
 62
     0
100
AcDbLine
 10
61.69947980932731
 20
19.09629624313445
 30
0.0
 11
61.83447980932731
 21
19.23129624313445
 31
0.0
  0
LINE
  5
3AC
330
23
100
AcDbEntity
  8
0
 62
     0
100
AcDbLine
 10
62.76013998110713
 20
19.09629624313445
 30
0.0
 11
62.89513998110713
 21
19.23129624313445
 31
0.0
  0
LINE
  5
3AD
330
23
100
AcDbEntity
  8
0
 62
     0
100
AcDbLine
 10
63.82080015288695
 20
19.09629624313445
 30
0.0
 11
63.95580015288696
 21
19.23129624313445
 31
0.0
  0
LINE
  5
3AE
330
23
100
AcDbEntity
  8
0
 62
     0
100
AcDbLine
 10
64.88146032466677
 20
19.09629624313445
 30
0.0
 11
65.01646032466678
 21
19.23129624313445
 31
0.0
  0
LINE
  5
3AF
330
23
100
AcDbEntity
  8
0
 62
     0
100
AcDbLine
 10
65.94212049644659
 20
19.09629624313445
 30
0.0
 11
66.0771204964466
 21
19.23129624313445
 31
0.0
  0
LINE
  5
3B0
330
23
100
AcDbEntity
  8
0
 62
     0
100
AcDbLine
 10
67.0027806682264
 20
19.09629624313445
 30
0.0
 11
67.13778066822642
 21
19.23129624313445
 31
0.0
  0
LINE
  5
3B1
330
23
100
AcDbEntity
  8
0
 62
     0
100
AcDbLine
 10
67.43844084000627
 20
18.47129624313448
 30
0.0
 11
67.44620120550678
 21
18.479056608635
 31
0.0
  0
LINE
  5
3B2
330
23
100
AcDbEntity
  8
0
 62
     0
100
AcDbLine
 10
60.81559633354748
 20
19.09629624313445
 30
0.0
 11
60.95059633354749
 21
19.23129624313445
 31
0.0
  0
LINE
  5
3B3
330
23
100
AcDbEntity
  8
0
 62
     0
100
AcDbLine
 10
59.75493616176766
 20
19.09629624313445
 30
0.0
 11
59.88993616176767
 21
19.23129624313445
 31
0.0
  0
LINE
  5
3B4
330
23
100
AcDbEntity
  8
0
 62
     0
100
AcDbLine
 10
58.69427598998784
 20
19.09629624313445
 30
0.0
 11
58.82927598998785
 21
19.23129624313445
 31
0.0
  0
LINE
  5
3B5
330
23
100
AcDbEntity
  8
0
 62
     0
100
AcDbLine
 10
57.63361581820802
 20
19.09629624313445
 30
0.0
 11
57.76861581820803
 21
19.23129624313445
 31
0.0
  0
LINE
  5
3B6
330
23
100
AcDbEntity
  8
0
 62
     0
100
AcDbLine
 10
56.5729556464282
 20
19.09629624313445
 30
0.0
 11
56.70795564642821
 21
19.23129624313445
 31
0.0
  0
LINE
  5
3B7
330
23
100
AcDbEntity
  8
0
 62
     0
100
AcDbLine
 10
55.51229547464838
 20
19.09629624313445
 30
0.0
 11
55.64729547464839
 21
19.23129624313445
 31
0.0
  0
LINE
  5
3B8
330
23
100
AcDbEntity
  8
0
 62
     0
100
AcDbLine
 10
53.97664987324422
 20
18.62131081351011
 30
0.0
 11
54.13424589844653
 21
18.77890683871242
 31
0.0
  0
LINE
  5
3B9
330
23
100
AcDbEntity
  8
0
 62
     0
100
AcDbLine
 10
54.45163530286855
 20
19.09629624313445
 30
0.0
 11
54.58663530286856
 21
19.23129624313445
 31
0.0
  0
LINE
  5
3BA
330
23
100
AcDbEntity
  8
0
 62
     0
100
AcDbLine
 10
61.8762565053273
 20
19.09629624313445
 30
0.0
 11
62.01125650532731
 21
19.23129624313445
 31
0.0
  0
LINE
  5
3BB
330
23
100
AcDbEntity
  8
0
 62
     0
100
AcDbLine
 10
62.93691667710713
 20
19.09629624313445
 30
0.0
 11
63.07191667710713
 21
19.23129624313445
 31
0.0
  0
LINE
  5
3BC
330
23
100
AcDbEntity
  8
0
 62
     0
100
AcDbLine
 10
63.99757684888695
 20
19.09629624313445
 30
0.0
 11
64.13257684888695
 21
19.23129624313445
 31
0.0
  0
LINE
  5
3BD
330
23
100
AcDbEntity
  8
0
 62
     0
100
AcDbLine
 10
65.05823702066677
 20
19.09629624313445
 30
0.0
 11
65.19323702066677
 21
19.23129624313445
 31
0.0
  0
LINE
  5
3BE
330
23
100
AcDbEntity
  8
0
 62
     0
100
AcDbLine
 10
66.11889719244659
 20
19.09629624313445
 30
0.0
 11
66.2538971924466
 21
19.23129624313445
 31
0.0
  0
LINE
  5
3BF
330
23
100
AcDbEntity
  8
0
 62
     0
100
AcDbLine
 10
67.17699974605283
 20
19.09373862496086
 30
0.0
 11
67.28887681470451
 21
19.20561569361254
 31
0.0
  0
LINE
  5
3C0
330
23
100
AcDbEntity
  8
0
 62
     0
100
AcDbLine
 10
59.93171285676766
 20
19.09629624313445
 30
0.0
 11
60.06671285676767
 21
19.23129624313445
 31
0.0
  0
LINE
  5
3C1
330
23
100
AcDbEntity
  8
0
 62
     0
100
AcDbLine
 10
58.87105268498784
 20
19.09629624313445
 30
0.0
 11
59.00605268498785
 21
19.23129624313445
 31
0.0
  0
LINE
  5
3C2
330
23
100
AcDbEntity
  8
0
 62
     0
100
AcDbLine
 10
57.81039251320802
 20
19.09629624313445
 30
0.0
 11
57.94539251320802
 21
19.23129624313445
 31
0.0
  0
LINE
  5
3C3
330
23
100
AcDbEntity
  8
0
 62
     0
100
AcDbLine
 10
56.7497323414282
 20
19.09629624313445
 30
0.0
 11
56.8847323414282
 21
19.23129624313445
 31
0.0
  0
LINE
  5
3C4
330
23
100
AcDbEntity
  8
0
 62
     0
100
AcDbLine
 10
55.68907216964838
 20
19.09629624313445
 30
0.0
 11
55.82407216964838
 21
19.23129624313445
 31
0.0
  0
LINE
  5
3C5
330
23
100
AcDbEntity
  8
0
 62
     0
100
AcDbLine
 10
54.00341199786856
 20
18.47129624313445
 30
0.0
 11
54.12784934775674
 21
18.59573359302264
 31
0.0
  0
LINE
  5
3C6
330
23
100
AcDbEntity
  8
0
 62
     0
100
AcDbLine
 10
54.62841199786855
 20
19.09629624313445
 30
0.0
 11
54.76341199786856
 21
19.23129624313445
 31
0.0
  0
LINE
  5
3C7
330
23
100
AcDbEntity
  8
0
 62
     0
100
AcDbLine
 10
60.99237302854748
 20
19.09629624313445
 30
0.0
 11
61.12737302854749
 21
19.23129624313445
 31
0.0
  0
LINE
  5
3C8
330
23
100
AcDbEntity
  8
0
 62
     0
100
AcDbLine
 10
62.0530332003273
 20
19.09629624313445
 30
0.0
 11
62.18803320032731
 21
19.23129624313445
 31
0.0
  0
LINE
  5
3C9
330
23
100
AcDbEntity
  8
0
 62
     0
100
AcDbLine
 10
63.11369337210712
 20
19.09629624313445
 30
0.0
 11
63.24869337210714
 21
19.23129624313445
 31
0.0
  0
LINE
  5
3CA
330
23
100
AcDbEntity
  8
0
 62
     0
100
AcDbLine
 10
64.17435354388695
 20
19.09629624313445
 30
0.0
 11
64.30935354388696
 21
19.23129624313445
 31
0.0
  0
LINE
  5
3CB
330
23
100
AcDbEntity
  8
0
 62
     0
100
AcDbLine
 10
65.23501371566677
 20
19.09629624313445
 30
0.0
 11
65.37001371566678
 21
19.23129624313445
 31
0.0
  0
LINE
  5
3CC
330
23
100
AcDbEntity
  8
0
 62
     0
100
AcDbLine
 10
66.2956738874466
 20
19.09629624313445
 30
0.0
 11
66.4306738874466
 21
19.23129624313445
 31
0.0
  0
LINE
  5
3CD
330
23
100
AcDbEntity
  8
0
 62
     0
100
AcDbLine
 10
67.27053654985535
 20
19.01049873376338
 30
0.0
 11
67.38388561945567
 21
19.1238478033637
 31
0.0
  0
ENDBLK
  5
3CE
330
23
100
AcDbEntity
  8
0
100
AcDbBlockEnd
  0
BLOCK
  5
3CF
330
24
100
AcDbEntity
  8
0
100
AcDbBlockBegin
  2
*X2
 70
     1
 10
0.0
 20
0.0
 30
0.0
  3
*X2
  1

  0
LINE
  5
3D0
330
24
100
AcDbEntity
  8
0
 62
     0
100
AcDbLine
 10
58.34322336277192
 20
35.00869958361586
 30
0.0
 11
58.47822336277192
 21
35.14369958361585
 31
0.0
  0
LINE
  5
3D1
330
24
100
AcDbEntity
  8
0
 62
     0
100
AcDbLine
 10
58.34322336277192
 20
36.06935975539567
 30
0.0
 11
58.47822336277192
 21
36.20435975539567
 31
0.0
  0
LINE
  5
3D2
330
24
100
AcDbEntity
  8
0
 62
     0
100
AcDbLine
 10
58.34322336277192
 20
37.1300199271755
 30
0.0
 11
58.47822336277192
 21
37.26501992717549
 31
0.0
  0
LINE
  5
3D3
330
24
100
AcDbEntity
  8
0
 62
     0
100
AcDbLine
 10
58.34322336277192
 20
38.19068009895532
 30
0.0
 11
58.47822336277192
 21
38.32568009895531
 31
0.0
  0
LINE
  5
3D4
330
24
100
AcDbEntity
  8
0
 62
     0
100
AcDbLine
 10
58.34322336277192
 20
39.25134027073514
 30
0.0
 11
58.47822336277192
 21
39.38634027073513
 31
0.0
  0
LINE
  5
3D5
330
24
100
AcDbEntity
  8
0
 62
     0
100
AcDbLine
 10
58.34322336277192
 20
40.31200044251496
 30
0.0
 11
58.47822336277192
 21
40.44700044251495
 31
0.0
  0
LINE
  5
3D6
330
24
100
AcDbEntity
  8
0
 62
     0
100
AcDbLine
 10
58.34322336277192
 20
41.37266061429478
 30
0.0
 11
58.47822336277192
 21
41.50766061429478
 31
0.0
  0
LINE
  5
3D7
330
24
100
AcDbEntity
  8
0
 62
     0
100
AcDbLine
 10
59.0723145997266
 20
42.10175185124945
 30
0.0
 11
59.10322336277191
 21
42.13266061429476
 31
0.0
  0
LINE
  5
3D8
330
24
100
AcDbEntity
  8
0
 62
     0
100
AcDbLine
 10
58.34322336277192
 20
33.94803941183603
 30
0.0
 11
58.47822336277192
 21
34.08303941183603
 31
0.0
  0
LINE
  5
3D9
330
24
100
AcDbEntity
  8
0
 62
     0
100
AcDbLine
 10
58.34322336277192
 20
32.88737924005622
 30
0.0
 11
58.47822336277192
 21
33.0223792400562
 31
0.0
  0
LINE
  5
3DA
330
24
100
AcDbEntity
  8
0
 62
     0
100
AcDbLine
 10
58.34322336277192
 20
31.82671906827639
 30
0.0
 11
58.47822336277192
 21
31.96171906827638
 31
0.0
  0
LINE
  5
3DB
330
24
100
AcDbEntity
  8
0
 62
     0
100
AcDbLine
 10
58.34322336277192
 20
30.76605889649657
 30
0.0
 11
58.47822336277192
 21
30.90105889649656
 31
0.0
  0
LINE
  5
3DC
330
24
100
AcDbEntity
  8
0
 62
     0
100
AcDbLine
 10
58.34322336277192
 20
29.70539872471675
 30
0.0
 11
58.47822336277192
 21
29.84039872471674
 31
0.0
  0
LINE
  5
3DD
330
24
100
AcDbEntity
  8
0
 62
     0
100
AcDbLine
 10
58.34322336277192
 20
28.64473855293693
 30
0.0
 11
58.47822336277192
 21
28.77973855293692
 31
0.0
  0
LINE
  5
3DE
330
24
100
AcDbEntity
  8
0
 62
     0
100
AcDbLine
 10
58.34322336277192
 20
27.5840783811571
 30
0.0
 11
58.47822336277192
 21
27.71907838115709
 31
0.0
  0
LINE
  5
3DF
330
24
100
AcDbEntity
  8
0
 62
     0
100
AcDbLine
 10
58.60981172193168
 20
26.79000656853704
 30
0.0
 11
58.75010763070579
 21
26.93030247731115
 31
0.0
  0
LINE
  5
3E0
330
24
100
AcDbEntity
  8
0
 62
     0
100
AcDbLine
 10
58.34322336277192
 20
34.83192288861585
 30
0.0
 11
58.47822336277192
 21
34.96692288861584
 31
0.0
  0
LINE
  5
3E1
330
24
100
AcDbEntity
  8
0
 62
     0
100
AcDbLine
 10
58.34322336277192
 20
35.89258306039568
 30
0.0
 11
58.47822336277192
 21
36.02758306039567
 31
0.0
  0
LINE
  5
3E2
330
24
100
AcDbEntity
  8
0
 62
     0
100
AcDbLine
 10
58.34322336277192
 20
36.9532432321755
 30
0.0
 11
58.47822336277192
 21
37.08824323217549
 31
0.0
  0
LINE
  5
3E3
330
24
100
AcDbEntity
  8
0
 62
     0
100
AcDbLine
 10
58.34322336277192
 20
38.01390340395532
 30
0.0
 11
58.47822336277192
 21
38.14890340395531
 31
0.0
  0
LINE
  5
3E4
330
24
100
AcDbEntity
  8
0
 62
     0
100
AcDbLine
 10
58.34322336277192
 20
39.07456357573514
 30
0.0
 11
58.47822336277192
 21
39.20956357573513
 31
0.0
  0
LINE
  5
3E5
330
24
100
AcDbEntity
  8
0
 62
     0
100
AcDbLine
 10
58.34322336277192
 20
40.13522374751496
 30
0.0
 11
58.47822336277192
 21
40.27022374751495
 31
0.0
  0
LINE
  5
3E6
330
24
100
AcDbEntity
  8
0
 62
     0
100
AcDbLine
 10
58.34322336277192
 20
41.19588391929478
 30
0.0
 11
58.47822336277192
 21
41.33088391929478
 31
0.0
  0
LINE
  5
3E7
330
24
100
AcDbEntity
  8
0
 62
     0
100
AcDbLine
 10
58.34322336277192
 20
33.77126271683603
 30
0.0
 11
58.47822336277192
 21
33.90626271683603
 31
0.0
  0
LINE
  5
3E8
330
24
100
AcDbEntity
  8
0
 62
     0
100
AcDbLine
 10
58.34322336277192
 20
32.71060254505621
 30
0.0
 11
58.47822336277192
 21
32.8456025450562
 31
0.0
  0
LINE
  5
3E9
330
24
100
AcDbEntity
  8
0
 62
     0
100
AcDbLine
 10
58.34322336277192
 20
31.64994237327639
 30
0.0
 11
58.47822336277192
 21
31.78494237327638
 31
0.0
  0
LINE
  5
3EA
330
24
100
AcDbEntity
  8
0
 62
     0
100
AcDbLine
 10
58.34322336277192
 20
30.58928220149657
 30
0.0
 11
58.47822336277192
 21
30.72428220149656
 31
0.0
  0
LINE
  5
3EB
330
24
100
AcDbEntity
  8
0
 62
     0
100
AcDbLine
 10
58.34322336277192
 20
29.52862202971675
 30
0.0
 11
58.47822336277192
 21
29.66362202971673
 31
0.0
  0
LINE
  5
3EC
330
24
100
AcDbEntity
  8
0
 62
     0
100
AcDbLine
 10
58.34322336277192
 20
28.46796185793693
 30
0.0
 11
58.47822336277192
 21
28.60296185793691
 31
0.0
  0
LINE
  5
3ED
330
24
100
AcDbEntity
  8
0
 62
     0
100
AcDbLine
 10
58.34322336277192
 20
27.4073016861571
 30
0.0
 11
58.47822336277192
 21
27.5423016861571
 31
0.0
  0
LINE
  5
3EE
330
24
100
AcDbEntity
  8
0
 62
     0
100
AcDbLine
 10
58.78062353691421
 20
26.78404168851957
 30
0.0
 11
58.92091944568832
 21
26.92433759729368
 31
0.0
  0
LINE
  5
3EF
330
24
100
AcDbEntity
  8
0
 62
     0
100
AcDbLine
 10
58.34322336277192
 20
34.65514619261585
 30
0.0
 11
58.47822336277192
 21
34.79014619261584
 31
0.0
  0
LINE
  5
3F0
330
24
100
AcDbEntity
  8
0
 62
     0
100
AcDbLine
 10
58.34322336277192
 20
35.71580636439568
 30
0.0
 11
58.47822336277192
 21
35.85080636439567
 31
0.0
  0
LINE
  5
3F1
330
24
100
AcDbEntity
  8
0
 62
     0
100
AcDbLine
 10
58.34322336277192
 20
36.7764665361755
 30
0.0
 11
58.47822336277192
 21
36.91146653617549
 31
0.0
  0
LINE
  5
3F2
330
24
100
AcDbEntity
  8
0
 62
     0
100
AcDbLine
 10
58.34322336277192
 20
37.83712670795532
 30
0.0
 11
58.47822336277192
 21
37.97212670795531
 31
0.0
  0
LINE
  5
3F3
330
24
100
AcDbEntity
  8
0
 62
     0
100
AcDbLine
 10
58.34322336277192
 20
38.89778687973514
 30
0.0
 11
58.47822336277192
 21
39.03278687973513
 31
0.0
  0
LINE
  5
3F4
330
24
100
AcDbEntity
  8
0
 62
     0
100
AcDbLine
 10
58.34322336277192
 20
39.95844705151496
 30
0.0
 11
58.47822336277192
 21
40.09344705151495
 31
0.0
  0
LINE
  5
3F5
330
24
100
AcDbEntity
  8
0
 62
     0
100
AcDbLine
 10
58.34322336277192
 20
41.01910722329478
 30
0.0
 11
58.47822336277192
 21
41.15410722329477
 31
0.0
  0
LINE
  5
3F6
330
24
100
AcDbEntity
  8
0
 62
     0
100
AcDbLine
 10
58.39264911144664
 20
42.12919314374931
 30
0.0
 11
58.44399210027956
 21
42.18053613258224
 31
0.0
  0
LINE
  5
3F7
330
24
100
AcDbEntity
  8
0
 62
     0
100
AcDbLine
 10
58.34322336277192
 20
33.59448602083603
 30
0.0
 11
58.47822336277192
 21
33.72948602083602
 31
0.0
  0
LINE
  5
3F8
330
24
100
AcDbEntity
  8
0
 62
     0
100
AcDbLine
 10
58.34322336277192
 20
32.53382584905621
 30
0.0
 11
58.47822336277192
 21
32.66882584905621
 31
0.0
  0
LINE
  5
3F9
330
24
100
AcDbEntity
  8
0
 62
     0
100
AcDbLine
 10
58.34322336277192
 20
31.47316567727639
 30
0.0
 11
58.47822336277192
 21
31.60816567727638
 31
0.0
  0
LINE
  5
3FA
330
24
100
AcDbEntity
  8
0
 62
     0
100
AcDbLine
 10
58.34322336277192
 20
30.41250550549657
 30
0.0
 11
58.47822336277192
 21
30.54750550549656
 31
0.0
  0
LINE
  5
3FB
330
24
100
AcDbEntity
  8
0
 62
     0
100
AcDbLine
 10
58.34322336277192
 20
29.35184533371675
 30
0.0
 11
58.47822336277192
 21
29.48684533371674
 31
0.0
  0
LINE
  5
3FC
330
24
100
AcDbEntity
  8
0
 62
     0
100
AcDbLine
 10
58.34322336277192
 20
28.29118516193693
 30
0.0
 11
58.47822336277192
 21
28.42618516193692
 31
0.0
  0
LINE
  5
3FD
330
24
100
AcDbEntity
  8
0
 62
     0
100
AcDbLine
 10
58.34322336277192
 20
27.23052499015711
 30
0.0
 11
58.47822336277192
 21
27.3655249901571
 31
0.0
  0
LINE
  5
3FE
330
24
100
AcDbEntity
  8
0
 62
     0
100
AcDbLine
 10
58.95143535286299
 20
26.77807680846835
 30
0.0
 11
59.0917312616371
 21
26.91837271724246
 31
0.0
  0
LINE
  5
3FF
330
24
100
AcDbEntity
  8
0
 62
     0
100
AcDbLine
 10
58.34322336277192
 20
34.47836949761586
 30
0.0
 11
58.47822336277192
 21
34.61336949761585
 31
0.0
  0
LINE
  5
400
330
24
100
AcDbEntity
  8
0
 62
     0
100
AcDbLine
 10
58.34322336277192
 20
35.53902966939568
 30
0.0
 11
58.47822336277192
 21
35.67402966939567
 31
0.0
  0
LINE
  5
401
330
24
100
AcDbEntity
  8
0
 62
     0
100
AcDbLine
 10
58.34322336277192
 20
36.5996898411755
 30
0.0
 11
58.47822336277192
 21
36.73468984117549
 31
0.0
  0
LINE
  5
402
330
24
100
AcDbEntity
  8
0
 62
     0
100
AcDbLine
 10
58.34322336277192
 20
37.66035001295532
 30
0.0
 11
58.47822336277192
 21
37.79535001295531
 31
0.0
  0
LINE
  5
403
330
24
100
AcDbEntity
  8
0
 62
     0
100
AcDbLine
 10
58.34322336277192
 20
38.72101018473514
 30
0.0
 11
58.47822336277192
 21
38.85601018473514
 31
0.0
  0
LINE
  5
404
330
24
100
AcDbEntity
  8
0
 62
     0
100
AcDbLine
 10
58.34322336277192
 20
39.78167035651497
 30
0.0
 11
58.47822336277192
 21
39.91667035651495
 31
0.0
  0
LINE
  5
405
330
24
100
AcDbEntity
  8
0
 62
     0
100
AcDbLine
 10
58.34322336277192
 20
40.84233052829477
 30
0.0
 11
58.47822336277192
 21
40.97733052829478
 31
0.0
  0
LINE
  5
406
330
24
100
AcDbEntity
  8
0
 62
     0
100
AcDbLine
 10
58.34322336277192
 20
41.9029907000746
 30
0.0
 11
58.67313759656643
 21
42.2329049338691
 31
0.0
  0
LINE
  5
407
330
24
100
AcDbEntity
  8
0
 62
     0
100
AcDbLine
 10
58.34322336277192
 20
33.41770932583604
 30
0.0
 11
58.47822336277192
 21
33.55270932583603
 31
0.0
  0
LINE
  5
408
330
24
100
AcDbEntity
  8
0
 62
     0
100
AcDbLine
 10
58.34322336277192
 20
32.35704915405622
 30
0.0
 11
58.47822336277192
 21
32.4920491540562
 31
0.0
  0
LINE
  5
409
330
24
100
AcDbEntity
  8
0
 62
     0
100
AcDbLine
 10
58.34322336277192
 20
31.29638898227639
 30
0.0
 11
58.47822336277192
 21
31.43138898227638
 31
0.0
  0
LINE
  5
40A
330
24
100
AcDbEntity
  8
0
 62
     0
100
AcDbLine
 10
58.34322336277192
 20
30.23572881049657
 30
0.0
 11
58.47822336277192
 21
30.37072881049657
 31
0.0
  0
LINE
  5
40B
330
24
100
AcDbEntity
  8
0
 62
     0
100
AcDbLine
 10
58.34322336277192
 20
29.17506863871675
 30
0.0
 11
58.47822336277192
 21
29.31006863871674
 31
0.0
  0
LINE
  5
40C
330
24
100
AcDbEntity
  8
0
 62
     0
100
AcDbLine
 10
58.34322336277192
 20
28.11440846693693
 30
0.0
 11
58.47822336277192
 21
28.24940846693692
 31
0.0
  0
LINE
  5
40D
330
24
100
AcDbEntity
  8
0
 62
     0
100
AcDbLine
 10
58.34322336277192
 20
27.05374829515711
 30
0.0
 11
58.47822336277192
 21
27.1887482951571
 31
0.0
  0
ENDBLK
  5
40E
330
24
100
AcDbEntity
  8
0
100
AcDbBlockEnd
  0
BLOCK
  5
40F
330
25
100
AcDbEntity
  8
0
100
AcDbBlockBegin
  2
SAAL
 70
     0
 10
0.0
 20
0.0
 30
0.0
  3
SAAL
  1

  0
TEXT
  5
410
330
25
100
AcDbEntity
  8
0
100
AcDbText
 10
-0.5040834610697376
 20
0.5122863324383254
 30
0.0
 40
0.156
  1
A
  7
COMPLEX
 72
     1
 11
-0.4297977467840233
 21
0.5122863324383254
 31
0.0
100
AcDbText
  0
INSERT
  5
411
330
25
100
AcDbEntity
  8
0
100
AcDbBlockReference
  2
*X4
 10
3.748701991468969
 20
-6.921648479033177
 30
0.0
 41
-1.0
  0
LINE
  5
412
330
25
100
AcDbEntity
  8
0
100
AcDbLine
 10
-0.4510248048477635
 20
0.2292366486465225
 30
0.0
 11
-0.4731800571979626
 21
0.2292366486465216
 31
0.0
  0
LINE
  5
413
330
25
100
AcDbEntity
  8
0
100
AcDbLine
 10
-0.3939751951522221
 20
0.2292366486465216
 30
0.0
 11
-0.3718199428020354
 21
0.2292366486465216
 31
0.0
  0
LINE
  5
414
330
25
100
AcDbEntity
  8
0
100
AcDbLine
 10
-0.3939751951522221
 20
0.2292366486465216
 30
0.0
 11
-0.4075000000000002
 21
0.2292366486465216
 31
0.0
  0
ARC
  5
415
330
25
100
AcDbEntity
  8
0
100
AcDbCircle
 10
-0.9224898749921969
 20
0.4486009293161688
 30
0.0
 40
0.5200000000000001
100
AcDbArc
 50
335.048281908222
 51
344.0535702443027
  0
ARC
  5
416
330
25
100
AcDbEntity
  8
0
100
AcDbCircle
 10
0.0774898749921995
 20
0.4486009293161688
 30
0.0
 40
0.5200000000000001
100
AcDbArc
 50
195.9464297556973
 51
204.9517180917784
  0
ARC
  5
417
330
25
100
AcDbEntity
  8
0
100
AcDbCircle
 10
-0.9224898749921969
 20
0.4486009293161688
 30
0.0
 40
0.5
100
AcDbArc
 50
333.9772135427694
 51
0.3646288638273872
  0
LINE
  5
418
330
25
100
AcDbEntity
  8
0
100
AcDbLine
 10
-0.4374999999999996
 20
0.2292366486465216
 30
0.0
 11
-0.4374999999999996
 21
0.2292366486465216
 31
0.0
  0
ARC
  5
419
330
25
100
AcDbEntity
  8
0
100
AcDbCircle
 10
0.0774898749921995
 20
0.4486009293161688
 30
0.0
 40
0.5
100
AcDbArc
 50
179.6353711361726
 51
206.0227864572306
  0
LINE
  5
41A
330
25
100
AcDbEntity
  8
0
100
AcDbLine
 10
-0.4571321552628534
 20
0.0
 30
0.0
 11
0.0
 21
0.0
 31
0.0
  0
LINE
  5
41B
330
25
100
AcDbEntity
  8
0
100
AcDbLine
 10
-0.4224999999999999
 20
0.0299999999999994
 30
0.0
 11
0.0000000000000009
 21
0.0299999999999994
 31
0.0
  0
LINE
  5
41C
330
25
100
AcDbEntity
  8
0
100
AcDbLine
 10
-0.4374999999999996
 20
0.2292366486465216
 30
0.0
 11
-0.4374999999999996
 21
-0.017923002649547
 31
0.0
  0
LINE
  5
41D
330
25
100
AcDbEntity
  8
0
100
AcDbLine
 10
-0.4075000000000002
 20
0.2292366486465216
 30
0.0
 11
-0.4074999999999993
 21
0.0149999999999988
 31
0.0
  0
LINE
  5
41E
330
25
100
AcDbEntity
  8
0
100
AcDbLine
 10
-0.4374999999999987
 20
0.2292366486465216
 30
0.0
 11
-0.4510248048477635
 21
0.2292366486465225
 31
0.0
  0
ENDBLK
  5
41F
330
25
100
AcDbEntity
  8
0
100
AcDbBlockEnd
  0
BLOCK
  5
420
330
26
100
AcDbEntity
  8
0
100
AcDbBlockBegin
  2
*X4
 70
     1
 10
0.0
 20
0.0
 30
0.0
  3
*X4
  1

  0
LINE
  5
421
330
26
100
AcDbEntity
  8
0
 62
     0
100
AcDbLine
 10
4.158042821030212
 20
7.25625
 30
0.0
 11
4.184361161907728
 21
7.25625
 31
0.0
  0
LINE
  5
422
330
26
100
AcDbEntity
  8
0
 62
     0
100
AcDbLine
 10
4.159464167164085
 20
7.2625
 30
0.0
 11
4.182939815773856
 21
7.2625
 31
0.0
  0
LINE
  5
423
330
26
100
AcDbEntity
  8
0
 62
     0
100
AcDbLine
 10
4.160801607892522
 20
7.26875
 30
0.0
 11
4.181602375045417
 21
7.26875
 31
0.0
  0
LINE
  5
424
330
26
100
AcDbEntity
  8
0
 62
     0
100
AcDbLine
 10
4.162055829087108
 20
7.275
 30
0.0
 11
4.180348153850832
 21
7.275
 31
0.0
  0
LINE
  5
425
330
26
100
AcDbEntity
  8
0
 62
     0
100
AcDbLine
 10
4.163227467165616
 20
7.28125
 30
0.0
 11
4.179176515772323
 21
7.28125
 31
0.0
  0
LINE
  5
426
330
26
100
AcDbEntity
  8
0
 62
     0
100
AcDbLine
 10
4.1643171107912
 20
7.2875
 30
0.0
 11
4.178086872146739
 21
7.2875
 31
0.0
  0
LINE
  5
427
330
26
100
AcDbEntity
  8
0
 62
     0
100
AcDbLine
 10
4.165325302419223
 20
7.29375
 30
0.0
 11
4.177078680518715
 21
7.29375
 31
0.0
  0
LINE
  5
428
330
26
100
AcDbEntity
  8
0
 62
     0
100
AcDbLine
 10
4.16625253970155
 20
7.3
 30
0.0
 11
4.17615144323639
 21
7.3
 31
0.0
  0
LINE
  5
429
330
26
100
AcDbEntity
  8
0
 62
     0
100
AcDbLine
 10
4.167099276757146
 20
7.30625
 30
0.0
 11
4.175304706180795
 21
7.30625
 31
0.0
  0
LINE
  5
42A
330
26
100
AcDbEntity
  8
0
 62
     0
100
AcDbLine
 10
4.167865925316793
 20
7.3125
 30
0.0
 11
4.174538057621145
 21
7.3125
 31
0.0
  0
LINE
  5
42B
330
26
100
AcDbEntity
  8
0
 62
     0
100
AcDbLine
 10
4.16855285574882
 20
7.31875
 30
0.0
 11
4.17385112718912
 21
7.31875
 31
0.0
  0
LINE
  5
42C
330
26
100
AcDbEntity
  8
0
 62
     0
100
AcDbLine
 10
4.169160397971983
 20
7.325
 30
0.0
 11
4.173243584965957
 21
7.325
 31
0.0
  0
LINE
  5
42D
330
26
100
AcDbEntity
  8
0
 62
     0
100
AcDbLine
 10
4.169688842260835
 20
7.33125
 30
0.0
 11
4.172715140677103
 21
7.33125
 31
0.0
  0
LINE
  5
42E
330
26
100
AcDbEntity
  8
0
 62
     0
100
AcDbLine
 10
4.170138439948251
 20
7.3375
 30
0.0
 11
4.172265542989687
 21
7.3375
 31
0.0
  0
LINE
  5
42F
330
26
100
AcDbEntity
  8
0
 62
     0
100
AcDbLine
 10
4.170509404029122
 20
7.34375
 30
0.0
 11
4.171894578908817
 21
7.34375
 31
0.0
  0
LINE
  5
430
330
26
100
AcDbEntity
  8
0
 62
     0
100
AcDbLine
 10
4.170801909668647
 20
7.35
 30
0.0
 11
4.171602073269292
 21
7.35
 31
0.0
  0
LINE
  5
431
330
26
100
AcDbEntity
  8
0
 62
     0
100
AcDbLine
 10
4.171016094618071
 20
7.35625
 30
0.0
 11
4.171387888319867
 21
7.35625
 31
0.0
  0
LINE
  5
432
330
26
100
AcDbEntity
  8
0
 62
     0
100
AcDbLine
 10
4.171152059540171
 20
7.3625
 30
0.0
 11
4.171251923397766
 21
7.3625
 31
0.0
  0
LINE
  5
433
330
26
100
AcDbEntity
  8
0
 62
     0
100
AcDbLine
 10
4.17119411469162
 20
7.36875
 30
0.0
 11
4.171209868246319
 21
7.36875
 31
0.0
  0
LINE
  5
434
330
26
100
AcDbEntity
  8
0
 62
     0
100
AcDbLine
 10
4.156536832302816
 20
7.25
 30
0.0
 11
4.185867150635123
 21
7.25
 31
0.0
  0
LINE
  5
435
330
26
100
AcDbEntity
  8
0
 62
     0
100
AcDbLine
 10
4.154945410438709
 20
7.24375
 30
0.0
 11
4.187458572499231
 21
7.24375
 31
0.0
  0
LINE
  5
436
330
26
100
AcDbEntity
  8
0
 62
     0
100
AcDbLine
 10
4.153267709311144
 20
7.2375
 30
0.0
 11
4.189136273626795
 21
7.2375
 31
0.0
  0
LINE
  5
437
330
26
100
AcDbEntity
  8
0
 62
     0
100
AcDbLine
 10
4.151502824775956
 20
7.23125
 30
0.0
 11
4.190901158161984
 21
7.23125
 31
0.0
  0
LINE
  5
438
330
26
100
AcDbEntity
  8
0
 62
     0
100
AcDbLine
 10
4.149649792014731
 20
7.225
 30
0.0
 11
4.170514238817704
 21
7.225
 31
0.0
  0
LINE
  5
439
330
26
100
AcDbEntity
  8
0
 62
     0
100
AcDbLine
 10
4.17188974412022
 20
7.225
 30
0.0
 11
4.192754190923209
 21
7.225
 31
0.0
  0
LINE
  5
43A
330
26
100
AcDbEntity
  8
0
 62
     0
100
AcDbLine
 10
4.147707582635473
 20
7.21875
 30
0.0
 11
4.16865349922432
 21
7.21875
 31
0.0
  0
LINE
  5
43B
330
26
100
AcDbEntity
  8
0
 62
     0
100
AcDbLine
 10
4.173750483713604
 20
7.21875
 30
0.0
 11
4.194696400302465
 21
7.21875
 31
0.0
  0
LINE
  5
43C
330
26
100
AcDbEntity
  8
0
 62
     0
100
AcDbLine
 10
4.145675101508724
 20
7.2125
 30
0.0
 11
4.166706944063726
 21
7.2125
 31
0.0
  0
LINE
  5
43D
330
26
100
AcDbEntity
  8
0
 62
     0
100
AcDbLine
 10
4.175697038874197
 20
7.2125
 30
0.0
 11
4.196728881429214
 21
7.2125
 31
0.0
  0
LINE
  5
43E
330
26
100
AcDbEntity
  8
0
 62
     0
100
AcDbLine
 10
4.143551183314425
 20
7.20625
 30
0.0
 11
4.164673557788107
 21
7.20625
 31
0.0
  0
LINE
  5
43F
330
26
100
AcDbEntity
  8
0
 62
     0
100
AcDbLine
 10
4.17773042514982
 20
7.20625
 30
0.0
 11
4.198852799623516
 21
7.20625
 31
0.0
  0
LINE
  5
440
330
26
100
AcDbEntity
  8
0
 62
     0
100
AcDbLine
 10
4.141334588771703
 20
7.2
 30
0.0
 11
4.162552262360144
 21
7.2
 31
0.0
  0
LINE
  5
441
330
26
100
AcDbEntity
  8
0
 62
     0
100
AcDbLine
 10
4.179851720577784
 20
7.2
 30
0.0
 11
4.201069394166239
 21
7.2
 31
0.0
  0
LINE
  5
442
330
26
100
AcDbEntity
  8
0
 62
     0
100
AcDbLine
 10
4.139024000520274
 20
7.19375
 30
0.0
 11
4.160341914027816
 21
7.19375
 31
0.0
  0
LINE
  5
443
330
26
100
AcDbEntity
  8
0
 62
     0
100
AcDbLine
 10
4.182062068910108
 20
7.19375
 30
0.0
 11
4.203379982417666
 21
7.19375
 31
0.0
  0
LINE
  5
444
330
26
100
AcDbEntity
  8
0
 62
     0
100
AcDbLine
 10
4.136618018618079
 20
7.1875
 30
0.0
 11
4.158041299813144
 21
7.1875
 31
0.0
  0
LINE
  5
445
330
26
100
AcDbEntity
  8
0
 62
     0
100
AcDbLine
 10
4.18436268312478
 20
7.1875
 30
0.0
 11
4.20578596431986
 21
7.1875
 31
0.0
  0
LINE
  5
446
330
26
100
AcDbEntity
  8
0
 62
     0
100
AcDbLine
 10
4.134115155615204
 20
7.18125
 30
0.0
 11
4.155649133687051
 21
7.18125
 31
0.0
  0
LINE
  5
447
330
26
100
AcDbEntity
  8
0
 62
     0
100
AcDbLine
 10
4.186754849250876
 20
7.18125
 30
0.0
 11
4.208288827322737
 21
7.18125
 31
0.0
  0
LINE
  5
448
330
26
100
AcDbEntity
  8
0
 62
     0
100
AcDbLine
 10
4.131513831158817
 20
7.175
 30
0.0
 11
4.153164052399043
 21
7.175
 31
0.0
  0
LINE
  5
449
330
26
100
AcDbEntity
  8
0
 62
     0
100
AcDbLine
 10
4.189239930538879
 20
7.175
 30
0.0
 11
4.210890151779121
 21
7.175
 31
0.0
  0
LINE
  5
44A
330
26
100
AcDbEntity
  8
0
 62
     0
100
AcDbLine
 10
4.128812366077735
 20
7.16875
 30
0.0
 11
4.1505846109264
 21
7.16875
 31
0.0
  0
LINE
  5
44B
330
26
100
AcDbEntity
  8
0
 62
     0
100
AcDbLine
 10
4.191819372011525
 20
7.16875
 30
0.0
 11
4.213591616860204
 21
7.16875
 31
0.0
  0
LINE
  5
44C
330
26
100
AcDbEntity
  8
0
 62
     0
100
AcDbLine
 10
4.126008975888199
 20
7.1625
 30
0.0
 11
4.147909277503027
 21
7.1625
 31
0.0
  0
LINE
  5
44D
330
26
100
AcDbEntity
  8
0
 62
     0
100
AcDbLine
 10
4.194494705434896
 20
7.1625
 30
0.0
 11
4.216395007049741
 21
7.1625
 31
0.0
  0
LINE
  5
44E
330
26
100
AcDbEntity
  8
0
 62
     0
100
AcDbLine
 10
4.123101763654189
 20
7.15625
 30
0.0
 11
4.145136428182898
 21
7.15625
 31
0.0
  0
LINE
  5
44F
330
26
100
AcDbEntity
  8
0
 62
     0
100
AcDbLine
 10
4.197267554755029
 20
7.15625
 30
0.0
 11
4.219302219283752
 21
7.15625
 31
0.0
  0
ENDBLK
  5
450
330
26
100
AcDbEntity
  8
0
100
AcDbBlockEnd
  0
BLOCK
  5
451
330
27
100
AcDbEntity
  8
0
100
AcDbBlockBegin
  2
*D5
 70
     1
 10
0.0
 20
0.0
 30
0.0
  3
*D5
  1

  0
LINE
  5
452
330
27
100
AcDbEntity
  8
0
  6
ByBlock
 62
     0
100
AcDbLine
 10
65.02559205710614
 20
16.88659786261341
 30
0.0
 11
65.02559205710614
 21
13.29849930616048
 31
0.0
  0
LINE
  5
453
330
27
100
AcDbEntity
  8
0
  6
ByBlock
 62
     0
100
AcDbLine
 10
76.55046297130315
 20
16.88659786261341
 30
0.0
 11
76.55046297130315
 21
13.29849930616048
 31
0.0
  0
LINE
  5
454
330
27
100
AcDbEntity
  8
0
  6
ByBlock
 62
     0
100
AcDbLine
 10
65.30659205710614
 20
13.67349930616049
 30
0.0
 11
69.57036084753797
 21
13.67349930616049
 31
0.0
  0
LINE
  5
455
330
27
100
AcDbEntity
  8
0
  6
ByBlock
 62
     0
100
AcDbLine
 10
76.26946297130314
 20
13.67349930616049
 30
0.0
 11
72.00569418087131
 21
13.67349930616049
 31
0.0
  0
SOLID
  5
456
330
27
100
AcDbEntity
  8
0
  6
ByBlock
 62
     0
100
AcDbTrace
 10
65.30659205710614
 20
13.62666597282715
 30
0.0
 11
65.30659205710614
 21
13.72033263949382
 31
0.0
 12
65.02559205710614
 22
13.67349930616049
 32
0.0
 13
65.02559205710614
 23
13.67349930616049
 33
0.0
  0
SOLID
  5
457
330
27
100
AcDbEntity
  8
0
  6
ByBlock
 62
     0
100
AcDbTrace
 10
76.26946297130314
 20
13.62666597282715
 30
0.0
 11
76.26946297130314
 21
13.72033263949382
 31
0.0
 12
76.55046297130315
 22
13.67349930616049
 32
0.0
 13
76.55046297130315
 23
13.67349930616049
 33
0.0
  0
TEXT
  5
458
330
27
100
AcDbEntity
  8
0
  6
ByBlock
 62
     0
100
AcDbText
 10
69.85136084753797
 20
13.53299930616049
 30
0.0
 40
0.281
  1
11 17/32
100
AcDbText
  0
POINT
  5
459
330
27
100
AcDbEntity
  8
DEFPOINTS
  6
ByBlock
 62
     0
100
AcDbPoint
 10
65.02559205710614
 20
17.07359786261341
 30
0.0
  0
POINT
  5
45A
330
27
100
AcDbEntity
  8
DEFPOINTS
  6
ByBlock
 62
     0
100
AcDbPoint
 10
76.55046297130315
 20
17.07359786261341
 30
0.0
  0
POINT
  5
45B
330
27
100
AcDbEntity
  8
DEFPOINTS
  6
ByBlock
 62
     0
100
AcDbPoint
 10
76.55046297130315
 20
13.67349930616049
 30
0.0
  0
ENDBLK
  5
45C
330
27
100
AcDbEntity
  8
0
100
AcDbBlockEnd
  0
BLOCK
  5
45D
330
28
100
AcDbEntity
  8
0
100
AcDbBlockBegin
  2
*D6
 70
     1
 10
0.0
 20
0.0
 30
0.0
  3
*D6
  1

  0
LINE
  5
45E
330
28
100
AcDbEntity
  8
0
  6
ByBlock
 62
     0
100
AcDbLine
 10
65.66302751420464
 20
16.89141555699217
 30
0.0
 11
65.66302751420464
 21
14.77462383052094
 31
0.0
  0
LINE
  5
45F
330
28
100
AcDbEntity
  8
0
  6
ByBlock
 62
     0
100
AcDbLine
 10
75.91302751420463
 20
16.89141555699217
 30
0.0
 11
75.91302751420463
 21
14.77462383052094
 31
0.0
  0
LINE
  5
460
330
28
100
AcDbEntity
  8
0
  6
ByBlock
 62
     0
100
AcDbLine
 10
65.94402751420465
 20
15.14962383052093
 30
0.0
 11
69.8279441808713
 21
15.14962383052093
 31
0.0
  0
LINE
  5
461
330
28
100
AcDbEntity
  8
0
  6
ByBlock
 62
     0
100
AcDbLine
 10
75.63202751420462
 20
15.14962383052093
 30
0.0
 11
71.74811084753796
 21
15.14962383052093
 31
0.0
  0
SOLID
  5
462
330
28
100
AcDbEntity
  8
0
  6
ByBlock
 62
     0
100
AcDbTrace
 10
65.94402751420465
 20
15.1027904971876
 30
0.0
 11
65.94402751420465
 21
15.19645716385427
 31
0.0
 12
65.66302751420464
 22
15.14962383052093
 32
0.0
 13
65.66302751420464
 23
15.14962383052093
 33
0.0
  0
SOLID
  5
463
330
28
100
AcDbEntity
  8
0
  6
ByBlock
 62
     0
100
AcDbTrace
 10
75.63202751420462
 20
15.1027904971876
 30
0.0
 11
75.63202751420462
 21
15.19645716385427
 31
0.0
 12
75.91302751420463
 22
15.14962383052093
 32
0.0
 13
75.91302751420463
 23
15.14962383052093
 33
0.0
  0
TEXT
  5
464
330
28
100
AcDbEntity
  8
0
  6
ByBlock
 62
     0
100
AcDbText
 10
70.10894418087129
 20
15.00912383052094
 30
0.0
 40
0.281
  1
10 1/4
100
AcDbText
  0
POINT
  5
465
330
28
100
AcDbEntity
  8
DEFPOINTS
  6
ByBlock
 62
     0
100
AcDbPoint
 10
65.66302751420464
 20
17.07841555699217
 30
0.0
  0
POINT
  5
466
330
28
100
AcDbEntity
  8
DEFPOINTS
  6
ByBlock
 62
     0
100
AcDbPoint
 10
75.91302751420463
 20
17.07841555699217
 30
0.0
  0
POINT
  5
467
330
28
100
AcDbEntity
  8
DEFPOINTS
  6
ByBlock
 62
     0
100
AcDbPoint
 10
75.91302751420463
 20
15.14962383052093
 30
0.0
  0
ENDBLK
  5
468
330
28
100
AcDbEntity
  8
0
100
AcDbBlockEnd
  0
BLOCK
  5
469
330
29
100
AcDbEntity
  8
0
100
AcDbBlockBegin
  2
SAATX
 70
     0
 10
0.0
 20
0.0
 30
0.0
  3
SAATX
  1

  0
LINE
  5
46A
330
29
100
AcDbEntity
  8
0
100
AcDbLine
 10
-0.8421662700371435
 20
0.0
 30
0.0
 11
0.8421662700371435
 21
0.0
 31
0.0
  0
LINE
  5
46B
330
29
100
AcDbEntity
  8
0
100
AcDbLine
 10
-0.8421662700371435
 20
0.0199999999999996
 30
0.0
 11
0.8421662700371435
 21
0.0199999999999996
 31
0.0
  0
TEXT
  5
46C
330
29
100
AcDbEntity
  8
0
100
AcDbText
 10
-0.8455144018028244
 20
0.0551412039750448
 30
0.0
 40
0.156
  1
SECTION A-A
  7
COMPLEX
100
AcDbText
  0
ENDBLK
  5
46D
330
29
100
AcDbEntity
  8
0
100
AcDbBlockEnd
  0
BLOCK
  5
46E
330
2A
100
AcDbEntity
  8
0
100
AcDbBlockBegin
  2
SBBTX
 70
     0
 10
0.0
 20
0.0
 30
0.0
  3
SBBTX
  1

  0
LINE
  5
46F
330
2A
100
AcDbEntity
  8
0
100
AcDbLine
 10
-0.8421662700371435
 20
0.0199999999999996
 30
0.0
 11
0.8421662700371435
 21
0.0199999999999996
 31
0.0
  0
LINE
  5
470
330
2A
100
AcDbEntity
  8
0
100
AcDbLine
 10
-0.8421662700371435
 20
0.0
 30
0.0
 11
0.8421662700371435
 21
0.0
 31
0.0
  0
TEXT
  5
471
330
2A
100
AcDbEntity
  8
0
100
AcDbText
 10
-0.8455144018028244
 20
0.0554512145058732
 30
0.0
 40
0.156
  1
SECTION B-B
  7
COMPLEX
100
AcDbText
  0
ENDBLK
  5
472
330
2A
100
AcDbEntity
  8
0
100
AcDbBlockEnd
  0
BLOCK
  5
473
330
2B
100
AcDbEntity
  8
0
100
AcDbBlockBegin
  2
*D9
 70
     1
 10
0.0
 20
0.0
 30
0.0
  3
*D9
  1

  0
LINE
  5
474
330
2B
100
AcDbEntity
  8
0
  6
ByBlock
 62
     0
100
AcDbLine
 10
64.52289587241215
 20
22.89841555699217
 30
0.0
 11
66.14955427420591
 21
22.89841555699217
 31
0.0
  0
LINE
  5
475
330
2B
100
AcDbEntity
  8
0
  6
ByBlock
 62
     0
100
AcDbLine
 10
64.49622862241099
 20
23.03341555699217
 30
0.0
 11
66.14955427420591
 21
23.03341555699217
 31
0.0
  0
LINE
  5
476
330
2B
100
AcDbEntity
  8
0
  6
ByBlock
 62
     0
100
AcDbLine
 10
65.77455427420591
 20
23.31441555699218
 30
0.0
 11
65.77455427420591
 21
23.59541555699218
 31
0.0
  0
LINE
  5
477
330
2B
100
AcDbEntity
  8
0
  6
ByBlock
 62
     0
100
AcDbLine
 10
65.77455427420591
 20
22.61741555699217
 30
0.0
 11
65.77455427420591
 21
22.33641555699217
 31
0.0
  0
LINE
  5
478
330
2B
100
AcDbEntity
  8
0
  6
ByBlock
 62
     0
100
AcDbLine
 10
65.77455427420591
 20
23.59541555699218
 30
0.0
 11
66.05555427420592
 21
23.59541555699218
 31
0.0
  0
SOLID
  5
479
330
2B
100
AcDbEntity
  8
0
  6
ByBlock
 62
     0
100
AcDbTrace
 10
65.82138760753925
 20
23.31441555699218
 30
0.0
 11
65.72772094087257
 21
23.31441555699218
 31
0.0
 12
65.77455427420591
 22
23.03341555699217
 32
0.0
 13
65.77455427420591
 23
23.03341555699217
 33
0.0
  0
SOLID
  5
47A
330
2B
100
AcDbEntity
  8
0
  6
ByBlock
 62
     0
100
AcDbTrace
 10
65.82138760753925
 20
22.61741555699217
 30
0.0
 11
65.72772094087257
 21
22.61741555699217
 31
0.0
 12
65.77455427420591
 22
22.89841555699217
 32
0.0
 13
65.77455427420591
 23
22.89841555699217
 33
0.0
  0
TEXT
  5
47B
330
2B
100
AcDbEntity
  8
0
  6
ByBlock
 62
     0
100
AcDbText
 10
66.33655427420591
 20
23.45491555699218
 30
0.0
 40
0.281
  1
0.135
100
AcDbText
  0
POINT
  5
47C
330
2B
100
AcDbEntity
  8
DEFPOINTS
  6
ByBlock
 62
     0
100
AcDbPoint
 10
64.33589587241215
 20
22.89841555699217
 30
0.0
  0
POINT
  5
47D
330
2B
100
AcDbEntity
  8
DEFPOINTS
  6
ByBlock
 62
     0
100
AcDbPoint
 10
64.309228622411
 20
23.03341555699217
 30
0.0
  0
POINT
  5
47E
330
2B
100
AcDbEntity
  8
DEFPOINTS
  6
ByBlock
 62
     0
100
AcDbPoint
 10
65.77455427420591
 20
23.03341555699217
 30
0.0
  0
ENDBLK
  5
47F
330
2B
100
AcDbEntity
  8
0
100
AcDbBlockEnd
  0
BLOCK
  5
480
330
2C
100
AcDbEntity
  8
0
100
AcDbBlockBegin
  2
*D10
 70
     1
 10
0.0
 20
0.0
 30
0.0
  3
*D10
  1

  0
LINE
  5
481
330
2C
100
AcDbEntity
  8
0
  6
ByBlock
 62
     0
100
AcDbLine
 10
17.67883603303859
 20
30.57289556822043
 30
0.0
 11
12.13682623075773
 21
30.57289556822043
 31
0.0
  0
LINE
  5
482
330
2C
100
AcDbEntity
  8
0
  6
ByBlock
 62
     0
100
AcDbLine
 10
17.67883603303859
 20
46.05004317363017
 30
0.0
 11
12.13682623075774
 21
46.05004317363017
 31
0.0
  0
LINE
  5
483
330
2C
100
AcDbEntity
  8
0
  6
ByBlock
 62
     0
100
AcDbLine
 10
12.51182623075773
 20
30.85389556822043
 30
0.0
 11
12.51182623075773
 21
37.8899693709253
 31
0.0
  0
LINE
  5
484
330
2C
100
AcDbEntity
  8
0
  6
ByBlock
 62
     0
100
AcDbLine
 10
12.51182623075774
 20
45.76904317363017
 30
0.0
 11
12.51182623075773
 21
38.73296937092531
 31
0.0
  0
SOLID
  5
485
330
2C
100
AcDbEntity
  8
0
  6
ByBlock
 62
     0
100
AcDbTrace
 10
12.55865956409107
 20
30.85389556822043
 30
0.0
 11
12.4649928974244
 21
30.85389556822043
 31
0.0
 12
12.51182623075773
 22
30.57289556822043
 32
0.0
 13
12.51182623075773
 23
30.57289556822043
 33
0.0
  0
SOLID
  5
486
330
2C
100
AcDbEntity
  8
0
  6
ByBlock
 62
     0
100
AcDbTrace
 10
12.55865956409107
 20
45.76904317363017
 30
0.0
 11
12.4649928974244
 21
45.76904317363017
 31
0.0
 12
12.51182623075774
 22
46.05004317363017
 32
0.0
 13
12.51182623075774
 23
46.05004317363017
 33
0.0
  0
TEXT
  5
487
330
2C
100
AcDbEntity
  8
0
  6
ByBlock
 62
     0
100
AcDbText
 10
11.52832623075773
 20
38.1709693709253
 30
0.0
 40
0.281
  1
15 15/32
100
AcDbText
  0
POINT
  5
488
330
2C
100
AcDbEntity
  8
DEFPOINTS
  6
ByBlock
 62
     0
100
AcDbPoint
 10
17.86583603303859
 20
30.57289556822043
 30
0.0
  0
POINT
  5
489
330
2C
100
AcDbEntity
  8
DEFPOINTS
  6
ByBlock
 62
     0
100
AcDbPoint
 10
17.86583603303859
 20
46.05004317363017
 30
0.0
  0
POINT
  5
48A
330
2C
100
AcDbEntity
  8
DEFPOINTS
  6
ByBlock
 62
     0
100
AcDbPoint
 10
12.51182623075774
 20
46.05004317363017
 30
0.0
  0
ENDBLK
  5
48B
330
2C
100
AcDbEntity
  8
0
100
AcDbBlockEnd
  0
BLOCK
  5
4A4
330
2F
100
AcDbEntity
  8
0
100
AcDbBlockBegin
  2
*D13
 70
     1
 10
0.0
 20
0.0
 30
0.0
  3
*D13
  1

  0
LINE
  5
4A5
330
2F
100
AcDbEntity
  8
0
  6
ByBlock
 62
     0
100
AcDbLine
 10
29.43720268252692
 20
16.82841555699217
 30
0.0
 11
33.48294874081844
 21
16.82841555699217
 31
0.0
  0
LINE
  5
4A6
330
2F
100
AcDbEntity
  8
0
  6
ByBlock
 62
     0
100
AcDbLine
 10
30.2599740545231
 20
23.03341555699216
 30
0.0
 11
33.48294874081844
 21
23.03341555699216
 31
0.0
  0
LINE
  5
4A7
330
2F
100
AcDbEntity
  8
0
  6
ByBlock
 62
     0
100
AcDbLine
 10
33.10794874081845
 20
17.10941555699217
 30
0.0
 11
33.10794874081845
 21
19.50941555699216
 31
0.0
  0
LINE
  5
4A8
330
2F
100
AcDbEntity
  8
0
  6
ByBlock
 62
     0
100
AcDbLine
 10
33.10794874081845
 20
22.75241555699216
 30
0.0
 11
33.10794874081845
 21
20.35241555699216
 31
0.0
  0
SOLID
  5
4A9
330
2F
100
AcDbEntity
  8
0
  6
ByBlock
 62
     0
100
AcDbTrace
 10
33.15478207415178
 20
17.10941555699217
 30
0.0
 11
33.06111540748511
 21
17.10941555699217
 31
0.0
 12
33.10794874081845
 22
16.82841555699217
 32
0.0
 13
33.10794874081845
 23
16.82841555699217
 33
0.0
  0
SOLID
  5
4AA
330
2F
100
AcDbEntity
  8
0
  6
ByBlock
 62
     0
100
AcDbTrace
 10
33.15478207415178
 20
22.75241555699216
 30
0.0
 11
33.06111540748511
 21
22.75241555699216
 31
0.0
 12
33.10794874081845
 22
23.03341555699216
 32
0.0
 13
33.10794874081845
 23
23.03341555699216
 33
0.0
  0
TEXT
  5
4AB
330
2F
100
AcDbEntity
  8
0
  6
ByBlock
 62
     0
100
AcDbText
 10
32.49911540748511
 20
19.79041555699216
 30
0.0
 40
0.281
  1
6 1/4
100
AcDbText
  0
POINT
  5
4AC
330
2F
100
AcDbEntity
  8
DEFPOINTS
  6
ByBlock
 62
     0
100
AcDbPoint
 10
29.25020268252692
 20
16.82841555699217
 30
0.0
  0
POINT
  5
4AD
330
2F
100
AcDbEntity
  8
DEFPOINTS
  6
ByBlock
 62
     0
100
AcDbPoint
 10
30.0729740545231
 20
23.03341555699216
 30
0.0
  0
POINT
  5
4AE
330
2F
100
AcDbEntity
  8
DEFPOINTS
  6
ByBlock
 62
     0
100
AcDbPoint
 10
33.10794874081845
 20
23.03341555699216
 30
0.0
  0
ENDBLK
  5
4AF
330
2F
100
AcDbEntity
  8
0
100
AcDbBlockEnd
  0
BLOCK
  5
4B0
330
30
100
AcDbEntity
  8
0
100
AcDbBlockBegin
  2
*D14
 70
     1
 10
0.0
 20
0.0
 30
0.0
  3
*D14
  1

  0
LINE
  5
4B1
330
30
100
AcDbEntity
  8
0
  6
ByBlock
 62
     0
100
AcDbLine
 10
29.56220268252693
 20
16.82841555699217
 30
0.0
 11
30.85859970021438
 21
16.82841555699217
 31
0.0
  0
LINE
  5
4B2
330
30
100
AcDbEntity
  8
0
  6
ByBlock
 62
     0
100
AcDbLine
 10
29.20592435020867
 20
17.07841555699217
 30
0.0
 11
30.85859970021438
 21
17.07841555699217
 31
0.0
  0
LINE
  5
4B3
330
30
100
AcDbEntity
  8
0
  6
ByBlock
 62
     0
100
AcDbLine
 10
30.48359970021438
 20
17.35941555699216
 30
0.0
 11
30.48359970021438
 21
17.64041555699217
 31
0.0
  0
LINE
  5
4B4
330
30
100
AcDbEntity
  8
0
  6
ByBlock
 62
     0
100
AcDbLine
 10
30.48359970021438
 20
16.54741555699217
 30
0.0
 11
30.48359970021438
 21
16.26641555699217
 31
0.0
  0
LINE
  5
4B5
330
30
100
AcDbEntity
  8
0
  6
ByBlock
 62
     0
100
AcDbLine
 10
30.48359970021438
 20
17.64041555699217
 30
0.0
 11
30.76459970021438
 21
17.64041555699217
 31
0.0
  0
SOLID
  5
4B6
330
30
100
AcDbEntity
  8
0
  6
ByBlock
 62
     0
100
AcDbTrace
 10
30.53043303354771
 20
17.35941555699216
 30
0.0
 11
30.43676636688105
 21
17.35941555699216
 31
0.0
 12
30.48359970021438
 22
17.07841555699217
 32
0.0
 13
30.48359970021438
 23
17.07841555699217
 33
0.0
  0
SOLID
  5
4B7
330
30
100
AcDbEntity
  8
0
  6
ByBlock
 62
     0
100
AcDbTrace
 10
30.53043303354771
 20
16.54741555699217
 30
0.0
 11
30.43676636688105
 21
16.54741555699217
 31
0.0
 12
30.48359970021438
 22
16.82841555699217
 32
0.0
 13
30.48359970021438
 23
16.82841555699217
 33
0.0
  0
TEXT
  5
4B8
330
30
100
AcDbEntity
  8
0
  6
ByBlock
 62
     0
100
AcDbText
 10
31.04559970021438
 20
17.49991555699217
 30
0.0
 40
0.281
  1
1/4
100
AcDbText
  0
POINT
  5
4B9
330
30
100
AcDbEntity
  8
DEFPOINTS
  6
ByBlock
 62
     0
100
AcDbPoint
 10
29.37520268252692
 20
16.82841555699217
 30
0.0
  0
POINT
  5
4BA
330
30
100
AcDbEntity
  8
DEFPOINTS
  6
ByBlock
 62
     0
100
AcDbPoint
 10
29.01892435020867
 20
17.07841555699217
 30
0.0
  0
POINT
  5
4BB
330
30
100
AcDbEntity
  8
DEFPOINTS
  6
ByBlock
 62
     0
100
AcDbPoint
 10
30.48359970021438
 20
17.07841555699217
 30
0.0
  0
ENDBLK
  5
4BC
330
30
100
AcDbEntity
  8
0
100
AcDbBlockEnd
  0
BLOCK
  5
4BD
330
31
100
AcDbEntity
  8
0
100
AcDbBlockBegin
  2
*D15
 70
     1
 10
0.0
 20
0.0
 30
0.0
  3
*D15
  1

  0
LINE
  5
4BE
330
31
100
AcDbEntity
  8
0
  6
ByBlock
 62
     0
100
AcDbLine
 10
52.03366942640499
 20
31.00002062049111
 30
0.0
 11
54.173098552746
 21
31.00002062049111
 31
0.0
  0
LINE
  5
4BF
330
31
100
AcDbEntity
  8
0
  6
ByBlock
 62
     0
100
AcDbLine
 10
52.03366942640499
 20
45.62502062049112
 30
0.0
 11
54.173098552746
 21
45.62502062049112
 31
0.0
  0
LINE
  5
4C0
330
31
100
AcDbEntity
  8
0
  6
ByBlock
 62
     0
100
AcDbLine
 10
53.79809855274601
 20
31.28102062049111
 30
0.0
 11
53.79809855274601
 21
37.89102062049112
 31
0.0
  0
LINE
  5
4C1
330
31
100
AcDbEntity
  8
0
  6
ByBlock
 62
     0
100
AcDbLine
 10
53.79809855274601
 20
45.34402062049113
 30
0.0
 11
53.79809855274601
 21
38.73402062049112
 31
0.0
  0
SOLID
  5
4C2
330
31
100
AcDbEntity
  8
0
  6
ByBlock
 62
     0
100
AcDbTrace
 10
53.84493188607933
 20
31.28102062049111
 30
0.0
 11
53.75126521941267
 21
31.28102062049111
 31
0.0
 12
53.79809855274601
 22
31.00002062049111
 32
0.0
 13
53.79809855274601
 23
31.00002062049111
 33
0.0
  0
SOLID
  5
4C3
330
31
100
AcDbEntity
  8
0
  6
ByBlock
 62
     0
100
AcDbTrace
 10
53.84493188607933
 20
45.34402062049113
 30
0.0
 11
53.75126521941267
 21
45.34402062049113
 31
0.0
 12
53.79809855274601
 22
45.62502062049112
 32
0.0
 13
53.79809855274601
 23
45.62502062049112
 33
0.0
  0
TEXT
  5
4C4
330
31
100
AcDbEntity
  8
0
  6
ByBlock
 62
     0
100
AcDbText
 10
53.04876521941267
 20
38.17202062049112
 30
0.0
 40
0.281
  1
14 5/8
100
AcDbText
  0
POINT
  5
4C5
330
31
100
AcDbEntity
  8
DEFPOINTS
  6
ByBlock
 62
     0
100
AcDbPoint
 10
51.84666942640499
 20
31.00002062049111
 30
0.0
  0
POINT
  5
4C6
330
31
100
AcDbEntity
  8
DEFPOINTS
  6
ByBlock
 62
     0
100
AcDbPoint
 10
51.84666942640499
 20
45.62502062049112
 30
0.0
  0
POINT
  5
4C7
330
31
100
AcDbEntity
  8
DEFPOINTS
  6
ByBlock
 62
     0
100
AcDbPoint
 10
53.79809855274601
 20
45.62502062049112
 30
0.0
  0
ENDBLK
  5
4C8
330
31
100
AcDbEntity
  8
0
100
AcDbBlockEnd
  0
BLOCK
  5
4C9
330
32
100
AcDbEntity
  8
0
100
AcDbBlockBegin
  2
*D16
 70
     1
 10
0.0
 20
0.0
 30
0.0
  3
*D16
  1

  0
LINE
  5
4CA
330
32
100
AcDbEntity
  8
0
  6
ByBlock
 62
     0
100
AcDbLine
 10
51.78366942640499
 20
30.56252062049111
 30
0.0
 11
56.67364725415282
 21
30.56252062049111
 31
0.0
  0
LINE
  5
4CB
330
32
100
AcDbEntity
  8
0
  6
ByBlock
 62
     0
100
AcDbLine
 10
51.78366942640499
 20
46.06252062049111
 30
0.0
 11
56.67364725415282
 21
46.06252062049111
 31
0.0
  0
LINE
  5
4CC
330
32
100
AcDbEntity
  8
0
  6
ByBlock
 62
     0
100
AcDbLine
 10
56.29864725415282
 20
30.84352062049112
 30
0.0
 11
56.29864725415282
 21
37.89102062049111
 31
0.0
  0
LINE
  5
4CD
330
32
100
AcDbEntity
  8
0
  6
ByBlock
 62
     0
100
AcDbLine
 10
56.29864725415282
 20
45.78152062049111
 30
0.0
 11
56.29864725415282
 21
38.73402062049112
 31
0.0
  0
SOLID
  5
4CE
330
32
100
AcDbEntity
  8
0
  6
ByBlock
 62
     0
100
AcDbTrace
 10
56.34548058748615
 20
30.84352062049112
 30
0.0
 11
56.25181392081948
 21
30.84352062049112
 31
0.0
 12
56.29864725415282
 22
30.56252062049111
 32
0.0
 13
56.29864725415282
 23
30.56252062049111
 33
0.0
  0
SOLID
  5
4CF
330
32
100
AcDbEntity
  8
0
  6
ByBlock
 62
     0
100
AcDbTrace
 10
56.34548058748615
 20
45.78152062049111
 30
0.0
 11
56.25181392081948
 21
45.78152062049111
 31
0.0
 12
56.29864725415282
 22
46.06252062049111
 32
0.0
 13
56.29864725415282
 23
46.06252062049111
 33
0.0
  0
TEXT
  5
4D0
330
32
100
AcDbEntity
  8
0
  6
ByBlock
 62
     0
100
AcDbText
 10
55.59614725415282
 20
38.17202062049111
 30
0.0
 40
0.281
  1
15 1/2
100
AcDbText
  0
POINT
  5
4D1
330
32
100
AcDbEntity
  8
DEFPOINTS
  6
ByBlock
 62
     0
100
AcDbPoint
 10
51.59666942640499
 20
30.56252062049111
 30
0.0
  0
POINT
  5
4D2
330
32
100
AcDbEntity
  8
DEFPOINTS
  6
ByBlock
 62
     0
100
AcDbPoint
 10
51.59666942640499
 20
46.06252062049111
 30
0.0
  0
POINT
  5
4D3
330
32
100
AcDbEntity
  8
DEFPOINTS
  6
ByBlock
 62
     0
100
AcDbPoint
 10
56.29864725415282
 20
46.06252062049111
 30
0.0
  0
ENDBLK
  5
4D4
330
32
100
AcDbEntity
  8
0
100
AcDbBlockEnd
  0
BLOCK
  5
4D5
330
33
100
AcDbEntity
  8
0
100
AcDbBlockBegin
  2
*D17
 70
     1
 10
0.0
 20
0.0
 30
0.0
  3
*D17
  1

  0
LINE
  5
4D6
330
33
100
AcDbEntity
  8
0
  6
ByBlock
 62
     0
100
AcDbLine
 10
74.55507875765569
 20
32.18752062049111
 30
0.0
 11
77.29358794253193
 21
32.18752062049111
 31
0.0
  0
LINE
  5
4D7
330
33
100
AcDbEntity
  8
0
  6
ByBlock
 62
     0
100
AcDbLine
 10
74.55507875765569
 20
44.43752062049111
 30
0.0
 11
77.29358794253193
 21
44.43752062049111
 31
0.0
  0
LINE
  5
4D8
330
33
100
AcDbEntity
  8
0
  6
ByBlock
 62
     0
100
AcDbLine
 10
76.91858794253192
 20
32.46852062049111
 30
0.0
 11
76.91858794253192
 21
37.89102062049111
 31
0.0
  0
LINE
  5
4D9
330
33
100
AcDbEntity
  8
0
  6
ByBlock
 62
     0
100
AcDbLine
 10
76.91858794253192
 20
44.15652062049111
 30
0.0
 11
76.91858794253192
 21
38.73402062049112
 31
0.0
  0
SOLID
  5
4DA
330
33
100
AcDbEntity
  8
0
  6
ByBlock
 62
     0
100
AcDbTrace
 10
76.96542127586527
 20
32.46852062049111
 30
0.0
 11
76.87175460919859
 21
32.46852062049111
 31
0.0
 12
76.91858794253192
 22
32.18752062049111
 32
0.0
 13
76.91858794253192
 23
32.18752062049111
 33
0.0
  0
SOLID
  5
4DB
330
33
100
AcDbEntity
  8
0
  6
ByBlock
 62
     0
100
AcDbTrace
 10
76.96542127586527
 20
44.15652062049111
 30
0.0
 11
76.87175460919859
 21
44.15652062049111
 31
0.0
 12
76.91858794253192
 22
44.43752062049111
 32
0.0
 13
76.91858794253192
 23
44.43752062049111
 33
0.0
  0
TEXT
  5
4DC
330
33
100
AcDbEntity
  8
0
  6
ByBlock
 62
     0
100
AcDbText
 10
76.21608794253193
 20
38.17202062049111
 30
0.0
 40
0.281
  1
12 1/4
100
AcDbText
  0
POINT
  5
4DD
330
33
100
AcDbEntity
  8
DEFPOINTS
  6
ByBlock
 62
     0
100
AcDbPoint
 10
74.3680787576557
 20
32.18752062049111
 30
0.0
  0
POINT
  5
4DE
330
33
100
AcDbEntity
  8
DEFPOINTS
  6
ByBlock
 62
     0
100
AcDbPoint
 10
74.3680787576557
 20
44.43752062049111
 30
0.0
  0
POINT
  5
4DF
330
33
100
AcDbEntity
  8
DEFPOINTS
  6
ByBlock
 62
     0
100
AcDbPoint
 10
76.91858794253192
 20
44.43752062049111
 30
0.0
  0
ENDBLK
  5
4E0
330
33
100
AcDbEntity
  8
0
100
AcDbBlockEnd
  0
BLOCK
  5
4E1
330
34
100
AcDbEntity
  8
0
100
AcDbBlockBegin
  2
SAAR
 70
     0
 10
0.0
 20
0.0
 30
0.0
  3
SAAR
  1

  0
TEXT
  5
4E2
330
34
100
AcDbEntity
  8
0
100
AcDbText
 10
0.3487392072179474
 20
0.5116372546807444
 30
0.0
 40
0.156
  1
A
  7
COMPLEX
 72
     1
 11
0.4230249215036617
 21
0.5116372546807444
 31
0.0
100
AcDbText
  0
LINE
  5
4E3
330
34
100
AcDbEntity
  8
0
100
AcDbLine
 10
0.4374999999999983
 20
0.2292366486465216
 30
0.0
 11
0.451024804847763
 21
0.2292366486465225
 31
0.0
  0
LINE
  5
4E4
330
34
100
AcDbEntity
  8
0
100
AcDbLine
 10
0.4074999999999998
 20
0.2292366486465216
 30
0.0
 11
0.4074999999999989
 21
0.0149999999999988
 31
0.0
  0
LINE
  5
4E5
330
34
100
AcDbEntity
  8
0
100
AcDbLine
 10
0.4374999999999992
 20
0.2292366486465216
 30
0.0
 11
0.4374999999999992
 21
-0.017923002649547
 31
0.0
  0
LINE
  5
4E6
330
34
100
AcDbEntity
  8
0
100
AcDbLine
 10
0.4224999999999995
 20
0.0299999999999994
 30
0.0
 11
-0.0000000000000009
 21
0.0299999999999994
 31
0.0
  0
LINE
  5
4E7
330
34
100
AcDbEntity
  8
0
100
AcDbLine
 10
0.4571321552628529
 20
0.0
 30
0.0
 11
0.0
 21
0.0
 31
0.0
  0
ARC
  5
4E8
330
34
100
AcDbEntity
  8
0
100
AcDbCircle
 10
-0.0774898749921995
 20
0.4486009293161688
 30
0.0
 40
0.5
100
AcDbArc
 50
333.9772135427694
 51
0.3646288638273987
  0
LINE
  5
4E9
330
34
100
AcDbEntity
  8
0
100
AcDbLine
 10
0.4374999999999992
 20
0.2292366486465216
 30
0.0
 11
0.4374999999999992
 21
0.2292366486465216
 31
0.0
  0
ARC
  5
4EA
330
34
100
AcDbEntity
  8
0
100
AcDbCircle
 10
0.9224898749921965
 20
0.4486009293161688
 30
0.0
 40
0.5
100
AcDbArc
 50
179.6353711361726
 51
206.0227864572306
  0
ARC
  5
4EB
330
34
100
AcDbEntity
  8
0
100
AcDbCircle
 10
-0.0774898749921995
 20
0.4486009293161688
 30
0.0
 40
0.5200000000000001
100
AcDbArc
 50
335.0482819082217
 51
344.0535702443027
  0
ARC
  5
4EC
330
34
100
AcDbEntity
  8
0
100
AcDbCircle
 10
0.9224898749921965
 20
0.4486009293161688
 30
0.0
 40
0.5200000000000001
100
AcDbArc
 50
195.9464297556973
 51
204.951718091778
  0
LINE
  5
4ED
330
34
100
AcDbEntity
  8
0
100
AcDbLine
 10
0.3939751951522217
 20
0.2292366486465216
 30
0.0
 11
0.4074999999999998
 21
0.2292366486465216
 31
0.0
  0
LINE
  5
4EE
330
34
100
AcDbEntity
  8
0
100
AcDbLine
 10
0.3939751951522217
 20
0.2292366486465216
 30
0.0
 11
0.371819942802035
 21
0.2292366486465216
 31
0.0
  0
LINE
  5
4EF
330
34
100
AcDbEntity
  8
0
100
AcDbLine
 10
0.451024804847763
 20
0.2292366486465225
 30
0.0
 11
0.4731800571979621
 21
0.2292366486465216
 31
0.0
  0
INSERT
  5
4F0
330
34
100
AcDbEntity
  8
0
100
AcDbBlockReference
  2
*X19
 10
-3.748701991468968
 20
-6.921648479033177
 30
0.0
  0
ENDBLK
  5
4F1
330
34
100
AcDbEntity
  8
0
100
AcDbBlockEnd
  0
BLOCK
  5
4F2
330
35
100
AcDbEntity
  8
0
100
AcDbBlockBegin
  2
*X19
 70
     1
 10
0.0
 20
0.0
 30
0.0
  3
*X19
  1

  0
LINE
  5
4F3
330
35
100
AcDbEntity
  8
0
 62
     0
100
AcDbLine
 10
4.158042821030212
 20
7.25625
 30
0.0
 11
4.184361161907728
 21
7.25625
 31
0.0
  0
LINE
  5
4F4
330
35
100
AcDbEntity
  8
0
 62
     0
100
AcDbLine
 10
4.159464167164085
 20
7.2625
 30
0.0
 11
4.182939815773856
 21
7.2625
 31
0.0
  0
LINE
  5
4F5
330
35
100
AcDbEntity
  8
0
 62
     0
100
AcDbLine
 10
4.160801607892522
 20
7.26875
 30
0.0
 11
4.181602375045417
 21
7.26875
 31
0.0
  0
LINE
  5
4F6
330
35
100
AcDbEntity
  8
0
 62
     0
100
AcDbLine
 10
4.162055829087108
 20
7.275
 30
0.0
 11
4.180348153850832
 21
7.275
 31
0.0
  0
LINE
  5
4F7
330
35
100
AcDbEntity
  8
0
 62
     0
100
AcDbLine
 10
4.163227467165616
 20
7.28125
 30
0.0
 11
4.179176515772323
 21
7.28125
 31
0.0
  0
LINE
  5
4F8
330
35
100
AcDbEntity
  8
0
 62
     0
100
AcDbLine
 10
4.1643171107912
 20
7.2875
 30
0.0
 11
4.178086872146739
 21
7.2875
 31
0.0
  0
LINE
  5
4F9
330
35
100
AcDbEntity
  8
0
 62
     0
100
AcDbLine
 10
4.165325302419223
 20
7.29375
 30
0.0
 11
4.177078680518715
 21
7.29375
 31
0.0
  0
LINE
  5
4FA
330
35
100
AcDbEntity
  8
0
 62
     0
100
AcDbLine
 10
4.16625253970155
 20
7.3
 30
0.0
 11
4.17615144323639
 21
7.3
 31
0.0
  0
LINE
  5
4FB
330
35
100
AcDbEntity
  8
0
 62
     0
100
AcDbLine
 10
4.167099276757146
 20
7.30625
 30
0.0
 11
4.175304706180795
 21
7.30625
 31
0.0
  0
LINE
  5
4FC
330
35
100
AcDbEntity
  8
0
 62
     0
100
AcDbLine
 10
4.167865925316793
 20
7.3125
 30
0.0
 11
4.174538057621145
 21
7.3125
 31
0.0
  0
LINE
  5
4FD
330
35
100
AcDbEntity
  8
0
 62
     0
100
AcDbLine
 10
4.16855285574882
 20
7.31875
 30
0.0
 11
4.17385112718912
 21
7.31875
 31
0.0
  0
LINE
  5
4FE
330
35
100
AcDbEntity
  8
0
 62
     0
100
AcDbLine
 10
4.169160397971983
 20
7.325
 30
0.0
 11
4.173243584965957
 21
7.325
 31
0.0
  0
LINE
  5
4FF
330
35
100
AcDbEntity
  8
0
 62
     0
100
AcDbLine
 10
4.169688842260835
 20
7.33125
 30
0.0
 11
4.172715140677103
 21
7.33125
 31
0.0
  0
LINE
  5
500
330
35
100
AcDbEntity
  8
0
 62
     0
100
AcDbLine
 10
4.170138439948251
 20
7.3375
 30
0.0
 11
4.172265542989687
 21
7.3375
 31
0.0
  0
LINE
  5
501
330
35
100
AcDbEntity
  8
0
 62
     0
100
AcDbLine
 10
4.170509404029122
 20
7.34375
 30
0.0
 11
4.171894578908817
 21
7.34375
 31
0.0
  0
LINE
  5
502
330
35
100
AcDbEntity
  8
0
 62
     0
100
AcDbLine
 10
4.170801909668647
 20
7.35
 30
0.0
 11
4.171602073269292
 21
7.35
 31
0.0
  0
LINE
  5
503
330
35
100
AcDbEntity
  8
0
 62
     0
100
AcDbLine
 10
4.171016094618071
 20
7.35625
 30
0.0
 11
4.171387888319867
 21
7.35625
 31
0.0
  0
LINE
  5
504
330
35
100
AcDbEntity
  8
0
 62
     0
100
AcDbLine
 10
4.171152059540171
 20
7.3625
 30
0.0
 11
4.171251923397766
 21
7.3625
 31
0.0
  0
LINE
  5
505
330
35
100
AcDbEntity
  8
0
 62
     0
100
AcDbLine
 10
4.17119411469162
 20
7.36875
 30
0.0
 11
4.171209868246319
 21
7.36875
 31
0.0
  0
LINE
  5
506
330
35
100
AcDbEntity
  8
0
 62
     0
100
AcDbLine
 10
4.156536832302816
 20
7.25
 30
0.0
 11
4.185867150635123
 21
7.25
 31
0.0
  0
LINE
  5
507
330
35
100
AcDbEntity
  8
0
 62
     0
100
AcDbLine
 10
4.154945410438709
 20
7.24375
 30
0.0
 11
4.187458572499231
 21
7.24375
 31
0.0
  0
LINE
  5
508
330
35
100
AcDbEntity
  8
0
 62
     0
100
AcDbLine
 10
4.153267709311144
 20
7.2375
 30
0.0
 11
4.189136273626795
 21
7.2375
 31
0.0
  0
LINE
  5
509
330
35
100
AcDbEntity
  8
0
 62
     0
100
AcDbLine
 10
4.151502824775956
 20
7.23125
 30
0.0
 11
4.190901158161984
 21
7.23125
 31
0.0
  0
LINE
  5
50A
330
35
100
AcDbEntity
  8
0
 62
     0
100
AcDbLine
 10
4.149649792014731
 20
7.225
 30
0.0
 11
4.170514238817704
 21
7.225
 31
0.0
  0
LINE
  5
50B
330
35
100
AcDbEntity
  8
0
 62
     0
100
AcDbLine
 10
4.17188974412022
 20
7.225
 30
0.0
 11
4.192754190923209
 21
7.225
 31
0.0
  0
LINE
  5
50C
330
35
100
AcDbEntity
  8
0
 62
     0
100
AcDbLine
 10
4.147707582635473
 20
7.21875
 30
0.0
 11
4.16865349922432
 21
7.21875
 31
0.0
  0
LINE
  5
50D
330
35
100
AcDbEntity
  8
0
 62
     0
100
AcDbLine
 10
4.173750483713604
 20
7.21875
 30
0.0
 11
4.194696400302465
 21
7.21875
 31
0.0
  0
LINE
  5
50E
330
35
100
AcDbEntity
  8
0
 62
     0
100
AcDbLine
 10
4.145675101508724
 20
7.2125
 30
0.0
 11
4.166706944063726
 21
7.2125
 31
0.0
  0
LINE
  5
50F
330
35
100
AcDbEntity
  8
0
 62
     0
100
AcDbLine
 10
4.175697038874197
 20
7.2125
 30
0.0
 11
4.196728881429214
 21
7.2125
 31
0.0
  0
LINE
  5
510
330
35
100
AcDbEntity
  8
0
 62
     0
100
AcDbLine
 10
4.143551183314425
 20
7.20625
 30
0.0
 11
4.164673557788107
 21
7.20625
 31
0.0
  0
LINE
  5
511
330
35
100
AcDbEntity
  8
0
 62
     0
100
AcDbLine
 10
4.17773042514982
 20
7.20625
 30
0.0
 11
4.198852799623516
 21
7.20625
 31
0.0
  0
LINE
  5
512
330
35
100
AcDbEntity
  8
0
 62
     0
100
AcDbLine
 10
4.141334588771703
 20
7.2
 30
0.0
 11
4.162552262360144
 21
7.2
 31
0.0
  0
LINE
  5
513
330
35
100
AcDbEntity
  8
0
 62
     0
100
AcDbLine
 10
4.179851720577784
 20
7.2
 30
0.0
 11
4.201069394166239
 21
7.2
 31
0.0
  0
LINE
  5
514
330
35
100
AcDbEntity
  8
0
 62
     0
100
AcDbLine
 10
4.139024000520274
 20
7.19375
 30
0.0
 11
4.160341914027816
 21
7.19375
 31
0.0
  0
LINE
  5
515
330
35
100
AcDbEntity
  8
0
 62
     0
100
AcDbLine
 10
4.182062068910108
 20
7.19375
 30
0.0
 11
4.203379982417666
 21
7.19375
 31
0.0
  0
LINE
  5
516
330
35
100
AcDbEntity
  8
0
 62
     0
100
AcDbLine
 10
4.136618018618079
 20
7.1875
 30
0.0
 11
4.158041299813144
 21
7.1875
 31
0.0
  0
LINE
  5
517
330
35
100
AcDbEntity
  8
0
 62
     0
100
AcDbLine
 10
4.18436268312478
 20
7.1875
 30
0.0
 11
4.20578596431986
 21
7.1875
 31
0.0
  0
LINE
  5
518
330
35
100
AcDbEntity
  8
0
 62
     0
100
AcDbLine
 10
4.134115155615204
 20
7.18125
 30
0.0
 11
4.155649133687051
 21
7.18125
 31
0.0
  0
LINE
  5
519
330
35
100
AcDbEntity
  8
0
 62
     0
100
AcDbLine
 10
4.186754849250876
 20
7.18125
 30
0.0
 11
4.208288827322737
 21
7.18125
 31
0.0
  0
LINE
  5
51A
330
35
100
AcDbEntity
  8
0
 62
     0
100
AcDbLine
 10
4.131513831158817
 20
7.175
 30
0.0
 11
4.153164052399043
 21
7.175
 31
0.0
  0
LINE
  5
51B
330
35
100
AcDbEntity
  8
0
 62
     0
100
AcDbLine
 10
4.189239930538879
 20
7.175
 30
0.0
 11
4.210890151779121
 21
7.175
 31
0.0
  0
LINE
  5
51C
330
35
100
AcDbEntity
  8
0
 62
     0
100
AcDbLine
 10
4.128812366077735
 20
7.16875
 30
0.0
 11
4.1505846109264
 21
7.16875
 31
0.0
  0
LINE
  5
51D
330
35
100
AcDbEntity
  8
0
 62
     0
100
AcDbLine
 10
4.191819372011525
 20
7.16875
 30
0.0
 11
4.213591616860204
 21
7.16875
 31
0.0
  0
LINE
  5
51E
330
35
100
AcDbEntity
  8
0
 62
     0
100
AcDbLine
 10
4.126008975888199
 20
7.1625
 30
0.0
 11
4.147909277503027
 21
7.1625
 31
0.0
  0
LINE
  5
51F
330
35
100
AcDbEntity
  8
0
 62
     0
100
AcDbLine
 10
4.194494705434896
 20
7.1625
 30
0.0
 11
4.216395007049741
 21
7.1625
 31
0.0
  0
LINE
  5
520
330
35
100
AcDbEntity
  8
0
 62
     0
100
AcDbLine
 10
4.123101763654189
 20
7.15625
 30
0.0
 11
4.145136428182898
 21
7.15625
 31
0.0
  0
LINE
  5
521
330
35
100
AcDbEntity
  8
0
 62
     0
100
AcDbLine
 10
4.197267554755029
 20
7.15625
 30
0.0
 11
4.219302219283752
 21
7.15625
 31
0.0
  0
ENDBLK
  5
522
330
35
100
AcDbEntity
  8
0
100
AcDbBlockEnd
  0
BLOCK
  5
523
330
36
100
AcDbEntity
  8
0
100
AcDbBlockBegin
  2
SBBB
 70
     0
 10
0.0
 20
0.0
 30
0.0
  3
SBBB
  1

  0
TEXT
  5
524
330
36
100
AcDbEntity
  8
0
100
AcDbText
 10
-0.6558782172982848
 20
-0.50536529293236
 30
0.0
 40
0.156
  1
B
  7
COMPLEX
 72
     1
 11
-0.5778782172982849
 21
-0.50536529293236
 31
0.0
100
AcDbText
  0
LINE
  5
525
330
36
100
AcDbEntity
  8
0
100
AcDbLine
 10
-0.2292366486465216
 20
-0.4374999999999983
 30
0.0
 11
-0.2292366486465225
 21
-0.451024804847763
 31
0.0
  0
LINE
  5
526
330
36
100
AcDbEntity
  8
0
100
AcDbLine
 10
-0.2292366486465216
 20
-0.4074999999999998
 30
0.0
 11
-0.0149999999999988
 21
-0.4074999999999989
 31
0.0
  0
LINE
  5
527
330
36
100
AcDbEntity
  8
0
100
AcDbLine
 10
-0.2292366486465216
 20
-0.4374999999999992
 30
0.0
 11
0.017923002649547
 21
-0.4374999999999992
 31
0.0
  0
LINE
  5
528
330
36
100
AcDbEntity
  8
0
100
AcDbLine
 10
-0.0299999999999994
 20
-0.4224999999999995
 30
0.0
 11
-0.0299999999999994
 21
0.0000000000000009
 31
0.0
  0
LINE
  5
529
330
36
100
AcDbEntity
  8
0
100
AcDbLine
 10
0.0
 20
-0.4571321552628529
 30
0.0
 11
0.0
 21
0.0
 31
0.0
  0
ARC
  5
52A
330
36
100
AcDbEntity
  8
0
100
AcDbCircle
 10
-0.4486009293161688
 20
0.0774898749921995
 30
0.0
 40
0.5
100
AcDbArc
 50
269.6353711361726
 51
296.0227864572306
  0
LINE
  5
52B
330
36
100
AcDbEntity
  8
0
100
AcDbLine
 10
-0.2292366486465216
 20
-0.4374999999999992
 30
0.0
 11
-0.2292366486465216
 21
-0.4374999999999992
 31
0.0
  0
ARC
  5
52C
330
36
100
AcDbEntity
  8
0
100
AcDbCircle
 10
-0.4486009293161688
 20
-0.9224898749921965
 30
0.0
 40
0.5
100
AcDbArc
 50
63.97721354276936
 51
90.36462886382739
  0
ARC
  5
52D
330
36
100
AcDbEntity
  8
0
100
AcDbCircle
 10
-0.4486009293161688
 20
0.0774898749921995
 30
0.0
 40
0.5200000000000001
100
AcDbArc
 50
285.9464297556974
 51
294.9517180917784
  0
ARC
  5
52E
330
36
100
AcDbEntity
  8
0
100
AcDbCircle
 10
-0.4486009293161688
 20
-0.9224898749921965
 30
0.0
 40
0.5200000000000001
100
AcDbArc
 50
65.04828190822201
 51
74.0535702443027
  0
LINE
  5
52F
330
36
100
AcDbEntity
  8
0
100
AcDbLine
 10
-0.2292366486465216
 20
-0.3939751951522217
 30
0.0
 11
-0.2292366486465216
 21
-0.4074999999999998
 31
0.0
  0
LINE
  5
530
330
36
100
AcDbEntity
  8
0
100
AcDbLine
 10
-0.2292366486465216
 20
-0.3939751951522217
 30
0.0
 11
-0.2292366486465216
 21
-0.371819942802035
 31
0.0
  0
LINE
  5
531
330
36
100
AcDbEntity
  8
0
100
AcDbLine
 10
-0.2292366486465225
 20
-0.451024804847763
 30
0.0
 11
-0.2292366486465216
 21
-0.4731800571979621
 31
0.0
  0
INSERT
  5
532
330
36
100
AcDbEntity
  8
0
100
AcDbBlockReference
  2
*X21
 10
6.921648479033177
 20
3.748701991468968
 30
0.0
 41
-1.0
 50
90.0
  0
ENDBLK
  5
533
330
36
100
AcDbEntity
  8
0
100
AcDbBlockEnd
  0
BLOCK
  5
534
330
37
100
AcDbEntity
  8
0
100
AcDbBlockBegin
  2
*X21
 70
     1
 10
0.0
 20
0.0
 30
0.0
  3
*X21
  1

  0
LINE
  5
535
330
37
100
AcDbEntity
  8
0
 62
     0
100
AcDbLine
 10
4.158042821030212
 20
7.25625
 30
0.0
 11
4.184361161907728
 21
7.25625
 31
0.0
  0
LINE
  5
536
330
37
100
AcDbEntity
  8
0
 62
     0
100
AcDbLine
 10
4.159464167164085
 20
7.2625
 30
0.0
 11
4.182939815773856
 21
7.2625
 31
0.0
  0
LINE
  5
537
330
37
100
AcDbEntity
  8
0
 62
     0
100
AcDbLine
 10
4.160801607892522
 20
7.26875
 30
0.0
 11
4.181602375045417
 21
7.26875
 31
0.0
  0
LINE
  5
538
330
37
100
AcDbEntity
  8
0
 62
     0
100
AcDbLine
 10
4.162055829087108
 20
7.275
 30
0.0
 11
4.180348153850832
 21
7.275
 31
0.0
  0
LINE
  5
539
330
37
100
AcDbEntity
  8
0
 62
     0
100
AcDbLine
 10
4.163227467165616
 20
7.28125
 30
0.0
 11
4.179176515772323
 21
7.28125
 31
0.0
  0
LINE
  5
53A
330
37
100
AcDbEntity
  8
0
 62
     0
100
AcDbLine
 10
4.1643171107912
 20
7.2875
 30
0.0
 11
4.178086872146739
 21
7.2875
 31
0.0
  0
LINE
  5
53B
330
37
100
AcDbEntity
  8
0
 62
     0
100
AcDbLine
 10
4.165325302419223
 20
7.29375
 30
0.0
 11
4.177078680518715
 21
7.29375
 31
0.0
  0
LINE
  5
53C
330
37
100
AcDbEntity
  8
0
 62
     0
100
AcDbLine
 10
4.16625253970155
 20
7.3
 30
0.0
 11
4.17615144323639
 21
7.3
 31
0.0
  0
LINE
  5
53D
330
37
100
AcDbEntity
  8
0
 62
     0
100
AcDbLine
 10
4.167099276757146
 20
7.30625
 30
0.0
 11
4.175304706180795
 21
7.30625
 31
0.0
  0
LINE
  5
53E
330
37
100
AcDbEntity
  8
0
 62
     0
100
AcDbLine
 10
4.167865925316793
 20
7.3125
 30
0.0
 11
4.174538057621145
 21
7.3125
 31
0.0
  0
LINE
  5
53F
330
37
100
AcDbEntity
  8
0
 62
     0
100
AcDbLine
 10
4.16855285574882
 20
7.31875
 30
0.0
 11
4.17385112718912
 21
7.31875
 31
0.0
  0
LINE
  5
540
330
37
100
AcDbEntity
  8
0
 62
     0
100
AcDbLine
 10
4.169160397971983
 20
7.325
 30
0.0
 11
4.173243584965957
 21
7.325
 31
0.0
  0
LINE
  5
541
330
37
100
AcDbEntity
  8
0
 62
     0
100
AcDbLine
 10
4.169688842260835
 20
7.33125
 30
0.0
 11
4.172715140677103
 21
7.33125
 31
0.0
  0
LINE
  5
542
330
37
100
AcDbEntity
  8
0
 62
     0
100
AcDbLine
 10
4.170138439948251
 20
7.3375
 30
0.0
 11
4.172265542989687
 21
7.3375
 31
0.0
  0
LINE
  5
543
330
37
100
AcDbEntity
  8
0
 62
     0
100
AcDbLine
 10
4.170509404029122
 20
7.34375
 30
0.0
 11
4.171894578908817
 21
7.34375
 31
0.0
  0
LINE
  5
544
330
37
100
AcDbEntity
  8
0
 62
     0
100
AcDbLine
 10
4.170801909668647
 20
7.35
 30
0.0
 11
4.171602073269292
 21
7.35
 31
0.0
  0
LINE
  5
545
330
37
100
AcDbEntity
  8
0
 62
     0
100
AcDbLine
 10
4.171016094618071
 20
7.35625
 30
0.0
 11
4.171387888319867
 21
7.35625
 31
0.0
  0
LINE
  5
546
330
37
100
AcDbEntity
  8
0
 62
     0
100
AcDbLine
 10
4.171152059540171
 20
7.3625
 30
0.0
 11
4.171251923397766
 21
7.3625
 31
0.0
  0
LINE
  5
547
330
37
100
AcDbEntity
  8
0
 62
     0
100
AcDbLine
 10
4.17119411469162
 20
7.36875
 30
0.0
 11
4.171209868246319
 21
7.36875
 31
0.0
  0
LINE
  5
548
330
37
100
AcDbEntity
  8
0
 62
     0
100
AcDbLine
 10
4.156536832302816
 20
7.25
 30
0.0
 11
4.185867150635123
 21
7.25
 31
0.0
  0
LINE
  5
549
330
37
100
AcDbEntity
  8
0
 62
     0
100
AcDbLine
 10
4.154945410438709
 20
7.24375
 30
0.0
 11
4.187458572499231
 21
7.24375
 31
0.0
  0
LINE
  5
54A
330
37
100
AcDbEntity
  8
0
 62
     0
100
AcDbLine
 10
4.153267709311144
 20
7.2375
 30
0.0
 11
4.189136273626795
 21
7.2375
 31
0.0
  0
LINE
  5
54B
330
37
100
AcDbEntity
  8
0
 62
     0
100
AcDbLine
 10
4.151502824775956
 20
7.23125
 30
0.0
 11
4.190901158161984
 21
7.23125
 31
0.0
  0
LINE
  5
54C
330
37
100
AcDbEntity
  8
0
 62
     0
100
AcDbLine
 10
4.149649792014731
 20
7.225
 30
0.0
 11
4.170514238817704
 21
7.225
 31
0.0
  0
LINE
  5
54D
330
37
100
AcDbEntity
  8
0
 62
     0
100
AcDbLine
 10
4.17188974412022
 20
7.225
 30
0.0
 11
4.192754190923209
 21
7.225
 31
0.0
  0
LINE
  5
54E
330
37
100
AcDbEntity
  8
0
 62
     0
100
AcDbLine
 10
4.147707582635473
 20
7.21875
 30
0.0
 11
4.16865349922432
 21
7.21875
 31
0.0
  0
LINE
  5
54F
330
37
100
AcDbEntity
  8
0
 62
     0
100
AcDbLine
 10
4.173750483713604
 20
7.21875
 30
0.0
 11
4.194696400302465
 21
7.21875
 31
0.0
  0
LINE
  5
550
330
37
100
AcDbEntity
  8
0
 62
     0
100
AcDbLine
 10
4.145675101508724
 20
7.2125
 30
0.0
 11
4.166706944063726
 21
7.2125
 31
0.0
  0
LINE
  5
551
330
37
100
AcDbEntity
  8
0
 62
     0
100
AcDbLine
 10
4.175697038874197
 20
7.2125
 30
0.0
 11
4.196728881429214
 21
7.2125
 31
0.0
  0
LINE
  5
552
330
37
100
AcDbEntity
  8
0
 62
     0
100
AcDbLine
 10
4.143551183314425
 20
7.20625
 30
0.0
 11
4.164673557788107
 21
7.20625
 31
0.0
  0
LINE
  5
553
330
37
100
AcDbEntity
  8
0
 62
     0
100
AcDbLine
 10
4.17773042514982
 20
7.20625
 30
0.0
 11
4.198852799623516
 21
7.20625
 31
0.0
  0
LINE
  5
554
330
37
100
AcDbEntity
  8
0
 62
     0
100
AcDbLine
 10
4.141334588771703
 20
7.2
 30
0.0
 11
4.162552262360144
 21
7.2
 31
0.0
  0
LINE
  5
555
330
37
100
AcDbEntity
  8
0
 62
     0
100
AcDbLine
 10
4.179851720577784
 20
7.2
 30
0.0
 11
4.201069394166239
 21
7.2
 31
0.0
  0
LINE
  5
556
330
37
100
AcDbEntity
  8
0
 62
     0
100
AcDbLine
 10
4.139024000520274
 20
7.19375
 30
0.0
 11
4.160341914027816
 21
7.19375
 31
0.0
  0
LINE
  5
557
330
37
100
AcDbEntity
  8
0
 62
     0
100
AcDbLine
 10
4.182062068910108
 20
7.19375
 30
0.0
 11
4.203379982417666
 21
7.19375
 31
0.0
  0
LINE
  5
558
330
37
100
AcDbEntity
  8
0
 62
     0
100
AcDbLine
 10
4.136618018618079
 20
7.1875
 30
0.0
 11
4.158041299813144
 21
7.1875
 31
0.0
  0
LINE
  5
559
330
37
100
AcDbEntity
  8
0
 62
     0
100
AcDbLine
 10
4.18436268312478
 20
7.1875
 30
0.0
 11
4.20578596431986
 21
7.1875
 31
0.0
  0
LINE
  5
55A
330
37
100
AcDbEntity
  8
0
 62
     0
100
AcDbLine
 10
4.134115155615204
 20
7.18125
 30
0.0
 11
4.155649133687051
 21
7.18125
 31
0.0
  0
LINE
  5
55B
330
37
100
AcDbEntity
  8
0
 62
     0
100
AcDbLine
 10
4.186754849250876
 20
7.18125
 30
0.0
 11
4.208288827322737
 21
7.18125
 31
0.0
  0
LINE
  5
55C
330
37
100
AcDbEntity
  8
0
 62
     0
100
AcDbLine
 10
4.131513831158817
 20
7.175
 30
0.0
 11
4.153164052399043
 21
7.175
 31
0.0
  0
LINE
  5
55D
330
37
100
AcDbEntity
  8
0
 62
     0
100
AcDbLine
 10
4.189239930538879
 20
7.175
 30
0.0
 11
4.210890151779121
 21
7.175
 31
0.0
  0
LINE
  5
55E
330
37
100
AcDbEntity
  8
0
 62
     0
100
AcDbLine
 10
4.128812366077735
 20
7.16875
 30
0.0
 11
4.1505846109264
 21
7.16875
 31
0.0
  0
LINE
  5
55F
330
37
100
AcDbEntity
  8
0
 62
     0
100
AcDbLine
 10
4.191819372011525
 20
7.16875
 30
0.0
 11
4.213591616860204
 21
7.16875
 31
0.0
  0
LINE
  5
560
330
37
100
AcDbEntity
  8
0
 62
     0
100
AcDbLine
 10
4.126008975888199
 20
7.1625
 30
0.0
 11
4.147909277503027
 21
7.1625
 31
0.0
  0
LINE
  5
561
330
37
100
AcDbEntity
  8
0
 62
     0
100
AcDbLine
 10
4.194494705434896
 20
7.1625
 30
0.0
 11
4.216395007049741
 21
7.1625
 31
0.0
  0
LINE
  5
562
330
37
100
AcDbEntity
  8
0
 62
     0
100
AcDbLine
 10
4.123101763654189
 20
7.15625
 30
0.0
 11
4.145136428182898
 21
7.15625
 31
0.0
  0
LINE
  5
563
330
37
100
AcDbEntity
  8
0
 62
     0
100
AcDbLine
 10
4.197267554755029
 20
7.15625
 30
0.0
 11
4.219302219283752
 21
7.15625
 31
0.0
  0
ENDBLK
  5
564
330
37
100
AcDbEntity
  8
0
100
AcDbBlockEnd
  0
BLOCK
  5
565
330
38
100
AcDbEntity
  8
0
100
AcDbBlockBegin
  2
SBBT
 70
     0
 10
0.0
 20
0.0
 30
0.0
  3
SBBT
  1

  0
TEXT
  5
566
330
38
100
AcDbEntity
  8
0
100
AcDbText
 10
-0.6618640508256034
 20
0.338139455665849
 30
0.0
 40
0.156
  1
B
  7
COMPLEX
 72
     1
 11
-0.5838640508256035
 21
0.338139455665849
 31
0.0
100
AcDbText
  0
INSERT
  5
567
330
38
100
AcDbEntity
  8
0
100
AcDbBlockReference
  2
*X23
 10
6.921648479033177
 20
-3.748701991468968
 30
0.0
 50
90.0
  0
LINE
  5
568
330
38
100
AcDbEntity
  8
0
100
AcDbLine
 10
-0.2292366486465225
 20
0.451024804847763
 30
0.0
 11
-0.2292366486465216
 21
0.4731800571979621
 31
0.0
  0
LINE
  5
569
330
38
100
AcDbEntity
  8
0
100
AcDbLine
 10
-0.2292366486465216
 20
0.3939751951522217
 30
0.0
 11
-0.2292366486465216
 21
0.371819942802035
 31
0.0
  0
LINE
  5
56A
330
38
100
AcDbEntity
  8
0
100
AcDbLine
 10
-0.2292366486465216
 20
0.3939751951522217
 30
0.0
 11
-0.2292366486465216
 21
0.4074999999999998
 31
0.0
  0
ARC
  5
56B
330
38
100
AcDbEntity
  8
0
100
AcDbCircle
 10
-0.4486009293161688
 20
0.9224898749921965
 30
0.0
 40
0.5200000000000001
100
AcDbArc
 50
285.9464297556974
 51
294.951718091778
  0
ARC
  5
56C
330
38
100
AcDbEntity
  8
0
100
AcDbCircle
 10
-0.4486009293161688
 20
-0.0774898749921995
 30
0.0
 40
0.5200000000000001
100
AcDbArc
 50
65.04828190822165
 51
74.0535702443027
  0
ARC
  5
56D
330
38
100
AcDbEntity
  8
0
100
AcDbCircle
 10
-0.4486009293161688
 20
0.9224898749921965
 30
0.0
 40
0.5
100
AcDbArc
 50
269.6353711361726
 51
296.0227864572306
  0
LINE
  5
56E
330
38
100
AcDbEntity
  8
0
100
AcDbLine
 10
-0.2292366486465216
 20
0.4374999999999992
 30
0.0
 11
-0.2292366486465216
 21
0.4374999999999992
 31
0.0
  0
ARC
  5
56F
330
38
100
AcDbEntity
  8
0
100
AcDbCircle
 10
-0.4486009293161688
 20
-0.0774898749921995
 30
0.0
 40
0.5
100
AcDbArc
 50
63.97721354276936
 51
90.36462886382741
  0
LINE
  5
570
330
38
100
AcDbEntity
  8
0
100
AcDbLine
 10
0.0
 20
0.4571321552628529
 30
0.0
 11
0.0
 21
0.0
 31
0.0
  0
LINE
  5
571
330
38
100
AcDbEntity
  8
0
100
AcDbLine
 10
-0.0299999999999994
 20
0.4224999999999995
 30
0.0
 11
-0.0299999999999994
 21
-0.0000000000000009
 31
0.0
  0
LINE
  5
572
330
38
100
AcDbEntity
  8
0
100
AcDbLine
 10
-0.2292366486465216
 20
0.4374999999999992
 30
0.0
 11
0.017923002649547
 21
0.4374999999999992
 31
0.0
  0
LINE
  5
573
330
38
100
AcDbEntity
  8
0
100
AcDbLine
 10
-0.2292366486465216
 20
0.4074999999999998
 30
0.0
 11
-0.0149999999999988
 21
0.4074999999999989
 31
0.0
  0
LINE
  5
574
330
38
100
AcDbEntity
  8
0
100
AcDbLine
 10
-0.2292366486465216
 20
0.4374999999999983
 30
0.0
 11
-0.2292366486465225
 21
0.451024804847763
 31
0.0
  0
ENDBLK
  5
575
330
38
100
AcDbEntity
  8
0
100
AcDbBlockEnd
  0
BLOCK
  5
576
330
39
100
AcDbEntity
  8
0
100
AcDbBlockBegin
  2
*X23
 70
     1
 10
0.0
 20
0.0
 30
0.0
  3
*X23
  1

  0
LINE
  5
577
330
39
100
AcDbEntity
  8
0
 62
     0
100
AcDbLine
 10
4.158042821030212
 20
7.25625
 30
0.0
 11
4.184361161907728
 21
7.25625
 31
0.0
  0
LINE
  5
578
330
39
100
AcDbEntity
  8
0
 62
     0
100
AcDbLine
 10
4.159464167164085
 20
7.2625
 30
0.0
 11
4.182939815773856
 21
7.2625
 31
0.0
  0
LINE
  5
579
330
39
100
AcDbEntity
  8
0
 62
     0
100
AcDbLine
 10
4.160801607892522
 20
7.26875
 30
0.0
 11
4.181602375045417
 21
7.26875
 31
0.0
  0
LINE
  5
57A
330
39
100
AcDbEntity
  8
0
 62
     0
100
AcDbLine
 10
4.162055829087108
 20
7.275
 30
0.0
 11
4.180348153850832
 21
7.275
 31
0.0
  0
LINE
  5
57B
330
39
100
AcDbEntity
  8
0
 62
     0
100
AcDbLine
 10
4.163227467165616
 20
7.28125
 30
0.0
 11
4.179176515772323
 21
7.28125
 31
0.0
  0
LINE
  5
57C
330
39
100
AcDbEntity
  8
0
 62
     0
100
AcDbLine
 10
4.1643171107912
 20
7.2875
 30
0.0
 11
4.178086872146739
 21
7.2875
 31
0.0
  0
LINE
  5
57D
330
39
100
AcDbEntity
  8
0
 62
     0
100
AcDbLine
 10
4.165325302419223
 20
7.29375
 30
0.0
 11
4.177078680518715
 21
7.29375
 31
0.0
  0
LINE
  5
57E
330
39
100
AcDbEntity
  8
0
 62
     0
100
AcDbLine
 10
4.16625253970155
 20
7.3
 30
0.0
 11
4.17615144323639
 21
7.3
 31
0.0
  0
LINE
  5
57F
330
39
100
AcDbEntity
  8
0
 62
     0
100
AcDbLine
 10
4.167099276757146
 20
7.30625
 30
0.0
 11
4.175304706180795
 21
7.30625
 31
0.0
  0
LINE
  5
580
330
39
100
AcDbEntity
  8
0
 62
     0
100
AcDbLine
 10
4.167865925316793
 20
7.3125
 30
0.0
 11
4.174538057621145
 21
7.3125
 31
0.0
  0
LINE
  5
581
330
39
100
AcDbEntity
  8
0
 62
     0
100
AcDbLine
 10
4.16855285574882
 20
7.31875
 30
0.0
 11
4.17385112718912
 21
7.31875
 31
0.0
  0
LINE
  5
582
330
39
100
AcDbEntity
  8
0
 62
     0
100
AcDbLine
 10
4.169160397971983
 20
7.325
 30
0.0
 11
4.173243584965957
 21
7.325
 31
0.0
  0
LINE
  5
583
330
39
100
AcDbEntity
  8
0
 62
     0
100
AcDbLine
 10
4.169688842260835
 20
7.33125
 30
0.0
 11
4.172715140677103
 21
7.33125
 31
0.0
  0
LINE
  5
584
330
39
100
AcDbEntity
  8
0
 62
     0
100
AcDbLine
 10
4.170138439948251
 20
7.3375
 30
0.0
 11
4.172265542989687
 21
7.3375
 31
0.0
  0
LINE
  5
585
330
39
100
AcDbEntity
  8
0
 62
     0
100
AcDbLine
 10
4.170509404029122
 20
7.34375
 30
0.0
 11
4.171894578908817
 21
7.34375
 31
0.0
  0
LINE
  5
586
330
39
100
AcDbEntity
  8
0
 62
     0
100
AcDbLine
 10
4.170801909668647
 20
7.35
 30
0.0
 11
4.171602073269292
 21
7.35
 31
0.0
  0
LINE
  5
587
330
39
100
AcDbEntity
  8
0
 62
     0
100
AcDbLine
 10
4.171016094618071
 20
7.35625
 30
0.0
 11
4.171387888319867
 21
7.35625
 31
0.0
  0
LINE
  5
588
330
39
100
AcDbEntity
  8
0
 62
     0
100
AcDbLine
 10
4.171152059540171
 20
7.3625
 30
0.0
 11
4.171251923397766
 21
7.3625
 31
0.0
  0
LINE
  5
589
330
39
100
AcDbEntity
  8
0
 62
     0
100
AcDbLine
 10
4.17119411469162
 20
7.36875
 30
0.0
 11
4.171209868246319
 21
7.36875
 31
0.0
  0
LINE
  5
58A
330
39
100
AcDbEntity
  8
0
 62
     0
100
AcDbLine
 10
4.156536832302816
 20
7.25
 30
0.0
 11
4.185867150635123
 21
7.25
 31
0.0
  0
LINE
  5
58B
330
39
100
AcDbEntity
  8
0
 62
     0
100
AcDbLine
 10
4.154945410438709
 20
7.24375
 30
0.0
 11
4.187458572499231
 21
7.24375
 31
0.0
  0
LINE
  5
58C
330
39
100
AcDbEntity
  8
0
 62
     0
100
AcDbLine
 10
4.153267709311144
 20
7.2375
 30
0.0
 11
4.189136273626795
 21
7.2375
 31
0.0
  0
LINE
  5
58D
330
39
100
AcDbEntity
  8
0
 62
     0
100
AcDbLine
 10
4.151502824775956
 20
7.23125
 30
0.0
 11
4.190901158161984
 21
7.23125
 31
0.0
  0
LINE
  5
58E
330
39
100
AcDbEntity
  8
0
 62
     0
100
AcDbLine
 10
4.149649792014731
 20
7.225
 30
0.0
 11
4.170514238817704
 21
7.225
 31
0.0
  0
LINE
  5
58F
330
39
100
AcDbEntity
  8
0
 62
     0
100
AcDbLine
 10
4.17188974412022
 20
7.225
 30
0.0
 11
4.192754190923209
 21
7.225
 31
0.0
  0
LINE
  5
590
330
39
100
AcDbEntity
  8
0
 62
     0
100
AcDbLine
 10
4.147707582635473
 20
7.21875
 30
0.0
 11
4.16865349922432
 21
7.21875
 31
0.0
  0
LINE
  5
591
330
39
100
AcDbEntity
  8
0
 62
     0
100
AcDbLine
 10
4.173750483713604
 20
7.21875
 30
0.0
 11
4.194696400302465
 21
7.21875
 31
0.0
  0
LINE
  5
592
330
39
100
AcDbEntity
  8
0
 62
     0
100
AcDbLine
 10
4.145675101508724
 20
7.2125
 30
0.0
 11
4.166706944063726
 21
7.2125
 31
0.0
  0
LINE
  5
593
330
39
100
AcDbEntity
  8
0
 62
     0
100
AcDbLine
 10
4.175697038874197
 20
7.2125
 30
0.0
 11
4.196728881429214
 21
7.2125
 31
0.0
  0
LINE
  5
594
330
39
100
AcDbEntity
  8
0
 62
     0
100
AcDbLine
 10
4.143551183314425
 20
7.20625
 30
0.0
 11
4.164673557788107
 21
7.20625
 31
0.0
  0
LINE
  5
595
330
39
100
AcDbEntity
  8
0
 62
     0
100
AcDbLine
 10
4.17773042514982
 20
7.20625
 30
0.0
 11
4.198852799623516
 21
7.20625
 31
0.0
  0
LINE
  5
596
330
39
100
AcDbEntity
  8
0
 62
     0
100
AcDbLine
 10
4.141334588771703
 20
7.2
 30
0.0
 11
4.162552262360144
 21
7.2
 31
0.0
  0
LINE
  5
597
330
39
100
AcDbEntity
  8
0
 62
     0
100
AcDbLine
 10
4.179851720577784
 20
7.2
 30
0.0
 11
4.201069394166239
 21
7.2
 31
0.0
  0
LINE
  5
598
330
39
100
AcDbEntity
  8
0
 62
     0
100
AcDbLine
 10
4.139024000520274
 20
7.19375
 30
0.0
 11
4.160341914027816
 21
7.19375
 31
0.0
  0
LINE
  5
599
330
39
100
AcDbEntity
  8
0
 62
     0
100
AcDbLine
 10
4.182062068910108
 20
7.19375
 30
0.0
 11
4.203379982417666
 21
7.19375
 31
0.0
  0
LINE
  5
59A
330
39
100
AcDbEntity
  8
0
 62
     0
100
AcDbLine
 10
4.136618018618079
 20
7.1875
 30
0.0
 11
4.158041299813144
 21
7.1875
 31
0.0
  0
LINE
  5
59B
330
39
100
AcDbEntity
  8
0
 62
     0
100
AcDbLine
 10
4.18436268312478
 20
7.1875
 30
0.0
 11
4.20578596431986
 21
7.1875
 31
0.0
  0
LINE
  5
59C
330
39
100
AcDbEntity
  8
0
 62
     0
100
AcDbLine
 10
4.134115155615204
 20
7.18125
 30
0.0
 11
4.155649133687051
 21
7.18125
 31
0.0
  0
LINE
  5
59D
330
39
100
AcDbEntity
  8
0
 62
     0
100
AcDbLine
 10
4.186754849250876
 20
7.18125
 30
0.0
 11
4.208288827322737
 21
7.18125
 31
0.0
  0
LINE
  5
59E
330
39
100
AcDbEntity
  8
0
 62
     0
100
AcDbLine
 10
4.131513831158817
 20
7.175
 30
0.0
 11
4.153164052399043
 21
7.175
 31
0.0
  0
LINE
  5
59F
330
39
100
AcDbEntity
  8
0
 62
     0
100
AcDbLine
 10
4.189239930538879
 20
7.175
 30
0.0
 11
4.210890151779121
 21
7.175
 31
0.0
  0
LINE
  5
5A0
330
39
100
AcDbEntity
  8
0
 62
     0
100
AcDbLine
 10
4.128812366077735
 20
7.16875
 30
0.0
 11
4.1505846109264
 21
7.16875
 31
0.0
  0
LINE
  5
5A1
330
39
100
AcDbEntity
  8
0
 62
     0
100
AcDbLine
 10
4.191819372011525
 20
7.16875
 30
0.0
 11
4.213591616860204
 21
7.16875
 31
0.0
  0
LINE
  5
5A2
330
39
100
AcDbEntity
  8
0
 62
     0
100
AcDbLine
 10
4.126008975888199
 20
7.1625
 30
0.0
 11
4.147909277503027
 21
7.1625
 31
0.0
  0
LINE
  5
5A3
330
39
100
AcDbEntity
  8
0
 62
     0
100
AcDbLine
 10
4.194494705434896
 20
7.1625
 30
0.0
 11
4.216395007049741
 21
7.1625
 31
0.0
  0
LINE
  5
5A4
330
39
100
AcDbEntity
  8
0
 62
     0
100
AcDbLine
 10
4.123101763654189
 20
7.15625
 30
0.0
 11
4.145136428182898
 21
7.15625
 31
0.0
  0
LINE
  5
5A5
330
39
100
AcDbEntity
  8
0
 62
     0
100
AcDbLine
 10
4.197267554755029
 20
7.15625
 30
0.0
 11
4.219302219283752
 21
7.15625
 31
0.0
  0
ENDBLK
  5
5A6
330
39
100
AcDbEntity
  8
0
100
AcDbBlockEnd
  0
BLOCK
  5
5A7
330
3A
100
AcDbEntity
  8
0
100
AcDbBlockBegin
  2
*D24
 70
     1
 10
0.0
 20
0.0
 30
0.0
  3
*D24
  1

  0
LINE
  5
5A8
330
3A
100
AcDbEntity
  8
0
  6
ByBlock
 62
     0
100
AcDbLine
 10
64.96349918188641
 20
16.95341555699217
 30
0.0
 11
64.11590289285071
 21
16.95341555699217
 31
0.0
  0
LINE
  5
5A9
330
3A
100
AcDbEntity
  8
0
  6
ByBlock
 62
     0
100
AcDbLine
 10
64.96349918188641
 20
16.82841555699217
 30
0.0
 11
64.11590289285071
 21
16.82841555699217
 31
0.0
  0
LINE
  5
5AA
330
3A
100
AcDbEntity
  8
0
  6
ByBlock
 62
     0
100
AcDbLine
 10
64.49090289285071
 20
16.54741555699217
 30
0.0
 11
64.49090289285071
 21
16.26641555699217
 31
0.0
  0
LINE
  5
5AB
330
3A
100
AcDbEntity
  8
0
  6
ByBlock
 62
     0
100
AcDbLine
 10
64.49090289285071
 20
17.23441555699217
 30
0.0
 11
64.49090289285071
 21
17.51541555699217
 31
0.0
  0
LINE
  5
5AC
330
3A
100
AcDbEntity
  8
0
  6
ByBlock
 62
     0
100
AcDbLine
 10
64.49090289285071
 20
16.26641555699217
 30
0.0
 11
64.20990289285071
 21
16.26641555699217
 31
0.0
  0
SOLID
  5
5AD
330
3A
100
AcDbEntity
  8
0
  6
ByBlock
 62
     0
100
AcDbTrace
 10
64.53773622618405
 20
16.54741555699217
 30
0.0
 11
64.44406955951738
 21
16.54741555699217
 31
0.0
 12
64.49090289285071
 22
16.82841555699217
 32
0.0
 13
64.49090289285071
 23
16.82841555699217
 33
0.0
  0
SOLID
  5
5AE
330
3A
100
AcDbEntity
  8
0
  6
ByBlock
 62
     0
100
AcDbTrace
 10
64.53773622618405
 20
17.23441555699217
 30
0.0
 11
64.44406955951738
 21
17.23441555699217
 31
0.0
 12
64.49090289285071
 22
16.95341555699217
 32
0.0
 13
64.49090289285071
 23
16.95341555699217
 33
0.0
  0
TEXT
  5
5AF
330
3A
100
AcDbEntity
  8
0
  6
ByBlock
 62
     0
100
AcDbText
 10
62.94540289285071
 20
16.12591555699217
 30
0.0
 40
0.281
  1
0.125
100
AcDbText
  0
POINT
  5
5B0
330
3A
100
AcDbEntity
  8
DEFPOINTS
  6
ByBlock
 62
     0
100
AcDbPoint
 10
65.1504991818864
 20
16.95341555699217
 30
0.0
  0
POINT
  5
5B1
330
3A
100
AcDbEntity
  8
DEFPOINTS
  6
ByBlock
 62
     0
100
AcDbPoint
 10
65.1504991818864
 20
16.82841555699217
 30
0.0
  0
POINT
  5
5B2
330
3A
100
AcDbEntity
  8
DEFPOINTS
  6
ByBlock
 62
     0
100
AcDbPoint
 10
64.49090289285071
 20
16.82841555699217
 30
0.0
  0
ENDBLK
  5
5B3
330
3A
100
AcDbEntity
  8
0
100
AcDbBlockEnd
  0
BLOCK
  5
5B4
330
3B
100
AcDbEntity
  8
0
100
AcDbBlockBegin
  2
*D25
 70
     1
 10
0.0
 20
0.0
 30
0.0
  3
*D25
  1

  0
LINE
  5
5B5
330
3B
100
AcDbEntity
  8
0
  6
ByBlock
 62
     0
100
AcDbLine
 10
74.56017873870536
 20
45.06191773613918
 30
0.0
 11
80.58497617359796
 21
45.06191773613918
 31
0.0
  0
LINE
  5
5B6
330
3B
100
AcDbEntity
  8
0
  6
ByBlock
 62
     0
100
AcDbLine
 10
74.56017873870536
 20
31.56312350484303
 30
0.0
 11
80.58497617359796
 21
31.56312350484303
 31
0.0
  0
LINE
  5
5B7
330
3B
100
AcDbEntity
  8
0
  6
ByBlock
 62
     0
100
AcDbLine
 10
80.20997617359794
 20
44.78091773613918
 30
0.0
 11
80.20997617359794
 21
38.73402062049111
 31
0.0
  0
LINE
  5
5B8
330
3B
100
AcDbEntity
  8
0
  6
ByBlock
 62
     0
100
AcDbLine
 10
80.20997617359794
 20
31.84412350484302
 30
0.0
 11
80.20997617359794
 21
37.8910206204911
 31
0.0
  0
SOLID
  5
5B9
330
3B
100
AcDbEntity
  8
0
  6
ByBlock
 62
     0
100
AcDbTrace
 10
80.25680950693129
 20
44.78091773613918
 30
0.0
 11
80.16314284026462
 21
44.78091773613918
 31
0.0
 12
80.20997617359794
 22
45.06191773613918
 32
0.0
 13
80.20997617359794
 23
45.06191773613918
 33
0.0
  0
SOLID
  5
5BA
330
3B
100
AcDbEntity
  8
0
  6
ByBlock
 62
     0
100
AcDbTrace
 10
80.25680950693129
 20
31.84412350484302
 30
0.0
 11
80.16314284026462
 21
31.84412350484302
 31
0.0
 12
80.20997617359794
 22
31.56312350484303
 32
0.0
 13
80.20997617359794
 23
31.56312350484303
 33
0.0
  0
TEXT
  5
5BB
330
3B
100
AcDbEntity
  8
0
  6
ByBlock
 62
     0
100
AcDbText
 10
79.50747617359795
 20
38.17202062049111
 30
0.0
 40
0.281
  1
13 1/2
100
AcDbText
  0
POINT
  5
5BC
330
3B
100
AcDbEntity
  8
DEFPOINTS
  6
ByBlock
 62
     0
100
AcDbPoint
 10
74.37317873870536
 20
45.06191773613918
 30
0.0
  0
POINT
  5
5BD
330
3B
100
AcDbEntity
  8
DEFPOINTS
  6
ByBlock
 62
     0
100
AcDbPoint
 10
74.37317873870536
 20
31.56312350484303
 30
0.0
  0
POINT
  5
5BE
330
3B
100
AcDbEntity
  8
DEFPOINTS
  6
ByBlock
 62
     0
100
AcDbPoint
 10
80.20997617359794
 20
31.56312350484303
 30
0.0
  0
ENDBLK
  5
5BF
330
3B
100
AcDbEntity
  8
0
100
AcDbBlockEnd
  0
BLOCK
  5
5C0
330
3C
100
AcDbEntity
  8
0
100
AcDbBlockBegin
  2
*D26
 70
     1
 10
0.0
 20
0.0
 30
0.0
  3
*D26
  1

  0
LINE
  5
5C1
330
3C
100
AcDbEntity
  8
0
  6
ByBlock
 62
     0
100
AcDbLine
 10
76.75211262058763
 20
17.45341555699217
 30
0.0
 11
81.19048451113236
 21
17.45341555699217
 31
0.0
  0
LINE
  5
5C2
330
3C
100
AcDbEntity
  8
0
  6
ByBlock
 62
     0
100
AcDbLine
 10
76.61255584652288
 20
16.95341555699217
 30
0.0
 11
81.19048451113236
 21
16.95341555699217
 31
0.0
  0
LINE
  5
5C3
330
3C
100
AcDbEntity
  8
0
  6
ByBlock
 62
     0
100
AcDbLine
 10
80.81548451113237
 20
16.67241555699217
 30
0.0
 11
80.81548451113237
 21
16.39141555699217
 31
0.0
  0
LINE
  5
5C4
330
3C
100
AcDbEntity
  8
0
  6
ByBlock
 62
     0
100
AcDbLine
 10
80.81548451113237
 20
17.73441555699217
 30
0.0
 11
80.81548451113237
 21
18.01541555699217
 31
0.0
  0
LINE
  5
5C5
330
3C
100
AcDbEntity
  8
0
  6
ByBlock
 62
     0
100
AcDbLine
 10
80.81548451113237
 20
16.39141555699217
 30
0.0
 11
80.53448451113236
 21
16.39141555699217
 31
0.0
  0
SOLID
  5
5C6
330
3C
100
AcDbEntity
  8
0
  6
ByBlock
 62
     0
100
AcDbTrace
 10
80.86231784446571
 20
16.67241555699217
 30
0.0
 11
80.76865117779902
 21
16.67241555699217
 31
0.0
 12
80.81548451113237
 22
16.95341555699217
 32
0.0
 13
80.81548451113237
 23
16.95341555699217
 33
0.0
  0
SOLID
  5
5C7
330
3C
100
AcDbEntity
  8
0
  6
ByBlock
 62
     0
100
AcDbTrace
 10
80.86231784446571
 20
17.73441555699217
 30
0.0
 11
80.76865117779902
 21
17.73441555699217
 31
0.0
 12
80.81548451113237
 22
17.45341555699217
 32
0.0
 13
80.81548451113237
 23
17.45341555699217
 33
0.0
  0
TEXT
  5
5C8
330
3C
100
AcDbEntity
  8
0
  6
ByBlock
 62
     0
100
AcDbText
 10
79.59781784446569
 20
16.25091555699217
 30
0.0
 40
0.281
  1
1/2
100
AcDbText
  0
POINT
  5
5C9
330
3C
100
AcDbEntity
  8
DEFPOINTS
  6
ByBlock
 62
     0
100
AcDbPoint
 10
76.56511262058763
 20
17.45341555699217
 30
0.0
  0
POINT
  5
5CA
330
3C
100
AcDbEntity
  8
DEFPOINTS
  6
ByBlock
 62
     0
100
AcDbPoint
 10
76.42555584652289
 20
16.95341555699217
 30
0.0
  0
POINT
  5
5CB
330
3C
100
AcDbEntity
  8
DEFPOINTS
  6
ByBlock
 62
     0
100
AcDbPoint
 10
80.81548451113237
 20
16.95341555699217
 30
0.0
  0
ENDBLK
  5
5CC
330
3C
100
AcDbEntity
  8
0
100
AcDbBlockEnd
  0
BLOCK
  5
5CD
330
3D
100
AcDbEntity
  8
0
100
AcDbBlockBegin
  2
*D27
 70
     1
 10
0.0
 20
0.0
 30
0.0
  3
*D27
  1

  0
LINE
  5
5CE
330
3D
100
AcDbEntity
  8
0
  6
ByBlock
 62
     0
100
AcDbLine
 10
76.75211262058763
 20
17.45341555699217
 30
0.0
 11
81.19048451113236
 21
17.45341555699217
 31
0.0
  0
LINE
  5
5CF
330
3D
100
AcDbEntity
  8
0
  6
ByBlock
 62
     0
100
AcDbLine
 10
77.41476583137471
 20
22.82841555699217
 30
0.0
 11
81.19048451113236
 21
22.82841555699217
 31
0.0
  0
LINE
  5
5D0
330
3D
100
AcDbEntity
  8
0
  6
ByBlock
 62
     0
100
AcDbLine
 10
80.81548451113237
 20
17.73441555699217
 30
0.0
 11
80.81548451113237
 21
19.71941555699217
 31
0.0
  0
LINE
  5
5D1
330
3D
100
AcDbEntity
  8
0
  6
ByBlock
 62
     0
100
AcDbLine
 10
80.81548451113237
 20
22.54741555699217
 30
0.0
 11
80.81548451113237
 21
20.56241555699217
 31
0.0
  0
SOLID
  5
5D2
330
3D
100
AcDbEntity
  8
0
  6
ByBlock
 62
     0
100
AcDbTrace
 10
80.86231784446571
 20
17.73441555699217
 30
0.0
 11
80.76865117779902
 21
17.73441555699217
 31
0.0
 12
80.81548451113237
 22
17.45341555699217
 32
0.0
 13
80.81548451113237
 23
17.45341555699217
 33
0.0
  0
SOLID
  5
5D3
330
3D
100
AcDbEntity
  8
0
  6
ByBlock
 62
     0
100
AcDbTrace
 10
80.86231784446571
 20
22.54741555699217
 30
0.0
 11
80.76865117779902
 21
22.54741555699217
 31
0.0
 12
80.81548451113237
 22
22.82841555699217
 32
0.0
 13
80.81548451113237
 23
22.82841555699217
 33
0.0
  0
TEXT
  5
5D4
330
3D
100
AcDbEntity
  8
0
  6
ByBlock
 62
     0
100
AcDbText
 10
80.15981784446571
 20
20.00041555699217
 30
0.0
 40
0.281
  1
5 3/8
100
AcDbText
  0
POINT
  5
5D5
330
3D
100
AcDbEntity
  8
DEFPOINTS
  6
ByBlock
 62
     0
100
AcDbPoint
 10
76.56511262058763
 20
17.45341555699217
 30
0.0
  0
POINT
  5
5D6
330
3D
100
AcDbEntity
  8
DEFPOINTS
  6
ByBlock
 62
     0
100
AcDbPoint
 10
77.22776583137471
 20
22.82841555699217
 30
0.0
  0
POINT
  5
5D7
330
3D
100
AcDbEntity
  8
DEFPOINTS
  6
ByBlock
 62
     0
100
AcDbPoint
 10
80.81548451113237
 20
22.82841555699217
 30
0.0
  0
ENDBLK
  5
5D8
330
3D
100
AcDbEntity
  8
0
100
AcDbBlockEnd
  0
BLOCK
  5
5D9
330
3E
100
AcDbEntity
  8
0
100
AcDbBlockBegin
  2
*D28
 70
     1
 10
0.0
 20
0.0
 30
0.0
  3
*D28
  1

  0
LINE
  5
5DA
330
3E
100
AcDbEntity
  8
0
  6
ByBlock
 62
     0
100
AcDbLine
 10
64.80362751420464
 20
23.01541555699217
 30
0.0
 11
64.80362751420464
 21
26.20266915979481
 31
0.0
  0
LINE
  5
5DB
330
3E
100
AcDbEntity
  8
0
  6
ByBlock
 62
     0
100
AcDbLine
 10
76.77242751420465
 20
23.01541555699217
 30
0.0
 11
76.77242751420465
 21
26.20266915979481
 31
0.0
  0
LINE
  5
5DC
330
3E
100
AcDbEntity
  8
0
  6
ByBlock
 62
     0
100
AcDbLine
 10
65.08462751420464
 20
25.82766915979481
 30
0.0
 11
69.57036084753797
 21
25.82766915979481
 31
0.0
  0
LINE
  5
5DD
330
3E
100
AcDbEntity
  8
0
  6
ByBlock
 62
     0
100
AcDbLine
 10
76.49142751420464
 20
25.82766915979481
 30
0.0
 11
72.00569418087131
 21
25.82766915979481
 31
0.0
  0
SOLID
  5
5DE
330
3E
100
AcDbEntity
  8
0
  6
ByBlock
 62
     0
100
AcDbTrace
 10
65.08462751420464
 20
25.78083582646148
 30
0.0
 11
65.08462751420464
 21
25.87450249312814
 31
0.0
 12
64.80362751420464
 22
25.82766915979481
 32
0.0
 13
64.80362751420464
 23
25.82766915979481
 33
0.0
  0
SOLID
  5
5DF
330
3E
100
AcDbEntity
  8
0
  6
ByBlock
 62
     0
100
AcDbTrace
 10
76.49142751420464
 20
25.78083582646148
 30
0.0
 11
76.49142751420464
 21
25.87450249312814
 31
0.0
 12
76.77242751420465
 22
25.82766915979481
 32
0.0
 13
76.77242751420465
 23
25.82766915979481
 33
0.0
  0
TEXT
  5
5E0
330
3E
100
AcDbEntity
  8
0
  6
ByBlock
 62
     0
100
AcDbText
 10
69.85136084753797
 20
25.68716915979481
 30
0.0
 40
0.281
  1
11 31/32
100
AcDbText
  0
POINT
  5
5E1
330
3E
100
AcDbEntity
  8
DEFPOINTS
  6
ByBlock
 62
     0
100
AcDbPoint
 10
64.80362751420464
 20
22.82841555699217
 30
0.0
  0
POINT
  5
5E2
330
3E
100
AcDbEntity
  8
DEFPOINTS
  6
ByBlock
 62
     0
100
AcDbPoint
 10
76.77242751420465
 20
22.82841555699217
 30
0.0
  0
POINT
  5
5E3
330
3E
100
AcDbEntity
  8
DEFPOINTS
  6
ByBlock
 62
     0
100
AcDbPoint
 10
76.77242751420465
 20
25.82766915979481
 30
0.0
  0
ENDBLK
  5
5E4
330
3E
100
AcDbEntity
  8
0
100
AcDbBlockEnd
  0
BLOCK
  5
685
330
42
100
AcDbEntity
  8
0
100
AcDbBlockBegin
  2
*D32
 70
     1
 10
0.0
 20
0.0
 30
0.0
  3
*D32
  1

  0
LINE
  5
686
330
42
100
AcDbEntity
  8
0
  6
ByBlock
 62
     0
100
AcDbLine
 10
68.4310787576557
 20
31.32812062049111
 30
0.0
 11
63.03083097521906
 21
31.32812062049111
 31
0.0
  0
LINE
  5
687
330
42
100
AcDbEntity
  8
0
  6
ByBlock
 62
     0
100
AcDbLine
 10
68.4310787576557
 20
45.2969206204911
 30
0.0
 11
63.03083097521906
 21
45.2969206204911
 31
0.0
  0
LINE
  5
688
330
42
100
AcDbEntity
  8
0
  6
ByBlock
 62
     0
100
AcDbLine
 10
63.40583097521906
 20
31.6091206204911
 30
0.0
 11
63.40583097521906
 21
37.8910206204911
 31
0.0
  0
LINE
  5
689
330
42
100
AcDbEntity
  8
0
  6
ByBlock
 62
     0
100
AcDbLine
 10
63.40583097521906
 20
45.01592062049111
 30
0.0
 11
63.40583097521906
 21
38.73402062049111
 31
0.0
  0
SOLID
  5
68A
330
42
100
AcDbEntity
  8
0
  6
ByBlock
 62
     0
100
AcDbTrace
 10
63.4526643085524
 20
31.6091206204911
 30
0.0
 11
63.35899764188573
 21
31.6091206204911
 31
0.0
 12
63.40583097521906
 22
31.32812062049111
 32
0.0
 13
63.40583097521906
 23
31.32812062049111
 33
0.0
  0
SOLID
  5
68B
330
42
100
AcDbEntity
  8
0
  6
ByBlock
 62
     0
100
AcDbTrace
 10
63.4526643085524
 20
45.01592062049111
 30
0.0
 11
63.35899764188573
 21
45.01592062049111
 31
0.0
 12
63.40583097521906
 22
45.2969206204911
 32
0.0
 13
63.40583097521906
 23
45.2969206204911
 33
0.0
  0
TEXT
  5
68C
330
42
100
AcDbEntity
  8
0
  6
ByBlock
 62
     0
100
AcDbText
 10
62.42233097521906
 20
38.17202062049111
 30
0.0
 40
0.281
  1
13 31/32
100
AcDbText
  0
POINT
  5
68D
330
42
100
AcDbEntity
  8
DEFPOINTS
  6
ByBlock
 62
     0
100
AcDbPoint
 10
68.6180787576557
 20
31.32812062049111
 30
0.0
  0
POINT
  5
68E
330
42
100
AcDbEntity
  8
DEFPOINTS
  6
ByBlock
 62
     0
100
AcDbPoint
 10
68.6180787576557
 20
45.2969206204911
 30
0.0
  0
POINT
  5
68F
330
42
100
AcDbEntity
  8
DEFPOINTS
  6
ByBlock
 62
     0
100
AcDbPoint
 10
63.40583097521906
 20
45.2969206204911
 30
0.0
  0
ENDBLK
  5
690
330
42
100
AcDbEntity
  8
0
100
AcDbBlockEnd
  0
BLOCK
  5
727
330
45
100
AcDbEntity
  8
0
100
AcDbBlockBegin
  2
*D35
 70
     1
 10
0.0
 20
0.0
 30
0.0
  3
*D35
  1

  0
LINE
  5
728
330
45
100
AcDbEntity
  8
0
  6
ByBlock
 62
     0
100
AcDbLine
 10
28.97528922021646
 20
45.86935240014581
 30
0.0
 11
33.16516327012241
 21
48.69251126045578
 31
0.0
  0
SOLID
  5
729
330
45
100
AcDbEntity
  8
0
  6
ByBlock
 62
     0
100
AcDbTrace
 10
28.94911913060984
 20
45.90819165246987
 30
0.0
 11
29.00145930982308
 21
45.83051314782174
 31
0.0
 12
28.74225370627206
 22
45.71233186250608
 32
0.0
 13
28.74225370627206
 23
45.71233186250608
 33
0.0
  0
LINE
  5
72A
330
45
100
AcDbEntity
  8
0
  6
ByBlock
 62
     0
100
AcDbLine
 10
33.16516327012241
 20
48.69251126045578
 30
0.0
 11
33.44616327012241
 21
48.69251126045578
 31
0.0
  0
TEXT
  5
72B
330
45
100
AcDbEntity
  8
0
  6
ByBlock
 62
     0
100
AcDbText
 10
33.72716327012242
 20
48.55201126045578
 30
0.0
 40
0.281
  1
%%c0.313
100
AcDbText
  0
LINE
  5
72C
330
45
100
AcDbEntity
  8
0
  6
ByBlock
 62
     0
100
AcDbLine
 10
28.52267435020867
 20
45.6250206204911
 30
0.0
 11
28.70267435020867
 21
45.6250206204911
 31
0.0
  0
LINE
  5
72D
330
45
100
AcDbEntity
  8
0
  6
ByBlock
 62
     0
100
AcDbLine
 10
28.61267435020867
 20
45.53502062049109
 30
0.0
 11
28.61267435020867
 21
45.7150206204911
 31
0.0
  0
POINT
  5
72E
330
45
100
AcDbEntity
  8
DEFPOINTS
  6
ByBlock
 62
     0
100
AcDbPoint
 10
28.74225370627206
 20
45.71233186250608
 30
0.0
  0
POINT
  5
72F
330
45
100
AcDbEntity
  8
DEFPOINTS
  6
ByBlock
 62
     0
100
AcDbPoint
 10
28.48309499414529
 20
45.53770937847612
 30
0.0
  0
ENDBLK
  5
730
330
45
100
AcDbEntity
  8
0
100
AcDbBlockEnd
  0
BLOCK
  5
731
330
46
100
AcDbEntity
  8
0
100
AcDbBlockBegin
  2
*X36
 70
     1
 10
0.0
 20
0.0
 30
0.0
  3
*X36
  1

  0
LINE
  5
732
330
46
100
AcDbEntity
  8
0
 62
     0
100
AcDbLine
 10
74.61807875765568
 20
34.6299189356659
 30
0.0
 11
74.49307875765569
 21
34.7549189356659
 31
0.0
  0
LINE
  5
733
330
46
100
AcDbEntity
  8
0
 62
     0
100
AcDbLine
 10
74.61807875765568
 20
33.56925876388608
 30
0.0
 11
74.49307875765569
 21
33.69425876388608
 31
0.0
  0
LINE
  5
734
330
46
100
AcDbEntity
  8
0
 62
     0
100
AcDbLine
 10
74.61807875765568
 20
32.50859859210626
 30
0.0
 11
74.49307875765569
 21
32.63359859210626
 31
0.0
  0
LINE
  5
735
330
46
100
AcDbEntity
  8
0
 62
     0
100
AcDbLine
 10
74.61807875765568
 20
31.44793842032644
 30
0.0
 11
74.46128735508328
 21
31.60472982289884
 31
0.0
  0
LINE
  5
736
330
46
100
AcDbEntity
  8
0
 62
     0
100
AcDbLine
 10
74.41707771665749
 20
30.58827928954481
 30
0.0
 11
74.3938374267094
 21
30.61151957949291
 31
0.0
  0
LINE
  5
737
330
46
100
AcDbEntity
  8
0
 62
     0
100
AcDbLine
 10
73.5998699987926
 20
31.4054870074097
 30
0.0
 11
73.47875621572093
 21
31.52660079048136
 31
0.0
  0
LINE
  5
738
330
46
100
AcDbEntity
  8
0
 62
     0
100
AcDbLine
 10
72.58129789549584
 20
31.36339893892665
 30
0.0
 11
72.45970771660957
 21
31.48498911781291
 31
0.0
  0
LINE
  5
739
330
46
100
AcDbEntity
  8
0
 62
     0
100
AcDbLine
 10
71.56272579219906
 20
31.3213108704436
 30
0.0
 11
71.4406592174982
 21
31.44337744514446
 31
0.0
  0
LINE
  5
73A
330
46
100
AcDbEntity
  8
0
 62
     0
100
AcDbLine
 10
70.5441536889023
 20
31.27922280196055
 30
0.0
 11
70.42161071838684
 21
31.40176577247601
 31
0.0
  0
LINE
  5
73B
330
46
100
AcDbEntity
  8
0
 62
     0
100
AcDbLine
 10
69.57598538675238
 20
31.18673093233065
 30
0.0
 11
69.40256221927547
 21
31.36015409980755
 31
0.0
  0
LINE
  5
73C
330
46
100
AcDbEntity
  8
0
 62
     0
100
AcDbLine
 10
68.82143052312182
 20
30.88062562418139
 30
0.0
 11
68.6180787576557
 21
31.08397738964751
 31
0.0
  0
LINE
  5
73D
330
46
100
AcDbEntity
  8
0
 62
     0
100
AcDbLine
 10
74.61807875765568
 20
35.69057910744572
 30
0.0
 11
74.49307875765569
 21
35.81557910744572
 31
0.0
  0
LINE
  5
73E
330
46
100
AcDbEntity
  8
0
 62
     0
100
AcDbLine
 10
74.61807875765568
 20
36.75123927922554
 30
0.0
 11
74.49307875765569
 21
36.87623927922555
 31
0.0
  0
LINE
  5
73F
330
46
100
AcDbEntity
  8
0
 62
     0
100
AcDbLine
 10
74.61807875765568
 20
37.81189945100537
 30
0.0
 11
74.49307875765569
 21
37.93689945100536
 31
0.0
  0
LINE
  5
740
330
46
100
AcDbEntity
  8
0
 62
     0
100
AcDbLine
 10
74.61807875765568
 20
38.87255962278518
 30
0.0
 11
74.49307875765569
 21
38.99755962278518
 31
0.0
  0
LINE
  5
741
330
46
100
AcDbEntity
  8
0
 62
     0
100
AcDbLine
 10
74.61807875765568
 20
39.93321979456501
 30
0.0
 11
74.49307875765569
 21
40.058219794565
 31
0.0
  0
LINE
  5
742
330
46
100
AcDbEntity
  8
0
 62
     0
100
AcDbLine
 10
69.281466611258
 20
45.2698319409627
 30
0.0
 11
68.8062993217641
 21
45.7449992304566
 31
0.0
  0
LINE
  5
743
330
46
100
AcDbEntity
  8
0
 62
     0
100
AcDbLine
 10
74.61807875765568
 20
40.99387996634482
 30
0.0
 11
74.49307875765569
 21
41.11887996634482
 31
0.0
  0
LINE
  5
744
330
46
100
AcDbEntity
  8
0
 62
     0
100
AcDbLine
 10
70.3872814597254
 20
45.22467726427511
 30
0.0
 11
70.25415744986187
 21
45.35780127413865
 31
0.0
  0
LINE
  5
745
330
46
100
AcDbEntity
  8
0
 62
     0
100
AcDbLine
 10
74.61807875765568
 20
42.05454013812465
 30
0.0
 11
74.49307875765569
 21
42.17954013812465
 31
0.0
  0
LINE
  5
746
330
46
100
AcDbEntity
  8
0
 62
     0
100
AcDbLine
 10
71.4930963081928
 20
45.17952258758753
 30
0.0
 11
71.36053382012068
 21
45.31208507565966
 31
0.0
  0
LINE
  5
747
330
46
100
AcDbEntity
  8
0
 62
     0
100
AcDbLine
 10
74.61807875765568
 20
43.11520030990447
 30
0.0
 11
74.49307875765569
 21
43.24020030990447
 31
0.0
  0
LINE
  5
748
330
46
100
AcDbEntity
  8
0
 62
     0
100
AcDbLine
 10
72.59891115666021
 20
45.13436791089994
 30
0.0
 11
72.4669101903795
 21
45.26636887718067
 31
0.0
  0
LINE
  5
749
330
46
100
AcDbEntity
  8
0
 62
     0
100
AcDbLine
 10
74.61807875765568
 20
44.17586048168429
 30
0.0
 11
74.49307875765569
 21
44.30086048168429
 31
0.0
  0
LINE
  5
74A
330
46
100
AcDbEntity
  8
0
 62
     0
100
AcDbLine
 10
73.70472600512761
 20
45.08921323421236
 30
0.0
 11
73.57328656063831
 21
45.22065267870168
 31
0.0
  0
LINE
  5
74B
330
46
100
AcDbEntity
  8
0
 62
     0
100
AcDbLine
 10
74.61807875765568
 20
45.23652065346411
 30
0.0
 11
74.3680787576557
 21
45.48652065346411
 31
0.0
  0
LINE
  5
74C
330
46
100
AcDbEntity
  8
0
 62
     0
100
AcDbLine
 10
74.61807875765568
 20
34.8066956306659
 30
0.0
 11
74.49307875765569
 21
34.9316956306659
 31
0.0
  0
LINE
  5
74D
330
46
100
AcDbEntity
  8
0
 62
     0
100
AcDbLine
 10
74.61807875765568
 20
33.74603545888609
 30
0.0
 11
74.49307875765569
 21
33.87103545888608
 31
0.0
  0
LINE
  5
74E
330
46
100
AcDbEntity
  8
0
 62
     0
100
AcDbLine
 10
74.61807875765568
 20
32.68537528710626
 30
0.0
 11
74.49307875765569
 21
32.81037528710626
 31
0.0
  0
LINE
  5
74F
330
46
100
AcDbEntity
  8
0
 62
     0
100
AcDbLine
 10
74.61807875765568
 20
31.62471511532644
 30
0.0
 11
74.49307875765569
 21
31.74971511532644
 31
0.0
  0
LINE
  5
750
330
46
100
AcDbEntity
  8
0
 62
     0
100
AcDbLine
 10
74.61807875765568
 20
30.56405494354662
 30
0.0
 11
74.3680787576557
 21
30.81405494354662
 31
0.0
  0
LINE
  5
751
330
46
100
AcDbEntity
  8
0
 62
     0
100
AcDbLine
 10
73.76963201572387
 20
31.41250168547844
 30
0.0
 11
73.6485976319545
 21
31.5335360692478
 31
0.0
  0
LINE
  5
752
330
46
100
AcDbEntity
  8
0
 62
     0
100
AcDbLine
 10
72.7510599124271
 20
31.37041361699539
 30
0.0
 11
72.62954913284314
 21
31.49192439657935
 31
0.0
  0
LINE
  5
753
330
46
100
AcDbEntity
  8
0
 62
     0
100
AcDbLine
 10
71.73248780913033
 20
31.32832554851234
 30
0.0
 11
71.61050063373178
 21
31.4503127239109
 31
0.0
  0
LINE
  5
754
330
46
100
AcDbEntity
  8
0
 62
     0
100
AcDbLine
 10
70.71391570583355
 20
31.28623748002929
 30
0.0
 11
70.5914521346204
 21
31.40870105124244
 31
0.0
  0
LINE
  5
755
330
46
100
AcDbEntity
  8
0
 62
     0
100
AcDbLine
 10
69.70828732620652
 20
31.23120568787651
 30
0.0
 11
69.57240363550903
 21
31.36708937857399
 31
0.0
  0
LINE
  5
756
330
46
100
AcDbEntity
  8
0
 62
     0
100
AcDbLine
 10
68.99164212059216
 20
30.88719072171104
 30
0.0
 11
68.6180787576557
 21
31.26075408464751
 31
0.0
  0
LINE
  5
757
330
46
100
AcDbEntity
  8
0
 62
     0
100
AcDbLine
 10
74.61807875765568
 20
35.86735580244572
 30
0.0
 11
74.49307875765569
 21
35.99235580244573
 31
0.0
  0
LINE
  5
758
330
46
100
AcDbEntity
  8
0
 62
     0
100
AcDbLine
 10
74.61807875765568
 20
36.92801597422555
 30
0.0
 11
74.49307875765569
 21
37.05301597422554
 31
0.0
  0
LINE
  5
759
330
46
100
AcDbEntity
  8
0
 62
     0
100
AcDbLine
 10
74.61807875765568
 20
37.98867614600537
 30
0.0
 11
74.49307875765569
 21
38.11367614600537
 31
0.0
  0
LINE
  5
75A
330
46
100
AcDbEntity
  8
0
 62
     0
100
AcDbLine
 10
74.61807875765568
 20
39.04933631778519
 30
0.0
 11
74.49307875765569
 21
39.17433631778519
 31
0.0
  0
LINE
  5
75B
330
46
100
AcDbEntity
  8
0
 62
     0
100
AcDbLine
 10
74.61807875765568
 20
40.109996489565
 30
0.0
 11
74.49307875765569
 21
40.23499648956501
 31
0.0
  0
LINE
  5
75C
330
46
100
AcDbEntity
  8
0
 62
     0
100
AcDbLine
 10
69.4657690856933
 20
45.2623061615274
 30
0.0
 11
68.99016786562166
 21
45.73790738159905
 31
0.0
  0
LINE
  5
75D
330
46
100
AcDbEntity
  8
0
 62
     0
100
AcDbLine
 10
74.61807875765568
 20
41.17065666134482
 30
0.0
 11
74.49307875765569
 21
41.29565666134483
 31
0.0
  0
LINE
  5
75E
330
46
100
AcDbEntity
  8
0
 62
     0
100
AcDbLine
 10
70.5715839341607
 20
45.21715148483981
 30
0.0
 11
70.43855351126225
 21
45.35018190773827
 31
0.0
  0
LINE
  5
75F
330
46
100
AcDbEntity
  8
0
 62
     0
100
AcDbLine
 10
74.61807875765568
 20
42.23131683312465
 30
0.0
 11
74.49307875765569
 21
42.35631683312464
 31
0.0
  0
LINE
  5
760
330
46
100
AcDbEntity
  8
0
 62
     0
100
AcDbLine
 10
71.67739878262811
 20
45.17199680815223
 30
0.0
 11
71.54492988152107
 21
45.30446570925928
 31
0.0
  0
LINE
  5
761
330
46
100
AcDbEntity
  8
0
 62
     0
100
AcDbLine
 10
74.61807875765568
 20
43.29197700490447
 30
0.0
 11
74.49307875765569
 21
43.41697700490447
 31
0.0
  0
LINE
  5
762
330
46
100
AcDbEntity
  8
0
 62
     0
100
AcDbLine
 10
72.78321363109551
 20
45.12684213146465
 30
0.0
 11
72.65130625177987
 21
45.25874951078029
 31
0.0
  0
LINE
  5
763
330
46
100
AcDbEntity
  8
0
 62
     0
100
AcDbLine
 10
74.61807875765568
 20
44.35263717668429
 30
0.0
 11
74.49307875765569
 21
44.47763717668429
 31
0.0
  0
LINE
  5
764
330
46
100
AcDbEntity
  8
0
 62
     0
100
AcDbLine
 10
73.88902847956292
 20
45.08168745477706
 30
0.0
 11
73.75768262203869
 21
45.2130333123013
 31
0.0
  0
LINE
  5
765
330
46
100
AcDbEntity
  8
0
 62
     0
100
AcDbLine
 10
74.61807875765568
 20
45.41329734846411
 30
0.0
 11
74.3680787576557
 21
45.66329734846411
 31
0.0
  0
LINE
  5
766
330
46
100
AcDbEntity
  8
0
 62
     0
100
AcDbLine
 10
74.61807875765568
 20
34.9834723266659
 30
0.0
 11
74.49307875765569
 21
35.1084723266659
 31
0.0
  0
LINE
  5
767
330
46
100
AcDbEntity
  8
0
 62
     0
100
AcDbLine
 10
74.61807875765568
 20
33.92281215488608
 30
0.0
 11
74.49307875765569
 21
34.04781215488608
 31
0.0
  0
LINE
  5
768
330
46
100
AcDbEntity
  8
0
 62
     0
100
AcDbLine
 10
74.61807875765568
 20
32.86215198310626
 30
0.0
 11
74.49307875765569
 21
32.98715198310626
 31
0.0
  0
LINE
  5
769
330
46
100
AcDbEntity
  8
0
 62
     0
100
AcDbLine
 10
74.61807875765568
 20
31.80149181132644
 30
0.0
 11
74.49307875765569
 21
31.92649181132644
 31
0.0
  0
LINE
  5
76A
330
46
100
AcDbEntity
  8
0
 62
     0
100
AcDbLine
 10
74.61807875765568
 20
30.74083163954662
 30
0.0
 11
74.3680787576557
 21
30.99083163954662
 31
0.0
  0
LINE
  5
76B
330
46
100
AcDbEntity
  8
0
 62
     0
100
AcDbLine
 10
73.93939403361544
 20
31.41951636358686
 30
0.0
 11
73.81843904914884
 21
31.54047134805348
 31
0.0
  0
LINE
  5
76C
330
46
100
AcDbEntity
  8
0
 62
     0
100
AcDbLine
 10
72.92082193031868
 20
31.37742829510381
 30
0.0
 11
72.79939055003747
 21
31.49885967538502
 31
0.0
  0
LINE
  5
76D
330
46
100
AcDbEntity
  8
0
 62
     0
100
AcDbLine
 10
71.9022498270219
 20
31.33534022662076
 30
0.0
 11
71.78034205092609
 21
31.45724800271656
 31
0.0
  0
LINE
  5
76E
330
46
100
AcDbEntity
  8
0
 62
     0
100
AcDbLine
 10
70.88367772372514
 20
31.2932521581377
 30
0.0
 11
70.76129355181473
 21
31.41563633004811
 31
0.0
  0
LINE
  5
76F
330
46
100
AcDbEntity
  8
0
 62
     0
100
AcDbLine
 10
69.86510562042837
 20
31.25116408965465
 30
0.0
 11
69.74224505270337
 21
31.37402465737966
 31
0.0
  0
LINE
  5
770
330
46
100
AcDbEntity
  8
0
 62
     0
100
AcDbLine
 10
69.16185371902535
 20
30.89375581927784
 30
0.0
 11
68.72319655359198
 21
31.33241298471121
 31
0.0
  0
LINE
  5
771
330
46
100
AcDbEntity
  8
0
 62
     0
100
AcDbLine
 10
74.61807875765568
 20
36.04413249844572
 30
0.0
 11
74.49307875765569
 21
36.16913249844572
 31
0.0
  0
LINE
  5
772
330
46
100
AcDbEntity
  8
0
 62
     0
100
AcDbLine
 10
74.61807875765568
 20
37.10479267022555
 30
0.0
 11
74.49307875765569
 21
37.22979267022554
 31
0.0
  0
LINE
  5
773
330
46
100
AcDbEntity
  8
0
 62
     0
100
AcDbLine
 10
74.61807875765568
 20
38.16545284200536
 30
0.0
 11
74.49307875765569
 21
38.29045284200537
 31
0.0
  0
LINE
  5
774
330
46
100
AcDbEntity
  8
0
 62
     0
100
AcDbLine
 10
74.61807875765568
 20
39.22611301378519
 30
0.0
 11
74.49307875765569
 21
39.35111301378519
 31
0.0
  0
LINE
  5
775
330
46
100
AcDbEntity
  8
0
 62
     0
100
AcDbLine
 10
74.61807875765568
 20
40.286773185565
 30
0.0
 11
74.49307875765569
 21
40.411773185565
 31
0.0
  0
LINE
  5
776
330
46
100
AcDbEntity
  8
0
 62
     0
100
AcDbLine
 10
69.65007156117117
 20
45.25478038204952
 30
0.0
 11
69.17403641051932
 21
45.73081553270138
 31
0.0
  0
LINE
  5
777
330
46
100
AcDbEntity
  8
0
 62
     0
100
AcDbLine
 10
74.61807875765568
 20
41.34743335734483
 30
0.0
 11
74.49307875765569
 21
41.47243335734482
 31
0.0
  0
LINE
  5
778
330
46
100
AcDbEntity
  8
0
 62
     0
100
AcDbLine
 10
70.75588640963857
 20
45.20962570536194
 30
0.0
 11
70.62294957370572
 21
45.3425625412948
 31
0.0
  0
LINE
  5
779
330
46
100
AcDbEntity
  8
0
 62
     0
100
AcDbLine
 10
74.61807875765568
 20
42.40809352912465
 30
0.0
 11
74.49307875765569
 21
42.53309352912465
 31
0.0
  0
LINE
  5
77A
330
46
100
AcDbEntity
  8
0
 62
     0
100
AcDbLine
 10
71.86170125810598
 20
45.16447102867435
 30
0.0
 11
71.72932594396454
 21
45.2968463428158
 31
0.0
  0
LINE
  5
77B
330
46
100
AcDbEntity
  8
0
 62
     0
100
AcDbLine
 10
74.61807875765568
 20
43.46875370090446
 30
0.0
 11
74.49307875765569
 21
43.59375370090447
 31
0.0
  0
LINE
  5
77C
330
46
100
AcDbEntity
  8
0
 62
     0
100
AcDbLine
 10
72.96751610657338
 20
45.11931635198677
 30
0.0
 11
72.83570231422335
 21
45.25113014433681
 31
0.0
  0
LINE
  5
77D
330
46
100
AcDbEntity
  8
0
 62
     0
100
AcDbLine
 10
74.61807875765568
 20
44.52941387268429
 30
0.0
 11
74.49307875765569
 21
44.65441387268429
 31
0.0
  0
LINE
  5
77E
330
46
100
AcDbEntity
  8
0
 62
     0
100
AcDbLine
 10
74.07333095504078
 20
45.07416167529918
 30
0.0
 11
73.94207868448217
 21
45.20541394585782
 31
0.0
  0
LINE
  5
77F
330
46
100
AcDbEntity
  8
0
 62
     0
100
AcDbLine
 10
74.61807875765568
 20
45.5900740444641
 30
0.0
 11
74.3680787576557
 21
45.84007404446411
 31
0.0
  0
LINE
  5
780
330
46
100
AcDbEntity
  8
0
 62
     0
100
AcDbLine
 10
74.61807875765568
 20
35.16024902166591
 30
0.0
 11
74.49307875765569
 21
35.28524902166591
 31
0.0
  0
LINE
  5
781
330
46
100
AcDbEntity
  8
0
 62
     0
100
AcDbLine
 10
74.61807875765568
 20
34.09958884988608
 30
0.0
 11
74.49307875765569
 21
34.22458884988608
 31
0.0
  0
LINE
  5
782
330
46
100
AcDbEntity
  8
0
 62
     0
100
AcDbLine
 10
74.61807875765568
 20
33.03892867810626
 30
0.0
 11
74.49307875765569
 21
33.16392867810626
 31
0.0
  0
LINE
  5
783
330
46
100
AcDbEntity
  8
0
 62
     0
100
AcDbLine
 10
74.61807875765568
 20
31.97826850632644
 30
0.0
 11
74.49307875765569
 21
32.10326850632644
 31
0.0
  0
LINE
  5
784
330
46
100
AcDbEntity
  8
0
 62
     0
100
AcDbLine
 10
74.61807875765568
 20
30.91760833454662
 30
0.0
 11
74.3680787576557
 21
31.16760833454662
 31
0.0
  0
LINE
  5
785
330
46
100
AcDbEntity
  8
0
 62
     0
100
AcDbLine
 10
74.10915605054672
 20
31.4265310416556
 30
0.0
 11
73.9882804653824
 21
31.54740662681991
 31
0.0
  0
LINE
  5
786
330
46
100
AcDbEntity
  8
0
 62
     0
100
AcDbLine
 10
73.09058394724994
 20
31.38444297317255
 30
0.0
 11
72.96923196627102
 21
31.50579495415146
 31
0.0
  0
LINE
  5
787
330
46
100
AcDbEntity
  8
0
 62
     0
100
AcDbLine
 10
72.07201184395318
 20
31.34235490468949
 30
0.0
 11
71.95018346715966
 21
31.464183281483
 31
0.0
  0
LINE
  5
788
330
46
100
AcDbEntity
  8
0
 62
     0
100
AcDbLine
 10
71.0534397406564
 20
31.30026683620644
 30
0.0
 11
70.93113496804829
 21
31.42257160881455
 31
0.0
  0
LINE
  5
789
330
46
100
AcDbEntity
  8
0
 62
     0
100
AcDbLine
 10
70.03486763735963
 20
31.25817876772339
 30
0.0
 11
69.91208646893693
 21
31.3809599361461
 31
0.0
  0
LINE
  5
78A
330
46
100
AcDbEntity
  8
0
 62
     0
100
AcDbLine
 10
69.28057702410801
 20
30.95180920919519
 30
0.0
 11
68.89303796982556
 21
31.33934826347764
 31
0.0
  0
LINE
  5
78B
330
46
100
AcDbEntity
  8
0
 62
     0
100
AcDbLine
 10
74.61807875765568
 20
36.22090919344572
 30
0.0
 11
74.49307875765569
 21
36.34590919344572
 31
0.0
  0
LINE
  5
78C
330
46
100
AcDbEntity
  8
0
 62
     0
100
AcDbLine
 10
74.61807875765568
 20
37.28156936522554
 30
0.0
 11
74.49307875765569
 21
37.40656936522555
 31
0.0
  0
LINE
  5
78D
330
46
100
AcDbEntity
  8
0
 62
     0
100
AcDbLine
 10
74.61807875765568
 20
38.34222953700537
 30
0.0
 11
74.49307875765569
 21
38.46722953700537
 31
0.0
  0
LINE
  5
78E
330
46
100
AcDbEntity
  8
0
 62
     0
100
AcDbLine
 10
74.61807875765568
 20
39.40288970878519
 30
0.0
 11
74.49307875765569
 21
39.52788970878519
 31
0.0
  0
LINE
  5
78F
330
46
100
AcDbEntity
  8
0
 62
     0
100
AcDbLine
 10
68.72855918713907
 20
45.29240927930181
 30
0.0
 11
68.6180787576557
 21
45.40288970878519
 31
0.0
  0
LINE
  5
790
330
46
100
AcDbEntity
  8
0
 62
     0
100
AcDbLine
 10
74.61807875765568
 20
40.46354988056501
 30
0.0
 11
74.49307875765569
 21
40.58854988056501
 31
0.0
  0
LINE
  5
791
330
46
100
AcDbEntity
  8
0
 62
     0
100
AcDbLine
 10
69.83437403560647
 20
45.24725460261422
 30
0.0
 11
69.68076383195877
 21
45.40086480626192
 31
0.0
  0
LINE
  5
792
330
46
100
AcDbEntity
  8
0
 62
     0
100
AcDbLine
 10
74.61807875765568
 20
41.52421005234482
 30
0.0
 11
74.49307875765569
 21
41.64921005234482
 31
0.0
  0
LINE
  5
793
330
46
100
AcDbEntity
  8
0
 62
     0
100
AcDbLine
 10
70.94018888407387
 20
45.20209992592664
 30
0.0
 11
70.80734563510612
 21
45.33494317489441
 31
0.0
  0
LINE
  5
794
330
46
100
AcDbEntity
  8
0
 62
     0
100
AcDbLine
 10
74.61807875765568
 20
42.58487022412465
 30
0.0
 11
74.49307875765569
 21
42.70987022412465
 31
0.0
  0
LINE
  5
795
330
46
100
AcDbEntity
  8
0
 62
     0
100
AcDbLine
 10
72.04600373254128
 20
45.15694524923905
 30
0.0
 11
71.91372200536493
 21
45.28922697641542
 31
0.0
  0
LINE
  5
796
330
46
100
AcDbEntity
  8
0
 62
     0
100
AcDbLine
 10
74.61807875765568
 20
43.64553039590447
 30
0.0
 11
74.49307875765569
 21
43.77053039590447
 31
0.0
  0
LINE
  5
797
330
46
100
AcDbEntity
  8
0
 62
     0
100
AcDbLine
 10
73.15181858100868
 20
45.11179057255147
 30
0.0
 11
73.02009837562373
 21
45.24351077793642
 31
0.0
  0
LINE
  5
798
330
46
100
AcDbEntity
  8
0
 62
     0
100
AcDbLine
 10
74.61807875765568
 20
44.7061905676843
 30
0.0
 11
74.49307875765569
 21
44.83119056768429
 31
0.0
  0
LINE
  5
799
330
46
100
AcDbEntity
  8
0
 62
     0
100
AcDbLine
 10
74.2576334294761
 20
45.06663589586388
 30
0.0
 11
74.12647474588254
 21
45.19779457945744
 31
0.0
  0
LINE
  5
79A
330
46
100
AcDbEntity
  8
0
 62
     0
100
AcDbLine
 10
74.61807875765568
 20
45.76685073946411
 30
0.0
 11
74.38485608094921
 21
46.00007341617059
 31
0.0
  0
ENDBLK
  5
79B
330
46
100
AcDbEntity
  8
0
100
AcDbBlockEnd
  0
BLOCK
  5
1268
330
125D
100
AcDbEntity
  8
0
100
AcDbBlockBegin
  2
*D38
 70
     1
 10
0.0
 20
0.0
 30
0.0
  3
*D38
  1

  0
LINE
  5
125E
330
125D
100
AcDbEntity
  8
DIM
 62
     0
370
    -2
100
AcDbLine
 10
16.86583603303859
 20
50.40073982921822
 30
0.0
 11
16.86583603303859
 21
56.58718869039351
 31
0.0
  0
LINE
  5
125F
330
125D
100
AcDbEntity
  8
DIM
 62
     0
370
    -2
100
AcDbLine
 10
30.3408360330386
 20
50.40073982921824
 30
0.0
 11
30.3408360330386
 21
56.58718869039351
 31
0.0
  0
LINE
  5
1260
330
125D
100
AcDbEntity
  8
DIM
 62
     0
370
    -2
100
AcDbLine
 10
17.14708603303859
 20
56.21218869039352
 30
0.0
 11
22.33858603303859
 21
56.21218869039352
 31
0.0
  0
LINE
  5
1261
330
125D
100
AcDbEntity
  8
DIM
 62
     0
370
    -2
100
AcDbLine
 10
30.0595860330386
 20
56.21218869039352
 30
0.0
 11
24.8680860330386
 21
56.21218869039352
 31
0.0
  0
SOLID
  5
1262
330
125D
100
AcDbEntity
  8
DIM
 62
     0
100
AcDbTrace
 10
17.14708603303859
 20
56.25906369039352
 30
0.0
 11
17.14708603303859
 21
56.16531369039352
 31
0.0
 12
16.86583603303859
 22
56.21218869039352
 32
0.0
 13
16.86583603303859
 23
56.21218869039352
 33
0.0
  0
SOLID
  5
1263
330
125D
100
AcDbEntity
  8
DIM
 62
     0
100
AcDbTrace
 10
30.0595860330386
 20
56.25906369039352
 30
0.0
 11
30.0595860330386
 21
56.16531369039352
 31
0.0
 12
30.3408360330386
 22
56.21218869039352
 32
0.0
 13
30.3408360330386
 23
56.21218869039352
 33
0.0
  0
MTEXT
  5
1264
330
125D
100
AcDbEntity
  8
DIM
 62
     0
100
AcDbMText
 10
23.60333603303859
 20
56.21218869039352
 30
0.0
 40
0.281
 41
0.0
 46
0.0
 71
     5
 72
     1
  1
\A1;13 15/32
 73
     1
 44
1.0
  0
POINT
  5
1265
330
125D
100
AcDbEntity
  8
DEFPOINTS
 62
     0
100
AcDbPoint
 10
16.86583603303859
 20
50.21323982921822
 30
0.0
  0
POINT
  5
1266
330
125D
100
AcDbEntity
  8
DEFPOINTS
 62
     0
100
AcDbPoint
 10
30.3408360330386
 20
50.21323982921824
 30
0.0
  0
POINT
  5
1267
330
125D
100
AcDbEntity
  8
DEFPOINTS
 62
     0
100
AcDbPoint
 10
30.3408360330386
 20
56.21218869039352
 30
0.0
  0
ENDBLK
  5
1269
330
125D
100
AcDbEntity
  8
0
100
AcDbBlockEnd
  0
BLOCK
  5
1275
330
126A
100
AcDbEntity
  8
0
100
AcDbBlockBegin
  2
*D39
 70
     1
 10
0.0
 20
0.0
 30
0.0
  3
*D39
  1

  0
LINE
  5
126B
330
126A
100
AcDbEntity
  8
DIM
 62
     0
370
    -2
100
AcDbLine
 10
18.61267435020868
 20
51.06571727607915
 30
0.0
 11
18.61267435020868
 21
54.57982154874951
 31
0.0
  0
LINE
  5
126C
330
126A
100
AcDbEntity
  8
DIM
 62
     0
370
    -2
100
AcDbLine
 10
28.61267435020868
 20
51.06571727607915
 30
0.0
 11
28.61267435020868
 21
54.57982154874951
 31
0.0
  0
LINE
  5
126D
330
126A
100
AcDbEntity
  8
DIM
 62
     0
370
    -2
100
AcDbLine
 10
18.89392435020868
 20
54.2048215487495
 30
0.0
 11
23.16750768354201
 21
54.2048215487495
 31
0.0
  0
LINE
  5
126E
330
126A
100
AcDbEntity
  8
DIM
 62
     0
370
    -2
100
AcDbLine
 10
28.33142435020868
 20
54.2048215487495
 30
0.0
 11
24.05784101687534
 21
54.2048215487495
 31
0.0
  0
SOLID
  5
126F
330
126A
100
AcDbEntity
  8
DIM
 62
     0
100
AcDbTrace
 10
18.89392435020868
 20
54.25169654874951
 30
0.0
 11
18.89392435020868
 21
54.1579465487495
 31
0.0
 12
18.61267435020868
 22
54.2048215487495
 32
0.0
 13
18.61267435020868
 23
54.2048215487495
 33
0.0
  0
SOLID
  5
1270
330
126A
100
AcDbEntity
  8
DIM
 62
     0
100
AcDbTrace
 10
28.33142435020868
 20
54.25169654874951
 30
0.0
 11
28.33142435020868
 21
54.1579465487495
 31
0.0
 12
28.61267435020868
 22
54.2048215487495
 32
0.0
 13
28.61267435020868
 23
54.2048215487495
 33
0.0
  0
MTEXT
  5
1271
330
126A
100
AcDbEntity
  8
DIM
 62
     0
100
AcDbMText
 10
23.61267435020868
 20
54.2048215487495
 30
0.0
 40
0.281
 41
0.0
 46
0.0
 71
     5
 72
     1
  1
\A1;10
 73
     1
 44
1.0
  0
POINT
  5
1272
330
126A
100
AcDbEntity
  8
DEFPOINTS
 62
     0
100
AcDbPoint
 10
18.61267435020868
 20
50.87821727607916
 30
0.0
  0
POINT
  5
1273
330
126A
100
AcDbEntity
  8
DEFPOINTS
 62
     0
100
AcDbPoint
 10
28.61267435020868
 20
50.87821727607916
 30
0.0
  0
POINT
  5
1274
330
126A
100
AcDbEntity
  8
DEFPOINTS
 62
     0
100
AcDbPoint
 10
28.61267435020868
 20
54.2048215487495
 30
0.0
  0
ENDBLK
  5
1276
330
126A
100
AcDbEntity
  8
0
100
AcDbBlockEnd
  0
ENDSEC
  0
SECTION
  2
ENTITIES
  0
ARC
  5
7AD
330
18
100
AcDbEntity
  8
0
100
AcDbCircle
 10
17.97514601789043
 20
17.07841555699217
 30
0.0
 40
0.25
100
AcDbArc
 50
182.2088155174671
 51
270.0
  0
LINE
  5
7AE
330
18
100
AcDbEntity
  8
0
100
AcDbLine
 10
17.55074209745843
 20
21.59532172326473
 30
0.0
 11
17.7253317683299
 21
17.06878016823465
 31
0.0
  0
LINE
  5
7AF
330
18
100
AcDbEntity
  8
0
100
AcDbLine
 10
17.19434250112369
 20
22.27341555699217
 30
0.0
 11
17.19703874298246
 21
22.20351078682348
 31
0.0
  0
ARC
  5
7B0
330
18
100
AcDbEntity
  8
0
100
AcDbCircle
 10
16.80129934877684
 20
21.56641555699217
 30
0.0
 40
0.75
100
AcDbArc
 50
2.208815517467225
 51
58.15301777490013
  0
ARC
  5
7B1
330
18
100
AcDbEntity
  8
0
100
AcDbCircle
 10
30.42404935164051
 20
21.56641555699217
 30
0.0
 40
0.75
100
AcDbArc
 50
121.8469822250998
 51
177.7911844825327
  0
LINE
  5
7B2
330
18
100
AcDbEntity
  8
0
100
AcDbLine
 10
30.03100619929365
 20
22.27341555699219
 30
0.0
 11
30.02830995743489
 21
22.20351078682348
 31
0.0
  0
LINE
  5
7B3
330
18
100
AcDbEntity
  8
0
100
AcDbLine
 10
29.67460660295892
 20
21.59532172326473
 30
0.0
 11
29.50001693208745
 21
17.06878016823465
 31
0.0
  0
ARC
  5
7B4
330
18
100
AcDbEntity
  8
0
100
AcDbCircle
 10
29.25020268252692
 20
17.07841555699217
 30
0.0
 40
0.25
100
AcDbArc
 50
270.0
 51
357.7911844825328
  0
LINE
  5
7B5
330
18
100
AcDbEntity
  8
0
100
AcDbLine
 10
17.97514601789043
 20
16.82841555699217
 30
0.0
 11
29.25020268252692
 21
16.82841555699217
 31
0.0
  0
LINE
  5
7B6
330
18
100
AcDbEntity
  8
0
100
AcDbLine
 10
49.60848124291935
 20
35.72571727607917
 30
0.0
 11
49.60848124291935
 21
36.85063988717091
 31
0.0
  0
LINE
  5
7B7
330
18
100
AcDbEntity
  8
0
100
AcDbLine
 10
44.84157507664678
 20
50.5376495288294
 30
0.0
 11
49.36880259959548
 21
50.35058151331289
 31
0.0
  0
LINE
  5
7B8
330
18
100
AcDbEntity
  8
0
100
AcDbLine
 10
44.16348124291933
 20
50.89404912516414
 30
0.0
 11
44.23338601308802
 21
50.89135288330537
 31
0.0
  0
ARC
  5
7B9
330
18
100
AcDbEntity
  8
0
100
AcDbCircle
 10
44.87048124291934
 20
51.28709227751099
 30
0.0
 40
0.75
100
AcDbArc
 50
211.8469822250999
 51
267.7911844825328
  0
ARC
  5
7BA
330
18
100
AcDbEntity
  8
0
100
AcDbCircle
 10
44.87048124291934
 20
35.66434227464732
 30
0.0
 40
0.75
100
AcDbArc
 50
92.20881551746725
 51
148.1530177749001
  0
LINE
  5
7BB
330
18
100
AcDbEntity
  8
0
100
AcDbLine
 10
44.16348124291934
 20
36.05738542699419
 30
0.0
 11
44.23338601308802
 21
36.06008166885295
 31
0.0
  0
LINE
  5
7BC
330
18
100
AcDbEntity
  8
0
100
AcDbLine
 10
44.84157507664678
 20
36.41378502332893
 30
0.0
 11
49.36880259959548
 21
36.60085303884545
 31
0.0
  0
LINE
  5
7E1
330
18
100
AcDbEntity
  8
0
100
AcDbLine
 10
30.3408360330386
 20
36.73609222380849
 30
0.0
 11
30.3408360330386
 21
50.21323982921824
 31
0.0
  0
LINE
  5
7E2
330
18
100
AcDbEntity
  8
0
100
AcDbLine
 10
79.52446107946345
 20
22.27341555699217
 30
0.0
 11
79.68233666376581
 21
22.27341555699217
 31
0.0
  0
LINE
  5
7E3
330
18
100
AcDbEntity
  8
0
100
AcDbLine
 10
66.51146101080276
 20
22.27341555699217
 30
0.0
 11
66.52022169240273
 21
22.27341555699217
 31
0.0
  0
LINE
  5
7E4
330
18
100
AcDbEntity
  8
0
100
AcDbLine
 10
78.23112923037847
 20
17.07841555699217
 30
0.0
 11
78.23112923037847
 21
17.32841555699216
 31
0.0
  0
LINE
  5
7E5
330
18
100
AcDbEntity
  8
0
100
AcDbLine
 10
67.98112923037848
 20
17.07841555699217
 30
0.0
 11
67.98112923037848
 21
17.32841555699216
 31
0.0
  0
LINE
  5
7E6
330
18
100
AcDbEntity
  8
0
100
AcDbLine
 10
78.88321433676146
 20
17.45341555699217
 30
0.0
 11
78.00756372681899
 21
17.45341555699217
 31
0.0
  0
LINE
  5
7E7
330
18
100
AcDbEntity
  8
0
100
AcDbLine
 10
78.00756372681899
 20
17.45341555699217
 30
0.0
 11
77.98827862043602
 21
16.95341555699217
 31
0.0
  0
LINE
  5
7E8
330
18
100
AcDbEntity
  8
0
100
AcDbLine
 10
68.20469473393798
 20
17.45341555699217
 30
0.0
 11
68.22397984032095
 21
16.95341555699217
 31
0.0
  0
LINE
  5
7E9
330
18
100
AcDbEntity
  8
0
100
AcDbLine
 10
67.3290441239955
 20
17.45341555699217
 30
0.0
 11
68.20469473393798
 21
17.45341555699217
 31
0.0
  0
LINE
  5
7EA
330
18
100
AcDbEntity
  8
0
100
AcDbLine
 10
16.86591957534252
 20
22.27341555699217
 30
0.0
 11
30.3409360330386
 21
22.27341555699219
 31
0.0
  0
LINE
  5
7EB
330
18
100
AcDbEntity
  8
0
100
AcDbLine
 10
17.19703874298244
 20
22.20351078682345
 30
0.0
 11
30.02830995743491
 21
22.20351078682345
 31
0.0
  0
LINE
  5
7EC
330
18
100
AcDbEntity
  8
0
100
AcDbLine
 10
18.20642435020867
 20
17.07841555699217
 30
0.0
 11
29.01892435020867
 21
17.07841555699217
 31
0.0
  0
LINE
  5
7ED
330
18
100
AcDbEntity
  8
0
100
AcDbLine
 10
18.14392435020867
 20
16.82841555699217
 30
0.0
 11
18.14392435020867
 21
17.01591555699217
 31
0.0
  0
LINE
  5
7EE
330
18
100
AcDbEntity
  8
0
100
AcDbLine
 10
29.08142435020867
 20
16.82841555699217
 30
0.0
 11
29.08142435020867
 21
17.01591555699217
 31
0.0
  0
ARC
  5
7EF
330
18
100
AcDbEntity
  8
0
100
AcDbCircle
 10
18.20642435020867
 20
17.01591555699217
 30
0.0
 40
0.0625
100
AcDbArc
 50
90.0
 51
180.0
  0
ARC
  5
7F0
330
18
100
AcDbEntity
  8
0
100
AcDbCircle
 10
29.01892435020867
 20
17.01591555699217
 30
0.0
 40
0.0625
100
AcDbArc
 50
0.0000000000008142
 51
90.0
  0
LINE
  5
7F1
330
18
100
AcDbEntity
  8
0
100
AcDbLine
 10
49.60848124291935
 20
35.72571727607917
 30
0.0
 11
49.42098124291934
 21
35.72571727607917
 31
0.0
  0
LINE
  5
7F2
330
18
100
AcDbEntity
  8
0
100
AcDbLine
 10
49.60848124291935
 20
51.22571727607916
 30
0.0
 11
49.42098124291934
 21
51.22571727607916
 31
0.0
  0
LINE
  5
7F3
330
18
100
AcDbEntity
  8
0
100
AcDbLine
 10
49.35848124291934
 20
35.78821727607917
 30
0.0
 11
49.35848124291934
 21
36.53529067915485
 31
0.0
  0
ARC
  5
7F4
330
18
100
AcDbEntity
  8
0
100
AcDbCircle
 10
49.29598124291935
 20
36.53529067915485
 30
0.0
 40
0.0625
100
AcDbArc
 50
0.0
 51
92.36615320982309
  0
ARC
  5
7F5
330
18
100
AcDbEntity
  8
0
100
AcDbCircle
 10
49.42098124291934
 20
35.78821727607917
 30
0.0
 40
0.0625
100
AcDbArc
 50
180.0
 51
270.0
  0
LINE
  5
7F6
330
18
100
AcDbEntity
  8
0
100
AcDbLine
 10
49.35848124291934
 20
50.41614387300348
 30
0.0
 11
49.35848124291934
 21
51.16321727607917
 31
0.0
  0
ARC
  5
7F7
330
18
100
AcDbEntity
  8
0
100
AcDbCircle
 10
49.42098124291934
 20
51.16321727607917
 30
0.0
 40
0.0625
100
AcDbArc
 50
89.99999999999836
 51
180.0
  0
ARC
  5
7F8
330
18
100
AcDbEntity
  8
0
100
AcDbCircle
 10
49.29598124291935
 20
50.41614387300348
 30
0.0
 40
0.0625
100
AcDbArc
 50
267.6338467901769
 51
0.0
  0
LINE
  5
7F9
330
18
100
AcDbEntity
  8
0
100
AcDbLine
 10
28.70642435020868
 20
35.72571727607917
 30
0.0
 11
18.51892435020868
 21
35.72571727607916
 31
0.0
  0
LINE
  5
7FA
330
18
100
AcDbEntity
  8
0
100
AcDbLine
 10
28.70642435020868
 20
51.22571727607916
 30
0.0
 11
18.51892435020868
 21
51.22571727607916
 31
0.0
  0
ARC
  5
7FB
330
18
100
AcDbEntity
  8
0
100
AcDbCircle
 10
18.51892435020868
 20
36.10071727607916
 30
0.0
 40
0.375
100
AcDbArc
 50
256.4910573533151
 51
270.0
  0
ARC
  5
7FC
330
18
100
AcDbEntity
  8
0
100
AcDbCircle
 10
28.70642435020868
 20
36.10071727607917
 30
0.0
 40
0.375
100
AcDbArc
 50
270.0
 51
283.5089426467099
  0
ARC
  5
7FD
330
18
100
AcDbEntity
  8
0
100
AcDbCircle
 10
18.51892435020868
 20
50.85071727607917
 30
0.0
 40
0.375
100
AcDbArc
 50
90.0
 51
158.5059636621013
  0
ARC
  5
7FE
330
18
100
AcDbEntity
  8
0
100
AcDbCircle
 10
28.70642435020868
 20
50.85071727607917
 30
0.0
 40
0.375
100
AcDbArc
 50
24.60237324478992
 51
90.00000000000005
  0
CIRCLE
  5
7FF
330
18
100
AcDbEntity
  8
0
100
AcDbCircle
 10
18.61267435020868
 20
50.78821727607915
 30
0.0
 40
0.15625
  0
CIRCLE
  5
800
330
18
100
AcDbEntity
  8
0
100
AcDbCircle
 10
28.61267435020868
 20
50.78821727607915
 30
0.0
 40
0.15625
  0
LWPOLYLINE
  5
801
330
18
100
AcDbEntity
  8
0
100
AcDbPolyline
 90
        5
 70
     0
 43
0.0
 10
18.0956951295523
 20
51.21323982921822
 10
18.31784645707798
 20
50.54022094272188
 10
18.70322925548257
 20
50.33391038328993
 10
19.08861205388715
 20
50.73482105303746
 10
19.21448686230007
 20
51.21323982921822
  0
LWPOLYLINE
  5
808
330
18
100
AcDbEntity
  8
0
100
AcDbPolyline
 90
        5
 70
     0
 43
0.0
 10
29.09529986320495
 20
51.21323982921822
 10
28.94968704816033
 20
50.58602946426518
 10
28.61062429764091
 20
50.31117833500528
 10
28.19467026763211
 20
50.62047196166618
 10
28.02018077725076
 20
51.21323982921822
  0
LINE
  5
80F
330
18
100
AcDbEntity
  8
0
100
AcDbLine
 10
18.52267435020867
 20
50.78821727607915
 30
0.0
 11
18.70267435020867
 21
50.78821727607915
 31
0.0
  0
LINE
  5
810
330
18
100
AcDbEntity
  8
0
100
AcDbLine
 10
18.61267435020868
 20
50.69821727607915
 30
0.0
 11
18.61267435020868
 21
50.87821727607916
 31
0.0
  0
LINE
  5
811
330
18
100
AcDbEntity
  8
0
100
AcDbLine
 10
28.52267435020868
 20
50.78821727607915
 30
0.0
 11
28.70267435020867
 21
50.78821727607915
 31
0.0
  0
LINE
  5
812
330
18
100
AcDbEntity
  8
0
100
AcDbLine
 10
28.61267435020868
 20
50.69821727607915
 30
0.0
 11
28.61267435020868
 21
50.87821727607916
 31
0.0
  0
LINE
  5
813
330
18
100
AcDbEntity
  8
0
100
AcDbLine
 10
70.76362923037848
 20
50.89404912516414
 30
0.0
 11
70.76362923037848
 21
51.06814717848481
 31
0.0
  0
LINE
  5
814
330
18
100
AcDbEntity
  8
0
100
AcDbLine
 10
70.76362923037848
 20
35.88328737367353
 30
0.0
 11
70.76362923037848
 21
36.05962374416427
 31
0.0
  0
LINE
  5
815
330
18
100
AcDbEntity
  8
0
100
AcDbLine
 10
75.58362923037849
 20
36.71108216969618
 30
0.0
 11
75.58362923037849
 21
37.58673277963865
 31
0.0
  0
LINE
  5
816
330
18
100
AcDbEntity
  8
0
100
AcDbLine
 10
75.58362923037849
 20
37.58673277963867
 30
0.0
 11
76.08362923037848
 21
37.60601788602163
 31
0.0
  0
LINE
  5
817
330
18
100
AcDbEntity
  8
0
100
AcDbLine
 10
75.58362923037849
 20
49.36470177251966
 30
0.0
 11
76.08362923037848
 21
49.34541666613668
 31
0.0
  0
LINE
  5
818
330
18
100
AcDbEntity
  8
0
100
AcDbLine
 10
75.58362923037849
 20
50.24035238246213
 30
0.0
 11
75.58362923037849
 21
49.36470177251966
 31
0.0
  0
LINE
  5
819
330
18
100
AcDbEntity
  8
0
100
AcDbLine
 10
75.95862923037848
 20
37.35071727607917
 30
0.0
 11
75.70862923037847
 21
37.35071727607917
 31
0.0
  0
LINE
  5
81A
330
18
100
AcDbEntity
  8
0
100
AcDbLine
 10
75.95862923037848
 20
49.60071727607917
 30
0.0
 11
75.70862923037847
 21
49.60071727607917
 31
0.0
  0
LINE
  5
81B
330
18
100
AcDbEntity
  8
0
100
AcDbLine
 10
49.60848124291935
 20
36.85063988717091
 30
0.0
 11
49.60848124291935
 21
50.10079466498743
 31
0.0
  0
ARC
  5
81C
330
18
100
AcDbEntity
  8
0
100
AcDbCircle
 10
49.35848124291934
 20
36.85063988717091
 30
0.0
 40
0.25
100
AcDbArc
 50
272.3661532098232
 51
0.0
  0
LINE
  5
81D
330
18
100
AcDbEntity
  8
0
100
AcDbLine
 10
49.60848124291935
 20
50.10079466498743
 30
0.0
 11
49.60848124291935
 21
51.22571727607916
 31
0.0
  0
ARC
  5
81E
330
18
100
AcDbEntity
  8
0
100
AcDbCircle
 10
49.35848124291934
 20
50.10079466498743
 30
0.0
 40
0.25
100
AcDbArc
 50
0.0
 51
87.63384679017695
  0
LINE
  5
81F
330
18
100
AcDbEntity
  8
0
100
AcDbLine
 10
44.16348124291932
 20
51.21423982921823
 30
0.0
 11
44.16348124291932
 21
49.53816602651335
 31
0.0
  0
LINE
  5
820
330
18
100
AcDbEntity
  8
0
100
AcDbLine
 10
44.23338601308805
 20
36.06008166885293
 30
0.0
 11
44.23338601308805
 21
37.41316602651336
 31
0.0
  0
LINE
  5
821
330
18
100
AcDbEntity
  8
0
100
AcDbLine
 10
78.23112923037847
 20
17.57841555699216
 30
0.0
 11
78.23112923037847
 21
17.70341555699216
 31
0.0
  0
LINE
  5
822
330
18
100
AcDbEntity
  8
0
100
AcDbLine
 10
67.98112923037848
 20
17.57841555699216
 30
0.0
 11
67.98112923037847
 21
17.70341555699216
 31
0.0
  0
LINE
  5
823
330
18
100
AcDbEntity
  8
0
100
AcDbLine
 10
75.45862923037848
 20
49.60071727607917
 30
0.0
 11
75.33362923037849
 21
49.60071727607917
 31
0.0
  0
LINE
  5
824
330
18
100
AcDbEntity
  8
0
100
AcDbLine
 10
75.45862923037848
 20
37.35071727607917
 30
0.0
 11
75.33362923037849
 21
37.35071727607917
 31
0.0
  0
LINE
  5
825
330
18
100
AcDbEntity
  8
0
100
AcDbLine
 10
49.85848124291934
 20
36.16321727607917
 30
0.0
 11
49.73348124291934
 21
36.16321727607917
 31
0.0
  0
LINE
  5
826
330
18
100
AcDbEntity
  8
0
100
AcDbLine
 10
49.54598124291934
 20
36.31946727607917
 30
0.0
 11
49.42098124291934
 21
36.31946727607917
 31
0.0
  0
LINE
  5
827
330
18
100
AcDbEntity
  8
0
100
AcDbLine
 10
49.54598124291934
 20
36.00696727607917
 30
0.0
 11
49.42098124291934
 21
36.00696727607917
 31
0.0
  0
LINE
  5
828
330
18
100
AcDbEntity
  8
0
100
AcDbLine
 10
49.23348124291934
 20
36.16321727607917
 30
0.0
 11
49.10848124291934
 21
36.16321727607917
 31
0.0
  0
LINE
  5
829
330
18
100
AcDbEntity
  8
0
100
AcDbLine
 10
49.54598124291934
 20
36.16321727607917
 30
0.0
 11
49.42098124291934
 21
36.16321727607917
 31
0.0
  0
LINE
  5
82A
330
18
100
AcDbEntity
  8
0
100
AcDbLine
 10
49.23348124291934
 20
50.78821727607918
 30
0.0
 11
49.10848124291934
 21
50.78821727607918
 31
0.0
  0
LINE
  5
82B
330
18
100
AcDbEntity
  8
0
100
AcDbLine
 10
49.54598124291934
 20
50.78821727607918
 30
0.0
 11
49.42098124291934
 21
50.78821727607918
 31
0.0
  0
LINE
  5
82C
330
18
100
AcDbEntity
  8
0
100
AcDbLine
 10
49.85848124291934
 20
50.78821727607918
 30
0.0
 11
49.73348124291934
 21
50.78821727607918
 31
0.0
  0
LINE
  5
82D
330
18
100
AcDbEntity
  8
0
100
AcDbLine
 10
49.54598124291934
 20
50.63196727607918
 30
0.0
 11
49.42098124291934
 21
50.63196727607918
 31
0.0
  0
LINE
  5
82E
330
18
100
AcDbEntity
  8
0
100
AcDbLine
 10
49.54598124291934
 20
50.94446727607918
 30
0.0
 11
49.42098124291934
 21
50.94446727607918
 31
0.0
  0
LINE
  5
82F
330
18
100
AcDbEntity
  8
0
100
AcDbLine
 10
18.61267435020867
 20
16.82841555699217
 30
0.0
 11
18.61267435020867
 21
17.01591555699217
 31
0.0
  0
LINE
  5
830
330
18
100
AcDbEntity
  8
0
100
AcDbLine
 10
18.61267435020867
 20
16.70341555699217
 30
0.0
 11
18.61267435020867
 21
16.57841555699217
 31
0.0
  0
LINE
  5
831
330
18
100
AcDbEntity
  8
0
100
AcDbLine
 10
18.61267435020867
 20
17.32841555699217
 30
0.0
 11
18.61267435020867
 21
17.20341555699217
 31
0.0
  0
LINE
  5
832
330
18
100
AcDbEntity
  8
0
100
AcDbLine
 10
18.61267435020867
 20
17.01591555699217
 30
0.0
 11
18.61267435020867
 21
16.89091555699217
 31
0.0
  0
LINE
  5
833
330
18
100
AcDbEntity
  8
0
100
AcDbLine
 10
18.45642435020867
 20
17.01591555699217
 30
0.0
 11
18.45642435020867
 21
16.89091555699217
 31
0.0
  0
LINE
  5
834
330
18
100
AcDbEntity
  8
0
100
AcDbLine
 10
18.76892435020867
 20
17.01591555699217
 30
0.0
 11
18.76892435020867
 21
16.89091555699217
 31
0.0
  0
LINE
  5
835
330
18
100
AcDbEntity
  8
0
100
AcDbLine
 10
18.61267435020867
 20
17.20341555699217
 30
0.0
 11
18.61267435020867
 21
17.32841555699217
 31
0.0
  0
LINE
  5
836
330
18
100
AcDbEntity
  8
0
100
AcDbLine
 10
28.61267435020867
 20
16.70341555699217
 30
0.0
 11
28.61267435020867
 21
16.57841555699217
 31
0.0
  0
LINE
  5
837
330
18
100
AcDbEntity
  8
0
100
AcDbLine
 10
28.76892435020867
 20
17.01591555699217
 30
0.0
 11
28.76892435020867
 21
16.89091555699217
 31
0.0
  0
LINE
  5
838
330
18
100
AcDbEntity
  8
0
100
AcDbLine
 10
28.61267435020867
 20
17.01591555699217
 30
0.0
 11
28.61267435020867
 21
16.89091555699217
 31
0.0
  0
LINE
  5
839
330
18
100
AcDbEntity
  8
0
100
AcDbLine
 10
28.45642435020867
 20
17.01591555699217
 30
0.0
 11
28.45642435020867
 21
16.89091555699217
 31
0.0
  0
LINE
  5
83A
330
18
100
AcDbEntity
  8
0
100
AcDbLine
 10
28.61267435020867
 20
17.20341555699217
 30
0.0
 11
28.61267435020867
 21
17.32841555699217
 31
0.0
  0
DIMENSION
  5
83B
330
18
100
AcDbEntity
  8
DIM
100
AcDbDimension
  2
*D27
 10
83.13358622730621
 20
22.82841555699217
 30
0.0
 11
83.13358622730621
 21
20.14091555699217
 31
0.0
 12
2.318101716173842
 22
0.0
 32
0.0
 70
   128
 71
     5
 42
-1.0
 73
     0
 74
     0
 75
     0
100
AcDbAlignedDimension
 13
78.88321433676146
 23
17.45341555699217
 33
0.0
 14
79.54586754754855
 24
22.82841555699217
 34
0.0
 50
90.0
100
AcDbRotatedDimension
  0
DIMENSION
  5
83C
330
18
100
AcDbEntity
  8
DIM
100
AcDbDimension
  2
*D26
 10
83.13358622730621
 20
16.95341555699217
 30
0.0
 11
82.24375289397286
 21
16.39141555699217
 31
0.0
 12
2.318101716173842
 22
0.0
 32
0.0
 71
     5
 42
-1.0
 73
     0
 74
     0
 75
     0
100
AcDbAlignedDimension
 13
78.88321433676146
 23
17.45341555699217
 33
0.0
 14
78.74365756269672
 24
16.95341555699217
 34
0.0
 50
90.0
100
AcDbRotatedDimension
  0
DIMENSION
  5
83D
330
18
100
AcDbEntity
  8
DIM
100
AcDbDimension
  2
*D6
 10
78.23112923037847
 20
15.14962383052093
 30
0.0
 11
73.10612923037847
 21
15.14962383052093
 31
0.0
 12
2.318101716173842
 22
0.0
 32
0.0
 71
     5
 42
-1.0
 73
     0
 74
     0
 75
     0
100
AcDbAlignedDimension
 13
67.98112923037848
 23
17.07841555699217
 33
0.0
 14
78.23112923037847
 24
17.07841555699217
 34
0.0
100
AcDbRotatedDimension
  0
DIMENSION
  5
83E
330
18
100
AcDbEntity
  8
DIM
100
AcDbDimension
  2
*D5
 10
78.86856468747699
 20
13.67349930616049
 30
0.0
 11
73.10612923037848
 21
13.67349930616049
 31
0.0
 12
2.318101716173842
 22
0.0
 32
0.0
 71
     5
 42
-1.0
 73
     0
 74
     0
 75
     0
100
AcDbAlignedDimension
 13
67.34369377327998
 23
17.07359786261341
 33
0.0
 14
78.86856468747699
 24
17.07359786261341
 34
0.0
100
AcDbRotatedDimension
  0
DIMENSION
  5
83F
330
18
100
AcDbEntity
  8
DIM
100
AcDbDimension
  2
*D17
 10
78.50913841525471
 20
49.60071727607917
 30
0.0
 11
78.50913841525471
 21
43.47571727607916
 31
0.0
 12
1.590550472722782
 22
5.163196655588052
 32
0.0
 71
     5
 42
-1.0
 73
     0
 74
     0
 75
     0
100
AcDbAlignedDimension
 13
75.95862923037848
 23
37.35071727607917
 33
0.0
 14
75.95862923037848
 24
49.60071727607917
 34
0.0
 50
90.0
100
AcDbRotatedDimension
  0
INSERT
  5
840
330
18
100
AcDbEntity
  8
HATCH
100
AcDbBlockReference
  2
*X0
 10
21.27758499174053
 20
7.512707060533028
 30
0.0
  0
DIMENSION
  5
841
330
18
100
AcDbEntity
  8
DIM
100
AcDbDimension
  2
*D15
 10
51.80991036926036
 20
50.78821727607918
 30
0.0
 11
51.80991036926036
 21
43.47571727607917
 31
0.0
 12
-1.988188183485647
 22
5.163196655588052
 32
0.0
 71
     5
 42
-1.0
 73
     0
 74
     0
 75
     0
100
AcDbAlignedDimension
 13
49.85848124291934
 23
36.16321727607917
 33
0.0
 14
49.85848124291934
 24
50.78821727607918
 34
0.0
 50
90.0
100
AcDbRotatedDimension
  0
DIMENSION
  5
842
330
18
100
AcDbEntity
  8
DIM
100
AcDbDimension
  2
*D16
 10
54.31045907066717
 20
51.22571727607916
 30
0.0
 11
54.31045907066717
 21
43.47571727607916
 31
0.0
 12
-1.988188183485647
 22
5.163196655588052
 32
0.0
 70
   128
 71
     5
 42
-1.0
 73
     0
 74
     0
 75
     0
100
AcDbAlignedDimension
 13
49.60848124291935
 23
35.72571727607917
 33
0.0
 14
49.60848124291935
 24
51.22571727607916
 34
0.0
 50
90.0
100
AcDbRotatedDimension
  0
DIMENSION
  5
843
330
18
100
AcDbEntity
  8
DIM
100
AcDbDimension
  2
*D14
 10
30.48359970021438
 20
17.07841555699217
 30
0.0
 11
31.37343303354772
 21
17.64041555699217
 31
0.0
 71
     5
 42
-1.0
 73
     0
 74
     0
 75
     0
100
AcDbAlignedDimension
 13
29.37520268252692
 23
16.82841555699217
 33
0.0
 14
29.01892435020867
 24
17.07841555699217
 34
0.0
 50
90.0
100
AcDbRotatedDimension
  0
LINE
  5
844
330
18
100
AcDbEntity
  8
0
100
AcDbLine
 10
17.13388155385802
 20
23.03341555699217
 30
0.0
 11
30.0729740545231
 21
23.03341555699216
 31
0.0
  0
LINE
  5
84B
330
18
100
AcDbEntity
  8
0
100
AcDbLine
 10
16.86583603303859
 20
36.73609222380849
 30
0.0
 11
16.86583603303859
 21
50.21323982921822
 31
0.0
  0
LINE
  5
84C
330
18
100
AcDbEntity
  8
0
100
AcDbLine
 10
16.86591957534252
 20
22.27341555699217
 30
0.0
 11
16.88403384710324
 21
22.7921404311678
 31
0.0
  0
LINE
  5
84D
330
18
100
AcDbEntity
  8
0
100
AcDbLine
 10
43.40348124291934
 20
50.94627785070272
 30
0.0
 11
43.40348124291934
 21
36.00505420232398
 31
0.0
  0
LINE
  5
84E
330
18
100
AcDbEntity
  8
0
100
AcDbLine
 10
44.16348124291934
 20
35.73709222380847
 30
0.0
 11
43.64475636874372
 21
35.7552064955692
 31
0.0
  0
LINE
  5
84F
330
18
100
AcDbEntity
  8
0
100
AcDbLine
 10
44.16348124291932
 20
51.21423982921823
 30
0.0
 11
43.64475636874372
 21
51.1961255574575
 31
0.0
  0
ARC
  5
850
330
18
100
AcDbEntity
  8
0
100
AcDbCircle
 10
17.86583603303859
 20
50.21323982921822
 30
0.0
 40
1.0
100
AcDbArc
 50
90.00000000000003
 51
180.0
  0
LINE
  5
851
330
18
100
AcDbEntity
  8
0
100
AcDbLine
 10
29.3408360330386
 20
51.21323982921824
 30
0.0
 11
29.09529986320495
 21
51.21323982921822
 31
0.0
  0
LINE
  5
852
330
18
100
AcDbEntity
  8
0
100
AcDbLine
 10
28.02018077725076
 20
51.21323982921822
 30
0.0
 11
19.21448686230007
 21
51.21323982921822
 31
0.0
  0
LINE
  5
853
330
18
100
AcDbEntity
  8
0
100
AcDbLine
 10
18.0956951295523
 20
51.21323982921822
 30
0.0
 11
17.86583603303859
 21
51.21323982921822
 31
0.0
  0
LINE
  5
854
330
18
100
AcDbEntity
  8
0
100
AcDbLine
 10
29.3408360330386
 20
35.73609222380849
 30
0.0
 11
17.86583603303859
 21
35.73609222380849
 31
0.0
  0
ARC
  5
855
330
18
100
AcDbEntity
  8
0
100
AcDbCircle
 10
29.3408360330386
 20
36.73609222380849
 30
0.0
 40
1.0
100
AcDbArc
 50
270.0
 51
0.0
  0
ARC
  5
856
330
18
100
AcDbEntity
  8
0
100
AcDbCircle
 10
17.86583603303859
 20
36.73609222380849
 30
0.0
 40
1.0
100
AcDbArc
 50
180.0
 51
270.0
  0
ARC
  5
857
330
18
100
AcDbEntity
  8
0
100
AcDbCircle
 10
29.3408360330386
 20
50.21323982921824
 30
0.0
 40
1.0
100
AcDbArc
 50
0.0
 51
90.0000000000004
  0
LINE
  5
858
330
18
100
AcDbEntity
  8
0
100
AcDbLine
 10
30.32282176127788
 20
22.79214043116779
 30
0.0
 11
30.3409360330386
 21
22.27341555699219
 31
0.0
  0
ARC
  5
859
330
18
100
AcDbEntity
  8
0
100
AcDbCircle
 10
17.13388155385802
 20
22.78341555699217
 30
0.0
 40
0.25
100
AcDbArc
 50
89.99999999999998
 51
178.0000000000001
  0
ARC
  5
85A
330
18
100
AcDbEntity
  8
0
100
AcDbCircle
 10
30.0729740545231
 20
22.78341555699216
 30
0.0
 40
0.25
100
AcDbArc
 50
2.00000000000018
 51
89.99999999999994
  0
ARC
  5
85B
330
18
100
AcDbEntity
  8
0
100
AcDbCircle
 10
43.65348124291934
 20
36.00505420232398
 30
0.0
 40
0.25
100
AcDbArc
 50
180.0
 51
268.0000000000002
  0
ARC
  5
85C
330
18
100
AcDbEntity
  8
0
100
AcDbCircle
 10
43.65348124291934
 20
50.94627785070272
 30
0.0
 40
0.25
100
AcDbArc
 50
91.99999999999986
 51
180.0
  0
LINE
  5
85D
330
18
100
AcDbEntity
  8
0
100
AcDbLine
 10
67.12172923037847
 20
22.82841555699217
 30
0.0
 11
79.09052923037849
 21
22.82841555699217
 31
0.0
  0
DIMENSION
  5
85E
330
18
100
AcDbEntity
  8
DIM
100
AcDbDimension
  2
*D35
 10
28.48309499414529
 20
50.70090603406417
 30
0.0
 11
34.35941327012242
 21
53.85570791604384
 31
0.0
 12
0.0
 22
5.163196655588052
 32
0.0
 70
     3
 71
     5
 42
-1.0
 73
     0
 74
     0
 75
     0
100
AcDbDiametricDimension
 15
28.74225370627206
 25
50.87552851809412
 35
0.0
 40
5.33325400238567
  0
DIMENSION
  5
85F
330
18
100
AcDbEntity
  8
DIM
100
AcDbDimension
  2
*D9
 10
68.09265599037975
 20
23.03341555699217
 30
0.0
 11
69.14640599037975
 21
23.59541555699218
 31
0.0
 12
2.318101716173842
 22
0.0
 32
0.0
 71
     5
 42
-1.0
 73
     0
 74
     0
 75
     0
100
AcDbAlignedDimension
 13
66.65399758858599
 23
22.89841555699217
 33
0.0
 14
66.62733033858484
 24
23.03341555699217
 34
0.0
 50
90.0
100
AcDbRotatedDimension
  0
INSERT
  5
860
330
18
100
AcDbEntity
  8
HATCH
100
AcDbBlockReference
  2
*X1
 10
12.38795711105762
 20
3.802119313857719
 30
0.0
  0
INSERT
  5
861
330
18
100
AcDbEntity
  8
HATCH
100
AcDbBlockReference
  2
*X2
 10
11.66040586760655
 20
8.965315969445772
 30
0.0
  0
DIMENSION
  5
862
330
18
100
AcDbEntity
  8
DIM
100
AcDbDimension
  2
*D10
 10
12.51182623075773
 20
51.21323982921822
 30
0.0
 11
12.51182623075773
 21
43.47466602651335
 31
0.0
 12
0.0
 22
5.163196655588052
 32
0.0
 71
     5
 42
-1.0
 73
     0
 74
     0
 75
     0
100
AcDbAlignedDimension
 13
17.86583603303859
 23
35.73609222380849
 33
0.0
 14
17.86583603303859
 24
51.21323982921822
 34
0.0
 50
90.0
100
AcDbRotatedDimension
  0
DIMENSION
  5
863
330
18
100
AcDbEntity
  8
DIM
100
AcDbDimension
  2
*D39
 10
28.61267435020868
 20
54.2048215487495
 30
0.0
 11
23.61267435020868
 21
54.2048215487495
 31
0.0
 70
    32
 71
     5
 42
10.0
 73
     0
 74
     0
 75
     0
  3
STANDARD
100
AcDbAlignedDimension
 13
18.61267435020868
 23
50.87821727607916
 33
0.0
 14
28.61267435020868
 24
50.87821727607916
 34
0.0
100
AcDbRotatedDimension
  0
DIMENSION
  5
864
330
18
100
AcDbEntity
  8
DIM
100
AcDbDimension
  2
*D38
 10
30.3408360330386
 20
56.21218869039352
 30
0.0
 11
23.60333603303859
 21
56.21218869039352
 31
0.0
 70
    32
 71
     5
 42
13.47500000000001
 73
     0
 74
     0
 75
     0
  3
STANDARD
100
AcDbAlignedDimension
 13
16.86583603303859
 23
50.21323982921822
 33
0.0
 14
30.3408360330386
 24
50.21323982921824
 34
0.0
100
AcDbRotatedDimension
  0
DIMENSION
  5
865
330
18
100
AcDbEntity
  8
DIM
100
AcDbDimension
  2
*D13
 10
33.10794874081845
 20
23.03341555699216
 30
0.0
 11
33.10794874081845
 21
19.93091555699216
 31
0.0
  1
6 1/4
 71
     5
 42
-1.0
 73
     0
 74
     0
 75
     0
100
AcDbAlignedDimension
 13
29.25020268252692
 23
16.82841555699217
 33
0.0
 14
30.0729740545231
 24
23.03341555699216
 34
0.0
 50
90.0
100
AcDbRotatedDimension
  0
ARC
  5
866
330
18
100
AcDbEntity
  8
0
100
AcDbCircle
 10
66.78639091320841
 20
22.85841555699217
 30
0.0
 40
0.03
100
AcDbArc
 50
269.9999999999993
 51
359.9999999999875
  0
ARC
  5
867
330
18
100
AcDbEntity
  8
0
100
AcDbCircle
 10
66.6663909132084
 20
22.85841555699217
 30
0.0
 40
0.03
100
AcDbArc
 50
180.0
 51
270.0000000000006
  0
ARC
  5
868
330
18
100
AcDbEntity
  8
0
100
AcDbCircle
 10
66.78639091320841
 20
22.86091555699217
 30
0.0
 40
0.03
100
AcDbArc
 50
359.9999999999935
 51
90.00000000000072
  0
ARC
  5
869
330
18
100
AcDbEntity
  8
0
100
AcDbCircle
 10
66.6663909132084
 20
22.86091555699217
 30
0.0
 40
0.03
100
AcDbArc
 50
90.0
 51
180.0
  0
LINE
  5
86A
330
18
100
AcDbEntity
  8
0
100
AcDbLine
 10
66.81639091320841
 20
22.86091555699216
 30
0.0
 11
66.81639091320841
 21
22.85841555699216
 31
0.0
  0
LINE
  5
86B
330
18
100
AcDbEntity
  8
0
100
AcDbLine
 10
66.6363909132084
 20
22.86091555699217
 30
0.0
 11
66.6363909132084
 21
22.85841555699217
 31
0.0
  0
LINE
  5
86C
330
18
100
AcDbEntity
  8
0
100
AcDbLine
 10
66.6663909132084
 20
22.82841555699217
 30
0.0
 11
66.78639091320841
 21
22.82841555699217
 31
0.0
  0
LINE
  5
86D
330
18
100
AcDbEntity
  8
0
100
AcDbLine
 10
66.6663909132084
 20
22.89091555699216
 30
0.0
 11
66.78639091320841
 21
22.89091555699217
 31
0.0
  0
ARC
  5
86E
330
18
100
AcDbEntity
  8
0
100
AcDbCircle
 10
79.54586754754855
 20
22.85841555699217
 30
0.0
 40
0.03
100
AcDbArc
 50
269.9999999999993
 51
359.9999999999875
  0
ARC
  5
86F
330
18
100
AcDbEntity
  8
0
100
AcDbCircle
 10
79.42586754754855
 20
22.85841555699217
 30
0.0
 40
0.03
100
AcDbArc
 50
180.0
 51
270.0000000000006
  0
ARC
  5
870
330
18
100
AcDbEntity
  8
0
100
AcDbCircle
 10
79.54586754754855
 20
22.86091555699217
 30
0.0
 40
0.03
100
AcDbArc
 50
359.9999999999935
 51
90.00000000000072
  0
ARC
  5
871
330
18
100
AcDbEntity
  8
0
100
AcDbCircle
 10
79.42586754754855
 20
22.86091555699217
 30
0.0
 40
0.03
100
AcDbArc
 50
90.0
 51
180.0
  0
LINE
  5
872
330
18
100
AcDbEntity
  8
0
100
AcDbLine
 10
79.57586754754855
 20
22.86091555699217
 30
0.0
 11
79.57586754754855
 21
22.85841555699216
 31
0.0
  0
LINE
  5
873
330
18
100
AcDbEntity
  8
0
100
AcDbLine
 10
79.39586754754855
 20
22.86091555699217
 30
0.0
 11
79.39586754754855
 21
22.85841555699217
 31
0.0
  0
LINE
  5
874
330
18
100
AcDbEntity
  8
0
100
AcDbLine
 10
79.42586754754855
 20
22.82841555699217
 30
0.0
 11
79.54586754754855
 21
22.82841555699217
 31
0.0
  0
LINE
  5
875
330
18
100
AcDbEntity
  8
0
100
AcDbLine
 10
79.42586754754855
 20
22.89091555699217
 30
0.0
 11
79.54586754754855
 21
22.89091555699217
 31
0.0
  0
ARC
  5
876
330
18
100
AcDbEntity
  8
0
100
AcDbCircle
 10
70.17862923037847
 20
36.15597895890909
 30
0.0
 40
0.03
100
AcDbArc
 50
359.9999999999992
 51
89.99999999998747
  0
ARC
  5
877
330
18
100
AcDbEntity
  8
0
100
AcDbCircle
 10
70.17862923037847
 20
36.03597895890909
 30
0.0
 40
0.03
100
AcDbArc
 50
270.0
 51
0.0000000000005457
  0
ARC
  5
878
330
18
100
AcDbEntity
  8
0
100
AcDbCircle
 10
70.17612923037848
 20
36.15597895890909
 30
0.0
 40
0.03
100
AcDbArc
 50
89.99999999999348
 51
180.0000000000007
  0
ARC
  5
879
330
18
100
AcDbEntity
  8
0
100
AcDbCircle
 10
70.17612923037848
 20
36.03597895890909
 30
0.0
 40
0.03
100
AcDbArc
 50
180.0
 51
270.0
  0
LINE
  5
87A
330
18
100
AcDbEntity
  8
0
100
AcDbLine
 10
70.17612923037849
 20
36.18597895890909
 30
0.0
 11
70.17862923037849
 21
36.18597895890909
 31
0.0
  0
LINE
  5
87B
330
18
100
AcDbEntity
  8
0
100
AcDbLine
 10
70.17612923037848
 20
36.00597895890909
 30
0.0
 11
70.17862923037847
 21
36.00597895890909
 31
0.0
  0
LINE
  5
87C
330
18
100
AcDbEntity
  8
0
100
AcDbLine
 10
70.20862923037848
 20
36.03597895890909
 30
0.0
 11
70.20862923037848
 21
36.15597895890909
 31
0.0
  0
LINE
  5
87D
330
18
100
AcDbEntity
  8
0
100
AcDbLine
 10
70.14612923037849
 20
36.03597895890909
 30
0.0
 11
70.14612923037848
 21
36.15597895890909
 31
0.0
  0
ARC
  5
87E
330
18
100
AcDbEntity
  8
0
100
AcDbCircle
 10
70.17862923037847
 20
50.91545559324925
 30
0.0
 40
0.03
100
AcDbArc
 50
359.9999999999992
 51
89.99999999998747
  0
ARC
  5
87F
330
18
100
AcDbEntity
  8
0
100
AcDbCircle
 10
70.17862923037847
 20
50.79545559324924
 30
0.0
 40
0.03
100
AcDbArc
 50
270.0
 51
0.0000000000005457
  0
ARC
  5
880
330
18
100
AcDbEntity
  8
0
100
AcDbCircle
 10
70.17612923037848
 20
50.91545559324925
 30
0.0
 40
0.03
100
AcDbArc
 50
89.99999999999348
 51
180.0000000000007
  0
ARC
  5
881
330
18
100
AcDbEntity
  8
0
100
AcDbCircle
 10
70.17612923037848
 20
50.79545559324924
 30
0.0
 40
0.03
100
AcDbArc
 50
180.0
 51
270.0
  0
LINE
  5
882
330
18
100
AcDbEntity
  8
0
100
AcDbLine
 10
70.17612923037849
 20
50.94545559324925
 30
0.0
 11
70.17862923037849
 21
50.94545559324925
 31
0.0
  0
LINE
  5
883
330
18
100
AcDbEntity
  8
0
100
AcDbLine
 10
70.17612923037848
 20
50.76545559324924
 30
0.0
 11
70.17862923037847
 21
50.76545559324924
 31
0.0
  0
LINE
  5
884
330
18
100
AcDbEntity
  8
0
100
AcDbLine
 10
70.20862923037848
 20
50.79545559324924
 30
0.0
 11
70.20862923037848
 21
50.91545559324925
 31
0.0
  0
LINE
  5
885
330
18
100
AcDbEntity
  8
0
100
AcDbLine
 10
70.14612923037849
 20
50.79545559324924
 30
0.0
 11
70.14612923037848
 21
50.91545559324925
 31
0.0
  0
INSERT
  5
88C
330
18
100
AcDbEntity
  8
DIM
100
AcDbBlockReference
  2
SAAR
 10
30.6634360330386
 20
43.47466602651336
 30
0.0
 41
3.0
 42
3.0
 43
3.0
  0
INSERT
  5
88D
330
18
100
AcDbEntity
  8
DIM
100
AcDbBlockReference
  2
SAAL
 10
16.56343603303858
 20
43.47466602651336
 30
0.0
 41
3.0
 42
3.0
 43
3.0
  0
INSERT
  5
88E
330
18
100
AcDbEntity
  8
DIM
100
AcDbBlockReference
  2
SBBB
 10
23.61267435020868
 20
35.41321727607915
 30
0.0
 41
3.0
 42
3.0
 43
3.0
  0
INSERT
  5
88F
330
18
100
AcDbEntity
  8
DIM
100
AcDbBlockReference
  2
SBBT
 10
23.61267435020867
 20
51.53821727607916
 30
0.0
 41
3.0
 42
3.0
 43
3.0
  0
INSERT
  5
890
330
18
100
AcDbEntity
  8
DIM
100
AcDbBlockReference
  2
SAATX
 10
73.10612923037848
 20
10.44808324862706
 30
0.0
 41
3.0
 42
3.0
 43
3.0
  0
INSERT
  5
891
330
18
100
AcDbEntity
  8
DIM
100
AcDbBlockReference
  2
SBBTX
 10
73.22930433187323
 20
32.57658313888267
 30
0.0
 41
3.0
 42
3.0
 43
3.0
  0
SOLID
  5
892
330
18
100
AcDbEntity
  8
DIM
100
AcDbTrace
 10
66.51010499412635
 20
23.09659421390287
 30
0.0
 11
66.44130574967326
 21
23.03303236680001
 31
0.0
 12
66.6663909132084
 22
22.85841555699217
 32
0.0
 13
66.6663909132084
 23
22.85841555699217
 33
0.0
  0
LINE
  5
893
330
18
100
AcDbEntity
  8
DIM
100
AcDbLine
 10
66.47570537189981
 20
23.06481329035144
 30
0.0
 11
65.15583539876383
 21
24.493438496619
 31
0.0
  0
LINE
  5
894
330
18
100
AcDbEntity
  8
DIM
100
AcDbLine
 10
65.15583539876383
 20
24.493438496619
 30
0.0
 11
64.87483539876382
 21
24.493438496619
 31
0.0
  0
TEXT
  5
895
330
18
100
AcDbEntity
  8
DIM
100
AcDbText
 10
62.96317167502643
 20
24.352938496619
 30
0.0
 40
0.281
  1
GASKET
100
AcDbText
  0
SOLID
  5
896
330
18
100
AcDbEntity
  8
DIM
100
AcDbTrace
 10
75.46904280289369
 20
49.9567837654406
 30
0.0
 11
75.38200849963105
 21
49.92216477498695
 31
0.0
 12
75.52938262262333
 22
49.67837136042583
 32
0.0
 13
75.52938262262333
 23
49.67837136042583
 33
0.0
  0
LINE
  5
897
330
18
100
AcDbEntity
  8
DIM
100
AcDbLine
 10
75.42552565126237
 20
49.93947427021378
 30
0.0
 11
74.06232133433888
 21
53.36665502774954
 31
0.0
  0
LINE
  5
898
330
18
100
AcDbEntity
  8
DIM
100
AcDbLine
 10
74.06232133433888
 20
53.36665502774954
 30
0.0
 11
73.78132133433886
 21
53.36665502774954
 31
0.0
  0
TEXT
  5
899
330
18
100
AcDbEntity
  8
TITLE
100
AcDbText
 10
84.40802919076306
 20
0.2629773085800154
 30
0.0
 40
0.281
  1
ENCLOSURE
100
AcDbText
  0
TEXT
  5
89A
330
18
100
AcDbEntity
  8
TITLE
100
AcDbText
 10
67.32549418400018
 20
3.55841714553266
 30
0.0
 40
0.281
  1
F.R. POLYESTER FIBERGLASS
100
AcDbText
  0
TEXT
  5
89B
330
18
100
AcDbEntity
  8
TITLE
100
AcDbText
 10
93.62659536427736
 20
4.927210419469476
 30
0.0
 40
0.281
  1
1/32
100
AcDbText
  0
DIMENSION
  5
89C
330
18
100
AcDbEntity
  8
DIM
100
AcDbDimension
  2
*D24
 10
66.80900460902456
 20
16.82841555699217
 30
0.0
 11
65.75525460902456
 21
16.26641555699217
 31
0.0
 12
2.318101716173842
 22
0.0
 32
0.0
 71
     5
 42
-1.0
 73
     0
 74
     0
 75
     0
100
AcDbAlignedDimension
 13
67.46860089806024
 23
16.95341555699217
 33
0.0
 14
67.46860089806024
 24
16.82841555699217
 34
0.0
 50
90.0
100
AcDbRotatedDimension
  0
TEXT
  5
89D
330
18
100
AcDbEntity
  8
DIM
100
AcDbText
 10
65.25879199388907
 20
15.67046922436338
 30
0.0
 40
0.281
  1
TYP.
100
AcDbText
  0
DIMENSION
  5
89E
330
18
100
AcDbEntity
  8
DIM
100
AcDbDimension
  2
*D25
 10
81.80052664632073
 20
36.72632016043107
 30
0.0
 11
81.80052664632073
 21
43.47571727607916
 31
0.0
 12
1.590550472722782
 22
5.163196655588052
 32
0.0
 71
     5
 42
-1.0
 73
     0
 74
     0
 75
     0
100
AcDbAlignedDimension
 13
75.96372921142815
 23
50.22511439172724
 33
0.0
 14
75.96372921142815
 24
36.72632016043107
 34
0.0
 50
90.0
100
AcDbRotatedDimension
  0
LWPOLYLINE
  5
89F
330
18
100
AcDbEntity
  8
0
100
AcDbPolyline
 90
       22
 70
     1
 43
0.0
 10
70.83353400054718
 20
36.06008166885293
 42
-0.2490694201735645
 10
71.44172306410593
 20
36.41378502332893
 10
75.89354889120945
 20
36.59773739123622
 42
-0.426361603956981
 10
75.95862923037848
 20
36.53529067915485
 10
75.95862923037848
 20
35.85071727607917
 42
0.4142135623730951
 10
76.08362923037848
 20
35.72571727607917
 10
76.20862923037847
 20
35.72571727607917
 10
76.20862923037847
 20
51.22571727607916
 10
76.08362923037848
 20
51.22571727607916
 42
0.4142135623731062
 10
75.95862923037848
 20
51.10071727607916
 10
75.95862923037848
 20
50.41614387300348
 42
-0.426361603956981
 10
75.89354889120946
 20
50.35369716092212
 10
71.44172306410593
 20
50.53764952882939
 42
-0.2490694201735645
 10
70.83353400054718
 20
50.89135288330537
 10
70.20862923037848
 20
50.91545559324925
 10
70.20862923037848
 20
50.46011727607916
 10
75.96372921142815
 20
50.22511439172724
 42
-0.4023101380264217
 10
76.08362923037848
 20
50.10021847428678
 10
76.08362923037848
 20
36.85121607787153
 42
-0.4023101380264221
 10
75.96372921142815
 20
36.72632016043107
 10
70.20862923037848
 20
36.49131727607916
 10
70.20862923037848
 20
36.03597895890909
  0
TEXT
  5
8B7
330
18
100
AcDbEntity
  8
DIM
100
AcDbText
 10
69.72412318545531
 20
52.75870910698569
 30
0.0
 40
0.281
  1
BRASS INSERT
100
AcDbText
  0
TEXT
  5
8B8
330
18
100
AcDbEntity
  8
DIM
100
AcDbText
 10
69.72412318545531
 20
52.29037577365236
 30
0.0
 40
0.281
  1
4 REQ'D.
100
AcDbText
  0
TEXT
  5
8B9
330
18
100
AcDbEntity
  8
TITLE
100
AcDbText
 10
91.22102150331937
 20
4.928406957521421
 30
0.0
 40
0.281
  1
.010
100
AcDbText
  0
LINE
  5
8BA
330
18
100
AcDbEntity
  8
0
100
AcDbLine
 10
43.66348124291933
 20
38.55416602651335
 30
0.0
 11
43.66348124291933
 21
37.52216602651336
 31
0.0
  0
LINE
  5
8BB
330
18
100
AcDbEntity
  8
0
100
AcDbLine
 10
44.16348124291933
 20
38.40566602651335
 30
0.0
 11
44.16348124291933
 21
37.67066602651335
 31
0.0
  0
LINE
  5
8BC
330
18
100
AcDbEntity
  8
0
100
AcDbLine
 10
43.77248124291933
 20
38.66316602651335
 30
0.0
 11
44.37448124291933
 21
38.66316602651335
 31
0.0
  0
LINE
  5
8BD
330
18
100
AcDbEntity
  8
0
100
AcDbLine
 10
43.77248124291933
 20
37.41316602651335
 30
0.0
 11
44.37448124291933
 21
37.41316602651335
 31
0.0
  0
LINE
  5
8BE
330
18
100
AcDbEntity
  8
0
100
AcDbLine
 10
44.31348124291933
 20
38.40566602651335
 30
0.0
 11
44.31348124291933
 21
38.38316602651335
 31
0.0
  0
LINE
  5
8BF
330
18
100
AcDbEntity
  8
0
100
AcDbLine
 10
44.23348124291933
 20
38.47566602651335
 30
0.0
 11
44.24348124291933
 21
38.47566602651335
 31
0.0
  0
LINE
  5
8C0
330
18
100
AcDbEntity
  8
0
100
AcDbLine
 10
44.23348124291933
 20
37.60066602651335
 30
0.0
 11
44.24348124291933
 21
37.60066602651335
 31
0.0
  0
ARC
  5
8C1
330
18
100
AcDbEntity
  8
0
100
AcDbCircle
 10
44.23348124291933
 20
38.40566602651335
 30
0.0
 40
0.07
100
AcDbArc
 50
90.0
 51
180.0
  0
ARC
  5
8C2
330
18
100
AcDbEntity
  8
0
100
AcDbCircle
 10
44.24348124291933
 20
38.40566602651335
 30
0.0
 40
0.07
100
AcDbArc
 50
0.0
 51
90.0
  0
ARC
  5
8C3
330
18
100
AcDbEntity
  8
0
100
AcDbCircle
 10
44.24348124291933
 20
37.67066602651335
 30
0.0
 40
0.07
100
AcDbArc
 50
270.0
 51
0.0
  0
ARC
  5
8C4
330
18
100
AcDbEntity
  8
0
100
AcDbCircle
 10
44.23348124291933
 20
37.67066602651335
 30
0.0
 40
0.07
100
AcDbArc
 50
180.0
 51
270.0
  0
LINE
  5
8C5
330
18
100
AcDbEntity
  8
0
100
AcDbLine
 10
44.48348124291934
 20
38.55416602651335
 30
0.0
 11
44.48348124291933
 21
38.38316602651335
 31
0.0
  0
ARC
  5
8C6
330
18
100
AcDbEntity
  8
0
100
AcDbCircle
 10
43.77248124291933
 20
38.55416602651335
 30
0.0
 40
0.109
100
AcDbArc
 50
90.0
 51
180.0
  0
ARC
  5
8C7
330
18
100
AcDbEntity
  8
0
100
AcDbCircle
 10
43.77248124291933
 20
37.52216602651336
 30
0.0
 40
0.109
100
AcDbArc
 50
180.0
 51
270.0
  0
ARC
  5
8C8
330
18
100
AcDbEntity
  8
0
100
AcDbCircle
 10
44.37448124291933
 20
37.52216602651336
 30
0.0
 40
0.109
100
AcDbArc
 50
270.0
 51
360.0
  0
ARC
  5
8C9
330
18
100
AcDbEntity
  8
0
100
AcDbCircle
 10
44.37448124291933
 20
38.55416602651335
 30
0.0
 40
0.109
100
AcDbArc
 50
359.9999999999999
 51
90.0
  0
CIRCLE
  5
8CA
330
18
100
AcDbEntity
  8
0
100
AcDbCircle
 10
43.91348124291932
 20
38.50691602651335
 30
0.0
 40
0.075
  0
CIRCLE
  5
8CB
330
18
100
AcDbEntity
  8
0
100
AcDbCircle
 10
43.91348124291932
 20
37.56941602651335
 30
0.0
 40
0.075
  0
LINE
  5
8CC
330
18
100
AcDbEntity
  8
0
100
AcDbLine
 10
44.26348124291933
 20
38.38316602651335
 30
0.0
 11
44.44598124291933
 21
38.38316602651335
 31
0.0
  0
LINE
  5
8CD
330
18
100
AcDbEntity
  8
0
100
AcDbLine
 10
44.26348124291933
 20
37.69316602651335
 30
0.0
 11
44.44598124291933
 21
37.69316602651335
 31
0.0
  0
LINE
  5
8CE
330
18
100
AcDbEntity
  8
0
100
AcDbLine
 10
44.26348124291933
 20
38.38316602651335
 30
0.0
 11
44.26348124291933
 21
37.69316602651335
 31
0.0
  0
LINE
  5
8CF
330
18
100
AcDbEntity
  8
0
100
AcDbLine
 10
44.31348124291933
 20
37.69316602651335
 30
0.0
 11
44.31348124291933
 21
37.67066602651335
 31
0.0
  0
LINE
  5
8D0
330
18
100
AcDbEntity
  8
0
100
AcDbLine
 10
44.66348124291933
 20
38.60066602651335
 30
0.0
 11
46.02848124291933
 21
38.60066602651335
 31
0.0
  0
LINE
  5
8D1
330
18
100
AcDbEntity
  8
0
100
AcDbLine
 10
44.66348124291933
 20
37.47566602651335
 30
0.0
 11
46.02848124291933
 21
37.47566602651335
 31
0.0
  0
LINE
  5
8D2
330
18
100
AcDbEntity
  8
0
100
AcDbLine
 10
44.48348124291933
 20
37.69316602651335
 30
0.0
 11
44.48348124291933
 21
37.52216602651336
 31
0.0
  0
ARC
  5
8D3
330
18
100
AcDbEntity
  8
0
100
AcDbCircle
 10
44.44598124291933
 20
38.57066602651335
 30
0.0
 40
0.1875
100
AcDbArc
 50
269.9999999999999
 51
0.0
  0
ARC
  5
8D4
330
18
100
AcDbEntity
  8
0
100
AcDbCircle
 10
44.44598124291933
 20
37.50566602651336
 30
0.0
 40
0.1875
100
AcDbArc
 50
359.9999999999999
 51
90.0
  0
LINE
  5
8D5
330
18
100
AcDbEntity
  8
0
100
AcDbLine
 10
45.59848124291933
 20
38.55066602651336
 30
0.0
 11
45.59848124291933
 21
37.52566602651335
 31
0.0
  0
LINE
  5
8D6
330
18
100
AcDbEntity
  8
0
100
AcDbLine
 10
46.02848124291933
 20
38.60066602651335
 30
0.0
 11
46.02848124291933
 21
38.55066602651336
 31
0.0
  0
LINE
  5
8D7
330
18
100
AcDbEntity
  8
0
100
AcDbLine
 10
45.59848124291933
 20
38.55066602651336
 30
0.0
 11
46.79848124291933
 21
38.55066602651336
 31
0.0
  0
LINE
  5
8D8
330
18
100
AcDbEntity
  8
0
100
AcDbLine
 10
45.59848124291933
 20
37.52566602651335
 30
0.0
 11
46.79848124291933
 21
37.52566602651335
 31
0.0
  0
LINE
  5
8D9
330
18
100
AcDbEntity
  8
0
100
AcDbLine
 10
45.59848124291933
 20
38.50066602651335
 30
0.0
 11
45.73848124291933
 21
38.50066602651335
 31
0.0
  0
LINE
  5
8DA
330
18
100
AcDbEntity
  8
0
100
AcDbLine
 10
45.59848124291933
 20
37.57566602651336
 30
0.0
 11
45.73848124291933
 21
37.57566602651336
 31
0.0
  0
LINE
  5
8DB
330
18
100
AcDbEntity
  8
0
100
AcDbLine
 10
45.73848124291933
 20
38.55066602651336
 30
0.0
 11
45.73848124291933
 21
37.52566602651335
 31
0.0
  0
LINE
  5
8DC
330
18
100
AcDbEntity
  8
0
100
AcDbLine
 10
45.59848124291933
 20
38.45066602651336
 30
0.0
 11
45.73848124291933
 21
38.45066602651336
 31
0.0
  0
LINE
  5
8DD
330
18
100
AcDbEntity
  8
0
100
AcDbLine
 10
45.59848124291933
 20
37.62566602651335
 30
0.0
 11
45.73848124291933
 21
37.62566602651335
 31
0.0
  0
LINE
  5
8DE
330
18
100
AcDbEntity
  8
0
100
AcDbLine
 10
47.17348124291933
 20
38.25316602651336
 30
0.0
 11
47.17348124291933
 21
37.82316602651335
 31
0.0
  0
LINE
  5
8DF
330
18
100
AcDbEntity
  8
0
100
AcDbLine
 10
46.02848124291933
 20
37.52566602651335
 30
0.0
 11
46.02848124291933
 21
37.47566602651335
 31
0.0
  0
LINE
  5
8E0
330
18
100
AcDbEntity
  8
0
100
AcDbLine
 10
46.57348124291933
 20
38.34816602651335
 30
0.0
 11
46.57348124291933
 21
37.72816602651335
 31
0.0
  0
LINE
  5
8E1
330
18
100
AcDbEntity
  8
0
100
AcDbLine
 10
46.74348124291933
 20
38.34816602651335
 30
0.0
 11
46.74348124291933
 21
37.72816602651335
 31
0.0
  0
LINE
  5
8E2
330
18
100
AcDbEntity
  8
0
100
AcDbLine
 10
46.57348124291933
 20
38.34816602651335
 30
0.0
 11
46.74348124291933
 21
38.34816602651335
 31
0.0
  0
LINE
  5
8E3
330
18
100
AcDbEntity
  8
0
100
AcDbLine
 10
46.57348124291933
 20
37.72816602651335
 30
0.0
 11
46.74348124291933
 21
37.72816602651335
 31
0.0
  0
LINE
  5
8E4
330
18
100
AcDbEntity
  8
0
100
AcDbLine
 10
46.62348124291932
 20
38.31816602651335
 30
0.0
 11
46.67348124291933
 21
38.31816602651335
 31
0.0
  0
LINE
  5
8E5
330
18
100
AcDbEntity
  8
0
100
AcDbLine
 10
46.62348124291933
 20
37.75816602651335
 30
0.0
 11
46.67348124291933
 21
37.75816602651335
 31
0.0
  0
LINE
  5
8E6
330
18
100
AcDbEntity
  8
0
100
AcDbLine
 10
46.62348124291933
 20
38.31816602651335
 30
0.0
 11
46.62348124291933
 21
37.75816602651335
 31
0.0
  0
LINE
  5
8E7
330
18
100
AcDbEntity
  8
0
100
AcDbLine
 10
46.67348124291933
 20
38.31816602651335
 30
0.0
 11
46.67348124291933
 21
37.75816602651335
 31
0.0
  0
ARC
  5
8E8
330
18
100
AcDbEntity
  8
0
100
AcDbCircle
 10
44.66348124291933
 20
38.57066602651335
 30
0.0
 40
0.03
100
AcDbArc
 50
90.0
 51
180.0
  0
ARC
  5
8E9
330
18
100
AcDbEntity
  8
0
100
AcDbCircle
 10
44.66348124291933
 20
37.50566602651336
 30
0.0
 40
0.03
100
AcDbArc
 50
180.0
 51
270.0
  0
LINE
  5
8EA
330
18
100
AcDbEntity
  8
0
100
AcDbLine
 10
46.79848124291933
 20
38.55066602651336
 30
0.0
 11
46.79848124291933
 21
38.50316602651335
 31
0.0
  0
LINE
  5
8EB
330
18
100
AcDbEntity
  8
0
100
AcDbLine
 10
46.92348124291934
 20
38.37816602651336
 30
0.0
 11
47.04848124291934
 21
38.37816602651336
 31
0.0
  0
LINE
  5
8EC
330
18
100
AcDbEntity
  8
0
100
AcDbLine
 10
46.92348124291934
 20
37.69816602651335
 30
0.0
 11
47.04848124291934
 21
37.69816602651335
 31
0.0
  0
LINE
  5
8ED
330
18
100
AcDbEntity
  8
0
100
AcDbLine
 10
46.79848124291933
 20
37.57316602651335
 30
0.0
 11
46.79848124291933
 21
37.52566602651335
 31
0.0
  0
ARC
  5
8EE
330
18
100
AcDbEntity
  8
0
100
AcDbCircle
 10
46.92348124291934
 20
38.50316602651336
 30
0.0
 40
0.125
100
AcDbArc
 50
180.0000000000003
 51
269.9999999999998
  0
ARC
  5
8EF
330
18
100
AcDbEntity
  8
0
100
AcDbCircle
 10
46.92348124291934
 20
37.57316602651335
 30
0.0
 40
0.125
100
AcDbArc
 50
90.0
 51
180.0
  0
ARC
  5
8F0
330
18
100
AcDbEntity
  8
0
100
AcDbCircle
 10
47.04848124291934
 20
37.82316602651335
 30
0.0
 40
0.125
100
AcDbArc
 50
270.0
 51
0.0000000000000763
  0
ARC
  5
8F1
330
18
100
AcDbEntity
  8
0
100
AcDbCircle
 10
47.04848124291934
 20
38.25316602651336
 30
0.0
 40
0.125
100
AcDbArc
 50
0.0000000000001018
 51
89.9999999999998
  0
LINE
  5
8F2
330
18
100
AcDbEntity
  8
0
100
AcDbLine
 10
43.66348124291933
 20
49.42916602651335
 30
0.0
 11
43.66348124291933
 21
48.39716602651336
 31
0.0
  0
LINE
  5
8F3
330
18
100
AcDbEntity
  8
0
100
AcDbLine
 10
44.16348124291933
 20
49.28066602651335
 30
0.0
 11
44.16348124291933
 21
48.54566602651335
 31
0.0
  0
LINE
  5
8F4
330
18
100
AcDbEntity
  8
0
100
AcDbLine
 10
43.77248124291933
 20
49.53816602651335
 30
0.0
 11
44.37448124291933
 21
49.53816602651335
 31
0.0
  0
LINE
  5
8F5
330
18
100
AcDbEntity
  8
0
100
AcDbLine
 10
43.77248124291933
 20
48.28816602651335
 30
0.0
 11
44.37448124291933
 21
48.28816602651335
 31
0.0
  0
LINE
  5
8F6
330
18
100
AcDbEntity
  8
0
100
AcDbLine
 10
44.31348124291933
 20
49.28066602651335
 30
0.0
 11
44.31348124291933
 21
49.25816602651335
 31
0.0
  0
LINE
  5
8F7
330
18
100
AcDbEntity
  8
0
100
AcDbLine
 10
44.23348124291933
 20
49.35066602651335
 30
0.0
 11
44.24348124291933
 21
49.35066602651335
 31
0.0
  0
LINE
  5
8F8
330
18
100
AcDbEntity
  8
0
100
AcDbLine
 10
44.23348124291933
 20
48.47566602651335
 30
0.0
 11
44.24348124291933
 21
48.47566602651335
 31
0.0
  0
ARC
  5
8F9
330
18
100
AcDbEntity
  8
0
100
AcDbCircle
 10
44.23348124291933
 20
49.28066602651335
 30
0.0
 40
0.07
100
AcDbArc
 50
90.0
 51
180.0
  0
ARC
  5
8FA
330
18
100
AcDbEntity
  8
0
100
AcDbCircle
 10
44.24348124291933
 20
49.28066602651335
 30
0.0
 40
0.07
100
AcDbArc
 50
0.0
 51
90.0
  0
ARC
  5
8FB
330
18
100
AcDbEntity
  8
0
100
AcDbCircle
 10
44.24348124291933
 20
48.54566602651335
 30
0.0
 40
0.07
100
AcDbArc
 50
270.0
 51
0.0
  0
ARC
  5
8FC
330
18
100
AcDbEntity
  8
0
100
AcDbCircle
 10
44.23348124291933
 20
48.54566602651335
 30
0.0
 40
0.07
100
AcDbArc
 50
180.0
 51
270.0
  0
LINE
  5
8FD
330
18
100
AcDbEntity
  8
0
100
AcDbLine
 10
44.48348124291934
 20
49.42916602651335
 30
0.0
 11
44.48348124291933
 21
49.25816602651335
 31
0.0
  0
ARC
  5
8FE
330
18
100
AcDbEntity
  8
0
100
AcDbCircle
 10
43.77248124291933
 20
49.42916602651335
 30
0.0
 40
0.109
100
AcDbArc
 50
90.0
 51
180.0
  0
ARC
  5
8FF
330
18
100
AcDbEntity
  8
0
100
AcDbCircle
 10
43.77248124291933
 20
48.39716602651336
 30
0.0
 40
0.109
100
AcDbArc
 50
180.0
 51
270.0
  0
ARC
  5
900
330
18
100
AcDbEntity
  8
0
100
AcDbCircle
 10
44.37448124291933
 20
48.39716602651336
 30
0.0
 40
0.109
100
AcDbArc
 50
270.0
 51
360.0
  0
ARC
  5
901
330
18
100
AcDbEntity
  8
0
100
AcDbCircle
 10
44.37448124291933
 20
49.42916602651335
 30
0.0
 40
0.109
100
AcDbArc
 50
359.9999999999999
 51
90.0
  0
CIRCLE
  5
902
330
18
100
AcDbEntity
  8
0
100
AcDbCircle
 10
43.91348124291932
 20
49.38191602651335
 30
0.0
 40
0.075
  0
CIRCLE
  5
903
330
18
100
AcDbEntity
  8
0
100
AcDbCircle
 10
43.91348124291932
 20
48.44441602651335
 30
0.0
 40
0.075
  0
LINE
  5
904
330
18
100
AcDbEntity
  8
0
100
AcDbLine
 10
44.26348124291933
 20
49.25816602651335
 30
0.0
 11
44.44598124291933
 21
49.25816602651335
 31
0.0
  0
LINE
  5
905
330
18
100
AcDbEntity
  8
0
100
AcDbLine
 10
44.26348124291933
 20
48.56816602651335
 30
0.0
 11
44.44598124291933
 21
48.56816602651335
 31
0.0
  0
LINE
  5
906
330
18
100
AcDbEntity
  8
0
100
AcDbLine
 10
44.26348124291933
 20
49.25816602651335
 30
0.0
 11
44.26348124291933
 21
48.56816602651335
 31
0.0
  0
LINE
  5
907
330
18
100
AcDbEntity
  8
0
100
AcDbLine
 10
44.31348124291933
 20
48.56816602651335
 30
0.0
 11
44.31348124291933
 21
48.54566602651335
 31
0.0
  0
LINE
  5
908
330
18
100
AcDbEntity
  8
0
100
AcDbLine
 10
44.66348124291933
 20
49.47566602651335
 30
0.0
 11
46.02848124291933
 21
49.47566602651335
 31
0.0
  0
LINE
  5
909
330
18
100
AcDbEntity
  8
0
100
AcDbLine
 10
44.66348124291933
 20
48.35066602651335
 30
0.0
 11
46.02848124291933
 21
48.35066602651335
 31
0.0
  0
LINE
  5
90A
330
18
100
AcDbEntity
  8
0
100
AcDbLine
 10
44.48348124291933
 20
48.56816602651335
 30
0.0
 11
44.48348124291933
 21
48.39716602651336
 31
0.0
  0
ARC
  5
90B
330
18
100
AcDbEntity
  8
0
100
AcDbCircle
 10
44.44598124291933
 20
49.44566602651335
 30
0.0
 40
0.1875
100
AcDbArc
 50
269.9999999999999
 51
0.0
  0
ARC
  5
90C
330
18
100
AcDbEntity
  8
0
100
AcDbCircle
 10
44.44598124291933
 20
48.38066602651335
 30
0.0
 40
0.1875
100
AcDbArc
 50
359.9999999999999
 51
90.0
  0
LINE
  5
90D
330
18
100
AcDbEntity
  8
0
100
AcDbLine
 10
45.59848124291933
 20
49.42566602651336
 30
0.0
 11
45.59848124291933
 21
48.40066602651335
 31
0.0
  0
LINE
  5
90E
330
18
100
AcDbEntity
  8
0
100
AcDbLine
 10
46.02848124291933
 20
49.47566602651335
 30
0.0
 11
46.02848124291933
 21
49.42566602651336
 31
0.0
  0
LINE
  5
90F
330
18
100
AcDbEntity
  8
0
100
AcDbLine
 10
45.59848124291933
 20
49.42566602651336
 30
0.0
 11
46.79848124291933
 21
49.42566602651336
 31
0.0
  0
LINE
  5
910
330
18
100
AcDbEntity
  8
0
100
AcDbLine
 10
45.59848124291933
 20
48.40066602651335
 30
0.0
 11
46.79848124291933
 21
48.40066602651335
 31
0.0
  0
LINE
  5
911
330
18
100
AcDbEntity
  8
0
100
AcDbLine
 10
45.59848124291933
 20
49.37566602651335
 30
0.0
 11
45.73848124291933
 21
49.37566602651335
 31
0.0
  0
LINE
  5
912
330
18
100
AcDbEntity
  8
0
100
AcDbLine
 10
45.59848124291933
 20
48.45066602651336
 30
0.0
 11
45.73848124291933
 21
48.45066602651336
 31
0.0
  0
LINE
  5
913
330
18
100
AcDbEntity
  8
0
100
AcDbLine
 10
45.73848124291933
 20
49.42566602651336
 30
0.0
 11
45.73848124291933
 21
48.40066602651335
 31
0.0
  0
LINE
  5
914
330
18
100
AcDbEntity
  8
0
100
AcDbLine
 10
45.59848124291933
 20
49.32566602651335
 30
0.0
 11
45.73848124291933
 21
49.32566602651335
 31
0.0
  0
LINE
  5
915
330
18
100
AcDbEntity
  8
0
100
AcDbLine
 10
45.59848124291933
 20
48.50066602651335
 30
0.0
 11
45.73848124291933
 21
48.50066602651335
 31
0.0
  0
LINE
  5
916
330
18
100
AcDbEntity
  8
0
100
AcDbLine
 10
47.17348124291933
 20
49.12816602651336
 30
0.0
 11
47.17348124291933
 21
48.69816602651335
 31
0.0
  0
LINE
  5
917
330
18
100
AcDbEntity
  8
0
100
AcDbLine
 10
46.02848124291933
 20
48.40066602651335
 30
0.0
 11
46.02848124291933
 21
48.35066602651335
 31
0.0
  0
LINE
  5
918
330
18
100
AcDbEntity
  8
0
100
AcDbLine
 10
46.57348124291933
 20
49.22316602651335
 30
0.0
 11
46.57348124291933
 21
48.60316602651335
 31
0.0
  0
LINE
  5
919
330
18
100
AcDbEntity
  8
0
100
AcDbLine
 10
46.74348124291933
 20
49.22316602651335
 30
0.0
 11
46.74348124291933
 21
48.60316602651335
 31
0.0
  0
LINE
  5
91A
330
18
100
AcDbEntity
  8
0
100
AcDbLine
 10
46.57348124291933
 20
49.22316602651335
 30
0.0
 11
46.74348124291933
 21
49.22316602651335
 31
0.0
  0
LINE
  5
91B
330
18
100
AcDbEntity
  8
0
100
AcDbLine
 10
46.57348124291933
 20
48.60316602651335
 30
0.0
 11
46.74348124291933
 21
48.60316602651335
 31
0.0
  0
LINE
  5
91C
330
18
100
AcDbEntity
  8
0
100
AcDbLine
 10
46.62348124291932
 20
49.19316602651335
 30
0.0
 11
46.67348124291933
 21
49.19316602651335
 31
0.0
  0
LINE
  5
91D
330
18
100
AcDbEntity
  8
0
100
AcDbLine
 10
46.62348124291933
 20
48.63316602651335
 30
0.0
 11
46.67348124291933
 21
48.63316602651335
 31
0.0
  0
LINE
  5
91E
330
18
100
AcDbEntity
  8
0
100
AcDbLine
 10
46.62348124291933
 20
49.19316602651335
 30
0.0
 11
46.62348124291933
 21
48.63316602651335
 31
0.0
  0
LINE
  5
91F
330
18
100
AcDbEntity
  8
0
100
AcDbLine
 10
46.67348124291933
 20
49.19316602651335
 30
0.0
 11
46.67348124291933
 21
48.63316602651335
 31
0.0
  0
ARC
  5
920
330
18
100
AcDbEntity
  8
0
100
AcDbCircle
 10
44.66348124291933
 20
49.44566602651335
 30
0.0
 40
0.03
100
AcDbArc
 50
90.0
 51
180.0
  0
ARC
  5
921
330
18
100
AcDbEntity
  8
0
100
AcDbCircle
 10
44.66348124291933
 20
48.38066602651335
 30
0.0
 40
0.03
100
AcDbArc
 50
180.0
 51
270.0
  0
LINE
  5
922
330
18
100
AcDbEntity
  8
0
100
AcDbLine
 10
46.79848124291933
 20
49.42566602651336
 30
0.0
 11
46.79848124291933
 21
49.37816602651334
 31
0.0
  0
LINE
  5
923
330
18
100
AcDbEntity
  8
0
100
AcDbLine
 10
46.92348124291934
 20
49.25316602651335
 30
0.0
 11
47.04848124291934
 21
49.25316602651335
 31
0.0
  0
LINE
  5
924
330
18
100
AcDbEntity
  8
0
100
AcDbLine
 10
46.92348124291934
 20
48.57316602651335
 30
0.0
 11
47.04848124291934
 21
48.57316602651335
 31
0.0
  0
LINE
  5
925
330
18
100
AcDbEntity
  8
0
100
AcDbLine
 10
46.79848124291933
 20
48.44816602651334
 30
0.0
 11
46.79848124291933
 21
48.40066602651335
 31
0.0
  0
ARC
  5
926
330
18
100
AcDbEntity
  8
0
100
AcDbCircle
 10
46.92348124291934
 20
49.37816602651335
 30
0.0
 40
0.125
100
AcDbArc
 50
180.0000000000003
 51
269.9999999999998
  0
ARC
  5
927
330
18
100
AcDbEntity
  8
0
100
AcDbCircle
 10
46.92348124291934
 20
48.44816602651334
 30
0.0
 40
0.125
100
AcDbArc
 50
90.0
 51
180.0
  0
ARC
  5
928
330
18
100
AcDbEntity
  8
0
100
AcDbCircle
 10
47.04848124291934
 20
48.69816602651335
 30
0.0
 40
0.125
100
AcDbArc
 50
270.0
 51
0.0000000000000763
  0
ARC
  5
929
330
18
100
AcDbEntity
  8
0
100
AcDbCircle
 10
47.04848124291934
 20
49.12816602651336
 30
0.0
 40
0.125
100
AcDbArc
 50
0.0000000000001018
 51
89.9999999999998
  0
LINE
  5
92A
330
18
100
AcDbEntity
  8
0
100
AcDbLine
 10
44.23338601308805
 20
38.66316602651335
 30
0.0
 11
44.23338601308803
 21
48.28816602651335
 31
0.0
  0
LINE
  5
92B
330
18
100
AcDbEntity
  8
0
100
AcDbLine
 10
44.16348124291933
 20
37.41316602651335
 30
0.0
 11
44.16348124291934
 21
35.73709222380848
 31
0.0
  0
LINE
  5
92C
330
18
100
AcDbEntity
  8
0
100
AcDbLine
 10
44.23338601308802
 20
49.53816602651335
 30
0.0
 11
44.23338601308802
 21
50.89135288330537
 31
0.0
  0
LINE
  5
92D
330
18
100
AcDbEntity
  8
0
100
AcDbLine
 10
44.16348124291932
 20
48.28816602651335
 30
0.0
 11
44.16348124291933
 21
38.66316602651335
 31
0.0
  0
LINE
  5
92E
330
18
100
AcDbEntity
  8
0
100
AcDbLine
 10
30.32347564829273
 20
22.77341555699219
 30
0.0
 11
30.35902079388556
 21
22.77341555699219
 31
0.0
  0
ARC
  5
92F
330
18
100
AcDbEntity
  8
0
100
AcDbCircle
 10
30.35902079388556
 20
22.75841555699219
 30
0.0
 40
0.015
100
AcDbArc
 50
1.999999999999977
 51
90.0
  0
LINE
  5
930
330
18
100
AcDbEntity
  8
0
100
AcDbLine
 10
30.37401165629085
 20
22.75893904944273
 30
0.0
 11
30.39284437902684
 21
22.21964043116782
 31
0.0
  0
LINE
  5
931
330
18
100
AcDbEntity
  8
0
100
AcDbLine
 10
30.32347564829272
 20
22.77341555699219
 30
0.0
 11
30.34287483767589
 21
22.2178954563327
 31
0.0
  0
ARC
  5
932
330
18
100
AcDbEntity
  8
0
100
AcDbCircle
 10
30.14299667227207
 20
22.2109155569922
 30
0.0
 40
0.25
100
AcDbArc
 50
321.7424749574016
 51
1.99999999999985
  0
ARC
  5
933
330
18
100
AcDbEntity
  8
0
100
AcDbCircle
 10
30.34512576375481
 20
22.09015391289657
 30
0.0
 40
0.093
100
AcDbArc
 50
2.397629369208358
 51
61.22258636079521
  0
ARC
  5
934
330
18
100
AcDbEntity
  8
0
100
AcDbCircle
 10
30.14299667227207
 20
22.2109155569922
 30
0.0
 40
0.2
100
AcDbArc
 50
322.0579451671832
 51
1.99999999999985
  0
ARC
  5
935
330
18
100
AcDbEntity
  8
0
100
AcDbCircle
 10
30.34512576375481
 20
22.09015391289657
 30
0.0
 40
0.043
100
AcDbArc
 50
2.397629369208358
 51
44.23006058439355
  0
ARC
  5
936
330
18
100
AcDbEntity
  8
0
100
AcDbCircle
 10
30.1918891412736
 20
21.95098086792173
 30
0.0
 40
0.1875
100
AcDbArc
 50
329.9258595888194
 51
0.3976293692061414
  0
LINE
  5
937
330
18
100
AcDbEntity
  8
0
100
AcDbLine
 10
30.30258520016009
 20
22.06751048377203
 30
0.0
 11
30.31755947670089
 21
22.05419497580225
 31
0.0
  0
LINE
  5
938
330
18
100
AcDbEntity
  8
0
100
AcDbLine
 10
30.32459052309659
 20
22.12710819846845
 30
0.0
 11
30.30090007629152
 21
22.12153543024147
 31
0.0
  0
ARC
  5
939
330
18
100
AcDbEntity
  8
0
100
AcDbCircle
 10
30.34512576375481
 20
22.09015391289657
 30
0.0
 40
0.09375
100
AcDbArc
 50
92.42888122587844
 51
131.6417580445885
  0
LINE
  5
93A
330
18
100
AcDbEntity
  8
0
100
AcDbLine
 10
30.27869733585533
 20
22.14389094961504
 30
0.0
 11
30.28336400250286
 21
22.13102294586688
 31
0.0
  0
ARC
  5
93B
330
18
100
AcDbEntity
  8
0
100
AcDbCircle
 10
30.29279866911737
 20
22.14900489136605
 30
0.0
 40
0.015
100
AcDbArc
 50
131.6417580445907
 51
199.9335113008636
  0
ARC
  5
93C
330
18
100
AcDbEntity
  8
0
100
AcDbCircle
 10
30.29746533576491
 20
22.13613688761787
 30
0.0
 40
0.015
100
AcDbArc
 50
199.9335113008605
 51
283.2371865554358
  0
ARC
  5
93D
330
18
100
AcDbEntity
  8
0
100
AcDbCircle
 10
30.31255276509352
 20
22.07871974999681
 30
0.0
 40
0.015
100
AcDbArc
 50
142.0579451671828
 51
228.3556899114262
  0
ARC
  5
93E
330
18
100
AcDbEntity
  8
0
100
AcDbCircle
 10
30.32752704163432
 20
22.06540424202703
 30
0.0
 40
0.015
100
AcDbArc
 50
228.3556899114307
 51
321.7424749574004
  0
LINE
  5
93F
330
18
100
AcDbEntity
  8
0
100
AcDbLine
 10
30.43804434800796
 20
22.09404450416124
 30
0.0
 11
30.43416219756032
 21
21.96475065246076
 31
0.0
  0
LINE
  5
940
330
18
100
AcDbEntity
  8
0
100
AcDbLine
 10
30.38808811991487
 20
22.09195278842754
 30
0.0
 11
30.37938462603009
 21
21.9522820965444
 31
0.0
  0
LINE
  5
941
330
18
100
AcDbEntity
  8
0
100
AcDbLine
 10
30.33820842846158
 20
20.90170862621538
 30
0.0
 11
30.43416219756032
 21
21.96475065246076
 31
0.0
  0
LINE
  5
942
330
18
100
AcDbEntity
  8
0
100
AcDbLine
 10
30.35414745660688
 20
21.85702082798344
 30
0.0
 11
29.7295755156229
 21
20.66421559027411
 31
0.0
  0
CIRCLE
  5
943
330
18
100
AcDbEntity
  8
0
100
AcDbCircle
 10
29.86479077840063
 20
20.58591555699219
 30
0.0
 40
0.0625
  0
ARC
  5
944
330
18
100
AcDbEntity
  8
0
100
AcDbCircle
 10
29.86479077840063
 20
20.58591555699219
 30
0.0
 40
0.15625
100
AcDbArc
 50
149.925859588819
 51
329.9258595888197
  0
LINE
  5
945
330
18
100
AcDbEntity
  8
0
100
AcDbLine
 10
29.87449334507268
 20
20.99212100306087
 30
0.0
 11
29.80874946677185
 21
20.99212100306087
 31
0.0
  0
ARC
  5
946
330
18
100
AcDbEntity
  8
0
100
AcDbCircle
 10
29.80874946677185
 20
20.83612100306087
 30
0.0
 40
0.156
100
AcDbArc
 50
90.0
 51
178.6317011767577
  0
LINE
  5
947
330
18
100
AcDbEntity
  8
0
100
AcDbLine
 10
30.24288347091389
 20
20.71091555699219
 30
0.0
 11
29.76699279428758
 21
19.5243112311661
 31
0.0
  0
LINE
  5
948
330
18
100
AcDbEntity
  8
0
100
AcDbLine
 10
30.22777242479213
 20
20.90094219448431
 30
0.0
 11
30.00000604117837
 21
20.50761552371028
 31
0.0
  0
LINE
  5
949
330
18
100
AcDbEntity
  8
0
100
AcDbLine
 10
30.22777242479212
 20
20.90094219448431
 30
0.0
 11
30.33820842846158
 21
20.90170862621538
 31
0.0
  0
LINE
  5
94A
330
18
100
AcDbEntity
  8
0
100
AcDbLine
 10
30.24288347091389
 20
20.71091555699219
 30
0.0
 11
30.16233572628541
 21
20.78349997641044
 31
0.0
  0
LINE
  5
94B
330
18
100
AcDbEntity
  8
0
100
AcDbLine
 10
29.87449334507268
 20
20.99212100306087
 30
0.0
 11
29.90616524578758
 21
20.96916599408938
 31
0.0
  0
LINE
  5
94C
330
18
100
AcDbEntity
  8
0
100
AcDbLine
 10
29.89376475291975
 20
19.83591555699219
 30
0.0
 11
30.17611207714758
 21
19.83591555699219
 31
0.0
  0
LINE
  5
94D
330
18
100
AcDbEntity
  8
0
100
AcDbLine
 10
29.8738151118915
 20
19.78591555699219
 30
0.0
 11
30.17563435993497
 21
19.78591555699219
 31
0.0
  0
LINE
  5
94E
330
18
100
AcDbEntity
  8
0
100
AcDbLine
 10
30.19063008275756
 20
19.8005573712468
 30
0.0
 11
30.19110779997016
 21
19.8205573712468
 31
0.0
  0
ARC
  5
94F
330
18
100
AcDbEntity
  8
0
100
AcDbCircle
 10
30.17611207714758
 20
19.82091555699219
 30
0.0
 40
0.015
100
AcDbArc
 50
358.6317011767566
 51
90.0
  0
ARC
  5
950
330
18
100
AcDbEntity
  8
0
100
AcDbCircle
 10
30.17563435993497
 20
19.80091555699219
 30
0.0
 40
0.015
100
AcDbArc
 50
270.0
 51
358.6317011767553
  0
LINE
  5
951
330
18
100
AcDbEntity
  8
0
100
AcDbLine
 10
29.7676072467187
 20
19.50064524492866
 30
0.0
 11
29.87107021155313
 21
19.27597107119633
 31
0.0
  0
ARC
  5
952
330
18
100
AcDbEntity
  8
0
100
AcDbCircle
 10
29.79485676175412
 20
19.51319370819451
 30
0.0
 40
0.03
100
AcDbArc
 50
158.2483553112118
 51
204.7261772624064
  0
LINE
  5
953
330
18
100
AcDbEntity
  8
0
100
AcDbLine
 10
29.72219138832633
 20
19.47973113948558
 30
0.0
 11
29.82565435316076
 21
19.25505696575325
 31
0.0
  0
ARC
  5
954
330
18
100
AcDbEntity
  8
0
100
AcDbCircle
 10
29.79485676175412
 20
19.51319370819451
 30
0.0
 40
0.08
100
AcDbArc
 50
158.2483553112118
 51
204.7261772624064
  0
LINE
  5
955
330
18
100
AcDbEntity
  8
0
100
AcDbLine
 10
29.79005768482471
 20
19.7109155569922
 30
0.0
 11
29.72055284851002
 21
19.54284043611876
 31
0.0
  0
LINE
  5
956
330
18
100
AcDbEntity
  8
0
100
AcDbLine
 10
29.86371968566834
 20
19.2560720820457
 30
0.0
 11
29.84555334231139
 21
19.24770643986846
 31
0.0
  0
ARC
  5
957
330
18
100
AcDbEntity
  8
0
100
AcDbCircle
 10
29.85744545403541
 20
19.26969683956341
 30
0.0
 40
0.015
100
AcDbArc
 50
294.7261772624065
 51
24.72617726240692
  0
ARC
  5
958
330
18
100
AcDbEntity
  8
0
100
AcDbCircle
 10
29.83927911067847
 20
19.26133119738618
 30
0.0
 40
0.015
100
AcDbArc
 50
204.7261772624069
 51
294.7261772624052
  0
LINE
  5
959
330
18
100
AcDbEntity
  8
0
100
AcDbLine
 10
29.79005768482471
 20
19.7109155569922
 30
0.0
 11
29.66698195172077
 21
19.76200970550247
 31
0.0
  0
ARC
  5
95A
330
18
100
AcDbEntity
  8
0
100
AcDbCircle
 10
29.69094549996844
 20
19.81973317001546
 30
0.0
 40
0.0625
100
AcDbArc
 50
178.6317011767578
 51
247.4545133575729
  0
LINE
  5
95B
330
18
100
AcDbEntity
  8
0
100
AcDbLine
 10
29.66344870146656
 20
21.2859155569922
 30
0.0
 11
29.71346296279115
 21
21.2859155569922
 31
0.0
  0
LINE
  5
95C
330
18
100
AcDbEntity
  8
0
100
AcDbLine
 10
29.89714194086863
 20
20.97570586194359
 30
0.0
 11
29.71346296279115
 21
21.2859155569922
 31
0.0
  0
LINE
  5
95D
330
18
100
AcDbEntity
  8
0
100
AcDbLine
 10
29.66344870146656
 20
21.2859155569922
 30
0.0
 11
29.628463321541
 21
19.82122561062125
 31
0.0
  0
SOLID
  5
95E
330
18
100
AcDbEntity
  8
DIM
100
AcDbTrace
 10
43.72520118638071
 20
37.35562879251439
 30
0.0
 11
43.80471488695003
 21
37.30612105709641
 31
0.0
 12
43.91348124291932
 22
37.56941602651335
 32
0.0
 13
43.91348124291932
 23
37.56941602651335
 33
0.0
  0
LINE
  5
95F
330
18
100
AcDbEntity
  8
DIM
100
AcDbLine
 10
43.76495803666538
 20
37.33087492480539
 30
0.0
 11
42.26172365775446
 21
34.91655063222611
 31
0.0
  0
LINE
  5
960
330
18
100
AcDbEntity
  8
DIM
100
AcDbLine
 10
42.26172365775446
 20
34.91655063222611
 30
0.0
 11
41.98072365775447
 21
34.91655063222611
 31
0.0
  0
TEXT
  5
961
330
18
100
AcDbEntity
  8
DIM
100
AcDbText
 10
39.26439032442114
 20
34.7760506322261
 30
0.0
 40
0.281
  1
SSL LATCH
100
AcDbText
  0
TEXT
  5
962
330
18
100
AcDbEntity
  8
DIM
100
AcDbText
 10
39.66674542832872
 20
34.24687136632913
 30
0.0
 40
0.281
  1
2 REQ'D.
100
AcDbText
  0
CIRCLE
  5
963
330
18
100
AcDbEntity
  8
0
100
AcDbCircle
 10
17.1043056725386
 20
22.1571870725794
 30
0.0
 40
0.05
  0
ARC
  5
964
330
18
100
AcDbEntity
  8
0
100
AcDbCircle
 10
17.1043056725386
 20
22.1571870725794
 30
0.0
 40
0.0805
100
AcDbArc
 50
180.0
 51
125.9714352274735
  0
LINE
  5
965
330
18
100
AcDbEntity
  8
0
100
AcDbLine
 10
17.18180880202368
 20
22.27341555699217
 30
0.0
 11
17.18586759013623
 21
22.1571870725794
 31
0.0
  0
LINE
  5
966
330
18
100
AcDbEntity
  8
0
100
AcDbLine
 10
17.14978929660611
 20
22.27341555699217
 30
0.0
 11
17.15157257658918
 21
22.22234909972239
 31
0.0
  0
LINE
  5
967
330
18
100
AcDbEntity
  8
0
100
AcDbLine
 10
17.05879212937959
 20
22.27341555699217
 30
0.0
 11
17.05476297664466
 21
22.1571870725794
 31
0.0
  0
LINE
  5
968
330
18
100
AcDbEntity
  8
0
100
AcDbLine
 10
17.02677290767589
 20
22.27341555699217
 30
0.0
 11
17.02274375494097
 21
22.1571870725794
 31
0.0
  0
CIRCLE
  5
969
330
18
100
AcDbEntity
  8
0
100
AcDbCircle
 10
66.59775445726544
 20
22.1571870725794
 30
0.0
 40
0.05
  0
ARC
  5
96A
330
18
100
AcDbEntity
  8
0
100
AcDbCircle
 10
66.59775445726544
 20
22.1571870725794
 30
0.0
 40
0.0805
100
AcDbArc
 50
180.0
 51
125.9714352274735
  0
LINE
  5
96B
330
18
100
AcDbEntity
  8
0
100
AcDbLine
 10
66.6602867375645
 20
22.70212458614253
 30
0.0
 11
66.67931637486306
 21
22.1571870725794
 31
0.0
  0
LINE
  5
96C
330
18
100
AcDbEntity
  8
0
100
AcDbLine
 10
66.62826723214694
 20
22.70212458614253
 30
0.0
 11
66.64502136131601
 21
22.22234909972239
 31
0.0
  0
LINE
  5
96D
330
18
100
AcDbEntity
  8
0
100
AcDbLine
 10
66.56710245313461
 20
22.70212458614253
 30
0.0
 11
66.54821176137149
 21
22.1571870725794
 31
0.0
  0
LINE
  5
96E
330
18
100
AcDbEntity
  8
0
100
AcDbLine
 10
66.5350832314309
 20
22.70212458614253
 30
0.0
 11
66.51619253966781
 21
22.1571870725794
 31
0.0
  0
LINE
  5
96F
330
18
100
AcDbEntity
  8
0
100
AcDbLine
 10
66.5350832314309
 20
22.70212458614253
 30
0.0
 11
66.56710245313461
 21
22.70212458614253
 31
0.0
  0
LINE
  5
970
330
18
100
AcDbEntity
  8
0
100
AcDbLine
 10
66.62826723214694
 20
22.70212458614253
 30
0.0
 11
66.6602867375645
 21
22.70212458614253
 31
0.0
  0
LINE
  5
971
330
18
100
AcDbEntity
  8
0
100
AcDbLine
 10
66.67525758675051
 20
22.27341555699217
 30
0.0
 11
66.68779738129351
 21
22.27341555699217
 31
0.0
  0
LINE
  5
972
330
18
100
AcDbEntity
  8
0
100
AcDbLine
 10
66.55224091410642
 20
22.27341555699217
 30
0.0
 11
66.64323808133294
 21
22.27341555699217
 31
0.0
  0
LWPOLYLINE
  5
973
330
18
100
AcDbEntity
  8
0
100
AcDbPolyline
 90
       16
 70
     1
 43
0.0
 10
78.99347181225725
 20
17.06878016823465
 10
79.16806148312874
 20
21.59532172326472
 42
-0.2490694201735645
 10
79.52176483760469
 20
22.20351078682348
 10
79.54586754754855
 20
22.82841555699217
 10
79.09052923037849
 20
22.82841555699217
 10
78.86856468747699
 20
17.07359786261341
 42
-0.4029667557441277
 10
78.74365756269672
 20
16.95341555699217
 10
67.46860089806024
 20
16.95341555699217
 42
-0.4029667557441277
 10
67.34369377327998
 20
17.07359786261341
 10
67.12172923037847
 20
22.82841555699217
 10
66.6663909132084
 20
22.82841555699217
 10
66.69049362315227
 20
22.20351078682348
 42
-0.2490694201735645
 10
67.04419697762824
 20
21.59532172326472
 10
67.21878664849971
 20
17.06878016823465
 42
0.4029667557441277
 10
67.46860089806024
 20
16.82841555699217
 10
78.74365756269672
 20
16.82841555699217
 42
0.4029667557441277
  0
LWPOLYLINE
  5
985
330
18
100
AcDbEntity
  8
0
100
AcDbPolyline
 90
       12
 70
     1
 43
0.0
 10
79.53980008598257
 20
22.89841555699217
 10
66.65399758858599
 20
22.89841555699217
 42
0.4040262258351575
 10
66.5290737352086
 20
22.77777799407998
 10
66.51146101080276
 20
22.27341555699217
 10
66.35936836006935
 20
22.27341555699217
 10
66.37748263183006
 20
22.7921404311678
 42
-0.4040262258351607
 10
66.62733033858484
 20
23.03341555699217
 10
79.56646733598372
 20
23.03341555699217
 42
-0.4040262258351546
 10
79.81631504273849
 20
22.7921404311678
 10
79.83442931449921
 20
22.2734155569922
 10
79.68233666376581
 20
22.27341555699217
 10
79.66472393935994
 20
22.77777799407998
 42
0.4040262258351546
  0
LINE
  5
993
330
18
100
AcDbEntity
  8
0
100
AcDbLine
 10
79.81696892975334
 20
22.77341555699221
 30
0.0
 11
79.85251407534618
 21
22.77341555699221
 31
0.0
  0
ARC
  5
994
330
18
100
AcDbEntity
  8
0
100
AcDbCircle
 10
79.85251407534618
 20
22.75841555699221
 30
0.0
 40
0.015
100
AcDbArc
 50
1.999999999999977
 51
90.0
  0
LINE
  5
995
330
18
100
AcDbEntity
  8
0
100
AcDbLine
 10
79.86750493775146
 20
22.75893904944275
 30
0.0
 11
79.88633766048746
 21
22.21964043116783
 31
0.0
  0
LINE
  5
996
330
18
100
AcDbEntity
  8
0
100
AcDbLine
 10
79.81696892975334
 20
22.77341555699221
 30
0.0
 11
79.83636811913651
 21
22.21789545633271
 31
0.0
  0
ARC
  5
997
330
18
100
AcDbEntity
  8
0
100
AcDbCircle
 10
79.63648995373269
 20
22.21091555699221
 30
0.0
 40
0.25
100
AcDbArc
 50
321.7424749574016
 51
1.99999999999985
  0
ARC
  5
998
330
18
100
AcDbEntity
  8
0
100
AcDbCircle
 10
79.83861904521543
 20
22.09015391289657
 30
0.0
 40
0.093
100
AcDbArc
 50
2.397629369208358
 51
61.22258636079521
  0
ARC
  5
999
330
18
100
AcDbEntity
  8
0
100
AcDbCircle
 10
79.63648995373269
 20
22.21091555699221
 30
0.0
 40
0.2
100
AcDbArc
 50
322.0579451671832
 51
1.99999999999985
  0
ARC
  5
99A
330
18
100
AcDbEntity
  8
0
100
AcDbCircle
 10
79.83861904521543
 20
22.09015391289657
 30
0.0
 40
0.043
100
AcDbArc
 50
2.397629369208358
 51
44.23006058439355
  0
ARC
  5
99B
330
18
100
AcDbEntity
  8
0
100
AcDbCircle
 10
79.68538242273421
 20
21.95098086792174
 30
0.0
 40
0.1875
100
AcDbArc
 50
329.9258595888194
 51
0.3976293692061414
  0
LINE
  5
99C
330
18
100
AcDbEntity
  8
0
100
AcDbLine
 10
79.79607848162071
 20
22.06751048377204
 30
0.0
 11
79.81105275816151
 21
22.05419497580226
 31
0.0
  0
LINE
  5
99D
330
18
100
AcDbEntity
  8
0
100
AcDbLine
 10
79.81808380455721
 20
22.12710819846846
 30
0.0
 11
79.79439335775213
 21
22.12153543024149
 31
0.0
  0
ARC
  5
99E
330
18
100
AcDbEntity
  8
0
100
AcDbCircle
 10
79.83861904521543
 20
22.09015391289657
 30
0.0
 40
0.09375
100
AcDbArc
 50
92.42888122587844
 51
131.6417580445885
  0
LINE
  5
99F
330
18
100
AcDbEntity
  8
0
100
AcDbLine
 10
79.77219061731594
 20
22.14389094961505
 30
0.0
 11
79.77685728396348
 21
22.13102294586688
 31
0.0
  0
ARC
  5
9A0
330
18
100
AcDbEntity
  8
0
100
AcDbCircle
 10
79.78629195057798
 20
22.14900489136605
 30
0.0
 40
0.015
100
AcDbArc
 50
131.6417580445907
 51
199.9335113008636
  0
ARC
  5
9A1
330
18
100
AcDbEntity
  8
0
100
AcDbCircle
 10
79.79095861722552
 20
22.13613688761789
 30
0.0
 40
0.015
100
AcDbArc
 50
199.9335113008605
 51
283.2371865554358
  0
ARC
  5
9A2
330
18
100
AcDbEntity
  8
0
100
AcDbCircle
 10
79.80604604655413
 20
22.07871974999682
 30
0.0
 40
0.015
100
AcDbArc
 50
142.0579451671828
 51
228.3556899114262
  0
ARC
  5
9A3
330
18
100
AcDbEntity
  8
0
100
AcDbCircle
 10
79.82102032309494
 20
22.06540424202704
 30
0.0
 40
0.015
100
AcDbArc
 50
228.3556899114307
 51
321.7424749574004
  0
LINE
  5
9A4
330
18
100
AcDbEntity
  8
0
100
AcDbLine
 10
79.93153762946858
 20
22.09404450416124
 30
0.0
 11
79.92765547902094
 21
21.96475065246077
 31
0.0
  0
LINE
  5
9A5
330
18
100
AcDbEntity
  8
0
100
AcDbLine
 10
79.88158140137548
 20
22.09195278842756
 30
0.0
 11
79.8728779074907
 21
21.95228209654441
 31
0.0
  0
LINE
  5
9A6
330
18
100
AcDbEntity
  8
0
100
AcDbLine
 10
79.84274345572552
 20
20.89615440800753
 30
0.0
 11
79.92765547902094
 21
21.96475065246077
 31
0.0
  0
LINE
  5
9A7
330
18
100
AcDbEntity
  8
0
100
AcDbLine
 10
79.8476407380675
 20
21.85702082798345
 30
0.0
 11
79.23411054288684
 21
20.65866137206625
 31
0.0
  0
CIRCLE
  5
9A8
330
18
100
AcDbEntity
  8
0
100
AcDbCircle
 10
79.36932580566457
 20
20.58036133878434
 30
0.0
 40
0.0625
  0
ARC
  5
9A9
330
18
100
AcDbEntity
  8
0
100
AcDbCircle
 10
79.36932580566457
 20
20.58036133878434
 30
0.0
 40
0.15625
100
AcDbArc
 50
149.925859588819
 51
329.9258595888197
  0
LINE
  5
9AA
330
18
100
AcDbEntity
  8
0
100
AcDbLine
 10
79.37902837233662
 20
20.98656678485302
 30
0.0
 11
79.31328449403579
 21
20.98656678485302
 31
0.0
  0
ARC
  5
9AB
330
18
100
AcDbEntity
  8
0
100
AcDbCircle
 10
79.31328449403579
 20
20.83056678485302
 30
0.0
 40
0.156
100
AcDbArc
 50
90.0
 51
178.6317011767577
  0
LINE
  5
9AC
330
18
100
AcDbEntity
  8
0
100
AcDbLine
 10
79.74741849817784
 20
20.70536133878434
 30
0.0
 11
79.27152782155153
 21
19.51875701295825
 31
0.0
  0
LINE
  5
9AD
330
18
100
AcDbEntity
  8
0
100
AcDbLine
 10
79.73230745205608
 20
20.89538797627646
 30
0.0
 11
79.5045410684423
 21
20.50206130550243
 31
0.0
  0
LINE
  5
9AE
330
18
100
AcDbEntity
  8
0
100
AcDbLine
 10
79.73230745205608
 20
20.89538797627646
 30
0.0
 11
79.84274345572552
 21
20.89615440800753
 31
0.0
  0
LINE
  5
9AF
330
18
100
AcDbEntity
  8
0
100
AcDbLine
 10
79.74741849817784
 20
20.70536133878434
 30
0.0
 11
79.66687075354936
 21
20.77794575820259
 31
0.0
  0
LINE
  5
9B0
330
18
100
AcDbEntity
  8
0
100
AcDbLine
 10
79.37902837233662
 20
20.98656678485302
 30
0.0
 11
79.41070027305153
 21
20.96361177588152
 31
0.0
  0
LINE
  5
9B1
330
18
100
AcDbEntity
  8
0
100
AcDbLine
 10
79.39829978018369
 20
19.83036133878434
 30
0.0
 11
79.68064710441152
 21
19.83036133878434
 31
0.0
  0
LINE
  5
9B2
330
18
100
AcDbEntity
  8
0
100
AcDbLine
 10
79.37835013915545
 20
19.78036133878434
 30
0.0
 11
79.68016938719893
 21
19.78036133878434
 31
0.0
  0
LINE
  5
9B3
330
18
100
AcDbEntity
  8
0
100
AcDbLine
 10
79.69516511002151
 20
19.79500315303895
 30
0.0
 11
79.6956428272341
 21
19.81500315303895
 31
0.0
  0
ARC
  5
9B4
330
18
100
AcDbEntity
  8
0
100
AcDbCircle
 10
79.68064710441152
 20
19.81536133878434
 30
0.0
 40
0.015
100
AcDbArc
 50
358.6317011767566
 51
90.0
  0
ARC
  5
9B5
330
18
100
AcDbEntity
  8
0
100
AcDbCircle
 10
79.68016938719893
 20
19.79536133878434
 30
0.0
 40
0.015
100
AcDbArc
 50
270.0
 51
358.6317011767553
  0
LINE
  5
9B6
330
18
100
AcDbEntity
  8
0
100
AcDbLine
 10
79.27214227398263
 20
19.49509102672081
 30
0.0
 11
79.37560523881707
 21
19.27041685298848
 31
0.0
  0
ARC
  5
9B7
330
18
100
AcDbEntity
  8
0
100
AcDbCircle
 10
79.29939178901808
 20
19.50763948998666
 30
0.0
 40
0.03
100
AcDbArc
 50
158.2483553112118
 51
204.7261772624064
  0
LINE
  5
9B8
330
18
100
AcDbEntity
  8
0
100
AcDbLine
 10
79.22672641559028
 20
19.47417692127772
 30
0.0
 11
79.33018938042471
 21
19.2495027475454
 31
0.0
  0
ARC
  5
9B9
330
18
100
AcDbEntity
  8
0
100
AcDbCircle
 10
79.29939178901808
 20
19.50763948998666
 30
0.0
 40
0.08
100
AcDbArc
 50
158.2483553112118
 51
204.7261772624064
  0
LINE
  5
9BA
330
18
100
AcDbEntity
  8
0
100
AcDbLine
 10
79.29459271208866
 20
19.70536133878434
 30
0.0
 11
79.22508787577398
 21
19.53728621791091
 31
0.0
  0
LINE
  5
9BB
330
18
100
AcDbEntity
  8
0
100
AcDbLine
 10
79.3682547129323
 20
19.25051786383785
 30
0.0
 11
79.35008836957535
 21
19.24215222166061
 31
0.0
  0
ARC
  5
9BC
330
18
100
AcDbEntity
  8
0
100
AcDbCircle
 10
79.36198048129937
 20
19.26414262135556
 30
0.0
 40
0.015
100
AcDbArc
 50
294.7261772624065
 51
24.72617726240692
  0
ARC
  5
9BD
330
18
100
AcDbEntity
  8
0
100
AcDbCircle
 10
79.34381413794241
 20
19.25577697917833
 30
0.0
 40
0.015
100
AcDbArc
 50
204.7261772624069
 51
294.7261772624052
  0
LINE
  5
9BE
330
18
100
AcDbEntity
  8
0
100
AcDbLine
 10
79.29459271208866
 20
19.70536133878434
 30
0.0
 11
79.17151697898472
 21
19.75645548729462
 31
0.0
  0
ARC
  5
9BF
330
18
100
AcDbEntity
  8
0
100
AcDbCircle
 10
79.19548052723239
 20
19.8141789518076
 30
0.0
 40
0.0625
100
AcDbArc
 50
178.6317011767578
 51
247.4545133575729
  0
LINE
  5
9C0
330
18
100
AcDbEntity
  8
0
100
AcDbLine
 10
79.16798372873052
 20
21.28036133878434
 30
0.0
 11
79.21799799005511
 21
21.28036133878434
 31
0.0
  0
LINE
  5
9C1
330
18
100
AcDbEntity
  8
0
100
AcDbLine
 10
79.40167696813258
 20
20.97015164373574
 30
0.0
 11
79.21799799005511
 21
21.28036133878434
 31
0.0
  0
LINE
  5
9C2
330
18
100
AcDbEntity
  8
0
100
AcDbLine
 10
79.16798372873052
 20
21.28036133878434
 30
0.0
 11
79.13299834880496
 21
19.8156713924134
 31
0.0
  0
TEXT
  5
9C3
330
18
100
AcDbEntity
  8
TITLE
100
AcDbText
 10
79.80141573693153
 20
3.538675063598903
 30
0.0
 40
0.281
  1
6/18/04
 41
0.9075760799039752
 72
     5
 11
81.37409382072513
 21
3.538675063598903
 31
0.0
100
AcDbText
  0
LWPOLYLINE
  5
9C4
330
18
100
AcDbEntity
  8
0
100
AcDbPolyline
 90
       13
 70
     0
 43
0.0
 10
70.76362923037845
 20
51.21123982921822
 10
70.76362923037848
 20
51.06814717848481
 10
70.25926679329067
 20
51.05053445407896
 42
0.404026225835158
 10
70.13862923037848
 20
50.92561060070157
 10
70.13862923037848
 20
36.02582395145676
 42
0.4040262258351575
 10
70.25926679329066
 20
35.90090009807938
 10
70.76362923037848
 20
35.88328737367353
 10
70.76362923037847
 20
35.73809222380848
 10
70.24490435620286
 20
35.7562064955692
 42
-0.4040262258351538
 10
70.00362923037849
 20
36.00605420232398
 10
70.00362923037849
 20
50.94527785070273
 42
-0.4040262258351509
 10
70.24490435620286
 20
51.1951255574575
 10
70.76362923037845
 20
51.21323982921822
  0
TEXT
  5
9D4
330
18
100
AcDbEntity
  8
DIM
100
AcDbText
 10
69.71091162051057
 20
53.22772162821556
 30
0.0
 40
0.281
  1
10-32 X 5/16 DP.
100
AcDbText
  0
SOLID
  5
9D5
330
18
100
AcDbEntity
  8
DIM
100
AcDbTrace
 10
66.44530383991096
 20
22.39783862644795
 30
0.0
 11
66.375495261216
 21
22.33538699088063
 31
0.0
 12
66.59775445726544
 22
22.1571870725794
 32
0.0
 13
66.59775445726544
 23
22.1571870725794
 33
0.0
  0
LINE
  5
9D6
330
18
100
AcDbEntity
  8
DIM
100
AcDbLine
 10
66.41039955056348
 20
22.36661280866429
 30
0.0
 11
65.16333947262674
 21
23.7605793685017
 31
0.0
  0
LINE
  5
9D7
330
18
100
AcDbEntity
  8
DIM
100
AcDbLine
 10
65.16333947262674
 20
23.7605793685017
 30
0.0
 11
64.88233947262674
 21
23.7605793685017
 31
0.0
  0
TEXT
  5
9D8
330
18
100
AcDbEntity
  8
DIM
100
AcDbText
 10
59.35600613929342
 20
23.6200793685017
 30
0.0
 40
0.281
  1
13 1/2 SS FLAT HINGE
100
AcDbText
  0
LINE
  5
9D9
330
18
100
AcDbEntity
  8
0
100
AcDbLine
 10
30.3738360330386
 20
37.41316602651335
 30
0.0
 11
30.3408360330386
 21
37.41316602651335
 31
0.0
  0
LINE
  5
9DA
330
18
100
AcDbEntity
  8
0
100
AcDbLine
 10
30.3738360330386
 20
38.66316602651335
 30
0.0
 11
30.3738360330386
 21
37.41316602651335
 31
0.0
  0
LINE
  5
9DB
330
18
100
AcDbEntity
  8
0
100
AcDbLine
 10
30.4378360330386
 20
37.69316602651335
 30
0.0
 11
30.3738360330386
 21
37.69316602651335
 31
0.0
  0
LINE
  5
9DC
330
18
100
AcDbEntity
  8
0
100
AcDbLine
 10
30.4378360330386
 20
38.38316602651335
 30
0.0
 11
30.4378360330386
 21
37.69316602651335
 31
0.0
  0
LINE
  5
9DD
330
18
100
AcDbEntity
  8
0
100
AcDbLine
 10
30.3738360330386
 20
38.38316602651335
 30
0.0
 11
30.4378360330386
 21
38.38316602651335
 31
0.0
  0
LINE
  5
9DE
330
18
100
AcDbEntity
  8
0
100
AcDbLine
 10
30.3788360330386
 20
37.47566602651335
 30
0.0
 11
30.3738360330386
 21
37.47566602651335
 31
0.0
  0
LINE
  5
9DF
330
18
100
AcDbEntity
  8
0
100
AcDbLine
 10
30.3788360330386
 20
38.60066602651335
 30
0.0
 11
30.3788360330386
 21
37.47566602651335
 31
0.0
  0
LINE
  5
9E0
330
18
100
AcDbEntity
  8
0
100
AcDbLine
 10
30.3738360330386
 20
38.60066602651335
 30
0.0
 11
30.3788360330386
 21
38.60066602651335
 31
0.0
  0
LINE
  5
9E1
330
18
100
AcDbEntity
  8
0
100
AcDbLine
 10
30.3408360330386
 20
38.66316602651335
 30
0.0
 11
30.3738360330386
 21
38.66316602651335
 31
0.0
  0
LINE
  5
9E2
330
18
100
AcDbEntity
  8
0
100
AcDbLine
 10
30.3738360330386
 20
48.28816602651336
 30
0.0
 11
30.3408360330386
 21
48.28816602651336
 31
0.0
  0
LINE
  5
9E3
330
18
100
AcDbEntity
  8
0
100
AcDbLine
 10
30.3738360330386
 20
49.53816602651336
 30
0.0
 11
30.3738360330386
 21
48.28816602651336
 31
0.0
  0
LINE
  5
9E4
330
18
100
AcDbEntity
  8
0
100
AcDbLine
 10
30.4378360330386
 20
48.56816602651336
 30
0.0
 11
30.3738360330386
 21
48.56816602651336
 31
0.0
  0
LINE
  5
9E5
330
18
100
AcDbEntity
  8
0
100
AcDbLine
 10
30.4378360330386
 20
49.25816602651337
 30
0.0
 11
30.4378360330386
 21
48.56816602651336
 31
0.0
  0
LINE
  5
9E6
330
18
100
AcDbEntity
  8
0
100
AcDbLine
 10
30.3738360330386
 20
49.25816602651337
 30
0.0
 11
30.4378360330386
 21
49.25816602651337
 31
0.0
  0
LINE
  5
9E7
330
18
100
AcDbEntity
  8
0
100
AcDbLine
 10
30.3788360330386
 20
48.35066602651336
 30
0.0
 11
30.3738360330386
 21
48.35066602651336
 31
0.0
  0
LINE
  5
9E8
330
18
100
AcDbEntity
  8
0
100
AcDbLine
 10
30.3788360330386
 20
49.47566602651336
 30
0.0
 11
30.3788360330386
 21
48.35066602651336
 31
0.0
  0
LINE
  5
9E9
330
18
100
AcDbEntity
  8
0
100
AcDbLine
 10
30.3738360330386
 20
49.47566602651336
 30
0.0
 11
30.3788360330386
 21
49.47566602651336
 31
0.0
  0
LINE
  5
9EA
330
18
100
AcDbEntity
  8
0
100
AcDbLine
 10
30.3408360330386
 20
49.53816602651336
 30
0.0
 11
30.3738360330386
 21
49.53816602651336
 31
0.0
  0
DIMENSION
  5
9EB
330
18
100
AcDbEntity
  8
DIM
100
AcDbDimension
  2
*D28
 10
79.09052923037849
 20
25.82766915979481
 30
0.0
 11
73.10612923037848
 21
25.82766915979481
 31
0.0
 12
2.318101716173842
 22
0.0
 32
0.0
 71
     5
 42
-1.0
 73
     0
 74
     0
 75
     0
100
AcDbAlignedDimension
 13
67.12172923037847
 23
22.82841555699217
 33
0.0
 14
79.09052923037849
 24
22.82841555699217
 34
0.0
100
AcDbRotatedDimension
  0
DIMENSION
  5
9EC
330
18
100
AcDbEntity
  8
DIM
100
AcDbDimension
  2
*D32
 10
64.99638144794184
 20
50.46011727607916
 30
0.0
 11
64.99638144794184
 21
43.47571727607916
 31
0.0
 12
1.590550472722782
 22
5.163196655588052
 32
0.0
 71
     5
 42
-1.0
 73
     0
 74
     0
 75
     0
100
AcDbAlignedDimension
 13
70.20862923037848
 23
36.49131727607916
 33
0.0
 14
70.20862923037848
 24
50.46011727607916
 34
0.0
 50
90.0
100
AcDbRotatedDimension
  0
LINE
  5
9ED
330
18
100
AcDbEntity
  8
0
100
AcDbLine
 10
70.20862923037848
 20
36.49131727607916
 30
0.0
 11
70.20862923037848
 21
50.46011727607916
 31
0.0
  0
TEXT
  5
A98
330
18
100
AcDbEntity
  8
DIM
100
AcDbText
 10
33.95321708337605
 20
19.78670935409878
 30
0.0
 40
0.281
  1
REF.
100
AcDbText
  0
INSERT
  5
A99
330
18
100
AcDbEntity
  8
HATCH
100
AcDbBlockReference
  2
*X36
 10
1.590550472722782
 20
5.163196655588052
 30
0.0
  0
TEXT
  5
A9F
330
18
100
AcDbEntity
  8
TITLE
100
AcDbText
 10
67.32549418400018
 20
5.41171776764564
 30
0.0
 40
0.281
  1
NEMA 1, 3R, 4X, 6P, 12
100
AcDbText
  0
TEXT
  5
AA0
330
18
100
AcDbEntity
  8
TITLE
100
AcDbText
 10
78.51003862282235
 20
3.55841714553266
 30
0.0
 40
0.281
  1
ZJB
100
AcDbText
  0
TEXT
  5
105A
330
18
100
AcDbEntity
  8
TITLE
100
AcDbText
 10
92.15003747726715
 20
1.347079110280549
 30
0.0
 40
0.281
  1
HW-J141206CHQR
100
AcDbText
  0
TEXT
  5
1164
330
18
100
AcDbEntity
  8
TITLE
100
AcDbText
 10
78.30400807880157
 20
0.3258970681683046
 30
0.0
 40
0.2268750000000001
  1
DO NOT SCALE
 72
     1
 11
79.62744557880157
 21
0.3258970681683046
 31
0.0
100
AcDbText
  0
TEXT
  5
11C0
330
18
100
AcDbEntity
  8
TITLE
 62
     1
100
AcDbText
 10
93.02558537524712
 20
4.796987967330823
 30
0.0
 40
0.2328749999999999
  1
-
  7
ITALIC
100
AcDbText
  0
TEXT
  5
11C1
330
18
100
AcDbEntity
  8
TITLE
 62
     1
100
AcDbText
 10
93.02558537524712
 20
5.02467053687187
 30
0.0
 40
0.2328749999999999
  1
+
  7
ITALIC
100
AcDbText
  0
TEXT
  5
11C2
330
18
100
AcDbEntity
  8
TITLE
 62
     1
100
AcDbText
 10
93.02558537524712
 20
5.464804594632657
 30
0.0
 40
0.2328749999999999
  1
FRACTIONAL
  7
ITALIC
100
AcDbText
  0
TEXT
  5
11C3
330
18
100
AcDbEntity
  8
TITLE
 62
     1
100
AcDbText
 10
90.71633704400039
 20
4.79826105711532
 30
0.0
 40
0.2328749999999999
  1
-
  7
ITALIC
100
AcDbText
  0
TEXT
  5
11C4
330
18
100
AcDbEntity
  8
TITLE
 62
     1
100
AcDbText
 10
90.71633704400039
 20
5.034547416635849
 30
0.0
 40
0.2328749999999999
  1
+
  7
ITALIC
100
AcDbText
  0
TEXT
  5
11C5
330
18
100
AcDbEntity
  8
TITLE
 62
     1
100
AcDbText
 10
90.71633704400039
 20
5.474681474396613
 30
0.0
 40
0.2328749999999999
  1
DECIMAL
  7
ITALIC
100
AcDbText
  0
TEXT
  5
11C6
330
18
100
AcDbEntity
  8
TITLE
 62
     1
100
AcDbText
 10
86.89115115269311
 20
5.464629489609684
 30
0.0
 40
0.2328749999999999
  1
TOLERANCES
  7
ITALIC
 72
     1
 11
88.01671365269312
 21
5.464629489609684
 31
0.0
100
AcDbText
  0
LINE
  5
11C7
330
18
100
AcDbEntity
  8
TITLE
 62
     1
100
AcDbLine
 10
86.00250000000562
 20
6.059999999999998
 30
0.0
 11
86.00250000000562
 21
4.56
 31
0.0
  0
TEXT
  5
11C8
330
18
100
AcDbEntity
  8
TITLE
 62
     1
100
AcDbText
 10
86.27015115269312
 20
4.915002678668338
 30
0.0
 40
0.2328749999999999
  1
UNLESS SPECIFIED
  7
ITALIC
 72
     1
 11
88.01671365269312
 21
4.915002678668338
 31
0.0
100
AcDbText
  0
TEXT
  5
11C9
330
18
100
AcDbEntity
  8
TITLE
 62
     1
100
AcDbText
 10
80.17070948755081
 20
4.234091695419426
 30
0.0
 40
0.21
  1
DATE
  7
ITALIC
 72
     1
 11
80.55570948755081
 21
4.234091695419426
 31
0.0
100
AcDbText
  0
TEXT
  5
11CA
330
18
100
AcDbEntity
  8
TITLE
 62
     1
100
AcDbText
 10
80.19285994812745
 20
3.108084450906574
 30
0.0
 40
0.231
  1
DATE
  7
ITALIC
 72
     1
 11
80.61635994812744
 21
3.108084450906574
 31
0.0
100
AcDbText
  0
TEXT
  5
11CB
330
18
100
AcDbEntity
  8
TITLE
100
AcDbText
 10
78.19904442819133
 20
4.239271462137327
 30
0.0
 40
0.21
  1
DR. BY
  7
ITALIC
 72
     1
 11
78.72404442819133
 21
4.239271462137327
 31
0.0
100
AcDbText
  0
TEXT
  5
11CC
330
18
100
AcDbEntity
  8
TITLE
100
AcDbText
 10
77.94957124805098
 20
3.108084450906574
 30
0.0
 40
0.231
  1
CHK. BY
  7
ITALIC
 72
     1
 11
78.64257124805098
 21
3.108084450906574
 31
0.0
100
AcDbText
  0
LINE
  5
11CD
330
18
100
AcDbEntity
  8
TITLE
 62
     1
100
AcDbLine
 10
91.99401493791288
 20
1.184999999999999
 30
0.0
 11
91.99401493791288
 21
2.309999999999999
 31
0.0
  0
TEXT
  5
11CE
330
18
100
AcDbEntity
  8
TITLE
 62
     1
100
AcDbText
 10
89.20186711450027
 20
0.7810430313101864
 30
0.0
 40
0.2541000000000001
  1
PART NO.
  7
ITALIC
100
AcDbText
  0
LINE
  5
11CF
330
18
100
AcDbEntity
  8
TITLE
 62
     1
100
AcDbLine
 10
88.81500000000562
 20
1.184999999999999
 30
0.0
 11
88.81500000000562
 21
0.059999999999994
 31
0.0
  0
TEXT
  5
11D0
330
18
100
AcDbEntity
  8
TITLE
 62
     1
100
AcDbText
 10
81.84949572678457
 20
0.7653742369885342
 30
0.0
 40
0.2541000000000001
  1
PART NAME
  7
ITALIC
100
AcDbText
  0
TEXT
  5
11D1
330
18
100
AcDbEntity
  8
TITLE
 62
     1
100
AcDbText
 10
81.81399324598915
 20
1.878837302656623
 30
0.0
 40
0.2541000000000001
  1
CUSTOMER
  7
ITALIC
 72
     2
 11
83.76209324598915
 21
1.878837302656623
 31
0.0
100
AcDbText
  0
TEXT
  5
11D2
330
18
100
AcDbEntity
  8
TITLE
 62
     1
100
AcDbText
 10
80.2115157959543
 20
1.983661084935265
 30
0.0
 40
0.231
  1
DATE
  7
ITALIC
 72
     1
 11
80.63501579595429
 21
1.983661084935265
 31
0.0
100
AcDbText
  0
TEXT
  5
11D3
330
18
100
AcDbEntity
  8
TITLE
100
AcDbText
 10
77.94957124805098
 20
1.975114469850727
 30
0.0
 40
0.231
  1
APD. BY
  7
ITALIC
 72
     1
 11
78.64257124805098
 21
1.975114469850727
 31
0.0
100
AcDbText
  0
TEXT
  5
11D4
330
18
100
AcDbEntity
  8
TITLE
100
AcDbText
 10
79.10208410096577
 20
0.7819429067983888
 30
0.0
 40
0.231
  1
SCALE
  7
ITALIC
 72
     1
 11
79.64108410096577
 21
0.7819429067983888
 31
0.0
100
AcDbText
  0
LINE
  5
11D5
330
18
100
AcDbEntity
  8
TITLE
 62
     1
100
AcDbLine
 10
79.62750000000562
 20
4.560000000000004
 30
0.0
 11
79.62750000000562
 21
1.185000000000002
 31
0.0
  0
LINE
  5
11D6
330
18
100
AcDbEntity
  8
TITLE
 62
     1
100
AcDbLine
 10
81.50250000000562
 20
4.559999999999994
 30
0.0
 11
81.50250000000562
 21
0.0599999999999967
 31
0.0
  0
LINE
  5
11D7
330
18
100
AcDbEntity
  8
TITLE
 62
     1
100
AcDbLine
 10
95.94000000000562
 20
2.309999999999999
 30
0.0
 11
81.50250000000562
 21
2.309999999999999
 31
0.0
  0
TEXT
  5
11D8
330
18
100
AcDbEntity
  8
TITLE
 62
     1
100
AcDbText
 10
92.7572750955565
 20
1.990120661980461
 30
0.0
 40
0.1875
  1
AutoCAD DWG. FILE
100
AcDbText
  0
TEXT
  5
11D9
330
18
100
AcDbEntity
  8
TITLE
100
AcDbText
 10
76.71807384191218
 20
3.054402100165818
 30
0.0
 40
0.231
  1
CHD.
  7
ITALIC
 72
     1
 11
77.06457384191219
 21
3.054402100165818
 31
0.0
100
AcDbText
  0
TEXT
  5
11DA
330
18
100
AcDbEntity
  8
TITLE
100
AcDbText
 10
75.57386626650732
 20
3.082890817114277
 30
0.0
 40
0.231
  1
BY
  7
ITALIC
 72
     1
 11
75.76636626650731
 21
3.082890817114277
 31
0.0
100
AcDbText
  0
TEXT
  5
11DB
330
18
100
AcDbEntity
  8
TITLE
100
AcDbText
 10
73.81677800871746
 20
3.068646458640047
 30
0.0
 40
0.231
  1
DATE
  7
ITALIC
 72
     1
 11
74.24027800871747
 21
3.068646458640047
 31
0.0
100
AcDbText
  0
TEXT
  5
11DC
330
18
100
AcDbEntity
  8
TITLE
100
AcDbText
 10
65.1561550996023
 20
6.207582814940673
 30
0.0
 40
0.21
  1
NOTES:
  7
ITALIC
100
AcDbText
  0
TEXT
  5
11DD
330
18
100
AcDbEntity
  8
TITLE
100
AcDbText
 10
64.8928003225747
 20
3.082890817114277
 30
0.0
 40
0.231
  1
LET.
  7
ITALIC
 72
     1
 11
65.23930032257471
 21
3.082890817114277
 31
0.0
100
AcDbText
  0
TEXT
  5
11DE
330
18
100
AcDbEntity
  8
TITLE
100
AcDbText
 10
65.12051744205857
 20
4.144193573583431
 30
0.0
 40
0.231
  1
MATERIAL
  7
ITALIC
100
AcDbText
  0
LINE
  5
11DF
330
18
100
AcDbEntity
  8
TITLE
100
AcDbLine
 10
77.75250000000562
 20
2.872499999999999
 30
0.0
 11
64.44000000000563
 21
2.872500000000004
 31
0.0
  0
TEXT
  5
11E0
330
18
100
AcDbEntity
  8
TITLE
100
AcDbText
 10
67.80411225101072
 20
3.054402100165818
 30
0.0
 40
0.231
  1
REVISION RECORD
  7
ITALIC
 72
     1
 11
69.45961225101072
 21
3.054402100165818
 31
0.0
100
AcDbText
  0
LINE
  5
11E1
330
18
100
AcDbEntity
  8
TITLE
100
AcDbLine
 10
77.75250000000562
 20
0.6224999999999968
 30
0.0
 11
64.44000000000563
 21
0.6225000000000048
 31
0.0
  0
LINE
  5
11E2
330
18
100
AcDbEntity
  8
TITLE
100
AcDbLine
 10
77.75250000000562
 20
1.747499999999999
 30
0.0
 11
64.44000000000563
 21
1.747500000000004
 31
0.0
  0
LINE
  5
11E3
330
18
100
AcDbEntity
  8
TITLE
100
AcDbLine
 10
64.44000000000563
 20
6.060000000000004
 30
0.0
 11
64.44000000000563
 21
0.0599999999999994
 31
0.0
  0
LINE
  5
11E4
330
18
100
AcDbEntity
  8
TITLE
100
AcDbLine
 10
65.94000000000562
 20
3.434999999999999
 30
0.0
 11
65.94000000000562
 21
0.0599999999999994
 31
0.0
  0
LINE
  5
11E5
330
18
100
AcDbEntity
  8
TITLE
100
AcDbLine
 10
73.44000000000562
 20
3.435000000000004
 30
0.0
 11
73.44000000000562
 21
0.0600000000000047
 31
0.0
  0
LINE
  5
11E6
330
18
100
AcDbEntity
  8
TITLE
100
AcDbLine
 10
75.12750000000562
 20
3.435000000000004
 30
0.0
 11
75.12750000000562
 21
0.0600000000000074
 31
0.0
  0
LINE
  5
11E7
330
18
100
AcDbEntity
  8
TITLE
100
AcDbLine
 10
76.44000000000563
 20
3.435000000000004
 30
0.0
 11
76.44000000000563
 21
0.06000000000001
 31
0.0
  0
LINE
  5
11E8
330
18
100
AcDbEntity
  8
TITLE
100
AcDbLine
 10
77.75250000000562
 20
4.559999999999999
 30
0.0
 11
77.75250000000562
 21
0.0599999999999967
 31
0.0
  0
LINE
  5
11E9
330
18
100
AcDbEntity
  8
TITLE
100
AcDbLine
 10
95.94000000000562
 20
6.059999999999998
 30
0.0
 11
64.44000000000563
 21
6.060000000000004
 31
0.0
  0
LINE
  5
11EA
330
18
100
AcDbEntity
  8
TITLE
100
AcDbLine
 10
86.00250000000562
 20
5.31
 30
0.0
 11
64.44000000000563
 21
5.310000000000004
 31
0.0
  0
LINE
  5
11EB
330
18
100
AcDbEntity
  8
TITLE
100
AcDbLine
 10
95.94000000000562
 20
4.559999999999999
 30
0.0
 11
64.44000000000563
 21
4.560000000000004
 31
0.0
  0
LINE
  5
11EC
330
18
100
AcDbEntity
  8
TITLE
100
AcDbLine
 10
81.50250000000562
 20
3.434999999999999
 30
0.0
 11
64.44000000000563
 21
3.435000000000004
 31
0.0
  0
LINE
  5
11ED
330
18
100
AcDbEntity
  8
TITLE
100
AcDbLine
 10
81.50250000000562
 20
2.309999999999999
 30
0.0
 11
64.44000000000563
 21
2.310000000000004
 31
0.0
  0
LINE
  5
11EE
330
18
100
AcDbEntity
  8
TITLE
100
AcDbLine
 10
95.94000000000562
 20
1.184999999999999
 30
0.0
 11
64.44000000000563
 21
1.185000000000004
 31
0.0
  0
LWPOLYLINE
  5
11EF
330
18
100
AcDbEntity
  8
TITLE
100
AcDbPolyline
 90
        4
 70
     1
 43
0.0
 10
95.94000000000566
 20
62.56500000000414
 10
0.0599999999999914
 20
62.56500000000414
 10
0.0599999999999994
 20
0.0599999999999994
 10
95.94000000000562
 20
0.0599999999999994
  0
LWPOLYLINE
  5
11F0
330
18
100
AcDbEntity
  8
TITLE
100
AcDbPolyline
 90
        4
 70
     1
 43
0.0
 10
96.00000000000566
 20
62.62500000000415
 10
-0.0000000000000107
 20
62.62500000000415
 10
0.0
 20
0.0
 10
96.0000000000056
 20
0.0
  0
LWPOLYLINE
  5
11F1
330
18
100
AcDbEntity
  8
TITLE
100
AcDbPolyline
 90
        4
 70
     1
 43
0.0
 10
95.97000000000566
 20
62.59500000000416
 10
0.0299999999999914
 20
62.59500000000416
 10
0.0299999999999994
 20
0.0299999999999994
 10
95.9700000000056
 20
0.0299999999999994
  0
TEXT
  5
124E
330
18
100
AcDbEntity
  8
TITLE
100
AcDbText
 10
84.07751781474305
 20
2.968924777193269
 30
0.0
 40
0.6707060430567863
  1
HUBBELL WIEGMANN
  7
STYLE1
100
AcDbText
  0
TEXT
  5
124F
330
18
100
AcDbEntity
  8
TITLE
100
AcDbText
 10
91.5795270661545
 20
0.2430667417703947
 30
0.0
 40
0.281
  1
HW-J141206CHQR
100
AcDbText
  0
TEXT
  5
1256
330
18
100
AcDbEntity
  8
TITLE
100
AcDbText
 10
67.32549418400018
 20
4.678265051626013
 30
0.0
 40
0.281
  1
COLOR GRAY
100
AcDbText
  0
ENDSEC
  0
SECTION
  2
OBJECTS
  0
DICTIONARY
  5
C
330
0
100
AcDbDictionary
281
     1
  3
ACAD_COLOR
350
118D
  3
ACAD_GROUP
350
D
  3
ACAD_LAYOUT
350
118E
  3
ACAD_MATERIAL
350
118C
  3
ACAD_MLEADERSTYLE
350
12CB
  3
ACAD_MLINESTYLE
350
E
  3
ACAD_PLOTSETTINGS
350
118F
  3
ACAD_PLOTSTYLENAME
350
118A
  3
ACAD_SCALELIST
350
12A9
  3
ACAD_TABLESTYLE
350
12A7
  3
ACAD_VISUALSTYLE
350
1296
  3
ACDB_RECOMPOSE_DATA
350
12E9
  3
AcDbVariableDictionary
350
11A5
  3
ASE_INDEX_DICTIONARY
350
1203
  0
DICTIONARY
  5
12D4
330
F
100
AcDbDictionary
280
     1
281
     1
  3
ADSK_XREC_LAYER_RECONCILED
360
12D5
  0
DICTIONARY
  5
12D6
330
4E
100
AcDbDictionary
280
     1
281
     1
  3
ADSK_XREC_LAYER_RECONCILED
360
12D7
  0
DICTIONARY
  5
12D8
330
4F
100
AcDbDictionary
280
     1
281
     1
  3
ADSK_XREC_LAYER_RECONCILED
360
12D9
  0
DICTIONARY
  5
12DA
330
51
100
AcDbDictionary
280
     1
281
     1
  3
ADSK_XREC_LAYER_RECONCILED
360
12DB
  0
DICTIONARY
  5
12DC
330
53
100
AcDbDictionary
280
     1
281
     1
  3
ADSK_XREC_LAYER_RECONCILED
360
12DD
  0
DICTIONARY
  5
12DE
330
55
100
AcDbDictionary
280
     1
281
     1
  3
ADSK_XREC_LAYER_RECONCILED
360
12DF
  0
DICTIONARY
  5
118D
102
{ACAD_REACTORS
330
C
102
}
330
C
100
AcDbDictionary
281
     1
  0
DICTIONARY
  5
D
102
{ACAD_REACTORS
330
C
102
}
330
C
100
AcDbDictionary
281
     1
  0
DICTIONARY
  5
118E
102
{ACAD_REACTORS
330
C
102
}
330
C
100
AcDbDictionary
281
     1
  3
Layout1
350
1191
  3
Model
350
1190
  0
DICTIONARY
  5
118C
102
{ACAD_REACTORS
330
C
102
}
330
C
100
AcDbDictionary
281
     1
  3
ByBlock
350
1286
  3
ByLayer
350
127E
  3
Global
350
128E
  0
DICTIONARY
  5
12CB
102
{ACAD_REACTORS
330
C
102
}
330
C
100
AcDbDictionary
281
     1
  3
Standard
350
12CC
  0
DICTIONARY
  5
E
102
{ACAD_REACTORS
330
C
102
}
330
C
100
AcDbDictionary
281
     1
  3
STANDARD
350
1B
  0
DICTIONARY
  5
118F
102
{ACAD_REACTORS
330
C
102
}
330
C
100
AcDbDictionary
281
     1
  0
ACDBDICTIONARYWDFLT
  5
118A
102
{ACAD_REACTORS
330
C
102
}
330
C
100
AcDbDictionary
281
     1
  3
Normal
350
118B
100
AcDbDictionaryWithDefault
340
118B
  0
DICTIONARY
  5
12A9
102
{ACAD_REACTORS
330
C
102
}
330
C
100
AcDbDictionary
281
     1
  3
A0
350
12AA
  3
A1
350
12AB
  3
A2
350
12AC
  3
A3
350
12AD
  3
A4
350
12AE
  3
A5
350
12AF
  3
A6
350
12B0
  3
A7
350
12B1
  3
A8
350
12B2
  3
A9
350
12B3
  3
B0
350
12B4
  3
B1
350
12B5
  3
B2
350
12B6
  3
B3
350
12B7
  3
B4
350
12B8
  3
B5
350
12B9
  3
B6
350
12BA
  3
B7
350
12BB
  3
B8
350
12BC
  3
B9
350
12BD
  3
C0
350
12BE
  3
C1
350
12BF
  3
C2
350
12C0
  3
C3
350
12C1
  3
C4
350
12C2
  3
C5
350
12C3
  3
C6
350
12C4
  3
C7
350
12C5
  3
C8
350
12C6
  3
C9
350
12C7
  3
D0
350
12C8
  3
D1
350
12C9
  3
D2
350
12CA
  0
DICTIONARY
  5
12A7
102
{ACAD_REACTORS
330
C
102
}
330
C
100
AcDbDictionary
281
     1
  3
Standard
350
12A8
  0
DICTIONARY
  5
1296
102
{ACAD_REACTORS
330
C
102
}
330
C
100
AcDbDictionary
281
     1
  3
2dWireframe
350
129C
  3
3D Hidden
350
129E
  3
3dWireframe
350
129D
  3
Basic
350
129B
  3
Brighten
350
12A2
  3
ColorChange
350
12A6
  3
Conceptual
350
129F
  3
Dim
350
12A1
  3
Facepattern
350
12A5
  3
Flat
350
1297
  3
FlatWithEdges
350
1298
  3
Gouraud
350
1299
  3
GouraudWithEdges
350
129A
  3
Linepattern
350
12A4
  3
Realistic
350
12A0
  3
Thicken
350
12A3
  0
XRECORD
  5
12E9
102
{ACAD_REACTORS
330
C
102
}
330
C
100
AcDbXrecord
280
     1
 90
        1
330
12A8
  0
DICTIONARY
  5
11A5
102
{ACAD_REACTORS
330
C
102
}
330
C
100
AcDbDictionary
281
     1
  3
CANNOSCALE
350
12E3
  3
CMLEADERSTYLE
350
12E1
  3
CTABLESTYLE
350
12E0
  3
DIMASSOC
350
11A6
  3
LAYEREVAL
350
12E5
  3
LAYERNOTIFY
350
12E6
  3
LIGHTINGUNITS
350
12E4
  3
MSLTSCALE
350
12E2
  3
PROJECTNAME
350
11A7
  0
DICTIONARY
  5
1203
102
{ACAD_REACTORS
330
C
102
}
330
C
100
AcDbDictionary
281
     1
  3
ASEBlockHierarchyIndexRecord
350
1205
1001
DCO15
1040
1500968083.66
  0
XRECORD
  5
12D5
102
{ACAD_REACTORS
330
12D4
102
}
330
12D4
100
AcDbXrecord
280
     1
290
     1
  0
XRECORD
  5
12D7
102
{ACAD_REACTORS
330
12D6
102
}
330
12D6
100
AcDbXrecord
280
     1
290
     1
  0
XRECORD
  5
12D9
102
{ACAD_REACTORS
330
12D8
102
}
330
12D8
100
AcDbXrecord
280
     1
290
     1
  0
XRECORD
  5
12DB
102
{ACAD_REACTORS
330
12DA
102
}
330
12DA
100
AcDbXrecord
280
     1
290
     1
  0
XRECORD
  5
12DD
102
{ACAD_REACTORS
330
12DC
102
}
330
12DC
100
AcDbXrecord
280
     1
290
     1
  0
XRECORD
  5
12DF
102
{ACAD_REACTORS
330
12DE
102
}
330
12DE
100
AcDbXrecord
280
     1
290
     1
  0
LAYOUT
  5
1191
102
{ACAD_REACTORS
330
118E
102
}
330
118E
100
AcDbPlotSettings
  1

  2
\\BELDING_BDC_1\IBM 4039 LaserPrinter Plus
  4

  6

 40
0.0
 41
0.0
 42
0.0
 43
0.0
 44
0.0
 45
0.0
 46
0.0
 47
0.0
 48
0.0
 49
0.0
140
0.0
141
0.0
142
1.0
143
1.0
 70
   688
 72
     0
 73
     0
 74
     5
  7

 75
    16
147
1.0
 76
     0
 77
     2
 78
   300
148
0.0
149
0.0
100
AcDbLayout
  1
Layout1
 70
     0
 71
     1
 10
0.0
 20
0.0
 11
12.0
 21
9.0
 12
0.0
 22
0.0
 32
0.0
 14
1.000000000000000E+20
 24
1.000000000000000E+20
 34
1.000000000000000E+20
 15
-1.000000000000000E+20
 25
-1.000000000000000E+20
 35
-1.000000000000000E+20
146
0.0
 13
0.0
 23
0.0
 33
0.0
 16
1.0
 26
0.0
 36
0.0
 17
0.0
 27
1.0
 37
0.0
 76
     0
330
15
  0
LAYOUT
  5
1190
102
{ACAD_REACTORS
330
118E
102
}
330
118E
100
AcDbPlotSettings
  1

  2
HP DesignJet 500 24 by HP
  4
User265
  6

 40
4.995333194732666
 41
16.97568893432617
 42
4.99530029296875
 43
16.97564697265625
 44
558.7576293945312
 45
863.5153198242187
 46
3.809999999999999
 47
0.0
 48
0.0
 49
0.0
140
0.0
141
0.0
142
1.0
143
2.939734261145963
 70
 11956
 72
     0
 73
     1
 74
     1
  7

 75
     0
147
0.3401668012026983
 76
     0
 77
     2
 78
   300
148
0.1488213120151215
149
0.0970826527600195
100
AcDbLayout
  1
Model
 70
     1
 71
     0
 10
0.0
 20
0.0
 11
12.0
 21
9.0
 12
0.0
 22
0.0
 32
0.0
 14
0.0
 24
0.0
 34
0.0
 15
0.0
 25
0.0
 35
0.0
146
0.0
 13
0.0
 23
0.0
 33
0.0
 16
1.0
 26
0.0
 36
0.0
 17
0.0
 27
1.0
 37
0.0
 76
     0
330
18
331
1277
  0
MATERIAL
  5
1286
102
{ACAD_XDICTIONARY
360
1287
102
}
102
{ACAD_REACTORS
330
118C
102
}
330
118C
100
AcDbMaterial
  1
ByBlock
 72
     0
 43
0.0208333333333333
 43
0.0
 43
0.0
 43
0.0
 43
0.0
 43
0.0208333333333333
 43
0.0
 43
0.0
 43
0.0
 43
0.0
 43
1.0
 43
0.0
 43
0.0
 43
0.0
 43
0.0
 43
1.0
 77
     0
 47
0.0208333333333333
 47
0.0
 47
0.0
 47
0.0
 47
0.0
 47
0.0208333333333333
 47
0.0
 47
0.0
 47
0.0
 47
0.0
 47
1.0
 47
0.0
 47
0.0
 47
0.0
 47
0.0
 47
1.0
171
     0
 49
0.0208333333333333
 49
0.0
 49
0.0
 49
0.0
 49
0.0
 49
0.0208333333333333
 49
0.0
 49
0.0
 49
0.0
 49
0.0
 49
1.0
 49
0.0
 49
0.0
 49
0.0
 49
0.0
 49
1.0
175
     0
142
0.0208333333333333
142
0.0
142
0.0
142
0.0
142
0.0
142
0.0208333333333333
142
0.0
142
0.0
142
0.0
142
0.0
142
1.0
142
0.0
142
0.0
142
0.0
142
0.0
142
1.0
179
     0
144
0.0208333333333333
144
0.0
144
0.0
144
0.0
144
0.0
144
0.0208333333333333
144
0.0
144
0.0
144
0.0
144
0.0
144
1.0
144
0.0
144
0.0
144
0.0
144
0.0
144
1.0
147
0.0208333333333333
147
0.0
147
0.0
147
0.0
147
0.0
147
0.0208333333333333
147
0.0
147
0.0
147
0.0
147
0.0
147
1.0
147
0.0
147
0.0
147
0.0
147
0.0
147
1.0
  0
MATERIAL
  5
127E
102
{ACAD_XDICTIONARY
360
127F
102
}
102
{ACAD_REACTORS
330
118C
102
}
330
118C
100
AcDbMaterial
  1
ByLayer
 72
     0
 43
0.0208333333333333
 43
0.0
 43
0.0
 43
0.0
 43
0.0
 43
0.0208333333333333
 43
0.0
 43
0.0
 43
0.0
 43
0.0
 43
1.0
 43
0.0
 43
0.0
 43
0.0
 43
0.0
 43
1.0
 77
     0
 47
0.0208333333333333
 47
0.0
 47
0.0
 47
0.0
 47
0.0
 47
0.0208333333333333
 47
0.0
 47
0.0
 47
0.0
 47
0.0
 47
1.0
 47
0.0
 47
0.0
 47
0.0
 47
0.0
 47
1.0
171
     0
 49
0.0208333333333333
 49
0.0
 49
0.0
 49
0.0
 49
0.0
 49
0.0208333333333333
 49
0.0
 49
0.0
 49
0.0
 49
0.0
 49
1.0
 49
0.0
 49
0.0
 49
0.0
 49
0.0
 49
1.0
175
     0
142
0.0208333333333333
142
0.0
142
0.0
142
0.0
142
0.0
142
0.0208333333333333
142
0.0
142
0.0
142
0.0
142
0.0
142
1.0
142
0.0
142
0.0
142
0.0
142
0.0
142
1.0
179
     0
144
0.0208333333333333
144
0.0
144
0.0
144
0.0
144
0.0
144
0.0208333333333333
144
0.0
144
0.0
144
0.0
144
0.0
144
1.0
144
0.0
144
0.0
144
0.0
144
0.0
144
1.0
147
0.0208333333333333
147
0.0
147
0.0
147
0.0
147
0.0
147
0.0208333333333333
147
0.0
147
0.0
147
0.0
147
0.0
147
1.0
147
0.0
147
0.0
147
0.0
147
0.0
147
1.0
  0
MATERIAL
  5
128E
102
{ACAD_XDICTIONARY
360
128F
102
}
102
{ACAD_REACTORS
330
118C
102
}
330
118C
100
AcDbMaterial
  1
Global
 72
     0
 43
0.0208333333333333
 43
0.0
 43
0.0
 43
0.0
 43
0.0
 43
0.0208333333333333
 43
0.0
 43
0.0
 43
0.0
 43
0.0
 43
1.0
 43
0.0
 43
0.0
 43
0.0
 43
0.0
 43
1.0
 77
     0
 47
0.0208333333333333
 47
0.0
 47
0.0
 47
0.0
 47
0.0
 47
0.0208333333333333
 47
0.0
 47
0.0
 47
0.0
 47
0.0
 47
1.0
 47
0.0
 47
0.0
 47
0.0
 47
0.0
 47
1.0
171
     0
 49
0.0208333333333333
 49
0.0
 49
0.0
 49
0.0
 49
0.0
 49
0.0208333333333333
 49
0.0
 49
0.0
 49
0.0
 49
0.0
 49
1.0
 49
0.0
 49
0.0
 49
0.0
 49
0.0
 49
1.0
175
     0
142
0.0208333333333333
142
0.0
142
0.0
142
0.0
142
0.0
142
0.0208333333333333
142
0.0
142
0.0
142
0.0
142
0.0
142
1.0
142
0.0
142
0.0
142
0.0
142
0.0
142
1.0
179
     0
144
0.0208333333333333
144
0.0
144
0.0
144
0.0
144
0.0
144
0.0208333333333333
144
0.0
144
0.0
144
0.0
144
0.0
144
1.0
144
0.0
144
0.0
144
0.0
144
0.0
144
1.0
147
0.0208333333333333
147
0.0
147
0.0
147
0.0
147
0.0
147
0.0208333333333333
147
0.0
147
0.0
147
0.0
147
0.0
147
1.0
147
0.0
147
0.0
147
0.0
147
0.0
147
1.0
  0
MLEADERSTYLE
  5
12CC
102
{ACAD_REACTORS
330
12CB
102
}
330
12CB
100
AcDbMLeaderStyle
170
     2
171
     1
172
     0
 90
        2
 40
0.0
 41
0.0
173
     1
 91
-1056964608
340
12
 92
       -2
290
     1
 42
0.09
291
     1
 43
0.36
  3
Standard
 44
0.18
300

342
10
174
     1
178
     6
175
     1
176
     0
 93
-1056964608
 45
0.18
292
     0
297
     0
 46
0.18
 94
-1056964608
 47
1.0
 49
1.0
140
1.0
293
     1
141
0.0
294
     1
177
     0
142
1.0
295
     1
296
     0
143
0.125
1001
ACAD_MLEADERVER
1070
     2
  0
MLINESTYLE
  5
1B
102
{ACAD_REACTORS
330
E
102
}
330
E
100
AcDbMlineStyle
  2
STANDARD
 70
     0
  3

 62
     0
 51
90.0
 52
90.0
 71
     2
 49
0.5
 62
   256
  6
BYLAYER
 49
-0.5
 62
   256
  6
BYLAYER
  0
ACDBPLACEHOLDER
  5
118B
102
{ACAD_REACTORS
330
118A
102
}
330
118A
  0
SCALE
  5
12AA
102
{ACAD_REACTORS
330
12A9
102
}
330
12A9
100
AcDbScale
 70
     0
300
1:1
140
1.0
141
1.0
290
     1
  0
SCALE
  5
12AB
102
{ACAD_REACTORS
330
12A9
102
}
330
12A9
100
AcDbScale
 70
     0
300
1:2
140
1.0
141
2.0
290
     0
  0
SCALE
  5
12AC
102
{ACAD_REACTORS
330
12A9
102
}
330
12A9
100
AcDbScale
 70
     0
300
1:4
140
1.0
141
4.0
290
     0
  0
SCALE
  5
12AD
102
{ACAD_REACTORS
330
12A9
102
}
330
12A9
100
AcDbScale
 70
     0
300
1:5
140
1.0
141
5.0
290
     0
  0
SCALE
  5
12AE
102
{ACAD_REACTORS
330
12A9
102
}
330
12A9
100
AcDbScale
 70
     0
300
1:8
140
1.0
141
8.0
290
     0
  0
SCALE
  5
12AF
102
{ACAD_REACTORS
330
12A9
102
}
330
12A9
100
AcDbScale
 70
     0
300
1:10
140
1.0
141
10.0
290
     0
  0
SCALE
  5
12B0
102
{ACAD_REACTORS
330
12A9
102
}
330
12A9
100
AcDbScale
 70
     0
300
1:16
140
1.0
141
16.0
290
     0
  0
SCALE
  5
12B1
102
{ACAD_REACTORS
330
12A9
102
}
330
12A9
100
AcDbScale
 70
     0
300
1:20
140
1.0
141
20.0
290
     0
  0
SCALE
  5
12B2
102
{ACAD_REACTORS
330
12A9
102
}
330
12A9
100
AcDbScale
 70
     0
300
1:30
140
1.0
141
30.0
290
     0
  0
SCALE
  5
12B3
102
{ACAD_REACTORS
330
12A9
102
}
330
12A9
100
AcDbScale
 70
     0
300
1:40
140
1.0
141
40.0
290
     0
  0
SCALE
  5
12B4
102
{ACAD_REACTORS
330
12A9
102
}
330
12A9
100
AcDbScale
 70
     0
300
1:50
140
1.0
141
50.0
290
     0
  0
SCALE
  5
12B5
102
{ACAD_REACTORS
330
12A9
102
}
330
12A9
100
AcDbScale
 70
     0
300
1:100
140
1.0
141
100.0
290
     0
  0
SCALE
  5
12B6
102
{ACAD_REACTORS
330
12A9
102
}
330
12A9
100
AcDbScale
 70
     0
300
2:1
140
2.0
141
1.0
290
     0
  0
SCALE
  5
12B7
102
{ACAD_REACTORS
330
12A9
102
}
330
12A9
100
AcDbScale
 70
     0
300
4:1
140
4.0
141
1.0
290
     0
  0
SCALE
  5
12B8
102
{ACAD_REACTORS
330
12A9
102
}
330
12A9
100
AcDbScale
 70
     0
300
8:1
140
8.0
141
1.0
290
     0
  0
SCALE
  5
12B9
102
{ACAD_REACTORS
330
12A9
102
}
330
12A9
100
AcDbScale
 70
     0
300
10:1
140
10.0
141
1.0
290
     0
  0
SCALE
  5
12BA
102
{ACAD_REACTORS
330
12A9
102
}
330
12A9
100
AcDbScale
 70
     0
300
100:1
140
100.0
141
1.0
290
     0
  0
SCALE
  5
12BB
102
{ACAD_REACTORS
330
12A9
102
}
330
12A9
100
AcDbScale
 70
     0
300
1/128" = 1'-0"
140
0.0078125
141
12.0
290
     0
  0
SCALE
  5
12BC
102
{ACAD_REACTORS
330
12A9
102
}
330
12A9
100
AcDbScale
 70
     0
300
1/64" = 1'-0"
140
0.015625
141
12.0
290
     0
  0
SCALE
  5
12BD
102
{ACAD_REACTORS
330
12A9
102
}
330
12A9
100
AcDbScale
 70
     0
300
1/32" = 1'-0"
140
0.03125
141
12.0
290
     0
  0
SCALE
  5
12BE
102
{ACAD_REACTORS
330
12A9
102
}
330
12A9
100
AcDbScale
 70
     0
300
1/16" = 1'-0"
140
0.0625
141
12.0
290
     0
  0
SCALE
  5
12BF
102
{ACAD_REACTORS
330
12A9
102
}
330
12A9
100
AcDbScale
 70
     0
300
3/32" = 1'-0"
140
0.09375
141
12.0
290
     0
  0
SCALE
  5
12C0
102
{ACAD_REACTORS
330
12A9
102
}
330
12A9
100
AcDbScale
 70
     0
300
1/8" = 1'-0"
140
0.125
141
12.0
290
     0
  0
SCALE
  5
12C1
102
{ACAD_REACTORS
330
12A9
102
}
330
12A9
100
AcDbScale
 70
     0
300
3/16" = 1'-0"
140
0.1875
141
12.0
290
     0
  0
SCALE
  5
12C2
102
{ACAD_REACTORS
330
12A9
102
}
330
12A9
100
AcDbScale
 70
     0
300
1/4" = 1'-0"
140
0.25
141
12.0
290
     0
  0
SCALE
  5
12C3
102
{ACAD_REACTORS
330
12A9
102
}
330
12A9
100
AcDbScale
 70
     0
300
3/8" = 1'-0"
140
0.375
141
12.0
290
     0
  0
SCALE
  5
12C4
102
{ACAD_REACTORS
330
12A9
102
}
330
12A9
100
AcDbScale
 70
     0
300
1/2" = 1'-0"
140
0.5
141
12.0
290
     0
  0
SCALE
  5
12C5
102
{ACAD_REACTORS
330
12A9
102
}
330
12A9
100
AcDbScale
 70
     0
300
3/4" = 1'-0"
140
0.75
141
12.0
290
     0
  0
SCALE
  5
12C6
102
{ACAD_REACTORS
330
12A9
102
}
330
12A9
100
AcDbScale
 70
     0
300
1" = 1'-0"
140
1.0
141
12.0
290
     0
  0
SCALE
  5
12C7
102
{ACAD_REACTORS
330
12A9
102
}
330
12A9
100
AcDbScale
 70
     0
300
1-1/2" = 1'-0"
140
1.5
141
12.0
290
     0
  0
SCALE
  5
12C8
102
{ACAD_REACTORS
330
12A9
102
}
330
12A9
100
AcDbScale
 70
     0
300
3" = 1'-0"
140
3.0
141
12.0
290
     0
  0
SCALE
  5
12C9
102
{ACAD_REACTORS
330
12A9
102
}
330
12A9
100
AcDbScale
 70
     0
300
6" = 1'-0"
140
6.0
141
12.0
290
     0
  0
SCALE
  5
12CA
102
{ACAD_REACTORS
330
12A9
102
}
330
12A9
100
AcDbScale
 70
     0
300
1'-0" = 1'-0"
140
12.0
141
12.0
290
     0
  0
TABLESTYLE
  5
12A8
102
{ACAD_XDICTIONARY
360
12E7
102
}
102
{ACAD_REACTORS
330
12A7
102
}
330
12A7
100
AcDbTableStyle
  3
Standard
 70
     0
 71
     0
 40
0.06
 41
0.06
280
     0
281
     0
  7
STANDARD
140
0.18
170
     2
 62
     0
 63
     7
283
     0
 90
      512
 91
        0
  1

274
    -2
284
     1
 64
     0
275
    -2
285
     1
 65
     0
276
    -2
286
     1
 66
     0
277
    -2
287
     1
 67
     0
278
    -2
288
     1
 68
     0
279
    -2
289
     1
 69
     0
  7
STANDARD
140
0.25
170
     5
 62
     0
 63
     7
283
     0
 90
      512
 91
        0
  1

274
    -2
284
     1
 64
     0
275
    -2
285
     1
 65
     0
276
    -2
286
     1
 66
     0
277
    -2
287
     1
 67
     0
278
    -2
288
     1
 68
     0
279
    -2
289
     1
 69
     0
  7
STANDARD
140
0.18
170
     5
 62
     0
 63
     7
283
     0
 90
      512
 91
        0
  1

274
    -2
284
     1
 64
     0
275
    -2
285
     1
 65
     0
276
    -2
286
     1
 66
     0
277
    -2
287
     1
 67
     0
278
    -2
288
     1
 68
     0
279
    -2
289
     1
 69
     0
  0
VISUALSTYLE
  5
129C
102
{ACAD_REACTORS
330
1296
102
}
330
1296
100
AcDbVisualStyle
  2
2dWireframe
 70
     4
 71
     0
 72
     2
 73
     0
 90
        0
 40
-0.6
 41
-30.0
 62
     5
 63
     7
421
 16777215
 74
     1
 91
        4
 64
     7
 65
   257
 75
     1
175
     1
 42
1.0
 92
        0
 66
   257
 43
1.0
 76
     1
 77
     6
 78
     2
 67
     7
 79
     5
170
     0
171
     0
290
     0
174
     0
 93
        1
 44
0.0
173
     0
291
     0
 45
0.0
  0
VISUALSTYLE
  5
129E
102
{ACAD_REACTORS
330
1296
102
}
330
1296
100
AcDbVisualStyle
  2
3D Hidden
 70
     6
 71
     1
 72
     2
 73
     2
 90
        0
 40
-0.6
 41
-30.0
 62
     5
 63
     7
421
 16777215
 74
     2
 91
        2
 64
     7
 65
   257
 75
     2
175
     1
 42
40.0
 92
        0
 66
   257
 43
1.0
 76
     1
 77
     6
 78
     2
 67
     7
 79
     3
170
     0
171
     0
290
     0
174
     0
 93
        1
 44
0.0
173
     0
291
     0
 45
0.0
  0
VISUALSTYLE
  5
129D
102
{ACAD_REACTORS
330
1296
102
}
330
1296
100
AcDbVisualStyle
  2
3dWireframe
 70
     5
 71
     0
 72
     2
 73
     0
 90
        0
 40
-0.6
 41
-30.0
 62
     5
 63
     7
421
 16777215
 74
     1
 91
        4
 64
     7
 65
   257
 75
     1
175
     1
 42
1.0
 92
        0
 66
   257
 43
1.0
 76
     1
 77
     6
 78
     2
 67
     7
 79
     5
170
     0
171
     0
290
     0
174
     0
 93
        1
 44
0.0
173
     0
291
     0
 45
0.0
  0
VISUALSTYLE
  5
129B
102
{ACAD_REACTORS
330
1296
102
}
330
1296
100
AcDbVisualStyle
  2
Basic
 70
     7
 71
     1
 72
     0
 73
     1
 90
        0
 40
-0.6
 41
-30.0
 62
     5
 63
     7
421
 16777215
 74
     0
 91
        4
 64
     7
 65
   257
 75
     1
175
     1
 42
1.0
 92
        8
 66
     7
 43
1.0
 76
     1
 77
     6
 78
     2
 67
     7
 79
     5
170
     0
171
     0
290
     0
174
     0
 93
        1
 44
0.0
173
     0
291
     1
 45
0.0
  0
VISUALSTYLE
  5
12A2
102
{ACAD_REACTORS
330
1296
102
}
330
1296
100
AcDbVisualStyle
  2
Brighten
 70
    12
 71
     2
 72
     2
 73
     0
 90
        0
 40
-0.6
 41
-30.0
 62
     5
 63
     7
421
 16777215
 74
     1
 91
        4
 64
     7
 65
   257
 75
     1
175
     1
 42
1.0
 92
        8
 66
     7
 43
1.0
 76
     1
 77
     6
 78
     2
 67
     7
 79
     5
170
     0
171
     0
290
     0
174
     0
 93
        1
 44
50.0
173
     0
291
     1
 45
0.0
  0
VISUALSTYLE
  5
12A6
102
{ACAD_REACTORS
330
1296
102
}
330
1296
100
AcDbVisualStyle
  2
ColorChange
 70
    16
 71
     2
 72
     2
 73
     3
 90
        0
 40
-0.6
 41
-30.0
 62
     5
 63
     8
421
  8421504
 74
     1
 91
        4
 64
     7
 65
   257
 75
     1
175
     1
 42
1.0
 92
        8
 66
     8
424
  8421504
 43
1.0
 76
     1
 77
     6
 78
     2
 67
     7
 79
     5
170
     0
171
     0
290
     0
174
     0
 93
        1
 44
0.0
173
     0
291
     1
 45
0.0
  0
VISUALSTYLE
  5
129F
102
{ACAD_REACTORS
330
1296
102
}
330
1296
100
AcDbVisualStyle
  2
Conceptual
 70
     9
 71
     3
 72
     2
 73
     0
 90
        0
 40
-0.6
 41
-30.0
 62
     5
 63
     7
421
 16777215
 74
     2
 91
        2
 64
     7
 65
   257
 75
     1
175
     1
 42
40.0
 92
        8
 66
     7
 43
1.0
 76
     1
 77
     6
 78
     2
 67
     7
 79
     3
170
     0
171
     0
290
     0
174
     0
 93
        1
 44
0.0
173
     0
291
     0
 45
0.0
  0
VISUALSTYLE
  5
12A1
102
{ACAD_REACTORS
330
1296
102
}
330
1296
100
AcDbVisualStyle
  2
Dim
 70
    11
 71
     2
 72
     2
 73
     0
 90
        0
 40
-0.6
 41
-30.0
 62
     5
 63
     7
421
 16777215
 74
     1
 91
        4
 64
     7
 65
   257
 75
     1
175
     1
 42
1.0
 92
        8
 66
     7
 43
1.0
 76
     1
 77
     6
 78
     2
 67
     7
 79
     5
170
     0
171
     0
290
     0
174
     0
 93
        1
 44
-50.0
173
     0
291
     1
 45
0.0
  0
VISUALSTYLE
  5
12A5
102
{ACAD_REACTORS
330
1296
102
}
330
1296
100
AcDbVisualStyle
  2
Facepattern
 70
    15
 71
     2
 72
     2
 73
     0
 90
        0
 40
-0.6
 41
-30.0
 62
     5
 63
     7
421
 16777215
 74
     1
 91
        4
 64
     7
 65
   257
 75
     1
175
     1
 42
1.0
 92
        8
 66
     7
 43
1.0
 76
     1
 77
     6
 78
     2
 67
     7
 79
     5
170
     0
171
     0
290
     0
174
     0
 93
        1
 44
0.0
173
     0
291
     1
 45
0.0
  0
VISUALSTYLE
  5
1297
102
{ACAD_REACTORS
330
1296
102
}
330
1296
100
AcDbVisualStyle
  2
Flat
 70
     0
 71
     2
 72
     1
 73
     1
 90
        2
 40
-0.6
 41
30.0
 62
     5
 63
     7
421
 16777215
 74
     0
 91
        4
 64
     7
 65
   257
 75
     1
175
     1
 42
1.0
 92
        8
 66
     7
 43
1.0
 76
     1
 77
     6
 78
     2
 67
     7
 79
     5
170
     0
171
     0
290
     0
174
     0
 93
       13
 44
0.0
173
     0
291
     1
 45
0.0
  0
VISUALSTYLE
  5
1298
102
{ACAD_REACTORS
330
1296
102
}
330
1296
100
AcDbVisualStyle
  2
FlatWithEdges
 70
     1
 71
     2
 72
     1
 73
     1
 90
        2
 40
-0.6
 41
30.0
 62
     5
 63
     7
421
 16777215
 74
     1
 91
        4
 64
     7
 65
   257
 75
     1
175
     1
 42
1.0
 92
        0
 66
   257
 43
1.0
 76
     1
 77
     6
 78
     2
 67
     7
 79
     5
170
     0
171
     0
290
     0
174
     0
 93
       13
 44
0.0
173
     0
291
     1
 45
0.0
  0
VISUALSTYLE
  5
1299
102
{ACAD_REACTORS
330
1296
102
}
330
1296
100
AcDbVisualStyle
  2
Gouraud
 70
     2
 71
     2
 72
     2
 73
     1
 90
        2
 40
-0.6
 41
30.0
 62
     5
 63
     7
421
 16777215
 74
     0
 91
        4
 64
     7
 65
   257
 75
     1
175
     1
 42
1.0
 92
        0
 66
     7
 43
1.0
 76
     1
 77
     6
 78
     2
 67
     7
 79
     5
170
     0
171
     0
290
     0
174
     0
 93
       13
 44
0.0
173
     0
291
     1
 45
0.0
  0
VISUALSTYLE
  5
129A
102
{ACAD_REACTORS
330
1296
102
}
330
1296
100
AcDbVisualStyle
  2
GouraudWithEdges
 70
     3
 71
     2
 72
     2
 73
     1
 90
        2
 40
-0.6
 41
30.0
 62
     5
 63
     7
421
 16777215
 74
     1
 91
        4
 64
     7
 65
   257
 75
     1
175
     1
 42
1.0
 92
        0
 66
   257
 43
1.0
 76
     1
 77
     6
 78
     2
 67
     7
 79
     5
170
     0
171
     0
290
     0
174
     0
 93
       13
 44
0.0
173
     0
291
     1
 45
0.0
  0
VISUALSTYLE
  5
12A4
102
{ACAD_REACTORS
330
1296
102
}
330
1296
100
AcDbVisualStyle
  2
Linepattern
 70
    14
 71
     2
 72
     2
 73
     0
 90
        0
 40
-0.6
 41
-30.0
 62
     5
 63
     7
421
 16777215
 74
     1
 91
        4
 64
     7
 65
   257
 75
     7
175
     7
 42
1.0
 92
        8
 66
     7
 43
1.0
 76
     1
 77
     6
 78
     2
 67
     7
 79
     5
170
     0
171
     0
290
     0
174
     0
 93
        1
 44
0.0
173
     0
291
     1
 45
0.0
  0
VISUALSTYLE
  5
12A0
102
{ACAD_REACTORS
330
1296
102
}
330
1296
100
AcDbVisualStyle
  2
Realistic
 70
     8
 71
     2
 72
     2
 73
     0
 90
        0
 40
-0.6
 41
-30.0
 62
     5
 63
     7
421
 16777215
 74
     1
 91
        0
 64
     7
 65
   257
 75
     1
175
     1
 42
1.0
 92
        8
 66
     8
424
  7895160
 43
1.0
 76
     1
 77
     6
 78
     2
 67
     7
 79
     5
170
     0
171
     0
290
     0
174
     0
 93
       13
 44
0.0
173
     0
291
     0
 45
0.0
  0
VISUALSTYLE
  5
12A3
102
{ACAD_REACTORS
330
1296
102
}
330
1296
100
AcDbVisualStyle
  2
Thicken
 70
    13
 71
     2
 72
     2
 73
     0
 90
        0
 40
-0.6
 41
-30.0
 62
     5
 63
     7
421
 16777215
 74
     1
 91
        4
 64
     7
 65
   257
 75
     1
175
     1
 42
1.0
 92
       12
 66
     7
 43
1.0
 76
     1
 77
     6
 78
     2
 67
     7
 79
     5
170
     0
171
     0
290
     0
174
     0
 93
        1
 44
0.0
173
     0
291
     1
 45
0.0
  0
DICTIONARYVAR
  5
12E3
102
{ACAD_REACTORS
330
11A5
102
}
330
11A5
100
DictionaryVariables
280
     0
  1
1:1
  0
DICTIONARYVAR
  5
12E1
102
{ACAD_REACTORS
330
11A5
102
}
330
11A5
100
DictionaryVariables
280
     0
  1
STANDARD
  0
DICTIONARYVAR
  5
12E0
102
{ACAD_REACTORS
330
11A5
102
}
330
11A5
100
DictionaryVariables
280
     0
  1
STANDARD
  0
DICTIONARYVAR
  5
11A6
102
{ACAD_REACTORS
330
11A5
102
}
330
11A5
100
DictionaryVariables
280
     0
  1
1
  0
DICTIONARYVAR
  5
12E5
102
{ACAD_REACTORS
330
11A5
102
}
330
11A5
100
DictionaryVariables
280
     0
  1
1
  0
DICTIONARYVAR
  5
12E6
102
{ACAD_REACTORS
330
11A5
102
}
330
11A5
100
DictionaryVariables
280
     0
  1
15
  0
DICTIONARYVAR
  5
12E4
102
{ACAD_REACTORS
330
11A5
102
}
330
11A5
100
DictionaryVariables
280
     0
  1
0
  0
DICTIONARYVAR
  5
12E2
102
{ACAD_REACTORS
330
11A5
102
}
330
11A5
100
DictionaryVariables
280
     0
  1
0
  0
DICTIONARYVAR
  5
11A7
102
{ACAD_REACTORS
330
11A5
102
}
330
11A5
100
DictionaryVariables
280
     0
  1

  0
XRECORD
  5
1205
102
{ACAD_REACTORS
330
1203
102
}
330
1203
100
AcDbXrecord
280
     1
330
840
330
860
330
861
330
88C
330
88D
330
88E
330
88F
330
890
330
891
330
0
330
0
330
A99
330
0
330
411
330
4F0
330
532
330
567
330
0
330
0
330
0
  0
DICTIONARY
  5
1287
330
1286
100
AcDbDictionary
280
     1
281
     1
  3
BUMPTILE
360
1289
  3
DIFFUSETILE
360
1288
  3
OPACITYTILE
360
128C
  3
REFLECTIONTILE
360
128B
  3
REFRACTIONTILE
360
128D
  3
SPECULARTILE
360
128A
  0
DICTIONARY
  5
127F
330
127E
100
AcDbDictionary
280
     1
281
     1
  3
BUMPTILE
360
1281
  3
DIFFUSETILE
360
1280
  3
OPACITYTILE
360
1284
  3
REFLECTIONTILE
360
1283
  3
REFRACTIONTILE
360
1285
  3
SPECULARTILE
360
1282
  0
DICTIONARY
  5
128F
330
128E
100
AcDbDictionary
280
     1
281
     1
  3
BUMPTILE
360
1291
  3
DIFFUSETILE
360
1290
  3
OPACITYTILE
360
1294
  3
REFLECTIONTILE
360
1293
  3
REFRACTIONTILE
360
1295
  3
SPECULARTILE
360
1292
  0
DICTIONARY
  5
12E7
330
12A8
100
AcDbDictionary
280
     1
281
     1
  3
ACAD_ROUNDTRIP_2008_TABLESTYLE_CELLSTYLEMAP
360
12E8
  0
XRECORD
  5
1289
102
{ACAD_REACTORS
330
1287
102
}
330
1287
100
AcDbXrecord
280
     1
270
     1
271
     1
  0
XRECORD
  5
1288
102
{ACAD_REACTORS
330
1287
102
}
330
1287
100
AcDbXrecord
280
     1
270
     1
271
     1
  0
XRECORD
  5
128C
102
{ACAD_REACTORS
330
1287
102
}
330
1287
100
AcDbXrecord
280
     1
270
     1
271
     1
  0
XRECORD
  5
128B
102
{ACAD_REACTORS
330
1287
102
}
330
1287
100
AcDbXrecord
280
     1
270
     1
271
     1
  0
XRECORD
  5
128D
102
{ACAD_REACTORS
330
1287
102
}
330
1287
100
AcDbXrecord
280
     1
270
     1
271
     1
  0
XRECORD
  5
128A
102
{ACAD_REACTORS
330
1287
102
}
330
1287
100
AcDbXrecord
280
     1
270
     1
271
     1
  0
XRECORD
  5
1281
102
{ACAD_REACTORS
330
127F
102
}
330
127F
100
AcDbXrecord
280
     1
270
     1
271
     1
  0
XRECORD
  5
1280
102
{ACAD_REACTORS
330
127F
102
}
330
127F
100
AcDbXrecord
280
     1
270
     1
271
     1
  0
XRECORD
  5
1284
102
{ACAD_REACTORS
330
127F
102
}
330
127F
100
AcDbXrecord
280
     1
270
     1
271
     1
  0
XRECORD
  5
1283
102
{ACAD_REACTORS
330
127F
102
}
330
127F
100
AcDbXrecord
280
     1
270
     1
271
     1
  0
XRECORD
  5
1285
102
{ACAD_REACTORS
330
127F
102
}
330
127F
100
AcDbXrecord
280
     1
270
     1
271
     1
  0
XRECORD
  5
1282
102
{ACAD_REACTORS
330
127F
102
}
330
127F
100
AcDbXrecord
280
     1
270
     1
271
     1
  0
XRECORD
  5
1291
102
{ACAD_REACTORS
330
128F
102
}
330
128F
100
AcDbXrecord
280
     1
270
     1
271
     1
  0
XRECORD
  5
1290
102
{ACAD_REACTORS
330
128F
102
}
330
128F
100
AcDbXrecord
280
     1
270
     1
271
     1
  0
XRECORD
  5
1294
102
{ACAD_REACTORS
330
128F
102
}
330
128F
100
AcDbXrecord
280
     1
270
     1
271
     1
  0
XRECORD
  5
1293
102
{ACAD_REACTORS
330
128F
102
}
330
128F
100
AcDbXrecord
280
     1
270
     1
271
     1
  0
XRECORD
  5
1295
102
{ACAD_REACTORS
330
128F
102
}
330
128F
100
AcDbXrecord
280
     1
270
     1
271
     1
  0
XRECORD
  5
1292
102
{ACAD_REACTORS
330
128F
102
}
330
128F
100
AcDbXrecord
280
     1
270
     1
271
     1
  0
CELLSTYLEMAP
  5
12E8
102
{ACAD_REACTORS
330
12E7
102
}
330
12E7
100
AcDbCellStyleMap
 90
        3
300
CELLSTYLE
  1
TABLEFORMAT_BEGIN
 90
        5
170
     1
 91
        0
 92
    32768
 62
   257
 93
        1
300
CONTENTFORMAT
  1
CONTENTFORMAT_BEGIN
 90
        0
 91
        0
 92
      512
 93
        0
300

 40
0.0
140
1.0
 94
        5
 62
     0
340
10
144
0.25
309
CONTENTFORMAT_END
171
     0
 94
        0
309
TABLEFORMAT_END
  1
CELLSTYLE_BEGIN
 90
        1
 91
        1
300
_TITLE
309
CELLSTYLE_END
300
CELLSTYLE
  1
TABLEFORMAT_BEGIN
 90
        5
170
     1
 91
        0
 92
        0
 62
   257
 93
        1
300
CONTENTFORMAT
  1
CONTENTFORMAT_BEGIN
 90
        0
 91
        0
 92
      512
 93
        0
300

 40
0.0
140
1.0
 94
        5
 62
     0
340
10
144
0.18
309
CONTENTFORMAT_END
171
     0
 94
        0
309
TABLEFORMAT_END
  1
CELLSTYLE_BEGIN
 90
        2
 91
        1
300
_HEADER
309
CELLSTYLE_END
300
CELLSTYLE
  1
TABLEFORMAT_BEGIN
 90
        5
170
     1
 91
        0
 92
        0
 62
   257
 93
        1
300
CONTENTFORMAT
  1
CONTENTFORMAT_BEGIN
 90
        0
 91
        0
 92
      512
 93
        0
300

 40
0.0
140
1.0
 94
        2
 62
     0
340
10
144
0.18
309
CONTENTFORMAT_END
171
     0
 94
        0
309
TABLEFORMAT_END
  1
CELLSTYLE_BEGIN
 90
        3
 91
        2
300
_DATA
309
CELLSTYLE_END
  0
ENDSEC
  0
EOF
