  0
SECTION
  2
HEADER
  9
$ACADVER
  1
AC1024
  9
$ACADMAINTVER
 70
    37
  9
$DWGCODEPAGE
  3
ANSI_1252
  9
$LASTSAVEDBY
  1
jtigges
  9
$INSBASE
 10
0.0
 20
0.0
 30
0.0
  9
$EXTMIN
 10
-0.001952975990676
 20
-0.001274011681403
 30
-0.0015258207003583
  9
$EXTMAX
 10
64.00195327401764
 20
41.75127420609778
 30
0.0000000349246037
  9
$LIMMIN
 10
0.0
 20
0.0
  9
$LIMMAX
 10
12.0
 20
9.0
  9
$ORTHOMODE
 70
     0
  9
$REGENMODE
 70
     1
  9
$FILLMODE
 70
     1
  9
$QTEXTMODE
 70
     0
  9
$MIRRTEXT
 70
     1
  9
$LTSCALE
 40
1.0
  9
$ATTMODE
 70
     1
  9
$TEXTSIZE
 40
0.2
  9
$TRACEWID
 40
0.05
  9
$TEXTSTYLE
  7
STANDARD
  9
$CLAYER
  8
0
  9
$CELTYPE
  6
BYLAYER
  9
$CECOLOR
 62
   256
  9
$CELTSCALE
 40
1.0
  9
$DISPSILH
 70
     0
  9
$DIMSCALE
 40
1.0
  9
$DIMASZ
 40
0.1875
  9
$DIMEXO
 40
0.1875
  9
$DIMDLI
 40
0.375
  9
$DIMRND
 40
0.0
  9
$DIMDLE
 40
0.0
  9
$DIMEXE
 40
0.09375
  9
$DIMTP
 40
0.0
  9
$DIMTM
 40
0.0
  9
$DIMTXT
 40
0.187
  9
$DIMCEN
 40
0.09375
  9
$DIMTSZ
 40
0.0
  9
$DIMTOL
 70
     0
  9
$DIMLIM
 70
     0
  9
$DIMTIH
 70
     1
  9
$DIMTOH
 70
     1
  9
$DIMSE1
 70
     0
  9
$DIMSE2
 70
     0
  9
$DIMTAD
 70
     0
  9
$DIMZIN
 70
     0
  9
$DIMBLK
  1

  9
$DIMASO
 70
     1
  9
$DIMSHO
 70
     1
  9
$DIMPOST
  1

  9
$DIMAPOST
  1

  9
$DIMALT
 70
     0
  9
$DIMALTD
 70
     2
  9
$DIMALTF
 40
25.4
  9
$DIMLFAC
 40
1.0
  9
$DIMTOFL
 70
     0
  9
$DIMTVP
 40
0.0
  9
$DIMTIX
 70
     0
  9
$DIMSOXD
 70
     0
  9
$DIMSAH
 70
     0
  9
$DIMBLK1
  1

  9
$DIMBLK2
  1

  9
$DIMSTYLE
  2
STANDARD
  9
$DIMCLRD
 70
     0
  9
$DIMCLRE
 70
     0
  9
$DIMCLRT
 70
     0
  9
$DIMTFAC
 40
0.4973262032085562
  9
$DIMGAP
 40
0.1875
  9
$DIMJUST
 70
     0
  9
$DIMSD1
 70
     0
  9
$DIMSD2
 70
     0
  9
$DIMTOLJ
 70
     1
  9
$DIMTZIN
 70
     0
  9
$DIMALTZ
 70
     0
  9
$DIMALTTZ
 70
     0
  9
$DIMUPT
 70
     0
  9
$DIMDEC
 70
     3
  9
$DIMTDEC
 70
     3
  9
$DIMALTU
 70
     2
  9
$DIMALTTD
 70
     2
  9
$DIMTXSTY
  7
STANDARD
  9
$DIMAUNIT
 70
     0
  9
$DIMADEC
 70
     0
  9
$DIMALTRND
 40
0.0
  9
$DIMAZIN
 70
     0
  9
$DIMDSEP
 70
    46
  9
$DIMATFIT
 70
     0
  9
$DIMFRAC
 70
     2
  9
$DIMLDRBLK
  1

  9
$DIMLUNIT
 70
     2
  9
$DIMLWD
 70
    -2
  9
$DIMLWE
 70
    -2
  9
$DIMTMOVE
 70
     0
  9
$DIMFXL
 40
1.0
  9
$DIMFXLON
 70
     0
  9
$DIMJOGANG
 40
0.7853981633974483
  9
$DIMTFILL
 70
     0
  9
$DIMTFILLCLR
 70
     0
  9
$DIMARCSYM
 70
     0
  9
$DIMLTYPE
  6

  9
$DIMLTEX1
  6

  9
$DIMLTEX2
  6

  9
$DIMTXTDIRECTION
 70
     0
  9
$LUNITS
 70
     5
  9
$LUPREC
 70
     5
  9
$SKETCHINC
 40
0.1
  9
$FILLETRAD
 40
0.0
  9
$AUNITS
 70
     0
  9
$AUPREC
 70
     1
  9
$MENU
  1
acad
  9
$ELEVATION
 40
0.0
  9
$PELEVATION
 40
0.0
  9
$THICKNESS
 40
0.0
  9
$LIMCHECK
 70
     0
  9
$CHAMFERA
 40
0.0
  9
$CHAMFERB
 40
0.0
  9
$CHAMFERC
 40
0.0
  9
$CHAMFERD
 40
0.0
  9
$SKPOLY
 70
     0
  9
$TDCREATE
 40
2450019.262096065
  9
$TDUCREATE
 40
2450019.470429398
  9
$TDUPDATE
 40
2456758.342621134
  9
$TDUUPDATE
 40
2456758.550954468
  9
$TDINDWG
 40
0.2849388426
  9
$TDUSRTIMER
 40
0.2849388426
  9
$USRTIMER
 70
     1
  9
$ANGBASE
 50
0.0
  9
$ANGDIR
 70
     0
  9
$PDMODE
 70
     0
  9
$PDSIZE
 40
0.0
  9
$PLINEWID
 40
0.0
  9
$SPLFRAME
 70
     0
  9
$SPLINETYPE
 70
     6
  9
$SPLINESEGS
 70
     8
  9
$HANDSEED
  5
2EFA
  9
$SURFTAB1
 70
     6
  9
$SURFTAB2
 70
     6
  9
$SURFTYPE
 70
     6
  9
$SURFU
 70
     6
  9
$SURFV
 70
     6
  9
$UCSBASE
  2

  9
$UCSNAME
  2

  9
$UCSORG
 10
0.0
 20
0.0
 30
0.0
  9
$UCSXDIR
 10
1.0
 20
0.0
 30
0.0
  9
$UCSYDIR
 10
0.0
 20
1.0
 30
0.0
  9
$UCSORTHOREF
  2

  9
$UCSORTHOVIEW
 70
     0
  9
$UCSORGTOP
 10
0.0
 20
0.0
 30
0.0
  9
$UCSORGBOTTOM
 10
0.0
 20
0.0
 30
0.0
  9
$UCSORGLEFT
 10
0.0
 20
0.0
 30
0.0
  9
$UCSORGRIGHT
 10
0.0
 20
0.0
 30
0.0
  9
$UCSORGFRONT
 10
0.0
 20
0.0
 30
0.0
  9
$UCSORGBACK
 10
0.0
 20
0.0
 30
0.0
  9
$PUCSBASE
  2

  9
$PUCSNAME
  2

  9
$PUCSORG
 10
0.0
 20
0.0
 30
0.0
  9
$PUCSXDIR
 10
1.0
 20
0.0
 30
0.0
  9
$PUCSYDIR
 10
0.0
 20
1.0
 30
0.0
  9
$PUCSORTHOREF
  2

  9
$PUCSORTHOVIEW
 70
     0
  9
$PUCSORGTOP
 10
0.0
 20
0.0
 30
0.0
  9
$PUCSORGBOTTOM
 10
0.0
 20
0.0
 30
0.0
  9
$PUCSORGLEFT
 10
0.0
 20
0.0
 30
0.0
  9
$PUCSORGRIGHT
 10
0.0
 20
0.0
 30
0.0
  9
$PUCSORGFRONT
 10
0.0
 20
0.0
 30
0.0
  9
$PUCSORGBACK
 10
0.0
 20
0.0
 30
0.0
  9
$USERI1
 70
     0
  9
$USERI2
 70
     0
  9
$USERI3
 70
     0
  9
$USERI4
 70
     0
  9
$USERI5
 70
     0
  9
$USERR1
 40
0.0
  9
$USERR2
 40
0.0
  9
$USERR3
 40
0.0
  9
$USERR4
 40
0.0
  9
$USERR5
 40
0.0
  9
$WORLDVIEW
 70
     1
  9
$SHADEDGE
 70
     3
  9
$SHADEDIF
 70
    70
  9
$TILEMODE
 70
     1
  9
$MAXACTVP
 70
    16
  9
$PINSBASE
 10
0.0
 20
0.0
 30
0.0
  9
$PLIMCHECK
 70
     0
  9
$PEXTMIN
 10
1.000000000000000E+20
 20
1.000000000000000E+20
 30
1.000000000000000E+20
  9
$PEXTMAX
 10
-1.000000000000000E+20
 20
-1.000000000000000E+20
 30
-1.000000000000000E+20
  9
$PLIMMIN
 10
0.0
 20
0.0
  9
$PLIMMAX
 10
12.0
 20
9.0
  9
$UNITMODE
 70
     0
  9
$VISRETAIN
 70
     0
  9
$PLINEGEN
 70
     0
  9
$PSLTSCALE
 70
     1
  9
$TREEDEPTH
 70
  3020
  9
$CMLSTYLE
  2
STANDARD
  9
$CMLJUST
 70
     0
  9
$CMLSCALE
 40
1.0
  9
$PROXYGRAPHICS
 70
     1
  9
$MEASUREMENT
 70
     0
  9
$CELWEIGHT
370
    -1
  9
$ENDCAPS
280
     0
  9
$JOINSTYLE
280
     0
  9
$LWDISPLAY
290
     0
  9
$INSUNITS
 70
     0
  9
$HYPERLINKBASE
  1

  9
$STYLESHEET
  1

  9
$XEDIT
290
     1
  9
$CEPSNTYPE
380
     0
  9
$PSTYLEMODE
290
     1
  9
$FINGERPRINTGUID
  2
{B16257F6-CC28-11D8-A1BF-00C04F0587E9}
  9
$VERSIONGUID
  2
{732C6608-84E3-4464-8EEA-3D58C064B8CD}
  9
$EXTNAMES
290
     1
  9
$PSVPSCALE
 40
0.0
  9
$OLESTARTUP
290
     0
  9
$SORTENTS
280
   127
  9
$INDEXCTL
280
     0
  9
$HIDETEXT
280
     0
  9
$XCLIPFRAME
280
     2
  9
$HALOGAP
280
     0
  9
$OBSCOLOR
 70
   257
  9
$OBSLTYPE
280
     0
  9
$INTERSECTIONDISPLAY
280
     0
  9
$INTERSECTIONCOLOR
 70
   257
  9
$DIMASSOC
280
     1
  9
$PROJECTNAME
  1

  9
$CAMERADISPLAY
290
     0
  9
$LENSLENGTH
 40
50.0
  9
$CAMERAHEIGHT
 40
0.0
  9
$STEPSPERSEC
 40
2.0
  9
$STEPSIZE
 40
6.0
  9
$3DDWFPREC
 40
2.0
  9
$PSOLWIDTH
 40
0.25
  9
$PSOLHEIGHT
 40
4.0
  9
$LOFTANG1
 40
1.570796326794896
  9
$LOFTANG2
 40
1.570796326794896
  9
$LOFTMAG1
 40
0.0
  9
$LOFTMAG2
 40
0.0
  9
$LOFTPARAM
 70
     7
  9
$LOFTNORMALS
280
     1
  9
$LATITUDE
 40
37.795
  9
$LONGITUDE
 40
-122.394
  9
$NORTHDIRECTION
 40
0.0
  9
$TIMEZONE
 70
 -8000
  9
$LIGHTGLYPHDISPLAY
280
     1
  9
$TILEMODELIGHTSYNCH
280
     1
  9
$CMATERIAL
347
2E05
  9
$SOLIDHIST
280
     1
  9
$SHOWHIST
280
     1
  9
$DWFFRAME
280
     2
  9
$DGNFRAME
280
     0
  9
$REALWORLDSCALE
290
     1
  9
$INTERFERECOLOR
 62
     1
  9
$INTERFEREOBJVS
345
2E27
  9
$INTERFEREVPVS
346
2E24
  9
$CSHADOW
280
     0
  9
$SHADOWPLANELOCATION
 40
0.0
  0
ENDSEC
  0
SECTION
  2
CLASSES
  0
CLASS
  1
ACDBDICTIONARYWDFLT
  2
AcDbDictionaryWithDefault
  3
ObjectDBX Classes
 90
        0
 91
        1
280
     0
281
     0
  0
CLASS
  1
DICTIONARYVAR
  2
AcDbDictionaryVar
  3
ObjectDBX Classes
 90
        0
 91
        9
280
     0
281
     0
  0
CLASS
  1
TABLESTYLE
  2
AcDbTableStyle
  3
ObjectDBX Classes
 90
     4095
 91
        1
280
     0
281
     0
  0
CLASS
  1
MATERIAL
  2
AcDbMaterial
  3
ObjectDBX Classes
 90
     1153
 91
        3
280
     0
281
     0
  0
CLASS
  1
VISUALSTYLE
  2
AcDbVisualStyle
  3
ObjectDBX Classes
 90
     4095
 91
       24
280
     0
281
     0
  0
CLASS
  1
SCALE
  2
AcDbScale
  3
ObjectDBX Classes
 90
     1153
 91
       17
280
     0
281
     0
  0
CLASS
  1
MLEADERSTYLE
  2
AcDbMLeaderStyle
  3
ACDB_MLEADERSTYLE_CLASS
 90
     4095
 91
        1
280
     0
281
     0
  0
CLASS
  1
ACAD_EVALUATION_GRAPH
  2
AcDbEvalGraph
  3
ObjectDBX Classes
 90
     1153
 91
        2
280
     0
281
     0
  0
CLASS
  1
ACAECUSTOBJ
  2
AcAeEditorObj
  3
AcAeEditorObj
 90
     1024
 91
        2
280
     0
281
     0
  0
CLASS
  1
ACDB_DYNAMICBLOCKPURGEPREVENTER_VERSION
  2
AcDbDynamicBlockPurgePreventer
  3
ObjectDBX Classes
 90
     1153
 91
        2
280
     0
281
     0
  0
CLASS
  1
SORTENTSTABLE
  2
AcDbSortentsTable
  3
ObjectDBX Classes
 90
        0
 91
        2
280
     0
281
     0
  0
CLASS
  1
CELLSTYLEMAP
  2
AcDbCellStyleMap
  3
ObjectDBX Classes
 90
     1152
 91
        1
280
     0
281
     0
  0
ENDSEC
  0
SECTION
  2
TABLES
  0
TABLE
  2
VPORT
  5
8
330
0
100
AcDbSymbolTable
 70
     1
  0
VPORT
  5
2DFD
330
8
100
AcDbSymbolTableRecord
100
AcDbViewportTableRecord
  2
*Active
 70
     0
 10
0.0
 20
0.0
 11
1.0
 21
1.0
 12
32.00000014901348
 22
20.87500009720819
 13
0.0
 23
0.0
 14
1.0
 24
1.0
 15
0.0
 25
0.0
 16
0.0
 26
0.0
 36
1.0
 17
0.0
 27
0.0
 37
0.0
 40
42.03561634128955
 41
2.16628959276018
 42
50.0
 43
0.0
 44
0.0
 50
0.0
 51
0.0
 71
     0
 72
   100
 73
     1
 74
     0
 75
     0
 76
     0
 77
     0
 78
     0
281
     0
 65
     1
110
0.0
120
0.0
130
0.0
111
1.0
121
0.0
131
0.0
112
0.0
122
1.0
132
0.0
 79
     0
146
0.0
348
2E23
 60
     3
 61
     5
292
     1
282
     1
141
0.0
142
0.0
 63
   250
421
  3355443
  0
ENDTAB
  0
TABLE
  2
LTYPE
  5
5
330
0
100
AcDbSymbolTable
 70
     5
  0
LTYPE
  5
12
330
5
100
AcDbSymbolTableRecord
100
AcDbLinetypeTableRecord
  2
BYBLOCK
 70
     0
  3

 72
    65
 73
     0
 40
0.0
  0
LTYPE
  5
13
330
5
100
AcDbSymbolTableRecord
100
AcDbLinetypeTableRecord
  2
BYLAYER
 70
     0
  3

 72
    65
 73
     0
 40
0.0
  0
LTYPE
  5
14
330
5
100
AcDbSymbolTableRecord
100
AcDbLinetypeTableRecord
  2
CONTINUOUS
 70
     0
  3
Solid line
 72
    65
 73
     0
 40
0.0
  0
LTYPE
  5
1F
330
5
100
AcDbSymbolTableRecord
100
AcDbLinetypeTableRecord
  2
HIDDEN
 70
     0
  3
_ _ _ _ _ _ _ _ _ _ _ _ _ _ _ _ _ _ _ _ _ _ _
 72
    65
 73
     2
 40
0.375
 49
0.25
 74
     0
 49
-0.125
 74
     0
  0
LTYPE
  5
20
330
5
100
AcDbSymbolTableRecord
100
AcDbLinetypeTableRecord
  2
CENTER
 70
     0
  3
____ _ ____ _ ____ _ ____ _ ____ _ ____ _ ____
 72
    65
 73
     4
 40
2.0
 49
1.25
 74
     0
 49
-0.25
 74
     0
 49
0.25
 74
     0
 49
-0.25
 74
     0
  0
LTYPE
  5
173A
330
5
100
AcDbSymbolTableRecord
100
AcDbLinetypeTableRecord
  2
PHANTOM
 70
     0
  3
Phantom ______  __  __  ______  __  __  ______
 72
    65
 73
     6
 40
2.5
 49
1.25
 74
     0
 49
-0.25
 74
     0
 49
0.25
 74
     0
 49
-0.25
 74
     0
 49
0.25
 74
     0
 49
-0.25
 74
     0
  0
ENDTAB
  0
TABLE
  2
LAYER
  5
2
102
{ACAD_XDICTIONARY
360
2E97
102
}
330
0
100
AcDbSymbolTable
 70
     7
  0
LAYER
  5
F
102
{ACAD_XDICTIONARY
360
2EE5
102
}
330
2
100
AcDbSymbolTableRecord
100
AcDbLayerTableRecord
  2
0
 70
     0
 62
     7
  6
CONTINUOUS
370
    -3
390
15B8
347
2E15
  0
LAYER
  5
23
102
{ACAD_XDICTIONARY
360
2EE7
102
}
330
2
100
AcDbSymbolTableRecord
100
AcDbLayerTableRecord
  2
DIM
 70
     0
 62
     3
  6
CONTINUOUS
370
    -3
390
15B8
347
2E15
  0
LAYER
  5
24
102
{ACAD_XDICTIONARY
360
2EE9
102
}
330
2
100
AcDbSymbolTableRecord
100
AcDbLayerTableRecord
  2
HATCH
 70
     0
 62
     4
  6
CONTINUOUS
370
    -3
390
15B8
347
2E15
  0
LAYER
  5
26
102
{ACAD_XDICTIONARY
360
2EEB
102
}
330
2
100
AcDbSymbolTableRecord
100
AcDbLayerTableRecord
  2
HIDE
 70
     1
 62
     5
  6
HIDDEN
370
    -3
390
15B8
347
2E15
  0
LAYER
  5
27
102
{ACAD_XDICTIONARY
360
2EED
102
}
330
2
100
AcDbSymbolTableRecord
100
AcDbLayerTableRecord
  2
CENTER
 70
     0
 62
     2
  6
CENTER
370
    -3
390
15B8
347
2E15
  0
LAYER
  5
28
102
{ACAD_XDICTIONARY
360
2EEF
102
}
330
2
100
AcDbSymbolTableRecord
100
AcDbLayerTableRecord
  2
TITLE
 70
     0
 62
     1
  6
CONTINUOUS
370
    -3
390
15B8
347
2E15
  0
LAYER
  5
86A
330
2
100
AcDbSymbolTableRecord
100
AcDbLayerTableRecord
  2
DEFPOINTS
 70
     0
 62
    -7
  6
CONTINUOUS
290
     0
370
    -3
390
15B8
347
2E15
  0
ENDTAB
  0
TABLE
  2
STYLE
  5
3
330
0
100
AcDbSymbolTable
 70
     4
  0
STYLE
  5
10
330
3
100
AcDbSymbolTableRecord
100
AcDbTextStyleTableRecord
  2
STANDARD
 70
     0
 40
0.0
 41
1.0
 50
0.0
 71
     0
 42
0.2
  3
txt
  4

  0
STYLE
  5
1E
330
3
100
AcDbSymbolTableRecord
100
AcDbTextStyleTableRecord
  2
ITALIC
 70
     0
 40
0.0
 41
1.0
 50
0.0
 71
     0
 42
0.2
  3
txt
  4

  0
STYLE
  5
DBA
330
3
100
AcDbSymbolTableRecord
100
AcDbTextStyleTableRecord
  2
STYLE1
 70
     0
 40
0.0
 41
1.0
 50
0.0
 71
     0
 42
0.25
  3
swiss.ttf
  4

1001
ACAD
1000
Swis721 BT
1071
       34
  0
STYLE
  5
173D
330
3
100
AcDbSymbolTableRecord
100
AcDbTextStyleTableRecord
  2
COMPLEX
 70
     0
 40
0.0
 41
1.0
 50
0.0
 71
     0
 42
0.156
  3
ROMANC
  4

  0
ENDTAB
  0
TABLE
  2
VIEW
  5
6
330
0
100
AcDbSymbolTable
 70
     0
  0
ENDTAB
  0
TABLE
  2
UCS
  5
7
330
0
100
AcDbSymbolTable
 70
     0
  0
ENDTAB
  0
TABLE
  2
APPID
  5
9
330
0
100
AcDbSymbolTable
 70
     5
  0
APPID
  5
11
330
9
100
AcDbSymbolTableRecord
100
AcDbRegAppTableRecord
  2
ACAD
 70
     0
  0
APPID
  5
2E90
330
9
100
AcDbSymbolTableRecord
100
AcDbRegAppTableRecord
  2
ACAUTHENVIRON
 70
     0
  0
APPID
  5
2E94
330
9
100
AcDbSymbolTableRecord
100
AcDbRegAppTableRecord
  2
AcDbDynamicBlockTrueName
 70
     0
  0
APPID
  5
2E95
330
9
100
AcDbSymbolTableRecord
100
AcDbRegAppTableRecord
  2
AcDbDynamicBlockGUID
 70
     0
  0
APPID
  5
2EAA
330
9
100
AcDbSymbolTableRecord
100
AcDbRegAppTableRecord
  2
ACAD_EXEMPT_FROM_CAD_STANDARDS
 70
     0
  0
ENDTAB
  0
TABLE
  2
DIMSTYLE
  5
A
330
0
100
AcDbSymbolTable
 70
     1
100
AcDbDimStyleTable
 71
     1
340
2F7
  0
DIMSTYLE
105
2F7
102
{ACAD_REACTORS
330
279F
330
27B7
330
2804
330
2805
330
2817
330
28F7
330
2928
330
292A
330
292B
330
2930
330
2931
330
294D
330
294E
330
29A4
330
29A8
330
29CF
330
29D2
330
2D69
330
2D97
102
}
330
A
100
AcDbSymbolTableRecord
100
AcDbDimStyleTableRecord
  2
STANDARD
 70
     0
340
10
  0
ENDTAB
  0
TABLE
  2
BLOCK_RECORD
  5
1
330
0
100
AcDbSymbolTable
 70
    31
  0
BLOCK_RECORD
  5
18
330
1
100
AcDbSymbolTableRecord
100
AcDbBlockTableRecord
  2
*MODEL_SPACE
340
15BB
 70
     0
280
     1
281
     0
  0
BLOCK_RECORD
  5
15
330
1
100
AcDbSymbolTableRecord
100
AcDbBlockTableRecord
  2
*PAPER_SPACE
340
15BC
 70
     0
280
     1
281
     0
  0
BLOCK_RECORD
  5
1280
330
1
100
AcDbSymbolTableRecord
100
AcDbBlockTableRecord
  2
*X0
340
0
102
{BLKREFS
331
154B
102
}
 70
     0
280
     1
281
     0
  0
BLOCK_RECORD
  5
1536
102
{ACAD_XDICTIONARY
360
2EE1
102
}
330
1
100
AcDbSymbolTableRecord
100
AcDbBlockTableRecord
  2
T2
340
0
102
{BLKREFS
331
15AC
102
}
 70
     0
280
     1
281
     0
1001
AcDbDynamicBlockGUID
1000
{2BBF032C-4007-40D7-A624-81984A42FA8E}
  0
BLOCK_RECORD
  5
15DB
330
1
100
AcDbSymbolTableRecord
100
AcDbBlockTableRecord
  2
SBBTX
340
0
102
{BLKREFS
331
29A0
102
}
 70
     0
280
     1
281
     0
  0
BLOCK_RECORD
  5
15E1
330
1
100
AcDbSymbolTableRecord
100
AcDbBlockTableRecord
  2
SAATX
340
0
102
{BLKREFS
331
2924
102
}
 70
     0
280
     1
281
     0
  0
BLOCK_RECORD
  5
15E7
330
1
100
AcDbSymbolTableRecord
100
AcDbBlockTableRecord
  2
SAAL
340
0
102
{BLKREFS
331
282D
331
2890
102
}
 70
     0
280
     1
281
     0
  0
BLOCK_RECORD
  5
15F9
330
1
100
AcDbSymbolTableRecord
100
AcDbBlockTableRecord
  2
*X5
340
0
102
{BLKREFS
331
15E9
102
}
 70
     0
280
     1
281
     0
  0
BLOCK_RECORD
  5
162B
330
1
100
AcDbSymbolTableRecord
100
AcDbBlockTableRecord
  2
SBT
340
0
102
{BLKREFS
331
28FB
102
}
 70
     0
280
     1
281
     0
  0
BLOCK_RECORD
  5
1634
330
1
100
AcDbSymbolTableRecord
100
AcDbBlockTableRecord
  2
SBB
340
0
102
{BLKREFS
331
285F
102
}
 70
     0
280
     1
281
     0
  0
BLOCK_RECORD
  5
29E4
330
1
100
AcDbSymbolTableRecord
100
AcDbBlockTableRecord
  2
*D8
340
0
 70
     0
280
     1
281
     0
  0
BLOCK_RECORD
  5
2A02
330
1
100
AcDbSymbolTableRecord
100
AcDbBlockTableRecord
  2
*D9
340
0
 70
     0
280
     1
281
     0
  0
BLOCK_RECORD
  5
2A10
330
1
100
AcDbSymbolTableRecord
100
AcDbBlockTableRecord
  2
*D10
340
0
 70
     0
280
     1
281
     0
  0
BLOCK_RECORD
  5
2A1D
330
1
100
AcDbSymbolTableRecord
100
AcDbBlockTableRecord
  2
*D11
340
0
 70
     0
280
     1
281
     0
  0
BLOCK_RECORD
  5
2A2A
330
1
100
AcDbSymbolTableRecord
100
AcDbBlockTableRecord
  2
*D12
340
0
 70
     0
280
     1
281
     0
  0
BLOCK_RECORD
  5
2A42
330
1
100
AcDbSymbolTableRecord
100
AcDbBlockTableRecord
  2
*D13
340
0
 70
     0
280
     1
281
     0
  0
BLOCK_RECORD
  5
2A4F
330
1
100
AcDbSymbolTableRecord
100
AcDbBlockTableRecord
  2
*D14
340
0
 70
     0
280
     1
281
     0
  0
BLOCK_RECORD
  5
2A5C
330
1
100
AcDbSymbolTableRecord
100
AcDbBlockTableRecord
  2
*D15
340
0
 70
     0
280
     1
281
     0
  0
BLOCK_RECORD
  5
2A69
330
1
100
AcDbSymbolTableRecord
100
AcDbBlockTableRecord
  2
*D16
340
0
 70
     0
280
     1
281
     0
  0
BLOCK_RECORD
  5
2A76
330
1
100
AcDbSymbolTableRecord
100
AcDbBlockTableRecord
  2
*D17
340
0
 70
     0
280
     1
281
     0
  0
BLOCK_RECORD
  5
2A84
330
1
100
AcDbSymbolTableRecord
100
AcDbBlockTableRecord
  2
*D18
340
0
 70
     0
280
     1
281
     0
  0
BLOCK_RECORD
  5
2A92
330
1
100
AcDbSymbolTableRecord
100
AcDbBlockTableRecord
  2
*D19
340
0
 70
     0
280
     1
281
     0
  0
BLOCK_RECORD
  5
2A9F
330
1
100
AcDbSymbolTableRecord
100
AcDbBlockTableRecord
  2
*D20
340
0
 70
     0
280
     1
281
     0
  0
BLOCK_RECORD
  5
2AAD
330
1
100
AcDbSymbolTableRecord
100
AcDbBlockTableRecord
  2
*D21
340
0
 70
     0
280
     1
281
     0
  0
BLOCK_RECORD
  5
2ABA
330
1
100
AcDbSymbolTableRecord
100
AcDbBlockTableRecord
  2
*D22
340
0
 70
     0
280
     1
281
     0
  0
BLOCK_RECORD
  5
2AC7
330
1
100
AcDbSymbolTableRecord
100
AcDbBlockTableRecord
  2
*D23
340
0
 70
     0
280
     1
281
     0
  0
BLOCK_RECORD
  5
2AD4
330
1
100
AcDbSymbolTableRecord
100
AcDbBlockTableRecord
  2
*D24
340
0
 70
     0
280
     1
281
     0
  0
BLOCK_RECORD
  5
2D6A
330
1
100
AcDbSymbolTableRecord
100
AcDbBlockTableRecord
  2
*D25
340
0
 70
     0
280
     1
281
     0
  0
BLOCK_RECORD
  5
2D98
330
1
100
AcDbSymbolTableRecord
100
AcDbBlockTableRecord
  2
*D26
340
0
 70
     0
280
     1
281
     0
  0
BLOCK_RECORD
  5
2E99
102
{ACAD_XDICTIONARY
360
2E9C
102
}
330
1
100
AcDbSymbolTableRecord
100
AcDbBlockTableRecord
  2
A$C7F9C2944
340
0
 70
     0
280
     1
281
     0
  0
ENDTAB
  0
ENDSEC
  0
SECTION
  2
BLOCKS
  0
BLOCK
  5
2B
330
18
100
AcDbEntity
  8
0
100
AcDbBlockBegin
  2
*MODEL_SPACE
 70
     0
 10
0.0
 20
0.0
 30
0.0
  3
*MODEL_SPACE
  1

  0
ENDBLK
  5
2C
330
18
100
AcDbEntity
  8
0
100
AcDbBlockEnd
  0
BLOCK
  5
29
330
15
100
AcDbEntity
 67
     1
  8
0
100
AcDbBlockBegin
  2
*PAPER_SPACE
 70
     0
 10
0.0
 20
0.0
 30
0.0
  3
*PAPER_SPACE
  1

  0
ENDBLK
  5
2A
330
15
100
AcDbEntity
 67
     1
  8
0
100
AcDbBlockEnd
  0
BLOCK
  5
1305
330
1280
100
AcDbEntity
  8
0
100
AcDbBlockBegin
  2
*X0
 70
     1
 10
0.0
 20
0.0
 30
0.0
  3
*X0
  1

  0
LINE
  5
1281
330
1280
100
AcDbEntity
  8
0
 62
     0
100
AcDbLine
 10
27.3100072306796
 20
0.8708427403763453
 30
0.0
 11
27.48262201737051
 21
1.043457527067252
 31
0.0
  0
LINE
  5
1282
330
1280
100
AcDbEntity
  8
0
 62
     0
100
AcDbLine
 10
27.7520009141747
 20
1.312836423871451
 30
0.0
 11
27.85832174992691
 21
1.419157259623653
 31
0.0
  0
LINE
  5
1283
330
1280
100
AcDbEntity
  8
0
 62
     0
100
AcDbLine
 10
27.29895868722355
 20
0.8708427403763453
 30
0.0
 11
27.46965962331391
 21
1.0415436764667
 31
0.0
  0
LINE
  5
1284
330
1280
100
AcDbEntity
  8
0
 62
     0
100
AcDbLine
 10
27.74304416629002
 20
1.31492821944281
 30
0.0
 11
27.84727320647087
 21
1.419157259623653
 31
0.0
  0
LINE
  5
1285
330
1280
100
AcDbEntity
  8
0
 62
     0
100
AcDbLine
 10
27.28865529704658
 20
0.8715878936554052
 30
0.0
 11
27.45801642065249
 21
1.040949017261312
 31
0.0
  0
LINE
  5
1286
330
1280
100
AcDbEntity
  8
0
 62
     0
100
AcDbLine
 10
27.7335028142953
 20
1.316435410904124
 30
0.0
 11
27.83622466301482
 21
1.419157259623653
 31
0.0
  0
LINE
  5
1287
330
1280
100
AcDbEntity
  8
0
 62
     0
100
AcDbLine
 10
27.28248300637859
 20
0.876464146443461
 30
0.0
 11
27.44734340985173
 21
1.041324549916596
 31
0.0
  0
LINE
  5
1288
330
1280
100
AcDbEntity
  8
0
 62
     0
100
AcDbLine
 10
27.72327234467449
 20
1.317253484739355
 30
0.0
 11
27.82517611955878
 21
1.419157259623653
 31
0.0
  0
LINE
  5
1289
330
1280
100
AcDbEntity
  8
0
 62
     0
100
AcDbLine
 10
27.2804374266431
 20
0.8854671101640105
 30
0.0
 11
27.43743764627249
 21
1.042467329793391
 31
0.0
  0
LINE
  5
128A
330
1280
100
AcDbEntity
  8
0
 62
     0
100
AcDbLine
 10
27.71219553621447
 20
1.317225219735374
 30
0.0
 11
27.81412757610274
 21
1.419157259623653
 31
0.0
  0
LINE
  5
128B
330
1280
100
AcDbEntity
  8
0
 62
     0
100
AcDbLine
 10
27.2804374266431
 20
0.8965156536200536
 30
0.0
 11
27.42816920538106
 21
1.044247432358002
 31
0.0
  0
LINE
  5
128C
330
1280
100
AcDbEntity
  8
0
 62
     0
100
AcDbLine
 10
27.70001735255056
 20
1.316095579527502
 30
0.0
 11
27.80307903264671
 21
1.419157259623653
 31
0.0
  0
LINE
  5
128D
330
1280
100
AcDbEntity
  8
0
 62
     0
100
AcDbLine
 10
27.2804374266431
 20
0.9075641970760919
 30
0.0
 11
27.41944953126117
 21
1.046576301694151
 31
0.0
  0
LINE
  5
128E
330
1280
100
AcDbEntity
  8
0
 62
     0
100
AcDbLine
 10
27.68627163114664
 20
1.313398401579628
 30
0.0
 11
27.79203048919067
 21
1.419157259623653
 31
0.0
  0
LINE
  5
128F
330
1280
100
AcDbEntity
  8
0
 62
     0
100
AcDbLine
 10
27.2804374266431
 20
0.9186127405321304
 30
0.0
 11
27.41121566875828
 21
1.0493909826473
 31
0.0
  0
LINE
  5
1290
330
1280
100
AcDbEntity
  8
0
 62
     0
100
AcDbLine
 10
27.66990238203785
 20
1.308077695926883
 30
0.0
 11
27.78098194573463
 21
1.419157259623653
 31
0.0
  0
LINE
  5
1291
330
1280
100
AcDbEntity
  8
0
 62
     0
100
AcDbLine
 10
27.2804374266431
 20
0.9296612839881687
 30
0.0
 11
27.40342161264395
 21
1.052645469989015
 31
0.0
  0
LINE
  5
1292
330
1280
100
AcDbEntity
  8
0
 62
     0
100
AcDbLine
 10
27.64675355657322
 20
1.295977413918288
 30
0.0
 11
27.76993340227858
 21
1.419157259623653
 31
0.0
  0
LINE
  5
1293
330
1280
100
AcDbEntity
  8
0
 62
     0
100
AcDbLine
 10
27.2804374266431
 20
0.9407098274442118
 30
0.0
 11
27.39603321832221
 21
1.056305619123314
 31
0.0
  0
LINE
  5
1294
330
1280
100
AcDbEntity
  8
0
 62
     0
100
AcDbLine
 10
27.49299672140779
 20
1.153269122208899
 30
0.0
 11
27.75888485882255
 21
1.419157259623653
 31
0.0
  0
LINE
  5
1295
330
1280
100
AcDbEntity
  8
0
 62
     0
100
AcDbLine
 10
27.2804374266431
 20
0.9517583709002501
 30
0.0
 11
27.38902505223432
 21
1.060345996491459
 31
0.0
  0
LINE
  5
1296
330
1280
100
AcDbEntity
  8
0
 62
     0
100
AcDbLine
 10
27.48191526669059
 20
1.153236210947735
 30
0.0
 11
27.74783631536651
 21
1.419157259623653
 31
0.0
  0
LINE
  5
1297
330
1280
100
AcDbEntity
  8
0
 62
     0
100
AcDbLine
 10
27.2804374266431
 20
0.9628069143562886
 30
0.0
 11
27.38237837440491
 21
1.064747862118093
 31
0.0
  0
LINE
  5
1298
330
1280
100
AcDbEntity
  8
0
 62
     0
100
AcDbLine
 10
27.47368104530164
 20
1.15605053301483
 30
0.0
 11
27.73678777191046
 21
1.419157259623653
 31
0.0
  0
LINE
  5
1299
330
1280
100
AcDbEntity
  8
0
 62
     0
100
AcDbLine
 10
27.2804374266431
 20
0.9738554578123316
 30
0.0
 11
27.37607982361687
 21
1.069497854786095
 31
0.0
  0
LINE
  5
129A
330
1280
100
AcDbEntity
  8
0
 62
     0
100
AcDbLine
 10
27.46716856317628
 20
1.160586594345498
 30
0.0
 11
27.72573922845442
 21
1.419157259623653
 31
0.0
  0
LINE
  5
129B
330
1280
100
AcDbEntity
  8
0
 62
     0
100
AcDbLine
 10
27.2804374266431
 20
0.9849040012683699
 30
0.0
 11
27.37010985226545
 21
1.074576426890717
 31
0.0
  0
LINE
  5
129C
330
1280
100
AcDbEntity
  8
0
 62
     0
100
AcDbLine
 10
27.46190303298581
 20
1.166369607611078
 30
0.0
 11
27.71469068499838
 21
1.419157259623653
 31
0.0
  0
LINE
  5
129D
330
1280
100
AcDbEntity
  8
0
 62
     0
100
AcDbLine
 10
27.2804374266431
 20
0.9959525447244082
 30
0.0
 11
27.36441212060541
 21
1.079927238686711
 31
0.0
  0
LINE
  5
129E
330
1280
100
AcDbEntity
  8
0
 62
     0
100
AcDbLine
 10
27.4580862915343
 20
1.173601409615603
 30
0.0
 11
27.70364214154235
 21
1.419157259623653
 31
0.0
  0
LINE
  5
129F
330
1280
100
AcDbEntity
  8
0
 62
     0
100
AcDbLine
 10
27.2804374266431
 20
1.007001088180451
 30
0.0
 11
27.3590476760544
 21
1.085611337591737
 31
0.0
  0
LINE
  5
12A0
330
1280
100
AcDbEntity
  8
0
 62
     0
100
AcDbLine
 10
27.45630337199827
 20
1.182867033535613
 30
0.0
 11
27.69259359808631
 21
1.419157259623653
 31
0.0
  0
LINE
  5
12A1
330
1280
100
AcDbEntity
  8
0
 62
     0
100
AcDbLine
 10
27.2804374266431
 20
1.018049631636489
 30
0.0
 11
27.35401827480653
 21
1.091630479799915
 31
0.0
  0
LINE
  5
12A2
330
1280
100
AcDbEntity
  8
0
 62
     0
100
AcDbLine
 10
27.45931602865035
 20
1.196928233643737
 30
0.0
 11
27.68154505463026
 21
1.419157259623653
 31
0.0
  0
LINE
  5
12A3
330
1280
100
AcDbEntity
  8
0
 62
     0
100
AcDbLine
 10
27.2804374266431
 20
1.029098175092528
 30
0.0
 11
27.34932943372869
 21
1.097990182178115
 31
0.0
  0
LINE
  5
12A4
330
1280
100
AcDbEntity
  8
0
 62
     0
100
AcDbLine
 10
27.2804374266431
 20
1.040146718548566
 30
0.0
 11
27.3449907455677
 21
1.104700037473157
 31
0.0
  0
LINE
  5
12A5
330
1280
100
AcDbEntity
  8
0
 62
     0
100
AcDbLine
 10
27.2804374266431
 20
1.051195262004609
 30
0.0
 11
27.34101645488534
 21
1.111774290246836
 31
0.0
  0
LINE
  5
12A6
330
1280
100
AcDbEntity
  8
0
 62
     0
100
AcDbLine
 10
27.2804374266431
 20
1.062243805460647
 30
0.0
 11
27.33742637979978
 21
1.119232758617317
 31
0.0
  0
LINE
  5
12A7
330
1280
100
AcDbEntity
  8
0
 62
     0
100
AcDbLine
 10
27.2804374266431
 20
1.073292348916686
 30
0.0
 11
27.33424733032767
 21
1.127102252601252
 31
0.0
  0
LINE
  5
12A8
330
1280
100
AcDbEntity
  8
0
 62
     0
100
AcDbLine
 10
27.2804374266431
 20
1.084340892372729
 30
0.0
 11
27.33151528824961
 21
1.135418753979235
 31
0.0
  0
LINE
  5
12A9
330
1280
100
AcDbEntity
  8
0
 62
     0
100
AcDbLine
 10
27.2804374266431
 20
1.095389435828767
 30
0.0
 11
27.3292788271509
 21
1.144230836336558
 31
0.0
  0
LINE
  5
12AA
330
1280
100
AcDbEntity
  8
0
 62
     0
100
AcDbLine
 10
27.2804374266431
 20
1.106437979284806
 30
0.0
 11
27.32760468192076
 21
1.153605234562463
 31
0.0
  0
LINE
  5
12AB
330
1280
100
AcDbEntity
  8
0
 62
     0
100
AcDbLine
 10
27.2804374266431
 20
1.117486522740844
 30
0.0
 11
27.32658731931682
 21
1.163636415414562
 31
0.0
  0
LINE
  5
12AC
330
1280
100
AcDbEntity
  8
0
 62
     0
100
AcDbLine
 10
27.2804374266431
 20
1.128535066196887
 30
0.0
 11
27.32636664402678
 21
1.174464283580557
 31
0.0
  0
LINE
  5
12AD
330
1280
100
AcDbEntity
  8
0
 62
     0
100
AcDbLine
 10
27.2804374266431
 20
1.139583609652925
 30
0.0
 11
27.32716429408758
 21
1.186310477097401
 31
0.0
  0
LINE
  5
12AE
330
1280
100
AcDbEntity
  8
0
 62
     0
100
AcDbLine
 10
27.2804374266431
 20
1.150632153108964
 30
0.0
 11
27.32937007503573
 21
1.199564801501592
 31
0.0
  0
LINE
  5
12AF
330
1280
100
AcDbEntity
  8
0
 62
     0
100
AcDbLine
 10
27.2804374266431
 20
1.161680696565007
 30
0.0
 11
27.33380440212454
 21
1.21504767204644
 31
0.0
  0
LINE
  5
12B0
330
1280
100
AcDbEntity
  8
0
 62
     0
100
AcDbLine
 10
27.2804374266431
 20
1.172729240021045
 30
0.0
 11
27.34303582165507
 21
1.235327635033016
 31
0.0
  0
LINE
  5
12B1
330
1280
100
AcDbEntity
  8
0
 62
     0
100
AcDbLine
 10
27.2804374266431
 20
1.183777783477083
 30
0.0
 11
27.51581690278967
 21
1.419157259623653
 31
0.0
  0
LINE
  5
12B2
330
1280
100
AcDbEntity
  8
0
 62
     0
100
AcDbLine
 10
27.2804374266431
 20
1.194826326933126
 30
0.0
 11
27.50476835933364
 21
1.419157259623653
 31
0.0
  0
LINE
  5
12B3
330
1280
100
AcDbEntity
  8
0
 62
     0
100
AcDbLine
 10
27.2804374266431
 20
1.205874870389165
 30
0.0
 11
27.49371981587759
 21
1.419157259623653
 31
0.0
  0
LINE
  5
12B4
330
1280
100
AcDbEntity
  8
0
 62
     0
100
AcDbLine
 10
27.2804374266431
 20
1.216923413845203
 30
0.0
 11
27.48267127242155
 21
1.419157259623653
 31
0.0
  0
LINE
  5
12B5
330
1280
100
AcDbEntity
  8
0
 62
     0
100
AcDbLine
 10
27.2804374266431
 20
1.227971957301241
 30
0.0
 11
27.47162272896551
 21
1.419157259623653
 31
0.0
  0
LINE
  5
12B6
330
1280
100
AcDbEntity
  8
0
 62
     0
100
AcDbLine
 10
27.2804374266431
 20
1.239020500757285
 30
0.0
 11
27.46057418550947
 21
1.419157259623653
 31
0.0
  0
LINE
  5
12B7
330
1280
100
AcDbEntity
  8
0
 62
     0
100
AcDbLine
 10
27.2804374266431
 20
1.250069044213323
 30
0.0
 11
27.44952564205343
 21
1.419157259623653
 31
0.0
  0
LINE
  5
12B8
330
1280
100
AcDbEntity
  8
0
 62
     0
100
AcDbLine
 10
27.2804374266431
 20
1.261117587669361
 30
0.0
 11
27.4384770985974
 21
1.419157259623653
 31
0.0
  0
LINE
  5
12B9
330
1280
100
AcDbEntity
  8
0
 62
     0
100
AcDbLine
 10
27.2804374266431
 20
1.272166131125404
 30
0.0
 11
27.42742855514135
 21
1.419157259623653
 31
0.0
  0
LINE
  5
12BA
330
1280
100
AcDbEntity
  8
0
 62
     0
100
AcDbLine
 10
27.2804374266431
 20
1.283214674581443
 30
0.0
 11
27.41638001168531
 21
1.419157259623653
 31
0.0
  0
LINE
  5
12BB
330
1280
100
AcDbEntity
  8
0
 62
     0
100
AcDbLine
 10
27.2804374266431
 20
1.294263218037481
 30
0.0
 11
27.40533146822928
 21
1.419157259623653
 31
0.0
  0
LINE
  5
12BC
330
1280
100
AcDbEntity
  8
0
 62
     0
100
AcDbLine
 10
27.2804374266431
 20
1.305311761493519
 30
0.0
 11
27.39428292477324
 21
1.419157259623653
 31
0.0
  0
LINE
  5
12BD
330
1280
100
AcDbEntity
  8
0
 62
     0
100
AcDbLine
 10
27.2804374266431
 20
1.316360304949562
 30
0.0
 11
27.3832343813172
 21
1.419157259623653
 31
0.0
  0
LINE
  5
12BE
330
1280
100
AcDbEntity
  8
0
 62
     0
100
AcDbLine
 10
27.2804374266431
 20
1.327408848405601
 30
0.0
 11
27.37218583786115
 21
1.419157259623653
 31
0.0
  0
LINE
  5
12BF
330
1280
100
AcDbEntity
  8
0
 62
     0
100
AcDbLine
 10
27.2804374266431
 20
1.338457391861639
 30
0.0
 11
27.36113729440511
 21
1.419157259623653
 31
0.0
  0
LINE
  5
12C0
330
1280
100
AcDbEntity
  8
0
 62
     0
100
AcDbLine
 10
27.2804374266431
 20
1.349505935317682
 30
0.0
 11
27.35008875094908
 21
1.419157259623653
 31
0.0
  0
LINE
  5
12C1
330
1280
100
AcDbEntity
  8
0
 62
     0
100
AcDbLine
 10
27.2804374266431
 20
1.360554478773721
 30
0.0
 11
27.33904020749303
 21
1.419157259623653
 31
0.0
  0
LINE
  5
12C2
330
1280
100
AcDbEntity
  8
0
 62
     0
100
AcDbLine
 10
27.2804374266431
 20
1.371603022229759
 30
0.0
 11
27.327991664037
 21
1.419157259623653
 31
0.0
  0
LINE
  5
12C3
330
1280
100
AcDbEntity
  8
0
 62
     0
100
AcDbLine
 10
27.2804374266431
 20
1.382651565685797
 30
0.0
 11
27.31694312058095
 21
1.419157259623653
 31
0.0
  0
LINE
  5
12C4
330
1280
100
AcDbEntity
  8
0
 62
     0
100
AcDbLine
 10
27.2804374266431
 20
1.39370010914184
 30
0.0
 11
27.30589457712492
 21
1.419157259623653
 31
0.0
  0
LINE
  5
12C5
330
1280
100
AcDbEntity
  8
0
 62
     0
100
AcDbLine
 10
27.2804374266431
 20
1.404748652597879
 30
0.0
 11
27.29484603366888
 21
1.419157259623653
 31
0.0
  0
LINE
  5
12C6
330
1280
100
AcDbEntity
  8
0
 62
     0
100
AcDbLine
 10
27.32105577413563
 20
0.8708427403763453
 30
0.0
 11
27.49760874485362
 21
1.047395711094327
 31
0.0
  0
LINE
  5
12C7
330
1280
100
AcDbEntity
  8
0
 62
     0
100
AcDbLine
 10
27.7604461175158
 20
1.31023308375651
 30
0.0
 11
27.86937029338294
 21
1.419157259623653
 31
0.0
  0
LINE
  5
12C8
330
1280
100
AcDbEntity
  8
0
 62
     0
100
AcDbLine
 10
27.33210431759168
 20
0.8708427403763453
 30
0.0
 11
27.51660733993784
 21
1.055345762722502
 31
0.0
  0
LINE
  5
12C9
330
1280
100
AcDbEntity
  8
0
 62
     0
100
AcDbLine
 10
27.76843259325569
 20
1.307171016040359
 30
0.0
 11
27.88041883683898
 21
1.419157259623653
 31
0.0
  0
LINE
  5
12CA
330
1280
100
AcDbEntity
  8
0
 62
     0
100
AcDbLine
 10
27.34315286104771
 20
0.8708427403763453
 30
0.0
 11
27.67488654716862
 21
1.202576426497251
 31
0.0
  0
LINE
  5
12CB
330
1280
100
AcDbEntity
  8
0
 62
     0
100
AcDbLine
 10
27.77599932525835
 20
1.303689204586975
 30
0.0
 11
27.89146227554938
 21
1.419152154878009
 31
0.0
  0
LINE
  5
12CC
330
1280
100
AcDbEntity
  8
0
 62
     0
100
AcDbLine
 10
27.35420140450376
 20
0.8708427403763453
 30
0.0
 11
27.68891245734026
 21
1.205553793212853
 31
0.0
  0
LINE
  5
12CD
330
1280
100
AcDbEntity
  8
0
 62
     0
100
AcDbLine
 10
27.78317534999442
 20
1.299816685867007
 30
0.0
 11
27.89937613760983
 21
1.416017473482417
 31
0.0
  0
LINE
  5
12CE
330
1280
100
AcDbEntity
  8
0
 62
     0
100
AcDbLine
 10
27.36524994795979
 20
0.8708427403763453
 30
0.0
 11
27.69816957920642
 21
1.203762371622968
 31
0.0
  0
LINE
  5
12CF
330
1280
100
AcDbEntity
  8
0
 62
     0
100
AcDbLine
 10
27.78998221218746
 20
1.295575004604006
 30
0.0
 11
27.90336163516511
 21
1.408954427581657
 31
0.0
  0
LINE
  5
12D0
330
1280
100
AcDbEntity
  8
0
 62
     0
100
AcDbLine
 10
27.37629849141583
 20
0.8708427403763453
 30
0.0
 11
27.70539591570496
 21
1.199940164665469
 31
0.0
  0
LINE
  5
12D1
330
1280
100
AcDbEntity
  8
0
 62
     0
100
AcDbLine
 10
27.79643555659359
 20
1.290979805554101
 30
0.0
 11
27.90356822513043
 21
1.398112474090929
 31
0.0
  0
LINE
  5
12D2
330
1280
100
AcDbEntity
  8
0
 62
     0
100
AcDbLine
 10
27.38734703487188
 20
0.8708427403763453
 30
0.0
 11
27.71117517259411
 21
1.194670878098575
 31
0.0
  0
LINE
  5
12D3
330
1280
100
AcDbEntity
  8
0
 62
     0
100
AcDbLine
 10
27.8025461656507
 20
1.286041871155172
 30
0.0
 11
27.90356822513043
 21
1.387063930634891
 31
0.0
  0
LINE
  5
12D4
330
1280
100
AcDbEntity
  8
0
 62
     0
100
AcDbLine
 10
27.39839557832791
 20
0.8708427403763453
 30
0.0
 11
27.7157062426026
 21
1.188153404651031
 31
0.0
  0
LINE
  5
12D5
330
1280
100
AcDbEntity
  8
0
 62
     0
100
AcDbLine
 10
27.80837159340093
 20
1.280818755449355
 30
0.0
 11
27.90356822513042
 21
1.376015387178852
 31
0.0
  0
LINE
  5
12D6
330
1280
100
AcDbEntity
  8
0
 62
     0
100
AcDbLine
 10
27.40944412178396
 20
0.8708427403763453
 30
0.0
 11
27.71851393969749
 21
1.179912558289886
 31
0.0
  0
LINE
  5
12D7
330
1280
100
AcDbEntity
  8
0
 62
     0
100
AcDbLine
 10
27.81388552162722
 20
1.275284140219612
 30
0.0
 11
27.90356822513042
 21
1.364966843722814
 31
0.0
  0
LINE
  5
12D8
330
1280
100
AcDbEntity
  8
0
 62
     0
100
AcDbLine
 10
27.42049266523999
 20
0.8708427403763453
 30
0.0
 11
27.71846679491825
 21
1.168816870054604
 31
0.0
  0
LINE
  5
12D9
330
1280
100
AcDbEntity
  8
0
 62
     0
100
AcDbLine
 10
27.81906564873466
 20
1.26941572387101
 30
0.0
 11
27.90356822513042
 21
1.353918300266771
 31
0.0
  0
LINE
  5
12DA
330
1280
100
AcDbEntity
  8
0
 62
     0
100
AcDbLine
 10
27.82390816996316
 20
1.263209701643469
 30
0.0
 11
27.90356822513042
 21
1.342869756810732
 31
0.0
  0
LINE
  5
12DB
330
1280
100
AcDbEntity
  8
0
 62
     0
100
AcDbLine
 10
27.82840537490917
 20
1.25665836313344
 30
0.0
 11
27.90356822513042
 21
1.331821213354694
 31
0.0
  0
LINE
  5
12DC
330
1280
100
AcDbEntity
  8
0
 62
     0
100
AcDbLine
 10
27.83254519618949
 20
1.249749640957723
 30
0.0
 11
27.90356822513042
 21
1.32077266989865
 31
0.0
  0
LINE
  5
12DD
330
1280
100
AcDbEntity
  8
0
 62
     0
100
AcDbLine
 10
27.83631045675955
 20
1.242466358071741
 30
0.0
 11
27.90356822513042
 21
1.309724126442612
 31
0.0
  0
LINE
  5
12DE
330
1280
100
AcDbEntity
  8
0
 62
     0
100
AcDbLine
 10
27.83967769871537
 20
1.234785056571515
 30
0.0
 11
27.90356822513042
 21
1.298675582986573
 31
0.0
  0
LINE
  5
12DF
330
1280
100
AcDbEntity
  8
0
 62
     0
100
AcDbLine
 10
27.84261538819789
 20
1.226674202597994
 30
0.0
 11
27.90356822513042
 21
1.28762703953053
 31
0.0
  0
LINE
  5
12E0
330
1280
100
AcDbEntity
  8
0
 62
     0
100
AcDbLine
 10
27.84508113113317
 20
1.218091402077239
 30
0.0
 11
27.90356822513042
 21
1.276578496074492
 31
0.0
  0
LINE
  5
12E1
330
1280
100
AcDbEntity
  8
0
 62
     0
100
AcDbLine
 10
27.84701722297193
 20
1.208978950459959
 30
0.0
 11
27.90356822513042
 21
1.265529952618453
 31
0.0
  0
LINE
  5
12E2
330
1280
100
AcDbEntity
  8
0
 62
     0
100
AcDbLine
 10
27.84834319975303
 20
1.199256383785016
 30
0.0
 11
27.90356822513042
 21
1.254481409162415
 31
0.0
  0
LINE
  5
12E3
330
1280
100
AcDbEntity
  8
0
 62
     0
100
AcDbLine
 10
27.84894254449275
 20
1.188807185068705
 30
0.0
 11
27.90356822513042
 21
1.243432865706372
 31
0.0
  0
LINE
  5
12E4
330
1280
100
AcDbEntity
  8
0
 62
     0
100
AcDbLine
 10
27.84863677657107
 20
1.177452873690979
 30
0.0
 11
27.90356822513042
 21
1.232384322250333
 31
0.0
  0
LINE
  5
12E5
330
1280
100
AcDbEntity
  8
0
 62
     0
100
AcDbLine
 10
27.8471282065377
 20
1.164895760201571
 30
0.0
 11
27.90356822513042
 21
1.221335778794294
 31
0.0
  0
LINE
  5
12E6
330
1280
100
AcDbEntity
  8
0
 62
     0
100
AcDbLine
 10
27.84384666475196
 20
1.150565674959785
 30
0.0
 11
27.90356822513042
 21
1.210287235338251
 31
0.0
  0
LINE
  5
12E7
330
1280
100
AcDbEntity
  8
0
 62
     0
100
AcDbLine
 10
27.83736996918043
 20
1.133040435932225
 30
0.0
 11
27.90356822513042
 21
1.199238691882213
 31
0.0
  0
LINE
  5
12E8
330
1280
100
AcDbEntity
  8
0
 62
     0
100
AcDbLine
 10
27.81840643788305
 20
1.103028361178801
 30
0.0
 11
27.90356822513042
 21
1.188190148426174
 31
0.0
  0
LINE
  5
12E9
330
1280
100
AcDbEntity
  8
0
 62
     0
100
AcDbLine
 10
27.59726936053663
 20
0.8708427403763453
 30
0.0
 11
27.90356822513042
 21
1.177141604970136
 31
0.0
  0
LINE
  5
12EA
330
1280
100
AcDbEntity
  8
0
 62
     0
100
AcDbLine
 10
27.60831790399267
 20
0.8708427403763453
 30
0.0
 11
27.90356822513042
 21
1.166093061514092
 31
0.0
  0
LINE
  5
12EB
330
1280
100
AcDbEntity
  8
0
 62
     0
100
AcDbLine
 10
27.61936644744871
 20
0.8708427403763453
 30
0.0
 11
27.90356822513042
 21
1.155044518058054
 31
0.0
  0
LINE
  5
12EC
330
1280
100
AcDbEntity
  8
0
 62
     0
100
AcDbLine
 10
27.63041499090475
 20
0.8708427403763453
 30
0.0
 11
27.90356822513042
 21
1.143995974602016
 31
0.0
  0
LINE
  5
12ED
330
1280
100
AcDbEntity
  8
0
 62
     0
100
AcDbLine
 10
27.64146353436079
 20
0.8708427403763453
 30
0.0
 11
27.90356822513042
 21
1.132947431145972
 31
0.0
  0
LINE
  5
12EE
330
1280
100
AcDbEntity
  8
0
 62
     0
100
AcDbLine
 10
27.65251207781683
 20
0.8708427403763453
 30
0.0
 11
27.90356822513042
 21
1.121898887689934
 31
0.0
  0
LINE
  5
12EF
330
1280
100
AcDbEntity
  8
0
 62
     0
100
AcDbLine
 10
27.66356062127287
 20
0.8708427403763453
 30
0.0
 11
27.90356822513042
 21
1.110850344233895
 31
0.0
  0
LINE
  5
12F0
330
1280
100
AcDbEntity
  8
0
 62
     0
100
AcDbLine
 10
27.67460916472891
 20
0.8708427403763453
 30
0.0
 11
27.90356822513042
 21
1.099801800777852
 31
0.0
  0
LINE
  5
12F1
330
1280
100
AcDbEntity
  8
0
 62
     0
100
AcDbLine
 10
27.68565770818495
 20
0.8708427403763453
 30
0.0
 11
27.90356822513042
 21
1.088753257321813
 31
0.0
  0
LINE
  5
12F2
330
1280
100
AcDbEntity
  8
0
 62
     0
100
AcDbLine
 10
27.69670625164099
 20
0.8708427403763453
 30
0.0
 11
27.90356822513042
 21
1.077704713865775
 31
0.0
  0
LINE
  5
12F3
330
1280
100
AcDbEntity
  8
0
 62
     0
100
AcDbLine
 10
27.70775479509703
 20
0.8708427403763453
 30
0.0
 11
27.90356822513042
 21
1.066656170409737
 31
0.0
  0
LINE
  5
12F4
330
1280
100
AcDbEntity
  8
0
 62
     0
100
AcDbLine
 10
27.71880333855307
 20
0.8708427403763453
 30
0.0
 11
27.90356822513042
 21
1.055607626953693
 31
0.0
  0
LINE
  5
12F5
330
1280
100
AcDbEntity
  8
0
 62
     0
100
AcDbLine
 10
27.72985188200911
 20
0.8708427403763453
 30
0.0
 11
27.90356822513042
 21
1.044559083497655
 31
0.0
  0
LINE
  5
12F6
330
1280
100
AcDbEntity
  8
0
 62
     0
100
AcDbLine
 10
27.74090042546515
 20
0.8708427403763453
 30
0.0
 11
27.90356822513042
 21
1.033510540041616
 31
0.0
  0
LINE
  5
12F7
330
1280
100
AcDbEntity
  8
0
 62
     0
100
AcDbLine
 10
27.75194896892119
 20
0.8708427403763453
 30
0.0
 11
27.90356822513042
 21
1.022461996585573
 31
0.0
  0
LINE
  5
12F8
330
1280
100
AcDbEntity
  8
0
 62
     0
100
AcDbLine
 10
27.76299751237722
 20
0.8708427403763453
 30
0.0
 11
27.90356822513042
 21
1.011413453129535
 31
0.0
  0
LINE
  5
12F9
330
1280
100
AcDbEntity
  8
0
 62
     0
100
AcDbLine
 10
27.77404605583327
 20
0.8708427403763453
 30
0.0
 11
27.90356822513042
 21
1.000364909673496
 31
0.0
  0
LINE
  5
12FA
330
1280
100
AcDbEntity
  8
0
 62
     0
100
AcDbLine
 10
27.78509459928931
 20
0.8708427403763453
 30
0.0
 11
27.90356822513042
 21
0.9893163662174581
 31
0.0
  0
LINE
  5
12FB
330
1280
100
AcDbEntity
  8
0
 62
     0
100
AcDbLine
 10
27.79614314274535
 20
0.8708427403763453
 30
0.0
 11
27.90356822513042
 21
0.9782678227614148
 31
0.0
  0
LINE
  5
12FC
330
1280
100
AcDbEntity
  8
0
 62
     0
100
AcDbLine
 10
27.80719168620139
 20
0.8708427403763453
 30
0.0
 11
27.90356822513042
 21
0.9672192793053763
 31
0.0
  0
LINE
  5
12FD
330
1280
100
AcDbEntity
  8
0
 62
     0
100
AcDbLine
 10
27.81824022965742
 20
0.8708427403763453
 30
0.0
 11
27.90356822513042
 21
0.9561707358493379
 31
0.0
  0
LINE
  5
12FE
330
1280
100
AcDbEntity
  8
0
 62
     0
100
AcDbLine
 10
27.82928877311347
 20
0.8708427403763453
 30
0.0
 11
27.90356822513042
 21
0.9451221923932946
 31
0.0
  0
LINE
  5
12FF
330
1280
100
AcDbEntity
  8
0
 62
     0
100
AcDbLine
 10
27.84033731656951
 20
0.8708427403763453
 30
0.0
 11
27.90356822513042
 21
0.9340736489372561
 31
0.0
  0
LINE
  5
1300
330
1280
100
AcDbEntity
  8
0
 62
     0
100
AcDbLine
 10
27.85138586002555
 20
0.8708427403763453
 30
0.0
 11
27.90356822513042
 21
0.9230251054812177
 31
0.0
  0
LINE
  5
1301
330
1280
100
AcDbEntity
  8
0
 62
     0
100
AcDbLine
 10
27.86243440348159
 20
0.8708427403763453
 30
0.0
 11
27.90356822513042
 21
0.9119765620251792
 31
0.0
  0
LINE
  5
1302
330
1280
100
AcDbEntity
  8
0
 62
     0
100
AcDbLine
 10
27.87348294693763
 20
0.8708427403763453
 30
0.0
 11
27.90356822513042
 21
0.9009280185691359
 31
0.0
  0
LINE
  5
1303
330
1280
100
AcDbEntity
  8
0
 62
     0
100
AcDbLine
 10
27.88453149039366
 20
0.8708427403763453
 30
0.0
 11
27.90356822513042
 21
0.8898794751130974
 31
0.0
  0
LINE
  5
1304
330
1280
100
AcDbEntity
  8
0
 62
     0
100
AcDbLine
 10
27.89713639245572
 20
0.8723990989823603
 30
0.0
 11
27.90201186652441
 21
0.877274573051044
 31
0.0
  0
ENDBLK
  5
1306
330
1280
100
AcDbEntity
  8
0
100
AcDbBlockEnd
  0
BLOCK
  5
1537
330
1536
100
AcDbEntity
  8
0
100
AcDbBlockBegin
  2
T2
 70
     0
 10
0.0
 20
0.0
 30
0.0
  3
T2
  1

  0
LWPOLYLINE
  5
2EAF
330
1536
100
AcDbEntity
  8
TITLE
100
AcDbPolyline
 90
        4
 70
     1
 43
0.0
 10
63.96000000000377
 20
41.71000000000276
 10
0.0399999999999943
 20
41.71000000000276
 10
0.0399999999999996
 20
0.0400000000000014
 10
63.96000000000374
 20
0.0400000000000014
  0
LWPOLYLINE
  5
2EB0
330
1536
100
AcDbEntity
  8
TITLE
100
AcDbPolyline
 90
        4
 70
     1
 43
0.0
 10
64.00000000000376
 20
41.75000000000276
 10
-0.0000000000000071
 20
41.75000000000276
 10
0.0
 20
0.0000000000000018
 10
64.00000000000374
 20
0.0000000000000018
  0
LWPOLYLINE
  5
2EB1
330
1536
100
AcDbEntity
  8
TITLE
100
AcDbPolyline
 90
        4
 70
     1
 43
0.0
 10
63.98000000000377
 20
41.73000000000278
 10
0.0199999999999943
 20
41.73000000000278
 10
0.0199999999999996
 20
0.0200000000000014
 10
63.98000000000374
 20
0.0200000000000014
  0
TEXT
  5
2EB2
330
1536
100
AcDbEntity
  8
TITLE
 62
     1
100
AcDbText
 10
62.01705691683141
 20
3.19799197822055
 30
0.0
 40
0.15525
  1
-
  7
ITALIC
100
AcDbText
  0
TEXT
  5
2EB3
330
1536
100
AcDbEntity
  8
TITLE
 62
     1
100
AcDbText
 10
62.01705691683141
 20
3.349780357914581
 30
0.0
 40
0.15525
  1
+
  7
ITALIC
100
AcDbText
  0
TEXT
  5
2EB4
330
1536
100
AcDbEntity
  8
TITLE
 62
     1
100
AcDbText
 10
62.01705691683141
 20
3.64320306308844
 30
0.0
 40
0.15525
  1
FRACTIONAL
  7
ITALIC
100
AcDbText
  0
TEXT
  5
2EB5
330
1536
100
AcDbEntity
  8
TITLE
 62
     1
100
AcDbText
 10
60.47755802933359
 20
3.198840704743548
 30
0.0
 40
0.15525
  1
-
  7
ITALIC
100
AcDbText
  0
TEXT
  5
2EB6
330
1536
100
AcDbEntity
  8
TITLE
 62
     1
100
AcDbText
 10
60.47755802933359
 20
3.356364944423901
 30
0.0
 40
0.15525
  1
+
  7
ITALIC
100
AcDbText
  0
TEXT
  5
2EB7
330
1536
100
AcDbEntity
  8
TITLE
 62
     1
100
AcDbText
 10
60.47755802933359
 20
3.649787649597743
 30
0.0
 40
0.15525
  1
DECIMAL
  7
ITALIC
100
AcDbText
  0
TEXT
  5
2EB8
330
1536
100
AcDbEntity
  8
TITLE
 62
     1
100
AcDbText
 10
57.92743410179541
 20
3.643086326406458
 30
0.0
 40
0.15525
  1
TOLERANCES
  7
ITALIC
 72
     1
 11
58.67780910179541
 21
3.643086326406458
 31
0.0
100
AcDbText
  0
LINE
  5
2EB9
330
1536
100
AcDbEntity
  8
TITLE
 62
     1
100
AcDbLine
 10
57.33500000000375
 20
4.04
 30
0.0
 11
57.33500000000375
 21
3.040000000000001
 31
0.0
  0
TEXT
  5
2EBA
330
1536
100
AcDbEntity
  8
TITLE
 62
     1
100
AcDbText
 10
57.51343410179541
 20
3.27666845244556
 30
0.0
 40
0.15525
  1
UNLESS SPECIFIED
  7
ITALIC
 72
     1
 11
58.67780910179541
 21
3.27666845244556
 31
0.0
100
AcDbText
  0
TEXT
  5
2EBB
330
1536
100
AcDbEntity
  8
TITLE
 62
     1
100
AcDbText
 10
53.44713965836721
 20
2.822727796946285
 30
0.0
 40
0.14
  1
DATE
  7
ITALIC
 72
     1
 11
53.70380632503388
 21
2.822727796946285
 31
0.0
100
AcDbText
  0
TEXT
  5
2EBC
330
1536
100
AcDbEntity
  8
TITLE
 62
     1
100
AcDbText
 10
53.46190663208497
 20
2.072056300604384
 30
0.0
 40
0.154
  1
DATE
  7
ITALIC
 72
     1
 11
53.7442399654183
 21
2.072056300604384
 31
0.0
100
AcDbText
  0
TEXT
  5
2EBD
330
1536
100
AcDbEntity
  8
TITLE
100
AcDbText
 10
52.13269628546089
 20
2.82618097475822
 30
0.0
 40
0.14
  1
DR. BY
  7
ITALIC
 72
     1
 11
52.48269628546089
 21
2.82618097475822
 31
0.0
100
AcDbText
  0
TEXT
  5
2EBE
330
1536
100
AcDbEntity
  8
TITLE
100
AcDbText
 10
51.96638083203399
 20
2.072056300604384
 30
0.0
 40
0.154
  1
CHK. BY
  7
ITALIC
 72
     1
 11
52.42838083203399
 21
2.072056300604384
 31
0.0
100
AcDbText
  0
LINE
  5
2EBF
330
1536
100
AcDbEntity
  8
TITLE
 62
     1
100
AcDbLine
 10
61.4947939624064
 20
0.7900000000000014
 30
0.0
 11
61.4947939624064
 21
1.540000000000001
 31
0.0
  0
TEXT
  5
2EC0
330
1536
100
AcDbEntity
  8
TITLE
 62
     1
100
AcDbText
 10
59.46791140966684
 20
0.5206953542067927
 30
0.0
 40
0.1694
  1
PART NO.
  7
ITALIC
100
AcDbText
  0
LINE
  5
2EC1
330
1536
100
AcDbEntity
  8
TITLE
 62
     1
100
AcDbLine
 10
59.21000000000375
 20
0.7900000000000014
 30
0.0
 11
59.21000000000375
 21
0.0399999999999978
 31
0.0
  0
TEXT
  5
2EC2
330
1536
100
AcDbEntity
  8
TITLE
 62
     1
100
AcDbText
 10
54.56633048452305
 20
0.5102494913256912
 30
0.0
 40
0.1694
  1
PART NAME
  7
ITALIC
100
AcDbText
  0
TEXT
  5
2EC3
330
1536
100
AcDbEntity
  8
TITLE
 62
     1
100
AcDbText
 10
54.54266216399277
 20
1.252558201771084
 30
0.0
 40
0.1694
  1
CUSTOMER
  7
ITALIC
 72
     2
 11
55.8413954973261
 21
1.252558201771084
 31
0.0
100
AcDbText
  0
TEXT
  5
2EC4
330
1536
100
AcDbEntity
  8
TITLE
 62
     1
100
AcDbText
 10
53.47434386396953
 20
1.322440723290178
 30
0.0
 40
0.154
  1
DATE
  7
ITALIC
 72
     1
 11
53.75667719730286
 21
1.322440723290178
 31
0.0
100
AcDbText
  0
TEXT
  5
2EC5
330
1536
100
AcDbEntity
  8
TITLE
100
AcDbText
 10
51.96638083203399
 20
1.316742979900486
 30
0.0
 40
0.154
  1
APD. BY
  7
ITALIC
 72
     1
 11
52.42838083203399
 21
1.316742979900486
 31
0.0
100
AcDbText
  0
TEXT
  5
2EC6
330
1536
100
AcDbEntity
  8
TITLE
100
AcDbText
 10
52.73472273397718
 20
0.5212952711989276
 30
0.0
 40
0.154
  1
SCALE
  7
ITALIC
 72
     1
 11
53.09405606731051
 21
0.5212952711989276
 31
0.0
100
AcDbText
  0
LINE
  5
2EC7
330
1536
100
AcDbEntity
  8
TITLE
 62
     1
100
AcDbLine
 10
53.08500000000375
 20
3.040000000000004
 30
0.0
 11
53.08500000000375
 21
0.7900000000000032
 31
0.0
  0
LINE
  5
2EC8
330
1536
100
AcDbEntity
  8
TITLE
 62
     1
100
AcDbLine
 10
54.33500000000375
 20
3.039999999999997
 30
0.0
 11
54.33500000000375
 21
0.0399999999999996
 31
0.0
  0
LINE
  5
2EC9
330
1536
100
AcDbEntity
  8
TITLE
 62
     1
100
AcDbLine
 10
63.96000000000374
 20
1.540000000000001
 30
0.0
 11
54.33500000000375
 21
1.540000000000001
 31
0.0
  0
TEXT
  5
2ECA
330
1536
100
AcDbEntity
  8
TITLE
 62
     1
100
AcDbText
 10
61.69609486875391
 20
1.326747107986976
 30
0.0
 40
0.125
  1
AutoCAD DWG. FILE
100
AcDbText
  0
TEXT
  5
2ECB
330
1536
100
AcDbEntity
  8
TITLE
100
AcDbText
 10
51.14538256127479
 20
2.036268066777214
 30
0.0
 40
0.154
  1
CHD.
  7
ITALIC
 72
     1
 11
51.3763825612748
 21
2.036268066777214
 31
0.0
100
AcDbText
  0
TEXT
  5
2ECC
330
1536
100
AcDbEntity
  8
TITLE
100
AcDbText
 10
50.38257751100488
 20
2.055260544742853
 30
0.0
 40
0.154
  1
BY
  7
ITALIC
 72
     1
 11
50.51091084433821
 21
2.055260544742853
 31
0.0
100
AcDbText
  0
TEXT
  5
2ECD
330
1536
100
AcDbEntity
  8
TITLE
100
AcDbText
 10
49.21118533914498
 20
2.045764305760033
 30
0.0
 40
0.154
  1
DATE
  7
ITALIC
 72
     1
 11
49.4935186724783
 21
2.045764305760033
 31
0.0
100
AcDbText
  0
TEXT
  5
2ECE
330
1536
100
AcDbEntity
  8
TITLE
100
AcDbText
 10
43.43743673306819
 20
4.138388543293784
 30
0.0
 40
0.14
  1
NOTES:
  7
ITALIC
100
AcDbText
  0
TEXT
  5
2ECF
330
1536
100
AcDbEntity
  8
TITLE
100
AcDbText
 10
43.26186688171646
 20
2.055260544742853
 30
0.0
 40
0.154
  1
LET.
  7
ITALIC
 72
     1
 11
43.49286688171646
 21
2.055260544742853
 31
0.0
100
AcDbText
  0
TEXT
  5
2ED0
330
1536
100
AcDbEntity
  8
TITLE
100
AcDbText
 10
43.41367829470571
 20
2.762795715722289
 30
0.0
 40
0.154
  1
MATERIAL
  7
ITALIC
100
AcDbText
  0
LINE
  5
2ED1
330
1536
100
AcDbEntity
  8
TITLE
100
AcDbLine
 10
51.83500000000375
 20
1.915000000000001
 30
0.0
 11
42.96000000000375
 21
1.915000000000004
 31
0.0
  0
TEXT
  5
2ED2
330
1536
100
AcDbEntity
  8
TITLE
100
AcDbText
 10
45.20274150067381
 20
2.036268066777214
 30
0.0
 40
0.154
  1
REVISION RECORD
  7
ITALIC
 72
     1
 11
46.30640816734048
 21
2.036268066777214
 31
0.0
100
AcDbText
  0
LINE
  5
2ED3
330
1536
100
AcDbEntity
  8
TITLE
100
AcDbLine
 10
51.83500000000375
 20
0.4149999999999996
 30
0.0
 11
42.96000000000375
 21
0.415000000000005
 31
0.0
  0
LINE
  5
2ED4
330
1536
100
AcDbEntity
  8
TITLE
100
AcDbLine
 10
51.83500000000375
 20
1.165000000000001
 30
0.0
 11
42.96000000000375
 21
1.165000000000004
 31
0.0
  0
LINE
  5
2ED5
330
1536
100
AcDbEntity
  8
TITLE
100
AcDbLine
 10
42.96000000000375
 20
4.040000000000004
 30
0.0
 11
42.96000000000375
 21
0.0400000000000014
 31
0.0
  0
LINE
  5
2ED6
330
1536
100
AcDbEntity
  8
TITLE
100
AcDbLine
 10
43.96000000000374
 20
2.290000000000001
 30
0.0
 11
43.96000000000374
 21
0.0400000000000014
 31
0.0
  0
LINE
  5
2ED7
330
1536
100
AcDbEntity
  8
TITLE
100
AcDbLine
 10
48.96000000000374
 20
2.290000000000004
 30
0.0
 11
48.96000000000374
 21
0.0400000000000049
 31
0.0
  0
LINE
  5
2ED8
330
1536
100
AcDbEntity
  8
TITLE
100
AcDbLine
 10
50.08500000000374
 20
2.290000000000004
 30
0.0
 11
50.08500000000374
 21
0.0400000000000067
 31
0.0
  0
LINE
  5
2ED9
330
1536
100
AcDbEntity
  8
TITLE
100
AcDbLine
 10
50.96000000000374
 20
2.290000000000004
 30
0.0
 11
50.96000000000374
 21
0.0400000000000085
 31
0.0
  0
LINE
  5
2EDA
330
1536
100
AcDbEntity
  8
TITLE
100
AcDbLine
 10
51.83500000000375
 20
3.040000000000001
 30
0.0
 11
51.83500000000375
 21
0.0399999999999996
 31
0.0
  0
LINE
  5
2EDB
330
1536
100
AcDbEntity
  8
TITLE
100
AcDbLine
 10
63.96000000000374
 20
4.04
 30
0.0
 11
42.96000000000375
 21
4.040000000000004
 31
0.0
  0
LINE
  5
2EDC
330
1536
100
AcDbEntity
  8
TITLE
100
AcDbLine
 10
57.33500000000375
 20
3.540000000000002
 30
0.0
 11
42.96000000000375
 21
3.540000000000004
 31
0.0
  0
LINE
  5
2EDD
330
1536
100
AcDbEntity
  8
TITLE
100
AcDbLine
 10
63.96000000000374
 20
3.040000000000001
 30
0.0
 11
42.96000000000375
 21
3.040000000000004
 31
0.0
  0
LINE
  5
2EDE
330
1536
100
AcDbEntity
  8
TITLE
100
AcDbLine
 10
54.33500000000375
 20
2.290000000000001
 30
0.0
 11
42.96000000000375
 21
2.290000000000004
 31
0.0
  0
LINE
  5
2EDF
330
1536
100
AcDbEntity
  8
TITLE
100
AcDbLine
 10
54.33500000000375
 20
1.540000000000001
 30
0.0
 11
42.96000000000375
 21
1.540000000000004
 31
0.0
  0
LINE
  5
2EE0
330
1536
100
AcDbEntity
  8
TITLE
100
AcDbLine
 10
63.96000000000374
 20
0.7900000000000014
 30
0.0
 11
42.96000000000375
 21
0.790000000000005
 31
0.0
  0
ENDBLK
  5
15AB
330
1536
100
AcDbEntity
  8
0
100
AcDbBlockEnd
  0
BLOCK
  5
15DF
330
15DB
100
AcDbEntity
  8
0
100
AcDbBlockBegin
  2
SBBTX
 70
     0
 10
0.0
 20
0.0
 30
0.0
  3
SBBTX
  1

  0
LINE
  5
15DC
330
15DB
100
AcDbEntity
  8
0
100
AcDbLine
 10
-0.8421662700371435
 20
0.0199999999999996
 30
0.0
 11
0.8421662700371435
 21
0.0199999999999996
 31
0.0
  0
LINE
  5
15DD
330
15DB
100
AcDbEntity
  8
0
100
AcDbLine
 10
-0.8421662700371435
 20
0.0
 30
0.0
 11
0.8421662700371435
 21
0.0
 31
0.0
  0
TEXT
  5
15DE
330
15DB
100
AcDbEntity
  8
0
100
AcDbText
 10
-0.8455144018028244
 20
0.0554512145058732
 30
0.0
 40
0.156
  1
SECTION B-B
  7
COMPLEX
100
AcDbText
  0
ENDBLK
  5
15E0
330
15DB
100
AcDbEntity
  8
0
100
AcDbBlockEnd
  0
BLOCK
  5
15E5
330
15E1
100
AcDbEntity
  8
0
100
AcDbBlockBegin
  2
SAATX
 70
     0
 10
0.0
 20
0.0
 30
0.0
  3
SAATX
  1

  0
LINE
  5
15E2
330
15E1
100
AcDbEntity
  8
0
100
AcDbLine
 10
-0.8421662700371435
 20
0.0
 30
0.0
 11
0.8421662700371435
 21
0.0
 31
0.0
  0
LINE
  5
15E3
330
15E1
100
AcDbEntity
  8
0
100
AcDbLine
 10
-0.8421662700371435
 20
0.0199999999999996
 30
0.0
 11
0.8421662700371435
 21
0.0199999999999996
 31
0.0
  0
TEXT
  5
15E4
330
15E1
100
AcDbEntity
  8
0
100
AcDbText
 10
-0.8455144018028244
 20
0.0551412039750448
 30
0.0
 40
0.156
  1
SECTION A-A
  7
COMPLEX
100
AcDbText
  0
ENDBLK
  5
15E6
330
15E1
100
AcDbEntity
  8
0
100
AcDbBlockEnd
  0
BLOCK
  5
15F7
330
15E7
100
AcDbEntity
  8
0
100
AcDbBlockBegin
  2
SAAL
 70
     0
 10
0.0
 20
0.0
 30
0.0
  3
SAAL
  1

  0
TEXT
  5
15E8
330
15E7
100
AcDbEntity
  8
0
100
AcDbText
 10
-0.5040834610697376
 20
0.5122863324383254
 30
0.0
 40
0.156
  1
A
  7
COMPLEX
 72
     1
 11
-0.4297977467840233
 21
0.5122863324383254
 31
0.0
100
AcDbText
  0
INSERT
  5
15E9
330
15E7
100
AcDbEntity
  8
0
100
AcDbBlockReference
  2
*X5
 10
3.748701991468969
 20
-6.921648479033177
 30
0.0
 41
-1.0
  0
LINE
  5
15EA
330
15E7
100
AcDbEntity
  8
0
100
AcDbLine
 10
-0.4510248048477635
 20
0.2292366486465225
 30
0.0
 11
-0.4731800571979626
 21
0.2292366486465216
 31
0.0
  0
LINE
  5
15EB
330
15E7
100
AcDbEntity
  8
0
100
AcDbLine
 10
-0.3939751951522221
 20
0.2292366486465216
 30
0.0
 11
-0.3718199428020354
 21
0.2292366486465216
 31
0.0
  0
LINE
  5
15EC
330
15E7
100
AcDbEntity
  8
0
100
AcDbLine
 10
-0.3939751951522221
 20
0.2292366486465216
 30
0.0
 11
-0.4075000000000002
 21
0.2292366486465216
 31
0.0
  0
ARC
  5
15ED
330
15E7
100
AcDbEntity
  8
0
100
AcDbCircle
 10
-0.9224898749921969
 20
0.4486009293161688
 30
0.0
 40
0.5200000000000001
100
AcDbArc
 50
335.048281908222
 51
344.0535702443027
  0
ARC
  5
15EE
330
15E7
100
AcDbEntity
  8
0
100
AcDbCircle
 10
0.0774898749921995
 20
0.4486009293161688
 30
0.0
 40
0.5200000000000001
100
AcDbArc
 50
195.9464297556973
 51
204.9517180917784
  0
ARC
  5
15EF
330
15E7
100
AcDbEntity
  8
0
100
AcDbCircle
 10
-0.9224898749921969
 20
0.4486009293161688
 30
0.0
 40
0.5
100
AcDbArc
 50
333.9772135427694
 51
0.3646288638273872
  0
LINE
  5
15F0
330
15E7
100
AcDbEntity
  8
0
100
AcDbLine
 10
-0.4374999999999996
 20
0.2292366486465216
 30
0.0
 11
-0.4374999999999996
 21
0.2292366486465216
 31
0.0
  0
ARC
  5
15F1
330
15E7
100
AcDbEntity
  8
0
100
AcDbCircle
 10
0.0774898749921995
 20
0.4486009293161688
 30
0.0
 40
0.5
100
AcDbArc
 50
179.6353711361726
 51
206.0227864572306
  0
LINE
  5
15F2
330
15E7
100
AcDbEntity
  8
0
100
AcDbLine
 10
-0.4571321552628534
 20
0.0
 30
0.0
 11
0.0
 21
0.0
 31
0.0
  0
LINE
  5
15F3
330
15E7
100
AcDbEntity
  8
0
100
AcDbLine
 10
-0.4224999999999999
 20
0.0299999999999994
 30
0.0
 11
0.0000000000000009
 21
0.0299999999999994
 31
0.0
  0
LINE
  5
15F4
330
15E7
100
AcDbEntity
  8
0
100
AcDbLine
 10
-0.4374999999999996
 20
0.2292366486465216
 30
0.0
 11
-0.4374999999999996
 21
-0.017923002649547
 31
0.0
  0
LINE
  5
15F5
330
15E7
100
AcDbEntity
  8
0
100
AcDbLine
 10
-0.4075000000000002
 20
0.2292366486465216
 30
0.0
 11
-0.4074999999999993
 21
0.0149999999999988
 31
0.0
  0
LINE
  5
15F6
330
15E7
100
AcDbEntity
  8
0
100
AcDbLine
 10
-0.4374999999999987
 20
0.2292366486465216
 30
0.0
 11
-0.4510248048477635
 21
0.2292366486465225
 31
0.0
  0
ENDBLK
  5
15F8
330
15E7
100
AcDbEntity
  8
0
100
AcDbBlockEnd
  0
BLOCK
  5
1629
330
15F9
100
AcDbEntity
  8
0
100
AcDbBlockBegin
  2
*X5
 70
     1
 10
0.0
 20
0.0
 30
0.0
  3
*X5
  1

  0
LINE
  5
15FA
330
15F9
100
AcDbEntity
  8
0
 62
     0
100
AcDbLine
 10
4.158042821030212
 20
7.25625
 30
0.0
 11
4.184361161907728
 21
7.25625
 31
0.0
  0
LINE
  5
15FB
330
15F9
100
AcDbEntity
  8
0
 62
     0
100
AcDbLine
 10
4.159464167164085
 20
7.2625
 30
0.0
 11
4.182939815773856
 21
7.2625
 31
0.0
  0
LINE
  5
15FC
330
15F9
100
AcDbEntity
  8
0
 62
     0
100
AcDbLine
 10
4.160801607892522
 20
7.26875
 30
0.0
 11
4.181602375045417
 21
7.26875
 31
0.0
  0
LINE
  5
15FD
330
15F9
100
AcDbEntity
  8
0
 62
     0
100
AcDbLine
 10
4.162055829087108
 20
7.275
 30
0.0
 11
4.180348153850832
 21
7.275
 31
0.0
  0
LINE
  5
15FE
330
15F9
100
AcDbEntity
  8
0
 62
     0
100
AcDbLine
 10
4.163227467165616
 20
7.28125
 30
0.0
 11
4.179176515772323
 21
7.28125
 31
0.0
  0
LINE
  5
15FF
330
15F9
100
AcDbEntity
  8
0
 62
     0
100
AcDbLine
 10
4.1643171107912
 20
7.2875
 30
0.0
 11
4.178086872146739
 21
7.2875
 31
0.0
  0
LINE
  5
1600
330
15F9
100
AcDbEntity
  8
0
 62
     0
100
AcDbLine
 10
4.165325302419223
 20
7.29375
 30
0.0
 11
4.177078680518715
 21
7.29375
 31
0.0
  0
LINE
  5
1601
330
15F9
100
AcDbEntity
  8
0
 62
     0
100
AcDbLine
 10
4.16625253970155
 20
7.3
 30
0.0
 11
4.17615144323639
 21
7.3
 31
0.0
  0
LINE
  5
1602
330
15F9
100
AcDbEntity
  8
0
 62
     0
100
AcDbLine
 10
4.167099276757146
 20
7.30625
 30
0.0
 11
4.175304706180795
 21
7.30625
 31
0.0
  0
LINE
  5
1603
330
15F9
100
AcDbEntity
  8
0
 62
     0
100
AcDbLine
 10
4.167865925316793
 20
7.3125
 30
0.0
 11
4.174538057621145
 21
7.3125
 31
0.0
  0
LINE
  5
1604
330
15F9
100
AcDbEntity
  8
0
 62
     0
100
AcDbLine
 10
4.16855285574882
 20
7.31875
 30
0.0
 11
4.17385112718912
 21
7.31875
 31
0.0
  0
LINE
  5
1605
330
15F9
100
AcDbEntity
  8
0
 62
     0
100
AcDbLine
 10
4.169160397971983
 20
7.325
 30
0.0
 11
4.173243584965957
 21
7.325
 31
0.0
  0
LINE
  5
1606
330
15F9
100
AcDbEntity
  8
0
 62
     0
100
AcDbLine
 10
4.169688842260835
 20
7.33125
 30
0.0
 11
4.172715140677103
 21
7.33125
 31
0.0
  0
LINE
  5
1607
330
15F9
100
AcDbEntity
  8
0
 62
     0
100
AcDbLine
 10
4.170138439948251
 20
7.3375
 30
0.0
 11
4.172265542989687
 21
7.3375
 31
0.0
  0
LINE
  5
1608
330
15F9
100
AcDbEntity
  8
0
 62
     0
100
AcDbLine
 10
4.170509404029122
 20
7.34375
 30
0.0
 11
4.171894578908817
 21
7.34375
 31
0.0
  0
LINE
  5
1609
330
15F9
100
AcDbEntity
  8
0
 62
     0
100
AcDbLine
 10
4.170801909668647
 20
7.35
 30
0.0
 11
4.171602073269292
 21
7.35
 31
0.0
  0
LINE
  5
160A
330
15F9
100
AcDbEntity
  8
0
 62
     0
100
AcDbLine
 10
4.171016094618071
 20
7.35625
 30
0.0
 11
4.171387888319867
 21
7.35625
 31
0.0
  0
LINE
  5
160B
330
15F9
100
AcDbEntity
  8
0
 62
     0
100
AcDbLine
 10
4.171152059540171
 20
7.3625
 30
0.0
 11
4.171251923397766
 21
7.3625
 31
0.0
  0
LINE
  5
160C
330
15F9
100
AcDbEntity
  8
0
 62
     0
100
AcDbLine
 10
4.17119411469162
 20
7.36875
 30
0.0
 11
4.171209868246319
 21
7.36875
 31
0.0
  0
LINE
  5
160D
330
15F9
100
AcDbEntity
  8
0
 62
     0
100
AcDbLine
 10
4.156536832302816
 20
7.25
 30
0.0
 11
4.185867150635123
 21
7.25
 31
0.0
  0
LINE
  5
160E
330
15F9
100
AcDbEntity
  8
0
 62
     0
100
AcDbLine
 10
4.154945410438709
 20
7.24375
 30
0.0
 11
4.187458572499231
 21
7.24375
 31
0.0
  0
LINE
  5
160F
330
15F9
100
AcDbEntity
  8
0
 62
     0
100
AcDbLine
 10
4.153267709311144
 20
7.2375
 30
0.0
 11
4.189136273626795
 21
7.2375
 31
0.0
  0
LINE
  5
1610
330
15F9
100
AcDbEntity
  8
0
 62
     0
100
AcDbLine
 10
4.151502824775956
 20
7.23125
 30
0.0
 11
4.190901158161984
 21
7.23125
 31
0.0
  0
LINE
  5
1611
330
15F9
100
AcDbEntity
  8
0
 62
     0
100
AcDbLine
 10
4.149649792014731
 20
7.225
 30
0.0
 11
4.170514238817704
 21
7.225
 31
0.0
  0
LINE
  5
1612
330
15F9
100
AcDbEntity
  8
0
 62
     0
100
AcDbLine
 10
4.17188974412022
 20
7.225
 30
0.0
 11
4.192754190923209
 21
7.225
 31
0.0
  0
LINE
  5
1613
330
15F9
100
AcDbEntity
  8
0
 62
     0
100
AcDbLine
 10
4.147707582635473
 20
7.21875
 30
0.0
 11
4.16865349922432
 21
7.21875
 31
0.0
  0
LINE
  5
1614
330
15F9
100
AcDbEntity
  8
0
 62
     0
100
AcDbLine
 10
4.173750483713604
 20
7.21875
 30
0.0
 11
4.194696400302465
 21
7.21875
 31
0.0
  0
LINE
  5
1615
330
15F9
100
AcDbEntity
  8
0
 62
     0
100
AcDbLine
 10
4.145675101508724
 20
7.2125
 30
0.0
 11
4.166706944063726
 21
7.2125
 31
0.0
  0
LINE
  5
1616
330
15F9
100
AcDbEntity
  8
0
 62
     0
100
AcDbLine
 10
4.175697038874197
 20
7.2125
 30
0.0
 11
4.196728881429214
 21
7.2125
 31
0.0
  0
LINE
  5
1617
330
15F9
100
AcDbEntity
  8
0
 62
     0
100
AcDbLine
 10
4.143551183314425
 20
7.20625
 30
0.0
 11
4.164673557788107
 21
7.20625
 31
0.0
  0
LINE
  5
1618
330
15F9
100
AcDbEntity
  8
0
 62
     0
100
AcDbLine
 10
4.17773042514982
 20
7.20625
 30
0.0
 11
4.198852799623516
 21
7.20625
 31
0.0
  0
LINE
  5
1619
330
15F9
100
AcDbEntity
  8
0
 62
     0
100
AcDbLine
 10
4.141334588771703
 20
7.2
 30
0.0
 11
4.162552262360144
 21
7.2
 31
0.0
  0
LINE
  5
161A
330
15F9
100
AcDbEntity
  8
0
 62
     0
100
AcDbLine
 10
4.179851720577784
 20
7.2
 30
0.0
 11
4.201069394166239
 21
7.2
 31
0.0
  0
LINE
  5
161B
330
15F9
100
AcDbEntity
  8
0
 62
     0
100
AcDbLine
 10
4.139024000520274
 20
7.19375
 30
0.0
 11
4.160341914027816
 21
7.19375
 31
0.0
  0
LINE
  5
161C
330
15F9
100
AcDbEntity
  8
0
 62
     0
100
AcDbLine
 10
4.182062068910108
 20
7.19375
 30
0.0
 11
4.203379982417666
 21
7.19375
 31
0.0
  0
LINE
  5
161D
330
15F9
100
AcDbEntity
  8
0
 62
     0
100
AcDbLine
 10
4.136618018618079
 20
7.1875
 30
0.0
 11
4.158041299813144
 21
7.1875
 31
0.0
  0
LINE
  5
161E
330
15F9
100
AcDbEntity
  8
0
 62
     0
100
AcDbLine
 10
4.18436268312478
 20
7.1875
 30
0.0
 11
4.20578596431986
 21
7.1875
 31
0.0
  0
LINE
  5
161F
330
15F9
100
AcDbEntity
  8
0
 62
     0
100
AcDbLine
 10
4.134115155615204
 20
7.18125
 30
0.0
 11
4.155649133687051
 21
7.18125
 31
0.0
  0
LINE
  5
1620
330
15F9
100
AcDbEntity
  8
0
 62
     0
100
AcDbLine
 10
4.186754849250876
 20
7.18125
 30
0.0
 11
4.208288827322737
 21
7.18125
 31
0.0
  0
LINE
  5
1621
330
15F9
100
AcDbEntity
  8
0
 62
     0
100
AcDbLine
 10
4.131513831158817
 20
7.175
 30
0.0
 11
4.153164052399043
 21
7.175
 31
0.0
  0
LINE
  5
1622
330
15F9
100
AcDbEntity
  8
0
 62
     0
100
AcDbLine
 10
4.189239930538879
 20
7.175
 30
0.0
 11
4.210890151779121
 21
7.175
 31
0.0
  0
LINE
  5
1623
330
15F9
100
AcDbEntity
  8
0
 62
     0
100
AcDbLine
 10
4.128812366077735
 20
7.16875
 30
0.0
 11
4.1505846109264
 21
7.16875
 31
0.0
  0
LINE
  5
1624
330
15F9
100
AcDbEntity
  8
0
 62
     0
100
AcDbLine
 10
4.191819372011525
 20
7.16875
 30
0.0
 11
4.213591616860204
 21
7.16875
 31
0.0
  0
LINE
  5
1625
330
15F9
100
AcDbEntity
  8
0
 62
     0
100
AcDbLine
 10
4.126008975888199
 20
7.1625
 30
0.0
 11
4.147909277503027
 21
7.1625
 31
0.0
  0
LINE
  5
1626
330
15F9
100
AcDbEntity
  8
0
 62
     0
100
AcDbLine
 10
4.194494705434896
 20
7.1625
 30
0.0
 11
4.216395007049741
 21
7.1625
 31
0.0
  0
LINE
  5
1627
330
15F9
100
AcDbEntity
  8
0
 62
     0
100
AcDbLine
 10
4.123101763654189
 20
7.15625
 30
0.0
 11
4.145136428182898
 21
7.15625
 31
0.0
  0
LINE
  5
1628
330
15F9
100
AcDbEntity
  8
0
 62
     0
100
AcDbLine
 10
4.197267554755029
 20
7.15625
 30
0.0
 11
4.219302219283752
 21
7.15625
 31
0.0
  0
ENDBLK
  5
162A
330
15F9
100
AcDbEntity
  8
0
100
AcDbBlockEnd
  0
BLOCK
  5
1632
330
162B
100
AcDbEntity
  8
0
100
AcDbBlockBegin
  2
SBT
 70
     0
 10
0.0
 20
0.0
 30
0.0
  3
SBT
  1

  0
TEXT
  5
162C
330
162B
100
AcDbEntity
  8
0
100
AcDbText
 10
-0.6678655406418268
 20
0.3111254580743354
 30
0.0
 40
0.203
  1
B
100
AcDbText
  0
LINE
  5
162D
330
162B
100
AcDbEntity
  8
0
100
AcDbLine
 10
0.0
 20
0.4571321552628529
 30
0.0
 11
0.0
 21
0.0
 31
0.0
  0
LINE
  5
162E
330
162B
100
AcDbEntity
  8
0
100
AcDbLine
 10
-0.0299999999999994
 20
0.4224999999999995
 30
0.0
 11
-0.0299999999999994
 21
-0.0000000000000009
 31
0.0
  0
LINE
  5
162F
330
162B
100
AcDbEntity
  8
0
100
AcDbLine
 10
-0.2292366486465212
 20
0.4374999999999992
 30
0.0
 11
0.017923002649547
 21
0.4374999999999992
 31
0.0
  0
LINE
  5
1630
330
162B
100
AcDbEntity
  8
0
100
AcDbLine
 10
-0.2292366486465212
 20
0.4074999999999998
 30
0.0
 11
-0.0149999999999988
 21
0.4074999999999989
 31
0.0
  0
SOLID
  5
1631
330
162B
100
AcDbEntity
  8
0
100
AcDbTrace
 10
-0.2292366486465212
 20
0.3861666666666661
 30
0.0
 11
-0.2292366486465212
 21
0.4588333333333328
 31
0.0
 12
-0.4472366486465212
 22
0.4224999999999995
 32
0.0
 13
-0.4472366486465212
 23
0.4224999999999995
 33
0.0
  0
ENDBLK
  5
1633
330
162B
100
AcDbEntity
  8
0
100
AcDbBlockEnd
  0
BLOCK
  5
163B
330
1634
100
AcDbEntity
  8
0
100
AcDbBlockBegin
  2
SBB
 70
     0
 10
0.0
 20
0.0
 30
0.0
  3
SBB
  1

  0
TEXT
  5
1635
330
1634
100
AcDbEntity
  8
0
100
AcDbText
 10
-0.6678655406418268
 20
-0.5202742257660944
 30
0.0
 40
0.203
  1
B
100
AcDbText
  0
SOLID
  5
1636
330
1634
100
AcDbEntity
  8
0
100
AcDbTrace
 10
-0.2292366486465212
 20
-0.3861666666666661
 30
0.0
 11
-0.2292366486465212
 21
-0.4588333333333328
 31
0.0
 12
-0.4472366486465212
 22
-0.4224999999999995
 32
0.0
 13
-0.4472366486465212
 23
-0.4224999999999995
 33
0.0
  0
LINE
  5
1637
330
1634
100
AcDbEntity
  8
0
100
AcDbLine
 10
-0.2292366486465212
 20
-0.4074999999999998
 30
0.0
 11
-0.0149999999999988
 21
-0.4074999999999989
 31
0.0
  0
LINE
  5
1638
330
1634
100
AcDbEntity
  8
0
100
AcDbLine
 10
-0.2292366486465212
 20
-0.4374999999999992
 30
0.0
 11
0.017923002649547
 21
-0.4374999999999992
 31
0.0
  0
LINE
  5
1639
330
1634
100
AcDbEntity
  8
0
100
AcDbLine
 10
-0.0299999999999994
 20
-0.4224999999999995
 30
0.0
 11
-0.0299999999999994
 21
0.0000000000000009
 31
0.0
  0
LINE
  5
163A
330
1634
100
AcDbEntity
  8
0
100
AcDbLine
 10
0.0
 20
-0.4571321552628529
 30
0.0
 11
0.0
 21
0.0
 31
0.0
  0
ENDBLK
  5
163C
330
1634
100
AcDbEntity
  8
0
100
AcDbBlockEnd
  0
BLOCK
  5
29F3
330
29E4
100
AcDbEntity
  8
0
100
AcDbBlockBegin
  2
*D8
 70
     1
 10
0.0
 20
0.0
 30
0.0
  3
*D8
  1

  0
LINE
  5
2D3B
330
29E4
100
AcDbEntity
  8
DIM
 62
     0
440
 16777216
370
    -2
100
AcDbLine
 10
11.17090166306344
 20
11.82891580717068
 30
0.0
 11
11.17090166306344
 21
11.1334467131202
 31
0.0
  0
LINE
  5
2D3C
330
29E4
100
AcDbEntity
  8
DIM
 62
     0
440
 16777216
370
    -2
100
AcDbLine
 10
11.26596967760424
 20
12.32080614574158
 30
0.0
 11
11.29701854666063
 21
11.13509767356299
 31
0.0
  0
ARC
  5
2D3D
330
29E4
100
AcDbEntity
  8
DIM
 62
     0
440
 16777216
370
    -2
100
AcDbCircle
 10
11.17090166306344
 20
15.95130714948163
 30
0.0
 40
4.63036043636143
100
AcDbArc
 50
265.3585052808639
 51
270.0
  0
LINE
  5
2D3E
330
29E4
100
AcDbEntity
  8
DIM
 62
     0
440
 16777216
370
    -2
100
AcDbLine
 10
10.79620923900354
 20
11.33613181608709
 30
0.0
 11
10.60870923900354
 21
11.33613181608709
 31
0.0
  0
ARC
  5
2D3F
330
29E4
100
AcDbEntity
  8
DIM
 62
     0
440
 16777216
370
    -2
100
AcDbCircle
 10
11.17090166306344
 20
15.95130714948163
 30
0.0
 40
4.63036043636143
100
AcDbArc
 50
265.3594572499785
 51
267.6797286249893
  0
ARC
  5
2D40
330
29E4
100
AcDbEntity
  8
DIM
 62
     0
440
 16777216
370
    -2
100
AcDbCircle
 10
11.17090166306344
 20
15.95130714948163
 30
0.0
 40
4.63036043636143
100
AcDbArc
 50
273.8202713750109
 51
276.1405427500216
  0
SOLID
  5
2D41
330
29E4
100
AcDbEntity
  8
DIM
 62
     0
440
 16777216
100
AcDbTrace
 10
10.98407281085178
 20
11.35598658300113
 30
0.0
 11
10.98280738560454
 21
11.29349939472271
 31
0.0
 12
11.17090166306344
 22
11.32094671312019
 32
0.0
 13
11.17090166306344
 23
11.32094671312019
 33
0.0
  0
SOLID
  5
2D42
330
29E4
100
AcDbEntity
  8
DIM
 62
     0
440
 16777216
100
AcDbTrace
 10
11.48085867813557
 20
11.30001924328697
 30
0.0
 11
11.47795796262048
 21
11.36245189379534
 31
0.0
 12
11.29211036885291
 22
11.3225334219959
 32
0.0
 13
11.29211036885291
 23
11.3225334219959
 33
0.0
  0
MTEXT
  5
2D43
330
29E4
100
AcDbEntity
  8
DIM
 62
     0
440
 16777216
100
AcDbMText
 10
10.30120923900354
 20
11.3361318160871
 30
0.0
 40
0.18
 41
0.0
 46
0.0
 71
     5
 72
     1
  1
\A1;2°
 73
     1
 44
1.0
  0
POINT
  5
2D44
330
29E4
100
AcDbEntity
  8
DEFPOINTS
 62
     0
440
 16777216
100
AcDbPoint
 10
11.25171259534995
 20
11.32165193944231
 30
0.0
  0
POINT
  5
2D45
330
29E4
100
AcDbEntity
  8
DEFPOINTS
 62
     0
440
 16777216
100
AcDbPoint
 10
11.17090166306344
 20
15.95130714948163
 30
0.0
  0
POINT
  5
2D46
330
29E4
100
AcDbEntity
  8
DEFPOINTS
 62
     0
440
 16777216
100
AcDbPoint
 10
11.17090166306344
 20
15.95130714948163
 30
0.0
  0
POINT
  5
2D47
330
29E4
100
AcDbEntity
  8
DEFPOINTS
 62
     0
440
 16777216
100
AcDbPoint
 10
11.264333618335
 20
12.38328472855255
 30
0.0
  0
POINT
  5
2D48
330
29E4
100
AcDbEntity
  8
DEFPOINTS
 62
     0
440
 16777216
100
AcDbPoint
 10
11.17090166306345
 20
11.89141580717068
 30
0.0
  0
ENDBLK
  5
29F4
330
29E4
100
AcDbEntity
  8
0
100
AcDbBlockEnd
  0
BLOCK
  5
2A0E
330
2A02
100
AcDbEntity
  8
0
100
AcDbBlockBegin
  2
*D9
 70
     1
 10
0.0
 20
0.0
 30
0.0
  3
*D9
  1

  0
LINE
  5
2D26
330
2A02
100
AcDbEntity
  8
DIM
 62
     0
440
 16777216
370
    -2
100
AcDbLine
 10
18.69014389962422
 20
12.38982896562951
 30
0.0
 11
20.92871586772532
 21
12.38982896562951
 31
0.0
  0
LINE
  5
2D27
330
2A02
100
AcDbEntity
  8
DIM
 62
     0
440
 16777216
370
    -2
100
AcDbLine
 10
19.20958818723145
 20
12.13982896562949
 30
0.0
 11
20.92871586772532
 21
12.13982896562949
 31
0.0
  0
LINE
  5
2D28
330
2A02
100
AcDbEntity
  8
DIM
 62
     0
440
 16777216
370
    -2
100
AcDbLine
 10
20.74121586772532
 20
12.57732896562951
 30
0.0
 11
20.74121586772532
 21
12.76482896562951
 31
0.0
  0
LINE
  5
2D29
330
2A02
100
AcDbEntity
  8
DIM
 62
     0
440
 16777216
370
    -2
100
AcDbLine
 10
20.74121586772532
 20
11.95232896562949
 30
0.0
 11
20.74121586772532
 21
11.76482896562949
 31
0.0
  0
LINE
  5
2D2A
330
2A02
100
AcDbEntity
  8
DIM
 62
     0
440
 16777216
370
    -2
100
AcDbLine
 10
20.74121586772532
 20
11.76482896562949
 30
0.0
 11
20.55371586772531
 21
11.76482896562949
 31
0.0
  0
SOLID
  5
2D2B
330
2A02
100
AcDbEntity
  8
DIM
 62
     0
440
 16777216
100
AcDbTrace
 10
20.70996586772531
 20
12.57732896562951
 30
0.0
 11
20.77246586772532
 21
12.57732896562951
 31
0.0
 12
20.74121586772532
 22
12.38982896562951
 32
0.0
 13
20.74121586772532
 23
12.38982896562951
 33
0.0
  0
SOLID
  5
2D2C
330
2A02
100
AcDbEntity
  8
DIM
 62
     0
440
 16777216
100
AcDbTrace
 10
20.70996586772531
 20
11.95232896562949
 30
0.0
 11
20.77246586772532
 21
11.95232896562949
 31
0.0
 12
20.74121586772532
 22
12.13982896562949
 32
0.0
 13
20.74121586772532
 23
12.13982896562949
 33
0.0
  0
MTEXT
  5
2D2D
330
2A02
100
AcDbEntity
  8
DIM
 62
     0
440
 16777216
100
AcDbMText
 10
20.15621586772531
 20
11.76482896562949
 30
0.0
 40
0.18
 41
0.0
 46
0.0
 71
     5
 72
     1
  1
\A1;1/4
 73
     1
 44
1.0
  0
POINT
  5
2D2E
330
2A02
100
AcDbEntity
  8
DEFPOINTS
 62
     0
440
 16777216
100
AcDbPoint
 10
18.62764389962421
 20
12.38982896562951
 30
0.0
  0
POINT
  5
2D2F
330
2A02
100
AcDbEntity
  8
DEFPOINTS
 62
     0
440
 16777216
100
AcDbPoint
 10
19.14708818723145
 20
12.13982896562949
 30
0.0
  0
POINT
  5
2D30
330
2A02
100
AcDbEntity
  8
DEFPOINTS
 62
     0
440
 16777216
100
AcDbPoint
 10
20.74121586772532
 20
12.13982896562949
 30
0.0
  0
ENDBLK
  5
2A0F
330
2A02
100
AcDbEntity
  8
0
100
AcDbBlockEnd
  0
BLOCK
  5
2A1B
330
2A10
100
AcDbEntity
  8
0
100
AcDbBlockBegin
  2
*D10
 70
     1
 10
0.0
 20
0.0
 30
0.0
  3
*D10
  1

  0
LINE
  5
2C34
330
2A10
100
AcDbEntity
  8
DIM
 62
     0
440
 16777216
370
    -2
100
AcDbLine
 10
12.06904553889447
 20
35.23337541577253
 30
0.0
 11
5.747994250849983
 21
35.23337541577253
 31
0.0
  0
LINE
  5
2C35
330
2A10
100
AcDbEntity
  8
DIM
 62
     0
440
 16777216
370
    -2
100
AcDbLine
 10
12.06904553889444
 20
25.6718509960533
 30
0.0
 11
5.747994250849981
 21
25.6718509960533
 31
0.0
  0
LINE
  5
2C36
330
2A10
100
AcDbEntity
  8
DIM
 62
     0
440
 16777216
370
    -2
100
AcDbLine
 10
5.935494250849983
 20
35.04587541577253
 30
0.0
 11
5.935494250849982
 21
30.73011320591291
 31
0.0
  0
LINE
  5
2C37
330
2A10
100
AcDbEntity
  8
DIM
 62
     0
440
 16777216
370
    -2
100
AcDbLine
 10
5.935494250849981
 20
25.8593509960533
 30
0.0
 11
5.935494250849982
 21
30.17511320591291
 31
0.0
  0
SOLID
  5
2C38
330
2A10
100
AcDbEntity
  8
DIM
 62
     0
440
 16777216
100
AcDbTrace
 10
5.904244250849983
 20
35.04587541577253
 30
0.0
 11
5.966744250849983
 21
35.04587541577253
 31
0.0
 12
5.935494250849983
 22
35.23337541577253
 32
0.0
 13
5.935494250849983
 23
35.23337541577253
 33
0.0
  0
SOLID
  5
2C39
330
2A10
100
AcDbEntity
  8
DIM
 62
     0
440
 16777216
100
AcDbTrace
 10
5.904244250849981
 20
25.8593509960533
 30
0.0
 11
5.966744250849981
 21
25.8593509960533
 31
0.0
 12
5.935494250849981
 22
25.6718509960533
 32
0.0
 13
5.935494250849981
 23
25.6718509960533
 33
0.0
  0
MTEXT
  5
2C3A
330
2A10
100
AcDbEntity
  8
DIM
 62
     0
440
 16777216
100
AcDbMText
 10
5.935494250849977
 20
30.45261320591291
 30
0.0
 40
0.18
 41
0.0
 46
0.0
 71
     5
 72
     1
  1
\A1;9 9/16
 73
     1
 44
1.0
  0
POINT
  5
2C3B
330
2A10
100
AcDbEntity
  8
DEFPOINTS
 62
     0
440
 16777216
100
AcDbPoint
 10
12.13154553889447
 20
35.23337541577253
 30
0.0
  0
POINT
  5
2C3C
330
2A10
100
AcDbEntity
  8
DEFPOINTS
 62
     0
440
 16777216
100
AcDbPoint
 10
12.13154553889444
 20
25.6718509960533
 30
0.0
  0
POINT
  5
2C3D
330
2A10
100
AcDbEntity
  8
DEFPOINTS
 62
     0
440
 16777216
100
AcDbPoint
 10
5.935494250849981
 20
25.6718509960533
 30
0.0
  0
ENDBLK
  5
2A1C
330
2A10
100
AcDbEntity
  8
0
100
AcDbBlockEnd
  0
BLOCK
  5
2A28
330
2A1D
100
AcDbEntity
  8
0
100
AcDbBlockBegin
  2
*D11
 70
     1
 10
0.0
 20
0.0
 30
0.0
  3
*D11
  1

  0
LINE
  5
2B0E
330
2A1D
100
AcDbEntity
  8
DIM
 62
     0
440
 16777216
370
    -2
100
AcDbLine
 10
10.56680774875406
 20
34.2966132059129
 30
0.0
 11
10.56680774875406
 21
39.03391643263671
 31
0.0
  0
LINE
  5
2B0F
330
2A1D
100
AcDbEntity
  8
DIM
 62
     0
440
 16777216
370
    -2
100
AcDbLine
 10
19.94180774875407
 20
34.2966132059129
 30
0.0
 11
19.94180774875407
 21
39.03391643263671
 31
0.0
  0
LINE
  5
2B10
330
2A1D
100
AcDbEntity
  8
DIM
 62
     0
440
 16777216
370
    -2
100
AcDbLine
 10
10.75430774875406
 20
38.84641643263671
 30
0.0
 11
14.64680774875407
 21
38.84641643263671
 31
0.0
  0
LINE
  5
2B11
330
2A1D
100
AcDbEntity
  8
DIM
 62
     0
440
 16777216
370
    -2
100
AcDbLine
 10
19.75430774875407
 20
38.84641643263671
 30
0.0
 11
15.86180774875407
 21
38.84641643263671
 31
0.0
  0
SOLID
  5
2B12
330
2A1D
100
AcDbEntity
  8
DIM
 62
     0
440
 16777216
100
AcDbTrace
 10
10.75430774875406
 20
38.87766643263671
 30
0.0
 11
10.75430774875406
 21
38.81516643263671
 31
0.0
 12
10.56680774875406
 22
38.84641643263671
 32
0.0
 13
10.56680774875406
 23
38.84641643263671
 33
0.0
  0
SOLID
  5
2B13
330
2A1D
100
AcDbEntity
  8
DIM
 62
     0
440
 16777216
100
AcDbTrace
 10
19.75430774875407
 20
38.87766643263671
 30
0.0
 11
19.75430774875407
 21
38.81516643263671
 31
0.0
 12
19.94180774875407
 22
38.84641643263671
 32
0.0
 13
19.94180774875407
 23
38.84641643263671
 33
0.0
  0
MTEXT
  5
2B14
330
2A1D
100
AcDbEntity
  8
DIM
 62
     0
440
 16777216
100
AcDbMText
 10
15.25430774875407
 20
38.84641643263671
 30
0.0
 40
0.18
 41
0.0
 46
0.0
 71
     5
 72
     1
  1
\A1;9 3/8
 73
     1
 44
1.0
  0
POINT
  5
2B15
330
2A1D
100
AcDbEntity
  8
DEFPOINTS
 62
     0
440
 16777216
100
AcDbPoint
 10
10.56680774875406
 20
34.2341132059129
 30
0.0
  0
POINT
  5
2B16
330
2A1D
100
AcDbEntity
  8
DEFPOINTS
 62
     0
440
 16777216
100
AcDbPoint
 10
19.94180774875407
 20
34.2341132059129
 30
0.0
  0
POINT
  5
2B17
330
2A1D
100
AcDbEntity
  8
DEFPOINTS
 62
     0
440
 16777216
100
AcDbPoint
 10
19.94180774875407
 20
38.84641643263671
 30
0.0
  0
ENDBLK
  5
2A29
330
2A1D
100
AcDbEntity
  8
0
100
AcDbBlockEnd
  0
BLOCK
  5
2A35
330
2A2A
100
AcDbEntity
  8
0
100
AcDbBlockBegin
  2
*D12
 70
     1
 10
0.0
 20
0.0
 30
0.0
  3
*D12
  1

  0
LINE
  5
2C2A
330
2A2A
100
AcDbEntity
  8
DIM
 62
     0
440
 16777216
370
    -2
100
AcDbLine
 10
11.41030774875407
 20
35.14011320591289
 30
0.0
 11
7.926241514557118
 21
35.14011320591289
 31
0.0
  0
LINE
  5
2C2B
330
2A2A
100
AcDbEntity
  8
DIM
 62
     0
440
 16777216
370
    -2
100
AcDbLine
 10
11.41030774875407
 20
25.7651132059129
 30
0.0
 11
7.926241514557116
 21
25.76511320591291
 31
0.0
  0
LINE
  5
2C2C
330
2A2A
100
AcDbEntity
  8
DIM
 62
     0
440
 16777216
370
    -2
100
AcDbLine
 10
8.113741514557117
 20
34.95261320591289
 30
0.0
 11
8.113741514557117
 21
30.7301132059129
 31
0.0
  0
LINE
  5
2C2D
330
2A2A
100
AcDbEntity
  8
DIM
 62
     0
440
 16777216
370
    -2
100
AcDbLine
 10
8.113741514557116
 20
25.95261320591291
 30
0.0
 11
8.113741514557117
 21
30.17511320591289
 31
0.0
  0
SOLID
  5
2C2E
330
2A2A
100
AcDbEntity
  8
DIM
 62
     0
440
 16777216
100
AcDbTrace
 10
8.082491514557117
 20
34.95261320591289
 30
0.0
 11
8.144991514557117
 21
34.95261320591289
 31
0.0
 12
8.113741514557117
 22
35.14011320591289
 32
0.0
 13
8.113741514557117
 23
35.14011320591289
 33
0.0
  0
SOLID
  5
2C2F
330
2A2A
100
AcDbEntity
  8
DIM
 62
     0
440
 16777216
100
AcDbTrace
 10
8.082491514557116
 20
25.95261320591291
 30
0.0
 11
8.144991514557116
 21
25.95261320591291
 31
0.0
 12
8.113741514557116
 22
25.7651132059129
 32
0.0
 13
8.113741514557116
 23
25.7651132059129
 33
0.0
  0
MTEXT
  5
2C30
330
2A2A
100
AcDbEntity
  8
DIM
 62
     0
440
 16777216
100
AcDbMText
 10
8.113741514557112
 20
30.4526132059129
 30
0.0
 40
0.18
 41
0.0
 46
0.0
 71
     5
 72
     1
  1
\A1;9 3/8
 73
     1
 44
1.0
  0
POINT
  5
2C31
330
2A2A
100
AcDbEntity
  8
DEFPOINTS
 62
     0
440
 16777216
100
AcDbPoint
 10
11.47280774875407
 20
35.14011320591289
 30
0.0
  0
POINT
  5
2C32
330
2A2A
100
AcDbEntity
  8
DEFPOINTS
 62
     0
440
 16777216
100
AcDbPoint
 10
11.47280774875407
 20
25.7651132059129
 30
0.0
  0
POINT
  5
2C33
330
2A2A
100
AcDbEntity
  8
DEFPOINTS
 62
     0
440
 16777216
100
AcDbPoint
 10
8.113741514557116
 20
25.7651132059129
 30
0.0
  0
ENDBLK
  5
2A36
330
2A2A
100
AcDbEntity
  8
0
100
AcDbBlockEnd
  0
BLOCK
  5
2A4D
330
2A42
100
AcDbEntity
  8
0
100
AcDbBlockBegin
  2
*D13
 70
     1
 10
0.0
 20
0.0
 30
0.0
  3
*D13
  1

  0
LINE
  5
2B2A
330
2A42
100
AcDbEntity
  8
DIM
 62
     0
440
 16777216
370
    -2
100
AcDbLine
 10
12.25206995861367
 20
34.97557176251947
 30
0.0
 11
12.25206995861367
 21
37.46686854096033
 31
0.0
  0
LINE
  5
2B2B
330
2A42
100
AcDbEntity
  8
DIM
 62
     0
440
 16777216
370
    -2
100
AcDbLine
 10
18.25206995861369
 20
34.97557176251947
 30
0.0
 11
18.25206995861369
 21
37.46686854096033
 31
0.0
  0
LINE
  5
2B2C
330
2A42
100
AcDbEntity
  8
DIM
 62
     0
440
 16777216
370
    -2
100
AcDbLine
 10
12.43956995861367
 20
37.27936854096033
 30
0.0
 11
15.00456995861368
 21
37.27936854096033
 31
0.0
  0
LINE
  5
2B2D
330
2A42
100
AcDbEntity
  8
DIM
 62
     0
440
 16777216
370
    -2
100
AcDbLine
 10
18.06456995861369
 20
37.27936854096033
 30
0.0
 11
15.49956995861368
 21
37.27936854096033
 31
0.0
  0
SOLID
  5
2B2E
330
2A42
100
AcDbEntity
  8
DIM
 62
     0
440
 16777216
100
AcDbTrace
 10
12.43956995861367
 20
37.31061854096033
 30
0.0
 11
12.43956995861367
 21
37.24811854096033
 31
0.0
 12
12.25206995861367
 22
37.27936854096033
 32
0.0
 13
12.25206995861367
 23
37.27936854096033
 33
0.0
  0
SOLID
  5
2B2F
330
2A42
100
AcDbEntity
  8
DIM
 62
     0
440
 16777216
100
AcDbTrace
 10
18.06456995861369
 20
37.31061854096033
 30
0.0
 11
18.06456995861369
 21
37.24811854096033
 31
0.0
 12
18.25206995861369
 22
37.27936854096033
 32
0.0
 13
18.25206995861369
 23
37.27936854096033
 33
0.0
  0
MTEXT
  5
2B30
330
2A42
100
AcDbEntity
  8
DIM
 62
     0
440
 16777216
100
AcDbMText
 10
15.25206995861368
 20
37.27936854096033
 30
0.0
 40
0.18
 41
0.0
 46
0.0
 71
     5
 72
     1
  1
\A1;6
 73
     1
 44
1.0
  0
POINT
  5
2B31
330
2A42
100
AcDbEntity
  8
DEFPOINTS
 62
     0
440
 16777216
100
AcDbPoint
 10
12.25206995861367
 20
34.91307176251947
 30
0.0
  0
POINT
  5
2B32
330
2A42
100
AcDbEntity
  8
DEFPOINTS
 62
     0
440
 16777216
100
AcDbPoint
 10
18.25206995861369
 20
34.91307176251947
 30
0.0
  0
POINT
  5
2B33
330
2A42
100
AcDbEntity
  8
DEFPOINTS
 62
     0
440
 16777216
100
AcDbPoint
 10
18.25206995861369
 20
37.27936854096033
 30
0.0
  0
ENDBLK
  5
2A4E
330
2A42
100
AcDbEntity
  8
0
100
AcDbBlockEnd
  0
BLOCK
  5
2A5A
330
2A4F
100
AcDbEntity
  8
0
100
AcDbBlockBegin
  2
*D14
 70
     1
 10
0.0
 20
0.0
 30
0.0
  3
*D14
  1

  0
LINE
  5
2D1C
330
2A4F
100
AcDbEntity
  8
DIM
 62
     0
440
 16777216
370
    -2
100
AcDbLine
 10
48.80222846398114
 20
12.32405684709101
 30
0.0
 11
48.80222846398114
 21
9.485498904361941
 31
0.0
  0
LINE
  5
2D1D
330
2A4F
100
AcDbEntity
  8
DIM
 62
     0
440
 16777216
370
    -2
100
AcDbLine
 10
56.52873303287761
 20
12.32405684709101
 30
0.0
 11
56.52873303287761
 21
9.485498904361941
 31
0.0
  0
LINE
  5
2D1E
330
2A4F
100
AcDbEntity
  8
DIM
 62
     0
440
 16777216
370
    -2
100
AcDbLine
 10
48.98972846398113
 20
9.672998904361941
 30
0.0
 11
51.87798074842937
 21
9.672998904361941
 31
0.0
  0
LINE
  5
2D1F
330
2A4F
100
AcDbEntity
  8
DIM
 62
     0
440
 16777216
370
    -2
100
AcDbLine
 10
56.34123303287761
 20
9.672998904361941
 30
0.0
 11
53.45298074842937
 21
9.672998904361941
 31
0.0
  0
SOLID
  5
2D20
330
2A4F
100
AcDbEntity
  8
DIM
 62
     0
440
 16777216
100
AcDbTrace
 10
48.98972846398113
 20
9.704248904361941
 30
0.0
 11
48.98972846398113
 21
9.641748904361941
 31
0.0
 12
48.80222846398114
 22
9.672998904361941
 32
0.0
 13
48.80222846398114
 23
9.672998904361941
 33
0.0
  0
SOLID
  5
2D21
330
2A4F
100
AcDbEntity
  8
DIM
 62
     0
440
 16777216
100
AcDbTrace
 10
56.34123303287761
 20
9.704248904361941
 30
0.0
 11
56.34123303287761
 21
9.641748904361941
 31
0.0
 12
56.52873303287761
 22
9.672998904361941
 32
0.0
 13
56.52873303287761
 23
9.672998904361941
 33
0.0
  0
MTEXT
  5
2D22
330
2A4F
100
AcDbEntity
  8
DIM
 62
     0
440
 16777216
100
AcDbMText
 10
52.66548074842937
 20
9.672998904361941
 30
0.0
 40
0.18
 41
0.0
 46
0.0
 71
     5
 72
     1
  1
\A1;7 23/32
 73
     1
 44
1.0
  0
POINT
  5
2D23
330
2A4F
100
AcDbEntity
  8
DEFPOINTS
 62
     0
440
 16777216
100
AcDbPoint
 10
48.80222846398114
 20
12.38655684709101
 30
0.0
  0
POINT
  5
2D24
330
2A4F
100
AcDbEntity
  8
DEFPOINTS
 62
     0
440
 16777216
100
AcDbPoint
 10
56.52873303287761
 20
12.38655684709101
 30
0.0
  0
POINT
  5
2D25
330
2A4F
100
AcDbEntity
  8
DEFPOINTS
 62
     0
440
 16777216
100
AcDbPoint
 10
56.52873303287761
 20
9.672998904361941
 30
0.0
  0
ENDBLK
  5
2A5B
330
2A4F
100
AcDbEntity
  8
0
100
AcDbBlockEnd
  0
BLOCK
  5
2A67
330
2A5C
100
AcDbEntity
  8
0
100
AcDbBlockBegin
  2
*D15
 70
     1
 10
0.0
 20
0.0
 30
0.0
  3
*D15
  1

  0
LINE
  5
2D12
330
2A5C
100
AcDbEntity
  8
DIM
 62
     0
440
 16777216
370
    -2
100
AcDbLine
 10
49.5404807484294
 20
12.32732896562953
 30
0.0
 11
49.5404807484294
 21
10.82519813907212
 31
0.0
  0
LINE
  5
2D13
330
2A5C
100
AcDbEntity
  8
DIM
 62
     0
440
 16777216
370
    -2
100
AcDbLine
 10
55.79048074842937
 20
12.32732896562953
 30
0.0
 11
55.79048074842937
 21
10.82519813907212
 31
0.0
  0
LINE
  5
2D14
330
2A5C
100
AcDbEntity
  8
DIM
 62
     0
440
 16777216
370
    -2
100
AcDbLine
 10
49.7279807484294
 20
11.01269813907212
 30
0.0
 11
52.08798074842938
 21
11.01269813907212
 31
0.0
  0
LINE
  5
2D15
330
2A5C
100
AcDbEntity
  8
DIM
 62
     0
440
 16777216
370
    -2
100
AcDbLine
 10
55.60298074842937
 20
11.01269813907212
 30
0.0
 11
53.24298074842939
 21
11.01269813907212
 31
0.0
  0
SOLID
  5
2D16
330
2A5C
100
AcDbEntity
  8
DIM
 62
     0
440
 16777216
100
AcDbTrace
 10
49.7279807484294
 20
11.04394813907212
 30
0.0
 11
49.7279807484294
 21
10.98144813907212
 31
0.0
 12
49.5404807484294
 22
11.01269813907212
 32
0.0
 13
49.5404807484294
 23
11.01269813907212
 33
0.0
  0
SOLID
  5
2D17
330
2A5C
100
AcDbEntity
  8
DIM
 62
     0
440
 16777216
100
AcDbTrace
 10
55.60298074842937
 20
11.04394813907212
 30
0.0
 11
55.60298074842937
 21
10.98144813907212
 31
0.0
 12
55.79048074842937
 22
11.01269813907212
 32
0.0
 13
55.79048074842937
 23
11.01269813907212
 33
0.0
  0
MTEXT
  5
2D18
330
2A5C
100
AcDbEntity
  8
DIM
 62
     0
440
 16777216
100
AcDbMText
 10
52.66548074842939
 20
11.01269813907212
 30
0.0
 40
0.18
 41
0.0
 46
0.0
 71
     5
 72
     1
  1
\A1;6 1/4
 73
     1
 44
1.0
  0
POINT
  5
2D19
330
2A5C
100
AcDbEntity
  8
DEFPOINTS
 62
     0
440
 16777216
100
AcDbPoint
 10
49.5404807484294
 20
12.38982896562953
 30
0.0
  0
POINT
  5
2D1A
330
2A5C
100
AcDbEntity
  8
DEFPOINTS
 62
     0
440
 16777216
100
AcDbPoint
 10
55.79048074842937
 20
12.38982896562953
 30
0.0
  0
POINT
  5
2D1B
330
2A5C
100
AcDbEntity
  8
DEFPOINTS
 62
     0
440
 16777216
100
AcDbPoint
 10
55.79048074842937
 20
11.01269813907212
 30
0.0
  0
ENDBLK
  5
2A68
330
2A5C
100
AcDbEntity
  8
0
100
AcDbBlockEnd
  0
BLOCK
  5
2A74
330
2A69
100
AcDbEntity
  8
0
100
AcDbBlockBegin
  2
*D16
 70
     1
 10
0.0
 20
0.0
 30
0.0
  3
*D16
  1

  0
LINE
  5
2D08
330
2A69
100
AcDbEntity
  8
DIM
 62
     0
440
 16777216
370
    -2
100
AcDbLine
 10
48.68600821838239
 20
16.88732896562954
 30
0.0
 11
48.68600821838239
 21
18.7864640271188
 31
0.0
  0
LINE
  5
2D09
330
2A69
100
AcDbEntity
  8
DIM
 62
     0
440
 16777216
370
    -2
100
AcDbLine
 10
56.64495327847638
 20
16.88732896562954
 30
0.0
 11
56.64495327847638
 21
18.7864640271188
 31
0.0
  0
LINE
  5
2D0A
330
2A69
100
AcDbEntity
  8
DIM
 62
     0
440
 16777216
370
    -2
100
AcDbLine
 10
48.87350821838239
 20
18.5989640271188
 30
0.0
 11
51.90798074842938
 21
18.5989640271188
 31
0.0
  0
LINE
  5
2D0B
330
2A69
100
AcDbEntity
  8
DIM
 62
     0
440
 16777216
370
    -2
100
AcDbLine
 10
56.45745327847638
 20
18.5989640271188
 30
0.0
 11
53.42298074842939
 21
18.5989640271188
 31
0.0
  0
SOLID
  5
2D0C
330
2A69
100
AcDbEntity
  8
DIM
 62
     0
440
 16777216
100
AcDbTrace
 10
48.87350821838239
 20
18.6302140271188
 30
0.0
 11
48.87350821838239
 21
18.5677140271188
 31
0.0
 12
48.68600821838239
 22
18.5989640271188
 32
0.0
 13
48.68600821838239
 23
18.5989640271188
 33
0.0
  0
SOLID
  5
2D0D
330
2A69
100
AcDbEntity
  8
DIM
 62
     0
440
 16777216
100
AcDbTrace
 10
56.45745327847638
 20
18.6302140271188
 30
0.0
 11
56.45745327847638
 21
18.5677140271188
 31
0.0
 12
56.64495327847638
 22
18.5989640271188
 32
0.0
 13
56.64495327847638
 23
18.5989640271188
 33
0.0
  0
MTEXT
  5
2D0E
330
2A69
100
AcDbEntity
  8
DIM
 62
     0
440
 16777216
100
AcDbMText
 10
52.66548074842939
 20
18.5989640271188
 30
0.0
 40
0.18
 41
0.0
 46
0.0
 71
     5
 72
     1
  1
\A1;7 31/32
 73
     1
 44
1.0
  0
POINT
  5
2D0F
330
2A69
100
AcDbEntity
  8
DEFPOINTS
 62
     0
440
 16777216
100
AcDbPoint
 10
48.68600821838239
 20
16.82482896562954
 30
0.0
  0
POINT
  5
2D10
330
2A69
100
AcDbEntity
  8
DEFPOINTS
 62
     0
440
 16777216
100
AcDbPoint
 10
56.64495327847638
 20
16.82482896562954
 30
0.0
  0
POINT
  5
2D11
330
2A69
100
AcDbEntity
  8
DEFPOINTS
 62
     0
440
 16777216
100
AcDbPoint
 10
56.64495327847638
 20
18.5989640271188
 30
0.0
  0
ENDBLK
  5
2A75
330
2A69
100
AcDbEntity
  8
0
100
AcDbBlockEnd
  0
BLOCK
  5
2A82
330
2A76
100
AcDbEntity
  8
0
100
AcDbBlockBegin
  2
*D17
 70
     1
 10
0.0
 20
0.0
 30
0.0
  3
*D17
  1

  0
LINE
  5
2CFD
330
2A76
100
AcDbEntity
  8
DIM
 62
     0
440
 16777216
370
    -2
100
AcDbLine
 10
50.14190572120775
 20
16.902212209131
 30
0.0
 11
50.46330817036884
 21
16.902212209131
 31
0.0
  0
LINE
  5
2CFE
330
2A76
100
AcDbEntity
  8
DIM
 62
     0
440
 16777216
370
    -2
100
AcDbLine
 10
50.09012902620774
 20
17.02721220913099
 30
0.0
 11
50.46330817036884
 21
17.02721220913099
 31
0.0
  0
LINE
  5
2CFF
330
2A76
100
AcDbEntity
  8
DIM
 62
     0
440
 16777216
370
    -2
100
AcDbLine
 10
50.27580817036884
 20
16.714712209131
 30
0.0
 11
50.27580817036884
 21
16.527212209131
 31
0.0
  0
LINE
  5
2D00
330
2A76
100
AcDbEntity
  8
DIM
 62
     0
440
 16777216
370
    -2
100
AcDbLine
 10
50.27580817036884
 20
17.21471220913099
 30
0.0
 11
50.27580817036884
 21
17.40221220913099
 31
0.0
  0
LINE
  5
2D01
330
2A76
100
AcDbEntity
  8
DIM
 62
     0
440
 16777216
370
    -2
100
AcDbLine
 10
50.27580817036884
 20
17.40221220913099
 30
0.0
 11
50.46330817036884
 21
17.40221220913099
 31
0.0
  0
SOLID
  5
2D02
330
2A76
100
AcDbEntity
  8
DIM
 62
     0
440
 16777216
100
AcDbTrace
 10
50.24455817036884
 20
16.714712209131
 30
0.0
 11
50.30705817036884
 21
16.714712209131
 31
0.0
 12
50.27580817036884
 22
16.902212209131
 32
0.0
 13
50.27580817036884
 23
16.902212209131
 33
0.0
  0
SOLID
  5
2D03
330
2A76
100
AcDbEntity
  8
DIM
 62
     0
440
 16777216
100
AcDbTrace
 10
50.24455817036884
 20
17.21471220913099
 30
0.0
 11
50.30705817036884
 21
17.21471220913099
 31
0.0
 12
50.27580817036884
 22
17.02721220913099
 32
0.0
 13
50.27580817036884
 23
17.02721220913099
 33
0.0
  0
MTEXT
  5
2D04
330
2A76
100
AcDbEntity
  8
DIM
 62
     0
440
 16777216
100
AcDbMText
 10
50.96580817036883
 20
17.402212209131
 30
0.0
 40
0.18
 41
0.0
 46
0.0
 71
     5
 72
     1
  1
\A1;0.125
 73
     1
 44
1.0
  0
POINT
  5
2D05
330
2A76
100
AcDbEntity
  8
DEFPOINTS
 62
     0
440
 16777216
100
AcDbPoint
 10
50.07940572120776
 20
16.902212209131
 30
0.0
  0
POINT
  5
2D06
330
2A76
100
AcDbEntity
  8
DEFPOINTS
 62
     0
440
 16777216
100
AcDbPoint
 10
50.02762902620774
 20
17.02721220913099
 30
0.0
  0
POINT
  5
2D07
330
2A76
100
AcDbEntity
  8
DEFPOINTS
 62
     0
440
 16777216
100
AcDbPoint
 10
50.27580817036884
 20
17.02721220913099
 30
0.0
  0
ENDBLK
  5
2A83
330
2A76
100
AcDbEntity
  8
0
100
AcDbBlockEnd
  0
BLOCK
  5
2A90
330
2A84
100
AcDbEntity
  8
0
100
AcDbBlockBegin
  2
*D18
 70
     1
 10
0.0
 20
0.0
 30
0.0
  3
*D18
  1

  0
LINE
  5
2CF2
330
2A84
100
AcDbEntity
  8
DIM
 62
     0
440
 16777216
370
    -2
100
AcDbLine
 10
48.86468562960309
 20
12.2648289656295
 30
0.0
 11
47.6890323332139
 21
12.2648289656295
 31
0.0
  0
LINE
  5
2CF3
330
2A84
100
AcDbEntity
  8
DIM
 62
     0
440
 16777216
370
    -2
100
AcDbLine
 10
48.86046936024907
 20
12.13982896562952
 30
0.0
 11
47.6890323332139
 21
12.13982896562952
 31
0.0
  0
LINE
  5
2CF4
330
2A84
100
AcDbEntity
  8
DIM
 62
     0
440
 16777216
370
    -2
100
AcDbLine
 10
47.8765323332139
 20
12.4523289656295
 30
0.0
 11
47.8765323332139
 21
12.6398289656295
 31
0.0
  0
LINE
  5
2CF5
330
2A84
100
AcDbEntity
  8
DIM
 62
     0
440
 16777216
370
    -2
100
AcDbLine
 10
47.8765323332139
 20
11.95232896562952
 30
0.0
 11
47.8765323332139
 21
11.76482896562952
 31
0.0
  0
LINE
  5
2CF6
330
2A84
100
AcDbEntity
  8
DIM
 62
     0
440
 16777216
370
    -2
100
AcDbLine
 10
47.8765323332139
 20
11.76482896562952
 30
0.0
 11
47.6890323332139
 21
11.76482896562952
 31
0.0
  0
SOLID
  5
2CF7
330
2A84
100
AcDbEntity
  8
DIM
 62
     0
440
 16777216
100
AcDbTrace
 10
47.8452823332139
 20
12.4523289656295
 30
0.0
 11
47.9077823332139
 21
12.4523289656295
 31
0.0
 12
47.8765323332139
 22
12.2648289656295
 32
0.0
 13
47.8765323332139
 23
12.2648289656295
 33
0.0
  0
SOLID
  5
2CF8
330
2A84
100
AcDbEntity
  8
DIM
 62
     0
440
 16777216
100
AcDbTrace
 10
47.8452823332139
 20
11.95232896562952
 30
0.0
 11
47.9077823332139
 21
11.95232896562952
 31
0.0
 12
47.8765323332139
 22
12.13982896562952
 32
0.0
 13
47.8765323332139
 23
12.13982896562952
 33
0.0
  0
MTEXT
  5
2CF9
330
2A84
100
AcDbEntity
  8
DIM
 62
     0
440
 16777216
100
AcDbMText
 10
46.7965323332139
 20
11.76482896562952
 30
0.0
 40
0.18
 41
0.0
 46
0.0
 71
     5
 72
     1
  1
\A1;0.125 TYP.
 73
     1
 44
1.0
  0
POINT
  5
2CFA
330
2A84
100
AcDbEntity
  8
DEFPOINTS
 62
     0
440
 16777216
100
AcDbPoint
 10
48.92718562960308
 20
12.2648289656295
 30
0.0
  0
POINT
  5
2CFB
330
2A84
100
AcDbEntity
  8
DEFPOINTS
 62
     0
440
 16777216
100
AcDbPoint
 10
48.92296936024907
 20
12.13982896562952
 30
0.0
  0
POINT
  5
2CFC
330
2A84
100
AcDbEntity
  8
DEFPOINTS
 62
     0
440
 16777216
100
AcDbPoint
 10
47.8765323332139
 20
12.13982896562952
 30
0.0
  0
ENDBLK
  5
2A91
330
2A84
100
AcDbEntity
  8
0
100
AcDbBlockEnd
  0
BLOCK
  5
2A9D
330
2A92
100
AcDbEntity
  8
0
100
AcDbBlockBegin
  2
*D19
 70
     1
 10
0.0
 20
0.0
 30
0.0
  3
*D19
  1

  0
LINE
  5
2CE8
330
2A92
100
AcDbEntity
  8
DIM
 62
     0
440
 16777216
370
    -2
100
AcDbLine
 10
56.75586206759169
 20
12.76482896562974
 30
0.0
 11
59.0336434581872
 21
12.76482896562974
 31
0.0
  0
LINE
  5
2CE9
330
2A92
100
AcDbEntity
  8
DIM
 62
     0
440
 16777216
370
    -2
100
AcDbLine
 10
57.14815880149595
 20
16.82482896562951
 30
0.0
 11
59.03364345818721
 21
16.82482896562951
 31
0.0
  0
LINE
  5
2CEA
330
2A92
100
AcDbEntity
  8
DIM
 62
     0
440
 16777216
370
    -2
100
AcDbLine
 10
58.8461434581872
 20
12.95232896562974
 30
0.0
 11
58.8461434581872
 21
14.51732896562963
 31
0.0
  0
LINE
  5
2CEB
330
2A92
100
AcDbEntity
  8
DIM
 62
     0
440
 16777216
370
    -2
100
AcDbLine
 10
58.84614345818721
 20
16.63732896562951
 30
0.0
 11
58.8461434581872
 21
15.07232896562963
 31
0.0
  0
SOLID
  5
2CEC
330
2A92
100
AcDbEntity
  8
DIM
 62
     0
440
 16777216
100
AcDbTrace
 10
58.8148934581872
 20
12.95232896562974
 30
0.0
 11
58.8773934581872
 21
12.95232896562974
 31
0.0
 12
58.8461434581872
 22
12.76482896562974
 32
0.0
 13
58.8461434581872
 23
12.76482896562974
 33
0.0
  0
SOLID
  5
2CED
330
2A92
100
AcDbEntity
  8
DIM
 62
     0
440
 16777216
100
AcDbTrace
 10
58.81489345818721
 20
16.63732896562951
 30
0.0
 11
58.87739345818721
 21
16.63732896562951
 31
0.0
 12
58.84614345818721
 22
16.82482896562951
 32
0.0
 13
58.84614345818721
 23
16.82482896562951
 33
0.0
  0
MTEXT
  5
2CEE
330
2A92
100
AcDbEntity
  8
DIM
 62
     0
440
 16777216
100
AcDbMText
 10
58.8461434581872
 20
14.79482896562964
 30
0.0
 40
0.18
 41
0.0
 46
0.0
 71
     5
 72
     1
  1
\A1;4 1/16
 73
     1
 44
1.0
  0
POINT
  5
2CEF
330
2A92
100
AcDbEntity
  8
DEFPOINTS
 62
     0
440
 16777216
100
AcDbPoint
 10
56.69336206759169
 20
12.76482896562974
 30
0.0
  0
POINT
  5
2CF0
330
2A92
100
AcDbEntity
  8
DEFPOINTS
 62
     0
440
 16777216
100
AcDbPoint
 10
57.08565880149595
 20
16.82482896562951
 30
0.0
  0
POINT
  5
2CF1
330
2A92
100
AcDbEntity
  8
DEFPOINTS
 62
     0
440
 16777216
100
AcDbPoint
 10
58.84614345818721
 20
16.82482896562951
 30
0.0
  0
ENDBLK
  5
2A9E
330
2A92
100
AcDbEntity
  8
0
100
AcDbBlockEnd
  0
BLOCK
  5
2AAB
330
2A9F
100
AcDbEntity
  8
0
100
AcDbBlockBegin
  2
*D20
 70
     1
 10
0.0
 20
0.0
 30
0.0
  3
*D20
  1

  0
LINE
  5
2CDD
330
2A9F
100
AcDbEntity
  8
DIM
 62
     0
440
 16777216
370
    -2
100
AcDbLine
 10
56.59961206759169
 20
12.76482896562974
 30
0.0
 11
59.03364345818721
 21
12.76482896562974
 31
0.0
  0
LINE
  5
2CDE
330
2A9F
100
AcDbEntity
  8
DIM
 62
     0
440
 16777216
370
    -2
100
AcDbLine
 10
56.4698934269617
 20
12.2648289656295
 30
0.0
 11
59.03364345818721
 21
12.2648289656295
 31
0.0
  0
LINE
  5
2CDF
330
2A9F
100
AcDbEntity
  8
DIM
 62
     0
440
 16777216
370
    -2
100
AcDbLine
 10
58.84614345818721
 20
12.95232896562974
 30
0.0
 11
58.84614345818721
 21
13.13982896562974
 31
0.0
  0
LINE
  5
2CE0
330
2A9F
100
AcDbEntity
  8
DIM
 62
     0
440
 16777216
370
    -2
100
AcDbLine
 10
58.84614345818721
 20
12.0773289656295
 30
0.0
 11
58.84614345818721
 21
11.8898289656295
 31
0.0
  0
LINE
  5
2CE1
330
2A9F
100
AcDbEntity
  8
DIM
 62
     0
440
 16777216
370
    -2
100
AcDbLine
 10
58.84614345818721
 20
11.8898289656295
 30
0.0
 11
58.65864345818721
 21
11.8898289656295
 31
0.0
  0
SOLID
  5
2CE2
330
2A9F
100
AcDbEntity
  8
DIM
 62
     0
440
 16777216
100
AcDbTrace
 10
58.81489345818721
 20
12.95232896562974
 30
0.0
 11
58.87739345818721
 21
12.95232896562974
 31
0.0
 12
58.84614345818721
 22
12.76482896562974
 32
0.0
 13
58.84614345818721
 23
12.76482896562974
 33
0.0
  0
SOLID
  5
2CE3
330
2A9F
100
AcDbEntity
  8
DIM
 62
     0
440
 16777216
100
AcDbTrace
 10
58.81489345818721
 20
12.0773289656295
 30
0.0
 11
58.87739345818721
 21
12.0773289656295
 31
0.0
 12
58.84614345818721
 22
12.2648289656295
 32
0.0
 13
58.84614345818721
 23
12.2648289656295
 33
0.0
  0
MTEXT
  5
2CE4
330
2A9F
100
AcDbEntity
  8
DIM
 62
     0
440
 16777216
100
AcDbMText
 10
58.2611434581872
 20
11.88982896562951
 30
0.0
 40
0.18
 41
0.0
 46
0.0
 71
     5
 72
     1
  1
\A1;1/2
 73
     1
 44
1.0
  0
POINT
  5
2CE5
330
2A9F
100
AcDbEntity
  8
DEFPOINTS
 62
     0
440
 16777216
100
AcDbPoint
 10
56.53711206759169
 20
12.76482896562974
 30
0.0
  0
POINT
  5
2CE6
330
2A9F
100
AcDbEntity
  8
DEFPOINTS
 62
     0
440
 16777216
100
AcDbPoint
 10
56.4073934269617
 20
12.2648289656295
 30
0.0
  0
POINT
  5
2CE7
330
2A9F
100
AcDbEntity
  8
DEFPOINTS
 62
     0
440
 16777216
100
AcDbPoint
 10
58.84614345818721
 20
12.2648289656295
 30
0.0
  0
ENDBLK
  5
2AAC
330
2A9F
100
AcDbEntity
  8
0
100
AcDbBlockEnd
  0
BLOCK
  5
2AB8
330
2AAD
100
AcDbEntity
  8
0
100
AcDbBlockBegin
  2
*D21
 70
     1
 10
0.0
 20
0.0
 30
0.0
  3
*D21
  1

  0
LINE
  5
2B7D
330
2AAD
100
AcDbEntity
  8
DIM
 62
     0
440
 16777216
370
    -2
100
AcDbLine
 10
50.26030410969543
 20
26.47238762563215
 30
0.0
 11
47.53430748351155
 21
26.47238762563215
 31
0.0
  0
LINE
  5
2B7E
330
2AAD
100
AcDbEntity
  8
DIM
 62
     0
440
 16777216
370
    -2
100
AcDbLine
 10
50.26030410969545
 20
34.43188762563216
 30
0.0
 11
47.53430748351155
 21
34.43188762563217
 31
0.0
  0
LINE
  5
2B7F
330
2AAD
100
AcDbEntity
  8
DIM
 62
     0
440
 16777216
370
    -2
100
AcDbLine
 10
47.72180748351156
 20
26.65988762563215
 30
0.0
 11
47.72180748351156
 21
30.17463762563216
 31
0.0
  0
LINE
  5
2B80
330
2AAD
100
AcDbEntity
  8
DIM
 62
     0
440
 16777216
370
    -2
100
AcDbLine
 10
47.72180748351156
 20
34.24438762563216
 30
0.0
 11
47.72180748351156
 21
30.72963762563216
 31
0.0
  0
SOLID
  5
2B81
330
2AAD
100
AcDbEntity
  8
DIM
 62
     0
440
 16777216
100
AcDbTrace
 10
47.69055748351155
 20
26.65988762563215
 30
0.0
 11
47.75305748351156
 21
26.65988762563215
 31
0.0
 12
47.72180748351156
 22
26.47238762563215
 32
0.0
 13
47.72180748351156
 23
26.47238762563215
 33
0.0
  0
SOLID
  5
2B82
330
2AAD
100
AcDbEntity
  8
DIM
 62
     0
440
 16777216
100
AcDbTrace
 10
47.69055748351155
 20
34.24438762563216
 30
0.0
 11
47.75305748351156
 21
34.24438762563216
 31
0.0
 12
47.72180748351156
 22
34.43188762563217
 32
0.0
 13
47.72180748351156
 23
34.43188762563217
 33
0.0
  0
MTEXT
  5
2B83
330
2AAD
100
AcDbEntity
  8
DIM
 62
     0
440
 16777216
100
AcDbMText
 10
47.72180748351155
 20
30.45213762563217
 30
0.0
 40
0.18
 41
0.0
 46
0.0
 71
     5
 72
     1
  1
\A1;7 31/32
 73
     1
 44
1.0
  0
POINT
  5
2B84
330
2AAD
100
AcDbEntity
  8
DEFPOINTS
 62
     0
440
 16777216
100
AcDbPoint
 10
50.32280410969542
 20
26.47238762563215
 30
0.0
  0
POINT
  5
2B85
330
2AAD
100
AcDbEntity
  8
DEFPOINTS
 62
     0
440
 16777216
100
AcDbPoint
 10
50.32280410969545
 20
34.43188762563216
 30
0.0
  0
POINT
  5
2B86
330
2AAD
100
AcDbEntity
  8
DEFPOINTS
 62
     0
440
 16777216
100
AcDbPoint
 10
47.72180748351156
 20
34.43188762563217
 30
0.0
  0
ENDBLK
  5
2AB9
330
2AAD
100
AcDbEntity
  8
0
100
AcDbBlockEnd
  0
BLOCK
  5
2AC5
330
2ABA
100
AcDbEntity
  8
0
100
AcDbBlockBegin
  2
*D22
 70
     1
 10
0.0
 20
0.0
 30
0.0
  3
*D22
  1

  0
LINE
  5
2C3E
330
2ABA
100
AcDbEntity
  8
DIM
 62
     0
440
 16777216
370
    -2
100
AcDbLine
 10
36.29055635097183
 20
34.81155955265986
 30
0.0
 11
38.38422063430407
 21
34.81155955265986
 31
0.0
  0
LINE
  5
2C3F
330
2ABA
100
AcDbEntity
  8
DIM
 62
     0
440
 16777216
370
    -2
100
AcDbLine
 10
36.29055635097183
 20
26.06155955265986
 30
0.0
 11
38.38422063430407
 21
26.06155955265986
 31
0.0
  0
LINE
  5
2C40
330
2ABA
100
AcDbEntity
  8
DIM
 62
     0
440
 16777216
370
    -2
100
AcDbLine
 10
38.19672063430407
 20
34.62405955265987
 30
0.0
 11
38.19672063430407
 21
30.71405955265987
 31
0.0
  0
LINE
  5
2C41
330
2ABA
100
AcDbEntity
  8
DIM
 62
     0
440
 16777216
370
    -2
100
AcDbLine
 10
38.19672063430407
 20
26.24905955265987
 30
0.0
 11
38.19672063430407
 21
30.15905955265987
 31
0.0
  0
SOLID
  5
2C42
330
2ABA
100
AcDbEntity
  8
DIM
 62
     0
440
 16777216
100
AcDbTrace
 10
38.16547063430407
 20
34.62405955265987
 30
0.0
 11
38.22797063430407
 21
34.62405955265987
 31
0.0
 12
38.19672063430407
 22
34.81155955265986
 32
0.0
 13
38.19672063430407
 23
34.81155955265986
 33
0.0
  0
SOLID
  5
2C43
330
2ABA
100
AcDbEntity
  8
DIM
 62
     0
440
 16777216
100
AcDbTrace
 10
38.16547063430407
 20
26.24905955265987
 30
0.0
 11
38.22797063430407
 21
26.24905955265987
 31
0.0
 12
38.19672063430407
 22
26.06155955265986
 32
0.0
 13
38.19672063430407
 23
26.06155955265986
 33
0.0
  0
MTEXT
  5
2C44
330
2ABA
100
AcDbEntity
  8
DIM
 62
     0
440
 16777216
100
AcDbMText
 10
38.19672063430406
 20
30.43655955265987
 30
0.0
 40
0.18
 41
0.0
 46
0.0
 71
     5
 72
     1
  1
\A1;8 3/4
 73
     1
 44
1.0
  0
POINT
  5
2C45
330
2ABA
100
AcDbEntity
  8
DEFPOINTS
 62
     0
440
 16777216
100
AcDbPoint
 10
36.22805635097183
 20
34.81155955265986
 30
0.0
  0
POINT
  5
2C46
330
2ABA
100
AcDbEntity
  8
DEFPOINTS
 62
     0
440
 16777216
100
AcDbPoint
 10
36.22805635097183
 20
26.06155955265986
 30
0.0
  0
POINT
  5
2C47
330
2ABA
100
AcDbEntity
  8
DEFPOINTS
 62
     0
440
 16777216
100
AcDbPoint
 10
38.19672063430407
 20
26.06155955265986
 30
0.0
  0
ENDBLK
  5
2AC6
330
2ABA
100
AcDbEntity
  8
0
100
AcDbBlockEnd
  0
BLOCK
  5
2AD2
330
2AC7
100
AcDbEntity
  8
0
100
AcDbBlockBegin
  2
*D23
 70
     1
 10
0.0
 20
0.0
 30
0.0
  3
*D23
  1

  0
LINE
  5
2C48
330
2AC7
100
AcDbEntity
  8
DIM
 62
     0
440
 16777216
370
    -2
100
AcDbLine
 10
54.82357622823387
 20
26.58860787123091
 30
0.0
 11
59.13184886652625
 21
26.5886078712309
 31
0.0
  0
LINE
  5
2C49
330
2AC7
100
AcDbEntity
  8
DIM
 62
     0
440
 16777216
370
    -2
100
AcDbLine
 10
54.82357622823393
 20
34.3156673800334
 30
0.0
 11
59.13184886652625
 21
34.3156673800334
 31
0.0
  0
LINE
  5
2C4A
330
2AC7
100
AcDbEntity
  8
DIM
 62
     0
440
 16777216
370
    -2
100
AcDbLine
 10
58.94434886652625
 20
26.7761078712309
 30
0.0
 11
58.94434886652625
 21
30.17463762563216
 31
0.0
  0
LINE
  5
2C4B
330
2AC7
100
AcDbEntity
  8
DIM
 62
     0
440
 16777216
370
    -2
100
AcDbLine
 10
58.94434886652625
 20
34.1281673800334
 30
0.0
 11
58.94434886652625
 21
30.72963762563216
 31
0.0
  0
SOLID
  5
2C4C
330
2AC7
100
AcDbEntity
  8
DIM
 62
     0
440
 16777216
100
AcDbTrace
 10
58.91309886652624
 20
26.7761078712309
 30
0.0
 11
58.97559886652625
 21
26.7761078712309
 31
0.0
 12
58.94434886652625
 22
26.5886078712309
 32
0.0
 13
58.94434886652625
 23
26.5886078712309
 33
0.0
  0
SOLID
  5
2C4D
330
2AC7
100
AcDbEntity
  8
DIM
 62
     0
440
 16777216
100
AcDbTrace
 10
58.91309886652624
 20
34.1281673800334
 30
0.0
 11
58.97559886652625
 21
34.1281673800334
 31
0.0
 12
58.94434886652625
 22
34.3156673800334
 32
0.0
 13
58.94434886652625
 23
34.3156673800334
 33
0.0
  0
MTEXT
  5
2C4E
330
2AC7
100
AcDbEntity
  8
DIM
 62
     0
440
 16777216
100
AcDbMText
 10
58.94434886652624
 20
30.45213762563217
 30
0.0
 40
0.18
 41
0.0
 46
0.0
 71
     5
 72
     1
  1
\A1;7 23/32
 73
     1
 44
1.0
  0
POINT
  5
2C4F
330
2AC7
100
AcDbEntity
  8
DEFPOINTS
 62
     0
440
 16777216
100
AcDbPoint
 10
54.76107622823388
 20
26.58860787123091
 30
0.0
  0
POINT
  5
2C50
330
2AC7
100
AcDbEntity
  8
DEFPOINTS
 62
     0
440
 16777216
100
AcDbPoint
 10
54.76107622823393
 20
34.3156673800334
 30
0.0
  0
POINT
  5
2C51
330
2AC7
100
AcDbEntity
  8
DEFPOINTS
 62
     0
440
 16777216
100
AcDbPoint
 10
58.94434886652625
 20
34.3156673800334
 30
0.0
  0
ENDBLK
  5
2AD3
330
2AC7
100
AcDbEntity
  8
0
100
AcDbBlockEnd
  0
BLOCK
  5
2ADF
330
2AD4
100
AcDbEntity
  8
0
100
AcDbBlockBegin
  2
*D24
 70
     1
 10
0.0
 20
0.0
 30
0.0
  3
*D24
  1

  0
LINE
  5
2B9B
330
2AD4
100
AcDbEntity
  8
DIM
 62
     0
440
 16777216
370
    -2
100
AcDbLine
 10
54.88280410969544
 20
33.59270348874482
 30
0.0
 11
56.98299295571064
 21
33.59270348874482
 31
0.0
  0
LINE
  5
2B9C
330
2AD4
100
AcDbEntity
  8
DIM
 62
     0
440
 16777216
370
    -2
100
AcDbLine
 10
54.88280410969543
 20
27.34270348874483
 30
0.0
 11
56.98299295571064
 21
27.34270348874483
 31
0.0
  0
LINE
  5
2B9D
330
2AD4
100
AcDbEntity
  8
DIM
 62
     0
440
 16777216
370
    -2
100
AcDbLine
 10
56.79549295571064
 20
33.40520348874482
 30
0.0
 11
56.79549295571064
 21
30.74520348874483
 31
0.0
  0
LINE
  5
2B9E
330
2AD4
100
AcDbEntity
  8
DIM
 62
     0
440
 16777216
370
    -2
100
AcDbLine
 10
56.79549295571064
 20
27.53020348874483
 30
0.0
 11
56.79549295571064
 21
30.19020348874482
 31
0.0
  0
SOLID
  5
2B9F
330
2AD4
100
AcDbEntity
  8
DIM
 62
     0
440
 16777216
100
AcDbTrace
 10
56.76424295571064
 20
33.40520348874482
 30
0.0
 11
56.82674295571064
 21
33.40520348874482
 31
0.0
 12
56.79549295571064
 22
33.59270348874482
 32
0.0
 13
56.79549295571064
 23
33.59270348874482
 33
0.0
  0
SOLID
  5
2BA0
330
2AD4
100
AcDbEntity
  8
DIM
 62
     0
440
 16777216
100
AcDbTrace
 10
56.76424295571064
 20
27.53020348874483
 30
0.0
 11
56.82674295571064
 21
27.53020348874483
 31
0.0
 12
56.79549295571064
 22
27.34270348874483
 32
0.0
 13
56.79549295571064
 23
27.34270348874483
 33
0.0
  0
MTEXT
  5
2BA1
330
2AD4
100
AcDbEntity
  8
DIM
 62
     0
440
 16777216
100
AcDbMText
 10
56.79549295571064
 20
30.46770348874483
 30
0.0
 40
0.18
 41
0.0
 46
0.0
 71
     5
 72
     1
  1
\A1;6 1/4
 73
     1
 44
1.0
  0
POINT
  5
2BA2
330
2AD4
100
AcDbEntity
  8
DEFPOINTS
 62
     0
440
 16777216
100
AcDbPoint
 10
54.82030410969544
 20
33.59270348874482
 30
0.0
  0
POINT
  5
2BA3
330
2AD4
100
AcDbEntity
  8
DEFPOINTS
 62
     0
440
 16777216
100
AcDbPoint
 10
54.82030410969542
 20
27.34270348874483
 30
0.0
  0
POINT
  5
2BA4
330
2AD4
100
AcDbEntity
  8
DEFPOINTS
 62
     0
440
 16777216
100
AcDbPoint
 10
56.79549295571064
 20
27.34270348874483
 30
0.0
  0
ENDBLK
  5
2AE0
330
2AD4
100
AcDbEntity
  8
0
100
AcDbBlockEnd
  0
BLOCK
  5
2D75
330
2D6A
100
AcDbEntity
  8
0
100
AcDbBlockBegin
  2
*D25
 70
     1
 10
0.0
 20
0.0
 30
0.0
  3
*D25
  1

  0
LINE
  5
2D77
330
2D6A
100
AcDbEntity
  8
DIM
 62
     0
440
 16777216
370
    -2
100
AcDbLine
 10
19.17833818723144
 20
12.13982896562949
 30
0.0
 11
22.84929650603647
 21
12.13982896562949
 31
0.0
  0
LINE
  5
2D78
330
2D6A
100
AcDbEntity
  8
DIM
 62
     0
440
 16777216
370
    -2
100
AcDbLine
 10
19.86176481947247
 20
17.02721220913099
 30
0.0
 11
22.84929650603647
 21
17.02721220913099
 31
0.0
  0
LINE
  5
2D79
330
2D6A
100
AcDbEntity
  8
DIM
 62
     0
440
 16777216
370
    -2
100
AcDbLine
 10
22.75554650603647
 20
12.32732896562949
 30
0.0
 11
22.75554650603647
 21
14.30252058738023
 31
0.0
  0
LINE
  5
2D7A
330
2D6A
100
AcDbEntity
  8
DIM
 62
     0
440
 16777216
370
    -2
100
AcDbLine
 10
22.75554650603647
 20
16.83971220913099
 30
0.0
 11
22.75554650603647
 21
14.86452058738024
 31
0.0
  0
SOLID
  5
2D7B
330
2D6A
100
AcDbEntity
  8
DIM
 62
     0
440
 16777216
100
AcDbTrace
 10
22.72429650603647
 20
12.32732896562949
 30
0.0
 11
22.78679650603647
 21
12.32732896562949
 31
0.0
 12
22.75554650603647
 22
12.13982896562949
 32
0.0
 13
22.75554650603647
 23
12.13982896562949
 33
0.0
  0
SOLID
  5
2D7C
330
2D6A
100
AcDbEntity
  8
DIM
 62
     0
440
 16777216
100
AcDbTrace
 10
22.72429650603647
 20
16.83971220913099
 30
0.0
 11
22.78679650603647
 21
16.83971220913099
 31
0.0
 12
22.75554650603647
 22
17.02721220913099
 32
0.0
 13
22.75554650603647
 23
17.02721220913099
 33
0.0
  0
MTEXT
  5
2D7D
330
2D6A
100
AcDbEntity
  8
DIM
 62
     0
440
 16777216
100
AcDbMText
 10
22.75554650603647
 20
14.58352058738024
 30
0.0
 40
0.187
 41
0.0
 46
0.0
 71
     5
 72
     1
  1
\A1;4 7/8
 73
     1
 44
1.0
  0
POINT
  5
2D7E
330
2D6A
100
AcDbEntity
  8
DEFPOINTS
 62
     0
440
 16777216
100
AcDbPoint
 10
18.99083818723144
 20
12.13982896562949
 30
0.0
  0
POINT
  5
2D7F
330
2D6A
100
AcDbEntity
  8
DEFPOINTS
 62
     0
440
 16777216
100
AcDbPoint
 10
19.67426481947247
 20
17.02721220913099
 30
0.0
  0
POINT
  5
2D80
330
2D6A
100
AcDbEntity
  8
DEFPOINTS
 62
     0
440
 16777216
100
AcDbPoint
 10
22.75554650603647
 20
17.02721220913099
 30
0.0
  0
ENDBLK
  5
2D76
330
2D6A
100
AcDbEntity
  8
0
100
AcDbBlockEnd
  0
BLOCK
  5
2DA1
330
2D98
100
AcDbEntity
  8
0
100
AcDbBlockBegin
  2
*D26
 70
     1
 10
0.0
 20
0.0
 30
0.0
  3
*D26
  1

  0
LINE
  5
2DBB
330
2D98
100
AcDbEntity
  8
DIM
 62
     0
440
 16777216
370
    -2
100
AcDbLine
 10
18.52032187107578
 20
35.02611295268051
 30
0.0
 11
21.91226265959824
 21
37.73905699906821
 31
0.0
  0
LINE
  5
2DBC
330
2D98
100
AcDbEntity
  8
DIM
 62
     0
440
 16777216
370
    -2
100
AcDbLine
 10
21.91226265959824
 20
37.73905699906821
 30
0.0
 11
22.09976265959824
 21
37.73905699906821
 31
0.0
  0
SOLID
  5
2DBD
330
2D98
100
AcDbEntity
  8
DIM
 62
     0
440
 16777216
100
AcDbTrace
 10
18.50080282085556
 20
35.05051723874875
 30
0.0
 11
18.539840921296
 21
35.00170866661227
 31
0.0
 12
18.37389615466633
 22
34.9089986513592
 32
0.0
 13
18.37389615466633
 23
34.9089986513592
 33
0.0
  0
MTEXT
  5
2DBE
330
2D98
100
AcDbEntity
  8
DIM
 62
     0
440
 16777216
100
AcDbMText
 10
22.70801265959824
 20
37.73905699906821
 30
0.0
 40
0.187
 41
0.0
 46
0.0
 71
     5
 72
     1
  1
\A1;∅0.312
 73
     1
 44
1.0
  0
LINE
  5
2DBF
330
2D98
100
AcDbEntity
  8
DIM
 62
     0
440
 16777216
370
    -2
100
AcDbLine
 10
18.15831995861367
 20
34.81155955265986
 30
0.0
 11
18.34581995861367
 21
34.81155955265986
 31
0.0
  0
LINE
  5
2DC0
330
2D98
100
AcDbEntity
  8
DIM
 62
     0
440
 16777216
370
    -2
100
AcDbLine
 10
18.25206995861367
 20
34.71780955265987
 30
0.0
 11
18.25206995861367
 21
34.90530955265986
 31
0.0
  0
POINT
  5
2DC1
330
2D98
100
AcDbEntity
  8
DEFPOINTS
 62
     0
440
 16777216
100
AcDbPoint
 10
18.37389615466633
 20
34.9089986513592
 30
0.0
  0
POINT
  5
2DC2
330
2D98
100
AcDbEntity
  8
DEFPOINTS
 62
     0
440
 16777216
100
AcDbPoint
 10
18.13024376256101
 20
34.71412045396053
 30
0.0
  0
ENDBLK
  5
2DA2
330
2D98
100
AcDbEntity
  8
0
100
AcDbBlockEnd
  0
BLOCK
  5
2E9E
330
2E99
100
AcDbEntity
  8
0
100
AcDbBlockBegin
  2
A$C7F9C2944
 70
     0
 10
0.0
 20
0.0
 30
0.0
  3
A$C7F9C2944
  1

  0
TEXT
  5
2E9A
330
2E99
100
AcDbEntity
  8
TITLE
100
AcDbText
 10
0.579195765587933
 20
0.7763745944604921
 30
0.0
 40
1.261861123073948
  1
HUBBELL WIEGMANN
  7
STYLE1
100
AcDbText
  0
LINE
  5
2E9B
330
2E99
100
AcDbEntity
  8
0
100
AcDbLine
 10
-0.0000000580063428
 20
-0.0000000132569795
 30
0.0
 11
0.7063561651818589
 21
0.3224713420341985
 31
0.0
  0
ENDBLK
  5
2E9F
330
2E99
100
AcDbEntity
  8
0
100
AcDbBlockEnd
  0
ENDSEC
  0
SECTION
  2
ENTITIES
  0
TEXT
  5
332
330
18
100
AcDbEntity
  8
TITLE
100
AcDbText
 10
52.20267205253438
 20
0.2172647121122048
 30
0.0
 40
0.15125
  1
DO NOT SCALE
 72
     1
 11
53.08496371920104
 21
0.2172647121122048
 31
0.0
100
AcDbText
  0
INSERT
  5
15AC
330
18
100
AcDbEntity
  8
TITLE
100
AcDbBlockReference
  2
T2
 10
0.0
 20
0.0
 30
0.0
  0
TEXT
  5
15D3
330
18
100
AcDbEntity
  8
TITLE
100
AcDbText
 10
56.49034048674588
 20
0.1709044220038658
 30
0.0
 40
0.1875
  1
ENCLOSURE
100
AcDbText
  0
TEXT
  5
15D7
330
18
100
AcDbEntity
  8
TITLE
100
AcDbText
 10
60.7361292343647
 20
3.293804878086824
 30
0.0
 40
0.1875
  1
.010
100
AcDbText
  0
TEXT
  5
15D9
330
18
100
AcDbEntity
  8
TITLE
100
AcDbText
 10
62.35650281624221
 20
3.293804878086824
 30
0.0
 40
0.1875
  1
1/32
100
AcDbText
  0
MTEXT
  5
1B55
330
18
100
AcDbEntity
  8
DIM
100
AcDbMText
 10
117.0051437449662
 20
19.15898537506399
 30
0.0
 40
0.18
 41
0.0
 46
0.0
 71
     9
 72
     1
  1
 
 73
     1
 44
1.0
  0
MTEXT
  5
2191
330
18
100
AcDbEntity
  8
0
100
AcDbMText
 10
98.45764757014308
 20
69.4960874945866
 30
0.0
 40
0.28125
 41
0.0
 46
0.0
 71
     9
 72
     1
  1

 73
     1
 44
1.0
  0
MTEXT
  5
2194
330
18
100
AcDbEntity
  8
0
100
AcDbMText
 10
98.38906855899985
 20
66.11157905841601
 30
0.0
 40
0.28125
 41
0.0
 46
0.0
 71
     9
 72
     1
  1

 73
     1
 44
1.0
  0
MTEXT
  5
23FC
330
18
100
AcDbEntity
  8
DIM
100
AcDbMText
 10
46.7386997326735
 20
15.21364206304365
 30
0.0
 40
0.187
 41
0.0
 46
0.0
 71
     9
 72
     1
  1

 73
     1
 44
1.0
  0
MTEXT
  5
23FE
330
18
100
AcDbEntity
  8
DIM
100
AcDbMText
 10
46.22597660584491
 20
11.40475869311502
 30
0.0
 40
0.187
 41
0.0
 46
0.0
 71
     9
 72
     1
  1

 73
     1
 44
1.0
  0
LINE
  5
2794
330
18
100
AcDbEntity
  8
0
100
AcDbLine
 10
32.22688107578651
 20
26.37063679775684
 30
0.0
 11
35.79710058804878
 21
26.46412628588973
 31
0.0
  0
LINE
  5
2795
330
18
100
AcDbEntity
  8
0
100
AcDbLine
 10
32.2268810757865
 20
34.53458961406898
 30
0.0
 11
35.79710058804881
 21
34.44110012593608
 31
0.0
  0
ARC
  5
2796
330
18
100
AcDbEntity
  8
0
100
AcDbCircle
 10
33.62605635097188
 20
30.92408282609282
 30
0.0
 40
0.3125828206630804
100
AcDbArc
 50
13.81722906185295
 51
124.0426444085763
  0
ARC
  5
2797
330
18
100
AcDbEntity
  8
0
100
AcDbCircle
 10
33.62605635097188
 20
30.04908282609282
 30
0.0
 40
0.3125828206630804
100
AcDbArc
 50
235.9573555914237
 51
346.182770938147
  0
LINE
  5
2798
330
18
100
AcDbEntity
  8
0
100
AcDbLine
 10
18.62764389962421
 20
12.38982896562951
 30
0.0
 11
11.87708895971823
 21
12.38982896562953
 31
0.0
  0
LINE
  5
2799
330
18
100
AcDbEntity
  8
0
100
AcDbLine
 10
11.51424794957889
 20
12.13982896562952
 30
0.0
 11
18.99083818723145
 21
12.13982896562949
 31
0.0
1001
ACAD
1000
ASC_BOUNDS
1002
{
1070
    19
1005
0
1002
}
  0
LINE
  5
279A
330
18
100
AcDbEntity
  8
0
100
AcDbLine
 10
10.92098733181956
 20
16.19476291240468
 30
0.0
 11
19.58409790457493
 21
16.19472852691049
 31
0.0
  0
LINE
  5
279B
330
18
100
AcDbEntity
  8
0
100
AcDbLine
 10
19.67426481947247
 20
17.02721220913099
 30
0.0
 11
10.83435067803566
 21
17.02721220913099
 31
0.0
1001
ACAD
1000
ASC_BOUNDS
1002
{
1070
    19
1005
0
1002
}
  0
LINE
  5
279C
330
18
100
AcDbEntity
  8
0
100
AcDbLine
 10
10.56680774875406
 20
16.27721220913097
 30
0.0
 11
19.94180774875407
 21
16.27721220913097
 31
0.0
  0
LINE
  5
279D
330
18
100
AcDbEntity
  8
0
100
AcDbLine
 10
11.17090166306344
 20
15.95130714948163
 30
0.0
 11
11.264333618335
 21
12.38328472855255
 31
0.0
  0
LINE
  5
279E
330
18
100
AcDbEntity
  8
DIM
100
AcDbLine
 10
11.17090166306344
 20
15.95130714948163
 30
0.0
 11
11.17090166306344
 21
11.89141580717068
 31
0.0
  0
DIMENSION
  5
279F
330
18
100
AcDbEntity
  8
DIM
100
AcDbDimension
280
     0
  2
*D8
 10
11.17090166306344
 20
11.89141580717068
 30
0.0
 11
10.30120923900354
 21
11.3361318160871
 31
0.0
 70
    34
 71
     5
 42
0.0261799387799169
 73
     0
 74
     0
 75
     0
  3
STANDARD
100
AcDb2LineAngularDimension
 13
11.17090166306344
 23
15.95130714948163
 33
0.0
 14
11.264333618335
 24
12.38328472855255
 34
0.0
 15
11.17090166306344
 25
15.95130714948163
 35
0.0
 16
11.25171259534995
 26
11.32165193944231
 36
0.0
1001
ACAD
1000
DSTYLE
1002
{
1070
    41
1040
0.1875
1070
    43
1040
0.375
1070
    44
1040
0.1875
1070
   141
1040
0.09375
1070
   147
1040
0.1875
1070
   271
1070
     3
1070
   272
1070
     3
1070
   276
1070
     2
1070
   289
1070
     0
1002
}
  0
ARC
  5
27A0
330
18
100
AcDbEntity
  8
0
100
AcDbCircle
 10
11.87708895971823
 20
12.26482896562952
 30
0.0
 40
0.125
100
AcDbArc
 50
90.0
 51
180.0
  0
ARC
  5
27A1
330
18
100
AcDbEntity
  8
0
100
AcDbCircle
 10
11.51424794957889
 20
12.38982896562952
 30
0.0
 40
0.25
100
AcDbArc
 50
181.5000000000002
 51
269.9999999999996
1001
ACAD
1000
ASC_BOUNDS
1002
{
1070
    19
1005
0
1002
}
  0
LINE
  5
27A2
330
18
100
AcDbEntity
  8
0
100
AcDbLine
 10
11.75208895971823
 20
12.13982896562951
 30
0.0
 11
11.75208895971823
 21
12.26482896562952
 31
0.0
  0
ARC
  5
27A3
330
18
100
AcDbEntity
  8
0
100
AcDbCircle
 10
10.83435067803566
 20
16.77721220913098
 30
0.0
 40
0.25
100
AcDbArc
 50
90.0
 51
178.0000000000004
1001
ACAD
1000
ASC_BOUNDS
1002
{
1070
    19
1005
0
1002
}
  0
CIRCLE
  5
27A4
330
18
100
AcDbEntity
  8
0
 62
     2
100
AcDbCircle
 10
10.77178372796064
 20
16.1989071667433
 30
0.0
 40
0.0425
  0
ARC
  5
27A5
330
18
100
AcDbEntity
  8
0
 62
     2
100
AcDbCircle
 10
10.77178372796064
 20
16.1989071667433
 30
0.0
 40
0.0775
100
AcDbArc
 50
178.999999999999
 51
122.2564312859771
  0
LINE
  5
27A6
330
18
100
AcDbEntity
  8
0
100
AcDbLine
 10
10.56680774875406
 20
16.27721220913098
 30
0.0
 11
10.5845029712809
 21
16.78593708330661
 31
0.0
1001
ACAD
1000
ASC_BOUNDS
1002
{
1070
    19
1005
0
1002
}
  0
LINE
  5
27A7
330
18
100
AcDbEntity
  8
0
 62
     2
100
AcDbLine
 10
10.73064407361785
 20
16.27721220913098
 30
0.0
 11
10.72929020091648
 21
16.19964889401689
 31
0.0
  0
LINE
  5
27A8
330
18
100
AcDbEntity
  8
0
 62
     2
100
AcDbLine
 10
10.69429553158601
 20
16.20025972824219
 30
0.0
 11
10.69563874213631
 21
16.27721220913098
 31
0.0
  0
LINE
  5
27A9
330
18
100
AcDbEntity
  8
0
100
AcDbLine
 10
10.84725980468025
 20
16.27721220913098
 30
0.0
 11
10.84862911791624
 21
16.2249202463534
 31
0.0
  0
LINE
  5
27AA
330
18
100
AcDbEntity
  8
0
100
AcDbLine
 10
10.88400233613281
 20
16.19476291240468
 30
0.0
 11
10.92098733181956
 21
16.19476291240468
 31
0.0
  0
ARC
  5
27AB
330
18
100
AcDbEntity
  8
0
100
AcDbCircle
 10
10.87986840932173
 20
16.22573827598801
 30
0.0
 40
0.03125
100
AcDbArc
 50
181.4999999999962
 51
277.6016917802152
1001
ACAD
1000
ASC_BOUNDS
1002
{
1070
    19
1005
0
1002
}
  0
ARC
  5
27AC
330
18
100
AcDbEntity
  8
0
100
AcDbCircle
 10
10.92098733181956
 20
15.94476291240467
 30
0.0
 40
0.25
100
AcDbArc
 50
1.499999999999867
 51
90.0
  0
LINE
  5
27AD
330
18
100
AcDbEntity
  8
0
 62
     2
100
AcDbLine
 10
10.81257270412952
 20
16.2648048861507
 30
0.0
 11
10.81224780694308
 21
16.27721220913098
 31
0.0
  0
LINE
  5
27AE
330
18
100
AcDbEntity
  8
0
 62
     2
100
AcDbLine
 10
10.84725980468025
 20
16.27721220913097
 30
0.0
 11
10.84925717064625
 21
16.20093588023716
 31
0.0
  0
LINE
  5
27AF
330
18
100
AcDbEntity
  8
0
100
AcDbLine
 10
10.84725980468025
 20
16.27721220913098
 30
0.0
 11
10.84862911791624
 21
16.2249202463534
 31
0.0
  0
LINE
  5
27B1
330
18
100
AcDbEntity
  8
0
100
AcDbLine
 10
12.40808895971824
 20
12.20232896562952
 30
0.0
 11
12.40808895971824
 21
12.32732896562951
 31
0.0
  0
LINE
  5
27B2
330
18
100
AcDbEntity
  8
0
100
AcDbLine
 10
12.25208895971823
 20
12.20232896562952
 30
0.0
 11
12.25208895971823
 21
12.32732896562952
 31
0.0
  0
LINE
  5
27B3
330
18
100
AcDbEntity
  8
0
100
AcDbLine
 10
12.09608895971823
 20
12.20232896562952
 30
0.0
 11
12.09608895971823
 21
12.32732896562952
 31
0.0
  0
LINE
  5
27B4
330
18
100
AcDbEntity
  8
0
100
AcDbLine
 10
12.25208895971823
 20
11.95232896562951
 30
0.0
 11
12.25208895971823
 21
12.01482896562952
 31
0.0
  0
LINE
  5
27B5
330
18
100
AcDbEntity
  8
0
100
AcDbLine
 10
12.25208895971823
 20
12.51482896562952
 30
0.0
 11
12.25208895971823
 21
12.57732896562952
 31
0.0
  0
LINE
  5
27B6
330
18
100
AcDbEntity
  8
0
100
AcDbLine
 10
19.33418357333104
 20
15.95127276398747
 30
0.0
 11
19.24075251847533
 21
12.38328472855252
 31
0.0
  0
DIMENSION
  5
27B7
330
18
100
AcDbEntity
  8
DIM
100
AcDbDimension
280
     0
  2
*D9
 10
20.74121586772532
 20
12.13982896562949
 30
0.0
 11
20.15621586772531
 21
11.76482896562949
 31
0.0
 70
    32
 71
     5
 42
0.2500000000000213
 73
     0
 74
     0
 75
     0
  3
STANDARD
100
AcDbAlignedDimension
 13
18.62764389962421
 23
12.38982896562951
 33
0.0
 14
19.14708818723145
 24
12.13982896562949
 34
0.0
 50
90.0
100
AcDbRotatedDimension
1001
ACAD
1000
DSTYLE
1002
{
1070
    41
1040
0.1875
1070
    43
1040
0.375
1070
    44
1040
0.1875
1070
   141
1040
0.09375
1070
   147
1040
0.1875
1070
   271
1070
     5
1070
   272
1070
     5
1070
   276
1070
     2
1070
   277
1070
     5
1070
   289
1070
     0
1002
}
  0
ARC
  5
27B8
330
18
100
AcDbEntity
  8
0
100
AcDbCircle
 10
18.62764389962421
 20
12.26482896562951
 30
0.0
 40
0.125
100
AcDbArc
 50
0.0000000000008142
 51
89.99999999999959
  0
LINE
  5
27B9
330
18
100
AcDbEntity
  8
0
100
AcDbLine
 10
18.09664389962421
 20
12.20232896562952
 30
0.0
 11
18.09664389962422
 21
12.32732896562952
 31
0.0
  0
LINE
  5
27BA
330
18
100
AcDbEntity
  8
0
100
AcDbLine
 10
18.25264389962422
 20
11.95232896562951
 30
0.0
 11
18.25264389962422
 21
12.01482896562952
 31
0.0
  0
LINE
  5
27BB
330
18
100
AcDbEntity
  8
0
100
AcDbLine
 10
18.40864389962422
 20
12.20232896562952
 30
0.0
 11
18.40864389962422
 21
12.32732896562951
 31
0.0
  0
LINE
  5
27BC
330
18
100
AcDbEntity
  8
0
100
AcDbLine
 10
18.25264389962422
 20
12.20232896562952
 30
0.0
 11
18.25264389962422
 21
12.32732896562952
 31
0.0
  0
LINE
  5
27BD
330
18
100
AcDbEntity
  8
0
100
AcDbLine
 10
18.75264389962422
 20
12.13982896562951
 30
0.0
 11
18.75264389962422
 21
12.26482896562951
 31
0.0
  0
ARC
  5
27BE
330
18
100
AcDbEntity
  8
0
100
AcDbCircle
 10
18.99083818723145
 20
12.38982896562949
 30
0.0
 40
0.25
100
AcDbArc
 50
269.9999999999996
 51
358.5000000000002
1001
ACAD
1000
ASC_BOUNDS
1002
{
1070
    19
1005
0
1002
}
  0
LINE
  5
27BF
330
18
100
AcDbEntity
  8
0
100
AcDbLine
 10
18.25264389962422
 20
12.51482896562952
 30
0.0
 11
18.25264389962422
 21
12.57732896562952
 31
0.0
  0
ARC
  5
27C0
330
18
100
AcDbEntity
  8
0
100
AcDbCircle
 10
19.58409790457493
 20
15.94472852691049
 30
0.0
 40
0.25
100
AcDbArc
 50
90.0
 51
178.4999999999997
  0
LINE
  5
27C1
330
18
100
AcDbEntity
  8
0
100
AcDbLine
 10
19.37508726530959
 20
15.36079017861569
 30
0.0
 11
19.69404807932402
 21
14.56826401494878
 31
0.0
  0
LINE
  5
27C2
330
18
100
AcDbEntity
  8
0
100
AcDbLine
 10
19.58662485446507
 20
14.41221220913097
 30
0.0
 11
19.29296997191062
 21
14.41221220913097
 31
0.0
  0
LINE
  5
27C3
330
18
100
AcDbEntity
  8
0
100
AcDbLine
 10
19.31641397855063
 20
15.39915228866602
 30
0.0
 11
19.28406213376289
 21
14.03721220913097
 31
0.0
  0
LINE
  5
27C4
330
18
100
AcDbEntity
  8
0
100
AcDbLine
 10
19.35744005409375
 20
14.41221220913097
 30
0.0
 11
19.34410008544305
 21
14.03721220913097
 31
0.0
  0
LINE
  5
27C5
330
18
100
AcDbEntity
  8
0
100
AcDbLine
 10
19.34410008544305
 20
14.03721220913097
 30
0.0
 11
19.28406213376289
 21
14.03721220913097
 31
0.0
  0
ARC
  5
27C6
330
18
100
AcDbEntity
  8
0
100
AcDbCircle
 10
19.38270060479867
 20
14.29946220913097
 30
0.0
 40
0.05
100
AcDbArc
 50
0.0
 51
90.0
  0
LINE
  5
27C7
330
18
100
AcDbEntity
  8
0
100
AcDbLine
 10
19.35520783267286
 20
14.34946220913097
 30
0.0
 11
19.38270060479867
 21
14.34946220913097
 31
0.0
  0
ARC
  5
27C8
330
18
100
AcDbEntity
  8
0
100
AcDbCircle
 10
19.38270060479867
 20
14.24346220913097
 30
0.0
 40
0.05
100
AcDbArc
 50
270.0000000000008
 51
0.0
  0
LINE
  5
27C9
330
18
100
AcDbEntity
  8
0
100
AcDbLine
 10
19.43270060479867
 20
14.29946220913097
 30
0.0
 11
19.43270060479867
 21
14.24346220913097
 31
0.0
  0
LINE
  5
27CA
330
18
100
AcDbEntity
  8
0
100
AcDbLine
 10
19.34965840571418
 20
14.19346220913097
 30
0.0
 11
19.38270060479867
 21
14.19346220913097
 31
0.0
  0
LINE
  5
27CB
330
18
100
AcDbEntity
  8
0
100
AcDbLine
 10
19.31652282986549
 20
15.40221220913097
 30
0.0
 11
19.33511255043614
 21
15.40221220913097
 31
0.0
  0
ARC
  5
27CC
330
18
100
AcDbEntity
  8
0
100
AcDbCircle
 10
19.33511255043614
 20
15.36221220913097
 30
0.0
 40
0.04
100
AcDbArc
 50
357.9626620240505
 51
90.00000000000204
  0
LINE
  5
27CD
330
18
100
AcDbEntity
  8
0
100
AcDbLine
 10
20.03627644880939
 20
15.66504691996416
 30
0.0
 11
20.21431264748413
 21
16.18446630769854
 31
0.0
  0
LINE
  5
27CE
330
18
100
AcDbEntity
  8
0
100
AcDbLine
 10
19.5958391997664
 20
14.81228492013216
 30
0.0
 11
19.92275955323193
 21
15.7039559731324
 31
0.0
  0
LINE
  5
27CF
330
18
100
AcDbEntity
  8
0
100
AcDbLine
 10
19.92275955323193
 20
15.7039559731324
 30
0.0
 11
20.09303489659814
 21
15.64559239338003
 31
0.0
  0
LINE
  5
27D0
330
18
100
AcDbEntity
  8
0
100
AcDbLine
 10
19.69600914537881
 20
14.56270977103734
 30
0.0
 11
20.09303489659814
 21
15.64559239338003
 31
0.0
  0
LINE
  5
27D1
330
18
100
AcDbEntity
  8
0
100
AcDbLine
 10
19.65737811642889
 20
14.38001007138947
 30
0.0
 11
19.98910753166148
 21
15.28479777841379
 31
0.0
  0
LINE
  5
27D2
330
18
100
AcDbEntity
  8
0
100
AcDbLine
 10
19.74539859096708
 20
14.34773843427464
 30
0.0
 11
20.07781255620054
 21
15.25439324260858
 31
0.0
  0
ARC
  5
27D3
330
18
100
AcDbEntity
  8
0
100
AcDbCircle
 10
19.58662485446507
 20
14.52721220913097
 30
0.0
 40
0.115
100
AcDbArc
 50
269.9999999999964
 51
20.91436597392297
  0
LINE
  5
27D4
330
18
100
AcDbEntity
  8
0
100
AcDbLine
 10
19.74539859096708
 20
14.34773843427464
 30
0.0
 11
19.65737811642884
 21
14.38001007138949
 31
0.0
  0
CIRCLE
  5
27D5
330
18
100
AcDbEntity
  8
0
100
AcDbCircle
 10
19.58662485446507
 20
14.52721220913097
 30
0.0
 40
0.085
  0
LINE
  5
27D6
330
18
100
AcDbEntity
  8
0
100
AcDbLine
 10
20.10926328233812
 20
15.50789103144558
 30
0.0
 11
20.13405732647811
 21
15.49939262443056
 31
0.0
  0
LINE
  5
27D7
330
18
100
AcDbEntity
  8
0
100
AcDbLine
 10
20.16871820954567
 20
15.41672042665788
 30
0.0
 11
20.034774027296
 21
15.13700620940282
 31
0.0
  0
LINE
  5
27D8
330
18
100
AcDbEntity
  8
0
100
AcDbLine
 10
20.02847710324132
 20
15.46951184357139
 30
0.0
 11
20.082085941011
 21
15.451136877374
 31
0.0
  0
LINE
  5
27D9
330
18
100
AcDbEntity
  8
0
100
AcDbLine
 10
20.10926328233812
 20
15.50789103144558
 30
0.0
 11
20.05102655092467
 21
15.38627588199144
 31
0.0
  0
LINE
  5
27DA
330
18
100
AcDbEntity
  8
0
100
AcDbLine
 10
19.98910753166148
 20
15.28479777841379
 30
0.0
 11
20.07781255620054
 21
15.25439324260858
 31
0.0
  0
LINE
  5
27DB
330
18
100
AcDbEntity
  8
0
100
AcDbLine
 10
20.05262433442356
 20
15.26302675795754
 30
0.0
 11
20.07787102914372
 21
15.33188679260289
 31
0.0
  0
LINE
  5
27DC
330
18
100
AcDbEntity
  8
0
100
AcDbLine
 10
20.06258017861386
 20
15.35871848273388
 30
0.0
 11
20.06557817010361
 21
15.35769089111697
 31
0.0
  0
ARC
  5
27DD
330
18
100
AcDbEntity
  8
0
100
AcDbCircle
 10
20.06906502080857
 20
15.37763796533013
 30
0.0
 40
0.02
100
AcDbArc
 50
154.4120652349757
 51
251.0803352329424
  0
ARC
  5
27DE
330
18
100
AcDbEntity
  8
0
100
AcDbCircle
 10
20.0590933279089
 20
15.33877140852072
 30
0.0
 40
0.02
100
AcDbArc
 50
339.8651522322449
 51
71.08033523293808
  0
ARC
  5
27DF
330
18
100
AcDbEntity
  8
0
100
AcDbCircle
 10
20.11460279989398
 20
15.44263417664182
 30
0.0
 40
0.06
100
AcDbArc
 50
334.4120652349778
 51
71.08033523294669
  0
ARC
  5
27E0
330
18
100
AcDbEntity
  8
0
100
AcDbCircle
 10
20.02439173069858
 20
16.48371220913097
 30
0.0
 40
0.05
100
AcDbArc
 50
270.0000000000008
 51
0.0
  0
LINE
  5
27E1
330
18
100
AcDbEntity
  8
0
100
AcDbLine
 10
19.92411252622725
 20
16.78593708330662
 30
0.0
 11
19.94180774875407
 21
16.27721220913097
 31
0.0
1001
ACAD
1000
ASC_BOUNDS
1002
{
1070
    19
1005
0
1002
}
  0
LINE
  5
27E2
330
18
100
AcDbEntity
  8
0
100
AcDbLine
 10
19.99095390578659
 20
16.27887845658722
 30
0.0
 11
19.97433772970701
 21
16.77721220913097
 31
0.0
  0
LINE
  5
27E3
330
18
100
AcDbEntity
  8
0
100
AcDbLine
 10
19.94242653301017
 20
16.23387971421847
 30
0.0
 11
19.92430994275487
 21
16.77721220913097
 31
0.0
  0
ARC
  5
27E4
330
18
100
AcDbEntity
  8
0
100
AcDbCircle
 10
20.06238210475417
 20
16.23721220913097
 30
0.0
 40
0.05
100
AcDbArc
 50
270.0000000000008
 51
1.90973252492309
  0
LINE
  5
27E5
330
18
100
AcDbEntity
  8
0
100
AcDbLine
 10
19.97951800102065
 20
15.68450144654828
 30
0.0
 11
20.1575541996954
 21
16.20392083428265
 31
0.0
  0
LINE
  5
27E6
330
18
100
AcDbEntity
  8
0
100
AcDbLine
 10
20.1107427182513
 20
16.28721220913097
 30
0.0
 11
20.16077050520345
 21
16.28721220913097
 31
0.0
  0
ARC
  5
27E7
330
18
100
AcDbEntity
  8
0
100
AcDbCircle
 10
20.06238210475417
 20
16.23721220913097
 30
0.0
 40
0.1
100
AcDbArc
 50
270.0000000000008
 51
1.90973252492309
  0
ARC
  5
27E8
330
18
100
AcDbEntity
  8
0
100
AcDbCircle
 10
20.11868279169057
 20
16.27389947640721
 30
0.0
 40
0.1
100
AcDbArc
 50
77.18643959137759
 51
178.9885966304429
  0
ARC
  5
27E9
330
18
100
AcDbEntity
  8
0
100
AcDbCircle
 10
20.11868279169057
 20
16.27389947640721
 30
0.0
 40
0.04
100
AcDbArc
 50
77.18643959137759
 51
178.9885966304429
  0
LINE
  5
27EA
330
18
100
AcDbEntity
  8
0
100
AcDbLine
 10
19.65646250889223
 20
16.22464099895483
 30
0.0
 11
19.65783801310507
 21
16.27721220913098
 31
0.0
1001
ACAD
1000
ASC_BOUNDS
1002
{
1070
    19
1005
0
1002
}
  0
LINE
  5
27EB
330
18
100
AcDbEntity
  8
0
100
AcDbLine
 10
19.62134043631216
 20
16.19472852691049
 30
0.0
 11
19.58409790457493
 21
16.19472852691049
 31
0.0
  0
ARC
  5
27EC
330
18
100
AcDbEntity
  8
0
100
AcDbCircle
 10
19.62547311452744
 20
16.22545182378385
 30
0.0
 40
0.031
100
AcDbArc
 50
262.3389660685887
 51
358.501221314589
1001
ACAD
1000
ASC_BOUNDS
1002
{
1070
    19
1005
0
1002
}
  0
LINE
  5
27ED
330
18
100
AcDbEntity
  8
0
100
AcDbLine
 10
19.94180774875407
 20
16.27721220913097
 30
0.0
 11
19.99180774875407
 21
16.27721220913097
 31
0.0
  0
LINE
  5
27EE
330
18
100
AcDbEntity
  8
0
100
AcDbLine
 10
20.04237098997331
 20
16.13721220913097
 30
0.0
 11
20.06238210475417
 21
16.13721220913097
 31
0.0
  0
ARC
  5
27EF
330
18
100
AcDbEntity
  8
0
100
AcDbCircle
 10
20.04237098997331
 20
16.23721220913097
 30
0.0
 40
0.1
100
AcDbArc
 50
181.9097325249231
 51
270.0
  0
ARC
  5
27F0
330
18
100
AcDbEntity
  8
0
100
AcDbCircle
 10
20.04237098997331
 20
16.23721220913097
 30
0.0
 40
0.05
100
AcDbArc
 50
181.9097325249231
 51
270.0
  0
LINE
  5
27F1
330
18
100
AcDbEntity
  8
0
100
AcDbLine
 10
20.11235433323574
 20
16.23887845658722
 30
0.0
 11
20.1107427182513
 21
16.28721220913097
 31
0.0
  0
LINE
  5
27F2
330
18
100
AcDbEntity
  8
0
100
AcDbLine
 10
20.04237098997331
 20
16.18721220913097
 30
0.0
 11
20.06238210475417
 21
16.18721220913097
 31
0.0
  0
LINE
  5
27F3
330
18
100
AcDbEntity
  8
0
100
AcDbLine
 10
19.99239876149174
 20
16.23554596167472
 30
0.0
 11
19.99180774875407
 21
16.27721220913097
 31
0.0
  0
LINE
  5
27F4
330
18
100
AcDbEntity
  8
0
100
AcDbLine
 10
20.01869837150407
 20
16.27566461661943
 30
0.0
 11
20.07868902361597
 21
16.27460553249209
 31
0.0
  0
LINE
  5
27F5
330
18
100
AcDbEntity
  8
0
100
AcDbLine
 10
19.98579121134295
 20
16.43371220913097
 30
0.0
 11
20.02439173069858
 21
16.43371220913097
 31
0.0
  0
LINE
  5
27F6
330
18
100
AcDbEntity
  8
0
100
AcDbLine
 10
20.16232656171732
 20
16.24054470404346
 30
0.0
 11
20.16077050520345
 21
16.28721220913097
 31
0.0
  0
ARC
  5
27F7
330
18
100
AcDbEntity
  8
0
100
AcDbCircle
 10
20.13819556752434
 20
16.26946142570518
 30
0.0
 40
0.1
100
AcDbArc
 50
346.4339361810246
 51
77.18643959137676
  0
LINE
  5
27F8
330
18
100
AcDbEntity
  8
0
100
AcDbLine
 10
20.16037349589379
 20
16.36697111493266
 30
0.0
 11
20.14086072006002
 21
16.37140916563469
 31
0.0
  0
LINE
  5
27F9
330
18
100
AcDbEntity
  8
0
100
AcDbLine
 10
20.21431264748413
 20
16.18446630769853
 30
0.0
 11
20.23540557795463
 21
16.24600478758106
 31
0.0
  0
LINE
  5
27FA
330
18
100
AcDbEntity
  8
0
100
AcDbLine
 10
20.1575541996954
 20
16.20392083428265
 30
0.0
 11
20.17753207859524
 21
16.26220615886061
 31
0.0
  0
ARC
  5
27FB
330
18
100
AcDbEntity
  8
0
100
AcDbCircle
 10
20.13819556752434
 20
16.26946142570518
 30
0.0
 40
0.04
100
AcDbArc
 50
349.5497513887071
 51
77.18643959137676
  0
LINE
  5
27FC
330
18
100
AcDbEntity
  8
0
100
AcDbLine
 10
20.14706673887213
 20
16.30846530139617
 30
0.0
 11
20.12755396303836
 21
16.31290335209819
 31
0.0
  0
ARC
  5
27FD
330
18
100
AcDbEntity
  8
0
100
AcDbCircle
 10
19.67426481947247
 20
16.77721220913098
 30
0.0
 40
0.25
100
AcDbArc
 50
2.000000000001199
 51
90.0
1001
ACAD
1000
ASC_BOUNDS
1002
{
1070
    19
1005
0
1002
}
  0
LINE
  5
27FE
330
18
100
AcDbEntity
  8
0
100
AcDbLine
 10
19.92430994275487
 20
16.77721220913097
 30
0.0
 11
19.974337729707
 21
16.77721220913097
 31
0.0
  0
LINE
  5
27FF
330
18
100
AcDbEntity
  8
0
100
AcDbLine
 10
19.98058963016331
 20
16.58971220913097
 30
0.0
 11
20.02439173069858
 21
16.58971220913097
 31
0.0
  0
ARC
  5
2800
330
18
100
AcDbEntity
  8
0
100
AcDbCircle
 10
20.02439173069858
 20
16.53971220913097
 30
0.0
 40
0.05
100
AcDbArc
 50
0.0
 51
90.0
  0
LINE
  5
2801
330
18
100
AcDbEntity
  8
0
100
AcDbLine
 10
20.07439173069858
 20
16.53971220913097
 30
0.0
 11
20.07439173069858
 21
16.48371220913097
 31
0.0
  0
ARC
  5
2802
330
18
100
AcDbEntity
  8
0
100
AcDbCircle
 10
12.13154553889447
 20
34.85837541577253
 30
0.0
 40
0.375
100
AcDbArc
 50
90.0
 51
177.839303590068
  0
ARC
  5
2803
330
18
100
AcDbEntity
  8
0
100
AcDbCircle
 10
12.13154553889444
 20
26.0468509960533
 30
0.0
 40
0.375
100
AcDbArc
 50
228.7031808940768
 51
270.0
  0
DIMENSION
  5
2804
330
18
100
AcDbEntity
  8
DIM
100
AcDbDimension
280
     0
  2
*D10
 10
5.935494250849981
 20
25.6718509960533
 30
0.0
 11
5.935494250849977
 21
30.45261320591291
 31
0.0
 70
   160
 71
     5
 42
9.56152441971923
 73
     0
 74
     0
 75
     0
  3
STANDARD
100
AcDbAlignedDimension
 13
12.13154553889447
 23
35.23337541577253
 33
0.0
 14
12.13154553889444
 24
25.6718509960533
 34
0.0
 50
90.0
100
AcDbRotatedDimension
1001
ACAD
1000
DSTYLE
1002
{
1070
    41
1040
0.1875
1070
    43
1040
0.375
1070
    44
1040
0.1875
1070
   141
1040
0.09375
1070
   147
1040
0.1875
1070
   271
1070
     5
1070
   272
1070
     5
1070
   276
1070
     2
1070
   277
1070
     5
1070
   289
1070
     0
1002
}
  0
DIMENSION
  5
2805
330
18
100
AcDbEntity
  8
DIM
100
AcDbDimension
280
     0
  2
*D11
 10
19.94180774875407
 20
38.84641643263671
 30
0.0
 11
15.25430774875407
 21
38.84641643263671
 31
0.0
 70
   160
 71
     5
 42
9.375000000000007
 73
     0
 74
     0
 75
     0
  3
STANDARD
100
AcDbAlignedDimension
 13
10.56680774875406
 23
34.2341132059129
 33
0.0
 14
19.94180774875407
 24
34.2341132059129
 34
0.0
100
AcDbRotatedDimension
1001
ACAD
1000
DSTYLE
1002
{
1070
    41
1040
0.1875
1070
    43
1040
0.375
1070
    44
1040
0.1875
1070
   141
1040
0.09375
1070
   147
1040
0.1875
1070
   271
1070
     5
1070
   272
1070
     5
1070
   276
1070
     2
1070
   277
1070
     5
1070
   289
1070
     0
1002
}
  0
LINE
  5
2806
330
18
100
AcDbEntity
  8
0
100
AcDbLine
 10
19.01751887314586
 20
25.78280842843972
 30
0.0
 11
11.49109662436223
 21
25.78280842843972
 31
0.0
  0
LINE
  5
2807
330
18
100
AcDbEntity
  8
0
100
AcDbLine
 10
19.03580774875405
 20
25.7651132059129
 30
0.0
 11
11.47280774875406
 21
25.7651132059129
 31
0.0
  0
LWPOLYLINE
  5
2808
330
18
100
AcDbEntity
  8
0
100
AcDbPolyline
 90
        5
 70
     0
 43
0.0
 10
11.56715153635225
 20
35.1401132059129
 10
11.90788301703895
 20
34.55160099380304
 10
12.36001297613576
 20
34.49818989469056
 10
12.62698115145417
 20
34.79610513640683
 10
12.73789426059767
 20
35.1401132059129
  0
LINE
  5
2809
330
18
100
AcDbEntity
  8
HIDE
100
AcDbLine
 10
12.14780774875406
 20
26.58908345151167
 30
0.0
 11
11.76605546430585
 21
26.58908345151167
 31
0.0
  0
LINE
  5
280A
330
18
100
AcDbEntity
  8
HIDE
100
AcDbLine
 10
12.14780774875406
 20
34.31614296031415
 30
0.0
 11
11.76605546430585
 21
34.31614296031416
 31
0.0
  0
ARC
  5
280B
330
18
100
AcDbEntity
  8
HIDE
100
AcDbCircle
 10
12.12930774875406
 20
27.32761320591292
 30
0.0
 40
0.294
100
AcDbArc
 50
180.0
 51
270.0000000000004
  0
ARC
  5
280C
330
18
100
AcDbEntity
  8
HIDE
100
AcDbCircle
 10
12.12930774875406
 20
27.32761320591292
 30
0.0
 40
0.382
100
AcDbArc
 50
185.6808765043655
 51
264.3191234956358
  0
LINE
  5
280D
330
18
100
AcDbEntity
  8
HIDE
100
AcDbLine
 10
12.12930774875406
 20
27.62161320591292
 30
0.0
 11
11.38289996840061
 21
27.6216132059129
 31
0.0
  0
LINE
  5
280E
330
18
100
AcDbEntity
  8
HIDE
100
AcDbLine
 10
12.12930774875406
 20
27.70961320591292
 30
0.0
 11
11.39105546430585
 21
27.70961320591292
 31
0.0
  0
LINE
  5
280F
330
18
100
AcDbEntity
  8
HIDE
100
AcDbLine
 10
12.12930774875406
 20
33.28361320591291
 30
0.0
 11
11.38289996840061
 21
33.28361320591292
 31
0.0
  0
LINE
  5
2810
330
18
100
AcDbEntity
  8
HIDE
100
AcDbLine
 10
12.12930774875406
 20
33.19561320591291
 30
0.0
 11
11.39105546430585
 21
33.1956132059129
 31
0.0
  0
ARC
  5
2811
330
18
100
AcDbEntity
  8
HIDE
100
AcDbCircle
 10
12.12930774875406
 20
33.5776132059129
 30
0.0
 40
0.382
100
AcDbArc
 50
95.6808765043638
 51
174.3191234956344
  0
ARC
  5
2812
330
18
100
AcDbEntity
  8
HIDE
100
AcDbCircle
 10
12.12930774875406
 20
33.5776132059129
 30
0.0
 40
0.294
100
AcDbArc
 50
89.9999999999992
 51
180.0
  0
LINE
  5
2813
330
18
100
AcDbEntity
  8
HIDE
100
AcDbLine
 10
11.64955774875406
 20
34.43236320591291
 30
0.0
 11
18.85905774875407
 21
34.43236320591291
 31
0.0
  0
LINE
  5
2814
330
18
100
AcDbEntity
  8
HIDE
100
AcDbLine
 10
11.64955774875406
 20
26.47286320591291
 30
0.0
 11
18.85905774875407
 21
26.4728632059129
 31
0.0
  0
LINE
  5
2815
330
18
100
AcDbEntity
  8
HIDE
100
AcDbLine
 10
11.4594071656405
 20
26.03271262279933
 30
0.0
 11
19.04920833186764
 21
26.03271262279933
 31
0.0
  0
LINE
  5
2816
330
18
100
AcDbEntity
  8
HIDE
100
AcDbLine
 10
11.4594071656405
 20
34.87251378902648
 30
0.0
 11
19.04920833186764
 21
34.87251378902648
 31
0.0
  0
DIMENSION
  5
2817
330
18
100
AcDbEntity
  8
DIM
100
AcDbDimension
280
     0
  2
*D12
 10
8.113741514557116
 20
25.7651132059129
 30
0.0
 11
8.113741514557112
 21
30.4526132059129
 31
0.0
 70
   160
 71
     5
 42
9.374999999999982
 73
     0
 74
     0
 75
     0
  3
STANDARD
100
AcDbAlignedDimension
 13
11.47280774875407
 23
35.14011320591289
 33
0.0
 14
11.47280774875407
 24
25.7651132059129
 34
0.0
 50
90.0
100
AcDbRotatedDimension
1001
ACAD
1000
DSTYLE
1002
{
1070
    41
1040
0.1875
1070
    43
1040
0.375
1070
    44
1040
0.1875
1070
   141
1040
0.09375
1070
   147
1040
0.1875
1070
   271
1070
     5
1070
   272
1070
     5
1070
   276
1070
     2
1070
   277
1070
     5
1070
   289
1070
     0
1002
}
  0
LINE
  5
2818
330
18
100
AcDbEntity
  8
0
100
AcDbLine
 10
10.58509662436224
 20
26.68880842843972
 30
0.0
 11
10.58509662436224
 21
34.21641798338606
 31
0.0
  0
LINE
  5
2819
330
18
100
AcDbEntity
  8
0
100
AcDbLine
 10
10.56680774875406
 20
26.67111320591291
 30
0.0
 11
10.56680774875406
 21
34.2341132059129
 31
0.0
  0
LINE
  5
281A
330
18
100
AcDbEntity
  8
HIDE
100
AcDbLine
 10
11.39105546430585
 20
33.55911320591293
 30
0.0
 11
11.39105546430585
 21
33.94114296031416
 31
0.0
  0
LINE
  5
281B
330
18
100
AcDbEntity
  8
HIDE
100
AcDbLine
 10
11.27455774875406
 20
26.84786320591291
 30
0.0
 11
11.27455774875406
 21
34.05736320591291
 31
0.0
  0
LINE
  5
281C
330
18
100
AcDbEntity
  8
HIDE
100
AcDbLine
 10
10.8344071656405
 20
26.65771262279933
 30
0.0
 11
10.8344071656405
 21
34.24751378902648
 31
0.0
  0
LINE
  5
281D
330
18
100
AcDbEntity
  8
HIDE
100
AcDbLine
 10
11.39105546430586
 20
27.34611320591292
 30
0.0
 11
11.38289996840061
 21
27.4341132059129
 31
0.0
  0
ARC
  5
281E
330
18
100
AcDbEntity
  8
HIDE
100
AcDbCircle
 10
11.77280774875406
 20
27.37161320591292
 30
0.0
 40
0.0625
100
AcDbArc
 50
0.0
 51
90.0
  0
ARC
  5
281F
330
18
100
AcDbEntity
  8
0
100
AcDbCircle
 10
11.49109662436223
 20
26.68880842843972
 30
0.0
 40
0.9059999999999998
100
AcDbArc
 50
180.0
 51
270.0
  0
ARC
  5
2820
330
18
100
AcDbEntity
  8
0
100
AcDbCircle
 10
11.47280774875406
 20
26.67111320591291
 30
0.0
 40
0.9059999999999998
100
AcDbArc
 50
180.0
 51
270.0
  0
ARC
  5
2821
330
18
100
AcDbEntity
  8
HIDE
100
AcDbCircle
 10
11.4594071656405
 20
26.65771262279933
 30
0.0
 40
0.625
100
AcDbArc
 50
180.0
 51
270.0
  0
ARC
  5
2822
330
18
100
AcDbEntity
  8
HIDE
100
AcDbCircle
 10
11.76605546430585
 20
26.96408345151166
 30
0.0
 40
0.375
100
AcDbArc
 50
180.0
 51
270.0
  0
ARC
  5
2823
330
18
100
AcDbEntity
  8
HIDE
100
AcDbCircle
 10
11.64955774875406
 20
26.84786320591291
 30
0.0
 40
0.375
100
AcDbArc
 50
180.0
 51
270.0
  0
CIRCLE
  5
2824
330
18
100
AcDbEntity
  8
HIDE
100
AcDbCircle
 10
11.19180774875406
 20
26.39011320591292
 30
0.0
 40
0.1
  0
LINE
  5
2825
330
18
100
AcDbEntity
  8
HIDE
100
AcDbLine
 10
11.19180774875406
 20
26.29636320591292
 30
0.0
 11
11.19180774875406
 21
26.48386320591292
 31
0.0
  0
LINE
  5
2826
330
18
100
AcDbEntity
  8
HIDE
100
AcDbLine
 10
11.09805774875406
 20
26.39011320591292
 30
0.0
 11
11.28555774875406
 21
26.39011320591292
 31
0.0
  0
CIRCLE
  5
2827
330
18
100
AcDbEntity
  8
HIDE
100
AcDbCircle
 10
11.19180774875406
 20
26.39011320591292
 30
0.0
 40
0.076
  0
LINE
  5
2828
330
18
100
AcDbEntity
  8
HIDE
100
AcDbLine
 10
11.39105546430585
 20
26.96408345151166
 30
0.0
 11
11.39105546430585
 21
27.34611320591292
 31
0.0
  0
LINE
  5
2829
330
18
100
AcDbEntity
  8
HIDE
100
AcDbLine
 10
11.83530774875406
 20
27.37161320591292
 30
0.0
 11
11.83530774875406
 21
27.32761320591292
 31
0.0
  0
ARC
  5
282A
330
18
100
AcDbEntity
  8
HIDE
100
AcDbCircle
 10
11.68699083747879
 20
27.28361320591291
 30
0.0
 40
0.0625
100
AcDbArc
 50
5.680876504367089
 51
90.0
  0
LINE
  5
282B
330
18
100
AcDbEntity
  8
HIDE
100
AcDbLine
 10
11.68699083747879
 20
27.34611320591291
 30
0.0
 11
11.39105546430586
 21
27.34611320591292
 31
0.0
  0
LINE
  5
282C
330
18
100
AcDbEntity
  8
HIDE
100
AcDbLine
 10
11.39105546430585
 20
27.70961320591292
 30
0.0
 11
11.39105546430585
 21
33.1956132059129
 31
0.0
  0
INSERT
  5
282D
330
18
100
AcDbEntity
  8
DIM
100
AcDbBlockReference
  2
SAAL
 10
10.28788448918968
 20
28.77779839085015
 30
0.0
 41
2.25
 42
2.25
 43
2.25
  0
LINE
  5
282E
330
18
100
AcDbEntity
  8
HIDE
100
AcDbLine
 10
11.77280774875405
 20
27.4341132059129
 30
0.0
 11
11.38289996840061
 21
27.4341132059129
 31
0.0
  0
LINE
  5
282F
330
18
100
AcDbEntity
  8
HIDE
100
AcDbLine
 10
11.38289996840061
 20
27.6216132059129
 30
0.0
 11
11.39105546430585
 21
27.70961320591292
 31
0.0
  0
LINE
  5
2830
330
18
100
AcDbEntity
  8
HIDE
100
AcDbLine
 10
11.38289996840061
 20
27.6216132059129
 30
0.0
 11
11.38289996840061
 21
27.4341132059129
 31
0.0
  0
LINE
  5
2831
330
18
100
AcDbEntity
  8
HIDE
100
AcDbLine
 10
11.38289996840061
 20
33.28361320591292
 30
0.0
 11
11.39105546430585
 21
33.1956132059129
 31
0.0
  0
LINE
  5
2832
330
18
100
AcDbEntity
  8
HIDE
100
AcDbLine
 10
11.39105546430585
 20
33.55911320591292
 30
0.0
 11
11.38289996840061
 21
33.47111320591292
 31
0.0
  0
LINE
  5
2833
330
18
100
AcDbEntity
  8
HIDE
100
AcDbLine
 10
11.38289996840061
 20
33.28361320591292
 30
0.0
 11
11.38289996840059
 21
33.47111320591292
 31
0.0
  0
LINE
  5
2834
330
18
100
AcDbEntity
  8
HIDE
100
AcDbLine
 10
11.77280774875405
 20
33.47111320591291
 30
0.0
 11
11.38289996840061
 21
33.47111320591292
 31
0.0
  0
LINE
  5
2835
330
18
100
AcDbEntity
  8
HIDE
100
AcDbLine
 10
11.68699083747879
 20
33.5591132059129
 30
0.0
 11
11.39105546430585
 21
33.55911320591292
 31
0.0
  0
ARC
  5
2836
330
18
100
AcDbEntity
  8
HIDE
100
AcDbCircle
 10
11.77280774875406
 20
33.53361320591291
 30
0.0
 40
0.0625
100
AcDbArc
 50
270.0
 51
0.0
  0
ARC
  5
2837
330
18
100
AcDbEntity
  8
HIDE
100
AcDbCircle
 10
11.68699083747879
 20
33.62161320591292
 30
0.0
 40
0.0625
100
AcDbArc
 50
270.0
 51
354.3191234956329
  0
LINE
  5
2838
330
18
100
AcDbEntity
  8
HIDE
100
AcDbLine
 10
11.83530774875406
 20
33.53361320591291
 30
0.0
 11
11.83530774875406
 21
33.5776132059129
 31
0.0
  0
ARC
  5
2839
330
18
100
AcDbEntity
  8
0
100
AcDbCircle
 10
11.49109662436223
 20
34.21641798338606
 30
0.0
 40
0.9059999999999998
100
AcDbArc
 50
90.0
 51
180.0
  0
ARC
  5
283A
330
18
100
AcDbEntity
  8
0
100
AcDbCircle
 10
11.47280774875406
 20
34.2341132059129
 30
0.0
 40
0.9059999999999998
100
AcDbArc
 50
90.0
 51
180.0
  0
ARC
  5
283B
330
18
100
AcDbEntity
  8
HIDE
100
AcDbCircle
 10
11.4594071656405
 20
34.24751378902648
 30
0.0
 40
0.625
100
AcDbArc
 50
90.0
 51
180.0
  0
ARC
  5
283C
330
18
100
AcDbEntity
  8
HIDE
100
AcDbCircle
 10
11.76605546430585
 20
33.94114296031416
 30
0.0
 40
0.375
100
AcDbArc
 50
90.0
 51
180.0
  0
ARC
  5
283D
330
18
100
AcDbEntity
  8
HIDE
100
AcDbCircle
 10
11.64955774875406
 20
34.05736320591291
 30
0.0
 40
0.375
100
AcDbArc
 50
90.0
 51
180.0
  0
CIRCLE
  5
283E
330
18
100
AcDbEntity
  8
HIDE
100
AcDbCircle
 10
11.19180774875406
 20
34.51511320591292
 30
0.0
 40
0.1
  0
LINE
  5
283F
330
18
100
AcDbEntity
  8
HIDE
100
AcDbLine
 10
11.19180774875406
 20
34.42136320591292
 30
0.0
 11
11.19180774875406
 21
34.60886320591292
 31
0.0
  0
LINE
  5
2840
330
18
100
AcDbEntity
  8
HIDE
100
AcDbLine
 10
11.09805774875406
 20
34.51511320591292
 30
0.0
 11
11.28555774875406
 21
34.51511320591292
 31
0.0
  0
CIRCLE
  5
2841
330
18
100
AcDbEntity
  8
HIDE
100
AcDbCircle
 10
11.19180774875406
 20
34.51511320591292
 30
0.0
 40
0.076
  0
LINE
  5
2842
330
18
100
AcDbEntity
  8
0
100
AcDbLine
 10
11.57739655633413
 20
35.12241798338607
 30
0.0
 11
11.49109662436223
 21
35.12241798338607
 31
0.0
  0
LINE
  5
2843
330
18
100
AcDbEntity
  8
0
100
AcDbLine
 10
11.56715153635225
 20
35.1401132059129
 30
0.0
 11
11.47280774875406
 21
35.1401132059129
 31
0.0
  0
LINE
  5
2844
330
18
100
AcDbEntity
  8
0
100
AcDbLine
 10
11.75681215847349
 20
34.87251378902648
 30
0.0
 11
11.75681215847349
 21
34.81253093482438
 31
0.0
  0
LINE
  5
2845
330
18
100
AcDbEntity
  8
0
100
AcDbLine
 10
31.98342531286346
 20
34.78450394531279
 30
0.0
 11
31.98342531286347
 21
30.89658282609283
 31
0.0
  0
LINE
  5
2846
330
18
100
AcDbEntity
  8
0
100
AcDbLine
 10
31.90355635097179
 20
35.1401132059129
 30
0.0
 11
31.9035563509718
 21
31.02533282609309
 31
0.0
  0
LINE
  5
2847
330
18
100
AcDbEntity
  8
0
100
AcDbLine
 10
31.15355635097176
 20
34.32703705929029
 30
0.0
 11
31.15355635097176
 21
26.57818935253555
 31
0.0
  0
LINE
  5
2848
330
18
100
AcDbEntity
  8
0
100
AcDbLine
 10
19.92351887314586
 20
26.68880842843972
 30
0.0
 11
19.92351887314586
 21
34.21641798338606
 31
0.0
  0
LINE
  5
2849
330
18
100
AcDbEntity
  8
0
100
AcDbLine
 10
19.94180774875406
 20
26.67111320591291
 30
0.0
 11
19.94180774875406
 21
34.2341132059129
 31
0.0
  0
LINE
  5
284A
330
18
100
AcDbEntity
  8
HIDE
100
AcDbLine
 10
19.11756003320231
 20
33.55911320591292
 30
0.0
 11
19.11756003320231
 21
33.94114296031416
 31
0.0
  0
ARC
  5
284B
330
18
100
AcDbEntity
  8
HIDE
100
AcDbCircle
 10
18.33530774875407
 20
33.9341132059129
 30
0.0
 40
0.0625
100
AcDbArc
 50
180.0
 51
269.9999999999943
  0
LINE
  5
284C
330
18
100
AcDbEntity
  8
HIDE
100
AcDbLine
 10
18.08530774875407
 20
33.57761320591292
 30
0.0
 11
18.08530774875407
 21
34.32432548942248
 31
0.0
  0
LINE
  5
284D
330
18
100
AcDbEntity
  8
HIDE
100
AcDbLine
 10
17.99730774875406
 20
33.57761320591292
 30
0.0
 11
17.99730774875406
 21
34.31614296031416
 31
0.0
  0
ARC
  5
284E
330
18
100
AcDbEntity
  8
HIDE
100
AcDbCircle
 10
18.37930774875407
 20
33.5776132059129
 30
0.0
 40
0.294
100
AcDbArc
 50
0.0
 51
90.00000000000081
  0
ARC
  5
284F
330
18
100
AcDbEntity
  8
HIDE
100
AcDbCircle
 10
18.37930774875407
 20
33.5776132059129
 30
0.0
 40
0.382
100
AcDbArc
 50
5.680876504365467
 51
84.31912349563617
  0
ARC
  5
2850
330
18
100
AcDbEntity
  8
HIDE
100
AcDbCircle
 10
12.17330774875407
 20
33.9341132059129
 30
0.0
 40
0.0625
100
AcDbArc
 50
270.0000000000053
 51
0.0
  0
LINE
  5
2851
330
18
100
AcDbEntity
  8
HIDE
100
AcDbLine
 10
12.51130774875406
 20
33.57761320591292
 30
0.0
 11
12.51130774875406
 21
34.31614296031416
 31
0.0
  0
LINE
  5
2852
330
18
100
AcDbEntity
  8
HIDE
100
AcDbLine
 10
12.42330774875407
 20
33.57761320591292
 30
0.0
 11
12.42330774875407
 21
34.32432548942248
 31
0.0
  0
LINE
  5
2853
330
18
100
AcDbEntity
  8
HIDE
100
AcDbLine
 10
19.23405774875407
 20
26.84786320591289
 30
0.0
 11
19.23405774875407
 21
34.05736320591291
 31
0.0
  0
LINE
  5
2854
330
18
100
AcDbEntity
  8
HIDE
100
AcDbLine
 10
19.67420833186764
 20
26.65771262279933
 30
0.0
 11
19.67420833186764
 21
34.24751378902648
 31
0.0
  0
CIRCLE
  5
2855
330
18
100
AcDbEntity
  8
HIDE
100
AcDbCircle
 10
18.37930774875407
 20
27.32761320591292
 30
0.0
 40
0.076
  0
ARC
  5
2856
330
18
100
AcDbEntity
  8
HIDE
100
AcDbCircle
 10
18.37930774875407
 20
27.32761320591292
 30
0.0
 40
0.382
100
AcDbArc
 50
90.0
 51
180.0
  0
ARC
  5
2857
330
18
100
AcDbEntity
  8
HIDE
100
AcDbCircle
 10
18.37930774875407
 20
27.32761320591292
 30
0.0
 40
0.294
100
AcDbArc
 50
90.0
 51
180.0
  0
LINE
  5
2858
330
18
100
AcDbEntity
  8
HIDE
100
AcDbLine
 10
19.11756003320231
 20
27.34611320591292
 30
0.0
 11
19.12571552910756
 21
27.4341132059129
 31
0.0
  0
ARC
  5
2859
330
18
100
AcDbEntity
  8
HIDE
100
AcDbCircle
 10
18.73580774875408
 20
27.37161320591292
 30
0.0
 40
0.0625
100
AcDbArc
 50
90.0
 51
180.0
  0
CIRCLE
  5
285A
330
18
100
AcDbEntity
  8
HIDE
100
AcDbCircle
 10
12.12930774875406
 20
27.32761320591292
 30
0.0
 40
0.076
  0
ARC
  5
285B
330
18
100
AcDbEntity
  8
HIDE
100
AcDbCircle
 10
12.12930774875406
 20
27.32761320591292
 30
0.0
 40
0.294
100
AcDbArc
 50
0.0
 51
90.0
  0
ARC
  5
285C
330
18
100
AcDbEntity
  8
HIDE
100
AcDbCircle
 10
12.12930774875406
 20
27.32761320591292
 30
0.0
 40
0.382
100
AcDbArc
 50
0.0
 51
90.0
  0
LINE
  5
285D
330
18
100
AcDbEntity
  8
0
100
AcDbLine
 10
12.13154553889444
 20
25.6718509960533
 30
0.0
 11
18.37706995861369
 21
25.67185099605328
 31
0.0
  0
LINE
  5
285E
330
18
100
AcDbEntity
  8
HIDE
100
AcDbLine
 10
17.99730774875406
 20
26.58908345151168
 30
0.0
 11
12.51130774875406
 21
26.58908345151168
 31
0.0
  0
INSERT
  5
285F
330
18
100
AcDbEntity
  8
DIM
100
AcDbBlockReference
  2
SBB
 10
14.26941591126186
 20
25.44403060259311
 30
0.0
 41
1.6875
 42
1.6875
 43
1.6875
  0
LINE
  5
2860
330
18
100
AcDbEntity
  8
HIDE
100
AcDbLine
 10
12.23580774875407
 20
26.97111320591291
 30
0.0
 11
12.23580774875405
 21
26.58132660524076
 31
0.0
  0
LINE
  5
2861
330
18
100
AcDbEntity
  8
HIDE
100
AcDbLine
 10
12.42330774875407
 20
27.32761320591292
 30
0.0
 11
12.42330774875407
 21
26.58132660524076
 31
0.0
  0
LINE
  5
2862
330
18
100
AcDbEntity
  8
HIDE
100
AcDbLine
 10
12.42330774875407
 20
26.58132660524076
 30
0.0
 11
12.51130774875406
 21
26.58950913434909
 31
0.0
  0
LINE
  5
2863
330
18
100
AcDbEntity
  8
HIDE
100
AcDbLine
 10
12.23580774875405
 20
26.58132660524076
 30
0.0
 11
12.14780774875406
 21
26.58950913434908
 31
0.0
  0
LINE
  5
2864
330
18
100
AcDbEntity
  8
HIDE
100
AcDbLine
 10
12.4233077487541
 20
26.58132660524076
 30
0.0
 11
12.23580774875407
 21
26.58132660524076
 31
0.0
  0
ARC
  5
2865
330
18
100
AcDbEntity
  8
HIDE
100
AcDbCircle
 10
12.08530774875406
 20
26.88529629463765
 30
0.0
 40
0.0625
100
AcDbArc
 50
0.0000000000065138
 51
84.31912349563617
  0
LINE
  5
2866
330
18
100
AcDbEntity
  8
HIDE
100
AcDbLine
 10
12.14780774875406
 20
26.88529629463765
 30
0.0
 11
12.14780774875406
 21
26.58908345151167
 31
0.0
  0
LINE
  5
2867
330
18
100
AcDbEntity
  8
HIDE
100
AcDbLine
 10
12.51130774875406
 20
27.32761320591292
 30
0.0
 11
12.51130774875406
 21
26.58908345151165
 31
0.0
  0
LINE
  5
2868
330
18
100
AcDbEntity
  8
HIDE
100
AcDbLine
 10
12.17330774875407
 20
27.03361320591291
 30
0.0
 11
12.12930774875406
 21
27.03361320591292
 31
0.0
  0
ARC
  5
2869
330
18
100
AcDbEntity
  8
HIDE
100
AcDbCircle
 10
12.17330774875407
 20
26.97111320591291
 30
0.0
 40
0.0625
100
AcDbArc
 50
0.0
 51
89.99999999999472
  0
ARC
  5
286A
330
18
100
AcDbEntity
  8
0
100
AcDbCircle
 10
19.01751887314586
 20
26.68880842843972
 30
0.0
 40
0.9059999999999998
100
AcDbArc
 50
270.0
 51
0.0
  0
ARC
  5
286B
330
18
100
AcDbEntity
  8
0
100
AcDbCircle
 10
19.03580774875405
 20
26.67111320591291
 30
0.0
 40
0.9059999999999998
100
AcDbArc
 50
270.0
 51
0.0
  0
ARC
  5
286C
330
18
100
AcDbEntity
  8
HIDE
100
AcDbCircle
 10
19.04920833186764
 20
26.65771262279933
 30
0.0
 40
0.625
100
AcDbArc
 50
270.0
 51
0.0
  0
ARC
  5
286D
330
18
100
AcDbEntity
  8
0
100
AcDbCircle
 10
18.37706995861369
 20
26.04685099605328
 30
0.0
 40
0.375
100
AcDbArc
 50
270.0
 51
311.2968191059264
  0
LINE
  5
286E
330
18
100
AcDbEntity
  8
HIDE
100
AcDbLine
 10
18.08530774875403
 20
26.58132660524077
 30
0.0
 11
18.27280774875407
 21
26.58132660524077
 31
0.0
  0
LINE
  5
286F
330
18
100
AcDbEntity
  8
HIDE
100
AcDbLine
 10
18.08530774875407
 20
26.58132660524077
 30
0.0
 11
17.99730774875406
 21
26.58950913434909
 31
0.0
  0
LINE
  5
2870
330
18
100
AcDbEntity
  8
HIDE
100
AcDbLine
 10
18.08530774875407
 20
27.32761320591292
 30
0.0
 11
18.08530774875407
 21
26.58132660524077
 31
0.0
  0
LINE
  5
2871
330
18
100
AcDbEntity
  8
HIDE
100
AcDbLine
 10
17.99730774875406
 20
27.32761320591292
 30
0.0
 11
17.99730774875406
 21
26.58908345151167
 31
0.0
  0
ARC
  5
2872
330
18
100
AcDbEntity
  8
HIDE
100
AcDbCircle
 10
18.74256003320232
 20
26.96408345151166
 30
0.0
 40
0.375
100
AcDbArc
 50
270.0
 51
0.0
  0
LINE
  5
2873
330
18
100
AcDbEntity
  8
HIDE
100
AcDbLine
 10
18.27280774875407
 20
26.58132660524077
 30
0.0
 11
18.36080774875407
 21
26.58950913434909
 31
0.0
  0
LINE
  5
2874
330
18
100
AcDbEntity
  8
HIDE
100
AcDbLine
 10
18.27280774875407
 20
26.97111320591291
 30
0.0
 11
18.27280774875407
 21
26.58132660524077
 31
0.0
  0
ARC
  5
2875
330
18
100
AcDbEntity
  8
HIDE
100
AcDbCircle
 10
18.85905774875407
 20
26.84786320591289
 30
0.0
 40
0.375
100
AcDbArc
 50
270.0
 51
0.0
  0
CIRCLE
  5
2876
330
18
100
AcDbEntity
  8
HIDE
100
AcDbCircle
 10
19.31680774875406
 20
26.3901132059129
 30
0.0
 40
0.076
  0
CIRCLE
  5
2877
330
18
100
AcDbEntity
  8
HIDE
100
AcDbCircle
 10
19.31680774875406
 20
26.3901132059129
 30
0.0
 40
0.1
  0
LINE
  5
2878
330
18
100
AcDbEntity
  8
HIDE
100
AcDbLine
 10
18.82162466002936
 20
27.34611320591291
 30
0.0
 11
19.11756003320231
 21
27.34611320591292
 31
0.0
  0
LINE
  5
2879
330
18
100
AcDbEntity
  8
HIDE
100
AcDbLine
 10
18.74256003320232
 20
26.58908345151167
 30
0.0
 11
18.36080774875407
 21
26.58908345151168
 31
0.0
  0
ARC
  5
287A
330
18
100
AcDbEntity
  8
HIDE
100
AcDbCircle
 10
18.37930774875407
 20
27.32761320591292
 30
0.0
 40
0.382
100
AcDbArc
 50
275.6808765043638
 51
354.3191234956345
  0
ARC
  5
287B
330
18
100
AcDbEntity
  8
HIDE
100
AcDbCircle
 10
18.33530774875407
 20
26.97111320591291
 30
0.0
 40
0.0625
100
AcDbArc
 50
90.00000000000529
 51
180.0
  0
LINE
  5
287C
330
18
100
AcDbEntity
  8
HIDE
100
AcDbLine
 10
18.33530774875407
 20
27.03361320591291
 30
0.0
 11
18.37930774875407
 21
27.03361320591292
 31
0.0
  0
ARC
  5
287D
330
18
100
AcDbEntity
  8
HIDE
100
AcDbCircle
 10
18.42330774875407
 20
26.88529629463765
 30
0.0
 40
0.0625
100
AcDbArc
 50
95.6808765043638
 51
179.9999999999935
  0
LINE
  5
287E
330
18
100
AcDbEntity
  8
HIDE
100
AcDbLine
 10
18.36080774875407
 20
26.88529629463765
 30
0.0
 11
18.36080774875407
 21
26.58908345151167
 31
0.0
  0
ARC
  5
287F
330
18
100
AcDbEntity
  8
HIDE
100
AcDbCircle
 10
18.37930774875407
 20
27.32761320591292
 30
0.0
 40
0.294
100
AcDbArc
 50
269.9999999999992
 51
0.0
  0
ARC
  5
2880
330
18
100
AcDbEntity
  8
HIDE
100
AcDbCircle
 10
18.82162466002936
 20
27.28361320591291
 30
0.0
 40
0.0625
100
AcDbArc
 50
90.0
 51
174.3191234956329
  0
LINE
  5
2881
330
18
100
AcDbEntity
  8
HIDE
100
AcDbLine
 10
18.67330774875408
 20
27.37161320591292
 30
0.0
 11
18.67330774875407
 21
27.32761320591292
 31
0.0
  0
LINE
  5
2882
330
18
100
AcDbEntity
  8
HIDE
100
AcDbLine
 10
19.11756003320231
 20
26.96408345151166
 30
0.0
 11
19.11756003320231
 21
27.34611320591292
 31
0.0
  0
LINE
  5
2883
330
18
100
AcDbEntity
  8
HIDE
100
AcDbLine
 10
12.17330774875407
 20
33.8716132059129
 30
0.0
 11
12.12930774875406
 21
33.8716132059129
 31
0.0
  0
ARC
  5
2884
330
18
100
AcDbEntity
  8
HIDE
100
AcDbCircle
 10
12.12930774875406
 20
33.57761320591292
 30
0.0
 40
0.382
100
AcDbArc
 50
270.0
 51
0.0
  0
ARC
  5
2885
330
18
100
AcDbEntity
  8
HIDE
100
AcDbCircle
 10
12.12930774875406
 20
33.57761320591292
 30
0.0
 40
0.294
100
AcDbArc
 50
270.0
 51
0.0
  0
CIRCLE
  5
2886
330
18
100
AcDbEntity
  8
HIDE
100
AcDbCircle
 10
12.12930774875406
 20
33.57761320591292
 30
0.0
 40
0.076
  0
LINE
  5
2887
330
18
100
AcDbEntity
  8
0
100
AcDbLine
 10
19.97480774875406
 20
31.1711132059129
 30
0.0
 11
19.97480774875406
 21
29.73411320591291
 31
0.0
  0
LINE
  5
2888
330
18
100
AcDbEntity
  8
0
100
AcDbLine
 10
20.23480774875406
 20
30.7926132059129
 30
0.0
 11
20.23480774875406
 21
30.1126132059129
 31
0.0
  0
LINE
  5
2889
330
18
100
AcDbEntity
  8
0
100
AcDbLine
 10
20.01880774875406
 20
30.1126132059129
 30
0.0
 11
20.01880774875406
 21
30.7926132059129
 31
0.0
  0
LINE
  5
288A
330
18
100
AcDbEntity
  8
HIDE
100
AcDbLine
 10
19.11756003320231
 20
27.70961320591292
 30
0.0
 11
19.11756003320231
 21
33.1956132059129
 31
0.0
  0
LINE
  5
288B
330
18
100
AcDbEntity
  8
HIDE
100
AcDbLine
 10
18.37930774875409
 20
27.70961320591292
 30
0.0
 11
19.11756003320231
 21
27.70961320591292
 31
0.0
  0
LINE
  5
288C
330
18
100
AcDbEntity
  8
HIDE
100
AcDbLine
 10
18.37930774875409
 20
27.62161320591292
 30
0.0
 11
19.12571552910756
 21
27.6216132059129
 31
0.0
  0
LINE
  5
288D
330
18
100
AcDbEntity
  8
HIDE
100
AcDbLine
 10
18.73580774875408
 20
27.4341132059129
 30
0.0
 11
19.12571552910756
 21
27.4341132059129
 31
0.0
  0
LINE
  5
288E
330
18
100
AcDbEntity
  8
HIDE
100
AcDbLine
 10
19.12571552910756
 20
27.6216132059129
 30
0.0
 11
19.12571552910756
 21
27.4341132059129
 31
0.0
  0
LINE
  5
288F
330
18
100
AcDbEntity
  8
HIDE
100
AcDbLine
 10
19.12571552910756
 20
27.6216132059129
 30
0.0
 11
19.11756003320231
 21
27.70961320591292
 31
0.0
  0
INSERT
  5
2890
330
18
100
AcDbEntity
  8
DIM
100
AcDbBlockReference
  2
SAAL
 10
20.15517806187955
 20
28.77779839085015
 30
0.0
 41
-2.25
 42
2.25
 43
2.25
  0
LINE
  5
2891
330
18
100
AcDbEntity
  8
0
100
AcDbLine
 10
19.97480774875406
 20
29.73411320591291
 30
0.0
 11
19.94180774875406
 21
29.73411320591291
 31
0.0
  0
LINE
  5
2892
330
18
100
AcDbEntity
  8
0
100
AcDbLine
 10
20.23480774875406
 20
30.1126132059129
 30
0.0
 11
20.01880774875406
 21
30.1126132059129
 31
0.0
  0
LINE
  5
2893
330
18
100
AcDbEntity
  8
0
100
AcDbLine
 10
19.97480774875406
 20
30.0426132059129
 30
0.0
 11
20.16080774875406
 21
30.0426132059129
 31
0.0
  0
LINE
  5
2894
330
18
100
AcDbEntity
  8
0
100
AcDbLine
 10
20.11080774875406
 20
30.0426132059129
 30
0.0
 11
20.11080774875406
 21
30.1126132059129
 31
0.0
  0
LINE
  5
2895
330
18
100
AcDbEntity
  8
0
100
AcDbLine
 10
20.16080774875406
 20
30.0426132059129
 30
0.0
 11
20.16080774875406
 21
30.1126132059129
 31
0.0
  0
ARC
  5
2896
330
18
100
AcDbEntity
  8
HIDE
100
AcDbCircle
 10
18.37930774875407
 20
33.57761320591292
 30
0.0
 40
0.294
100
AcDbArc
 50
180.0
 51
270.0
  0
ARC
  5
2897
330
18
100
AcDbEntity
  8
HIDE
100
AcDbCircle
 10
18.37930774875407
 20
33.57761320591292
 30
0.0
 40
0.382
100
AcDbArc
 50
180.0
 51
270.0
  0
LINE
  5
2898
330
18
100
AcDbEntity
  8
HIDE
100
AcDbLine
 10
18.82162466002936
 20
33.5591132059129
 30
0.0
 11
19.11756003320231
 21
33.55911320591292
 31
0.0
  0
LINE
  5
2899
330
18
100
AcDbEntity
  8
HIDE
100
AcDbLine
 10
18.73580774875408
 20
33.47111320591291
 30
0.0
 11
19.12571552910756
 21
33.47111320591292
 31
0.0
  0
LINE
  5
289A
330
18
100
AcDbEntity
  8
HIDE
100
AcDbLine
 10
18.37930774875409
 20
33.28361320591291
 30
0.0
 11
19.12571552910756
 21
33.28361320591292
 31
0.0
  0
LINE
  5
289B
330
18
100
AcDbEntity
  8
HIDE
100
AcDbLine
 10
18.37930774875409
 20
33.19561320591291
 30
0.0
 11
19.11756003320231
 21
33.1956132059129
 31
0.0
  0
CIRCLE
  5
289C
330
18
100
AcDbEntity
  8
HIDE
100
AcDbCircle
 10
18.37930774875407
 20
33.57761320591292
 30
0.0
 40
0.076
  0
LINE
  5
289D
330
18
100
AcDbEntity
  8
HIDE
100
AcDbLine
 10
18.33530774875407
 20
33.8716132059129
 30
0.0
 11
18.37930774875407
 21
33.8716132059129
 31
0.0
  0
LINE
  5
289E
330
18
100
AcDbEntity
  8
HIDE
100
AcDbLine
 10
18.67330774875408
 20
33.53361320591291
 30
0.0
 11
18.67330774875407
 21
33.5776132059129
 31
0.0
  0
ARC
  5
289F
330
18
100
AcDbEntity
  8
HIDE
100
AcDbCircle
 10
18.82162466002936
 20
33.62161320591292
 30
0.0
 40
0.0625
100
AcDbArc
 50
185.680876504367
 51
270.0
  0
ARC
  5
28A0
330
18
100
AcDbEntity
  8
HIDE
100
AcDbCircle
 10
18.73580774875408
 20
33.53361320591291
 30
0.0
 40
0.0625
100
AcDbArc
 50
180.0
 51
270.0
  0
LINE
  5
28A1
330
18
100
AcDbEntity
  8
HIDE
100
AcDbLine
 10
19.11756003320231
 20
33.55911320591292
 30
0.0
 11
19.12571552910756
 21
33.47111320591292
 31
0.0
  0
LINE
  5
28A2
330
18
100
AcDbEntity
  8
HIDE
100
AcDbLine
 10
19.12571552910756
 20
33.28361320591292
 30
0.0
 11
19.11756003320231
 21
33.1956132059129
 31
0.0
  0
LINE
  5
28A3
330
18
100
AcDbEntity
  8
HIDE
100
AcDbLine
 10
19.12571552910756
 20
33.28361320591292
 30
0.0
 11
19.12571552910756
 21
33.47111320591292
 31
0.0
  0
LINE
  5
28A4
330
18
100
AcDbEntity
  8
0
100
AcDbLine
 10
20.01880774875406
 20
30.7926132059129
 30
0.0
 11
20.23480774875406
 21
30.7926132059129
 31
0.0
  0
LINE
  5
28A5
330
18
100
AcDbEntity
  8
0
100
AcDbLine
 10
19.97480774875406
 20
30.8626132059129
 30
0.0
 11
20.16080774875406
 21
30.8626132059129
 31
0.0
  0
LINE
  5
28A6
330
18
100
AcDbEntity
  8
0
100
AcDbLine
 10
20.11080774875406
 20
30.8626132059129
 30
0.0
 11
20.11080774875406
 21
30.7926132059129
 31
0.0
  0
LINE
  5
28A7
330
18
100
AcDbEntity
  8
0
100
AcDbLine
 10
19.94180774875406
 20
31.1711132059129
 30
0.0
 11
19.97480774875406
 21
31.1711132059129
 31
0.0
  0
LINE
  5
28A8
330
18
100
AcDbEntity
  8
0
100
AcDbLine
 10
20.16080774875406
 20
30.8626132059129
 30
0.0
 11
20.16080774875406
 21
30.7926132059129
 31
0.0
  0
LEADER
  5
28A9
330
18
100
AcDbEntity
  8
DIM
100
AcDbLeader
  3
STANDARD
 73
     0
 40
0.18
 41
1.56
 76
     3
 10
31.41355635097188
 20
29.97058282609283
 30
0.0
 10
29.57957220623368
 20
27.52182055919739
 30
0.0
 10
29.32957220623368
 20
27.5218205591974
 30
0.0
340
28AA
213
0.0
223
0.09
233
0.0
1001
ACAD
1000
DSTYLE
1002
{
1070
    77
1070
     0
1070
    41
1040
0.1875
1070
    43
1040
0.375
1070
    44
1040
0.1875
1070
   141
1040
0.09375
1070
   147
1040
0.1875
1070
   271
1070
     3
1070
   272
1070
     3
1070
   276
1070
     2
1070
   289
1070
     0
1002
}
  0
MTEXT
  5
28AA
102
{ACAD_REACTORS
330
28A9
102
}
330
18
100
AcDbEntity
  8
DIM
100
AcDbMText
 10
29.14207220623368
 20
27.4318205591974
 30
0.0
 40
0.18
 41
0.0
 46
0.0
 71
     9
 72
     1
  1
SSL LATCH
 73
     1
 44
1.0
  0
LINE
  5
28AB
330
18
100
AcDbEntity
  8
0
100
AcDbLine
 10
31.9035563509718
 20
29.94783282609256
 30
0.0
 11
31.90355635097179
 21
25.7651132059129
 31
0.0
  0
LINE
  5
28AC
330
18
100
AcDbEntity
  8
0
100
AcDbLine
 10
31.98342531286346
 20
30.07658282609283
 30
0.0
 11
31.98342531286348
 21
26.12072246651287
 31
0.0
  0
ARC
  5
28AD
330
18
100
AcDbEntity
  8
0
100
AcDbCircle
 10
31.40355635097177
 20
26.03265613519451
 30
0.0
 40
0.25
100
AcDbArc
 50
180.0
 51
268.0000000000005
1001
ACAD
1000
ASC_BOUNDS
1002
{
1070
    19
1005
0
1002
}
  0
LINE
  5
28AE
330
18
100
AcDbEntity
  8
0
100
AcDbLine
 10
31.15355635097176
 20
26.57818935253555
 30
0.0
 11
31.15355635097177
 21
26.03265613519449
 31
0.0
1001
ACAD
1000
ASC_BOUNDS
1002
{
1070
    19
1005
0
1002
}
  0
LINE
  5
28AF
330
18
100
AcDbEntity
  8
0
100
AcDbLine
 10
31.90355635097179
 20
25.7651132059129
 30
0.0
 11
31.39483147679615
 21
25.78280842843973
 31
0.0
1001
ACAD
1000
ASC_BOUNDS
1002
{
1070
    19
1005
0
1002
}
  0
LINE
  5
28B0
330
18
100
AcDbEntity
  8
0
100
AcDbLine
 10
31.90355635097179
 20
26.04706250781926
 30
0.0
 11
31.9529933424981
 21
26.04835706100199
 31
0.0
  0
LINE
  5
28B1
330
18
100
AcDbEntity
  8
0
100
AcDbLine
 10
31.98342531286348
 20
26.12072246651287
 30
0.0
 11
31.98342531286349
 21
26.07959635240747
 31
0.0
  0
ARC
  5
28B2
330
18
100
AcDbEntity
  8
0
100
AcDbCircle
 10
32.23342531286347
 20
26.12072246651297
 30
0.0
 40
0.25
100
AcDbArc
 50
91.49999999999987
 51
180.0000000000219
  0
ARC
  5
28B3
330
18
100
AcDbEntity
  8
0
100
AcDbCircle
 10
31.95217531286349
 20
26.07959635240747
 30
0.0
 40
0.03125
100
AcDbArc
 50
271.4999999999998
 51
0.0
  0
LINE
  5
28B4
330
18
100
AcDbEntity
  8
0
100
AcDbLine
 10
31.98342531286349
 20
26.12428950583922
 30
0.0
 11
31.98342531286349
 21
26.11002666010038
 31
0.0
1001
ACAD
1000
ASC_BOUNDS
1002
{
1070
    19
1005
0
1002
}
  0
LWPOLYLINE
  5
28B5
330
18
100
AcDbEntity
  8
0
100
AcDbPolyline
 90
        9
 70
     0
 43
0.0
 10
32.78002394608968
 20
30.48658282609282
 42
-0.0887773810753195
 10
32.80206368925232
 20
30.6097337816093
 42
-0.0939231187313639
 10
32.86306866479355
 20
30.71116527879344
 42
-0.1022520253046176
 10
32.95667584744317
 20
30.78060215868176
 42
-0.1090366210827957
 10
33.06355635097188
 20
30.80419037657303
 42
-0.1090366210827979
 10
33.17043685450058
 20
30.78060215868176
 42
-0.1022520253046162
 10
33.2640440371502
 20
30.71116527879344
 42
-0.0939231187313632
 10
33.32504901269143
 20
30.6097337816093
 42
-0.0887773810753221
 10
33.34708875585406
 20
30.48658282609282
 42
-0.0887773810753206
  0
LWPOLYLINE
  5
28B6
330
18
100
AcDbEntity
  8
0
100
AcDbPolyline
 90
        5
 70
     0
 43
0.0
 10
33.09355635097188
 20
30.82141769309366
 42
-0.0717600669602532
 10
33.17199126399031
 20
30.80086161797897
 42
-0.1022520253046162
 10
33.27795949351956
 20
30.72783720671203
 42
-0.0939231187313624
 10
33.34854902638976
 20
30.61922477121656
 42
-0.0887773810753224
 10
33.37708875585405
 20
30.48658282609282
 42
-0.0887773810753224
  0
LINE
  5
28B7
330
18
100
AcDbEntity
  8
0
100
AcDbLine
 10
31.41355635097188
 20
30.95533282609282
 30
0.0
 11
31.41355635097188
 21
30.48658282609282
 31
0.0
  0
LINE
  5
28B8
330
18
100
AcDbEntity
  8
0
100
AcDbLine
 10
31.86355635097188
 20
30.82658282609282
 30
0.0
 11
31.86355635097188
 21
30.48658282609282
 31
0.0
  0
LINE
  5
28B9
330
18
100
AcDbEntity
  8
0
100
AcDbLine
 10
32.56355635097188
 20
30.87658282609281
 30
0.0
 11
32.56355635097188
 21
30.48658282609282
 31
0.0
  0
LINE
  5
28BA
330
18
100
AcDbEntity
  8
0
100
AcDbLine
 10
32.58855635097187
 20
30.87658282609281
 30
0.0
 11
32.58855635097187
 21
30.48658282609282
 31
0.0
  0
LWPOLYLINE
  5
28BB
330
18
100
AcDbEntity
  8
0
100
AcDbPolyline
 90
        5
 70
     0
 43
0.0
 10
32.75002394608968
 20
30.48658282609282
 42
-0.0887773810753194
 10
32.77768987504241
 20
30.61940977418426
 42
-0.0939231187313641
 10
32.84756288255295
 20
30.7284845472371
 42
-0.1022520253046177
 10
32.95304809614275
 20
30.80220496519821
 42
-0.0737297132451344
 10
33.03355635097188
 20
30.82353382620921
 42
-0.1090366210827978
  0
LINE
  5
28BC
330
18
100
AcDbEntity
  8
0
100
AcDbLine
 10
31.86355635097188
 20
30.14658282609282
 30
0.0
 11
32.56355635097188
 21
30.14658282609282
 31
0.0
  0
ARC
  5
28BD
330
18
100
AcDbEntity
  8
0
100
AcDbCircle
 10
32.55855635097187
 20
30.09658282609281
 30
0.0
 40
0.025
100
AcDbArc
 50
180.0000000000006
 51
270.0
  0
ARC
  5
28BE
330
18
100
AcDbEntity
  8
0
100
AcDbCircle
 10
31.66355635097187
 20
30.01783282609282
 30
0.0
 40
0.25
100
AcDbArc
 50
180.0
 51
270.0
  0
ARC
  5
28BF
330
18
100
AcDbEntity
  8
0
100
AcDbCircle
 10
31.66355635097187
 20
30.01783282609282
 30
0.0
 40
0.25
100
AcDbArc
 50
270.0
 51
0.0
  0
LINE
  5
28C0
330
18
100
AcDbEntity
  8
0
100
AcDbLine
 10
31.66355635097187
 20
29.76783282609282
 30
0.0
 11
31.66355635097187
 21
29.76783282609282
 31
0.0
  0
LINE
  5
28C1
330
18
100
AcDbEntity
  8
0
100
AcDbLine
 10
31.91355635097187
 20
30.07658282609283
 30
0.0
 11
32.06355635097188
 21
30.07658282609283
 31
0.0
  0
CIRCLE
  5
28C2
330
18
100
AcDbEntity
  8
0
100
AcDbCircle
 10
31.66355635097187
 20
30.01783282609282
 30
0.0
 40
0.045
  0
CIRCLE
  5
28C3
330
18
100
AcDbEntity
  8
0
100
AcDbCircle
 10
31.66355635097187
 20
30.01783282609282
 30
0.0
 40
0.075
  0
LINE
  5
28C4
330
18
100
AcDbEntity
  8
0
100
AcDbLine
 10
31.86355635097188
 20
30.14658282609282
 30
0.0
 11
31.86355635097188
 21
30.48658282609282
 31
0.0
  0
LINE
  5
28C5
330
18
100
AcDbEntity
  8
0
100
AcDbLine
 10
31.91355635097187
 20
30.01783282609282
 30
0.0
 11
31.91355635097187
 21
30.14658282609282
 31
0.0
  0
LINE
  5
28C6
330
18
100
AcDbEntity
  8
0
100
AcDbLine
 10
31.41355635097188
 20
30.01783282609282
 30
0.0
 11
31.41355635097188
 21
30.48658282609282
 31
0.0
  0
LINE
  5
28C7
330
18
100
AcDbEntity
  8
0
100
AcDbLine
 10
31.93355635097187
 20
30.07658282609283
 30
0.0
 11
31.93355635097187
 21
30.14658282609282
 31
0.0
  0
LINE
  5
28C8
330
18
100
AcDbEntity
  8
0
100
AcDbLine
 10
32.53355635097188
 20
30.09658282609281
 30
0.0
 11
32.53355635097188
 21
30.14658282609282
 31
0.0
  0
LINE
  5
28C9
330
18
100
AcDbEntity
  8
0
100
AcDbLine
 10
32.06355635097188
 20
30.07658282609283
 30
0.0
 11
32.06355635097188
 21
30.14658282609282
 31
0.0
  0
LINE
  5
28CA
330
18
100
AcDbEntity
  8
0
100
AcDbLine
 10
33.06779094332892
 20
29.97231810396725
 30
0.0
 11
33.45106942807969
 21
29.79007009167535
 31
0.0
  0
LINE
  5
28CB
330
18
100
AcDbEntity
  8
0
100
AcDbLine
 10
33.62605635097188
 20
29.73658282609282
 30
0.0
 11
33.63325147249212
 21
29.73658282609282
 31
0.0
  0
LWPOLYLINE
  5
28CC
330
18
100
AcDbEntity
  8
0
100
AcDbPolyline
 90
        5
 70
     0
 43
0.0
 10
33.09355635097188
 20
30.15174795909199
 42
0.0717600669602532
 10
33.17199126399031
 20
30.17230403420664
 42
0.1022520253046162
 10
33.27795949351956
 20
30.24532844547358
 42
0.0939231187313624
 10
33.34854902638976
 20
30.35394088096909
 42
0.0887773810753224
 10
33.37708875585405
 20
30.48658282609282
 42
0.0887773810753224
  0
LWPOLYLINE
  5
28CD
330
18
100
AcDbEntity
  8
0
100
AcDbPolyline
 90
        9
 70
     0
 43
0.0
 10
32.78002394608968
 20
30.48658282609282
 42
0.0887773810753195
 10
32.80206368925232
 20
30.36343187057634
 42
0.0939231187313639
 10
32.86306866479355
 20
30.26200037339221
 42
0.1022520253046176
 10
32.95667584744317
 20
30.19256349350389
 42
0.1090366210827957
 10
33.06355635097188
 20
30.16897527561259
 42
0.1090366210827979
 10
33.17043685450058
 20
30.19256349350389
 42
0.1022520253046162
 10
33.2640440371502
 20
30.26200037339221
 42
0.0939231187313632
 10
33.32504901269143
 20
30.36343187057634
 42
0.0887773810753221
 10
33.34708875585406
 20
30.48658282609282
 42
0.0887773810753206
  0
ARC
  5
28CE
330
18
100
AcDbEntity
  8
0
100
AcDbCircle
 10
33.09355635097187
 20
30.0265042993402
 30
0.0
 40
0.06
100
AcDbArc
 50
180.0
 51
244.5690229226201
  0
LINE
  5
28CF
330
18
100
AcDbEntity
  8
0
100
AcDbLine
 10
32.63366327094468
 20
30.0715828260928
 30
0.0
 11
33.03355635097188
 21
30.0715828260928
 31
0.0
  0
LINE
  5
28D0
330
18
100
AcDbEntity
  8
0
100
AcDbLine
 10
32.63366327094468
 20
30.0715828260928
 30
0.0
 11
32.56031994821054
 21
30.0715828260928
 31
0.0
  0
ARC
  5
28D1
330
18
100
AcDbEntity
  8
0
100
AcDbCircle
 10
32.56355635097188
 20
30.09658282609281
 30
0.0
 40
0.025
100
AcDbArc
 50
270.0
 51
0.0
  0
LINE
  5
28D2
330
18
100
AcDbEntity
  8
0
100
AcDbLine
 10
32.55855635097187
 20
30.09658282609281
 30
0.0
 11
32.56355635097188
 21
30.09658282609281
 31
0.0
  0
LINE
  5
28D3
330
18
100
AcDbEntity
  8
0
100
AcDbLine
 10
32.55855635097187
 20
30.09658282609281
 30
0.0
 11
32.55855635097187
 21
30.14658282609282
 31
0.0
  0
LINE
  5
28D4
330
18
100
AcDbEntity
  8
0
100
AcDbLine
 10
32.58855635097187
 20
30.09658282609281
 30
0.0
 11
32.58855635097187
 21
30.48658282609282
 31
0.0
  0
LINE
  5
28D5
330
18
100
AcDbEntity
  8
0
100
AcDbLine
 10
32.55855635097187
 20
30.0715828260928
 30
0.0
 11
32.56355635097188
 21
30.0715828260928
 31
0.0
  0
LINE
  5
28D6
330
18
100
AcDbEntity
  8
0
100
AcDbLine
 10
32.56355635097188
 20
30.09658282609281
 30
0.0
 11
32.56355635097188
 21
30.48658282609282
 31
0.0
  0
LINE
  5
28D7
330
18
100
AcDbEntity
  8
0
100
AcDbLine
 10
33.03355635097188
 20
30.0715828260928
 30
0.0
 11
33.03355635097188
 21
30.0265042993402
 31
0.0
  0
LWPOLYLINE
  5
28D8
330
18
100
AcDbEntity
  8
0
100
AcDbPolyline
 90
        5
 70
     0
 43
0.0
 10
32.75002394608968
 20
30.48658282609282
 42
0.0887773810753194
 10
32.77768987504241
 20
30.35375587800139
 42
0.0939231187313641
 10
32.84756288255294
 20
30.24468110494852
 42
0.1022520253046177
 10
32.95304809614274
 20
30.17096068698741
 42
0.0737297132451344
 10
33.03355635097188
 20
30.14963182597643
 42
0.1090366210827978
  0
LINE
  5
28D9
330
18
100
AcDbEntity
  8
0
100
AcDbLine
 10
33.09355635097188
 20
30.15174795909199
 30
0.0
 11
33.09355635097188
 21
30.17075359495358
 31
0.0
  0
LINE
  5
28DA
330
18
100
AcDbEntity
  8
0
100
AcDbLine
 10
33.03355635097188
 20
30.0715828260928
 30
0.0
 11
33.03355635097188
 21
30.17075359495358
 31
0.0
  0
CIRCLE
  5
28DB
330
18
100
AcDbEntity
  8
0
100
AcDbCircle
 10
33.66674783427106
 20
29.99416486556724
 30
0.0
 40
0.09375
  0
LINE
  5
28DC
330
18
100
AcDbEntity
  8
0
100
AcDbLine
 10
31.86355635097188
 20
30.82658282609282
 30
0.0
 11
32.56355635097188
 21
30.82658282609282
 31
0.0
  0
ARC
  5
28DD
330
18
100
AcDbEntity
  8
0
100
AcDbCircle
 10
32.55855635097187
 20
30.87658282609281
 30
0.0
 40
0.025
100
AcDbArc
 50
90.0
 51
179.9999999999992
  0
ARC
  5
28DE
330
18
100
AcDbEntity
  8
0
100
AcDbCircle
 10
31.66355635097187
 20
30.95533282609282
 30
0.0
 40
0.25
100
AcDbArc
 50
0.0
 51
90.0
  0
LINE
  5
28DF
330
18
100
AcDbEntity
  8
0
100
AcDbLine
 10
31.91355635097187
 20
30.89658282609282
 30
0.0
 11
32.06355635097188
 21
30.89658282609282
 31
0.0
  0
ARC
  5
28E0
330
18
100
AcDbEntity
  8
0
100
AcDbCircle
 10
31.66355635097187
 20
30.95533282609282
 30
0.0
 40
0.25
100
AcDbArc
 50
90.0
 51
180.0
  0
CIRCLE
  5
28E1
330
18
100
AcDbEntity
  8
0
100
AcDbCircle
 10
31.66355635097187
 20
30.95533282609282
 30
0.0
 40
0.045
  0
LINE
  5
28E2
330
18
100
AcDbEntity
  8
0
100
AcDbLine
 10
31.91355635097187
 20
30.95533282609282
 30
0.0
 11
31.91355635097187
 21
30.82658282609282
 31
0.0
  0
CIRCLE
  5
28E3
330
18
100
AcDbEntity
  8
0
100
AcDbCircle
 10
31.66355635097187
 20
30.95533282609282
 30
0.0
 40
0.075
  0
LINE
  5
28E4
330
18
100
AcDbEntity
  8
0
100
AcDbLine
 10
31.66355635097187
 20
31.20533282609282
 30
0.0
 11
31.66355635097187
 21
31.20533282609282
 31
0.0
  0
LINE
  5
28E5
330
18
100
AcDbEntity
  8
0
100
AcDbLine
 10
31.93355635097187
 20
30.89658282609282
 30
0.0
 11
31.93355635097187
 21
30.82658282609282
 31
0.0
  0
LINE
  5
28E6
330
18
100
AcDbEntity
  8
0
100
AcDbLine
 10
32.06355635097188
 20
30.89658282609282
 30
0.0
 11
32.06355635097188
 21
30.82658282609282
 31
0.0
  0
LINE
  5
28E7
330
18
100
AcDbEntity
  8
0
100
AcDbLine
 10
32.53355635097188
 20
30.87658282609281
 30
0.0
 11
32.53355635097188
 21
30.82658282609282
 31
0.0
  0
LINE
  5
28E8
330
18
100
AcDbEntity
  8
0
100
AcDbLine
 10
33.06779094332892
 20
31.00084754821837
 30
0.0
 11
33.45106942807969
 21
31.18309556051029
 31
0.0
  0
LINE
  5
28E9
330
18
100
AcDbEntity
  8
0
100
AcDbLine
 10
32.63366327094468
 20
30.90158282609281
 30
0.0
 11
33.03355635097188
 21
30.90158282609281
 31
0.0
  0
LINE
  5
28EA
330
18
100
AcDbEntity
  8
0
100
AcDbLine
 10
32.55855635097187
 20
30.90158282609281
 30
0.0
 11
32.56355635097188
 21
30.90158282609281
 31
0.0
  0
LINE
  5
28EB
330
18
100
AcDbEntity
  8
0
100
AcDbLine
 10
32.55855635097187
 20
30.87658282609281
 30
0.0
 11
32.55855635097187
 21
30.82658282609282
 31
0.0
  0
LINE
  5
28EC
330
18
100
AcDbEntity
  8
0
100
AcDbLine
 10
32.55855635097187
 20
30.87658282609281
 30
0.0
 11
32.56355635097188
 21
30.87658282609281
 31
0.0
  0
ARC
  5
28ED
330
18
100
AcDbEntity
  8
0
100
AcDbCircle
 10
32.56355635097188
 20
30.87658282609281
 30
0.0
 40
0.025
100
AcDbArc
 50
0.0
 51
90.0
  0
LINE
  5
28EE
330
18
100
AcDbEntity
  8
0
100
AcDbLine
 10
32.63366327094468
 20
30.90158282609281
 30
0.0
 11
32.56031994821054
 21
30.90158282609281
 31
0.0
  0
LINE
  5
28EF
330
18
100
AcDbEntity
  8
0
100
AcDbLine
 10
33.03355635097188
 20
30.90158282609281
 30
0.0
 11
33.03355635097188
 21
30.80241205723204
 31
0.0
  0
LINE
  5
28F0
330
18
100
AcDbEntity
  8
0
100
AcDbLine
 10
33.09355635097188
 20
30.82141769309366
 30
0.0
 11
33.09355635097188
 21
30.80241205723204
 31
0.0
  0
LINE
  5
28F1
330
18
100
AcDbEntity
  8
0
100
AcDbLine
 10
33.03355635097188
 20
30.90158282609281
 30
0.0
 11
33.03355635097188
 21
30.94666135284545
 31
0.0
  0
ARC
  5
28F2
330
18
100
AcDbEntity
  8
0
100
AcDbCircle
 10
33.09355635097188
 20
30.94666135284545
 30
0.0
 40
0.06
100
AcDbArc
 50
115.4309770773794
 51
180.0
  0
CIRCLE
  5
28F3
330
18
100
AcDbEntity
  8
0
100
AcDbCircle
 10
33.66674783427106
 20
30.97900078661838
 30
0.0
 40
0.09375
  0
LINE
  5
28F4
330
18
100
AcDbEntity
  8
0
100
AcDbLine
 10
33.62605635097188
 20
31.23658282609282
 30
0.0
 11
33.63325147249212
 21
31.23658282609282
 31
0.0
  0
LINE
  5
28F6
330
18
100
AcDbEntity
  8
0
100
AcDbLine
 10
12.13154553889447
 20
35.23337541577253
 30
0.0
 11
18.37706995861369
 21
35.23337541577253
 31
0.0
  0
DIMENSION
  5
28F7
330
18
100
AcDbEntity
  8
DIM
100
AcDbDimension
280
     0
  2
*D13
 10
18.25206995861369
 20
37.27936854096033
 30
0.0
 11
15.25206995861368
 21
37.27936854096033
 31
0.0
 70
   160
 71
     5
 42
6.000000000000014
 73
     0
 74
     0
 75
     0
  3
STANDARD
100
AcDbAlignedDimension
 13
12.25206995861367
 23
34.91307176251947
 33
0.0
 14
18.25206995861369
 24
34.91307176251947
 34
0.0
100
AcDbRotatedDimension
1001
ACAD
1000
DSTYLE
1002
{
1070
    41
1040
0.1875
1070
    43
1040
0.375
1070
    44
1040
0.1875
1070
   141
1040
0.09375
1070
   147
1040
0.1875
1070
   271
1070
     5
1070
   272
1070
     5
1070
   276
1070
     2
1070
   277
1070
     5
1070
   289
1070
     0
1002
}
  0
LINE
  5
28F8
330
18
100
AcDbEntity
  8
0
100
AcDbLine
 10
17.81926330733661
 20
35.1401132059129
 30
0.0
 11
12.73789426059767
 21
35.1401132059129
 31
0.0
  0
LINE
  5
28F9
330
18
100
AcDbEntity
  8
0
100
AcDbLine
 10
17.82503156194767
 20
35.12241798338607
 30
0.0
 11
12.73218906841931
 21
35.12241798338607
 31
0.0
  0
LINE
  5
28FA
330
18
100
AcDbEntity
  8
HIDE
100
AcDbLine
 10
17.99730774875406
 20
34.31614296031416
 30
0.0
 11
12.51130774875406
 21
34.31614296031415
 31
0.0
  0
INSERT
  5
28FB
330
18
100
AcDbEntity
  8
DIM
100
AcDbBlockReference
  2
SBT
 10
14.26941591126189
 20
35.50135586014523
 30
0.0
 41
1.6875
 42
1.6875
 43
1.6875
  0
CIRCLE
  5
28FC
330
18
100
AcDbEntity
  8
0
100
AcDbCircle
 10
12.25206995861367
 20
34.81155955265985
 30
0.0
 40
0.156
  0
LINE
  5
28FD
330
18
100
AcDbEntity
  8
DIM
100
AcDbLine
 10
12.25206995861367
 20
34.71780955265985
 30
0.0
 11
12.25206995861367
 21
34.90530955265985
 31
0.0
  0
LINE
  5
28FE
330
18
100
AcDbEntity
  8
HIDE
100
AcDbLine
 10
12.23580774875405
 20
34.32432548942248
 30
0.0
 11
12.14780774875406
 21
34.31614296031416
 31
0.0
  0
LINE
  5
28FF
330
18
100
AcDbEntity
  8
HIDE
100
AcDbLine
 10
12.42330774875407
 20
34.32432548942248
 30
0.0
 11
12.51130774875406
 21
34.31614296031416
 31
0.0
  0
LINE
  5
2900
330
18
100
AcDbEntity
  8
HIDE
100
AcDbLine
 10
12.4233077487541
 20
34.3243254894225
 30
0.0
 11
12.23580774875407
 21
34.32432548942248
 31
0.0
  0
ARC
  5
2901
330
18
100
AcDbEntity
  8
HIDE
100
AcDbCircle
 10
12.08530774875406
 20
34.01993011718819
 30
0.0
 40
0.0625
100
AcDbArc
 50
275.6808765043638
 51
359.9999999999935
  0
LINE
  5
2902
330
18
100
AcDbEntity
  8
HIDE
100
AcDbLine
 10
12.14780774875406
 20
34.01993011718817
 30
0.0
 11
12.14780774875406
 21
34.31614296031416
 31
0.0
  0
LINE
  5
2903
330
18
100
AcDbEntity
  8
HIDE
100
AcDbLine
 10
12.23580774875407
 20
33.9341132059129
 30
0.0
 11
12.23580774875405
 21
34.32432548942248
 31
0.0
  0
LINE
  5
2904
330
18
100
AcDbEntity
  8
DIM
100
AcDbLine
 10
12.15831995861367
 20
34.81155955265985
 30
0.0
 11
12.34581995861367
 21
34.81155955265985
 31
0.0
  0
ARC
  5
2905
330
18
100
AcDbEntity
  8
0
100
AcDbCircle
 10
19.01751887314587
 20
34.21641798338606
 30
0.0
 40
0.9059999999999998
100
AcDbArc
 50
0.0
 51
90.0
  0
ARC
  5
2906
330
18
100
AcDbEntity
  8
0
100
AcDbCircle
 10
19.03580774875407
 20
34.2341132059129
 30
0.0
 40
0.9059999999999998
100
AcDbArc
 50
0.0
 51
90.0
  0
ARC
  5
2907
330
18
100
AcDbEntity
  8
HIDE
100
AcDbCircle
 10
19.04920833186764
 20
34.24751378902648
 30
0.0
 40
0.625
100
AcDbArc
 50
0.0
 51
90.0
  0
CIRCLE
  5
2908
330
18
100
AcDbEntity
  8
0
100
AcDbCircle
 10
18.25206995861369
 20
34.81155955265986
 30
0.0
 40
0.156
  0
LINE
  5
2909
330
18
100
AcDbEntity
  8
CENTER
  6
Continuous
100
AcDbLine
 10
18.15831995861369
 20
34.81155955265986
 30
0.0
 11
18.34581995861369
 21
34.81155955265986
 31
0.0
  0
LWPOLYLINE
  5
290A
330
18
100
AcDbEntity
  8
0
100
AcDbPolyline
 90
        5
 70
     0
 43
0.0
 10
17.81926330733661
 20
35.1401132059129
 10
17.96873899123336
 20
34.68156800164341
 10
18.29756077966739
 20
34.54388605726458
 10
18.63675801288212
 20
34.72726416421741
 10
18.77305928742472
 20
35.1401132059129
  0
LINE
  5
290B
330
18
100
AcDbEntity
  8
HIDE
100
AcDbLine
 10
18.08530774875403
 20
34.3243254894225
 30
0.0
 11
18.27280774875407
 21
34.32432548942248
 31
0.0
  0
LINE
  5
290C
330
18
100
AcDbEntity
  8
HIDE
100
AcDbLine
 10
18.08530774875407
 20
34.32432548942248
 30
0.0
 11
17.99730774875406
 21
34.31614296031416
 31
0.0
  0
LINE
  5
290D
330
18
100
AcDbEntity
  8
CENTER
  6
Continuous
100
AcDbLine
 10
18.25206995861369
 20
34.71780955265987
 30
0.0
 11
18.25206995861369
 21
34.90530955265987
 31
0.0
  0
ARC
  5
290E
330
18
100
AcDbEntity
  8
HIDE
100
AcDbCircle
 10
18.74256003320232
 20
33.94114296031416
 30
0.0
 40
0.375
100
AcDbArc
 50
0.0
 51
90.0
  0
ARC
  5
290F
330
18
100
AcDbEntity
  8
HIDE
100
AcDbCircle
 10
18.85905774875407
 20
34.05736320591291
 30
0.0
 40
0.375
100
AcDbArc
 50
0.0
 51
90.0
  0
LINE
  5
2910
330
18
100
AcDbEntity
  8
HIDE
100
AcDbLine
 10
18.74256003320232
 20
34.31614296031416
 30
0.0
 11
18.36080774875407
 21
34.31614296031416
 31
0.0
  0
ARC
  5
2911
330
18
100
AcDbEntity
  8
HIDE
100
AcDbCircle
 10
18.42330774875407
 20
34.01993011718819
 30
0.0
 40
0.0625
100
AcDbArc
 50
180.0000000000065
 51
264.3191234956358
  0
LINE
  5
2912
330
18
100
AcDbEntity
  8
HIDE
100
AcDbLine
 10
18.27280774875407
 20
33.9341132059129
 30
0.0
 11
18.27280774875407
 21
34.32432548942248
 31
0.0
  0
LINE
  5
2913
330
18
100
AcDbEntity
  8
HIDE
100
AcDbLine
 10
18.36080774875407
 20
34.01993011718817
 30
0.0
 11
18.36080774875407
 21
34.31614296031416
 31
0.0
  0
LINE
  5
2914
330
18
100
AcDbEntity
  8
HIDE
100
AcDbLine
 10
18.27280774875407
 20
34.32432548942248
 30
0.0
 11
18.36080774875407
 21
34.31614296031416
 31
0.0
  0
CIRCLE
  5
2915
330
18
100
AcDbEntity
  8
HIDE
100
AcDbCircle
 10
19.31680774875406
 20
34.5151132059129
 30
0.0
 40
0.1
  0
LINE
  5
2916
330
18
100
AcDbEntity
  8
HIDE
100
AcDbLine
 10
19.31680774875406
 20
34.4213632059129
 30
0.0
 11
19.31680774875406
 21
34.60886320591291
 31
0.0
  0
LINE
  5
2917
330
18
100
AcDbEntity
  8
HIDE
100
AcDbLine
 10
19.22305774875406
 20
34.5151132059129
 30
0.0
 11
19.41055774875406
 21
34.5151132059129
 31
0.0
  0
CIRCLE
  5
2918
330
18
100
AcDbEntity
  8
HIDE
100
AcDbCircle
 10
19.31680774875406
 20
34.5151132059129
 30
0.0
 40
0.076
  0
LINE
  5
2919
330
18
100
AcDbEntity
  8
0
100
AcDbLine
 10
19.01751887314587
 20
35.12241798338607
 30
0.0
 11
18.76721724556405
 21
35.12241798338607
 31
0.0
  0
LINE
  5
291A
330
18
100
AcDbEntity
  8
0
100
AcDbLine
 10
19.03580774875407
 20
35.1401132059129
 30
0.0
 11
18.77305928742473
 21
35.1401132059129
 31
0.0
  0
ARC
  5
291B
330
18
100
AcDbEntity
  8
0
100
AcDbCircle
 10
18.37706995861369
 20
34.85837541577253
 30
0.0
 40
0.375
100
AcDbArc
 50
21.62628558295658
 51
90.0
  0
ARC
  5
291C
330
18
100
AcDbEntity
  8
0
100
AcDbCircle
 10
31.40355635097177
 20
34.8725702766313
 30
0.0
 40
0.25
100
AcDbArc
 50
92.00000000000079
 51
180.0
1001
ACAD
1000
ASC_BOUNDS
1002
{
1070
    19
1005
0
1002
}
  0
LINE
  5
291D
330
18
100
AcDbEntity
  8
0
100
AcDbLine
 10
31.15355635097177
 20
34.8725702766313
 30
0.0
 11
31.15355635097176
 21
34.32703705929029
 31
0.0
1001
ACAD
1000
ASC_BOUNDS
1002
{
1070
    19
1005
0
1002
}
  0
ARC
  5
291E
330
18
100
AcDbEntity
  8
0
100
AcDbCircle
 10
32.23342531286346
 20
34.78450394531287
 30
0.0
 40
0.25
100
AcDbArc
 50
180.0000000000219
 51
268.5000000000002
  0
LINE
  5
291F
330
18
100
AcDbEntity
  8
0
100
AcDbLine
 10
31.90355635097179
 20
34.85816390400656
 30
0.0
 11
31.95299334249808
 21
34.85686935082382
 31
0.0
  0
LINE
  5
2920
330
18
100
AcDbEntity
  8
0
100
AcDbLine
 10
31.39483147679615
 20
35.12241798338607
 30
0.0
 11
31.9035563509718
 21
35.1401132059129
 31
0.0
1001
ACAD
1000
ASC_BOUNDS
1002
{
1070
    19
1005
0
1002
}
  0
LINE
  5
2921
330
18
100
AcDbEntity
  8
0
100
AcDbLine
 10
31.98342531286346
 20
34.78450394531279
 30
0.0
 11
31.98342531286346
 21
34.82563005941834
 31
0.0
  0
ARC
  5
2922
330
18
100
AcDbEntity
  8
0
100
AcDbCircle
 10
31.95217531286346
 20
34.82563005941834
 30
0.0
 40
0.03125
100
AcDbArc
 50
359.9999999999797
 51
88.49999999999972
  0
LINE
  5
2923
330
18
100
AcDbEntity
  8
0
100
AcDbLine
 10
31.98342531286348
 20
34.79519975172544
 30
0.0
 11
31.98342531286349
 21
34.78976304586039
 31
0.0
1001
ACAD
1000
ASC_BOUNDS
1002
{
1070
    19
1005
0
1002
}
  0
INSERT
  5
2924
330
18
100
AcDbEntity
  8
DIM
100
AcDbBlockReference
  2
SAATX
 10
52.66530410969543
 20
7.439140246394003
 30
0.0
 41
2.25
 42
2.25
 43
2.25
  0
LINE
  5
2925
330
18
100
AcDbEntity
  8
0
100
AcDbLine
 10
48.92718562960308
 20
12.13982896562952
 30
0.0
 11
56.40377586725564
 21
12.13982896562949
 31
0.0
1001
ACAD
1000
ASC_BOUNDS
1002
{
1070
    19
1005
0
1002
}
  0
LINE
  5
2926
330
18
100
AcDbEntity
  8
0
100
AcDbLine
 10
48.92718562960308
 20
12.2648289656295
 30
0.0
 11
56.40377586725566
 21
12.2648289656295
 31
0.0
1001
ACAD
1000
ASC_BOUNDS
1002
{
1070
    19
1005
0
1002
}
  0
LINE
  5
2927
330
18
100
AcDbEntity
  8
0
100
AcDbLine
 10
56.64495327847636
 20
16.82482896562948
 30
0.0
 11
48.68600821838239
 21
16.82482896562954
 31
0.0
  0
DIMENSION
  5
2928
330
18
100
AcDbEntity
  8
DIM
100
AcDbDimension
280
     0
  2
*D14
 10
56.52873303287761
 20
9.672998904361941
 30
0.0
 11
52.66548074842937
 21
9.672998904361941
 31
0.0
 70
   160
 71
     5
 42
7.726504568896473
 73
     0
 74
     0
 75
     0
  3
STANDARD
100
AcDbAlignedDimension
 13
48.80222846398114
 23
12.38655684709101
 33
0.0
 14
56.52873303287761
 24
12.38655684709101
 34
0.0
100
AcDbRotatedDimension
1001
ACAD
1000
DSTYLE
1002
{
1070
    41
1040
0.1875
1070
    43
1040
0.375
1070
    44
1040
0.1875
1070
   141
1040
0.09375
1070
   147
1040
0.1875
1070
   271
1070
     5
1070
   272
1070
     5
1070
   276
1070
     2
1070
   277
1070
     5
1070
   289
1070
     0
1002
}
  0
HATCH
  5
2929
330
18
100
AcDbEntity
  8
HATCH
100
AcDbHatch
 10
0.0
 20
0.0
 30
0.0
210
0.0
220
0.0
230
1.0
  2
ANSI34
 70
     0
 71
     0
 91
        1
 92
        7
 72
     1
 73
     1
 93
       20
 10
48.26156679794045
 20
16.22492024635341
 42
0.4457604613100045
 10
48.29694001615689
 20
16.19476291240466
 42
0.0
 10
48.33392501184376
 20
16.19476291240466
 42
-0.4065662586440546
 10
48.58383934308765
 20
15.95130714948163
 42
0.0
 10
48.6772712983592
 20
12.38328472855254
 42
0.4065662586440678
 10
48.9271856296031
 20
12.13982896562952
 42
0.0
 10
56.40377586725564
 20
12.13982896562949
 42
0.406566258644055
 10
56.65369019849953
 20
12.38328472855252
 42
0.0
 10
56.74712125335524
 20
15.95127276398747
 42
-0.406566258644069
 10
56.99703558459915
 20
16.1947285269105
 42
0.0
 10
57.03427811633637
 20
16.1947285269105
 42
0.446077265297858
 10
57.06940018891643
 20
16.22464099895484
 42
0.0
 10
57.08510386158997
 20
16.82482896562954
 42
0.0
 10
56.64495327847636
 20
16.82482896562954
 42
0.0
 10
56.52873303287761
 20
12.38655684709103
 42
-0.4065662586440711
 10
56.40377586725566
 20
12.2648289656295
 42
0.0
 10
48.92718562960308
 20
12.2648289656295
 42
-0.4065662586440705
 10
48.80222846398114
 20
12.38655684709103
 42
0.0
 10
48.68600821838239
 20
16.82482896562954
 42
0.0
 10
48.2458576352688
 20
16.82482896562954
 42
0.0
 97
        0
 75
     0
 76
     1
 52
0.0
 41
1.0
 77
     0
 78
     4
 53
45.0
 43
-32.75600848198479
 44
-8.462312448068878
 45
-0.5303300858899106
 46
0.5303300858899107
 79
     0
 53
45.0
 43
-32.57923178698479
 44
-8.462312448068878
 45
-0.5303300858899106
 46
0.5303300858899107
 79
     0
 53
45.0
 43
-32.40245509098479
 44
-8.462312448068878
 45
-0.5303300858899106
 46
0.5303300858899107
 79
     0
 53
45.0
 43
-32.22567839598479
 44
-8.462312448068878
 45
-0.5303300858899106
 46
0.5303300858899107
 79
     0
 47
0.0262479919290774
 98
        1
 10
48.47237409697481
 20
16.43058022448993
  0
DIMENSION
  5
292A
330
18
100
AcDbEntity
  8
DIM
100
AcDbDimension
280
     0
  2
*D15
 10
55.79048074842937
 20
11.01269813907212
 30
0.0
 11
52.66548074842939
 21
11.01269813907212
 31
0.0
 70
    32
 71
     5
 42
6.249999999999971
 73
     0
 74
     0
 75
     0
  3
STANDARD
100
AcDbAlignedDimension
 13
49.5404807484294
 23
12.38982896562953
 33
0.0
 14
55.79048074842937
 24
12.38982896562953
 34
0.0
100
AcDbRotatedDimension
1001
ACAD
1000
DSTYLE
1002
{
1070
    41
1040
0.1875
1070
    43
1040
0.375
1070
    44
1040
0.1875
1070
   141
1040
0.09375
1070
   147
1040
0.1875
1070
   271
1070
     5
1070
   272
1070
     5
1070
   276
1070
     2
1070
   277
1070
     5
1070
   289
1070
     0
1002
}
  0
DIMENSION
  5
292B
330
18
100
AcDbEntity
  8
DIM
100
AcDbDimension
280
     0
  2
*D16
 10
56.64495327847638
 20
18.5989640271188
 30
0.0
 11
52.66548074842939
 21
18.5989640271188
 31
0.0
 70
   160
 71
     5
 42
7.958945060093981
 73
     0
 74
     0
 75
     0
  3
STANDARD
100
AcDbAlignedDimension
 13
48.68600821838239
 23
16.82482896562954
 33
0.0
 14
56.64495327847638
 24
16.82482896562954
 34
0.0
100
AcDbRotatedDimension
1001
ACAD
1000
DSTYLE
1002
{
1070
    41
1040
0.1875
1070
    43
1040
0.375
1070
    44
1040
0.1875
1070
   141
1040
0.09375
1070
   147
1040
0.1875
1070
   271
1070
     5
1070
   272
1070
     5
1070
   276
1070
     2
1070
   277
1070
     5
1070
   289
1070
     0
1002
}
  0
LWPOLYLINE
  5
292C
330
18
100
AcDbEntity
  8
0
100
AcDbPolyline
 90
       13
 70
     1
 43
0.0
 10
48.24728835805986
 20
17.02721220913099
 42
0.4040262258351589
 10
47.99744065130509
 20
16.78593708330661
 10
47.97974542877827
 20
16.27721220913098
 10
48.10859268800411
 20
16.27721220913098
 10
48.11736145696098
 20
16.7815746462188
 42
-0.4040262258351632
 10
48.24228531033837
 20
16.90221220913098
 10
57.09220554721817
 20
16.90221220913099
 42
-0.4040262258351514
 10
57.21712940059557
 20
16.7815746462188
 10
57.22589816955243
 20
16.27721220913097
 10
57.35474542877827
 20
16.27721220913097
 10
57.33705020625144
 20
16.78593708330662
 42
0.4040262258351467
 10
57.08720249949667
 20
17.02721220913099
 10
56.53745652562914
 20
17.027212209131
  0
HATCH
  5
292D
330
18
100
AcDbEntity
  8
HATCH
100
AcDbHatch
 10
0.0
 20
0.0
 30
0.0
210
0.0
220
0.0
230
1.0
  2
ANSI34
 70
     0
 71
     0
 91
        1
 92
        1
 93
       13
 72
     2
 10
48.24728835805986
 20
16.77721220913099
 40
0.2499999999999964
 50
90.0
 51
178.0000000000004
 73
     1
 72
     1
 10
47.99744065130509
 20
16.78593708330661
 11
47.97974542877827
 21
16.27721220913098
 72
     1
 10
47.97974542877827
 20
16.27721220913098
 11
48.10859268800411
 21
16.27721220913098
 72
     1
 10
48.10859268800411
 20
16.27721220913098
 11
48.11736145696098
 21
16.7815746462188
 72
     2
 10
48.24228531033837
 20
16.77721220913098
 40
0.1250000000000023
 50
182.000000000002
 51
270.0000000000033
 73
     0
 72
     1
 10
48.24228531033837
 20
16.90221220913098
 11
57.09220554721817
 21
16.90221220913099
 72
     2
 10
57.09220554721817
 20
16.77721220913098
 40
0.1250000000000089
 50
270.0
 51
357.999999999999
 73
     0
 72
     1
 10
57.21712940059557
 20
16.7815746462188
 11
57.22589816955243
 21
16.27721220913097
 72
     1
 10
57.22589816955243
 20
16.27721220913097
 11
57.35474542877827
 21
16.27721220913097
 72
     1
 10
57.35474542877827
 20
16.27721220913097
 11
57.33705020625144
 21
16.78593708330662
 72
     2
 10
57.08720249949666
 20
16.77721220913099
 40
0.2500000000000044
 50
2.000000000000764
 51
89.99999999999836
 73
     1
 72
     1
 10
57.08720249949667
 20
17.02721220913099
 11
56.53745652562914
 21
17.027212209131
 72
     1
 10
56.53745652562914
 20
17.027212209131
 11
48.24728835805986
 21
17.02721220913099
 97
        0
 75
     0
 76
     1
 52
90.0
 41
1.0
 77
     0
 78
     4
 53
135.0
 43
0.0
 44
2.947400842549441
 45
-0.5303300858899107
 46
-0.5303300858899106
 79
     0
 53
135.0
 43
0.0
 44
3.124177537549441
 45
-0.5303300858899107
 46
-0.5303300858899106
 79
     0
 53
135.0
 43
0.0
 44
3.300954233549441
 45
-0.5303300858899107
 46
-0.5303300858899106
 79
     0
 53
135.0
 43
0.0
 44
3.477730928549441
 45
-0.5303300858899107
 46
-0.5303300858899106
 79
     0
 98
        1
 10
0.0
 20
2.947400842549441
  0
LEADER
  5
292E
330
18
100
AcDbEntity
  8
DIM
100
AcDbLeader
  3
STANDARD
 73
     0
 40
0.18
 76
     3
 10
48.31242761262434
 20
16.86332355341421
 30
0.0
 10
47.28349428171668
 20
18.25156739545873
 30
0.0
 10
47.03349428171669
 20
18.25156739545873
 30
0.0
340
292F
213
0.0
223
0.09
233
0.0
1001
ACAD
1000
DSTYLE
1002
{
1070
    77
1070
     0
1070
    41
1040
0.1875
1070
    43
1040
0.375
1070
    44
1040
0.1875
1070
   141
1040
0.09375
1070
   147
1040
0.1875
1070
   271
1070
     5
1070
   272
1070
     5
1070
   276
1070
     2
1070
   277
1070
     5
1070
   289
1070
     0
1002
}
  0
MTEXT
  5
292F
102
{ACAD_REACTORS
330
292E
102
}
330
18
100
AcDbEntity
  8
DIM
100
AcDbMText
 10
46.84599428171668
 20
15.21310047565945
 30
0.0
 40
0.18
 41
0.0
 46
0.0
 71
     9
 72
     1
  1

 73
     1
 44
1.0
  0
DIMENSION
  5
2930
330
18
100
AcDbEntity
  8
DIM
100
AcDbDimension
280
     0
  2
*D17
 10
50.27580817036884
 20
17.02721220913099
 30
0.0
 11
50.96580817036883
 21
17.402212209131
 31
0.0
 70
    32
 71
     5
 42
0.1249999999999858
 73
     0
 74
     0
 75
     0
  3
STANDARD
100
AcDbAlignedDimension
 13
50.07940572120776
 23
16.902212209131
 33
0.0
 14
50.02762902620774
 24
17.02721220913099
 34
0.0
 50
90.0
100
AcDbRotatedDimension
1001
ACAD
1000
DSTYLE
1002
{
1070
    41
1040
0.1875
1070
    43
1040
0.375
1070
    44
1040
0.1875
1070
   141
1040
0.09375
1070
   147
1040
0.1875
1070
   271
1070
     3
1070
   272
1070
     3
1070
   276
1070
     2
1070
   289
1070
     0
1002
}
  0
DIMENSION
  5
2931
330
18
100
AcDbEntity
  8
DIM
100
AcDbDimension
280
     0
  2
*D18
 10
47.8765323332139
 20
12.13982896562952
 30
0.0
 11
46.7965323332139
 21
11.76482896562952
 31
0.0
 70
    32
  1
0.125 TYP.
 71
     5
 42
0.1249999999999858
 73
     0
 74
     0
 75
     0
  3
STANDARD
100
AcDbAlignedDimension
 13
48.92718562960308
 23
12.2648289656295
 33
0.0
 14
48.92296936024907
 24
12.13982896562952
 34
0.0
 50
90.0
100
AcDbRotatedDimension
1001
ACAD
1000
DSTYLE
1002
{
1070
    41
1040
0.1875
1070
    43
1040
0.375
1070
    44
1040
0.1875
1070
   141
1040
0.09375
1070
   147
1040
0.1875
1070
   271
1070
     3
1070
   272
1070
     3
1070
   276
1070
     2
1070
   289
1070
     0
1002
}
  0
LINE
  5
2932
330
18
100
AcDbEntity
  8
DIM
100
AcDbLine
 10
47.19416394294308
 20
14.86705895928813
 30
0.0
 11
46.94416394294307
 21
14.86705895928813
 31
0.0
  0
TEXT
  5
2933
330
18
100
AcDbEntity
  8
DIM
100
AcDbText
 10
44.19572780877314
 20
14.77691324881906
 30
0.0
 40
0.187
  1
7 1/2 S.S. HINGE
100
AcDbText
  0
LINE
  5
2934
330
18
100
AcDbEntity
  8
0
100
AcDbLine
 10
48.68600821838239
 20
16.82482896562954
 30
0.0
 11
48.80222846398114
 21
12.38655684709101
 31
0.0
  0
LINE
  5
2935
330
18
100
AcDbEntity
  8
0
100
AcDbLine
 10
48.58383934308765
 20
15.95130714948164
 30
0.0
 11
48.6772712983592
 21
12.38328472855255
 31
0.0
  0
LINE
  5
2936
330
18
100
AcDbEntity
  8
0
100
AcDbLine
 10
48.7923230599533
 20
12.76482896562951
 30
0.0
 11
49.84084689402234
 21
12.76482896562942
 31
0.0
  0
ARC
  5
2938
330
18
100
AcDbEntity
  8
0
100
AcDbCircle
 10
48.92718562960308
 20
12.38982896562952
 30
0.0
 40
0.25
100
AcDbArc
 50
181.5000000000002
 51
269.9999999999996
1001
ACAD
1000
ASC_BOUNDS
1002
{
1070
    19
1005
0
1002
}
  0
ARC
  5
2939
330
18
100
AcDbEntity
  8
0
100
AcDbCircle
 10
48.92718562960308
 20
12.3898289656295
 30
0.0
 40
0.125
100
AcDbArc
 50
181.4999999999999
 51
270.0
1001
ACAD
1000
ASC_BOUNDS
1002
{
1070
    19
1005
0
1002
}
  0
LINE
  5
293B
330
18
100
AcDbEntity
  8
0
100
AcDbLine
 10
49.87127043112528
 20
12.74071835566958
 30
0.0
 11
49.95361247465473
 21
12.26482896562952
 31
0.0
  0
LINE
  5
293C
330
18
100
AcDbEntity
  8
0
100
AcDbLine
 10
49.5404807484294
 20
12.38982896562953
 30
0.0
 11
49.5404807484294
 21
12.63982896562945
 31
0.0
  0
LINE
  5
293E
330
18
100
AcDbEntity
  8
0
100
AcDbLine
 10
49.5404807484294
 20
13.03591521805382
 30
0.0
 11
49.5404807484294
 21
13.17876253128035
 31
0.0
  0
ARC
  5
293F
330
18
100
AcDbEntity
  8
0
100
AcDbCircle
 10
49.84084689402234
 20
12.73357896562943
 30
0.0
 40
0.03125
100
AcDbArc
 50
13.20645077723
 51
89.9999999999992
  0
LINE
  5
2941
330
18
100
AcDbEntity
  8
DIM
100
AcDbLine
 10
47.96779548514874
 20
15.92070650819661
 30
0.0
 11
47.19416394294308
 21
14.86705895928813
 31
0.0
1001
ACAD
1000
DSTYLE
1002
{
1070
    77
1070
     0
1070
    41
1040
0.28125
1070
    42
1040
0.125
1070
    43
1040
0.375
1070
    44
1040
0.1875
1070
   140
1040
0.28125
1070
   141
1040
0.09375
1070
   147
1040
0.1875
1070
   271
1070
     3
1070
   272
1070
     3
1070
   289
1070
     0
1002
}
  0
LINE
  5
2942
330
18
100
AcDbEntity
  8
0
100
AcDbLine
 10
48.2458576352688
 20
16.82482896562954
 30
0.0
 11
48.68600821838239
 21
16.82482896562954
 31
0.0
1001
ACAD
1000
ASC_BOUNDS
1002
{
1070
    19
1005
0
1002
}
  0
LINE
  5
2943
330
18
100
AcDbEntity
  8
0
100
AcDbLine
 10
48.2458576352688
 20
16.82482896562954
 30
0.0
 11
48.26156679794045
 21
16.22492024635341
 31
0.0
  0
LWPOLYLINE
  5
2944
102
{ACAD_REACTORS
330
2945
102
}
330
18
100
AcDbEntity
  8
0
100
AcDbPolyline
 90
        8
 70
     1
 43
0.0
 10
48.26242787913757
 20
16.82521220913099
 42
-0.4142135623729885
 10
48.22442787913757
 20
16.86321220913097
 10
48.22442787913757
 20
16.86421220913099
 42
-0.4142135623730951
 10
48.26242787913757
 20
16.90221220913098
 10
48.40426091455956
 20
16.90221220913098
 42
-0.4142135623730951
 10
48.44226091455955
 20
16.86421220913099
 10
48.44226091455955
 20
16.86321220913098
 42
-0.4142135623730894
 10
48.40426091455956
 20
16.82521220913099
  0
HATCH
  5
2945
330
18
100
AcDbEntity
  8
HATCH
100
AcDbHatch
 10
0.0
 20
0.0
 30
0.0
210
0.0
220
0.0
230
1.0
  2
ANSI31
 70
     0
 71
     1
 91
        1
 92
        1
 93
        8
 72
     2
 10
48.26242787913757
 20
16.86321220913098
 40
0.0379999999999967
 50
90.0
 51
179.9999999999785
 73
     0
 72
     1
 10
48.22442787913757
 20
16.86321220913097
 11
48.22442787913757
 21
16.86421220913099
 72
     2
 10
48.26242787913757
 20
16.86421220913099
 40
0.0379999999999967
 50
180.0
 51
270.0
 73
     0
 72
     1
 10
48.26242787913757
 20
16.90221220913098
 11
48.40426091455956
 21
16.90221220913098
 72
     2
 10
48.40426091455956
 20
16.86421220913099
 40
0.0379999999999967
 50
270.0
 51
360.0
 73
     0
 72
     1
 10
48.44226091455955
 20
16.86421220913099
 11
48.44226091455955
 21
16.86321220913098
 72
     2
 10
48.40426091455956
 20
16.86321220913098
 40
0.0379999999999967
 50
360.0
 51
450.0
 73
     0
 72
     1
 10
48.40426091455956
 20
16.82521220913099
 11
48.26242787913757
 21
16.82521220913099
 97
        1
330
2944
 75
     0
 76
     1
 52
90.0
 41
0.5
 77
     0
 78
     1
 53
135.0
 43
-32.02100848198478
 44
-8.462312448068878
 45
-0.0441941738241592
 46
-0.0441941738241592
 79
     0
 98
        1
 10
-32.02100848198478
 20
-8.462312448068878
  0
LINE
  5
2947
330
18
100
AcDbEntity
  8
0
100
AcDbLine
 10
48.14358175364205
 20
16.27721220913098
 30
0.0
 11
48.22518548696727
 21
16.27721220913098
 31
0.0
  0
SOLID
  5
2948
330
18
100
AcDbEntity
  8
DIM
100
AcDbTrace
 10
47.9300116175179
 20
15.94844898414695
 30
0.0
 11
48.13425034085082
 21
16.14740971398161
 31
0.0
 12
48.00557935277957
 22
15.89296403224626
 32
0.0
 13
48.00557935277957
 23
15.89296403224626
 33
0.0
1001
ACAD
1000
DSTYLE
1002
{
1070
    77
1070
     0
1070
    41
1040
0.28125
1070
    42
1040
0.125
1070
    43
1040
0.375
1070
    44
1040
0.1875
1070
   140
1040
0.28125
1070
   141
1040
0.09375
1070
   147
1040
0.1875
1070
   271
1070
     3
1070
   272
1070
     3
1070
   289
1070
     0
1002
}
  0
ARC
  5
2949
330
18
100
AcDbEntity
  8
0
100
AcDbCircle
 10
48.29280608934593
 20
16.22573827598803
 30
0.0
 40
0.03125
100
AcDbArc
 50
181.4999999999962
 51
277.6016917802152
1001
ACAD
1000
ASC_BOUNDS
1002
{
1070
    19
1005
0
1002
}
  0
LINE
  5
294A
330
18
100
AcDbEntity
  8
0
100
AcDbLine
 10
48.29694001615701
 20
16.19476291240466
 30
0.0
 11
48.33392501184376
 21
16.19476291240466
 31
0.0
  0
ARC
  5
294B
330
18
100
AcDbEntity
  8
0
100
AcDbCircle
 10
48.33392501184376
 20
15.94476291240466
 30
0.0
 40
0.25
100
AcDbArc
 50
1.499999999999867
 51
90.0
  0
TEXT
  5
294C
330
18
100
AcDbEntity
  8
DIM
100
AcDbText
 10
45.80730425423877
 20
18.16142169718859
 30
0.0
 40
0.187
  1
GASKET
100
AcDbText
  0
DIMENSION
  5
294D
330
18
100
AcDbEntity
  8
DIM
100
AcDbDimension
280
     0
  2
*D19
 10
58.84614345818721
 20
16.82482896562951
 30
0.0
 11
58.8461434581872
 21
14.79482896562964
 31
0.0
 70
    32
 71
     5
 42
4.059999999999776
 73
     0
 74
     0
 75
     0
  3
STANDARD
100
AcDbAlignedDimension
 13
56.69336206759169
 23
12.76482896562974
 33
0.0
 14
57.08565880149595
 24
16.82482896562951
 34
0.0
 50
90.0
100
AcDbRotatedDimension
1001
ACAD
1000
DSTYLE
1002
{
1070
    41
1040
0.1875
1070
    43
1040
0.375
1070
    44
1040
0.1875
1070
   141
1040
0.09375
1070
   147
1040
0.1875
1070
   271
1070
     5
1070
   272
1070
     5
1070
   276
1070
     2
1070
   277
1070
     5
1070
   289
1070
     0
1002
}
  0
DIMENSION
  5
294E
330
18
100
AcDbEntity
  8
DIM
100
AcDbDimension
280
     0
  2
*D20
 10
58.84614345818721
 20
12.2648289656295
 30
0.0
 11
58.2611434581872
 21
11.88982896562951
 31
0.0
 70
    32
 71
     5
 42
0.5000000000002345
 73
     0
 74
     0
 75
     0
  3
STANDARD
100
AcDbAlignedDimension
 13
56.53711206759169
 23
12.76482896562974
 33
0.0
 14
56.4073934269617
 24
12.2648289656295
 34
0.0
 50
90.0
100
AcDbRotatedDimension
1001
ACAD
1000
DSTYLE
1002
{
1070
    41
1040
0.1875
1070
    43
1040
0.375
1070
    44
1040
0.1875
1070
   141
1040
0.09375
1070
   147
1040
0.1875
1070
   271
1070
     5
1070
   272
1070
     5
1070
   276
1070
     2
1070
   277
1070
     5
1070
   289
1070
     0
1002
}
  0
LINE
  5
294F
330
18
100
AcDbEntity
  8
0
100
AcDbLine
 10
57.08510386158997
 20
16.82482896562954
 30
0.0
 11
56.64495327847638
 21
16.82482896562954
 31
0.0
1001
ACAD
1000
ASC_BOUNDS
1002
{
1070
    19
1005
0
1002
}
  0
LINE
  5
2950
330
18
100
AcDbEntity
  8
0
100
AcDbLine
 10
57.03427811633637
 20
16.1947285269105
 30
0.0
 11
56.99703558459913
 21
16.1947285269105
 31
0.0
  0
LWPOLYLINE
  5
2951
102
{ACAD_REACTORS
330
2952
102
}
330
18
100
AcDbEntity
  8
0
100
AcDbPolyline
 90
        8
 70
     1
 43
0.0
 10
57.0685336177212
 20
16.82521220913099
 42
0.4142135623729885
 10
57.1065336177212
 20
16.86321220913097
 10
57.1065336177212
 20
16.86421220913099
 42
0.4142135623730951
 10
57.0685336177212
 20
16.90221220913098
 10
56.92670058229921
 20
16.90221220913098
 42
0.4142135623730951
 10
56.88870058229922
 20
16.86421220913099
 10
56.88870058229922
 20
16.86321220913098
 42
0.4142135623730894
 10
56.92670058229921
 20
16.82521220913099
  0
HATCH
  5
2952
330
18
100
AcDbEntity
  8
HATCH
100
AcDbHatch
 10
0.0
 20
0.0
 30
0.0
210
0.0
220
0.0
230
1.0
  2
ANSI31
 70
     0
 71
     1
 91
        1
 92
        1
 93
        8
 72
     2
 10
57.0685336177212
 20
16.86321220913098
 40
0.0379999999999967
 50
270.0
 51
359.9999999999786
 73
     1
 72
     1
 10
57.1065336177212
 20
16.86321220913097
 11
57.1065336177212
 21
16.86421220913099
 72
     2
 10
57.0685336177212
 20
16.86421220913099
 40
0.0379999999999967
 50
0.0
 51
90.0
 73
     1
 72
     1
 10
57.0685336177212
 20
16.90221220913098
 11
56.92670058229921
 21
16.90221220913098
 72
     2
 10
56.92670058229921
 20
16.86421220913099
 40
0.0379999999999967
 50
90.0
 51
180.0
 73
     1
 72
     1
 10
56.88870058229922
 20
16.86421220913099
 11
56.88870058229922
 21
16.86321220913098
 72
     2
 10
56.92670058229921
 20
16.86321220913098
 40
0.0379999999999967
 50
180.0
 51
270.0
 73
     1
 72
     1
 10
56.92670058229921
 20
16.82521220913099
 11
57.0685336177212
 21
16.82521220913099
 97
        1
330
2951
 75
     0
 76
     1
 52
90.0
 41
0.5
 77
     0
 78
     1
 53
135.0
 43
-32.02100848198478
 44
-8.462312448068878
 45
-0.0441941738241592
 46
-0.0441941738241592
 79
     0
 98
        1
 10
-32.02100848198478
 20
-8.462312448068878
  0
LINE
  5
2953
330
18
100
AcDbEntity
  8
0
100
AcDbLine
 10
56.78725216872904
 20
15.38300694816607
 30
0.0
 11
57.10621298274347
 21
14.59048078449916
 31
0.0
  0
ARC
  5
2954
330
18
100
AcDbEntity
  8
0
100
AcDbCircle
 10
56.9987897578845
 20
14.54942897868136
 30
0.0
 40
0.115
100
AcDbArc
 50
269.9999999999964
 51
20.91436597392297
  0
CIRCLE
  5
2955
330
18
100
AcDbEntity
  8
0
100
AcDbCircle
 10
56.9987897578845
 20
14.54942897868136
 30
0.0
 40
0.085
  0
LINE
  5
2956
330
18
100
AcDbEntity
  8
0
100
AcDbLine
 10
56.64495327847636
 20
16.82482896562948
 30
0.0
 11
56.52873303287761
 21
12.38655684709101
 31
0.0
  0
LINE
  5
2957
330
18
100
AcDbEntity
  8
0
100
AcDbLine
 10
56.74712125335524
 20
15.95127276398745
 30
0.0
 11
56.65369019849953
 21
12.38328472855252
 31
0.0
  0
LINE
  5
2958
330
18
100
AcDbEntity
  8
0
100
AcDbLine
 10
55.45969106573349
 20
12.74071835566958
 30
0.0
 11
55.37734902220404
 21
12.26482896562952
 31
0.0
  0
LINE
  5
2959
330
18
100
AcDbEntity
  8
0
100
AcDbLine
 10
55.79048074842937
 20
12.38982896562953
 30
0.0
 11
55.79048074842937
 21
12.63982896562945
 31
0.0
  0
ARC
  5
295C
330
18
100
AcDbEntity
  8
0
100
AcDbCircle
 10
56.40377586725564
 20
12.38982896562949
 30
0.0
 40
0.25
100
AcDbArc
 50
269.9999999999996
 51
358.5000000000002
1001
ACAD
1000
ASC_BOUNDS
1002
{
1070
    19
1005
0
1002
}
  0
ARC
  5
295D
330
18
100
AcDbEntity
  8
0
100
AcDbCircle
 10
56.40377586725566
 20
12.3898289656295
 30
0.0
 40
0.125
100
AcDbArc
 50
269.9999999999996
 51
358.5000000000002
1001
ACAD
1000
ASC_BOUNDS
1002
{
1070
    19
1005
0
1002
}
  0
LINE
  5
295E
330
18
100
AcDbEntity
  8
0
100
AcDbLine
 10
56.53863843690547
 20
12.76482896562954
 30
0.0
 11
55.49011460283644
 21
12.76482896562942
 31
0.0
  0
ARC
  5
295F
330
18
100
AcDbEntity
  8
0
100
AcDbCircle
 10
55.49011460283644
 20
12.73357896562943
 30
0.0
 40
0.03125
100
AcDbArc
 50
90.00000000000081
 51
166.7935492227699
  0
LINE
  5
2961
330
18
100
AcDbEntity
  8
0
100
AcDbLine
 10
55.79048074842937
 20
13.03591521805382
 30
0.0
 11
55.79048074842937
 21
13.17876253128035
 31
0.0
  0
LINE
  5
2963
330
18
100
AcDbEntity
  8
0
100
AcDbLine
 10
56.72857888197007
 20
15.4213690582164
 30
0.0
 11
56.69622703718234
 21
14.05942897868135
 31
0.0
  0
LINE
  5
2964
330
18
100
AcDbEntity
  8
0
100
AcDbLine
 10
56.7696049575132
 20
14.43442897868135
 30
0.0
 11
56.75626498886249
 21
14.05942897868136
 31
0.0
  0
LINE
  5
2965
330
18
100
AcDbEntity
  8
0
100
AcDbLine
 10
56.75626498886249
 20
14.05942897868135
 30
0.0
 11
56.69622703718234
 21
14.05942897868135
 31
0.0
  0
LINE
  5
2966
330
18
100
AcDbEntity
  8
0
100
AcDbLine
 10
56.9987897578845
 20
14.43442897868135
 30
0.0
 11
56.70513487533006
 21
14.43442897868135
 31
0.0
  0
ARC
  5
2967
330
18
100
AcDbEntity
  8
0
100
AcDbCircle
 10
56.79486550821812
 20
14.32167897868136
 30
0.0
 40
0.05
100
AcDbArc
 50
0.0
 51
90.0
  0
LINE
  5
2968
330
18
100
AcDbEntity
  8
0
100
AcDbLine
 10
56.76737273609231
 20
14.37167897868135
 30
0.0
 11
56.79486550821812
 21
14.37167897868136
 31
0.0
  0
ARC
  5
2969
330
18
100
AcDbEntity
  8
0
100
AcDbCircle
 10
56.79486550821812
 20
14.26567897868135
 30
0.0
 40
0.05
100
AcDbArc
 50
270.0000000000008
 51
0.0
  0
LINE
  5
296A
330
18
100
AcDbEntity
  8
0
100
AcDbLine
 10
56.84486550821812
 20
14.32167897868136
 30
0.0
 11
56.84486550821812
 21
14.26567897868135
 31
0.0
  0
LINE
  5
296B
330
18
100
AcDbEntity
  8
0
100
AcDbLine
 10
56.76182330913363
 20
14.21567897868135
 30
0.0
 11
56.79486550821812
 21
14.21567897868135
 31
0.0
  0
LINE
  5
296C
330
18
100
AcDbEntity
  8
0
100
AcDbLine
 10
56.72868773328494
 20
15.42442897868135
 30
0.0
 11
56.74727745385559
 21
15.42442897868135
 31
0.0
  0
ARC
  5
296D
330
18
100
AcDbEntity
  8
0
100
AcDbCircle
 10
56.74727745385559
 20
15.38442897868135
 30
0.0
 40
0.04
100
AcDbArc
 50
357.9626620240505
 51
90.00000000000204
  0
ARC
  5
296E
330
18
100
AcDbEntity
  8
0
100
AcDbCircle
 10
56.99703558459913
 20
15.9447285269105
 30
0.0
 40
0.25
100
AcDbArc
 50
90.0
 51
178.4999999999997
  0
LINE
  5
296F
330
18
100
AcDbEntity
  8
0
100
AcDbLine
 10
57.00800410318584
 20
14.83450168968254
 30
0.0
 11
57.33492445665137
 21
15.72617274268278
 31
0.0
  0
LINE
  5
2970
330
18
100
AcDbEntity
  8
0
100
AcDbLine
 10
57.33492445665137
 20
15.72617274268278
 30
0.0
 11
57.50519980001758
 21
15.66780916293042
 31
0.0
  0
LINE
  5
2971
330
18
100
AcDbEntity
  8
0
100
AcDbLine
 10
57.06954301984834
 20
14.40222684093986
 30
0.0
 11
57.40127243508093
 21
15.30701454796417
 31
0.0
  0
LINE
  5
2972
330
18
100
AcDbEntity
  8
0
100
AcDbLine
 10
57.15756349438652
 20
14.36995520382502
 30
0.0
 11
57.48997745961998
 21
15.27661001215896
 31
0.0
  0
LINE
  5
2973
330
18
100
AcDbEntity
  8
0
100
AcDbLine
 10
57.10817404879826
 20
14.58492654058772
 30
0.0
 11
57.50519980001758
 21
15.66780916293042
 31
0.0
  0
LINE
  5
2974
330
18
100
AcDbEntity
  8
0
100
AcDbLine
 10
57.15756349438652
 20
14.36995520382502
 30
0.0
 11
57.06954301984828
 21
14.40222684093988
 31
0.0
  0
LINE
  5
2975
330
18
100
AcDbEntity
  8
0
100
AcDbLine
 10
57.52142818575755
 20
15.53010780099596
 30
0.0
 11
57.54622222989755
 21
15.52160939398095
 31
0.0
  0
LINE
  5
2976
330
18
100
AcDbEntity
  8
0
100
AcDbLine
 10
57.58088311296511
 20
15.43893719620826
 30
0.0
 11
57.44693893071545
 21
15.1592229789532
 31
0.0
  0
LINE
  5
2977
330
18
100
AcDbEntity
  8
0
100
AcDbLine
 10
57.44064200666077
 20
15.49172861312178
 30
0.0
 11
57.49425084443044
 21
15.47335364692439
 31
0.0
  0
LINE
  5
2978
330
18
100
AcDbEntity
  8
0
100
AcDbLine
 10
57.52142818575755
 20
15.53010780099596
 30
0.0
 11
57.46319145434411
 21
15.40849265154182
 31
0.0
  0
LINE
  5
2979
330
18
100
AcDbEntity
  8
0
100
AcDbLine
 10
57.40127243508093
 20
15.30701454796417
 30
0.0
 11
57.48997745961998
 21
15.27661001215897
 31
0.0
  0
LINE
  5
297A
330
18
100
AcDbEntity
  8
0
100
AcDbLine
 10
57.46478923784301
 20
15.28524352750792
 30
0.0
 11
57.49003593256316
 21
15.35410356215328
 31
0.0
  0
LINE
  5
297B
330
18
100
AcDbEntity
  8
0
100
AcDbLine
 10
57.4747450820333
 20
15.38093525228426
 30
0.0
 11
57.47774307352305
 21
15.37990766066735
 31
0.0
  0
ARC
  5
297C
330
18
100
AcDbEntity
  8
0
100
AcDbCircle
 10
57.48122992422801
 20
15.39985473488051
 30
0.0
 40
0.02
100
AcDbArc
 50
154.4120652349757
 51
251.0803352329424
  0
ARC
  5
297D
330
18
100
AcDbEntity
  8
0
100
AcDbCircle
 10
57.47125823132834
 20
15.36098817807111
 30
0.0
 40
0.02
100
AcDbArc
 50
339.8651522322449
 51
71.08033523293808
  0
ARC
  5
297E
330
18
100
AcDbEntity
  8
0
100
AcDbCircle
 10
57.52676770331342
 20
15.4648509461922
 30
0.0
 40
0.06
100
AcDbArc
 50
334.4120652349778
 51
71.08033523294669
  0
LINE
  5
297F
330
18
100
AcDbEntity
  8
0
100
AcDbLine
 10
57.06940018891643
 20
16.22464099895484
 30
0.0
 11
57.08510386158997
 21
16.82482896562954
 31
0.0
1001
ACAD
1000
ASC_BOUNDS
1002
{
1070
    19
1005
0
1002
}
  0
ARC
  5
2980
330
18
100
AcDbEntity
  8
0
100
AcDbCircle
 10
57.43655663411803
 20
16.50592897868135
 30
0.0
 40
0.05
100
AcDbArc
 50
270.0000000000008
 51
0.0
  0
LINE
  5
2981
330
18
100
AcDbEntity
  8
0
100
AcDbLine
 10
57.35459143642962
 20
16.25609648376886
 30
0.0
 11
57.33647484617431
 21
16.79942897868135
 31
0.0
  0
LINE
  5
2982
330
18
100
AcDbEntity
  8
0
100
AcDbLine
 10
57.40311880920604
 20
16.3010952261376
 30
0.0
 11
57.38650263312646
 21
16.79942897868135
 31
0.0
  0
LINE
  5
2983
330
18
100
AcDbEntity
  8
0
100
AcDbLine
 10
57.44844135222884
 20
15.68726368951454
 30
0.0
 11
57.62647755090357
 21
16.20668307724892
 31
0.0
  0
ARC
  5
2984
330
18
100
AcDbEntity
  8
0
100
AcDbCircle
 10
57.55036047094378
 20
16.29167819525556
 30
0.0
 40
0.1
100
AcDbArc
 50
346.4339361810246
 51
77.18643959137676
  0
ARC
  5
2985
330
18
100
AcDbEntity
  8
0
100
AcDbCircle
 10
57.03841079455163
 20
16.22545182378386
 30
0.0
 40
0.031
100
AcDbArc
 50
262.3389660685887
 51
358.501221314589
1001
ACAD
1000
ASC_BOUNDS
1002
{
1070
    19
1005
0
1002
}
  0
LINE
  5
2986
330
18
100
AcDbEntity
  8
0
100
AcDbLine
 10
57.22589816955242
 20
16.27721220913097
 30
0.0
 11
57.07077569312929
 21
16.27721220913097
 31
0.0
  0
LINE
  5
2987
330
18
100
AcDbEntity
  8
0
100
AcDbLine
 10
57.39168290444009
 20
15.70671821609867
 30
0.0
 11
57.56971910311484
 21
16.22613760383304
 31
0.0
  0
LINE
  5
2988
330
18
100
AcDbEntity
  8
0
100
AcDbLine
 10
57.56971910311484
 20
16.22613760383304
 30
0.0
 11
57.58969698201468
 21
16.28442292841099
 31
0.0
  0
ARC
  5
2989
330
18
100
AcDbEntity
  8
0
100
AcDbCircle
 10
57.55036047094378
 20
16.29167819525556
 30
0.0
 40
0.04
100
AcDbArc
 50
349.5497513887071
 51
77.18643959137676
  0
ARC
  5
298A
330
18
100
AcDbEntity
  8
0
100
AcDbCircle
 10
57.53084769511001
 20
16.29611624595759
 30
0.0
 40
0.1
100
AcDbArc
 50
77.18643959137759
 51
178.9885966304429
  0
ARC
  5
298B
330
18
100
AcDbEntity
  8
0
100
AcDbCircle
 10
57.53084769511001
 20
16.29611624595759
 30
0.0
 40
0.04
100
AcDbArc
 50
77.18643959137759
 51
178.9885966304429
  0
LINE
  5
298C
330
18
100
AcDbEntity
  8
0
100
AcDbLine
 10
57.57253839931324
 20
16.38918788448304
 30
0.0
 11
57.55302562347947
 21
16.39362593518507
 31
0.0
  0
LINE
  5
298D
330
18
100
AcDbEntity
  8
0
100
AcDbLine
 10
57.55923164229157
 20
16.33068207094655
 30
0.0
 11
57.5397188664578
 21
16.33512012164858
 31
0.0
  0
LINE
  5
298E
330
18
100
AcDbEntity
  8
0
100
AcDbLine
 10
57.43086327492351
 20
16.29788138616981
 30
0.0
 11
57.49085392703541
 21
16.29682230204248
 31
0.0
  0
ARC
  5
298F
330
18
100
AcDbEntity
  8
0
100
AcDbCircle
 10
57.47454700817361
 20
16.25942897868135
 30
0.0
 40
0.05
100
AcDbArc
 50
270.0000000000008
 51
1.90973252492309
  0
ARC
  5
2990
330
18
100
AcDbEntity
  8
0
100
AcDbCircle
 10
57.47454700817361
 20
16.25942897868135
 30
0.0
 40
0.1
100
AcDbArc
 50
270.0000000000008
 51
1.90973252492309
  0
LINE
  5
2991
330
18
100
AcDbEntity
  8
0
100
AcDbLine
 10
57.52290762167074
 20
16.30942897868135
 30
0.0
 11
57.57293540862289
 21
16.30942897868135
 31
0.0
  0
LINE
  5
2992
330
18
100
AcDbEntity
  8
0
100
AcDbLine
 10
57.3979561147624
 20
16.45592897868135
 30
0.0
 11
57.43655663411803
 21
16.45592897868135
 31
0.0
  0
LINE
  5
2993
330
18
100
AcDbEntity
  8
0
100
AcDbLine
 10
57.45453589339276
 20
16.20942897868135
 30
0.0
 11
57.47454700817361
 21
16.20942897868135
 31
0.0
  0
LINE
  5
2994
330
18
100
AcDbEntity
  8
0
100
AcDbLine
 10
57.52451923665518
 20
16.2610952261376
 30
0.0
 11
57.52290762167074
 21
16.30942897868135
 31
0.0
  0
ARC
  5
2995
330
18
100
AcDbEntity
  8
0
100
AcDbCircle
 10
57.45453589339276
 20
16.25942897868135
 30
0.0
 40
0.05
100
AcDbArc
 50
181.9097325249231
 51
270.0
  0
ARC
  5
2996
330
18
100
AcDbEntity
  8
0
100
AcDbCircle
 10
57.45453589339276
 20
16.25942897868135
 30
0.0
 40
0.1
100
AcDbArc
 50
181.9097325249231
 51
270.0
  0
LINE
  5
2997
330
18
100
AcDbEntity
  8
0
100
AcDbLine
 10
57.45453589339276
 20
16.15942897868135
 30
0.0
 11
57.47454700817361
 21
16.15942897868135
 31
0.0
  0
LINE
  5
2998
330
18
100
AcDbEntity
  8
0
100
AcDbLine
 10
57.57449146513676
 20
16.26276147359385
 30
0.0
 11
57.57293540862289
 21
16.30942897868135
 31
0.0
  0
LINE
  5
2999
330
18
100
AcDbEntity
  8
0
100
AcDbLine
 10
57.40456366491119
 20
16.2577627312251
 30
0.0
 11
57.40397265217351
 21
16.29942897868135
 31
0.0
  0
LINE
  5
299A
330
18
100
AcDbEntity
  8
0
100
AcDbLine
 10
57.35397265217351
 20
16.29942897868135
 30
0.0
 11
57.40397265217351
 21
16.29942897868135
 31
0.0
  0
LINE
  5
299B
330
18
100
AcDbEntity
  8
0
100
AcDbLine
 10
57.62647755090357
 20
16.20668307724892
 30
0.0
 11
57.64757048137408
 21
16.26822155713145
 31
0.0
  0
LINE
  5
299C
330
18
100
AcDbEntity
  8
0
100
AcDbLine
 10
57.48655663411803
 20
16.56192897868135
 30
0.0
 11
57.48655663411803
 21
16.50592897868135
 31
0.0
  0
ARC
  5
299D
330
18
100
AcDbEntity
  8
0
100
AcDbCircle
 10
57.43655663411803
 20
16.56192897868135
 30
0.0
 40
0.05
100
AcDbArc
 50
0.0
 51
90.0
  0
LINE
  5
299E
330
18
100
AcDbEntity
  8
0
100
AcDbLine
 10
57.39275453358276
 20
16.61192897868135
 30
0.0
 11
57.43655663411803
 21
16.61192897868135
 31
0.0
  0
LINE
  5
299F
330
18
100
AcDbEntity
  8
0
100
AcDbLine
 10
57.33647484617431
 20
16.79942897868135
 30
0.0
 11
57.38650263312645
 21
16.79942897868135
 31
0.0
  0
INSERT
  5
29A0
330
18
100
AcDbEntity
  8
DIM
100
AcDbBlockReference
  2
SBBTX
 10
52.66530410969543
 20
22.99494189188362
 30
0.0
 41
2.25
 42
2.25
 43
2.25
  0
LWPOLYLINE
  5
29A1
330
18
100
AcDbEntity
  8
0
100
AcDbPolyline
 90
       26
 70
     1
 43
0.0
 10
50.32280410969542
 20
26.03223704251858
 10
50.32280410969542
 20
26.47238762563215
 10
54.76107622823387
 20
26.5886078712309
 42
0.4065662586440514
 10
54.88280410969538
 20
26.71356503685284
 10
54.88280410969544
 20
34.19071021441145
 42
0.4065662586440556
 10
54.76107622823393
 20
34.3156673800334
 10
50.32280410969545
 20
34.43188762563216
 10
50.32280410969545
 20
34.87203820874572
 10
50.92024110122168
 20
34.85639377054307
 42
-0.406566258644157
 10
50.95067307158706
 20
34.82515447913758
 10
50.95067307158706
 20
34.78402836503202
 42
0.4065662586439417
 10
51.19412883451009
 20
34.53411403378823
 10
54.69366805042617
 20
34.44247537435195
 42
0.4219024434213394
 10
54.75780410969541
 20
34.50495395716293
 10
54.75780410969544
 20
35.10837541577254
 42
-0.4142135623730951
 10
54.88280410969544
 20
35.23337541577253
 10
55.00780410969544
 20
35.23337541577253
 10
55.00780410969541
 20
25.67137541577253
 10
54.88280410969543
 20
25.67137541577253
 42
-0.4142135623730951
 10
54.75780410969543
 20
25.79637541577252
 10
54.75780410969541
 20
26.39932129410138
 42
0.4219024434213457
 10
54.69366805042617
 20
26.46179987691236
 10
51.19412883451011
 20
26.37016121747608
 42
0.4065662586441653
 10
50.95067307158707
 20
26.12024688623212
 10
50.95067307158709
 20
26.07912077212672
 42
-0.4065662586440534
 10
50.92024110122171
 20
26.04788148072123
1001
ACAD
1000
ASC_BOUNDS
1002
{
1070
    19
1005
0
1002
}
  0
HATCH
  5
29A2
330
18
100
AcDbEntity
  8
HATCH
100
AcDbHatch
 10
0.0
 20
0.0
 30
0.0
210
0.0
220
0.0
230
1.0
  2
ANSI34
 70
     0
 71
     0
 91
        1
 92
        7
 72
     1
 73
     1
 93
       26
 10
55.00780410969544
 20
35.23337541577253
 42
0.0
 10
54.88280410969544
 20
35.23337541577253
 42
0.4142135623730951
 10
54.75780410969544
 20
35.10837541577254
 42
0.0
 10
54.75780410969541
 20
34.50495395716293
 42
-0.4219024434213393
 10
54.69366805042617
 20
34.44247537435195
 42
0.0
 10
51.19412883451009
 20
34.53411403378823
 42
-0.4065662586440496
 10
50.95067307158706
 20
34.78402836503212
 42
0.0
 10
50.95067307158706
 20
34.82515447913758
 42
0.4065662586440925
 10
50.92024110122169
 20
34.85639377054307
 42
0.0
 10
50.32280410969545
 20
34.87203820874572
 42
0.0
 10
50.32280410969545
 20
34.43188762563216
 42
0.0
 10
54.76107622823392
 20
34.3156673800334
 42
-0.4065662586440551
 10
54.88280410969544
 20
34.19071021441146
 42
0.0
 10
54.88280410969538
 20
26.71356503685284
 42
-0.4065662586440514
 10
54.76107622823387
 20
26.5886078712309
 42
0.0
 10
50.32280410969542
 20
26.47238762563215
 42
0.0
 10
50.32280410969542
 20
26.03223704251858
 42
0.0
 10
50.92024110122171
 20
26.04788148072123
 42
0.4065662586441528
 10
50.95067307158709
 20
26.07912077212673
 42
0.0
 10
50.95067307158707
 20
26.12024688623212
 42
-0.4065662586441571
 10
51.1941288345101
 20
26.37016121747608
 42
0.0
 10
54.69366805042617
 20
26.46179987691236
 42
-0.4219024434213456
 10
54.75780410969541
 20
26.39932129410138
 42
0.0
 10
54.75780410969543
 20
25.79637541577252
 42
0.4142135623730866
 10
54.88280410969543
 20
25.67137541577253
 42
0.0
 10
55.00780410969541
 20
25.67137541577253
 42
0.0
 97
        0
 75
     0
 76
     1
 52
0.0
 41
1.0
 77
     0
 78
     4
 53
45.0
 43
0.0
 44
-1.269475580280754
 45
-0.5303300858899106
 46
0.5303300858899107
 79
     0
 53
45.0
 43
0.1767766950000009
 44
-1.269475580280754
 45
-0.5303300858899106
 46
0.5303300858899107
 79
     0
 53
45.0
 43
0.3535533909999984
 44
-1.269475580280754
 45
-0.5303300858899106
 46
0.5303300858899107
 79
     0
 53
45.0
 43
0.5303300859999994
 44
-1.269475580280754
 45
-0.5303300858899106
 46
0.5303300858899107
 79
     0
 47
0.0028765714361575
 98
        1
 10
54.80921514589877
 20
26.35544951148984
  0
LINE
  5
29A3
330
18
100
AcDbEntity
  8
0
100
AcDbLine
 10
50.32280410969545
 20
34.43188762563216
 30
0.0
 11
50.32280410969542
 21
26.47238762563215
 31
0.0
  0
DIMENSION
  5
29A4
330
18
100
AcDbEntity
  8
DIM
100
AcDbDimension
280
     0
  2
*D21
 10
47.72180748351156
 20
34.43188762563217
 30
0.0
 11
47.72180748351155
 21
30.45213762563217
 31
0.0
 70
   160
 71
     5
 42
7.959500000000009
 73
     0
 74
     0
 75
     0
  3
STANDARD
100
AcDbAlignedDimension
 13
50.32280410969542
 23
26.47238762563215
 33
0.0
 14
50.32280410969545
 24
34.43188762563216
 34
0.0
 50
90.0
100
AcDbRotatedDimension
1001
ACAD
1000
DSTYLE
1002
{
1070
    41
1040
0.1875
1070
    43
1040
0.375
1070
    44
1040
0.1875
1070
   141
1040
0.09375
1070
   147
1040
0.1875
1070
   271
1070
     5
1070
   272
1070
     5
1070
   276
1070
     2
1070
   277
1070
     5
1070
   289
1070
     0
1002
}
  0
LINE
  5
29A5
330
18
100
AcDbEntity
  8
0
100
AcDbLine
 10
36.04055635097184
 20
34.19118579469221
 30
0.0
 11
36.04055635097181
 21
26.71404061713363
 31
0.0
1001
ACAD
1000
ASC_BOUNDS
1002
{
1070
    19
1005
0
1002
}
  0
LWPOLYLINE
  5
29A6
330
18
100
AcDbEntity
  8
0
100
AcDbPolyline
 90
       14
 70
     1
 43
0.0
 10
50.24580410969543
 20
26.70311320591295
 10
50.2458041096954
 20
26.02765308747301
 42
0.4040262258351552
 10
50.3664416726076
 20
25.90272923409563
 10
50.87080410969542
 20
25.89396046513876
 10
50.87080410969541
 20
25.7651132059129
 10
50.36207923551977
 20
25.78280842843973
 42
-0.4040262258351589
 10
50.12080410969538
 20
26.0326561351945
 10
50.12080410969536
 20
34.8725702766313
 42
-0.4040262258351465
 10
50.36207923551977
 20
35.12241798338607
 10
50.87080410969543
 20
35.1401132059129
 10
50.87080410969542
 20
35.01126594668708
 10
50.3664416726076
 20
35.00249717773022
 42
0.4040262258351555
 10
50.24580410969541
 20
34.87757332435282
 10
50.24580410969542
 20
34.2021132059129
1001
ACAD
1000
ASC_BOUNDS
1002
{
1070
    19
1005
0
1002
}
  0
HATCH
  5
29A7
330
18
100
AcDbEntity
  8
HATCH
100
AcDbHatch
 10
0.0
 20
0.0
 30
0.0
210
0.0
220
0.0
230
1.0
  2
ANSI34
 70
     0
 71
     0
 91
        1
 92
        1
 93
       14
 72
     1
 10
50.24580410969543
 20
26.70311320591295
 11
50.2458041096954
 21
26.02765308747301
 72
     2
 10
50.3708041096954
 20
26.02765308747301
 40
0.1250000000000071
 50
180.0000000000032
 51
268.0000000000029
 73
     1
 72
     1
 10
50.3664416726076
 20
25.90272923409563
 11
50.87080410969542
 21
25.89396046513876
 72
     1
 10
50.87080410969542
 20
25.89396046513876
 11
50.87080410969541
 21
25.7651132059129
 72
     1
 10
50.87080410969541
 20
25.7651132059129
 11
50.36207923551977
 21
25.78280842843973
 72
     2
 10
50.37080410969538
 20
26.03265613519451
 40
0.2500000000000038
 50
91.99999999999707
 51
179.9999999999975
 73
     0
 72
     1
 10
50.12080410969538
 20
26.0326561351945
 11
50.12080410969536
 21
34.8725702766313
 72
     2
 10
50.37080410969537
 20
34.87257027663126
 40
0.2500000000000142
 50
180.0000000000065
 51
268.0000000000047
 73
     0
 72
     1
 10
50.36207923551977
 20
35.12241798338607
 11
50.87080410969543
 21
35.1401132059129
 72
     1
 10
50.87080410969543
 20
35.1401132059129
 11
50.87080410969542
 21
35.01126594668708
 72
     1
 10
50.87080410969542
 20
35.01126594668708
 11
50.3664416726076
 21
35.00249717773022
 72
     2
 10
50.37080410969541
 20
34.87757332435282
 40
0.1250000000000092
 50
92.00000000000025
 51
180.0
 73
     1
 72
     1
 10
50.24580410969541
 20
34.87757332435282
 11
50.24580410969542
 21
34.2021132059129
 72
     1
 10
50.24580410969542
 20
34.2021132059129
 11
50.24580410969543
 21
26.70311320591295
 97
        0
 75
     0
 76
     1
 52
90.0
 41
1.0
 77
     0
 78
     4
 53
135.0
 43
0.0
 44
0.0000000000000142
 45
-0.5303300858899107
 46
-0.5303300858899106
 79
     0
 53
135.0
 43
0.0
 44
0.1767766950000142
 45
-0.5303300858899107
 46
-0.5303300858899106
 79
     0
 53
135.0
 43
0.0
 44
0.3535533910000144
 45
-0.5303300858899107
 46
-0.5303300858899106
 79
     0
 53
135.0
 43
0.0
 44
0.5303300860000145
 45
-0.5303300858899107
 46
-0.5303300858899106
 79
     0
 98
        1
 10
0.0
 20
0.0000000000000142
  0
DIMENSION
  5
29A8
330
18
100
AcDbEntity
  8
DIM
100
AcDbDimension
280
     0
  2
*D22
 10
38.19672063430407
 20
26.06155955265986
 30
0.0
 11
38.19672063430406
 21
30.43655955265987
 31
0.0
 70
    32
 71
     5
 42
8.75
 73
     0
 74
     0
 75
     0
  3
STANDARD
100
AcDbAlignedDimension
 13
36.22805635097183
 23
34.81155955265986
 33
0.0
 14
36.22805635097183
 24
26.06155955265986
 34
0.0
 50
90.0
100
AcDbRotatedDimension
1001
ACAD
1000
DSTYLE
1002
{
1070
    41
1040
0.1875
1070
    43
1040
0.375
1070
    44
1040
0.1875
1070
   141
1040
0.09375
1070
   147
1040
0.1875
1070
   271
1070
     5
1070
   272
1070
     5
1070
   276
1070
     2
1070
   277
1070
     5
1070
   289
1070
     0
1002
}
  0
ARC
  5
29A9
330
18
100
AcDbEntity
  8
0
100
AcDbCircle
 10
35.91555635097183
 20
25.79685099605328
 30
0.0
 40
0.125
100
AcDbArc
 50
180.0
 51
270.0
1001
ACAD
1000
ASC_BOUNDS
1002
{
1070
    19
1005
0
1002
}
  0
LINE
  5
29AA
330
18
100
AcDbEntity
  8
0
100
AcDbLine
 10
36.04055635097183
 20
25.67185099605328
 30
0.0
 11
36.04055635097181
 21
26.71404061713363
 31
0.0
  0
LINE
  5
29AB
330
18
100
AcDbEntity
  8
0
100
AcDbLine
 10
36.04055635097183
 20
25.67185099605328
 30
0.0
 11
35.91555635097183
 21
25.67185099605328
 31
0.0
1001
ACAD
1000
ASC_BOUNDS
1002
{
1070
    19
1005
0
1002
}
  0
ARC
  5
29AC
330
18
100
AcDbEntity
  8
0
100
AcDbCircle
 10
35.79055635097181
 20
26.71404061713363
 30
0.0
 40
0.25
100
AcDbArc
 50
271.4999999999998
 51
0.0
  0
LINE
  5
29AD
330
18
100
AcDbEntity
  8
0
100
AcDbLine
 10
35.60305635097182
 20
26.06155955265986
 30
0.0
 11
35.66555635097183
 21
26.06155955265986
 31
0.0
  0
LINE
  5
29AE
330
18
100
AcDbEntity
  8
0
100
AcDbLine
 10
35.79055635097183
 20
25.79685099605328
 30
0.0
 11
35.79055635097183
 21
26.39979687438215
 31
0.0
1001
ACAD
1000
ASC_BOUNDS
1002
{
1070
    19
1005
0
1002
}
  0
ARC
  5
29AF
330
18
100
AcDbEntity
  8
0
100
AcDbCircle
 10
35.72805635097183
 20
26.39979687438215
 30
0.0
 40
0.0625
100
AcDbArc
 50
0.0
 51
91.49999999999987
1001
ACAD
1000
ASC_BOUNDS
1002
{
1070
    19
1005
0
1002
}
  0
LINE
  5
29B0
330
18
100
AcDbEntity
  8
0
100
AcDbLine
 10
35.85305635097184
 20
26.21755955265987
 30
0.0
 11
35.97805635097183
 21
26.21755955265986
 31
0.0
  0
LINE
  5
29B1
330
18
100
AcDbEntity
  8
0
100
AcDbLine
 10
35.85305635097184
 20
26.06155955265986
 30
0.0
 11
35.97805635097183
 21
26.06155955265986
 31
0.0
  0
LINE
  5
29B2
330
18
100
AcDbEntity
  8
0
100
AcDbLine
 10
35.85305635097184
 20
25.90555955265986
 30
0.0
 11
35.97805635097182
 21
25.90555955265986
 31
0.0
  0
LINE
  5
29B3
330
18
100
AcDbEntity
  8
0
100
AcDbLine
 10
36.16555635097184
 20
26.06155955265986
 30
0.0
 11
36.22805635097183
 21
26.06155955265986
 31
0.0
  0
LINE
  5
29B4
330
18
100
AcDbEntity
  8
0
100
AcDbLine
 10
33.98555635097188
 20
30.66112708792696
 30
0.0
 11
33.9102211961127
 21
30.68699988570339
 31
0.0
  0
ARC
  5
29B5
330
18
100
AcDbEntity
  8
0
100
AcDbCircle
 10
33.10439987494506
 20
30.89354692085252
 30
0.0
 40
0.8318711915778999
100
AcDbArc
 50
337.7135202655622
 51
7.26439725634787
  0
ARC
  5
29B6
330
18
100
AcDbEntity
  8
0
100
AcDbCircle
 10
33.10439987494506
 20
30.07961873133309
 30
0.0
 40
0.8318711915778999
100
AcDbArc
 50
352.7356027436519
 51
22.28647973443759
  0
CIRCLE
  5
29B7
330
18
100
AcDbEntity
  8
0
100
AcDbCircle
 10
33.96792708759975
 20
30.48340699253343
 30
0.0
 40
0.045
  0
LINE
  5
29B8
330
18
100
AcDbEntity
  8
0
100
AcDbLine
 10
33.98555635097188
 20
30.30568689713989
 30
0.0
 11
33.91292157288729
 21
30.27532857608771
 31
0.0
  0
CIRCLE
  5
29B9
330
18
100
AcDbEntity
  8
0
100
AcDbCircle
 10
33.96792708759975
 20
30.48340699253343
 30
0.0
 40
0.075
  0
ARC
  5
29BA
330
18
100
AcDbEntity
  8
0
100
AcDbCircle
 10
34.24121387805859
 20
30.48658282609282
 30
0.0
 40
0.378312984420794
100
AcDbArc
 50
166.0054817738506
 51
179.9999999999998
  0
ARC
  5
29BB
330
18
100
AcDbEntity
  8
0
100
AcDbCircle
 10
34.24121387805858
 20
30.48658282609282
 30
0.0
 40
0.378312984420794
100
AcDbArc
 50
180.0000000000002
 51
193.9945182261492
  0
ARC
  5
29BC
330
18
100
AcDbEntity
  8
0
100
AcDbCircle
 10
33.92579166496657
 20
30.48340699253343
 30
0.0
 40
0.1875
100
AcDbArc
 50
288.5870442949908
 51
71.41295570501052
  0
LWPOLYLINE
  5
29BD
102
{ACAD_REACTORS
330
29BE
102
}
330
18
100
AcDbEntity
  8
0
100
AcDbPolyline
 90
        8
 70
     1
 43
0.0
 10
50.32280410969542
 20
26.21372425685904
 42
0.4142135623729885
 10
50.28480410969544
 20
26.25172425685903
 10
50.28380410969543
 20
26.25172425685903
 42
0.4142135623730951
 10
50.24580410969541
 20
26.21372425685904
 10
50.24580410969541
 20
26.07189122143706
 42
0.4142135623730951
 10
50.28380410969543
 20
26.03389122143706
 10
50.28480410969542
 20
26.03389122143706
 42
0.4142135623730894
 10
50.32280410969542
 20
26.07189122143706
  0
HATCH
  5
29BE
330
18
100
AcDbEntity
  8
HATCH
100
AcDbHatch
 10
0.0
 20
0.0
 30
0.0
210
0.0
220
0.0
230
1.0
  2
ANSI31
 70
     0
 71
     1
 91
        1
 92
        1
 93
        8
 72
     2
 10
50.28480410969542
 20
26.21372425685904
 40
0.0379999999999967
 50
0.0
 51
89.99999999997857
 73
     1
 72
     1
 10
50.28480410969544
 20
26.25172425685903
 11
50.28380410969543
 21
26.25172425685903
 72
     2
 10
50.28380410969542
 20
26.21372425685903
 40
0.0380000000000038
 50
89.99999999998928
 51
179.9999999999893
 73
     1
 72
     1
 10
50.24580410969541
 20
26.21372425685904
 11
50.24580410969541
 21
26.07189122143706
 72
     2
 10
50.28380410969542
 20
26.07189122143707
 40
0.0380000000000038
 50
180.0000000000107
 51
270.0000000000107
 73
     1
 72
     1
 10
50.28380410969543
 20
26.03389122143706
 11
50.28480410969542
 21
26.03389122143706
 72
     2
 10
50.28480410969542
 20
26.07189122143706
 40
0.0379999999999967
 50
270.0
 51
360.0
 73
     1
 72
     1
 10
50.32280410969542
 20
26.07189122143706
 11
50.32280410969542
 21
26.21372425685904
 97
        1
330
29BD
 75
     0
 76
     1
 52
90.0
 41
0.5
 77
     0
 78
     1
 53
135.0
 43
-32.02100848198478
 44
-11.41018887089908
 45
-0.0441941738241592
 46
-0.0441941738241592
 79
     0
 98
        1
 10
-32.02100848198478
 20
-11.41018887089908
  0
LINE
  5
29BF
330
18
100
AcDbEntity
  8
0
100
AcDbLine
 10
50.95067307158709
 20
26.12381392555847
 30
0.0
 11
50.95067307158709
 21
26.10955107981963
 31
0.0
1001
ACAD
1000
ASC_BOUNDS
1002
{
1070
    19
1005
0
1002
}
  0
LINE
  5
29C0
330
18
100
AcDbEntity
  8
0
100
AcDbLine
 10
35.79055635097181
 20
34.50542953744368
 30
0.0
 11
35.79055635097184
 21
35.10837541577254
 31
0.0
1001
ACAD
1000
ASC_BOUNDS
1002
{
1070
    19
1005
0
1002
}
  0
LINE
  5
29C1
330
18
100
AcDbEntity
  8
0
100
AcDbLine
 10
36.04055635097184
 20
34.19118579469221
 30
0.0
 11
36.04055635097184
 21
35.23337541577253
 31
0.0
  0
ARC
  5
29C2
330
18
100
AcDbEntity
  8
0
100
AcDbCircle
 10
35.72805635097181
 20
34.50542953744368
 30
0.0
 40
0.0625
100
AcDbArc
 50
268.5000000000002
 51
359.9999999999988
  0
ARC
  5
29C3
330
18
100
AcDbEntity
  8
0
100
AcDbCircle
 10
35.79055635097184
 20
34.19118579469221
 30
0.0
 40
0.25
100
AcDbArc
 50
359.9999999999996
 51
88.49999999999972
1001
ACAD
1000
ASC_BOUNDS
1002
{
1070
    19
1005
0
1002
}
  0
LINE
  5
29C4
330
18
100
AcDbEntity
  8
0
100
AcDbLine
 10
35.85305635097184
 20
34.65555955265986
 30
0.0
 11
35.97805635097182
 21
34.65555955265986
 31
0.0
  0
LINE
  5
29C5
330
18
100
AcDbEntity
  8
0
100
AcDbLine
 10
35.60305635097182
 20
34.81155955265986
 30
0.0
 11
35.66555635097183
 21
34.81155955265986
 31
0.0
  0
ARC
  5
29C6
330
18
100
AcDbEntity
  8
0
100
AcDbCircle
 10
35.91555635097184
 20
35.10837541577253
 30
0.0
 40
0.125
100
AcDbArc
 50
90.0
 51
180.0
1001
ACAD
1000
ASC_BOUNDS
1002
{
1070
    19
1005
0
1002
}
  0
LINE
  5
29C7
330
18
100
AcDbEntity
  8
0
100
AcDbLine
 10
35.91555635097184
 20
35.23337541577253
 30
0.0
 11
36.04055635097184
 21
35.23337541577253
 31
0.0
1001
ACAD
1000
ASC_BOUNDS
1002
{
1070
    19
1005
0
1002
}
  0
LINE
  5
29C8
330
18
100
AcDbEntity
  8
0
100
AcDbLine
 10
35.85305635097184
 20
34.81155955265986
 30
0.0
 11
35.97805635097183
 21
34.81155955265986
 31
0.0
  0
LINE
  5
29C9
330
18
100
AcDbEntity
  8
0
100
AcDbLine
 10
35.85305635097184
 20
34.96755955265987
 30
0.0
 11
35.97805635097183
 21
34.96755955265986
 31
0.0
  0
LINE
  5
29CA
330
18
100
AcDbEntity
  8
0
100
AcDbLine
 10
36.16555635097184
 20
34.81155955265986
 30
0.0
 11
36.22805635097183
 21
34.81155955265986
 31
0.0
  0
LWPOLYLINE
  5
29CB
102
{ACAD_REACTORS
330
29CC
102
}
330
18
100
AcDbEntity
  8
0
100
AcDbPolyline
 90
        8
 70
     1
 43
0.0
 10
50.32280410969542
 20
34.69055099440527
 42
-0.4142135623729885
 10
50.28480410969544
 20
34.65255099440528
 10
50.28380410969543
 20
34.65255099440528
 42
-0.4142135623730951
 10
50.24580410969541
 20
34.69055099440527
 10
50.24580410969541
 20
34.83238402982725
 42
-0.4142135623730951
 10
50.28380410969543
 20
34.87038402982725
 10
50.28480410969542
 20
34.87038402982725
 42
-0.4142135623730894
 10
50.32280410969542
 20
34.83238402982725
  0
HATCH
  5
29CC
330
18
100
AcDbEntity
  8
HATCH
100
AcDbHatch
 10
0.0
 20
0.0
 30
0.0
210
0.0
220
0.0
230
1.0
  2
ANSI31
 70
     0
 71
     1
 91
        1
 92
        1
 93
        8
 72
     2
 10
50.28480410969542
 20
34.69055099440527
 40
0.0379999999999967
 50
360.0
 51
449.9999999999785
 73
     0
 72
     1
 10
50.28480410969544
 20
34.65255099440528
 11
50.28380410969543
 21
34.65255099440528
 72
     2
 10
50.28380410969542
 20
34.69055099440528
 40
0.0380000000000038
 50
89.99999999998932
 51
179.9999999999893
 73
     0
 72
     1
 10
50.24580410969541
 20
34.69055099440527
 11
50.24580410969541
 21
34.83238402982725
 72
     2
 10
50.28380410969542
 20
34.83238402982725
 40
0.0380000000000038
 50
180.0000000000107
 51
270.0000000000107
 73
     0
 72
     1
 10
50.28380410969543
 20
34.87038402982725
 11
50.28480410969542
 21
34.87038402982725
 72
     2
 10
50.28480410969542
 20
34.83238402982725
 40
0.0379999999999967
 50
270.0
 51
360.0
 73
     0
 72
     1
 10
50.32280410969542
 20
34.83238402982725
 11
50.32280410969542
 21
34.69055099440527
 97
        1
330
29CB
 75
     0
 76
     1
 52
90.0
 41
0.5
 77
     0
 78
     1
 53
135.0
 43
-32.02100848198478
 44
-11.41018887089908
 45
-0.0441941738241592
 46
-0.0441941738241592
 79
     0
 98
        1
 10
-32.02100848198478
 20
-11.41018887089908
  0
LINE
  5
29CD
330
18
100
AcDbEntity
  8
0
100
AcDbLine
 10
50.95067307158707
 20
34.79472417144469
 30
0.0
 11
50.95067307158709
 21
34.78928746557964
 31
0.0
1001
ACAD
1000
ASC_BOUNDS
1002
{
1070
    19
1005
0
1002
}
  0
LINE
  5
29CE
330
18
100
AcDbEntity
  8
0
100
AcDbLine
 10
54.38280410969522
 20
34.31122259638167
 30
0.0
 11
54.38280410969531
 21
33.32346906937718
 31
0.0
  0
DIMENSION
  5
29CF
330
18
100
AcDbEntity
  8
DIM
100
AcDbDimension
280
     0
  2
*D23
 10
58.94434886652625
 20
34.3156673800334
 30
0.0
 11
58.94434886652624
 21
30.45213762563217
 31
0.0
 70
   160
 71
     5
 42
7.727059508802501
 73
     0
 74
     0
 75
     0
  3
STANDARD
100
AcDbAlignedDimension
 13
54.76107622823388
 23
26.58860787123091
 33
0.0
 14
54.76107622823393
 24
34.3156673800334
 34
0.0
 50
90.0
100
AcDbRotatedDimension
1001
ACAD
1000
DSTYLE
1002
{
1070
    41
1040
0.1875
1070
    43
1040
0.375
1070
    44
1040
0.1875
1070
   141
1040
0.09375
1070
   147
1040
0.1875
1070
   271
1070
     5
1070
   272
1070
     5
1070
   276
1070
     2
1070
   277
1070
     5
1070
   289
1070
     0
1002
}
  0
LINE
  5
29D1
330
18
100
AcDbEntity
  8
0
100
AcDbLine
 10
54.38280410969543
 20
26.59609086052351
 30
0.0
 11
54.38280410969553
 21
27.64306963433777
 31
0.0
  0
DIMENSION
  5
29D2
330
18
100
AcDbEntity
  8
DIM
100
AcDbDimension
280
     0
  2
*D24
 10
56.79549295571064
 20
27.34270348874483
 30
0.0
 11
56.79549295571064
 21
30.46770348874483
 31
0.0
 70
    32
 71
     5
 42
6.249999999999989
 73
     0
 74
     0
 75
     0
  3
STANDARD
100
AcDbAlignedDimension
 13
54.82030410969544
 23
33.59270348874482
 33
0.0
 14
54.82030410969542
 24
27.34270348874483
 34
0.0
 50
90.0
100
AcDbRotatedDimension
1001
ACAD
1000
DSTYLE
1002
{
1070
    41
1040
0.1875
1070
    43
1040
0.375
1070
    44
1040
0.1875
1070
   141
1040
0.09375
1070
   147
1040
0.1875
1070
   271
1070
     5
1070
   272
1070
     5
1070
   276
1070
     2
1070
   277
1070
     5
1070
   289
1070
     0
1002
}
  0
LINE
  5
29D4
330
18
100
AcDbEntity
  8
0
100
AcDbLine
 10
54.82030410969542
 20
27.34270348874483
 30
0.0
 11
54.4453041096955
 21
27.34270348874482
 31
0.0
  0
LINE
  5
29D6
330
18
100
AcDbEntity
  8
0
100
AcDbLine
 10
54.11171785727093
 20
27.34270348874493
 30
0.0
 11
53.96887054404441
 21
27.34270348874493
 31
0.0
  0
LINE
  5
29D8
330
18
100
AcDbEntity
  8
0
100
AcDbLine
 10
54.40691471965537
 20
27.6734931714407
 30
0.0
 11
54.88280410969544
 21
27.75583521497015
 31
0.0
  0
ARC
  5
29D9
330
18
100
AcDbEntity
  8
0
100
AcDbCircle
 10
54.41405410969553
 20
27.64306963433777
 30
0.0
 40
0.03125
100
AcDbArc
 50
103.2064507772295
 51
179.9999999999992
  0
LINE
  5
29DB
330
18
100
AcDbEntity
  8
0
100
AcDbLine
 10
54.82030410969544
 20
33.59270348874482
 30
0.0
 11
54.4453041096953
 21
33.5927034887448
 31
0.0
  0
LINE
  5
29DC
330
18
100
AcDbEntity
  8
0
100
AcDbLine
 10
54.40691471965516
 20
33.29304553227423
 30
0.0
 11
54.88280410969544
 21
33.21070348874481
 31
0.0
  0
ARC
  5
29DE
330
18
100
AcDbEntity
  8
0
100
AcDbCircle
 10
54.41405410969531
 20
33.32346906937718
 30
0.0
 40
0.03125
100
AcDbArc
 50
180.0000000000007
 51
256.7935492227704
  0
LINE
  5
29DF
330
18
100
AcDbEntity
  8
0
100
AcDbLine
 10
54.11171785727093
 20
33.59270348874491
 30
0.0
 11
53.96887054404441
 21
33.59270348874491
 31
0.0
  0
TEXT
  5
29E2
330
18
100
AcDbEntity
  8
TITLE
100
AcDbText
 10
61.15640723510098
 20
0.1709044220038645
 30
0.0
 40
0.1875
  1
HW-J80804CHTL 
100
AcDbText
  0
TEXT
  5
29E3
330
18
100
AcDbEntity
  8
TITLE
100
AcDbText
 10
61.53190318818339
 20
0.9209044220038649
 30
0.0
 40
0.1875
  1
HW-J80804CHTL 
100
AcDbText
  0
TEXT
  5
2C7A
330
18
100
AcDbEntity
  8
TITLE
100
AcDbText
 10
44.94442113341903
 20
3.654508045021156
 30
0.0
 40
0.1875
  1
COLOR: GLACIER GRAY RR1013
100
AcDbText
  0
TEXT
  5
2C7B
330
18
100
AcDbEntity
  8
TITLE
100
AcDbText
 10
44.94253265094049
 20
3.136221033948356
 30
0.0
 40
0.1875
  1
NEMA 1, 3R, 4X, 6P, 12
100
AcDbText
  0
TEXT
  5
2C7C
330
18
100
AcDbEntity
  8
TITLE
100
AcDbText
 10
44.96670124286878
 20
2.396268116695392
 30
0.0
 40
0.1875
  1
F.R. POLYESTER FIBERGLASS
100
AcDbText
  0
TEXT
  5
2C7D
330
18
100
AcDbEntity
  8
TITLE
100
AcDbText
 10
52.3059774174964
 20
2.380821124173429
 30
0.0
 40
0.1875
  1
ZJB
100
AcDbText
  0
TEXT
  5
2C7E
330
18
100
AcDbEntity
  8
TITLE
100
AcDbText
 10
53.19913998432848
 20
2.380821124173431
 30
0.0
 40
0.1875
  1
3/2/04
 41
1.015010910006725
 72
     5
 11
54.24586998527292
 21
2.380821124173431
 31
0.0
100
AcDbText
  0
TEXT
  5
2C87
330
18
100
AcDbEntity
  8
DIM
100
AcDbText
 10
48.76482693464044
 20
36.01763876746473
 30
0.0
 40
0.187
  1
4 REQ'D.
100
AcDbText
  0
TEXT
  5
2C88
330
18
100
AcDbEntity
  8
DIM
100
AcDbText
 10
48.76482693464044
 20
36.3293054341314
 30
0.0
 40
0.187
  1
BRASS INSERT
100
AcDbText
  0
TEXT
  5
2C89
330
18
100
AcDbEntity
  8
DIM
100
AcDbText
 10
48.76482693464044
 20
36.64097210079807
 30
0.0
 40
0.187
  1
10-32 X 5/16 DP.
100
AcDbText
  0
LEADER
  5
2C8A
330
18
100
AcDbEntity
  8
DIM
100
AcDbLeader
  3
STANDARD
 76
     3
 10
54.33263498738887
 20
33.59972213818249
 30
0.0
 10
51.85402362976572
 20
36.74059152661572
 30
0.0
 10
51.6076118912631
 20
36.74059152661572
 30
0.0
1001
ACAD
1000
DSTYLE
1002
{
1070
    77
1070
     0
1070
    41
1040
0.1875
1070
    43
1040
0.375
1070
    44
1040
0.1875
1070
   141
1040
0.09375
1070
   147
1040
0.1875
1070
   271
1070
     5
1070
   272
1070
     5
1070
   276
1070
     2
1070
   277
1070
     5
1070
   289
1070
     0
1002
}
  0
LINE
  5
2CBE
330
18
100
AcDbEntity
  8
0
 62
     2
100
AcDbLine
 10
48.15147765635245
 20
16.72956817244977
 30
0.0
 11
48.14767303174912
 21
16.51160137490568
 31
0.0
  0
LINE
  5
2CBF
330
18
100
AcDbEntity
  8
0
 62
     2
100
AcDbLine
 10
48.21903963642424
 20
16.51191277243876
 30
0.0
 11
48.21333306169313
 21
16.72983806928343
 31
0.0
  0
LINE
  5
2CC0
330
18
100
AcDbEntity
  8
0
 62
     2
100
AcDbLine
 10
48.1072332116102
 20
16.20025972824219
 30
0.0
 11
48.11648298702198
 21
16.73017900667507
 31
0.0
  0
LINE
  5
2CC1
330
18
100
AcDbEntity
  8
0
 62
     2
100
AcDbLine
 10
48.24832106806727
 20
16.73075426247421
 30
0.0
 11
48.26219485067046
 21
16.20093588023715
 31
0.0
  0
ARC
  5
2CC2
330
18
100
AcDbEntity
  8
0
 62
     2
100
AcDbCircle
 10
48.18472140798483
 20
16.19890716674329
 30
0.0
 40
0.0775
100
AcDbArc
 50
178.999999999999
 51
122.2564312859771
  0
CIRCLE
  5
2CC7
330
18
100
AcDbEntity
  8
0
 62
     2
100
AcDbCircle
 10
48.18472140798483
 20
16.19890716674329
 30
0.0
 40
0.0425
  0
LINE
  5
2CC8
330
18
100
AcDbEntity
  8
0
 62
     2
100
AcDbLine
 10
48.14767303174912
 20
16.51160137490568
 30
0.0
 11
48.14222788094068
 21
16.19964889401689
 31
0.0
  0
LINE
  5
2CC9
330
18
100
AcDbEntity
  8
0
 62
     2
100
AcDbLine
 10
48.22551038415372
 20
16.2648048861507
 30
0.0
 11
48.21903963642424
 21
16.51191277243876
 31
0.0
  0
LINE
  5
2CCA
330
18
100
AcDbEntity
  8
0
 62
     2
100
AcDbLine
 10
48.11648298702198
 20
16.73017900667507
 30
0.0
 11
48.15147765635245
 21
16.72956817244977
 31
0.0
  0
LINE
  5
2CCB
330
18
100
AcDbEntity
  8
0
 62
     2
100
AcDbLine
 10
48.21333306169313
 20
16.72983806928343
 30
0.0
 11
48.24832106806727
 21
16.73075426247421
 31
0.0
  0
TEXT
  5
2D68
330
18
100
AcDbEntity
  8
DIM
100
AcDbText
 10
23.44816369692845
 20
14.49352058738024
 30
0.0
 40
0.18
  1
REF.
100
AcDbText
  0
DIMENSION
  5
2D69
330
18
100
AcDbEntity
  8
DIM
100
AcDbDimension
280
     0
  2
*D25
 10
22.75554650603647
 20
17.02721220913099
 30
0.0
 11
22.75554650603647
 21
14.58352058738024
 31
0.0
 70
    32
 71
     5
 42
4.887383243501496
 73
     0
 74
     0
 75
     0
  3
STANDARD
100
AcDbAlignedDimension
 13
18.99083818723144
 23
12.13982896562949
 33
0.0
 14
19.67426481947247
 24
17.02721220913099
 34
0.0
 50
90.0
100
AcDbRotatedDimension
1001
ACAD
1000
DSTYLE
1002
{
1070
    41
1040
0.1875
1070
    42
1040
0.1875
1070
    43
1040
0.375
1070
    44
1040
0.09375
1070
   140
1040
0.187
1070
   141
1040
0.09375
1070
   146
1040
0.4973262032085562
1070
   147
1040
0.1875
1070
   271
1070
     5
1070
   276
1070
     2
1070
   277
1070
     5
1070
   289
1070
     0
1002
}
  0
MTEXT
  5
2D94
330
18
100
AcDbEntity
  8
DIM
100
AcDbMText
 10
22.80253427598807
 20
37.40926110048611
 30
0.0
 40
0.18
 41
0.0
 46
0.0
 71
     5
 72
     1
  1
\A1;4 PLCS.
 73
     1
 44
1.0
  0
DIMENSION
  5
2D97
330
18
100
AcDbEntity
  8
DIM
100
AcDbDimension
280
     0
  2
*D26
 10
18.13024376256101
 20
34.71412045396053
 30
0.0
 11
22.70801265959824
 21
37.73905699906821
 31
0.0
 70
   163
 71
     5
 42
0.3119999999999976
 73
     0
 74
     0
 75
     0
  3
STANDARD
100
AcDbDiametricDimension
 15
18.37389615466633
 25
34.9089986513592
 35
0.0
 40
0.0
1001
ACAD
1000
DSTYLE
1002
{
1070
    41
1040
0.1875
1070
    42
1040
0.1875
1070
    43
1040
0.375
1070
    44
1040
0.09375
1070
   140
1040
0.187
1070
   141
1040
0.09375
1070
   146
1040
0.4973262032085562
1070
   147
1040
0.1875
1070
   271
1070
     3
1070
   272
1070
     3
1070
   276
1070
     2
1070
   289
1070
     0
1002
}
  0
LINE
  5
2DC3
330
18
100
AcDbEntity
  8
0
100
AcDbLine
 10
50.87080410969542
 20
35.01126594668708
 30
0.0
 11
50.87080410969542
 21
34.85768832372579
 31
0.0
  0
LINE
  5
2DCC
330
18
100
AcDbEntity
  8
0
100
AcDbLine
 10
50.87080410969542
 20
25.89396046513876
 30
0.0
 11
50.87080410969542
 21
26.04658692753851
 31
0.0
  0
TEXT
  5
2EA8
330
18
100
AcDbEntity
  8
TITLE
100
AcDbText
 10
54.62919465771366
 20
1.934349019793859
 30
0.0
 40
0.6409453323550213
  1
HUBBELL WIEGMANN
  7
STYLE1
100
AcDbText
  0
ENDSEC
  0
SECTION
  2
OBJECTS
  0
DICTIONARY
  5
C
330
0
100
AcDbDictionary
281
     1
  3
ACAD_COLOR
350
2BAF
  3
ACAD_GROUP
350
D
  3
ACAD_LAYOUT
350
15B9
  3
ACAD_MATERIAL
350
2BAE
  3
ACAD_MLEADERSTYLE
350
2E48
  3
ACAD_MLINESTYLE
350
E
  3
ACAD_PLOTSETTINGS
350
15BA
  3
ACAD_PLOTSTYLENAME
350
15B7
  3
ACAD_SCALELIST
350
2E36
  3
ACAD_TABLESTYLE
350
2DEF
  3
ACAD_VISUALSTYLE
350
2E1D
  3
ACDB_RECOMPOSE_DATA
350
2EF9
  3
AcDbVariableDictionary
350
2CD5
  0
DICTIONARY
  5
2E97
330
2
100
AcDbDictionary
280
     1
281
     1
  3
ACAD_LAYERSTATES
360
2E98
  0
DICTIONARY
  5
2EE5
330
F
100
AcDbDictionary
280
     1
281
     1
  3
ADSK_XREC_LAYER_RECONCILED
360
2EE6
  0
DICTIONARY
  5
2EE7
330
23
100
AcDbDictionary
280
     1
281
     1
  3
ADSK_XREC_LAYER_RECONCILED
360
2EE8
  0
DICTIONARY
  5
2EE9
330
24
100
AcDbDictionary
280
     1
281
     1
  3
ADSK_XREC_LAYER_RECONCILED
360
2EEA
  0
DICTIONARY
  5
2EEB
330
26
100
AcDbDictionary
280
     1
281
     1
  3
ADSK_XREC_LAYER_RECONCILED
360
2EEC
  0
DICTIONARY
  5
2EED
330
27
100
AcDbDictionary
280
     1
281
     1
  3
ADSK_XREC_LAYER_RECONCILED
360
2EEE
  0
DICTIONARY
  5
2EEF
330
28
100
AcDbDictionary
280
     1
281
     1
  3
ADSK_XREC_LAYER_RECONCILED
360
2EF0
  0
DICTIONARY
  5
2EE1
330
1536
100
AcDbDictionary
280
     1
281
     1
  0
DICTIONARY
  5
2E9C
330
2E99
100
AcDbDictionary
280
     1
281
     1
  3
ACAD_SORTENTS
360
2E9D
  0
DICTIONARY
  5
2BAF
102
{ACAD_REACTORS
330
C
102
}
330
C
100
AcDbDictionary
281
     1
  0
DICTIONARY
  5
D
102
{ACAD_REACTORS
330
C
102
}
330
C
100
AcDbDictionary
281
     1
  0
DICTIONARY
  5
15B9
102
{ACAD_REACTORS
330
C
102
}
330
C
100
AcDbDictionary
281
     1
  3
Layout1
350
15BC
  3
Model
350
15BB
  0
DICTIONARY
  5
2BAE
102
{ACAD_REACTORS
330
C
102
}
330
C
100
AcDbDictionary
281
     1
  3
ByBlock
350
2E0D
  3
ByLayer
350
2E05
  3
Global
350
2E15
  0
DICTIONARY
  5
2E48
102
{ACAD_REACTORS
330
C
102
}
330
C
100
AcDbDictionary
281
     1
  3
Standard
350
2E49
  0
DICTIONARY
  5
E
102
{ACAD_REACTORS
330
C
102
}
330
C
100
AcDbDictionary
281
     1
  3
STANDARD
350
1B
  0
DICTIONARY
  5
15BA
102
{ACAD_REACTORS
330
C
102
}
330
C
100
AcDbDictionary
281
     1
  0
ACDBDICTIONARYWDFLT
  5
15B7
102
{ACAD_REACTORS
330
C
102
}
330
C
100
AcDbDictionary
281
     1
  3
Normal
350
15B8
100
AcDbDictionaryWithDefault
340
15B8
  0
DICTIONARY
  5
2E36
102
{ACAD_REACTORS
330
C
102
}
330
C
100
AcDbDictionary
281
     1
  3
A0
350
2E37
  3
A1
350
2E38
  3
A2
350
2E39
  3
A3
350
2E3A
  3
A4
350
2E3B
  3
A5
350
2E3C
  3
A6
350
2E3D
  3
A7
350
2E3E
  3
A8
350
2E3F
  3
A9
350
2E40
  3
B0
350
2E41
  3
B1
350
2E42
  3
B2
350
2E43
  3
B3
350
2E44
  3
B4
350
2E45
  3
B5
350
2E46
  3
B6
350
2E47
  0
DICTIONARY
  5
2DEF
102
{ACAD_REACTORS
330
C
102
}
330
C
100
AcDbDictionary
281
     1
  3
Standard
350
2DF0
  0
DICTIONARY
  5
2E1D
102
{ACAD_REACTORS
330
C
102
}
330
C
100
AcDbDictionary
281
     1
  3
2dWireframe
350
2E23
  3
Basic
350
2E22
  3
Brighten
350
2E29
  3
ColorChange
350
2E2D
  3
Conceptual
350
2E26
  3
Dim
350
2E28
  3
EdgeColorOff
350
2E35
  3
Facepattern
350
2E2C
  3
Flat
350
2E1E
  3
FlatWithEdges
350
2E1F
  3
Gouraud
350
2E20
  3
GouraudWithEdges
350
2E21
  3
Hidden
350
2E25
  3
JitterOff
350
2E33
  3
Linepattern
350
2E2B
  3
OverhangOff
350
2E34
  3
Realistic
350
2E27
  3
Shaded
350
2E32
  3
Shaded with edges
350
2E31
  3
Shades of Gray
350
2E2E
  3
Sketchy
350
2E2F
  3
Thicken
350
2E2A
  3
Wireframe
350
2E24
  3
X-Ray
350
2E30
  0
XRECORD
  5
2EF9
102
{ACAD_REACTORS
330
C
102
}
330
C
100
AcDbXrecord
280
     1
 90
        1
330
2DF0
  0
DICTIONARY
  5
2CD5
102
{ACAD_REACTORS
330
C
102
}
330
C
100
AcDbDictionary
281
     1
  3
CANNOSCALE
350
2EF3
  3
CMLEADERSTYLE
350
2EF1
  3
CTABLESTYLE
350
2E03
  3
DIMASSOC
350
2CD6
  3
LAYEREVAL
350
2EF5
  3
LAYERNOTIFY
350
2EF6
  3
LIGHTINGUNITS
350
2EF4
  3
MSLTSCALE
350
2EF2
  3
PROJECTNAME
350
2CD7
  0
DICTIONARY
  5
2E98
102
{ACAD_REACTORS
330
2E97
102
}
330
2E97
100
AcDbDictionary
281
     1
  0
XRECORD
  5
2EE6
102
{ACAD_REACTORS
330
2EE5
102
}
330
2EE5
100
AcDbXrecord
280
     1
290
     1
  0
XRECORD
  5
2EE8
102
{ACAD_REACTORS
330
2EE7
102
}
330
2EE7
100
AcDbXrecord
280
     1
290
     1
  0
XRECORD
  5
2EEA
102
{ACAD_REACTORS
330
2EE9
102
}
330
2EE9
100
AcDbXrecord
280
     1
290
     1
  0
XRECORD
  5
2EEC
102
{ACAD_REACTORS
330
2EEB
102
}
330
2EEB
100
AcDbXrecord
280
     1
290
     1
  0
XRECORD
  5
2EEE
102
{ACAD_REACTORS
330
2EED
102
}
330
2EED
100
AcDbXrecord
280
     1
290
     1
  0
XRECORD
  5
2EF0
102
{ACAD_REACTORS
330
2EEF
102
}
330
2EEF
100
AcDbXrecord
280
     1
290
     1
  0
SORTENTSTABLE
  5
2E9D
102
{ACAD_REACTORS
330
2E9C
102
}
330
2E9C
100
AcDbSortentsTable
330
2E99
  0
LAYOUT
  5
15BC
102
{ACAD_REACTORS
330
15B9
102
}
330
15B9
100
AcDbPlotSettings
  1

  2
HP DeskJet 880C Series Printer
  4

  6

 40
0.0
 41
0.0
 42
0.0
 43
0.0
 44
0.0
 45
0.0
 46
0.0
 47
0.0
 48
0.0
 49
0.0
140
0.0
141
0.0
142
1.0
143
1.0
 70
   688
 72
     0
 73
     0
 74
     5
  7

 75
    16
147
1.0
 76
     0
 77
     2
 78
   300
148
0.0
149
0.0
100
AcDbLayout
  1
Layout1
 70
     1
 71
     1
 10
0.0
 20
0.0
 11
12.0
 21
9.0
 12
0.0
 22
0.0
 32
0.0
 14
1.000000000000000E+20
 24
1.000000000000000E+20
 34
1.000000000000000E+20
 15
-1.000000000000000E+20
 25
-1.000000000000000E+20
 35
-1.000000000000000E+20
146
0.0
 13
0.0
 23
0.0
 33
0.0
 16
1.0
 26
0.0
 36
0.0
 17
0.0
 27
1.0
 37
0.0
 76
     0
330
15
  0
LAYOUT
  5
15BB
102
{ACAD_REACTORS
330
15B9
102
}
330
15B9
100
AcDbPlotSettings
  1

  2
HP DesignJet 500 24 by HP
  4
User265
  6

 40
4.995333194732666
 41
16.97568893432617
 42
4.99530029296875
 43
16.97564697265625
 44
558.7576293945312
 45
863.5153198242187
 46
3.809999999999999
 47
0.0
 48
0.0
 49
0.0
140
0.0
141
0.0
142
1.0
143
1.959716549127505
 70
 11956
 72
     0
 73
     1
 74
     1
  7

 75
     0
147
0.5102778768925612
 76
     0
 77
     2
 78
   300
148
0.0352358573968616
149
0.0584500368605802
100
AcDbLayout
  1
Model
 70
     1
 71
     0
 10
0.0
 20
0.0
 11
12.0
 21
9.0
 12
0.0
 22
0.0
 32
0.0
 14
0.0
 24
0.0
 34
0.0
 15
0.0
 25
0.0
 35
0.0
146
0.0
 13
0.0
 23
0.0
 33
0.0
 16
1.0
 26
0.0
 36
0.0
 17
0.0
 27
1.0
 37
0.0
 76
     0
330
18
331
2DFD
  0
MATERIAL
  5
2E0D
102
{ACAD_XDICTIONARY
360
2E0E
102
}
102
{ACAD_REACTORS
330
2BAE
102
}
330
2BAE
100
AcDbMaterial
  1
ByBlock
 72
     0
 43
0.0208333333333333
 43
0.0
 43
0.0
 43
0.0
 43
0.0
 43
0.0208333333333333
 43
0.0
 43
0.0
 43
0.0
 43
0.0
 43
1.0
 43
0.0
 43
0.0
 43
0.0
 43
0.0
 43
1.0
 77
     0
 47
0.0208333333333333
 47
0.0
 47
0.0
 47
0.0
 47
0.0
 47
0.0208333333333333
 47
0.0
 47
0.0
 47
0.0
 47
0.0
 47
1.0
 47
0.0
 47
0.0
 47
0.0
 47
0.0
 47
1.0
171
     0
 49
0.0208333333333333
 49
0.0
 49
0.0
 49
0.0
 49
0.0
 49
0.0208333333333333
 49
0.0
 49
0.0
 49
0.0
 49
0.0
 49
1.0
 49
0.0
 49
0.0
 49
0.0
 49
0.0
 49
1.0
175
     0
142
0.0208333333333333
142
0.0
142
0.0
142
0.0
142
0.0
142
0.0208333333333333
142
0.0
142
0.0
142
0.0
142
0.0
142
1.0
142
0.0
142
0.0
142
0.0
142
0.0
142
1.0
179
     0
144
0.0208333333333333
144
0.0
144
0.0
144
0.0
144
0.0
144
0.0208333333333333
144
0.0
144
0.0
144
0.0
144
0.0
144
1.0
144
0.0
144
0.0
144
0.0
144
0.0
144
1.0
147
0.0208333333333333
147
0.0
147
0.0
147
0.0
147
0.0
147
0.0208333333333333
147
0.0
147
0.0
147
0.0
147
0.0
147
1.0
147
0.0
147
0.0
147
0.0
147
0.0
147
1.0
  0
MATERIAL
  5
2E05
102
{ACAD_XDICTIONARY
360
2E06
102
}
102
{ACAD_REACTORS
330
2BAE
102
}
330
2BAE
100
AcDbMaterial
  1
ByLayer
 72
     0
 43
0.0208333333333333
 43
0.0
 43
0.0
 43
0.0
 43
0.0
 43
0.0208333333333333
 43
0.0
 43
0.0
 43
0.0
 43
0.0
 43
1.0
 43
0.0
 43
0.0
 43
0.0
 43
0.0
 43
1.0
 77
     0
 47
0.0208333333333333
 47
0.0
 47
0.0
 47
0.0
 47
0.0
 47
0.0208333333333333
 47
0.0
 47
0.0
 47
0.0
 47
0.0
 47
1.0
 47
0.0
 47
0.0
 47
0.0
 47
0.0
 47
1.0
171
     0
 49
0.0208333333333333
 49
0.0
 49
0.0
 49
0.0
 49
0.0
 49
0.0208333333333333
 49
0.0
 49
0.0
 49
0.0
 49
0.0
 49
1.0
 49
0.0
 49
0.0
 49
0.0
 49
0.0
 49
1.0
175
     0
142
0.0208333333333333
142
0.0
142
0.0
142
0.0
142
0.0
142
0.0208333333333333
142
0.0
142
0.0
142
0.0
142
0.0
142
1.0
142
0.0
142
0.0
142
0.0
142
0.0
142
1.0
179
     0
144
0.0208333333333333
144
0.0
144
0.0
144
0.0
144
0.0
144
0.0208333333333333
144
0.0
144
0.0
144
0.0
144
0.0
144
1.0
144
0.0
144
0.0
144
0.0
144
0.0
144
1.0
147
0.0208333333333333
147
0.0
147
0.0
147
0.0
147
0.0
147
0.0208333333333333
147
0.0
147
0.0
147
0.0
147
0.0
147
1.0
147
0.0
147
0.0
147
0.0
147
0.0
147
1.0
  0
MATERIAL
  5
2E15
102
{ACAD_XDICTIONARY
360
2E16
102
}
102
{ACAD_REACTORS
330
2BAE
102
}
330
2BAE
100
AcDbMaterial
  1
Global
 72
     0
 43
0.0208333333333333
 43
0.0
 43
0.0
 43
0.0
 43
0.0
 43
0.0208333333333333
 43
0.0
 43
0.0
 43
0.0
 43
0.0
 43
1.0
 43
0.0
 43
0.0
 43
0.0
 43
0.0
 43
1.0
 77
     0
 47
0.0208333333333333
 47
0.0
 47
0.0
 47
0.0
 47
0.0
 47
0.0208333333333333
 47
0.0
 47
0.0
 47
0.0
 47
0.0
 47
1.0
 47
0.0
 47
0.0
 47
0.0
 47
0.0
 47
1.0
171
     0
 49
0.0208333333333333
 49
0.0
 49
0.0
 49
0.0
 49
0.0
 49
0.0208333333333333
 49
0.0
 49
0.0
 49
0.0
 49
0.0
 49
1.0
 49
0.0
 49
0.0
 49
0.0
 49
0.0
 49
1.0
175
     0
142
0.0208333333333333
142
0.0
142
0.0
142
0.0
142
0.0
142
0.0208333333333333
142
0.0
142
0.0
142
0.0
142
0.0
142
1.0
142
0.0
142
0.0
142
0.0
142
0.0
142
1.0
179
     0
144
0.0208333333333333
144
0.0
144
0.0
144
0.0
144
0.0
144
0.0208333333333333
144
0.0
144
0.0
144
0.0
144
0.0
144
1.0
144
0.0
144
0.0
144
0.0
144
0.0
144
1.0
147
0.0208333333333333
147
0.0
147
0.0
147
0.0
147
0.0
147
0.0208333333333333
147
0.0
147
0.0
147
0.0
147
0.0
147
1.0
147
0.0
147
0.0
147
0.0
147
0.0
147
1.0
  0
MLEADERSTYLE
  5
2E49
102
{ACAD_REACTORS
330
2E48
102
}
330
2E48
100
AcDbMLeaderStyle
179
     2
170
     2
171
     1
172
     0
 90
        2
 40
0.0
 41
0.0
173
     1
 91
-1056964608
340
12
 92
       -2
290
     1
 42
0.09
291
     1
 43
0.36
  3
Standard
 44
0.18
300

342
10
174
     1
178
     6
175
     1
176
     0
 93
-1056964608
 45
0.18
292
     0
297
     0
 46
0.18
 94
-1056964608
 47
1.0
 49
1.0
140
1.0
293
     1
141
0.0
294
     1
177
     0
142
1.0
295
     1
296
     0
143
0.125
271
     0
272
     9
273
     9
  0
MLINESTYLE
  5
1B
102
{ACAD_REACTORS
330
E
102
}
330
E
100
AcDbMlineStyle
  2
STANDARD
 70
     0
  3

 62
     0
 51
90.0
 52
90.0
 71
     2
 49
0.5
 62
   256
  6
BYLAYER
 49
-0.5
 62
   256
  6
BYLAYER
  0
ACDBPLACEHOLDER
  5
15B8
102
{ACAD_REACTORS
330
15B7
102
}
330
15B7
  0
SCALE
  5
2E37
102
{ACAD_REACTORS
330
2E36
102
}
330
2E36
100
AcDbScale
 70
     0
300
1:1
140
1.0
141
1.0
290
     1
  0
SCALE
  5
2E38
102
{ACAD_REACTORS
330
2E36
102
}
330
2E36
100
AcDbScale
 70
     0
300
1/128" = 1'-0"
140
0.0078125
141
12.0
290
     0
  0
SCALE
  5
2E39
102
{ACAD_REACTORS
330
2E36
102
}
330
2E36
100
AcDbScale
 70
     0
300
1/64" = 1'-0"
140
0.015625
141
12.0
290
     0
  0
SCALE
  5
2E3A
102
{ACAD_REACTORS
330
2E36
102
}
330
2E36
100
AcDbScale
 70
     0
300
1/32" = 1'-0"
140
0.03125
141
12.0
290
     0
  0
SCALE
  5
2E3B
102
{ACAD_REACTORS
330
2E36
102
}
330
2E36
100
AcDbScale
 70
     0
300
1/16" = 1'-0"
140
0.0625
141
12.0
290
     0
  0
SCALE
  5
2E3C
102
{ACAD_REACTORS
330
2E36
102
}
330
2E36
100
AcDbScale
 70
     0
300
3/32" = 1'-0"
140
0.09375
141
12.0
290
     0
  0
SCALE
  5
2E3D
102
{ACAD_REACTORS
330
2E36
102
}
330
2E36
100
AcDbScale
 70
     0
300
1/8" = 1'-0"
140
0.125
141
12.0
290
     0
  0
SCALE
  5
2E3E
102
{ACAD_REACTORS
330
2E36
102
}
330
2E36
100
AcDbScale
 70
     0
300
3/16" = 1'-0"
140
0.1875
141
12.0
290
     0
  0
SCALE
  5
2E3F
102
{ACAD_REACTORS
330
2E36
102
}
330
2E36
100
AcDbScale
 70
     0
300
1/4" = 1'-0"
140
0.25
141
12.0
290
     0
  0
SCALE
  5
2E40
102
{ACAD_REACTORS
330
2E36
102
}
330
2E36
100
AcDbScale
 70
     0
300
3/8" = 1'-0"
140
0.375
141
12.0
290
     0
  0
SCALE
  5
2E41
102
{ACAD_REACTORS
330
2E36
102
}
330
2E36
100
AcDbScale
 70
     0
300
1/2" = 1'-0"
140
0.5
141
12.0
290
     0
  0
SCALE
  5
2E42
102
{ACAD_REACTORS
330
2E36
102
}
330
2E36
100
AcDbScale
 70
     0
300
3/4" = 1'-0"
140
0.75
141
12.0
290
     0
  0
SCALE
  5
2E43
102
{ACAD_REACTORS
330
2E36
102
}
330
2E36
100
AcDbScale
 70
     0
300
1" = 1'-0"
140
1.0
141
12.0
290
     0
  0
SCALE
  5
2E44
102
{ACAD_REACTORS
330
2E36
102
}
330
2E36
100
AcDbScale
 70
     0
300
1-1/2" = 1'-0"
140
1.5
141
12.0
290
     0
  0
SCALE
  5
2E45
102
{ACAD_REACTORS
330
2E36
102
}
330
2E36
100
AcDbScale
 70
     0
300
3" = 1'-0"
140
3.0
141
12.0
290
     0
  0
SCALE
  5
2E46
102
{ACAD_REACTORS
330
2E36
102
}
330
2E36
100
AcDbScale
 70
     0
300
6" = 1'-0"
140
6.0
141
12.0
290
     0
  0
SCALE
  5
2E47
102
{ACAD_REACTORS
330
2E36
102
}
330
2E36
100
AcDbScale
 70
     0
300
1'-0" = 1'-0"
140
12.0
141
12.0
290
     0
  0
TABLESTYLE
  5
2DF0
102
{ACAD_XDICTIONARY
360
2EF7
102
}
102
{ACAD_REACTORS
330
2DEF
102
}
330
2DEF
100
AcDbTableStyle
280
     0
  3
Standard
 70
     0
 71
     0
 40
0.06
 41
0.06
280
     0
281
     0
  7
STANDARD
140
0.18
170
     2
 62
     0
 63
     7
283
     0
 90
        4
 91
        0
  1

274
    -2
284
     1
 64
     0
275
    -2
285
     1
 65
     0
276
    -2
286
     1
 66
     0
277
    -2
287
     1
 67
     0
278
    -2
288
     1
 68
     0
279
    -2
289
     1
 69
     0
  7
STANDARD
140
0.25
170
     5
 62
     0
 63
     7
283
     0
 90
        4
 91
        0
  1

274
    -2
284
     1
 64
     0
275
    -2
285
     1
 65
     0
276
    -2
286
     1
 66
     0
277
    -2
287
     1
 67
     0
278
    -2
288
     1
 68
     0
279
    -2
289
     1
 69
     0
  7
STANDARD
140
0.18
170
     5
 62
     0
 63
     7
283
     0
 90
        4
 91
        0
  1

274
    -2
284
     1
 64
     0
275
    -2
285
     1
 65
     0
276
    -2
286
     1
 66
     0
277
    -2
287
     1
 67
     0
278
    -2
288
     1
 68
     0
279
    -2
289
     1
 69
     0
  0
VISUALSTYLE
  5
2E23
102
{ACAD_REACTORS
330
2E1D
102
}
330
2E1D
100
AcDbVisualStyle
  2
2dWireframe
 70
     4
177
     2
291
     0
 71
     0
176
     1
 72
     2
176
     1
 73
     0
176
     1
 90
        0
176
     1
 40
0.6
176
     1
 41
30.0
176
     1
 63
     7
421
 16777215
176
     1
 74
     1
176
     1
 91
        4
176
     1
 64
     7
176
     1
 65
   257
176
     1
 75
     1
176
     1
175
     1
176
     1
 42
1.0
176
     1
 92
        0
176
     1
 66
   257
176
     1
 43
1.0
176
     1
 76
     1
176
     1
 77
     6
176
     1
 78
     2
176
     1
 67
     7
176
     1
 79
     5
176
     1
170
     0
176
     1
171
     0
176
     1
290
     0
176
     1
 93
        1
176
     1
 44
0.0
176
     1
173
     0
176
     1
  0
VISUALSTYLE
  5
2E22
102
{ACAD_REACTORS
330
2E1D
102
}
330
2E1D
100
AcDbVisualStyle
  2
Basic
 70
     7
177
     2
291
     1
 71
     1
176
     1
 72
     0
176
     1
 73
     1
176
     1
 90
        0
176
     1
 40
0.6
176
     1
 41
30.0
176
     1
 63
     7
421
 16777215
176
     1
 74
     0
176
     1
 91
        4
176
     1
 64
     7
176
     1
 65
   257
176
     1
 75
     1
176
     1
175
     1
176
     1
 42
1.0
176
     1
 92
        8
176
     1
 66
     7
176
     1
 43
1.0
176
     1
 76
     1
176
     1
 77
     6
176
     1
 78
     2
176
     1
 67
     7
176
     1
 79
     5
176
     1
170
     0
176
     1
171
     0
176
     1
290
     0
176
     1
 93
        1
176
     1
 44
0.0
176
     1
173
     0
176
     1
  0
VISUALSTYLE
  5
2E29
102
{ACAD_REACTORS
330
2E1D
102
}
330
2E1D
100
AcDbVisualStyle
  2
Brighten
 70
    12
177
     2
291
     1
 71
     2
176
     1
 72
     2
176
     1
 73
     0
176
     1
 90
        0
176
     1
 40
0.6
176
     1
 41
30.0
176
     1
 63
     7
421
 16777215
176
     1
 74
     1
176
     1
 91
        4
176
     1
 64
     7
176
     1
 65
   257
176
     1
 75
     1
176
     1
175
     1
176
     1
 42
1.0
176
     1
 92
        8
176
     1
 66
     7
176
     1
 43
1.0
176
     1
 76
     1
176
     1
 77
     6
176
     1
 78
     2
176
     1
 67
     7
176
     1
 79
     5
176
     1
170
     0
176
     1
171
     0
176
     1
290
     0
176
     1
 93
        1
176
     1
 44
50.0
176
     1
173
     0
176
     1
  0
VISUALSTYLE
  5
2E2D
102
{ACAD_REACTORS
330
2E1D
102
}
330
2E1D
100
AcDbVisualStyle
  2
ColorChange
 70
    16
177
     2
291
     1
 71
     2
176
     1
 72
     2
176
     1
 73
     3
176
     1
 90
        0
176
     1
 40
0.6
176
     1
 41
30.0
176
     1
 63
     8
421
  8421504
176
     1
 74
     1
176
     1
 91
        4
176
     1
 64
     7
176
     1
 65
   257
176
     1
 75
     1
176
     1
175
     1
176
     1
 42
1.0
176
     1
 92
        8
176
     1
 66
     8
424
  8421504
176
     1
 43
1.0
176
     1
 76
     1
176
     1
 77
     6
176
     1
 78
     2
176
     1
 67
     7
176
     1
 79
     5
176
     1
170
     0
176
     1
171
     0
176
     1
290
     0
176
     1
 93
        1
176
     1
 44
0.0
176
     1
173
     0
176
     1
  0
VISUALSTYLE
  5
2E26
102
{ACAD_REACTORS
330
2E1D
102
}
330
2E1D
100
AcDbVisualStyle
  2
Conceptual
 70
     9
177
     2
291
     0
 71
     3
176
     1
 72
     2
176
     1
 73
     0
176
     1
 90
        0
176
     1
 40
0.6
176
     1
 41
30.0
176
     1
 63
     7
421
 16777215
176
     1
 74
     2
176
     1
 91
        2
176
     1
 64
     7
176
     1
 65
   257
176
     1
 75
     1
176
     1
175
     1
176
     1
 42
179.0
176
     1
 92
        8
176
     1
 66
     7
176
     1
 43
1.0
176
     1
 76
     1
176
     1
 77
     6
176
     1
 78
     2
176
     1
 67
     7
176
     1
 79
     3
176
     1
170
     0
176
     1
171
     0
176
     1
290
     0
176
     1
 93
        1
176
     1
 44
0.0
176
     1
173
     0
176
     1
  0
VISUALSTYLE
  5
2E28
102
{ACAD_REACTORS
330
2E1D
102
}
330
2E1D
100
AcDbVisualStyle
  2
Dim
 70
    11
177
     2
291
     1
 71
     2
176
     1
 72
     2
176
     1
 73
     0
176
     1
 90
        0
176
     1
 40
0.6
176
     1
 41
30.0
176
     1
 63
     7
421
 16777215
176
     1
 74
     1
176
     1
 91
        4
176
     1
 64
     7
176
     1
 65
   257
176
     1
 75
     1
176
     1
175
     1
176
     1
 42
1.0
176
     1
 92
        8
176
     1
 66
     7
176
     1
 43
1.0
176
     1
 76
     1
176
     1
 77
     6
176
     1
 78
     2
176
     1
 67
     7
176
     1
 79
     5
176
     1
170
     0
176
     1
171
     0
176
     1
290
     0
176
     1
 93
        1
176
     1
 44
-50.0
176
     1
173
     0
176
     1
  0
VISUALSTYLE
  5
2E35
102
{ACAD_REACTORS
330
2E1D
102
}
330
2E1D
100
AcDbVisualStyle
  2
EdgeColorOff
 70
    22
177
     2
291
     1
 71
     2
176
     0
 72
     2
176
     0
 73
     0
176
     0
 90
        0
176
     0
 40
0.6
176
     0
 41
30.0
176
     0
 63
     7
421
 16777215
176
     0
 74
     1
176
     0
 91
        4
176
     0
 64
     7
176
     0
 65
   257
176
     0
 75
     1
176
     0
175
     1
176
     0
 42
1.0
176
     0
 92
        8
176
     2
 66
     7
176
     0
 43
1.0
176
     0
 76
     1
176
     0
 77
     6
176
     0
 78
     2
176
     0
 67
     7
176
     0
 79
     5
176
     0
170
     0
176
     0
171
     0
176
     0
290
     0
176
     0
 93
        1
176
     0
 44
0.0
176
     0
173
     0
176
     0
  0
VISUALSTYLE
  5
2E2C
102
{ACAD_REACTORS
330
2E1D
102
}
330
2E1D
100
AcDbVisualStyle
  2
Facepattern
 70
    15
177
     2
291
     1
 71
     2
176
     1
 72
     2
176
     1
 73
     0
176
     1
 90
        0
176
     1
 40
0.6
176
     1
 41
30.0
176
     1
 63
     7
421
 16777215
176
     1
 74
     1
176
     1
 91
        4
176
     1
 64
     7
176
     1
 65
   257
176
     1
 75
     1
176
     1
175
     1
176
     1
 42
1.0
176
     1
 92
        8
176
     1
 66
     7
176
     1
 43
1.0
176
     1
 76
     1
176
     1
 77
     6
176
     1
 78
     2
176
     1
 67
     7
176
     1
 79
     5
176
     1
170
     0
176
     1
171
     0
176
     1
290
     0
176
     1
 93
        1
176
     1
 44
0.0
176
     1
173
     0
176
     1
  0
VISUALSTYLE
  5
2E1E
102
{ACAD_REACTORS
330
2E1D
102
}
330
2E1D
100
AcDbVisualStyle
  2
Flat
 70
     0
177
     2
291
     1
 71
     2
176
     1
 72
     1
176
     1
 73
     1
176
     1
 90
        2
176
     1
 40
0.6
176
     1
 41
30.0
176
     1
 63
     7
421
 16777215
176
     1
 74
     0
176
     1
 91
        0
176
     1
 64
     7
176
     1
 65
   257
176
     1
 75
     1
176
     1
175
     1
176
     1
 42
1.0
176
     1
 92
        8
176
     1
 66
     7
176
     1
 43
1.0
176
     1
 76
     1
176
     1
 77
     6
176
     1
 78
     2
176
     1
 67
     7
176
     1
 79
     5
176
     1
170
     0
176
     1
171
     0
176
     1
290
     0
176
     1
 93
       13
176
     1
 44
0.0
176
     1
173
     0
176
     1
  0
VISUALSTYLE
  5
2E1F
102
{ACAD_REACTORS
330
2E1D
102
}
330
2E1D
100
AcDbVisualStyle
  2
FlatWithEdges
 70
     1
177
     2
291
     1
 71
     2
176
     1
 72
     1
176
     1
 73
     1
176
     1
 90
        2
176
     1
 40
0.6
176
     1
 41
30.0
176
     1
 63
     7
421
 16777215
176
     1
 74
     1
176
     1
 91
        0
176
     1
 64
     7
176
     1
 65
   257
176
     1
 75
     1
176
     1
175
     1
176
     1
 42
1.0
176
     1
 92
        0
176
     1
 66
   257
176
     1
 43
1.0
176
     1
 76
     1
176
     1
 77
     6
176
     1
 78
     2
176
     1
 67
     7
176
     1
 79
     5
176
     1
170
     0
176
     1
171
     0
176
     1
290
     0
176
     1
 93
       13
176
     1
 44
0.0
176
     1
173
     0
176
     1
  0
VISUALSTYLE
  5
2E20
102
{ACAD_REACTORS
330
2E1D
102
}
330
2E1D
100
AcDbVisualStyle
  2
Gouraud
 70
     2
177
     2
291
     1
 71
     2
176
     1
 72
     2
176
     1
 73
     1
176
     1
 90
        2
176
     1
 40
0.6
176
     1
 41
30.0
176
     1
 63
     7
421
 16777215
176
     1
 74
     0
176
     1
 91
        0
176
     1
 64
     7
176
     1
 65
   257
176
     1
 75
     1
176
     1
175
     1
176
     1
 42
1.0
176
     1
 92
        0
176
     1
 66
     7
176
     1
 43
1.0
176
     1
 76
     1
176
     1
 77
     6
176
     1
 78
     2
176
     1
 67
     7
176
     1
 79
     5
176
     1
170
     0
176
     1
171
     0
176
     1
290
     0
176
     1
 93
       13
176
     1
 44
0.0
176
     1
173
     0
176
     1
  0
VISUALSTYLE
  5
2E21
102
{ACAD_REACTORS
330
2E1D
102
}
330
2E1D
100
AcDbVisualStyle
  2
GouraudWithEdges
 70
     3
177
     2
291
     1
 71
     2
176
     1
 72
     2
176
     1
 73
     1
176
     1
 90
        2
176
     1
 40
0.6
176
     1
 41
30.0
176
     1
 63
     7
421
 16777215
176
     1
 74
     1
176
     1
 91
        0
176
     1
 64
     7
176
     1
 65
   257
176
     1
 75
     1
176
     1
175
     1
176
     1
 42
1.0
176
     1
 92
        0
176
     1
 66
   257
176
     1
 43
1.0
176
     1
 76
     1
176
     1
 77
     6
176
     1
 78
     2
176
     1
 67
     7
176
     1
 79
     5
176
     1
170
     0
176
     1
171
     0
176
     1
290
     0
176
     1
 93
       13
176
     1
 44
0.0
176
     1
173
     0
176
     1
  0
VISUALSTYLE
  5
2E25
102
{ACAD_REACTORS
330
2E1D
102
}
330
2E1D
100
AcDbVisualStyle
  2
Hidden
 70
     6
177
     2
291
     0
 71
     1
176
     1
 72
     2
176
     1
 73
     2
176
     1
 90
        0
176
     1
 40
0.6
176
     1
 41
30.0
176
     1
 63
     7
421
 16777215
176
     1
 74
     2
176
     1
 91
        2
176
     1
 64
     7
176
     1
 65
   257
176
     1
 75
     2
176
     1
175
     1
176
     1
 42
40.0
176
     1
 92
        0
176
     1
 66
   257
176
     1
 43
1.0
176
     1
 76
     1
176
     1
 77
     6
176
     1
 78
     2
176
     1
 67
     7
176
     1
 79
     3
176
     1
170
     0
176
     1
171
     0
176
     1
290
     0
176
     1
 93
        1
176
     1
 44
0.0
176
     1
173
     0
176
     1
  0
VISUALSTYLE
  5
2E33
102
{ACAD_REACTORS
330
2E1D
102
}
330
2E1D
100
AcDbVisualStyle
  2
JitterOff
 70
    20
177
     2
291
     1
 71
     2
176
     0
 72
     2
176
     0
 73
     0
176
     0
 90
        0
176
     0
 40
0.6
176
     0
 41
30.0
176
     0
 63
     7
421
 16777215
176
     0
 74
     1
176
     0
 91
        4
176
     0
 64
     7
176
     0
 65
   257
176
     0
 75
     1
176
     0
175
     1
176
     0
 42
1.0
176
     0
 92
       10
176
     2
 66
     7
176
     0
 43
1.0
176
     0
 76
     1
176
     0
 77
     6
176
     0
 78
     2
176
     0
 67
     7
176
     0
 79
     5
176
     0
170
     0
176
     0
171
     0
176
     0
290
     0
176
     0
 93
        1
176
     0
 44
0.0
176
     0
173
     0
176
     0
  0
VISUALSTYLE
  5
2E2B
102
{ACAD_REACTORS
330
2E1D
102
}
330
2E1D
100
AcDbVisualStyle
  2
Linepattern
 70
    14
177
     2
291
     1
 71
     2
176
     1
 72
     2
176
     1
 73
     0
176
     1
 90
        0
176
     1
 40
0.6
176
     1
 41
30.0
176
     1
 63
     7
421
 16777215
176
     1
 74
     1
176
     1
 91
        4
176
     1
 64
     7
176
     1
 65
   257
176
     1
 75
     7
176
     1
175
     7
176
     1
 42
1.0
176
     1
 92
        8
176
     1
 66
     7
176
     1
 43
1.0
176
     1
 76
     1
176
     1
 77
     6
176
     1
 78
     2
176
     1
 67
     7
176
     1
 79
     5
176
     1
170
     0
176
     1
171
     0
176
     1
290
     0
176
     1
 93
        1
176
     1
 44
0.0
176
     1
173
     0
176
     1
  0
VISUALSTYLE
  5
2E34
102
{ACAD_REACTORS
330
2E1D
102
}
330
2E1D
100
AcDbVisualStyle
  2
OverhangOff
 70
    21
177
     2
291
     1
 71
     2
176
     0
 72
     2
176
     0
 73
     0
176
     0
 90
        0
176
     0
 40
0.6
176
     0
 41
30.0
176
     0
 63
     7
421
 16777215
176
     0
 74
     1
176
     0
 91
        4
176
     0
 64
     7
176
     0
 65
   257
176
     0
 75
     1
176
     0
175
     1
176
     0
 42
1.0
176
     0
 92
        9
176
     2
 66
     7
176
     0
 43
1.0
176
     0
 76
     1
176
     0
 77
     6
176
     0
 78
     2
176
     0
 67
     7
176
     0
 79
     5
176
     0
170
     0
176
     0
171
     0
176
     0
290
     0
176
     0
 93
        1
176
     0
 44
0.0
176
     0
173
     0
176
     0
  0
VISUALSTYLE
  5
2E27
102
{ACAD_REACTORS
330
2E1D
102
}
330
2E1D
100
AcDbVisualStyle
  2
Realistic
 70
     8
177
     2
291
     0
 71
     2
176
     1
 72
     3
176
     1
 73
     0
176
     1
 90
        2
176
     1
 40
0.6
176
     1
 41
30.0
176
     1
 63
     7
421
 16777215
176
     1
 74
     0
176
     1
 91
        0
176
     1
 64
     7
176
     1
 65
   257
176
     1
 75
     1
176
     1
175
     1
176
     1
 42
1.0
176
     1
 92
        8
176
     1
 66
   257
176
     1
 43
1.0
176
     1
 76
     1
176
     1
 77
     6
176
     1
 78
     2
176
     1
 67
     7
176
     1
 79
     3
176
     1
170
     0
176
     1
171
     0
176
     1
290
     0
176
     1
 93
       13
176
     1
 44
0.0
176
     1
173
     0
176
     1
  0
VISUALSTYLE
  5
2E32
102
{ACAD_REACTORS
330
2E1D
102
}
330
2E1D
100
AcDbVisualStyle
  2
Shaded
 70
    27
177
     2
291
     0
 71
     2
176
     1
 72
     2
176
     1
 73
     1
176
     1
 90
        2
176
     1
 40
0.6
176
     1
 41
30.0
176
     1
 63
     7
421
 16777215
176
     1
 74
     0
176
     1
 91
        4
176
     1
 64
     7
176
     1
 65
   257
176
     1
 75
     1
176
     1
175
     1
176
     1
 42
1.0
176
     1
 92
        8
176
     1
 66
   257
176
     1
 43
1.0
176
     1
 76
     1
176
     1
 77
     6
176
     1
 78
     2
176
     1
 67
     8
425
  7895160
176
     1
 79
     3
176
     1
170
     0
176
     1
171
     0
176
     1
290
     0
176
     1
 93
        5
176
     1
 44
0.0
176
     1
173
     0
176
     1
  0
VISUALSTYLE
  5
2E31
102
{ACAD_REACTORS
330
2E1D
102
}
330
2E1D
100
AcDbVisualStyle
  2
Shaded with edges
 70
    26
177
     2
291
     0
 71
     2
176
     1
 72
     2
176
     1
 73
     1
176
     1
 90
        2
176
     1
 40
0.6
176
     1
 41
30.0
176
     1
 63
     7
421
 16777215
176
     1
 74
     1
176
     1
 91
       10
176
     1
 64
     7
176
     1
 65
   257
176
     1
 75
     2
176
     1
175
     1
176
     1
 42
1.0
176
     1
 92
        8
176
     1
 66
   257
176
     1
 43
1.0
176
     1
 76
     1
176
     1
 77
     6
176
     1
 78
     2
176
     1
 67
     7
176
     1
 79
     3
176
     1
170
     0
176
     1
171
     0
176
     1
290
     0
176
     1
 93
        5
176
     1
 44
0.0
176
     1
173
     0
176
     1
  0
VISUALSTYLE
  5
2E2E
102
{ACAD_REACTORS
330
2E1D
102
}
330
2E1D
100
AcDbVisualStyle
  2
Shades of Gray
 70
    23
177
     2
291
     0
 71
     2
176
     1
 72
     2
176
     1
 73
     3
176
     1
 90
        0
176
     1
 40
0.6
176
     1
 41
30.0
176
     1
 63
     7
421
 16777215
176
     1
 74
     2
176
     1
 91
        2
176
     1
 64
     7
176
     1
 65
     7
176
     1
 75
     1
176
     1
175
     1
176
     1
 42
40.0
176
     1
 92
        8
176
     1
 66
     7
176
     1
 43
1.0
176
     1
 76
     1
176
     1
 77
     6
176
     1
 78
     2
176
     1
 67
     7
176
     1
 79
     3
176
     1
170
     0
176
     1
171
     0
176
     1
290
     0
176
     1
 93
        1
176
     1
 44
0.0
176
     1
173
     0
176
     1
  0
VISUALSTYLE
  5
2E2F
102
{ACAD_REACTORS
330
2E1D
102
}
330
2E1D
100
AcDbVisualStyle
  2
Sketchy
 70
    24
177
     2
291
     0
 71
     1
176
     1
 72
     2
176
     1
 73
     2
176
     1
 90
        0
176
     1
 40
0.6
176
     1
 41
30.0
176
     1
 63
     7
421
 16777215
176
     1
 74
     2
176
     1
 91
        2
176
     1
 64
     7
176
     1
 65
     7
176
     1
 75
     1
176
     1
175
     1
176
     1
 42
40.0
176
     1
 92
       11
176
     1
 66
     7
176
     1
 43
1.0
176
     1
 76
     1
176
     1
 77
     6
176
     1
 78
     2
176
     1
 67
     7
176
     1
 79
     6
176
     1
170
     0
176
     1
171
     0
176
     1
290
     0
176
     1
 93
        1
176
     1
 44
0.0
176
     1
173
     0
176
     1
  0
VISUALSTYLE
  5
2E2A
102
{ACAD_REACTORS
330
2E1D
102
}
330
2E1D
100
AcDbVisualStyle
  2
Thicken
 70
    13
177
     2
291
     1
 71
     2
176
     1
 72
     2
176
     1
 73
     0
176
     1
 90
        0
176
     1
 40
0.6
176
     1
 41
30.0
176
     1
 63
     7
421
 16777215
176
     1
 74
     1
176
     1
 91
        4
176
     1
 64
     7
176
     1
 65
   257
176
     1
 75
     1
176
     1
175
     1
176
     1
 42
1.0
176
     1
 92
       12
176
     1
 66
     7
176
     1
 43
1.0
176
     1
 76
     1
176
     1
 77
     6
176
     1
 78
     2
176
     1
 67
     7
176
     1
 79
     5
176
     1
170
     0
176
     1
171
     0
176
     1
290
     0
176
     1
 93
        1
176
     1
 44
0.0
176
     1
173
     0
176
     1
  0
VISUALSTYLE
  5
2E24
102
{ACAD_REACTORS
330
2E1D
102
}
330
2E1D
100
AcDbVisualStyle
  2
Wireframe
 70
     5
177
     2
291
     0
 71
     0
176
     1
 72
     2
176
     1
 73
     0
176
     1
 90
        0
176
     1
 40
0.6
176
     1
 41
30.0
176
     1
 63
     7
421
 16777215
176
     1
 74
     1
176
     1
 91
        4
176
     1
 64
     7
176
     1
 65
   257
176
     1
 75
     1
176
     1
175
     1
176
     1
 42
1.0
176
     1
 92
        0
176
     1
 66
   257
176
     1
 43
1.0
176
     1
 76
     1
176
     1
 77
     6
176
     1
 78
     2
176
     1
 67
     7
176
     1
 79
     3
176
     1
170
     0
176
     1
171
     0
176
     1
290
     0
176
     1
 93
        1
176
     1
 44
0.0
176
     1
173
     0
176
     1
  0
VISUALSTYLE
  5
2E30
102
{ACAD_REACTORS
330
2E1D
102
}
330
2E1D
100
AcDbVisualStyle
  2
X-Ray
 70
    25
177
     2
291
     0
 71
     2
176
     1
 72
     2
176
     1
 73
     1
176
     1
 90
        1
176
     1
 40
0.5
176
     1
 41
30.0
176
     1
 63
     7
421
 16777215
176
     1
 74
     1
176
     1
 91
        0
176
     1
 64
     7
176
     1
 65
   257
176
     1
 75
     1
176
     1
175
     1
176
     1
 42
1.0
176
     1
 92
        8
176
     1
 66
     7
176
     1
 43
1.0
176
     1
 76
     1
176
     1
 77
     6
176
     1
 78
     2
176
     1
 67
     7
176
     1
 79
     3
176
     1
170
     0
176
     1
171
     0
176
     1
290
     0
176
     1
 93
       13
176
     1
 44
0.0
176
     1
173
     0
176
     1
  0
DICTIONARYVAR
  5
2EF3
102
{ACAD_REACTORS
330
2CD5
102
}
330
2CD5
100
DictionaryVariables
280
     0
  1
1:1
  0
DICTIONARYVAR
  5
2EF1
102
{ACAD_REACTORS
330
2CD5
102
}
330
2CD5
100
DictionaryVariables
280
     0
  1
STANDARD
  0
DICTIONARYVAR
  5
2E03
102
{ACAD_REACTORS
330
2CD5
102
}
330
2CD5
100
DictionaryVariables
280
     0
  1
STANDARD
  0
DICTIONARYVAR
  5
2CD6
102
{ACAD_REACTORS
330
2CD5
102
}
330
2CD5
100
DictionaryVariables
280
     0
  1
1
  0
DICTIONARYVAR
  5
2EF5
102
{ACAD_REACTORS
330
2CD5
102
}
330
2CD5
100
DictionaryVariables
280
     0
  1
1
  0
DICTIONARYVAR
  5
2EF6
102
{ACAD_REACTORS
330
2CD5
102
}
330
2CD5
100
DictionaryVariables
280
     0
  1
15
  0
DICTIONARYVAR
  5
2EF4
102
{ACAD_REACTORS
330
2CD5
102
}
330
2CD5
100
DictionaryVariables
280
     0
  1
0
  0
DICTIONARYVAR
  5
2EF2
102
{ACAD_REACTORS
330
2CD5
102
}
330
2CD5
100
DictionaryVariables
280
     0
  1
0
  0
DICTIONARYVAR
  5
2CD7
102
{ACAD_REACTORS
330
2CD5
102
}
330
2CD5
100
DictionaryVariables
280
     0
  1

  0
DICTIONARY
  5
2E0E
330
2E0D
100
AcDbDictionary
280
     1
281
     1
  3
BUMPTILE
360
2E10
  3
DIFFUSETILE
360
2E0F
  3
OPACITYTILE
360
2E13
  3
REFLECTIONTILE
360
2E12
  3
REFRACTIONTILE
360
2E14
  3
SPECULARTILE
360
2E11
  0
DICTIONARY
  5
2E06
330
2E05
100
AcDbDictionary
280
     1
281
     1
  3
BUMPTILE
360
2E08
  3
DIFFUSETILE
360
2E07
  3
OPACITYTILE
360
2E0B
  3
REFLECTIONTILE
360
2E0A
  3
REFRACTIONTILE
360
2E0C
  3
SPECULARTILE
360
2E09
  0
DICTIONARY
  5
2E16
330
2E15
100
AcDbDictionary
280
     1
281
     1
  3
BUMPTILE
360
2E18
  3
DIFFUSETILE
360
2E17
  3
OPACITYTILE
360
2E1B
  3
REFLECTIONTILE
360
2E1A
  3
REFRACTIONTILE
360
2E1C
  3
SPECULARTILE
360
2E19
  0
DICTIONARY
  5
2EF7
330
2DF0
100
AcDbDictionary
280
     1
281
     1
  3
ACAD_ROUNDTRIP_2008_TABLESTYLE_CELLSTYLEMAP
360
2EF8
  0
XRECORD
  5
2E10
102
{ACAD_REACTORS
330
2E0E
102
}
330
2E0E
100
AcDbXrecord
280
     1
270
     1
271
     1
  0
XRECORD
  5
2E0F
102
{ACAD_REACTORS
330
2E0E
102
}
330
2E0E
100
AcDbXrecord
280
     1
270
     1
271
     1
  0
XRECORD
  5
2E13
102
{ACAD_REACTORS
330
2E0E
102
}
330
2E0E
100
AcDbXrecord
280
     1
270
     1
271
     1
  0
XRECORD
  5
2E12
102
{ACAD_REACTORS
330
2E0E
102
}
330
2E0E
100
AcDbXrecord
280
     1
270
     1
271
     1
  0
XRECORD
  5
2E14
102
{ACAD_REACTORS
330
2E0E
102
}
330
2E0E
100
AcDbXrecord
280
     1
270
     1
271
     1
  0
XRECORD
  5
2E11
102
{ACAD_REACTORS
330
2E0E
102
}
330
2E0E
100
AcDbXrecord
280
     1
270
     1
271
     1
  0
XRECORD
  5
2E08
102
{ACAD_REACTORS
330
2E06
102
}
330
2E06
100
AcDbXrecord
280
     1
270
     1
271
     1
  0
XRECORD
  5
2E07
102
{ACAD_REACTORS
330
2E06
102
}
330
2E06
100
AcDbXrecord
280
     1
270
     1
271
     1
  0
XRECORD
  5
2E0B
102
{ACAD_REACTORS
330
2E06
102
}
330
2E06
100
AcDbXrecord
280
     1
270
     1
271
     1
  0
XRECORD
  5
2E0A
102
{ACAD_REACTORS
330
2E06
102
}
330
2E06
100
AcDbXrecord
280
     1
270
     1
271
     1
  0
XRECORD
  5
2E0C
102
{ACAD_REACTORS
330
2E06
102
}
330
2E06
100
AcDbXrecord
280
     1
270
     1
271
     1
  0
XRECORD
  5
2E09
102
{ACAD_REACTORS
330
2E06
102
}
330
2E06
100
AcDbXrecord
280
     1
270
     1
271
     1
  0
XRECORD
  5
2E18
102
{ACAD_REACTORS
330
2E16
102
}
330
2E16
100
AcDbXrecord
280
     1
270
     1
271
     1
  0
XRECORD
  5
2E17
102
{ACAD_REACTORS
330
2E16
102
}
330
2E16
100
AcDbXrecord
280
     1
270
     1
271
     1
  0
XRECORD
  5
2E1B
102
{ACAD_REACTORS
330
2E16
102
}
330
2E16
100
AcDbXrecord
280
     1
270
     1
271
     1
  0
XRECORD
  5
2E1A
102
{ACAD_REACTORS
330
2E16
102
}
330
2E16
100
AcDbXrecord
280
     1
270
     1
271
     1
  0
XRECORD
  5
2E1C
102
{ACAD_REACTORS
330
2E16
102
}
330
2E16
100
AcDbXrecord
280
     1
270
     1
271
     1
  0
XRECORD
  5
2E19
102
{ACAD_REACTORS
330
2E16
102
}
330
2E16
100
AcDbXrecord
280
     1
270
     1
271
     1
  0
CELLSTYLEMAP
  5
2EF8
102
{ACAD_REACTORS
330
2EF7
102
}
330
2EF7
100
AcDbCellStyleMap
 90
        3
300
CELLSTYLE
  1
TABLEFORMAT_BEGIN
 90
        5
170
     1
 91
        0
 92
    32768
 62
   257
 93
        1
300
CONTENTFORMAT
  1
CONTENTFORMAT_BEGIN
 90
        0
 91
        0
 92
        4
 93
        0
300

 40
0.0
140
1.0
 94
        5
 62
     0
340
10
144
0.25
309
CONTENTFORMAT_END
171
     0
 94
        6
 95
        1
302
GRIDFORMAT
  1
GRIDFORMAT_BEGIN
 90
        0
 91
        1
 62
     0
 92
       -2
340
0
 93
        0
 40
0.045
309
GRIDFORMAT_END
 95
        2
302
GRIDFORMAT
  1
GRIDFORMAT_BEGIN
 90
        0
 91
        1
 62
     0
 92
       -2
340
0
 93
        0
 40
0.045
309
GRIDFORMAT_END
 95
        4
302
GRIDFORMAT
  1
GRIDFORMAT_BEGIN
 90
        0
 91
        1
 62
     0
 92
       -2
340
0
 93
        0
 40
0.045
309
GRIDFORMAT_END
 95
        8
302
GRIDFORMAT
  1
GRIDFORMAT_BEGIN
 90
        0
 91
        1
 62
     0
 92
       -2
340
0
 93
        0
 40
0.045
309
GRIDFORMAT_END
 95
       16
302
GRIDFORMAT
  1
GRIDFORMAT_BEGIN
 90
        0
 91
        1
 62
     0
 92
       -2
340
0
 93
        0
 40
0.045
309
GRIDFORMAT_END
 95
       32
302
GRIDFORMAT
  1
GRIDFORMAT_BEGIN
 90
        0
 91
        1
 62
     0
 92
       -2
340
0
 93
        0
 40
0.045
309
GRIDFORMAT_END
309
TABLEFORMAT_END
  1
CELLSTYLE_BEGIN
 90
        1
 91
        1
300
_TITLE
309
CELLSTYLE_END
300
CELLSTYLE
  1
TABLEFORMAT_BEGIN
 90
        5
170
     1
 91
        0
 92
        0
 62
   257
 93
        1
300
CONTENTFORMAT
  1
CONTENTFORMAT_BEGIN
 90
        0
 91
        0
 92
        4
 93
        0
300

 40
0.0
140
1.0
 94
        5
 62
     0
340
10
144
0.18
309
CONTENTFORMAT_END
171
     0
 94
        6
 95
        1
302
GRIDFORMAT
  1
GRIDFORMAT_BEGIN
 90
        0
 91
        1
 62
     0
 92
       -2
340
0
 93
        0
 40
0.045
309
GRIDFORMAT_END
 95
        2
302
GRIDFORMAT
  1
GRIDFORMAT_BEGIN
 90
        0
 91
        1
 62
     0
 92
       -2
340
0
 93
        0
 40
0.045
309
GRIDFORMAT_END
 95
        4
302
GRIDFORMAT
  1
GRIDFORMAT_BEGIN
 90
        0
 91
        1
 62
     0
 92
       -2
340
0
 93
        0
 40
0.045
309
GRIDFORMAT_END
 95
        8
302
GRIDFORMAT
  1
GRIDFORMAT_BEGIN
 90
        0
 91
        1
 62
     0
 92
       -2
340
0
 93
        0
 40
0.045
309
GRIDFORMAT_END
 95
       16
302
GRIDFORMAT
  1
GRIDFORMAT_BEGIN
 90
        0
 91
        1
 62
     0
 92
       -2
340
0
 93
        0
 40
0.045
309
GRIDFORMAT_END
 95
       32
302
GRIDFORMAT
  1
GRIDFORMAT_BEGIN
 90
        0
 91
        1
 62
     0
 92
       -2
340
0
 93
        0
 40
0.045
309
GRIDFORMAT_END
309
TABLEFORMAT_END
  1
CELLSTYLE_BEGIN
 90
        2
 91
        1
300
_HEADER
309
CELLSTYLE_END
300
CELLSTYLE
  1
TABLEFORMAT_BEGIN
 90
        5
170
     1
 91
        0
 92
        0
 62
   257
 93
        1
300
CONTENTFORMAT
  1
CONTENTFORMAT_BEGIN
 90
        0
 91
        0
 92
        4
 93
        0
300

 40
0.0
140
1.0
 94
        2
 62
     0
340
10
144
0.18
309
CONTENTFORMAT_END
171
     0
 94
        6
 95
        1
302
GRIDFORMAT
  1
GRIDFORMAT_BEGIN
 90
        0
 91
        1
 62
     0
 92
       -2
340
0
 93
        0
 40
0.045
309
GRIDFORMAT_END
 95
        2
302
GRIDFORMAT
  1
GRIDFORMAT_BEGIN
 90
        0
 91
        1
 62
     0
 92
       -2
340
0
 93
        0
 40
0.045
309
GRIDFORMAT_END
 95
        4
302
GRIDFORMAT
  1
GRIDFORMAT_BEGIN
 90
        0
 91
        1
 62
     0
 92
       -2
340
0
 93
        0
 40
0.045
309
GRIDFORMAT_END
 95
        8
302
GRIDFORMAT
  1
GRIDFORMAT_BEGIN
 90
        0
 91
        1
 62
     0
 92
       -2
340
0
 93
        0
 40
0.045
309
GRIDFORMAT_END
 95
       16
302
GRIDFORMAT
  1
GRIDFORMAT_BEGIN
 90
        0
 91
        1
 62
     0
 92
       -2
340
0
 93
        0
 40
0.045
309
GRIDFORMAT_END
 95
       32
302
GRIDFORMAT
  1
GRIDFORMAT_BEGIN
 90
        0
 91
        1
 62
     0
 92
       -2
340
0
 93
        0
 40
0.045
309
GRIDFORMAT_END
309
TABLEFORMAT_END
  1
CELLSTYLE_BEGIN
 90
        3
 91
        2
300
_DATA
309
CELLSTYLE_END
  0
ENDSEC
  0
EOF
