  0
SECTION
  2
HEADER
  9
$ACADVER
  1
AC1024
  9
$ACADMAINTVER
 70
    37
  9
$DWGCODEPAGE
  3
ANSI_1252
  9
$LASTSAVEDBY
  1
jtigges
  9
$INSBASE
 10
0.0
 20
0.0
 30
0.0
  9
$EXTMIN
 10
-1.29103986600338
 20
-1.543611885204166
 30
-0.0000000000112498
  9
$EXTMAX
 10
8.9912738391249
 20
6.238625544606005
 30
0.0000000000002956
  9
$LIMMIN
 10
0.0
 20
0.0
  9
$LIMMAX
 10
8.125
 20
5.375
  9
$ORTHOMODE
 70
     0
  9
$REGENMODE
 70
     1
  9
$FILLMODE
 70
     1
  9
$QTEXTMODE
 70
     0
  9
$MIRRTEXT
 70
     1
  9
$LTSCALE
 40
1.0
  9
$ATTMODE
 70
     1
  9
$TEXTSIZE
 40
0.06
  9
$TRACEWID
 40
0.05
  9
$TEXTSTYLE
  7
STANDARD
  9
$CLAYER
  8
DIM
  9
$CELTYPE
  6
CONTINUOUS
  9
$CECOLOR
 62
   256
  9
$CELTSCALE
 40
1.0
  9
$DISPSILH
 70
     0
  9
$DIMSCALE
 40
0.5
  9
$DIMASZ
 40
0.1875
  9
$DIMEXO
 40
0.0625
  9
$DIMDLI
 40
0.38
  9
$DIMRND
 40
0.0
  9
$DIMDLE
 40
0.0
  9
$DIMEXE
 40
0.125
  9
$DIMTP
 40
0.0
  9
$DIMTM
 40
0.0
  9
$DIMTXT
 40
0.125
  9
$DIMCEN
 40
0.0
  9
$DIMTSZ
 40
0.0
  9
$DIMTOL
 70
     0
  9
$DIMLIM
 70
     0
  9
$DIMTIH
 70
     1
  9
$DIMTOH
 70
     1
  9
$DIMSE1
 70
     0
  9
$DIMSE2
 70
     0
  9
$DIMTAD
 70
     0
  9
$DIMZIN
 70
     4
  9
$DIMBLK
  1

  9
$DIMASO
 70
     1
  9
$DIMSHO
 70
     1
  9
$DIMPOST
  1

  9
$DIMAPOST
  1

  9
$DIMALT
 70
     0
  9
$DIMALTD
 70
     2
  9
$DIMALTF
 40
25.4
  9
$DIMLFAC
 40
1.0
  9
$DIMTOFL
 70
     0
  9
$DIMTVP
 40
0.0
  9
$DIMTIX
 70
     0
  9
$DIMSOXD
 70
     0
  9
$DIMSAH
 70
     0
  9
$DIMBLK1
  1

  9
$DIMBLK2
  1

  9
$DIMSTYLE
  2
BASIC 2XSCALE
  9
$DIMCLRD
 70
     0
  9
$DIMCLRE
 70
     0
  9
$DIMCLRT
 70
     0
  9
$DIMTFAC
 40
1.0
  9
$DIMGAP
 40
0.0625
  9
$DIMJUST
 70
     0
  9
$DIMSD1
 70
     0
  9
$DIMSD2
 70
     0
  9
$DIMTOLJ
 70
     1
  9
$DIMTZIN
 70
    12
  9
$DIMALTZ
 70
     0
  9
$DIMALTTZ
 70
     0
  9
$DIMUPT
 70
     0
  9
$DIMDEC
 70
     3
  9
$DIMTDEC
 70
     3
  9
$DIMALTU
 70
     2
  9
$DIMALTTD
 70
     2
  9
$DIMTXSTY
  7
STANDARD
  9
$DIMAUNIT
 70
     0
  9
$DIMADEC
 70
     2
  9
$DIMALTRND
 40
0.0
  9
$DIMAZIN
 70
     3
  9
$DIMDSEP
 70
    46
  9
$DIMATFIT
 70
     3
  9
$DIMFRAC
 70
     0
  9
$DIMLDRBLK
  1

  9
$DIMLUNIT
 70
     2
  9
$DIMLWD
 70
    -2
  9
$DIMLWE
 70
    -2
  9
$DIMTMOVE
 70
     0
  9
$DIMFXL
 40
1.0
  9
$DIMFXLON
 70
     0
  9
$DIMJOGANG
 40
0.7853981633974483
  9
$DIMTFILL
 70
     0
  9
$DIMTFILLCLR
 70
     0
  9
$DIMARCSYM
 70
     0
  9
$DIMLTYPE
  6

  9
$DIMLTEX1
  6

  9
$DIMLTEX2
  6

  9
$DIMTXTDIRECTION
 70
     0
  9
$LUNITS
 70
     2
  9
$LUPREC
 70
     3
  9
$SKETCHINC
 40
0.1
  9
$FILLETRAD
 40
0.0
  9
$AUNITS
 70
     0
  9
$AUPREC
 70
     2
  9
$MENU
  1
acad
  9
$ELEVATION
 40
0.0
  9
$PELEVATION
 40
0.0
  9
$THICKNESS
 40
0.0
  9
$LIMCHECK
 70
     0
  9
$CHAMFERA
 40
0.0
  9
$CHAMFERB
 40
0.0
  9
$CHAMFERC
 40
0.0
  9
$CHAMFERD
 40
0.0
  9
$SKPOLY
 70
     0
  9
$TDCREATE
 40
2451893.287640394
  9
$TDUCREATE
 40
2451893.537640394
  9
$TDUPDATE
 40
2456722.328629826
  9
$TDUUPDATE
 40
2456722.578629826
  9
$TDINDWG
 40
0.3876381134
  9
$TDUSRTIMER
 40
0.3876381134
  9
$USRTIMER
 70
     1
  9
$ANGBASE
 50
0.0
  9
$ANGDIR
 70
     0
  9
$PDMODE
 70
     0
  9
$PDSIZE
 40
-1.0
  9
$PLINEWID
 40
0.0
  9
$SPLFRAME
 70
     0
  9
$SPLINETYPE
 70
     6
  9
$SPLINESEGS
 70
     8
  9
$HANDSEED
  5
5B4E
  9
$SURFTAB1
 70
     6
  9
$SURFTAB2
 70
     6
  9
$SURFTYPE
 70
     6
  9
$SURFU
 70
     6
  9
$SURFV
 70
     6
  9
$UCSBASE
  2

  9
$UCSNAME
  2

  9
$UCSORG
 10
0.0
 20
0.0
 30
0.0
  9
$UCSXDIR
 10
1.0
 20
0.0
 30
0.0
  9
$UCSYDIR
 10
0.0
 20
1.0
 30
0.0
  9
$UCSORTHOREF
  2

  9
$UCSORTHOVIEW
 70
     0
  9
$UCSORGTOP
 10
0.0
 20
0.0
 30
0.0
  9
$UCSORGBOTTOM
 10
0.0
 20
0.0
 30
0.0
  9
$UCSORGLEFT
 10
0.0
 20
0.0
 30
0.0
  9
$UCSORGRIGHT
 10
0.0
 20
0.0
 30
0.0
  9
$UCSORGFRONT
 10
0.0
 20
0.0
 30
0.0
  9
$UCSORGBACK
 10
0.0
 20
0.0
 30
0.0
  9
$PUCSBASE
  2

  9
$PUCSNAME
  2

  9
$PUCSORG
 10
0.0
 20
0.0
 30
0.0
  9
$PUCSXDIR
 10
1.0
 20
0.0
 30
0.0
  9
$PUCSYDIR
 10
0.0
 20
1.0
 30
0.0
  9
$PUCSORTHOREF
  2

  9
$PUCSORTHOVIEW
 70
     0
  9
$PUCSORGTOP
 10
0.0
 20
0.0
 30
0.0
  9
$PUCSORGBOTTOM
 10
0.0
 20
0.0
 30
0.0
  9
$PUCSORGLEFT
 10
0.0
 20
0.0
 30
0.0
  9
$PUCSORGRIGHT
 10
0.0
 20
0.0
 30
0.0
  9
$PUCSORGFRONT
 10
0.0
 20
0.0
 30
0.0
  9
$PUCSORGBACK
 10
0.0
 20
0.0
 30
0.0
  9
$USERI1
 70
     0
  9
$USERI2
 70
     0
  9
$USERI3
 70
     0
  9
$USERI4
 70
     0
  9
$USERI5
 70
     0
  9
$USERR1
 40
0.0
  9
$USERR2
 40
0.0
  9
$USERR3
 40
0.0
  9
$USERR4
 40
0.0
  9
$USERR5
 40
0.0
  9
$WORLDVIEW
 70
     1
  9
$SHADEDGE
 70
     3
  9
$SHADEDIF
 70
    70
  9
$TILEMODE
 70
     1
  9
$MAXACTVP
 70
    16
  9
$PINSBASE
 10
0.0
 20
0.0
 30
0.0
  9
$PLIMCHECK
 70
     0
  9
$PEXTMIN
 10
1.000000000000000E+20
 20
1.000000000000000E+20
 30
1.000000000000000E+20
  9
$PEXTMAX
 10
-1.000000000000000E+20
 20
-1.000000000000000E+20
 30
-1.000000000000000E+20
  9
$PLIMMIN
 10
0.0
 20
0.0
  9
$PLIMMAX
 10
12.0
 20
9.0
  9
$UNITMODE
 70
     0
  9
$VISRETAIN
 70
     0
  9
$PLINEGEN
 70
     1
  9
$PSLTSCALE
 70
     1
  9
$TREEDEPTH
 70
  3020
  9
$CMLSTYLE
  2
STANDARD
  9
$CMLJUST
 70
     0
  9
$CMLSCALE
 40
1.0
  9
$PROXYGRAPHICS
 70
     1
  9
$MEASUREMENT
 70
     0
  9
$CELWEIGHT
370
    -1
  9
$ENDCAPS
280
     0
  9
$JOINSTYLE
280
     0
  9
$LWDISPLAY
290
     0
  9
$INSUNITS
 70
     0
  9
$HYPERLINKBASE
  1

  9
$STYLESHEET
  1
Steelcase.ctb
  9
$XEDIT
290
     1
  9
$CEPSNTYPE
380
     0
  9
$PSTYLEMODE
290
     1
  9
$FINGERPRINTGUID
  2
{22346552-01D7-11D5-B36F-0060089D8923}
  9
$VERSIONGUID
  2
{DC1446F3-9E40-4445-84F1-CE3DE74FB345}
  9
$EXTNAMES
290
     1
  9
$PSVPSCALE
 40
0.0
  9
$OLESTARTUP
290
     0
  9
$SORTENTS
280
    96
  9
$INDEXCTL
280
     0
  9
$HIDETEXT
280
     0
  9
$XCLIPFRAME
280
     0
  9
$HALOGAP
280
     0
  9
$OBSCOLOR
 70
   257
  9
$OBSLTYPE
280
     0
  9
$INTERSECTIONDISPLAY
280
     0
  9
$INTERSECTIONCOLOR
 70
   257
  9
$DIMASSOC
280
     1
  9
$PROJECTNAME
  1

  9
$CAMERADISPLAY
290
     0
  9
$LENSLENGTH
 40
50.0
  9
$CAMERAHEIGHT
 40
0.0
  9
$STEPSPERSEC
 40
2.0
  9
$STEPSIZE
 40
6.0
  9
$3DDWFPREC
 40
2.0
  9
$PSOLWIDTH
 40
0.25
  9
$PSOLHEIGHT
 40
4.0
  9
$LOFTANG1
 40
1.570796326794896
  9
$LOFTANG2
 40
1.570796326794896
  9
$LOFTMAG1
 40
0.0
  9
$LOFTMAG2
 40
0.0
  9
$LOFTPARAM
 70
     7
  9
$LOFTNORMALS
280
     1
  9
$LATITUDE
 40
37.795
  9
$LONGITUDE
 40
-122.394
  9
$NORTHDIRECTION
 40
0.0
  9
$TIMEZONE
 70
 -8000
  9
$LIGHTGLYPHDISPLAY
280
     1
  9
$TILEMODELIGHTSYNCH
280
     1
  9
$CMATERIAL
347
5A17
  9
$SOLIDHIST
280
     1
  9
$SHOWHIST
280
     1
  9
$DWFFRAME
280
     2
  9
$DGNFRAME
280
     0
  9
$REALWORLDSCALE
290
     1
  9
$INTERFERECOLOR
 62
     1
  9
$INTERFEREOBJVS
345
5A24
  9
$INTERFEREVPVS
346
5A21
  9
$CSHADOW
280
     0
  9
$SHADOWPLANELOCATION
 40
0.0
  0
ENDSEC
  0
SECTION
  2
CLASSES
  0
CLASS
  1
LWPOLYLINE
  2
AcDbPolyline
  3
ObjectDBX Classes
 90
        0
 91
       83
280
     0
281
     1
  0
CLASS
  1
IMAGE
  2
AcDbRasterImage
  3
ISM
 90
     2175
 91
        0
280
     0
281
     1
  0
CLASS
  1
OLE2FRAME
  2
AcDbOle2Frame
  3
ObjectDBX Classes
 90
        0
 91
        0
280
     0
281
     1
  0
CLASS
  1
HATCH
  2
AcDbHatch
  3
ObjectDBX Classes
 90
        0
 91
        0
280
     0
281
     1
  0
CLASS
  1
DICTIONARYVAR
  2
AcDbDictionaryVar
  3
ObjectDBX Classes
 90
        0
 91
       10
280
     0
281
     0
  0
CLASS
  1
RASTERVARIABLES
  2
AcDbRasterVariables
  3
ISM
 90
        0
 91
        0
280
     0
281
     0
  0
CLASS
  1
IMAGEDEF
  2
AcDbRasterImageDef
  3
ISM
 90
        0
 91
        0
280
     0
281
     0
  0
CLASS
  1
IMAGEDEF_REACTOR
  2
AcDbRasterImageDefReactor
  3
ISM
 90
        1
 91
        0
280
     0
281
     0
  0
CLASS
  1
IDBUFFER
  2
AcDbIdBuffer
  3
ObjectDBX Classes
 90
        0
 91
        0
280
     0
281
     0
  0
CLASS
  1
SPATIAL_FILTER
  2
AcDbSpatialFilter
  3
ObjectDBX Classes
 90
        0
 91
        0
280
     0
281
     0
  0
CLASS
  1
XRECORD
  2
AcDbXrecord
  3
ObjectDBX Classes
 90
        0
 91
        5
280
     0
281
     0
  0
CLASS
  1
SORTENTSTABLE
  2
AcDbSortentsTable
  3
ObjectDBX Classes
 90
        0
 91
        0
280
     0
281
     0
  0
CLASS
  1
LAYER_INDEX
  2
AcDbLayerIndex
  3
ObjectDBX Classes
 90
        0
 91
        0
280
     0
281
     0
  0
CLASS
  1
SPATIAL_INDEX
  2
AcDbSpatialIndex
  3
ObjectDBX Classes
 90
        0
 91
        0
280
     0
281
     0
  0
CLASS
  1
OBJECT_PTR
  2
CAseDLPNTableRecord
  3
ASE-LPNTableRecord
 90
        1
 91
        0
280
     0
281
     0
  0
CLASS
  1
LAYOUT
  2
AcDbLayout
  3
ObjectDBX Classes
 90
        0
 91
        2
280
     0
281
     0
  0
CLASS
  1
PLOTSETTINGS
  2
AcDbPlotSettings
  3
ObjectDBX Classes
 90
        0
 91
        0
280
     0
281
     0
  0
CLASS
  1
ACDBDICTIONARYWDFLT
  2
AcDbDictionaryWithDefault
  3
ObjectDBX Classes
 90
        0
 91
        1
280
     0
281
     0
  0
CLASS
  1
ACDBPLACEHOLDER
  2
AcDbPlaceHolder
  3
ObjectDBX Classes
 90
        0
 91
        1
280
     0
281
     0
  0
CLASS
  1
VBA_PROJECT
  2
AcDbVbaProject
  3
acad
 90
        0
 91
        0
280
     0
281
     0
  0
CLASS
  1
WIPEOUT
  2
AcDbWipeout
  3
"WipeOut|Product Desc: Object Enabler for WipeOut entity^I^I^I^I^I^I|Company: Autodesk, Inc.^I^I^I^I^I^I|WEB Address: www.autodesk.com"
 90
      127
 91
        0
280
     0
281
     1
  0
CLASS
  1
WIPEOUTVARIABLES
  2
AcDbWipeoutVariables
  3
"WipeOut|Product Desc:     WipeOut Dbx Application|Company:          Autodesk, Inc.|WEB Address:      www.autodesk.com"
 90
        0
 91
        0
280
     0
281
     0
  0
CLASS
  1
RTEXT
  2
RText
  3
RText|AutoCAD Express Tool|expresstools@autodesk.com
 90
        0
 91
        0
280
     0
281
     1
  0
CLASS
  1
ARCALIGNEDTEXT
  2
AcDbArcAlignedText
  3
ATEXT|AutoCAD Express Tool|expresstools@autodesk.com
 90
        0
 91
        0
280
     0
281
     1
  0
CLASS
  1
LONG_TRANSACTION
  2
AcDbLongTransaction
  3
ObjectDBX Classes
 90
        0
 91
        0
280
     0
281
     0
  0
CLASS
  1
LWPOLYLINE
  2
AcDbPolyline
  3
ObjectDBX Classes
 90
        0
 91
       83
280
     0
281
     1
  0
CLASS
  1
HATCH
  2
AcDbHatch
  3
ObjectDBX Classes
 90
        0
 91
        0
280
     0
281
     1
  0
CLASS
  1
XRECORD
  2
AcDbXrecord
  3
ObjectDBX Classes
 90
        0
 91
        5
280
     0
281
     0
  0
CLASS
  1
LONG_TRANSACTION
  2
AcDbLongTransaction
  3
ObjectDBX Classes
 90
        0
 91
        0
280
     0
281
     0
  0
CLASS
  1
LWPOLYLINE
  2
AcDbPolyline
  3
ObjectDBX Classes
 90
        0
 91
       83
280
     0
281
     1
  0
CLASS
  1
HATCH
  2
AcDbHatch
  3
ObjectDBX Classes
 90
        0
 91
        0
280
     0
281
     1
  0
CLASS
  1
XRECORD
  2
AcDbXrecord
  3
ObjectDBX Classes
 90
        0
 91
        5
280
     0
281
     0
  0
CLASS
  1
TABLESTYLE
  2
AcDbTableStyle
  3
ObjectDBX Classes
 90
     4095
 91
        1
280
     0
281
     0
  0
CLASS
  1
MATERIAL
  2
AcDbMaterial
  3
ObjectDBX Classes
 90
     1153
 91
        3
280
     0
281
     0
  0
CLASS
  1
VISUALSTYLE
  2
AcDbVisualStyle
  3
ObjectDBX Classes
 90
     4095
 91
       26
280
     0
281
     0
  0
CLASS
  1
ACME_DOCUMENT
  2
AcMeDbDoc
  3
AcMeServices
 90
        0
 91
        0
280
     0
281
     0
  0
CLASS
  1
AMGSETTINGSOBJ
  2
AmgSettingsObj
  3
"AcadM|Product Description: AutoCAD Mechanical|Company: Autodesk"
 90
        0
 91
        2
280
     0
281
     0
  0
CLASS
  1
ACMESCOPE
  2
AcMeScope
  3
AcMeServices
 90
        0
 91
        1
280
     0
281
     0
  0
CLASS
  1
ACMECOMMANDHISTORY
  2
AcMeCommandHistory
  3
AcMeServices
 90
        0
 91
        1
280
     0
281
     0
  0
CLASS
  1
ACIMSYSVARMAN
  2
AcImSysVarManager
  3
AcMeServices
 90
        0
 91
        5
280
     0
281
     0
  0
CLASS
  1
ACIMINTSYSVAR
  2
AcImIntSysVar
  3
AcMeServices
 90
        0
 91
       28
280
     0
281
     0
  0
CLASS
  1
ACMEDRAWINGMAN
  2
AcMeDrawingMan
  3
AcMeServices
 90
        0
 91
        1
280
     0
281
     0
  0
CLASS
  1
ACMEVIEW
  2
AcMeView
  3
AcMeServices
 90
        0
 91
        1
280
     0
281
     0
  0
CLASS
  1
ACDBENTITYCACHE
  2
AcMeEntityCache
  3
AcMeServices
 90
        0
 91
        0
280
     0
281
     0
  0
CLASS
  1
GSMANAGER
  2
AcMeGSManager
  3
AcMeServices
 90
        0
 91
        0
280
     0
281
     0
  0
CLASS
  1
AMDTINTERNALREACTOR
  2
AmdtInternalReactor
  3
AcMeServices
 90
        0
 91
        0
280
     0
281
     0
  0
CLASS
  1
ACMESTATEMGR
  2
AcMeStateMgr
  3
AcMeServices
 90
        0
 91
        1
280
     0
281
     0
  0
CLASS
  1
ACGREFMASTER
  2
AcGrefMaster
  3
AcAttribServices
 90
        0
 91
        1
280
     0
281
     0
  0
CLASS
  1
AM_DRAWING_MGR
  2
AcDmDwgMgr
  3
AcMechDwgViewMgmt
 90
        0
 91
        1
280
     0
281
     0
  0
CLASS
  1
AM_DWG_DOCUMENT
  2
AcDmDwgDocument
  3
AcMechDwgViewMgmt
 90
        0
 91
        1
280
     0
281
     0
  0
CLASS
  1
AM_DWG_SHEET
  2
AcDmSheet
  3
AcMechDwgViewMgmt
 90
        0
 91
        1
280
     0
281
     0
  0
CLASS
  1
AM_VIEWDIMPARMAP
  2
AcDmViewDimParMap
  3
AcMechDwgViewMgmt
 90
        0
 91
        1
280
     0
281
     0
  0
CLASS
  1
ACIMREALSYSVAR
  2
AcImRealSysVar
  3
AcMeServices
 90
        0
 91
        1
280
     0
281
     0
  0
CLASS
  1
AM_DWGMGR_NAME
  2
AcDmDwgMgrName
  3
AcMechDwgViewMgmt
 90
        0
 91
        1
280
     0
281
     0
  0
CLASS
  1
ACME_DATABASE
  2
AcMeDbDatabase
  3
AcMeServices
 90
        0
 91
        0
280
     0
281
     0
  0
CLASS
  1
ACRFINSADJUSTERMGR
  2
AcRfInsAdjusterMgr
  3
AcMeServices
 90
        0
 91
        0
280
     0
281
     0
  0
CLASS
  1
ACGREFACADMASTER
  2
AcGrefacadMaster
  3
AcGrefServices
 90
        0
 91
        1
280
     0
281
     0
  0
CLASS
  1
AMDTMENUSTATEMGR
  2
AmdtMenuStateMgr
  3
McadcomServices
 90
        0
 91
        0
280
     0
281
     0
  0
CLASS
  1
AMDTMCOMMENUSTATE
  2
AmdtMcomMenuState
  3
McadcomServices
 90
        0
 91
        0
280
     0
281
     0
  0
CLASS
  1
AMIMASTER
  2
AmiMaster
  3
AmiServices
 90
        0
 91
        1
280
     0
281
     0
  0
CLASS
  1
MAPIAMMOUDLE
  2
MApiAmModule
  3
MApiAmServices
 90
        0
 91
        1
280
     0
281
     0
  0
CLASS
  1
ACIMSTRSYSVAR
  2
AcImStrSysVar
  3
AcMeServices
 90
        0
 91
        5
280
     0
281
     0
  0
CLASS
  1
AMDTADMENUSTATE
  2
AmdtAdMenuState
  3
DesignerServices
 90
        0
 91
        0
280
     0
281
     0
  0
CLASS
  1
ADAPPL
  2
AcAdAppl
  3
DesignerServices
 90
        0
 91
        1
280
     0
281
     0
  0
CLASS
  1
DEPMGR
  2
AcAdDepMgr
  3
DesignerServices
 90
        0
 91
        1
280
     0
281
     0
  0
CLASS
  1
PARAMMGR
  2
AcAdParamMgr
  3
DesignerServices
 90
        0
 91
        1
280
     0
281
     0
  0
CLASS
  1
PARAMSCOPE
  2
AcAdParamScope
  3
DesignerServices
 90
        0
 91
        1
280
     0
281
     0
  0
CLASS
  1
NAMEDAPPL
  2
AcAdNamedAppl
  3
DesignerServices
 90
        0
 91
        1
280
     0
281
     0
  0
CLASS
  1
AMDTDMMENUSTATE
  2
AmdtDmMenuState
  3
AcMechDwgViewMgmt
 90
        0
 91
        0
280
     0
281
     0
  0
CLASS
  1
AMDTAMMENUSTATE
  2
AmdtAmMenuState
  3
DesignerAssemblies
 90
        0
 91
        0
280
     0
281
     0
  0
CLASS
  1
ACAMPROJECT
  2
AcAmProject
  3
DesignerAssemblies
 90
        0
 91
        1
280
     0
281
     0
  0
CLASS
  1
ACAMGRCOMPDEF
  2
AcAmGrCompDef
  3
DesignerAssemblies
 90
        0
 91
        1
280
     0
281
     0
  0
CLASS
  1
ACCMCONTEXT
  2
AcCmContext
  3
DesignerAssemblies
 90
        0
 91
        1
280
     0
281
     0
  0
CLASS
  1
ACAMCOMPDEF
  2
AcAmCompDef
  3
DesignerAssemblies
 90
        0
 91
        1
280
     0
281
     0
  0
CLASS
  1
ACAMCOMPDEFMGR
  2
AcAmCompDefMgr
  3
DesignerAssemblies
 90
        0
 91
        1
280
     0
281
     0
  0
CLASS
  1
AMCONTEXTMGR
  2
AcAmContextMgr
  3
DesignerAssemblies
 90
        0
 91
        1
280
     0
281
     0
  0
CLASS
  1
ACAMCONTEXTMODELER
  2
AcAmContextModeler
  3
DesignerAssemblies
 90
        0
 91
        1
280
     0
281
     0
  0
CLASS
  1
ACMDATADICTIONARY
  2
AcmDataDictionary
  3
"AcmSymBB|Product Description: AutoCAD Mechanical|Company: Autodesk"
 90
        0
 91
        1
280
     0
281
     0
  0
CLASS
  1
CATALOGSTATE
  2
AcAmCatalogState
  3
DesignerAssemblies
 90
        0
 91
        1
280
     0
281
     0
  0
CLASS
  1
ACAMGRCOMPDEFSET
  2
AcAmGrCompDefSet
  3
DesignerAssemblies
 90
        0
 91
        0
280
     0
281
     0
  0
CLASS
  1
AMDTBROWSERDBTAB
  2
AmdtBrowserDbTab
  3
McadcomServices
 90
        0
 91
        0
280
     0
281
     0
  0
CLASS
  1
CBROWSERAPPOBJECT
  2
CBrowserAppObject
  3
McadcomServices
 90
        0
 91
        0
280
     0
281
     0
  0
CLASS
  1
DM_PLACEHOLDER
  2
AcDmSelsetPlaceholder
  3
AcMechDwgViewMgmt
 90
        0
 91
        0
280
     0
281
     0
  0
CLASS
  1
ACMSTANDARDANSI
  2
AcmStandardANSI
  3
"Amdt_StdImp|Product Description: AutoCAD Mechanical|Company: Autodesk"
 90
        0
 91
        1
280
     0
281
     0
  0
CLASS
  1
AMGOBJPROPCFG
  2
AmgObjPropCfg
  3
"AmgLay|Product Description: AutoCAD Mechanical|Company: Autodesk"
 90
        1
 91
        1
280
     0
281
     0
  0
CLASS
  1
ACMSURFSTANDARDANSI
  2
AcmSurfTextStdANSI
  3
"Amdt_StdImp|Product Description: AutoCAD Mechanical|Company: Autodesk"
 90
        0
 91
        1
280
     0
281
     0
  0
CLASS
  1
ACMFCFSTANDARDANSI
  2
AcmFCFStdANSI
  3
"Amdt_StdImp|Product Description: AutoCAD Mechanical|Company: Autodesk"
 90
        0
 91
        1
280
     0
281
     0
  0
CLASS
  1
ACMWELDSTANDARDANSI
  2
AcmWeldingStdANSI
  3
"Amdt_StdImp|Product Description: AutoCAD Mechanical|Company: Autodesk"
 90
        0
 91
        1
280
     0
281
     0
  0
CLASS
  1
ACMIDSTANDARDANSI
  2
AcmIdStdANSI
  3
"Amdt_StdImp|Product Description: AutoCAD Mechanical|Company: Autodesk"
 90
        0
 91
        1
280
     0
281
     0
  0
CLASS
  1
ACMDATUMSTANDARDANSI
  2
AcmDatumStdANSI
  3
"Amdt_StdImp|Product Description: AutoCAD Mechanical|Company: Autodesk"
 90
        0
 91
        1
280
     0
281
     0
  0
CLASS
  1
ACMBOMSTANDARDANSI
  2
AcmBOMStdANSI
  3
"Amdt_StdImp|Product Description: AutoCAD Mechanical|Company: Autodesk"
 90
        0
 91
        1
280
     0
281
     0
  0
CLASS
  1
ACMDETAILSTANDARDANSI
  2
AmdtDetailSymStdANSI
  3
"Amdt_StdImp|Product Description: AutoCAD Mechanical|Company: Autodesk"
 90
        0
 91
        1
280
     0
281
     0
  0
CLASS
  1
ACMSECTIONSTANDARDANSI
  2
AmdtSectionSymStdANSI
  3
"Amdt_StdImp|Product Description: AutoCAD Mechanical|Company: Autodesk"
 90
        0
 91
        1
280
     0
281
     0
  0
CLASS
  1
ACMCENTERLINESTANDARDANSI
  2
AmdtCenterLineStdANSI
  3
"Amdt_StdImp|Product Description: AutoCAD Mechanical|Company: Autodesk"
 90
        0
 91
        1
280
     0
281
     0
  0
CLASS
  1
ACMTHREADLINESTANDARDANSI
  2
AmdtThreadLineStdANSI
  3
"Amdt_StdImp|Product Description: AutoCAD Mechanical|Company: Autodesk"
 90
        0
 91
        1
280
     0
281
     0
  0
CLASS
  1
ACMNOTESTANDARDANSI
  2
AmdtNoteStdANSI
  3
"Amdt_StdImp|Product Description: AutoCAD Mechanical|Company: Autodesk"
 90
        0
 91
        1
280
     0
281
     0
  0
CLASS
  1
ACMTAPERSTANDARDANSI
  2
AcmTaperStdANSI
  3
"Amdt_StdImp|Product Description: AutoCAD Mechanical|Company: Autodesk"
 90
        0
 91
        1
280
     0
281
     0
  0
CLASS
  1
AMDTNOTETEMPLATEDB
  2
AmdtNoteTemplateDB
  3
AMDT_STDIMP_MODULE_NAME
 90
        0
 91
        6
280
     0
281
     0
  0
CLASS
  1
ACAMGLAYSTD
  2
AcAmgLayStd
  3
"AmgLay|Product Description: AutoCAD Mechanical|Company: Autodesk"
 90
        0
 91
        1
280
     0
281
     0
  0
CLASS
  1
ACAMGDIMSTD
  2
AcAmgDimStd
  3
"AmgDim|Product Description: AutoCAD Mechanical|Company: Autodesk"
 90
        0
 91
        1
280
     0
281
     0
  0
CLASS
  1
ACAMGHOLECHARTSTDANSI
  2
AcAmgHoleChartStdANSI
  3
ACMSYMBB_MODULE_NAME
 90
        0
 91
        1
280
     0
281
     0
  0
CLASS
  1
ACAMGTITLESTD
  2
AcAmgTitleStd
  3
"AmgTitle|Product Description: AutoCAD Mechanical|Company: Autodesk"
 90
        0
 91
        1
280
     0
281
     0
  0
CLASS
  1
ACAMGFILTERDAT
  2
AcAmgFilterDat
  3
"AcadM|Product Description: AutoCAD Mechanical|Company: Autodesk"
 90
        0
 91
        6
280
     0
281
     0
  0
CLASS
  1
CAMSSTRUCTBTNSTATE
  2
StructBtnState
  3
L"DesignerAssemblies"
 90
        0
 91
        1
280
     0
281
     0
  0
CLASS
  1
SCALE
  2
AcDbScale
  3
ObjectDBX Classes
 90
     1153
 91
       17
280
     0
281
     0
  0
CLASS
  1
MLEADERSTYLE
  2
AcDbMLeaderStyle
  3
ACDB_MLEADERSTYLE_CLASS
 90
     4095
 91
        1
280
     0
281
     0
  0
CLASS
  1
CELLSTYLEMAP
  2
AcDbCellStyleMap
  3
ObjectDBX Classes
 90
     1152
 91
        1
280
     0
281
     0
  0
ENDSEC
  0
SECTION
  2
TABLES
  0
TABLE
  2
VPORT
  5
7
330
0
100
AcDbSymbolTable
 70
     1
  0
VPORT
  5
5A0F
330
7
100
AcDbSymbolTableRecord
100
AcDbViewportTableRecord
  2
*Active
 70
     0
 10
0.0
 20
0.0
 11
1.0
 21
1.0
 12
3.850116986560759
 22
2.347506829700919
 13
0.0
 23
0.0
 14
1.0
 24
1.0
 15
0.0
 25
0.0
 16
0.0
 26
0.0
 36
1.0
 17
0.0
 27
0.0
 37
0.0
 40
7.834998361537698
 41
2.16628959276018
 42
50.0
 43
0.0
 44
0.0
 50
0.0
 51
0.0
 71
     0
 72
  2000
 73
     1
 74
     1
 75
     0
 76
     0
 77
     0
 78
     0
281
     0
 65
     1
110
0.0
120
0.0
130
0.0
111
1.0
121
0.0
131
0.0
112
0.0
122
1.0
132
0.0
 79
     0
146
0.0
348
5A20
 60
     3
 61
     5
292
     1
282
     1
141
0.0
142
0.0
 63
   250
421
  3355443
  0
ENDTAB
  0
TABLE
  2
LTYPE
  5
4
330
0
100
AcDbSymbolTable
 70
    17
  0
LTYPE
  5
11
330
4
100
AcDbSymbolTableRecord
100
AcDbLinetypeTableRecord
  2
BYBLOCK
 70
     0
  3

 72
    65
 73
     0
 40
0.0
  0
LTYPE
  5
12
330
4
100
AcDbSymbolTableRecord
100
AcDbLinetypeTableRecord
  2
BYLAYER
 70
     0
  3

 72
    65
 73
     0
 40
0.0
  0
LTYPE
  5
13
330
4
100
AcDbSymbolTableRecord
100
AcDbLinetypeTableRecord
  2
CONTINUOUS
 70
     0
  3
Solid line
 72
    65
 73
     0
 40
0.0
  0
LTYPE
  5
2920
330
4
100
AcDbSymbolTableRecord
100
AcDbLinetypeTableRecord
  2
CENTER2
 70
     0
  3
Center (.5x) ___ _ ___ _ ___ _ ___ _ ___ _ ___
 72
    65
 73
     4
 40
1.125
 49
0.75
 74
     0
 49
-0.125
 74
     0
 49
0.125
 74
     0
 49
-0.125
 74
     0
  0
LTYPE
  5
2921
330
4
100
AcDbSymbolTableRecord
100
AcDbLinetypeTableRecord
  2
PHANTOM2
 70
     0
  3
Phantom (.5x) ___ _ _ ___ _ _ ___ _ _ ___ _ _
 72
    65
 73
     6
 40
1.25
 49
0.625
 74
     0
 49
-0.125
 74
     0
 49
0.125
 74
     0
 49
-0.125
 74
     0
 49
0.125
 74
     0
 49
-0.125
 74
     0
  0
LTYPE
  5
2E2E
330
4
100
AcDbSymbolTableRecord
100
AcDbLinetypeTableRecord
  2
HIDDEN2
 70
     0
  3
Hidden (.5x) _ _ _ _ _ _ _ _ _ _ _ _ _ _ _ _ _
 72
    65
 73
     2
 40
0.1875
 49
0.125
 74
     0
 49
-0.0625
 74
     0
  0
LTYPE
  5
42EC
330
4
100
AcDbSymbolTableRecord
100
AcDbLinetypeTableRecord
  2
HIDDENX2
 70
     0
  3
Hidden (2x) ____ ____ ____ ____ ____ ____ ____
 72
    65
 73
     2
 40
0.75
 49
0.5
 74
     0
 49
-0.25
 74
     0
  0
LTYPE
  5
5A60
330
4
100
AcDbSymbolTableRecord
100
AcDbLinetypeTableRecord
  2
HIDDEN
 70
     0
  3
Hidden __ __ __ __ __ __ __ __ __ __ __ __ __ _
 72
    65
 73
     2
 40
0.375
 49
0.25
 74
     0
 49
-0.125
 74
     0
  0
LTYPE
  5
5A61
330
4
100
AcDbSymbolTableRecord
100
AcDbLinetypeTableRecord
  2
CENTER
 70
     0
  3
Center ____ _ ____ _ ____ _ ____ _ ____ _ ____
 72
    65
 73
     4
 40
2.0
 49
1.25
 74
     0
 49
-0.25
 74
     0
 49
0.25
 74
     0
 49
-0.25
 74
     0
  0
LTYPE
  5
5A92
330
4
100
AcDbSymbolTableRecord
100
AcDbLinetypeTableRecord
  2
AM_ISO02W050
 70
     0
  3
__ __ __ __ __ __ __ __ __ __ __ __ __ __ __
 72
    65
 73
     2
 40
7.5
 49
6.0
 74
     0
 49
-1.5
 74
     0
  0
LTYPE
  5
5A93
330
4
100
AcDbSymbolTableRecord
100
AcDbLinetypeTableRecord
  2
AM_ISO08W050
 70
     0
  3
____ . ____ . ____ . ____ . ____ . ____ . ____
 72
    65
 73
     4
 40
18.0
 49
12.0
 74
     0
 49
-1.5
 74
     0
 49
3.0
 74
     0
 49
-1.5
 74
     0
  0
LTYPE
  5
5A94
330
4
100
AcDbSymbolTableRecord
100
AcDbLinetypeTableRecord
  2
AM_ISO09W050
 70
     0
  3
_____ . . _____ . . _____ . . ____ .. ____
 72
    65
 73
     6
 40
22.5
 49
12.0
 74
     0
 49
-1.5
 74
     0
 49
3.0
 74
     0
 49
-1.5
 74
     0
 49
3.0
 74
     0
 49
-1.5
 74
     0
  0
LTYPE
  5
5A95
330
4
100
AcDbSymbolTableRecord
100
AcDbLinetypeTableRecord
  2
Amconstr
 70
     0
  3
_______________________
 72
    65
 73
     2
 40
9999.0
 49
9999.0
 74
     0
 49
0.0
 74
     0
  0
LTYPE
  5
5A96
330
4
100
AcDbSymbolTableRecord
100
AcDbLinetypeTableRecord
  2
AM_ISO08W050x2
 70
     0
  3
__ . __ . __ . __ . __ . __
 72
    65
 73
     4
 40
9.0
 49
6.0
 74
     0
 49
-0.75
 74
     0
 49
1.5
 74
     0
 49
-0.75
 74
     0
  0
LTYPE
  5
5A97
330
4
100
AcDbSymbolTableRecord
100
AcDbLinetypeTableRecord
  2
AM_ISO02W050x2
 70
     0
  3
 _ _ _ _ _ _ _ _ _ _ _ _
 72
    65
 73
     2
 40
3.75
 49
3.0
 74
     0
 49
-0.75
 74
     0
  0
LTYPE
  5
5A9A
330
4
100
AcDbSymbolTableRecord
100
AcDbLinetypeTableRecord
  2
Amzigzag
 70
     0
  3
/\/-/\/-/\/-/\/-/\/-/\/
 72
    65
 73
     2
 40
11.0001
 49
0.0001
 74
     4
 75
   136
340
5A99
 46
0.04
 50
0.0
 44
0.0
 45
0.0
 49
-11.0
 74
     0
  0
LTYPE
  5
5A9B
330
4
100
AcDbSymbolTableRecord
100
AcDbLinetypeTableRecord
  2
Amzigzag2
 70
     0
  3
/\/-/\/-/\/-/\/-/\/-/\/
 72
    65
 73
     2
 40
0.4401
 49
0.0001
 74
     4
 75
   136
340
5A99
 46
0.0016
 50
0.0
 44
0.0
 45
0.0
 49
-0.4400000000000001
 74
     0
  0
LTYPE
  5
5AAA
330
4
100
AcDbSymbolTableRecord
100
AcDbLinetypeTableRecord
  2
ACANSTGB
 70
     0
  3
__ . . __ . .
 72
    65
 73
     6
 40
0.35433070866
 49
0.15748031496
 74
     0
 49
-0.03937007874
 74
     0
 49
0.03937007874
 74
     0
 49
-0.03937007874
 74
     0
 49
0.03937007874
 74
     0
 49
-0.03937007874
 74
     0
  0
LTYPE
  5
5AAB
330
4
100
AcDbSymbolTableRecord
100
AcDbLinetypeTableRecord
  2
ACANSTGL
 70
     0
  3
_ _ _ _ _
 72
    65
 73
     2
 40
0.11811023622
 49
0.07874015748
 74
     0
 49
-0.03937007874
 74
     0
  0
ENDTAB
  0
TABLE
  2
LAYER
  5
2
330
0
100
AcDbSymbolTable
 70
    10
  0
LAYER
  5
14
330
2
100
AcDbSymbolTableRecord
100
AcDbLayerTableRecord
  2
0
 70
     0
 62
     7
  6
CONTINUOUS
370
    -3
390
1670
347
5A19
  0
LAYER
  5
37
330
2
100
AcDbSymbolTableRecord
100
AcDbLayerTableRecord
  2
DEFPOINTS
 70
     0
 62
     7
  6
CONTINUOUS
290
     0
370
    -3
390
1670
347
5A19
  0
LAYER
  5
1646
330
2
100
AcDbSymbolTableRecord
100
AcDbLayerTableRecord
  2
DIM
 70
     0
 62
    41
  6
CONTINUOUS
370
    -3
390
1670
347
5A19
  0
LAYER
  5
2922
330
2
100
AcDbSymbolTableRecord
100
AcDbLayerTableRecord
  2
TITLE
 70
     0
 62
     1
  6
CONTINUOUS
370
    -3
390
1670
347
5A19
  0
LAYER
  5
2923
330
2
100
AcDbSymbolTableRecord
100
AcDbLayerTableRecord
  2
SOLID
 70
     0
 62
     4
  6
CONTINUOUS
370
    -3
390
1670
347
5A19
  0
LAYER
  5
2924
330
2
100
AcDbSymbolTableRecord
100
AcDbLayerTableRecord
  2
CENTER
 70
     0
 62
     2
  6
CENTER2
370
    -3
390
1670
347
5A19
  0
LAYER
  5
2925
330
2
100
AcDbSymbolTableRecord
100
AcDbLayerTableRecord
  2
PHANTOM
 70
     0
 62
     9
  6
PHANTOM2
370
    -3
390
1670
347
5A19
  0
LAYER
  5
2E2F
330
2
100
AcDbSymbolTableRecord
100
AcDbLayerTableRecord
  2
HIDDEN
 70
     0
 62
     3
  6
HIDDEN2
370
    -3
390
1670
347
5A19
  0
LAYER
  5
42ED
330
2
100
AcDbSymbolTableRecord
100
AcDbLayerTableRecord
  2
OBJ
 70
     0
 62
     7
  6
CONTINUOUS
370
    -3
390
1670
347
5A19
  0
LAYER
  5
5AC9
330
2
100
AcDbSymbolTableRecord
100
AcDbLayerTableRecord
  2
AM_5
 70
     0
 62
     3
  6
CONTINUOUS
370
    15
390
1670
347
5A19
1001
AcAecLayerStandard
1000

1000

  0
ENDTAB
  0
TABLE
  2
STYLE
  5
3
330
0
100
AcDbSymbolTable
 70
     7
  0
STYLE
  5
17
330
3
100
AcDbSymbolTableRecord
100
AcDbTextStyleTableRecord
  2
STANDARD
 70
     0
 40
0.0
 41
1.0
 50
0.0
 71
     0
 42
0.06
  3
romans.shx
  4

  0
STYLE
  5
2926
330
3
100
AcDbSymbolTableRecord
100
AcDbTextStyleTableRecord
  2
ITALIC
 70
     0
 40
0.0
 41
1.0
 50
0.0
 71
     0
 42
0.2
  3
txt
  4

  0
STYLE
  5
2927
330
3
100
AcDbSymbolTableRecord
100
AcDbTextStyleTableRecord
  2
STYLE1
 70
     0
 40
0.0
 41
1.0
 50
0.0
 71
     0
 42
0.25
  3
swiss.ttf
  4

1001
ACAD
1000
Swis721 BT
1071
       34
  0
STYLE
  5
42EE
330
3
100
AcDbSymbolTableRecord
100
AcDbTextStyleTableRecord
  2
ADESK1
 70
     0
 40
0.0
 41
1.0
 50
0.0
 71
     0
 42
0.12
  3
romans.shx
  4

  0
STYLE
  5
5A99
330
3
100
AcDbSymbolTableRecord
100
AcDbTextStyleTableRecord
  2

 70
     1
 40
0.0
 41
1.0
 50
0.0
 71
     0
 42
0.06
  3
genltshp.shx
  4

  0
STYLE
  5
5A9C
330
3
100
AcDbSymbolTableRecord
100
AcDbTextStyleTableRecord
  2
ACANSTS
 70
     0
 40
1.0
 41
1.0
 50
0.0
 71
     0
 42
0.06
  3
romans.shx
  4

  0
STYLE
  5
5AA9
330
3
100
AcDbSymbolTableRecord
100
AcDbTextStyleTableRecord
  2
ACANSGDT
 70
     0
 40
0.0
 41
1.0
 50
0.0
 71
     0
 42
0.06
  3
amgdt.shx
  4

  0
ENDTAB
  0
TABLE
  2
VIEW
  5
5
330
0
100
AcDbSymbolTable
 70
     0
  0
ENDTAB
  0
TABLE
  2
UCS
  5
6
330
0
100
AcDbSymbolTable
 70
     0
  0
ENDTAB
  0
TABLE
  2
APPID
  5
8
330
0
100
AcDbSymbolTable
 70
    15
  0
APPID
  5
16
330
8
100
AcDbSymbolTableRecord
100
AcDbRegAppTableRecord
  2
ACAD
 70
     0
  0
APPID
  5
292D
330
8
100
AcDbSymbolTableRecord
100
AcDbRegAppTableRecord
  2
DCO15
 70
     0
  0
APPID
  5
292E
330
8
100
AcDbSymbolTableRecord
100
AcDbRegAppTableRecord
  2
GENIUS_GENDIM_13
 70
     0
  0
APPID
  5
292F
330
8
100
AcDbSymbolTableRecord
100
AcDbRegAppTableRecord
  2
GENIUS_GENDTOL_13
 70
     0
  0
APPID
  5
2930
330
8
100
AcDbSymbolTableRecord
100
AcDbRegAppTableRecord
  2
GENIUS_GE3DTOL_13
 70
     0
  0
APPID
  5
2931
330
8
100
AcDbSymbolTableRecord
100
AcDbRegAppTableRecord
  2
MCAD_NO_VIS
 70
     0
  0
APPID
  5
2932
330
8
100
AcDbSymbolTableRecord
100
AcDbRegAppTableRecord
  2
ACAD_TEMP_GRAPHIC
 70
     0
  0
APPID
  5
2933
330
8
100
AcDbSymbolTableRecord
100
AcDbRegAppTableRecord
  2
AD_DRAW
 70
     0
  0
APPID
  5
2934
330
8
100
AcDbSymbolTableRecord
100
AcDbRegAppTableRecord
  2
ACATTRIBSERVICES
 70
     0
  0
APPID
  5
2935
330
8
100
AcDbSymbolTableRecord
100
AcDbRegAppTableRecord
  2
ASURF_PCURVE_APPNAME
 70
     0
  0
APPID
  5
2936
330
8
100
AcDbSymbolTableRecord
100
AcDbRegAppTableRecord
  2
DESIGNERASSEMBLIES
 70
     0
  0
APPID
  5
2937
330
8
100
AcDbSymbolTableRecord
100
AcDbRegAppTableRecord
  2
ACADM_DIM_EDIT
 70
     0
  0
APPID
  5
5A8A
330
8
100
AcDbSymbolTableRecord
100
AcDbRegAppTableRecord
  2
AMDT_DM_ADJ
 70
     0
  0
APPID
  5
5ACA
330
8
100
AcDbSymbolTableRecord
100
AcDbRegAppTableRecord
  2
AcAecLayerStandard
 70
     0
  0
APPID
  5
5AE5
330
8
100
AcDbSymbolTableRecord
100
AcDbRegAppTableRecord
  2
GENIUS_GENDIMSH_14
 70
     0
  0
ENDTAB
  0
TABLE
  2
DIMSTYLE
  5
9
330
0
100
AcDbSymbolTable
 70
    10
100
AcDbDimStyleTable
 71
     1
340
3A6F
  0
DIMSTYLE
105
2928
102
{ACAD_REACTORS
330
3201
330
32CF
330
3381
330
340B
330
3517
330
352F
330
3549
330
3588
330
35D5
330
35F3
330
39D1
102
}
330
9
100
AcDbSymbolTableRecord
100
AcDbDimStyleTableRecord
  2
2XSCALE
 70
     0
 40
0.5
 41
0.1875
 44
0.125
 78
     4
 79
     3
140
0.125
141
0.0
147
0.0625
179
     2
271
     3
272
     3
284
    12
289
     0
340
17
  0
DIMSTYLE
105
3A6F
102
{ACAD_REACTORS
330
31B1
330
31BF
330
3213
330
3221
330
324E
330
397F
330
33FC
330
33EE
330
32F1
330
317B
330
316D
330
32FF
330
5874
330
5883
330
5891
330
5941
102
}
330
9
100
AcDbSymbolTableRecord
100
AcDbDimStyleTableRecord
  2
BASIC 2XSCALE
 70
     0
 40
0.5
 41
0.1875
 44
0.125
 78
     4
 79
     3
140
0.125
141
0.0
147
0.0625
179
     2
271
     3
272
     3
284
    12
340
17
  0
DIMSTYLE
105
42EF
330
9
100
AcDbSymbolTableRecord
100
AcDbDimStyleTableRecord
  2
STANDARD
 70
     0
340
17
  0
DIMSTYLE
105
5AB5
330
9
100
AcDbSymbolTableRecord
100
AcDbDimStyleTableRecord
  2
AM_ANSI
 70
     0
  4
mm
 41
0.1
 42
0.05
 43
0.5
 44
0.1
 47
0.1
 48
0.1
 78
     7
 79
     2
 90
     1
140
0.12
141
0.0
146
0.71
147
0.06
176
   256
177
   256
178
     2
274
     4
284
     7
340
17
371
    -1
372
    -1
  0
DIMSTYLE
105
5AB6
330
9
100
AcDbSymbolTableRecord
100
AcDbDimStyleTableRecord
  2
AM_ANSI$3
 70
     0
  4
mm
 41
0.1
 42
0.05
 43
0.5
 44
0.1
 47
0.1
 48
0.1
 78
     7
 79
     2
 90
     1
140
0.12
141
0.0
146
0.71
147
0.06
176
   256
177
   256
178
     2
274
     4
284
     7
288
     1
289
     0
340
17
371
    -1
372
    -1
  0
DIMSTYLE
105
5AB7
330
9
100
AcDbSymbolTableRecord
100
AcDbDimStyleTableRecord
  2
AM_ANSI$4
 70
     0
  4
mm
 41
0.1
 42
0.05
 43
0.5
 44
0.1
 47
0.1
 48
0.1
 78
     7
 79
     2
 90
     1
140
0.12
141
0.0
146
0.71
147
0.06
176
   256
177
   256
178
     2
274
     4
284
     7
288
     1
289
     0
340
17
371
    -1
372
    -1
  0
DIMSTYLE
105
5AB8
330
9
100
AcDbSymbolTableRecord
100
AcDbDimStyleTableRecord
  2
AM_ANSI$7
 70
     0
  4
mm
 41
0.1
 42
0.05
 43
0.5
 44
0.1
 47
0.1
 48
0.1
 78
     7
 79
     2
 90
     1
140
0.24
141
0.0
146
0.71
147
0.06
176
   256
177
   256
178
     2
274
     4
284
     7
340
17
371
    -1
372
    -1
  0
DIMSTYLE
105
5AB9
330
9
100
AcDbSymbolTableRecord
100
AcDbDimStyleTableRecord
  2
AM_ANSI$SF
 70
     0
  4
mm
 41
0.1
 42
0.05
 43
0.5
 44
0.1
 47
0.1
 48
0.1
 75
     1
 76
     1
 78
     7
 79
     2
 90
     1
140
0.12
141
0.0
146
0.71
147
0.06
176
   256
177
   256
178
     2
274
     4
284
     7
340
17
371
    -1
372
    -1
  0
DIMSTYLE
105
5ABE
330
9
100
AcDbSymbolTableRecord
100
AcDbDimStyleTableRecord
  2
AM_ANSI$SH
 70
     0
  4
mm
 41
0.1
 42
0.05
 43
0.5
 44
0.1
 47
0.1
 48
0.1
 75
     1
 76
     1
 78
     7
 79
     2
 90
     1
140
0.12
141
0.0
146
0.71
147
0.06
173
     1
176
   256
177
   256
178
     2
274
     4
284
     7
340
17
343
5ABA
371
    -1
372
    -1
  0
DIMSTYLE
105
5ACB
102
{ACAD_REACTORS
330
31B1
330
31BF
330
3213
330
3221
330
324E
330
397F
330
33FC
330
33EE
330
32F1
330
317B
330
316D
330
32FF
330
5874
330
5883
330
5891
330
5941
102
}
330
9
100
AcDbSymbolTableRecord
100
AcDbDimStyleTableRecord
  2
BASIC 2XSCALE$0
 70
     0
 40
0.5
 41
0.1875
 44
0.125
 78
     4
 79
     3
140
0.125
141
0.0
147
0.0625
179
     2
271
     3
272
     3
284
    12
340
17
  0
ENDTAB
  0
TABLE
  2
BLOCK_RECORD
  5
1
330
0
100
AcDbSymbolTable
 70
    33
  0
BLOCK_RECORD
  5
A
102
{ACAD_XDICTIONARY
360
3BCC
102
}
330
1
100
AcDbSymbolTableRecord
100
AcDbBlockTableRecord
  2
*MODEL_SPACE
340
1673
 70
     0
280
     1
281
     0
  0
BLOCK_RECORD
  5
B
102
{ACAD_XDICTIONARY
360
3BCE
102
}
330
1
100
AcDbSymbolTableRecord
100
AcDbBlockTableRecord
  2
*PAPER_SPACE
340
1674
 70
     0
280
     1
281
     0
  0
BLOCK_RECORD
  5
316E
330
1
100
AcDbSymbolTableRecord
100
AcDbBlockTableRecord
  2
*D0
340
0
 70
     0
280
     1
281
     0
  0
BLOCK_RECORD
  5
317C
330
1
100
AcDbSymbolTableRecord
100
AcDbBlockTableRecord
  2
*D1
340
0
 70
     0
280
     1
281
     0
  0
BLOCK_RECORD
  5
31B2
330
1
100
AcDbSymbolTableRecord
100
AcDbBlockTableRecord
  2
*D2
340
0
 70
     0
280
     1
281
     0
  0
BLOCK_RECORD
  5
31C0
330
1
100
AcDbSymbolTableRecord
100
AcDbBlockTableRecord
  2
*D3
340
0
 70
     0
280
     1
281
     0
  0
BLOCK_RECORD
  5
3202
330
1
100
AcDbSymbolTableRecord
100
AcDbBlockTableRecord
  2
*D4
340
0
 70
     0
280
     1
281
     0
  0
BLOCK_RECORD
  5
3214
330
1
100
AcDbSymbolTableRecord
100
AcDbBlockTableRecord
  2
*D5
340
0
 70
     0
280
     1
281
     0
  0
BLOCK_RECORD
  5
3222
330
1
100
AcDbSymbolTableRecord
100
AcDbBlockTableRecord
  2
*D6
340
0
 70
     0
280
     1
281
     0
  0
BLOCK_RECORD
  5
324F
330
1
100
AcDbSymbolTableRecord
100
AcDbBlockTableRecord
  2
*D7
340
0
 70
     0
280
     1
281
     0
  0
BLOCK_RECORD
  5
32D0
330
1
100
AcDbSymbolTableRecord
100
AcDbBlockTableRecord
  2
*D8
340
0
 70
     0
280
     1
281
     0
  0
BLOCK_RECORD
  5
32F2
330
1
100
AcDbSymbolTableRecord
100
AcDbBlockTableRecord
  2
*D9
340
0
 70
     0
280
     1
281
     0
  0
BLOCK_RECORD
  5
3300
330
1
100
AcDbSymbolTableRecord
100
AcDbBlockTableRecord
  2
*D10
340
0
 70
     0
280
     1
281
     0
  0
BLOCK_RECORD
  5
3382
330
1
100
AcDbSymbolTableRecord
100
AcDbBlockTableRecord
  2
*D11
340
0
 70
     0
280
     1
281
     0
  0
BLOCK_RECORD
  5
33EF
330
1
100
AcDbSymbolTableRecord
100
AcDbBlockTableRecord
  2
*D12
340
0
 70
     0
280
     1
281
     0
  0
BLOCK_RECORD
  5
33FD
330
1
100
AcDbSymbolTableRecord
100
AcDbBlockTableRecord
  2
*D13
340
0
 70
     0
280
     1
281
     0
  0
BLOCK_RECORD
  5
340C
330
1
100
AcDbSymbolTableRecord
100
AcDbBlockTableRecord
  2
*D14
340
0
 70
     0
280
     1
281
     0
  0
BLOCK_RECORD
  5
3518
330
1
100
AcDbSymbolTableRecord
100
AcDbBlockTableRecord
  2
*D15
340
0
 70
     0
280
     1
281
     0
  0
BLOCK_RECORD
  5
3530
330
1
100
AcDbSymbolTableRecord
100
AcDbBlockTableRecord
  2
*D16
340
0
 70
     0
280
     1
281
     0
  0
BLOCK_RECORD
  5
354A
330
1
100
AcDbSymbolTableRecord
100
AcDbBlockTableRecord
  2
*D17
340
0
 70
     0
280
     1
281
     0
  0
BLOCK_RECORD
  5
3589
330
1
100
AcDbSymbolTableRecord
100
AcDbBlockTableRecord
  2
*D18
340
0
 70
     0
280
     1
281
     0
  0
BLOCK_RECORD
  5
35D6
330
1
100
AcDbSymbolTableRecord
100
AcDbBlockTableRecord
  2
*D19
340
0
 70
     0
280
     1
281
     0
  0
BLOCK_RECORD
  5
35F4
330
1
100
AcDbSymbolTableRecord
100
AcDbBlockTableRecord
  2
*D20
340
0
 70
     0
280
     1
281
     0
  0
BLOCK_RECORD
  5
3980
330
1
100
AcDbSymbolTableRecord
100
AcDbBlockTableRecord
  2
*D21
340
0
 70
     0
280
     1
281
     0
  0
BLOCK_RECORD
  5
39D2
330
1
100
AcDbSymbolTableRecord
100
AcDbBlockTableRecord
  2
*D22
340
0
 70
     0
280
     1
281
     0
  0
BLOCK_RECORD
  5
5352
330
1
100
AcDbSymbolTableRecord
100
AcDbBlockTableRecord
  2
*X24
340
0
102
{BLKREFS
331
315F
102
}
 70
     0
280
     1
281
     0
  0
BLOCK_RECORD
  5
535C
330
1
100
AcDbSymbolTableRecord
100
AcDbBlockTableRecord
  2
*X25
340
0
102
{BLKREFS
331
3167
102
}
 70
     0
280
     1
281
     0
  0
BLOCK_RECORD
  5
53CB
330
1
100
AcDbSymbolTableRecord
100
AcDbBlockTableRecord
  2
*X26
340
0
102
{BLKREFS
331
3B97
102
}
 70
     0
280
     1
281
     0
  0
BLOCK_RECORD
  5
5875
330
1
100
AcDbSymbolTableRecord
100
AcDbBlockTableRecord
  2
*D27
340
0
 70
     0
280
     1
281
     0
  0
BLOCK_RECORD
  5
5884
330
1
100
AcDbSymbolTableRecord
100
AcDbBlockTableRecord
  2
*D28
340
0
 70
     0
280
     1
281
     0
  0
BLOCK_RECORD
  5
5892
330
1
100
AcDbSymbolTableRecord
100
AcDbBlockTableRecord
  2
*D29
340
0
 70
     0
280
     1
281
     0
  0
BLOCK_RECORD
  5
5942
330
1
100
AcDbSymbolTableRecord
100
AcDbBlockTableRecord
  2
*D30
340
0
 70
     0
280
     1
281
     0
  0
BLOCK_RECORD
  5
5A7C
330
1
100
AcDbSymbolTableRecord
100
AcDbBlockTableRecord
  2
*U31
340
0
 70
     0
280
     1
281
     0
  0
BLOCK_RECORD
  5
5ABA
330
1
100
AcDbSymbolTableRecord
100
AcDbBlockTableRecord
  2
GENAXEH
340
0
 70
     0
280
     1
281
     0
  0
ENDTAB
  0
ENDSEC
  0
SECTION
  2
BLOCKS
  0
BLOCK
  5
D
330
A
100
AcDbEntity
  8
0
100
AcDbBlockBegin
  2
*MODEL_SPACE
 70
     0
 10
0.0
 20
0.0
 30
0.0
  3
*MODEL_SPACE
  1

  0
ENDBLK
  5
E
330
A
100
AcDbEntity
  8
0
100
AcDbBlockEnd
  0
BLOCK
  5
F
330
B
100
AcDbEntity
 67
     1
  8
0
100
AcDbBlockBegin
  2
*PAPER_SPACE
 70
     0
 10
0.0
 20
0.0
 30
0.0
  3
*PAPER_SPACE
  1

  0
ENDBLK
  5
10
330
B
100
AcDbEntity
 67
     1
  8
0
100
AcDbBlockEnd
  0
BLOCK
  5
3179
330
316E
100
AcDbEntity
  8
0
100
AcDbBlockBegin
  2
*D0
 70
     1
 10
0.0
 20
0.0
 30
0.0
  3
*D0
  1

  0
LINE
  5
58E5
330
316E
100
AcDbEntity
  8
DIM
  6
Continuous
 62
     0
440
 16777216
370
    -2
100
AcDbLine
 10
7.329096373912359
 20
2.488338686497252
 30
0.0
 11
7.329096373912359
 21
2.008952457104276
 31
0.0
  0
LINE
  5
58E6
330
316E
100
AcDbEntity
  8
DIM
  6
Continuous
 62
     0
440
 16777216
370
    -2
100
AcDbLine
 10
7.829096367869762
 20
2.463607886979513
 30
0.0
 11
7.829096367869762
 21
2.008952457104276
 31
0.0
  0
LINE
  5
58E7
330
316E
100
AcDbEntity
  8
DIM
  6
Continuous
 62
     0
440
 16777216
370
    -2
100
AcDbLine
 10
7.422846373912359
 20
2.071452457104276
 30
0.0
 11
7.482179835800876
 21
2.071452457104276
 31
0.0
  0
LINE
  5
58E8
330
316E
100
AcDbEntity
  8
DIM
  6
Continuous
 62
     0
440
 16777216
370
    -2
100
AcDbLine
 10
7.735346367869762
 20
2.071452457104276
 30
0.0
 11
7.672656026277066
 21
2.071452457104276
 31
0.0
  0
SOLID
  5
58E9
330
316E
100
AcDbEntity
  8
DIM
  6
Continuous
 62
     0
440
 16777216
100
AcDbTrace
 10
7.422846373912359
 20
2.087077457104276
 30
0.0
 11
7.422846373912359
 21
2.055827457104276
 31
0.0
 12
7.329096373912359
 22
2.071452457104276
 32
0.0
 13
7.329096373912359
 23
2.071452457104276
 33
0.0
  0
SOLID
  5
58EA
330
316E
100
AcDbEntity
  8
DIM
  6
Continuous
 62
     0
440
 16777216
100
AcDbTrace
 10
7.735346367869762
 20
2.087077457104276
 30
0.0
 11
7.735346367869762
 21
2.055827457104276
 31
0.0
 12
7.829096367869762
 22
2.071452457104276
 32
0.0
 13
7.829096367869762
 23
2.071452457104276
 33
0.0
  0
MTEXT
  5
58EB
330
316E
100
AcDbEntity
  8
DIM
  6
Continuous
 62
     0
440
 16777216
100
AcDbMText
 10
7.577417931038971
 20
2.071452457104276
 30
0.0
 40
0.0625
 41
0.0
 46
0.0
 71
     5
 72
     1
  1
\A1;.50
 73
     1
 44
1.0
  0
POINT
  5
58EC
330
316E
100
AcDbEntity
  8
DEFPOINTS
  6
Continuous
 62
     0
440
 16777216
100
AcDbPoint
 10
7.329096373912359
 20
2.519588686497252
 30
0.0
  0
POINT
  5
58ED
330
316E
100
AcDbEntity
  8
DEFPOINTS
  6
Continuous
 62
     0
440
 16777216
100
AcDbPoint
 10
7.829096367869762
 20
2.494857886979513
 30
0.0
  0
POINT
  5
58EE
330
316E
100
AcDbEntity
  8
DEFPOINTS
  6
Continuous
 62
     0
440
 16777216
100
AcDbPoint
 10
7.829096367869762
 20
2.071452457104276
 30
0.0
  0
ENDBLK
  5
317A
330
316E
100
AcDbEntity
  8
0
100
AcDbBlockEnd
  0
BLOCK
  5
3187
330
317C
100
AcDbEntity
  8
0
100
AcDbBlockBegin
  2
*D1
 70
     1
 10
0.0
 20
0.0
 30
0.0
  3
*D1
  1

  0
LINE
  5
58DB
330
317C
100
AcDbEntity
  8
DIM
  6
Continuous
 62
     0
440
 16777216
370
    -2
100
AcDbLine
 10
7.735346378546974
 20
2.369857897656721
 30
0.0
 11
8.110356606747062
 21
2.369857897656721
 31
0.0
  0
LINE
  5
58DC
330
317C
100
AcDbEntity
  8
DIM
  6
Continuous
 62
     0
440
 16777216
370
    -2
100
AcDbLine
 10
7.668715572986637
 20
2.827957885571528
 30
0.0
 11
8.110356606747062
 21
2.827957885571528
 31
0.0
  0
LINE
  5
58DD
330
317C
100
AcDbEntity
  8
DIM
  6
Continuous
 62
     0
440
 16777216
370
    -2
100
AcDbLine
 10
8.047856606747062
 20
2.463607897656721
 30
0.0
 11
8.047856606747062
 21
2.536407891614123
 31
0.0
  0
LINE
  5
58DE
330
317C
100
AcDbEntity
  8
DIM
  6
Continuous
 62
     0
440
 16777216
370
    -2
100
AcDbLine
 10
8.047856606747062
 20
2.734207885571528
 30
0.0
 11
8.047856606747062
 21
2.661407891614123
 31
0.0
  0
SOLID
  5
58DF
330
317C
100
AcDbEntity
  8
DIM
  6
Continuous
 62
     0
440
 16777216
100
AcDbTrace
 10
8.032231606747062
 20
2.463607897656721
 30
0.0
 11
8.063481606747062
 21
2.463607897656721
 31
0.0
 12
8.047856606747062
 22
2.369857897656721
 32
0.0
 13
8.047856606747062
 23
2.369857897656721
 33
0.0
  0
SOLID
  5
58E0
330
317C
100
AcDbEntity
  8
DIM
  6
Continuous
 62
     0
440
 16777216
100
AcDbTrace
 10
8.032231606747062
 20
2.734207885571528
 30
0.0
 11
8.063481606747062
 21
2.734207885571528
 31
0.0
 12
8.047856606747062
 22
2.827957885571528
 32
0.0
 13
8.047856606747062
 23
2.827957885571528
 33
0.0
  0
MTEXT
  5
58E1
330
317C
100
AcDbEntity
  8
DIM
  6
Continuous
 62
     0
440
 16777216
100
AcDbMText
 10
8.047856606747062
 20
2.598907891614125
 30
0.0
 40
0.0625
 41
0.0
 46
0.0
 71
     5
 72
     1
  1
\A1;.46
 73
     1
 44
1.0
  0
POINT
  5
58E2
330
317C
100
AcDbEntity
  8
DEFPOINTS
  6
Continuous
 62
     0
440
 16777216
100
AcDbPoint
 10
7.704096378546974
 20
2.369857897656721
 30
0.0
  0
POINT
  5
58E3
330
317C
100
AcDbEntity
  8
DEFPOINTS
  6
Continuous
 62
     0
440
 16777216
100
AcDbPoint
 10
7.637465572986637
 20
2.827957885571528
 30
0.0
  0
POINT
  5
58E4
330
317C
100
AcDbEntity
  8
DEFPOINTS
  6
Continuous
 62
     0
440
 16777216
100
AcDbPoint
 10
8.047856606747062
 20
2.827957885571528
 30
0.0
  0
ENDBLK
  5
3188
330
317C
100
AcDbEntity
  8
0
100
AcDbBlockEnd
  0
BLOCK
  5
31BD
330
31B2
100
AcDbEntity
  8
0
100
AcDbBlockBegin
  2
*D2
 70
     1
 10
0.0
 20
0.0
 30
0.0
  3
*D2
  1

  0
LINE
  5
54D2
330
31B2
100
AcDbEntity
  8
DIM
  6
Continuous
 62
     0
440
 16777216
370
    -2
100
AcDbLine
 10
0.1780926488654928
 20
3.36985788555071
 30
0.0
 11
-0.4247867546067192
 21
3.36985788555071
 31
0.0
  0
LINE
  5
54D3
330
31B2
100
AcDbEntity
  8
DIM
  6
Continuous
 62
     0
440
 16777216
370
    -2
100
AcDbLine
 10
0.0040113106690272
 20
2.827957885571528
 30
0.0
 11
-0.4247867546067193
 21
2.827957885571528
 31
0.0
  0
LINE
  5
54D4
330
31B2
100
AcDbEntity
  8
DIM
  6
Continuous
 62
     0
440
 16777216
370
    -2
100
AcDbLine
 10
-0.3622867546067191
 20
3.27610788555071
 30
0.0
 11
-0.3622867546067192
 21
3.12207674670923
 31
0.0
  0
LINE
  5
54D5
330
31B2
100
AcDbEntity
  8
DIM
  6
Continuous
 62
     0
440
 16777216
370
    -2
100
AcDbLine
 10
-0.3622867546067192
 20
2.921707885571528
 30
0.0
 11
-0.3622867546067192
 21
2.99707674670923
 31
0.0
  0
SOLID
  5
54D6
330
31B2
100
AcDbEntity
  8
DIM
  6
Continuous
 62
     0
440
 16777216
100
AcDbTrace
 10
-0.3779117546067191
 20
3.27610788555071
 30
0.0
 11
-0.3466617546067191
 21
3.27610788555071
 31
0.0
 12
-0.3622867546067191
 22
3.36985788555071
 32
0.0
 13
-0.3622867546067191
 23
3.36985788555071
 33
0.0
  0
SOLID
  5
54D7
330
31B2
100
AcDbEntity
  8
DIM
  6
Continuous
 62
     0
440
 16777216
100
AcDbTrace
 10
-0.3779117546067192
 20
2.921707885571528
 30
0.0
 11
-0.3466617546067192
 21
2.921707885571528
 31
0.0
 12
-0.3622867546067192
 22
2.827957885571528
 32
0.0
 13
-0.3622867546067192
 23
2.827957885571528
 33
0.0
  0
MTEXT
  5
54D8
330
31B2
100
AcDbEntity
  8
DIM
  6
Continuous
 62
     0
440
 16777216
100
AcDbMText
 10
-0.3622867546067197
 20
3.05957674670923
 30
0.0
 40
0.0625
 41
0.0
 46
0.0
 71
     5
 72
     1
  1
\A1;.562
 73
     1
 44
1.0
  0
POINT
  5
54D9
330
31B2
100
AcDbEntity
  8
DEFPOINTS
  6
Continuous
 62
     0
440
 16777216
100
AcDbPoint
 10
0.2093426488654928
 20
3.36985788555071
 30
0.0
  0
POINT
  5
54DA
330
31B2
100
AcDbEntity
  8
DEFPOINTS
  6
Continuous
 62
     0
440
 16777216
100
AcDbPoint
 10
0.0352613106690272
 20
2.827957885571528
 30
0.0
  0
POINT
  5
54DB
330
31B2
100
AcDbEntity
  8
DEFPOINTS
  6
Continuous
 62
     0
440
 16777216
100
AcDbPoint
 10
-0.3622867546067192
 20
2.827957885571528
 30
0.0
  0
ENDBLK
  5
31BE
330
31B2
100
AcDbEntity
  8
0
100
AcDbBlockEnd
  0
BLOCK
  5
31CB
330
31C0
100
AcDbEntity
  8
0
100
AcDbBlockBegin
  2
*D3
 70
     1
 10
0.0
 20
0.0
 30
0.0
  3
*D3
  1

  0
LINE
  5
590D
330
31C0
100
AcDbEntity
  8
DIM
  6
Continuous
 62
     0
440
 16777216
370
    -2
100
AcDbLine
 10
0.178092648865493
 20
3.519857879838748
 30
0.0
 11
-0.6869023509550197
 21
3.519857879838748
 31
0.0
  0
LINE
  5
590E
330
31C0
100
AcDbEntity
  8
DIM
  6
Continuous
 62
     0
440
 16777216
370
    -2
100
AcDbLine
 10
0.0040113106690272
 20
2.827957885571528
 30
0.0
 11
-0.6869023509550198
 21
2.827957885571528
 31
0.0
  0
LINE
  5
590F
330
31C0
100
AcDbEntity
  8
DIM
  6
Continuous
 62
     0
440
 16777216
370
    -2
100
AcDbLine
 10
-0.6244023509550197
 20
3.426107879838748
 30
0.0
 11
-0.6244023509550198
 21
3.236407882705139
 31
0.0
  0
LINE
  5
5910
330
31C0
100
AcDbEntity
  8
DIM
  6
Continuous
 62
     0
440
 16777216
370
    -2
100
AcDbLine
 10
-0.6244023509550198
 20
2.921707885571528
 30
0.0
 11
-0.6244023509550198
 21
3.111407882705139
 31
0.0
  0
SOLID
  5
5911
330
31C0
100
AcDbEntity
  8
DIM
  6
Continuous
 62
     0
440
 16777216
100
AcDbTrace
 10
-0.6400273509550197
 20
3.426107879838748
 30
0.0
 11
-0.6087773509550197
 21
3.426107879838748
 31
0.0
 12
-0.6244023509550197
 22
3.519857879838748
 32
0.0
 13
-0.6244023509550197
 23
3.519857879838748
 33
0.0
  0
SOLID
  5
5912
330
31C0
100
AcDbEntity
  8
DIM
  6
Continuous
 62
     0
440
 16777216
100
AcDbTrace
 10
-0.6400273509550198
 20
2.921707885571528
 30
0.0
 11
-0.6087773509550198
 21
2.921707885571528
 31
0.0
 12
-0.6244023509550198
 22
2.827957885571528
 32
0.0
 13
-0.6244023509550198
 23
2.827957885571528
 33
0.0
  0
MTEXT
  5
5913
330
31C0
100
AcDbEntity
  8
DIM
  6
Continuous
 62
     0
440
 16777216
100
AcDbMText
 10
-0.6244023509550204
 20
3.173907882705139
 30
0.0
 40
0.0625
 41
0.0
 46
0.0
 71
     5
 72
     1
  1
\A1;.69
 73
     1
 44
1.0
  0
POINT
  5
5914
330
31C0
100
AcDbEntity
  8
DEFPOINTS
  6
Continuous
 62
     0
440
 16777216
100
AcDbPoint
 10
0.209342648865493
 20
3.519857879838748
 30
0.0
  0
POINT
  5
5915
330
31C0
100
AcDbEntity
  8
DEFPOINTS
  6
Continuous
 62
     0
440
 16777216
100
AcDbPoint
 10
0.0352613106690272
 20
2.827957885571528
 30
0.0
  0
POINT
  5
5916
330
31C0
100
AcDbEntity
  8
DEFPOINTS
  6
Continuous
 62
     0
440
 16777216
100
AcDbPoint
 10
-0.6244023509550198
 20
2.827957885571528
 30
0.0
  0
ENDBLK
  5
31CC
330
31C0
100
AcDbEntity
  8
0
100
AcDbBlockEnd
  0
BLOCK
  5
3211
330
3202
100
AcDbEntity
  8
0
100
AcDbBlockBegin
  2
*D4
 70
     1
 10
0.0
 20
0.0
 30
0.0
  3
*D4
  1

  0
LINE
  5
5363
330
3202
100
AcDbEntity
  8
DIM
  6
Continuous
 62
     0
440
 16777216
100
AcDbLine
 10
0.1700145203603642
 20
3.519857879838748
 30
0.0
 11
-0.5637909306347769
 21
3.519857879838737
 31
0.0
  0
LINE
  5
5364
330
3202
100
AcDbEntity
  8
DIM
  6
Continuous
 62
     0
440
 16777216
100
AcDbLine
 10
-0.0429352973220804
 20
3.511048149713981
 30
0.0
 11
-0.5633199596031301
 21
3.492875937259247
 31
0.0
  0
ARC
  5
5365
330
3202
100
AcDbEntity
  8
DIM
  6
Continuous
 62
     0
440
 16777216
100
AcDbCircle
 10
0.2093426488654783
 20
3.519857879838748
 30
0.0
 40
0.7106335795002554
100
AcDbArc
 50
164.8383647064729
 51
180.0000000000009
  0
LINE
  5
5366
330
3202
100
AcDbEntity
  8
DIM
  6
Continuous
 62
     0
440
 16777216
100
AcDbLine
 10
-0.4765550815177684
 20
3.70571908549624
 30
0.0
 11
-0.5703050815177684
 21
3.70571908549624
 31
0.0
  0
ARC
  5
5367
330
3202
100
AcDbEntity
  8
DIM
  6
Continuous
 62
     0
440
 16777216
100
AcDbCircle
 10
0.2093426488654783
 20
3.519857879838748
 30
0.0
 40
0.7106335795002554
100
AcDbArc
 50
164.8715783580032
 51
172.435789179002
  0
ARC
  5
5368
330
3202
100
AcDbEntity
  8
DIM
  6
Continuous
 62
     0
440
 16777216
100
AcDbCircle
 10
0.2093426488654783
 20
3.519857879838748
 30
0.0
 40
0.7106335795002554
100
AcDbArc
 50
189.5642085794174
 51
197.1284194004162
  0
SOLID
  5
5369
330
3202
100
AcDbEntity
  8
DIM
  6
Continuous
 62
     0
440
 16777216
100
AcDbTrace
 10
-0.4795159977577291
 20
3.612373043045641
 30
0.0
 11
-0.5106979389533221
 21
3.614434363805392
 31
0.0
 12
-0.5012909306347769
 22
3.519857879838738
 32
0.0
 13
-0.5012909306347769
 23
3.519857879838738
 33
0.0
  0
SOLID
  5
536A
330
3202
100
AcDbEntity
  8
DIM
  6
Continuous
 62
     0
440
 16777216
100
AcDbTrace
 10
-0.506958642672721
 20
3.400209983214344
 30
0.0
 11
-0.4758676356070834
 21
3.403358281110744
 31
0.0
 12
-0.5008580328291009
 22
3.495057153359457
 32
0.0
 13
-0.5008580328291009
 23
3.495057153359457
 33
0.0
  0
MTEXT
  5
536B
330
3202
100
AcDbEntity
  8
DIM
  6
Continuous
 62
     0
440
 16777216
100
AcDbMText
 10
-0.6342931767558638
 20
3.70571908549624
 30
0.0
 40
0.0625
 41
0.0
 46
0.0
 71
     5
 72
     5
  1
\A1;2°
 73
     1
 44
1.0
  0
POINT
  5
536C
330
3202
100
AcDbEntity
  8
DEFPOINTS
  6
Continuous
 62
     0
440
 16777216
100
AcDbPoint
 10
-0.5010985207562401
 20
3.503322196609129
 30
0.0
  0
POINT
  5
536D
330
3202
100
AcDbEntity
  8
DEFPOINTS
  6
Continuous
 62
     0
440
 16777216
100
AcDbPoint
 10
0.209342648865493
 20
3.519857879838748
 30
0.0
  0
POINT
  5
536E
330
3202
100
AcDbEntity
  8
DEFPOINTS
  6
Continuous
 62
     0
440
 16777216
100
AcDbPoint
 10
0.1803896362700337
 20
3.51884681949392
 30
0.0
  0
POINT
  5
536F
330
3202
100
AcDbEntity
  8
DEFPOINTS
  6
Continuous
 62
     0
440
 16777216
100
AcDbPoint
 10
-0.0117043339350658
 20
3.512138757764086
 30
0.0
  0
POINT
  5
5370
330
3202
100
AcDbEntity
  8
DEFPOINTS
  6
Continuous
 62
     0
440
 16777216
100
AcDbPoint
 10
0.2012645203603642
 20
3.519857879838748
 30
0.0
  0
ENDBLK
  5
3212
330
3202
100
AcDbEntity
  8
0
100
AcDbBlockEnd
  0
BLOCK
  5
321F
330
3214
100
AcDbEntity
  8
0
100
AcDbBlockBegin
  2
*D5
 70
     1
 10
0.0
 20
0.0
 30
0.0
  3
*D5
  1

  0
LINE
  5
54F8
330
3214
100
AcDbEntity
  8
DIM
  6
Continuous
 62
     0
440
 16777216
370
    -2
100
AcDbLine
 10
2.401275843734905
 20
2.827957885571528
 30
0.0
 11
1.700407518795236
 21
2.827957885571528
 31
0.0
  0
LINE
  5
54F9
330
3214
100
AcDbEntity
  8
DIM
  6
Continuous
 62
     0
440
 16777216
370
    -2
100
AcDbLine
 10
2.355675843734905
 20
3.892857885571528
 30
0.0
 11
1.700407518795236
 21
3.892857885571528
 31
0.0
  0
LINE
  5
54FA
330
3214
100
AcDbEntity
  8
DIM
  6
Continuous
 62
     0
440
 16777216
370
    -2
100
AcDbLine
 10
1.762907518795236
 20
2.921707885571528
 30
0.0
 11
1.762907518795236
 21
3.297907885571528
 31
0.0
  0
LINE
  5
54FB
330
3214
100
AcDbEntity
  8
DIM
  6
Continuous
 62
     0
440
 16777216
370
    -2
100
AcDbLine
 10
1.762907518795236
 20
3.799107885571528
 30
0.0
 11
1.762907518795236
 21
3.422907885571528
 31
0.0
  0
SOLID
  5
54FC
330
3214
100
AcDbEntity
  8
DIM
  6
Continuous
 62
     0
440
 16777216
100
AcDbTrace
 10
1.747282518795236
 20
2.921707885571528
 30
0.0
 11
1.778532518795236
 21
2.921707885571528
 31
0.0
 12
1.762907518795236
 22
2.827957885571528
 32
0.0
 13
1.762907518795236
 23
2.827957885571528
 33
0.0
  0
SOLID
  5
54FD
330
3214
100
AcDbEntity
  8
DIM
  6
Continuous
 62
     0
440
 16777216
100
AcDbTrace
 10
1.747282518795236
 20
3.799107885571528
 30
0.0
 11
1.778532518795236
 21
3.799107885571528
 31
0.0
 12
1.762907518795236
 22
3.892857885571528
 32
0.0
 13
1.762907518795236
 23
3.892857885571528
 33
0.0
  0
MTEXT
  5
54FE
330
3214
100
AcDbEntity
  8
DIM
  6
Continuous
 62
     0
440
 16777216
100
AcDbMText
 10
1.762907518795235
 20
3.360407885571528
 30
0.0
 40
0.0625
 41
0.0
 46
0.0
 71
     5
 72
     1
  1
\A1;1.065
 73
     1
 44
1.0
  0
POINT
  5
54FF
330
3214
100
AcDbEntity
  8
DEFPOINTS
  6
Continuous
 62
     0
440
 16777216
100
AcDbPoint
 10
2.432525843734905
 20
2.827957885571528
 30
0.0
  0
POINT
  5
5500
330
3214
100
AcDbEntity
  8
DEFPOINTS
  6
Continuous
 62
     0
440
 16777216
100
AcDbPoint
 10
2.386925843734905
 20
3.892857885571528
 30
0.0
  0
POINT
  5
5501
330
3214
100
AcDbEntity
  8
DEFPOINTS
  6
Continuous
 62
     0
440
 16777216
100
AcDbPoint
 10
1.762907518795236
 20
3.892857885571528
 30
0.0
  0
ENDBLK
  5
3220
330
3214
100
AcDbEntity
  8
0
100
AcDbBlockEnd
  0
BLOCK
  5
322E
330
3222
100
AcDbEntity
  8
0
100
AcDbBlockBegin
  2
*D6
 70
     1
 10
0.0
 20
0.0
 30
0.0
  3
*D6
  1

  0
LINE
  5
5502
330
3222
100
AcDbEntity
  8
DIM
  6
Continuous
 62
     0
440
 16777216
370
    -2
100
AcDbLine
 10
2.355675843734905
 20
3.892857885571528
 30
0.0
 11
1.700407518795237
 21
3.892857885571528
 31
0.0
  0
LINE
  5
5503
330
3222
100
AcDbEntity
  8
DIM
  6
Continuous
 62
     0
440
 16777216
370
    -2
100
AcDbLine
 10
2.355675843734905
 20
4.082857885571527
 30
0.0
 11
1.700407518795237
 21
4.082857885571528
 31
0.0
  0
LINE
  5
5504
330
3222
100
AcDbEntity
  8
DIM
  6
Continuous
 62
     0
440
 16777216
370
    -2
100
AcDbLine
 10
1.762907518795237
 20
3.799107885571528
 30
0.0
 11
1.762907518795237
 21
3.705357885571528
 31
0.0
  0
LINE
  5
5505
330
3222
100
AcDbEntity
  8
DIM
  6
Continuous
 62
     0
440
 16777216
370
    -2
100
AcDbLine
 10
1.762907518795237
 20
4.176607885571528
 30
0.0
 11
1.762907518795237
 21
4.270357885571528
 31
0.0
  0
SOLID
  5
5506
330
3222
100
AcDbEntity
  8
DIM
  6
Continuous
 62
     0
440
 16777216
100
AcDbTrace
 10
1.747282518795237
 20
3.799107885571528
 30
0.0
 11
1.778532518795237
 21
3.799107885571528
 31
0.0
 12
1.762907518795237
 22
3.892857885571528
 32
0.0
 13
1.762907518795237
 23
3.892857885571528
 33
0.0
  0
SOLID
  5
5507
330
3222
100
AcDbEntity
  8
DIM
  6
Continuous
 62
     0
440
 16777216
100
AcDbTrace
 10
1.747282518795237
 20
4.176607885571528
 30
0.0
 11
1.778532518795237
 21
4.176607885571528
 31
0.0
 12
1.762907518795237
 22
4.082857885571528
 32
0.0
 13
1.762907518795237
 23
4.082857885571528
 33
0.0
  0
MTEXT
  5
5508
330
3222
100
AcDbEntity
  8
DIM
  6
Continuous
 62
     0
440
 16777216
100
AcDbMText
 10
1.762907518795236
 20
3.987857885571528
 30
0.0
 40
0.0625
 41
0.0
 46
0.0
 71
     5
 72
     1
  1
\A1;.190
 73
     1
 44
1.0
  0
POINT
  5
5509
330
3222
100
AcDbEntity
  8
DEFPOINTS
  6
Continuous
 62
     0
440
 16777216
100
AcDbPoint
 10
2.386925843734905
 20
3.892857885571528
 30
0.0
  0
POINT
  5
550A
330
3222
100
AcDbEntity
  8
DEFPOINTS
  6
Continuous
 62
     0
440
 16777216
100
AcDbPoint
 10
2.386925843734905
 20
4.082857885571527
 30
0.0
  0
POINT
  5
550B
330
3222
100
AcDbEntity
  8
DEFPOINTS
  6
Continuous
 62
     0
440
 16777216
100
AcDbPoint
 10
1.762907518795237
 20
4.082857885571528
 30
0.0
  0
ENDBLK
  5
322F
330
3222
100
AcDbEntity
  8
0
100
AcDbBlockEnd
  0
BLOCK
  5
325A
330
324F
100
AcDbEntity
  8
0
100
AcDbBlockBegin
  2
*D7
 70
     1
 10
0.0
 20
0.0
 30
0.0
  3
*D7
  1

  0
LINE
  5
550C
330
324F
100
AcDbEntity
  8
DIM
  6
Continuous
 62
     0
440
 16777216
370
    -2
100
AcDbLine
 10
2.446925843734904
 20
4.114107885571528
 30
0.0
 11
2.446925843734904
 21
4.622690234854136
 31
0.0
  0
LINE
  5
550D
330
324F
100
AcDbEntity
  8
DIM
  6
Continuous
 62
     0
440
 16777216
370
    -2
100
AcDbLine
 10
2.756925841495037
 20
4.114107915601005
 30
0.0
 11
2.756925841495037
 21
4.622690234854136
 31
0.0
  0
LINE
  5
550E
330
324F
100
AcDbEntity
  8
DIM
  6
Continuous
 62
     0
440
 16777216
370
    -2
100
AcDbLine
 10
2.540675843734904
 20
4.560190234854136
 30
0.0
 11
2.663175841495037
 21
4.560190234854136
 31
0.0
  0
LINE
  5
550F
330
324F
100
AcDbEntity
  8
DIM
  6
Continuous
 62
     0
440
 16777216
370
    -2
100
AcDbLine
 10
2.756925841495037
 20
4.560190234854136
 30
0.0
 11
2.944425841495037
 21
4.560190234854136
 31
0.0
  0
SOLID
  5
5510
330
324F
100
AcDbEntity
  8
DIM
  6
Continuous
 62
     0
440
 16777216
100
AcDbTrace
 10
2.540675843734904
 20
4.575815234854136
 30
0.0
 11
2.540675843734904
 21
4.544565234854136
 31
0.0
 12
2.446925843734904
 22
4.560190234854136
 32
0.0
 13
2.446925843734904
 23
4.560190234854136
 33
0.0
  0
SOLID
  5
5511
330
324F
100
AcDbEntity
  8
DIM
  6
Continuous
 62
     0
440
 16777216
100
AcDbTrace
 10
2.663175841495037
 20
4.575815234854136
 30
0.0
 11
2.663175841495037
 21
4.544565234854136
 31
0.0
 12
2.756925841495037
 22
4.560190234854136
 32
0.0
 13
2.756925841495037
 23
4.560190234854136
 33
0.0
  0
MTEXT
  5
5512
330
324F
100
AcDbEntity
  8
DIM
  6
Continuous
 62
     0
440
 16777216
100
AcDbMText
 10
3.215259174828371
 20
4.560190234854136
 30
0.0
 40
0.0625
 41
0.0
 46
0.0
 71
     5
 72
     1
  1
\A1;\P.310 SLOT\PCENT.
 73
     1
 44
1.0
  0
POINT
  5
5513
330
324F
100
AcDbEntity
  8
DEFPOINTS
  6
Continuous
 62
     0
440
 16777216
100
AcDbPoint
 10
2.446925843734904
 20
4.082857885571528
 30
0.0
  0
POINT
  5
5514
330
324F
100
AcDbEntity
  8
DEFPOINTS
  6
Continuous
 62
     0
440
 16777216
100
AcDbPoint
 10
2.756925841495037
 20
4.082857915601005
 30
0.0
  0
POINT
  5
5515
330
324F
100
AcDbEntity
  8
DEFPOINTS
  6
Continuous
 62
     0
440
 16777216
100
AcDbPoint
 10
2.756925841495037
 20
4.560190234854136
 30
0.0
  0
ENDBLK
  5
325B
330
324F
100
AcDbEntity
  8
0
100
AcDbBlockEnd
  0
BLOCK
  5
32D7
330
32D0
100
AcDbEntity
  8
0
100
AcDbBlockBegin
  2
*D8
 70
     1
 10
0.0
 20
0.0
 30
0.0
  3
*D8
  1

  0
LINE
  5
48FA
330
32D0
100
AcDbEntity
  8
DIM
  6
Continuous
 62
     0
440
 16777216
370
    -2
100
AcDbLine
 10
7.830938822776303
 20
4.42307841095004
 30
0.0
 11
7.996058682295881
 21
4.655080775912017
 31
0.0
  0
LINE
  5
48FB
330
32D0
100
AcDbEntity
  8
DIM
  6
Continuous
 62
     0
440
 16777216
370
    -2
100
AcDbLine
 10
7.996058682295881
 20
4.655080775912017
 30
0.0
 11
8.089808682295881
 21
4.655080775912017
 31
0.0
  0
SOLID
  5
48FC
330
32D0
100
AcDbEntity
  8
DIM
  6
Continuous
 62
     0
440
 16777216
100
AcDbTrace
 10
7.818208785249266
 20
4.432138585868893
 30
0.0
 11
7.84366886030334
 21
4.414018236031186
 31
0.0
 12
7.77657777326318
 22
4.346698185787817
 32
0.0
 13
7.77657777326318
 23
4.346698185787817
 33
0.0
  0
MTEXT
  5
48FD
330
32D0
100
AcDbEntity
  8
DIM
  6
Continuous
 62
     0
440
 16777216
100
AcDbMText
 10
8.216296777533976
 20
4.655080775912017
 30
0.0
 40
0.0625
 41
0.0
 46
0.0
 71
     5
 72
     5
  1
\A1;\PR.13\P(4)
 73
     1
 44
1.0
  0
POINT
  5
48FE
330
32D0
100
AcDbEntity
  8
DEFPOINTS
  6
Continuous
 62
     0
440
 16777216
100
AcDbPoint
 10
7.77657777326318
 20
4.346698185787817
 30
0.0
  0
POINT
  5
48FF
330
32D0
100
AcDbEntity
  8
DEFPOINTS
  6
Continuous
 62
     0
440
 16777216
100
AcDbPoint
 10
7.704096373912346
 20
4.244857885571518
 30
0.0
  0
ENDBLK
  5
32D8
330
32D0
100
AcDbEntity
  8
0
100
AcDbBlockEnd
  0
BLOCK
  5
32FD
330
32F2
100
AcDbEntity
  8
0
100
AcDbBlockBegin
  2
*D9
 70
     1
 10
0.0
 20
0.0
 30
0.0
  3
*D9
  1

  0
LINE
  5
58D1
330
32F2
100
AcDbEntity
  8
DIM
  6
Continuous
 62
     0
440
 16777216
370
    -2
100
AcDbLine
 10
7.735346378546974
 20
4.369857873486335
 30
0.0
 11
8.3056330597361
 21
4.369857873486335
 31
0.0
  0
LINE
  5
58D2
330
32F2
100
AcDbEntity
  8
DIM
  6
Continuous
 62
     0
440
 16777216
370
    -2
100
AcDbLine
 10
7.735346378546974
 20
2.369857897656721
 30
0.0
 11
8.305633059736098
 21
2.369857897656721
 31
0.0
  0
LINE
  5
58D3
330
32F2
100
AcDbEntity
  8
DIM
  6
Continuous
 62
     0
440
 16777216
370
    -2
100
AcDbLine
 10
8.2431330597361
 20
4.276107873486335
 30
0.0
 11
8.243133059736098
 21
3.432357885571527
 31
0.0
  0
LINE
  5
58D4
330
32F2
100
AcDbEntity
  8
DIM
  6
Continuous
 62
     0
440
 16777216
370
    -2
100
AcDbLine
 10
8.243133059736098
 20
2.463607897656721
 30
0.0
 11
8.243133059736098
 21
3.307357885571527
 31
0.0
  0
SOLID
  5
58D5
330
32F2
100
AcDbEntity
  8
DIM
  6
Continuous
 62
     0
440
 16777216
100
AcDbTrace
 10
8.2275080597361
 20
4.276107873486335
 30
0.0
 11
8.2587580597361
 21
4.276107873486335
 31
0.0
 12
8.2431330597361
 22
4.369857873486335
 32
0.0
 13
8.2431330597361
 23
4.369857873486335
 33
0.0
  0
SOLID
  5
58D6
330
32F2
100
AcDbEntity
  8
DIM
  6
Continuous
 62
     0
440
 16777216
100
AcDbTrace
 10
8.227508059736098
 20
2.463607897656721
 30
0.0
 11
8.258758059736098
 21
2.463607897656721
 31
0.0
 12
8.243133059736098
 22
2.369857897656721
 32
0.0
 13
8.243133059736098
 23
2.369857897656721
 33
0.0
  0
MTEXT
  5
58D7
330
32F2
100
AcDbEntity
  8
DIM
  6
Continuous
 62
     0
440
 16777216
100
AcDbMText
 10
8.243133059736098
 20
3.369857885571528
 30
0.0
 40
0.0625
 41
0.0
 46
0.0
 71
     5
 72
     1
  1
\A1;2.00
 73
     1
 44
1.0
  0
POINT
  5
58D8
330
32F2
100
AcDbEntity
  8
DEFPOINTS
  6
Continuous
 62
     0
440
 16777216
100
AcDbPoint
 10
7.704096378546974
 20
4.369857873486335
 30
0.0
  0
POINT
  5
58D9
330
32F2
100
AcDbEntity
  8
DEFPOINTS
  6
Continuous
 62
     0
440
 16777216
100
AcDbPoint
 10
7.704096378546974
 20
2.369857897656721
 30
0.0
  0
POINT
  5
58DA
330
32F2
100
AcDbEntity
  8
DEFPOINTS
  6
Continuous
 62
     0
440
 16777216
100
AcDbPoint
 10
8.243133059736098
 20
2.369857897656721
 30
0.0
  0
ENDBLK
  5
32FE
330
32F2
100
AcDbEntity
  8
0
100
AcDbBlockEnd
  0
BLOCK
  5
330B
330
3300
100
AcDbEntity
  8
0
100
AcDbBlockBegin
  2
*D10
 70
     1
 10
0.0
 20
0.0
 30
0.0
  3
*D10
  1

  0
LINE
  5
58EF
330
3300
100
AcDbEntity
  8
DIM
  6
Continuous
 62
     0
440
 16777216
370
    -2
100
AcDbLine
 10
7.829096367869762
 20
2.463607886979513
 30
0.0
 11
7.829096367869762
 21
1.817368372164811
 31
0.0
  0
LINE
  5
58F0
330
3300
100
AcDbEntity
  8
DIM
  6
Continuous
 62
     0
440
 16777216
370
    -2
100
AcDbLine
 10
6.829096379954957
 20
2.463607886979513
 30
0.0
 11
6.829096379954957
 21
1.817368372164811
 31
0.0
  0
LINE
  5
58F1
330
3300
100
AcDbEntity
  8
DIM
  6
Continuous
 62
     0
440
 16777216
370
    -2
100
AcDbLine
 10
7.735346367869762
 20
1.879868372164811
 30
0.0
 11
7.451120183436168
 21
1.879868372164811
 31
0.0
  0
LINE
  5
58F2
330
3300
100
AcDbEntity
  8
DIM
  6
Continuous
 62
     0
440
 16777216
370
    -2
100
AcDbLine
 10
6.922846379954957
 20
1.879868372164811
 30
0.0
 11
7.20707256438855
 21
1.879868372164811
 31
0.0
  0
SOLID
  5
58F3
330
3300
100
AcDbEntity
  8
DIM
  6
Continuous
 62
     0
440
 16777216
100
AcDbTrace
 10
7.735346367869762
 20
1.895493372164811
 30
0.0
 11
7.735346367869762
 21
1.864243372164811
 31
0.0
 12
7.829096367869762
 22
1.879868372164811
 32
0.0
 13
7.829096367869762
 23
1.879868372164811
 33
0.0
  0
SOLID
  5
58F4
330
3300
100
AcDbEntity
  8
DIM
  6
Continuous
 62
     0
440
 16777216
100
AcDbTrace
 10
6.922846379954957
 20
1.895493372164811
 30
0.0
 11
6.922846379954957
 21
1.864243372164811
 31
0.0
 12
6.829096379954957
 22
1.879868372164811
 32
0.0
 13
6.829096379954957
 23
1.879868372164811
 33
0.0
  0
MTEXT
  5
58F5
330
3300
100
AcDbEntity
  8
DIM
  6
Continuous
 62
     0
440
 16777216
100
AcDbMText
 10
7.329096373912359
 20
1.879868372164811
 30
0.0
 40
0.0625
 41
0.0
 46
0.0
 71
     5
 72
     1
  1
\A1;1.00
 73
     1
 44
1.0
  0
POINT
  5
58F6
330
3300
100
AcDbEntity
  8
DEFPOINTS
  6
Continuous
 62
     0
440
 16777216
100
AcDbPoint
 10
7.829096367869762
 20
2.494857886979513
 30
0.0
  0
POINT
  5
58F7
330
3300
100
AcDbEntity
  8
DEFPOINTS
  6
Continuous
 62
     0
440
 16777216
100
AcDbPoint
 10
6.829096379954957
 20
2.494857886979513
 30
0.0
  0
POINT
  5
58F8
330
3300
100
AcDbEntity
  8
DEFPOINTS
  6
Continuous
 62
     0
440
 16777216
100
AcDbPoint
 10
6.829096379954957
 20
1.879868372164811
 30
0.0
  0
ENDBLK
  5
330C
330
3300
100
AcDbEntity
  8
0
100
AcDbBlockEnd
  0
BLOCK
  5
3389
330
3382
100
AcDbEntity
  8
0
100
AcDbBlockBegin
  2
*D11
 70
     1
 10
0.0
 20
0.0
 30
0.0
  3
*D11
  1

  0
LINE
  5
48B2
330
3382
100
AcDbEntity
  8
DIM
  6
Continuous
 62
     0
440
 16777216
370
    -2
100
AcDbLine
 10
5.104553506643457
 20
2.314731538094392
 30
0.0
 11
5.042556342684967
 21
2.244407899386601
 31
0.0
  0
LINE
  5
48B3
330
3382
100
AcDbEntity
  8
DIM
  6
Continuous
 62
     0
440
 16777216
370
    -2
100
AcDbLine
 10
5.042556342684967
 20
2.244407899386601
 30
0.0
 11
4.948806342684967
 21
2.2444078993866
 31
0.0
  0
SOLID
  5
48B4
330
3382
100
AcDbEntity
  8
DIM
  6
Continuous
 62
     0
440
 16777216
100
AcDbTrace
 10
5.092832900192159
 20
2.325064398754141
 30
0.0
 11
5.116274113094757
 21
2.304398677434644
 31
0.0
 12
5.166550670601949
 22
2.385055176802184
 32
0.0
 13
5.166550670601949
 23
2.385055176802184
 33
0.0
  0
MTEXT
  5
48B5
330
3382
100
AcDbEntity
  8
DIM
  6
Continuous
 62
     0
440
 16777216
100
AcDbMText
 10
4.822318247446871
 20
2.244407899386601
 30
0.0
 40
0.0625
 41
0.0
 46
0.0
 71
     5
 72
     5
  1
\A1;\PR.03\PTYP.
 73
     1
 44
1.0
  0
POINT
  5
48B6
330
3382
100
AcDbEntity
  8
DEFPOINTS
  6
Continuous
 62
     0
440
 16777216
100
AcDbPoint
 10
5.166550670601949
 20
2.385055176802184
 30
0.0
  0
POINT
  5
48B7
330
3382
100
AcDbEntity
  8
DEFPOINTS
  6
Continuous
 62
     0
440
 16777216
100
AcDbPoint
 10
5.186389763068663
 20
2.407558741188674
 30
0.0
  0
ENDBLK
  5
338A
330
3382
100
AcDbEntity
  8
0
100
AcDbBlockEnd
  0
BLOCK
  5
33FA
330
33EF
100
AcDbEntity
  8
0
100
AcDbBlockBegin
  2
*D12
 70
     1
 10
0.0
 20
0.0
 30
0.0
  3
*D12
  1

  0
LINE
  5
5903
330
33EF
100
AcDbEntity
  8
DIM
  6
Continuous
 62
     0
440
 16777216
370
    -2
100
AcDbLine
 10
5.156389763068664
 20
4.36340702995438
 30
0.0
 11
5.156389763068664
 21
4.709419854282532
 31
0.0
  0
LINE
  5
5904
330
33EF
100
AcDbEntity
  8
DIM
  6
Continuous
 62
     0
440
 16777216
370
    -2
100
AcDbLine
 10
5.406389770496904
 20
4.401107873486335
 30
0.0
 11
5.406389770496904
 21
4.709419854282532
 31
0.0
  0
LINE
  5
5905
330
33EF
100
AcDbEntity
  8
DIM
  6
Continuous
 62
     0
440
 16777216
370
    -2
100
AcDbLine
 10
5.062639763068664
 20
4.646919854282532
 30
0.0
 11
4.968889763068664
 21
4.646919854282532
 31
0.0
  0
LINE
  5
5906
330
33EF
100
AcDbEntity
  8
DIM
  6
Continuous
 62
     0
440
 16777216
370
    -2
100
AcDbLine
 10
5.500139770496904
 20
4.646919854282532
 30
0.0
 11
5.593889770496904
 21
4.646919854282532
 31
0.0
  0
SOLID
  5
5907
330
33EF
100
AcDbEntity
  8
DIM
  6
Continuous
 62
     0
440
 16777216
100
AcDbTrace
 10
5.062639763068664
 20
4.662544854282532
 30
0.0
 11
5.062639763068664
 21
4.631294854282532
 31
0.0
 12
5.156389763068664
 22
4.646919854282532
 32
0.0
 13
5.156389763068664
 23
4.646919854282532
 33
0.0
  0
SOLID
  5
5908
330
33EF
100
AcDbEntity
  8
DIM
  6
Continuous
 62
     0
440
 16777216
100
AcDbTrace
 10
5.500139770496904
 20
4.662544854282532
 30
0.0
 11
5.500139770496904
 21
4.631294854282532
 31
0.0
 12
5.406389770496904
 22
4.646919854282532
 32
0.0
 13
5.406389770496904
 23
4.646919854282532
 33
0.0
  0
MTEXT
  5
5909
330
33EF
100
AcDbEntity
  8
DIM
  6
Continuous
 62
     0
440
 16777216
100
AcDbMText
 10
5.273774015916012
 20
4.646919854282532
 30
0.0
 40
0.0625
 41
0.0
 46
0.0
 71
     5
 72
     1
  1
\A1;.25
 73
     1
 44
1.0
  0
POINT
  5
590A
330
33EF
100
AcDbEntity
  8
DEFPOINTS
  6
Continuous
 62
     0
440
 16777216
100
AcDbPoint
 10
5.156389763068664
 20
4.33215702995438
 30
0.0
  0
POINT
  5
590B
330
33EF
100
AcDbEntity
  8
DEFPOINTS
  6
Continuous
 62
     0
440
 16777216
100
AcDbPoint
 10
5.406389770496904
 20
4.369857873486335
 30
0.0
  0
POINT
  5
590C
330
33EF
100
AcDbEntity
  8
DEFPOINTS
  6
Continuous
 62
     0
440
 16777216
100
AcDbPoint
 10
5.406389770496904
 20
4.646919854282532
 30
0.0
  0
ENDBLK
  5
33FB
330
33EF
100
AcDbEntity
  8
0
100
AcDbBlockEnd
  0
BLOCK
  5
3408
330
33FD
100
AcDbEntity
  8
0
100
AcDbBlockBegin
  2
*D13
 70
     1
 10
0.0
 20
0.0
 30
0.0
  3
*D13
  1

  0
LINE
  5
58F9
330
33FD
100
AcDbEntity
  8
DIM
  6
Continuous
 62
     0
440
 16777216
370
    -2
100
AcDbLine
 10
4.90638975820638
 20
3.543269473411624
 30
0.0
 11
4.90638975820638
 21
4.860031008706749
 31
0.0
  0
LINE
  5
58FA
330
33FD
100
AcDbEntity
  8
DIM
  6
Continuous
 62
     0
440
 16777216
370
    -2
100
AcDbLine
 10
5.406389770496904
 20
4.401107873486335
 30
0.0
 11
5.406389770496904
 21
4.860031008706749
 31
0.0
  0
LINE
  5
58FB
330
33FD
100
AcDbEntity
  8
DIM
  6
Continuous
 62
     0
440
 16777216
370
    -2
100
AcDbLine
 10
5.00013975820638
 20
4.797531008706749
 30
0.0
 11
5.061151669113547
 21
4.797531008706749
 31
0.0
  0
LINE
  5
58FC
330
33FD
100
AcDbEntity
  8
DIM
  6
Continuous
 62
     0
440
 16777216
370
    -2
100
AcDbLine
 10
5.312639770496904
 20
4.797531008706749
 30
0.0
 11
5.251627859589737
 21
4.797531008706749
 31
0.0
  0
SOLID
  5
58FD
330
33FD
100
AcDbEntity
  8
DIM
  6
Continuous
 62
     0
440
 16777216
100
AcDbTrace
 10
5.00013975820638
 20
4.813156008706749
 30
0.0
 11
5.00013975820638
 21
4.781906008706749
 31
0.0
 12
4.90638975820638
 22
4.797531008706749
 32
0.0
 13
4.90638975820638
 23
4.797531008706749
 33
0.0
  0
SOLID
  5
58FE
330
33FD
100
AcDbEntity
  8
DIM
  6
Continuous
 62
     0
440
 16777216
100
AcDbTrace
 10
5.312639770496904
 20
4.813156008706749
 30
0.0
 11
5.312639770496904
 21
4.781906008706749
 31
0.0
 12
5.406389770496904
 22
4.797531008706749
 32
0.0
 13
5.406389770496904
 23
4.797531008706749
 33
0.0
  0
MTEXT
  5
58FF
330
33FD
100
AcDbEntity
  8
DIM
  6
Continuous
 62
     0
440
 16777216
100
AcDbMText
 10
5.156389764351642
 20
4.797531008706749
 30
0.0
 40
0.0625
 41
0.0
 46
0.0
 71
     5
 72
     1
  1
\A1;.50
 73
     1
 44
1.0
  0
POINT
  5
5900
330
33FD
100
AcDbEntity
  8
DEFPOINTS
  6
Continuous
 62
     0
440
 16777216
100
AcDbPoint
 10
4.90638975820638
 20
3.512019473411624
 30
0.0
  0
POINT
  5
5901
330
33FD
100
AcDbEntity
  8
DEFPOINTS
  6
Continuous
 62
     0
440
 16777216
100
AcDbPoint
 10
5.406389770496904
 20
4.369857873486335
 30
0.0
  0
POINT
  5
5902
330
33FD
100
AcDbEntity
  8
DEFPOINTS
  6
Continuous
 62
     0
440
 16777216
100
AcDbPoint
 10
5.406389770496904
 20
4.797531008706749
 30
0.0
  0
ENDBLK
  5
3409
330
33FD
100
AcDbEntity
  8
0
100
AcDbBlockEnd
  0
BLOCK
  5
341B
330
340C
100
AcDbEntity
  8
0
100
AcDbBlockBegin
  2
*D14
 70
     1
 10
0.0
 20
0.0
 30
0.0
  3
*D14
  1

  0
LINE
  5
537D
330
340C
100
AcDbEntity
  8
DIM
  6
Continuous
 62
     0
440
 16777216
100
AcDbLine
 10
5.369360251113116
 20
4.369857873486339
 30
0.0
 11
4.68955478926055
 21
4.369857873486425
 31
0.0
  0
LINE
  5
537E
330
340C
100
AcDbEntity
  8
DIM
  6
Continuous
 62
     0
440
 16777216
100
AcDbLine
 10
5.154111814005458
 20
4.361048141031233
 30
0.0
 11
4.689991464979309
 21
4.344840715861179
 31
0.0
  0
ARC
  5
537F
330
340C
100
AcDbEntity
  8
DIM
  6
Continuous
 62
     0
440
 16777216
100
AcDbCircle
 10
5.406389770496904
 20
4.369857873486335
 30
0.0
 40
0.6543349812363543
100
AcDbArc
 50
163.5251704830569
 51
179.9999999999928
  0
LINE
  5
5380
330
340C
100
AcDbEntity
  8
DIM
  6
Continuous
 62
     0
440
 16777216
100
AcDbLine
 10
4.778918896337328
 20
4.555423413797562
 30
0.0
 11
4.685168896337328
 21
4.555423413797562
 31
0.0
  0
ARC
  5
5381
330
340C
100
AcDbEntity
  8
DIM
  6
Continuous
 62
     0
440
 16777216
100
AcDbCircle
 10
5.406389770496904
 20
4.369857873486335
 30
0.0
 40
0.6543349812363543
100
AcDbArc
 50
163.5677917723869
 51
171.7838958861898
  0
ARC
  5
5382
330
340C
100
AcDbEntity
  8
DIM
  6
Continuous
 62
     0
440
 16777216
100
AcDbCircle
 10
5.406389770496904
 20
4.369857873486335
 30
0.0
 40
0.6543349812363543
100
AcDbArc
 50
190.2161023192075
 51
198.4322064330104
  0
SOLID
  5
5383
330
340C
100
AcDbEntity
  8
DIM
  6
Continuous
 62
     0
440
 16777216
100
AcDbTrace
 10
4.774355671110917
 20
4.462247666178553
 30
0.0
 11
4.743185960948584
 21
4.464486341768287
 31
0.0
 12
4.75205478926055
 22
4.369857873486417
 32
0.0
 13
4.75205478926055
 23
4.369857873486417
 33
0.0
  0
SOLID
  5
5384
330
340C
100
AcDbEntity
  8
DIM
  6
Continuous
 62
     0
440
 16777216
100
AcDbTrace
 10
4.746892449019884
 20
4.25214159180266
 30
0.0
 11
4.777965042889752
 21
4.255466709875492
 31
0.0
 12
4.752453391736321
 22
4.347021932448678
 32
0.0
 13
4.752453391736321
 23
4.347021932448678
 33
0.0
  0
MTEXT
  5
5385
330
340C
100
AcDbEntity
  8
DIM
  6
Continuous
 62
     0
440
 16777216
100
AcDbMText
 10
4.621180801099233
 20
4.555423413797562
 30
0.0
 40
0.0625
 41
0.0
 46
0.0
 71
     5
 72
     5
  1
\A1;2°
 73
     1
 44
1.0
  0
POINT
  5
5386
330
340C
100
AcDbEntity
  8
DEFPOINTS
  6
Continuous
 62
     0
440
 16777216
100
AcDbPoint
 10
4.752231955910377
 20
4.354632195013467
 30
0.0
  0
POINT
  5
5387
330
340C
100
AcDbEntity
  8
DEFPOINTS
  6
Continuous
 62
     0
440
 16777216
100
AcDbPoint
 10
5.406389770496904
 20
4.369857873486335
 30
0.0
  0
POINT
  5
5388
330
340C
100
AcDbEntity
  8
DEFPOINTS
  6
Continuous
 62
     0
440
 16777216
100
AcDbPoint
 10
5.185342777383965
 20
4.362138749324982
 30
0.0
  0
POINT
  5
5389
330
340C
100
AcDbEntity
  8
DEFPOINTS
  6
Continuous
 62
     0
440
 16777216
100
AcDbPoint
 10
5.406389770496904
 20
4.369857873486335
 30
0.0
  0
POINT
  5
538A
330
340C
100
AcDbEntity
  8
DEFPOINTS
  6
Continuous
 62
     0
440
 16777216
100
AcDbPoint
 10
5.400610251113116
 20
4.369857873486336
 30
0.0
  0
ENDBLK
  5
341C
330
340C
100
AcDbEntity
  8
0
100
AcDbBlockEnd
  0
BLOCK
  5
3523
330
3518
100
AcDbEntity
  8
0
100
AcDbBlockBegin
  2
*D15
 70
     1
 10
0.0
 20
0.0
 30
0.0
  3
*D15
  1

  0
LINE
  5
5AF0
330
3518
100
AcDbEntity
  8
DIM
  6
Continuous
 62
     0
440
 16777216
370
    -2
100
AcDbLine
 10
0.4905926561565744
 20
3.086327085943521
 30
0.0
 11
0.8220089293321418
 21
3.086327085943521
 31
0.0
  0
LINE
  5
5AF1
330
3518
100
AcDbEntity
  8
DIM
  6
Continuous
 62
     0
440
 16777216
370
    -2
100
AcDbLine
 10
0.4905926561565744
 20
2.569588677016383
 30
0.0
 11
0.8220089293321416
 21
2.569588677016383
 31
0.0
  0
LINE
  5
5AF2
330
3518
100
AcDbEntity
  8
DIM
  6
Continuous
 62
     0
440
 16777216
370
    -2
100
AcDbLine
 10
0.7595089293321418
 20
2.992577085943521
 30
0.0
 11
0.7595089293321418
 21
2.832724446243514
 31
0.0
  0
LINE
  5
5AF3
330
3518
100
AcDbEntity
  8
DIM
  6
Continuous
 62
     0
440
 16777216
370
    -2
100
AcDbLine
 10
0.7595089293321417
 20
2.663338677016383
 30
0.0
 11
0.7595089293321417
 21
2.707724446243514
 31
0.0
  0
SOLID
  5
5AF4
330
3518
100
AcDbEntity
  8
DIM
  6
Continuous
 62
     0
440
 16777216
100
AcDbTrace
 10
0.7438839293321418
 20
2.992577085943521
 30
0.0
 11
0.7751339293321418
 21
2.992577085943521
 31
0.0
 12
0.7595089293321418
 22
3.086327085943521
 32
0.0
 13
0.7595089293321418
 23
3.086327085943521
 33
0.0
  0
SOLID
  5
5AF5
330
3518
100
AcDbEntity
  8
DIM
  6
Continuous
 62
     0
440
 16777216
100
AcDbTrace
 10
0.7438839293321417
 20
2.663338677016383
 30
0.0
 11
0.7751339293321417
 21
2.663338677016383
 31
0.0
 12
0.7595089293321417
 22
2.569588677016383
 32
0.0
 13
0.7595089293321417
 23
2.569588677016383
 33
0.0
  0
MTEXT
  5
5AF6
330
3518
100
AcDbEntity
  8
DIM
  6
Continuous
 62
     0
440
 16777216
100
AcDbMText
 10
0.7595089293321414
 20
2.770224446243514
 30
0.0
 40
0.0625
 41
0.0
 46
0.0
 71
     5
 72
     1
  1
\A1;%%C.52
 73
     1
 44
1.0
  0
POINT
  5
5AF7
330
3518
100
AcDbEntity
  8
DEFPOINTS
  6
Continuous
 62
     0
440
 16777216
100
AcDbPoint
 10
0.4593426561565744
 20
3.086327085943521
 30
0.0
  0
POINT
  5
5AF8
330
3518
100
AcDbEntity
  8
DEFPOINTS
  6
Continuous
 62
     0
440
 16777216
100
AcDbPoint
 10
0.4593426561565744
 20
2.569588677016383
 30
0.0
  0
POINT
  5
5AF9
330
3518
100
AcDbEntity
  8
DEFPOINTS
  6
Continuous
 62
     0
440
 16777216
100
AcDbPoint
 10
0.7595089293321417
 20
2.569588677016383
 30
0.0
  0
ENDBLK
  5
3524
330
3518
100
AcDbEntity
  8
0
100
AcDbBlockEnd
  0
BLOCK
  5
353C
330
3530
100
AcDbEntity
  8
0
100
AcDbBlockBegin
  2
*D16
 70
     1
 10
0.0
 20
0.0
 30
0.0
  3
*D16
  1

  0
LINE
  5
59D6
330
3530
100
AcDbEntity
  8
DIM
  6
Continuous
 62
     0
440
 16777216
370
    -2
100
AcDbLine
 10
0.1880926482404797
 20
2.937357878515184
 30
0.0
 11
0.0075479297012323
 21
2.937357878515184
 31
0.0
  0
LINE
  5
59D7
330
3530
100
AcDbEntity
  8
DIM
  6
Continuous
 62
     0
440
 16777216
370
    -2
100
AcDbLine
 10
0.1880926482404797
 20
2.718557902777842
 30
0.0
 11
0.0075479297012322
 21
2.718557902777842
 31
0.0
  0
LINE
  5
59D8
330
3530
100
AcDbEntity
  8
DIM
  6
Continuous
 62
     0
440
 16777216
370
    -2
100
AcDbLine
 10
0.0700479297012323
 20
3.031107878515184
 30
0.0
 11
0.0700479297012323
 21
3.124857878515184
 31
0.0
  0
LINE
  5
59D9
330
3530
100
AcDbEntity
  8
DIM
  6
Continuous
 62
     0
440
 16777216
370
    -2
100
AcDbLine
 10
0.0700479297012322
 20
2.624807902777842
 30
0.0
 11
0.0700479297012322
 21
2.531057902777842
 31
0.0
  0
LINE
  5
59DA
330
3530
100
AcDbEntity
  8
DIM
  6
Continuous
 62
     0
440
 16777216
370
    -2
100
AcDbLine
 10
0.0700479297012322
 20
2.531057902777842
 30
0.0
 11
-0.0237020702987678
 21
2.531057902777842
 31
0.0
  0
SOLID
  5
59DB
330
3530
100
AcDbEntity
  8
DIM
  6
Continuous
 62
     0
440
 16777216
100
AcDbTrace
 10
0.0544229297012323
 20
3.031107878515184
 30
0.0
 11
0.0856729297012323
 21
3.031107878515184
 31
0.0
 12
0.0700479297012323
 22
2.937357878515184
 32
0.0
 13
0.0700479297012323
 23
2.937357878515184
 33
0.0
  0
SOLID
  5
59DC
330
3530
100
AcDbEntity
  8
DIM
  6
Continuous
 62
     0
440
 16777216
100
AcDbTrace
 10
0.0544229297012322
 20
2.624807902777842
 30
0.0
 11
0.0856729297012322
 21
2.624807902777842
 31
0.0
 12
0.0700479297012322
 22
2.718557902777842
 32
0.0
 13
0.0700479297012322
 23
2.718557902777842
 33
0.0
  0
MTEXT
  5
59DD
330
3530
100
AcDbEntity
  8
DIM
  6
Continuous
 62
     0
440
 16777216
100
AcDbMText
 10
-0.1784639750606729
 20
2.531057902777842
 30
0.0
 40
0.0625
 41
0.0
 46
0.0
 71
     5
 72
     1
  1
\A1;%%C.210
 73
     1
 44
1.0
  0
POINT
  5
59DE
330
3530
100
AcDbEntity
  8
DEFPOINTS
  6
Continuous
 62
     0
440
 16777216
100
AcDbPoint
 10
0.2193426482404797
 20
2.937357878515184
 30
0.0
  0
POINT
  5
59DF
330
3530
100
AcDbEntity
  8
DEFPOINTS
  6
Continuous
 62
     0
440
 16777216
100
AcDbPoint
 10
0.2193426482404797
 20
2.718557902777842
 30
0.0
  0
POINT
  5
59E0
330
3530
100
AcDbEntity
  8
DEFPOINTS
  6
Continuous
 62
     0
440
 16777216
100
AcDbPoint
 10
0.0700479297012322
 20
2.718557902777842
 30
0.0
  0
ENDBLK
  5
353D
330
3530
100
AcDbEntity
  8
0
100
AcDbBlockEnd
  0
BLOCK
  5
3551
330
354A
100
AcDbEntity
  8
0
100
AcDbBlockBegin
  2
*D17
 70
     1
 10
0.0
 20
0.0
 30
0.0
  3
*D17
  1

  0
LINE
  5
486C
330
354A
100
AcDbEntity
  8
DIM
  6
Continuous
 62
     0
440
 16777216
370
    -2
100
AcDbLine
 10
0.1438742093304909
 20
4.176663945135184
 30
0.0
 11
0.0756798363806315
 21
4.112332071246921
 31
0.0
  0
LINE
  5
486D
330
354A
100
AcDbEntity
  8
DIM
  6
Continuous
 62
     0
440
 16777216
370
    -2
100
AcDbLine
 10
0.0756798363806315
 20
4.112332071246921
 30
0.0
 11
-0.0180701636193685
 21
4.11233207124692
 31
0.0
  0
SOLID
  5
486E
330
354A
100
AcDbEntity
  8
DIM
  6
Continuous
 62
     0
440
 16777216
100
AcDbTrace
 10
0.1331522303491136
 20
4.188029673960161
 30
0.0
 11
0.1545961883118682
 21
4.165298216310208
 31
0.0
 12
0.2120685822803503
 22
4.240995819023448
 32
0.0
 13
0.2120685822803503
 23
4.240995819023448
 33
0.0
  0
MTEXT
  5
486F
330
354A
100
AcDbEntity
  8
DIM
  6
Continuous
 62
     0
440
 16777216
100
AcDbMText
 10
-0.2472368302860351
 20
4.112332071246921
 30
0.0
 40
0.0625
 41
0.0
 46
0.0
 71
     5
 72
     5
  1
\A1; \PR.01\P3 PLC'S.
 73
     1
 44
1.0
  0
POINT
  5
4870
330
354A
100
AcDbEntity
  8
DEFPOINTS
  6
Continuous
 62
     0
440
 16777216
100
AcDbPoint
 10
0.2120685822803503
 20
4.240995819023448
 30
0.0
  0
POINT
  5
4871
330
354A
100
AcDbEntity
  8
DEFPOINTS
  6
Continuous
 62
     0
440
 16777216
100
AcDbPoint
 10
0.2193426487283339
 20
4.247857885571528
 30
0.0
  0
ENDBLK
  5
3552
330
354A
100
AcDbEntity
  8
0
100
AcDbBlockEnd
  0
BLOCK
  5
3598
330
3589
100
AcDbEntity
  8
0
100
AcDbBlockBegin
  2
*D18
 70
     1
 10
0.0
 20
0.0
 30
0.0
  3
*D18
  1

  0
LINE
  5
598D
330
3589
100
AcDbEntity
  8
DIM
  6
Continuous
 62
     0
440
 16777216
370
    -2
100
AcDbLine
 10
3.084385908279298
 20
5.291458644373038
 30
0.0
 11
3.073299158897933
 21
4.973975729097009
 31
0.0
  0
LINE
  5
598E
330
3589
100
AcDbEntity
  8
DIM
  6
Continuous
 62
     0
440
 16777216
370
    -2
100
AcDbLine
 10
3.101925837692308
 20
5.715006947398918
 30
0.0
 11
3.101925837692308
 21
4.973476048484328
 31
0.0
  0
ARC
  5
598F
330
3589
100
AcDbEntity
  8
DIM
  6
Continuous
 62
     0
440
 16777216
370
    -2
100
AcDbCircle
 10
3.101925837692308
 20
5.793736429522454
 30
0.0
 40
0.7577603810381265
100
AcDbArc
 50
253.7863303049012
 51
267.9999996972822
  0
LINE
  5
5990
330
3589
100
AcDbEntity
  8
DIM
  6
Continuous
 62
     0
440
 16777216
370
    -2
100
AcDbLine
 10
2.890343827921064
 20
5.066114379133513
 30
0.0
 11
2.796593827921064
 21
5.066114379133513
 31
0.0
  0
ARC
  5
5991
330
3589
100
AcDbEntity
  8
DIM
  6
Continuous
 62
     0
440
 16777216
370
    -2
100
AcDbCircle
 10
3.101925837692308
 20
5.793736429522454
 30
0.0
 40
0.7577603810381265
100
AcDbArc
 50
253.813691803693
 51
260.9068457504875
  0
ARC
  5
5992
330
3589
100
AcDbEntity
  8
DIM
  6
Continuous
 62
     0
440
 16777216
370
    -2
100
AcDbCircle
 10
3.101925837692308
 20
5.793736429522454
 30
0.0
 40
0.7577603810381265
100
AcDbArc
 50
277.0931539467947
 51
284.1863078935893
  0
SOLID
  5
5993
330
3589
100
AcDbEntity
  8
DIM
  6
Continuous
 62
     0
440
 16777216
100
AcDbTrace
 10
2.983679552485915
 20
5.061050896150463
 30
0.0
 11
2.980659086703658
 21
5.029947210091441
 31
0.0
 12
3.075480377771853
 22
5.03643765577418
 32
0.0
 13
3.075480377771853
 23
5.03643765577418
 33
0.0
  0
SOLID
  5
5994
330
3589
100
AcDbEntity
  8
DIM
  6
Continuous
 62
     0
440
 16777216
100
AcDbTrace
 10
3.196462852852513
 20
5.026180340771293
 30
0.0
 11
3.194529730210244
 21
5.057370492050984
 31
0.0
 12
3.101925837692309
 22
5.035976048484328
 32
0.0
 13
3.101925837692309
 23
5.035976048484328
 33
0.0
  0
MTEXT
  5
5995
330
3589
100
AcDbEntity
  8
DIM
  6
Continuous
 62
     0
440
 16777216
100
AcDbMText
 10
2.658200970778207
 20
5.066114379133514
 30
0.0
 40
0.0625
 41
0.0
 46
0.0
 71
     5
 72
     1
  1
\A1;2.00°
 73
     1
 44
1.0
  0
POINT
  5
5996
330
3589
100
AcDbEntity
  8
DEFPOINTS
  6
Continuous
 62
     0
440
 16777216
100
AcDbPoint
 10
3.093109092910729
 20
5.036027342812718
 30
0.0
  0
POINT
  5
5997
330
3589
100
AcDbEntity
  8
DEFPOINTS
  6
Continuous
 62
     0
440
 16777216
100
AcDbPoint
 10
3.101925837692308
 20
5.793736597803264
 30
0.0
  0
POINT
  5
5998
330
3589
100
AcDbEntity
  8
DEFPOINTS
  6
Continuous
 62
     0
440
 16777216
100
AcDbPoint
 10
3.093644180029391
 20
5.556580819009558
 30
0.0
  0
POINT
  5
5999
330
3589
100
AcDbEntity
  8
DEFPOINTS
  6
Continuous
 62
     0
440
 16777216
100
AcDbPoint
 10
3.085476517716257
 20
5.322689607711622
 30
0.0
  0
POINT
  5
599A
330
3589
100
AcDbEntity
  8
DEFPOINTS
  6
Continuous
 62
     0
440
 16777216
100
AcDbPoint
 10
3.101925837692308
 20
5.746256947398917
 30
0.0
  0
ENDBLK
  5
3599
330
3589
100
AcDbEntity
  8
0
100
AcDbBlockEnd
  0
BLOCK
  5
35E5
330
35D6
100
AcDbEntity
  8
0
100
AcDbBlockBegin
  2
*D19
 70
     1
 10
0.0
 20
0.0
 30
0.0
  3
*D19
  1

  0
LINE
  5
53A5
330
35D6
100
AcDbEntity
  8
DIM
  6
Continuous
 62
     0
440
 16777216
100
AcDbLine
 10
4.874297403921062
 20
3.510007006952775
 30
0.0
 11
4.528021151516413
 21
3.497914785025444
 31
0.0
  0
LINE
  5
53A6
330
35D6
100
AcDbEntity
  8
DIM
  6
Continuous
 62
     0
440
 16777216
100
AcDbLine
 10
4.88421761367474
 20
3.488241231421603
 30
0.0
 11
4.647932622660258
 21
3.234818920186317
 31
0.0
  0
ARC
  5
53A7
330
35D6
100
AcDbEntity
  8
DIM
  6
Continuous
 62
     0
440
 16777216
100
AcDbCircle
 10
4.905528367300838
 20
3.511097615210113
 30
0.0
 40
0.3152373227270345
100
AcDbArc
 50
147.7941901588841
 51
164.8970941487446
  0
ARC
  5
53A8
330
35D6
100
AcDbEntity
  8
DIM
  6
Continuous
 62
     0
440
 16777216
100
AcDbCircle
 10
4.905528367300838
 20
3.511097615210113
 30
0.0
 40
0.3152373227270345
100
AcDbArc
 50
244.1071534335337
 51
261.2100574233941
  0
SOLID
  5
53A9
330
35D6
100
AcDbEntity
  8
DIM
  6
Continuous
 62
     0
440
 16777216
100
AcDbTrace
 10
4.616702490791639
 20
3.591451053575205
 30
0.0
 11
4.585656559725359
 21
3.595016535902716
 31
0.0
 12
4.590483078275967
 22
3.50009600154012
 32
0.0
 13
4.590483078275967
 23
3.50009600154012
 33
0.0
  0
SOLID
  5
53AA
330
35D6
100
AcDbEntity
  8
DIM
  6
Continuous
 62
     0
440
 16777216
100
AcDbTrace
 10
4.759029971937073
 20
3.214620670596104
 30
0.0
 11
4.776705121179171
 21
3.240391809477992
 31
0.0
 12
4.690554129912456
 22
3.280531687763339
 32
0.0
 13
4.690554129912456
 23
3.280531687763339
 33
0.0
  0
MTEXT
  5
53AB
330
35D6
100
AcDbEntity
  8
DIM
  6
Continuous
 62
     0
440
 16777216
100
AcDbMText
 10
4.613475816097597
 20
3.392438957810892
 30
0.0
 40
0.0625
 41
0.0
 46
0.0
 71
     5
 72
     5
  1
\A1;45°
 73
     1
 44
1.0
  0
POINT
  5
53AC
330
35D6
100
AcDbEntity
  8
DEFPOINTS
  6
Continuous
 62
     0
440
 16777216
100
AcDbPoint
 10
4.63820021416613
 20
3.344034069869742
 30
0.0
  0
POINT
  5
53AD
330
35D6
100
AcDbEntity
  8
DEFPOINTS
  6
Continuous
 62
     0
440
 16777216
100
AcDbPoint
 10
4.970092588972509
 20
3.513352245412437
 30
0.0
  0
POINT
  5
53AE
330
35D6
100
AcDbEntity
  8
DEFPOINTS
  6
Continuous
 62
     0
440
 16777216
100
AcDbPoint
 10
4.946145920606465
 20
3.554661085709189
 30
0.0
  0
POINT
  5
53AF
330
35D6
100
AcDbEntity
  8
DEFPOINTS
  6
Continuous
 62
     0
440
 16777216
100
AcDbPoint
 10
5.109793422636556
 20
3.730177643126943
 30
0.0
  0
POINT
  5
53B0
330
35D6
100
AcDbEntity
  8
DEFPOINTS
  6
Continuous
 62
     0
440
 16777216
100
AcDbPoint
 10
5.127436749027679
 20
3.518846819438649
 30
0.0
  0
ENDBLK
  5
35E6
330
35D6
100
AcDbEntity
  8
0
100
AcDbBlockEnd
  0
BLOCK
  5
3603
330
35F4
100
AcDbEntity
  8
0
100
AcDbBlockBegin
  2
*D20
 70
     1
 10
0.0
 20
0.0
 30
0.0
  3
*D20
  1

  0
LINE
  5
53B1
330
35F4
100
AcDbEntity
  8
DIM
  6
Continuous
 62
     0
440
 16777216
100
AcDbLine
 10
-0.0429352972778164
 20
3.378667625925457
 30
0.0
 11
-0.2992860284213371
 21
3.387619591092352
 31
0.0
  0
LINE
  5
53B2
330
35F4
100
AcDbEntity
  8
DIM
  6
Continuous
 62
     0
440
 16777216
100
AcDbLine
 10
0.1702458770787212
 20
3.369857885550711
 30
0.0
 11
-0.2995960601578022
 21
3.369857885550715
 31
0.0
  0
ARC
  5
53B3
330
35F4
100
AcDbEntity
  8
DIM
  6
Continuous
 62
     0
440
 16777216
100
AcDbCircle
 10
0.2093426488654885
 20
3.369857885550711
 30
0.0
 40
0.446438709023291
100
AcDbArc
 50
153.8918831561409
 51
165.9459415361482
  0
ARC
  5
53B4
330
35F4
100
AcDbEntity
  8
DIM
  6
Continuous
 62
     0
440
 16777216
100
AcDbCircle
 10
0.2093426488654885
 20
3.369857885550711
 30
0.0
 40
0.446438709023291
100
AcDbArc
 50
192.0540583800068
 51
204.1081167600141
  0
SOLID
  5
53B5
330
35F4
100
AcDbEntity
  8
DIM
  6
Continuous
 62
     0
440
 16777216
100
AcDbTrace
 10
-0.2082609178432897
 20
3.476087959609553
 30
0.0
 11
-0.23920473983289
 21
3.480451717242134
 31
0.0
 12
-0.2368241017358356
 22
3.385438372457042
 32
0.0
 13
-0.2368241017358356
 23
3.385438372457042
 33
0.0
  0
SOLID
  5
53B6
330
35F4
100
AcDbEntity
  8
DIM
  6
Continuous
 62
     0
440
 16777216
100
AcDbTrace
 10
-0.242791166086305
 20
3.274985503407842
 30
0.0
 11
-0.2117139012870762
 21
3.278266678898213
 31
0.0
 12
-0.2370960601578023
 22
3.369857885550714
 32
0.0
 13
-0.2370960601578023
 23
3.369857885550714
 33
0.0
  0
MTEXT
  5
53B7
330
35F4
100
AcDbEntity
  8
DIM
  6
Continuous
 62
     0
440
 16777216
100
AcDbMText
 10
-0.1569069477842583
 20
3.11457617083483
 30
0.0
 40
0.0625
 41
0.0
 46
0.0
 71
     5
 72
     5
  1
\A1;2°
 73
     1
 44
1.0
  0
POINT
  5
53B8
330
35F4
100
AcDbEntity
  8
DEFPOINTS
  6
Continuous
 62
     0
440
 16777216
100
AcDbPoint
 10
-0.23697518292937
 20
3.380246048830082
 30
0.0
  0
POINT
  5
53B9
330
35F4
100
AcDbEntity
  8
DEFPOINTS
  6
Continuous
 62
     0
440
 16777216
100
AcDbPoint
 10
0.2093426488654926
 20
3.36985788555071
 30
0.0
  0
POINT
  5
53BA
330
35F4
100
AcDbEntity
  8
DEFPOINTS
  6
Continuous
 62
     0
440
 16777216
100
AcDbPoint
 10
-0.0117043339350657
 20
3.377577016607801
 30
0.0
  0
POINT
  5
53BB
330
35F4
100
AcDbEntity
  8
DEFPOINTS
  6
Continuous
 62
     0
440
 16777216
100
AcDbPoint
 10
0.1803896336742051
 20
3.370868947162717
 30
0.0
  0
POINT
  5
53BC
330
35F4
100
AcDbEntity
  8
DEFPOINTS
  6
Continuous
 62
     0
440
 16777216
100
AcDbPoint
 10
0.2014958770787212
 20
3.369857885550711
 30
0.0
  0
ENDBLK
  5
3604
330
35F4
100
AcDbEntity
  8
0
100
AcDbBlockEnd
  0
BLOCK
  5
398B
330
3980
100
AcDbEntity
  8
0
100
AcDbBlockBegin
  2
*D21
 70
     1
 10
0.0
 20
0.0
 30
0.0
  3
*D21
  1

  0
LINE
  5
59A9
330
3980
100
AcDbEntity
  8
DIM
  6
Continuous
 62
     0
440
 16777216
370
    -2
100
AcDbLine
 10
2.980997727870066
 20
5.57498659051218
 30
0.0
 11
2.980997727870066
 21
5.961575179458739
 31
0.0
  0
LINE
  5
59AA
330
3980
100
AcDbEntity
  8
DIM
  6
Continuous
 62
     0
440
 16777216
370
    -2
100
AcDbLine
 10
3.101925837692308
 20
5.824986597803263
 30
0.0
 11
3.101925837692308
 21
5.961575179458739
 31
0.0
  0
LINE
  5
59AB
330
3980
100
AcDbEntity
  8
DIM
  6
Continuous
 62
     0
440
 16777216
370
    -2
100
AcDbLine
 10
2.887247727870066
 20
5.899075179458739
 30
0.0
 11
2.793497727870066
 21
5.899075179458739
 31
0.0
  0
LINE
  5
59AC
330
3980
100
AcDbEntity
  8
DIM
  6
Continuous
 62
     0
440
 16777216
370
    -2
100
AcDbLine
 10
3.195675837692308
 20
5.899075179458739
 30
0.0
 11
3.319187742454212
 21
5.899075179458739
 31
0.0
  0
SOLID
  5
59AD
330
3980
100
AcDbEntity
  8
DIM
  6
Continuous
 62
     0
440
 16777216
100
AcDbTrace
 10
2.887247727870066
 20
5.914700179458739
 30
0.0
 11
2.887247727870066
 21
5.883450179458739
 31
0.0
 12
2.980997727870066
 22
5.899075179458739
 32
0.0
 13
2.980997727870066
 23
5.899075179458739
 33
0.0
  0
SOLID
  5
59AE
330
3980
100
AcDbEntity
  8
DIM
  6
Continuous
 62
     0
440
 16777216
100
AcDbTrace
 10
3.195675837692308
 20
5.914700179458739
 30
0.0
 11
3.195675837692308
 21
5.883450179458739
 31
0.0
 12
3.101925837692308
 22
5.899075179458739
 32
0.0
 13
3.101925837692308
 23
5.899075179458739
 33
0.0
  0
MTEXT
  5
59AF
330
3980
100
AcDbEntity
  8
DIM
  6
Continuous
 62
     0
440
 16777216
100
AcDbMText
 10
3.515616313882784
 20
5.899075179458739
 30
0.0
 40
0.0625
 41
0.0
 46
0.0
 71
     5
 72
     1
  1
\A1;.12 (2)
 73
     1
 44
1.0
  0
POINT
  5
59B0
330
3980
100
AcDbEntity
  8
DEFPOINTS
  6
Continuous
 62
     0
440
 16777216
100
AcDbPoint
 10
2.980997727870066
 20
5.54373659051218
 30
0.0
  0
POINT
  5
59B1
330
3980
100
AcDbEntity
  8
DEFPOINTS
  6
Continuous
 62
     0
440
 16777216
100
AcDbPoint
 10
3.101925837692308
 20
5.793736597803263
 30
0.0
  0
POINT
  5
59B2
330
3980
100
AcDbEntity
  8
DEFPOINTS
  6
Continuous
 62
     0
440
 16777216
100
AcDbPoint
 10
3.101925837692308
 20
5.899075179458739
 30
0.0
  0
ENDBLK
  5
398C
330
3980
100
AcDbEntity
  8
0
100
AcDbBlockEnd
  0
BLOCK
  5
39E1
330
39D2
100
AcDbEntity
  8
0
100
AcDbBlockBegin
  2
*D22
 70
     1
 10
0.0
 20
0.0
 30
0.0
  3
*D22
  1

  0
LINE
  5
599B
330
39D2
100
AcDbEntity
  8
DIM
  6
Continuous
 62
     0
440
 16777216
370
    -2
100
AcDbLine
 10
2.980997727870066
 20
5.507450260434008
 30
0.0
 11
2.980997727870069
 21
5.087428041557185
 31
0.0
  0
LINE
  5
599C
330
39D2
100
AcDbEntity
  8
DIM
  6
Continuous
 62
     0
440
 16777216
370
    -2
100
AcDbLine
 10
2.984681834070216
 20
5.325648335444984
 30
0.0
 11
2.98870492578281
 21
5.087493134723774
 31
0.0
  0
ARC
  5
599D
330
39D2
100
AcDbEntity
  8
DIM
  6
Continuous
 62
     0
440
 16777216
370
    -2
100
AcDbCircle
 10
2.980997727870067
 20
5.54373659051217
 30
0.0
 40
0.3938085489549849
100
AcDbArc
 50
242.455882461148
 51
270.0000000000005
  0
LINE
  5
599E
330
39D2
100
AcDbEntity
  8
DIM
  6
Continuous
 62
     0
440
 16777216
370
    -2
100
AcDbLine
 10
2.798888261145537
 20
5.194564261483453
 30
0.0
 11
2.705138261145537
 21
5.194564261483454
 31
0.0
  0
ARC
  5
599F
330
39D2
100
AcDbEntity
  8
DIM
  6
Continuous
 62
     0
440
 16777216
370
    -2
100
AcDbCircle
 10
2.980997727870068
 20
5.543736590512171
 30
0.0
 40
0.3938085489549849
100
AcDbArc
 50
242.6555207443567
 51
256.3277603721786
  0
ARC
  5
59A0
330
39D2
100
AcDbEntity
  8
DIM
  6
Continuous
 62
     0
440
 16777216
370
    -2
100
AcDbCircle
 10
2.980997727870068
 20
5.543736590512171
 30
0.0
 40
0.3938085489549849
100
AcDbArc
 50
284.6400297608904
 51
298.3122693887123
  0
SOLID
  5
59A1
330
39D2
100
AcDbEntity
  8
DIM
  6
Continuous
 62
     0
440
 16777216
100
AcDbTrace
 10
2.889774070261348
 20
5.176601013223027
 30
0.0
 11
2.886054385267493
 21
5.145573179854478
 31
0.0
 12
2.98099772787007
 22
5.149928041557187
 32
0.0
 13
2.98099772787007
 23
5.149928041557187
 33
0.0
  0
SOLID
  5
59A2
330
39D2
100
AcDbEntity
  8
DIM
  6
Continuous
 62
     0
440
 16777216
100
AcDbTrace
 10
3.082652634504808
 20
5.147233602064167
 30
0.0
 11
3.0784094100615
 21
5.178194182587208
 31
0.0
 12
2.987649280714031
 22
5.149984218995764
 32
0.0
 13
2.987649280714031
 23
5.149984218995764
 33
0.0
  0
MTEXT
  5
59A3
330
39D2
100
AcDbEntity
  8
DIM
  6
Continuous
 62
     0
440
 16777216
100
AcDbMText
 10
2.59799540400268
 20
5.194564261483455
 30
0.0
 40
0.0625
 41
0.0
 46
0.0
 71
     5
 72
     1
  1
\A1;.97°
 73
     1
 44
1.0
  0
POINT
  5
59A4
330
39D2
100
AcDbEntity
  8
DEFPOINTS
  6
Continuous
 62
     0
440
 16777216
100
AcDbPoint
 10
2.985432213581242
 20
5.149953009637463
 30
0.0
  0
POINT
  5
59A5
330
39D2
100
AcDbEntity
  8
DEFPOINTS
  6
Continuous
 62
     0
440
 16777216
100
AcDbPoint
 10
2.980997727870066
 20
5.543736590512181
 30
0.0
  0
POINT
  5
59A6
330
39D2
100
AcDbEntity
  8
DEFPOINTS
  6
Continuous
 62
     0
440
 16777216
100
AcDbPoint
 10
2.98149603890762
 20
5.514238042219429
 30
0.0
  0
POINT
  5
59A7
330
39D2
100
AcDbEntity
  8
DEFPOINTS
  6
Continuous
 62
     0
440
 16777216
100
AcDbPoint
 10
2.984154011535826
 20
5.356893877580978
 30
0.0
  0
POINT
  5
59A8
330
39D2
100
AcDbEntity
  8
DEFPOINTS
  6
Continuous
 62
     0
440
 16777216
100
AcDbPoint
 10
2.980997727870066
 20
5.538700260434008
 30
0.0
  0
ENDBLK
  5
39E2
330
39D2
100
AcDbEntity
  8
0
100
AcDbBlockEnd
  0
BLOCK
  5
535A
330
5352
100
AcDbEntity
  8
0
100
AcDbBlockBegin
  2
*X24
 70
     1
 10
0.0
 20
0.0
 30
0.0
  3
*X24
  1

  0
LINE
  5
5353
330
5352
100
AcDbEntity
  8
0
  6
Continuous
 62
     0
100
AcDbLine
 10
0.4170156638318346
 20
2.371335987471607
 30
0.0
 11
0.4593426561565741
 21
2.413662979796346
 31
0.0
  0
LINE
  5
5354
330
5352
100
AcDbEntity
  8
0
  6
Continuous
 62
     0
100
AcDbLine
 10
0.3316097536093179
 20
2.374318424897408
 30
0.0
 11
0.4593426561565746
 21
2.502051327444665
 31
0.0
  0
LINE
  5
5355
330
5352
100
AcDbEntity
  8
0
  6
Continuous
 62
     0
100
AcDbLine
 10
0.2462038433868015
 20
2.377300862323211
 30
0.0
 11
0.4498292688667332
 21
2.580926287803142
 31
0.0
  0
LINE
  5
5356
330
5352
100
AcDbEntity
  8
0
  6
Continuous
 62
     0
100
AcDbLine
 10
0.2093426488654926
 20
2.42882801545022
 30
0.0
 11
0.4095015790363248
 21
2.628986945621052
 31
0.0
  0
LINE
  5
5357
330
5352
100
AcDbEntity
  8
0
  6
Continuous
 62
     0
100
AcDbLine
 10
0.2093426488654928
 20
2.517216363098539
 30
0.0
 11
0.3691738892059164
 21
2.677047603438963
 31
0.0
  0
LINE
  5
5358
330
5352
100
AcDbEntity
  8
0
  6
Continuous
 62
     0
100
AcDbLine
 10
0.2093426488654926
 20
2.605604710746857
 30
0.0
 11
0.3222958408964773
 21
2.718557902777842
 31
0.0
  0
LINE
  5
5359
330
5352
100
AcDbEntity
  8
0
  6
Continuous
 62
     0
100
AcDbLine
 10
0.2093426488654928
 20
2.693993058395176
 30
0.0
 11
0.2339074932481591
 21
2.718557902777842
 31
0.0
  0
ENDBLK
  5
535B
330
5352
100
AcDbEntity
  8
0
100
AcDbBlockEnd
  0
BLOCK
  5
5361
330
535C
100
AcDbEntity
  8
0
100
AcDbBlockBegin
  2
*X25
 70
     1
 10
0.0
 20
0.0
 30
0.0
  3
*X25
  1

  0
LINE
  5
535D
330
535C
100
AcDbEntity
  8
0
  6
Continuous
 62
     0
100
AcDbLine
 10
0.4273822341073146
 20
4.237857858361774
 30
0.0
 11
0.4593426561565748
 21
4.269818280411034
 31
0.0
  0
LINE
  5
535E
330
535C
100
AcDbEntity
  8
0
  6
Continuous
 62
     0
100
AcDbLine
 10
0.3389938864589959
 20
4.237857858361774
 30
0.0
 11
0.4593426561565744
 21
4.358206628059352
 31
0.0
  0
LINE
  5
535F
330
535C
100
AcDbEntity
  8
0
  6
Continuous
 62
     0
100
AcDbLine
 10
0.2506055388106776
 20
4.237857858361774
 30
0.0
 11
0.3798288739696067
 21
4.367081193520703
 31
0.0
  0
LINE
  5
5360
330
535C
100
AcDbEntity
  8
0
  6
Continuous
 62
     0
100
AcDbLine
 10
0.2093426488654924
 20
4.284983316064908
 30
0.0
 11
0.2882422539470912
 21
4.363882921146506
 31
0.0
  0
ENDBLK
  5
5362
330
535C
100
AcDbEntity
  8
0
100
AcDbBlockEnd
  0
BLOCK
  5
53D9
330
53CB
100
AcDbEntity
  8
0
100
AcDbBlockBegin
  2
*X26
 70
     1
 10
0.0
 20
0.0
 30
0.0
  3
*X26
  1

  0
LINE
  5
53CC
330
53CB
100
AcDbEntity
  8
0
  6
Continuous
 62
     0
100
AcDbLine
 10
0.2883093590870451
 20
2.937357878515184
 30
0.0
 11
0.4593426561565741
 21
3.108391175584713
 31
0.0
  0
LINE
  5
53CD
330
53CB
100
AcDbEntity
  8
0
  6
Continuous
 62
     0
100
AcDbLine
 10
0.2093584835439644
 20
2.946795350620421
 30
0.0
 11
0.4593426561565746
 21
3.196779523233031
 31
0.0
  0
LINE
  5
53CE
330
53CB
100
AcDbEntity
  8
0
  6
Continuous
 62
     0
100
AcDbLine
 10
0.2093426488654928
 20
3.035167863590269
 30
0.0
 11
0.4593426561565744
 21
3.28516787088135
 31
0.0
  0
LINE
  5
53CF
330
53CB
100
AcDbEntity
  8
0
  6
Continuous
 62
     0
100
AcDbLine
 10
0.2093426488654928
 20
3.123556211238587
 30
0.0
 11
0.4593426561565744
 21
3.373556218529668
 31
0.0
  0
LINE
  5
53D0
330
53CB
100
AcDbEntity
  8
0
  6
Continuous
 62
     0
100
AcDbLine
 10
0.209342648865493
 20
3.211944558886905
 30
0.0
 11
0.4593426561565744
 21
3.461944566177987
 31
0.0
  0
LINE
  5
53D1
330
53CB
100
AcDbEntity
  8
0
  6
Continuous
 62
     0
100
AcDbLine
 10
0.2093426488654926
 20
3.300332906535224
 30
0.0
 11
0.4593426561565741
 21
3.550332913826305
 31
0.0
  0
LINE
  5
53D2
330
53CB
100
AcDbEntity
  8
0
  6
Continuous
 62
     0
100
AcDbLine
 10
0.1896736672661319
 20
3.369052272584181
 30
0.0
 11
0.4593426561565746
 21
3.638721261474624
 31
0.0
  0
LINE
  5
53D3
330
53CB
100
AcDbEntity
  8
0
  6
Continuous
 62
     0
100
AcDbLine
 10
0.1057098691484666
 20
3.373476822114835
 30
0.0
 11
0.4593426561565744
 21
3.727109609122942
 31
0.0
  0
LINE
  5
53D4
330
53CB
100
AcDbEntity
  8
0
  6
Continuous
 62
     0
100
AcDbLine
 10
0.2093426488654932
 20
3.565497949480179
 30
0.0
 11
0.381702600455927
 21
3.737857901070613
 31
0.0
  0
LINE
  5
53D5
330
53CB
100
AcDbEntity
  8
0
  6
Continuous
 62
     0
100
AcDbLine
 10
0.0203039616347991
 20
3.376459262249485
 30
0.0
 11
0.1620511246608394
 21
3.518206425275526
 31
0.0
  0
LINE
  5
53D6
330
53CB
100
AcDbEntity
  8
0
  6
Continuous
 62
     0
100
AcDbLine
 10
0.2093426488654928
 20
3.653886297128498
 30
0.0
 11
0.2933142528076082
 21
3.737857901070613
 31
0.0
  0
LINE
  5
53D7
330
53CB
100
AcDbEntity
  8
0
  6
Continuous
 62
     0
100
AcDbLine
 10
-0.0404558804895761
 20
3.404087767773429
 30
0.0
 11
0.0704645053795825
 21
3.515008153642587
 31
0.0
  0
LINE
  5
53D8
330
53CB
100
AcDbEntity
  8
0
  6
Continuous
 62
     0
100
AcDbLine
 10
-0.0376186399066307
 20
3.495313356004693
 30
0.0
 11
-0.0238136773219808
 21
3.509118318589342
 31
0.0
  0
ENDBLK
  5
53DA
330
53CB
100
AcDbEntity
  8
0
100
AcDbBlockEnd
  0
BLOCK
  5
587C
330
5875
100
AcDbEntity
  8
0
100
AcDbBlockBegin
  2
*D27
 70
     1
 10
0.0
 20
0.0
 30
0.0
  3
*D27
  1

  0
LINE
  5
592B
330
5875
100
AcDbEntity
  8
DIM
  6
Continuous
 62
     0
440
 16777216
370
    -2
100
AcDbLine
 10
0.0695287345457846
 20
0.3781978006351493
 30
0.0
 11
0.1632787345457846
 21
0.3781978006351494
 31
0.0
  0
LINE
  5
592C
330
5875
100
AcDbEntity
  8
DIM
  6
Continuous
 62
     0
440
 16777216
370
    -2
100
AcDbLine
 10
0.1632787345457846
 20
0.3781978006351494
 30
0.0
 11
0.3226887597386297
 21
0.5382570756545536
 31
0.0
  0
MTEXT
  5
592D
330
5875
100
AcDbEntity
  8
DIM
  6
Continuous
 62
     0
440
 16777216
100
AcDbMText
 10
-0.0852331702161202
 20
0.3781978006351494
 30
0.0
 40
0.0625
 41
0.0
 46
0.0
 71
     5
 72
     1
  1
\A1;∅.385
 73
     1
 44
1.0
  0
SOLID
  5
592E
330
5875
100
AcDbEntity
  8
DIM
  6
Continuous
 62
     0
440
 16777216
100
AcDbTrace
 10
0.3116177854540262
 20
0.5492831426500715
 30
0.0
 11
0.3337597340232332
 21
0.5272310086590358
 31
0.0
 12
0.3888451617117372
 22
0.6046829213621744
 32
0.0
 13
0.3888451617117372
 23
0.6046829213621744
 33
0.0
  0
POINT
  5
592F
330
5875
100
AcDbEntity
  8
DEFPOINTS
  6
Continuous
 62
     0
440
 16777216
100
AcDbPoint
 10
0.3888451617117372
 20
0.6046829213621744
 30
0.0
  0
POINT
  5
5930
330
5875
100
AcDbEntity
  8
DEFPOINTS
  6
Continuous
 62
     0
440
 16777216
100
AcDbPoint
 10
0.6605274524812988
 20
0.8774717277348031
 30
0.0
  0
ENDBLK
  5
587D
330
5875
100
AcDbEntity
  8
0
100
AcDbBlockEnd
  0
BLOCK
  5
588F
330
5884
100
AcDbEntity
  8
0
100
AcDbBlockBegin
  2
*D28
 70
     1
 10
0.0
 20
0.0
 30
0.0
  3
*D28
  1

  0
LINE
  5
5921
330
5884
100
AcDbEntity
  8
DIM
  6
Continuous
 62
     0
440
 16777216
370
    -2
100
AcDbLine
 10
2.013641530717223
 20
0.9648273245484885
 30
0.0
 11
2.013641530717223
 21
1.279767794384266
 31
0.0
  0
LINE
  5
5922
330
5884
100
AcDbEntity
  8
DIM
  6
Continuous
 62
     0
440
 16777216
370
    -2
100
AcDbLine
 10
1.576141530717223
 20
0.8335773245484869
 30
0.0
 11
1.576141530717223
 21
1.279767794384266
 31
0.0
  0
LINE
  5
5923
330
5884
100
AcDbEntity
  8
DIM
  6
Continuous
 62
     0
440
 16777216
370
    -2
100
AcDbLine
 10
1.919891530717223
 20
1.217267794384266
 30
0.0
 11
1.669891530717223
 21
1.217267794384266
 31
0.0
  0
LINE
  5
5924
330
5884
100
AcDbEntity
  8
DIM
  6
Continuous
 62
     0
440
 16777216
370
    -2
100
AcDbLine
 10
1.576141530717223
 20
1.217267794384266
 30
0.0
 11
1.482391530717223
 21
1.217267794384266
 31
0.0
  0
SOLID
  5
5925
330
5884
100
AcDbEntity
  8
DIM
  6
Continuous
 62
     0
440
 16777216
100
AcDbTrace
 10
1.919891530717223
 20
1.232892794384266
 30
0.0
 11
1.919891530717223
 21
1.201642794384266
 31
0.0
 12
2.013641530717223
 22
1.217267794384266
 32
0.0
 13
2.013641530717223
 23
1.217267794384266
 33
0.0
  0
SOLID
  5
5926
330
5884
100
AcDbEntity
  8
DIM
  6
Continuous
 62
     0
440
 16777216
100
AcDbTrace
 10
1.669891530717223
 20
1.232892794384266
 30
0.0
 11
1.669891530717223
 21
1.201642794384266
 31
0.0
 12
1.576141530717223
 22
1.217267794384266
 32
0.0
 13
1.576141530717223
 23
1.217267794384266
 33
0.0
  0
MTEXT
  5
5927
330
5884
100
AcDbEntity
  8
DIM
  6
Continuous
 62
     0
440
 16777216
100
AcDbMText
 10
1.385665340241033
 20
1.217267794384266
 30
0.0
 40
0.0625
 41
0.0
 46
0.0
 71
     5
 72
     1
  1
\A1;.44
 73
     1
 44
1.0
  0
POINT
  5
5928
330
5884
100
AcDbEntity
  8
DEFPOINTS
  6
Continuous
 62
     0
440
 16777216
100
AcDbPoint
 10
2.013641530717223
 20
0.9335773245484885
 30
0.0
  0
POINT
  5
5929
330
5884
100
AcDbEntity
  8
DEFPOINTS
  6
Continuous
 62
     0
440
 16777216
100
AcDbPoint
 10
1.576141530717223
 20
0.8023273245484869
 30
0.0
  0
POINT
  5
592A
330
5884
100
AcDbEntity
  8
DEFPOINTS
  6
Continuous
 62
     0
440
 16777216
100
AcDbPoint
 10
1.576141530717223
 20
1.217267794384266
 30
0.0
  0
ENDBLK
  5
5890
330
5884
100
AcDbEntity
  8
0
100
AcDbBlockEnd
  0
BLOCK
  5
589F
330
5892
100
AcDbEntity
  8
0
100
AcDbBlockBegin
  2
*D29
 70
     1
 10
0.0
 20
0.0
 30
0.0
  3
*D29
  1

  0
LINE
  5
5934
330
5892
100
AcDbEntity
  8
DIM
  6
Continuous
 62
     0
440
 16777216
370
    -2
100
AcDbLine
 10
2.033845333698522
 20
0.5247368370305549
 30
0.0
 11
2.339080057243094
 21
0.1645598632479521
 31
0.0
  0
LINE
  5
5935
330
5892
100
AcDbEntity
  8
DIM
  6
Continuous
 62
     0
440
 16777216
370
    -2
100
AcDbLine
 10
2.033845333698523
 20
0.957417812066423
 30
0.0
 11
2.339080057243097
 21
1.317594785849024
 31
0.0
  0
ARC
  5
5936
330
5892
100
AcDbEntity
  8
DIM
  6
Continuous
 62
     0
440
 16777216
370
    -2
100
AcDbCircle
 10
1.850505937496887
 20
0.7410773245484894
 30
0.0
 40
0.6931964031078869
100
AcDbArc
 50
318.0346370692315
 51
350.4855077886048
  0
ARC
  5
5937
330
5892
100
AcDbEntity
  8
DIM
  6
Continuous
 62
     0
440
 16777216
370
    -2
100
AcDbCircle
 10
1.850505937496887
 20
0.7410773245484894
 30
0.0
 40
0.6931964031078869
100
AcDbArc
 50
9.51449221139506
 51
41.96536293076825
  0
SOLID
  5
5938
330
5892
100
AcDbEntity
  8
DIM
  6
Continuous
 62
     0
440
 16777216
100
AcDbTrace
 10
2.376816412111517
 20
0.2663400481730566
 30
0.0
 11
2.355046724534953
 21
0.2887597538539704
 31
0.0
 12
2.298672451280493
 22
0.2122408382838217
 32
0.0
 13
2.298672451280493
 23
0.2122408382838217
 33
0.0
  0
SOLID
  5
5939
330
5892
100
AcDbEntity
  8
DIM
  6
Continuous
 62
     0
440
 16777216
100
AcDbTrace
 10
2.355046724534955
 20
1.193394895243006
 30
0.0
 11
2.376816412111519
 21
1.215814600923919
 31
0.0
 12
2.298672451280496
 22
1.269913810813154
 32
0.0
 13
2.298672451280496
 23
1.269913810813154
 33
0.0
  0
MTEXT
  5
593A
330
5892
100
AcDbEntity
  8
DIM
  6
Continuous
 62
     0
440
 16777216
100
AcDbMText
 10
2.543702340604773
 20
0.7410773245484884
 30
0.0
 40
0.0625
 41
0.0
 46
0.0
 71
     5
 72
     1
  1
\A1;99\P101
 73
     1
 44
1.0
  0
POINT
  5
593B
330
5892
100
AcDbEntity
  8
DEFPOINTS
  6
Continuous
 62
     0
440
 16777216
100
AcDbPoint
 10
2.51490364080217
 20
0.5433478499515641
 30
0.0
  0
POINT
  5
593C
330
5892
100
AcDbEntity
  8
DEFPOINTS
  6
Continuous
 62
     0
440
 16777216
100
AcDbPoint
 10
2.013641530717222
 20
0.5485773245484897
 30
0.0
  0
POINT
  5
593D
330
5892
100
AcDbEntity
  8
DEFPOINTS
  6
Continuous
 62
     0
440
 16777216
100
AcDbPoint
 10
2.013641530717223
 20
0.9335773245484883
 30
0.0
  0
POINT
  5
593E
330
5892
100
AcDbEntity
  8
DEFPOINTS
  6
Continuous
 62
     0
440
 16777216
100
AcDbPoint
 10
1.928895768005358
 20
0.8335773245484869
 30
0.0
  0
POINT
  5
593F
330
5892
100
AcDbEntity
  8
DEFPOINTS
  6
Continuous
 62
     0
440
 16777216
100
AcDbPoint
 10
1.928895768005358
 20
0.6485773245484915
 30
0.0
  0
ENDBLK
  5
58A0
330
5892
100
AcDbEntity
  8
0
100
AcDbBlockEnd
  0
BLOCK
  5
594F
330
5942
100
AcDbEntity
  8
0
100
AcDbBlockBegin
  2
*D30
 70
     1
 10
0.0
 20
0.0
 30
0.0
  3
*D30
  1

  0
LINE
  5
5943
330
5942
100
AcDbEntity
  8
DIM
  6
Continuous
 62
     0
440
 16777216
370
    -2
100
AcDbLine
 10
0.4794297717598388
 20
2.545649790518865
 30
0.0
 11
0.8753302837119562
 21
2.073834045186508
 31
0.0
  0
LINE
  5
5944
330
5942
100
AcDbEntity
  8
DIM
  6
Continuous
 62
     0
440
 16777216
370
    -2
100
AcDbLine
 10
0.4794297702735394
 20
3.110265973688193
 30
0.0
 11
0.8753302368904941
 21
3.582081724483489
 31
0.0
  0
ARC
  5
5945
330
5942
100
AcDbEntity
  8
DIM
  6
Continuous
 62
     0
440
 16777216
370
    -2
100
AcDbCircle
 10
0.242545114143743
 20
2.827957865191059
 30
0.0
 40
0.9219388283299931
100
AcDbArc
 50
315.8288059331937
 51
356.1128297924602
  0
ARC
  5
5946
330
5942
100
AcDbEntity
  8
DIM
  6
Continuous
 62
     0
440
 16777216
370
    -2
100
AcDbCircle
 10
0.242545114143743
 20
2.827957865191059
 30
0.0
 40
0.9219388283299931
100
AcDbArc
 50
3.887173773078771
 51
44.17119762414273
  0
SOLID
  5
5947
330
5942
100
AcDbEntity
  8
DIM
  6
Continuous
 62
     0
440
 16777216
100
AcDbTrace
 10
0.9144550421438417
 20
2.174103357263029
 30
0.0
 11
0.8931767597585814
 21
2.196989973411624
 31
0.0
 12
0.8351560525054274
 22
2.121711818181545
 32
0.0
 13
0.8351560525054274
 23
2.121711818181545
 33
0.0
  0
SOLID
  5
5948
330
5942
100
AcDbEntity
  8
DIM
  6
Continuous
 62
     0
440
 16777216
100
AcDbTrace
 10
0.8931767205835299
 20
3.458925797366411
 30
0.0
 11
0.9144550015478237
 21
3.481812414836115
 31
0.0
 12
0.835156008656564
 22
3.534203948994144
 32
0.0
 13
0.835156008656564
 23
3.534203948994144
 33
0.0
  0
MTEXT
  5
5949
330
5942
100
AcDbEntity
  8
DIM
  6
Continuous
 62
     0
440
 16777216
100
AcDbMText
 10
1.164483942473735
 20
2.827957893811374
 30
0.0
 40
0.0625
 41
0.0
 46
0.0
 71
     5
 72
     1
  1
\A1;100°
 73
     1
 44
1.0
  0
POINT
  5
594A
330
5942
100
AcDbEntity
  8
DEFPOINTS
  6
Continuous
 62
     0
440
 16777216
100
AcDbPoint
 10
1.125752858463689
 20
2.56354288158432
 30
0.0
  0
POINT
  5
594B
330
5942
100
AcDbEntity
  8
DEFPOINTS
  6
Continuous
 62
     0
440
 16777216
100
AcDbPoint
 10
0.4593426561565744
 20
2.569588677016383
 30
0.0
  0
POINT
  5
594C
330
5942
100
AcDbEntity
  8
DEFPOINTS
  6
Continuous
 62
     0
440
 16777216
100
AcDbPoint
 10
0.3373400130415178
 20
2.940930013916236
 30
0.0
  0
POINT
  5
594D
330
5942
100
AcDbEntity
  8
DEFPOINTS
  6
Continuous
 62
     0
440
 16777216
100
AcDbPoint
 10
0.4593426561565744
 20
3.086327085943521
 30
0.0
  0
POINT
  5
594E
330
5942
100
AcDbEntity
  8
DEFPOINTS
  6
Continuous
 62
     0
440
 16777216
100
AcDbPoint
 10
0.3373400130415178
 20
2.714985730710544
 30
0.0
  0
ENDBLK
  5
5950
330
5942
100
AcDbEntity
  8
0
100
AcDbBlockEnd
  0
BLOCK
  5
5A7D
330
5A7C
100
AcDbEntity
  8
0
100
AcDbBlockBegin
  2
*U31
 70
     1
 10
0.0
 20
0.0
 30
0.0
  3
*U31
  1

  0
ENDBLK
  5
5A7E
330
5A7C
100
AcDbEntity
  8
0
100
AcDbBlockEnd
  0
BLOCK
  5
5ABC
330
5ABA
100
AcDbEntity
  8
0
100
AcDbBlockBegin
  2
GENAXEH
 70
     0
 10
0.0
 20
0.0
 30
0.0
  3
GENAXEH
  1

  0
LINE
  5
5ABB
330
5ABA
100
AcDbEntity
  8
0
100
AcDbLine
 10
-1.0
 20
0.0
 30
0.0
 11
1.0
 21
0.0
 31
0.0
  0
ENDBLK
  5
5ABD
330
5ABA
100
AcDbEntity
  8
0
100
AcDbBlockEnd
  0
ENDSEC
  0
SECTION
  2
ENTITIES
  0
LINE
  5
2E5E
330
A
100
AcDbEntity
  8
SOLID
100
AcDbLine
 10
5.185342777383965
 20
2.377577021818074
 30
0.0
 11
5.406389770496904
 21
2.369857897656721
 31
0.0
  0
LINE
  5
2E62
330
A
100
AcDbEntity
  8
HIDDEN
100
AcDbLine
 10
5.406389770496904
 20
4.237857858361774
 30
0.0
 11
5.166389762580806
 21
4.237857858361774
 31
0.0
  0
LINE
  5
2E64
330
A
100
AcDbEntity
  8
HIDDEN
100
AcDbLine
 10
5.166389762580806
 20
3.737857901070613
 30
0.0
 11
5.406389770496904
 21
3.737857901070613
 31
0.0
  0
LINE
  5
2E65
330
A
100
AcDbEntity
  8
HIDDEN
100
AcDbLine
 10
5.281389718405538
 20
2.71855790277784
 30
0.0
 11
5.406389770496904
 21
2.569588677016382
 31
0.0
  0
LINE
  5
2E66
330
A
100
AcDbEntity
  8
HIDDEN
100
AcDbLine
 10
5.406389770496904
 20
3.086327085943519
 30
0.0
 11
5.284387127381847
 21
2.940930013916236
 31
0.0
  0
LINE
  5
2E68
330
A
100
AcDbEntity
  8
SOLID
100
AcDbLine
 10
5.185342777383965
 20
4.362138749324982
 30
0.0
 11
5.406389770496904
 21
4.369857873486335
 31
0.0
  0
LINE
  5
2E6A
330
A
100
AcDbEntity
  8
PHANTOM
100
AcDbLine
 10
2.601925843734905
 20
4.704863707601757
 30
0.0
 11
2.601925843734905
 21
2.173489911942105
 31
0.0
  0
LINE
  5
2E6B
330
A
100
AcDbEntity
  8
HIDDEN
100
AcDbLine
 10
5.166389762580806
 20
4.082857915601005
 30
0.0
 11
5.166389762580806
 21
4.237857858361774
 31
0.0
  0
LINE
  5
2E6C
330
A
100
AcDbEntity
  8
SOLID
100
AcDbLine
 10
0.2193426482404797
 20
4.237857858361774
 30
0.0
 11
0.2193426482404797
 21
4.082857915601007
 31
0.0
1001
ACAD
1000
ASC_BOUNDS
1002
{
1070
    19
1005
3167
1002
}
  0
LINE
  5
2E6D
330
A
100
AcDbEntity
  8
SOLID
100
AcDbLine
 10
0.2093426488654928
 20
4.082857915601007
 30
0.0
 11
0.2093426488654928
 21
4.247857916173586
 31
0.0
  0
LINE
  5
2E6E
330
A
100
AcDbEntity
  8
SOLID
100
AcDbLine
 10
0.4593426561565744
 20
4.082857915601007
 30
0.0
 11
0.4593426561565744
 21
4.237857858361774
 31
0.0
  0
LINE
  5
2E6F
330
A
100
AcDbEntity
  8
SOLID
100
AcDbLine
 10
5.156389763205822
 20
3.791456505228298
 30
0.0
 11
5.156389763205822
 21
4.244857884163545
 31
0.0
  0
LINE
  5
2E70
330
A
100
AcDbEntity
  8
SOLID
100
AcDbLine
 10
2.139626704254011
 20
4.244857884163545
 30
0.0
 11
2.139626704254011
 21
3.791456505228298
 31
0.0
  0
LINE
  5
2E71
330
A
100
AcDbEntity
  8
SOLID
100
AcDbLine
 10
2.109644973938854
 20
3.791456505228298
 30
0.0
 11
2.109644973938854
 21
4.244857884163545
 31
0.0
  0
LINE
  5
2E72
330
A
100
AcDbEntity
  8
SOLID
100
AcDbLine
 10
2.101925849777499
 20
4.244857884163545
 30
0.0
 11
2.101925849777499
 21
2.494857886979513
 31
0.0
  0
ARC
  5
2E73
330
A
100
AcDbEntity
  8
SOLID
100
AcDbCircle
 10
2.601925843734905
 20
4.082857885571529
 30
0.0
 40
0.1550000000000011
100
AcDbArc
 50
0.0000000000007994
 51
180.0000000000004
  0
ARC
  5
2E74
330
A
100
AcDbEntity
  8
SOLID
100
AcDbCircle
 10
2.601925843734905
 20
4.082857885571529
 30
0.0
 40
0.1650000000000009
100
AcDbArc
 50
0.0000000000007994
 51
180.0000000000004
  0
LINE
  5
2E75
330
A
100
AcDbEntity
  8
SOLID
100
AcDbLine
 10
3.064224983215796
 20
3.791456505228298
 30
0.0
 11
3.064224983215796
 21
4.244857884163545
 31
0.0
  0
LINE
  5
2E76
330
A
100
AcDbEntity
  8
SOLID
100
AcDbLine
 10
3.101925837692308
 20
2.494857886979513
 30
0.0
 11
3.101925837692308
 21
4.244857884163545
 31
0.0
  0
LINE
  5
2E77
330
A
100
AcDbEntity
  8
SOLID
100
AcDbLine
 10
3.094206713530956
 20
4.244857884163545
 30
0.0
 11
3.094206713530956
 21
3.791456505228298
 31
0.0
  0
LINE
  5
2E79
330
A
100
AcDbEntity
  8
SOLID
100
AcDbLine
 10
0.4593426561565744
 20
2.369857897656721
 30
0.0
 11
0.4593426561565744
 21
2.569588677016383
 31
0.0
1001
ACAD
1000
ASC_BOUNDS
1002
{
1070
    19
1005
315F
1002
}
  0
LINE
  5
2E7A
330
A
100
AcDbEntity
  8
SOLID
100
AcDbLine
 10
0.2093426488654928
 20
2.407558715466992
 30
0.0
 11
0.2093426488654928
 21
2.708557918298515
 31
0.0
1001
ACAD
1000
ASC_BOUNDS
1002
{
1070
    19
1005
315F
1002
}
  0
LINE
  5
2E7B
330
A
100
AcDbEntity
  8
SOLID
100
AcDbLine
 10
0.2382956630436355
 20
2.377577021818074
 30
0.0
 11
0.4593426561565744
 21
2.369857897656721
 31
0.0
1001
ACAD
1000
ASC_BOUNDS
1002
{
1070
    19
1005
315F
1002
}
  0
ARC
  5
2E7D
330
A
100
AcDbEntity
  8
SOLID
100
AcDbCircle
 10
0.2393426487283374
 20
2.407558741188678
 30
0.0
 40
0.03
100
AcDbArc
 50
180.0000000000004
 51
268.0000000000005
1001
ACAD
1000
ASC_BOUNDS
1002
{
1070
    19
1005
315F
1002
}
  0
LINE
  5
2E7F
330
A
100
AcDbEntity
  8
SOLID
100
AcDbLine
 10
0.4593426561565744
 20
3.086327085943521
 30
0.0
 11
0.4593426561565744
 21
3.737857901070613
 31
0.0
1001
ACAD
1000
ASC_BOUNDS
1002
{
1070
    19
1005
3B97
1002
}
  0
ARC
  5
2E80
330
A
100
AcDbEntity
  8
SOLID
100
AcDbCircle
 10
0.1793426487283352
 20
3.340887222327317
 30
0.0
 40
0.03
100
AcDbArc
 50
0.0
 51
87.99999999999959
1001
ACAD
1000
ASC_BOUNDS
1002
{
1070
    19
1005
3B97
1002
}
  0
LINE
  5
2E82
330
A
100
AcDbEntity
  8
SOLID
100
AcDbLine
 10
0.3296795732022404
 20
2.718557902777842
 30
0.0
 11
0.3296795732022404
 21
2.937357878515184
 31
0.0
  0
LINE
  5
2E83
330
A
100
AcDbEntity
  8
SOLID
100
AcDbLine
 10
0.3373400130415178
 20
2.940930013916236
 30
0.0
 11
0.3373400130415178
 21
2.714985730710544
 31
0.0
  0
LINE
  5
2E84
330
A
100
AcDbEntity
  8
SOLID
100
AcDbLine
 10
0.2093426488654928
 20
2.708557918298515
 30
0.0
 11
0.2093426488654928
 21
2.947357899660753
 31
0.0
  0
LINE
  5
2E85
330
A
100
AcDbEntity
  8
SOLID
100
AcDbLine
 10
0.2193426482404797
 20
2.937357878515184
 30
0.0
 11
0.2193426482404797
 21
2.718557902777842
 31
0.0
  0
LINE
  5
2E86
330
A
100
AcDbEntity
  8
SOLID
100
AcDbLine
 10
0.4593426561565744
 20
3.086327085943521
 30
0.0
 11
0.4593426561565744
 21
2.569588677016383
 31
0.0
  0
LINE
  5
2E87
330
A
100
AcDbEntity
  8
SOLID
100
AcDbLine
 10
0.4593426561565744
 20
2.569588677016383
 30
0.0
 11
0.3373400130415178
 21
2.714985730710544
 31
0.0
1001
ACAD
1000
ASC_BOUNDS
1002
{
1070
    19
1005
315F
1002
}
  0
LINE
  5
2E88
330
A
100
AcDbEntity
  8
SOLID
100
AcDbLine
 10
0.3296795732022404
 20
2.718557902777842
 30
0.0
 11
0.2193426482404797
 21
2.718557902777842
 31
0.0
1001
ACAD
1000
ASC_BOUNDS
1002
{
1070
    19
1005
315F
1002
}
  0
ARC
  5
2E89
330
A
100
AcDbEntity
  8
SOLID
100
AcDbCircle
 10
0.2193426487283343
 20
2.708557885571529
 30
0.0
 40
0.0100000000000002
100
AcDbArc
 50
90.0
 51
180.0000000000004
1001
ACAD
1000
ASC_BOUNDS
1002
{
1070
    19
1005
315F
1002
}
  0
ARC
  5
2E8A
330
A
100
AcDbEntity
  8
SOLID
100
AcDbCircle
 10
0.3296795721467856
 20
2.708557885571529
 30
0.0
 40
0.0100000000000002
100
AcDbArc
 50
40.00000000000293
 51
90.0
1001
ACAD
1000
ASC_BOUNDS
1002
{
1070
    19
1005
315F
1002
}
  0
LINE
  5
2E8B
330
A
100
AcDbEntity
  8
SOLID
100
AcDbLine
 10
0.3373400130415178
 20
2.940930013916236
 30
0.0
 11
0.4593426561565744
 21
3.086327085943521
 31
0.0
1001
ACAD
1000
ASC_BOUNDS
1002
{
1070
    19
1005
3B97
1002
}
  0
LINE
  5
2E8C
330
A
100
AcDbEntity
  8
SOLID
100
AcDbLine
 10
0.2093426488654928
 20
2.947357899660753
 30
0.0
 11
0.2093426488654928
 21
3.340887222317022
 31
0.0
1001
ACAD
1000
ASC_BOUNDS
1002
{
1070
    19
1005
3B97
1002
}
  0
LINE
  5
2E8D
330
A
100
AcDbEntity
  8
SOLID
100
AcDbLine
 10
0.2193426482404797
 20
2.937357878515184
 30
0.0
 11
0.3296795732022404
 21
2.937357878515184
 31
0.0
1001
ACAD
1000
ASC_BOUNDS
1002
{
1070
    19
1005
3B97
1002
}
  0
ARC
  5
2E8E
330
A
100
AcDbEntity
  8
SOLID
100
AcDbCircle
 10
0.2193426487283343
 20
2.947357885571529
 30
0.0
 40
0.0100000000000002
100
AcDbArc
 50
180.0000000000004
 51
270.0000000000008
1001
ACAD
1000
ASC_BOUNDS
1002
{
1070
    19
1005
3B97
1002
}
  0
ARC
  5
2E8F
330
A
100
AcDbEntity
  8
SOLID
100
AcDbCircle
 10
0.3296795721467856
 20
2.947357885571529
 30
0.0
 40
0.0100000000000002
100
AcDbArc
 50
270.0000000000008
 51
319.9999999999979
  0
LINE
  5
2E91
330
A
100
AcDbEntity
  8
SOLID
100
AcDbLine
 10
-0.0117043339350658
 20
3.377577016607801
 30
0.0
 11
0.1803896336742052
 21
3.370868947162716
 31
0.0
1001
ACAD
1000
ASC_BOUNDS
1002
{
1070
    19
1005
3B97
1002
}
  0
LWPOLYLINE
  5
2E92
330
A
100
AcDbEntity
  8
SOLID
100
AcDbPolyline
 90
        4
 70
   128
 43
0.0
 10
-0.0352834415472017
 20
3.517783434222968
 10
-0.0009011937338612
 20
3.554661085709192
 10
0.1627463082962266
 20
3.730177643126943
 10
0.2012818205265376
 20
3.771506365694012
  0
LINE
  5
2E95
330
A
100
AcDbEntity
  8
DIM
100
AcDbLine
 10
0.209342648865493
 20
3.519857879838748
 30
0.0
 11
0.2012115983859972
 21
3.519573937617727
 31
0.0
  0
LWPOLYLINE
  5
2E97
330
A
100
AcDbEntity
  8
SOLID
100
AcDbPolyline
 90
        9
 70
   128
 43
0.0
 10
-0.0352834415472017
 20
3.517783434222968
 10
-0.0364970391942854
 20
3.516353340743529
 10
-0.0375713234507287
 20
3.514815861004628
 10
-0.0384968344258154
 20
3.513184506516839
 10
-0.0392654322135733
 20
3.511473622947779
 10
-0.0398703702252781
 20
3.509698270956796
 10
-0.0403062951894362
 20
3.507874052030331
 10
-0.0405693938167651
 20
3.506017025982853
 10
-0.0406573561339498
 20
3.504143527625666
  0
ARC
  5
2E9D
330
A
100
AcDbEntity
  8
SOLID
100
AcDbCircle
 10
-0.0106573512716661
 20
3.482157029954379
 30
0.0
 40
0.0300000000000003
100
AcDbArc
 50
91.99999999999997
 51
180.0000000000004
1001
ACAD
1000
ASC_BOUNDS
1002
{
1070
    19
1005
3B97
1002
}
  0
ARC
  5
2E9E
330
A
100
AcDbEntity
  8
SOLID
100
AcDbCircle
 10
-0.0106573512716661
 20
3.407558741188678
 30
0.0
 40
0.03
100
AcDbArc
 50
180.0000000000004
 51
268.0000000000009
1001
ACAD
1000
ASC_BOUNDS
1002
{
1070
    19
1005
3B97
1002
}
  0
LINE
  5
2E9F
330
A
100
AcDbEntity
  8
SOLID
100
AcDbLine
 10
-0.0406573561339498
 20
3.504143527625666
 30
0.0
 11
-0.0406573561339498
 21
3.482157029954378
 31
0.0
  0
LINE
  5
2EA2
330
A
100
AcDbEntity
  8
SOLID
100
AcDbLine
 10
0.2093426488654928
 20
3.727857879925045
 30
0.0
 11
0.2093426488654928
 21
3.892857880497626
 31
0.0
  0
LINE
  5
2EA3
330
A
100
AcDbEntity
  8
SOLID
100
AcDbLine
 10
0.2193426482404797
 20
3.892857880497626
 30
0.0
 11
0.2193426482404797
 21
3.737857901070613
 31
0.0
  0
LINE
  5
2EA4
330
A
100
AcDbEntity
  8
SOLID
100
AcDbLine
 10
0.4593426561565744
 20
3.737857901070613
 30
0.0
 11
0.4593426561565744
 21
3.892857880497626
 31
0.0
  0
LWPOLYLINE
  5
2EA5
330
A
100
AcDbEntity
  8
SOLID
100
AcDbPolyline
 90
        9
 70
   128
 43
0.0
 10
0.2093426488654928
 20
3.791966935998425
 10
0.2092107119781787
 20
3.789156578463915
 10
0.2088160623184572
 20
3.786370933977252
 10
0.2081621708618493
 20
3.783634532255064
 10
0.207254789052334
 20
3.78097138968658
 10
0.2061018982430256
 20
3.778405009333626
 10
0.2047136389417745
 20
3.775957867603215
 10
0.2031022218668981
 20
3.773651560912535
 10
0.2012818205265376
 20
3.771506365694012
  0
LINE
  5
2EA6
330
A
100
AcDbEntity
  8
SOLID
100
AcDbLine
 10
0.4593426561565744
 20
3.737857901070613
 30
0.0
 11
0.2193426482404797
 21
3.737857901070613
 31
0.0
1001
ACAD
1000
ASC_BOUNDS
1002
{
1070
    19
1005
3B97
1002
}
  0
LINE
  5
2EA8
330
A
100
AcDbEntity
  8
DIM
100
AcDbLine
 10
0.209342648865493
 20
3.519857879838748
 30
0.0
 11
0.209342648865493
 21
3.529625371433338
 31
0.0
  0
ARC
  5
2EAA
330
A
100
AcDbEntity
  8
SOLID
100
AcDbCircle
 10
0.1793426487283352
 20
3.548828548815741
 30
0.0
 40
0.03
100
AcDbArc
 50
272.0000000000012
 51
0.0
1001
ACAD
1000
ASC_BOUNDS
1002
{
1070
    19
1005
3B97
1002
}
  0
ARC
  5
2EB0
330
A
100
AcDbEntity
  8
SOLID
100
AcDbCircle
 10
0.2193426487283343
 20
3.727857885571529
 30
0.0
 40
0.0100000000000002
100
AcDbArc
 50
90.0
 51
180.0000000000004
1001
ACAD
1000
ASC_BOUNDS
1002
{
1070
    19
1005
3B97
1002
}
  0
LINE
  5
2EB1
330
A
100
AcDbEntity
  8
0
  6
Continuous
 62
     7
100
AcDbLine
 10
0.4593426487283368
 20
3.369857885571528
 30
0.0
 11
0.4593426487283368
 21
3.377276067389711
 31
0.0
  0
LINE
  5
2EB2
330
A
100
AcDbEntity
  8
0
  6
Continuous
 62
     7
100
AcDbLine
 10
0.4593426487283368
 20
3.369857885571528
 30
0.0
 11
0.4593426487283368
 21
3.369857885571528
 31
0.0
  0
LINE
  5
2EB5
330
A
100
AcDbEntity
  8
SOLID
100
AcDbLine
 10
0.2093426488654928
 20
3.892857880497626
 30
0.0
 11
0.2093426488654928
 21
4.082857915601007
 31
0.0
  0
LINE
  5
2EB6
330
A
100
AcDbEntity
  8
SOLID
100
AcDbLine
 10
0.2193426482404797
 20
4.082857915601007
 30
0.0
 11
0.2193426482404797
 21
3.892857880497626
 31
0.0
  0
LINE
  5
2EB7
330
A
100
AcDbEntity
  8
SOLID
100
AcDbLine
 10
0.2093426488654928
 20
3.892857880497626
 30
0.0
 11
0.2193426482404797
 21
3.892857880497626
 31
0.0
  0
LINE
  5
2EB8
330
A
100
AcDbEntity
  8
SOLID
100
AcDbLine
 10
0.2093426488654928
 20
4.082857915601007
 30
0.0
 11
0.2193426482404797
 21
4.082857915601007
 31
0.0
  0
LINE
  5
2EB9
330
A
100
AcDbEntity
  8
SOLID
100
AcDbLine
 10
0.4593426561565744
 20
3.892857880497626
 30
0.0
 11
0.4593426561565744
 21
4.082857915601007
 31
0.0
  0
LINE
  5
2EBA
330
A
100
AcDbEntity
  8
SOLID
100
AcDbLine
 10
5.156389763205822
 20
2.40755871546699
 30
0.0
 11
5.156389763205822
 21
2.494857886979513
 31
0.0
  0
ARC
  5
2EBC
330
A
100
AcDbEntity
  8
SOLID
100
AcDbCircle
 10
2.976925843734905
 20
2.494857885571528
 30
0.0
 40
0.125
100
AcDbArc
 50
270.0000000000004
 51
0.0
  0
ARC
  5
2EBD
330
A
100
AcDbEntity
  8
SOLID
100
AcDbCircle
 10
2.976925843734905
 20
2.494857885571528
 30
0.0
 40
0.1172808691934239
100
AcDbArc
 50
270.0000000000004
 51
0.0
  0
ARC
  5
2EBE
330
A
100
AcDbEntity
  8
SOLID
100
AcDbCircle
 10
2.976925843734905
 20
2.494857885571528
 30
0.0
 40
0.0872991443828508
100
AcDbArc
 50
270.0000000000002
 51
0.0
  0
ARC
  5
2EBF
330
A
100
AcDbEntity
  8
SOLID
100
AcDbCircle
 10
2.226925843734905
 20
2.494857885571528
 30
0.0
 40
0.1250000000000004
100
AcDbArc
 50
180.0000000000004
 51
270.0000000000012
  0
ARC
  5
2EC0
330
A
100
AcDbEntity
  8
SOLID
100
AcDbCircle
 10
2.226925843734905
 20
2.494857885571528
 30
0.0
 40
0.1172808691934239
100
AcDbArc
 50
180.0000000000004
 51
270.0000000000012
  0
ARC
  5
2EC1
330
A
100
AcDbEntity
  8
SOLID
100
AcDbCircle
 10
2.226925843734905
 20
2.494857885571528
 30
0.0
 40
0.0872991443828513
100
AcDbArc
 50
180.0000000000004
 51
270.0000000000014
  0
LINE
  5
2EC2
330
A
100
AcDbEntity
  8
SOLID
100
AcDbLine
 10
2.226925839100291
 20
2.369857897656721
 30
0.0
 11
2.976925848369516
 21
2.369857897656721
 31
0.0
  0
LINE
  5
2EC3
330
A
100
AcDbEntity
  8
SOLID
100
AcDbLine
 10
2.976925848369516
 20
2.377577021818074
 30
0.0
 11
2.226925839100291
 21
2.377577021818074
 31
0.0
  0
LINE
  5
2EC4
330
A
100
AcDbEntity
  8
SOLID
100
AcDbLine
 10
2.226925839100291
 20
2.40755871546699
 30
0.0
 11
2.976925848369516
 21
2.40755871546699
 31
0.0
  0
LINE
  5
2EC7
330
A
100
AcDbEntity
  8
SOLID
100
AcDbLine
 10
2.226925839100291
 20
2.377577021818074
 30
0.0
 11
2.226925839100291
 21
2.369857897656721
 31
0.0
  0
LINE
  5
2EC8
330
A
100
AcDbEntity
  8
SOLID
100
AcDbLine
 10
2.226925839100291
 20
2.40755871546699
 30
0.0
 11
2.226925839100291
 21
2.377577021818074
 31
0.0
  0
LINE
  5
2EC9
330
A
100
AcDbEntity
  8
SOLID
100
AcDbLine
 10
2.976925848369516
 20
2.377577021818074
 30
0.0
 11
2.976925848369516
 21
2.369857897656721
 31
0.0
  0
LINE
  5
2ECA
330
A
100
AcDbEntity
  8
SOLID
100
AcDbLine
 10
2.976925848369516
 20
2.40755871546699
 30
0.0
 11
2.976925848369516
 21
2.377577021818074
 31
0.0
  0
ARC
  5
2ECB
330
A
100
AcDbEntity
  8
SOLID
100
AcDbCircle
 10
5.186389763068664
 20
2.407558741188678
 30
0.0
 40
0.0300000000000003
100
AcDbArc
 50
180.0000000000004
 51
268.0000000000009
  0
LINE
  5
2ECE
330
A
100
AcDbEntity
  8
SOLID
100
AcDbLine
 10
3.064224983215796
 20
3.340887222326436
 30
0.0
 11
2.139626704254011
 21
3.340887222326436
 31
0.0
  0
LINE
  5
2ECF
330
A
100
AcDbEntity
  8
SOLID
100
AcDbLine
 10
2.141648810894464
 20
3.370868947127336
 30
0.0
 11
3.062202876575346
 21
3.370868947127336
 31
0.0
  0
LINE
  5
2ED0
330
A
100
AcDbEntity
  8
SOLID
100
AcDbLine
 10
3.055494787401096
 20
3.377577016607801
 30
0.0
 11
2.148356900068714
 21
3.377577016607801
 31
0.0
  0
LINE
  5
2ED1
330
A
100
AcDbEntity
  8
SOLID
100
AcDbLine
 10
2.252351092052267
 20
3.54882854975381
 30
0.0
 11
2.951500595417543
 21
3.54882854975381
 31
0.0
  0
LINE
  5
2ED2
330
A
100
AcDbEntity
  8
SOLID
100
AcDbLine
 10
2.951500595417543
 20
3.51884681943865
 30
0.0
 11
2.252351092052267
 21
3.51884681943865
 31
0.0
  0
LINE
  5
2ED3
330
A
100
AcDbEntity
  8
SOLID
100
AcDbLine
 10
2.962606910449776
 20
3.482157027448925
 30
0.0
 11
2.239129758119579
 21
3.482157027448925
 31
0.0
  0
LINE
  5
2ED4
330
A
100
AcDbEntity
  8
SOLID
100
AcDbLine
 10
2.241263183474066
 20
3.512138757764084
 30
0.0
 11
2.960574867257447
 21
3.512138757764084
 31
0.0
  0
LINE
  5
2ED5
330
A
100
AcDbEntity
  8
SOLID
100
AcDbLine
 10
2.148356900068714
 20
3.40755874004804
 30
0.0
 11
3.055494787401096
 21
3.40755874004804
 31
0.0
  0
LWPOLYLINE
  5
2ED6
330
A
100
AcDbEntity
  8
SOLID
100
AcDbPolyline
 90
        9
 70
   128
 43
0.0
 10
2.141648810894464
 20
3.370868947127336
 10
2.141250615494454
 20
3.37011832426702
 10
2.140869726561179
 20
3.368293586051304
 10
2.140520150599511
 20
3.365461783777547
 10
2.140214757460773
 20
3.361726973719266
 10
2.139964730349108
 20
3.357226393470769
 10
2.139779272491532
 20
3.352125420105982
 10
2.139665203809263
 20
3.346611492032517
 10
2.139626704254011
 20
3.340887222326436
  0
LWPOLYLINE
  5
2ED7
330
A
100
AcDbEntity
  8
SOLID
100
AcDbPolyline
 90
        9
 70
   128
 43
0.0
 10
2.111667080579307
 20
3.400850671498554
 10
2.11126888517929
 20
3.399349427174389
 10
2.110887996246018
 20
3.395699948916806
 10
2.110538420284351
 20
3.390036345801567
 10
2.110233027145612
 20
3.382566725112097
 10
2.109983000033947
 20
3.373565564328648
 10
2.109797542176371
 20
3.363363617885529
 10
2.109683473494103
 20
3.352335761738597
 10
2.109644973938854
 20
3.340887222326436
  0
LINE
  5
2ED8
330
A
100
AcDbEntity
  8
SOLID
100
AcDbLine
 10
2.139626704254011
 20
3.340887222326436
 30
0.0
 11
2.139626704254011
 21
2.494857886979513
 31
0.0
  0
LINE
  5
2ED9
330
A
100
AcDbEntity
  8
SOLID
100
AcDbLine
 10
2.109644973938854
 20
2.494857886979513
 30
0.0
 11
2.109644973938854
 21
3.340887222326436
 31
0.0
  0
LINE
  5
2EDA
330
A
100
AcDbEntity
  8
SOLID
100
AcDbLine
 10
2.109644973938854
 20
2.494857886979513
 30
0.0
 11
2.139626704254011
 21
2.494857886979513
 31
0.0
  0
LINE
  5
2EDB
330
A
100
AcDbEntity
  8
SOLID
100
AcDbLine
 10
2.109644973938854
 20
2.494857886979513
 30
0.0
 11
2.101925849777499
 21
2.494857886979513
 31
0.0
  0
LINE
  5
2EDC
330
A
100
AcDbEntity
  8
SOLID
100
AcDbLine
 10
2.109644973938854
 20
3.340887222326436
 30
0.0
 11
2.139626704254011
 21
3.340887222326436
 31
0.0
  0
CIRCLE
  5
2EDD
330
A
100
AcDbEntity
  8
SOLID
100
AcDbCircle
 10
2.601925843734905
 20
2.827957885571528
 30
0.0
 40
0.1193999999999997
  0
CIRCLE
  5
2EDE
330
A
100
AcDbEntity
  8
SOLID
100
AcDbCircle
 10
2.601925843734905
 20
2.827957885571528
 30
0.0
 40
0.1093999999999999
  0
LINE
  5
2EDF
330
A
100
AcDbEntity
  8
CENTER
100
AcDbLine
 10
2.501925843734904
 20
2.827957885571528
 30
0.0
 11
2.432525843734905
 21
2.827957885571528
 31
0.0
  0
LINE
  5
2EE1
330
A
100
AcDbEntity
  8
CENTER
100
AcDbLine
 10
2.551925843734904
 20
2.827957885571528
 30
0.0
 11
2.651925843734906
 21
2.827957885571528
 31
0.0
  0
LINE
  5
2EE3
330
A
100
AcDbEntity
  8
CENTER
100
AcDbLine
 10
2.701925843734903
 20
2.827957885571528
 30
0.0
 11
2.771325843734905
 21
2.827957885571528
 31
0.0
  0
LINE
  5
2EE5
330
A
100
AcDbEntity
  8
SOLID
100
AcDbLine
 10
2.148356900068714
 20
3.377577016607801
 30
0.0
 11
2.141648810894464
 21
3.370868947127336
 31
0.0
  0
LWPOLYLINE
  5
2EE6
330
A
100
AcDbEntity
  8
SOLID
100
AcDbPolyline
 90
        9
 70
   128
 43
0.0
 10
2.148356900068714
 20
3.377577016607801
 10
2.142512227586868
 20
3.378159335557887
 10
2.136891805847794
 20
3.379869710955734
 10
2.131711305693373
 20
3.382642516528214
 10
2.127169494827425
 20
3.386371358868975
 10
2.123440684569628
 20
3.390913161714181
 10
2.120667873268045
 20
3.396093657285321
 10
2.118957503026392
 20
3.401714069857835
 10
2.118375169753553
 20
3.40755874004804
  0
LINE
  5
2EE7
330
A
100
AcDbEntity
  8
SOLID
100
AcDbLine
 10
2.139626704254011
 20
3.791456505228298
 30
0.0
 11
2.193704829538896
 21
3.791966935998424
 31
0.0
  0
LWPOLYLINE
  5
2EE8
330
A
100
AcDbEntity
  8
SOLID
100
AcDbPolyline
 90
        3
 70
   128
 43
0.0
 10
2.193897730643817
 20
3.771506365694012
 10
2.163899023858105
 20
3.771227188919086
 10
2.139995933321982
 20
3.771004478158527
  0
LWPOLYLINE
  5
2EE9
330
A
100
AcDbEntity
  8
SOLID
100
AcDbPolyline
 90
        4
 70
   128
 43
0.0
 10
2.139995933321982
 20
3.771004478158527
 10
2.141413596945012
 20
3.727130971655684
 10
2.14707944815928
 20
3.551640062274977
 10
2.148188382015446
 20
3.517261261088489
  0
LWPOLYLINE
  5
2EEA
330
A
100
AcDbEntity
  8
SOLID
100
AcDbPolyline
 90
        7
 70
   128
 43
0.0
 10
2.118375169753553
 20
3.499687634933852
 10
2.118382869664605
 20
3.499825912503125
 10
2.119104058000042
 20
3.503079619916018
 10
2.122940007020163
 20
3.508593232888957
 10
2.129589026876784
 20
3.513083096854998
 10
2.138311852776622
 20
3.516080653893631
 10
2.148169388901527
 20
3.517260885259497
  0
LWPOLYLINE
  5
2EEB
330
A
100
AcDbEntity
  8
SOLID
100
AcDbPolyline
 90
        7
 70
   128
 43
0.0
 10
2.148356900068714
 20
3.503625717774117
 10
2.138486787422428
 20
3.503361234996109
 10
2.129731988558615
 20
3.502689500256046
 10
2.123035045922266
 20
3.501683341879274
 10
2.119140247581976
 20
3.500447762819456
 10
2.118384336314326
 20
3.499718617909266
 10
2.118375169753553
 20
3.499687634933852
  0
LINE
  5
2EEC
330
A
100
AcDbEntity
  8
SOLID
100
AcDbLine
 10
2.118375169753553
 20
3.40755874004804
 30
0.0
 11
2.148356900068714
 21
3.40755874004804
 31
0.0
  0
LWPOLYLINE
  5
2EED
330
A
100
AcDbEntity
  8
SOLID
100
AcDbPolyline
 90
        4
 70
   128
 43
0.0
 10
2.139626704254011
 20
3.791456505228298
 10
2.139650610644514
 20
3.781549799671406
 10
2.139906871017503
 20
3.772757784570847
 10
2.139995933321982
 20
3.771004478158527
  0
LWPOLYLINE
  5
2EEE
330
A
100
AcDbEntity
  8
SOLID
100
AcDbPolyline
 90
        4
 70
   128
 43
0.0
 10
2.110207507440419
 20
3.750550801107817
 10
2.10982119190317
 20
3.767371366795206
 10
2.109650987202721
 20
3.786907911107379
 10
2.109644973938854
 20
3.791456505228298
  0
LINE
  5
2EEF
330
A
100
AcDbEntity
  8
SOLID
100
AcDbLine
 10
2.118375169753553
 20
3.499687634933852
 30
0.0
 11
2.110207507440419
 21
3.750550801107817
 31
0.0
  0
LWPOLYLINE
  5
2EF0
330
A
100
AcDbEntity
  8
SOLID
100
AcDbPolyline
 90
        9
 70
   128
 43
0.0
 10
2.141648810894464
 20
3.370868947127336
 10
2.135804138412622
 20
3.371451266005808
 10
2.130183753339787
 20
3.373161641833338
 10
2.125003253185367
 20
3.375934447405818
 10
2.120461442319422
 20
3.37966329031949
 10
2.116732595395381
 20
3.384205093164695
 10
2.113959784093799
 20
3.389385588735835
 10
2.112249413852142
 20
3.395006001308349
 10
2.111667080579307
 20
3.400850671498554
  0
LINE
  5
2EF1
330
A
100
AcDbEntity
  8
SOLID
100
AcDbLine
 10
2.111667080579307
 20
3.400850671498554
 30
0.0
 11
2.118375169753553
 21
3.40755874004804
 31
0.0
  0
LINE
  5
2EF2
330
A
100
AcDbEntity
  8
SOLID
100
AcDbLine
 10
2.118375169753553
 20
3.40755874004804
 30
0.0
 11
2.118375169753553
 21
3.499687634933852
 31
0.0
  0
LWPOLYLINE
  5
2EF3
330
A
100
AcDbEntity
  8
SOLID
100
AcDbPolyline
 90
        9
 70
   128
 43
0.0
 10
2.110207507440419
 20
3.750550801107817
 10
2.110906806028728
 20
3.754462905914847
 10
2.112686218806134
 20
3.758230692389055
 10
2.11548007653125
 20
3.761715232135355
 10
2.119185347060982
 20
3.764787936639212
 10
2.123665375307316
 20
3.767335507209459
 10
2.128754906512616
 20
3.769263968265045
 10
2.134266172845995
 20
3.770502187294367
 10
2.139995933321982
 20
3.771004478158527
  0
LINE
  5
2EF4
330
A
100
AcDbEntity
  8
SOLID
100
AcDbLine
 10
2.109644973938854
 20
3.791456505228298
 30
0.0
 11
2.139626704254011
 21
3.791456505228298
 31
0.0
  0
LWPOLYLINE
  5
2EF5
330
A
100
AcDbEntity
  8
SOLID
100
AcDbPolyline
 90
        9
 70
   128
 43
0.0
 10
2.193704829538896
 20
3.791966935998424
 10
2.193731339232654
 20
3.789156578463915
 10
2.193757592262711
 20
3.78637093397725
 10
2.193783405297848
 20
3.783634532255064
 10
2.193808521674368
 20
3.78097138968658
 10
2.193832684728567
 20
3.778405009333624
 10
2.193855784461716
 20
3.775957867603215
 10
2.193877527543873
 20
3.773651560912533
 10
2.193897730643817
 20
3.771506365694012
  0
LWPOLYLINE
  5
2EF6
330
A
100
AcDbEntity
  8
SOLID
100
AcDbPolyline
 90
        7
 70
   128
 43
0.0
 10
2.193704829538896
 20
3.791966935998424
 10
2.208909000565681
 20
3.78923269758458
 10
2.222250526443238
 20
3.781590059206324
 10
2.236808014940555
 20
3.765338003618124
 10
2.244157286707805
 20
3.751483150337238
 10
2.249209491677637
 20
3.736611138806651
 10
2.253133879676104
 20
3.704761483403254
  0
ARC
  5
2EF7
330
A
100
AcDbEntity
  8
SOLID
100
AcDbCircle
 10
2.601925843734905
 20
3.892857885571528
 30
0.0
 40
0.1549999999999998
100
AcDbArc
 50
180.0000000000004
 51
0.0
  0
ARC
  5
2EF8
330
A
100
AcDbEntity
  8
SOLID
100
AcDbCircle
 10
2.601925843734905
 20
3.892857885571528
 30
0.0
 40
0.165
100
AcDbArc
 50
180.0000000000004
 51
0.0
  0
LINE
  5
2EFA
330
A
100
AcDbEntity
  8
SOLID
100
AcDbLine
 10
2.253133879676104
 20
3.704761483403254
 30
0.0
 11
2.252351092052267
 21
3.54882854975381
 31
0.0
  0
LINE
  5
2EFB
330
A
100
AcDbEntity
  8
SOLID
100
AcDbLine
 10
2.22235564856219
 20
3.54897911968108
 30
0.0
 11
2.223138472852268
 21
3.704912071663645
 31
0.0
  0
LWPOLYLINE
  5
2EFC
330
A
100
AcDbEntity
  8
SOLID
100
AcDbPolyline
 90
        4
 70
   128
 43
0.0
 10
2.188600228507683
 20
3.517783434222968
 10
2.189371319599972
 20
3.55466108570919
 10
2.193035963932354
 20
3.730177643126943
 10
2.193897730643817
 20
3.771506365694012
  0
LINE
  5
2EFD
330
A
100
AcDbEntity
  8
SOLID
100
AcDbLine
 10
2.223138472852268
 20
3.704912071663645
 30
0.0
 11
2.219816951222773
 21
3.543731171972487
 31
0.0
  0
LINE
  5
2EFE
330
A
100
AcDbEntity
  8
SOLID
100
AcDbLine
 10
2.148356900068714
 20
3.40755874004804
 30
0.0
 11
2.148356900068714
 21
3.377577016607801
 31
0.0
  0
LWPOLYLINE
  5
2EFF
330
A
100
AcDbEntity
  8
SOLID
100
AcDbPolyline
 90
        9
 70
   128
 43
0.0
 10
2.252351092052267
 20
3.54882854975381
 10
2.246559952285339
 20
3.548857626084584
 10
2.240986646668643
 20
3.548885602428066
 10
2.235840869446432
 20
3.548911433796327
 10
2.231316181716012
 20
3.548934148533923
 10
2.227582788177825
 20
3.548952884984146
 10
2.224781157209173
 20
3.548966946488373
 10
2.223016667592707
 20
3.548975801386081
 10
2.22235564856219
 20
3.54897911968108
  0
LINE
  5
2F00
330
A
100
AcDbEntity
  8
SOLID
100
AcDbLine
 10
2.252351092052267
 20
3.54882854975381
 30
0.0
 11
2.252351092052267
 21
3.51884681943865
 31
0.0
  0
LWPOLYLINE
  5
2F01
330
A
100
AcDbEntity
  8
SOLID
100
AcDbPolyline
 90
        9
 70
   128
 43
0.0
 10
2.22235564856219
 20
3.54897911968108
 10
2.22290923550044
 20
3.543110852471803
 10
2.224600649294414
 20
3.537463536043418
 10
2.227364477366437
 20
3.532255444541069
 10
2.231093947616612
 20
3.527687838973104
 10
2.235644925043333
 20
3.523937230633785
 10
2.240841521678474
 20
3.521148561182066
 10
2.246482916508599
 20
3.519429620206086
 10
2.252351092052267
 20
3.51884681943865
  0
LINE
  5
2F02
330
A
100
AcDbEntity
  8
SOLID
100
AcDbLine
 10
2.219816951222773
 20
3.543731171972487
 30
0.0
 11
2.22235564856219
 21
3.54897911968108
 31
0.0
  0
LINE
  5
2F03
330
A
100
AcDbEntity
  8
SOLID
100
AcDbLine
 10
2.252351092052267
 20
3.51884681943865
 30
0.0
 11
2.249812394712849
 21
3.513598862563496
 31
0.0
  0
LWPOLYLINE
  5
2F04
330
A
100
AcDbEntity
  8
SOLID
100
AcDbPolyline
 90
        3
 70
   128
 43
0.0
 10
2.249812394712849
 20
3.513598862563496
 10
2.247595553655321
 20
3.512867600177768
 10
2.241263183474066
 20
3.512138757764084
  0
LWPOLYLINE
  5
2F05
330
A
100
AcDbEntity
  8
SOLID
100
AcDbPolyline
 90
        9
 70
   128
 43
0.0
 10
2.219816951222773
 20
3.543731171972487
 10
2.220370538161018
 20
3.537862886430088
 10
2.222061951954996
 20
3.532215588334825
 10
2.224825780027019
 20
3.527007496832474
 10
2.228555250277194
 20
3.522439872931389
 10
2.233106227703915
 20
3.518689264592071
 10
2.238302824339056
 20
3.515900604306912
 10
2.243944219169177
 20
3.514181663330932
 10
2.249812394712849
 20
3.513598862563496
  0
LWPOLYLINE
  5
2F06
330
A
100
AcDbEntity
  8
SOLID
100
AcDbPolyline
 90
        3
 70
   128
 43
0.0
 10
2.215318516522406
 20
3.532138497558717
 10
2.218562562380244
 20
3.537846588285033
 10
2.219816951222773
 20
3.543731171972487
  0
LINE
  5
2F07
330
A
100
AcDbEntity
  8
SOLID
100
AcDbLine
 10
2.148356900068714
 20
3.503625763606919
 30
0.0
 11
2.148356900068714
 21
3.40755874004804
 31
0.0
  0
LINE
  5
2F08
330
A
100
AcDbEntity
  8
SOLID
100
AcDbLine
 10
2.148169388901527
 20
3.517260885259497
 30
0.0
 11
2.148188382015446
 21
3.517261261088489
 31
0.0
  0
LWPOLYLINE
  5
2F09
330
A
100
AcDbEntity
  8
SOLID
100
AcDbPolyline
 90
        9
 70
   128
 43
0.0
 10
2.148169388901527
 20
3.517260885259497
 10
2.148189042007823
 20
3.515831057610322
 10
2.14821019843009
 20
3.514293962866972
 10
2.148232601504622
 20
3.512663112540026
 10
2.148256141232687
 20
3.510952833963978
 10
2.148280524284347
 20
3.509178169465053
 10
2.148305603994623
 20
3.50735470219657
 10
2.148331123699817
 20
3.505498464473319
 10
2.148356900068714
 20
3.503625763606919
  0
LINE
  5
2F0A
330
A
100
AcDbEntity
  8
SOLID
100
AcDbLine
 10
2.148363243328768
 20
3.503625809439723
 30
0.0
 11
2.148356900068714
 21
3.503625763606919
 31
0.0
  0
LINE
  5
2F0B
330
A
100
AcDbEntity
  8
SOLID
100
AcDbLine
 10
2.148188382015446
 20
3.517261261088489
 30
0.0
 11
2.188600228507683
 21
3.517783434222968
 31
0.0
  0
LWPOLYLINE
  5
2F0C
330
A
100
AcDbEntity
  8
SOLID
100
AcDbPolyline
 90
        9
 70
   128
 43
0.0
 10
2.148188382015446
 20
3.517261261088489
 10
2.148206715136995
 20
3.515831405939632
 10
2.148226441575781
 20
3.5142942836966
 10
2.148247341334345
 20
3.51266338753685
 10
2.148269267747716
 20
3.510953072294558
 10
2.148292037484678
 20
3.509178361962829
 10
2.148315430547773
 20
3.507354839694981
 10
2.148339226939539
 20
3.505498556138928
 10
2.148363243328768
 20
3.503625809439723
  0
LINE
  5
2F0D
330
A
100
AcDbEntity
  8
SOLID
100
AcDbLine
 10
2.188774833157301
 20
3.504143527625664
 30
0.0
 11
2.148363243328768
 21
3.503625809439723
 31
0.0
  0
LWPOLYLINE
  5
2F0E
330
A
100
AcDbEntity
  8
SOLID
100
AcDbPolyline
 90
        3
 70
   128
 43
0.0
 10
2.188600228507683
 20
3.517783434222968
 10
2.198610369536345
 20
3.516172044504546
 10
2.207262172923305
 20
3.511672968144926
  0
LWPOLYLINE
  5
2F0F
330
A
100
AcDbEntity
  8
SOLID
100
AcDbPolyline
 90
        9
 70
   128
 43
0.0
 10
2.188600228507683
 20
3.517783434222968
 10
2.188618561629231
 20
3.516353340743529
 10
2.188638214735528
 20
3.514815861004626
 10
2.188659114494091
 20
3.513184506516839
 10
2.188681004241223
 20
3.511473622947779
 10
2.188703737311938
 20
3.509698270956796
 10
2.18872709370879
 20
3.507874052030329
 10
2.188750853434319
 20
3.506017025982853
 10
2.188774833157301
 20
3.504143527625664
  0
LWPOLYLINE
  5
2F10
330
A
100
AcDbEntity
  8
SOLID
100
AcDbPolyline
 90
        4
 70
   128
 43
0.0
 10
2.194973664881201
 20
3.501048740876907
 10
2.192730570793615
 20
3.502994865895104
 10
2.189931763125683
 20
3.50405982775924
 10
2.188774833157301
 20
3.504143527625664
  0
LWPOLYLINE
  5
2F11
330
A
100
AcDbEntity
  8
SOLID
100
AcDbPolyline
 90
        9
 70
   128
 43
0.0
 10
2.207262172923305
 20
3.511672968144926
 10
2.206132669304762
 20
3.510696417759453
 10
2.204846637494446
 20
3.509584568936958
 10
2.203422153950201
 20
3.50835301399732
 10
2.201879201774515
 20
3.507019013574474
 10
2.200239377384574
 20
3.50560128578552
 10
2.198525707181039
 20
3.504119712900775
 10
2.19676224421938
 20
3.502595066346955
 10
2.194973664881201
 20
3.501048740876907
  0
LWPOLYLINE
  5
2F12
330
A
100
AcDbEntity
  8
SOLID
100
AcDbPolyline
 90
        6
 70
   128
 43
0.0
 10
2.239129758119579
 20
3.482157027448925
 10
2.238853441311613
 20
3.482205921884093
 10
2.230696852203893
 20
3.483618250568751
 10
2.22258239260949
 20
3.485214552128139
 10
2.207468750536905
 20
3.490812882455749
 10
2.194973664881201
 20
3.501048740876907
  0
LWPOLYLINE
  5
2F13
330
A
100
AcDbEntity
  8
SOLID
100
AcDbPolyline
 90
        4
 70
   128
 43
0.0
 10
2.207262172923305
 20
3.511672968144926
 10
2.209101791671875
 20
3.519940903466366
 10
2.211959411993737
 20
3.526776866163407
 10
2.215318516522406
 20
3.532138497558717
  0
LWPOLYLINE
  5
2F14
330
A
100
AcDbEntity
  8
SOLID
100
AcDbPolyline
 90
        5
 70
   128
 43
0.0
 10
2.207262172923305
 20
3.511672968144926
 10
2.21716557851832
 20
3.501043451771339
 10
2.22787769477104
 20
3.491928342903189
 10
2.238936637017195
 20
3.482332356256845
 10
2.239129758119579
 20
3.482157027448925
  0
LWPOLYLINE
  5
2F15
330
A
100
AcDbEntity
  8
SOLID
100
AcDbPolyline
 90
        8
 70
   128
 43
0.0
 10
2.241263183474066
 20
3.512138757764084
 10
2.231142457056227
 20
3.509629072589515
 10
2.227749142922748
 20
3.507468569214502
 10
2.225438106286707
 20
3.504252068871789
 10
2.225176859304655
 20
3.501567054889299
 10
2.226057912459987
 20
3.4986686892048
 10
2.229182463031579
 20
3.493808789513442
 10
2.239129758119579
 20
3.482157027448925
  0
LWPOLYLINE
  5
2F16
330
A
100
AcDbEntity
  8
SOLID
100
AcDbPolyline
 90
        9
 70
   128
 43
0.0
 10
2.215318516522406
 20
3.532138497558717
 10
2.217067826314229
 20
3.52796628242317
 10
2.219376772974415
 20
3.524121460172217
 10
2.222191970453012
 20
3.520692964778488
 10
2.225448299502287
 20
3.517760077826116
 10
2.229070374326438
 20
3.515390659364506
 10
2.232974522558718
 20
3.513639497927407
 10
2.237070361909898
 20
3.512547109713434
 10
2.241263183474066
 20
3.512138757764084
  0
LWPOLYLINE
  5
2F17
330
A
100
AcDbEntity
  8
SOLID
100
AcDbPolyline
 90
        9
 70
   128
 43
0.0
 10
2.253133879676104
 20
3.704761483403254
 10
2.247342739909177
 20
3.704790559734028
 10
2.24176943429248
 20
3.70481853607751
 10
2.236623657070269
 20
3.704844349112649
 10
2.232098969339849
 20
3.704867082183369
 10
2.228365612467909
 20
3.70488581863359
 10
2.225563944833011
 20
3.704899861804696
 10
2.223799455216544
 20
3.704908735035523
 10
2.223138472852268
 20
3.704912071663645
  0
LWPOLYLINE
  5
2F18
330
A
100
AcDbEntity
  8
SOLID
100
AcDbPolyline
 90
        9
 70
   128
 43
0.0
 10
2.223138472852268
 20
3.704912071663645
 10
2.22205736867461
 20
3.72470392302649
 10
2.217922699771991
 20
3.744095012352305
 10
2.213803540690202
 20
3.754632853951592
 10
2.209996887998313
 20
3.761236151003075
 10
2.204958909530803
 20
3.766988497884806
 10
2.200557897038342
 20
3.769983469953301
 10
2.195323350841599
 20
3.771466399489039
 10
2.193897730643817
 20
3.771506365694012
  0
LINE
  5
2F19
330
A
100
AcDbEntity
  8
0
  6
Continuous
 62
     7
100
AcDbLine
 10
2.601925843734901
 20
3.369857885571528
 30
0.0
 11
2.601925843734901
 21
3.377276067389711
 31
0.0
  0
LINE
  5
2F1A
330
A
100
AcDbEntity
  8
0
  6
Continuous
 62
     7
100
AcDbLine
 10
2.601925843734901
 20
3.369857885571528
 30
0.0
 11
2.605634934643996
 21
3.369857885571528
 31
0.0
  0
LINE
  5
2F1B
330
A
100
AcDbEntity
  8
CENTER
100
AcDbLine
 10
2.501925843734904
 20
4.082857885571527
 30
0.0
 11
2.386925843734905
 21
4.082857885571527
 31
0.0
  0
LINE
  5
2F1C
330
A
100
AcDbEntity
  8
CENTER
100
AcDbLine
 10
2.501925843734907
 20
3.892857885571528
 30
0.0
 11
2.386925843734905
 21
3.892857885571528
 31
0.0
  0
LINE
  5
2F1D
330
A
100
AcDbEntity
  8
SOLID
100
AcDbLine
 10
2.446925845974773
 20
4.082857915601005
 30
0.0
 11
2.446925845974773
 21
3.892857880497624
 31
0.0
  0
LINE
  5
2F1E
330
A
100
AcDbEntity
  8
SOLID
100
AcDbLine
 10
2.436925843162326
 20
3.892857880497624
 30
0.0
 11
2.436925843162326
 21
4.082857915601005
 31
0.0
  0
LINE
  5
2F1F
330
A
100
AcDbEntity
  8
0
  6
Continuous
 62
     7
100
AcDbLine
 10
2.436925843162326
 20
3.892857880497624
 30
0.0
 11
2.446925845974773
 21
3.892857880497624
 31
0.0
  0
LINE
  5
2F20
330
A
100
AcDbEntity
  8
0
  6
Continuous
 62
     7
100
AcDbLine
 10
2.436925843162326
 20
4.082857915601005
 30
0.0
 11
2.446925845974773
 21
4.082857915601005
 31
0.0
  0
LINE
  5
2F21
330
A
100
AcDbEntity
  8
SOLID
100
AcDbLine
 10
2.756925841495037
 20
3.892857880497624
 30
0.0
 11
2.756925841495037
 21
4.082857915601005
 31
0.0
  0
LINE
  5
2F22
330
A
100
AcDbEntity
  8
SOLID
100
AcDbLine
 10
2.766925844307484
 20
4.082857915601005
 30
0.0
 11
2.766925844307484
 21
3.892857880497624
 31
0.0
  0
LINE
  5
2F24
330
A
100
AcDbEntity
  8
CENTER
100
AcDbLine
 10
2.551925843734904
 20
3.892857885571528
 30
0.0
 11
2.651925843734906
 21
3.892857885571528
 31
0.0
  0
LINE
  5
2F27
330
A
100
AcDbEntity
  8
CENTER
100
AcDbLine
 10
2.701925843734903
 20
3.892857885571528
 30
0.0
 11
2.816925843734905
 21
3.892857885571528
 31
0.0
  0
LINE
  5
2F28
330
A
100
AcDbEntity
  8
0
  6
Continuous
 62
     7
100
AcDbLine
 10
2.756925841495037
 20
3.892857880497624
 30
0.0
 11
2.766925844307484
 21
3.892857880497624
 31
0.0
  0
LINE
  5
2F29
330
A
100
AcDbEntity
  8
CENTER
100
AcDbLine
 10
2.551925843734904
 20
4.082857885571527
 30
0.0
 11
2.651925843734906
 21
4.082857885571527
 31
0.0
  0
LINE
  5
2F2B
330
A
100
AcDbEntity
  8
CENTER
100
AcDbLine
 10
2.701925843734903
 20
4.082857885571527
 30
0.0
 11
2.816925843734905
 21
4.082857885571527
 31
0.0
  0
LINE
  5
2F2C
330
A
100
AcDbEntity
  8
0
  6
Continuous
 62
     7
100
AcDbLine
 10
2.756925841495037
 20
4.082857915601005
 30
0.0
 11
2.766925844307484
 21
4.082857915601005
 31
0.0
  0
LWPOLYLINE
  5
2F2E
330
A
100
AcDbEntity
  8
SOLID
100
AcDbPolyline
 90
        9
 70
   128
 43
0.0
 10
5.12743674902768
 20
3.370868947127336
 10
5.133138294829599
 20
3.37011832426702
 10
5.13859186224619
 20
3.368293586051304
 10
5.143597056509094
 20
3.365461783777547
 10
5.147969956878391
 20
3.361726973719266
 10
5.151549880132186
 20
3.357226393470769
 10
5.154205278711355
 20
3.352125420105982
 10
5.155838578622631
 20
3.346611492032517
 10
5.156389763205822
 20
3.340887222326436
  0
LWPOLYLINE
  5
2F30
330
A
100
AcDbEntity
  8
SOLID
100
AcDbPolyline
 90
        9
 70
   128
 43
0.0
 10
3.062202876575346
 20
3.370868947127336
 10
3.062601071975356
 20
3.37011832426702
 10
3.062981960908627
 20
3.368293586051304
 10
3.063331536870299
 20
3.365461783777547
 10
3.063636930009037
 20
3.361726973719266
 10
3.063886957120702
 20
3.357226393470769
 10
3.064072414978275
 20
3.352125420105982
 10
3.064186483660547
 20
3.346611492032517
 10
3.064224983215796
 20
3.340887222326436
  0
LWPOLYLINE
  5
2F31
330
A
100
AcDbEntity
  8
SOLID
100
AcDbPolyline
 90
        9
 70
   128
 43
0.0
 10
3.094206713530956
 20
3.340887222326436
 10
3.094168213975704
 20
3.352335761738597
 10
3.094054145293439
 20
3.363363617885529
 10
3.093868687435863
 20
3.373565564328648
 10
3.093618660324194
 20
3.382566725112097
 10
3.093313267185456
 20
3.390036345801567
 10
3.092963691223788
 20
3.395699948916806
 10
3.092582802290516
 20
3.399349427174389
 10
3.092184606890503
 20
3.400850671498554
  0
LINE
  5
2F32
330
A
100
AcDbEntity
  8
SOLID
100
AcDbLine
 10
3.064224983215796
 20
2.494857886979513
 30
0.0
 11
3.064224983215796
 21
3.340887222326436
 31
0.0
  0
LINE
  5
2F33
330
A
100
AcDbEntity
  8
SOLID
100
AcDbLine
 10
3.094206713530956
 20
3.340887222326436
 30
0.0
 11
3.094206713530956
 21
2.494857886979513
 31
0.0
  0
LINE
  5
2F34
330
A
100
AcDbEntity
  8
SOLID
100
AcDbLine
 10
3.064224983215796
 20
2.494857886979513
 30
0.0
 11
3.094206713530956
 21
2.494857886979513
 31
0.0
  0
LINE
  5
2F35
330
A
100
AcDbEntity
  8
SOLID
100
AcDbLine
 10
3.094206713530956
 20
2.494857886979513
 30
0.0
 11
3.101925837692308
 21
2.494857886979513
 31
0.0
  0
LINE
  5
2F36
330
A
100
AcDbEntity
  8
SOLID
100
AcDbLine
 10
3.064224983215796
 20
3.340887222326436
 30
0.0
 11
3.094206713530956
 21
3.340887222326436
 31
0.0
  0
LINE
  5
2F37
330
A
100
AcDbEntity
  8
SOLID
100
AcDbLine
 10
5.156389763205822
 20
2.494857886979513
 30
0.0
 11
5.156389763205822
 21
3.340887222326436
 31
0.0
  0
LINE
  5
2F39
330
A
100
AcDbEntity
  8
HIDDEN
100
AcDbLine
 10
5.27672668754257
 20
2.937357878515182
 30
0.0
 11
5.27672668754257
 21
2.71855790277784
 31
0.0
  0
LINE
  5
2F3A
330
A
100
AcDbEntity
  8
HIDDEN
100
AcDbLine
 10
5.166389762580806
 20
2.82795787231339
 30
0.0
 11
5.166389762580806
 21
2.937357878515182
 31
0.0
  0
LINE
  5
2F3B
330
A
100
AcDbEntity
  8
HIDDEN
100
AcDbLine
 10
5.284387127381847
 20
2.82795787231339
 30
0.0
 11
5.284387127381847
 21
2.940930013916236
 31
0.0
  0
LINE
  5
2F3D
330
A
100
AcDbEntity
  8
HIDDEN
100
AcDbLine
 10
5.166389762580806
 20
2.71855790277784
 30
0.0
 11
5.281389718405538
 21
2.71855790277784
 31
0.0
  0
LINE
  5
2F3E
330
A
100
AcDbEntity
  8
HIDDEN
100
AcDbLine
 10
5.166389762580806
 20
2.71855790277784
 30
0.0
 11
5.166389762580806
 21
2.82795787231339
 31
0.0
  0
ARC
  5
2F3F
330
A
100
AcDbEntity
  8
HIDDEN
100
AcDbCircle
 10
5.166389763068664
 20
2.708557885571529
 30
0.0
 40
0.0100000000000002
100
AcDbArc
 50
90.0
 51
180.0000000000004
  0
ARC
  5
2F40
330
A
100
AcDbEntity
  8
HIDDEN
100
AcDbCircle
 10
5.276726686487116
 20
2.708557885571529
 30
0.0
 40
0.0100000000000002
100
AcDbArc
 50
39.99999999999898
 51
90.0
  0
LINE
  5
2F41
330
A
100
AcDbEntity
  8
HIDDEN
100
AcDbLine
 10
5.284387127381847
 20
2.714985730710544
 30
0.0
 11
5.284387127381847
 21
2.82795787231339
 31
0.0
  0
LINE
  5
2F42
330
A
100
AcDbEntity
  8
HIDDEN
100
AcDbLine
 10
5.27672668754257
 20
2.937357878515182
 30
0.0
 11
5.166389762580806
 21
2.937357878515182
 31
0.0
  0
ARC
  5
2F43
330
A
100
AcDbEntity
  8
HIDDEN
100
AcDbCircle
 10
5.166389763068664
 20
2.947357885571529
 30
0.0
 40
0.0100000000000002
100
AcDbArc
 50
180.0000000000004
 51
270.0000000000008
  0
ARC
  5
2F44
330
A
100
AcDbEntity
  8
HIDDEN
100
AcDbCircle
 10
5.276726686487116
 20
2.947357885571529
 30
0.0
 40
0.0100000000000007
100
AcDbArc
 50
270.0000000000008
 51
319.9999999999987
  0
LWPOLYLINE
  5
2F46
330
A
100
AcDbEntity
  8
SOLID
100
AcDbPolyline
 90
        4
 70
   128
 43
0.0
 10
3.063855754147828
 20
3.771004478158527
 10
3.064162210607618
 20
3.779397491201724
 10
3.064240603035356
 20
3.789148878552865
 10
3.064224983215796
 20
3.791456505228298
  0
LWPOLYLINE
  5
2F47
330
A
100
AcDbEntity
  8
SOLID
100
AcDbPolyline
 90
        9
 70
   128
 43
0.0
 10
3.005157682232963
 20
3.792013978788315
 10
3.005131172539206
 20
3.789203511255076
 10
3.005104919509149
 20
3.786417756769683
 10
3.005079106474012
 20
3.783681245048766
 10
3.005054026763735
 20
3.781018029147798
 10
3.005029827043292
 20
3.778451538796113
 10
3.005006763976384
 20
3.776004360399459
 10
3.004985020894229
 20
3.773697980376292
 10
3.004964817794283
 20
3.771552748491528
  0
LWPOLYLINE
  5
2F48
330
A
100
AcDbEntity
  8
SOLID
100
AcDbPolyline
 90
        7
 70
   128
 43
0.0
 10
2.950681068218125
 20
3.712078158880395
 10
2.952155161189276
 20
3.731200557976809
 10
2.95689738973998
 20
3.74976365020105
 10
2.968393503602561
 20
3.771524478818101
 10
2.981380576908113
 20
3.784279234807405
 10
2.99420668540648
 20
3.790499992944676
 10
3.005157682232963
 20
3.792013978788315
  0
LWPOLYLINE
  5
2F49
330
A
100
AcDbEntity
  8
SOLID
100
AcDbPolyline
 90
        4
 70
   128
 43
0.0
 10
3.094206713530956
 20
3.791456505228298
 10
3.094088758226918
 20
3.771608261183573
 10
3.093748128828563
 20
3.753997757954943
 10
3.093644180029391
 20
3.750550801107817
  0
LINE
  5
2F4A
330
A
100
AcDbEntity
  8
SOLID
100
AcDbLine
 10
2.951500595417543
 20
3.54882854975381
 30
0.0
 11
2.950681068218125
 21
3.712078158880395
 31
0.0
  0
LINE
  5
2F4B
330
A
100
AcDbEntity
  8
SOLID
100
AcDbLine
 10
2.980676511708201
 20
3.712228747140787
 30
0.0
 11
2.98149603890762
 21
3.54897911968108
 31
0.0
  0
LWPOLYLINE
  5
2F4C
330
A
100
AcDbEntity
  8
SOLID
100
AcDbPolyline
 90
        4
 70
   128
 43
0.0
 10
3.055756144381879
 20
3.520140826156842
 10
3.056875931446002
 20
3.554853968480992
 10
3.062541929325247
 20
3.730344951194185
 10
3.063855754147828
 20
3.771004478158527
  0
LINE
  5
2F4D
330
A
100
AcDbEntity
  8
SOLID
100
AcDbLine
 10
3.093644180029391
 20
3.750550801107817
 30
0.0
 11
3.085476517716257
 21
3.499687634933852
 31
0.0
  0
LWPOLYLINE
  5
2F4E
330
A
100
AcDbEntity
  8
SOLID
100
AcDbPolyline
 90
        4
 70
   128
 43
0.0
 10
3.004964817794283
 20
3.771552748491528
 10
3.00554583108237
 20
3.743633714347925
 10
3.00859217255744
 20
3.59737502227415
 10
3.010190564092683
 20
3.520730034350258
  0
LINE
  5
2F4F
330
A
100
AcDbEntity
  8
SOLID
100
AcDbLine
 10
2.984154011535826
 20
3.543484554821429
 30
0.0
 11
2.980676511708201
 21
3.712228747140787
 31
0.0
  0
LWPOLYLINE
  5
2F50
330
A
100
AcDbEntity
  8
SOLID
100
AcDbPolyline
 90
        3
 70
   128
 43
0.0
 10
2.987273392167141
 20
3.53308850158419
 10
2.992563487722174
 20
3.520188739770006
 10
2.994350013750738
 20
3.503948481545521
  0
LWPOLYLINE
  5
2F51
330
A
100
AcDbEntity
  8
SOLID
100
AcDbPolyline
 90
        3
 70
   128
 43
0.0
 10
2.991452683887606
 20
3.500504897992758
 10
2.992145529217131
 20
3.5012311096035
 10
2.994350013750738
 20
3.503948481545521
  0
LINE
  5
2F52
330
A
100
AcDbEntity
  8
SOLID
100
AcDbLine
 10
3.055494787401096
 20
3.499687634933852
 30
0.0
 11
2.991452683887606
 21
3.500504897992758
 31
0.0
  0
LINE
  5
2F53
330
A
100
AcDbEntity
  8
SOLID
100
AcDbLine
 10
2.951500595417543
 20
3.54882854975381
 30
0.0
 11
2.951500595417543
 21
3.51884681943865
 31
0.0
  0
LWPOLYLINE
  5
2F54
330
A
100
AcDbEntity
  8
SOLID
100
AcDbPolyline
 90
        9
 70
   128
 43
0.0
 10
2.951500595417543
 20
3.54882854975381
 10
2.957291735184467
 20
3.548857626084584
 10
2.962865040801167
 20
3.548885602428066
 10
2.968010818023378
 20
3.548911433796327
 10
2.972535505753794
 20
3.548934148533923
 10
2.976268899291982
 20
3.548952884984146
 10
2.979070530260637
 20
3.548966946488373
 10
2.980835019877103
 20
3.548975801386081
 10
2.98149603890762
 20
3.54897911968108
  0
LINE
  5
2F55
330
A
100
AcDbEntity
  8
SOLID
100
AcDbLine
 10
2.98149603890762
 20
3.54897911968108
 30
0.0
 11
2.984154011535826
 21
3.543484554821429
 31
0.0
  0
LWPOLYLINE
  5
2F56
330
A
100
AcDbEntity
  8
SOLID
100
AcDbPolyline
 90
        9
 70
   128
 43
0.0
 10
2.951500595417543
 20
3.51884681943865
 10
2.957368770961211
 20
3.519429620206086
 10
2.963010165791336
 20
3.521148561182066
 10
2.968206762426474
 20
3.523937230633785
 10
2.972757739853198
 20
3.527687838973104
 10
2.976487210103369
 20
3.532255444541069
 10
2.979251038175393
 20
3.537463536043418
 10
2.980942451969371
 20
3.543110852471803
 10
2.98149603890762
 20
3.54897911968108
  0
LINE
  5
2F57
330
A
100
AcDbEntity
  8
SOLID
100
AcDbLine
 10
2.954158604711993
 20
3.513352245412438
 30
0.0
 11
2.951500595417543
 21
3.51884681943865
 31
0.0
  0
LWPOLYLINE
  5
2F58
330
A
100
AcDbEntity
  8
SOLID
100
AcDbPolyline
 90
        9
 70
   128
 43
0.0
 10
2.954158604711993
 20
3.513352245412438
 10
2.960026780255661
 20
3.513935037013315
 10
2.965668175085786
 20
3.515653977989295
 10
2.970864771720924
 20
3.518442647441013
 10
2.975415749147648
 20
3.522193255780333
 10
2.979145219397819
 20
3.526760861348297
 10
2.981909047469843
 20
3.531968971183767
 10
2.983600424597577
 20
3.53761626927903
 10
2.984154011535826
 20
3.543484554821429
  0
LWPOLYLINE
  5
2F59
330
A
100
AcDbEntity
  8
SOLID
100
AcDbPolyline
 90
        3
 70
   128
 43
0.0
 10
2.960574867257447
 20
3.512138757764084
 10
2.95594359075835
 20
3.512726975968938
 10
2.954158604711993
 20
3.513352245412438
  0
LWPOLYLINE
  5
2F5A
330
A
100
AcDbEntity
  8
SOLID
100
AcDbPolyline
 90
        4
 70
   128
 43
0.0
 10
2.991452683887606
 20
3.500504897992758
 10
2.982060295722609
 20
3.492943017014919
 10
2.962822214629232
 20
3.482273002775835
 10
2.962606910449776
 20
3.482157027448925
  0
LWPOLYLINE
  5
2F5B
330
A
100
AcDbEntity
  8
SOLID
100
AcDbPolyline
 90
        9
 70
   128
 43
0.0
 10
2.960574867257447
 20
3.512138757764084
 10
2.964958206620737
 20
3.512562564534899
 10
2.969234297222973
 20
3.513709557951401
 10
2.973298530272606
 20
3.515551651671376
 10
2.977051430252119
 20
3.518043792048626
 10
2.980401221555043
 20
3.521125003120879
 10
2.983265955128063
 20
3.524719889925773
 10
2.985575525114382
 20
3.528740526812365
 10
2.987273392167141
 20
3.53308850158419
  0
LWPOLYLINE
  5
2F5C
330
A
100
AcDbEntity
  8
SOLID
100
AcDbPolyline
 90
        8
 70
   128
 43
0.0
 10
2.962606910449776
 20
3.482157027448925
 10
2.971812850768634
 20
3.493997895662205
 10
2.974291818798052
 20
3.498034720695125
 10
2.975391622759689
 20
3.501481530877279
 10
2.975009963835313
 20
3.50464101521198
 10
2.972889298333422
 20
3.507549546612377
 10
2.966619150766701
 20
3.510965566316892
 10
2.960574867257447
 20
3.512138757764084
  0
LINE
  5
2F5D
330
A
100
AcDbEntity
  8
SOLID
100
AcDbLine
 10
2.984154011535826
 20
3.543484554821429
 30
0.0
 11
2.987273392167141
 21
3.53308850158419
 31
0.0
  0
LWPOLYLINE
  5
2F5E
330
A
100
AcDbEntity
  8
SOLID
100
AcDbPolyline
 90
        9
 70
   128
 43
0.0
 10
3.062202876575346
 20
3.370868947127336
 10
3.068047549057189
 20
3.371451266005808
 10
3.073667934130019
 20
3.373161641833338
 10
3.078848434284443
 20
3.375934447405818
 10
3.083390245150388
 20
3.37966329031949
 10
3.087119092074429
 20
3.384205093164695
 10
3.089891903376011
 20
3.389385588735835
 10
3.091602273617668
 20
3.395006001308349
 10
3.092184606890503
 20
3.400850671498554
  0
LINE
  5
2F5F
330
A
100
AcDbEntity
  8
SOLID
100
AcDbLine
 10
3.085476517716257
 20
3.40755874004804
 30
0.0
 11
3.092184606890503
 21
3.400850671498554
 31
0.0
  0
LINE
  5
2F60
330
A
100
AcDbEntity
  8
SOLID
100
AcDbLine
 10
3.062202876575346
 20
3.370868947127336
 30
0.0
 11
3.055494787401096
 21
3.377577016607801
 31
0.0
  0
LINE
  5
2F61
330
A
100
AcDbEntity
  8
SOLID
100
AcDbLine
 10
3.085476517716257
 20
3.499687634933852
 30
0.0
 11
3.085476517716257
 21
3.40755874004804
 31
0.0
  0
LINE
  5
2F62
330
A
100
AcDbEntity
  8
SOLID
100
AcDbLine
 10
3.055494787401096
 20
3.40755874004804
 30
0.0
 11
3.055494787401096
 21
3.499687634933852
 31
0.0
  0
LINE
  5
2F63
330
A
100
AcDbEntity
  8
SOLID
100
AcDbLine
 10
3.055494787401096
 20
3.40755874004804
 30
0.0
 11
3.085476517716257
 21
3.40755874004804
 31
0.0
  0
LWPOLYLINE
  5
2F64
330
A
100
AcDbEntity
  8
SOLID
100
AcDbPolyline
 90
        9
 70
   128
 43
0.0
 10
3.055494787401096
 20
3.377577016607801
 10
3.061339459882942
 20
3.378159335557887
 10
3.066959881622016
 20
3.379869710955734
 10
3.072140381776437
 20
3.382642516528214
 10
3.076682192642385
 20
3.386371358868975
 10
3.080411002900182
 20
3.390913161714181
 10
3.083183814201762
 20
3.396093657285321
 10
3.084894184443419
 20
3.401714069857835
 10
3.085476517716257
 20
3.40755874004804
  0
LINE
  5
2F65
330
A
100
AcDbEntity
  8
SOLID
100
AcDbLine
 10
3.055494787401096
 20
3.377577016607801
 30
0.0
 11
3.055494787401096
 21
3.40755874004804
 31
0.0
  0
LWPOLYLINE
  5
2F66
330
A
100
AcDbEntity
  8
SOLID
100
AcDbPolyline
 90
        9
 70
   128
 43
0.0
 10
3.055756144381879
 20
3.520140826156842
 10
3.061476224969686
 20
3.519630972880044
 10
3.06697630809892
 20
3.518387657242932
 10
3.072054142772676
 20
3.516456602050645
 10
3.07652295114862
 20
3.513908838982622
 10
3.080218431791449
 20
3.510838050289969
 10
3.083004589605513
 20
3.507357177167978
 10
3.084779052440103
 20
3.50359424897098
 10
3.085476517716257
 20
3.499687634933852
  0
LINE
  5
2F67
330
A
100
AcDbEntity
  8
SOLID
100
AcDbLine
 10
3.085476517716257
 20
3.499687634933852
 30
0.0
 11
3.055494787401096
 21
3.499687634933852
 31
0.0
  0
LWPOLYLINE
  5
2F68
330
A
100
AcDbEntity
  8
SOLID
100
AcDbPolyline
 90
        9
 70
   128
 43
0.0
 10
3.055756144381879
 20
3.520140826156842
 10
3.055728754698284
 20
3.517996043433555
 10
3.055699275038838
 20
3.515690350902445
 10
3.055668035399721
 20
3.513244015829382
 10
3.055635255778392
 20
3.510678542965944
 10
3.0556012295048
 20
3.508016463718512
 10
3.055566286575134
 20
3.505281189483298
 10
3.055530683653087
 20
3.502496754982658
 10
3.055494787401096
 20
3.499687634933852
  0
LINE
  5
2F69
330
A
100
AcDbEntity
  8
SOLID
100
AcDbLine
 10
3.010190564092683
 20
3.520730034350258
 30
0.0
 11
3.055756144381879
 21
3.520140826156842
 31
0.0
  0
LWPOLYLINE
  5
2F6A
330
A
100
AcDbEntity
  8
SOLID
100
AcDbPolyline
 90
        4
 70
   128
 43
0.0
 10
2.994350013750738
 20
3.503948481545521
 10
3.003719265516343
 20
3.514940938726384
 10
3.010044632445163
 20
3.520612757371718
 10
3.010190564092683
 20
3.520730034350258
  0
LWPOLYLINE
  5
2F6B
330
A
100
AcDbEntity
  8
SOLID
100
AcDbPolyline
 90
        8
 70
   128
 43
0.0
 10
3.004964817794283
 20
3.771552748491528
 10
3.001483138014945
 20
3.771064610797202
 10
2.99835286750943
 20
3.769585494550746
 10
2.993852819494369
 20
3.765517631543048
 10
2.987909588151085
 20
3.755434708021839
 10
2.983726263143877
 20
3.742476344384629
 10
2.98149226228458
 20
3.729067095956077
 10
2.980676511708201
 20
3.712228747140787
  0
LWPOLYLINE
  5
2F6C
330
A
100
AcDbEntity
  8
SOLID
100
AcDbPolyline
 90
        9
 70
   128
 43
0.0
 10
2.950681068218125
 20
3.712078158880395
 10
2.956472207985049
 20
3.712107235211169
 10
2.962045513601749
 20
3.712135211554651
 10
2.967191290823956
 20
3.712161061256033
 10
2.971715978554376
 20
3.712183757660509
 10
2.975449372092564
 20
3.71220249411073
 10
2.978251003061219
 20
3.712216573948079
 10
2.980015529343928
 20
3.712225410512665
 10
2.980676511708201
 20
3.712228747140787
  0
LWPOLYLINE
  5
2F6D
330
A
100
AcDbEntity
  8
SOLID
100
AcDbPolyline
 90
        4
 70
   128
 43
0.0
 10
3.063855754147828
 20
3.771004478158527
 10
3.062915815006084
 20
3.771013241390626
 10
3.033940316400185
 20
3.771283178272291
 10
3.004964817794283
 20
3.771552748491528
  0
LWPOLYLINE
  5
2F6E
330
A
100
AcDbEntity
  8
SOLID
100
AcDbPolyline
 90
        9
 70
   128
 43
0.0
 10
3.093644180029391
 20
3.750550801107817
 10
3.092944881441082
 20
3.754462905914847
 10
3.091165468663676
 20
3.758230692389055
 10
3.088371610938557
 20
3.761715232135355
 10
3.084666340408828
 20
3.764787936639212
 10
3.080186312162494
 20
3.767335507209459
 10
3.075096780957194
 20
3.769263968265045
 10
3.069585514623815
 20
3.770502187294367
 10
3.063855754147828
 20
3.771004478158527
  0
LINE
  5
2F6F
330
A
100
AcDbEntity
  8
SOLID
100
AcDbLine
 10
3.094206713530956
 20
3.791456505228298
 30
0.0
 11
3.064224983215796
 21
3.791456505228298
 31
0.0
  0
LINE
  5
2F70
330
A
100
AcDbEntity
  8
SOLID
100
AcDbLine
 10
3.005157682232963
 20
3.792013978788315
 30
0.0
 11
3.064224983215796
 21
3.791456505228298
 31
0.0
  0
LWPOLYLINE
  5
2F72
330
A
100
AcDbEntity
  8
SOLID
100
AcDbPolyline
 90
        9
 70
   128
 43
0.0
 10
5.156389763205822
 20
3.791966935998424
 10
5.156257826318508
 20
3.789156578463915
 10
5.155863176658783
 20
3.78637093397725
 10
5.155209285202179
 20
3.783634532255064
 10
5.154301903392664
 20
3.78097138968658
 10
5.153149012583352
 20
3.778405009333624
 10
5.151760753282101
 20
3.775957867603215
 10
5.150149336207224
 20
3.773651560912533
 10
5.148328934866864
 20
3.771506365694012
  0
LINE
  5
2F73
330
A
100
AcDbEntity
  8
HIDDEN
100
AcDbLine
 10
5.166389762580806
 20
3.737857901070613
 30
0.0
 11
5.166389762580806
 21
3.892857880497624
 31
0.0
  0
LINE
  5
2F74
330
A
100
AcDbEntity
  8
HIDDEN
100
AcDbLine
 10
5.156389763205822
 20
3.712078158880395
 30
0.0
 11
5.156389763205822
 21
3.790308265159531
 31
0.0
  0
LWPOLYLINE
  5
2F76
330
A
100
AcDbEntity
  8
SOLID
100
AcDbPolyline
 90
        2
 70
   128
 43
0.0
 10
4.90638975820638
 20
3.40755874004804
 10
4.90638975820638
 20
3.504143527625664
  0
LINE
  5
2F78
330
A
100
AcDbEntity
  8
DIM
100
AcDbLine
 10
5.156389763205822
 20
3.369857885550709
 30
0.0
 11
5.150312311462639
 21
3.370070114851034
 31
0.0
  0
LINE
  5
2F7C
330
A
100
AcDbEntity
  8
HIDDEN
100
AcDbLine
 10
4.970092588972509
 20
3.513352245412438
 30
0.0
 11
5.12743674902768
 21
3.51884681943865
 31
0.0
  0
LINE
  5
2F7F
330
A
100
AcDbEntity
  8
SOLID
100
AcDbLine
 10
4.90638975820638
 20
3.501048740876907
 30
0.0
 11
4.90638975820638
 21
3.504143527625664
 31
0.0
  0
LINE
  5
2F81
330
A
100
AcDbEntity
  8
SOLID
100
AcDbLine
 10
4.90638975820638
 20
3.499687634933852
 30
0.0
 11
4.90638975820638
 21
3.501053095572326
 31
0.0
  0
LWPOLYLINE
  5
2F82
330
A
100
AcDbEntity
  8
SOLID
100
AcDbPolyline
 90
        9
 70
   128
 43
0.0
 10
4.911763672793124
 20
3.517783434222968
 10
4.910550075146041
 20
3.516353340743529
 10
4.909475790889601
 20
3.514815861004626
 10
4.908550279914514
 20
3.513184506516839
 10
4.907781682126753
 20
3.511473622947779
 10
4.907176744115048
 20
3.509698270956796
 10
4.906740819150893
 20
3.507874052030329
 10
4.906477720523565
 20
3.506017025982853
 10
4.90638975820638
 20
3.504143527625664
  0
LINE
  5
2F83
330
A
100
AcDbEntity
  8
SOLID
100
AcDbLine
 10
4.911763672793124
 20
3.517783434222968
 30
0.0
 11
4.914428135346359
 21
3.520641265375726
 31
0.0
  0
ARC
  5
2F86
330
A
100
AcDbEntity
  8
SOLID
100
AcDbCircle
 10
4.936389763068664
 20
3.407558741188678
 30
0.0
 40
0.0300000000000003
100
AcDbArc
 50
180.0000000000004
 51
268.0000000000009
  0
LWPOLYLINE
  5
2F98
330
A
100
AcDbEntity
  8
HIDDEN
100
AcDbPolyline
 90
        3
 70
   128
 43
0.0
 10
4.935342780405265
 20
3.512138757764084
 10
4.952187344148757
 20
3.512726975968938
 10
4.970092588972509
 20
3.513352245412438
  0
LWPOLYLINE
  5
2F9A
330
A
100
AcDbEntity
  8
HIDDEN
100
AcDbPolyline
 90
        8
 70
   128
 43
0.0
 10
4.90638975820638
 20
3.482157027448925
 10
4.908825405069578
 20
3.493997895662205
 10
4.910935895689011
 20
3.498034720695125
 10
4.913442785062542
 20
3.501481530877279
 10
4.916528487749577
 20
3.50464101521198
 10
4.920414156195334
 20
3.507549546612377
 10
4.928019083342569
 20
3.510965566316892
 10
4.935342780405264
 20
3.512138757764084
  0
LINE
  5
2F9E
330
A
100
AcDbEntity
  8
HIDDEN
100
AcDbLine
 10
5.156389763205822
 20
3.54882854975381
 30
0.0
 11
5.156389763205822
 21
3.712078158880395
 31
0.0
  0
ARC
  5
2FA1
330
A
100
AcDbEntity
  8
HIDDEN
100
AcDbCircle
 10
5.126389763068662
 20
3.548828548815741
 30
0.0
 40
0.0300000000000003
100
AcDbArc
 50
272.0000000000008
 51
0.0
  0
ARC
  5
2FA7
330
A
100
AcDbEntity
  8
HIDDEN
100
AcDbCircle
 10
5.166389763068664
 20
3.727857885571529
 30
0.0
 40
0.0100000000000002
100
AcDbArc
 50
90.0
 51
180.0000000000004
  0
LINE
  5
2FAB
330
A
100
AcDbEntity
  8
HIDDEN
100
AcDbLine
 10
5.166389762580806
 20
3.892857880497624
 30
0.0
 11
5.166389762580806
 21
4.082857915601005
 31
0.0
  0
LINE
  5
2FAD
330
A
100
AcDbEntity
  8
HIDDEN
100
AcDbLine
 10
5.166389762580806
 20
3.892857880497624
 30
0.0
 11
5.156389763205822
 21
3.892857880497624
 31
0.0
  0
LINE
  5
2FAE
330
A
100
AcDbEntity
  8
HIDDEN
100
AcDbLine
 10
5.166389762580806
 20
4.082857915601005
 30
0.0
 11
5.156389763205822
 21
4.082857915601005
 31
0.0
  0
LINE
  5
2FAF
330
A
100
AcDbEntity
  8
SOLID
100
AcDbLine
 10
0.2193426482404797
 20
4.237857858361774
 30
0.0
 11
0.4593426561565744
 21
4.237857858361774
 31
0.0
1001
ACAD
1000
ASC_BOUNDS
1002
{
1070
    19
1005
3167
1002
}
  0
LINE
  5
2FB0
330
A
100
AcDbEntity
  8
SOLID
100
AcDbLine
 10
0.4593426561565744
 20
4.369857873486335
 30
0.0
 11
0.2382956630436355
 21
4.362138749324984
 31
0.0
1001
ACAD
1000
ASC_BOUNDS
1002
{
1070
    19
1005
3167
1002
}
  0
ARC
  5
2FB1
330
A
100
AcDbEntity
  8
SOLID
100
AcDbCircle
 10
0.2193426487283343
 20
4.24785788557153
 30
0.0
 40
0.0100000000000002
100
AcDbArc
 50
180.0000000000004
 51
270.0000000000008
1001
ACAD
1000
ASC_BOUNDS
1002
{
1070
    19
1005
3167
1002
}
  0
ARC
  5
2FB2
330
A
100
AcDbEntity
  8
SOLID
100
AcDbCircle
 10
0.2393426487283339
 20
4.33215702995438
 30
0.0
 40
0.0300000000000007
100
AcDbArc
 50
91.99999999999993
 51
180.0000000000004
1001
ACAD
1000
ASC_BOUNDS
1002
{
1070
    19
1005
3167
1002
}
  0
LINE
  5
2FB3
330
A
100
AcDbEntity
  8
SOLID
100
AcDbLine
 10
0.2093426488654928
 20
4.247857916173586
 30
0.0
 11
0.2093426488654928
 21
4.332157055676066
 31
0.0
1001
ACAD
1000
ASC_BOUNDS
1002
{
1070
    19
1005
3167
1002
}
  0
LINE
  5
2FB4
330
A
100
AcDbEntity
  8
SOLID
100
AcDbLine
 10
0.4593426561565744
 20
4.237857858361774
 30
0.0
 11
0.4593426561565744
 21
4.369857873486335
 31
0.0
1001
ACAD
1000
ASC_BOUNDS
1002
{
1070
    19
1005
3167
1002
}
  0
LINE
  5
2FB5
330
A
100
AcDbEntity
  8
HIDDEN
100
AcDbLine
 10
2.714897967004629
 20
5.671733954688207
 30
0.0
 11
2.860295039031912
 21
5.793736597803263
 31
0.0
  0
LINE
  5
2FB6
330
A
100
AcDbEntity
  8
SOLID
100
AcDbLine
 10
2.962606910449776
 20
5.293736585512737
 30
0.0
 11
2.239129758119579
 21
5.293736585512737
 31
0.0
  0
LINE
  5
2FBA
330
A
100
AcDbEntity
  8
SOLID
100
AcDbLine
 10
2.976925848369516
 20
5.54373659051218
 30
0.0
 11
2.226925839100291
 21
5.54373659051218
 31
0.0
  0
LINE
  5
2FBB
330
A
100
AcDbEntity
  8
SOLID
100
AcDbLine
 10
2.976925848369516
 20
5.793736597803263
 30
0.0
 11
2.226925839100291
 21
5.793736597803263
 31
0.0
  0
LINE
  5
2FBC
330
A
100
AcDbEntity
  8
SOLID
100
AcDbLine
 10
2.976925848369516
 20
4.369857873486335
 30
0.0
 11
2.226925839100291
 21
4.369857873486335
 31
0.0
  0
LINE
  5
2FBD
330
A
100
AcDbEntity
  8
SOLID
100
AcDbLine
 10
2.226925839100291
 20
4.362138749324982
 30
0.0
 11
2.976925848369516
 21
4.362138749324982
 31
0.0
  0
LINE
  5
2FBE
330
A
100
AcDbEntity
  8
SOLID
100
AcDbLine
 10
2.976925848369516
 20
4.332157055676066
 30
0.0
 11
2.226925839100291
 21
4.332157055676066
 31
0.0
  0
LINE
  5
2FC0
330
A
100
AcDbEntity
  8
SOLID
100
AcDbLine
 10
2.219816951222773
 20
5.363956180996646
 30
0.0
 11
2.22235564856219
 21
5.514238042219426
 31
0.0
  0
LINE
  5
2FC2
330
A
100
AcDbEntity
  8
SOLID
100
AcDbLine
 10
2.118375169753553
 20
5.322689607711621
 30
0.0
 11
2.110207507440419
 21
5.556580819009557
 31
0.0
  0
LWPOLYLINE
  5
2FC7
330
A
100
AcDbEntity
  8
SOLID
100
AcDbPolyline
 90
        7
 70
   128
 43
0.0
 10
2.148356900068714
 20
5.293736585512737
 10
2.138486787422428
 20
5.295406732885721
 10
2.129731988558615
 20
5.300218242302753
 10
2.123035045922266
 20
5.307649224792742
 10
2.119140247581976
 20
5.316925729296437
 10
2.118384336314326
 20
5.322453880434762
 10
2.118375169753553
 20
5.322689607711621
  0
ARC
  5
2FC9
330
A
100
AcDbEntity
  8
SOLID
100
AcDbCircle
 10
2.226925843734905
 20
4.244857885571528
 30
0.0
 40
0.125
100
AcDbArc
 50
89.99999999999939
 51
180.0000000000004
  0
ARC
  5
2FCA
330
A
100
AcDbEntity
  8
SOLID
100
AcDbCircle
 10
2.226925843734905
 20
4.244857885571528
 30
0.0
 40
0.0872991443828508
100
AcDbArc
 50
89.99999999999912
 51
180.0000000000004
  0
ARC
  5
2FCB
330
A
100
AcDbEntity
  8
SOLID
100
AcDbCircle
 10
2.226925843734905
 20
4.244857885571528
 30
0.0
 40
0.1172808691934235
100
AcDbArc
 50
89.99999999999934
 51
180.0000000000004
  0
LINE
  5
2FCC
330
A
100
AcDbEntity
  8
SOLID
100
AcDbLine
 10
2.109644973938854
 20
4.244857884163545
 30
0.0
 11
2.139626704254011
 21
4.244857884163545
 31
0.0
  0
LINE
  5
2FCD
330
A
100
AcDbEntity
  8
SOLID
100
AcDbLine
 10
2.109644973938854
 20
4.244857884163545
 30
0.0
 11
2.101925849777499
 21
4.244857884163545
 31
0.0
  0
LINE
  5
2FD0
330
A
100
AcDbEntity
  8
SOLID
100
AcDbLine
 10
2.226925839100291
 20
4.362138749324982
 30
0.0
 11
2.226925839100291
 21
4.369857873486335
 31
0.0
  0
LINE
  5
2FD1
330
A
100
AcDbEntity
  8
SOLID
100
AcDbLine
 10
2.226925839100291
 20
4.362138749324982
 30
0.0
 11
2.226925839100291
 21
4.332157055676066
 31
0.0
  0
LINE
  5
2FD4
330
A
100
AcDbEntity
  8
SOLID
100
AcDbLine
 10
2.239129758119579
 20
5.293736585512737
 30
0.0
 11
2.194973664881201
 21
5.293736585512737
 31
0.0
  0
LINE
  5
2FD5
330
A
100
AcDbEntity
  8
SOLID
100
AcDbLine
 10
2.148363243328768
 20
5.293736585512737
 30
0.0
 11
2.148356900068714
 21
5.293736585512737
 31
0.0
  0
LINE
  5
2FD7
330
A
100
AcDbEntity
  8
SOLID
100
AcDbLine
 10
2.188774833157301
 20
5.293736585512737
 30
0.0
 11
2.148363243328768
 21
5.293736585512737
 31
0.0
  0
LWPOLYLINE
  5
2FD9
330
A
100
AcDbEntity
  8
SOLID
100
AcDbPolyline
 90
        9
 70
   128
 43
0.0
 10
2.207262172923305
 20
5.302069612582231
 10
2.206132669304762
 20
5.300231057154714
 10
2.204846637494446
 20
5.298581901205904
 10
2.203422153950201
 20
5.297145299468317
 10
2.201879201774515
 20
5.295941363376289
 10
2.200239377384574
 20
5.29498701440101
 10
2.198525707181039
 20
5.294295599054967
 10
2.19676224421938
 20
5.293876833892577
 10
2.194973664881201
 20
5.293736585512737
  0
LINE
  5
2FDB
330
A
100
AcDbEntity
  8
SOLID
100
AcDbLine
 10
2.194973664881201
 20
5.293736585512737
 30
0.0
 11
2.188774833157301
 21
5.293736585512737
 31
0.0
  0
LWPOLYLINE
  5
2FE2
330
A
100
AcDbEntity
  8
SOLID
100
AcDbPolyline
 90
        4
 70
   128
 43
0.0
 10
2.207262172923305
 20
5.302069612582231
 10
2.209101791671875
 20
5.311668578360826
 10
2.211959411993737
 20
5.321792513074935
 10
2.215318516522406
 20
5.332922422834601
  0
LWPOLYLINE
  5
2FE5
330
A
100
AcDbEntity
  8
SOLID
100
AcDbPolyline
 90
        3
 70
   128
 43
0.0
 10
2.215318516522406
 20
5.332922422834601
 10
2.218562562380244
 20
5.348183224873848
 10
2.219816951222773
 20
5.363956180996646
  0
LINE
  5
2FE7
330
A
100
AcDbEntity
  8
SOLID
100
AcDbLine
 10
2.226925839100291
 20
5.793736597803263
 30
0.0
 11
2.101925849777499
 21
5.793736597803263
 31
0.0
  0
LINE
  5
2FE9
330
A
100
AcDbEntity
  8
SOLID
100
AcDbLine
 10
2.226925839100291
 20
5.54373659051218
 30
0.0
 11
2.139626704254011
 21
5.54373659051218
 31
0.0
  0
LINE
  5
2FEB
330
A
100
AcDbEntity
  8
SOLID
100
AcDbLine
 10
2.109644973938854
 20
5.572689604690323
 30
0.0
 11
2.101925849777499
 21
5.793736597803263
 31
0.0
  0
LWPOLYLINE
  5
2FEF
330
A
100
AcDbEntity
  8
SOLID
100
AcDbPolyline
 90
        4
 70
   128
 43
0.0
 10
2.110207507440419
 20
5.556580819009557
 10
2.10982119190317
 20
5.567643032572089
 10
2.109650987202721
 20
5.57251695480979
 10
2.109644973938854
 20
5.572689604690323
  0
ARC
  5
2FF0
330
A
100
AcDbEntity
  8
SOLID
100
AcDbCircle
 10
2.139626699352055
 20
5.573736590375022
 30
0.0
 40
0.0299999999999998
100
AcDbArc
 50
181.9999999999991
 51
270.0000000000008
  0
ARC
  5
2FF2
330
A
100
AcDbEntity
  8
HIDDEN
100
AcDbCircle
 10
2.482525843734903
 20
5.553736590375025
 30
0.0
 40
0.0100000000000007
100
AcDbArc
 50
270.0000000000008
 51
0.0
  0
LINE
  5
2FF3
330
A
100
AcDbEntity
  8
HIDDEN
100
AcDbLine
 10
2.343556648437894
 20
5.793736597803263
 30
0.0
 11
2.488953720465181
 21
5.671733954688207
 31
0.0
  0
LINE
  5
2FF4
330
A
100
AcDbEntity
  8
HIDDEN
100
AcDbLine
 10
2.756925841495037
 20
5.553736589887167
 30
0.0
 11
2.446925845974773
 21
5.553736589887167
 31
0.0
  0
LINE
  5
2FF5
330
A
100
AcDbEntity
  8
HIDDEN
100
AcDbLine
 10
2.446925845974773
 20
5.553736589887167
 30
0.0
 11
2.446925845974773
 21
5.793736597803263
 31
0.0
  0
LINE
  5
2FF8
330
A
100
AcDbEntity
  8
HIDDEN
100
AcDbLine
 10
2.252351092052267
 20
5.54373659051218
 30
0.0
 11
2.252351092052267
 21
5.543726375526018
 31
0.0
  0
LWPOLYLINE
  5
2FFA
330
A
100
AcDbEntity
  8
SOLID
100
AcDbPolyline
 90
        9
 70
   128
 43
0.0
 10
2.252351092052267
 20
5.54373659051218
 10
2.246559952285339
 20
5.543172313645339
 10
2.240986646668643
 20
5.541500710758571
 10
2.235840869446432
 20
5.538784664709437
 10
2.231316181716012
 20
5.535126348884675
 10
2.227582788177825
 20
5.530663383618316
 10
2.224781157209173
 20
5.525563659197434
 10
2.223016667592707
 20
5.520019018562097
 10
2.22235564856219
 20
5.514238042219426
  0
ARC
  5
3001
330
A
100
AcDbEntity
  8
HIDDEN
100
AcDbCircle
 10
2.436925843734902
 20
5.553736590375022
 30
0.0
 40
0.0100000000000007
100
AcDbArc
 50
270.0000000000008
 51
0.0
  0
LINE
  5
3002
330
A
100
AcDbEntity
  8
HIDDEN
100
AcDbLine
 10
2.711325840770134
 20
5.553736589887167
 30
0.0
 11
2.711325840770134
 21
5.664073514848928
 31
0.0
  0
LINE
  5
3003
330
A
100
AcDbEntity
  8
HIDDEN
100
AcDbLine
 10
2.492525846699672
 20
5.664073514848928
 30
0.0
 11
2.492525846699672
 21
5.553736589887167
 31
0.0
  0
LINE
  5
3004
330
A
100
AcDbEntity
  8
HIDDEN
100
AcDbLine
 10
2.756925841495037
 20
5.553736589887167
 30
0.0
 11
2.756925841495037
 21
5.793736597803263
 31
0.0
  0
ARC
  5
3005
330
A
100
AcDbEntity
  8
HIDDEN
100
AcDbCircle
 10
2.721325843734904
 20
5.553736590375025
 30
0.0
 40
0.0100000000000007
100
AcDbArc
 50
180.0000000000004
 51
270.0000000000008
  0
ARC
  5
3006
330
A
100
AcDbEntity
  8
HIDDEN
100
AcDbCircle
 10
2.766925843734904
 20
5.553736590375022
 30
0.0
 40
0.0100000000000007
100
AcDbArc
 50
180.0000000000004
 51
270.0000000000008
  0
LINE
  5
3007
330
A
100
AcDbEntity
  8
HIDDEN
100
AcDbLine
 10
2.492525846699672
 20
5.664073514848928
 30
0.0
 11
2.711325840770134
 21
5.664073514848928
 31
0.0
  0
LINE
  5
3008
330
A
100
AcDbEntity
  8
HIDDEN
100
AcDbLine
 10
2.714897967004629
 20
5.671733954688207
 30
0.0
 11
2.488953720465181
 21
5.671733954688207
 31
0.0
  0
ARC
  5
3009
330
A
100
AcDbEntity
  8
HIDDEN
100
AcDbCircle
 10
2.482525843734903
 20
5.664073513793477
 30
0.0
 40
0.0100000000000001
100
AcDbArc
 50
0.0
 51
50.00000000000176
  0
ARC
  5
300C
330
A
100
AcDbEntity
  8
HIDDEN
100
AcDbCircle
 10
2.721325843734904
 20
5.664073513793477
 30
0.0
 40
0.0100000000000001
100
AcDbArc
 50
129.9999999999982
 51
180.0000000000004
  0
LINE
  5
300E
330
A
100
AcDbEntity
  8
DIM
100
AcDbLine
 10
2.980997727870066
 20
5.54373659051218
 30
0.0
 11
2.981080464110059
 21
5.538838848365079
 31
0.0
  0
LINE
  5
3011
330
A
100
AcDbEntity
  8
SOLID
100
AcDbLine
 10
3.093644180029391
 20
5.556580819009557
 30
0.0
 11
3.085476517716257
 21
5.322689607711621
 31
0.0
  0
ARC
  5
3014
330
A
100
AcDbEntity
  8
SOLID
100
AcDbCircle
 10
2.976925843734905
 20
4.244857885571528
 30
0.0
 40
0.125
100
AcDbArc
 50
0.0000000000007994
 51
90.0000000000004
  0
ARC
  5
3015
330
A
100
AcDbEntity
  8
SOLID
100
AcDbCircle
 10
2.976925843734905
 20
4.244857885571528
 30
0.0
 40
0.0872991443828513
100
AcDbArc
 50
0.0000000000007994
 51
90.0000000000003
  0
ARC
  5
3016
330
A
100
AcDbEntity
  8
SOLID
100
AcDbCircle
 10
2.976925843734905
 20
4.244857885571528
 30
0.0
 40
0.1172808691934239
100
AcDbArc
 50
0.0000000000007994
 51
90.00000000000044
  0
LINE
  5
3017
330
A
100
AcDbEntity
  8
SOLID
100
AcDbLine
 10
2.976925848369516
 20
4.362138749324982
 30
0.0
 11
2.976925848369516
 21
4.369857873486335
 31
0.0
  0
LINE
  5
3018
330
A
100
AcDbEntity
  8
SOLID
100
AcDbLine
 10
2.976925848369516
 20
4.362138749324982
 30
0.0
 11
2.976925848369516
 21
4.332157055676066
 31
0.0
  0
LINE
  5
3019
330
A
100
AcDbEntity
  8
SOLID
100
AcDbLine
 10
3.094206713530956
 20
4.244857884163545
 30
0.0
 11
3.064224983215796
 21
4.244857884163545
 31
0.0
  0
LINE
  5
301A
330
A
100
AcDbEntity
  8
SOLID
100
AcDbLine
 10
3.094206713530956
 20
4.244857884163545
 30
0.0
 11
3.101925837692308
 21
4.244857884163545
 31
0.0
  0
LINE
  5
301C
330
A
100
AcDbEntity
  8
SOLID
100
AcDbLine
 10
3.055494787401096
 20
5.293736585512737
 30
0.0
 11
2.991452683887606
 21
5.293736585512737
 31
0.0
  0
LWPOLYLINE
  5
301D
330
A
100
AcDbEntity
  8
SOLID
100
AcDbPolyline
 90
        3
 70
   128
 43
0.0
 10
2.991452683887606
 20
5.293736585512737
 10
2.992145529217131
 20
5.293745587075418
 10
2.994350013750738
 20
5.293939148172716
  0
LWPOLYLINE
  5
301E
330
A
100
AcDbEntity
  8
SOLID
100
AcDbPolyline
 90
        3
 70
   128
 43
0.0
 10
2.987273392167141
 20
5.331919417754734
 10
2.992563487722174
 20
5.310825346435247
 10
2.994350013750738
 20
5.293939148172716
  0
LINE
  5
3022
330
A
100
AcDbEntity
  8
SOLID
100
AcDbLine
 10
2.984154011535826
 20
5.356893877580978
 30
0.0
 11
2.987273392167141
 21
5.331919417754734
 31
0.0
  0
LINE
  5
3023
330
A
100
AcDbEntity
  8
SOLID
100
AcDbLine
 10
2.991452683887606
 20
5.293736585512737
 30
0.0
 11
2.962606910449776
 21
5.293736585512737
 31
0.0
  0
ARC
  5
3029
330
A
100
AcDbEntity
  8
SOLID
100
AcDbCircle
 10
3.055494795744818
 20
5.323736590375025
 30
0.0
 40
0.0300000000000011
100
AcDbArc
 50
270.0000000000008
 51
357.9999999999296
  0
ARC
  5
302D
330
A
100
AcDbEntity
  8
SOLID
100
AcDbCircle
 10
5.186389763068664
 20
4.33215702995438
 30
0.0
 40
0.0300000000000003
100
AcDbArc
 50
91.99999999999997
 51
180.0000000000004
  0
ARC
  5
302E
330
A
100
AcDbEntity
  8
HIDDEN
100
AcDbCircle
 10
5.166389763068664
 20
4.24785788557153
 30
0.0
 40
0.0100000000000002
100
AcDbArc
 50
180.0000000000004
 51
270.0000000000008
  0
LINE
  5
302F
330
A
100
AcDbEntity
  8
SOLID
100
AcDbLine
 10
5.156389763205822
 20
4.244857884163545
 30
0.0
 11
5.156389763205822
 21
4.332157055676066
 31
0.0
  0
LINE
  5
3031
330
A
100
AcDbEntity
  8
SOLID
100
AcDbLine
 10
3.094206713530956
 20
5.572689604690323
 30
0.0
 11
3.101925837692308
 21
5.793736597803263
 31
0.0
  0
LINE
  5
3035
330
A
100
AcDbEntity
  8
SOLID
100
AcDbLine
 10
3.064224983215796
 20
5.54373659051218
 30
0.0
 11
2.976925848369516
 21
5.54373659051218
 31
0.0
  0
LINE
  5
3037
330
A
100
AcDbEntity
  8
SOLID
100
AcDbLine
 10
2.951500595417543
 20
5.54373659051218
 30
0.0
 11
2.951500595417543
 21
5.543725394417561
 31
0.0
  0
LWPOLYLINE
  5
3039
330
A
100
AcDbEntity
  8
SOLID
100
AcDbPolyline
 90
        9
 70
   128
 43
0.0
 10
2.951500595417543
 20
5.54373659051218
 10
2.957291735184467
 20
5.543172313645339
 10
2.962865040801167
 20
5.541500710758571
 10
2.968010818023378
 20
5.538784664709437
 10
2.972535505753794
 20
5.535126348884675
 10
2.976268899291982
 20
5.530663383618316
 10
2.979070530260637
 20
5.525563659197434
 10
2.980835019877103
 20
5.520019018562097
 10
2.98149603890762
 20
5.514238042219426
  0
ARC
  5
3041
330
A
100
AcDbEntity
  8
SOLID
100
AcDbCircle
 10
3.064224988117755
 20
5.573736590375022
 30
0.0
 40
0.0300000000000003
100
AcDbArc
 50
270.0000000000008
 51
358.0000000000025
  0
LWPOLYLINE
  5
3043
330
A
100
AcDbEntity
  8
0
  6
Continuous
 62
     7
100
AcDbPolyline
 90
        4
 70
   128
 43
0.0
 10
3.094206713530956
 20
5.572689604690323
 10
3.094088758226918
 20
5.569311500172808
 10
3.093748128828563
 20
5.559557981596286
 10
3.093644180029391
 20
5.556580819009557
  0
LINE
  5
3047
330
A
100
AcDbEntity
  8
SOLID
100
AcDbLine
 10
3.101925837692308
 20
5.793736597803263
 30
0.0
 11
2.976925848369516
 21
5.793736597803263
 31
0.0
  0
LINE
  5
3048
330
A
100
AcDbEntity
  8
SOLID
100
AcDbLine
 10
5.406389770496904
 20
2.494857886979513
 30
0.0
 11
5.406389770496904
 21
4.244857884163545
 31
0.0
  0
LINE
  5
3049
330
A
100
AcDbEntity
  8
SOLID
100
AcDbLine
 10
7.829096367869762
 20
4.244857884163545
 30
0.0
 11
7.829096367869762
 21
2.494857886979513
 31
0.0
  0
ARC
  5
304B
330
A
100
AcDbEntity
  8
SOLID
100
AcDbCircle
 10
7.329096373912359
 20
4.082857885571529
 30
0.0
 40
0.1550000000000011
100
AcDbArc
 50
0.0
 51
180.0000000000004
  0
LINE
  5
304C
330
A
100
AcDbEntity
  8
SOLID
100
AcDbLine
 10
6.829096379954957
 20
2.494857886979513
 30
0.0
 11
6.829096379954957
 21
4.244857884163545
 31
0.0
  0
LINE
  5
305E
330
A
100
AcDbEntity
  8
SOLID
100
AcDbLine
 10
5.406389770496904
 20
2.369857897656721
 30
0.0
 11
5.406389770496904
 21
2.494857886979513
 31
0.0
  0
ARC
  5
305F
330
A
100
AcDbEntity
  8
SOLID
100
AcDbCircle
 10
7.704096373912359
 20
2.494857885571528
 30
0.0
 40
0.125
100
AcDbArc
 50
270.0000000000004
 51
0.0
  0
ARC
  5
3060
330
A
100
AcDbEntity
  8
SOLID
100
AcDbCircle
 10
6.954096373912359
 20
2.494857885571528
 30
0.0
 40
0.1250000000000009
100
AcDbArc
 50
180.0000000000004
 51
270.0000000000008
  0
LINE
  5
3061
330
A
100
AcDbEntity
  8
SOLID
100
AcDbLine
 10
7.704096378546974
 20
2.369857897656721
 30
0.0
 11
6.954096369277745
 21
2.369857897656721
 31
0.0
  0
LINE
  5
3062
330
A
100
AcDbEntity
  8
CENTER
100
AcDbLine
 10
7.42909637391236
 20
2.827957885571528
 30
0.0
 11
7.637465572986637
 21
2.827957885571528
 31
0.0
  0
LINE
  5
3063
330
A
100
AcDbEntity
  8
CENTER
100
AcDbLine
 10
7.429096373912353
 20
3.892857885571528
 30
0.0
 11
7.534096373912357
 21
3.892857885571528
 31
0.0
  0
LINE
  5
3064
330
A
100
AcDbEntity
  8
CENTER
100
AcDbLine
 10
7.42909637391236
 20
4.082857885571527
 30
0.0
 11
7.534096373912357
 21
4.082857885571527
 31
0.0
  0
CIRCLE
  5
3065
330
A
100
AcDbEntity
  8
SOLID
100
AcDbCircle
 10
7.329096373912359
 20
2.827957885571528
 30
0.0
 40
0.2583691990742771
  0
ARC
  5
3066
330
A
100
AcDbEntity
  8
SOLID
100
AcDbCircle
 10
7.329096373912359
 20
3.892857885571528
 30
0.0
 40
0.1550000000000002
100
AcDbArc
 50
180.0000000000004
 51
0.0
  0
CIRCLE
  5
3067
330
A
100
AcDbEntity
  8
SOLID
100
AcDbCircle
 10
7.329096373912359
 20
2.827957885571528
 30
0.0
 40
0.1094000000000008
  0
CIRCLE
  5
3068
330
A
100
AcDbEntity
  8
SOLID
100
AcDbCircle
 10
7.329096373912359
 20
2.827957885571528
 30
0.0
 40
0.1129721239031349
  0
LINE
  5
3069
330
A
100
AcDbEntity
  8
CENTER
100
AcDbLine
 10
7.229096373912358
 20
2.827957885571528
 30
0.0
 11
7.020727174838081
 21
2.827957885571528
 31
0.0
  0
LINE
  5
306A
330
A
100
AcDbEntity
  8
CENTER
100
AcDbLine
 10
7.329096373912359
 20
2.727957885571528
 30
0.0
 11
7.329096373912359
 21
2.519588686497252
 31
0.0
  0
LINE
  5
306B
330
A
100
AcDbEntity
  8
CENTER
100
AcDbLine
 10
7.279096373912362
 20
2.827957885571528
 30
0.0
 11
7.379096373912356
 21
2.827957885571528
 31
0.0
  0
LINE
  5
306C
330
A
100
AcDbEntity
  8
CENTER
100
AcDbLine
 10
7.329096373912359
 20
2.777957885571527
 30
0.0
 11
7.329096373912359
 21
2.877957885571529
 31
0.0
  0
LINE
  5
306D
330
A
100
AcDbEntity
  8
CENTER
 48
0.5
100
AcDbLine
 10
7.329096373912359
 20
2.927957885571528
 30
0.0
 11
7.329096373912359
 21
4.495914395301826
 31
0.0
  0
LINE
  5
306E
330
A
100
AcDbEntity
  8
SOLID
100
AcDbLine
 10
5.406389763068666
 20
3.369857885571528
 30
0.0
 11
5.406389763068666
 21
3.377276067389711
 31
0.0
  0
LINE
  5
306F
330
A
100
AcDbEntity
  8
SOLID
100
AcDbLine
 10
5.406389763068666
 20
3.369857885571528
 30
0.0
 11
5.406389763068666
 21
3.369857885571528
 31
0.0
  0
LINE
  5
3071
330
A
100
AcDbEntity
  8
CENTER
100
AcDbLine
 10
7.229096373912358
 20
4.082857885571527
 30
0.0
 11
7.124096373912361
 21
4.082857885571527
 31
0.0
  0
LINE
  5
3072
330
A
100
AcDbEntity
  8
CENTER
100
AcDbLine
 10
7.229096373912358
 20
3.892857885571528
 30
0.0
 11
7.124096373912361
 21
3.892857885571528
 31
0.0
  0
LINE
  5
3074
330
A
100
AcDbEntity
  8
SOLID
100
AcDbLine
 10
7.17409637615223
 20
4.082857915601005
 30
0.0
 11
7.17409637615223
 21
3.892857880497624
 31
0.0
  0
LINE
  5
3075
330
A
100
AcDbEntity
  8
CENTER
100
AcDbLine
 10
7.279096373912362
 20
3.892857885571528
 30
0.0
 11
7.379096373912356
 21
3.892857885571528
 31
0.0
  0
LINE
  5
3078
330
A
100
AcDbEntity
  8
CENTER
100
AcDbLine
 10
7.279096373912362
 20
4.082857885571527
 30
0.0
 11
7.379096373912356
 21
4.082857885571527
 31
0.0
  0
LINE
  5
307A
330
A
100
AcDbEntity
  8
SOLID
100
AcDbLine
 10
7.484096371672488
 20
3.892857880497624
 30
0.0
 11
7.484096371672488
 21
4.082857915601005
 31
0.0
  0
LINE
  5
30B3
330
A
100
AcDbEntity
  8
SOLID
100
AcDbLine
 10
6.954096369277745
 20
4.369857873486335
 30
0.0
 11
7.704096378546974
 21
4.369857873486335
 31
0.0
  0
LINE
  5
30B4
330
A
100
AcDbEntity
  8
SOLID
100
AcDbLine
 10
5.406389770496904
 20
4.244857884163545
 30
0.0
 11
5.406389770496904
 21
4.369857873486335
 31
0.0
  0
ARC
  5
30B5
330
A
100
AcDbEntity
  8
SOLID
100
AcDbCircle
 10
6.954096373912359
 20
4.244857885571528
 30
0.0
 40
0.1250000000000009
100
AcDbArc
 50
89.99999999999959
 51
180.0000000000004
  0
ARC
  5
30B8
330
A
100
AcDbEntity
  8
SOLID
100
AcDbCircle
 10
7.704096373912359
 20
4.244857885571528
 30
0.0
 40
0.125
100
AcDbArc
 50
0.0000000000007994
 51
90.0000000000004
  0
LINE
  5
3129
330
A
100
AcDbEntity
  8
CENTER
 48
0.5
100
AcDbLine
 10
5.619402615562643
 20
3.892857885571528
 30
0.0
 11
5.013731545824047
 21
3.892857885571528
 31
0.0
  0
LINE
  5
312A
330
A
100
AcDbEntity
  8
CENTER
 48
0.5
100
AcDbLine
 10
5.619402615562643
 20
4.082857885571527
 30
0.0
 11
5.013731545824047
 21
4.082857885571527
 31
0.0
  0
LINE
  5
312C
330
A
100
AcDbEntity
  8
CENTER
 48
0.5
100
AcDbLine
 10
5.619402615562643
 20
2.827957885571528
 30
0.0
 11
5.013731545824047
 21
2.827957885571528
 31
0.0
  0
LINE
  5
312D
330
A
100
AcDbEntity
  8
CENTER
 48
0.5
100
AcDbLine
 10
0.6431609202258226
 20
3.892857885571528
 30
0.0
 11
0.0374898504872263
 21
3.892857885571528
 31
0.0
  0
LINE
  5
312E
330
A
100
AcDbEntity
  8
CENTER
 48
0.5
100
AcDbLine
 10
0.6431609202258226
 20
4.082857885571527
 30
0.0
 11
0.0374898504872263
 21
4.082857885571527
 31
0.0
  0
LINE
  5
314F
330
A
100
AcDbEntity
  8
SOLID
  6
Continuous
100
AcDbLine
 10
0.2093426487283345
 20
2.708557885571529
 30
0.0
 11
0.2093426487283345
 21
2.708557885571529
 31
0.0
  0
INSERT
  5
315F
330
A
100
AcDbEntity
  8
DIM
  6
Continuous
100
AcDbBlockReference
  2
*X24
 10
0.0
 20
0.0
 30
0.0
1001
ACAD
1000
HATCH
1002
{
1070
    19
1000
ANSI31
1040
0.5
1040
0.0
1000
ASC_BOUNDS
1070
     1
1070
     2
1070
     8
1005
2E7D
1005
2E7B
1005
2E79
1005
2E87
1005
2E8A
1005
2E88
1005
2E89
1005
2E7A
1000
ASC_SEEDPOINT
1011
-0.9112379676025042
1021
0.6011406177956767
1031
0.0
1000
R14_HATCH_DATA
1000
315F
1011
1.0
1021
0.0
1031
0.0
1011
0.0
1021
1.0
1031
0.0
1011
0.0
1021
0.0
1031
1.0
1040
0.0
1010
0.0
1020
0.0
1030
1.0
1000
ANSI31
1070
     0
1070
     1
1071
        1
1071
        1
1071
        8
1070
     1
1040
0.2093426488654928
1040
2.407558715466992
1040
0.2093426488654928
1040
2.708557918298515
1070
     2
1040
0.2193426487283343
1040
2.708557885571529
1040
0.0100000000000002
1040
3.141592653589786
1040
4.712388980384689
1070
     0
1070
     1
1040
0.2193426482404797
1040
2.718557902777842
1040
0.3296795732022404
1040
2.718557902777842
1070
     2
1040
0.3296795721467856
1040
2.708557885571529
1040
0.0100000000000002
1040
4.712388980384689
1040
5.585053606381803
1070
     0
1070
     1
1040
0.3373400130415178
1040
2.714985730710544
1040
0.4593426561565744
1040
2.569588677016383
1070
     1
1040
0.4593426561565744
1040
2.569588677016383
1040
0.4593426561565744
1040
2.369857897656721
1070
     1
1040
0.4593426561565744
1040
2.369857897656721
1040
0.2382956630436355
1040
2.377577021818074
1070
     2
1040
0.2393426487283374
1040
2.407558741188678
1040
0.03
1040
1.605702911834775
1040
3.141592653589786
1070
     0
1071
        8
1005
2E7A
1005
2E89
1005
2E88
1005
2E8A
1005
2E87
1005
2E79
1005
2E7B
1005
2E7D
1070
     0
1070
     1
1040
0.0
1040
0.5
1070
     0
1070
     1
1040
0.7853981633974483
1040
-0.9112379676025042
1040
0.6011406177956767
1040
-0.0441941738241592
1040
0.0441941738241592
1070
     0
1071
        1
1040
-0.9112379676025042
1040
0.6011406177956767
1040
0.0
1002
}
  0
INSERT
  5
3167
330
A
100
AcDbEntity
  8
DIM
  6
Continuous
100
AcDbBlockReference
  2
*X25
 10
0.0
 20
0.0
 30
0.0
1001
ACAD
1000
HATCH
1002
{
1070
    19
1000
ANSI31
1040
0.5
1040
0.0
1000
ASC_BOUNDS
1070
     1
1070
     1
1070
     7
1005
2FB4
1005
2FAF
1005
2E6C
1005
2FB1
1005
2FB3
1005
2FB2
1005
2FB0
1000
ASC_SEEDPOINT
1011
0.3626199916390829
1021
4.293847537721194
1031
0.0
1000
R14_HATCH_DATA
1000
3167
1011
1.0
1021
0.0
1031
0.0
1011
0.0
1021
1.0
1031
0.0
1011
0.0
1021
0.0
1031
1.0
1040
0.0
1010
0.0
1020
0.0
1030
1.0
1000
ANSI31
1070
     0
1070
     1
1071
        1
1071
        7
1070
     1
1070
     1
1071
        7
1040
0.4593426561565744
1040
4.237857858361774
1040
0.0
1040
0.4593426561565744
1040
4.369857873486335
1040
0.0
1040
0.2382956649551164
1040
4.362138749391734
1040
0.4040262354909128
1040
0.2093426488654928
1040
4.332157024541775
1040
0.0
1040
0.2093426488654928
1040
4.24785788557153
1040
0.4142135440668758
1040
0.2193426482404797
1040
4.23785788557153
1040
0.0
1040
0.2193426482404797
1040
4.237857858361774
1040
0.0
1071
        7
1005
2FB0
1005
2FB2
1005
2FB3
1005
2FB1
1005
2E6C
1005
2FAF
1005
2FB4
1070
     0
1070
     1
1040
0.0
1040
0.5
1070
     0
1070
     1
1040
0.7853981633974483
1040
-0.9112379676025042
1040
0.6011406177956767
1040
-0.0441941738241592
1040
0.0441941738241592
1070
     0
1040
0.004617394263237
1071
        1
1040
0.3626199916390829
1040
4.293847537721194
1040
0.0
1002
}
  0
LINE
  5
316A
330
A
100
AcDbEntity
  8
CENTER
 48
0.5
100
AcDbLine
 10
0.6409323804076235
 20
2.827957885571528
 30
0.0
 11
0.0352613106690272
 21
2.827957885571528
 31
0.0
  0
DIMENSION
  5
316D
330
A
100
AcDbEntity
  8
DIM
  6
Continuous
100
AcDbDimension
280
     0
  2
*D0
 10
7.829096367869762
 20
2.071452457104276
 30
0.0
 11
7.577417931038971
 21
2.071452457104276
 31
0.0
 70
   160
  1
.50
 71
     5
 42
0.4999999939574025
 73
     0
 74
     0
 75
     0
  3
BASIC 2XSCALE
100
AcDbAlignedDimension
 13
7.329096373912359
 23
2.519588686497252
 33
0.0
 14
7.829096367869762
 24
2.494857886979513
 34
0.0
100
AcDbRotatedDimension
  0
DIMENSION
  5
317B
330
A
100
AcDbEntity
  8
DIM
  6
Continuous
100
AcDbDimension
280
     0
  2
*D1
 10
8.047856606747062
 20
2.827957885571528
 30
0.0
 11
8.047856606747062
 21
2.598907891614125
 31
0.0
 70
   160
  1
.46
 71
     5
 42
0.4580999879148067
 73
     0
 74
     0
 75
     0
  3
BASIC 2XSCALE
100
AcDbAlignedDimension
 13
7.704096378546974
 23
2.369857897656721
 33
0.0
 14
7.637465572986637
 24
2.827957885571528
 34
0.0
 50
90.0
100
AcDbRotatedDimension
  0
LINE
  5
318A
330
A
100
AcDbEntity
  8
SOLID
100
AcDbLine
 10
5.127436749027677
 20
3.370868947127336
 30
0.0
 11
4.935342780405264
 21
3.377577016607801
 31
0.0
  0
LINE
  5
318B
330
A
100
AcDbEntity
  8
DIM
100
AcDbLine
 10
5.156389763205822
 20
3.360555966392981
 30
0.0
 11
5.156389763205822
 21
3.369857885550709
 31
0.0
  0
LINE
  5
318E
330
A
100
AcDbEntity
  8
DIM
100
AcDbLine
 10
0.2012974206928972
 20
3.370138831121021
 30
0.0
 11
0.2093426488654928
 21
3.36985788555071
 31
0.0
  0
LINE
  5
318F
330
A
100
AcDbEntity
  8
DIM
100
AcDbLine
 10
0.2093426488654928
 20
3.361429743693525
 30
0.0
 11
0.2093426488654928
 21
3.36985788555071
 31
0.0
  0
LINE
  5
3193
330
A
100
AcDbEntity
  8
SOLID
100
AcDbLine
 10
0.1803896362700337
 20
3.51884681949392
 30
0.0
 11
-0.0117043339350658
 21
3.512138757764086
 31
0.0
1001
ACAD
1000
ASC_BOUNDS
1002
{
1070
    19
1005
3B97
1002
}
  0
LINE
  5
3194
330
A
100
AcDbEntity
  8
SOLID
100
AcDbLine
 10
0.209342648865493
 20
3.548828548699648
 30
0.0
 11
0.2093426488654928
 21
3.727857879925045
 31
0.0
1001
ACAD
1000
ASC_BOUNDS
1002
{
1070
    19
1005
3B97
1002
}
  0
DIMENSION
  5
31B1
330
A
100
AcDbEntity
  8
DIM
  6
Continuous
100
AcDbDimension
280
     0
  2
*D2
 10
-0.3622867546067192
 20
2.827957885571528
 30
0.0
 11
-0.3622867546067197
 21
3.05957674670923
 31
0.0
 70
   160
  1
.562
 71
     5
 42
0.5418999999791821
 73
     0
 74
     0
 75
     0
  3
BASIC 2XSCALE
100
AcDbAlignedDimension
 13
0.2093426488654928
 23
3.36985788555071
 33
0.0
 14
0.0352613106690272
 24
2.827957885571528
 34
0.0
 50
90.0
100
AcDbRotatedDimension
  0
DIMENSION
  5
31BF
330
A
100
AcDbEntity
  8
DIM
  6
Continuous
100
AcDbDimension
280
     0
  2
*D3
 10
-0.6244023509550198
 20
2.827957885571528
 30
0.0
 11
-0.6244023509550204
 21
3.173907882705139
 31
0.0
 70
   160
  1
.69
 71
     5
 42
0.69189999426722
 73
     0
 74
     0
 75
     0
  3
BASIC 2XSCALE
100
AcDbAlignedDimension
 13
0.209342648865493
 23
3.519857879838748
 33
0.0
 14
0.0352613106690272
 24
2.827957885571528
 34
0.0
 50
90.0
100
AcDbRotatedDimension
  0
LINE
  5
31D7
330
A
100
AcDbEntity
  8
DIM
  6
Continuous
100
AcDbLine
 10
0.2093426488654928
 20
3.36985788555071
 30
0.0
 11
0.2014958770787214
 21
3.36985788555071
 31
0.0
  0
LINE
  5
3200
330
A
100
AcDbEntity
  8
DIM
  6
Continuous
100
AcDbLine
 10
0.209342648865493
 20
3.519857879838748
 30
0.0
 11
0.2012645203603642
 21
3.519857879838748
 31
0.0
  0
DIMENSION
  5
3201
330
A
100
AcDbEntity
  8
DIM
  6
Continuous
100
AcDbDimension
280
     0
  2
*D4
 10
0.2012645203603642
 20
3.519857879838748
 30
0.0
 11
-0.6342931767558636
 21
3.70571908549624
 31
0.0
 70
    34
 71
     5
 42
-1.0
 73
     0
 74
     0
 75
     0
  3
2XSCALE
100
AcDb2LineAngularDimension
 13
0.1803896362700337
 23
3.51884681949392
 33
0.0
 14
-0.0117043339350658
 24
3.512138757764086
 34
0.0
 15
0.209342648865493
 25
3.519857879838748
 35
0.0
 16
-0.5010985207562401
 26
3.503322196609129
 36
0.0
1001
ACAD
1000
DSTYLE
1002
{
1070
    79
1070
     1
1070
   271
1070
     2
1002
}
  0
DIMENSION
  5
3213
330
A
100
AcDbEntity
  8
DIM
  6
Continuous
100
AcDbDimension
280
     0
  2
*D5
 10
1.762907518795236
 20
3.892857885571528
 30
0.0
 11
1.762907518795235
 21
3.360407885571528
 31
0.0
 70
    32
 71
     5
 42
1.064899999999999
 73
     0
 74
     0
 75
     0
  3
BASIC 2XSCALE
100
AcDbAlignedDimension
 13
2.432525843734905
 23
2.827957885571528
 33
0.0
 14
2.386925843734905
 24
3.892857885571528
 34
0.0
 50
90.0
100
AcDbRotatedDimension
  0
DIMENSION
  5
3221
330
A
100
AcDbEntity
  8
DIM
  6
Continuous
100
AcDbDimension
280
     0
  2
*D6
 10
1.762907518795237
 20
4.082857885571528
 30
0.0
 11
1.762907518795236
 21
3.987857885571528
 31
0.0
 70
   160
 71
     5
 42
0.19
 73
     0
 74
     0
 75
     0
  3
BASIC 2XSCALE
100
AcDbAlignedDimension
 13
2.386925843734905
 23
3.892857885571528
 33
0.0
 14
2.386925843734905
 24
4.082857885571527
 34
0.0
 50
90.0
100
AcDbRotatedDimension
  0
DIMENSION
  5
324E
330
A
100
AcDbEntity
  8
DIM
  6
Continuous
100
AcDbDimension
280
     0
  2
*D7
 10
2.756925841495037
 20
4.560190234854136
 30
0.0
 11
3.215259174828371
 21
4.560190234854136
 31
0.0
 70
   160
  1
\P<> SLOT\PCENT.
 71
     5
 42
0.3099999977601335
 73
     0
 74
     0
 75
     0
  3
BASIC 2XSCALE
100
AcDbAlignedDimension
 13
2.446925843734904
 23
4.082857885571528
 33
0.0
 14
2.756925841495037
 24
4.082857915601005
 34
0.0
100
AcDbRotatedDimension
  0
TEXT
  5
3266
330
A
100
AcDbEntity
  8
DIM
  6
Continuous
100
AcDbText
 10
2.39774052553496
 20
2.021780588376738
 30
0.0
 40
0.0625
  1
A
100
AcDbText
  0
LEADER
  5
3268
330
A
100
AcDbEntity
  8
PHANTOM
100
AcDbLeader
  3
2XSCALE
 76
     2
 10
2.385649177042789
 20
2.173489911942105
 30
0.0
 10
2.601925843734905
 20
2.173489911942105
 30
0.0
1001
ACAD
1000
DSTYLE
1002
{
1070
     5
1000

1070
   342
1005
0
1002
}
  0
LEADER
  5
3269
330
A
100
AcDbEntity
  8
PHANTOM
100
AcDbLeader
  3
2XSCALE
 76
     2
 10
2.385649177042789
 20
4.704863707601757
 30
0.0
 10
2.601925843734905
 20
4.704863707601757
 30
0.0
1001
ACAD
1000
DSTYLE
1002
{
1070
     5
1000

1070
   342
1005
0
1002
}
  0
TEXT
  5
326A
330
A
100
AcDbEntity
  8
DIM
  6
Continuous
100
AcDbText
 10
2.39774052553496
 20
4.782793832872301
 30
0.0
 40
0.0625
  1
A
100
AcDbText
  0
TEXT
  5
326B
330
A
100
AcDbEntity
  8
DIM
  6
Continuous
100
AcDbText
 10
-0.1459143122280508
 20
2.21033293268844
 30
0.0
 40
0.0625
  1
SECTION A-A
100
AcDbText
  0
LINE
  5
326C
330
A
100
AcDbEntity
  8
CENTER
 48
0.5
100
AcDbLine
 10
2.601925843734905
 20
5.854512943726382
 30
0.0
 11
2.601925843734905
 21
5.248841873987785
 31
0.0
  0
LEADER
  5
32CD
330
A
100
AcDbEntity
  8
DIM
  6
Continuous
100
AcDbLeader
  3
2XSCALE
 73
     0
 40
0.3035714285714286
 41
0.3511904761904761
 76
     3
 10
2.477933883789986
 20
4.175868604679694
 30
0.0
 10
2.099249399435349
 20
4.60423863519857
 30
0.0
 10
2.023255551643834
 20
4.60423863519857
 30
0.0
340
32CE
1001
ACAD
1000
DSTYLE
1002
{
1070
     5
1000

1070
   342
1005
0
1002
}
  0
MTEXT
  5
32CE
102
{ACAD_REACTORS
330
32CD
102
}
330
A
100
AcDbEntity
  8
DIM
  6
Continuous
100
AcDbMText
 10
1.992005551643834
 20
4.60423863519857
 30
0.0
 40
0.0625
 41
0.0
 46
0.0
 71
     6
 72
     5
  1
\PFULL R.\P(2)
 73
     1
 44
1.0
  0
DIMENSION
  5
32CF
330
A
100
AcDbEntity
  8
DIM
  6
Continuous
100
AcDbDimension
280
     0
  2
*D8
 10
7.704096373912346
 20
4.244857885571518
 30
0.0
 11
8.216296777533976
 21
4.655080775912017
 31
0.0
 70
   164
  1
\P<>\P(4)
 71
     5
 42
-1.0
 73
     0
 74
     0
 75
     0
  3
2XSCALE
100
AcDbRadialDimension
 15
7.77657777326318
 25
4.346698185787817
 35
0.0
 40
0.0
1001
ACAD
1000
DSTYLE
1002
{
1070
   271
1070
     2
1002
}
  0
DIMENSION
  5
32F1
330
A
100
AcDbEntity
  8
DIM
  6
Continuous
100
AcDbDimension
280
     0
  2
*D9
 10
8.243133059736098
 20
2.369857897656721
 30
0.0
 11
8.243133059736098
 21
3.369857885571528
 31
0.0
 70
   160
  1
2.00
 71
     5
 42
1.999999975829613
 73
     0
 74
     0
 75
     0
  3
BASIC 2XSCALE
100
AcDbAlignedDimension
 13
7.704096378546974
 23
4.369857873486335
 33
0.0
 14
7.704096378546974
 24
2.369857897656721
 34
0.0
 50
90.0
100
AcDbRotatedDimension
  0
DIMENSION
  5
32FF
330
A
100
AcDbEntity
  8
DIM
  6
Continuous
100
AcDbDimension
280
     0
  2
*D10
 10
6.829096379954957
 20
1.879868372164811
 30
0.0
 11
7.329096373912359
 21
1.879868372164811
 31
0.0
 70
    32
  1
1.00
 71
     5
 42
0.9999999879148049
 73
     0
 74
     0
 75
     0
  3
BASIC 2XSCALE
100
AcDbAlignedDimension
 13
7.829096367869762
 23
2.494857886979513
 33
0.0
 14
6.829096379954957
 24
2.494857886979513
 34
0.0
100
AcDbRotatedDimension
  0
DIMENSION
  5
3381
330
A
100
AcDbEntity
  8
DIM
  6
Continuous
100
AcDbDimension
280
     0
  2
*D11
 10
5.186389763068663
 20
2.407558741188674
 30
0.0
 11
4.822318247446871
 21
2.244407899386601
 31
0.0
 70
    36
  1
\P<>\PTYP.
 71
     5
 42
-1.0
 73
     0
 74
     0
 75
     0
  3
2XSCALE
100
AcDbRadialDimension
 15
5.166550670601949
 25
2.385055176802184
 35
0.0
 40
0.0
1001
ACAD
1000
DSTYLE
1002
{
1070
   271
1070
     2
1002
}
  0
LWPOLYLINE
  5
3398
330
A
100
AcDbEntity
  8
DIM
100
AcDbPolyline
 90
        2
 70
   128
 43
0.0
 10
5.155133824463417
 20
3.778804501308629
 10
5.156389763205822
 20
3.780151475588764
  0
LWPOLYLINE
  5
33A8
330
A
100
AcDbEntity
  8
SOLID
100
AcDbPolyline
 90
        4
 70
   128
 43
0.0
 10
4.911763534976723
 20
3.517783271821254
 10
4.946145920606465
 20
3.55466108570919
 10
5.109793422636556
 20
3.730177643126943
 10
5.148328934866865
 20
3.771506365694013
  0
LWPOLYLINE
  5
33A9
330
A
100
AcDbEntity
  8
DIM
100
AcDbPolyline
 90
        3
 70
   128
 43
0.0
 10
4.90638975820638
 20
3.509979652392844
 10
4.90638975820638
 20
3.512019473411624
 10
4.907774438871006
 20
3.513504652374893
  0
DIMENSION
  5
33EE
330
A
100
AcDbEntity
  8
DIM
  6
Continuous
100
AcDbDimension
280
     0
  2
*D12
 10
5.406389770496904
 20
4.646919854282532
 30
0.0
 11
5.273774015916012
 21
4.646919854282532
 31
0.0
 70
   160
  1
.25
 71
     5
 42
0.2500000074282402
 73
     0
 74
     0
 75
     0
  3
BASIC 2XSCALE
100
AcDbAlignedDimension
 13
5.156389763068664
 23
4.33215702995438
 33
0.0
 14
5.406389770496904
 24
4.369857873486335
 34
0.0
100
AcDbRotatedDimension
  0
DIMENSION
  5
33FC
330
A
100
AcDbEntity
  8
DIM
  6
Continuous
100
AcDbDimension
280
     0
  2
*D13
 10
5.406389770496904
 20
4.797531008706749
 30
0.0
 11
5.156389764351642
 21
4.797531008706749
 31
0.0
 70
    32
  1
.50
 71
     5
 42
0.5000000122905242
 73
     0
 74
     0
 75
     0
  3
BASIC 2XSCALE
100
AcDbAlignedDimension
 13
4.90638975820638
 23
3.512019473411624
 33
0.0
 14
5.406389770496904
 24
4.369857873486335
 34
0.0
100
AcDbRotatedDimension
  0
LINE
  5
340A
330
A
100
AcDbEntity
  8
DIM
  6
Continuous
100
AcDbLine
 10
5.406389770496904
 20
4.369857873486335
 30
0.0
 11
5.400610251113116
 21
4.369857873486335
 31
0.0
  0
DIMENSION
  5
340B
330
A
100
AcDbEntity
  8
DIM
  6
Continuous
100
AcDbDimension
280
     0
  2
*D14
 10
5.400610251113116
 20
4.369857873486335
 30
0.0
 11
4.621180801099233
 21
4.555423413797562
 31
0.0
 70
    34
 71
     5
 42
-1.0
 73
     0
 74
     0
 75
     0
  3
2XSCALE
100
AcDb2LineAngularDimension
 13
5.185342777383965
 23
4.362138749324982
 33
0.0
 14
5.406389770496904
 24
4.369857873486335
 34
0.0
 15
5.406389770496904
 25
4.369857873486335
 35
0.0
 16
4.752231955910377
 26
4.354632195013467
 36
0.0
1001
ACAD
1000
DSTYLE
1002
{
1070
    79
1070
     1
1070
   271
1070
     2
1002
}
  0
LEADER
  5
349F
330
A
100
AcDbEntity
  8
DIM
  6
Continuous
100
AcDbLeader
  3
2XSCALE
 73
     0
 40
0.2708333333333333
 41
0.3571428571428572
 76
     3
 10
5.406389770496904
 20
2.456386771520841
 30
0.0
 10
5.720898188039294
 20
2.110475726739204
 30
0.0
 10
5.605507550493913
 20
2.110475726739204
 30
0.0
340
34A0
1001
ACAD
1000
DSTYLE
1002
{
1070
     5
1000

1070
   342
1005
0
1002
}
  0
MTEXT
  5
34A0
102
{ACAD_REACTORS
330
349F
102
}
330
A
100
AcDbEntity
  8
DIM
  6
Continuous
100
AcDbMText
 10
5.574257550493913
 20
2.110475726739204
 30
0.0
 40
0.0625
 41
0.0
 46
0.0
 71
     6
 72
     5
  1
\PPARTING\PLINE
 73
     1
 44
1.0
  0
DIMENSION
  5
3517
330
A
100
AcDbEntity
  8
DIM
  6
Continuous
100
AcDbDimension
280
     0
  2
*D15
 10
0.7595089293321417
 20
2.569588677016383
 30
0.0
 11
0.7595089293321414
 21
2.770224446243514
 31
0.0
 70
   160
  1
%%C<>
 71
     5
 42
0.5167384089271377
 73
     0
 74
     0
 75
     0
  3
2XSCALE
100
AcDbAlignedDimension
 13
0.4593426561565744
 23
3.086327085943521
 33
0.0
 14
0.4593426561565744
 24
2.569588677016383
 34
0.0
 50
90.0
100
AcDbRotatedDimension
1001
ACAD
1000
DSTYLE
1002
{
1070
   271
1070
     2
1002
}
  0
DIMENSION
  5
352F
330
A
100
AcDbEntity
  8
DIM
  6
Continuous
100
AcDbDimension
280
     0
  2
*D16
 10
0.0700479297012322
 20
2.718557902777842
 30
0.0
 11
-0.1784639750606729
 21
2.531057902777842
 31
0.0
 70
   160
  1
%%C.210
 71
     5
 42
0.2187999757373422
 73
     0
 74
     0
 75
     0
  3
2XSCALE
100
AcDbAlignedDimension
 13
0.2193426482404797
 23
2.937357878515184
 33
0.0
 14
0.2193426482404797
 24
2.718557902777842
 34
0.0
 50
90.0
100
AcDbRotatedDimension
1001
ACAD
1000
DSTYLE
1002
{
1070
   271
1070
     2
1002
}
  0
DIMENSION
  5
3549
330
A
100
AcDbEntity
  8
DIM
  6
Continuous
100
AcDbDimension
280
     0
  2
*D17
 10
0.2193426487283339
 20
4.247857885571528
 30
0.0
 11
-0.2472368302860351
 21
4.112332071246921
 31
0.0
 70
    36
  1
 \P<>\P3 PLC'S.
 71
     5
 42
-1.0
 73
     0
 74
     0
 75
     0
  3
2XSCALE
100
AcDbRadialDimension
 15
0.2120685822803503
 25
4.240995819023448
 35
0.0
 40
0.0
1001
ACAD
1000
DSTYLE
1002
{
1070
   271
1070
     2
1002
}
  0
LINE
  5
3587
330
A
100
AcDbEntity
  8
DIM
  6
Continuous
100
AcDbLine
 10
3.101925837692308
 20
5.793736597803263
 30
0.0
 11
3.101925837692308
 21
5.746256947398917
 31
0.0
  0
DIMENSION
  5
3588
330
A
100
AcDbEntity
  8
DIM
  6
Continuous
100
AcDbDimension
280
     0
  2
*D18
 10
3.101925837692308
 20
5.746256947398917
 30
0.0
 11
2.658200970778207
 21
5.066114379133515
 31
0.0
 70
    34
 71
     5
 42
0.0349065903233097
 73
     0
 74
     0
 75
     0
  3
2XSCALE
100
AcDb2LineAngularDimension
 13
3.093644180029391
 23
5.556580819009557
 33
0.0
 14
3.085476517716257
 24
5.322689607711621
 34
0.0
 15
3.101925837692308
 25
5.793736597803263
 35
0.0
 16
3.093109092910729
 26
5.036027342812718
 36
0.0
1001
ACAD
1000
DSTYLE
1002
{
1070
    79
1070
     1
1070
   271
1070
     2
1002
}
  0
DIMENSION
  5
35D5
330
A
100
AcDbEntity
  8
DIM
  6
Continuous
100
AcDbDimension
280
     0
  2
*D19
 10
5.12743674902768
 20
3.51884681943865
 30
0.0
 11
4.613475816097597
 21
3.392438957810892
 31
0.0
 70
   162
 71
     5
 42
-1.0
 73
     0
 74
     0
 75
     0
  3
2XSCALE
100
AcDb2LineAngularDimension
 13
4.946145920606465
 23
3.55466108570919
 33
0.0
 14
5.109793422636556
 24
3.730177643126943
 34
0.0
 15
4.970092588972509
 25
3.513352245412438
 35
0.0
 16
4.63820021416613
 26
3.344034069869742
 36
0.0
1001
ACAD
1000
DSTYLE
1002
{
1070
    79
1070
     1
1070
   271
1070
     2
1002
}
  0
DIMENSION
  5
35F3
330
A
100
AcDbEntity
  8
DIM
  6
Continuous
100
AcDbDimension
280
     0
  2
*D20
 10
0.2014958770787214
 20
3.36985788555071
 30
0.0
 11
-0.1569069477842583
 21
3.11457617083483
 31
0.0
 70
   162
 71
     5
 42
-1.0
 73
     0
 74
     0
 75
     0
  3
2XSCALE
100
AcDb2LineAngularDimension
 13
-0.0117043339350658
 23
3.377577016607801
 33
0.0
 14
0.1803896336742052
 24
3.370868947162716
 34
0.0
 15
0.2093426488654928
 25
3.36985788555071
 35
0.0
 16
-0.23697518292937
 26
3.380246048830082
 36
0.0
1001
ACAD
1000
DSTYLE
1002
{
1070
    79
1070
     1
1070
   271
1070
     2
1002
}
  0
LINE
  5
397D
330
A
100
AcDbEntity
  8
SOLID
100
AcDbLine
 10
2.981496038907619
 20
5.514238042219428
 30
0.0
 11
2.984154011535826
 21
5.356893877580978
 31
0.0
  0
LINE
  5
397E
330
A
100
AcDbEntity
  8
DIM
  6
Continuous
100
AcDbLine
 10
2.980997727870066
 20
5.54373659051218
 30
0.0
 11
2.980997727870066
 21
5.538700260434007
 31
0.0
  0
DIMENSION
  5
397F
330
A
100
AcDbEntity
  8
DIM
  6
Continuous
100
AcDbDimension
280
     0
  2
*D21
 10
3.101925837692308
 20
5.899075179458739
 30
0.0
 11
3.515616313882784
 21
5.899075179458739
 31
0.0
 70
   160
  1
.12 (2)
 71
     5
 42
0.1209281098222417
 73
     0
 74
     0
 75
     0
  3
BASIC 2XSCALE
100
AcDbAlignedDimension
 13
2.980997727870066
 23
5.54373659051218
 33
0.0
 14
3.101925837692308
 24
5.793736597803263
 34
0.0
100
AcDbRotatedDimension
  0
DIMENSION
  5
39D1
330
A
100
AcDbEntity
  8
DIM
  6
Continuous
100
AcDbDimension
280
     0
  2
*D22
 10
2.980997727870066
 20
5.538700260434008
 30
0.0
 11
2.59799540400268
 21
5.194564261483456
 31
0.0
 70
    34
 71
     5
 42
0.0168911242903516
 73
     0
 74
     0
 75
     0
  3
2XSCALE
100
AcDb2LineAngularDimension
 13
2.981496038907619
 23
5.514238042219429
 33
0.0
 14
2.984154011535826
 24
5.356893877580978
 34
0.0
 15
2.980997727870066
 25
5.54373659051218
 35
0.0
 16
2.985432213581242
 26
5.149953009637463
 36
0.0
1001
ACAD
1000
DSTYLE
1002
{
1070
    79
1070
     1
1070
   271
1070
     2
1002
}
  0
LINE
  5
3B95
330
A
100
AcDbEntity
  8
SOLID
100
AcDbLine
 10
-0.0406573561339498
 20
3.482157029954378
 30
0.0
 11
-0.0406573561339498
 21
3.407558740048042
 31
0.0
1001
ACAD
1000
ASC_BOUNDS
1002
{
1070
    19
1005
3B97
1002
}
  0
INSERT
  5
3B97
330
A
100
AcDbEntity
  8
DIM
  6
Continuous
100
AcDbBlockReference
  2
*X26
 10
0.0
 20
0.0
 30
0.0
1001
ACAD
1000
HATCH
1002
{
1070
    19
1000
ANSI31
1040
0.5
1040
0.0
1000
ASC_BOUNDS
1070
     1
1070
     2
1070
    15
1005
3193
1005
2EAA
1005
3194
1005
2EB0
1005
2EA6
1005
2E7F
1005
2E8B
1005
2E8D
1005
2E8E
1005
2E8C
1005
2E80
1005
2E91
1005
2E9E
1005
3B95
1005
2E9D
1000
ASC_SEEDPOINT
1011
-1.0
1021
0.4999999999999999
1031
0.0
1000
R14_HATCH_DATA
1000
3B97
1011
1.0
1021
0.0
1031
0.0
1011
0.0
1021
1.0
1031
0.0
1011
0.0
1021
0.0
1031
1.0
1040
0.0
1010
0.0
1020
0.0
1030
1.0
1000
ANSI31
1070
     0
1070
     1
1071
        1
1071
       33
1071
       15
1070
     2
1040
-0.0106573512716661
1040
3.482157029954379
1040
0.0300000000000003
1040
1.605702911834782
1040
3.1415926535898
1070
     1
1070
     1
1040
-0.0406573561339498
1040
3.482157029954378
1040
-0.0406573561339498
1040
3.407558740048042
1070
     2
1040
-0.0106573512716661
1040
3.407558741188678
1040
0.03
1040
3.1415926535898
1040
4.677482395344817
1070
     1
1070
     1
1040
-0.0117043339350658
1040
3.377577016607801
1040
0.1803896336742052
1040
3.370868947162716
1070
     2
1040
0.1793426487283352
1040
3.340887222327317
1040
0.03
1040
0.0
1040
1.535889741755003
1070
     1
1070
     1
1040
0.2093426488654928
1040
2.947357899660753
1040
0.2093426488654928
1040
3.340887222317022
1070
     2
1040
0.2193426487283343
1040
2.947357885571529
1040
0.0100000000000002
1040
3.1415926535898
1040
4.712388980384703
1070
     1
1070
     1
1040
0.2193426482404797
1040
2.937357878515184
1040
0.3296795732022404
1040
2.937357878515184
1070
     1
1040
0.3373400130415178
1040
2.940930013916236
1040
0.4593426561565744
1040
3.086327085943521
1070
     1
1040
0.4593426561565744
1040
3.086327085943521
1040
0.4593426561565744
1040
3.737857901070613
1070
     1
1040
0.4593426561565744
1040
3.737857901070613
1040
0.2193426482404797
1040
3.737857901070613
1070
     2
1040
0.2193426487283343
1040
3.727857885571529
1040
0.0100000000000002
1040
1.570796326794896
1040
3.1415926535898
1070
     1
1070
     1
1040
0.209342648865493
1040
3.548828548699648
1040
0.2093426488654928
1040
3.727857879925045
1070
     2
1040
0.1793426487283352
1040
3.548828548815741
1040
0.03
1040
4.747295565424597
1040
6.283185307179586
1070
     1
1070
     1
1040
0.1803896362700337
1040
3.51884681949392
1040
-0.0117043339350658
1040
3.512138757764086
1071
       15
1005
2E9D
1005
3B95
1005
2E9E
1005
2E91
1005
2E80
1005
2E8C
1005
2E8E
1005
2E8D
1005
2E8B
1005
2E7F
1005
2EA6
1005
2EB0
1005
3194
1005
2EAA
1005
3193
1070
     0
1070
     1
1040
0.0
1040
0.5
1070
     0
1070
     1
1040
0.7853981633974483
1040
-1.0
1040
0.4999999999999999
1040
-0.0441941738241592
1040
0.0441941738241592
1070
     0
1071
        1
1040
-1.0
1040
0.4999999999999999
1040
0.0
1002
}
  0
LINE
  5
4323
330
A
100
AcDbEntity
  8
CENTER
100
AcDbLine
 10
2.192694016440065
 20
0.7410773245484885
 30
0.0
 11
1.451141530717223
 21
0.7410773245484903
 31
0.0
  0
LINE
  5
4324
330
A
100
AcDbEntity
  8
SOLID
100
AcDbLine
 10
1.897645768005358
 20
0.833577324548488
 30
0.0
 11
1.607391530717223
 21
0.8335773245484869
 31
0.0
  0
LINE
  5
4326
330
A
100
AcDbEntity
  8
HIDDEN
  6
HIDDEN2
 48
0.5
100
AcDbLine
 10
1.913270768005358
 20
0.8179523245484883
 30
0.0
 11
1.591766530717225
 21
0.8179523245484883
 31
0.0
  0
LINE
  5
432A
330
A
100
AcDbEntity
  8
CENTER
100
AcDbLine
 10
0.5859363070965154
 20
0.7410773245484885
 30
0.0
 11
0.8271863070965178
 21
0.7410773245484885
 31
0.0
  0
LINE
  5
432C
330
A
100
AcDbEntity
  8
CENTER
100
AcDbLine
 10
0.5246863070965178
 20
1.043577324548488
 30
0.0
 11
0.5246863070965178
 21
0.8023273245484878
 31
0.0
  0
LINE
  5
432D
330
A
100
AcDbEntity
  8
CENTER
100
AcDbLine
 10
0.5246863070965178
 20
0.6798273245484891
 30
0.0
 11
0.5246863070965178
 21
0.4385773245484886
 31
0.0
  0
LINE
  5
432E
330
A
100
AcDbEntity
  8
SOLID
100
AcDbLine
 10
0.5446863070965139
 20
0.7210773245484898
 30
0.0
 11
0.5446863070965139
 21
0.6410773245484871
 31
0.0
  0
LINE
  5
432F
330
A
100
AcDbEntity
  8
SOLID
100
AcDbLine
 10
0.5046863070965151
 20
0.7210773245484889
 30
0.0
 11
0.5046863070965147
 21
0.6410773245484871
 31
0.0
  0
LINE
  5
4330
330
A
100
AcDbEntity
  8
SOLID
100
AcDbLine
 10
0.5446863070965139
 20
0.6410773245484889
 30
0.0
 11
0.5046863070965147
 21
0.6410773245484871
 31
0.0
  0
LINE
  5
4331
330
A
100
AcDbEntity
  8
CENTER
100
AcDbLine
 10
0.2221863070965177
 20
0.7410773245484885
 30
0.0
 11
0.4634363070965167
 21
0.7410773245484885
 31
0.0
  0
LINE
  5
4332
330
A
100
AcDbEntity
  8
SOLID
100
AcDbLine
 10
0.4246863070965217
 20
0.7210773245484889
 30
0.0
 11
0.5046863070965151
 21
0.7210773245484889
 31
0.0
  0
LINE
  5
4333
330
A
100
AcDbEntity
  8
SOLID
100
AcDbLine
 10
0.4246863070965217
 20
0.7610773245484881
 30
0.0
 11
0.5046863070965147
 21
0.7610773245484881
 31
0.0
  0
LINE
  5
4334
330
A
100
AcDbEntity
  8
SOLID
100
AcDbLine
 10
0.42468630709652
 20
0.7610773245484881
 30
0.0
 11
0.42468630709652
 21
0.7210773245484889
 31
0.0
  0
CIRCLE
  5
4335
330
A
100
AcDbEntity
  8
HIDDEN
  6
HIDDEN2
 48
0.5
100
AcDbCircle
 10
0.5246863070965178
 20
0.7410773245484885
 30
0.0
 40
0.077
  0
LINE
  5
4336
330
A
100
AcDbEntity
  8
SOLID
100
AcDbLine
 10
0.5446863070965139
 20
0.8410773245484863
 30
0.0
 11
0.5446863070965142
 21
0.761077324548489
 31
0.0
  0
LINE
  5
4337
330
A
100
AcDbEntity
  8
SOLID
100
AcDbLine
 10
0.5046863070965147
 20
0.8410773245484863
 30
0.0
 11
0.5046863070965147
 21
0.7610773245484881
 31
0.0
  0
CIRCLE
  5
4338
330
A
100
AcDbEntity
  8
HIDDEN
  6
HIDDEN2
 48
0.5
100
AcDbCircle
 10
0.5246863070965178
 20
0.7410773245484885
 30
0.0
 40
0.0925
  0
LINE
  5
4339
330
A
100
AcDbEntity
  8
CENTER
100
AcDbLine
 10
0.4946863070965167
 20
0.7410773245484885
 30
0.0
 11
0.5546863070965154
 21
0.7410773245484885
 31
0.0
  0
LINE
  5
433A
330
A
100
AcDbEntity
  8
CENTER
100
AcDbLine
 10
0.5246863070965178
 20
0.7710773245484879
 30
0.0
 11
0.5246863070965178
 21
0.7110773245484891
 31
0.0
  0
LINE
  5
433B
330
A
100
AcDbEntity
  8
SOLID
100
AcDbLine
 10
0.6246863070965196
 20
0.7610773245484881
 30
0.0
 11
0.624686307096521
 21
0.7210773245484889
 31
0.0
  0
LINE
  5
433C
330
A
100
AcDbEntity
  8
SOLID
100
AcDbLine
 10
0.5446863070965142
 20
0.7610773245484881
 30
0.0
 11
0.6246863070965214
 21
0.7610773245484881
 31
0.0
  0
LINE
  5
433D
330
A
100
AcDbEntity
  8
SOLID
100
AcDbLine
 10
0.5446863070965139
 20
0.7210773245484898
 30
0.0
 11
0.624686307096521
 21
0.7210773245484889
 31
0.0
  0
LINE
  5
433E
330
A
100
AcDbEntity
  8
SOLID
100
AcDbLine
 10
0.5446863070965139
 20
0.8410773245484881
 30
0.0
 11
0.5046863070965147
 21
0.8410773245484881
 31
0.0
  0
LINE
  5
433F
330
A
100
AcDbEntity
  8
HIDDEN
  6
HIDDEN2
 48
0.5
100
AcDbLine
 10
2.013641530717223
 20
0.6410773245484876
 30
0.0
 11
1.949397659963282
 21
0.7210773245484889
 31
0.0
  0
LINE
  5
4342
330
A
100
AcDbEntity
  8
SOLID
100
AcDbLine
 10
2.013641530717223
 20
0.9335773245484885
 30
0.0
 11
2.013641530717223
 21
0.5485773245484884
 31
0.0
  0
LINE
  5
4343
330
A
100
AcDbEntity
  8
SOLID
100
AcDbLine
 10
1.928895768005358
 20
0.8335773245484869
 30
0.0
 11
1.928895768005358
 21
0.6485773245484888
 31
0.0
  0
LINE
  5
4344
330
A
100
AcDbEntity
  8
HIDDEN
  6
HIDDEN2
 48
0.5
100
AcDbLine
 10
2.013641530717224
 20
0.8410773245484881
 30
0.0
 11
1.949397659963282
 21
0.7610773245484881
 31
0.0
  0
LINE
  5
4345
330
A
100
AcDbEntity
  8
HIDDEN
  6
HIDDEN2
 48
0.5
100
AcDbLine
 10
2.013641530717223
 20
0.7610773245484881
 30
0.0
 11
1.949397659963282
 21
0.7610773245484881
 31
0.0
  0
LINE
  5
4346
330
A
100
AcDbEntity
  8
HIDDEN
  6
HIDDEN2
 48
0.5
100
AcDbLine
 10
2.013641530717223
 20
0.7210773245484889
 30
0.0
 11
1.949397659963282
 21
0.7210773245484889
 31
0.0
  0
LINE
  5
4347
330
A
100
AcDbEntity
  8
HIDDEN
  6
HIDDEN2
 48
0.5
100
AcDbLine
 10
1.949397659963282
 20
0.7610773245484881
 30
0.0
 11
1.949397659963282
 21
0.7210773245484889
 31
0.0
  0
LINE
  5
4348
330
A
100
AcDbEntity
  8
SOLID
100
AcDbLine
 10
2.013641530717223
 20
0.9335773245484883
 30
0.0
 11
1.928895768005358
 21
0.8335773245484869
 31
0.0
  0
ARC
  5
4349
330
A
100
AcDbEntity
  8
SOLID
100
AcDbCircle
 10
1.913270768005358
 20
0.8335773245484878
 30
0.0
 40
0.0156249999999996
100
AcDbArc
 50
180.0
 51
359.9999999999951
  0
LINE
  5
434A
330
A
100
AcDbEntity
  8
DIM
100
AcDbLine
 10
1.727863794627413
 20
0.2892866533125191
 30
0.0
 11
1.709228770984158
 21
0.5857014570821939
 31
0.0
  0
MTEXT
  5
434B
330
A
100
AcDbEntity
  8
DIM
100
AcDbMText
 10
1.212957768323818
 20
0.3015693192467044
 30
0.0
 40
0.0625
 41
0.0
 46
0.0
 71
     5
 72
     5
  1
#10-32 THREAD
  7
ADESK1
 73
     1
 44
1.0
  0
SOLID
  5
434D
330
A
100
AcDbEntity
  8
DIM
100
AcDbTrace
 10
1.71970808222854
 20
0.5863602710493801
 30
0.0
 11
1.698749459739777
 21
0.585042643115008
 31
0.0
 12
1.705275887181044
 22
0.6485773245484883
 32
0.0
 13
1.705275887181044
 23
0.6485773245484883
 33
0.0
  0
LINE
  5
434E
330
A
100
AcDbEntity
  8
DIM
  6
Continuous
100
AcDbLine
 10
1.607391530717223
 20
0.6485773245484888
 30
0.0
 11
1.576141530717223
 21
0.6798273245484888
 31
0.0
  0
LINE
  5
434F
330
A
100
AcDbEntity
  8
SOLID
100
AcDbLine
 10
1.607391530717223
 20
0.8335773245484869
 30
0.0
 11
1.576141530717223
 21
0.8023273245484869
 31
0.0
  0
LINE
  5
4350
330
A
100
AcDbEntity
  8
SOLID
100
AcDbLine
 10
1.607391530717222
 20
0.8335773245484869
 30
0.0
 11
1.607391530717223
 21
0.6485773245484891
 31
0.0
  0
LINE
  5
4351
330
A
100
AcDbEntity
  8
SOLID
100
AcDbLine
 10
1.576141530717223
 20
0.6798273245484888
 30
0.0
 11
1.576141530717223
 21
0.8023273245484869
 31
0.0
  0
TEXT
  5
4378
330
A
100
AcDbEntity
  8
DIM
  6
Continuous
100
AcDbText
 10
8.25586535632221
 20
-1.496983313761411
 30
0.0
 40
0.0625
  1
HW-MGFTKIT
 41
0.8214144797416878
 72
     5
 11
8.732579116886583
 21
-1.496983313761411
 31
0.0
100
AcDbText
  0
TEXT
  5
439D
330
A
100
AcDbEntity
  8
DIM
  6
Continuous
100
AcDbText
 10
0.0848187181284068
 20
-0.1610534862787236
 30
0.0
 40
0.0625
  1
RMSC10-32x7/16FHPH SCREW 18-8 STAINLESS STEEL
100
AcDbText
  0
LINE
  5
4534
330
A
100
AcDbEntity
  8
TITLE
100
AcDbLine
 10
8.974916181867875
 20
-0.2306502474483405
 30
0.0
 11
3.354412869324885
 21
-0.2306502474483405
 31
0.0
  0
LINE
  5
4535
330
A
100
AcDbEntity
  8
TITLE
100
AcDbLine
 10
6.95607812792615
 20
-0.3830153835948866
 30
0.0
 11
3.354412869324885
 21
-0.3830153835948848
 31
0.0
  0
LINE
  5
4536
330
A
100
AcDbEntity
  8
TITLE
100
AcDbLine
 10
6.408969716658791
 20
-1.0703978162194
 30
0.0
 11
5.647144035926064
 21
-1.0703978162194
 31
0.0
  0
LINE
  5
4537
330
A
100
AcDbEntity
  8
TITLE
100
AcDbLine
 10
8.974916181867875
 20
-1.298945520439218
 30
0.0
 11
3.354412869324885
 21
-1.298945520439217
 31
0.0
  0
LINE
  5
4538
330
A
100
AcDbEntity
  8
TITLE
100
AcDbLine
 10
5.647144035926064
 20
-1.119513865554383
 30
0.0
 11
3.354412869324885
 21
-1.119513865554382
 31
0.0
  0
LINE
  5
4539
330
A
100
AcDbEntity
  8
TITLE
100
AcDbLine
 10
5.647144035926064
 20
-0.8909661613345656
 30
0.0
 11
3.354412869324885
 21
-0.8909661613345638
 31
0.0
  0
LINE
  5
453A
330
A
100
AcDbEntity
  8
TITLE
100
AcDbLine
 10
8.974916181867875
 20
-0.5353805197414319
 30
0.0
 11
3.354412869324885
 21
-0.5353805197414302
 31
0.0
  0
LINE
  5
453B
330
A
100
AcDbEntity
  8
TITLE
100
AcDbLine
 10
3.354412869324885
 20
-0.7657024077797626
 30
0.0
 11
5.647144035926064
 21
-0.7657024077797626
 31
0.0
  0
LWPOLYLINE
  5
453C
330
A
100
AcDbEntity
  8
TITLE
100
AcDbPolyline
 90
        4
 70
     1
 43
0.0
 10
-1.290883085262571
 20
-1.543493224659036
 10
-1.290883085262567
 20
6.238506775340961
 10
8.991116914737439
 20
6.238506775340961
 10
8.991116914737432
 20
-1.543493224659036
  0
LWPOLYLINE
  5
453D
330
A
100
AcDbEntity
  8
TITLE
100
AcDbPolyline
 90
        4
 70
     1
 43
0.0
 10
-1.282883085262572
 20
-1.535493224659036
 10
-1.282883085262568
 20
6.230506775340962
 10
8.983116914737436
 20
6.230506775340962
 10
8.983116914737436
 20
-1.535493224659036
  0
LWPOLYLINE
  5
453E
330
A
100
AcDbEntity
  8
TITLE
100
AcDbPolyline
 90
        4
 70
     1
 43
0.0
 10
-1.274883085262569
 20
-1.527493224659036
 10
-1.274883085262569
 20
6.222506775340963
 10
8.975116914737434
 20
6.222506775340963
 10
8.975116914737434
 20
-1.527493224659036
  0
LINE
  5
453F
330
A
100
AcDbEntity
  8
TITLE
100
AcDbLine
 10
3.354412869324885
 20
-0.2306502474483405
 30
0.0
 11
3.354412869324885
 21
-1.527493224659036
 31
0.0
  0
LINE
  5
4540
330
A
100
AcDbEntity
  8
TITLE
100
AcDbLine
 10
3.659143141617974
 20
-0.7766923092246561
 30
0.0
 11
3.659143141617974
 21
-1.527493224659036
 31
0.0
  0
TEXT
  5
4541
330
A
100
AcDbEntity
  8
TITLE
100
AcDbText
 10
3.406123282322489
 20
-0.6164093360703206
 30
0.0
 40
0.05625
  1
MATERIAL:
  7
ITALIC
100
AcDbText
  0
TEXT
  5
4542
330
A
100
AcDbEntity
  8
TITLE
100
AcDbText
 10
3.432418539285167
 20
-0.8593005126544833
 30
0.0
 40
0.05625
  1
LET.
  7
ITALIC
 72
     1
 11
3.516793539285167
 21
-0.8593005126544833
 31
0.0
100
AcDbText
  0
LINE
  5
4543
330
A
100
AcDbEntity
  8
TITLE
100
AcDbLine
 10
3.354412869324885
 20
-0.5353805197414302
 30
0.0
 11
3.354412869324885
 21
-0.7657024077797626
 31
0.0
  0
LINE
  5
4544
330
A
100
AcDbEntity
  8
TITLE
100
AcDbLine
 10
3.354412869324885
 20
-0.5353805197414302
 30
0.0
 11
3.354412869324885
 21
-0.7657024077797626
 31
0.0
  0
TEXT
  5
4545
330
A
100
AcDbEntity
  8
TITLE
100
AcDbText
 10
3.440993369079958
 20
-0.2006682798599051
 30
0.0
 40
0.05625
  1
NOTES:
  7
ITALIC
100
AcDbText
  0
TEXT
  5
4546
330
A
100
AcDbEntity
  8
TITLE
100
AcDbText
 10
3.80217964920003
 20
-0.8650880956364728
 30
0.0
 40
0.05625
  1
REVISION RECORD
  7
ITALIC
 72
     1
 11
4.20530464920003
 21
-0.8650880956364728
 31
0.0
100
AcDbText
  0
TEXT
  5
4547
330
A
100
AcDbEntity
  8
DIM
100
AcDbText
 10
8.415872248310684
 20
-0.3436946285753346
 30
0.0
 40
0.062
  1
THREE PLACE
 41
0.7798013329535311
 72
     5
 11
8.90395361594598
 21
-0.3436946285753346
 31
0.0
100
AcDbText
  0
LINE
  5
454C
330
A
100
AcDbEntity
  8
TITLE
100
AcDbLine
 10
8.974916181867875
 20
-1.032306532182763
 30
0.0
 11
6.408969716658791
 21
-1.032306532182763
 31
0.0
  0
TEXT
  5
454E
330
A
100
AcDbEntity
  8
TITLE
100
AcDbText
 10
6.485931197958583
 20
-1.119898749625477
 30
0.0
 40
0.05625
  1
CUSTOMER
  7
ITALIC
 72
     2
 11
6.917181197958583
 21
-1.119898749625477
 31
0.0
100
AcDbText
  0
TEXT
  5
454F
330
A
100
AcDbEntity
  8
TITLE
100
AcDbText
 10
6.491263246202265
 20
-1.384193969121671
 30
0.0
 40
0.05625
  1
PART NAME
  7
ITALIC
100
AcDbText
  0
LINE
  5
4552
330
A
100
AcDbEntity
  8
TITLE
100
AcDbLine
 10
6.408969716658791
 20
-0.5353805197414311
 30
0.0
 11
6.408969716658791
 21
-1.527493224659036
 31
0.0
  0
LINE
  5
4553
330
A
100
AcDbEntity
  8
TITLE
100
AcDbLine
 10
5.647144035926064
 20
-0.5353805197414311
 30
0.0
 11
5.647144035926064
 21
-1.527493224659036
 31
0.0
  0
LINE
  5
4554
330
A
100
AcDbEntity
  8
TITLE
100
AcDbLine
 10
6.028056876292428
 20
-0.5353805197414302
 30
0.0
 11
6.028056876292428
 21
-1.298945520439218
 31
0.0
  0
LINE
  5
4555
330
A
100
AcDbEntity
  8
TITLE
100
AcDbLine
 10
4.771044503083423
 20
-0.7766923092246565
 30
0.0
 11
4.771044503083423
 21
-1.527493224659036
 31
0.0
  0
LINE
  5
4556
330
A
100
AcDbEntity
  8
TITLE
100
AcDbLine
 10
5.113866059413155
 20
-0.7766923092246565
 30
0.0
 11
5.113866059413155
 21
-1.527493224659036
 31
0.0
  0
LINE
  5
4557
330
A
100
AcDbEntity
  8
TITLE
100
AcDbLine
 10
5.380505047669615
 20
-0.7766923092246567
 30
0.0
 11
5.380505047669615
 21
-1.527493224659036
 31
0.0
  0
TEXT
  5
4558
330
A
100
AcDbEntity
  8
TITLE
100
AcDbText
 10
5.871441534148719
 20
-1.503343594675333
 30
0.0
 40
0.05625
  1
D. N. S.
  7
ITALIC
 72
     1
 11
6.030816534148719
 21
-1.503343594675333
 31
0.0
100
AcDbText
  0
TEXT
  5
4559
330
A
100
AcDbEntity
  8
TITLE
100
AcDbText
 10
5.89956653414872
 20
-1.39770778722776
 30
0.0
 40
0.05625
  1
SCALE
  7
ITALIC
 72
     1
 11
6.030816534148719
 21
-1.39770778722776
 31
0.0
100
AcDbText
  0
TEXT
  5
455A
330
A
100
AcDbEntity
  8
TITLE
100
AcDbText
 10
4.830498793420046
 20
-0.8621943041454771
 30
0.0
 40
0.05625
  1
DATE
  7
ITALIC
 72
     1
 11
4.933623793420046
 21
-0.8621943041454771
 31
0.0
100
AcDbText
  0
TEXT
  5
455B
330
A
100
AcDbEntity
  8
TITLE
100
AcDbText
 10
5.196778986979776
 20
-0.8593005126544833
 30
0.0
 40
0.05625
  1
BY
  7
ITALIC
 72
     1
 11
5.243653986979776
 21
-0.8593005126544833
 31
0.0
100
AcDbText
  0
TEXT
  5
455C
330
A
100
AcDbEntity
  8
TITLE
100
AcDbText
 10
5.42301441894383
 20
-0.8650880956364728
 30
0.0
 40
0.05625
  1
CHD.
  7
ITALIC
 72
     1
 11
5.50738941894383
 21
-0.8650880956364728
 31
0.0
100
AcDbText
  0
TEXT
  5
455D
330
A
100
AcDbEntity
  8
TITLE
100
AcDbText
 10
6.113500896215549
 20
-0.6443673571092975
 30
0.0
 40
0.05625
  1
DATE
  7
ITALIC
 72
     1
 11
6.21662589621555
 21
-0.6443673571092975
 31
0.0
100
AcDbText
  0
TEXT
  5
455E
330
A
100
AcDbEntity
  8
TITLE
100
AcDbText
 10
6.112080313224323
 20
-0.9182619269083705
 30
0.0
 40
0.05625
  1
DATE
  7
ITALIC
 72
     1
 11
6.215205313224323
 21
-0.9182619269083705
 31
0.0
100
AcDbText
  0
LINE
  5
455F
330
A
100
AcDbEntity
  8
TITLE
100
AcDbLine
 10
6.408969716658791
 20
-0.7999323147833176
 30
0.0
 11
5.647144035926064
 21
-0.7999323147833173
 31
0.0
  0
TEXT
  5
4560
330
A
100
AcDbEntity
  8
TITLE
100
AcDbText
 10
6.07880348558908
 20
-0.7595494047567469
 30
0.0
 40
0.05625
  1
11/26/02
 41
0.7273901073052289
  7
ITALIC
 72
     5
 11
6.358394058084527
 21
-0.7595494047567469
 31
0.0
100
AcDbText
  0
TEXT
  5
4561
330
A
100
AcDbEntity
  8
TITLE
100
AcDbText
 10
5.666849548019349
 20
-0.9182619269083705
 30
0.0
 40
0.05625
  1
CHK. BY
  7
ITALIC
 72
     1
 11
5.835599548019349
 21
-0.9182619269083705
 31
0.0
100
AcDbText
  0
TEXT
  5
4562
330
A
100
AcDbEntity
  8
TITLE
100
AcDbText
 10
5.666849548019349
 20
-1.148428760793067
 30
0.0
 40
0.05625
  1
APD. BY
  7
ITALIC
 72
     1
 11
5.835599548019349
 21
-1.148428760793067
 31
0.0
100
AcDbText
  0
TEXT
  5
4563
330
A
100
AcDbEntity
  8
TITLE
100
AcDbText
 10
5.769516701356642
 20
-0.7595494047567469
 30
0.0
 40
0.05625
  1
ZJB
  7
ITALIC
 72
     1
 11
5.844516701356642
 21
-0.7595494047567469
 31
0.0
100
AcDbText
  0
TEXT
  5
4564
330
A
100
AcDbEntity
  8
TITLE
100
AcDbText
 10
5.703891701356642
 20
-0.6433150692943917
 30
0.0
 40
0.05625
  1
DR. BY
  7
ITALIC
 72
     1
 11
5.844516701356642
 21
-0.6433150692943917
 31
0.0
100
AcDbText
  0
TEXT
  5
4565
330
A
100
AcDbEntity
  8
TITLE
100
AcDbText
 10
6.115870314283084
 20
-1.14669248589847
 30
0.0
 40
0.05625
  1
DATE
  7
ITALIC
 72
     1
 11
6.218995314283084
 21
-1.14669248589847
 31
0.0
100
AcDbText
  0
TEXT
  5
4567
330
A
100
AcDbEntity
  8
TITLE
100
AcDbText
 10
7.758207804886644
 20
-1.381010798481577
 30
0.0
 40
0.05625
  1
PART NO.
  7
ITALIC
100
AcDbText
  0
LINE
  5
4568
330
A
100
AcDbEntity
  8
TITLE
100
AcDbLine
 10
7.679614390792518
 20
-1.298945520439218
 30
0.0
 11
7.679614390792518
 21
-1.527493224659037
 31
0.0
  0
TEXT
  5
456C
330
A
100
AcDbEntity
  8
TITLE
100
AcDbText
 10
7.145336996710125
 20
-0.3516018592793519
 30
0.0
 40
0.05625
  1
TOLERANCES
  7
ITALIC
 72
     1
 11
7.417211996710125
 21
-0.3516018592793519
 31
0.0
100
AcDbText
  0
TEXT
  5
456D
330
A
100
AcDbEntity
  8
TITLE
100
AcDbText
 10
6.995336996710125
 20
-0.4632604777845114
 30
0.0
 40
0.05625
  1
UNLESS SPECIFIED
  7
ITALIC
 72
     1
 11
7.417211996710125
 21
-0.4632604777845114
 31
0.0
100
AcDbText
  0
LINE
  5
456E
330
A
100
AcDbEntity
  8
TITLE
100
AcDbLine
 10
6.95607812792615
 20
-0.2306502474483405
 30
0.0
 11
6.95607812792615
 21
-0.5353805197414311
 31
0.0
  0
TEXT
  5
456F
330
A
100
AcDbEntity
  8
DIM
100
AcDbText
 10
8.004157353162543
 20
-0.4826186134501114
 30
0.0
 40
0.062
  1
.020
100
AcDbText
  0
TEXT
  5
4572
330
A
100
AcDbEntity
  8
DIM
100
AcDbText
 10
7.930106946858038
 20
-0.3450659484565017
 30
0.0
 40
0.062
  1
TWO PLACE
 41
0.7678337875167449
 72
     5
 11
8.331354946106074
 21
-0.3450659484565017
 31
0.0
100
AcDbText
  0
TEXT
  5
4573
330
A
100
AcDbEntity
  8
TITLE
100
AcDbText
 10
7.906702870333631
 20
-0.4459143353219693
 30
0.0
 40
0.069166921562286
  1
+
  7
ITALIC
100
AcDbText
  0
TEXT
  5
4574
330
A
100
AcDbEntity
  8
TITLE
100
AcDbText
 10
7.906702870333631
 20
-0.5160944752905986
 30
0.0
 40
0.069166921562286
  1
-
  7
ITALIC
100
AcDbText
  0
TEXT
  5
4575
330
A
100
AcDbEntity
  8
TITLE
100
AcDbText
 10
8.37704195621421
 20
-0.4459143353219693
 30
0.0
 40
0.069166921562286
  1
+
  7
ITALIC
100
AcDbText
  0
TEXT
  5
4576
330
A
100
AcDbEntity
  8
TITLE
100
AcDbText
 10
8.37704195621421
 20
-0.5160944752905986
 30
0.0
 40
0.069166921562286
  1
-
  7
ITALIC
100
AcDbText
  0
TEXT
  5
4577
330
A
100
AcDbEntity
  8
DIM
100
AcDbText
 10
8.468996750910442
 20
-0.4878610279736881
 30
0.0
 40
0.062
  1
.005
100
AcDbText
  0
TEXT
  5
4578
330
A
100
AcDbEntity
  8
TITLE
100
AcDbText
 10
5.471826020115247
 20
-0.3437874472206151
 30
0.0
 40
0.05625
  1
COLOR : GLACIER GRAY RR3013
  7
ITALIC
 72
     1
 11
6.179638520115247
 21
-0.3437874472206151
 31
0.0
100
AcDbText
  0
TEXT
  5
4579
330
A
100
AcDbEntity
  8
TITLE
100
AcDbText
 10
3.346553083285754
 20
-0.7230977216568491
 30
0.0
 40
0.05625
  1
 RR3xxxx OR EQUIV UL746 APPROVED MATERIAL
  7
ITALIC
 72
     1
 11
4.518428083285754
 21
-0.7230977216568491
 31
0.0
100
AcDbText
  0
TEXT
  5
457A
330
A
100
AcDbEntity
  8
DIM
  6
Continuous
100
AcDbText
 10
7.042310518425375
 20
-1.402104220404445
 30
0.0
 40
0.0625
  1
ENCLOSURE
100
AcDbText
  0
TEXT
  5
457B
330
A
100
AcDbEntity
  8
DIM
  6
Continuous
100
AcDbText
 10
6.639160353202825
 20
-1.494778071850855
 30
0.0
 40
0.0625
  1
MOUNTING FOOT KIT
100
AcDbText
  0
TEXT
  5
49BD
330
A
100
AcDbEntity
  8
DIM
  6
Continuous
100
AcDbText
 10
0.3338274399469476
 20
-0.0337805357844789
 30
0.0
 40
0.0625
  1
4 MOUNTING SCREWS REQ'D. PER KIT
100
AcDbText
  0
TEXT
  5
49BE
330
A
100
AcDbEntity
  8
DIM
  6
Continuous
100
AcDbText
 10
3.010780525737688
 20
1.747574713233951
 30
0.0
 40
0.0625
  1
4 MOUNTING FEET REQ'D. PER KIT
100
AcDbText
  0
TEXT
  5
545B
330
A
100
AcDbEntity
  8
TITLE
100
AcDbText
 10
4.002066990946635
 20
-0.6168465727431969
 30
0.0
 40
0.05625
  1
ISO POLYESTER SMC OR EQUIV
  7
ITALIC
 72
     1
 11
4.714566990946635
 21
-0.6168465727431969
 31
0.0
100
AcDbText
  0
TEXT
  5
545D
330
A
100
AcDbEntity
  8
TITLE
100
AcDbText
 10
3.689993320742443
 20
-0.9793619477463824
 30
0.0
 40
0.05625
  1
UPDATED MATL. INFO.
  7
ITALIC
 72
     1
 11
4.168118320742443
 21
-0.9793619477463824
 31
0.0
100
AcDbText
  0
TEXT
  5
545E
330
A
100
AcDbEntity
  8
TITLE
100
AcDbText
 10
3.4845166997392
 20
-0.9735743647643928
 30
0.0
 40
0.05625
  1
A
  7
ITALIC
 72
     1
 11
3.503266699739199
 21
-0.9735743647643928
 31
0.0
100
AcDbText
  0
TEXT
  5
545F
330
A
100
AcDbEntity
  8
TITLE
100
AcDbText
 10
4.815303657418645
 20
-0.9764681562553867
 30
0.0
 40
0.05625
  1
5/7/04
 41
0.8131754609722852
  7
ITALIC
 72
     5
 11
5.066879815656946
 21
-0.9764681562553867
 31
0.0
100
AcDbText
  0
TEXT
  5
5460
330
A
100
AcDbEntity
  8
TITLE
100
AcDbText
 10
5.217062438865728
 20
-0.9735743647643928
 30
0.0
 40
0.05625
  1
MJ
  7
ITALIC
 72
     1
 11
5.263937438865728
 21
-0.9735743647643928
 31
0.0
100
AcDbText
  0
TEXT
  5
5461
330
A
100
AcDbEntity
  8
TITLE
100
AcDbText
 10
5.50738941894383
 20
-1.273067454741126
 30
0.0
 40
0.05625
  1

  7
ITALIC
 72
     1
 11
5.50738941894383
 21
-1.273067454741126
 31
0.0
100
AcDbText
  0
TEXT
  5
5485
330
A
100
AcDbEntity
  8
TITLE
100
AcDbText
 10
3.68499214920003
 20
-1.066127653836983
 30
0.0
 40
0.05625
  1
DIA WAS .22 ,WAS9/16
  7
ITALIC
 72
     1
 11
4.20530464920003
 21
-1.066127653836983
 31
0.0
100
AcDbText
  0
TEXT
  5
5487
330
A
100
AcDbEntity
  8
TITLE
100
AcDbText
 10
5.217062438865728
 20
-1.060340070854994
 30
0.0
 40
0.05625
  1
MJ
  7
ITALIC
 72
     1
 11
5.263937438865728
 21
-1.060340070854994
 31
0.0
100
AcDbText
  0
CIRCLE
  5
548E
330
A
100
AcDbEntity
  8
DIM
  6
Continuous
100
AcDbCircle
 10
-0.3794995734446616
 20
2.433987245986368
 30
0.0
 40
0.0585781409761926
  0
MTEXT
  5
548F
330
A
100
AcDbEntity
  8
DIM
  6
Continuous
100
AcDbMText
 10
-0.4006810068613973
 20
2.469332810565934
 30
0.0
 40
0.06
 41
0.0
 46
0.0
 71
     1
 72
     5
  1
A
 73
     1
 44
1.0
  0
LINE
  5
5584
330
A
100
AcDbEntity
  8
DIM
  6
Continuous
100
AcDbLine
 10
1.727863794627413
 20
0.2892866533125191
 30
0.0
 11
1.605174272820413
 21
0.2892866533125191
 31
0.0
  0
CIRCLE
  5
5873
330
A
100
AcDbEntity
  8
SOLID
100
AcDbCircle
 10
0.5246863070965178
 20
0.7410773245484885
 30
0.0
 40
0.1925
  0
DIMENSION
  5
5874
330
A
100
AcDbEntity
  8
DIM
  6
Continuous
100
AcDbDimension
280
     0
  2
*D27
 10
0.6605274524812988
 20
0.8774717277348031
 30
0.0
 11
-0.0852331702161202
 21
0.3781978006351494
 31
0.0
 70
   163
 71
     5
 42
0.3850000000000002
 73
     0
 74
     0
 75
     0
  3
BASIC 2XSCALE
100
AcDbDiametricDimension
 15
0.3888451617117372
 25
0.6046829213621744
 35
0.0
 40
0.0
1001
ACAD
1000
DSTYLE
1002
{
1070
   288
1070
     1
1002
}
  0
LINE
  5
587F
330
A
100
AcDbEntity
  8
SOLID
100
AcDbLine
 10
2.013641530717222
 20
0.5485773245484897
 30
0.0
 11
1.928895768005358
 21
0.6485773245484915
 31
0.0
  0
LINE
  5
5880
330
A
100
AcDbEntity
  8
SOLID
100
AcDbLine
 10
1.897645768005358
 20
0.6485773245484906
 30
0.0
 11
1.607391530717223
 21
0.6485773245484931
 31
0.0
  0
LINE
  5
5881
330
A
100
AcDbEntity
  8
HIDDEN
  6
HIDDEN2
 48
0.5
100
AcDbLine
 10
1.913270768005357
 20
0.6642023245484902
 30
0.0
 11
1.591766530717224
 21
0.6642023245484917
 31
0.0
  0
ARC
  5
5882
330
A
100
AcDbEntity
  8
SOLID
100
AcDbCircle
 10
1.913270768005357
 20
0.6485773245484907
 30
0.0
 40
0.0156249999999996
100
AcDbArc
 50
0.0000000000046249
 51
179.9999999999997
  0
DIMENSION
  5
5883
330
A
100
AcDbEntity
  8
DIM
  6
Continuous
100
AcDbDimension
280
     0
  2
*D28
 10
1.576141530717223
 20
1.217267794384266
 30
0.0
 11
1.385665340241033
 21
1.217267794384266
 31
0.0
 70
    32
  1
.44
 71
     5
 42
0.4375000000000002
 73
     0
 74
     0
 75
     0
  3
BASIC 2XSCALE
100
AcDbAlignedDimension
 13
2.013641530717223
 23
0.9335773245484885
 33
0.0
 14
1.576141530717223
 24
0.8023273245484869
 34
0.0
100
AcDbRotatedDimension
  0
DIMENSION
  5
5891
330
A
100
AcDbEntity
  8
DIM
  6
Continuous
100
AcDbDimension
280
     0
  2
*D29
 10
1.928895768005358
 20
0.6485773245484915
 30
0.0
 11
2.543702340604773
 21
0.741077324548488
 31
0.0
 70
    34
  1
99\P101
 71
     5
 42
1.735560187978294
 73
     0
 74
     0
 75
     0
  3
BASIC 2XSCALE
100
AcDb2LineAngularDimension
 13
2.013641530717223
 23
0.9335773245484883
 33
0.0
 14
1.928895768005358
 24
0.8335773245484869
 34
0.0
 15
2.013641530717222
 25
0.5485773245484897
 35
0.0
 16
2.51490364080217
 26
0.5433478499515641
 36
0.0
  0
TEXT
  5
58BC
330
A
100
AcDbEntity
  8
TITLE
100
AcDbText
 10
3.4845166997392
 20
-1.215876114305471
 30
0.0
 40
0.05625
  1
B
  7
ITALIC
 72
     1
 11
3.503266699739199
 21
-1.215876114305471
 31
0.0
100
AcDbText
  0
TEXT
  5
58BD
330
A
100
AcDbEntity
  8
TITLE
100
AcDbText
 10
3.685846019485147
 20
-1.22166369728746
 30
0.0
 40
0.05625
  1
SCREW DIA. WAS .48
  7
ITALIC
 72
     1
 11
4.154596019485147
 21
-1.22166369728746
 31
0.0
100
AcDbText
  0
TEXT
  5
58BF
330
A
100
AcDbEntity
  8
TITLE
100
AcDbText
 10
5.217062438865728
 20
-1.215876114305471
 30
0.0
 40
0.05625
  1
MJ
  7
ITALIC
 72
     1
 11
5.263937438865728
 21
-1.215876114305471
 31
0.0
100
AcDbText
  0
MTEXT
  5
58CB
330
A
100
AcDbEntity
  8
DIM
  6
Continuous
100
AcDbMText
 10
-0.2298152497019927
 20
0.5454181775780853
 30
0.0
 40
0.06
 41
0.0
 46
0.0
 71
     1
 72
     5
  1
B
 73
     1
 44
1.0
  0
MTEXT
  5
58CD
330
A
100
AcDbEntity
  8
DIM
  6
Continuous
100
AcDbMText
 10
2.663097289764429
 20
0.9632911921536688
 30
0.0
 40
0.06
 41
0.0
 46
0.0
 71
     1
 72
     5
  1
B
 73
     1
 44
1.0
  0
CIRCLE
  5
58CE
330
A
100
AcDbEntity
  8
DIM
  6
Continuous
100
AcDbCircle
 10
2.680554807046858
 20
0.930733806825958
 30
0.0
 40
0.0585781409761926
  0
DIMENSION
  5
5941
330
A
100
AcDbEntity
  8
DIM
  6
Continuous
100
AcDbDimension
280
     0
  2
*D30
 10
0.3373400130415178
 20
2.714985730710544
 30
0.0
 11
1.164483942473735
 21
2.827957893811374
 31
0.0
 70
    34
 71
     5
 42
1.745329080105779
 73
     0
 74
     0
 75
     0
  3
BASIC 2XSCALE
100
AcDb2LineAngularDimension
 13
0.3373400130415178
 23
2.940930013916236
 33
0.0
 14
0.4593426561565744
 24
3.086327085943521
 34
0.0
 15
0.4593426561565744
 25
2.569588677016383
 35
0.0
 16
1.125752858463689
 26
2.56354288158432
 36
0.0
  0
TEXT
  5
5953
330
A
100
AcDbEntity
  8
TITLE
100
AcDbText
 10
3.602941499769266
 20
-0.4961525833671595
 30
0.0
 40
0.05625
  1
KIT INCLUDES INST. SHEET, SCREWS, MTG FT, SUITABLE PLASTIC BAG
  7
ITALIC
 72
     1
 11
5.238878999769264
 21
-0.4961525833671595
 31
0.0
100
AcDbText
  0
MTEXT
  5
596A
330
A
100
AcDbEntity
  8
DIM
  6
Continuous
100
AcDbMText
 10
5.86434978194197
 20
1.397760469357514
 30
0.0
 40
0.0625
 41
0.0
 46
0.0
 71
     1
 72
     5
  1
\LNOTES\l
 73
     1
 44
1.0
  0
TEXT
  5
596B
330
A
100
AcDbEntity
  8
DIM
  6
Continuous
100
AcDbText
 10
5.834905271377026
 20
1.234897888109302
 30
0.0
 40
0.06
  1
DIMENSIONS ARE SHOWN AS MOLDED.
100
AcDbText
  0
TEXT
  5
596C
330
A
100
AcDbEntity
  8
DIM
  6
Continuous
100
AcDbText
 10
5.834905271377026
 20
1.034897888109302
 30
0.0
 40
0.06
  1
DRAFT IS 1.5 DEGREES UNLESS SPECIFIED OTHERWISE.
100
AcDbText
  0
TEXT
  5
596D
330
A
100
AcDbEntity
  8
DIM
  6
Continuous
100
AcDbText
 10
5.843476699948455
 20
0.834897888109303
 30
0.0
 40
0.06
  1
ALL EDGES SHALL BE FILLETED EXCEPT BACK EDGE.
100
AcDbText
  0
TEXT
  5
596E
330
A
100
AcDbEntity
  8
DIM
  6
Continuous
100
AcDbText
 10
5.834905271377026
 20
0.6234693166807317
 30
0.0
 40
0.06
  1
HOLE FILLET RADIUS IS 0.010"; OTHER EDGE FILLET
100
AcDbText
  0
TEXT
  5
596F
330
A
100
AcDbEntity
  8
DIM
  6
Continuous
100
AcDbText
 10
5.834905271377026
 20
0.5120407452521603
 30
0.0
 40
0.06
  1
RADIUS IS 0.030".
100
AcDbText
  0
TEXT
  5
5970
330
A
100
AcDbEntity
  8
DIM
  6
Continuous
100
AcDbText
 10
5.837762414234169
 20
0.3120407452521603
 30
0.0
 40
0.06
  1
CRITICAL INSPECTION DIMENSIONS ARE WITHIN A BOX.
100
AcDbText
  0
TEXT
  5
5971
330
A
100
AcDbEntity
  8
DIM
  6
Continuous
100
AcDbText
 10
5.834905271377026
 20
0.1120407452521601
 30
0.0
 40
0.06
  1
EJECTOR PINS TO BE FLUSH TO .010 BELOW SURFACE
100
AcDbText
  0
TEXT
  5
5972
330
A
100
AcDbEntity
  8
DIM
  6
Continuous
100
AcDbText
 10
5.843476699948455
 20
-0.0879592547478401
 30
0.0
 40
0.06
  1
VOLUME = 0.478 CU. IN.
100
AcDbText
  0
TEXT
  5
597D
330
A
100
AcDbEntity
  8
TITLE
100
AcDbText
 10
4.815303657418645
 20
-1.070552565710864
 30
0.0
 40
0.05625
  1
8/18/04
 41
0.7252646003266328
  7
ITALIC
 72
     5
 11
5.066879815656946
 21
-1.070552565710864
 31
0.0
100
AcDbText
  0
TEXT
  5
597E
330
A
100
AcDbEntity
  8
TITLE
100
AcDbText
 10
4.815303657418645
 20
-1.22665215832644
 30
0.0
 40
0.05625
  1
8/18/04
 41
0.7252646003266328
  7
ITALIC
 72
     5
 11
5.066879815656946
 21
-1.22665215832644
 31
0.0
100
AcDbText
  0
MTEXT
  5
59C9
330
A
100
AcDbEntity
  8
DIM
  6
Continuous
100
AcDbMText
 10
-0.1650368846504371
 20
2.700176392900631
 30
0.0
 40
0.0375
 41
0.0
 46
0.0
 71
     1
 72
     5
  1
+.000\P-.010
 73
     1
 44
1.0
  0
CIRCLE
  5
59E4
330
A
100
AcDbEntity
  8
DIM
  6
Continuous
100
AcDbCircle
 10
-0.2152558329340142
 20
0.5153035515578415
 30
0.0
 40
0.0585781409761926
  0
TEXT
  5
59F0
330
A
100
AcDbEntity
  8
TITLE
100
AcDbText
 10
3.4845166997392
 20
-1.412567291069416
 30
0.0
 40
0.05625
  1
C
  7
ITALIC
 72
     1
 11
3.503266699739199
 21
-1.412567291069416
 31
0.0
100
AcDbText
  0
TEXT
  5
59F1
330
A
100
AcDbEntity
  8
TITLE
100
AcDbText
 10
3.689966478919465
 20
-1.418354874051406
 30
0.0
 40
0.05625
  1
TOLERANCE ADDED TO %%C0.210
 41
0.7943035739313508
  7
ITALIC
 72
     5
 11
4.732489919704363
 21
-1.418354874051406
 31
0.0
100
AcDbText
  0
TEXT
  5
59F2
330
A
100
AcDbEntity
  8
TITLE
100
AcDbText
 10
5.217062438865728
 20
-1.412567291069416
 30
0.0
 40
0.05625
  1
GF
  7
ITALIC
 72
     1
 11
5.263937438865728
 21
-1.412567291069416
 31
0.0
100
AcDbText
  0
TEXT
  5
59F3
330
A
100
AcDbEntity
  8
TITLE
100
AcDbText
 10
4.815303657418645
 20
-1.423343335090385
 30
0.0
 40
0.05625
  1
2/23/05
 41
0.6880715438996258
  7
ITALIC
 72
     5
 11
5.066879815656946
 21
-1.423343335090385
 31
0.0
100
AcDbText
  0
MTEXT
  5
59F9
330
A
100
AcDbEntity
  8
DIM
  6
Continuous
100
AcDbMText
 10
-0.2267500619743714
 20
2.78590389992901
 30
0.0
 40
0.06
 41
0.0
 46
0.0
 71
     1
 72
     5
  1
C
 73
     1
 44
1.0
  0
CIRCLE
  5
59FA
330
A
100
AcDbEntity
  8
DIM
  6
Continuous
100
AcDbCircle
 10
-0.2052105487377904
 20
2.754861867802001
 30
0.0
 40
0.0585781409761926
  0
CIRCLE
  5
5A01
330
A
100
AcDbEntity
  8
DIM
  6
Continuous
100
AcDbCircle
 10
-0.4245862131461138
 20
2.753710044926132
 30
0.0
 40
0.0585781409761926
  0
MTEXT
  5
5A02
330
A
100
AcDbEntity
  8
DIM
  6
Continuous
100
AcDbMText
 10
-0.4457676465628495
 20
2.789055609505698
 30
0.0
 40
0.06
 41
0.0
 46
0.0
 71
     1
 72
     5
  1
A
 73
     1
 44
1.0
  0
TEXT
  5
5B1E
330
A
100
AcDbEntity
  8
TITLE
100
AcDbText
 10
6.598496840069948
 20
-0.8814154761214405
 30
0.0
 40
0.1584417349154022
  1
HUBBELL WIEGMANN
  7
STYLE1
100
AcDbText
  0
ENDSEC
  0
SECTION
  2
OBJECTS
  0
DICTIONARY
  5
19
330
0
100
AcDbDictionary
281
     1
  3
ACAD_COLOR
350
5456
  3
ACAD_GROUP
350
1A
  3
ACAD_LAYOUT
350
1671
  3
ACAD_MATERIAL
350
5455
  3
ACAD_MLEADERSTYLE
350
5B3C
  3
ACAD_MLINESTYLE
350
1B
  3
ACAD_PLOTSETTINGS
350
1672
  3
ACAD_PLOTSTYLENAME
350
166F
  3
ACAD_SCALELIST
350
5B2A
  3
ACAD_TABLESTYLE
350
59C2
  3
ACAD_VISUALSTYLE
350
5A1A
  3
AcAmCatalogState
350
5A87
  3
ACDB_RECOMPOSE_DATA
350
5B4D
  3
AcDbVariableDictionary
350
312F
  3
ACDMSYSVARMGR
350
5A45
  3
ACGREF_MASTER
350
5A3F
  3
ACGREFACAD_MASTER
350
5A65
  3
AcmDictionary
350
5A85
  3
ACME_BOM_MANAGER_NAME
350
5A39
  3
ACME_COMMAND_HISTORY
350
5A36
  3
ACME_SCOPE_NAME
350
5A35
  3
ACMESTATEMGR
350
5A3E
  3
AcmeSysVarManager
350
5A37
  3
AcmSystemVariableManager
350
5A6A
  3
AD_APPL
350
5A72
  3
ADSYSVARMGR
350
5A71
  3
AmdtNamedDwgMgr
350
5A62
  3
AMG
350
5A30
  3
AMGSNAPSETTINGS
350
5AC1
  3
AMI_MASTER
350
5A68
  3
ASE_INDEX_DICTIONARY
350
5973
  3
AUTOCAD_ASSEMBLIES_PROJECT
350
5A7B
  3
Designer_Assemblies_SysVars
350
5A75
  3
GREFAM_MODULE
350
5A69
  3
StructToggleButtonState
350
5AC8
  0
DICTIONARY
  5
3BCC
330
A
100
AcDbDictionary
280
     1
281
     1
  3
ACAD_LAYOUTSELFREF
360
50F7
  0
DICTIONARY
  5
3BCE
330
B
100
AcDbDictionary
280
     1
281
     1
  3
ACAD_LAYOUTSELFREF
360
50F8
  0
DICTIONARY
  5
5456
102
{ACAD_REACTORS
330
19
102
}
330
19
100
AcDbDictionary
281
     1
  0
DICTIONARY
  5
1A
102
{ACAD_REACTORS
330
19
102
}
330
19
100
AcDbDictionary
281
     1
  0
DICTIONARY
  5
1671
102
{ACAD_REACTORS
330
19
102
}
330
19
100
AcDbDictionary
281
     1
  3
Layout1
350
1674
  3
Model
350
1673
  0
DICTIONARY
  5
5455
102
{ACAD_REACTORS
330
19
102
}
330
19
100
AcDbDictionary
281
     1
  3
ByBlock
350
5A18
  3
ByLayer
350
5A17
  3
Global
350
5A19
  0
DICTIONARY
  5
5B3C
102
{ACAD_REACTORS
330
19
102
}
330
19
100
AcDbDictionary
281
     1
  3
Standard
350
5B3D
  0
DICTIONARY
  5
1B
102
{ACAD_REACTORS
330
19
102
}
330
19
100
AcDbDictionary
281
     1
  3
STANDARD
350
1C
  0
DICTIONARY
  5
1672
102
{ACAD_REACTORS
330
19
102
}
330
19
100
AcDbDictionary
281
     1
  0
ACDBDICTIONARYWDFLT
  5
166F
102
{ACAD_REACTORS
330
19
102
}
330
19
100
AcDbDictionary
281
     1
  3
Normal
350
1670
100
AcDbDictionaryWithDefault
340
1670
1001
ACAD
1000
TREAT_AS_HARD
1070
     0
1000
TREAT_AS_HARD
1070
     0
  0
DICTIONARY
  5
5B2A
102
{ACAD_REACTORS
330
19
102
}
330
19
100
AcDbDictionary
281
     1
  3
A0
350
5B2B
  3
A1
350
5B2C
  3
A2
350
5B2D
  3
A3
350
5B2E
  3
A4
350
5B2F
  3
A5
350
5B30
  3
A6
350
5B31
  3
A7
350
5B32
  3
A8
350
5B33
  3
A9
350
5B34
  3
B0
350
5B35
  3
B1
350
5B36
  3
B2
350
5B37
  3
B3
350
5B38
  3
B4
350
5B39
  3
B5
350
5B3A
  3
B6
350
5B3B
  0
DICTIONARY
  5
59C2
102
{ACAD_REACTORS
330
19
102
}
330
19
100
AcDbDictionary
281
     1
  3
Standard
350
59C3
  0
DICTIONARY
  5
5A1A
102
{ACAD_REACTORS
330
19
102
}
330
19
100
AcDbDictionary
281
     1
  3
2dWireframe
350
5A20
  3
3D Hidden
350
5A22
  3
3dWireframe
350
5A21
  3
Basic
350
5A1F
  3
Brighten
350
5A26
  3
ColorChange
350
5A2A
  3
Conceptual
350
5A23
  3
Dim
350
5A25
  3
EdgeColorOff
350
5B29
  3
Facepattern
350
5A29
  3
Flat
350
5A1B
  3
FlatWithEdges
350
5A1C
  3
Gouraud
350
5A1D
  3
GouraudWithEdges
350
5A1E
  3
Hidden
350
5B21
  3
JitterOff
350
5B27
  3
Linepattern
350
5A28
  3
OverhangOff
350
5B28
  3
Realistic
350
5A24
  3
Shaded
350
5B26
  3
Shaded with edges
350
5B25
  3
Shades of Gray
350
5B22
  3
Sketchy
350
5B23
  3
Thicken
350
5A27
  3
Wireframe
350
5B20
  3
X-Ray
350
5B24
  0
ACAD_PROXY_OBJECT
  5
5A87
102
{ACAD_REACTORS
330
19
102
}
330
19
100
AcDbProxyObject
 90
      499
 91
      578
 95
    65563
 70
     0
162
               810
311
4C91C00E80170011401B8019C01A401B80194019401C801A401B8019C0170010C010401100080011801A401B0019401CC01700110014C00B00080011001A4018401B401BC01B80190014C01A001A4019401B0019001700110014C00800104018C018C019400C
161
                94
310
3FFFFFFFE00A0281403002A8
 94
        0
  0
XRECORD
  5
5B4D
102
{ACAD_REACTORS
330
19
102
}
330
19
100
AcDbXrecord
280
     1
 90
        1
330
59C3
  0
DICTIONARY
  5
312F
102
{ACAD_REACTORS
330
19
102
}
330
19
100
AcDbDictionary
281
     1
  3
CANNOSCALE
350
5B47
  3
CMLEADERSTYLE
350
5B45
  3
CTABLESTYLE
350
59F8
  3
DIMASSOC
350
54A9
  3
LAYEREVAL
350
5B49
  3
LAYERNOTIFY
350
5B4A
  3
LIGHTINGUNITS
350
5B48
  3
MSLTSCALE
350
5B46
  3
PROJECTNAME
350
54AA
  3
SORTENTS
350
3130
  0
ACAD_PROXY_OBJECT
  5
5A45
102
{ACAD_REACTORS
330
19
102
}
330
19
100
AcDbProxyObject
 90
      499
 91
      539
 95
    65563
 70
     0
162
                 0
161
               240
310
4C51A47A000000000000000000000000000000000000000000000000000001
330
5A46
330
5A47
330
5A48
330
5A49
330
5A4A
330
5A4B
330
5A4C
330
5A4D
330
5A4E
330
5A4F
330
5A50
330
5A51
330
5A52
330
5A53
330
5A54
330
5A55
330
5A56
330
5A57
330
5A58
330
5A59
330
5A5A
330
5A5B
330
5A5C
330
5A5D
330
5A5E
330
5A5F
 94
        0
  0
ACAD_PROXY_OBJECT
  5
5A3F
102
{ACAD_REACTORS
330
19
102
}
330
19
100
AcDbProxyObject
 90
      499
 91
      547
 95
    65563
 70
     0
162
                 0
161
                34
310
040000428C
 94
        0
  0
ACAD_PROXY_OBJECT
  5
5A65
102
{ACAD_REACTORS
330
19
102
}
330
19
100
AcDbProxyObject
 90
      499
 91
      556
 95
    65563
 70
     0
162
                 0
161
               114
310
04000041C08000000000000000000C
 94
        0
  0
DICTIONARY
  5
5A85
102
{ACAD_REACTORS
330
19
102
}
330
19
100
AcDbDictionary
281
     1
  3
AcmBOMDATA
350
5A86
  3
AcmStdDictionary
350
5A8F
  3
AMDTSECTSYM_ARROWCOLOR
350
5AAC
  0
ACAD_PROXY_OBJECT
  5
5A39
102
{ACAD_REACTORS
330
19
102
}
330
19
100
AcDbProxyObject
 90
      499
 91
      541
 95
    65563
 70
     0
162
                 0
161
                50
310
0001004040000C
330
0
330
0
330
5A3A
 94
        0
  0
ACAD_PROXY_OBJECT
  5
5A36
102
{ACAD_REACTORS
330
19
102
}
330
19
100
AcDbProxyObject
 90
      499
 91
      538
 95
    65563
 70
     0
162
              5528
311
4390401340110015001480114014C01140150011001080134013C011001084E0020002D00200055004E0044004F0042138008000B40080015401380110013C010455004E0044004F004115401380110013C010843004F005000590043004C00490050004C134014C011C008000B4008001400140010400E800800080008001
311
90019401CC01AC01D001BC01C000B8018401C801E00080011801A401B001940158019401C801CC01A401BC01B800E8008000C400C400B800C000B800D800C800B800C800C0010843004F005000590043004C00490050004290401340140013C015C0114014801100124013401184D005300470020002D00200043006F006D0
311
06D0061006E0064002000430041004E00430045004C004C00450044002E004151401480104014C011401045A004F004F004D0041544014C01040158011401304D005300470020002D0020005000500041003A002000200020006400650073006B0074006F0070002E006100720078002000460069006C00650056006500720
311
0730069006F006E003A002000310031002E0030002E00360032002E00320030004390401340110015001480114014C01140150011001080134013C011001084E0020002D00200055004E0044004F0042138008000B40080015401380110013C010455004E0044004F004115401380110013C01054500520041005300450041
311
51401480104014C011401095000410053005400450043004C00490050004154C010C01040130011401044D004F0056004500419100110011401100124015001045A004F004F004D004194C0104015801140104014C01304D005300470020002D0020005000500041003A002000200020006400650073006B0074006F007000
311
2E006100720078002000460069006C006500560065007200730069006F006E003A002000310031002E0030002E00360032002E003200300000
161
               322
310
450050201010180601404040601404040601805010101408040406018060180601806018060140404C
 94
        0
  0
ACAD_PROXY_OBJECT
  5
5A35
102
{ACAD_REACTORS
330
19
102
}
330
19
100
AcDbProxyObject
 90
      499
 91
      537
 95
    65563
 70
     0
162
                 0
161
               562
310
0B000049808000000000000000001314D600000000000000000000000000000000000000000000000000000000000000000000000000000000000000000000000000AAA406AA8C
360
5A38
360
5A3A
360
5A40
360
5A41
360
5A42
360
5A43
360
5A46
360
5A47
360
5A48
360
5A49
360
5A4A
360
5A4B
360
5A4C
360
5A4D
360
5A4E
360
5A4F
360
5A50
360
5A51
360
5A52
360
5A53
360
5A54
360
5A55
360
5A56
360
5A57
360
5A58
360
5A59
360
5A5A
360
5A5B
360
5A5C
360
5A5D
360
5A5E
360
5A5F
360
5A6B
360
5A6D
360
5A6E
360
5A6F
360
5A70
360
5A76
360
5A77
360
5A78
360
5A79
360
5A7A
360
5A7F
360
5A80
360
5A81
360
5A82
360
5A83
360
5A84
360
5ACC
 94
        0
  0
ACAD_PROXY_OBJECT
  5
5A3E
102
{ACAD_REACTORS
330
19
102
}
330
19
100
AcDbProxyObject
 90
      499
 91
      546
 95
    65563
 70
     0
162
                 0
161
                50
310
0B000042E4128C
 94
        0
  0
ACAD_PROXY_OBJECT
  5
5A37
102
{ACAD_REACTORS
330
19
102
}
330
19
100
AcDbProxyObject
 90
      499
 91
      539
 95
    65563
 70
     0
162
                 0
161
                32
310
90140A0000
330
5A38
 94
        0
  0
ACAD_PROXY_OBJECT
  5
5A6A
102
{ACAD_REACTORS
330
19
102
}
330
19
100
AcDbProxyObject
 90
      499
 91
      539
 95
    65563
 70
     0
162
                 0
161
                40
310
90240E000000
330
5A6B
330
5ACC
 94
        0
  0
ACAD_PROXY_OBJECT
  5
5A72
102
{ACAD_REACTORS
330
19
102
}
330
19
100
AcDbProxyObject
 90
      499
 91
      567
 95
    65563
 70
     0
162
                 0
161
                34
310
000B00008C
330
5A6D
 94
        0
  0
ACAD_PROXY_OBJECT
  5
5A71
102
{ACAD_REACTORS
330
19
102
}
330
19
100
AcDbProxyObject
 90
      499
 91
      539
 95
    65563
 70
     0
162
                 0
161
                 8
310
AA00
 94
        0
  0
ACAD_PROXY_OBJECT
  5
5A62
102
{ACAD_REACTORS
330
19
102
}
330
19
100
AcDbProxyObject
 90
      499
 91
      553
 95
    65563
 70
     0
162
                 0
161
                42
310
000100005E8C
330
5A40
 94
        0
  0
DICTIONARY
  5
5A30
102
{ACAD_REACTORS
330
19
102
}
330
19
100
AcDbDictionary
281
     1
  3
AcMgSettings
350
5A31
  3
AMGLAYCFG
350
5A91
  0
DICTIONARY
  5
5AC1
102
{ACAD_REACTORS
330
19
102
}
330
19
100
AcDbDictionary
281
     1
  3
DIMENSION
350
5AC6
  3
FEA
350
5AC5
  3
HATCH (1)
350
5AC2
  3
HATCH (2)
350
5AC3
  3
SIMPLE WELD
350
5AC7
  3
SYMBOLS
350
5AC4
  0
ACAD_PROXY_OBJECT
  5
5A68
102
{ACAD_REACTORS
330
19
102
}
330
19
100
AcDbProxyObject
 90
      499
 91
      559
 95
    65563
 70
     0
162
                 0
161
                34
310
050000428C
 94
        0
  0
DICTIONARY
  5
5973
102
{ACAD_REACTORS
330
19
102
}
330
19
100
AcDbDictionary
281
     1
  3
ASEBlockHierarchyIndexRecord
350
5974
1001
DCO15
1040
1522197564.298
  0
ACAD_PROXY_OBJECT
  5
5A7B
102
{ACAD_REACTORS
330
19
102
}
330
19
100
AcDbProxyObject
 90
      499
 91
      570
 95
    65563
 70
     0
162
                 0
161
                98
310
0B00005000000000000000000C
330
5A82
330
0
330
5A83
330
0
330
0
330
0
330
0
330
0
 94
        0
  0
ACAD_PROXY_OBJECT
  5
5A75
102
{ACAD_REACTORS
330
19
102
}
330
19
100
AcDbProxyObject
 90
      499
 91
      539
 95
    65563
 70
     0
162
                 0
161
                64
310
90541A000000000000
330
5A76
330
5A77
330
5A78
330
5A79
330
5A7A
 94
        0
  0
ACAD_PROXY_OBJECT
  5
5A69
102
{ACAD_REACTORS
330
19
102
}
330
19
100
AcDbProxyObject
 90
      499
 91
      560
 95
    65563
 70
     0
162
                 0
161
                 8
310
050E
 94
        0
  0
ACAD_PROXY_OBJECT
  5
5AC8
102
{ACAD_REACTORS
330
19
102
}
330
19
100
AcDbProxyObject
 90
      499
 91
      603
 95
    65563
 70
     0
162
                 0
161
                 1
310
4C
 94
        0
  0
XRECORD
  5
50F7
102
{ACAD_REACTORS
330
3BCC
102
}
330
3BCC
100
AcDbXrecord
280
     1
340
A
  0
XRECORD
  5
50F8
102
{ACAD_REACTORS
330
3BCE
102
}
330
3BCE
100
AcDbXrecord
280
     1
340
B
  0
LAYOUT
  5
1674
102
{ACAD_REACTORS
330
1671
102
}
330
1671
100
AcDbPlotSettings
  1

  2
Z:\CAD_Apps\plotting\plotters\Xerox 8830 (Mechanical).pc3
  4

  6

 40
0.0
 41
0.0
 42
0.0
 43
0.0
 44
0.0
 45
0.0
 46
0.0
 47
0.0
 48
0.0
 49
0.0
140
0.0
141
0.0
142
1.0
143
1.0
 70
   688
 72
     0
 73
     0
 74
     5
  7
RDS Default.ctb
 75
    16
147
1.0
 76
     0
 77
     2
 78
   300
148
0.0
149
0.0
100
AcDbLayout
  1
Layout1
 70
     1
 71
     1
 10
0.0
 20
0.0
 11
12.0
 21
9.0
 12
0.0
 22
0.0
 32
0.0
 14
1.000000000000000E+20
 24
1.000000000000000E+20
 34
1.000000000000000E+20
 15
-1.000000000000000E+20
 25
-1.000000000000000E+20
 35
-1.000000000000000E+20
146
0.0
 13
0.0
 23
0.0
 33
0.0
 16
1.0
 26
0.0
 36
0.0
 17
0.0
 27
1.0
 37
0.0
 76
     0
330
B
  0
LAYOUT
  5
1673
102
{ACAD_REACTORS
330
1671
102
}
330
1671
100
AcDbPlotSettings
  1

  2
\\BELDING_BDC_1\IBM 4039 LaserPrinter Plus
  4
Letter
  6

 40
7.143749713897705
 41
6.127734661102294
 42
7.14373779296875
 43
7.14373779296875
 44
215.8999938964844
 45
279.3999938964844
 46
0.0
 47
0.0
 48
0.0
 49
0.0
140
0.0
141
0.0
142
1.0
143
0.9814233613432506
 70
 28340
 72
     0
 73
     1
 74
     1
  7
Steelcase.ctb
 75
     0
147
1.018928262142979
 76
     0
 77
     2
 78
   300
148
32.79549891816435
149
39.21915285657827
100
AcDbLayout
  1
Model
 70
     1
 71
     0
 10
0.0
 20
0.0
 11
12.0
 21
9.0
 12
0.0
 22
0.0
 32
0.0
 14
0.0
 24
0.0
 34
0.0
 15
0.0
 25
0.0
 35
0.0
146
0.0
 13
0.0
 23
0.0
 33
0.0
 16
1.0
 26
0.0
 36
0.0
 17
0.0
 27
1.0
 37
0.0
 76
     0
330
A
331
5A0F
  0
MATERIAL
  5
5A18
102
{ACAD_REACTORS
330
5455
102
}
330
5455
100
AcDbMaterial
  1
ByBlock
 73
     1
 78
     1
172
     1
176
     1
270
     1
274
     1
 94
       63
  0
MATERIAL
  5
5A17
102
{ACAD_REACTORS
330
5455
102
}
330
5455
100
AcDbMaterial
  1
ByLayer
 73
     1
 78
     1
172
     1
176
     1
270
     1
274
     1
 94
       63
  0
MATERIAL
  5
5A19
102
{ACAD_REACTORS
330
5455
102
}
330
5455
100
AcDbMaterial
  1
Global
 73
     1
 78
     1
172
     1
176
     1
270
     1
274
     1
 94
       63
  0
MLEADERSTYLE
  5
5B3D
102
{ACAD_REACTORS
330
5B3C
102
}
330
5B3C
100
AcDbMLeaderStyle
179
     2
170
     2
171
     1
172
     0
 90
        2
 40
0.0
 41
0.0
173
     1
 91
-1056964608
340
11
 92
       -2
290
     1
 42
0.09
291
     1
 43
0.36
  3
Standard
 44
0.18
300

342
17
174
     1
178
     6
175
     1
176
     0
 93
-1056964608
 45
0.18
292
     0
297
     0
 46
0.18
 94
-1056964608
 47
1.0
 49
1.0
140
1.0
293
     1
141
0.0
294
     1
177
     0
142
1.0
295
     1
296
     0
143
0.125
271
     0
272
     9
273
     9
  0
MLINESTYLE
  5
1C
102
{ACAD_REACTORS
330
1B
102
}
330
1B
100
AcDbMlineStyle
  2
STANDARD
 70
     0
  3

 62
     0
 51
90.00000000000019
 52
90.00000000000019
 71
     2
 49
0.5
 62
   256
  6
BYLAYER
 49
-0.5
 62
   256
  6
BYLAYER
  0
ACDBPLACEHOLDER
  5
1670
102
{ACAD_REACTORS
330
166F
102
}
330
166F
  0
SCALE
  5
5B2B
102
{ACAD_REACTORS
330
5B2A
102
}
330
5B2A
100
AcDbScale
 70
     0
300
1:1
140
1.0
141
1.0
290
     1
  0
SCALE
  5
5B2C
102
{ACAD_REACTORS
330
5B2A
102
}
330
5B2A
100
AcDbScale
 70
     0
300
1/128" = 1'-0"
140
0.0078125
141
12.0
290
     0
  0
SCALE
  5
5B2D
102
{ACAD_REACTORS
330
5B2A
102
}
330
5B2A
100
AcDbScale
 70
     0
300
1/64" = 1'-0"
140
0.015625
141
12.0
290
     0
  0
SCALE
  5
5B2E
102
{ACAD_REACTORS
330
5B2A
102
}
330
5B2A
100
AcDbScale
 70
     0
300
1/32" = 1'-0"
140
0.03125
141
12.0
290
     0
  0
SCALE
  5
5B2F
102
{ACAD_REACTORS
330
5B2A
102
}
330
5B2A
100
AcDbScale
 70
     0
300
1/16" = 1'-0"
140
0.0625
141
12.0
290
     0
  0
SCALE
  5
5B30
102
{ACAD_REACTORS
330
5B2A
102
}
330
5B2A
100
AcDbScale
 70
     0
300
3/32" = 1'-0"
140
0.09375
141
12.0
290
     0
  0
SCALE
  5
5B31
102
{ACAD_REACTORS
330
5B2A
102
}
330
5B2A
100
AcDbScale
 70
     0
300
1/8" = 1'-0"
140
0.125
141
12.0
290
     0
  0
SCALE
  5
5B32
102
{ACAD_REACTORS
330
5B2A
102
}
330
5B2A
100
AcDbScale
 70
     0
300
3/16" = 1'-0"
140
0.1875
141
12.0
290
     0
  0
SCALE
  5
5B33
102
{ACAD_REACTORS
330
5B2A
102
}
330
5B2A
100
AcDbScale
 70
     0
300
1/4" = 1'-0"
140
0.25
141
12.0
290
     0
  0
SCALE
  5
5B34
102
{ACAD_REACTORS
330
5B2A
102
}
330
5B2A
100
AcDbScale
 70
     0
300
3/8" = 1'-0"
140
0.375
141
12.0
290
     0
  0
SCALE
  5
5B35
102
{ACAD_REACTORS
330
5B2A
102
}
330
5B2A
100
AcDbScale
 70
     0
300
1/2" = 1'-0"
140
0.5
141
12.0
290
     0
  0
SCALE
  5
5B36
102
{ACAD_REACTORS
330
5B2A
102
}
330
5B2A
100
AcDbScale
 70
     0
300
3/4" = 1'-0"
140
0.75
141
12.0
290
     0
  0
SCALE
  5
5B37
102
{ACAD_REACTORS
330
5B2A
102
}
330
5B2A
100
AcDbScale
 70
     0
300
1" = 1'-0"
140
1.0
141
12.0
290
     0
  0
SCALE
  5
5B38
102
{ACAD_REACTORS
330
5B2A
102
}
330
5B2A
100
AcDbScale
 70
     0
300
1-1/2" = 1'-0"
140
1.5
141
12.0
290
     0
  0
SCALE
  5
5B39
102
{ACAD_REACTORS
330
5B2A
102
}
330
5B2A
100
AcDbScale
 70
     0
300
3" = 1'-0"
140
3.0
141
12.0
290
     0
  0
SCALE
  5
5B3A
102
{ACAD_REACTORS
330
5B2A
102
}
330
5B2A
100
AcDbScale
 70
     0
300
6" = 1'-0"
140
6.0
141
12.0
290
     0
  0
SCALE
  5
5B3B
102
{ACAD_REACTORS
330
5B2A
102
}
330
5B2A
100
AcDbScale
 70
     0
300
1'-0" = 1'-0"
140
12.0
141
12.0
290
     0
  0
TABLESTYLE
  5
59C3
102
{ACAD_XDICTIONARY
360
5B4B
102
}
102
{ACAD_REACTORS
330
59C2
102
}
330
59C2
100
AcDbTableStyle
280
     0
  3
Standard
 70
     0
 71
     0
 40
0.06
 41
0.06
280
     0
281
     0
  7
STANDARD
140
0.18
170
     2
 62
     0
 63
     7
283
     0
 90
        4
 91
        0
  1

274
    -2
284
     1
 64
     0
275
    -2
285
     1
 65
     0
276
    -2
286
     1
 66
     0
277
    -2
287
     1
 67
     0
278
    -2
288
     1
 68
     0
279
    -2
289
     1
 69
     0
  7
STANDARD
140
0.25
170
     5
 62
     0
 63
     7
283
     0
 90
        4
 91
        0
  1

274
    -2
284
     1
 64
     0
275
    -2
285
     1
 65
     0
276
    -2
286
     1
 66
     0
277
    -2
287
     1
 67
     0
278
    -2
288
     1
 68
     0
279
    -2
289
     1
 69
     0
  7
STANDARD
140
0.18
170
     5
 62
     0
 63
     7
283
     0
 90
        4
 91
        0
  1

274
    -2
284
     1
 64
     0
275
    -2
285
     1
 65
     0
276
    -2
286
     1
 66
     0
277
    -2
287
     1
 67
     0
278
    -2
288
     1
 68
     0
279
    -2
289
     1
 69
     0
  0
VISUALSTYLE
  5
5A20
102
{ACAD_REACTORS
330
5A1A
102
}
330
5A1A
100
AcDbVisualStyle
  2
2dWireframe
 70
     4
177
     2
291
     0
 71
     0
176
     1
 72
     2
176
     1
 73
     0
176
     1
 90
        0
176
     1
 40
0.6
176
     1
 41
30.0
176
     1
 63
     7
421
 16777215
176
     1
 74
     1
176
     1
 91
        4
176
     1
 64
     7
176
     1
 65
   257
176
     1
 75
     1
176
     1
175
     1
176
     1
 42
1.0
176
     1
 92
        0
176
     1
 66
   257
176
     1
 43
1.0
176
     1
 76
     1
176
     1
 77
     6
176
     1
 78
     2
176
     1
 67
     7
176
     1
 79
     5
176
     1
170
     0
176
     1
171
     0
176
     1
290
     0
176
     1
 93
        1
176
     1
 44
0.0
176
     1
173
     0
176
     1
  0
VISUALSTYLE
  5
5A22
102
{ACAD_REACTORS
330
5A1A
102
}
330
5A1A
100
AcDbVisualStyle
  2
3D Hidden
 70
     6
177
     2
291
     0
 71
     1
176
     1
 72
     2
176
     1
 73
     2
176
     1
 90
        0
176
     1
 40
0.6
176
     1
 41
30.0
176
     1
 63
     7
421
 16777215
176
     1
 74
     2
176
     1
 91
        2
176
     1
 64
     7
176
     1
 65
   257
176
     1
 75
     2
176
     1
175
     1
176
     1
 42
40.0
176
     1
 92
        0
176
     1
 66
   257
176
     1
 43
1.0
176
     1
 76
     1
176
     1
 77
     6
176
     1
 78
     2
176
     1
 67
     7
176
     1
 79
     3
176
     1
170
     0
176
     1
171
     0
176
     1
290
     0
176
     1
 93
        1
176
     1
 44
0.0
176
     1
173
     0
176
     1
  0
VISUALSTYLE
  5
5A21
102
{ACAD_REACTORS
330
5A1A
102
}
330
5A1A
100
AcDbVisualStyle
  2
3dWireframe
 70
     5
177
     2
291
     0
 71
     0
176
     1
 72
     2
176
     1
 73
     0
176
     1
 90
        0
176
     1
 40
0.6
176
     1
 41
30.0
176
     1
 63
     7
421
 16777215
176
     1
 74
     1
176
     1
 91
        4
176
     1
 64
     7
176
     1
 65
   257
176
     1
 75
     1
176
     1
175
     1
176
     1
 42
1.0
176
     1
 92
        0
176
     1
 66
   257
176
     1
 43
1.0
176
     1
 76
     1
176
     1
 77
     6
176
     1
 78
     2
176
     1
 67
     7
176
     1
 79
     5
176
     1
170
     0
176
     1
171
     0
176
     1
290
     0
176
     1
 93
        1
176
     1
 44
0.0
176
     1
173
     0
176
     1
  0
VISUALSTYLE
  5
5A1F
102
{ACAD_REACTORS
330
5A1A
102
}
330
5A1A
100
AcDbVisualStyle
  2
Basic
 70
     7
177
     2
291
     1
 71
     1
176
     1
 72
     0
176
     1
 73
     1
176
     1
 90
        0
176
     1
 40
0.6
176
     1
 41
30.0
176
     1
 63
     7
421
 16777215
176
     1
 74
     0
176
     1
 91
        4
176
     1
 64
     7
176
     1
 65
   257
176
     1
 75
     1
176
     1
175
     1
176
     1
 42
1.0
176
     1
 92
        8
176
     1
 66
     7
176
     1
 43
1.0
176
     1
 76
     1
176
     1
 77
     6
176
     1
 78
     2
176
     1
 67
     7
176
     1
 79
     5
176
     1
170
     0
176
     1
171
     0
176
     1
290
     0
176
     1
 93
        1
176
     1
 44
0.0
176
     1
173
     0
176
     1
  0
VISUALSTYLE
  5
5A26
102
{ACAD_REACTORS
330
5A1A
102
}
330
5A1A
100
AcDbVisualStyle
  2
Brighten
 70
    12
177
     2
291
     1
 71
     2
176
     1
 72
     2
176
     1
 73
     0
176
     1
 90
        0
176
     1
 40
0.6
176
     1
 41
30.0
176
     1
 63
     7
421
 16777215
176
     1
 74
     1
176
     1
 91
        4
176
     1
 64
     7
176
     1
 65
   257
176
     1
 75
     1
176
     1
175
     1
176
     1
 42
1.0
176
     1
 92
        8
176
     1
 66
     7
176
     1
 43
1.0
176
     1
 76
     1
176
     1
 77
     6
176
     1
 78
     2
176
     1
 67
     7
176
     1
 79
     5
176
     1
170
     0
176
     1
171
     0
176
     1
290
     0
176
     1
 93
        1
176
     1
 44
50.0
176
     1
173
     0
176
     1
  0
VISUALSTYLE
  5
5A2A
102
{ACAD_REACTORS
330
5A1A
102
}
330
5A1A
100
AcDbVisualStyle
  2
ColorChange
 70
    16
177
     2
291
     1
 71
     2
176
     1
 72
     2
176
     1
 73
     3
176
     1
 90
        0
176
     1
 40
0.6
176
     1
 41
30.0
176
     1
 63
     8
421
  8421504
176
     1
 74
     1
176
     1
 91
        4
176
     1
 64
     7
176
     1
 65
   257
176
     1
 75
     1
176
     1
175
     1
176
     1
 42
1.0
176
     1
 92
        8
176
     1
 66
     8
424
  8421504
176
     1
 43
1.0
176
     1
 76
     1
176
     1
 77
     6
176
     1
 78
     2
176
     1
 67
     7
176
     1
 79
     5
176
     1
170
     0
176
     1
171
     0
176
     1
290
     0
176
     1
 93
        1
176
     1
 44
0.0
176
     1
173
     0
176
     1
  0
VISUALSTYLE
  5
5A23
102
{ACAD_REACTORS
330
5A1A
102
}
330
5A1A
100
AcDbVisualStyle
  2
Conceptual
 70
     9
177
     2
291
     0
 71
     3
176
     1
 72
     2
176
     1
 73
     0
176
     1
 90
        0
176
     1
 40
0.6
176
     1
 41
30.0
176
     1
 63
     7
421
 16777215
176
     1
 74
     2
176
     1
 91
        2
176
     1
 64
     7
176
     1
 65
   257
176
     1
 75
     1
176
     1
175
     1
176
     1
 42
40.0
176
     1
 92
        8
176
     1
 66
     7
176
     1
 43
1.0
176
     1
 76
     1
176
     1
 77
     6
176
     1
 78
     2
176
     1
 67
     7
176
     1
 79
     3
176
     1
170
     0
176
     1
171
     0
176
     1
290
     0
176
     1
 93
        1
176
     1
 44
0.0
176
     1
173
     0
176
     1
  0
VISUALSTYLE
  5
5A25
102
{ACAD_REACTORS
330
5A1A
102
}
330
5A1A
100
AcDbVisualStyle
  2
Dim
 70
    11
177
     2
291
     1
 71
     2
176
     1
 72
     2
176
     1
 73
     0
176
     1
 90
        0
176
     1
 40
0.6
176
     1
 41
30.0
176
     1
 63
     7
421
 16777215
176
     1
 74
     1
176
     1
 91
        4
176
     1
 64
     7
176
     1
 65
   257
176
     1
 75
     1
176
     1
175
     1
176
     1
 42
1.0
176
     1
 92
        8
176
     1
 66
     7
176
     1
 43
1.0
176
     1
 76
     1
176
     1
 77
     6
176
     1
 78
     2
176
     1
 67
     7
176
     1
 79
     5
176
     1
170
     0
176
     1
171
     0
176
     1
290
     0
176
     1
 93
        1
176
     1
 44
-50.0
176
     1
173
     0
176
     1
  0
VISUALSTYLE
  5
5B29
102
{ACAD_REACTORS
330
5A1A
102
}
330
5A1A
100
AcDbVisualStyle
  2
EdgeColorOff
 70
    22
177
     2
291
     1
 71
     2
176
     0
 72
     2
176
     0
 73
     0
176
     0
 90
        0
176
     0
 40
0.6
176
     0
 41
30.0
176
     0
 63
     7
421
 16777215
176
     0
 74
     1
176
     0
 91
        4
176
     0
 64
     7
176
     0
 65
   257
176
     0
 75
     1
176
     0
175
     1
176
     0
 42
1.0
176
     0
 92
        8
176
     2
 66
     7
176
     0
 43
1.0
176
     0
 76
     1
176
     0
 77
     6
176
     0
 78
     2
176
     0
 67
     7
176
     0
 79
     5
176
     0
170
     0
176
     0
171
     0
176
     0
290
     0
176
     0
 93
        1
176
     0
 44
0.0
176
     0
173
     0
176
     0
  0
VISUALSTYLE
  5
5A29
102
{ACAD_REACTORS
330
5A1A
102
}
330
5A1A
100
AcDbVisualStyle
  2
Facepattern
 70
    15
177
     2
291
     1
 71
     2
176
     1
 72
     2
176
     1
 73
     0
176
     1
 90
        0
176
     1
 40
0.6
176
     1
 41
30.0
176
     1
 63
     7
421
 16777215
176
     1
 74
     1
176
     1
 91
        4
176
     1
 64
     7
176
     1
 65
   257
176
     1
 75
     1
176
     1
175
     1
176
     1
 42
1.0
176
     1
 92
        8
176
     1
 66
     7
176
     1
 43
1.0
176
     1
 76
     1
176
     1
 77
     6
176
     1
 78
     2
176
     1
 67
     7
176
     1
 79
     5
176
     1
170
     0
176
     1
171
     0
176
     1
290
     0
176
     1
 93
        1
176
     1
 44
0.0
176
     1
173
     0
176
     1
  0
VISUALSTYLE
  5
5A1B
102
{ACAD_REACTORS
330
5A1A
102
}
330
5A1A
100
AcDbVisualStyle
  2
Flat
 70
     0
177
     2
291
     1
 71
     2
176
     1
 72
     1
176
     1
 73
     1
176
     1
 90
        2
176
     1
 40
0.6
176
     1
 41
30.0
176
     1
 63
     7
421
 16777215
176
     1
 74
     0
176
     1
 91
        4
176
     1
 64
     7
176
     1
 65
   257
176
     1
 75
     1
176
     1
175
     1
176
     1
 42
1.0
176
     1
 92
        8
176
     1
 66
     7
176
     1
 43
1.0
176
     1
 76
     1
176
     1
 77
     6
176
     1
 78
     2
176
     1
 67
     7
176
     1
 79
     5
176
     1
170
     0
176
     1
171
     0
176
     1
290
     0
176
     1
 93
       13
176
     1
 44
0.0
176
     1
173
     0
176
     1
  0
VISUALSTYLE
  5
5A1C
102
{ACAD_REACTORS
330
5A1A
102
}
330
5A1A
100
AcDbVisualStyle
  2
FlatWithEdges
 70
     1
177
     2
291
     1
 71
     2
176
     1
 72
     1
176
     1
 73
     1
176
     1
 90
        2
176
     1
 40
0.6
176
     1
 41
30.0
176
     1
 63
     7
421
 16777215
176
     1
 74
     1
176
     1
 91
        4
176
     1
 64
     7
176
     1
 65
   257
176
     1
 75
     1
176
     1
175
     1
176
     1
 42
1.0
176
     1
 92
        0
176
     1
 66
   257
176
     1
 43
1.0
176
     1
 76
     1
176
     1
 77
     6
176
     1
 78
     2
176
     1
 67
     7
176
     1
 79
     5
176
     1
170
     0
176
     1
171
     0
176
     1
290
     0
176
     1
 93
       13
176
     1
 44
0.0
176
     1
173
     0
176
     1
  0
VISUALSTYLE
  5
5A1D
102
{ACAD_REACTORS
330
5A1A
102
}
330
5A1A
100
AcDbVisualStyle
  2
Gouraud
 70
     2
177
     2
291
     1
 71
     2
176
     1
 72
     2
176
     1
 73
     1
176
     1
 90
        2
176
     1
 40
0.6
176
     1
 41
30.0
176
     1
 63
     7
421
 16777215
176
     1
 74
     0
176
     1
 91
        4
176
     1
 64
     7
176
     1
 65
   257
176
     1
 75
     1
176
     1
175
     1
176
     1
 42
1.0
176
     1
 92
        0
176
     1
 66
     7
176
     1
 43
1.0
176
     1
 76
     1
176
     1
 77
     6
176
     1
 78
     2
176
     1
 67
     7
176
     1
 79
     5
176
     1
170
     0
176
     1
171
     0
176
     1
290
     0
176
     1
 93
       13
176
     1
 44
0.0
176
     1
173
     0
176
     1
  0
VISUALSTYLE
  5
5A1E
102
{ACAD_REACTORS
330
5A1A
102
}
330
5A1A
100
AcDbVisualStyle
  2
GouraudWithEdges
 70
     3
177
     2
291
     1
 71
     2
176
     1
 72
     2
176
     1
 73
     1
176
     1
 90
        2
176
     1
 40
0.6
176
     1
 41
30.0
176
     1
 63
     7
421
 16777215
176
     1
 74
     1
176
     1
 91
        4
176
     1
 64
     7
176
     1
 65
   257
176
     1
 75
     1
176
     1
175
     1
176
     1
 42
1.0
176
     1
 92
        0
176
     1
 66
   257
176
     1
 43
1.0
176
     1
 76
     1
176
     1
 77
     6
176
     1
 78
     2
176
     1
 67
     7
176
     1
 79
     5
176
     1
170
     0
176
     1
171
     0
176
     1
290
     0
176
     1
 93
       13
176
     1
 44
0.0
176
     1
173
     0
176
     1
  0
VISUALSTYLE
  5
5B21
102
{ACAD_REACTORS
330
5A1A
102
}
330
5A1A
100
AcDbVisualStyle
  2
Hidden
 70
     6
177
     2
291
     0
 71
     1
176
     1
 72
     2
176
     1
 73
     2
176
     1
 90
        0
176
     1
 40
0.6
176
     1
 41
30.0
176
     1
 63
     7
421
 16777215
176
     1
 74
     2
176
     1
 91
        2
176
     1
 64
     7
176
     1
 65
   257
176
     1
 75
     2
176
     1
175
     1
176
     1
 42
40.0
176
     1
 92
        0
176
     1
 66
   257
176
     1
 43
1.0
176
     1
 76
     1
176
     1
 77
     6
176
     1
 78
     2
176
     1
 67
     7
176
     1
 79
     3
176
     1
170
     0
176
     1
171
     0
176
     1
290
     0
176
     1
 93
        1
176
     1
 44
0.0
176
     1
173
     0
176
     1
  0
VISUALSTYLE
  5
5B27
102
{ACAD_REACTORS
330
5A1A
102
}
330
5A1A
100
AcDbVisualStyle
  2
JitterOff
 70
    20
177
     2
291
     1
 71
     2
176
     0
 72
     2
176
     0
 73
     0
176
     0
 90
        0
176
     0
 40
0.6
176
     0
 41
30.0
176
     0
 63
     7
421
 16777215
176
     0
 74
     1
176
     0
 91
        4
176
     0
 64
     7
176
     0
 65
   257
176
     0
 75
     1
176
     0
175
     1
176
     0
 42
1.0
176
     0
 92
       10
176
     2
 66
     7
176
     0
 43
1.0
176
     0
 76
     1
176
     0
 77
     6
176
     0
 78
     2
176
     0
 67
     7
176
     0
 79
     5
176
     0
170
     0
176
     0
171
     0
176
     0
290
     0
176
     0
 93
        1
176
     0
 44
0.0
176
     0
173
     0
176
     0
  0
VISUALSTYLE
  5
5A28
102
{ACAD_REACTORS
330
5A1A
102
}
330
5A1A
100
AcDbVisualStyle
  2
Linepattern
 70
    14
177
     2
291
     1
 71
     2
176
     1
 72
     2
176
     1
 73
     0
176
     1
 90
        0
176
     1
 40
0.6
176
     1
 41
30.0
176
     1
 63
     7
421
 16777215
176
     1
 74
     1
176
     1
 91
        4
176
     1
 64
     7
176
     1
 65
   257
176
     1
 75
     7
176
     1
175
     7
176
     1
 42
1.0
176
     1
 92
        8
176
     1
 66
     7
176
     1
 43
1.0
176
     1
 76
     1
176
     1
 77
     6
176
     1
 78
     2
176
     1
 67
     7
176
     1
 79
     5
176
     1
170
     0
176
     1
171
     0
176
     1
290
     0
176
     1
 93
        1
176
     1
 44
0.0
176
     1
173
     0
176
     1
  0
VISUALSTYLE
  5
5B28
102
{ACAD_REACTORS
330
5A1A
102
}
330
5A1A
100
AcDbVisualStyle
  2
OverhangOff
 70
    21
177
     2
291
     1
 71
     2
176
     0
 72
     2
176
     0
 73
     0
176
     0
 90
        0
176
     0
 40
0.6
176
     0
 41
30.0
176
     0
 63
     7
421
 16777215
176
     0
 74
     1
176
     0
 91
        4
176
     0
 64
     7
176
     0
 65
   257
176
     0
 75
     1
176
     0
175
     1
176
     0
 42
1.0
176
     0
 92
        9
176
     2
 66
     7
176
     0
 43
1.0
176
     0
 76
     1
176
     0
 77
     6
176
     0
 78
     2
176
     0
 67
     7
176
     0
 79
     5
176
     0
170
     0
176
     0
171
     0
176
     0
290
     0
176
     0
 93
        1
176
     0
 44
0.0
176
     0
173
     0
176
     0
  0
VISUALSTYLE
  5
5A24
102
{ACAD_REACTORS
330
5A1A
102
}
330
5A1A
100
AcDbVisualStyle
  2
Realistic
 70
     8
177
     2
291
     0
 71
     2
176
     1
 72
     2
176
     1
 73
     0
176
     1
 90
        0
176
     1
 40
0.6
176
     1
 41
30.0
176
     1
 63
     7
421
 16777215
176
     1
 74
     1
176
     1
 91
        0
176
     1
 64
     7
176
     1
 65
   257
176
     1
 75
     1
176
     1
175
     1
176
     1
 42
1.0
176
     1
 92
        8
176
     1
 66
     8
424
  7895160
176
     1
 43
1.0
176
     1
 76
     1
176
     1
 77
     6
176
     1
 78
     2
176
     1
 67
     7
176
     1
 79
     5
176
     1
170
     0
176
     1
171
     0
176
     1
290
     0
176
     1
 93
       13
176
     1
 44
0.0
176
     1
173
     0
176
     1
  0
VISUALSTYLE
  5
5B26
102
{ACAD_REACTORS
330
5A1A
102
}
330
5A1A
100
AcDbVisualStyle
  2
Shaded
 70
    27
177
     2
291
     0
 71
     2
176
     1
 72
     2
176
     1
 73
     1
176
     1
 90
        2
176
     1
 40
0.6
176
     1
 41
30.0
176
     1
 63
     7
421
 16777215
176
     1
 74
     0
176
     1
 91
        4
176
     1
 64
     7
176
     1
 65
   257
176
     1
 75
     1
176
     1
175
     1
176
     1
 42
1.0
176
     1
 92
        8
176
     1
 66
   257
176
     1
 43
1.0
176
     1
 76
     1
176
     1
 77
     6
176
     1
 78
     2
176
     1
 67
     8
425
  7895160
176
     1
 79
     3
176
     1
170
     0
176
     1
171
     0
176
     1
290
     0
176
     1
 93
        5
176
     1
 44
0.0
176
     1
173
     0
176
     1
  0
VISUALSTYLE
  5
5B25
102
{ACAD_REACTORS
330
5A1A
102
}
330
5A1A
100
AcDbVisualStyle
  2
Shaded with edges
 70
    26
177
     2
291
     0
 71
     2
176
     1
 72
     2
176
     1
 73
     1
176
     1
 90
        2
176
     1
 40
0.6
176
     1
 41
30.0
176
     1
 63
     7
421
 16777215
176
     1
 74
     1
176
     1
 91
       10
176
     1
 64
     7
176
     1
 65
   257
176
     1
 75
     2
176
     1
175
     1
176
     1
 42
1.0
176
     1
 92
        8
176
     1
 66
   257
176
     1
 43
1.0
176
     1
 76
     1
176
     1
 77
     6
176
     1
 78
     2
176
     1
 67
     7
176
     1
 79
     3
176
     1
170
     0
176
     1
171
     0
176
     1
290
     0
176
     1
 93
        5
176
     1
 44
0.0
176
     1
173
     0
176
     1
  0
VISUALSTYLE
  5
5B22
102
{ACAD_REACTORS
330
5A1A
102
}
330
5A1A
100
AcDbVisualStyle
  2
Shades of Gray
 70
    23
177
     2
291
     0
 71
     2
176
     1
 72
     2
176
     1
 73
     3
176
     1
 90
        0
176
     1
 40
0.6
176
     1
 41
30.0
176
     1
 63
     7
421
 16777215
176
     1
 74
     2
176
     1
 91
        2
176
     1
 64
     7
176
     1
 65
     7
176
     1
 75
     1
176
     1
175
     1
176
     1
 42
40.0
176
     1
 92
        8
176
     1
 66
     7
176
     1
 43
1.0
176
     1
 76
     1
176
     1
 77
     6
176
     1
 78
     2
176
     1
 67
     7
176
     1
 79
     3
176
     1
170
     0
176
     1
171
     0
176
     1
290
     0
176
     1
 93
        1
176
     1
 44
0.0
176
     1
173
     0
176
     1
  0
VISUALSTYLE
  5
5B23
102
{ACAD_REACTORS
330
5A1A
102
}
330
5A1A
100
AcDbVisualStyle
  2
Sketchy
 70
    24
177
     2
291
     0
 71
     1
176
     1
 72
     2
176
     1
 73
     2
176
     1
 90
        0
176
     1
 40
0.6
176
     1
 41
30.0
176
     1
 63
     7
421
 16777215
176
     1
 74
     2
176
     1
 91
        2
176
     1
 64
     7
176
     1
 65
     7
176
     1
 75
     1
176
     1
175
     1
176
     1
 42
40.0
176
     1
 92
       11
176
     1
 66
     7
176
     1
 43
1.0
176
     1
 76
     1
176
     1
 77
     6
176
     1
 78
     2
176
     1
 67
     7
176
     1
 79
     6
176
     1
170
     0
176
     1
171
     0
176
     1
290
     0
176
     1
 93
        1
176
     1
 44
0.0
176
     1
173
     0
176
     1
  0
VISUALSTYLE
  5
5A27
102
{ACAD_REACTORS
330
5A1A
102
}
330
5A1A
100
AcDbVisualStyle
  2
Thicken
 70
    13
177
     2
291
     1
 71
     2
176
     1
 72
     2
176
     1
 73
     0
176
     1
 90
        0
176
     1
 40
0.6
176
     1
 41
30.0
176
     1
 63
     7
421
 16777215
176
     1
 74
     1
176
     1
 91
        4
176
     1
 64
     7
176
     1
 65
   257
176
     1
 75
     1
176
     1
175
     1
176
     1
 42
1.0
176
     1
 92
       12
176
     1
 66
     7
176
     1
 43
1.0
176
     1
 76
     1
176
     1
 77
     6
176
     1
 78
     2
176
     1
 67
     7
176
     1
 79
     5
176
     1
170
     0
176
     1
171
     0
176
     1
290
     0
176
     1
 93
        1
176
     1
 44
0.0
176
     1
173
     0
176
     1
  0
VISUALSTYLE
  5
5B20
102
{ACAD_REACTORS
330
5A1A
102
}
330
5A1A
100
AcDbVisualStyle
  2
Wireframe
 70
     5
177
     2
291
     0
 71
     0
176
     1
 72
     2
176
     1
 73
     0
176
     1
 90
        0
176
     1
 40
0.6
176
     1
 41
30.0
176
     1
 63
     7
421
 16777215
176
     1
 74
     1
176
     1
 91
        4
176
     1
 64
     7
176
     1
 65
   257
176
     1
 75
     1
176
     1
175
     1
176
     1
 42
1.0
176
     1
 92
        0
176
     1
 66
   257
176
     1
 43
1.0
176
     1
 76
     1
176
     1
 77
     6
176
     1
 78
     2
176
     1
 67
     7
176
     1
 79
     3
176
     1
170
     0
176
     1
171
     0
176
     1
290
     0
176
     1
 93
        1
176
     1
 44
0.0
176
     1
173
     0
176
     1
  0
VISUALSTYLE
  5
5B24
102
{ACAD_REACTORS
330
5A1A
102
}
330
5A1A
100
AcDbVisualStyle
  2
X-Ray
 70
    25
177
     2
291
     0
 71
     2
176
     1
 72
     2
176
     1
 73
     1
176
     1
 90
        1
176
     1
 40
0.5
176
     1
 41
30.0
176
     1
 63
     7
421
 16777215
176
     1
 74
     1
176
     1
 91
        0
176
     1
 64
     7
176
     1
 65
   257
176
     1
 75
     1
176
     1
175
     1
176
     1
 42
1.0
176
     1
 92
        8
176
     1
 66
     7
176
     1
 43
1.0
176
     1
 76
     1
176
     1
 77
     6
176
     1
 78
     2
176
     1
 67
     7
176
     1
 79
     3
176
     1
170
     0
176
     1
171
     0
176
     1
290
     0
176
     1
 93
       13
176
     1
 44
0.0
176
     1
173
     0
176
     1
  0
DICTIONARYVAR
  5
5B47
102
{ACAD_REACTORS
330
312F
102
}
330
312F
100
DictionaryVariables
280
     0
  1
1:1
  0
DICTIONARYVAR
  5
5B45
102
{ACAD_REACTORS
330
312F
102
}
330
312F
100
DictionaryVariables
280
     0
  1
STANDARD
  0
DICTIONARYVAR
  5
59F8
102
{ACAD_REACTORS
330
312F
102
}
330
312F
100
DictionaryVariables
280
     0
  1
STANDARD
  0
DICTIONARYVAR
  5
54A9
102
{ACAD_REACTORS
330
312F
102
}
330
312F
100
DictionaryVariables
280
     0
  1
1
  0
DICTIONARYVAR
  5
5B49
102
{ACAD_REACTORS
330
312F
102
}
330
312F
100
DictionaryVariables
280
     0
  1
1
  0
DICTIONARYVAR
  5
5B4A
102
{ACAD_REACTORS
330
312F
102
}
330
312F
100
DictionaryVariables
280
     0
  1
15
  0
DICTIONARYVAR
  5
5B48
102
{ACAD_REACTORS
330
312F
102
}
330
312F
100
DictionaryVariables
280
     0
  1
0
  0
DICTIONARYVAR
  5
5B46
102
{ACAD_REACTORS
330
312F
102
}
330
312F
100
DictionaryVariables
280
     0
  1
0
  0
DICTIONARYVAR
  5
54AA
102
{ACAD_REACTORS
330
312F
102
}
330
312F
100
DictionaryVariables
280
     0
  1

  0
DICTIONARYVAR
  5
3130
102
{ACAD_REACTORS
330
312F
102
}
330
312F
100
DictionaryVariables
280
     0
  1
96
  0
ACAD_PROXY_OBJECT
  5
5A86
102
{ACAD_REACTORS
330
5A85
102
}
330
5A85
100
AcDbProxyObject
 90
      499
 91
      577
 95
    65563
 70
     0
162
                 0
161
                84
310
90100057356C1D8C406AAC
 94
        0
  0
DICTIONARY
  5
5A8F
102
{ACAD_REACTORS
330
5A85
102
}
330
5A85
100
AcDbDictionary
281
     1
  3
ANSI
350
5A90
  0
XRECORD
  5
5AAC
102
{ACAD_REACTORS
330
5A85
102
}
330
5A85
100
AcDbXrecord
280
     1
 90
-1023410169
  0
ACAD_PROXY_OBJECT
  5
5A38
330
0
100
AcDbProxyObject
 90
      499
 91
      540
 95
    65563
 70
     0
162
               234
311
43904010C01340114014C016401340108013C0130014C01240168011400C
161
                34
310
000101420C
330
5A35
 94
        0
  0
ACAD_PROXY_OBJECT
  5
5A3A
330
0
100
AcDbProxyObject
 90
      499
 91
      542
 95
    65563
 70
     0
162
                74
311
41108013C013400C400C
161
                46
310
00010100AC00
330
5A35
330
0
330
0
 94
        0
  0
ACAD_PROXY_OBJECT
  5
5A40
330
0
100
AcDbProxyObject
 90
      499
 91
      548
 95
    65563
 70
     0
162
               562
311
41190018401D001940109310031002E0030002E00360032002E00300041190018401D001940109310031002E0030002E00360032002E003000419040138014C012400CC00C400C
161
                92
310
00010101010140501000096C
330
5A35
330
5A41
330
5A45
 94
        0
  0
ACAD_PROXY_OBJECT
  5
5A41
330
0
100
AcDbProxyObject
 90
      499
 91
      549
 95
    65563
 70
     0
162
                 0
161
                48
310
000190140A00F4
330
5A35
330
5A42
 94
        0
  0
ACAD_PROXY_OBJECT
  5
5A42
330
0
100
AcDbProxyObject
 90
      499
 91
      550
 95
    65563
 70
     0
162
                 0
161
                48
310
0001AA000000FC
330
5A35
330
1674
330
5A43
330
0
 94
        0
  0
ACAD_PROXY_OBJECT
  5
5A43
330
0
100
AcDbProxyObject
 90
      499
 91
      551
 95
    65563
 70
     0
162
                 0
161
                28
310
0001AAAC
330
5A35
 94
        0
  0
ACAD_PROXY_OBJECT
  5
5A46
330
0
100
AcDbProxyObject
 90
      499
 91
      540
 95
    65563
 70
     0
162
               138
311
42104013401200130010C01040130010C00C
161
                34
310
000101404C
330
5A35
 94
        0
  0
ACAD_PROXY_OBJECT
  5
5A47
330
0
100
AcDbProxyObject
 90
      499
 91
      540
 95
    65563
 70
     0
162
               170
311
429040134014801140154014C011401100124013400C
161
                34
310
000101404C
330
5A35
 94
        0
  0
ACAD_PROXY_OBJECT
  5
5A48
330
0
100
AcDbProxyObject
 90
      499
 91
      540
 95
    65563
 70
     0
162
               202
311
431040134014C0114010C01500124013C013801100124013400C
161
                26
310
0001018C
330
5A35
 94
        0
  0
ACAD_PROXY_OBJECT
  5
5A49
330
0
100
AcDbProxyObject
 90
      499
 91
      540
 95
    65563
 70
     0
162
               170
311
429040134015801400108013C014801100114014800C
161
                34
310
000101404C
330
5A35
 94
        0
  0
ACAD_PROXY_OBJECT
  5
5A4A
330
0
100
AcDbProxyObject
 90
      499
 91
      540
 95
    65563
 70
     0
162
               170
311
4290401340110015C011C010C013C0130013C014800C
161
                26
310
0001018C
330
5A35
 94
        0
  0
ACAD_PROXY_OBJECT
  5
5A4B
330
0
100
AcDbProxyObject
 90
      499
 91
      540
 95
    65563
 70
     0
162
               218
311
435040134015801240114015C01480114011801480114014C012000C
161
                34
310
000101404C
330
5A35
 94
        0
  0
ACAD_PROXY_OBJECT
  5
5A4C
330
0
100
AcDbProxyObject
 90
      499
 91
      540
 95
    65563
 70
     0
162
               266
311
441040134010401380138013C01500114014001480114014C011401480158011400C
161
                34
310
000101404C
330
5A35
 94
        0
  0
ACAD_PROXY_OBJECT
  5
5A4D
330
0
100
AcDbProxyObject
 90
      499
 91
      540
 95
    65563
 70
     0
162
               266
311
441040134010401540150013C01100124013401040148014801040138011C011400C
161
                34
310
000101404C
330
5A35
 94
        0
  0
ACAD_PROXY_OBJECT
  5
5A4E
330
0
100
AcDbProxyObject
 90
      499
 91
      540
 95
    65563
 70
     0
162
               186
311
42D04013401140160015001480114011801100124013400C
161
                26
310
0001018C
330
5A35
 94
        0
  0
ACAD_PROXY_OBJECT
  5
5A4F
330
0
100
AcDbProxyObject
 90
      499
 91
      540
 95
    65563
 70
     0
162
               186
311
42D040134015001040140010401380138013C0150011400C
161
                34
310
000101404C
330
5A35
 94
        0
  0
ACAD_PROXY_OBJECT
  5
5A50
330
0
100
AcDbProxyObject
 90
      499
 91
      540
 95
    65563
 70
     0
162
               138
311
421040134010401540150013C010C013000C
161
                34
310
000101404C
330
5A35
 94
        0
  0
ACAD_PROXY_OBJECT
  5
5A51
330
0
100
AcDbProxyObject
 90
      499
 91
      540
 95
    65563
 70
     0
162
               138
311
421040134010C0130011801140104015000C
161
                34
310
000101414C
330
5A35
 94
        0
  0
ACAD_PROXY_OBJECT
  5
5A52
330
0
100
AcDbProxyObject
 90
      499
 91
      540
 95
    65563
 70
     0
162
               138
311
421040134010C0130015801240114015C00C
161
                34
310
0001014FCC
330
5A35
 94
        0
  0
ACAD_PROXY_OBJECT
  5
5A53
330
0
100
AcDbProxyObject
 90
      499
 91
      540
 95
    65563
 70
     0
162
               218
311
4350401340120012401100114016801140148013C01100124013400C
161
                34
310
000101404C
330
5A35
 94
        0
  0
ACAD_PROXY_OBJECT
  5
5A54
330
0
100
AcDbProxyObject
 90
      499
 91
      540
 95
    65563
 70
     0
162
               170
311
429040134012001040150010C01200124014C013C00C
161
                34
310
000101404C
330
5A35
 94
        0
  0
ACAD_PROXY_OBJECT
  5
5A55
330
0
100
AcDbProxyObject
 90
      499
 91
      540
 95
    65563
 70
     0
162
               234
311
439040134014C01240138011C0130011401200104015001300104016400C
161
                26
310
0001018C
330
5A35
 94
        0
  0
ACAD_PROXY_OBJECT
  5
5A56
330
0
100
AcDbProxyObject
 90
      499
 91
      540
 95
    65563
 70
     0
162
               186
311
42D0401340110015C011C0118013001100124014C014000C
161
                26
310
0001018C
330
5A35
 94
        0
  0
ACAD_PROXY_OBJECT
  5
5A57
330
0
100
AcDbProxyObject
 90
      499
 91
      540
 95
    65563
 70
     0
162
               138
311
421040134010401540150013C0120013800C
161
                26
310
0001018C
330
5A35
 94
        0
  0
ACAD_PROXY_OBJECT
  5
5A58
330
0
100
AcDbProxyObject
 90
      499
 91
      540
 95
    65563
 70
     0
162
               154
311
42504013401200138010C013C01540138015000C
161
                34
310
000101404C
330
5A35
 94
        0
  0
ACAD_PROXY_OBJECT
  5
5A59
330
0
100
AcDbProxyObject
 90
      499
 91
      540
 95
    65563
 70
     0
162
               138
311
4210401340120013801400148013C012800C
161
                34
310
000101404C
330
5A35
 94
        0
  0
ACAD_PROXY_OBJECT
  5
5A5A
330
0
100
AcDbProxyObject
 90
      499
 91
      540
 95
    65563
 70
     0
162
               138
311
42104013401200138015001640140011400C
161
                34
310
00010141CC
330
5A35
 94
        0
  0
ACAD_PROXY_OBJECT
  5
5A5B
330
0
100
AcDbProxyObject
 90
      499
 91
      540
 95
    65563
 70
     0
162
               138
311
42104013401200138015801240114015C00C
161
                34
310
00010143CC
330
5A35
 94
        0
  0
ACAD_PROXY_OBJECT
  5
5A5C
330
0
100
AcDbProxyObject
 90
      499
 91
      540
 95
    65563
 70
     0
162
               218
311
435040134014C0114010C01500124013C0138010C013C0140016400C
161
                26
310
0001018C
330
5A35
 94
        0
  0
ACAD_PROXY_OBJECT
  5
5A5D
330
0
100
AcDbProxyObject
 90
      499
 91
      540
 95
    65563
 70
     0
162
               138
311
421040134010C013001400148013C012800C
161
                34
310
00010140CC
330
5A35
 94
        0
  0
ACAD_PROXY_OBJECT
  5
5A5E
330
0
100
AcDbProxyObject
 90
      499
 91
      552
 95
    65563
 70
     0
162
               234
311
439040134010401540150013C012001040150010C01200148013C015000C
161
                90
310
0001010000000000000B900C
330
5A35
 94
        0
  0
ACAD_PROXY_OBJECT
  5
5A5F
330
0
100
AcDbProxyObject
 90
      499
 91
      540
 95
    65563
 70
     0
162
               234
311
439040134010401540150013C012001040150010C012001100114015000C
161
                34
310
000101404C
330
5A35
 94
        0
  0
ACAD_PROXY_OBJECT
  5
5A6B
330
0
100
AcDbProxyObject
 90
      499
 91
      561
 95
    65563
 70
     0
162
               212
311
421040134010C01540148014C01500110010441004E0053004900C
161
                32
310
0001010100
330
5A35
 94
        0
  0
ACAD_PROXY_OBJECT
  5
5A6D
330
0
100
AcDbProxyObject
 90
      499
 91
      563
 95
    65563
 70
     0
162
              1192
311
4793401BC01B80080011801940188008000C000D4008000C400E400E800D000DC00E800D400CC008000C800C000C000DC008000A001540150010C00A40109310031002E0030002E00360032002E0030004615001D4019400800128018401B8008000C800C8008000C400C400E800C400C800E800D400DC008000C800C000C0
311
00E00109310031002E0030002E00360032002E00300000
161
               114
310
0001000000009AA6A9AA404040404C
330
5A35
330
5A6E
330
5A6F
330
5A71
330
0
 94
        0
  0
ACAD_PROXY_OBJECT
  5
5A6E
330
0
100
AcDbProxyObject
 90
      499
 91
      564
 95
    65563
 70
     0
162
                 0
161
                70
310
0001AAA80820000000
330
5A35
330
5A6E
330
5A6E
 94
        0
  0
ACAD_PROXY_OBJECT
  5
5A6F
330
0
100
AcDbProxyObject
 90
      499
 91
      565
 95
    65563
 70
     0
162
                 0
161
                48
310
000100000000C7
330
5A35
330
0
330
5A70
330
0
330
0
 94
        0
  0
ACAD_PROXY_OBJECT
  5
5A70
330
0
100
AcDbProxyObject
 90
      499
 91
      566
 95
    65563
 70
     0
162
                 0
161
                40
310
000100AAAA00
330
5A35
330
0
 94
        0
  0
ACAD_PROXY_OBJECT
  5
5A76
330
0
100
AcDbProxyObject
 90
      499
 91
      561
 95
    65563
 70
     0
162
               276
311
431040104010C013C01340140011001180138010401340114010443004F004D005000C
161
                32
310
0001010100
330
5A35
 94
        0
  0
ACAD_PROXY_OBJECT
  5
5A77
330
0
100
AcDbProxyObject
 90
      499
 91
      561
 95
    65563
 70
     0
162
               340
311
4390401040118013C0130011001140148011001180138010401340114010646006F006C00640065007200C
161
                32
310
0001010100
330
5A35
 94
        0
  0
ACAD_PROXY_OBJECT
  5
5A78
330
0
100
AcDbProxyObject
 90
      499
 91
      561
 95
    65563
 70
     0
162
               276
311
431040104010401380138013C01100118013801040134011401042800410056002900C
161
                32
310
0001010100
330
5A35
 94
        0
  0
ACAD_PROXY_OBJECT
  5
5A79
330
0
100
AcDbProxyObject
 90
      499
 91
      561
 95
    65563
 70
     0
162
               756
311
439040104010C013C01340140015801240114015C01300124014C0150012054006F0070000A00460072006F006E0074000A00520069006700680074000A004C006500660074000A0042006F00740074006F006D000A004100750078003100C
161
                32
310
0001010100
330
5A35
 94
        0
  0
ACAD_PROXY_OBJECT
  5
5A7A
330
0
100
AcDbProxyObject
 90
      499
 91
      540
 95
    65563
 70
     0
162
               234
311
439040134014C014C0150014801040130015C01040164014C013C013800C
161
                26
310
0001018C
330
5A35
 94
        0
  0
ACAD_PROXY_OBJECT
  5
5A7F
330
0
100
AcDbProxyObject
 90
      499
 91
      571
 95
    65563
 70
     0
162
                 0
161
                32
310
0001000000
330
5A35
340
5A7C
330
5A81
330
5A7C
 94
        0
  0
ACAD_PROXY_OBJECT
  5
5A80
330
0
100
AcDbProxyObject
 90
      499
 91
      572
 95
    65563
 70
     0
162
                 0
161
                18
310
00018C
330
5A35
 94
        0
  0
ACAD_PROXY_OBJECT
  5
5A81
330
0
100
AcDbProxyObject
 90
      499
 91
      573
 95
    65563
 70
     0
162
               154
311
42510014C0134011C01180150012C0124015000C
161
                80
310
0001014140155005540000
330
5A35
330
5A7F
330
5A80
 94
        0
  0
ACAD_PROXY_OBJECT
  5
5A82
330
0
100
AcDbProxyObject
 90
      499
 91
      574
 95
    65563
 70
     0
162
                 0
161
               178
310
000100AAAAAAAC676E1DB7010E132A07BAE0EED4B2FACC
330
5A35
330
5A81
 94
        0
  0
ACAD_PROXY_OBJECT
  5
5A83
330
0
100
AcDbProxyObject
 90
      499
 91
      575
 95
    65563
 70
     0
162
                 0
161
               108
310
000190140A000000000000AAAAAC
330
5A35
330
5A84
330
5A84
330
5A84
330
5A84
330
5A84
330
0
 94
        0
  0
ACAD_PROXY_OBJECT
  5
5A84
330
0
100
AcDbProxyObject
 90
      499
 91
      576
 95
    65563
 70
     0
162
                 0
161
                51
310
00010000AAAA8C
330
5A35
330
5A83
330
5A81
 94
        0
  0
ACAD_PROXY_OBJECT
  5
5ACC
330
0
100
AcDbProxyObject
 90
      499
 91
      540
 95
    65563
 70
     0
162
               234
311
4394001B001BC01D0014C018C018401B00194013001BC018C018401B000C
161
                26
310
0001018C
330
5A35
 94
        0
  0
DICTIONARY
  5
5A31
102
{ACAD_REACTORS
330
5A30
102
}
330
5A30
100
AcDbDictionary
281
     1
  3
DWGSETTINGS
350
5A32
  3
TRANSSETTINGS
350
5A33
  0
ACAD_PROXY_OBJECT
  5
5A91
102
{ACAD_REACTORS
330
5A30
102
}
330
5A30
100
AcDbProxyObject
 90
      499
 91
      584
 95
    65563
 70
     0
162
             15824
311
404C0010441004D005F0030009013100411040134017C00C402404C8010441004D005F0032009013300411040134017C00CC02404D0010441004D005F0034009013500411040134017C00D402404D8010441004D005F0036009013700411040134017C00DC02404E0010441004D005F0038009013900411040134017C00E40
311
2408C80104010541004D005F003100300090234004100415040134017C00C400C402409240140010541004D005F003100320090230004E00415040134017C00C0013802408C40138010541004D005F0031004E0090232004E00415040134017C00C8013802408CC0138010541004D005F0033004E0090234004E0041504013
311
4017C00D0013802408D40138010541004D005F0035004E0090236004E00415040134017C00D8013802408DC0138010541004D005F0037004E0090238004E00415040134017C00E0013802408E40138010541004D005F0039004E00903320041004E00419040134017C00C400C001380240CD001040138010641004D005F003
311
10031004E00903490050004E00419040134017C00C400C80138024112C013001240138010541004D005F0043004C0090449004E0046004F00421040134017C01400104014801140118024154801040120013400D4010641004D005F0042004F0052009045600490045005700421040134017C015801240114015C014C02419
311
0801140120012401380110010641004D005F0049004E00560090554005200410049004C00415040134017C015001480240D2001240110010641004D005F00480049004400903560049005300419040134017C01580124014C024194001040148011001240134010941004D005F00500041005200440049004D009065200450
311
04600440049004D00425040134017C01480114011801100124013402411080120013801580101390041508012001380158014C010642004500480049004E00440041108013C014800C801055200410048004D00350041108013C014800CC01055200410048004D00350041108013C014800D401055200410048004D0035004
311
110C0104013000C8010134004110C0104013000CC010134004110C0104013000D4010134004110C0104013000DC010134004110C011401380138010137004110C01140138015C010137004110C01300124013801044B004C0049004E004110C013C013800C4010130004110C013C013800C8010131004110C013C013800CC0
311
10132004110C013C013800D00101320041110011401500104010134004111001240104011C010135004111001240130012401013500411100124013401400106500041005200440049004D00411100124013401480106520045004600440049004D00411180114013401380101380041518011401340140013801013800415
311
1801140134014C01400102340041004151801140134014C015001023400410041518011401340158013801013200415180114013401580150010132004112001040150010C0101380041120012401100138010133004112001240110015C01013300411200130012401380101340041120013C010C01380101370041120013
311
C010C015C010137004112401380118013C010449004E0046004F00411300114010401100101350041938017C0108012001380158010239004E0041938017C010C013C013800C4010230004E0041938017C010C013C013800C8010231004E0041938017C010C013C013800CC010232004E0041938017C010C013C013800D001
311
0232004E0041938017C010C011401380138010237004E0041938017C010C01140138015C010237004E0041938017C0110012401300124010235004E0041938017C012001040150010C010238004E0041938017C0120012401100138010233004E0041938017C012001240110015C010233004E0041938017C0130011401040
311
110010235004E0041938017C0138011C012401400103490050004E0041938017C01400120010401380103340041004E0041938017C0150010C013C0138010230004E0041938017C0150012001300124010234004E0041938017C0150013001140138010230004E0041938017C01580140013001240103320041004E0041138
311
011C01240140010249005000411400104013000C801055200410048004D003500411400104013000CC01055200410048004D003500411400104013000D401055200410048004D0035004114001200104013801023400410041140013C014C01380101350041148010C011C01380101370041148010C011C015C01013700411
311
4C01080148012C010134004114C0114010C0150010134004114C0164010800CC0101350041134014C016401340101350041150010C013C0138010130004115001200130012401013400411500124015000C801055200410048004D003500411500124015000CC01055200410048004D003500411500124015000D401055200
311
410048004D0035004115001300114013801013000415500148010401240130010554005200410049004C004115001480130012401013400411500160015000C401013600411500160015000C801013600411500160015000CC01013600411500160015000D401013600411500160015000DC010136004115801240114015C0
311
1045600490045005700411580114011001200103480049004400411580114011001580103560049005300411580140013001240102320041004116801240168010401013400404FC0200
161
              8848
310
4190349201C00030C011E44203800030C011E44201400030C011E44201800030C010FA00C00030C010FA00C00030C010FA00800030C011EA01000030C010FA00400030C010FA3F400030C0241201C00030C011EA00C00030C010FA01C00030C011E40A01C00030C011EA03800030C011EA01400030C011EA01800030C010FA
310
00C00030C010FA00C00030C010FA00800030C011EA01000030C010FA00400030C010FA3F400030C0241201C00030C011EA00C00030C010FA01C00030C011E40A00400030C010F42601000030C010F42E01C00030C011E42600400030C010F42E3F400030C0243600C00030C010F42601C00030C010F42601C00030C011E426
310
00C00030C010F42601000030C010F425538000000C0003FFFFFFFE8000000C0003FFFFFFFE8010000C30043E8020000C30047A8000000C0003FFFFFFFE8000000C0003FFFFFFFE8020000C30047A8070000C30047A81E0000C3004F28000000C0003FFFFFFFE8000000C0003FFFFFFFE8000000C0003FFFFFFFE8000000C00
310
03FFFFFFFD038000000C0003FFFFFFFD038000000C0003FFFFFFFD038000000C0003FFFFFFFD038000000C0003FFFFFFFE8000000C0003FFFFFFFE8000000C0003FFFFFFFE8000000C0003FFFFFFFE8000000C0003FFFFFFFE8000000C0003FFFFFFFE8030000C3003FFFFFFFE8000000C0003FFFFFFFE8030000C30043E80
310
00000C0003FFFFFFFE8030000C30043E8000000C0003FFFFFFFD018000000C0003FFFFFFFD038000000C0003FFFFFFFD038000000C0003FFFFFFFD018000000C0003FFFFFFFE8000000C0003FFFFFFFE8000000C0003FFFFFFFE8000000C0003FFFFFFFE8000000C0003FFFFFFFE8000000C0003FFFFFFFD038000000C0003
310
FFFFFFFD038000000C0003FFFFFFFD038000000C0003FFFFFFFD038000000C0003FFFFFFFE8000000C0003FFFFFFFE8000000C0003FFFFFFFE8000000C0003FFFFFFFD018000000C0003FFFFFFFD038000000C0003FFFFFFFD038000000C0003FFFFFFFE8000000C0003FFFFFFFE8000000C0003FFFFFFFE8000000C0003FF
310
FFFFFD038000000C0003FFFFFFFD018000000C0003FFFFFFFD038000000C0003FFFFFFFE8000000C0003FFFFFFFE8010000C30043E8020000C30047A8000000C0003FFFFFFFE8000000C0003FFFFFFFE8000000C0003FFFFFFFE8000000C0003FFFFFFFE8000000C0003FFFFFFFE8070000C300479018000000C0003FFFFFF
310
FD018020000C30047A8020000C30047A8000000C0003FFFFFFFD038000000C0003FFFFFFFD018010000C30043E8020000C30047A8000000C0003FFFFFFFE8000000C0003FFFFFFFD038000000C0003FFFFFFFE8000000C0003FFFFFFFD018030000C30043E8030000C30043E8000000C0003FFFFFFFE8070000C30047A81E0
310
000C3004F28000000C0003FFFFFFFE8000000C0003FFFFFFFD028000000C0003FFFFFFFD028000000C0003FFFFFFFE8000000C0003FFFFFFFD01AAA3F400030C010A4050F4091E40D0F4110F4151E4190F41D1E4391E4793C7F6FF
340
13
340
13
340
13
340
5A60
340
13
340
13
340
13
340
5A61
340
13
340
13
340
5A61
340
2921
340
13
340
13
340
13
340
13
340
5A60
340
13
340
13
340
13
340
5A61
340
13
340
13
340
5A61
340
2921
340
13
340
5A95
340
13
340
13
340
13
340
13
340
13
340
5A60
340
13
340
13
340
13
340
12
340
12
340
12
340
12
340
12
340
12
340
12
340
12
340
12
340
2920
340
12
340
12
340
12
340
12
340
12
340
12
340
12
340
12
340
12
340
12
340
12
340
12
340
12
340
13
340
12
340
12
340
12
340
12
340
2E2E
340
12
340
12
340
2920
340
12
340
12
340
12
340
12
340
12
340
12
340
12
340
12
340
2920
340
12
340
12
340
12
340
2E2E
340
12
340
12
340
12
340
12
340
12
340
2E2E
340
12
340
2921
340
12
340
12
340
12
340
12
340
12
340
12
340
2920
340
12
340
12
340
12
340
12
340
12
340
12
340
2E2E
340
12
340
12
340
12
340
12
340
12
340
12
340
12
340
12
340
12
340
12
340
12
340
12
340
12
340
12
340
2921
340
5A9B
 94
        0
  0
ACAD_PROXY_OBJECT
  5
5AC6
102
{ACAD_REACTORS
330
5AC1
102
}
330
5AC1
100
AcDbProxyObject
 90
      499
 91
      602
 95
    65563
 70
     0
162
               434
311
451100124013401140138014C0124013C013800B00104013401100150017C00A8017C01100124013401012A00404A801012A00404A800C
161
                11
310
43EC
 94
        0
  0
ACAD_PROXY_OBJECT
  5
5AC5
102
{ACAD_REACTORS
330
5AC1
102
}
330
5AC1
100
AcDbProxyObject
 90
      499
 91
      602
 95
    65563
 70
     0
162
               290
311
404A8010B41004D005F004600450041002D0041004D005F002A00404A801012A00404A800C
161
                11
310
43EC
 94
        0
  0
ACAD_PROXY_OBJECT
  5
5AC2
102
{ACAD_REACTORS
330
5AC1
102
}
330
5AC1
100
AcDbProxyObject
 90
      499
 91
      602
 95
    65563
 70
     0
162
               194
311
4152001040150010C012001012A00404A801012A00404A800C
161
                11
310
43EC
 94
        0
  0
ACAD_PROXY_OBJECT
  5
5AC3
102
{ACAD_REACTORS
330
5AC1
102
}
330
5AC1
100
AcDbProxyObject
 90
      499
 91
      602
 95
    65563
 70
     0
162
              1026
311
41130012401380114012738002C0038004E002C002A002D0038002C002A002D0038004E002C0041004D005F0038002C0041004D005F0038004E002C002A002D0041004D005F0038002C002A002D0041004D005F0038004E00404A801012A00441240138014C01140148015000B0014C01500110014001040148015000C8011
311
000C
161
                11
310
43EC
 94
        0
  0
ACAD_PROXY_OBJECT
  5
5AC7
102
{ACAD_REACTORS
330
5AC1
102
}
330
5AC1
100
AcDbProxyObject
 90
      499
 91
      602
 95
    65563
 70
     0
162
               290
311
40D040148010C010441004D005F003500404A801013200419240138014C01140148015000C
161
                11
310
43CC
 94
        0
  0
ACAD_PROXY_OBJECT
  5
5AC4
102
{ACAD_REACTORS
330
5AC1
102
}
330
5AC1
100
AcDbProxyObject
 90
      499
 91
      602
 95
    65563
 70
     0
162
              2034
311
5E104010C01340118010C0118014801040134011400B00104010C013401100104015001540134015001040148011C0114015000B00104010C0134011001040150015401340124011000B00104010C0134015C011401300110014C0164013400B00104010C0134014C015401480118014C0164013400B00104010C013401180
311
114010401500124011000B00104010C0134014001040148015001480114011800B00104010C01340108010401300130013C013C013800B0010401340110015001140110011C0114014C0164013400B001040134011C014C010C01480114015C010C01040130010C0150010401080130011401012A00404A801012A00404A80
311
0C
161
                11
310
43EC
 94
        0
  0
XRECORD
  5
5974
102
{ACAD_REACTORS
330
5973
102
}
330
5973
100
AcDbXrecord
280
     1
330
315F
330
3167
330
3B97
330
0
  0
DICTIONARY
  5
5B4B
330
59C3
100
AcDbDictionary
280
     1
281
     1
  3
ACAD_ROUNDTRIP_2008_TABLESTYLE_CELLSTYLEMAP
360
5B4C
  0
ACAD_PROXY_OBJECT
  5
5A90
102
{ACAD_REACTORS
330
5A8F
102
}
330
5A8F
100
AcDbProxyObject
 90
      499
 91
      583
 95
    65563
 70
     0
162
              3516
311
411040138014C01240243904018C01B4014C01D401C801980150019401E001D0014C01D001900109410063006D0046004300460053007400640043504018C01B4015C019401B0019001A401B8019C014C01D001900108410063006D004900640053007400640042D04018C01B40110018401D001D401B4014C01D001900109
311
410063006D0042004F004D005300740064004410401B4019001D00110019401D0018401A401B0014C01E401B4014C01D00190011141006D0064007400530065006300740069006F006E00530079006D005300740064004450401B4019001D0010C019401B801D0019401C8013001A401B80194014C01D00190011141006D00
311
640074005400680072006500610064004C0069006E00650053007400640042D0401B4019001D0013801BC01D00194014C01D00190010B410063006D005400610070006500720053007400640042D04018C010401B4019C0130018401E4014C01D00190010B4100630041006D006700440069006D0053007400640044504018
311
C010401B4019C012001BC01B00194010C01A0018401C801D0014C01D00190010D4100630041006D0067005400690074006C006500530074006400C
161
               705
310
630B81E85EB51B8BE3F8030000C30040540600800030C0200800030C00B81E85EB51B8BE3F4882208120281202812028120281202812028120281202812028120281202812028120281202812028120280A04809FFFE7FFFCC
340
5A9C
360
5A9D
360
5A9E
360
5A9F
360
5AA0
360
5AA1
360
5AA2
360
5AA3
360
5AA4
360
5AA5
360
5AA6
360
5AA7
360
5AA8
360
5AB3
360
5AB4
360
5ABF
360
5AC0
340
0
340
0
340
0
340
0
 94
        0
  0
ACAD_PROXY_OBJECT
  5
5A32
102
{ACAD_REACTORS
330
5A31
102
}
330
5A31
100
AcDbProxyObject
 90
      499
 91
      536
 95
    65563
 70
     0
162
              3560
311
42D10015C011C014C01140150015001240138011C014C0109430041004E00470041005200520041005900420CC00C001F000D000D401F000D800C00106430045004E0041004E004700424D000D401F000E400C001F000C400CC00D40106430045004E0044004900410041D0C01140138011001240104014C010B30002E0035
311
007C0031002E0030007C0031002E00350041D0C0114013801100124014C01500106430045004E004C0045004E004190C01140138013C01180118010943004C0049004E0041005200520041005900438C000B800C400C800D401F000C000B800C800D401F000C000B800D4010843004C0049004E00450054005900500041560
311
0130012401380114010944005700470055005300430041004C00450041D300104014C0150013C0108012801013000421340104012C0114015801240114015C010650005300430041004C00450041948011401580124014C0124010130004154C010C010401300114010332003A00310042550012401340114014C015001040
311
13401400107560045005200530049004F004E00414C400D400B800C000C001107B00440057004700530045005400540049004E004700530045004E0044007D0000
161
               548
310
40682A0A940000000000001C07E82A50000000000000601FA50000000000000701FA50000000000000701FA0A82A50A0A9FA040C0080001054152818C5F1E857C99CD0505C
 94
        0
  0
ACAD_PROXY_OBJECT
  5
5A33
102
{ACAD_REACTORS
330
5A31
102
}
330
5A31
100
AcDbProxyObject
 90
      499
 91
      536
 95
    65563
 70
     0
162
              1382
311
43550014801040138014C014C01140150015001240138011C014C0112440052004100570049004E0047005400520041004E0053004C004100540049004F004E004353C01480124011C012401380104013001300164017C013C0138010A53004F0055005200430045004C0041004E00470040D1401380154010955005000520
311
0450053004500520056004500441EC0110015C011C014C01140150015001240138011C014C01140138011001F400
161
               126
310
4060C00800041801000020A0C0080000
 94
        0
  0
CELLSTYLEMAP
  5
5B4C
102
{ACAD_REACTORS
330
5B4B
102
}
330
5B4B
100
AcDbCellStyleMap
 90
        3
300
CELLSTYLE
  1
TABLEFORMAT_BEGIN
 90
        5
170
     1
 91
        0
 92
    32768
 62
   257
 93
        1
300
CONTENTFORMAT
  1
CONTENTFORMAT_BEGIN
 90
        0
 91
        0
 92
        4
 93
        0
300

 40
0.0
140
1.0
 94
        5
 62
     0
340
17
144
0.25
309
CONTENTFORMAT_END
171
     0
 94
        6
 95
        1
302
GRIDFORMAT
  1
GRIDFORMAT_BEGIN
 90
        0
 91
        1
 62
     0
 92
       -2
340
0
 93
        0
 40
0.045
309
GRIDFORMAT_END
 95
        2
302
GRIDFORMAT
  1
GRIDFORMAT_BEGIN
 90
        0
 91
        1
 62
     0
 92
       -2
340
0
 93
        0
 40
0.045
309
GRIDFORMAT_END
 95
        4
302
GRIDFORMAT
  1
GRIDFORMAT_BEGIN
 90
        0
 91
        1
 62
     0
 92
       -2
340
0
 93
        0
 40
0.045
309
GRIDFORMAT_END
 95
        8
302
GRIDFORMAT
  1
GRIDFORMAT_BEGIN
 90
        0
 91
        1
 62
     0
 92
       -2
340
0
 93
        0
 40
0.045
309
GRIDFORMAT_END
 95
       16
302
GRIDFORMAT
  1
GRIDFORMAT_BEGIN
 90
        0
 91
        1
 62
     0
 92
       -2
340
0
 93
        0
 40
0.045
309
GRIDFORMAT_END
 95
       32
302
GRIDFORMAT
  1
GRIDFORMAT_BEGIN
 90
        0
 91
        1
 62
     0
 92
       -2
340
0
 93
        0
 40
0.045
309
GRIDFORMAT_END
309
TABLEFORMAT_END
  1
CELLSTYLE_BEGIN
 90
        1
 91
        1
300
_TITLE
309
CELLSTYLE_END
300
CELLSTYLE
  1
TABLEFORMAT_BEGIN
 90
        5
170
     1
 91
        0
 92
        0
 62
   257
 93
        1
300
CONTENTFORMAT
  1
CONTENTFORMAT_BEGIN
 90
        0
 91
        0
 92
        4
 93
        0
300

 40
0.0
140
1.0
 94
        5
 62
     0
340
17
144
0.18
309
CONTENTFORMAT_END
171
     0
 94
        6
 95
        1
302
GRIDFORMAT
  1
GRIDFORMAT_BEGIN
 90
        0
 91
        1
 62
     0
 92
       -2
340
0
 93
        0
 40
0.045
309
GRIDFORMAT_END
 95
        2
302
GRIDFORMAT
  1
GRIDFORMAT_BEGIN
 90
        0
 91
        1
 62
     0
 92
       -2
340
0
 93
        0
 40
0.045
309
GRIDFORMAT_END
 95
        4
302
GRIDFORMAT
  1
GRIDFORMAT_BEGIN
 90
        0
 91
        1
 62
     0
 92
       -2
340
0
 93
        0
 40
0.045
309
GRIDFORMAT_END
 95
        8
302
GRIDFORMAT
  1
GRIDFORMAT_BEGIN
 90
        0
 91
        1
 62
     0
 92
       -2
340
0
 93
        0
 40
0.045
309
GRIDFORMAT_END
 95
       16
302
GRIDFORMAT
  1
GRIDFORMAT_BEGIN
 90
        0
 91
        1
 62
     0
 92
       -2
340
0
 93
        0
 40
0.045
309
GRIDFORMAT_END
 95
       32
302
GRIDFORMAT
  1
GRIDFORMAT_BEGIN
 90
        0
 91
        1
 62
     0
 92
       -2
340
0
 93
        0
 40
0.045
309
GRIDFORMAT_END
309
TABLEFORMAT_END
  1
CELLSTYLE_BEGIN
 90
        2
 91
        1
300
_HEADER
309
CELLSTYLE_END
300
CELLSTYLE
  1
TABLEFORMAT_BEGIN
 90
        5
170
     1
 91
        0
 92
        0
 62
   257
 93
        1
300
CONTENTFORMAT
  1
CONTENTFORMAT_BEGIN
 90
        0
 91
        0
 92
        4
 93
        0
300

 40
0.0
140
1.0
 94
        2
 62
     0
340
17
144
0.18
309
CONTENTFORMAT_END
171
     0
 94
        6
 95
        1
302
GRIDFORMAT
  1
GRIDFORMAT_BEGIN
 90
        0
 91
        1
 62
     0
 92
       -2
340
0
 93
        0
 40
0.045
309
GRIDFORMAT_END
 95
        2
302
GRIDFORMAT
  1
GRIDFORMAT_BEGIN
 90
        0
 91
        1
 62
     0
 92
       -2
340
0
 93
        0
 40
0.045
309
GRIDFORMAT_END
 95
        4
302
GRIDFORMAT
  1
GRIDFORMAT_BEGIN
 90
        0
 91
        1
 62
     0
 92
       -2
340
0
 93
        0
 40
0.045
309
GRIDFORMAT_END
 95
        8
302
GRIDFORMAT
  1
GRIDFORMAT_BEGIN
 90
        0
 91
        1
 62
     0
 92
       -2
340
0
 93
        0
 40
0.045
309
GRIDFORMAT_END
 95
       16
302
GRIDFORMAT
  1
GRIDFORMAT_BEGIN
 90
        0
 91
        1
 62
     0
 92
       -2
340
0
 93
        0
 40
0.045
309
GRIDFORMAT_END
 95
       32
302
GRIDFORMAT
  1
GRIDFORMAT_BEGIN
 90
        0
 91
        1
 62
     0
 92
       -2
340
0
 93
        0
 40
0.045
309
GRIDFORMAT_END
309
TABLEFORMAT_END
  1
CELLSTYLE_BEGIN
 90
        3
 91
        2
300
_DATA
309
CELLSTYLE_END
  0
ACAD_PROXY_OBJECT
  5
5A9D
330
5A90
100
AcDbProxyObject
 90
      499
 91
      585
 95
    65563
 70
     0
162
                 0
161
                96
310
63020E80A0280A0280A0280800
 94
        0
  0
ACAD_PROXY_OBJECT
  5
5A9E
330
5A90
100
AcDbProxyObject
 90
      499
 91
      586
 95
    65563
 70
     0
162
                 0
161
               332
310
6310E405014050140501405014050140501405014250140501405014050140501200000000000000040C
340
5AA9
 94
        0
  0
ACAD_PROXY_OBJECT
  5
5A9F
330
5A90
100
AcDbProxyObject
 90
      499
 91
      587
 95
    65563
 70
     0
162
                 0
161
               403
310
630C199999999999E99F91F405014050140501405014050140501405014050140501405014050140501405014050140501404C
340
0
 94
        0
  0
ACAD_PROXY_OBJECT
  5
5AA0
330
5A90
100
AcDbProxyObject
 90
      499
 91
      588
 95
    65563
 70
     0
162
                 0
161
                10
310
630C
 94
        0
  0
ACAD_PROXY_OBJECT
  5
5AA1
330
5A90
100
AcDbProxyObject
 90
      499
 91
      589
 95
    65563
 70
     0
162
                 0
161
               257
310
632290EA22A7D90F49F9353333333333727F44D4CCCCCCCCCDC9FC01000061804C
340
5AAA
340
5AAB
 94
        0
  0
ACAD_PROXY_OBJECT
  5
5AA2
330
5A90
100
AcDbProxyObject
 90
      499
 91
      590
 95
    65563
 70
     0
162
             22604
311
4112401500114013401044900540045004D004CD1C01140138015001480104010C013C00B001140138015400B000C000B0012401500114013400B0011C011401380150014801040150016000B0009401CC00B000A0011C011401380134014C011C0080019C019401B8019001DC019C008000C800C800C800A40240D4401500
311
16401035100540059004C91C01140138015001480104010C013C00B001140138015400B000C000B001440150016400B0011C011401380150014801040150016000B0009401CC00B000A0011C011401380134014C011C0080019C019401B8019001DC019C008000C800C800CC00A4024113801040134011401044E0041004D0
311
045004CD1C01140138015001480104010C013C00B001140138015400B000C000B0013801040134011400B0011C011401380150014801040150016000B0009401CC00B000A0011C011401380134014C011C0080019C019401B8019001DC019C008000C800C800D800A4012C3D004900460028004900530042004C0041004E00
311
4B00280050004100520054003A004E0041004D00450029002C0042004C004F0043004B003A004E0041004D0045002C0050004100520054003A004E0041004D0045002900415100114014C010C0148010B4400450053004300520049005000540049004F004E004E91C01140138015001480104010C013C00B0011401380154
311
00B000C000B001100114014C010C01480124014001500124013C013800B0011C011401380150014801040150016000B0009401CC00B000A0011C011401380134014C011C0080019C019401B8019001DC019C008000C800C400DC00A4024214C015001040138011001040148011001085300540041004E00440041005200440
311
04DD1C01140138015001480104010C013C00B001140138015400B000C000B0014C015001040138011001040148011000B0011C011401380150014801040150016000B0009401CC00B000A0011C011401380134014C011C0080019C019401B8019001DC019C008000C800C400E000A402421340104015001140148012401040
311
13001084D004100540045005200490041004C004DD1C01140138015001480104010C013C00B001140138015400B000C000B00134010401500114014801240104013000B0011C011401380150014801040150016000B0009401CC00B000A0011C011401380134014C011C0080019C019401B8019001DC019C008000C800C800
311
C400A40241138013C0150011401044E004F00540045004CD1C01140138015001480104010C013C00B001140138015400B000C000B00138013C0150011400B0011C011401380150014801040150016000B0009401CC00B000A0011C011401380134014C011C0080019C019401B8019001DC019C008000C800C800D400A40241
311
958011401380110013C01480106560045004E0044004F0052004D51C01140138015001480104010C013C00B001140138015400B000C000B00158011401380110013C014800B0011C011401380150014801040150016000B0009401CC00B000A0011C011401380134014C011C0080019C019401B8019001DC019C008000C800
311
C800D000A402419100114014C010C014800C8010D4400450053004300520049005000540049004F004E00200032004ED1C01140138015001480104010C013C00B001140138015400B000C000B001100114014C010C01480124014001500124013C0138008000C800B0011C011401380150014801040150016000B0009401CC
311
00B000A0011C011401380134014C011C0080019C019401B8019001DC019C008000CC00D800A4024254C015001040138011001040148011000C8010A5300540041004E004400410052004400200032004E51C01140138015001480104010C013C00B001140138015400B000C000B0014C015001040138011001040148011000
311
8000C800B0011C011401380150014801040150016000B0009401CC00B000A0011C011401380134014C011C0080019C019401B8019001DC019C008000C800C800C000A40242534010401500114014801240104013000C8010A4D004100540045005200490041004C00200032004E11C01140138015001480104010C013C00B0
311
01140138015400B000C000B001340104015001140148012401040130008000C800B0011C011401380150014801040150016000B0009401CC00B000A0011C011401380134014C011C0080019C019401B8019001DC019C008000D000C000A402411340104014C014C01044D004100530053004C91C0114013801500148010401
311
0C013C00B001140138015400B000C000B001340104014C014C00B0011C011401380150014801040150016000B0009401CC00B000A0011C011401380134014C011C0080019C019401B8019001DC019C008000D000C800A4024154001480124010C01140105500052004900430045004CD1C01140138015001480104010C013C
311
00B001140138015400B000C000B0014001480124010C011400B0011C011401380150014801040150016000B0009401CC00B000A0011C011401380134014C011C0080019C019401B8019001DC019C008000D000CC00A40240D1001240134010B4D004500410053005500520045004D0045004E0054004E51C01140138015001
311
480104010C013C00B001140138015400B000C000B0013401140104014C015401480114013401140138015000B0011C011401380150014801040150016000B0009401CC00B000A0011C011401380134014C011C0080019C019401B8019001DC019C008000D000D000A40242508013C0134017C0154013801240150014C01055
311
5004E00490054005300A41CF400F0012401500114013400F801073D003C004900540045004D003E0041CF400F0012401500114013400F801073D003C004900540045004D003E0041CF400F0012401500114013400F801063D003C005100540059003E0041CF400F0012401500114013400F801073D003C004900540045004D
311
003E00AAA901310090B65006100090065006100090045006100630068000A00455CC01C401B4002401CC01C401B40024014C01C401D4018401C8019400800134019401D0019401C80028011C7300710063006D0009007300710063006D0009005300710075006100720065002000430065006E00740069006D006500740065
311
0072000A00459CC01C4019801D0002401CC01C4019801D00024014C01C401D4018401C801940080011801BC01BC01D0002801147300710069006E0009007300710069006E000900530071007500610072006500200049006E000A0043D9C018401B00024019C018401B00024011C018401B001B001BC01B80028010C710074
311
000900710074000900510075006100720074000A0046DB001C40190017C01BC01E8002401B001C40190017C01BC01E80024013001A401C401D401A401900080013C01D401B8018C01940028010A6C0009006C0009004C0069007400650072000A00441B401B0002401B401B00024013401A401B001A401B001A401D0019401
311
C80028010B79006400090079006400090059006100720064000A0042D9801D00024019801D00024011801BC01BC01D00028010B69006E00090069006E00090049006E00630068000A00429B4002401B400240134019401D0019401C80028011163006D00090063006D000900430065006E00740069006D0065007400650072
311
000A00441B401B4002401B401B40024013401A401B001A401B4019401D0019401C80028010C6C00620009006C006200090050006F0075006E0064000A00431BC01E8002401BC01E80024013C01D401B8018C01940028010967000900670009004700720061006D000A0043DB4019C002401B4019C0024013401A401B001A40
311
19C01C8018401B40028010A62007800090062007800090042006F0078000A00C
161
              5144
310
6310F40501405014069011349A4F2590CB64FD0190120280A028120280A03202269349E4B2196C9FA03202405014051C40640A8BA5C2E97CBE5024040640480A0280A3A80C81D10782C06030180C80808809014050147501904A383BFDFEFF5FBFCFD0110120280A028EA0320B41416D838E9017D9FA03202405014051D406
310
41A8BA5C2E97CBE5F23F40640480A0280A3A80C83D174B85D2F97CBE47E80C809014050147501908A20F0580C0603019010110120280A028EA0321347077FBFDFEBF7F9FA02202405014051D40642A8282DB071D202FB3F40440480A0280A3A80A0485A0681174B85D2F97CBE47E8088090140501475014090C409022E970B
310
A5F2F97C8FD0110120280A028EA028121A81A040043110F05877A1FA03202405014051E40643A8BA5C2E97CBE5F23F40640480A1E882045C0F42F5A8DC671FC0F0000618000203159AAD56AB55BEC7E566AB55AAD56FB1FA0280C566AB55AAD56FB1F959AAD56AB55BEC7E80A031218FC7E2F079DC7E4863F1F8BC1E771FA0
310
280C4863F1F8BC1E771F9218FC7E2F079DC7E80A05202566AB55AAD56FB1F959AAD56AB55BEC7E80A0280C566AB55AAD56FB1F959AAD56AB55BEC7E80A0309A4D2792C865D27E269349E4B219749FA028080159AAD56AB55BEC7E566AB55AAD56FB1FD100000000000000410200C00030C024110340D024090140510429084
310
410190A4064229014290A4290A40A000000000000785F8000000000001E17E80C010000618040380006180077BE9F1B2EDD447E1DEFA7C6CBB7511F9703D0BD6A3717C7F40683480A0482A0E832034B81E85EB51B8BE3F8020000C3008020000C3008010000C30010140501455014050140501405014050140501405014050
310
140501405014050100
340
0
340
0
 94
        0
  0
ACAD_PROXY_OBJECT
  5
5AA3
330
5A90
100
AcDbProxyObject
 90
      499
 91
      591
 95
    65563
 70
     0
162
               762
311
4BCF4011001140150010401240130008000F0011001140150010401240130017C0130010401080114013000F801700140014C010C010401300114008000F0011001140150010401240130017C01040108014C014C010C01040130011400F800C
161
               608
310
6300B81E85EB51B8CE3F48D0726A6666666666E4FC9A9999999999C93F000000000000380FD0000000000000010000000000000014400000000000000910207800030C00B81E85EB51B8CE3F00
340
2921
340
5A9C
 94
        0
  0
ACAD_PROXY_OBJECT
  5
5AA4
330
5A90
100
AcDbProxyObject
 90
      499
 91
      592
 95
    65563
 70
     0
162
               826
311
4CCF4014C0114010C01500124013C0138008000F0014C0114010C01500124013C0138017C01300104010801140130017C011801240148014C015000F800B400F0014C0114010C01500124013C0138017C01300104010801140130017C01300104014C015000F800C
161
               405
310
630031703D0BD6A3719C7E4D4CCCCCCCCCEC9F8FFFF8070000C30022103C000186004D4CCCCCCCCCEC9FC5C0F42F5A8DC671FC
340
2921
340
5A9C
 94
        0
  0
ACAD_PROXY_OBJECT
  5
5AA5
330
5A90
100
AcDbProxyObject
 90
      499
 91
      593
 95
    65563
 70
     0
162
                 0
161
               280
310
6302B8716D9CEF7C33F0A5723F0BD4A2F0FC295C8FC2F528BC3FA199999999999F99FCEF
 94
        0
  0
ACAD_PROXY_OBJECT
  5
5AA6
330
5A90
100
AcDbProxyObject
 90
      499
 91
      594
 95
    65563
 70
     0
162
                 0
161
                14
310
6324
340
0
 94
        0
  0
ACAD_PROXY_OBJECT
  5
5AA7
330
5A90
100
AcDbProxyObject
 90
      499
 91
      595
 95
    65563
 70
     0
162
             13376
311
42950019401B401C001B0018401D00194008000C40005013D003C0069006600280065007100750061006C00280048006F006C0065003A007400610070007000650064002C0022003000220029002C00220025002500630022002C0048006F006C0065003A006E006F006D0069006E0061006C0020002200200022002000690
311
06600280065007100750061006C00280048006F006C0065003A0075006E006900740073002C0022003100220029002C002200780022002C0022002D0022002900200022002000220029003E003C0069006600280065007100750061006C00280048006F006C0065003A007400610070007000650064002C002200300022002
311
9002C0048006F006C0065003A006400690061002C0048006F006C0065003A0070006900740063006800640065007300630029003E0020007B005C00460041004D004700440054003B0078007D0020003C0069006600280065007100750061006C00280048006F006C0065003A007400650072006D0069006E0061007400690
311
06F006E002C0022003000220029002C0048006F006C0065003A00640065007000740068002C0022005400480052005500220029003E005C0050007B005C00460041004D004700440054003B0076007D002500250063003C0048006F006C0065003A00630074006400690061003E0020007B005C00460041004D00470044005
311
4003B0078007D0020003C0048006F006C0065003A0063007400640065007000740068003E0042950019401B401C001B0018401D00194008000C401FE3D003C0069006600280065007100750061006C00280048006F006C0065003A007400610070007000650064002C0022003000220029002C00220025002500630022002C
311
0048006F006C0065003A006E006F006D0069006E0061006C002000220020002200200069006600280065007100750061006C00280048006F006C0065003A0075006E006900740073002C0022003100220029002C002200780022002C0022002D0022002900200022002000220029003E003C00690066002800650071007500
311
61006C00280048006F006C0065003A007400610070007000650064002C0022003000220029002C0048006F006C0065003A006400690061002C0048006F006C0065003A0070006900740063006800640065007300630029003E0020007B005C00460041004D004700440054003B0078007D0020003C00690066002800650071
311
00750061006C00280048006F006C0065003A007400650072006D0069006E006100740069006F006E002C0022003000220029002C0048006F006C0065003A00640065007000740068002C0022005400480052005500220029003E005C0050007B005C00460041004D004700440054003B0077007D002500250063003C004800
311
6F006C0065003A00630074006400690061003E002000580020003C0048006F006C0065003A006300740061006E0067006C0065003E0025002500640042950019401B401C001B0018401D00194008000C401CF3D003C0069006600280065007100750061006C00280048006F006C0065003A007400610070007000650064002
311
C0022003000220029002C00220025002500630022002C0048006F006C0065003A006E006F006D0069006E0061006C002000220020002200200069006600280065007100750061006C00280048006F006C0065003A0075006E006900740073002C0022003100220029002C002200780022002C0022002D00220029002000220
311
02000220029003E003C0069006600280065007100750061006C00280048006F006C0065003A007400610070007000650064002C0022003000220029002C0048006F006C0065003A006400690061002C0048006F006C0065003A0070006900740063006800640065007300630029003E005C0050007B005C00460041004D004
311
700440054003B0078007D0020003C0069006600280065007100750061006C00280048006F006C0065003A007400650072006D0069006E006100740069006F006E002C0022003000220029002C0048006F006C0065003A00640065007000740068002C0022005400480052005500220029003E0042950019401B401C001B001
311
8401D00194008000C801173D003C0053005400440050003A0044004500530043003E0020003C0053005400440050003A005300540044003E0042950019401B401C001B0018401D00194008000C4010C3D003C0053005400440050003A0044004500530043003E0042950019401B401C001B0018401D00194008000CC010B3D
311
003C0053005400440050003A005300540044003E00B3
161
               656
310
631084050BA4050AA4050240501406901405034050140690140501405014069014051E40D0140690140690140690340515AAAC645C0F42F5A8DC5F1F9703D0BD6A3717C7F8020000C3008030000C3004410300
360
5AB1
330
5AB1
360
5AB2
330
5AB2
360
5AB0
330
5AB0
360
5AAE
360
5AAD
360
5AAF
330
5AAE
330
5AAD
330
5AAF
 94
        0
  0
ACAD_PROXY_OBJECT
  5
5AA8
330
5A90
100
AcDbProxyObject
 90
      499
 91
      596
 95
    65563
 70
     0
162
                 0
161
                66
310
6310B40501406AAA8C
 94
        0
  0
ACAD_PROXY_OBJECT
  5
5AB3
330
5A90
100
AcDbProxyObject
 90
      499
 91
      598
 95
    65563
 70
     0
162
                 0
161
                26
310
63102A8C
340
5A91
 94
        0
  0
ACAD_PROXY_OBJECT
  5
5AB4
330
5A90
100
AcDbProxyObject
 90
      499
 91
      599
 95
    65563
 70
     0
162
               142
311
408F000F801023C003E0040DB0018C00CC00
161
               172
310
63103000000000000380FC000000000000E03F3FFFEC
340
5AB5
340
5ACB
340
0
340
5AB6
340
5AB7
340
0
340
5AB8
340
5AB9
340
5ABE
340
0
340
5AB7
340
0
 94
        0
  0
ACAD_PROXY_OBJECT
  5
5ABF
330
5A90
100
AcDbProxyObject
 90
      499
 91
      600
 95
    65563
 70
     0
162
             20912
311
44D300124014C01500080013C01180080010C013C013C0148011001240138010401500114014C0142470045004E0054005200410043004F002C0045004E0055002C0030002C004C0049005300540020004F004600200043004F004F005200440049004E0041005400450053002C00470045004E00540052004100540058002
311
C00250073002C002800470045004E004D00530047002000670065006E00640069006D007A00200033003000290043CF400F0011001940198018401D401B001D0015001A401D001B0019400F8010A48004F004C00450020005400410042004C0045004E51C01140138015001480104010C013C00B001140138015400B000C00
311
0B00120013C0130011400800150010401080130011400B0011C011401380150014801040150016000B0009401CC00B000A0011C011401380134014C011C0080019C019401B8019001A401B401E8008000CC00C400A4010F3D003C00440065006600610075006C0074005400690074006C0065003E004193C01480124011C01
311
2401380134470045004E0054005200410043004F002C0045004E0055002C0030002C004F0052004900470049004E002C00470045004E00540052004100540058002C00250073002C002800470045004E004D00530047002000670065006E00640069006D007A002000310029004193C01480124011C0124013801344700450
311
04E0054005200410043004F002C0045004E0055002C0030002C004F0052004900470049004E002C00470045004E00540052004100540058002C00250073002C002800470045004E004D00530047002000670065006E00640069006D007A0020003100290041120013C013001140132470045004E0054005200410043004F00
311
2C0045004E0055002C0030002C0048004F004C0045002C00470045004E00540052004100540058002C00250073002C002800470045004E004D00530047002000670065006E00640069006D007A00200032002900538F400F00124011800A00124014C0108013001040138012C00A0012001BC01B00194012401D0019401B40
311
0A400B0013C01C801A4019C01A401B800B00080012001BC01B00194012401D0019401B400A400F800F00124011800A00124014C0108013001040138012C00A0012001BC01B00194012401D0019401B400A400B00088008800B00080012001BC01B00194012401B80190019401E000A400F8010158004BD1C01140138015001
311
480104010C013C00B001140138015400B000C000B0016000B0011C011401380150014801040150016000B0009401CC00B000A0011C011401380134014C011C0080019C019401B8019001A401B401E8008000CC00A4010159004BD1C01140138015001480104010C013C00B001140138015400B000C000B0016400B0011C011
311
401380150014801040150016000B0009401CC00B000A0011C011401380134014C011C0080019C019401B8019001A401B401E8008000D000A4010152004BD1C01140138015001480104010C013C00B001140138015400B000C000B0014800B0011C011401380150014801040150016000B0009401CC00B000A0011C01140138
311
0134014C011C0080019C019401B8019001A401B401E8008000D800A401187B005C004600530059004D0042004F004C007C00420030007C00490030007C00430032007C00500030003B004A007D005191C01140138015001480104010C013C00B001140138015400B000C000B001EC01700118014C016401340108013C01300
311
1F0010800C001F0012400C001F0010C00C801F0014000C000EC012801F400B0011C011401380150014801040150016000B0009401CC00B000A0011C011401380134014C011C0080019C019401B8019001A401B401E8008000DC00A401032500250043004C51C01140138015001480104010C013C00B001140138015400B000
311
C000B000940094010C00B0011C011401380150014801040150016000B0009401CC00B000A0011C011401380134014C011C0080019C019401B8019001A401B401E8008000E000A4010B4400450053004300520049005000540049004F004E004E91C01140138015001480104010C013C00B001140138015400B000C000B0011
311
00114014C010C01480124014001500124013C013800B0011C011401380150014801040150016000B0009401CC00B000A0011C011401380134014C011C0080019C019401B8019001A401B401E8008000C800C000A401044900540045004D004CD1C01140138015001480104010C013C00B001140138015400B000C000B00124
311
01500114013400B0011C011401380150014801040150016000B0009401CC00B000A0011C011401380134014C011C0080019C019401B8019001A401B401E8008000C400D000A4010549004E004400450058004D11C01140138015001480104010C013C00B001140138015400B000C000B00124013801100114016000B0011C0
311
11401380150014801040150016000B0009401CC00B000A0011C011401380134014C011C0080019C019401B8019001A401B401E8008000C400D400A4010448004F004C0045004CD1C01140138015001480104010C013C00B001140138015400B000C000B00120013C0130011400B0011C011401380150014801040150016000
311
B0009401CC00B000A0011C011401380134014C011C0080019C019401B8019001A401B401E8008000C400D800A4010A48004F004C004500200049004E004400450058004E51C01140138015001480104010C013C00B001140138015400B000C000B00120013C0130011400800124013801100114016000B0011C01140138015
311
0014801040150016000B0009401CC00B000A0011C011401380134014C011C0080019C019401B8019001A401B401E8008000C400DC00A40109550053004500520020004900540045004D004E11C01140138015001480104010C013C00B001140138015400B000C000B00154014C011401480080012401500114013400B0011C
311
011401380150014801040150016000B0009401CC00B000A0011C011401380134014C011C0080019C019401B8019001A401B401E8008000C800C800A401035100540059004C91C01140138015001480104010C013C00B001140138015400B000C000B001440150016400B0011C011401380150014801040150016000B000940
311
1CC00B000A0011C011401380134014C011C0080019C019401B8019001A401B401E8008000C400E400A401085300540041004E0044004100520044004DD1C01140138015001480104010C013C00B001140138015400B000C000B0014C015001040138011001040148011000B0011C011401380150014801040150016000B000
311
9401CC00B000A0011C011401380134014C011C0080019C019401B8019001A401B401E8008000C800C400A4014E3D003C004900460028004900530042004C0041004E004B00280048006F006C0065004900740065006D0029002C004F0072006900670069006E002C00200048006F006C0065004900740065006D0029003E00
311
3C004900460028004900530042004C0041004E004B00280048006F006C0065004900740065006D0029002C00220022002C00200048006F006C00650049006E0064006500780029003E00CC
161
              6854
310
631211A3FFFFFFFD010300002E07A17AD46E2F8FE00800030C01010300002E07A17AD46E2F8FE00800030C0004078000C000000000000000000000000000000007B14AE47E17AA43F2E07A17AD46E2F8FE00800030C007B14AE47E17AA43F2E07A17AD46E2F8FE00800030C02010101E000300000000000000000000000000
310
0000001EC52B91F85EA90FCB81E85EB51B8BE3F8020000C3001EC52B91F85EA90FCB81E85EB51B8BE3F8020000C3008050E4410F4450240D0441507431014391244D154151241D144310D4400004040004041000885000080800080820010FA00010101010104002234000202000202000040A8000404000404000081D0000
310
808000808000104A000101000101030020B4000202000202020041E800040400040010008650000808000808280501A0001010001010500A1D4000202000202080044A8000404000404140089D0000808000808280115A0001010001010600229400020200020008004369100067FFFFFFF801353333333333D27F3FFFFFFF
310
C0C9A9999999999E93F9FFFFFFFE024D4CCCCCCCCCF49FCFFFFFFFF0126A6666666667A4FE7FFFFFFF811353333333333D27F3FFFFFFFC089A9999999999E93F9FFFFFFFE06CFFFFFFFF03000000000000001027FFFFFFF801353333333333B27F3FFFFFFFC009A9999999999E93F9FFFFFFFE004D4CCCCCCCCCF49FCFFFFF
310
FFF0026A6666666667A4FE7FFFFFFF801353333333333D27F3FFFFFFFC0CB81E85EB51B8DE3F9FFFFFFFE0633B33333333303204FFFFFFFF440019FFFFFFFE004D4CCCCCCCCCF49FCFFFFFFFF0326A6666666667A4FE7FFFFFFF819353333333333D27F3FFFFFFFC0C9A9999999999E93F9FFFFFFFE064D4CCCCCCCCCF49FC
310
FFFFFFFF0326A6666666667A4FE7FFFFFFF81B3FFFFFFFC0C00000000000000409FFFFFFFE004D4CCCCCCCCCEC9FCFFFFFFFF0026A6666666667A4FE7FFFFFFF819353333333333D27F3FFFFFFFC009A9999999999E93F9FFFFFFFE004D4CCCCCCCCCF49FCFFFFFFFF032E07A17AD46E378FE7FFFFFFF818CECCCCCCCCCC0C
310
813FFFFFFFD044400000010F000000448000001130000004110700010044800000103000100408000400FFFFFFFF4090100014111000000043C0000011200000044C0000010300004111000000043C00000112000000454000000FFFFFFFF8
340
0
340
0
340
0
340
0
340
5A9C
340
5A9C
 94
        0
  0
ACAD_PROXY_OBJECT
  5
5AC0
330
5A90
100
AcDbProxyObject
 90
      499
 91
      601
 95
    65563
 70
     0
162
             10564
311
411040138014C0124010641004E00530049005F004300429040138014C0124017C0150012401500154014C011541004E00530049005F00540052005F005200650076006900730069006F006E006C0069007300740061004450C008000A000C400DC00B800C001E000C800C800B800C001A401B8018C01A000A4010641004E0
311
0530049005F00430044518008000A000C800E000B800C001E000D000C000B800C001A401B8018C01A000A4010641004E00530049005F00460044508008000A000C400C400B800C001E000C400DC00B800C001A401B8018C01A000A4010641004E00530049005F00420044510008000A000C800C800B800C001E000CC00D000
311
B800C001A401B8018C01A000A4010641004E00530049005F00440044514008000A000CC00D000B800C001E000D000D000B800C001A401B8018C01A000A4010641004E00530049005F00450044104008000A000E000B800D401E000C400C400B800C001A401B8018C01A000A4010641004E00530049005F00410043954014C0
311
080015001A401D001B001940080010801B001BC018C01AC010A41004E00530049005F005400490054005500530044D0401B801CC01A40080015001A401D001B001940080010801B001BC018C01AC00800110010C010C41004E00530049005F005400490054004C004500440043004490401B801CC01A40080015001A401D00
311
1B001940080010801B001BC018C01AC00800104010B41004E00530049005F005400490054004C004500410044D0401B801CC01A40080015001A401D001B001940080010801B001BC018C01AC00800104010C010C41004E00530049005F005400490054004C004500410043004490401B801CC01A40080015001A401D001B00
311
1940080010801B001BC018C01AC00800110010B41004E00530049005F005400490054004C004500440044948019401D801A401CC01A401BC01B801B001A401CC01D000800104017C01080148017C011541004E00530049005F00420052005F005200650076006900730069006F006E006C0069007300740061004494801940
311
1D801A401CC01A401BC01B801B001A401CC01D000800104017C01500148017C011541004E00530049005F00540052005F005200650076006900730069006F006E006C00690073007400610044948019401D801A401CC01A401BC01B801B001A401CC01D000800110017C01080148017C011541004E00530049005F00420052
311
005F005200650076006900730069006F006E006C00690073007400640044948019401D801A401CC01A401BC01B801B001A401CC01D000800110017C01500148017C011541004E00530049005F00540052005F005200650076006900730069006F006E006C00690073007400640044948019401D801A401CC01A401BC01B801
311
B001A401CC01D000800104017C01080130017C011541004E00530049005F0042004C005F005200650076006900730069006F006E006C00690073007400610044948019401D801A401CC01A401BC01B801B001A401CC01D000800104017C01500130017C011541004E00530049005F0054004C005F005200650076006900730
311
069006F006E006C00690073007400610044948019401D801A401CC01A401BC01B801B001A401CC01D000800110017C01080130017C011541004E00530049005F0042004C005F005200650076006900730069006F006E006C00690073007400640044948019401D801A401CC01A401BC01B801B001A401CC01D000800110017
311
C01500130017C011541004E00530049005F0054004C005F005200650076006900730069006F006E006C006900730074006400C
161
                50
310
6319741905420C
 94
        0
  0
ACAD_PROXY_OBJECT
  5
5AB1
330
0
100
AcDbProxyObject
 90
      499
 91
      597
 95
    65563
 70
     0
162
              4364
311
42950019401B401C001B0018401D00194008000C40005013D003C0069006600280065007100750061006C00280048006F006C0065003A007400610070007000650064002C0022003000220029002C00220025002500630022002C0048006F006C0065003A006E006F006D0069006E0061006C0020002200200022002000690
311
06600280065007100750061006C00280048006F006C0065003A0075006E006900740073002C0022003100220029002C002200780022002C0022002D0022002900200022002000220029003E003C0069006600280065007100750061006C00280048006F006C0065003A007400610070007000650064002C002200300022002
311
9002C0048006F006C0065003A006400690061002C0048006F006C0065003A0070006900740063006800640065007300630029003E0020007B005C00460041004D004700440054003B0078007D0020003C0069006600280065007100750061006C00280048006F006C0065003A007400650072006D0069006E0061007400690
311
06F006E002C0022003000220029002C0048006F006C0065003A00640065007000740068002C0022005400480052005500220029003E005C0050007B005C00460041004D004700440054003B0076007D002500250063003C0048006F006C0065003A00630074006400690061003E0020007B005C00460041004D00470044005
311
4003B0078007D0020003C0048006F006C0065003A0063007400640065007000740068003E00C
161
                28
310
6320101C
 94
        0
  0
ACAD_PROXY_OBJECT
  5
5AB2
330
0
100
AcDbProxyObject
 90
      499
 91
      597
 95
    65563
 70
     0
162
              4244
311
42950019401B401C001B0018401D00194008000C401FE3D003C0069006600280065007100750061006C00280048006F006C0065003A007400610070007000650064002C0022003000220029002C00220025002500630022002C0048006F006C0065003A006E006F006D0069006E0061006C002000220020002200200069006
311
600280065007100750061006C00280048006F006C0065003A0075006E006900740073002C0022003100220029002C002200780022002C0022002D0022002900200022002000220029003E003C0069006600280065007100750061006C00280048006F006C0065003A007400610070007000650064002C00220030002200290
311
02C0048006F006C0065003A006400690061002C0048006F006C0065003A0070006900740063006800640065007300630029003E0020007B005C00460041004D004700440054003B0078007D0020003C0069006600280065007100750061006C00280048006F006C0065003A007400650072006D0069006E006100740069006
311
F006E002C0022003000220029002C0048006F006C0065003A00640065007000740068002C0022005400480052005500220029003E005C0050007B005C00460041004D004700440054003B0077007D002500250063003C0048006F006C0065003A00630074006400690061003E002000580020003C0048006F006C0065003A0
311
06300740061006E0067006C0065003E00250025006400C
161
                28
310
6320101C
 94
        0
  0
ACAD_PROXY_OBJECT
  5
5AB0
330
0
100
AcDbProxyObject
 90
      499
 91
      597
 95
    65563
 70
     0
162
              3492
311
42950019401B401C001B0018401D00194008000C401CF3D003C0069006600280065007100750061006C00280048006F006C0065003A007400610070007000650064002C0022003000220029002C00220025002500630022002C0048006F006C0065003A006E006F006D0069006E0061006C002000220020002200200069006
311
600280065007100750061006C00280048006F006C0065003A0075006E006900740073002C0022003100220029002C002200780022002C0022002D0022002900200022002000220029003E003C0069006600280065007100750061006C00280048006F006C0065003A007400610070007000650064002C00220030002200290
311
02C0048006F006C0065003A006400690061002C0048006F006C0065003A0070006900740063006800640065007300630029003E005C0050007B005C00460041004D004700440054003B0078007D0020003C0069006600280065007100750061006C00280048006F006C0065003A007400650072006D0069006E00610074006
311
9006F006E002C0022003000220029002C0048006F006C0065003A00640065007000740068002C0022005400480052005500220029003E00C
161
                28
310
6320101C
 94
        0
  0
ACAD_PROXY_OBJECT
  5
5AAE
330
0
100
AcDbProxyObject
 90
      499
 91
      597
 95
    65563
 70
     0
162
               548
311
42950019401B401C001B0018401D00194008000C801173D003C0053005400440050003A0044004500530043003E0020003C0053005400440050003A005300540044003E00C
161
                28
310
6320101C
 94
        0
  0
ACAD_PROXY_OBJECT
  5
5AAD
330
0
100
AcDbProxyObject
 90
      499
 91
      597
 95
    65563
 70
     0
162
               372
311
42950019401B401C001B0018401D00194008000C4010C3D003C0053005400440050003A0044004500530043003E00C
161
                28
310
6320101C
 94
        0
  0
ACAD_PROXY_OBJECT
  5
5AAF
330
0
100
AcDbProxyObject
 90
      499
 91
      597
 95
    65563
 70
     0
162
               356
311
42950019401B401C001B0018401D00194008000CC010B3D003C0053005400440050003A005300540044003E00C
161
                28
310
6320101C
 94
        0
  0
ENDSEC
  0
EOF
