  0
SECTION
  2
HEADER
  9
$ACADVER
  1
AC1024
  9
$ACADMAINTVER
 70
    37
  9
$DWGCODEPAGE
  3
ANSI_1252
  9
$LASTSAVEDBY
  1
jtigges
  9
$INSBASE
 10
0.0
 20
0.0
 30
0.0
  9
$EXTMIN
 10
-0.000976487995338
 20
-0.0006370058407015
 30
-0.0015258207003583
  9
$EXTMAX
 10
32.00097663700882
 20
20.87563710304889
 30
0.0000000349246037
  9
$LIMMIN
 10
0.25
 20
0.25
  9
$LIMMAX
 10
12.0
 20
9.0
  9
$ORTHOMODE
 70
     0
  9
$REGENMODE
 70
     1
  9
$FILLMODE
 70
     1
  9
$QTEXTMODE
 70
     0
  9
$MIRRTEXT
 70
     0
  9
$LTSCALE
 40
1.5
  9
$ATTMODE
 70
     1
  9
$TEXTSIZE
 40
0.093
  9
$TRACEWID
 40
0.05
  9
$TEXTSTYLE
  7
STANDARD
  9
$CLAYER
  8
0
  9
$CELTYPE
  6
BYLAYER
  9
$CECOLOR
 62
   256
  9
$CELTSCALE
 40
1.0
  9
$DISPSILH
 70
     0
  9
$DIMSCALE
 40
1.0
  9
$DIMASZ
 40
0.1875
  9
$DIMEXO
 40
0.125
  9
$DIMDLI
 40
0.375
  9
$DIMRND
 40
0.0
  9
$DIMDLE
 40
0.0
  9
$DIMEXE
 40
0.09
  9
$DIMTP
 40
0.0
  9
$DIMTM
 40
0.0
  9
$DIMTXT
 40
0.1875
  9
$DIMCEN
 40
0.09375
  9
$DIMTSZ
 40
0.0
  9
$DIMTOL
 70
     0
  9
$DIMLIM
 70
     0
  9
$DIMTIH
 70
     1
  9
$DIMTOH
 70
     1
  9
$DIMSE1
 70
     0
  9
$DIMSE2
 70
     0
  9
$DIMTAD
 70
     0
  9
$DIMZIN
 70
     0
  9
$DIMBLK
  1

  9
$DIMASO
 70
     1
  9
$DIMSHO
 70
     0
  9
$DIMPOST
  1

  9
$DIMAPOST
  1

  9
$DIMALT
 70
     0
  9
$DIMALTD
 70
     2
  9
$DIMALTF
 40
25.4
  9
$DIMLFAC
 40
1.0
  9
$DIMTOFL
 70
     0
  9
$DIMTVP
 40
0.0
  9
$DIMTIX
 70
     0
  9
$DIMSOXD
 70
     0
  9
$DIMSAH
 70
     0
  9
$DIMBLK1
  1

  9
$DIMBLK2
  1

  9
$DIMSTYLE
  2
STANDARD
  9
$DIMCLRD
 70
     0
  9
$DIMCLRE
 70
     0
  9
$DIMCLRT
 70
     0
  9
$DIMTFAC
 40
1.0
  9
$DIMGAP
 40
0.1875
  9
$DIMJUST
 70
     0
  9
$DIMSD1
 70
     0
  9
$DIMSD2
 70
     0
  9
$DIMTOLJ
 70
     1
  9
$DIMTZIN
 70
     0
  9
$DIMALTZ
 70
     0
  9
$DIMALTTZ
 70
     0
  9
$DIMUPT
 70
     0
  9
$DIMDEC
 70
     5
  9
$DIMTDEC
 70
     5
  9
$DIMALTU
 70
     2
  9
$DIMALTTD
 70
     2
  9
$DIMTXSTY
  7
STANDARD
  9
$DIMAUNIT
 70
     0
  9
$DIMADEC
 70
     0
  9
$DIMALTRND
 40
0.0
  9
$DIMAZIN
 70
     0
  9
$DIMDSEP
 70
    46
  9
$DIMATFIT
 70
     0
  9
$DIMFRAC
 70
     2
  9
$DIMLDRBLK
  1

  9
$DIMLUNIT
 70
     5
  9
$DIMLWD
 70
    -2
  9
$DIMLWE
 70
    -2
  9
$DIMTMOVE
 70
     0
  9
$DIMFXL
 40
1.0
  9
$DIMFXLON
 70
     0
  9
$DIMJOGANG
 40
0.7853981633974483
  9
$DIMTFILL
 70
     0
  9
$DIMTFILLCLR
 70
     0
  9
$DIMARCSYM
 70
     0
  9
$DIMLTYPE
  6

  9
$DIMLTEX1
  6

  9
$DIMLTEX2
  6

  9
$DIMTXTDIRECTION
 70
     0
  9
$LUNITS
 70
     5
  9
$LUPREC
 70
     5
  9
$SKETCHINC
 40
0.1
  9
$FILLETRAD
 40
0.0
  9
$AUNITS
 70
     1
  9
$AUPREC
 70
     4
  9
$MENU
  1
acad
  9
$ELEVATION
 40
0.0
  9
$PELEVATION
 40
0.0
  9
$THICKNESS
 40
0.0
  9
$LIMCHECK
 70
     0
  9
$CHAMFERA
 40
0.0
  9
$CHAMFERB
 40
0.0
  9
$CHAMFERC
 40
0.0
  9
$CHAMFERD
 40
0.0
  9
$SKPOLY
 70
     0
  9
$TDCREATE
 40
2448645.618410996
  9
$TDUCREATE
 40
2448645.868410995
  9
$TDUPDATE
 40
2456721.608276562
  9
$TDUUPDATE
 40
2456721.858276563
  9
$TDINDWG
 40
0.0683224653
  9
$TDUSRTIMER
 40
0.0683224653
  9
$USRTIMER
 70
     1
  9
$ANGBASE
 50
0.0
  9
$ANGDIR
 70
     0
  9
$PDMODE
 70
     0
  9
$PDSIZE
 40
0.0
  9
$PLINEWID
 40
0.0
  9
$SPLFRAME
 70
     0
  9
$SPLINETYPE
 70
     6
  9
$SPLINESEGS
 70
     8
  9
$HANDSEED
  5
1518
  9
$SURFTAB1
 70
     6
  9
$SURFTAB2
 70
     6
  9
$SURFTYPE
 70
     6
  9
$SURFU
 70
     6
  9
$SURFV
 70
     6
  9
$UCSBASE
  2

  9
$UCSNAME
  2

  9
$UCSORG
 10
0.0
 20
0.0
 30
0.0
  9
$UCSXDIR
 10
1.0
 20
0.0
 30
0.0
  9
$UCSYDIR
 10
0.0
 20
1.0
 30
0.0
  9
$UCSORTHOREF
  2

  9
$UCSORTHOVIEW
 70
     0
  9
$UCSORGTOP
 10
0.0
 20
0.0
 30
0.0
  9
$UCSORGBOTTOM
 10
0.0
 20
0.0
 30
0.0
  9
$UCSORGLEFT
 10
0.0
 20
0.0
 30
0.0
  9
$UCSORGRIGHT
 10
0.0
 20
0.0
 30
0.0
  9
$UCSORGFRONT
 10
0.0
 20
0.0
 30
0.0
  9
$UCSORGBACK
 10
0.0
 20
0.0
 30
0.0
  9
$PUCSBASE
  2

  9
$PUCSNAME
  2

  9
$PUCSORG
 10
0.0
 20
0.0
 30
0.0
  9
$PUCSXDIR
 10
1.0
 20
0.0
 30
0.0
  9
$PUCSYDIR
 10
0.0
 20
1.0
 30
0.0
  9
$PUCSORTHOREF
  2

  9
$PUCSORTHOVIEW
 70
     0
  9
$PUCSORGTOP
 10
0.0
 20
0.0
 30
0.0
  9
$PUCSORGBOTTOM
 10
0.0
 20
0.0
 30
0.0
  9
$PUCSORGLEFT
 10
0.0
 20
0.0
 30
0.0
  9
$PUCSORGRIGHT
 10
0.0
 20
0.0
 30
0.0
  9
$PUCSORGFRONT
 10
0.0
 20
0.0
 30
0.0
  9
$PUCSORGBACK
 10
0.0
 20
0.0
 30
0.0
  9
$USERI1
 70
     0
  9
$USERI2
 70
     0
  9
$USERI3
 70
     0
  9
$USERI4
 70
     0
  9
$USERI5
 70
     0
  9
$USERR1
 40
0.0
  9
$USERR2
 40
0.0
  9
$USERR3
 40
0.0
  9
$USERR4
 40
0.0
  9
$USERR5
 40
0.0
  9
$WORLDVIEW
 70
     1
  9
$SHADEDGE
 70
     3
  9
$SHADEDIF
 70
    70
  9
$TILEMODE
 70
     1
  9
$MAXACTVP
 70
    16
  9
$PINSBASE
 10
0.0
 20
0.0
 30
0.0
  9
$PLIMCHECK
 70
     0
  9
$PEXTMIN
 10
1.000000000000000E+20
 20
1.000000000000000E+20
 30
1.000000000000000E+20
  9
$PEXTMAX
 10
-1.000000000000000E+20
 20
-1.000000000000000E+20
 30
-1.000000000000000E+20
  9
$PLIMMIN
 10
0.0
 20
0.0
  9
$PLIMMAX
 10
12.0
 20
9.0
  9
$UNITMODE
 70
     0
  9
$VISRETAIN
 70
     0
  9
$PLINEGEN
 70
     0
  9
$PSLTSCALE
 70
     0
  9
$TREEDEPTH
 70
  3020
  9
$CMLSTYLE
  2
STANDARD
  9
$CMLJUST
 70
     0
  9
$CMLSCALE
 40
1.0
  9
$PROXYGRAPHICS
 70
     1
  9
$MEASUREMENT
 70
     0
  9
$CELWEIGHT
370
    -1
  9
$ENDCAPS
280
     0
  9
$JOINSTYLE
280
     0
  9
$LWDISPLAY
290
     0
  9
$INSUNITS
 70
     0
  9
$HYPERLINKBASE
  1

  9
$STYLESHEET
  1

  9
$XEDIT
290
     1
  9
$CEPSNTYPE
380
     0
  9
$PSTYLEMODE
290
     1
  9
$FINGERPRINTGUID
  2
{FAE72C29-AA40-4F2E-B64F-E5884B920DD3}
  9
$VERSIONGUID
  2
{13C2A5A7-3A14-4DE6-9F16-182F35622751}
  9
$EXTNAMES
290
     1
  9
$PSVPSCALE
 40
0.0
  9
$OLESTARTUP
290
     0
  9
$SORTENTS
280
   127
  9
$INDEXCTL
280
     0
  9
$HIDETEXT
280
     0
  9
$XCLIPFRAME
280
     2
  9
$HALOGAP
280
     0
  9
$OBSCOLOR
 70
   257
  9
$OBSLTYPE
280
     0
  9
$INTERSECTIONDISPLAY
280
     0
  9
$INTERSECTIONCOLOR
 70
   257
  9
$DIMASSOC
280
     1
  9
$PROJECTNAME
  1

  9
$CAMERADISPLAY
290
     0
  9
$LENSLENGTH
 40
50.0
  9
$CAMERAHEIGHT
 40
0.0
  9
$STEPSPERSEC
 40
2.0
  9
$STEPSIZE
 40
6.0
  9
$3DDWFPREC
 40
2.0
  9
$PSOLWIDTH
 40
0.25
  9
$PSOLHEIGHT
 40
4.0
  9
$LOFTANG1
 40
1.570796326794896
  9
$LOFTANG2
 40
1.570796326794896
  9
$LOFTMAG1
 40
0.0
  9
$LOFTMAG2
 40
0.0
  9
$LOFTPARAM
 70
     7
  9
$LOFTNORMALS
280
     1
  9
$LATITUDE
 40
37.795
  9
$LONGITUDE
 40
-122.394
  9
$NORTHDIRECTION
 40
0.0
  9
$TIMEZONE
 70
 -8000
  9
$LIGHTGLYPHDISPLAY
280
     1
  9
$TILEMODELIGHTSYNCH
280
     1
  9
$CMATERIAL
347
14C0
  9
$SOLIDHIST
280
     1
  9
$SHOWHIST
280
     1
  9
$DWFFRAME
280
     2
  9
$DGNFRAME
280
     0
  9
$REALWORLDSCALE
290
     1
  9
$INTERFERECOLOR
 62
     1
  9
$INTERFEREOBJVS
345
14E2
  9
$INTERFEREVPVS
346
14DF
  9
$CSHADOW
280
     0
  9
$SHADOWPLANELOCATION
 40
0.0
  0
ENDSEC
  0
SECTION
  2
CLASSES
  0
CLASS
  1
ACDBDICTIONARYWDFLT
  2
AcDbDictionaryWithDefault
  3
ObjectDBX Classes
 90
        0
 91
        1
280
     0
281
     0
  0
CLASS
  1
TABLESTYLE
  2
AcDbTableStyle
  3
ObjectDBX Classes
 90
     4095
 91
        1
280
     0
281
     0
  0
CLASS
  1
DICTIONARYVAR
  2
AcDbDictionaryVar
  3
ObjectDBX Classes
 90
        0
 91
        9
280
     0
281
     0
  0
CLASS
  1
SORTENTSTABLE
  2
AcDbSortentsTable
  3
ObjectDBX Classes
 90
        0
 91
        1
280
     0
281
     0
  0
CLASS
  1
MATERIAL
  2
AcDbMaterial
  3
ObjectDBX Classes
 90
     1153
 91
        3
280
     0
281
     0
  0
CLASS
  1
VISUALSTYLE
  2
AcDbVisualStyle
  3
ObjectDBX Classes
 90
     4095
 91
       24
280
     0
281
     0
  0
CLASS
  1
SCALE
  2
AcDbScale
  3
ObjectDBX Classes
 90
     1153
 91
       17
280
     0
281
     0
  0
CLASS
  1
MLEADERSTYLE
  2
AcDbMLeaderStyle
  3
ACDB_MLEADERSTYLE_CLASS
 90
     4095
 91
        1
280
     0
281
     0
  0
CLASS
  1
CELLSTYLEMAP
  2
AcDbCellStyleMap
  3
ObjectDBX Classes
 90
     1152
 91
        1
280
     0
281
     0
  0
ENDSEC
  0
SECTION
  2
TABLES
  0
TABLE
  2
VPORT
  5
8
330
0
100
AcDbSymbolTable
 70
     1
  0
VPORT
  5
14B9
330
8
100
AcDbSymbolTableRecord
100
AcDbViewportTableRecord
  2
*Active
 70
     0
 10
0.0
 20
0.0
 11
1.0
 21
1.0
 12
16.00000007450673
 22
10.4375000486041
 13
0.0
 23
0.0
 14
1.0
 24
1.0
 15
0.0
 25
0.0
 16
0.0
 26
0.0
 36
1.0
 17
0.0
 27
0.0
 37
0.0
 40
21.01796827704948
 41
2.163080407701019
 42
50.0
 43
0.0
 44
0.0
 50
0.0
 51
0.0
 71
     0
 72
   100
 73
     1
 74
     0
 75
     0
 76
     0
 77
     0
 78
     0
281
     0
 65
     1
110
0.0
120
0.0
130
0.0
111
1.0
121
0.0
131
0.0
112
0.0
122
1.0
132
0.0
 79
     0
146
0.0
348
14DE
 60
     3
 61
     5
292
     1
282
     1
141
0.0
142
0.0
 63
   250
421
  3355443
  0
ENDTAB
  0
TABLE
  2
LTYPE
  5
5
330
0
100
AcDbSymbolTable
 70
     1
  0
LTYPE
  5
12
330
5
100
AcDbSymbolTableRecord
100
AcDbLinetypeTableRecord
  2
BYBLOCK
 70
     0
  3

 72
    65
 73
     0
 40
0.0
  0
LTYPE
  5
13
330
5
100
AcDbSymbolTableRecord
100
AcDbLinetypeTableRecord
  2
BYLAYER
 70
     0
  3

 72
    65
 73
     0
 40
0.0
  0
LTYPE
  5
14
330
5
100
AcDbSymbolTableRecord
100
AcDbLinetypeTableRecord
  2
CONTINUOUS
 70
     0
  3
Solid line
 72
    65
 73
     0
 40
0.0
  0
ENDTAB
  0
TABLE
  2
LAYER
  5
2
330
0
100
AcDbSymbolTable
 70
     4
  0
LAYER
  5
F
102
{ACAD_XDICTIONARY
360
1509
102
}
330
2
100
AcDbSymbolTableRecord
100
AcDbLayerTableRecord
  2
0
 70
     0
 62
     7
  6
CONTINUOUS
370
    -3
390
10B4
347
14D0
  0
LAYER
  5
38
102
{ACAD_XDICTIONARY
360
150B
102
}
330
2
100
AcDbSymbolTableRecord
100
AcDbLayerTableRecord
  2
DIM
 70
     0
 62
     3
  6
CONTINUOUS
370
    -3
390
10B4
347
14D0
  0
LAYER
  5
3D
102
{ACAD_XDICTIONARY
360
150D
102
}
330
2
100
AcDbSymbolTableRecord
100
AcDbLayerTableRecord
  2
TITLE
 70
     0
 62
     1
  6
CONTINUOUS
370
    -3
390
10B4
347
14D0
  0
LAYER
  5
3E
330
2
100
AcDbSymbolTableRecord
100
AcDbLayerTableRecord
  2
DEFPOINTS
 70
     0
 62
    -7
  6
CONTINUOUS
290
     0
370
    -3
390
10B4
347
14D0
  0
ENDTAB
  0
TABLE
  2
STYLE
  5
3
330
0
100
AcDbSymbolTable
 70
     3
  0
STYLE
  5
10
330
3
100
AcDbSymbolTableRecord
100
AcDbTextStyleTableRecord
  2
STANDARD
 70
     0
 40
0.0
 41
1.0
 50
0.0
 71
     0
 42
0.093
  3
txt
  4

  0
STYLE
  5
33
330
3
100
AcDbSymbolTableRecord
100
AcDbTextStyleTableRecord
  2
ITALIC
 70
     0
 40
0.0
 41
1.0
 50
0.0
 71
     0
 42
0.2
  3
txt
  4

  0
STYLE
  5
10CA
330
3
100
AcDbSymbolTableRecord
100
AcDbTextStyleTableRecord
  2
STYLE1
 70
     0
 40
0.0
 41
1.0
 50
0.0
 71
     0
 42
0.25
  3
swiss.ttf
  4

1001
ACAD
1000
Swis721 BT
1071
       34
  0
ENDTAB
  0
TABLE
  2
VIEW
  5
6
330
0
100
AcDbSymbolTable
 70
     0
  0
ENDTAB
  0
TABLE
  2
UCS
  5
7
330
0
100
AcDbSymbolTable
 70
     0
  0
ENDTAB
  0
TABLE
  2
APPID
  5
9
330
0
100
AcDbSymbolTable
 70
     2
  0
APPID
  5
11
330
9
100
AcDbSymbolTableRecord
100
AcDbRegAppTableRecord
  2
ACAD
 70
     0
  0
APPID
  5
120C
330
9
100
AcDbSymbolTableRecord
100
AcDbRegAppTableRecord
  2
ACAD_DSTYLE_DIMTEXT_FILL
 70
     0
  0
ENDTAB
  0
TABLE
  2
DIMSTYLE
  5
A
330
0
100
AcDbSymbolTable
 70
     1
100
AcDbDimStyleTable
 71
     1
340
460
  0
DIMSTYLE
105
460
102
{ACAD_REACTORS
330
45E
330
45B
330
12BD
330
11D3
330
12DF
330
456
330
12F7
102
}
330
A
100
AcDbSymbolTableRecord
100
AcDbDimStyleTableRecord
  2
STANDARD
 70
     0
340
10
  0
ENDTAB
  0
TABLE
  2
BLOCK_RECORD
  5
1
330
0
100
AcDbSymbolTable
 70
     7
  0
BLOCK_RECORD
  5
18
102
{ACAD_XDICTIONARY
360
120A
102
}
330
1
100
AcDbSymbolTableRecord
100
AcDbBlockTableRecord
  2
*MODEL_SPACE
340
10BB
 70
     0
280
     1
281
     0
  0
BLOCK_RECORD
  5
15
330
1
100
AcDbSymbolTableRecord
100
AcDbBlockTableRecord
  2
*PAPER_SPACE
340
10BC
 70
     0
280
     1
281
     0
  0
BLOCK_RECORD
  5
10E1
330
1
100
AcDbSymbolTableRecord
100
AcDbBlockTableRecord
  2
*D0
340
0
 70
     0
280
     1
281
     0
  0
BLOCK_RECORD
  5
10EE
330
1
100
AcDbSymbolTableRecord
100
AcDbBlockTableRecord
  2
*D1
340
0
 70
     0
280
     1
281
     0
  0
BLOCK_RECORD
  5
10FB
330
1
100
AcDbSymbolTableRecord
100
AcDbBlockTableRecord
  2
*D2
340
0
 70
     0
280
     1
281
     0
  0
BLOCK_RECORD
  5
11D4
330
1
100
AcDbSymbolTableRecord
100
AcDbBlockTableRecord
  2
*D3
340
0
 70
     0
280
     1
281
     0
  0
BLOCK_RECORD
  5
12BE
330
1
100
AcDbSymbolTableRecord
100
AcDbBlockTableRecord
  2
*D4
340
0
 70
     0
280
     1
281
     0
  0
BLOCK_RECORD
  5
12E0
330
1
100
AcDbSymbolTableRecord
100
AcDbBlockTableRecord
  2
*D5
340
0
 70
     0
280
     1
281
     0
  0
BLOCK_RECORD
  5
12F8
330
1
100
AcDbSymbolTableRecord
100
AcDbBlockTableRecord
  2
*D6
340
0
 70
     0
280
     1
281
     0
  0
ENDTAB
  0
ENDSEC
  0
SECTION
  2
BLOCKS
  0
BLOCK
  5
41
330
18
100
AcDbEntity
  8
0
100
AcDbBlockBegin
  2
*MODEL_SPACE
 70
     0
 10
0.0
 20
0.0
 30
0.0
  3
*MODEL_SPACE
  1

  0
ENDBLK
  5
42
330
18
100
AcDbEntity
  8
0
100
AcDbBlockEnd
  0
BLOCK
  5
3F
330
15
100
AcDbEntity
 67
     1
  8
0
100
AcDbBlockBegin
  2
*PAPER_SPACE
 70
     0
 10
0.0
 20
0.0
 30
0.0
  3
*PAPER_SPACE
  1

  0
ENDBLK
  5
40
330
15
100
AcDbEntity
 67
     1
  8
0
100
AcDbBlockEnd
  0
BLOCK
  5
10EC
330
10E1
100
AcDbEntity
  8
0
100
AcDbBlockBegin
  2
*D0
 70
     1
 10
0.0
 20
0.0
 30
0.0
  3
*D0
  1

  0
LINE
  5
14AF
330
10E1
100
AcDbEntity
  8
DIM
 62
     0
440
 16777216
370
    -2
100
AcDbLine
 10
7.751877085651157
 20
14.65900433978924
 30
0.0
 11
7.751877085651157
 21
16.17047488585028
 31
0.0
  0
LINE
  5
14B0
330
10E1
100
AcDbEntity
  8
DIM
 62
     0
440
 16777216
370
    -2
100
AcDbLine
 10
16.00187708565116
 20
14.65900433978924
 30
0.0
 11
16.00187708565116
 21
16.17047488585028
 31
0.0
  0
LINE
  5
14B1
330
10E1
100
AcDbEntity
  8
DIM
 62
     0
440
 16777216
370
    -2
100
AcDbLine
 10
7.939377085651157
 20
16.08047488585028
 30
0.0
 11
11.33000208565116
 21
16.08047488585028
 31
0.0
  0
LINE
  5
14B2
330
10E1
100
AcDbEntity
  8
DIM
 62
     0
440
 16777216
370
    -2
100
AcDbLine
 10
15.81437708565116
 20
16.08047488585028
 30
0.0
 11
12.42375208565116
 21
16.08047488585028
 31
0.0
  0
SOLID
  5
14B3
330
10E1
100
AcDbEntity
  8
DIM
 62
     0
440
 16777216
100
AcDbTrace
 10
7.939377085651157
 20
16.11172488585028
 30
0.0
 11
7.939377085651157
 21
16.04922488585028
 31
0.0
 12
7.751877085651157
 22
16.08047488585028
 32
0.0
 13
7.751877085651157
 23
16.08047488585028
 33
0.0
  0
SOLID
  5
14B4
330
10E1
100
AcDbEntity
  8
DIM
 62
     0
440
 16777216
100
AcDbTrace
 10
15.81437708565116
 20
16.11172488585028
 30
0.0
 11
15.81437708565116
 21
16.04922488585028
 31
0.0
 12
16.00187708565116
 22
16.08047488585028
 32
0.0
 13
16.00187708565116
 23
16.08047488585028
 33
0.0
  0
MTEXT
  5
14B5
330
10E1
100
AcDbEntity
  8
DIM
 62
     0
440
 16777216
100
AcDbMText
 10
11.87687708565116
 20
16.08047488585028
 30
0.0
 40
0.1875
 41
0.0
 46
0.0
 71
     5
 72
     1
  1
\A1;8.250
 73
     1
 44
1.0
  0
POINT
  5
14B6
330
10E1
100
AcDbEntity
  8
DEFPOINTS
 62
     0
440
 16777216
100
AcDbPoint
 10
7.751877085651157
 20
14.53400433978924
 30
0.0
  0
POINT
  5
14B7
330
10E1
100
AcDbEntity
  8
DEFPOINTS
 62
     0
440
 16777216
100
AcDbPoint
 10
16.00187708565116
 20
14.53400433978924
 30
0.0
  0
POINT
  5
14B8
330
10E1
100
AcDbEntity
  8
DEFPOINTS
 62
     0
440
 16777216
100
AcDbPoint
 10
16.00187708565116
 20
16.08047488585028
 30
0.0
  0
ENDBLK
  5
10ED
330
10E1
100
AcDbEntity
  8
0
100
AcDbBlockEnd
  0
BLOCK
  5
10F9
330
10EE
100
AcDbEntity
  8
0
100
AcDbBlockBegin
  2
*D1
 70
     1
 10
0.0
 20
0.0
 30
0.0
  3
*D1
  1

  0
LINE
  5
1491
330
10EE
100
AcDbEntity
  8
DIM
 62
     0
440
 16777216
370
    -2
100
AcDbLine
 10
25.98871245828851
 20
14.97150433978924
 30
0.0
 11
25.98871245828851
 21
15.81813686731797
 31
0.0
  0
LINE
  5
1492
330
10EE
100
AcDbEntity
  8
DIM
 62
     0
440
 16777216
370
    -2
100
AcDbLine
 10
26.11371245828852
 20
14.97150433978924
 30
0.0
 11
26.11371245828852
 21
15.81813686731797
 31
0.0
  0
LINE
  5
1493
330
10EE
100
AcDbEntity
  8
DIM
 62
     0
440
 16777216
370
    -2
100
AcDbLine
 10
25.80121245828852
 20
15.72813686731797
 30
0.0
 11
25.61371245828852
 21
15.72813686731797
 31
0.0
  0
LINE
  5
1494
330
10EE
100
AcDbEntity
  8
DIM
 62
     0
440
 16777216
370
    -2
100
AcDbLine
 10
26.30121245828851
 20
15.72813686731797
 30
0.0
 11
26.48871245828852
 21
15.72813686731797
 31
0.0
  0
SOLID
  5
1495
330
10EE
100
AcDbEntity
  8
DIM
 62
     0
440
 16777216
100
AcDbTrace
 10
25.80121245828852
 20
15.75938686731797
 30
0.0
 11
25.80121245828852
 21
15.69688686731797
 31
0.0
 12
25.98871245828851
 22
15.72813686731797
 32
0.0
 13
25.98871245828851
 23
15.72813686731797
 33
0.0
  0
SOLID
  5
1496
330
10EE
100
AcDbEntity
  8
DIM
 62
     0
440
 16777216
100
AcDbTrace
 10
26.30121245828851
 20
15.75938686731797
 30
0.0
 11
26.30121245828851
 21
15.69688686731797
 31
0.0
 12
26.11371245828852
 22
15.72813686731797
 32
0.0
 13
26.11371245828852
 23
15.72813686731797
 33
0.0
  0
MTEXT
  5
1497
330
10EE
100
AcDbEntity
  8
DIM
 62
     0
440
 16777216
100
AcDbMText
 10
27.00433745828851
 20
15.72813686731797
 30
0.0
 40
0.1875
 41
0.0
 46
0.0
 71
     5
 72
     1
  1
\A1;0.125
 73
     1
 44
1.0
  0
POINT
  5
1498
330
10EE
100
AcDbEntity
  8
DEFPOINTS
 62
     0
440
 16777216
100
AcDbPoint
 10
25.98871245828851
 20
14.84650433978924
 30
0.0
  0
POINT
  5
1499
330
10EE
100
AcDbEntity
  8
DEFPOINTS
 62
     0
440
 16777216
100
AcDbPoint
 10
26.11371245828852
 20
14.84650433978924
 30
0.0
  0
POINT
  5
149A
330
10EE
100
AcDbEntity
  8
DEFPOINTS
 62
     0
440
 16777216
100
AcDbPoint
 10
26.11371245828852
 20
15.72813686731797
 30
0.0
  0
ENDBLK
  5
10FA
330
10EE
100
AcDbEntity
  8
0
100
AcDbBlockEnd
  0
BLOCK
  5
1106
330
10FB
100
AcDbEntity
  8
0
100
AcDbBlockBegin
  2
*D2
 70
     1
 10
0.0
 20
0.0
 30
0.0
  3
*D2
  1

  0
LINE
  5
149B
330
10FB
100
AcDbEntity
  8
DIM
 62
     0
440
 16777216
370
    -2
100
AcDbLine
 10
7.314377085651155
 20
3.971504339789238
 30
0.0
 11
3.37499821565025
 21
3.971504339789239
 31
0.0
  0
LINE
  5
149C
330
10FB
100
AcDbEntity
  8
DIM
 62
     0
440
 16777216
370
    -2
100
AcDbLine
 10
7.314377085651156
 20
14.84650433978924
 30
0.0
 11
3.374998215650252
 21
14.84650433978924
 31
0.0
  0
LINE
  5
149D
330
10FB
100
AcDbEntity
  8
DIM
 62
     0
440
 16777216
370
    -2
100
AcDbLine
 10
3.46499821565025
 20
4.159004339789239
 30
0.0
 11
3.464998215650251
 21
9.127754339789239
 31
0.0
  0
LINE
  5
149E
330
10FB
100
AcDbEntity
  8
DIM
 62
     0
440
 16777216
370
    -2
100
AcDbLine
 10
3.464998215650252
 20
14.65900433978924
 30
0.0
 11
3.464998215650251
 21
9.690254339789239
 31
0.0
  0
SOLID
  5
149F
330
10FB
100
AcDbEntity
  8
DIM
 62
     0
440
 16777216
100
AcDbTrace
 10
3.43374821565025
 20
4.159004339789239
 30
0.0
 11
3.49624821565025
 21
4.159004339789239
 31
0.0
 12
3.46499821565025
 22
3.971504339789239
 32
0.0
 13
3.46499821565025
 23
3.971504339789239
 33
0.0
  0
SOLID
  5
14A0
330
10FB
100
AcDbEntity
  8
DIM
 62
     0
440
 16777216
100
AcDbTrace
 10
3.433748215650252
 20
14.65900433978924
 30
0.0
 11
3.496248215650252
 21
14.65900433978924
 31
0.0
 12
3.464998215650252
 22
14.84650433978924
 32
0.0
 13
3.464998215650252
 23
14.84650433978924
 33
0.0
  0
MTEXT
  5
14A1
330
10FB
100
AcDbEntity
  8
DIM
 62
     0
440
 16777216
100
AcDbMText
 10
3.46499821565025
 20
9.409004339789239
 30
0.0
 40
0.1875
 41
0.0
 46
0.0
 71
     5
 72
     1
  1
\A1;10 7/8
 73
     1
 44
1.0
  0
POINT
  5
14A2
330
10FB
100
AcDbEntity
  8
DEFPOINTS
 62
     0
440
 16777216
100
AcDbPoint
 10
7.439377085651155
 20
3.971504339789238
 30
0.0
  0
POINT
  5
14A3
330
10FB
100
AcDbEntity
  8
DEFPOINTS
 62
     0
440
 16777216
100
AcDbPoint
 10
7.439377085651156
 20
14.84650433978924
 30
0.0
  0
POINT
  5
14A4
330
10FB
100
AcDbEntity
  8
DEFPOINTS
 62
     0
440
 16777216
100
AcDbPoint
 10
3.464998215650252
 20
14.84650433978924
 30
0.0
  0
ENDBLK
  5
1107
330
10FB
100
AcDbEntity
  8
0
100
AcDbBlockEnd
  0
BLOCK
  5
11DF
330
11D4
100
AcDbEntity
  8
0
100
AcDbBlockBegin
  2
*D3
 70
     1
 10
0.0
 20
0.0
 30
0.0
  3
*D3
  1

  0
LINE
  5
14A5
330
11D4
100
AcDbEntity
  8
DIM
 62
     0
440
 16777216
370
    -2
100
AcDbLine
 10
7.439377085651159
 20
14.97150433978924
 30
0.0
 11
7.439377085651159
 21
17.36922024443982
 31
0.0
  0
LINE
  5
14A6
330
11D4
100
AcDbEntity
  8
DIM
 62
     0
440
 16777216
370
    -2
100
AcDbLine
 10
16.31437708565116
 20
14.97150433978924
 30
0.0
 11
16.31437708565116
 21
17.36922024443982
 31
0.0
  0
LINE
  5
14A7
330
11D4
100
AcDbEntity
  8
DIM
 62
     0
440
 16777216
370
    -2
100
AcDbLine
 10
7.626877085651159
 20
17.27922024443983
 30
0.0
 11
11.25187708565116
 21
17.27922024443983
 31
0.0
  0
LINE
  5
14A8
330
11D4
100
AcDbEntity
  8
DIM
 62
     0
440
 16777216
370
    -2
100
AcDbLine
 10
16.12687708565116
 20
17.27922024443983
 30
0.0
 11
12.50187708565116
 21
17.27922024443983
 31
0.0
  0
SOLID
  5
14A9
330
11D4
100
AcDbEntity
  8
DIM
 62
     0
440
 16777216
100
AcDbTrace
 10
7.626877085651159
 20
17.31047024443983
 30
0.0
 11
7.626877085651159
 21
17.24797024443982
 31
0.0
 12
7.439377085651159
 22
17.27922024443983
 32
0.0
 13
7.439377085651159
 23
17.27922024443983
 33
0.0
  0
SOLID
  5
14AA
330
11D4
100
AcDbEntity
  8
DIM
 62
     0
440
 16777216
100
AcDbTrace
 10
16.12687708565116
 20
17.31047024443983
 30
0.0
 11
16.12687708565116
 21
17.24797024443982
 31
0.0
 12
16.31437708565116
 22
17.27922024443983
 32
0.0
 13
16.31437708565116
 23
17.27922024443983
 33
0.0
  0
MTEXT
  5
14AB
330
11D4
100
AcDbEntity
  8
DIM
 62
     0
440
 16777216
100
AcDbMText
 10
11.87687708565116
 20
17.27922024443983
 30
0.0
 40
0.1875
 41
0.0
 46
0.0
 71
     5
 72
     1
  1
\A1;8 7/8
 73
     1
 44
1.0
  0
POINT
  5
14AC
330
11D4
100
AcDbEntity
  8
DEFPOINTS
 62
     0
440
 16777216
100
AcDbPoint
 10
7.439377085651159
 20
14.84650433978924
 30
0.0
  0
POINT
  5
14AD
330
11D4
100
AcDbEntity
  8
DEFPOINTS
 62
     0
440
 16777216
100
AcDbPoint
 10
16.31437708565116
 20
14.84650433978924
 30
0.0
  0
POINT
  5
14AE
330
11D4
100
AcDbEntity
  8
DEFPOINTS
 62
     0
440
 16777216
100
AcDbPoint
 10
16.31437708565116
 20
17.27922024443983
 30
0.0
  0
ENDBLK
  5
11E0
330
11D4
100
AcDbEntity
  8
0
100
AcDbBlockEnd
  0
BLOCK
  5
12C9
330
12BE
100
AcDbEntity
  8
0
100
AcDbBlockBegin
  2
*D4
 70
     1
 10
0.0
 20
0.0
 30
0.0
  3
*D4
  1

  0
LINE
  5
1473
330
12BE
100
AcDbEntity
  8
DIM
 62
     0
440
 16777216
370
    -2
100
AcDbLine
 10
7.536877085651155
 20
14.53400433978924
 30
0.0
 11
5.506758051984851
 21
14.53400433978924
 31
0.0
  0
LINE
  5
1474
330
12BE
100
AcDbEntity
  8
DIM
 62
     0
440
 16777216
370
    -2
100
AcDbLine
 10
7.536877085651155
 20
4.284004339789238
 30
0.0
 11
5.506758051984849
 21
4.284004339789238
 31
0.0
  0
LINE
  5
1475
330
12BE
100
AcDbEntity
  8
DIM
 62
     0
440
 16777216
370
    -2
100
AcDbLine
 10
5.596758051984851
 20
14.34650433978924
 30
0.0
 11
5.59675805198485
 21
9.690254339789238
 31
0.0
  0
LINE
  5
1476
330
12BE
100
AcDbEntity
  8
DIM
 62
     0
440
 16777216
370
    -2
100
AcDbLine
 10
5.596758051984849
 20
4.471504339789238
 30
0.0
 11
5.59675805198485
 21
9.127754339789238
 31
0.0
  0
SOLID
  5
1477
330
12BE
100
AcDbEntity
  8
DIM
 62
     0
440
 16777216
100
AcDbTrace
 10
5.565508051984851
 20
14.34650433978924
 30
0.0
 11
5.628008051984851
 21
14.34650433978924
 31
0.0
 12
5.596758051984851
 22
14.53400433978924
 32
0.0
 13
5.596758051984851
 23
14.53400433978924
 33
0.0
  0
SOLID
  5
1478
330
12BE
100
AcDbEntity
  8
DIM
 62
     0
440
 16777216
100
AcDbTrace
 10
5.565508051984849
 20
4.471504339789238
 30
0.0
 11
5.628008051984849
 21
4.471504339789238
 31
0.0
 12
5.596758051984849
 22
4.284004339789238
 32
0.0
 13
5.596758051984849
 23
4.284004339789238
 33
0.0
  0
MTEXT
  5
1479
330
12BE
100
AcDbEntity
  8
DIM
 62
     0
440
 16777216
100
AcDbMText
 10
5.596758051984849
 20
9.409004339789239
 30
0.0
 40
0.1875
 41
0.0
 46
0.0
 71
     5
 72
     1
  1
\A1;10.250
 73
     1
 44
1.0
  0
POINT
  5
147A
330
12BE
100
AcDbEntity
  8
DEFPOINTS
 62
     0
440
 16777216
100
AcDbPoint
 10
7.661877085651155
 20
14.53400433978924
 30
0.0
  0
POINT
  5
147B
330
12BE
100
AcDbEntity
  8
DEFPOINTS
 62
     0
440
 16777216
100
AcDbPoint
 10
7.661877085651155
 20
4.284004339789238
 30
0.0
  0
POINT
  5
147C
330
12BE
100
AcDbEntity
  8
DEFPOINTS
 62
     0
440
 16777216
100
AcDbPoint
 10
5.596758051984849
 20
4.284004339789238
 30
0.0
  0
ENDBLK
  5
12CA
330
12BE
100
AcDbEntity
  8
0
100
AcDbBlockEnd
  0
BLOCK
  5
12EB
330
12E0
100
AcDbEntity
  8
0
100
AcDbBlockBegin
  2
*D5
 70
     1
 10
0.0
 20
0.0
 30
0.0
  3
*D5
  1

  0
LINE
  5
1469
330
12E0
100
AcDbEntity
  8
DIM
 62
     0
440
 16777216
370
    -2
100
AcDbLine
 10
7.751877085651157
 20
14.78400433978924
 30
0.0
 11
7.751877085651157
 21
16.17047488585028
 31
0.0
  0
LINE
  5
146A
330
12E0
100
AcDbEntity
  8
DIM
 62
     0
440
 16777216
370
    -2
100
AcDbLine
 10
7.439377085651159
 20
15.09650433978924
 30
0.0
 11
7.439377085651159
 21
16.17047488585028
 31
0.0
  0
LINE
  5
146B
330
12E0
100
AcDbEntity
  8
DIM
 62
     0
440
 16777216
370
    -2
100
AcDbLine
 10
7.939377085651157
 20
16.08047488585028
 30
0.0
 11
8.126877085651157
 21
16.08047488585028
 31
0.0
  0
LINE
  5
146C
330
12E0
100
AcDbEntity
  8
DIM
 62
     0
440
 16777216
370
    -2
100
AcDbLine
 10
7.251877085651159
 20
16.08047488585028
 30
0.0
 11
7.064377085651159
 21
16.08047488585028
 31
0.0
  0
SOLID
  5
146D
330
12E0
100
AcDbEntity
  8
DIM
 62
     0
440
 16777216
100
AcDbTrace
 10
7.939377085651157
 20
16.11172488585028
 30
0.0
 11
7.939377085651157
 21
16.04922488585028
 31
0.0
 12
7.751877085651157
 22
16.08047488585028
 32
0.0
 13
7.751877085651157
 23
16.08047488585028
 33
0.0
  0
SOLID
  5
146E
330
12E0
100
AcDbEntity
  8
DIM
 62
     0
440
 16777216
100
AcDbTrace
 10
7.251877085651159
 20
16.11172488585028
 30
0.0
 11
7.251877085651159
 21
16.04922488585028
 31
0.0
 12
7.439377085651159
 22
16.08047488585028
 32
0.0
 13
7.439377085651159
 23
16.08047488585028
 33
0.0
  0
MTEXT
  5
146F
330
12E0
100
AcDbEntity
  8
DIM
 62
     0
440
 16777216
100
AcDbMText
 10
6.158127085651159
 20
16.08047488585028
 30
0.0
 40
0.1875
 41
0.0
 46
0.0
 71
     5
 72
     1
  1
\A1;5/16 TYP.
 73
     1
 44
1.0
  0
POINT
  5
1470
330
12E0
100
AcDbEntity
  8
DEFPOINTS
 62
     0
440
 16777216
100
AcDbPoint
 10
7.751877085651157
 20
14.65900433978924
 30
0.0
  0
POINT
  5
1471
330
12E0
100
AcDbEntity
  8
DEFPOINTS
 62
     0
440
 16777216
100
AcDbPoint
 10
7.439377085651159
 20
14.97150433978924
 30
0.0
  0
POINT
  5
1472
330
12E0
100
AcDbEntity
  8
DEFPOINTS
 62
     0
440
 16777216
100
AcDbPoint
 10
7.439377085651159
 20
16.08047488585028
 30
0.0
  0
ENDBLK
  5
12EC
330
12E0
100
AcDbEntity
  8
0
100
AcDbBlockEnd
  0
BLOCK
  5
1304
330
12F8
100
AcDbEntity
  8
0
100
AcDbBlockBegin
  2
*D6
 70
     1
 10
0.0
 20
0.0
 30
0.0
  3
*D6
  1

  0
LINE
  5
1437
330
12F8
100
AcDbEntity
  8
DIM
 62
     0
440
 16777216
370
    -2
100
AcDbLine
 10
7.411877085651155
 20
4.284004339789238
 30
0.0
 11
5.506758051984849
 21
4.284004339789238
 31
0.0
  0
LINE
  5
1438
330
12F8
100
AcDbEntity
  8
DIM
 62
     0
440
 16777216
370
    -2
100
AcDbLine
 10
7.189377085651155
 20
3.971504339789238
 30
0.0
 11
5.506758051984849
 21
3.971504339789239
 31
0.0
  0
LINE
  5
1439
330
12F8
100
AcDbEntity
  8
DIM
 62
     0
440
 16777216
370
    -2
100
AcDbLine
 10
5.596758051984849
 20
4.471504339789238
 30
0.0
 11
5.596758051984849
 21
4.659004339789238
 31
0.0
  0
LINE
  5
143A
330
12F8
100
AcDbEntity
  8
DIM
 62
     0
440
 16777216
370
    -2
100
AcDbLine
 10
5.596758051984849
 20
3.784004339789239
 30
0.0
 11
5.596758051984849
 21
3.596504339789239
 31
0.0
  0
LINE
  5
143B
330
12F8
100
AcDbEntity
  8
DIM
 62
     0
440
 16777216
370
    -2
100
AcDbLine
 10
5.596758051984849
 20
3.596504339789239
 30
0.0
 11
5.409258051984849
 21
3.596504339789239
 31
0.0
  0
SOLID
  5
143C
330
12F8
100
AcDbEntity
  8
DIM
 62
     0
440
 16777216
100
AcDbTrace
 10
5.565508051984849
 20
4.471504339789238
 30
0.0
 11
5.628008051984849
 21
4.471504339789238
 31
0.0
 12
5.596758051984849
 22
4.284004339789238
 32
0.0
 13
5.596758051984849
 23
4.284004339789238
 33
0.0
  0
SOLID
  5
143D
330
12F8
100
AcDbEntity
  8
DIM
 62
     0
440
 16777216
100
AcDbTrace
 10
5.565508051984849
 20
3.784004339789239
 30
0.0
 11
5.628008051984849
 21
3.784004339789239
 31
0.0
 12
5.596758051984849
 22
3.971504339789239
 32
0.0
 13
5.596758051984849
 23
3.971504339789239
 33
0.0
  0
MTEXT
  5
143E
330
12F8
100
AcDbEntity
  8
DIM
 62
     0
440
 16777216
100
AcDbMText
 10
4.503008051984848
 20
3.59650433978924
 30
0.0
 40
0.1875
 41
0.0
 46
0.0
 71
     5
 72
     1
  1
\A1;5/16 TYP.
 73
     1
 44
1.0
  0
POINT
  5
143F
330
12F8
100
AcDbEntity
  8
DEFPOINTS
 62
     0
440
 16777216
100
AcDbPoint
 10
7.536877085651155
 20
4.284004339789238
 30
0.0
  0
POINT
  5
1440
330
12F8
100
AcDbEntity
  8
DEFPOINTS
 62
     0
440
 16777216
100
AcDbPoint
 10
7.314377085651155
 20
3.971504339789238
 30
0.0
  0
POINT
  5
1441
330
12F8
100
AcDbEntity
  8
DEFPOINTS
 62
     0
440
 16777216
100
AcDbPoint
 10
5.596758051984849
 20
3.971504339789239
 30
0.0
  0
ENDBLK
  5
1305
330
12F8
100
AcDbEntity
  8
0
100
AcDbBlockEnd
  0
ENDSEC
  0
SECTION
  2
ENTITIES
  0
LINE
  5
3F1
330
18
100
AcDbEntity
  8
0
100
AcDbLine
 10
7.439377085651159
 20
14.84650433978924
 30
0.0
 11
16.31437708565116
 21
14.84650433978924
 31
0.0
  0
LINE
  5
3F2
330
18
100
AcDbEntity
  8
0
100
AcDbLine
 10
16.31437708565116
 20
14.84650433978924
 30
0.0
 11
16.31437708565115
 21
3.971504339789238
 31
0.0
  0
LINE
  5
3F3
330
18
100
AcDbEntity
  8
0
100
AcDbLine
 10
16.31437708565115
 20
3.971504339789238
 30
0.0
 11
7.439377085651155
 21
3.971504339789238
 31
0.0
  0
LINE
  5
3F4
330
18
100
AcDbEntity
  8
0
100
AcDbLine
 10
7.439377085651155
 20
3.971504339789238
 30
0.0
 11
7.439377085651159
 21
14.84650433978924
 31
0.0
  0
CIRCLE
  5
413
330
18
100
AcDbEntity
  8
0
100
AcDbCircle
 10
7.751877085651159
 20
14.53400433978924
 30
0.0
 40
0.125
  0
CIRCLE
  5
414
330
18
100
AcDbEntity
  8
0
100
AcDbCircle
 10
16.00187708565116
 20
14.53400433978924
 30
0.0
 40
0.125
  0
CIRCLE
  5
415
330
18
100
AcDbEntity
  8
0
100
AcDbCircle
 10
16.00187708565115
 20
4.284004339789238
 30
0.0
 40
0.125
  0
CIRCLE
  5
416
330
18
100
AcDbEntity
  8
0
100
AcDbCircle
 10
7.751877085651155
 20
4.284004339789238
 30
0.0
 40
0.125
  0
LINE
  5
417
330
18
100
AcDbEntity
  8
DIM
100
AcDbLine
 10
7.661877085651155
 20
14.53400433978924
 30
0.0
 11
7.841877085651155
 21
14.53400433978924
 31
0.0
  0
LINE
  5
418
330
18
100
AcDbEntity
  8
DIM
100
AcDbLine
 10
7.751877085651159
 20
14.44400433978923
 30
0.0
 11
7.751877085651159
 21
14.62400433978924
 31
0.0
  0
LINE
  5
419
330
18
100
AcDbEntity
  8
DIM
100
AcDbLine
 10
15.91187708565115
 20
14.53400433978924
 30
0.0
 11
16.09187708565115
 21
14.53400433978924
 31
0.0
  0
LINE
  5
41A
330
18
100
AcDbEntity
  8
DIM
100
AcDbLine
 10
16.00187708565116
 20
14.44400433978923
 30
0.0
 11
16.00187708565116
 21
14.62400433978924
 31
0.0
  0
LINE
  5
41B
330
18
100
AcDbEntity
  8
DIM
100
AcDbLine
 10
15.91187708565115
 20
4.284004339789238
 30
0.0
 11
16.09187708565115
 21
4.284004339789238
 31
0.0
  0
LINE
  5
41C
330
18
100
AcDbEntity
  8
DIM
100
AcDbLine
 10
16.00187708565115
 20
4.194004339789238
 30
0.0
 11
16.00187708565115
 21
4.374004339789237
 31
0.0
  0
LINE
  5
41D
330
18
100
AcDbEntity
  8
DIM
100
AcDbLine
 10
7.661877085651155
 20
4.284004339789238
 30
0.0
 11
7.841877085651155
 21
4.284004339789238
 31
0.0
  0
LINE
  5
41E
330
18
100
AcDbEntity
  8
DIM
100
AcDbLine
 10
7.751877085651155
 20
4.194004339789238
 30
0.0
 11
7.751877085651155
 21
4.374004339789237
 31
0.0
  0
TEXT
  5
41F
330
18
100
AcDbEntity
  8
TITLE
100
AcDbText
 10
26.15381074757547
 20
1.225802414055615
 30
0.0
 40
0.093
  1
GF
100
AcDbText
  0
TEXT
  5
420
330
18
100
AcDbEntity
  8
TITLE
100
AcDbText
 10
28.20605270223786
 20
0.0852732114125629
 30
0.0
 40
0.093
  1
ENCLOSURE
100
AcDbText
  0
TEXT
  5
422
330
18
100
AcDbEntity
  8
TITLE
100
AcDbText
 10
30.51482490123305
 20
0.0852732114125629
 30
0.0
 40
0.093
  1
HW-MP1210FG
100
AcDbText
  0
TEXT
  5
423
330
18
100
AcDbEntity
  8
TITLE
100
AcDbText
 10
26.59271010126563
 20
1.223973559146952
 30
0.0
 40
0.093
  1
5/4/06
 41
1.104583204274854
 72
     5
 11
27.15770441025222
 21
1.223973559146952
 31
0.0
100
AcDbText
  0
LINE
  5
424
330
18
100
AcDbEntity
  8
0
100
AcDbLine
 10
25.98871245828851
 20
14.84650433978924
 30
0.0
 11
26.11371245828852
 21
14.84650433978924
 31
0.0
  0
LINE
  5
425
330
18
100
AcDbEntity
  8
0
100
AcDbLine
 10
25.98871245828852
 20
3.971504339789238
 30
0.0
 11
26.11371245828852
 21
3.971504339789238
 31
0.0
  0
LINE
  5
426
330
18
100
AcDbEntity
  8
DIM
100
AcDbLine
 10
26.03121245828852
 20
14.40900433978924
 30
0.0
 11
26.07121245828852
 21
14.40900433978924
 31
0.0
  0
LINE
  5
427
330
18
100
AcDbEntity
  8
DIM
100
AcDbLine
 10
26.03121245828852
 20
14.53400433978924
 30
0.0
 11
26.07121245828852
 21
14.53400433978924
 31
0.0
  0
LINE
  5
428
330
18
100
AcDbEntity
  8
DIM
100
AcDbLine
 10
26.03121245828852
 20
14.65900433978924
 30
0.0
 11
26.07121245828852
 21
14.65900433978924
 31
0.0
  0
LINE
  5
42E
330
18
100
AcDbEntity
  8
DIM
100
AcDbLine
 10
26.11121245828852
 20
14.40900433978924
 30
0.0
 11
26.15121245828852
 21
14.40900433978924
 31
0.0
  0
LINE
  5
42F
330
18
100
AcDbEntity
  8
DIM
100
AcDbLine
 10
26.11121245828852
 20
14.65900433978924
 30
0.0
 11
26.15121245828852
 21
14.65900433978924
 31
0.0
  0
LINE
  5
430
330
18
100
AcDbEntity
  8
DIM
100
AcDbLine
 10
25.95121245828852
 20
14.40900433978923
 30
0.0
 11
25.99121245828852
 21
14.40900433978923
 31
0.0
  0
LINE
  5
431
330
18
100
AcDbEntity
  8
DIM
100
AcDbLine
 10
25.95121245828852
 20
14.65900433978923
 30
0.0
 11
25.99121245828852
 21
14.65900433978923
 31
0.0
  0
LINE
  5
432
330
18
100
AcDbEntity
  8
DIM
100
AcDbLine
 10
25.95121245828852
 20
4.409004339789232
 30
0.0
 11
25.99121245828852
 21
4.409004339789232
 31
0.0
  0
LINE
  5
433
330
18
100
AcDbEntity
  8
DIM
100
AcDbLine
 10
25.95121245828852
 20
4.159004339789229
 30
0.0
 11
25.99121245828852
 21
4.159004339789232
 31
0.0
  0
LINE
  5
434
330
18
100
AcDbEntity
  8
DIM
100
AcDbLine
 10
26.11121245828852
 20
4.409004339789239
 30
0.0
 11
26.15121245828852
 21
4.409004339789239
 31
0.0
  0
LINE
  5
435
330
18
100
AcDbEntity
  8
DIM
100
AcDbLine
 10
26.11121245828852
 20
4.159004339789236
 30
0.0
 11
26.15121245828852
 21
4.159004339789239
 31
0.0
  0
LINE
  5
436
330
18
100
AcDbEntity
  8
DIM
100
AcDbLine
 10
26.03121245828852
 20
4.409004339789239
 30
0.0
 11
26.07121245828852
 21
4.409004339789239
 31
0.0
  0
LINE
  5
437
330
18
100
AcDbEntity
  8
DIM
100
AcDbLine
 10
26.03121245828852
 20
4.284004339789236
 30
0.0
 11
26.07121245828852
 21
4.284004339789239
 31
0.0
  0
LINE
  5
438
330
18
100
AcDbEntity
  8
DIM
100
AcDbLine
 10
26.03121245828852
 20
4.159004339789236
 30
0.0
 11
26.07121245828852
 21
4.159004339789239
 31
0.0
  0
DIMENSION
  5
456
330
18
100
AcDbEntity
  8
DIM
100
AcDbDimension
280
     0
  2
*D2
 10
3.464998215650252
 20
14.84650433978924
 30
0.0
 11
3.46499821565025
 21
9.409004339789239
 31
0.0
 70
    32
 71
     5
 42
10.875
 73
     0
 74
     0
 75
     0
  3
STANDARD
100
AcDbAlignedDimension
 13
7.439377085651155
 23
3.971504339789238
 33
0.0
 14
7.439377085651157
 24
14.84650433978924
 34
0.0
 50
90.0
100
AcDbRotatedDimension
1001
ACAD
1000
DSTYLE
1002
{
1070
    41
1040
0.1875
1070
    42
1040
0.125
1070
    43
1040
0.375
1070
    44
1040
0.09
1070
   140
1040
0.1875
1070
   141
1040
0.09375
1070
   147
1040
0.1875
1070
   271
1070
     5
1070
   272
1070
     5
1070
   276
1070
     2
1070
   277
1070
     5
1070
   289
1070
     0
1002
}
  0
TEXT
  5
458
330
18
100
AcDbEntity
  8
TITLE
100
AcDbText
 10
22.51292684887639
 20
1.23078104892013
 30
0.0
 40
0.093
  1
F.R. POLYESTER FIBERGLASS
100
AcDbText
  0
LINE
  5
459
330
18
100
AcDbEntity
  8
0
100
AcDbLine
 10
26.11371245828852
 20
3.971504339789238
 30
0.0
 11
26.11371245828852
 21
14.84650433978924
 31
0.0
  0
LINE
  5
45A
330
18
100
AcDbEntity
  8
0
100
AcDbLine
 10
25.98871245828852
 20
3.971504339789238
 30
0.0
 11
25.98871245828851
 21
14.84650433978924
 31
0.0
  0
DIMENSION
  5
45B
330
18
100
AcDbEntity
  8
DIM
100
AcDbDimension
280
     0
  2
*D1
 10
26.11371245828852
 20
15.72813686731797
 30
0.0
 11
27.00433745828851
 21
15.72813686731797
 31
0.0
 70
   160
 71
     5
 42
0.125
 73
     0
 74
     0
 75
     0
  3
STANDARD
100
AcDbAlignedDimension
 13
25.98871245828851
 23
14.84650433978924
 33
0.0
 14
26.11371245828852
 24
14.84650433978924
 34
0.0
100
AcDbRotatedDimension
1001
ACAD
1000
DSTYLE
1002
{
1070
    41
1040
0.1875
1070
    42
1040
0.125
1070
    43
1040
0.375
1070
    44
1040
0.09
1070
   140
1040
0.1875
1070
   141
1040
0.09375
1070
   147
1040
0.1875
1070
   271
1070
     3
1070
   272
1070
     3
1070
   289
1070
     0
1002
}
  0
TEXT
  5
45C
330
18
100
AcDbEntity
  8
TITLE
100
AcDbText
 10
30.37501847274248
 20
1.637617227521605
 30
0.0
 40
0.093
  1
.010
100
AcDbText
  0
TEXT
  5
45D
330
18
100
AcDbEntity
  8
TITLE
100
AcDbText
 10
31.15322602878361
 20
1.64046182429005
 30
0.0
 40
0.093
  1
1/32
100
AcDbText
  0
DIMENSION
  5
45E
330
18
100
AcDbEntity
  8
DIM
100
AcDbDimension
280
     0
  2
*D0
 10
16.00187708565116
 20
16.08047488585028
 30
0.0
 11
11.87687708565116
 21
16.08047488585028
 31
0.0
 70
    32
 71
     5
 42
8.250000000000001
 73
     0
 74
     0
 75
     0
  3
STANDARD
100
AcDbAlignedDimension
 13
7.751877085651157
 23
14.53400433978924
 33
0.0
 14
16.00187708565116
 24
14.53400433978924
 34
0.0
100
AcDbRotatedDimension
1001
ACAD
1000
DSTYLE
1002
{
1070
    41
1040
0.1875
1070
    42
1040
0.125
1070
    43
1040
0.375
1070
    44
1040
0.09
1070
   140
1040
0.1875
1070
   141
1040
0.09375
1070
   147
1040
0.1875
1070
   271
1070
     3
1070
   272
1070
     3
1070
   289
1070
     0
1002
}
  0
TEXT
  5
C92
330
18
100
AcDbEntity
  8
TITLE
100
AcDbText
 10
22.51292684887639
 20
1.548921715578062
 30
0.0
 40
0.093
  1
COLOR GRAY
100
AcDbText
  0
LWPOLYLINE
  5
C97
330
18
100
AcDbEntity
  8
TITLE
100
AcDbPolyline
 90
        4
 70
     1
 43
0.0
 10
31.99000000000189
 20
20.86500000000139
 10
0.0099999999999971
 20
20.86500000000139
 10
0.0099999999999998
 20
0.0100000000000007
 10
31.99000000000187
 20
0.0100000000000007
  0
LWPOLYLINE
  5
C9D
330
18
100
AcDbEntity
  8
TITLE
100
AcDbPolyline
 90
        4
 70
     1
 43
0.0
 10
32.00000000000188
 20
20.87500000000138
 10
-0.0000000000000036
 20
20.87500000000138
 10
0.0
 20
0.0000000000000009
 10
32.00000000000187
 20
0.0000000000000009
  0
LWPOLYLINE
  5
CA3
330
18
100
AcDbEntity
  8
TITLE
100
AcDbPolyline
 90
        4
 70
     1
 43
0.0
 10
31.98000000000189
 20
20.85500000000138
 10
0.0199999999999971
 20
20.85500000000138
 10
0.0199999999999998
 20
0.0200000000000007
 10
31.98000000000187
 20
0.0200000000000007
  0
LINE
  5
CA9
330
18
100
AcDbEntity
  8
TITLE
100
AcDbLine
 10
31.98000000000187
 20
0.3950000000000007
 30
0.0
 11
21.48000000000187
 21
0.3950000000000025
 31
0.0
  0
LINE
  5
CAA
330
18
100
AcDbEntity
  8
TITLE
100
AcDbLine
 10
27.16750000000188
 20
0.7700000000000007
 30
0.0
 11
21.48000000000187
 21
0.7700000000000025
 31
0.0
  0
LINE
  5
CAB
330
18
100
AcDbEntity
  8
TITLE
100
AcDbLine
 10
27.16750000000188
 20
1.145
 30
0.0
 11
21.48000000000187
 21
1.145000000000002
 31
0.0
  0
LINE
  5
CAC
330
18
100
AcDbEntity
  8
TITLE
100
AcDbLine
 10
31.98000000000187
 20
1.52
 30
0.0
 11
21.48000000000187
 21
1.520000000000002
 31
0.0
  0
LINE
  5
CAD
330
18
100
AcDbEntity
  8
TITLE
100
AcDbLine
 10
28.66750000000187
 20
1.770000000000001
 30
0.0
 11
21.48000000000187
 21
1.770000000000002
 31
0.0
  0
LINE
  5
CAE
330
18
100
AcDbEntity
  8
TITLE
100
AcDbLine
 10
31.98000000000187
 20
2.02
 30
0.0
 11
21.48000000000187
 21
2.020000000000002
 31
0.0
  0
LINE
  5
CAF
330
18
100
AcDbEntity
  8
TITLE
100
AcDbLine
 10
25.91750000000188
 20
1.52
 30
0.0
 11
25.91750000000188
 21
0.0199999999999998
 31
0.0
  0
LINE
  5
CB0
330
18
100
AcDbEntity
  8
TITLE
100
AcDbLine
 10
25.48000000000187
 20
1.145000000000002
 30
0.0
 11
25.48000000000187
 21
0.0200000000000042
 31
0.0
  0
LINE
  5
CB1
330
18
100
AcDbEntity
  8
TITLE
100
AcDbLine
 10
25.04250000000187
 20
1.145000000000002
 30
0.0
 11
25.04250000000187
 21
0.0200000000000034
 31
0.0
  0
LINE
  5
CB2
330
18
100
AcDbEntity
  8
TITLE
100
AcDbLine
 10
24.48000000000187
 20
1.145000000000002
 30
0.0
 11
24.48000000000187
 21
0.0200000000000025
 31
0.0
  0
LINE
  5
CB3
330
18
100
AcDbEntity
  8
TITLE
100
AcDbLine
 10
21.98000000000187
 20
1.145
 30
0.0
 11
21.98000000000187
 21
0.0200000000000007
 31
0.0
  0
LINE
  5
CB4
330
18
100
AcDbEntity
  8
TITLE
100
AcDbLine
 10
21.48000000000187
 20
2.020000000000002
 30
0.0
 11
21.48000000000187
 21
0.0200000000000007
 31
0.0
  0
LINE
  5
CB5
330
18
100
AcDbEntity
  8
TITLE
100
AcDbLine
 10
25.91750000000188
 20
0.5825000000000007
 30
0.0
 11
21.48000000000187
 21
0.5825000000000025
 31
0.0
  0
LINE
  5
CB6
330
18
100
AcDbEntity
  8
TITLE
100
AcDbLine
 10
25.91750000000188
 20
0.2074999999999998
 30
0.0
 11
21.48000000000187
 21
0.2075000000000025
 31
0.0
  0
TEXT
  5
CB7
330
18
100
AcDbEntity
  8
TITLE
100
AcDbText
 10
22.60137075033691
 20
1.018134033388607
 30
0.0
 40
0.077
  1
REVISION RECORD
  7
ITALIC
 72
     1
 11
23.15320408367024
 21
1.018134033388607
 31
0.0
100
AcDbText
  0
LINE
  5
CB8
330
18
100
AcDbEntity
  8
TITLE
100
AcDbLine
 10
25.91750000000188
 20
0.9575000000000006
 30
0.0
 11
21.48000000000187
 21
0.9575000000000024
 31
0.0
  0
TEXT
  5
CB9
330
18
100
AcDbEntity
  8
TITLE
100
AcDbText
 10
21.70683914735286
 20
1.381397857861144
 30
0.0
 40
0.077
  1
MATERIAL
  7
ITALIC
100
AcDbText
  0
TEXT
  5
CBA
330
18
100
AcDbEntity
  8
TITLE
100
AcDbText
 10
21.63093344085823
 20
1.027630272371426
 30
0.0
 40
0.077
  1
LET.
  7
ITALIC
 72
     1
 11
21.74643344085823
 21
1.027630272371426
 31
0.0
100
AcDbText
  0
TEXT
  5
CBB
330
18
100
AcDbEntity
  8
TITLE
100
AcDbText
 10
21.7187183665341
 20
2.069194271646892
 30
0.0
 40
0.07
  1
NOTES:
  7
ITALIC
100
AcDbText
  0
TEXT
  5
CBC
330
18
100
AcDbEntity
  8
TITLE
100
AcDbText
 10
24.60559266957249
 20
1.022882152880016
 30
0.0
 40
0.077
  1
DATE
  7
ITALIC
 72
     1
 11
24.74675933623915
 21
1.022882152880016
 31
0.0
100
AcDbText
  0
TEXT
  5
CBD
330
18
100
AcDbEntity
  8
TITLE
100
AcDbText
 10
25.19128875550244
 20
1.027630272371426
 30
0.0
 40
0.077
  1
BY
  7
ITALIC
 72
     1
 11
25.25545542216911
 21
1.027630272371426
 31
0.0
100
AcDbText
  0
TEXT
  5
CBE
330
18
100
AcDbEntity
  8
TITLE
100
AcDbText
 10
25.5726912806374
 20
1.018134033388607
 30
0.0
 40
0.077
  1
CHD.
  7
ITALIC
 72
     1
 11
25.6881912806374
 21
1.018134033388607
 31
0.0
100
AcDbText
  0
TEXT
  5
CBF
330
18
100
AcDbEntity
  8
TITLE
 62
     1
100
AcDbText
 10
31.00852845841571
 20
1.674890178957291
 30
0.0
 40
0.077625
  1
+
  7
ITALIC
100
AcDbText
  0
TEXT
  5
CC0
330
18
100
AcDbEntity
  8
TITLE
 62
     1
100
AcDbText
 10
31.00852845841571
 20
1.598995989110275
 30
0.0
 40
0.077625
  1
-
  7
ITALIC
100
AcDbText
  0
TEXT
  5
CC1
330
18
100
AcDbEntity
  8
TITLE
 62
     1
100
AcDbText
 10
31.00852845841571
 20
1.82160153154422
 30
0.0
 40
0.077625
  1
FRACTIONAL
  7
ITALIC
100
AcDbText
  0
TEXT
  5
CC4
330
18
100
AcDbEntity
  8
TITLE
 62
     1
100
AcDbText
 10
30.91909169851883
 20
0.6633988341682365
 30
0.0
 40
0.0625
  1
AutoCAD DWG. FILE
100
AcDbText
  0
LINE
  5
CC5
330
18
100
AcDbEntity
  8
TITLE
 62
     1
100
AcDbLine
 10
31.98000000000187
 20
0.7700000000000007
 30
0.0
 11
27.16750000000188
 21
0.7700000000000007
 31
0.0
  0
LINE
  5
CD0
330
18
100
AcDbEntity
  8
TITLE
 62
     1
100
AcDbLine
 10
27.16750000000188
 20
1.519999999999998
 30
0.0
 11
27.16750000000188
 21
0.0199999999999998
 31
0.0
  0
LINE
  5
CD1
330
18
100
AcDbEntity
  8
TITLE
 62
     1
100
AcDbLine
 10
26.54250000000188
 20
1.520000000000002
 30
0.0
 11
26.54250000000188
 21
0.3950000000000016
 31
0.0
  0
TEXT
  5
CD2
330
18
100
AcDbEntity
  8
TITLE
100
AcDbText
 10
26.36736136698859
 20
0.2606476355994638
 30
0.0
 40
0.077
  1
SCALE
  7
ITALIC
 72
     1
 11
26.54702803365525
 21
0.2606476355994638
 31
0.0
100
AcDbText
  0
TEXT
  5
CD3
330
18
100
AcDbEntity
  8
TITLE
100
AcDbText
 10
26.10133602626719
 20
0.1086323560561024
 30
0.0
 40
0.075625
  1
DO NOT SCALE
 72
     1
 11
26.54248185960052
 21
0.1086323560561024
 31
0.0
100
AcDbText
  0
TEXT
  5
CD4
330
18
100
AcDbEntity
  8
TITLE
100
AcDbText
 10
25.983190416017
 20
0.6583714899502433
 30
0.0
 40
0.077
  1
APD. BY
  7
ITALIC
 72
     1
 11
26.214190416017
 21
0.6583714899502433
 31
0.0
100
AcDbText
  0
TEXT
  5
CD5
330
18
100
AcDbEntity
  8
TITLE
 62
     1
100
AcDbText
 10
26.73717193198477
 20
0.6612203616450893
 30
0.0
 40
0.077
  1
DATE
  7
ITALIC
 72
     1
 11
26.87833859865143
 21
0.6612203616450893
 31
0.0
100
AcDbText
  0
TEXT
  5
CD6
330
18
100
AcDbEntity
  8
TITLE
 62
     1
100
AcDbText
 10
27.27133108199639
 20
0.6262791008855422
 30
0.0
 40
0.0847
  1
CUSTOMER
  7
ITALIC
 72
     2
 11
27.92069774866305
 21
0.6262791008855422
 31
0.0
100
AcDbText
  0
TEXT
  5
CD7
330
18
100
AcDbEntity
  8
TITLE
 62
     1
100
AcDbText
 10
27.28316524226153
 20
0.2551247456628456
 30
0.0
 40
0.0847
  1
PART NAME
  7
ITALIC
100
AcDbText
  0
TEXT
  5
CD8
330
18
100
AcDbEntity
  8
TITLE
 62
     1
100
AcDbText
 10
29.73395570483342
 20
0.2603476771033963
 30
0.0
 40
0.0847
  1
PART NO.
  7
ITALIC
100
AcDbText
  0
LINE
  5
CD9
330
18
100
AcDbEntity
  8
TITLE
 62
     1
100
AcDbLine
 10
29.60500000000187
 20
0.3950000000000007
 30
0.0
 11
29.60500000000187
 21
0.0199999999999989
 31
0.0
  0
LINE
  5
CDA
330
18
100
AcDbEntity
  8
TITLE
 62
     1
100
AcDbLine
 10
30.8723969812032
 20
0.3950000000000007
 30
0.0
 11
30.8723969812032
 21
0.7700000000000007
 31
0.0
  0
TEXT
  5
CE6
330
18
100
AcDbEntity
  8
TITLE
100
AcDbText
 10
25.983190416017
 20
1.036028150302192
 30
0.0
 40
0.077
  1
CHK. BY
  7
ITALIC
 72
     1
 11
26.214190416017
 21
1.036028150302192
 31
0.0
100
AcDbText
  0
TEXT
  5
CE7
330
18
100
AcDbEntity
  8
TITLE
100
AcDbText
 10
26.06634814273045
 20
1.41309048737911
 30
0.0
 40
0.07
  1
DR. BY
  7
ITALIC
 72
     1
 11
26.24134814273045
 21
1.41309048737911
 31
0.0
100
AcDbText
  0
TEXT
  5
CE8
330
18
100
AcDbEntity
  8
TITLE
 62
     1
100
AcDbText
 10
26.73095331604248
 20
1.036028150302192
 30
0.0
 40
0.077
  1
DATE
  7
ITALIC
 72
     1
 11
26.87211998270915
 21
1.036028150302192
 31
0.0
100
AcDbText
  0
TEXT
  5
CE9
330
18
100
AcDbEntity
  8
TITLE
 62
     1
100
AcDbText
 10
26.72356982918361
 20
1.411363898473142
 30
0.0
 40
0.07
  1
DATE
  7
ITALIC
 72
     1
 11
26.85190316251694
 21
1.411363898473142
 31
0.0
100
AcDbText
  0
TEXT
  5
D15
330
18
100
AcDbEntity
  8
TITLE
 62
     1
100
AcDbText
 10
28.75671705089771
 20
1.63833422622278
 30
0.0
 40
0.077625
  1
UNLESS SPECIFIED
  7
ITALIC
 72
     1
 11
29.33890455089771
 21
1.63833422622278
 31
0.0
100
AcDbText
  0
LINE
  5
D16
330
18
100
AcDbEntity
  8
TITLE
 62
     1
100
AcDbLine
 10
28.66750000000187
 20
2.02
 30
0.0
 11
28.66750000000187
 21
1.52
 31
0.0
  0
TEXT
  5
D2B
330
18
100
AcDbEntity
  8
TITLE
 62
     1
100
AcDbText
 10
28.96371705089771
 20
1.821543163203229
 30
0.0
 40
0.077625
  1
TOLERANCES
  7
ITALIC
 72
     1
 11
29.33890455089771
 21
1.821543163203229
 31
0.0
100
AcDbText
  0
TEXT
  5
D84
330
18
100
AcDbEntity
  8
TITLE
 62
     1
100
AcDbText
 10
30.2387790146668
 20
1.824893824798872
 30
0.0
 40
0.077625
  1
DECIMAL
  7
ITALIC
100
AcDbText
  0
TEXT
  5
D89
330
18
100
AcDbEntity
  8
TITLE
 62
     1
100
AcDbText
 10
30.2387790146668
 20
1.67818247221195
 30
0.0
 40
0.077625
  1
+
  7
ITALIC
100
AcDbText
  0
TEXT
  5
D8A
330
18
100
AcDbEntity
  8
TITLE
 62
     1
100
AcDbText
 10
30.2387790146668
 20
1.599420352371774
 30
0.0
 40
0.077625
  1
-
  7
ITALIC
100
AcDbText
  0
TEXT
  5
10D0
330
18
100
AcDbEntity
  8
TITLE
100
AcDbText
 10
28.12121935949922
 20
1.033252384352946
 30
0.0
 40
0.2095956384552457
  1
HUBBELL WIEGMANN
  7
STYLE1
100
AcDbText
  0
DIMENSION
  5
11D3
330
18
100
AcDbEntity
  8
DIM
100
AcDbDimension
280
     0
  2
*D3
 10
16.31437708565116
 20
17.27922024443983
 30
0.0
 11
11.87687708565116
 21
17.27922024443983
 31
0.0
 70
    32
 71
     5
 42
8.875
 73
     0
 74
     0
 75
     0
  3
STANDARD
100
AcDbAlignedDimension
 13
7.439377085651159
 23
14.84650433978924
 33
0.0
 14
16.31437708565116
 24
14.84650433978924
 34
0.0
100
AcDbRotatedDimension
1001
ACAD
1000
DSTYLE
1002
{
1070
    41
1040
0.1875
1070
    42
1040
0.125
1070
    43
1040
0.375
1070
    44
1040
0.09
1070
   140
1040
0.1875
1070
   141
1040
0.09375
1070
   147
1040
0.1875
1070
   271
1070
     5
1070
   272
1070
     5
1070
   276
1070
     2
1070
   277
1070
     5
1070
   289
1070
     0
1002
}
  0
DIMENSION
  5
12BD
330
18
100
AcDbEntity
  8
DIM
100
AcDbDimension
280
     0
  2
*D4
 10
5.596758051984849
 20
4.284004339789238
 30
0.0
 11
5.596758051984849
 21
9.409004339789239
 31
0.0
 70
    32
 71
     5
 42
10.25
 73
     0
 74
     0
 75
     0
  3
STANDARD
100
AcDbAlignedDimension
 13
7.661877085651155
 23
14.53400433978924
 33
0.0
 14
7.661877085651155
 24
4.284004339789238
 34
0.0
 50
90.0
100
AcDbRotatedDimension
1001
ACAD
1000
DSTYLE
1002
{
1070
    41
1040
0.1875
1070
    42
1040
0.125
1070
    43
1040
0.375
1070
    44
1040
0.09
1070
   140
1040
0.1875
1070
   141
1040
0.09375
1070
   147
1040
0.1875
1070
   271
1070
     3
1070
   272
1070
     3
1070
   289
1070
     0
1002
}
  0
DIMENSION
  5
12DF
330
18
100
AcDbEntity
  8
DIM
100
AcDbDimension
280
     0
  2
*D5
 10
7.439377085651159
 20
16.08047488585028
 30
0.0
 11
6.158127085651159
 21
16.08047488585028
 31
0.0
 70
    32
  1
<> TYP.
 71
     5
 42
0.3124999999999982
 73
     0
 74
     0
 75
     0
  3
STANDARD
100
AcDbAlignedDimension
 13
7.751877085651157
 23
14.65900433978924
 33
0.0
 14
7.439377085651159
 24
14.97150433978924
 34
0.0
100
AcDbRotatedDimension
1001
ACAD
1000
DSTYLE
1002
{
1070
    41
1040
0.1875
1070
    42
1040
0.125
1070
    43
1040
0.375
1070
    44
1040
0.09
1070
   140
1040
0.1875
1070
   141
1040
0.09375
1070
   147
1040
0.1875
1070
   271
1070
     5
1070
   272
1070
     5
1070
   276
1070
     2
1070
   277
1070
     5
1070
   289
1070
     0
1002
}
  0
DIMENSION
  5
12F7
330
18
100
AcDbEntity
  8
DIM
100
AcDbDimension
280
     0
  2
*D6
 10
5.596758051984849
 20
3.971504339789239
 30
0.0
 11
4.503008051984848
 21
3.59650433978924
 31
0.0
 70
    32
  1
<> TYP.
 71
     5
 42
0.3124999999999991
 73
     0
 74
     0
 75
     0
  3
STANDARD
100
AcDbAlignedDimension
 13
7.536877085651155
 23
4.284004339789238
 33
0.0
 14
7.314377085651155
 24
3.971504339789238
 34
0.0
 50
90.0
100
AcDbRotatedDimension
1001
ACAD
1000
DSTYLE
1002
{
1070
    41
1040
0.1875
1070
    42
1040
0.125
1070
    43
1040
0.375
1070
    44
1040
0.09
1070
   140
1040
0.1875
1070
   141
1040
0.09375
1070
   147
1040
0.1875
1070
   271
1070
     5
1070
   272
1070
     5
1070
   276
1070
     2
1070
   277
1070
     5
1070
   289
1070
     0
1002
}
  0
TEXT
  5
1452
330
18
100
AcDbEntity
  8
TITLE
100
AcDbText
 10
30.93390459201657
 20
0.4845356668305385
 30
0.0
 40
0.093
  1
HW-MP1210FG
100
AcDbText
  0
ENDSEC
  0
SECTION
  2
OBJECTS
  0
DICTIONARY
  5
C
330
0
100
AcDbDictionary
281
     1
  3
ACAD_COLOR
350
10B6
  3
ACAD_GROUP
350
D
  3
ACAD_LAYOUT
350
10B9
  3
ACAD_MATERIAL
350
10B5
  3
ACAD_MLEADERSTYLE
350
1503
  3
ACAD_MLINESTYLE
350
E
  3
ACAD_PLOTSETTINGS
350
10BA
  3
ACAD_PLOTSTYLENAME
350
10B3
  3
ACAD_SCALELIST
350
14F1
  3
ACAD_TABLESTYLE
350
10B7
  3
ACAD_VISUALSTYLE
350
14D8
  3
ACDB_RECOMPOSE_DATA
350
1517
  3
AcDbVariableDictionary
350
10D2
  0
DICTIONARY
  5
1509
330
F
100
AcDbDictionary
280
     1
281
     1
  3
ADSK_XREC_LAYER_RECONCILED
360
150A
  0
DICTIONARY
  5
150B
330
38
100
AcDbDictionary
280
     1
281
     1
  3
ADSK_XREC_LAYER_RECONCILED
360
150C
  0
DICTIONARY
  5
150D
330
3D
100
AcDbDictionary
280
     1
281
     1
  3
ADSK_XREC_LAYER_RECONCILED
360
150E
  0
DICTIONARY
  5
120A
330
18
100
AcDbDictionary
280
     1
281
     1
  3
ACAD_SORTENTS
360
120B
  0
DICTIONARY
  5
10B6
102
{ACAD_REACTORS
330
C
102
}
330
C
100
AcDbDictionary
281
     1
  0
DICTIONARY
  5
D
102
{ACAD_REACTORS
330
C
102
}
330
C
100
AcDbDictionary
281
     1
  0
DICTIONARY
  5
10B9
102
{ACAD_REACTORS
330
C
102
}
330
C
100
AcDbDictionary
281
     1
  3
Layout1
350
10BC
  3
Model
350
10BB
  0
DICTIONARY
  5
10B5
102
{ACAD_REACTORS
330
C
102
}
330
C
100
AcDbDictionary
281
     1
  3
ByBlock
350
14C8
  3
ByLayer
350
14C0
  3
Global
350
14D0
  0
DICTIONARY
  5
1503
102
{ACAD_REACTORS
330
C
102
}
330
C
100
AcDbDictionary
281
     1
  3
Standard
350
1504
  0
DICTIONARY
  5
E
102
{ACAD_REACTORS
330
C
102
}
330
C
100
AcDbDictionary
281
     1
  3
STANDARD
350
1B
  0
DICTIONARY
  5
10BA
102
{ACAD_REACTORS
330
C
102
}
330
C
100
AcDbDictionary
281
     1
  0
ACDBDICTIONARYWDFLT
  5
10B3
102
{ACAD_REACTORS
330
C
102
}
330
C
100
AcDbDictionary
281
     1
  3
Normal
350
10B4
100
AcDbDictionaryWithDefault
340
10B4
  0
DICTIONARY
  5
14F1
102
{ACAD_REACTORS
330
C
102
}
330
C
100
AcDbDictionary
281
     1
  3
A0
350
14F2
  3
A1
350
14F3
  3
A2
350
14F4
  3
A3
350
14F5
  3
A4
350
14F6
  3
A5
350
14F7
  3
A6
350
14F8
  3
A7
350
14F9
  3
A8
350
14FA
  3
A9
350
14FB
  3
B0
350
14FC
  3
B1
350
14FD
  3
B2
350
14FE
  3
B3
350
14FF
  3
B4
350
1500
  3
B5
350
1501
  3
B6
350
1502
  0
DICTIONARY
  5
10B7
102
{ACAD_REACTORS
330
C
102
}
330
C
100
AcDbDictionary
281
     1
  3
Standard
350
10B8
  0
DICTIONARY
  5
14D8
102
{ACAD_REACTORS
330
C
102
}
330
C
100
AcDbDictionary
281
     1
  3
2dWireframe
350
14DE
  3
Basic
350
14DD
  3
Brighten
350
14E4
  3
ColorChange
350
14E8
  3
Conceptual
350
14E1
  3
Dim
350
14E3
  3
EdgeColorOff
350
14F0
  3
Facepattern
350
14E7
  3
Flat
350
14D9
  3
FlatWithEdges
350
14DA
  3
Gouraud
350
14DB
  3
GouraudWithEdges
350
14DC
  3
Hidden
350
14E0
  3
JitterOff
350
14EE
  3
Linepattern
350
14E6
  3
OverhangOff
350
14EF
  3
Realistic
350
14E2
  3
Shaded
350
14ED
  3
Shaded with edges
350
14EC
  3
Shades of Gray
350
14E9
  3
Sketchy
350
14EA
  3
Thicken
350
14E5
  3
Wireframe
350
14DF
  3
X-Ray
350
14EB
  0
XRECORD
  5
1517
102
{ACAD_REACTORS
330
C
102
}
330
C
100
AcDbXrecord
280
     1
 90
        1
330
10B8
  0
DICTIONARY
  5
10D2
102
{ACAD_REACTORS
330
C
102
}
330
C
100
AcDbDictionary
281
     1
  3
CANNOSCALE
350
1511
  3
CMLEADERSTYLE
350
150F
  3
CTABLESTYLE
350
10D3
  3
DIMASSOC
350
1459
  3
LAYEREVAL
350
1513
  3
LAYERNOTIFY
350
1514
  3
LIGHTINGUNITS
350
1512
  3
MSLTSCALE
350
1510
  3
PROJECTNAME
350
145A
  0
XRECORD
  5
150A
102
{ACAD_REACTORS
330
1509
102
}
330
1509
100
AcDbXrecord
280
     1
290
     1
  0
XRECORD
  5
150C
102
{ACAD_REACTORS
330
150B
102
}
330
150B
100
AcDbXrecord
280
     1
290
     1
  0
XRECORD
  5
150E
102
{ACAD_REACTORS
330
150D
102
}
330
150D
100
AcDbXrecord
280
     1
290
     1
  0
SORTENTSTABLE
  5
120B
102
{ACAD_REACTORS
330
120A
102
}
330
120A
100
AcDbSortentsTable
330
18
331
CD3
  5
CD3
331
3F2
  5
3F2
331
42F
  5
42F
331
459
  5
459
331
CDA
  5
CDA
331
436
  5
436
331
CBA
  5
CBA
331
CE7
  5
CE7
331
41E
  5
41E
331
425
  5
425
331
CC1
  5
CC1
331
45C
  5
45C
331
CA9
  5
CA9
331
CD6
  5
CD6
331
CB0
  5
CB0
331
414
  5
414
331
D8A
  5
D8A
331
CBD
  5
CBD
331
CC4
  5
CC4
331
428
  5
428
331
CAC
  5
CAC
331
417
  5
417
331
CB3
  5
CB3
331
432
  5
432
331
CAF
  5
CAF
331
D2B
  5
D2B
331
CB6
  5
CB6
331
41A
  5
41A
331
10D0
  5
10D0
331
456
  5
456
331
CD2
  5
CD2
331
3F1
  5
3F1
331
42E
  5
42E
331
458
  5
458
331
CD9
  5
CD9
331
435
  5
435
331
CB9
  5
CB9
331
CE6
  5
CE6
331
41D
  5
41D
331
424
  5
424
331
CC0
  5
CC0
331
3F4
  5
3F4
331
45B
  5
45B
331
CD5
  5
CD5
331
413
  5
413
331
438
  5
438
331
C97
  5
C97
331
D89
  5
D89
331
CBC
  5
CBC
331
427
  5
427
331
45E
  5
45E
331
CAB
  5
CAB
331
CB2
  5
CB2
331
416
  5
416
331
CBF
  5
CBF
331
431
  5
431
331
CAE
  5
CAE
331
419
  5
419
331
CB5
  5
CB5
331
CE9
  5
CE9
331
11D3
  5
11D3
331
420
  5
420
331
C9D
  5
C9D
331
CD1
  5
CD1
331
D16
  5
D16
331
CD8
  5
CD8
331
434
  5
434
331
CB8
  5
CB8
331
41C
  5
41C
331
423
  5
423
331
CD4
  5
CD4
331
3F3
  5
3F3
331
45A
  5
45A
331
437
  5
437
331
CBB
  5
CBB
331
41F
  5
41F
331
426
  5
426
331
45D
  5
45D
331
CAA
  5
CAA
331
CD7
  5
CD7
331
CB1
  5
CB1
331
415
  5
415
331
CBE
  5
CBE
331
CC5
  5
CC5
331
430
  5
430
331
CAD
  5
CAD
331
418
  5
418
331
CB4
  5
CB4
331
CE8
  5
CE8
331
CA3
  5
CA3
331
CD0
  5
CD0
331
D15
  5
D15
331
433
  5
433
331
C92
  5
C92
331
D84
  5
D84
331
CB7
  5
CB7
331
41B
  5
41B
331
422
  5
422
  0
LAYOUT
  5
10BC
102
{ACAD_REACTORS
330
10B9
102
}
330
10B9
100
AcDbPlotSettings
  1

  2
HP LaserJet 6L
  4

  6

 40
0.0
 41
0.0
 42
0.0
 43
0.0
 44
0.0
 45
0.0
 46
0.0
 47
0.0
 48
0.0
 49
0.0
140
0.0
141
0.0
142
1.0
143
1.0
 70
   688
 72
     0
 73
     0
 74
     5
  7

 75
    16
147
1.0
 76
     0
 77
     2
 78
   300
148
0.0
149
0.0
100
AcDbLayout
  1
Layout1
 70
     0
 71
     1
 10
0.0
 20
0.0
 11
12.0
 21
9.0
 12
0.0
 22
0.0
 32
0.0
 14
1.000000000000000E+20
 24
1.000000000000000E+20
 34
1.000000000000000E+20
 15
-1.000000000000000E+20
 25
-1.000000000000000E+20
 35
-1.000000000000000E+20
146
0.0
 13
0.0
 23
0.0
 33
0.0
 16
1.0
 26
0.0
 36
0.0
 17
0.0
 27
1.0
 37
0.0
 76
     0
330
15
  0
LAYOUT
  5
10BB
102
{ACAD_REACTORS
330
10B9
102
}
330
10B9
100
AcDbPlotSettings
  1

  2
HP LaserJet 6L
  4

  6

 40
0.0
 41
0.0
 42
0.0
 43
0.0
 44
0.0
 45
0.0
 46
0.0
 47
0.0
 48
0.0
 49
0.0
140
0.0
141
0.0
142
1.0
143
1.0
 70
  1712
 72
     0
 73
     0
 74
     0
  7

 75
     0
147
1.0
 76
     0
 77
     2
 78
   300
148
0.0
149
0.0
100
AcDbLayout
  1
Model
 70
     1
 71
     0
 10
0.0
 20
0.0
 11
12.0
 21
9.0
 12
0.0
 22
0.0
 32
0.0
 14
0.0
 24
0.0
 34
0.0
 15
0.0
 25
0.0
 35
0.0
146
0.0
 13
0.0
 23
0.0
 33
0.0
 16
1.0
 26
0.0
 36
0.0
 17
0.0
 27
1.0
 37
0.0
 76
     0
330
18
331
14B9
  0
MATERIAL
  5
14C8
102
{ACAD_XDICTIONARY
360
14C9
102
}
102
{ACAD_REACTORS
330
10B5
102
}
330
10B5
100
AcDbMaterial
  1
ByBlock
 72
     0
 43
0.0208333333333333
 43
0.0
 43
0.0
 43
0.0
 43
0.0
 43
0.0208333333333333
 43
0.0
 43
0.0
 43
0.0
 43
0.0
 43
1.0
 43
0.0
 43
0.0
 43
0.0
 43
0.0
 43
1.0
 77
     0
 47
0.0208333333333333
 47
0.0
 47
0.0
 47
0.0
 47
0.0
 47
0.0208333333333333
 47
0.0
 47
0.0
 47
0.0
 47
0.0
 47
1.0
 47
0.0
 47
0.0
 47
0.0
 47
0.0
 47
1.0
171
     0
 49
0.0208333333333333
 49
0.0
 49
0.0
 49
0.0
 49
0.0
 49
0.0208333333333333
 49
0.0
 49
0.0
 49
0.0
 49
0.0
 49
1.0
 49
0.0
 49
0.0
 49
0.0
 49
0.0
 49
1.0
175
     0
142
0.0208333333333333
142
0.0
142
0.0
142
0.0
142
0.0
142
0.0208333333333333
142
0.0
142
0.0
142
0.0
142
0.0
142
1.0
142
0.0
142
0.0
142
0.0
142
0.0
142
1.0
179
     0
144
0.0208333333333333
144
0.0
144
0.0
144
0.0
144
0.0
144
0.0208333333333333
144
0.0
144
0.0
144
0.0
144
0.0
144
1.0
144
0.0
144
0.0
144
0.0
144
0.0
144
1.0
147
0.0208333333333333
147
0.0
147
0.0
147
0.0
147
0.0
147
0.0208333333333333
147
0.0
147
0.0
147
0.0
147
0.0
147
1.0
147
0.0
147
0.0
147
0.0
147
0.0
147
1.0
  0
MATERIAL
  5
14C0
102
{ACAD_XDICTIONARY
360
14C1
102
}
102
{ACAD_REACTORS
330
10B5
102
}
330
10B5
100
AcDbMaterial
  1
ByLayer
 72
     0
 43
0.0208333333333333
 43
0.0
 43
0.0
 43
0.0
 43
0.0
 43
0.0208333333333333
 43
0.0
 43
0.0
 43
0.0
 43
0.0
 43
1.0
 43
0.0
 43
0.0
 43
0.0
 43
0.0
 43
1.0
 77
     0
 47
0.0208333333333333
 47
0.0
 47
0.0
 47
0.0
 47
0.0
 47
0.0208333333333333
 47
0.0
 47
0.0
 47
0.0
 47
0.0
 47
1.0
 47
0.0
 47
0.0
 47
0.0
 47
0.0
 47
1.0
171
     0
 49
0.0208333333333333
 49
0.0
 49
0.0
 49
0.0
 49
0.0
 49
0.0208333333333333
 49
0.0
 49
0.0
 49
0.0
 49
0.0
 49
1.0
 49
0.0
 49
0.0
 49
0.0
 49
0.0
 49
1.0
175
     0
142
0.0208333333333333
142
0.0
142
0.0
142
0.0
142
0.0
142
0.0208333333333333
142
0.0
142
0.0
142
0.0
142
0.0
142
1.0
142
0.0
142
0.0
142
0.0
142
0.0
142
1.0
179
     0
144
0.0208333333333333
144
0.0
144
0.0
144
0.0
144
0.0
144
0.0208333333333333
144
0.0
144
0.0
144
0.0
144
0.0
144
1.0
144
0.0
144
0.0
144
0.0
144
0.0
144
1.0
147
0.0208333333333333
147
0.0
147
0.0
147
0.0
147
0.0
147
0.0208333333333333
147
0.0
147
0.0
147
0.0
147
0.0
147
1.0
147
0.0
147
0.0
147
0.0
147
0.0
147
1.0
  0
MATERIAL
  5
14D0
102
{ACAD_XDICTIONARY
360
14D1
102
}
102
{ACAD_REACTORS
330
10B5
102
}
330
10B5
100
AcDbMaterial
  1
Global
 72
     0
 43
0.0208333333333333
 43
0.0
 43
0.0
 43
0.0
 43
0.0
 43
0.0208333333333333
 43
0.0
 43
0.0
 43
0.0
 43
0.0
 43
1.0
 43
0.0
 43
0.0
 43
0.0
 43
0.0
 43
1.0
 77
     0
 47
0.0208333333333333
 47
0.0
 47
0.0
 47
0.0
 47
0.0
 47
0.0208333333333333
 47
0.0
 47
0.0
 47
0.0
 47
0.0
 47
1.0
 47
0.0
 47
0.0
 47
0.0
 47
0.0
 47
1.0
171
     0
 49
0.0208333333333333
 49
0.0
 49
0.0
 49
0.0
 49
0.0
 49
0.0208333333333333
 49
0.0
 49
0.0
 49
0.0
 49
0.0
 49
1.0
 49
0.0
 49
0.0
 49
0.0
 49
0.0
 49
1.0
175
     0
142
0.0208333333333333
142
0.0
142
0.0
142
0.0
142
0.0
142
0.0208333333333333
142
0.0
142
0.0
142
0.0
142
0.0
142
1.0
142
0.0
142
0.0
142
0.0
142
0.0
142
1.0
179
     0
144
0.0208333333333333
144
0.0
144
0.0
144
0.0
144
0.0
144
0.0208333333333333
144
0.0
144
0.0
144
0.0
144
0.0
144
1.0
144
0.0
144
0.0
144
0.0
144
0.0
144
1.0
147
0.0208333333333333
147
0.0
147
0.0
147
0.0
147
0.0
147
0.0208333333333333
147
0.0
147
0.0
147
0.0
147
0.0
147
1.0
147
0.0
147
0.0
147
0.0
147
0.0
147
1.0
  0
MLEADERSTYLE
  5
1504
102
{ACAD_REACTORS
330
1503
102
}
330
1503
100
AcDbMLeaderStyle
179
     2
170
     2
171
     1
172
     0
 90
        2
 40
0.0
 41
0.0
173
     1
 91
-1056964608
340
12
 92
       -2
290
     1
 42
0.09
291
     1
 43
0.36
  3
Standard
 44
0.18
300

342
10
174
     1
178
     6
175
     1
176
     0
 93
-1056964608
 45
0.18
292
     0
297
     0
 46
0.18
 94
-1056964608
 47
1.0
 49
1.0
140
1.0
293
     1
141
0.0
294
     1
177
     0
142
1.0
295
     1
296
     0
143
0.125
271
     0
272
     9
273
     9
  0
MLINESTYLE
  5
1B
102
{ACAD_REACTORS
330
E
102
}
330
E
100
AcDbMlineStyle
  2
STANDARD
 70
     0
  3

 62
     0
 51
90.0
 52
90.0
 71
     2
 49
0.5
 62
   256
  6
BYLAYER
 49
-0.5
 62
   256
  6
BYLAYER
  0
ACDBPLACEHOLDER
  5
10B4
102
{ACAD_REACTORS
330
10B3
102
}
330
10B3
  0
SCALE
  5
14F2
102
{ACAD_REACTORS
330
14F1
102
}
330
14F1
100
AcDbScale
 70
     0
300
1:1
140
1.0
141
1.0
290
     1
  0
SCALE
  5
14F3
102
{ACAD_REACTORS
330
14F1
102
}
330
14F1
100
AcDbScale
 70
     0
300
1/128" = 1'-0"
140
0.0078125
141
12.0
290
     0
  0
SCALE
  5
14F4
102
{ACAD_REACTORS
330
14F1
102
}
330
14F1
100
AcDbScale
 70
     0
300
1/64" = 1'-0"
140
0.015625
141
12.0
290
     0
  0
SCALE
  5
14F5
102
{ACAD_REACTORS
330
14F1
102
}
330
14F1
100
AcDbScale
 70
     0
300
1/32" = 1'-0"
140
0.03125
141
12.0
290
     0
  0
SCALE
  5
14F6
102
{ACAD_REACTORS
330
14F1
102
}
330
14F1
100
AcDbScale
 70
     0
300
1/16" = 1'-0"
140
0.0625
141
12.0
290
     0
  0
SCALE
  5
14F7
102
{ACAD_REACTORS
330
14F1
102
}
330
14F1
100
AcDbScale
 70
     0
300
3/32" = 1'-0"
140
0.09375
141
12.0
290
     0
  0
SCALE
  5
14F8
102
{ACAD_REACTORS
330
14F1
102
}
330
14F1
100
AcDbScale
 70
     0
300
1/8" = 1'-0"
140
0.125
141
12.0
290
     0
  0
SCALE
  5
14F9
102
{ACAD_REACTORS
330
14F1
102
}
330
14F1
100
AcDbScale
 70
     0
300
3/16" = 1'-0"
140
0.1875
141
12.0
290
     0
  0
SCALE
  5
14FA
102
{ACAD_REACTORS
330
14F1
102
}
330
14F1
100
AcDbScale
 70
     0
300
1/4" = 1'-0"
140
0.25
141
12.0
290
     0
  0
SCALE
  5
14FB
102
{ACAD_REACTORS
330
14F1
102
}
330
14F1
100
AcDbScale
 70
     0
300
3/8" = 1'-0"
140
0.375
141
12.0
290
     0
  0
SCALE
  5
14FC
102
{ACAD_REACTORS
330
14F1
102
}
330
14F1
100
AcDbScale
 70
     0
300
1/2" = 1'-0"
140
0.5
141
12.0
290
     0
  0
SCALE
  5
14FD
102
{ACAD_REACTORS
330
14F1
102
}
330
14F1
100
AcDbScale
 70
     0
300
3/4" = 1'-0"
140
0.75
141
12.0
290
     0
  0
SCALE
  5
14FE
102
{ACAD_REACTORS
330
14F1
102
}
330
14F1
100
AcDbScale
 70
     0
300
1" = 1'-0"
140
1.0
141
12.0
290
     0
  0
SCALE
  5
14FF
102
{ACAD_REACTORS
330
14F1
102
}
330
14F1
100
AcDbScale
 70
     0
300
1-1/2" = 1'-0"
140
1.5
141
12.0
290
     0
  0
SCALE
  5
1500
102
{ACAD_REACTORS
330
14F1
102
}
330
14F1
100
AcDbScale
 70
     0
300
3" = 1'-0"
140
3.0
141
12.0
290
     0
  0
SCALE
  5
1501
102
{ACAD_REACTORS
330
14F1
102
}
330
14F1
100
AcDbScale
 70
     0
300
6" = 1'-0"
140
6.0
141
12.0
290
     0
  0
SCALE
  5
1502
102
{ACAD_REACTORS
330
14F1
102
}
330
14F1
100
AcDbScale
 70
     0
300
1'-0" = 1'-0"
140
12.0
141
12.0
290
     0
  0
TABLESTYLE
  5
10B8
102
{ACAD_XDICTIONARY
360
1515
102
}
102
{ACAD_REACTORS
330
10B7
102
}
330
10B7
100
AcDbTableStyle
280
     0
  3
Standard
 70
     0
 71
     0
 40
0.06
 41
0.06
280
     0
281
     0
  7
STANDARD
140
0.18
170
     2
 62
     0
 63
     7
283
     0
 90
        4
 91
        0
  1

274
    -2
284
     1
 64
     0
275
    -2
285
     1
 65
     0
276
    -2
286
     1
 66
     0
277
    -2
287
     1
 67
     0
278
    -2
288
     1
 68
     0
279
    -2
289
     1
 69
     0
  7
STANDARD
140
0.25
170
     5
 62
     0
 63
     7
283
     0
 90
        4
 91
        0
  1

274
    -2
284
     1
 64
     0
275
    -2
285
     1
 65
     0
276
    -2
286
     1
 66
     0
277
    -2
287
     1
 67
     0
278
    -2
288
     1
 68
     0
279
    -2
289
     1
 69
     0
  7
STANDARD
140
0.18
170
     5
 62
     0
 63
     7
283
     0
 90
        4
 91
        0
  1

274
    -2
284
     1
 64
     0
275
    -2
285
     1
 65
     0
276
    -2
286
     1
 66
     0
277
    -2
287
     1
 67
     0
278
    -2
288
     1
 68
     0
279
    -2
289
     1
 69
     0
  0
VISUALSTYLE
  5
14DE
102
{ACAD_REACTORS
330
14D8
102
}
330
14D8
100
AcDbVisualStyle
  2
2dWireframe
 70
     4
177
     2
291
     0
 71
     0
176
     1
 72
     2
176
     1
 73
     0
176
     1
 90
        0
176
     1
 40
0.6
176
     1
 41
30.0
176
     1
 63
     7
421
 16777215
176
     1
 74
     1
176
     1
 91
        4
176
     1
 64
     7
176
     1
 65
   257
176
     1
 75
     1
176
     1
175
     1
176
     1
 42
1.0
176
     1
 92
        0
176
     1
 66
   257
176
     1
 43
1.0
176
     1
 76
     1
176
     1
 77
     6
176
     1
 78
     2
176
     1
 67
     7
176
     1
 79
     5
176
     1
170
     0
176
     1
171
     0
176
     1
290
     0
176
     1
 93
        1
176
     1
 44
0.0
176
     1
173
     0
176
     1
  0
VISUALSTYLE
  5
14DD
102
{ACAD_REACTORS
330
14D8
102
}
330
14D8
100
AcDbVisualStyle
  2
Basic
 70
     7
177
     2
291
     1
 71
     1
176
     1
 72
     0
176
     1
 73
     1
176
     1
 90
        0
176
     1
 40
0.6
176
     1
 41
30.0
176
     1
 63
     7
421
 16777215
176
     1
 74
     0
176
     1
 91
        4
176
     1
 64
     7
176
     1
 65
   257
176
     1
 75
     1
176
     1
175
     1
176
     1
 42
1.0
176
     1
 92
        8
176
     1
 66
     7
176
     1
 43
1.0
176
     1
 76
     1
176
     1
 77
     6
176
     1
 78
     2
176
     1
 67
     7
176
     1
 79
     5
176
     1
170
     0
176
     1
171
     0
176
     1
290
     0
176
     1
 93
        1
176
     1
 44
0.0
176
     1
173
     0
176
     1
  0
VISUALSTYLE
  5
14E4
102
{ACAD_REACTORS
330
14D8
102
}
330
14D8
100
AcDbVisualStyle
  2
Brighten
 70
    12
177
     2
291
     1
 71
     2
176
     1
 72
     2
176
     1
 73
     0
176
     1
 90
        0
176
     1
 40
0.6
176
     1
 41
30.0
176
     1
 63
     7
421
 16777215
176
     1
 74
     1
176
     1
 91
        4
176
     1
 64
     7
176
     1
 65
   257
176
     1
 75
     1
176
     1
175
     1
176
     1
 42
1.0
176
     1
 92
        8
176
     1
 66
     7
176
     1
 43
1.0
176
     1
 76
     1
176
     1
 77
     6
176
     1
 78
     2
176
     1
 67
     7
176
     1
 79
     5
176
     1
170
     0
176
     1
171
     0
176
     1
290
     0
176
     1
 93
        1
176
     1
 44
50.0
176
     1
173
     0
176
     1
  0
VISUALSTYLE
  5
14E8
102
{ACAD_REACTORS
330
14D8
102
}
330
14D8
100
AcDbVisualStyle
  2
ColorChange
 70
    16
177
     2
291
     1
 71
     2
176
     1
 72
     2
176
     1
 73
     3
176
     1
 90
        0
176
     1
 40
0.6
176
     1
 41
30.0
176
     1
 63
     8
421
  8421504
176
     1
 74
     1
176
     1
 91
        4
176
     1
 64
     7
176
     1
 65
   257
176
     1
 75
     1
176
     1
175
     1
176
     1
 42
1.0
176
     1
 92
        8
176
     1
 66
     8
424
  8421504
176
     1
 43
1.0
176
     1
 76
     1
176
     1
 77
     6
176
     1
 78
     2
176
     1
 67
     7
176
     1
 79
     5
176
     1
170
     0
176
     1
171
     0
176
     1
290
     0
176
     1
 93
        1
176
     1
 44
0.0
176
     1
173
     0
176
     1
  0
VISUALSTYLE
  5
14E1
102
{ACAD_REACTORS
330
14D8
102
}
330
14D8
100
AcDbVisualStyle
  2
Conceptual
 70
     9
177
     2
291
     0
 71
     3
176
     1
 72
     2
176
     1
 73
     0
176
     1
 90
        0
176
     1
 40
0.6
176
     1
 41
30.0
176
     1
 63
     7
421
 16777215
176
     1
 74
     2
176
     1
 91
        2
176
     1
 64
     7
176
     1
 65
   257
176
     1
 75
     1
176
     1
175
     1
176
     1
 42
179.0
176
     1
 92
        8
176
     1
 66
     7
176
     1
 43
1.0
176
     1
 76
     1
176
     1
 77
     6
176
     1
 78
     2
176
     1
 67
     7
176
     1
 79
     3
176
     1
170
     0
176
     1
171
     0
176
     1
290
     0
176
     1
 93
        1
176
     1
 44
0.0
176
     1
173
     0
176
     1
  0
VISUALSTYLE
  5
14E3
102
{ACAD_REACTORS
330
14D8
102
}
330
14D8
100
AcDbVisualStyle
  2
Dim
 70
    11
177
     2
291
     1
 71
     2
176
     1
 72
     2
176
     1
 73
     0
176
     1
 90
        0
176
     1
 40
0.6
176
     1
 41
30.0
176
     1
 63
     7
421
 16777215
176
     1
 74
     1
176
     1
 91
        4
176
     1
 64
     7
176
     1
 65
   257
176
     1
 75
     1
176
     1
175
     1
176
     1
 42
1.0
176
     1
 92
        8
176
     1
 66
     7
176
     1
 43
1.0
176
     1
 76
     1
176
     1
 77
     6
176
     1
 78
     2
176
     1
 67
     7
176
     1
 79
     5
176
     1
170
     0
176
     1
171
     0
176
     1
290
     0
176
     1
 93
        1
176
     1
 44
-50.0
176
     1
173
     0
176
     1
  0
VISUALSTYLE
  5
14F0
102
{ACAD_REACTORS
330
14D8
102
}
330
14D8
100
AcDbVisualStyle
  2
EdgeColorOff
 70
    22
177
     2
291
     1
 71
     2
176
     0
 72
     2
176
     0
 73
     0
176
     0
 90
        0
176
     0
 40
0.6
176
     0
 41
30.0
176
     0
 63
     7
421
 16777215
176
     0
 74
     1
176
     0
 91
        4
176
     0
 64
     7
176
     0
 65
   257
176
     0
 75
     1
176
     0
175
     1
176
     0
 42
1.0
176
     0
 92
        8
176
     2
 66
     7
176
     0
 43
1.0
176
     0
 76
     1
176
     0
 77
     6
176
     0
 78
     2
176
     0
 67
     7
176
     0
 79
     5
176
     0
170
     0
176
     0
171
     0
176
     0
290
     0
176
     0
 93
        1
176
     0
 44
0.0
176
     0
173
     0
176
     0
  0
VISUALSTYLE
  5
14E7
102
{ACAD_REACTORS
330
14D8
102
}
330
14D8
100
AcDbVisualStyle
  2
Facepattern
 70
    15
177
     2
291
     1
 71
     2
176
     1
 72
     2
176
     1
 73
     0
176
     1
 90
        0
176
     1
 40
0.6
176
     1
 41
30.0
176
     1
 63
     7
421
 16777215
176
     1
 74
     1
176
     1
 91
        4
176
     1
 64
     7
176
     1
 65
   257
176
     1
 75
     1
176
     1
175
     1
176
     1
 42
1.0
176
     1
 92
        8
176
     1
 66
     7
176
     1
 43
1.0
176
     1
 76
     1
176
     1
 77
     6
176
     1
 78
     2
176
     1
 67
     7
176
     1
 79
     5
176
     1
170
     0
176
     1
171
     0
176
     1
290
     0
176
     1
 93
        1
176
     1
 44
0.0
176
     1
173
     0
176
     1
  0
VISUALSTYLE
  5
14D9
102
{ACAD_REACTORS
330
14D8
102
}
330
14D8
100
AcDbVisualStyle
  2
Flat
 70
     0
177
     2
291
     1
 71
     2
176
     1
 72
     1
176
     1
 73
     1
176
     1
 90
        2
176
     1
 40
0.6
176
     1
 41
30.0
176
     1
 63
     7
421
 16777215
176
     1
 74
     0
176
     1
 91
        0
176
     1
 64
     7
176
     1
 65
   257
176
     1
 75
     1
176
     1
175
     1
176
     1
 42
1.0
176
     1
 92
        8
176
     1
 66
     7
176
     1
 43
1.0
176
     1
 76
     1
176
     1
 77
     6
176
     1
 78
     2
176
     1
 67
     7
176
     1
 79
     5
176
     1
170
     0
176
     1
171
     0
176
     1
290
     0
176
     1
 93
       13
176
     1
 44
0.0
176
     1
173
     0
176
     1
  0
VISUALSTYLE
  5
14DA
102
{ACAD_REACTORS
330
14D8
102
}
330
14D8
100
AcDbVisualStyle
  2
FlatWithEdges
 70
     1
177
     2
291
     1
 71
     2
176
     1
 72
     1
176
     1
 73
     1
176
     1
 90
        2
176
     1
 40
0.6
176
     1
 41
30.0
176
     1
 63
     7
421
 16777215
176
     1
 74
     1
176
     1
 91
        0
176
     1
 64
     7
176
     1
 65
   257
176
     1
 75
     1
176
     1
175
     1
176
     1
 42
1.0
176
     1
 92
        0
176
     1
 66
   257
176
     1
 43
1.0
176
     1
 76
     1
176
     1
 77
     6
176
     1
 78
     2
176
     1
 67
     7
176
     1
 79
     5
176
     1
170
     0
176
     1
171
     0
176
     1
290
     0
176
     1
 93
       13
176
     1
 44
0.0
176
     1
173
     0
176
     1
  0
VISUALSTYLE
  5
14DB
102
{ACAD_REACTORS
330
14D8
102
}
330
14D8
100
AcDbVisualStyle
  2
Gouraud
 70
     2
177
     2
291
     1
 71
     2
176
     1
 72
     2
176
     1
 73
     1
176
     1
 90
        2
176
     1
 40
0.6
176
     1
 41
30.0
176
     1
 63
     7
421
 16777215
176
     1
 74
     0
176
     1
 91
        0
176
     1
 64
     7
176
     1
 65
   257
176
     1
 75
     1
176
     1
175
     1
176
     1
 42
1.0
176
     1
 92
        0
176
     1
 66
     7
176
     1
 43
1.0
176
     1
 76
     1
176
     1
 77
     6
176
     1
 78
     2
176
     1
 67
     7
176
     1
 79
     5
176
     1
170
     0
176
     1
171
     0
176
     1
290
     0
176
     1
 93
       13
176
     1
 44
0.0
176
     1
173
     0
176
     1
  0
VISUALSTYLE
  5
14DC
102
{ACAD_REACTORS
330
14D8
102
}
330
14D8
100
AcDbVisualStyle
  2
GouraudWithEdges
 70
     3
177
     2
291
     1
 71
     2
176
     1
 72
     2
176
     1
 73
     1
176
     1
 90
        2
176
     1
 40
0.6
176
     1
 41
30.0
176
     1
 63
     7
421
 16777215
176
     1
 74
     1
176
     1
 91
        0
176
     1
 64
     7
176
     1
 65
   257
176
     1
 75
     1
176
     1
175
     1
176
     1
 42
1.0
176
     1
 92
        0
176
     1
 66
   257
176
     1
 43
1.0
176
     1
 76
     1
176
     1
 77
     6
176
     1
 78
     2
176
     1
 67
     7
176
     1
 79
     5
176
     1
170
     0
176
     1
171
     0
176
     1
290
     0
176
     1
 93
       13
176
     1
 44
0.0
176
     1
173
     0
176
     1
  0
VISUALSTYLE
  5
14E0
102
{ACAD_REACTORS
330
14D8
102
}
330
14D8
100
AcDbVisualStyle
  2
Hidden
 70
     6
177
     2
291
     0
 71
     1
176
     1
 72
     2
176
     1
 73
     2
176
     1
 90
        0
176
     1
 40
0.6
176
     1
 41
30.0
176
     1
 63
     7
421
 16777215
176
     1
 74
     2
176
     1
 91
        2
176
     1
 64
     7
176
     1
 65
   257
176
     1
 75
     2
176
     1
175
     1
176
     1
 42
40.0
176
     1
 92
        0
176
     1
 66
   257
176
     1
 43
1.0
176
     1
 76
     1
176
     1
 77
     6
176
     1
 78
     2
176
     1
 67
     7
176
     1
 79
     3
176
     1
170
     0
176
     1
171
     0
176
     1
290
     0
176
     1
 93
        1
176
     1
 44
0.0
176
     1
173
     0
176
     1
  0
VISUALSTYLE
  5
14EE
102
{ACAD_REACTORS
330
14D8
102
}
330
14D8
100
AcDbVisualStyle
  2
JitterOff
 70
    20
177
     2
291
     1
 71
     2
176
     0
 72
     2
176
     0
 73
     0
176
     0
 90
        0
176
     0
 40
0.6
176
     0
 41
30.0
176
     0
 63
     7
421
 16777215
176
     0
 74
     1
176
     0
 91
        4
176
     0
 64
     7
176
     0
 65
   257
176
     0
 75
     1
176
     0
175
     1
176
     0
 42
1.0
176
     0
 92
       10
176
     2
 66
     7
176
     0
 43
1.0
176
     0
 76
     1
176
     0
 77
     6
176
     0
 78
     2
176
     0
 67
     7
176
     0
 79
     5
176
     0
170
     0
176
     0
171
     0
176
     0
290
     0
176
     0
 93
        1
176
     0
 44
0.0
176
     0
173
     0
176
     0
  0
VISUALSTYLE
  5
14E6
102
{ACAD_REACTORS
330
14D8
102
}
330
14D8
100
AcDbVisualStyle
  2
Linepattern
 70
    14
177
     2
291
     1
 71
     2
176
     1
 72
     2
176
     1
 73
     0
176
     1
 90
        0
176
     1
 40
0.6
176
     1
 41
30.0
176
     1
 63
     7
421
 16777215
176
     1
 74
     1
176
     1
 91
        4
176
     1
 64
     7
176
     1
 65
   257
176
     1
 75
     7
176
     1
175
     7
176
     1
 42
1.0
176
     1
 92
        8
176
     1
 66
     7
176
     1
 43
1.0
176
     1
 76
     1
176
     1
 77
     6
176
     1
 78
     2
176
     1
 67
     7
176
     1
 79
     5
176
     1
170
     0
176
     1
171
     0
176
     1
290
     0
176
     1
 93
        1
176
     1
 44
0.0
176
     1
173
     0
176
     1
  0
VISUALSTYLE
  5
14EF
102
{ACAD_REACTORS
330
14D8
102
}
330
14D8
100
AcDbVisualStyle
  2
OverhangOff
 70
    21
177
     2
291
     1
 71
     2
176
     0
 72
     2
176
     0
 73
     0
176
     0
 90
        0
176
     0
 40
0.6
176
     0
 41
30.0
176
     0
 63
     7
421
 16777215
176
     0
 74
     1
176
     0
 91
        4
176
     0
 64
     7
176
     0
 65
   257
176
     0
 75
     1
176
     0
175
     1
176
     0
 42
1.0
176
     0
 92
        9
176
     2
 66
     7
176
     0
 43
1.0
176
     0
 76
     1
176
     0
 77
     6
176
     0
 78
     2
176
     0
 67
     7
176
     0
 79
     5
176
     0
170
     0
176
     0
171
     0
176
     0
290
     0
176
     0
 93
        1
176
     0
 44
0.0
176
     0
173
     0
176
     0
  0
VISUALSTYLE
  5
14E2
102
{ACAD_REACTORS
330
14D8
102
}
330
14D8
100
AcDbVisualStyle
  2
Realistic
 70
     8
177
     2
291
     0
 71
     2
176
     1
 72
     3
176
     1
 73
     0
176
     1
 90
        2
176
     1
 40
0.6
176
     1
 41
30.0
176
     1
 63
     7
421
 16777215
176
     1
 74
     0
176
     1
 91
        0
176
     1
 64
     7
176
     1
 65
   257
176
     1
 75
     1
176
     1
175
     1
176
     1
 42
1.0
176
     1
 92
        8
176
     1
 66
   257
176
     1
 43
1.0
176
     1
 76
     1
176
     1
 77
     6
176
     1
 78
     2
176
     1
 67
     7
176
     1
 79
     3
176
     1
170
     0
176
     1
171
     0
176
     1
290
     0
176
     1
 93
       13
176
     1
 44
0.0
176
     1
173
     0
176
     1
  0
VISUALSTYLE
  5
14ED
102
{ACAD_REACTORS
330
14D8
102
}
330
14D8
100
AcDbVisualStyle
  2
Shaded
 70
    27
177
     2
291
     0
 71
     2
176
     1
 72
     2
176
     1
 73
     1
176
     1
 90
        2
176
     1
 40
0.6
176
     1
 41
30.0
176
     1
 63
     7
421
 16777215
176
     1
 74
     0
176
     1
 91
        4
176
     1
 64
     7
176
     1
 65
   257
176
     1
 75
     1
176
     1
175
     1
176
     1
 42
1.0
176
     1
 92
        8
176
     1
 66
   257
176
     1
 43
1.0
176
     1
 76
     1
176
     1
 77
     6
176
     1
 78
     2
176
     1
 67
     8
425
  7895160
176
     1
 79
     3
176
     1
170
     0
176
     1
171
     0
176
     1
290
     0
176
     1
 93
        5
176
     1
 44
0.0
176
     1
173
     0
176
     1
  0
VISUALSTYLE
  5
14EC
102
{ACAD_REACTORS
330
14D8
102
}
330
14D8
100
AcDbVisualStyle
  2
Shaded with edges
 70
    26
177
     2
291
     0
 71
     2
176
     1
 72
     2
176
     1
 73
     1
176
     1
 90
        2
176
     1
 40
0.6
176
     1
 41
30.0
176
     1
 63
     7
421
 16777215
176
     1
 74
     1
176
     1
 91
       10
176
     1
 64
     7
176
     1
 65
   257
176
     1
 75
     2
176
     1
175
     1
176
     1
 42
1.0
176
     1
 92
        8
176
     1
 66
   257
176
     1
 43
1.0
176
     1
 76
     1
176
     1
 77
     6
176
     1
 78
     2
176
     1
 67
     7
176
     1
 79
     3
176
     1
170
     0
176
     1
171
     0
176
     1
290
     0
176
     1
 93
        5
176
     1
 44
0.0
176
     1
173
     0
176
     1
  0
VISUALSTYLE
  5
14E9
102
{ACAD_REACTORS
330
14D8
102
}
330
14D8
100
AcDbVisualStyle
  2
Shades of Gray
 70
    23
177
     2
291
     0
 71
     2
176
     1
 72
     2
176
     1
 73
     3
176
     1
 90
        0
176
     1
 40
0.6
176
     1
 41
30.0
176
     1
 63
     7
421
 16777215
176
     1
 74
     2
176
     1
 91
        2
176
     1
 64
     7
176
     1
 65
     7
176
     1
 75
     1
176
     1
175
     1
176
     1
 42
40.0
176
     1
 92
        8
176
     1
 66
     7
176
     1
 43
1.0
176
     1
 76
     1
176
     1
 77
     6
176
     1
 78
     2
176
     1
 67
     7
176
     1
 79
     3
176
     1
170
     0
176
     1
171
     0
176
     1
290
     0
176
     1
 93
        1
176
     1
 44
0.0
176
     1
173
     0
176
     1
  0
VISUALSTYLE
  5
14EA
102
{ACAD_REACTORS
330
14D8
102
}
330
14D8
100
AcDbVisualStyle
  2
Sketchy
 70
    24
177
     2
291
     0
 71
     1
176
     1
 72
     2
176
     1
 73
     2
176
     1
 90
        0
176
     1
 40
0.6
176
     1
 41
30.0
176
     1
 63
     7
421
 16777215
176
     1
 74
     2
176
     1
 91
        2
176
     1
 64
     7
176
     1
 65
     7
176
     1
 75
     1
176
     1
175
     1
176
     1
 42
40.0
176
     1
 92
       11
176
     1
 66
     7
176
     1
 43
1.0
176
     1
 76
     1
176
     1
 77
     6
176
     1
 78
     2
176
     1
 67
     7
176
     1
 79
     6
176
     1
170
     0
176
     1
171
     0
176
     1
290
     0
176
     1
 93
        1
176
     1
 44
0.0
176
     1
173
     0
176
     1
  0
VISUALSTYLE
  5
14E5
102
{ACAD_REACTORS
330
14D8
102
}
330
14D8
100
AcDbVisualStyle
  2
Thicken
 70
    13
177
     2
291
     1
 71
     2
176
     1
 72
     2
176
     1
 73
     0
176
     1
 90
        0
176
     1
 40
0.6
176
     1
 41
30.0
176
     1
 63
     7
421
 16777215
176
     1
 74
     1
176
     1
 91
        4
176
     1
 64
     7
176
     1
 65
   257
176
     1
 75
     1
176
     1
175
     1
176
     1
 42
1.0
176
     1
 92
       12
176
     1
 66
     7
176
     1
 43
1.0
176
     1
 76
     1
176
     1
 77
     6
176
     1
 78
     2
176
     1
 67
     7
176
     1
 79
     5
176
     1
170
     0
176
     1
171
     0
176
     1
290
     0
176
     1
 93
        1
176
     1
 44
0.0
176
     1
173
     0
176
     1
  0
VISUALSTYLE
  5
14DF
102
{ACAD_REACTORS
330
14D8
102
}
330
14D8
100
AcDbVisualStyle
  2
Wireframe
 70
     5
177
     2
291
     0
 71
     0
176
     1
 72
     2
176
     1
 73
     0
176
     1
 90
        0
176
     1
 40
0.6
176
     1
 41
30.0
176
     1
 63
     7
421
 16777215
176
     1
 74
     1
176
     1
 91
        4
176
     1
 64
     7
176
     1
 65
   257
176
     1
 75
     1
176
     1
175
     1
176
     1
 42
1.0
176
     1
 92
        0
176
     1
 66
   257
176
     1
 43
1.0
176
     1
 76
     1
176
     1
 77
     6
176
     1
 78
     2
176
     1
 67
     7
176
     1
 79
     3
176
     1
170
     0
176
     1
171
     0
176
     1
290
     0
176
     1
 93
        1
176
     1
 44
0.0
176
     1
173
     0
176
     1
  0
VISUALSTYLE
  5
14EB
102
{ACAD_REACTORS
330
14D8
102
}
330
14D8
100
AcDbVisualStyle
  2
X-Ray
 70
    25
177
     2
291
     0
 71
     2
176
     1
 72
     2
176
     1
 73
     1
176
     1
 90
        1
176
     1
 40
0.5
176
     1
 41
30.0
176
     1
 63
     7
421
 16777215
176
     1
 74
     1
176
     1
 91
        0
176
     1
 64
     7
176
     1
 65
   257
176
     1
 75
     1
176
     1
175
     1
176
     1
 42
1.0
176
     1
 92
        8
176
     1
 66
     7
176
     1
 43
1.0
176
     1
 76
     1
176
     1
 77
     6
176
     1
 78
     2
176
     1
 67
     7
176
     1
 79
     3
176
     1
170
     0
176
     1
171
     0
176
     1
290
     0
176
     1
 93
       13
176
     1
 44
0.0
176
     1
173
     0
176
     1
  0
DICTIONARYVAR
  5
1511
102
{ACAD_REACTORS
330
10D2
102
}
330
10D2
100
DictionaryVariables
280
     0
  1
1:1
  0
DICTIONARYVAR
  5
150F
102
{ACAD_REACTORS
330
10D2
102
}
330
10D2
100
DictionaryVariables
280
     0
  1
STANDARD
  0
DICTIONARYVAR
  5
10D3
102
{ACAD_REACTORS
330
10D2
102
}
330
10D2
100
DictionaryVariables
280
     0
  1
STANDARD
  0
DICTIONARYVAR
  5
1459
102
{ACAD_REACTORS
330
10D2
102
}
330
10D2
100
DictionaryVariables
280
     0
  1
1
  0
DICTIONARYVAR
  5
1513
102
{ACAD_REACTORS
330
10D2
102
}
330
10D2
100
DictionaryVariables
280
     0
  1
1
  0
DICTIONARYVAR
  5
1514
102
{ACAD_REACTORS
330
10D2
102
}
330
10D2
100
DictionaryVariables
280
     0
  1
15
  0
DICTIONARYVAR
  5
1512
102
{ACAD_REACTORS
330
10D2
102
}
330
10D2
100
DictionaryVariables
280
     0
  1
0
  0
DICTIONARYVAR
  5
1510
102
{ACAD_REACTORS
330
10D2
102
}
330
10D2
100
DictionaryVariables
280
     0
  1
0
  0
DICTIONARYVAR
  5
145A
102
{ACAD_REACTORS
330
10D2
102
}
330
10D2
100
DictionaryVariables
280
     0
  1

  0
DICTIONARY
  5
14C9
330
14C8
100
AcDbDictionary
280
     1
281
     1
  3
BUMPTILE
360
14CB
  3
DIFFUSETILE
360
14CA
  3
OPACITYTILE
360
14CE
  3
REFLECTIONTILE
360
14CD
  3
REFRACTIONTILE
360
14CF
  3
SPECULARTILE
360
14CC
  0
DICTIONARY
  5
14C1
330
14C0
100
AcDbDictionary
280
     1
281
     1
  3
BUMPTILE
360
14C3
  3
DIFFUSETILE
360
14C2
  3
OPACITYTILE
360
14C6
  3
REFLECTIONTILE
360
14C5
  3
REFRACTIONTILE
360
14C7
  3
SPECULARTILE
360
14C4
  0
DICTIONARY
  5
14D1
330
14D0
100
AcDbDictionary
280
     1
281
     1
  3
BUMPTILE
360
14D3
  3
DIFFUSETILE
360
14D2
  3
OPACITYTILE
360
14D6
  3
REFLECTIONTILE
360
14D5
  3
REFRACTIONTILE
360
14D7
  3
SPECULARTILE
360
14D4
  0
DICTIONARY
  5
1515
330
10B8
100
AcDbDictionary
280
     1
281
     1
  3
ACAD_ROUNDTRIP_2008_TABLESTYLE_CELLSTYLEMAP
360
1516
  0
XRECORD
  5
14CB
102
{ACAD_REACTORS
330
14C9
102
}
330
14C9
100
AcDbXrecord
280
     1
270
     1
271
     1
  0
XRECORD
  5
14CA
102
{ACAD_REACTORS
330
14C9
102
}
330
14C9
100
AcDbXrecord
280
     1
270
     1
271
     1
  0
XRECORD
  5
14CE
102
{ACAD_REACTORS
330
14C9
102
}
330
14C9
100
AcDbXrecord
280
     1
270
     1
271
     1
  0
XRECORD
  5
14CD
102
{ACAD_REACTORS
330
14C9
102
}
330
14C9
100
AcDbXrecord
280
     1
270
     1
271
     1
  0
XRECORD
  5
14CF
102
{ACAD_REACTORS
330
14C9
102
}
330
14C9
100
AcDbXrecord
280
     1
270
     1
271
     1
  0
XRECORD
  5
14CC
102
{ACAD_REACTORS
330
14C9
102
}
330
14C9
100
AcDbXrecord
280
     1
270
     1
271
     1
  0
XRECORD
  5
14C3
102
{ACAD_REACTORS
330
14C1
102
}
330
14C1
100
AcDbXrecord
280
     1
270
     1
271
     1
  0
XRECORD
  5
14C2
102
{ACAD_REACTORS
330
14C1
102
}
330
14C1
100
AcDbXrecord
280
     1
270
     1
271
     1
  0
XRECORD
  5
14C6
102
{ACAD_REACTORS
330
14C1
102
}
330
14C1
100
AcDbXrecord
280
     1
270
     1
271
     1
  0
XRECORD
  5
14C5
102
{ACAD_REACTORS
330
14C1
102
}
330
14C1
100
AcDbXrecord
280
     1
270
     1
271
     1
  0
XRECORD
  5
14C7
102
{ACAD_REACTORS
330
14C1
102
}
330
14C1
100
AcDbXrecord
280
     1
270
     1
271
     1
  0
XRECORD
  5
14C4
102
{ACAD_REACTORS
330
14C1
102
}
330
14C1
100
AcDbXrecord
280
     1
270
     1
271
     1
  0
XRECORD
  5
14D3
102
{ACAD_REACTORS
330
14D1
102
}
330
14D1
100
AcDbXrecord
280
     1
270
     1
271
     1
  0
XRECORD
  5
14D2
102
{ACAD_REACTORS
330
14D1
102
}
330
14D1
100
AcDbXrecord
280
     1
270
     1
271
     1
  0
XRECORD
  5
14D6
102
{ACAD_REACTORS
330
14D1
102
}
330
14D1
100
AcDbXrecord
280
     1
270
     1
271
     1
  0
XRECORD
  5
14D5
102
{ACAD_REACTORS
330
14D1
102
}
330
14D1
100
AcDbXrecord
280
     1
270
     1
271
     1
  0
XRECORD
  5
14D7
102
{ACAD_REACTORS
330
14D1
102
}
330
14D1
100
AcDbXrecord
280
     1
270
     1
271
     1
  0
XRECORD
  5
14D4
102
{ACAD_REACTORS
330
14D1
102
}
330
14D1
100
AcDbXrecord
280
     1
270
     1
271
     1
  0
CELLSTYLEMAP
  5
1516
102
{ACAD_REACTORS
330
1515
102
}
330
1515
100
AcDbCellStyleMap
 90
        3
300
CELLSTYLE
  1
TABLEFORMAT_BEGIN
 90
        5
170
     1
 91
        0
 92
    32768
 62
   257
 93
        1
300
CONTENTFORMAT
  1
CONTENTFORMAT_BEGIN
 90
        0
 91
        0
 92
        4
 93
        0
300

 40
0.0
140
1.0
 94
        5
 62
     0
340
10
144
0.25
309
CONTENTFORMAT_END
171
     0
 94
        6
 95
        1
302
GRIDFORMAT
  1
GRIDFORMAT_BEGIN
 90
        0
 91
        1
 62
     0
 92
       -2
340
0
 93
        0
 40
0.045
309
GRIDFORMAT_END
 95
        2
302
GRIDFORMAT
  1
GRIDFORMAT_BEGIN
 90
        0
 91
        1
 62
     0
 92
       -2
340
0
 93
        0
 40
0.045
309
GRIDFORMAT_END
 95
        4
302
GRIDFORMAT
  1
GRIDFORMAT_BEGIN
 90
        0
 91
        1
 62
     0
 92
       -2
340
0
 93
        0
 40
0.045
309
GRIDFORMAT_END
 95
        8
302
GRIDFORMAT
  1
GRIDFORMAT_BEGIN
 90
        0
 91
        1
 62
     0
 92
       -2
340
0
 93
        0
 40
0.045
309
GRIDFORMAT_END
 95
       16
302
GRIDFORMAT
  1
GRIDFORMAT_BEGIN
 90
        0
 91
        1
 62
     0
 92
       -2
340
0
 93
        0
 40
0.045
309
GRIDFORMAT_END
 95
       32
302
GRIDFORMAT
  1
GRIDFORMAT_BEGIN
 90
        0
 91
        1
 62
     0
 92
       -2
340
0
 93
        0
 40
0.045
309
GRIDFORMAT_END
309
TABLEFORMAT_END
  1
CELLSTYLE_BEGIN
 90
        1
 91
        1
300
_TITLE
309
CELLSTYLE_END
300
CELLSTYLE
  1
TABLEFORMAT_BEGIN
 90
        5
170
     1
 91
        0
 92
        0
 62
   257
 93
        1
300
CONTENTFORMAT
  1
CONTENTFORMAT_BEGIN
 90
        0
 91
        0
 92
        4
 93
        0
300

 40
0.0
140
1.0
 94
        5
 62
     0
340
10
144
0.18
309
CONTENTFORMAT_END
171
     0
 94
        6
 95
        1
302
GRIDFORMAT
  1
GRIDFORMAT_BEGIN
 90
        0
 91
        1
 62
     0
 92
       -2
340
0
 93
        0
 40
0.045
309
GRIDFORMAT_END
 95
        2
302
GRIDFORMAT
  1
GRIDFORMAT_BEGIN
 90
        0
 91
        1
 62
     0
 92
       -2
340
0
 93
        0
 40
0.045
309
GRIDFORMAT_END
 95
        4
302
GRIDFORMAT
  1
GRIDFORMAT_BEGIN
 90
        0
 91
        1
 62
     0
 92
       -2
340
0
 93
        0
 40
0.045
309
GRIDFORMAT_END
 95
        8
302
GRIDFORMAT
  1
GRIDFORMAT_BEGIN
 90
        0
 91
        1
 62
     0
 92
       -2
340
0
 93
        0
 40
0.045
309
GRIDFORMAT_END
 95
       16
302
GRIDFORMAT
  1
GRIDFORMAT_BEGIN
 90
        0
 91
        1
 62
     0
 92
       -2
340
0
 93
        0
 40
0.045
309
GRIDFORMAT_END
 95
       32
302
GRIDFORMAT
  1
GRIDFORMAT_BEGIN
 90
        0
 91
        1
 62
     0
 92
       -2
340
0
 93
        0
 40
0.045
309
GRIDFORMAT_END
309
TABLEFORMAT_END
  1
CELLSTYLE_BEGIN
 90
        2
 91
        1
300
_HEADER
309
CELLSTYLE_END
300
CELLSTYLE
  1
TABLEFORMAT_BEGIN
 90
        5
170
     1
 91
        0
 92
        0
 62
   257
 93
        1
300
CONTENTFORMAT
  1
CONTENTFORMAT_BEGIN
 90
        0
 91
        0
 92
        4
 93
        0
300

 40
0.0
140
1.0
 94
        2
 62
     0
340
10
144
0.18
309
CONTENTFORMAT_END
171
     0
 94
        6
 95
        1
302
GRIDFORMAT
  1
GRIDFORMAT_BEGIN
 90
        0
 91
        1
 62
     0
 92
       -2
340
0
 93
        0
 40
0.045
309
GRIDFORMAT_END
 95
        2
302
GRIDFORMAT
  1
GRIDFORMAT_BEGIN
 90
        0
 91
        1
 62
     0
 92
       -2
340
0
 93
        0
 40
0.045
309
GRIDFORMAT_END
 95
        4
302
GRIDFORMAT
  1
GRIDFORMAT_BEGIN
 90
        0
 91
        1
 62
     0
 92
       -2
340
0
 93
        0
 40
0.045
309
GRIDFORMAT_END
 95
        8
302
GRIDFORMAT
  1
GRIDFORMAT_BEGIN
 90
        0
 91
        1
 62
     0
 92
       -2
340
0
 93
        0
 40
0.045
309
GRIDFORMAT_END
 95
       16
302
GRIDFORMAT
  1
GRIDFORMAT_BEGIN
 90
        0
 91
        1
 62
     0
 92
       -2
340
0
 93
        0
 40
0.045
309
GRIDFORMAT_END
 95
       32
302
GRIDFORMAT
  1
GRIDFORMAT_BEGIN
 90
        0
 91
        1
 62
     0
 92
       -2
340
0
 93
        0
 40
0.045
309
GRIDFORMAT_END
309
TABLEFORMAT_END
  1
CELLSTYLE_BEGIN
 90
        3
 91
        2
300
_DATA
309
CELLSTYLE_END
  0
ENDSEC
  0
EOF
