  0
SECTION
  2
HEADER
  9
$ACADVER
  1
AC1024
  9
$ACADMAINTVER
 70
    37
  9
$DWGCODEPAGE
  3
ANSI_1252
  9
$LASTSAVEDBY
  1
jtigges
  9
$INSBASE
 10
0.0
 20
0.0
 30
0.0
  9
$EXTMIN
 10
-0.0004879385047758
 20
-0.0003183036339678
 30
-0.0000000000112498
  9
$EXTMAX
 10
32.00048838556874
 20
20.87531859527353
 30
0.0000000000002956
  9
$LIMMIN
 10
0.0
 20
0.0
  9
$LIMMAX
 10
12.0
 20
9.0
  9
$ORTHOMODE
 70
     0
  9
$REGENMODE
 70
     1
  9
$FILLMODE
 70
     1
  9
$QTEXTMODE
 70
     0
  9
$MIRRTEXT
 70
     1
  9
$LTSCALE
 40
1.0
  9
$ATTMODE
 70
     1
  9
$TEXTSIZE
 40
0.2
  9
$TRACEWID
 40
0.05
  9
$TEXTSTYLE
  7
STANDARD
  9
$CLAYER
  8
0
  9
$CELTYPE
  6
BYLAYER
  9
$CECOLOR
 62
   256
  9
$CELTSCALE
 40
1.0
  9
$DISPSILH
 70
     0
  9
$DIMSCALE
 40
1.0
  9
$DIMASZ
 40
0.09375
  9
$DIMEXO
 40
0.09375
  9
$DIMDLI
 40
0.375
  9
$DIMRND
 40
0.0
  9
$DIMDLE
 40
0.0
  9
$DIMEXE
 40
0.03125
  9
$DIMTP
 40
0.0
  9
$DIMTM
 40
0.0
  9
$DIMTXT
 40
0.09375
  9
$DIMCEN
 40
0.09375
  9
$DIMTSZ
 40
0.0
  9
$DIMTOL
 70
     0
  9
$DIMLIM
 70
     0
  9
$DIMTIH
 70
     1
  9
$DIMTOH
 70
     1
  9
$DIMSE1
 70
     0
  9
$DIMSE2
 70
     0
  9
$DIMTAD
 70
     0
  9
$DIMZIN
 70
     0
  9
$DIMBLK
  1

  9
$DIMASO
 70
     1
  9
$DIMSHO
 70
     1
  9
$DIMPOST
  1

  9
$DIMAPOST
  1

  9
$DIMALT
 70
     0
  9
$DIMALTD
 70
     2
  9
$DIMALTF
 40
25.4
  9
$DIMLFAC
 40
1.0
  9
$DIMTOFL
 70
     0
  9
$DIMTVP
 40
0.0
  9
$DIMTIX
 70
     0
  9
$DIMSOXD
 70
     0
  9
$DIMSAH
 70
     0
  9
$DIMBLK1
  1

  9
$DIMBLK2
  1

  9
$DIMSTYLE
  2
STANDARD
  9
$DIMCLRD
 70
     0
  9
$DIMCLRE
 70
     0
  9
$DIMCLRT
 70
     0
  9
$DIMTFAC
 40
0.4973262032085562
  9
$DIMGAP
 40
0.09375
  9
$DIMJUST
 70
     0
  9
$DIMSD1
 70
     0
  9
$DIMSD2
 70
     0
  9
$DIMTOLJ
 70
     1
  9
$DIMTZIN
 70
     0
  9
$DIMALTZ
 70
     0
  9
$DIMALTTZ
 70
     0
  9
$DIMUPT
 70
     0
  9
$DIMDEC
 70
     5
  9
$DIMTDEC
 70
     4
  9
$DIMALTU
 70
     2
  9
$DIMALTTD
 70
     2
  9
$DIMTXSTY
  7
STANDARD
  9
$DIMAUNIT
 70
     0
  9
$DIMADEC
 70
     0
  9
$DIMALTRND
 40
0.0
  9
$DIMAZIN
 70
     0
  9
$DIMDSEP
 70
    46
  9
$DIMATFIT
 70
     0
  9
$DIMFRAC
 70
     2
  9
$DIMLDRBLK
  1

  9
$DIMLUNIT
 70
     5
  9
$DIMLWD
 70
    -2
  9
$DIMLWE
 70
    -2
  9
$DIMTMOVE
 70
     0
  9
$DIMFXL
 40
1.0
  9
$DIMFXLON
 70
     0
  9
$DIMJOGANG
 40
0.7853981633974483
  9
$DIMTFILL
 70
     0
  9
$DIMTFILLCLR
 70
     0
  9
$DIMARCSYM
 70
     0
  9
$DIMLTYPE
  6

  9
$DIMLTEX1
  6

  9
$DIMLTEX2
  6

  9
$DIMTXTDIRECTION
 70
     0
  9
$LUNITS
 70
     5
  9
$LUPREC
 70
     5
  9
$SKETCHINC
 40
0.1
  9
$FILLETRAD
 40
0.0
  9
$AUNITS
 70
     0
  9
$AUPREC
 70
     1
  9
$MENU
  1
acad
  9
$ELEVATION
 40
0.0
  9
$PELEVATION
 40
0.0
  9
$THICKNESS
 40
0.0
  9
$LIMCHECK
 70
     0
  9
$CHAMFERA
 40
0.0
  9
$CHAMFERB
 40
0.0
  9
$CHAMFERC
 40
0.0
  9
$CHAMFERD
 40
0.0
  9
$SKPOLY
 70
     0
  9
$TDCREATE
 40
2450019.220429398
  9
$TDUCREATE
 40
2450019.470429398
  9
$TDUPDATE
 40
2456721.661683889
  9
$TDUUPDATE
 40
2456721.911683889
  9
$TDINDWG
 40
0.1660581829
  9
$TDUSRTIMER
 40
0.1660581829
  9
$USRTIMER
 70
     1
  9
$ANGBASE
 50
0.0
  9
$ANGDIR
 70
     0
  9
$PDMODE
 70
     0
  9
$PDSIZE
 40
0.0
  9
$PLINEWID
 40
0.0
  9
$SPLFRAME
 70
     0
  9
$SPLINETYPE
 70
     6
  9
$SPLINESEGS
 70
     8
  9
$HANDSEED
  5
21DE
  9
$SURFTAB1
 70
     6
  9
$SURFTAB2
 70
     6
  9
$SURFTYPE
 70
     6
  9
$SURFU
 70
     6
  9
$SURFV
 70
     6
  9
$UCSBASE
  2

  9
$UCSNAME
  2

  9
$UCSORG
 10
0.0
 20
0.0
 30
0.0
  9
$UCSXDIR
 10
1.0
 20
0.0
 30
0.0
  9
$UCSYDIR
 10
0.0
 20
1.0
 30
0.0
  9
$UCSORTHOREF
  2

  9
$UCSORTHOVIEW
 70
     0
  9
$UCSORGTOP
 10
0.0
 20
0.0
 30
0.0
  9
$UCSORGBOTTOM
 10
0.0
 20
0.0
 30
0.0
  9
$UCSORGLEFT
 10
0.0
 20
0.0
 30
0.0
  9
$UCSORGRIGHT
 10
0.0
 20
0.0
 30
0.0
  9
$UCSORGFRONT
 10
0.0
 20
0.0
 30
0.0
  9
$UCSORGBACK
 10
0.0
 20
0.0
 30
0.0
  9
$PUCSBASE
  2

  9
$PUCSNAME
  2

  9
$PUCSORG
 10
0.0
 20
0.0
 30
0.0
  9
$PUCSXDIR
 10
1.0
 20
0.0
 30
0.0
  9
$PUCSYDIR
 10
0.0
 20
1.0
 30
0.0
  9
$PUCSORTHOREF
  2

  9
$PUCSORTHOVIEW
 70
     0
  9
$PUCSORGTOP
 10
0.0
 20
0.0
 30
0.0
  9
$PUCSORGBOTTOM
 10
0.0
 20
0.0
 30
0.0
  9
$PUCSORGLEFT
 10
0.0
 20
0.0
 30
0.0
  9
$PUCSORGRIGHT
 10
0.0
 20
0.0
 30
0.0
  9
$PUCSORGFRONT
 10
0.0
 20
0.0
 30
0.0
  9
$PUCSORGBACK
 10
0.0
 20
0.0
 30
0.0
  9
$USERI1
 70
     0
  9
$USERI2
 70
     0
  9
$USERI3
 70
     0
  9
$USERI4
 70
     0
  9
$USERI5
 70
     0
  9
$USERR1
 40
0.0
  9
$USERR2
 40
0.0
  9
$USERR3
 40
0.0
  9
$USERR4
 40
0.0
  9
$USERR5
 40
0.0
  9
$WORLDVIEW
 70
     1
  9
$SHADEDGE
 70
     3
  9
$SHADEDIF
 70
    70
  9
$TILEMODE
 70
     1
  9
$MAXACTVP
 70
    16
  9
$PINSBASE
 10
0.0
 20
0.0
 30
0.0
  9
$PLIMCHECK
 70
     0
  9
$PEXTMIN
 10
1.000000000000000E+20
 20
1.000000000000000E+20
 30
1.000000000000000E+20
  9
$PEXTMAX
 10
-1.000000000000000E+20
 20
-1.000000000000000E+20
 30
-1.000000000000000E+20
  9
$PLIMMIN
 10
0.0
 20
0.0
  9
$PLIMMAX
 10
12.0
 20
9.0
  9
$UNITMODE
 70
     0
  9
$VISRETAIN
 70
     0
  9
$PLINEGEN
 70
     0
  9
$PSLTSCALE
 70
     1
  9
$TREEDEPTH
 70
  3020
  9
$CMLSTYLE
  2
STANDARD
  9
$CMLJUST
 70
     0
  9
$CMLSCALE
 40
1.0
  9
$PROXYGRAPHICS
 70
     1
  9
$MEASUREMENT
 70
     0
  9
$CELWEIGHT
370
    -1
  9
$ENDCAPS
280
     0
  9
$JOINSTYLE
280
     0
  9
$LWDISPLAY
290
     0
  9
$INSUNITS
 70
     0
  9
$HYPERLINKBASE
  1

  9
$STYLESHEET
  1

  9
$XEDIT
290
     1
  9
$CEPSNTYPE
380
     0
  9
$PSTYLEMODE
290
     1
  9
$FINGERPRINTGUID
  2
{EC8AED28-551D-49D7-BC4E-5FD8F131AAEE}
  9
$VERSIONGUID
  2
{33E7AB7A-D59B-40C5-ACCE-13F811BA4BE8}
  9
$EXTNAMES
290
     1
  9
$PSVPSCALE
 40
0.0
  9
$OLESTARTUP
290
     0
  9
$SORTENTS
280
   127
  9
$INDEXCTL
280
     0
  9
$HIDETEXT
280
     0
  9
$XCLIPFRAME
280
     0
  9
$HALOGAP
280
     0
  9
$OBSCOLOR
 70
   257
  9
$OBSLTYPE
280
     0
  9
$INTERSECTIONDISPLAY
280
     0
  9
$INTERSECTIONCOLOR
 70
   257
  9
$DIMASSOC
280
     1
  9
$PROJECTNAME
  1

  9
$CAMERADISPLAY
290
     0
  9
$LENSLENGTH
 40
50.0
  9
$CAMERAHEIGHT
 40
0.0
  9
$STEPSPERSEC
 40
2.0
  9
$STEPSIZE
 40
6.0
  9
$3DDWFPREC
 40
2.0
  9
$PSOLWIDTH
 40
0.25
  9
$PSOLHEIGHT
 40
4.0
  9
$LOFTANG1
 40
1.570796326794896
  9
$LOFTANG2
 40
1.570796326794896
  9
$LOFTMAG1
 40
0.0
  9
$LOFTMAG2
 40
0.0
  9
$LOFTPARAM
 70
     7
  9
$LOFTNORMALS
280
     1
  9
$LATITUDE
 40
37.795
  9
$LONGITUDE
 40
-122.394
  9
$NORTHDIRECTION
 40
0.0
  9
$TIMEZONE
 70
 -8000
  9
$LIGHTGLYPHDISPLAY
280
     1
  9
$TILEMODELIGHTSYNCH
280
     1
  9
$CMATERIAL
347
20CB
  9
$SOLIDHIST
280
     1
  9
$SHOWHIST
280
     1
  9
$DWFFRAME
280
     2
  9
$DGNFRAME
280
     0
  9
$REALWORLDSCALE
290
     1
  9
$INTERFERECOLOR
 62
     1
  9
$INTERFEREOBJVS
345
20D8
  9
$INTERFEREVPVS
346
21A3
  9
$CSHADOW
280
     0
  9
$SHADOWPLANELOCATION
 40
0.0
  0
ENDSEC
  0
SECTION
  2
CLASSES
  0
CLASS
  1
ACDBDICTIONARYWDFLT
  2
AcDbDictionaryWithDefault
  3
ObjectDBX Classes
 90
        0
 91
        1
280
     0
281
     0
  0
CLASS
  1
TABLESTYLE
  2
AcDbTableStyle
  3
ObjectDBX Classes
 90
     4095
 91
        1
280
     0
281
     0
  0
CLASS
  1
ACME_DOCUMENT
  2
AcMeDbDoc
  3
AcMeServices
 90
        0
 91
        0
280
     0
281
     0
  0
CLASS
  1
AMGSETTINGSOBJ
  2
AmgSettingsObj
  3
"AcadM|Product Description: AutoCAD Mechanical|Company: Autodesk"
 90
        0
 91
        2
280
     0
281
     0
  0
CLASS
  1
ACMESCOPE
  2
AcMeScope
  3
AcMeServices
 90
        0
 91
        1
280
     0
281
     0
  0
CLASS
  1
ACMECOMMANDHISTORY
  2
AcMeCommandHistory
  3
AcMeServices
 90
        0
 91
        1
280
     0
281
     0
  0
CLASS
  1
ACIMSYSVARMAN
  2
AcImSysVarManager
  3
AcMeServices
 90
        0
 91
        5
280
     0
281
     0
  0
CLASS
  1
ACIMINTSYSVAR
  2
AcImIntSysVar
  3
AcMeServices
 90
        0
 91
       28
280
     0
281
     0
  0
CLASS
  1
ACMEDRAWINGMAN
  2
AcMeDrawingMan
  3
AcMeServices
 90
        0
 91
        1
280
     0
281
     0
  0
CLASS
  1
ACMEVIEW
  2
AcMeView
  3
AcMeServices
 90
        0
 91
        1
280
     0
281
     0
  0
CLASS
  1
ACDBENTITYCACHE
  2
AcMeEntityCache
  3
AcMeServices
 90
        0
 91
        0
280
     0
281
     0
  0
CLASS
  1
GSMANAGER
  2
AcMeGSManager
  3
AcMeServices
 90
        0
 91
        0
280
     0
281
     0
  0
CLASS
  1
AMDTINTERNALREACTOR
  2
AmdtInternalReactor
  3
AcMeServices
 90
        0
 91
        0
280
     0
281
     0
  0
CLASS
  1
ACMESTATEMGR
  2
AcMeStateMgr
  3
AcMeServices
 90
        0
 91
        1
280
     0
281
     0
  0
CLASS
  1
ACGREFMASTER
  2
AcGrefMaster
  3
AcAttribServices
 90
        0
 91
        1
280
     0
281
     0
  0
CLASS
  1
AM_DRAWING_MGR
  2
AcDmDwgMgr
  3
AcMechDwgViewMgmt
 90
        0
 91
        1
280
     0
281
     0
  0
CLASS
  1
AM_DWG_DOCUMENT
  2
AcDmDwgDocument
  3
AcMechDwgViewMgmt
 90
        0
 91
        1
280
     0
281
     0
  0
CLASS
  1
AM_DWG_SHEET
  2
AcDmSheet
  3
AcMechDwgViewMgmt
 90
        0
 91
        1
280
     0
281
     0
  0
CLASS
  1
AM_VIEWDIMPARMAP
  2
AcDmViewDimParMap
  3
AcMechDwgViewMgmt
 90
        0
 91
        1
280
     0
281
     0
  0
CLASS
  1
ACIMREALSYSVAR
  2
AcImRealSysVar
  3
AcMeServices
 90
        0
 91
        1
280
     0
281
     0
  0
CLASS
  1
AM_DWGMGR_NAME
  2
AcDmDwgMgrName
  3
AcMechDwgViewMgmt
 90
        0
 91
        1
280
     0
281
     0
  0
CLASS
  1
ACME_DATABASE
  2
AcMeDbDatabase
  3
AcMeServices
 90
        0
 91
        0
280
     0
281
     0
  0
CLASS
  1
ACRFINSADJUSTERMGR
  2
AcRfInsAdjusterMgr
  3
AcMeServices
 90
        0
 91
        0
280
     0
281
     0
  0
CLASS
  1
ACGREFACADMASTER
  2
AcGrefacadMaster
  3
AcGrefServices
 90
        0
 91
        1
280
     0
281
     0
  0
CLASS
  1
AMDTMENUSTATEMGR
  2
AmdtMenuStateMgr
  3
McadcomServices
 90
        0
 91
        0
280
     0
281
     0
  0
CLASS
  1
AMDTMCOMMENUSTATE
  2
AmdtMcomMenuState
  3
McadcomServices
 90
        0
 91
        0
280
     0
281
     0
  0
CLASS
  1
AMIMASTER
  2
AmiMaster
  3
AmiServices
 90
        0
 91
        1
280
     0
281
     0
  0
CLASS
  1
MAPIAMMOUDLE
  2
MApiAmModule
  3
MApiAmServices
 90
        0
 91
        1
280
     0
281
     0
  0
CLASS
  1
AMDTADMENUSTATE
  2
AmdtAdMenuState
  3
DesignerServices
 90
        0
 91
        0
280
     0
281
     0
  0
CLASS
  1
ADAPPL
  2
AcAdAppl
  3
DesignerServices
 90
        0
 91
        1
280
     0
281
     0
  0
CLASS
  1
DEPMGR
  2
AcAdDepMgr
  3
DesignerServices
 90
        0
 91
        1
280
     0
281
     0
  0
CLASS
  1
PARAMMGR
  2
AcAdParamMgr
  3
DesignerServices
 90
        0
 91
        1
280
     0
281
     0
  0
CLASS
  1
PARAMSCOPE
  2
AcAdParamScope
  3
DesignerServices
 90
        0
 91
        1
280
     0
281
     0
  0
CLASS
  1
NAMEDAPPL
  2
AcAdNamedAppl
  3
DesignerServices
 90
        0
 91
        1
280
     0
281
     0
  0
CLASS
  1
AMDTDMMENUSTATE
  2
AmdtDmMenuState
  3
AcMechDwgViewMgmt
 90
        0
 91
        0
280
     0
281
     0
  0
CLASS
  1
AMDTAMMENUSTATE
  2
AmdtAmMenuState
  3
DesignerAssemblies
 90
        0
 91
        0
280
     0
281
     0
  0
CLASS
  1
ACIMSTRSYSVAR
  2
AcImStrSysVar
  3
AcMeServices
 90
        0
 91
        5
280
     0
281
     0
  0
CLASS
  1
ACAMPROJECT
  2
AcAmProject
  3
DesignerAssemblies
 90
        0
 91
        1
280
     0
281
     0
  0
CLASS
  1
ACAMGRCOMPDEF
  2
AcAmGrCompDef
  3
DesignerAssemblies
 90
        0
 91
        1
280
     0
281
     0
  0
CLASS
  1
ACCMCONTEXT
  2
AcCmContext
  3
DesignerAssemblies
 90
        0
 91
        1
280
     0
281
     0
  0
CLASS
  1
ACAMCOMPDEF
  2
AcAmCompDef
  3
DesignerAssemblies
 90
        0
 91
        1
280
     0
281
     0
  0
CLASS
  1
ACAMCOMPDEFMGR
  2
AcAmCompDefMgr
  3
DesignerAssemblies
 90
        0
 91
        1
280
     0
281
     0
  0
CLASS
  1
AMCONTEXTMGR
  2
AcAmContextMgr
  3
DesignerAssemblies
 90
        0
 91
        1
280
     0
281
     0
  0
CLASS
  1
ACAMCONTEXTMODELER
  2
AcAmContextModeler
  3
DesignerAssemblies
 90
        0
 91
        1
280
     0
281
     0
  0
CLASS
  1
ACMDATADICTIONARY
  2
AcmDataDictionary
  3
"AcmSymBB|Product Description: AutoCAD Mechanical|Company: Autodesk"
 90
        0
 91
        1
280
     0
281
     0
  0
CLASS
  1
CATALOGSTATE
  2
AcAmCatalogState
  3
DesignerAssemblies
 90
        0
 91
        1
280
     0
281
     0
  0
CLASS
  1
ACAMGRCOMPDEFSET
  2
AcAmGrCompDefSet
  3
DesignerAssemblies
 90
        0
 91
        0
280
     0
281
     0
  0
CLASS
  1
AMDTBROWSERDBTAB
  2
AmdtBrowserDbTab
  3
McadcomServices
 90
        0
 91
        0
280
     0
281
     0
  0
CLASS
  1
CBROWSERAPPOBJECT
  2
CBrowserAppObject
  3
McadcomServices
 90
        0
 91
        0
280
     0
281
     0
  0
CLASS
  1
DM_PLACEHOLDER
  2
AcDmSelsetPlaceholder
  3
AcMechDwgViewMgmt
 90
        0
 91
        0
280
     0
281
     0
  0
CLASS
  1
ACMSTANDARDANSI
  2
AcmStandardANSI
  3
"Amdt_StdImp|Product Description: AutoCAD Mechanical|Company: Autodesk"
 90
        0
 91
        1
280
     0
281
     0
  0
CLASS
  1
AMGOBJPROPCFG
  2
AmgObjPropCfg
  3
"AmgLay|Product Description: AutoCAD Mechanical|Company: Autodesk"
 90
        1
 91
        1
280
     0
281
     0
  0
CLASS
  1
ACMSURFSTANDARDANSI
  2
AcmSurfTextStdANSI
  3
"Amdt_StdImp|Product Description: AutoCAD Mechanical|Company: Autodesk"
 90
        0
 91
        1
280
     0
281
     0
  0
CLASS
  1
ACMFCFSTANDARDANSI
  2
AcmFCFStdANSI
  3
"Amdt_StdImp|Product Description: AutoCAD Mechanical|Company: Autodesk"
 90
        0
 91
        1
280
     0
281
     0
  0
CLASS
  1
ACMWELDSTANDARDANSI
  2
AcmWeldingStdANSI
  3
"Amdt_StdImp|Product Description: AutoCAD Mechanical|Company: Autodesk"
 90
        0
 91
        1
280
     0
281
     0
  0
CLASS
  1
ACMIDSTANDARDANSI
  2
AcmIdStdANSI
  3
"Amdt_StdImp|Product Description: AutoCAD Mechanical|Company: Autodesk"
 90
        0
 91
        1
280
     0
281
     0
  0
CLASS
  1
ACMDATUMSTANDARDANSI
  2
AcmDatumStdANSI
  3
"Amdt_StdImp|Product Description: AutoCAD Mechanical|Company: Autodesk"
 90
        0
 91
        1
280
     0
281
     0
  0
CLASS
  1
ACMBOMSTANDARDANSI
  2
AcmBOMStdANSI
  3
"Amdt_StdImp|Product Description: AutoCAD Mechanical|Company: Autodesk"
 90
        0
 91
        1
280
     0
281
     0
  0
CLASS
  1
ACMDETAILSTANDARDANSI
  2
AmdtDetailSymStdANSI
  3
"Amdt_StdImp|Product Description: AutoCAD Mechanical|Company: Autodesk"
 90
        0
 91
        1
280
     0
281
     0
  0
CLASS
  1
ACMSECTIONSTANDARDANSI
  2
AmdtSectionSymStdANSI
  3
"Amdt_StdImp|Product Description: AutoCAD Mechanical|Company: Autodesk"
 90
        0
 91
        1
280
     0
281
     0
  0
CLASS
  1
ACMCENTERLINESTANDARDANSI
  2
AmdtCenterLineStdANSI
  3
"Amdt_StdImp|Product Description: AutoCAD Mechanical|Company: Autodesk"
 90
        0
 91
        1
280
     0
281
     0
  0
CLASS
  1
ACMTHREADLINESTANDARDANSI
  2
AmdtThreadLineStdANSI
  3
"Amdt_StdImp|Product Description: AutoCAD Mechanical|Company: Autodesk"
 90
        0
 91
        1
280
     0
281
     0
  0
CLASS
  1
ACMNOTESTANDARDANSI
  2
AmdtNoteStdANSI
  3
"Amdt_StdImp|Product Description: AutoCAD Mechanical|Company: Autodesk"
 90
        0
 91
        1
280
     0
281
     0
  0
CLASS
  1
AMDTNOTETEMPLATEDB
  2
AmdtNoteTemplateDB
  3
AMDT_STDIMP_MODULE_NAME
 90
        0
 91
        5
280
     0
281
     0
  0
CLASS
  1
ACAMGLAYSTD
  2
AcAmgLayStd
  3
"AmgLay|Product Description: AutoCAD Mechanical|Company: Autodesk"
 90
        0
 91
        1
280
     0
281
     0
  0
CLASS
  1
ACAMGDIMSTD
  2
AcAmgDimStd
  3
"AmgDim|Product Description: AutoCAD Mechanical|Company: Autodesk"
 90
        0
 91
        1
280
     0
281
     0
  0
CLASS
  1
ACAMGHOLECHARTSTDANSI
  2
AcAmgHoleChartStdANSI
  3
ACMSYMBB_MODULE_NAME
 90
        0
 91
        1
280
     0
281
     0
  0
CLASS
  1
ACAMGTITLESTD
  2
AcAmgTitleStd
  3
"AmgTitle|Product Description: AutoCAD Mechanical|Company: Autodesk"
 90
        0
 91
        1
280
     0
281
     0
  0
CLASS
  1
ACAMGFILTERDAT
  2
AcAmgFilterDat
  3
"AcadM|Product Description: AutoCAD Mechanical|Company: Autodesk"
 90
        0
 91
        6
280
     0
281
     0
  0
CLASS
  1
SORTENTSTABLE
  2
AcDbSortentsTable
  3
ObjectDBX Classes
 90
        0
 91
        6
280
     0
281
     0
  0
CLASS
  1
DICTIONARYVAR
  2
AcDbDictionaryVar
  3
ObjectDBX Classes
 90
        0
 91
        9
280
     0
281
     0
  0
CLASS
  1
ACDBPLACEHOLDER
  2
AcDbPlaceHolder
  3
ObjectDBX Classes
 90
        0
 91
        1
280
     0
281
     0
  0
CLASS
  1
LAYOUT
  2
AcDbLayout
  3
ObjectDBX Classes
 90
        0
 91
        2
280
     0
281
     0
  0
CLASS
  1
MATERIAL
  2
AcDbMaterial
  3
ObjectDBX Classes
 90
     1153
 91
        3
280
     0
281
     0
  0
CLASS
  1
VISUALSTYLE
  2
AcDbVisualStyle
  3
ObjectDBX Classes
 90
     4095
 91
       26
280
     0
281
     0
  0
CLASS
  1
ACMTAPERSTANDARDANSI
  2
AcmTaperStdANSI
  3
"Amdt_StdImp|Product Description: AutoCAD Mechanical|Company: Autodesk"
 90
        0
 91
        1
280
     0
281
     0
  0
CLASS
  1
CAMSSTRUCTBTNSTATE
  2
StructBtnState
  3
L"DesignerAssemblies"
 90
        0
 91
        1
280
     0
281
     0
  0
CLASS
  1
SCALE
  2
AcDbScale
  3
ObjectDBX Classes
 90
     1153
 91
       17
280
     0
281
     0
  0
CLASS
  1
MLEADERSTYLE
  2
AcDbMLeaderStyle
  3
ACDB_MLEADERSTYLE_CLASS
 90
     4095
 91
        1
280
     0
281
     0
  0
CLASS
  1
CELLSTYLEMAP
  2
AcDbCellStyleMap
  3
ObjectDBX Classes
 90
     1152
 91
        1
280
     0
281
     0
  0
ENDSEC
  0
SECTION
  2
TABLES
  0
TABLE
  2
VPORT
  5
8
330
0
100
AcDbSymbolTable
 70
     1
  0
VPORT
  5
20C4
330
8
100
AcDbSymbolTableRecord
100
AcDbViewportTableRecord
  2
*Active
 70
     0
 10
0.0
 20
0.0
 11
1.0
 21
1.0
 12
16.00000022353199
 22
10.43750014581978
 13
0.0
 23
0.0
 14
1.0
 24
1.0
 15
0.0
 25
0.0
 16
0.0
 26
0.0
 36
1.0
 17
0.0
 27
0.0
 37
0.0
 40
21.01732674211276
 41
2.163080407701019
 42
50.0
 43
0.0
 44
0.0
 50
0.0
 51
0.0
 71
     0
 72
   100
 73
     1
 74
     0
 75
     0
 76
     0
 77
     0
 78
     0
281
     0
 65
     1
110
0.0
120
0.0
130
0.0
111
1.0
121
0.0
131
0.0
112
0.0
122
1.0
132
0.0
 79
     0
146
0.0
348
20D4
 60
     3
 61
     5
292
     1
282
     1
141
0.0
142
0.0
 63
   250
421
  3355443
  0
ENDTAB
  0
TABLE
  2
LTYPE
  5
5
330
0
100
AcDbSymbolTable
 70
    16
  0
LTYPE
  5
12
330
5
100
AcDbSymbolTableRecord
100
AcDbLinetypeTableRecord
  2
BYBLOCK
 70
     0
  3

 72
    65
 73
     0
 40
0.0
  0
LTYPE
  5
13
330
5
100
AcDbSymbolTableRecord
100
AcDbLinetypeTableRecord
  2
BYLAYER
 70
     0
  3

 72
    65
 73
     0
 40
0.0
  0
LTYPE
  5
14
330
5
100
AcDbSymbolTableRecord
100
AcDbLinetypeTableRecord
  2
CONTINUOUS
 70
     0
  3
Solid line
 72
    65
 73
     0
 40
0.0
  0
LTYPE
  5
1F
330
5
100
AcDbSymbolTableRecord
100
AcDbLinetypeTableRecord
  2
HIDDEN
 70
     0
  3
_ _ _ _ _ _ _ _ _ _ _ _ _ _ _ _ _ _ _ _ _ _ _
 72
    65
 73
     2
 40
0.375
 49
0.25
 74
     0
 49
-0.125
 74
     0
  0
LTYPE
  5
20
330
5
100
AcDbSymbolTableRecord
100
AcDbLinetypeTableRecord
  2
CENTER
 70
     0
  3
____ _ ____ _ ____ _ ____ _ ____ _ ____ _ ____
 72
    65
 73
     4
 40
2.0
 49
1.25
 74
     0
 49
-0.25
 74
     0
 49
0.25
 74
     0
 49
-0.25
 74
     0
  0
LTYPE
  5
160D
330
5
100
AcDbSymbolTableRecord
100
AcDbLinetypeTableRecord
  2
PHANTOM2
 70
     0
  3
Phantom (.5x) ___ _ _ ___ _ _ ___ _ _ ___ _ _
 72
    65
 73
     6
 40
1.25
 49
0.625
 74
     0
 49
-0.125
 74
     0
 49
0.125
 74
     0
 49
-0.125
 74
     0
 49
0.125
 74
     0
 49
-0.125
 74
     0
  0
LTYPE
  5
1641
330
5
100
AcDbSymbolTableRecord
100
AcDbLinetypeTableRecord
  2
AM_ISO02W050
 70
     0
  3
__ __ __ __ __ __ __ __ __ __ __ __ __ __ __
 72
    65
 73
     2
 40
7.5
 49
6.0
 74
     0
 49
-1.5
 74
     0
  0
LTYPE
  5
1642
330
5
100
AcDbSymbolTableRecord
100
AcDbLinetypeTableRecord
  2
AM_ISO08W050
 70
     0
  3
____ . ____ . ____ . ____ . ____ . ____ . ____
 72
    65
 73
     4
 40
18.0
 49
12.0
 74
     0
 49
-1.5
 74
     0
 49
3.0
 74
     0
 49
-1.5
 74
     0
  0
LTYPE
  5
1643
330
5
100
AcDbSymbolTableRecord
100
AcDbLinetypeTableRecord
  2
AM_ISO09W050
 70
     0
  3
_____ . . _____ . . _____ . . ____ .. ____
 72
    65
 73
     6
 40
22.5
 49
12.0
 74
     0
 49
-1.5
 74
     0
 49
3.0
 74
     0
 49
-1.5
 74
     0
 49
3.0
 74
     0
 49
-1.5
 74
     0
  0
LTYPE
  5
1644
330
5
100
AcDbSymbolTableRecord
100
AcDbLinetypeTableRecord
  2
Amconstr
 70
     0
  3
_______________________
 72
    65
 73
     2
 40
9999.0
 49
9999.0
 74
     0
 49
0.0
 74
     0
  0
LTYPE
  5
1645
330
5
100
AcDbSymbolTableRecord
100
AcDbLinetypeTableRecord
  2
AM_ISO08W050x2
 70
     0
  3
__ . __ . __ . __ . __ . __
 72
    65
 73
     4
 40
9.0
 49
6.0
 74
     0
 49
-0.75
 74
     0
 49
1.5
 74
     0
 49
-0.75
 74
     0
  0
LTYPE
  5
1646
330
5
100
AcDbSymbolTableRecord
100
AcDbLinetypeTableRecord
  2
AM_ISO02W050x2
 70
     0
  3
 _ _ _ _ _ _ _ _ _ _ _ _
 72
    65
 73
     2
 40
3.75
 49
3.0
 74
     0
 49
-0.75
 74
     0
  0
LTYPE
  5
1649
330
5
100
AcDbSymbolTableRecord
100
AcDbLinetypeTableRecord
  2
Amzigzag
 70
     0
  3
/\/-/\/-/\/-/\/-/\/-/\/
 72
    65
 73
     2
 40
11.0001
 49
0.0001
 74
     4
 75
   135
340
1648
 46
0.04
 50
0.0
 44
0.0
 45
0.0
 49
-11.0
 74
     0
  0
LTYPE
  5
164A
330
5
100
AcDbSymbolTableRecord
100
AcDbLinetypeTableRecord
  2
CENTER2
 70
     0
  3
Center (.5x) ___ _ ___ _ ___ _ ___ _ ___ _ ___
 72
    65
 73
     4
 40
1.125
 49
0.75
 74
     0
 49
-0.125
 74
     0
 49
0.125
 74
     0
 49
-0.125
 74
     0
  0
LTYPE
  5
164B
330
5
100
AcDbSymbolTableRecord
100
AcDbLinetypeTableRecord
  2
HIDDEN2
 70
     0
  3
Hidden (.5x) _ _ _ _ _ _ _ _ _ _ _ _ _ _ _ _ _
 72
    65
 73
     2
 40
0.1875
 49
0.125
 74
     0
 49
-0.0625
 74
     0
  0
LTYPE
  5
164C
330
5
100
AcDbSymbolTableRecord
100
AcDbLinetypeTableRecord
  2
Amzigzag2
 70
     0
  3
/\/-/\/-/\/-/\/-/\/-/\/
 72
    65
 73
     2
 40
0.4401
 49
0.0001
 74
     4
 75
   135
340
1648
 46
0.0016
 50
0.0
 44
0.0
 45
0.0
 49
-0.4400000000000001
 74
     0
  0
LTYPE
  5
165A
330
5
100
AcDbSymbolTableRecord
100
AcDbLinetypeTableRecord
  2
ACANSTGB
 70
     0
  3
__ . . __ . .
 72
    65
 73
     6
 40
0.35433070866
 49
0.15748031496
 74
     0
 49
-0.03937007874
 74
     0
 49
0.03937007874
 74
     0
 49
-0.03937007874
 74
     0
 49
0.03937007874
 74
     0
 49
-0.03937007874
 74
     0
  0
LTYPE
  5
165B
330
5
100
AcDbSymbolTableRecord
100
AcDbLinetypeTableRecord
  2
ACANSTGL
 70
     0
  3
_ _ _ _ _
 72
    65
 73
     2
 40
0.11811023622
 49
0.07874015748
 74
     0
 49
-0.03937007874
 74
     0
  0
ENDTAB
  0
TABLE
  2
LAYER
  5
2
102
{ACAD_XDICTIONARY
360
21C9
102
}
330
0
100
AcDbSymbolTable
 70
    10
  0
LAYER
  5
F
330
2
100
AcDbSymbolTableRecord
100
AcDbLayerTableRecord
  2
0
 70
     0
 62
     7
  6
CONTINUOUS
370
    -3
390
15CE
347
20CD
  0
LAYER
  5
23
330
2
100
AcDbSymbolTableRecord
100
AcDbLayerTableRecord
  2
DIM
 70
     0
 62
     3
  6
CONTINUOUS
370
    -3
390
15CE
347
20CD
  0
LAYER
  5
24
330
2
100
AcDbSymbolTableRecord
100
AcDbLayerTableRecord
  2
HATCH
 70
     0
 62
     4
  6
CONTINUOUS
370
    -3
390
15CE
347
20CD
  0
LAYER
  5
25
330
2
100
AcDbSymbolTableRecord
100
AcDbLayerTableRecord
  2
PN
 70
     0
 62
     6
  6
CONTINUOUS
370
    -3
390
15CE
347
20CD
  0
LAYER
  5
26
330
2
100
AcDbSymbolTableRecord
100
AcDbLayerTableRecord
  2
HIDE
 70
     0
 62
     5
  6
HIDDEN
370
    -3
390
15CE
347
20CD
  0
LAYER
  5
27
330
2
100
AcDbSymbolTableRecord
100
AcDbLayerTableRecord
  2
CENTER
 70
     0
 62
     2
  6
CENTER
370
    -3
390
15CE
347
20CD
  0
LAYER
  5
28
330
2
100
AcDbSymbolTableRecord
100
AcDbLayerTableRecord
  2
TITLE
 70
     0
 62
     1
  6
CONTINUOUS
370
    -3
390
15CE
347
20CD
  0
LAYER
  5
86A
330
2
100
AcDbSymbolTableRecord
100
AcDbLayerTableRecord
  2
DEFPOINTS
 70
     0
 62
    -7
  6
CONTINUOUS
290
     0
370
    -3
390
15CE
347
20CD
  0
LAYER
  5
16C7
330
2
100
AcDbSymbolTableRecord
100
AcDbLayerTableRecord
  2
AM_5
 70
     0
 62
     3
  6
CONTINUOUS
370
    15
390
15CE
347
20CD
  0
LAYER
  5
16C8
330
2
100
AcDbSymbolTableRecord
100
AcDbLayerTableRecord
  2
AM_9
 70
     0
 62
   253
  6
CONTINUOUS
370
     0
390
15CE
347
20CD
  0
ENDTAB
  0
TABLE
  2
STYLE
  5
3
330
0
100
AcDbSymbolTable
 70
     7
  0
STYLE
  5
10
330
3
100
AcDbSymbolTableRecord
100
AcDbTextStyleTableRecord
  2
STANDARD
 70
     0
 40
0.0
 41
1.0
 50
0.0
 71
     0
 42
0.2
  3
txt
  4

  0
STYLE
  5
1E
330
3
100
AcDbSymbolTableRecord
100
AcDbTextStyleTableRecord
  2
ITALIC
 70
     0
 40
0.0
 41
1.0
 50
0.0
 71
     0
 42
0.2
  3
txt
  4

  0
STYLE
  5
DBA
330
3
100
AcDbSymbolTableRecord
100
AcDbTextStyleTableRecord
  2
STYLE1
 70
     0
 40
0.0
 41
1.0
 50
0.0
 71
     0
 42
0.25
  3
swiss.ttf
  4

1001
ACAD
1000
Swis721 BT
1071
       34
  0
STYLE
  5
1648
330
3
100
AcDbSymbolTableRecord
100
AcDbTextStyleTableRecord
  2

 70
     1
 40
0.0
 41
1.0
 50
0.0
 71
     0
 42
0.2
  3
ltypeshp.shx
  4

  0
STYLE
  5
164D
330
3
100
AcDbSymbolTableRecord
100
AcDbTextStyleTableRecord
  2
ACANSTS
 70
     0
 40
1.0
 41
1.0
 50
0.0
 71
     0
 42
0.2
  3
romans.shx
  4

  0
STYLE
  5
1659
330
3
100
AcDbSymbolTableRecord
100
AcDbTextStyleTableRecord
  2
ACANSGDT
 70
     0
 40
0.0
 41
1.0
 50
0.0
 71
     0
 42
0.2
  3
amgdtans.shx
  4

  0
STYLE
  5
2198
330
3
100
AcDbSymbolTableRecord
100
AcDbTextStyleTableRecord
  2

 70
     1
 40
0.0
 41
1.0
 50
0.0
 71
     0
 42
0.187
  3
genltshp.shx
  4

  0
ENDTAB
  0
TABLE
  2
VIEW
  5
6
330
0
100
AcDbSymbolTable
 70
     0
  0
ENDTAB
  0
TABLE
  2
UCS
  5
7
330
0
100
AcDbSymbolTable
 70
     0
  0
ENDTAB
  0
TABLE
  2
APPID
  5
9
330
0
100
AcDbSymbolTable
 70
    14
  0
APPID
  5
11
330
9
100
AcDbSymbolTableRecord
100
AcDbRegAppTableRecord
  2
ACAD
 70
     0
  0
APPID
  5
15E0
330
9
100
AcDbSymbolTableRecord
100
AcDbRegAppTableRecord
  2
MCAD_NO_VIS
 70
     0
  0
APPID
  5
15E1
330
9
100
AcDbSymbolTableRecord
100
AcDbRegAppTableRecord
  2
ACAD_TEMP_GRAPHIC
 70
     0
  0
APPID
  5
160F
330
9
100
AcDbSymbolTableRecord
100
AcDbRegAppTableRecord
  2
AD_DRAW
 70
     0
  0
APPID
  5
1612
330
9
100
AcDbSymbolTableRecord
100
AcDbRegAppTableRecord
  2
ACATTRIBSERVICES
 70
     0
  0
APPID
  5
1630
330
9
100
AcDbSymbolTableRecord
100
AcDbRegAppTableRecord
  2
DESIGNERASSEMBLIES
 70
     0
  0
APPID
  5
1636
330
9
100
AcDbSymbolTableRecord
100
AcDbRegAppTableRecord
  2
ACADM_DIM_EDIT
 70
     0
  0
APPID
  5
1637
330
9
100
AcDbSymbolTableRecord
100
AcDbRegAppTableRecord
  2
AMDT_DM_ADJ
 70
     0
  0
APPID
  5
16CA
330
9
100
AcDbSymbolTableRecord
100
AcDbRegAppTableRecord
  2
GENIUS_GENODEF_13
 70
     0
  0
APPID
  5
16CB
330
9
100
AcDbSymbolTableRecord
100
AcDbRegAppTableRecord
  2
GENIUS_GENOLIS_13
 70
     0
  0
APPID
  5
16CC
330
9
100
AcDbSymbolTableRecord
100
AcDbRegAppTableRecord
  2
GENIUS_GENOENT_13
 70
     0
  0
APPID
  5
16CD
330
9
100
AcDbSymbolTableRecord
100
AcDbRegAppTableRecord
  2
GENIUS_GENOBJ-N-CRS_13
 70
     0
  0
APPID
  5
16CE
330
9
100
AcDbSymbolTableRecord
100
AcDbRegAppTableRecord
  2
GENIUS_GENOREF_13
 70
     0
  0
APPID
  5
20AC
330
9
100
AcDbSymbolTableRecord
100
AcDbRegAppTableRecord
  2
ACAD_PSEXT
 70
     0
  0
ENDTAB
  0
TABLE
  2
DIMSTYLE
  5
A
330
0
100
AcDbSymbolTable
 70
     8
100
AcDbDimStyleTable
 71
     1
340
2F7
  0
DIMSTYLE
105
2F7
102
{ACAD_REACTORS
330
2007
102
}
330
A
100
AcDbSymbolTableRecord
100
AcDbDimStyleTableRecord
  2
STANDARD
 70
     0
340
10
  0
DIMSTYLE
105
1665
330
A
100
AcDbSymbolTableRecord
100
AcDbDimStyleTableRecord
  2
AM_ANSI
 70
     0
  4
mm
 41
0.1
 42
0.05
 43
0.5
 44
0.1
 47
0.1
 48
0.1
 78
     7
 79
     2
140
0.12
141
0.0
146
0.71
147
0.06
176
   256
177
   256
178
     2
274
     4
284
     7
340
10
371
    -1
372
    -1
  0
DIMSTYLE
105
1666
330
A
100
AcDbSymbolTableRecord
100
AcDbDimStyleTableRecord
  2
AM_ANSI$3
 70
     0
  4
mm
 41
0.1
 42
0.05
 43
0.5
 44
0.1
 47
0.1
 48
0.1
 78
     7
 79
     2
140
0.12
141
0.0
146
0.71
147
0.06
176
   256
177
   256
178
     2
274
     4
284
     7
288
     1
289
     0
340
10
371
    -1
372
    -1
  0
DIMSTYLE
105
1667
330
A
100
AcDbSymbolTableRecord
100
AcDbDimStyleTableRecord
  2
AM_ANSI$4
 70
     0
  4
mm
 41
0.1
 42
0.05
 43
0.5
 44
0.1
 47
0.1
 48
0.1
 78
     7
 79
     2
140
0.12
141
0.0
146
0.71
147
0.06
176
   256
177
   256
178
     2
274
     4
284
     7
288
     1
289
     0
340
10
371
    -1
372
    -1
  0
DIMSTYLE
105
1668
330
A
100
AcDbSymbolTableRecord
100
AcDbDimStyleTableRecord
  2
AM_ANSI$7
 70
     0
  4
mm
 41
0.1
 42
0.05
 43
0.5
 44
0.1
 47
0.1
 48
0.1
 78
     7
 79
     2
140
0.24
141
0.0
146
0.71
147
0.06
176
   256
177
   256
178
     2
274
     4
284
     7
340
10
371
    -1
372
    -1
  0
DIMSTYLE
105
1669
330
A
100
AcDbSymbolTableRecord
100
AcDbDimStyleTableRecord
  2
AM_ANSI$SF
 70
     0
  4
mm
 41
0.1
 42
0.05
 43
0.5
 44
0.1
 47
0.1
 48
0.1
 75
     1
 76
     1
 78
     7
 79
     2
140
0.12
141
0.0
146
0.71
147
0.06
176
   256
177
   256
178
     2
274
     4
284
     7
340
10
371
    -1
372
    -1
  0
DIMSTYLE
105
166E
330
A
100
AcDbSymbolTableRecord
100
AcDbDimStyleTableRecord
  2
AM_ANSI$SH
 70
     0
  4
mm
 41
0.1
 42
0.05
 43
0.5
 44
0.1
 47
0.1
 48
0.1
 75
     1
 76
     1
 78
     7
 79
     2
140
0.12
141
0.0
146
0.71
147
0.06
173
     1
176
   256
177
   256
178
     2
274
     4
284
     7
340
10
343
166A
371
    -1
372
    -1
  0
DIMSTYLE
105
16C9
102
{ACAD_REACTORS
330
16D4
330
16D8
330
16D9
330
16DB
330
16DA
330
1FEB
330
1FEF
330
1FF0
330
1FF5
330
1FF6
102
}
330
A
100
AcDbSymbolTableRecord
100
AcDbDimStyleTableRecord
  2
STANDARD$0
 70
     0
340
10
  0
ENDTAB
  0
TABLE
  2
BLOCK_RECORD
  5
1
330
0
100
AcDbSymbolTable
 70
    43
  0
BLOCK_RECORD
  5
18
102
{ACAD_XDICTIONARY
360
20FC
102
}
330
1
100
AcDbSymbolTableRecord
100
AcDbBlockTableRecord
  2
*MODEL_SPACE
340
15D5
 70
     0
280
     1
281
     0
  0
BLOCK_RECORD
  5
15
330
1
100
AcDbSymbolTableRecord
100
AcDbBlockTableRecord
  2
*PAPER_SPACE
340
15D6
 70
     0
280
     1
281
     0
  0
BLOCK_RECORD
  5
1280
330
1
100
AcDbSymbolTableRecord
100
AcDbBlockTableRecord
  2
*X0
340
0
102
{BLKREFS
331
154F
102
}
 70
     0
280
     1
281
     0
  0
BLOCK_RECORD
  5
154C
330
1
100
AcDbSymbolTableRecord
100
AcDbBlockTableRecord
  2
T1
340
0
 70
     0
280
     1
281
     0
  0
BLOCK_RECORD
  5
1627
330
1
100
AcDbSymbolTableRecord
100
AcDbBlockTableRecord
  2
*U2
340
0
 70
     0
280
     1
281
     0
  0
BLOCK_RECORD
  5
166A
330
1
100
AcDbSymbolTableRecord
100
AcDbBlockTableRecord
  2
GENAXEH
340
0
 70
     0
280
     1
281
     0
  0
BLOCK_RECORD
  5
167A
330
1
100
AcDbSymbolTableRecord
100
AcDbBlockTableRecord
  2
*D4
340
0
 70
     0
280
     1
281
     0
  0
BLOCK_RECORD
  5
1687
330
1
100
AcDbSymbolTableRecord
100
AcDbBlockTableRecord
  2
*D5
340
0
 70
     0
280
     1
281
     0
  0
BLOCK_RECORD
  5
1694
330
1
100
AcDbSymbolTableRecord
100
AcDbBlockTableRecord
  2
*D6
340
0
 70
     0
280
     1
281
     0
  0
BLOCK_RECORD
  5
16A2
330
1
100
AcDbSymbolTableRecord
100
AcDbBlockTableRecord
  2
*D7
340
0
 70
     0
280
     1
281
     0
  0
BLOCK_RECORD
  5
16AF
330
1
100
AcDbSymbolTableRecord
100
AcDbBlockTableRecord
  2
*D8
340
0
 70
     0
280
     1
281
     0
  0
BLOCK_RECORD
  5
16BC
330
1
100
AcDbSymbolTableRecord
100
AcDbBlockTableRecord
  2
*D9
340
0
 70
     0
280
     1
281
     0
  0
BLOCK_RECORD
  5
16CF
102
{ACAD_XDICTIONARY
360
16FD
102
}
330
1
100
AcDbSymbolTableRecord
100
AcDbBlockTableRecord
  2
A$C711775DC
340
0
 70
     0
280
     1
281
     0
  0
BLOCK_RECORD
  5
1AC8
330
1
100
AcDbSymbolTableRecord
100
AcDbBlockTableRecord
  2
*D11
340
0
 70
     0
280
     1
281
     0
  0
BLOCK_RECORD
  5
1AD5
330
1
100
AcDbSymbolTableRecord
100
AcDbBlockTableRecord
  2
*D12
340
0
 70
     0
280
     1
281
     0
  0
BLOCK_RECORD
  5
1AE2
330
1
100
AcDbSymbolTableRecord
100
AcDbBlockTableRecord
  2
*D13
340
0
 70
     0
280
     1
281
     0
  0
BLOCK_RECORD
  5
1AEF
330
1
100
AcDbSymbolTableRecord
100
AcDbBlockTableRecord
  2
*D14
340
0
 70
     0
280
     1
281
     0
  0
BLOCK_RECORD
  5
1AFC
330
1
100
AcDbSymbolTableRecord
100
AcDbBlockTableRecord
  2
*D15
340
0
 70
     0
280
     1
281
     0
  0
BLOCK_RECORD
  5
1B07
330
1
100
AcDbSymbolTableRecord
100
AcDbBlockTableRecord
  2
*D16
340
0
 70
     0
280
     1
281
     0
  0
BLOCK_RECORD
  5
1B14
330
1
100
AcDbSymbolTableRecord
100
AcDbBlockTableRecord
  2
*D17
340
0
 70
     0
280
     1
281
     0
  0
BLOCK_RECORD
  5
1B22
330
1
100
AcDbSymbolTableRecord
100
AcDbBlockTableRecord
  2
*D18
340
0
 70
     0
280
     1
281
     0
  0
BLOCK_RECORD
  5
1B2D
102
{ACAD_XDICTIONARY
360
1B68
102
}
330
1
100
AcDbSymbolTableRecord
100
AcDbBlockTableRecord
  2
A$C2EE322AC
340
0
 70
     0
280
     1
281
     0
  0
BLOCK_RECORD
  5
1B6E
330
1
100
AcDbSymbolTableRecord
100
AcDbBlockTableRecord
  2
*D20
340
0
 70
     0
280
     1
281
     0
  0
BLOCK_RECORD
  5
1B7B
330
1
100
AcDbSymbolTableRecord
100
AcDbBlockTableRecord
  2
*D21
340
0
 70
     0
280
     1
281
     0
  0
BLOCK_RECORD
  5
1B88
330
1
100
AcDbSymbolTableRecord
100
AcDbBlockTableRecord
  2
*D22
340
0
 70
     0
280
     1
281
     0
  0
BLOCK_RECORD
  5
1B95
330
1
100
AcDbSymbolTableRecord
100
AcDbBlockTableRecord
  2
*D23
340
0
 70
     0
280
     1
281
     0
  0
BLOCK_RECORD
  5
1BA2
330
1
100
AcDbSymbolTableRecord
100
AcDbBlockTableRecord
  2
*D24
340
0
 70
     0
280
     1
281
     0
  0
BLOCK_RECORD
  5
1BAD
330
1
100
AcDbSymbolTableRecord
100
AcDbBlockTableRecord
  2
*D25
340
0
 70
     0
280
     1
281
     0
  0
BLOCK_RECORD
  5
1BBA
330
1
100
AcDbSymbolTableRecord
100
AcDbBlockTableRecord
  2
*D26
340
0
 70
     0
280
     1
281
     0
  0
BLOCK_RECORD
  5
1BC8
330
1
100
AcDbSymbolTableRecord
100
AcDbBlockTableRecord
  2
*D27
340
0
 70
     0
280
     1
281
     0
  0
BLOCK_RECORD
  5
1BD3
102
{ACAD_XDICTIONARY
360
1C0E
102
}
330
1
100
AcDbSymbolTableRecord
100
AcDbBlockTableRecord
  2
A$C57690C68
340
0
 70
     0
280
     1
281
     0
  0
BLOCK_RECORD
  5
1EE1
330
1
100
AcDbSymbolTableRecord
100
AcDbBlockTableRecord
  2
*D29
340
0
 70
     0
280
     1
281
     0
  0
BLOCK_RECORD
  5
1EEE
330
1
100
AcDbSymbolTableRecord
100
AcDbBlockTableRecord
  2
*D30
340
0
 70
     0
280
     1
281
     0
  0
BLOCK_RECORD
  5
1EFB
330
1
100
AcDbSymbolTableRecord
100
AcDbBlockTableRecord
  2
*D31
340
0
 70
     0
280
     1
281
     0
  0
BLOCK_RECORD
  5
1F09
330
1
100
AcDbSymbolTableRecord
100
AcDbBlockTableRecord
  2
*D32
340
0
 70
     0
280
     1
281
     0
  0
BLOCK_RECORD
  5
1F16
330
1
100
AcDbSymbolTableRecord
100
AcDbBlockTableRecord
  2
*D33
340
0
 70
     0
280
     1
281
     0
  0
BLOCK_RECORD
  5
1F23
330
1
100
AcDbSymbolTableRecord
100
AcDbBlockTableRecord
  2
*D34
340
0
 70
     0
280
     1
281
     0
  0
BLOCK_RECORD
  5
1F2E
102
{ACAD_XDICTIONARY
360
1F5E
102
}
330
1
100
AcDbSymbolTableRecord
100
AcDbBlockTableRecord
  2
A$C57490345
340
0
 70
     0
280
     1
281
     0
  0
BLOCK_RECORD
  5
2014
330
1
100
AcDbSymbolTableRecord
100
AcDbBlockTableRecord
  2
*D36
340
0
 70
     0
280
     1
281
     0
  0
BLOCK_RECORD
  5
2021
330
1
100
AcDbSymbolTableRecord
100
AcDbBlockTableRecord
  2
*D37
340
0
 70
     0
280
     1
281
     0
  0
BLOCK_RECORD
  5
202E
330
1
100
AcDbSymbolTableRecord
100
AcDbBlockTableRecord
  2
*D38
340
0
 70
     0
280
     1
281
     0
  0
BLOCK_RECORD
  5
203C
330
1
100
AcDbSymbolTableRecord
100
AcDbBlockTableRecord
  2
*D39
340
0
 70
     0
280
     1
281
     0
  0
BLOCK_RECORD
  5
2049
330
1
100
AcDbSymbolTableRecord
100
AcDbBlockTableRecord
  2
*D40
340
0
 70
     0
280
     1
281
     0
  0
BLOCK_RECORD
  5
2056
330
1
100
AcDbSymbolTableRecord
100
AcDbBlockTableRecord
  2
*D41
340
0
 70
     0
280
     1
281
     0
  0
ENDTAB
  0
ENDSEC
  0
SECTION
  2
BLOCKS
  0
BLOCK
  5
2B
330
18
100
AcDbEntity
  8
0
100
AcDbBlockBegin
  2
*MODEL_SPACE
 70
     0
 10
0.0
 20
0.0
 30
0.0
  3
*MODEL_SPACE
  1

  0
ENDBLK
  5
2C
330
18
100
AcDbEntity
  8
0
100
AcDbBlockEnd
  0
BLOCK
  5
29
330
15
100
AcDbEntity
 67
     1
  8
0
100
AcDbBlockBegin
  2
*PAPER_SPACE
 70
     0
 10
0.0
 20
0.0
 30
0.0
  3
*PAPER_SPACE
  1

  0
ENDBLK
  5
2A
330
15
100
AcDbEntity
 67
     1
  8
0
100
AcDbBlockEnd
  0
BLOCK
  5
1305
330
1280
100
AcDbEntity
  8
0
100
AcDbBlockBegin
  2
*X0
 70
     1
 10
0.0
 20
0.0
 30
0.0
  3
*X0
  1

  0
LINE
  5
1281
330
1280
100
AcDbEntity
  8
0
 62
     0
100
AcDbLine
 10
27.3100072306796
 20
0.8708427403763453
 30
0.0
 11
27.48262201737051
 21
1.043457527067252
 31
0.0
  0
LINE
  5
1282
330
1280
100
AcDbEntity
  8
0
 62
     0
100
AcDbLine
 10
27.7520009141747
 20
1.312836423871451
 30
0.0
 11
27.85832174992691
 21
1.419157259623653
 31
0.0
  0
LINE
  5
1283
330
1280
100
AcDbEntity
  8
0
 62
     0
100
AcDbLine
 10
27.29895868722355
 20
0.8708427403763453
 30
0.0
 11
27.46965962331391
 21
1.0415436764667
 31
0.0
  0
LINE
  5
1284
330
1280
100
AcDbEntity
  8
0
 62
     0
100
AcDbLine
 10
27.74304416629002
 20
1.31492821944281
 30
0.0
 11
27.84727320647087
 21
1.419157259623653
 31
0.0
  0
LINE
  5
1285
330
1280
100
AcDbEntity
  8
0
 62
     0
100
AcDbLine
 10
27.28865529704658
 20
0.8715878936554052
 30
0.0
 11
27.45801642065249
 21
1.040949017261312
 31
0.0
  0
LINE
  5
1286
330
1280
100
AcDbEntity
  8
0
 62
     0
100
AcDbLine
 10
27.7335028142953
 20
1.316435410904124
 30
0.0
 11
27.83622466301482
 21
1.419157259623653
 31
0.0
  0
LINE
  5
1287
330
1280
100
AcDbEntity
  8
0
 62
     0
100
AcDbLine
 10
27.28248300637859
 20
0.876464146443461
 30
0.0
 11
27.44734340985173
 21
1.041324549916596
 31
0.0
  0
LINE
  5
1288
330
1280
100
AcDbEntity
  8
0
 62
     0
100
AcDbLine
 10
27.72327234467449
 20
1.317253484739355
 30
0.0
 11
27.82517611955878
 21
1.419157259623653
 31
0.0
  0
LINE
  5
1289
330
1280
100
AcDbEntity
  8
0
 62
     0
100
AcDbLine
 10
27.2804374266431
 20
0.8854671101640105
 30
0.0
 11
27.43743764627249
 21
1.042467329793391
 31
0.0
  0
LINE
  5
128A
330
1280
100
AcDbEntity
  8
0
 62
     0
100
AcDbLine
 10
27.71219553621447
 20
1.317225219735374
 30
0.0
 11
27.81412757610274
 21
1.419157259623653
 31
0.0
  0
LINE
  5
128B
330
1280
100
AcDbEntity
  8
0
 62
     0
100
AcDbLine
 10
27.2804374266431
 20
0.8965156536200536
 30
0.0
 11
27.42816920538106
 21
1.044247432358002
 31
0.0
  0
LINE
  5
128C
330
1280
100
AcDbEntity
  8
0
 62
     0
100
AcDbLine
 10
27.70001735255056
 20
1.316095579527502
 30
0.0
 11
27.80307903264671
 21
1.419157259623653
 31
0.0
  0
LINE
  5
128D
330
1280
100
AcDbEntity
  8
0
 62
     0
100
AcDbLine
 10
27.2804374266431
 20
0.9075641970760919
 30
0.0
 11
27.41944953126117
 21
1.046576301694151
 31
0.0
  0
LINE
  5
128E
330
1280
100
AcDbEntity
  8
0
 62
     0
100
AcDbLine
 10
27.68627163114664
 20
1.313398401579628
 30
0.0
 11
27.79203048919067
 21
1.419157259623653
 31
0.0
  0
LINE
  5
128F
330
1280
100
AcDbEntity
  8
0
 62
     0
100
AcDbLine
 10
27.2804374266431
 20
0.9186127405321304
 30
0.0
 11
27.41121566875828
 21
1.0493909826473
 31
0.0
  0
LINE
  5
1290
330
1280
100
AcDbEntity
  8
0
 62
     0
100
AcDbLine
 10
27.66990238203785
 20
1.308077695926883
 30
0.0
 11
27.78098194573463
 21
1.419157259623653
 31
0.0
  0
LINE
  5
1291
330
1280
100
AcDbEntity
  8
0
 62
     0
100
AcDbLine
 10
27.2804374266431
 20
0.9296612839881687
 30
0.0
 11
27.40342161264395
 21
1.052645469989015
 31
0.0
  0
LINE
  5
1292
330
1280
100
AcDbEntity
  8
0
 62
     0
100
AcDbLine
 10
27.64675355657322
 20
1.295977413918288
 30
0.0
 11
27.76993340227858
 21
1.419157259623653
 31
0.0
  0
LINE
  5
1293
330
1280
100
AcDbEntity
  8
0
 62
     0
100
AcDbLine
 10
27.2804374266431
 20
0.9407098274442118
 30
0.0
 11
27.39603321832221
 21
1.056305619123314
 31
0.0
  0
LINE
  5
1294
330
1280
100
AcDbEntity
  8
0
 62
     0
100
AcDbLine
 10
27.49299672140779
 20
1.153269122208899
 30
0.0
 11
27.75888485882255
 21
1.419157259623653
 31
0.0
  0
LINE
  5
1295
330
1280
100
AcDbEntity
  8
0
 62
     0
100
AcDbLine
 10
27.2804374266431
 20
0.9517583709002501
 30
0.0
 11
27.38902505223432
 21
1.060345996491459
 31
0.0
  0
LINE
  5
1296
330
1280
100
AcDbEntity
  8
0
 62
     0
100
AcDbLine
 10
27.48191526669059
 20
1.153236210947735
 30
0.0
 11
27.74783631536651
 21
1.419157259623653
 31
0.0
  0
LINE
  5
1297
330
1280
100
AcDbEntity
  8
0
 62
     0
100
AcDbLine
 10
27.2804374266431
 20
0.9628069143562886
 30
0.0
 11
27.38237837440491
 21
1.064747862118093
 31
0.0
  0
LINE
  5
1298
330
1280
100
AcDbEntity
  8
0
 62
     0
100
AcDbLine
 10
27.47368104530164
 20
1.15605053301483
 30
0.0
 11
27.73678777191046
 21
1.419157259623653
 31
0.0
  0
LINE
  5
1299
330
1280
100
AcDbEntity
  8
0
 62
     0
100
AcDbLine
 10
27.2804374266431
 20
0.9738554578123316
 30
0.0
 11
27.37607982361687
 21
1.069497854786095
 31
0.0
  0
LINE
  5
129A
330
1280
100
AcDbEntity
  8
0
 62
     0
100
AcDbLine
 10
27.46716856317628
 20
1.160586594345498
 30
0.0
 11
27.72573922845442
 21
1.419157259623653
 31
0.0
  0
LINE
  5
129B
330
1280
100
AcDbEntity
  8
0
 62
     0
100
AcDbLine
 10
27.2804374266431
 20
0.9849040012683699
 30
0.0
 11
27.37010985226545
 21
1.074576426890717
 31
0.0
  0
LINE
  5
129C
330
1280
100
AcDbEntity
  8
0
 62
     0
100
AcDbLine
 10
27.46190303298581
 20
1.166369607611078
 30
0.0
 11
27.71469068499838
 21
1.419157259623653
 31
0.0
  0
LINE
  5
129D
330
1280
100
AcDbEntity
  8
0
 62
     0
100
AcDbLine
 10
27.2804374266431
 20
0.9959525447244082
 30
0.0
 11
27.36441212060541
 21
1.079927238686711
 31
0.0
  0
LINE
  5
129E
330
1280
100
AcDbEntity
  8
0
 62
     0
100
AcDbLine
 10
27.4580862915343
 20
1.173601409615603
 30
0.0
 11
27.70364214154235
 21
1.419157259623653
 31
0.0
  0
LINE
  5
129F
330
1280
100
AcDbEntity
  8
0
 62
     0
100
AcDbLine
 10
27.2804374266431
 20
1.007001088180451
 30
0.0
 11
27.3590476760544
 21
1.085611337591737
 31
0.0
  0
LINE
  5
12A0
330
1280
100
AcDbEntity
  8
0
 62
     0
100
AcDbLine
 10
27.45630337199827
 20
1.182867033535613
 30
0.0
 11
27.69259359808631
 21
1.419157259623653
 31
0.0
  0
LINE
  5
12A1
330
1280
100
AcDbEntity
  8
0
 62
     0
100
AcDbLine
 10
27.2804374266431
 20
1.018049631636489
 30
0.0
 11
27.35401827480653
 21
1.091630479799915
 31
0.0
  0
LINE
  5
12A2
330
1280
100
AcDbEntity
  8
0
 62
     0
100
AcDbLine
 10
27.45931602865035
 20
1.196928233643737
 30
0.0
 11
27.68154505463026
 21
1.419157259623653
 31
0.0
  0
LINE
  5
12A3
330
1280
100
AcDbEntity
  8
0
 62
     0
100
AcDbLine
 10
27.2804374266431
 20
1.029098175092528
 30
0.0
 11
27.34932943372869
 21
1.097990182178115
 31
0.0
  0
LINE
  5
12A4
330
1280
100
AcDbEntity
  8
0
 62
     0
100
AcDbLine
 10
27.2804374266431
 20
1.040146718548566
 30
0.0
 11
27.3449907455677
 21
1.104700037473157
 31
0.0
  0
LINE
  5
12A5
330
1280
100
AcDbEntity
  8
0
 62
     0
100
AcDbLine
 10
27.2804374266431
 20
1.051195262004609
 30
0.0
 11
27.34101645488534
 21
1.111774290246836
 31
0.0
  0
LINE
  5
12A6
330
1280
100
AcDbEntity
  8
0
 62
     0
100
AcDbLine
 10
27.2804374266431
 20
1.062243805460647
 30
0.0
 11
27.33742637979978
 21
1.119232758617317
 31
0.0
  0
LINE
  5
12A7
330
1280
100
AcDbEntity
  8
0
 62
     0
100
AcDbLine
 10
27.2804374266431
 20
1.073292348916686
 30
0.0
 11
27.33424733032767
 21
1.127102252601252
 31
0.0
  0
LINE
  5
12A8
330
1280
100
AcDbEntity
  8
0
 62
     0
100
AcDbLine
 10
27.2804374266431
 20
1.084340892372729
 30
0.0
 11
27.33151528824961
 21
1.135418753979235
 31
0.0
  0
LINE
  5
12A9
330
1280
100
AcDbEntity
  8
0
 62
     0
100
AcDbLine
 10
27.2804374266431
 20
1.095389435828767
 30
0.0
 11
27.3292788271509
 21
1.144230836336558
 31
0.0
  0
LINE
  5
12AA
330
1280
100
AcDbEntity
  8
0
 62
     0
100
AcDbLine
 10
27.2804374266431
 20
1.106437979284806
 30
0.0
 11
27.32760468192076
 21
1.153605234562463
 31
0.0
  0
LINE
  5
12AB
330
1280
100
AcDbEntity
  8
0
 62
     0
100
AcDbLine
 10
27.2804374266431
 20
1.117486522740844
 30
0.0
 11
27.32658731931682
 21
1.163636415414562
 31
0.0
  0
LINE
  5
12AC
330
1280
100
AcDbEntity
  8
0
 62
     0
100
AcDbLine
 10
27.2804374266431
 20
1.128535066196887
 30
0.0
 11
27.32636664402678
 21
1.174464283580557
 31
0.0
  0
LINE
  5
12AD
330
1280
100
AcDbEntity
  8
0
 62
     0
100
AcDbLine
 10
27.2804374266431
 20
1.139583609652925
 30
0.0
 11
27.32716429408758
 21
1.186310477097401
 31
0.0
  0
LINE
  5
12AE
330
1280
100
AcDbEntity
  8
0
 62
     0
100
AcDbLine
 10
27.2804374266431
 20
1.150632153108964
 30
0.0
 11
27.32937007503573
 21
1.199564801501592
 31
0.0
  0
LINE
  5
12AF
330
1280
100
AcDbEntity
  8
0
 62
     0
100
AcDbLine
 10
27.2804374266431
 20
1.161680696565007
 30
0.0
 11
27.33380440212454
 21
1.21504767204644
 31
0.0
  0
LINE
  5
12B0
330
1280
100
AcDbEntity
  8
0
 62
     0
100
AcDbLine
 10
27.2804374266431
 20
1.172729240021045
 30
0.0
 11
27.34303582165507
 21
1.235327635033016
 31
0.0
  0
LINE
  5
12B1
330
1280
100
AcDbEntity
  8
0
 62
     0
100
AcDbLine
 10
27.2804374266431
 20
1.183777783477083
 30
0.0
 11
27.51581690278967
 21
1.419157259623653
 31
0.0
  0
LINE
  5
12B2
330
1280
100
AcDbEntity
  8
0
 62
     0
100
AcDbLine
 10
27.2804374266431
 20
1.194826326933126
 30
0.0
 11
27.50476835933364
 21
1.419157259623653
 31
0.0
  0
LINE
  5
12B3
330
1280
100
AcDbEntity
  8
0
 62
     0
100
AcDbLine
 10
27.2804374266431
 20
1.205874870389165
 30
0.0
 11
27.49371981587759
 21
1.419157259623653
 31
0.0
  0
LINE
  5
12B4
330
1280
100
AcDbEntity
  8
0
 62
     0
100
AcDbLine
 10
27.2804374266431
 20
1.216923413845203
 30
0.0
 11
27.48267127242155
 21
1.419157259623653
 31
0.0
  0
LINE
  5
12B5
330
1280
100
AcDbEntity
  8
0
 62
     0
100
AcDbLine
 10
27.2804374266431
 20
1.227971957301241
 30
0.0
 11
27.47162272896551
 21
1.419157259623653
 31
0.0
  0
LINE
  5
12B6
330
1280
100
AcDbEntity
  8
0
 62
     0
100
AcDbLine
 10
27.2804374266431
 20
1.239020500757285
 30
0.0
 11
27.46057418550947
 21
1.419157259623653
 31
0.0
  0
LINE
  5
12B7
330
1280
100
AcDbEntity
  8
0
 62
     0
100
AcDbLine
 10
27.2804374266431
 20
1.250069044213323
 30
0.0
 11
27.44952564205343
 21
1.419157259623653
 31
0.0
  0
LINE
  5
12B8
330
1280
100
AcDbEntity
  8
0
 62
     0
100
AcDbLine
 10
27.2804374266431
 20
1.261117587669361
 30
0.0
 11
27.4384770985974
 21
1.419157259623653
 31
0.0
  0
LINE
  5
12B9
330
1280
100
AcDbEntity
  8
0
 62
     0
100
AcDbLine
 10
27.2804374266431
 20
1.272166131125404
 30
0.0
 11
27.42742855514135
 21
1.419157259623653
 31
0.0
  0
LINE
  5
12BA
330
1280
100
AcDbEntity
  8
0
 62
     0
100
AcDbLine
 10
27.2804374266431
 20
1.283214674581443
 30
0.0
 11
27.41638001168531
 21
1.419157259623653
 31
0.0
  0
LINE
  5
12BB
330
1280
100
AcDbEntity
  8
0
 62
     0
100
AcDbLine
 10
27.2804374266431
 20
1.294263218037481
 30
0.0
 11
27.40533146822928
 21
1.419157259623653
 31
0.0
  0
LINE
  5
12BC
330
1280
100
AcDbEntity
  8
0
 62
     0
100
AcDbLine
 10
27.2804374266431
 20
1.305311761493519
 30
0.0
 11
27.39428292477324
 21
1.419157259623653
 31
0.0
  0
LINE
  5
12BD
330
1280
100
AcDbEntity
  8
0
 62
     0
100
AcDbLine
 10
27.2804374266431
 20
1.316360304949562
 30
0.0
 11
27.3832343813172
 21
1.419157259623653
 31
0.0
  0
LINE
  5
12BE
330
1280
100
AcDbEntity
  8
0
 62
     0
100
AcDbLine
 10
27.2804374266431
 20
1.327408848405601
 30
0.0
 11
27.37218583786115
 21
1.419157259623653
 31
0.0
  0
LINE
  5
12BF
330
1280
100
AcDbEntity
  8
0
 62
     0
100
AcDbLine
 10
27.2804374266431
 20
1.338457391861639
 30
0.0
 11
27.36113729440511
 21
1.419157259623653
 31
0.0
  0
LINE
  5
12C0
330
1280
100
AcDbEntity
  8
0
 62
     0
100
AcDbLine
 10
27.2804374266431
 20
1.349505935317682
 30
0.0
 11
27.35008875094908
 21
1.419157259623653
 31
0.0
  0
LINE
  5
12C1
330
1280
100
AcDbEntity
  8
0
 62
     0
100
AcDbLine
 10
27.2804374266431
 20
1.360554478773721
 30
0.0
 11
27.33904020749303
 21
1.419157259623653
 31
0.0
  0
LINE
  5
12C2
330
1280
100
AcDbEntity
  8
0
 62
     0
100
AcDbLine
 10
27.2804374266431
 20
1.371603022229759
 30
0.0
 11
27.327991664037
 21
1.419157259623653
 31
0.0
  0
LINE
  5
12C3
330
1280
100
AcDbEntity
  8
0
 62
     0
100
AcDbLine
 10
27.2804374266431
 20
1.382651565685797
 30
0.0
 11
27.31694312058095
 21
1.419157259623653
 31
0.0
  0
LINE
  5
12C4
330
1280
100
AcDbEntity
  8
0
 62
     0
100
AcDbLine
 10
27.2804374266431
 20
1.39370010914184
 30
0.0
 11
27.30589457712492
 21
1.419157259623653
 31
0.0
  0
LINE
  5
12C5
330
1280
100
AcDbEntity
  8
0
 62
     0
100
AcDbLine
 10
27.2804374266431
 20
1.404748652597879
 30
0.0
 11
27.29484603366888
 21
1.419157259623653
 31
0.0
  0
LINE
  5
12C6
330
1280
100
AcDbEntity
  8
0
 62
     0
100
AcDbLine
 10
27.32105577413563
 20
0.8708427403763453
 30
0.0
 11
27.49760874485362
 21
1.047395711094327
 31
0.0
  0
LINE
  5
12C7
330
1280
100
AcDbEntity
  8
0
 62
     0
100
AcDbLine
 10
27.7604461175158
 20
1.31023308375651
 30
0.0
 11
27.86937029338294
 21
1.419157259623653
 31
0.0
  0
LINE
  5
12C8
330
1280
100
AcDbEntity
  8
0
 62
     0
100
AcDbLine
 10
27.33210431759168
 20
0.8708427403763453
 30
0.0
 11
27.51660733993784
 21
1.055345762722502
 31
0.0
  0
LINE
  5
12C9
330
1280
100
AcDbEntity
  8
0
 62
     0
100
AcDbLine
 10
27.76843259325569
 20
1.307171016040359
 30
0.0
 11
27.88041883683898
 21
1.419157259623653
 31
0.0
  0
LINE
  5
12CA
330
1280
100
AcDbEntity
  8
0
 62
     0
100
AcDbLine
 10
27.34315286104771
 20
0.8708427403763453
 30
0.0
 11
27.67488654716862
 21
1.202576426497251
 31
0.0
  0
LINE
  5
12CB
330
1280
100
AcDbEntity
  8
0
 62
     0
100
AcDbLine
 10
27.77599932525835
 20
1.303689204586975
 30
0.0
 11
27.89146227554938
 21
1.419152154878009
 31
0.0
  0
LINE
  5
12CC
330
1280
100
AcDbEntity
  8
0
 62
     0
100
AcDbLine
 10
27.35420140450376
 20
0.8708427403763453
 30
0.0
 11
27.68891245734026
 21
1.205553793212853
 31
0.0
  0
LINE
  5
12CD
330
1280
100
AcDbEntity
  8
0
 62
     0
100
AcDbLine
 10
27.78317534999442
 20
1.299816685867007
 30
0.0
 11
27.89937613760983
 21
1.416017473482417
 31
0.0
  0
LINE
  5
12CE
330
1280
100
AcDbEntity
  8
0
 62
     0
100
AcDbLine
 10
27.36524994795979
 20
0.8708427403763453
 30
0.0
 11
27.69816957920642
 21
1.203762371622968
 31
0.0
  0
LINE
  5
12CF
330
1280
100
AcDbEntity
  8
0
 62
     0
100
AcDbLine
 10
27.78998221218746
 20
1.295575004604006
 30
0.0
 11
27.90336163516511
 21
1.408954427581657
 31
0.0
  0
LINE
  5
12D0
330
1280
100
AcDbEntity
  8
0
 62
     0
100
AcDbLine
 10
27.37629849141583
 20
0.8708427403763453
 30
0.0
 11
27.70539591570496
 21
1.199940164665469
 31
0.0
  0
LINE
  5
12D1
330
1280
100
AcDbEntity
  8
0
 62
     0
100
AcDbLine
 10
27.79643555659359
 20
1.290979805554101
 30
0.0
 11
27.90356822513043
 21
1.398112474090929
 31
0.0
  0
LINE
  5
12D2
330
1280
100
AcDbEntity
  8
0
 62
     0
100
AcDbLine
 10
27.38734703487188
 20
0.8708427403763453
 30
0.0
 11
27.71117517259411
 21
1.194670878098575
 31
0.0
  0
LINE
  5
12D3
330
1280
100
AcDbEntity
  8
0
 62
     0
100
AcDbLine
 10
27.8025461656507
 20
1.286041871155172
 30
0.0
 11
27.90356822513043
 21
1.387063930634891
 31
0.0
  0
LINE
  5
12D4
330
1280
100
AcDbEntity
  8
0
 62
     0
100
AcDbLine
 10
27.39839557832791
 20
0.8708427403763453
 30
0.0
 11
27.7157062426026
 21
1.188153404651031
 31
0.0
  0
LINE
  5
12D5
330
1280
100
AcDbEntity
  8
0
 62
     0
100
AcDbLine
 10
27.80837159340093
 20
1.280818755449355
 30
0.0
 11
27.90356822513042
 21
1.376015387178852
 31
0.0
  0
LINE
  5
12D6
330
1280
100
AcDbEntity
  8
0
 62
     0
100
AcDbLine
 10
27.40944412178396
 20
0.8708427403763453
 30
0.0
 11
27.71851393969749
 21
1.179912558289886
 31
0.0
  0
LINE
  5
12D7
330
1280
100
AcDbEntity
  8
0
 62
     0
100
AcDbLine
 10
27.81388552162722
 20
1.275284140219612
 30
0.0
 11
27.90356822513042
 21
1.364966843722814
 31
0.0
  0
LINE
  5
12D8
330
1280
100
AcDbEntity
  8
0
 62
     0
100
AcDbLine
 10
27.42049266523999
 20
0.8708427403763453
 30
0.0
 11
27.71846679491825
 21
1.168816870054604
 31
0.0
  0
LINE
  5
12D9
330
1280
100
AcDbEntity
  8
0
 62
     0
100
AcDbLine
 10
27.81906564873466
 20
1.26941572387101
 30
0.0
 11
27.90356822513042
 21
1.353918300266771
 31
0.0
  0
LINE
  5
12DA
330
1280
100
AcDbEntity
  8
0
 62
     0
100
AcDbLine
 10
27.82390816996316
 20
1.263209701643469
 30
0.0
 11
27.90356822513042
 21
1.342869756810732
 31
0.0
  0
LINE
  5
12DB
330
1280
100
AcDbEntity
  8
0
 62
     0
100
AcDbLine
 10
27.82840537490917
 20
1.25665836313344
 30
0.0
 11
27.90356822513042
 21
1.331821213354694
 31
0.0
  0
LINE
  5
12DC
330
1280
100
AcDbEntity
  8
0
 62
     0
100
AcDbLine
 10
27.83254519618949
 20
1.249749640957723
 30
0.0
 11
27.90356822513042
 21
1.32077266989865
 31
0.0
  0
LINE
  5
12DD
330
1280
100
AcDbEntity
  8
0
 62
     0
100
AcDbLine
 10
27.83631045675955
 20
1.242466358071741
 30
0.0
 11
27.90356822513042
 21
1.309724126442612
 31
0.0
  0
LINE
  5
12DE
330
1280
100
AcDbEntity
  8
0
 62
     0
100
AcDbLine
 10
27.83967769871537
 20
1.234785056571515
 30
0.0
 11
27.90356822513042
 21
1.298675582986573
 31
0.0
  0
LINE
  5
12DF
330
1280
100
AcDbEntity
  8
0
 62
     0
100
AcDbLine
 10
27.84261538819789
 20
1.226674202597994
 30
0.0
 11
27.90356822513042
 21
1.28762703953053
 31
0.0
  0
LINE
  5
12E0
330
1280
100
AcDbEntity
  8
0
 62
     0
100
AcDbLine
 10
27.84508113113317
 20
1.218091402077239
 30
0.0
 11
27.90356822513042
 21
1.276578496074492
 31
0.0
  0
LINE
  5
12E1
330
1280
100
AcDbEntity
  8
0
 62
     0
100
AcDbLine
 10
27.84701722297193
 20
1.208978950459959
 30
0.0
 11
27.90356822513042
 21
1.265529952618453
 31
0.0
  0
LINE
  5
12E2
330
1280
100
AcDbEntity
  8
0
 62
     0
100
AcDbLine
 10
27.84834319975303
 20
1.199256383785016
 30
0.0
 11
27.90356822513042
 21
1.254481409162415
 31
0.0
  0
LINE
  5
12E3
330
1280
100
AcDbEntity
  8
0
 62
     0
100
AcDbLine
 10
27.84894254449275
 20
1.188807185068705
 30
0.0
 11
27.90356822513042
 21
1.243432865706372
 31
0.0
  0
LINE
  5
12E4
330
1280
100
AcDbEntity
  8
0
 62
     0
100
AcDbLine
 10
27.84863677657107
 20
1.177452873690979
 30
0.0
 11
27.90356822513042
 21
1.232384322250333
 31
0.0
  0
LINE
  5
12E5
330
1280
100
AcDbEntity
  8
0
 62
     0
100
AcDbLine
 10
27.8471282065377
 20
1.164895760201571
 30
0.0
 11
27.90356822513042
 21
1.221335778794294
 31
0.0
  0
LINE
  5
12E6
330
1280
100
AcDbEntity
  8
0
 62
     0
100
AcDbLine
 10
27.84384666475196
 20
1.150565674959785
 30
0.0
 11
27.90356822513042
 21
1.210287235338251
 31
0.0
  0
LINE
  5
12E7
330
1280
100
AcDbEntity
  8
0
 62
     0
100
AcDbLine
 10
27.83736996918043
 20
1.133040435932225
 30
0.0
 11
27.90356822513042
 21
1.199238691882213
 31
0.0
  0
LINE
  5
12E8
330
1280
100
AcDbEntity
  8
0
 62
     0
100
AcDbLine
 10
27.81840643788305
 20
1.103028361178801
 30
0.0
 11
27.90356822513042
 21
1.188190148426174
 31
0.0
  0
LINE
  5
12E9
330
1280
100
AcDbEntity
  8
0
 62
     0
100
AcDbLine
 10
27.59726936053663
 20
0.8708427403763453
 30
0.0
 11
27.90356822513042
 21
1.177141604970136
 31
0.0
  0
LINE
  5
12EA
330
1280
100
AcDbEntity
  8
0
 62
     0
100
AcDbLine
 10
27.60831790399267
 20
0.8708427403763453
 30
0.0
 11
27.90356822513042
 21
1.166093061514092
 31
0.0
  0
LINE
  5
12EB
330
1280
100
AcDbEntity
  8
0
 62
     0
100
AcDbLine
 10
27.61936644744871
 20
0.8708427403763453
 30
0.0
 11
27.90356822513042
 21
1.155044518058054
 31
0.0
  0
LINE
  5
12EC
330
1280
100
AcDbEntity
  8
0
 62
     0
100
AcDbLine
 10
27.63041499090475
 20
0.8708427403763453
 30
0.0
 11
27.90356822513042
 21
1.143995974602016
 31
0.0
  0
LINE
  5
12ED
330
1280
100
AcDbEntity
  8
0
 62
     0
100
AcDbLine
 10
27.64146353436079
 20
0.8708427403763453
 30
0.0
 11
27.90356822513042
 21
1.132947431145972
 31
0.0
  0
LINE
  5
12EE
330
1280
100
AcDbEntity
  8
0
 62
     0
100
AcDbLine
 10
27.65251207781683
 20
0.8708427403763453
 30
0.0
 11
27.90356822513042
 21
1.121898887689934
 31
0.0
  0
LINE
  5
12EF
330
1280
100
AcDbEntity
  8
0
 62
     0
100
AcDbLine
 10
27.66356062127287
 20
0.8708427403763453
 30
0.0
 11
27.90356822513042
 21
1.110850344233895
 31
0.0
  0
LINE
  5
12F0
330
1280
100
AcDbEntity
  8
0
 62
     0
100
AcDbLine
 10
27.67460916472891
 20
0.8708427403763453
 30
0.0
 11
27.90356822513042
 21
1.099801800777852
 31
0.0
  0
LINE
  5
12F1
330
1280
100
AcDbEntity
  8
0
 62
     0
100
AcDbLine
 10
27.68565770818495
 20
0.8708427403763453
 30
0.0
 11
27.90356822513042
 21
1.088753257321813
 31
0.0
  0
LINE
  5
12F2
330
1280
100
AcDbEntity
  8
0
 62
     0
100
AcDbLine
 10
27.69670625164099
 20
0.8708427403763453
 30
0.0
 11
27.90356822513042
 21
1.077704713865775
 31
0.0
  0
LINE
  5
12F3
330
1280
100
AcDbEntity
  8
0
 62
     0
100
AcDbLine
 10
27.70775479509703
 20
0.8708427403763453
 30
0.0
 11
27.90356822513042
 21
1.066656170409737
 31
0.0
  0
LINE
  5
12F4
330
1280
100
AcDbEntity
  8
0
 62
     0
100
AcDbLine
 10
27.71880333855307
 20
0.8708427403763453
 30
0.0
 11
27.90356822513042
 21
1.055607626953693
 31
0.0
  0
LINE
  5
12F5
330
1280
100
AcDbEntity
  8
0
 62
     0
100
AcDbLine
 10
27.72985188200911
 20
0.8708427403763453
 30
0.0
 11
27.90356822513042
 21
1.044559083497655
 31
0.0
  0
LINE
  5
12F6
330
1280
100
AcDbEntity
  8
0
 62
     0
100
AcDbLine
 10
27.74090042546515
 20
0.8708427403763453
 30
0.0
 11
27.90356822513042
 21
1.033510540041616
 31
0.0
  0
LINE
  5
12F7
330
1280
100
AcDbEntity
  8
0
 62
     0
100
AcDbLine
 10
27.75194896892119
 20
0.8708427403763453
 30
0.0
 11
27.90356822513042
 21
1.022461996585573
 31
0.0
  0
LINE
  5
12F8
330
1280
100
AcDbEntity
  8
0
 62
     0
100
AcDbLine
 10
27.76299751237722
 20
0.8708427403763453
 30
0.0
 11
27.90356822513042
 21
1.011413453129535
 31
0.0
  0
LINE
  5
12F9
330
1280
100
AcDbEntity
  8
0
 62
     0
100
AcDbLine
 10
27.77404605583327
 20
0.8708427403763453
 30
0.0
 11
27.90356822513042
 21
1.000364909673496
 31
0.0
  0
LINE
  5
12FA
330
1280
100
AcDbEntity
  8
0
 62
     0
100
AcDbLine
 10
27.78509459928931
 20
0.8708427403763453
 30
0.0
 11
27.90356822513042
 21
0.9893163662174581
 31
0.0
  0
LINE
  5
12FB
330
1280
100
AcDbEntity
  8
0
 62
     0
100
AcDbLine
 10
27.79614314274535
 20
0.8708427403763453
 30
0.0
 11
27.90356822513042
 21
0.9782678227614148
 31
0.0
  0
LINE
  5
12FC
330
1280
100
AcDbEntity
  8
0
 62
     0
100
AcDbLine
 10
27.80719168620139
 20
0.8708427403763453
 30
0.0
 11
27.90356822513042
 21
0.9672192793053763
 31
0.0
  0
LINE
  5
12FD
330
1280
100
AcDbEntity
  8
0
 62
     0
100
AcDbLine
 10
27.81824022965742
 20
0.8708427403763453
 30
0.0
 11
27.90356822513042
 21
0.9561707358493379
 31
0.0
  0
LINE
  5
12FE
330
1280
100
AcDbEntity
  8
0
 62
     0
100
AcDbLine
 10
27.82928877311347
 20
0.8708427403763453
 30
0.0
 11
27.90356822513042
 21
0.9451221923932946
 31
0.0
  0
LINE
  5
12FF
330
1280
100
AcDbEntity
  8
0
 62
     0
100
AcDbLine
 10
27.84033731656951
 20
0.8708427403763453
 30
0.0
 11
27.90356822513042
 21
0.9340736489372561
 31
0.0
  0
LINE
  5
1300
330
1280
100
AcDbEntity
  8
0
 62
     0
100
AcDbLine
 10
27.85138586002555
 20
0.8708427403763453
 30
0.0
 11
27.90356822513042
 21
0.9230251054812177
 31
0.0
  0
LINE
  5
1301
330
1280
100
AcDbEntity
  8
0
 62
     0
100
AcDbLine
 10
27.86243440348159
 20
0.8708427403763453
 30
0.0
 11
27.90356822513042
 21
0.9119765620251792
 31
0.0
  0
LINE
  5
1302
330
1280
100
AcDbEntity
  8
0
 62
     0
100
AcDbLine
 10
27.87348294693763
 20
0.8708427403763453
 30
0.0
 11
27.90356822513042
 21
0.9009280185691359
 31
0.0
  0
LINE
  5
1303
330
1280
100
AcDbEntity
  8
0
 62
     0
100
AcDbLine
 10
27.88453149039366
 20
0.8708427403763453
 30
0.0
 11
27.90356822513042
 21
0.8898794751130974
 31
0.0
  0
LINE
  5
1304
330
1280
100
AcDbEntity
  8
0
 62
     0
100
AcDbLine
 10
27.89713639245572
 20
0.8723990989823603
 30
0.0
 11
27.90201186652441
 21
0.877274573051044
 31
0.0
  0
ENDBLK
  5
1306
330
1280
100
AcDbEntity
  8
0
100
AcDbBlockEnd
  0
BLOCK
  5
154D
330
154C
100
AcDbEntity
  8
0
100
AcDbBlockBegin
  2
T1
 70
     0
 10
0.0
 20
0.0
 30
0.0
  3
T1
  1

  0
TEXT
  5
154E
330
154C
100
AcDbEntity
  8
TITLE
100
AcDbText
 10
28.02418316975298
 20
1.190159829056212
 30
0.0
 40
0.228
  1
STAHLIN
 41
1.066187799418365
  7
STYLE1
 72
     5
 11
29.3880803720071
 21
1.190159829056212
 31
0.0
100
AcDbText
  0
INSERT
  5
154F
330
154C
100
AcDbEntity
  8
0
 62
     1
100
AcDbBlockReference
  2
*X0
 10
0.0000000000000071
 20
-0.0000000000000009
 30
0.0
1001
ACAD
1000
HATCH
1002
{
1070
    19
1000
ANSI31
1040
0.0625
1040
6.283185307179586
1000
ASC_BOUNDS
1070
     1
1070
     2
1070
     2
1005
1551
1005
1562
1000
ASC_SEEDPOINT
1011
0.0
1021
-0.0000000000000009
1031
0.0
1002
}
  0
TEXT
  5
1550
330
154C
100
AcDbEntity
  8
TITLE
100
AcDbText
 10
28.04089722471202
 20
0.8709828809028783
 30
0.0
 40
0.062
  1
DIVISION OF ROBROY INDUSTRIES
 41
0.8060929261227064
  7
ITALIC
 72
     5
 11
29.40695603684797
 21
0.8709828809028783
 31
0.0
100
AcDbText
  0
POLYLINE
  5
1551
330
154C
100
AcDbEntity
  8
0
 62
     1
100
AcDb2dPolyline
 66
     1
 10
0.0
 20
0.0
 30
0.0
1001
ACAD
1000
ASC_BOUNDS
1002
{
1070
    19
1005
154F
1002
}
  0
VERTEX
  5
1552
330
1551
100
AcDbEntity
  8
0
 62
     1
100
AcDbVertex
100
AcDb2dVertex
 10
27.71024914247965
 20
1.153339833757146
 30
0.0
  0
VERTEX
  5
1553
330
1551
100
AcDbEntity
  8
0
 62
     1
100
AcDbVertex
100
AcDb2dVertex
 10
27.42775204909885
 20
0.8708427403763456
 30
0.0
  0
VERTEX
  5
1554
330
1551
100
AcDbEntity
  8
0
 62
     1
100
AcDbVertex
100
AcDb2dVertex
 10
27.29290004260991
 20
0.8708427403763456
 30
0.0
 42
-0.4142135623730939
  0
VERTEX
  5
1555
330
1551
100
AcDbEntity
  8
0
 62
     1
100
AcDbVertex
100
AcDb2dVertex
 10
27.28043742664311
 20
0.8833053563431425
 30
0.0
  0
VERTEX
  5
1556
330
1551
100
AcDbEntity
  8
0
 62
     1
100
AcDbVertex
100
AcDb2dVertex
 10
27.2804374266431
 20
1.406694643656854
 30
0.0
 42
-0.4142135623730959
  0
VERTEX
  5
1557
330
1551
100
AcDbEntity
  8
0
 62
     1
100
AcDbVertex
100
AcDb2dVertex
 10
27.29290004260989
 20
1.419157259623651
 30
0.0
  0
VERTEX
  5
1558
330
1551
100
AcDbEntity
  8
0
 62
     1
100
AcDbVertex
100
AcDb2dVertex
 10
27.52011845691654
 20
1.419157259623651
 30
0.0
  0
VERTEX
  5
1559
330
1551
100
AcDbEntity
  8
0
 62
     1
100
AcDbVertex
100
AcDb2dVertex
 10
27.36429917149744
 20
1.263337974204545
 30
0.0
 42
0.4330201013744681
  0
VERTEX
  5
155A
330
1551
100
AcDbEntity
  8
0
 62
     1
100
AcDbVertex
100
AcDb2dVertex
 10
27.37032692754798
 20
1.07438498431508
 30
0.0
  0
VERTEX
  5
155B
330
1551
100
AcDbEntity
  8
0
 62
     1
100
AcDbVertex
100
AcDb2dVertex
 10
27.37161242272993
 20
1.073253832277038
 30
0.0
 42
0.3956538349195001
  0
VERTEX
  5
155C
330
1551
100
AcDbEntity
  8
0
 62
     1
100
AcDbVertex
100
AcDb2dVertex
 10
27.54888259211745
 20
1.078908896728427
 30
0.0
  0
VERTEX
  5
155D
330
1551
100
AcDbEntity
  8
0
 62
     1
100
AcDbVertex
100
AcDb2dVertex
 10
27.66677953844882
 20
1.196809438214741
 30
0.0
 42
-0.4142135623730808
  0
VERTEX
  5
155E
330
1551
100
AcDbEntity
  8
0
 62
     1
100
AcDbVertex
100
AcDb2dVertex
 10
27.70907905970376
 20
1.196809438214745
 30
0.0
  0
VERTEX
  5
155F
330
1551
100
AcDbEntity
  8
0
 62
     1
100
AcDbVertex
100
AcDb2dVertex
 10
27.71024914251424
 20
1.195639354977497
 30
0.0
 42
-0.4142135623731028
  0
VERTEX
  5
1560
330
1551
100
AcDbEntity
  8
0
 62
     1
100
AcDbVertex
100
AcDb2dVertex
 10
27.71024914251425
 20
1.153339833722553
 30
0.0
  0
SEQEND
  5
1561
330
1551
100
AcDbEntity
  8
0
 62
     1
  0
POLYLINE
  5
1562
330
154C
100
AcDbEntity
  8
0
 62
     1
100
AcDb2dPolyline
 66
     1
 10
0.0
 20
0.0
 30
0.0
1001
ACAD
1000
ASC_BOUNDS
1002
{
1070
    19
1005
154F
1002
}
  0
VERTEX
  5
1563
330
1562
100
AcDbEntity
  8
0
 62
     1
100
AcDbVertex
100
AcDb2dVertex
 10
27.46504885676354
 20
1.204964978806585
 30
0.0
  0
VERTEX
  5
1564
330
1562
100
AcDbEntity
  8
0
 62
     1
100
AcDbVertex
100
AcDb2dVertex
 10
27.67924113758061
 20
1.419157259623651
 30
0.0
  0
VERTEX
  5
1565
330
1562
100
AcDbEntity
  8
0
 62
     1
100
AcDbVertex
100
AcDb2dVertex
 10
27.89110560916363
 20
1.419157259623651
 30
0.0
 42
-0.4142135623730959
  0
VERTEX
  5
1566
330
1562
100
AcDbEntity
  8
0
 62
     1
100
AcDbVertex
100
AcDb2dVertex
 10
27.90356822513042
 20
1.406694643656854
 30
0.0
  0
VERTEX
  5
1567
330
1562
100
AcDbEntity
  8
0
 62
     1
100
AcDbVertex
100
AcDb2dVertex
 10
27.90356822513042
 20
0.8833053563431425
 30
0.0
 42
-0.4142135623730951
  0
VERTEX
  5
1568
330
1562
100
AcDbEntity
  8
0
 62
     1
100
AcDbVertex
100
AcDb2dVertex
 10
27.89110560916363
 20
0.8708427403763456
 30
0.0
  0
VERTEX
  5
1569
330
1562
100
AcDbEntity
  8
0
 62
     1
100
AcDbVertex
100
AcDb2dVertex
 10
27.58687472976292
 20
0.8708427403763456
 30
0.0
  0
VERTEX
  5
156A
330
1562
100
AcDbEntity
  8
0
 62
     1
100
AcDbVertex
100
AcDb2dVertex
 10
27.81099882774576
 20
1.094966838359183
 30
0.0
 42
0.433020101374468
  0
VERTEX
  5
156B
330
1562
100
AcDbEntity
  8
0
 62
     1
100
AcDbVertex
100
AcDb2dVertex
 10
27.8049710716952
 20
1.283919828248651
 30
0.0
  0
VERTEX
  5
156C
330
1562
100
AcDbEntity
  8
0
 62
     1
100
AcDbVertex
100
AcDb2dVertex
 10
27.80368557651327
 20
1.285050980286693
 30
0.0
 42
0.3956538349195001
  0
VERTEX
  5
156D
330
1562
100
AcDbEntity
  8
0
 62
     1
100
AcDbVertex
100
AcDb2dVertex
 10
27.62641540712574
 20
1.2793959158353
 30
0.0
  0
VERTEX
  5
156E
330
1562
100
AcDbEntity
  8
0
 62
     1
100
AcDbVertex
100
AcDb2dVertex
 10
27.50851846079437
 20
1.161495374348986
 30
0.0
 42
-0.4142135623730808
  0
VERTEX
  5
156F
330
1562
100
AcDbEntity
  8
0
 62
     1
100
AcDbVertex
100
AcDb2dVertex
 10
27.46621893953944
 20
1.161495374348986
 30
0.0
  0
VERTEX
  5
1570
330
1562
100
AcDbEntity
  8
0
 62
     1
100
AcDbVertex
100
AcDb2dVertex
 10
27.46504885672895
 20
1.162665457586235
 30
0.0
 42
-0.414213562373103
  0
VERTEX
  5
1571
330
1562
100
AcDbEntity
  8
0
 62
     1
100
AcDbVertex
100
AcDb2dVertex
 10
27.46504885672895
 20
1.204964978841174
 30
0.0
  0
SEQEND
  5
1572
330
1562
100
AcDbEntity
  8
0
 62
     1
  0
POLYLINE
  5
1573
330
154C
100
AcDbEntity
  8
TITLE
 62
     1
100
AcDb2dPolyline
 66
     1
 10
0.0
 20
0.0
 30
0.0
 40
0.03
 41
0.03
  0
VERTEX
  5
1574
330
1573
100
AcDbEntity
  8
TITLE
 62
     1
100
AcDbVertex
100
AcDb2dVertex
 10
30.16600318275172
 20
1.3704839742382
 30
0.0
  0
VERTEX
  5
1575
330
1573
100
AcDbEntity
  8
TITLE
 62
     1
100
AcDbVertex
100
AcDb2dVertex
 10
30.16600318275172
 20
0.9195160257618004
 30
0.0
  0
SEQEND
  5
1576
330
1573
100
AcDbEntity
  8
TITLE
 62
     1
  0
TEXT
  5
1577
330
154C
100
AcDbEntity
  8
TITLE
100
AcDbText
 10
28.04046221363844
 20
1.005825880842233
 30
0.0
 40
0.125
  1
ENCLOSURES
 41
1.132998946758617
  7
ITALIC
 72
     5
 11
29.40950260763844
 21
1.005825880842233
 31
0.0
100
AcDbText
  0
TEXT
  5
1578
330
154C
100
AcDbEntity
  8
TITLE
 62
     1
100
AcDbText
 10
30.25114293533647
 20
1.175383111532464
 30
0.0
 40
0.09
  1
BELDING,MICHIGAN
  7
ITALIC
 72
     1
 11
30.88864293533647
 21
1.175383111532464
 31
0.0
100
AcDbText
  0
TEXT
  5
1579
330
154C
100
AcDbEntity
  8
TITLE
 62
     1
100
AcDbText
 10
30.68614293533647
 20
1.025383111532462
 30
0.0
 40
0.09
  1
48809
  7
ITALIC
 72
     1
 11
30.88864293533647
 21
1.025383111532462
 31
0.0
100
AcDbText
  0
TEXT
  5
157A
330
154C
100
AcDbEntity
  8
TITLE
 62
     1
100
AcDbText
 10
30.68614293533646
 20
1.025383111532465
 30
0.0
 40
0.09
  1
48809
  7
ITALIC
 72
     1
 11
30.88864293533646
 21
1.025383111532465
 31
0.0
100
AcDbText
  0
TEXT
  5
157B
330
154C
100
AcDbEntity
  8
TITLE
 62
     1
100
AcDbText
 10
30.25114293533647
 20
1.175383111532471
 30
0.0
 40
0.09
  1
BELDING,MICHIGAN
  7
ITALIC
 72
     1
 11
30.88864293533646
 21
1.175383111532471
 31
0.0
100
AcDbText
  0
POLYLINE
  5
157C
330
154C
100
AcDbEntity
  8
TITLE
 62
     1
100
AcDb2dPolyline
 66
     1
 10
0.0
 20
0.0
 30
0.0
 40
0.03
 41
0.03
  0
VERTEX
  5
157D
330
157C
100
AcDbEntity
  8
TITLE
 62
     1
100
AcDbVertex
100
AcDb2dVertex
 10
30.16600318275171
 20
1.3704839742382
 30
0.0
  0
VERTEX
  5
157E
330
157C
100
AcDbEntity
  8
TITLE
 62
     1
100
AcDbVertex
100
AcDb2dVertex
 10
30.16600318275171
 20
0.919516025761804
 30
0.0
  0
SEQEND
  5
157F
330
157C
100
AcDbEntity
  8
TITLE
 62
     1
  0
TEXT
  5
1580
330
154C
100
AcDbEntity
  8
TITLE
 62
     1
100
AcDbText
 10
31.00852845841571
 20
1.598995989110274
 30
0.0
 40
0.077625
  1
-
  7
ITALIC
100
AcDbText
  0
TEXT
  5
1581
330
154C
100
AcDbEntity
  8
TITLE
 62
     1
100
AcDbText
 10
31.00852845841571
 20
1.67489017895729
 30
0.0
 40
0.077625
  1
+
  7
ITALIC
100
AcDbText
  0
TEXT
  5
1582
330
154C
100
AcDbEntity
  8
TITLE
 62
     1
100
AcDbText
 10
31.00852845841571
 20
1.821601531544219
 30
0.0
 40
0.077625
  1
FRACTIONAL
  7
ITALIC
100
AcDbText
  0
TEXT
  5
1583
330
154C
100
AcDbEntity
  8
TITLE
 62
     1
100
AcDbText
 10
30.2387790146668
 20
1.599420352371773
 30
0.0
 40
0.077625
  1
-
  7
ITALIC
100
AcDbText
  0
TEXT
  5
1584
330
154C
100
AcDbEntity
  8
TITLE
 62
     1
100
AcDbText
 10
30.2387790146668
 20
1.678182472211949
 30
0.0
 40
0.077625
  1
+
  7
ITALIC
100
AcDbText
  0
TEXT
  5
1585
330
154C
100
AcDbEntity
  8
TITLE
 62
     1
100
AcDbText
 10
30.2387790146668
 20
1.824893824798871
 30
0.0
 40
0.077625
  1
DECIMAL
  7
ITALIC
100
AcDbText
  0
TEXT
  5
1586
330
154C
100
AcDbEntity
  8
TITLE
 62
     1
100
AcDbText
 10
28.96371705089771
 20
1.821543163203228
 30
0.0
 40
0.077625
  1
TOLERANCES
  7
ITALIC
 72
     1
 11
29.33890455089771
 21
1.821543163203228
 31
0.0
100
AcDbText
  0
LINE
  5
1587
330
154C
100
AcDbEntity
  8
TITLE
 62
     1
100
AcDbLine
 10
28.66750000000187
 20
2.019999999999999
 30
0.0
 11
28.66750000000187
 21
1.52
 31
0.0
  0
TEXT
  5
1588
330
154C
100
AcDbEntity
  8
TITLE
 62
     1
100
AcDbText
 10
28.75671705089771
 20
1.638334226222779
 30
0.0
 40
0.077625
  1
UNLESS SPECIFIED
  7
ITALIC
 72
     1
 11
29.33890455089771
 21
1.638334226222779
 31
0.0
100
AcDbText
  0
TEXT
  5
1589
330
154C
100
AcDbEntity
  8
TITLE
 62
     1
100
AcDbText
 10
26.72356982918361
 20
1.411363898473141
 30
0.0
 40
0.07
  1
DATE
  7
ITALIC
 72
     1
 11
26.85190316251694
 21
1.411363898473141
 31
0.0
100
AcDbText
  0
TEXT
  5
158A
330
154C
100
AcDbEntity
  8
TITLE
 62
     1
100
AcDbText
 10
26.73095331604248
 20
1.036028150302191
 30
0.0
 40
0.077
  1
DATE
  7
ITALIC
 72
     1
 11
26.87211998270915
 21
1.036028150302191
 31
0.0
100
AcDbText
  0
TEXT
  5
158B
330
154C
100
AcDbEntity
  8
TITLE
100
AcDbText
 10
26.06634814273045
 20
1.413090487379109
 30
0.0
 40
0.07
  1
DR. BY
  7
ITALIC
 72
     1
 11
26.24134814273045
 21
1.413090487379109
 31
0.0
100
AcDbText
  0
TEXT
  5
158C
330
154C
100
AcDbEntity
  8
TITLE
100
AcDbText
 10
25.983190416017
 20
1.036028150302191
 30
0.0
 40
0.077
  1
CHK. BY
  7
ITALIC
 72
     1
 11
26.214190416017
 21
1.036028150302191
 31
0.0
100
AcDbText
  0
LINE
  5
158D
330
154C
100
AcDbEntity
  8
TITLE
 62
     1
100
AcDbLine
 10
30.8723969812032
 20
0.3949999999999998
 30
0.0
 11
30.8723969812032
 21
0.7699999999999998
 31
0.0
  0
TEXT
  5
158E
330
154C
100
AcDbEntity
  8
TITLE
 62
     1
100
AcDbText
 10
29.73395570483342
 20
0.2603476771033955
 30
0.0
 40
0.0847
  1
PART NO.
  7
ITALIC
100
AcDbText
  0
LINE
  5
158F
330
154C
100
AcDbEntity
  8
TITLE
 62
     1
100
AcDbLine
 10
29.60500000000187
 20
0.3949999999999998
 30
0.0
 11
29.60500000000187
 21
0.019999999999998
 31
0.0
  0
TEXT
  5
1590
330
154C
100
AcDbEntity
  8
TITLE
 62
     1
100
AcDbText
 10
27.28316524226153
 20
0.2551247456628447
 30
0.0
 40
0.0847
  1
PART NAME
  7
ITALIC
100
AcDbText
  0
TEXT
  5
1591
330
154C
100
AcDbEntity
  8
TITLE
 62
     1
100
AcDbText
 10
27.27133108199639
 20
0.6262791008855413
 30
0.0
 40
0.0847
  1
CUSTOMER
  7
ITALIC
 72
     2
 11
27.92069774866305
 21
0.6262791008855413
 31
0.0
100
AcDbText
  0
TEXT
  5
1592
330
154C
100
AcDbEntity
  8
TITLE
 62
     1
100
AcDbText
 10
26.73717193198477
 20
0.6612203616450885
 30
0.0
 40
0.077
  1
DATE
  7
ITALIC
 72
     1
 11
26.87833859865143
 21
0.6612203616450885
 31
0.0
100
AcDbText
  0
TEXT
  5
1593
330
154C
100
AcDbEntity
  8
TITLE
100
AcDbText
 10
25.983190416017
 20
0.6583714899502425
 30
0.0
 40
0.077
  1
APD. BY
  7
ITALIC
 72
     1
 11
26.214190416017
 21
0.6583714899502425
 31
0.0
100
AcDbText
  0
TEXT
  5
1594
330
154C
100
AcDbEntity
  8
TITLE
100
AcDbText
 10
26.36736136698859
 20
0.2606476355994629
 30
0.0
 40
0.077
  1
SCALE
  7
ITALIC
 72
     1
 11
26.54702803365525
 21
0.2606476355994629
 31
0.0
100
AcDbText
  0
LINE
  5
1595
330
154C
100
AcDbEntity
  8
TITLE
 62
     1
100
AcDbLine
 10
26.54250000000188
 20
1.520000000000001
 30
0.0
 11
26.54250000000188
 21
0.3950000000000007
 31
0.0
  0
LINE
  5
1596
330
154C
100
AcDbEntity
  8
TITLE
 62
     1
100
AcDbLine
 10
27.16750000000188
 20
1.519999999999997
 30
0.0
 11
27.16750000000188
 21
0.0199999999999989
 31
0.0
  0
LINE
  5
1597
330
154C
100
AcDbEntity
  8
TITLE
 62
     1
100
AcDbLine
 10
31.98000000000187
 20
0.7699999999999998
 30
0.0
 11
27.16750000000188
 21
0.7699999999999998
 31
0.0
  0
TEXT
  5
1598
330
154C
100
AcDbEntity
  8
TITLE
 62
     1
100
AcDbText
 10
30.91909169851883
 20
0.6633735539934874
 30
0.0
 40
0.0625
  1
AutoCAD DWG. FILE
100
AcDbText
  0
TEXT
  5
1599
330
154C
100
AcDbEntity
  8
TITLE
100
AcDbText
 10
25.5726912806374
 20
1.018134033388606
 30
0.0
 40
0.077
  1
CHD.
  7
ITALIC
 72
     1
 11
25.6881912806374
 21
1.018134033388606
 31
0.0
100
AcDbText
  0
TEXT
  5
159A
330
154C
100
AcDbEntity
  8
TITLE
100
AcDbText
 10
25.19128875550244
 20
1.027630272371425
 30
0.0
 40
0.077
  1
BY
  7
ITALIC
 72
     1
 11
25.25545542216911
 21
1.027630272371425
 31
0.0
100
AcDbText
  0
TEXT
  5
159B
330
154C
100
AcDbEntity
  8
TITLE
100
AcDbText
 10
24.60559266957249
 20
1.022882152880016
 30
0.0
 40
0.077
  1
DATE
  7
ITALIC
 72
     1
 11
24.74675933623915
 21
1.022882152880016
 31
0.0
100
AcDbText
  0
TEXT
  5
159C
330
154C
100
AcDbEntity
  8
TITLE
100
AcDbText
 10
21.7187183665341
 20
2.069194271646891
 30
0.0
 40
0.07
  1
NOTES:
  7
ITALIC
100
AcDbText
  0
TEXT
  5
159D
330
154C
100
AcDbEntity
  8
TITLE
100
AcDbText
 10
21.63093344085823
 20
1.027630272371425
 30
0.0
 40
0.077
  1
LET.
  7
ITALIC
 72
     1
 11
21.74643344085823
 21
1.027630272371425
 31
0.0
100
AcDbText
  0
TEXT
  5
159E
330
154C
100
AcDbEntity
  8
TITLE
100
AcDbText
 10
21.70683914735286
 20
1.381397857861143
 30
0.0
 40
0.077
  1
MATERIAL
  7
ITALIC
100
AcDbText
  0
LINE
  5
159F
330
154C
100
AcDbEntity
  8
TITLE
100
AcDbLine
 10
25.91750000000188
 20
0.9574999999999997
 30
0.0
 11
21.48000000000187
 21
0.9575000000000015
 31
0.0
  0
TEXT
  5
15A0
330
154C
100
AcDbEntity
  8
TITLE
100
AcDbText
 10
22.60137075033691
 20
1.018134033388606
 30
0.0
 40
0.077
  1
REVISION RECORD
  7
ITALIC
 72
     1
 11
23.15320408367024
 21
1.018134033388606
 31
0.0
100
AcDbText
  0
LINE
  5
15A1
330
154C
100
AcDbEntity
  8
TITLE
100
AcDbLine
 10
25.91750000000188
 20
0.2074999999999989
 30
0.0
 11
21.48000000000187
 21
0.2075000000000016
 31
0.0
  0
LINE
  5
15A2
330
154C
100
AcDbEntity
  8
TITLE
100
AcDbLine
 10
25.91750000000188
 20
0.5824999999999998
 30
0.0
 11
21.48000000000187
 21
0.5825000000000016
 31
0.0
  0
LINE
  5
15A3
330
154C
100
AcDbEntity
  8
TITLE
100
AcDbLine
 10
21.48000000000187
 20
2.020000000000001
 30
0.0
 11
21.48000000000187
 21
0.0199999999999998
 31
0.0
  0
LINE
  5
15A4
330
154C
100
AcDbEntity
  8
TITLE
100
AcDbLine
 10
21.98000000000187
 20
1.144999999999999
 30
0.0
 11
21.98000000000187
 21
0.0199999999999998
 31
0.0
  0
LINE
  5
15A5
330
154C
100
AcDbEntity
  8
TITLE
100
AcDbLine
 10
24.48000000000187
 20
1.145000000000001
 30
0.0
 11
24.48000000000187
 21
0.0200000000000016
 31
0.0
  0
LINE
  5
15A6
330
154C
100
AcDbEntity
  8
TITLE
100
AcDbLine
 10
25.04250000000187
 20
1.145000000000001
 30
0.0
 11
25.04250000000187
 21
0.0200000000000025
 31
0.0
  0
LINE
  5
15A7
330
154C
100
AcDbEntity
  8
TITLE
100
AcDbLine
 10
25.48000000000187
 20
1.145000000000001
 30
0.0
 11
25.48000000000187
 21
0.0200000000000034
 31
0.0
  0
LINE
  5
15A8
330
154C
100
AcDbEntity
  8
TITLE
100
AcDbLine
 10
25.91750000000188
 20
1.519999999999999
 30
0.0
 11
25.91750000000188
 21
0.0199999999999989
 31
0.0
  0
LINE
  5
15A9
330
154C
100
AcDbEntity
  8
TITLE
100
AcDbLine
 10
31.98000000000187
 20
2.019999999999999
 30
0.0
 11
21.48000000000187
 21
2.020000000000001
 31
0.0
  0
LINE
  5
15AA
330
154C
100
AcDbEntity
  8
TITLE
100
AcDbLine
 10
28.66750000000187
 20
1.77
 30
0.0
 11
21.48000000000187
 21
1.770000000000001
 31
0.0
  0
LINE
  5
15AB
330
154C
100
AcDbEntity
  8
TITLE
100
AcDbLine
 10
31.98000000000187
 20
1.519999999999999
 30
0.0
 11
21.48000000000187
 21
1.520000000000001
 31
0.0
  0
LINE
  5
15AC
330
154C
100
AcDbEntity
  8
TITLE
100
AcDbLine
 10
27.16750000000188
 20
1.144999999999999
 30
0.0
 11
21.48000000000187
 21
1.145000000000001
 31
0.0
  0
LINE
  5
15AD
330
154C
100
AcDbEntity
  8
TITLE
100
AcDbLine
 10
27.16750000000188
 20
0.7699999999999998
 30
0.0
 11
21.48000000000187
 21
0.7700000000000016
 31
0.0
  0
LINE
  5
15AE
330
154C
100
AcDbEntity
  8
TITLE
100
AcDbLine
 10
31.98000000000187
 20
0.3949999999999998
 30
0.0
 11
21.48000000000187
 21
0.3950000000000016
 31
0.0
  0
POLYLINE
  5
15AF
330
154C
100
AcDbEntity
  8
TITLE
100
AcDb2dPolyline
 66
     1
 10
0.0
 20
0.0
 30
0.0
 70
     1
  0
VERTEX
  5
15B0
330
15AF
100
AcDbEntity
  8
TITLE
100
AcDbVertex
100
AcDb2dVertex
 10
31.98000000000189
 20
20.85500000000138
 30
0.0
  0
VERTEX
  5
15B1
330
15AF
100
AcDbEntity
  8
TITLE
100
AcDbVertex
100
AcDb2dVertex
 10
0.0199999999999971
 20
20.85500000000138
 30
0.0
  0
VERTEX
  5
15B2
330
15AF
100
AcDbEntity
  8
TITLE
100
AcDbVertex
100
AcDb2dVertex
 10
0.0199999999999998
 20
0.0199999999999998
 30
0.0
  0
VERTEX
  5
15B3
330
15AF
100
AcDbEntity
  8
TITLE
100
AcDbVertex
100
AcDb2dVertex
 10
31.98000000000187
 20
0.0199999999999998
 30
0.0
  0
SEQEND
  5
15B4
330
15AF
100
AcDbEntity
  8
TITLE
  0
POLYLINE
  5
15B5
330
154C
100
AcDbEntity
  8
TITLE
100
AcDb2dPolyline
 66
     1
 10
0.0
 20
0.0
 30
0.0
 70
     1
  0
VERTEX
  5
15B6
330
15B5
100
AcDbEntity
  8
TITLE
100
AcDbVertex
100
AcDb2dVertex
 10
32.00000000000188
 20
20.87500000000138
 30
0.0
  0
VERTEX
  5
15B7
330
15B5
100
AcDbEntity
  8
TITLE
100
AcDbVertex
100
AcDb2dVertex
 10
-0.0000000000000036
 20
20.87500000000138
 30
0.0
  0
VERTEX
  5
15B8
330
15B5
100
AcDbEntity
  8
TITLE
100
AcDbVertex
100
AcDb2dVertex
 10
0.0
 20
0.0
 30
0.0
  0
VERTEX
  5
15B9
330
15B5
100
AcDbEntity
  8
TITLE
100
AcDbVertex
100
AcDb2dVertex
 10
32.00000000000187
 20
0.0
 30
0.0
  0
SEQEND
  5
15BA
330
15B5
100
AcDbEntity
  8
TITLE
  0
POLYLINE
  5
15BB
330
154C
100
AcDbEntity
  8
TITLE
100
AcDb2dPolyline
 66
     1
 10
0.0
 20
0.0
 30
0.0
 70
     1
  0
VERTEX
  5
15BC
330
15BB
100
AcDbEntity
  8
TITLE
100
AcDbVertex
100
AcDb2dVertex
 10
31.99000000000189
 20
20.86500000000139
 30
0.0
  0
VERTEX
  5
15BD
330
15BB
100
AcDbEntity
  8
TITLE
100
AcDbVertex
100
AcDb2dVertex
 10
0.0099999999999971
 20
20.86500000000139
 30
0.0
  0
VERTEX
  5
15BE
330
15BB
100
AcDbEntity
  8
TITLE
100
AcDbVertex
100
AcDb2dVertex
 10
0.0099999999999998
 20
0.0099999999999998
 30
0.0
  0
VERTEX
  5
15BF
330
15BB
100
AcDbEntity
  8
TITLE
100
AcDbVertex
100
AcDb2dVertex
 10
31.99000000000187
 20
0.0099999999999998
 30
0.0
  0
SEQEND
  5
15C0
330
15BB
100
AcDbEntity
  8
TITLE
  0
ENDBLK
  5
15C1
330
154C
100
AcDbEntity
  8
0
100
AcDbBlockEnd
  0
BLOCK
  5
1628
330
1627
100
AcDbEntity
  8
0
100
AcDbBlockBegin
  2
*U2
 70
     1
 10
0.0
 20
0.0
 30
0.0
  3
*U2
  1

  0
ENDBLK
  5
1629
330
1627
100
AcDbEntity
  8
0
100
AcDbBlockEnd
  0
BLOCK
  5
166C
330
166A
100
AcDbEntity
  8
0
100
AcDbBlockBegin
  2
GENAXEH
 70
     0
 10
0.0
 20
0.0
 30
0.0
  3
GENAXEH
  1

  0
LINE
  5
166B
330
166A
100
AcDbEntity
  8
0
100
AcDbLine
 10
-1.0
 20
0.0
 30
0.0
 11
1.0
 21
0.0
 31
0.0
  0
ENDBLK
  5
166D
330
166A
100
AcDbEntity
  8
0
100
AcDbBlockEnd
  0
BLOCK
  5
167B
330
167A
100
AcDbEntity
  8
0
100
AcDbBlockBegin
  2
*D4
 70
     1
 10
0.0
 20
0.0
 30
0.0
  3
*D4
  1

  0
LINE
  5
167C
330
167A
100
AcDbEntity
  8
AM_5
 62
     0
370
    -2
100
AcDbLine
 10
-3.058468293014498
 20
7.822327962220128
 30
0.0
 11
-5.239049813645523
 21
7.822327962220128
 31
0.0
  0
LINE
  5
167D
330
167A
100
AcDbEntity
  8
AM_5
 62
     0
370
    -2
100
AcDbLine
 10
-3.058468293014498
 20
-13.17767203777987
 30
0.0
 11
-5.239049813645528
 21
-13.17767203777987
 31
0.0
  0
LINE
  5
167E
330
167A
100
AcDbEntity
  8
AM_5
 62
     0
370
    -2
100
AcDbLine
 10
-5.051549813645523
 20
7.634827962220128
 30
0.0
 11
-5.051549813645525
 21
-1.760820930075779
 31
0.0
  0
LINE
  5
167F
330
167A
100
AcDbEntity
  8
AM_5
 62
     0
370
    -2
100
AcDbLine
 10
-5.051549813645528
 20
-12.99017203777987
 30
0.0
 11
-5.051549813645526
 21
-2.323320930075779
 31
0.0
  0
SOLID
  5
1680
330
167A
100
AcDbEntity
  8
AM_5
 62
     0
100
AcDbTrace
 10
-5.082799813645523
 20
7.634827962220128
 30
0.0
 11
-5.020299813645523
 21
7.634827962220128
 31
0.0
 12
-5.051549813645523
 22
7.822327962220128
 32
0.0
 13
-5.051549813645523
 23
7.822327962220128
 33
0.0
  0
SOLID
  5
1681
330
167A
100
AcDbEntity
  8
AM_5
 62
     0
100
AcDbTrace
 10
-5.082799813645528
 20
-12.99017203777987
 30
0.0
 11
-5.020299813645528
 21
-12.99017203777987
 31
0.0
 12
-5.051549813645528
 22
-13.17767203777987
 32
0.0
 13
-5.051549813645528
 23
-13.17767203777987
 33
0.0
  0
MTEXT
  5
1682
330
167A
100
AcDbEntity
  8
AM_5
 62
     0
100
AcDbMText
 10
-5.051549813645525
 20
-2.04207093007578
 30
0.0
 40
0.1875
 41
0.0
 46
0.0
 71
     5
 72
     1
  1
\A1;21.00
 73
     1
 44
1.0
  0
POINT
  5
1683
330
167A
100
AcDbEntity
  8
DEFPOINTS
 62
     0
100
AcDbPoint
 10
-2.995968293014498
 20
7.822327962220128
 30
0.0
  0
POINT
  5
1684
330
167A
100
AcDbEntity
  8
DEFPOINTS
 62
     0
100
AcDbPoint
 10
-2.995968293014498
 20
-13.17767203777987
 30
0.0
  0
POINT
  5
1685
330
167A
100
AcDbEntity
  8
DEFPOINTS
 62
     0
100
AcDbPoint
 10
-5.051549813645528
 20
-13.17767203777987
 30
0.0
  0
ENDBLK
  5
1686
330
167A
100
AcDbEntity
  8
0
100
AcDbBlockEnd
  0
BLOCK
  5
1688
330
1687
100
AcDbEntity
  8
0
100
AcDbBlockBegin
  2
*D5
 70
     1
 10
0.0
 20
0.0
 30
0.0
  3
*D5
  1

  0
LINE
  5
1689
330
1687
100
AcDbEntity
  8
AM_5
 62
     0
370
    -2
100
AcDbLine
 10
-2.995968293014498
 20
7.884827962220128
 30
0.0
 11
-2.995968293014498
 21
8.960717228584167
 31
0.0
  0
LINE
  5
168A
330
1687
100
AcDbEntity
  8
AM_5
 62
     0
370
    -2
100
AcDbLine
 10
18.0040317069855
 20
7.884827962220104
 30
0.0
 11
18.0040317069855
 21
8.960717228584167
 31
0.0
  0
LINE
  5
168B
330
1687
100
AcDbEntity
  8
AM_5
 62
     0
370
    -2
100
AcDbLine
 10
-2.808468293014498
 20
8.773217228584167
 30
0.0
 11
7.0040317069855
 21
8.773217228584167
 31
0.0
  0
LINE
  5
168C
330
1687
100
AcDbEntity
  8
AM_5
 62
     0
370
    -2
100
AcDbLine
 10
17.8165317069855
 20
8.773217228584167
 30
0.0
 11
8.0040317069855
 21
8.773217228584167
 31
0.0
  0
SOLID
  5
168D
330
1687
100
AcDbEntity
  8
AM_5
 62
     0
100
AcDbTrace
 10
-2.808468293014498
 20
8.804467228584167
 30
0.0
 11
-2.808468293014498
 21
8.741967228584167
 31
0.0
 12
-2.995968293014498
 22
8.773217228584167
 32
0.0
 13
-2.995968293014498
 23
8.773217228584167
 33
0.0
  0
SOLID
  5
168E
330
1687
100
AcDbEntity
  8
AM_5
 62
     0
100
AcDbTrace
 10
17.8165317069855
 20
8.804467228584167
 30
0.0
 11
17.8165317069855
 21
8.741967228584167
 31
0.0
 12
18.0040317069855
 22
8.773217228584167
 32
0.0
 13
18.0040317069855
 23
8.773217228584167
 33
0.0
  0
MTEXT
  5
168F
330
1687
100
AcDbEntity
  8
AM_5
 62
     0
100
AcDbMText
 10
7.5040317069855
 20
8.773217228584167
 30
0.0
 40
0.1875
 41
0.0
 46
0.0
 71
     5
 72
     1
  1
\A1;21.00
 73
     1
 44
1.0
  0
POINT
  5
1690
330
1687
100
AcDbEntity
  8
DEFPOINTS
 62
     0
100
AcDbPoint
 10
-2.995968293014498
 20
7.822327962220128
 30
0.0
  0
POINT
  5
1691
330
1687
100
AcDbEntity
  8
DEFPOINTS
 62
     0
100
AcDbPoint
 10
18.0040317069855
 20
7.822327962220104
 30
0.0
  0
POINT
  5
1692
330
1687
100
AcDbEntity
  8
DEFPOINTS
 62
     0
100
AcDbPoint
 10
18.0040317069855
 20
8.773217228584167
 30
0.0
  0
ENDBLK
  5
1693
330
1687
100
AcDbEntity
  8
0
100
AcDbBlockEnd
  0
BLOCK
  5
1695
330
1694
100
AcDbEntity
  8
0
100
AcDbBlockBegin
  2
*D6
 70
     1
 10
0.0
 20
0.0
 30
0.0
  3
*D6
  1

  0
LINE
  5
1696
330
1694
100
AcDbEntity
  8
AM_5
 62
     0
370
    -2
100
AcDbLine
 10
-3.058468293014498
 20
9.322327962220128
 30
0.0
 11
-3.363924090726214
 21
9.322327962220128
 31
0.0
  0
LINE
  5
1697
330
1694
100
AcDbEntity
  8
AM_5
 62
     0
370
    -2
100
AcDbLine
 10
-3.058468293014498
 20
9.452327962220108
 30
0.0
 11
-3.363924090726214
 21
9.452327962220108
 31
0.0
  0
LINE
  5
1698
330
1694
100
AcDbEntity
  8
AM_5
 62
     0
370
    -2
100
AcDbLine
 10
-3.176424090726214
 20
9.134827962220128
 30
0.0
 11
-3.176424090726215
 21
8.947327962220128
 31
0.0
  0
LINE
  5
1699
330
1694
100
AcDbEntity
  8
AM_5
 62
     0
370
    -2
100
AcDbLine
 10
-3.176424090726214
 20
9.639827962220108
 30
0.0
 11
-3.176424090726214
 21
9.827327962220108
 31
0.0
  0
LINE
  5
169A
330
1694
100
AcDbEntity
  8
AM_5
 62
     0
370
    -2
100
AcDbLine
 10
-3.176424090726214
 20
9.827327962220108
 30
0.0
 11
-2.988924090726214
 21
9.827327962220108
 31
0.0
  0
SOLID
  5
169B
330
1694
100
AcDbEntity
  8
AM_5
 62
     0
100
AcDbTrace
 10
-3.207674090726214
 20
9.134827962220128
 30
0.0
 11
-3.145174090726214
 21
9.134827962220128
 31
0.0
 12
-3.176424090726214
 22
9.322327962220128
 32
0.0
 13
-3.176424090726214
 23
9.322327962220128
 33
0.0
  0
SOLID
  5
169C
330
1694
100
AcDbEntity
  8
AM_5
 62
     0
100
AcDbTrace
 10
-3.207674090726214
 20
9.639827962220108
 30
0.0
 11
-3.145174090726214
 21
9.639827962220108
 31
0.0
 12
-3.176424090726214
 22
9.452327962220108
 32
0.0
 13
-3.176424090726214
 23
9.452327962220108
 33
0.0
  0
MTEXT
  5
169D
330
1694
100
AcDbEntity
  8
AM_5
 62
     0
100
AcDbMText
 10
-2.567049090726216
 20
9.827327962220108
 30
0.0
 40
0.1875
 41
0.0
 46
0.0
 71
     5
 72
     1
  1
\A1;0.13
 73
     1
 44
1.0
  0
POINT
  5
169E
330
1694
100
AcDbEntity
  8
DEFPOINTS
 62
     0
100
AcDbPoint
 10
-2.995968293014498
 20
9.322327962220128
 30
0.0
  0
POINT
  5
169F
330
1694
100
AcDbEntity
  8
DEFPOINTS
 62
     0
100
AcDbPoint
 10
-2.995968293014498
 20
9.452327962220108
 30
0.0
  0
POINT
  5
16A0
330
1694
100
AcDbEntity
  8
DEFPOINTS
 62
     0
100
AcDbPoint
 10
-3.176424090726214
 20
9.452327962220108
 30
0.0
  0
ENDBLK
  5
16A1
330
1694
100
AcDbEntity
  8
0
100
AcDbBlockEnd
  0
BLOCK
  5
16A3
330
16A2
100
AcDbEntity
  8
0
100
AcDbBlockBegin
  2
*D7
 70
     1
 10
0.0
 20
0.0
 30
0.0
  3
*D7
  1

  0
LINE
  5
16A4
330
16A2
100
AcDbEntity
  8
AM_5
 62
     0
370
    -2
100
AcDbLine
 10
-2.120968293014498
 20
7.344827962220128
 30
0.0
 11
-2.120968293014498
 21
8.479152600218919
 31
0.0
  0
LINE
  5
16A5
330
16A2
100
AcDbEntity
  8
AM_5
 62
     0
370
    -2
100
AcDbLine
 10
17.1290317069855
 20
7.318768753303402
 30
0.0
 11
17.1290317069855
 21
8.479152600218919
 31
0.0
  0
LINE
  5
16A6
330
16A2
100
AcDbEntity
  8
AM_5
 62
     0
370
    -2
100
AcDbLine
 10
-1.933468293014498
 20
8.291652600218919
 30
0.0
 11
7.023000152276765
 21
8.291652600218919
 31
0.0
  0
LINE
  5
16A7
330
16A2
100
AcDbEntity
  8
AM_5
 62
     0
370
    -2
100
AcDbLine
 10
16.9415317069855
 20
8.291652600218919
 30
0.0
 11
8.085500152276765
 21
8.291652600218919
 31
0.0
  0
SOLID
  5
16A8
330
16A2
100
AcDbEntity
  8
AM_5
 62
     0
100
AcDbTrace
 10
-1.933468293014498
 20
8.322902600218919
 30
0.0
 11
-1.933468293014498
 21
8.260402600218919
 31
0.0
 12
-2.120968293014498
 22
8.291652600218919
 32
0.0
 13
-2.120968293014498
 23
8.291652600218919
 33
0.0
  0
SOLID
  5
16A9
330
16A2
100
AcDbEntity
  8
AM_5
 62
     0
100
AcDbTrace
 10
16.9415317069855
 20
8.322902600218919
 30
0.0
 11
16.9415317069855
 21
8.260402600218919
 31
0.0
 12
17.1290317069855
 22
8.291652600218919
 32
0.0
 13
17.1290317069855
 23
8.291652600218919
 33
0.0
  0
MTEXT
  5
16AA
330
16A2
100
AcDbEntity
  8
AM_5
 62
     0
100
AcDbMText
 10
7.554250152276765
 20
8.291652600218919
 30
0.0
 40
0.1875
 41
0.0
 46
0.0
 71
     5
 72
     1
  1
\A1;19.25
 73
     1
 44
1.0
  0
POINT
  5
16AB
330
16A2
100
AcDbEntity
  8
DEFPOINTS
 62
     0
100
AcDbPoint
 10
-2.120968293014498
 20
7.282327962220128
 30
0.0
  0
POINT
  5
16AC
330
16A2
100
AcDbEntity
  8
DEFPOINTS
 62
     0
100
AcDbPoint
 10
17.1290317069855
 20
7.256268753303402
 30
0.0
  0
POINT
  5
16AD
330
16A2
100
AcDbEntity
  8
DEFPOINTS
 62
     0
100
AcDbPoint
 10
17.1290317069855
 20
8.291652600218919
 30
0.0
  0
ENDBLK
  5
16AE
330
16A2
100
AcDbEntity
  8
0
100
AcDbBlockEnd
  0
BLOCK
  5
16B0
330
16AF
100
AcDbEntity
  8
0
100
AcDbBlockBegin
  2
*D8
 70
     1
 10
0.0
 20
0.0
 30
0.0
  3
*D8
  1

  0
LINE
  5
16B1
330
16AF
100
AcDbEntity
  8
AM_5
 62
     0
370
    -2
100
AcDbLine
 10
-2.518468293014498
 20
6.947327962220128
 30
0.0
 11
-3.838242784009745
 21
6.947327962220128
 31
0.0
  0
LINE
  5
16B2
330
16AF
100
AcDbEntity
  8
AM_5
 62
     0
370
    -2
100
AcDbLine
 10
-2.518468293014499
 20
-12.30267203777987
 30
0.0
 11
-3.838242784009749
 21
-12.30267203777987
 31
0.0
  0
LINE
  5
16B3
330
16AF
100
AcDbEntity
  8
AM_5
 62
     0
370
    -2
100
AcDbLine
 10
-3.650742784009745
 20
6.759827962220128
 30
0.0
 11
-3.650742784009747
 21
-1.76082093007578
 31
0.0
  0
LINE
  5
16B4
330
16AF
100
AcDbEntity
  8
AM_5
 62
     0
370
    -2
100
AcDbLine
 10
-3.650742784009749
 20
-12.11517203777987
 30
0.0
 11
-3.650742784009747
 21
-2.32332093007578
 31
0.0
  0
SOLID
  5
16B5
330
16AF
100
AcDbEntity
  8
AM_5
 62
     0
100
AcDbTrace
 10
-3.681992784009745
 20
6.759827962220128
 30
0.0
 11
-3.619492784009745
 21
6.759827962220128
 31
0.0
 12
-3.650742784009745
 22
6.947327962220128
 32
0.0
 13
-3.650742784009745
 23
6.947327962220128
 33
0.0
  0
SOLID
  5
16B6
330
16AF
100
AcDbEntity
  8
AM_5
 62
     0
100
AcDbTrace
 10
-3.681992784009749
 20
-12.11517203777987
 30
0.0
 11
-3.619492784009749
 21
-12.11517203777987
 31
0.0
 12
-3.650742784009749
 22
-12.30267203777987
 32
0.0
 13
-3.650742784009749
 23
-12.30267203777987
 33
0.0
  0
MTEXT
  5
16B7
330
16AF
100
AcDbEntity
  8
AM_5
 62
     0
100
AcDbMText
 10
-3.650742784009747
 20
-2.04207093007578
 30
0.0
 40
0.1875
 41
0.0
 46
0.0
 71
     5
 72
     1
  1
\A1;19.25
 73
     1
 44
1.0
  0
POINT
  5
16B8
330
16AF
100
AcDbEntity
  8
DEFPOINTS
 62
     0
100
AcDbPoint
 10
-2.455968293014498
 20
6.947327962220128
 30
0.0
  0
POINT
  5
16B9
330
16AF
100
AcDbEntity
  8
DEFPOINTS
 62
     0
100
AcDbPoint
 10
-2.455968293014499
 20
-12.30267203777987
 30
0.0
  0
POINT
  5
16BA
330
16AF
100
AcDbEntity
  8
DEFPOINTS
 62
     0
100
AcDbPoint
 10
-3.650742784009749
 20
-12.30267203777987
 30
0.0
  0
ENDBLK
  5
16BB
330
16AF
100
AcDbEntity
  8
0
100
AcDbBlockEnd
  0
BLOCK
  5
16BD
330
16BC
100
AcDbEntity
  8
0
100
AcDbBlockBegin
  2
*D9
 70
     1
 10
0.0
 20
0.0
 30
0.0
  3
*D9
  1

  0
LINE
  5
16BE
330
16BC
100
AcDbEntity
  8
CENTER
 62
     0
370
    -2
100
AcDbLine
 10
-2.417960162464306
 20
7.268578766858352
 30
0.0
 11
-3.394568123131433
 21
8.324958167956514
 31
0.0
  0
LINE
  5
16BF
330
16BC
100
AcDbEntity
  8
CENTER
 62
     0
370
    -2
100
AcDbLine
 10
-3.394568123131433
 20
8.324958167956514
 30
0.0
 11
-3.582068123131433
 21
8.324958167956516
 31
0.0
  0
SOLID
  5
16C0
330
16BC
100
AcDbEntity
  8
CENTER
 62
     0
100
AcDbTrace
 10
-2.395013676418719
 20
7.289792471819053
 30
0.0
 11
-2.440906648509894
 21
7.247365061897651
 31
0.0
 12
-2.290677932700103
 22
7.130899850584826
 32
0.0
 13
-2.290677932700103
 23
7.130899850584826
 33
0.0
  0
MTEXT
  5
16C1
330
16BC
100
AcDbEntity
  8
CENTER
 62
     0
100
AcDbMText
 10
-4.162068123131436
 20
8.324958167956514
 30
0.0
 40
0.18
 41
0.0
 46
0.0
 71
     5
 72
     1
  1
\A1;∅0.50
 73
     1
 44
1.0
  0
LINE
  5
16C2
330
16BC
100
AcDbEntity
  8
CENTER
 62
     0
370
    -2
100
AcDbLine
 10
-2.2147182930145
 20
6.947327962220128
 30
0.0
 11
-2.0272182930145
 21
6.947327962220127
 31
0.0
  0
LINE
  5
16C3
330
16BC
100
AcDbEntity
  8
CENTER
 62
     0
370
    -2
100
AcDbLine
 10
-2.120968293014499
 20
6.853577962220127
 30
0.0
 11
-2.1209682930145
 21
7.041077962220127
 31
0.0
  0
POINT
  5
16C4
330
16BC
100
AcDbEntity
  8
DEFPOINTS
 62
     0
100
AcDbPoint
 10
-2.290677932700103
 20
7.130899850584826
 30
0.0
  0
POINT
  5
16C5
330
16BC
100
AcDbEntity
  8
DEFPOINTS
 62
     0
100
AcDbPoint
 10
-1.951258653328895
 20
6.763756073855429
 30
0.0
  0
ENDBLK
  5
16C6
330
16BC
100
AcDbEntity
  8
0
100
AcDbBlockEnd
  0
BLOCK
  5
16FF
330
16CF
100
AcDbEntity
  8
0
100
AcDbBlockBegin
  2
A$C711775DC
 70
     0
 10
0.0
 20
0.0
 30
0.0
  3
A$C711775DC
  1

  0
LINE
  5
16D0
330
16CF
100
AcDbEntity
  8
0
100
AcDbLine
 10
2.368081558401002
 20
-0.0000000208331379
 30
0.0
 11
23.368081558401
 21
-0.0000000208331414
 31
0.0
  0
LINE
  5
16D1
330
16CF
100
AcDbEntity
  8
0
100
AcDbLine
 10
23.368081558401
 20
-0.0000000208331379
 30
0.0
 11
23.368081558401
 21
20.99999997916684
 31
0.0
  0
LINE
  5
16D2
330
16CF
100
AcDbEntity
  8
0
100
AcDbLine
 10
23.368081558401
 20
20.99999997916683
 30
0.0
 11
2.368081558401002
 21
20.99999997916687
 31
0.0
  0
LINE
  5
16D3
330
16CF
100
AcDbEntity
  8
0
100
AcDbLine
 10
2.368081558401002
 20
20.99999997916687
 30
0.0
 11
2.368081558401002
 21
-0.0000000208331379
 31
0.0
  0
DIMENSION
  5
16D4
330
16CF
100
AcDbEntity
  8
AM_5
100
AcDbDimension
280
     0
  2
*D4
 10
0.3125000377699729
 20
-0.0000000208331361
 30
0.0
 11
0.3125000377699756
 21
11.13560108687095
 31
0.0
 12
5.364049851415501
 22
13.17767201694673
 32
0.0
 70
   128
  1
<>
 71
     5
 42
21.0
 73
     0
 74
     0
 75
     0
  3
STANDARD$0
100
AcDbAlignedDimension
 13
2.368081558401002
 23
20.99999997916687
 33
0.0
 14
2.368081558401002
 24
-0.0000000208331379
 34
0.0
 50
90.0
100
AcDbRotatedDimension
1001
ACAD
1000
DSTYLE
1002
{
1070
   140
1040
0.1875
1070
    41
1040
0.1875
1070
    43
1040
0.375
1070
    44
1040
0.1875
1070
   141
1040
0.09375
1070
   147
1040
0.1875
1070
   271
1070
     2
1070
   276
1070
     2
1070
   277
1070
     2
1070
   289
1070
     0
1002
}
  0
LINE
  5
16D5
330
16CF
100
AcDbEntity
  8
0
100
AcDbLine
 10
2.368081558401002
 20
22.49999997916686
 30
0.0
 11
23.368081558401
 21
22.49999997916682
 31
0.0
  0
LINE
  5
16D6
330
16CF
100
AcDbEntity
  8
0
100
AcDbLine
 10
23.36808155840099
 20
22.62999997916695
 30
0.0
 11
2.368081558401001
 21
22.62999997916685
 31
0.0
  0
LINE
  5
16D7
330
16CF
100
AcDbEntity
  8
0
100
AcDbLine
 10
2.368081558401002
 20
22.62999997916685
 30
0.0
 11
2.368081558401002
 21
22.49999997916686
 31
0.0
  0
DIMENSION
  5
16D8
330
16CF
100
AcDbEntity
  8
AM_5
100
AcDbDimension
280
     0
  2
*D5
 10
23.368081558401
 20
21.9508892455309
 30
0.0
 11
12.868081558401
 21
21.9508892455309
 31
0.0
 12
5.364049851415501
 22
13.17767201694673
 32
0.0
 71
     5
 42
21.0
 73
     0
 74
     0
 75
     0
  3
STANDARD$0
100
AcDbAlignedDimension
 13
2.368081558401002
 23
20.99999997916687
 33
0.0
 14
23.368081558401
 24
20.99999997916684
 34
0.0
100
AcDbRotatedDimension
1001
ACAD
1000
DSTYLE
1002
{
1070
   140
1040
0.1875
1070
    40
1040
1.0
1070
   144
1040
1.0
1070
    41
1040
0.1875
1070
    43
1040
0.375
1070
    44
1040
0.1875
1070
   141
1040
0.09375
1070
   147
1040
0.1875
1070
   271
1070
     2
1070
   276
1070
     2
1070
   277
1070
     2
1070
   289
1070
     0
1002
}
  0
DIMENSION
  5
16D9
330
16CF
100
AcDbEntity
  8
AM_5
100
AcDbDimension
280
     0
  2
*D6
 10
2.187625760689286
 20
22.62999997916685
 30
0.0
 11
2.797000760689284
 21
23.00499997916685
 31
0.0
 12
5.364049851415501
 22
13.17767201694673
 32
0.0
 71
     5
 42
0.1299999999999795
 73
     0
 74
     0
 75
     0
  3
STANDARD$0
100
AcDbAlignedDimension
 13
2.368081558401002
 23
22.49999997916686
 33
0.0
 14
2.368081558401002
 24
22.62999997916685
 34
0.0
 50
90.0
100
AcDbRotatedDimension
1001
ACAD
1000
DSTYLE
1002
{
1070
   140
1040
0.1875
1070
    40
1040
1.0
1070
   144
1040
1.0
1070
    41
1040
0.1875
1070
    43
1040
0.375
1070
    44
1040
0.1875
1070
   141
1040
0.09375
1070
   147
1040
0.1875
1070
   271
1070
     2
1070
   276
1070
     2
1070
   277
1070
     2
1070
   289
1070
     0
1002
}
  0
DIMENSION
  5
16DA
330
16CF
100
AcDbEntity
  8
AM_5
100
AcDbDimension
280
     0
  2
*D7
 10
22.493081558401
 20
21.46932461716565
 30
0.0
 11
12.91830000369226
 21
21.46932461716565
 31
0.0
 12
5.364049851415501
 22
13.17767201694673
 32
0.0
 70
   128
 71
     5
 42
19.25
 73
     0
 74
     0
 75
     0
  3
STANDARD$0
100
AcDbAlignedDimension
 13
3.243081558401002
 23
20.45999997916687
 33
0.0
 14
22.493081558401
 24
20.43394077025014
 34
0.0
100
AcDbRotatedDimension
1001
ACAD
1000
DSTYLE
1002
{
1070
   140
1040
0.1875
1070
    40
1040
1.0
1070
   144
1040
1.0
1070
    41
1040
0.1875
1070
    43
1040
0.375
1070
    44
1040
0.1875
1070
   141
1040
0.09375
1070
   147
1040
0.1875
1070
   271
1070
     2
1070
   276
1070
     2
1070
   277
1070
     2
1070
   289
1070
     0
1002
}
  0
DIMENSION
  5
16DB
330
16CF
100
AcDbEntity
  8
AM_5
100
AcDbDimension
280
     0
  2
*D8
 10
1.713307067405751
 20
0.8749999791668621
 30
0.0
 11
1.713307067405754
 21
11.13560108687095
 31
0.0
 12
5.364049851415501
 22
13.17767201694673
 32
0.0
 70
   128
 71
     5
 42
19.25
 73
     0
 74
     0
 75
     0
  3
STANDARD$0
100
AcDbAlignedDimension
 13
2.908081558401002
 23
20.12499997916687
 33
0.0
 14
2.908081558401002
 24
0.8749999791668621
 34
0.0
 50
90.0
100
AcDbRotatedDimension
1001
ACAD
1000
DSTYLE
1002
{
1070
   140
1040
0.1875
1070
    40
1040
1.0
1070
   144
1040
1.0
1070
    41
1040
0.1875
1070
    43
1040
0.375
1070
    44
1040
0.1875
1070
   141
1040
0.09375
1070
   147
1040
0.1875
1070
   271
1070
     2
1070
   276
1070
     2
1070
   277
1070
     2
1070
   289
1070
     0
1002
}
  0
LINE
  5
16DC
330
16CF
100
AcDbEntity
  8
CENTER
  6
CENTER2
 48
0.1
100
AcDbLine
 10
3.243081558401002
 20
20.12499997916687
 30
0.0
 11
3.578081558401002
 21
20.12499997916687
 31
0.0
1001
GENIUS_GENOREF_13
1005
16FC
  0
LINE
  5
16DD
330
16CF
100
AcDbEntity
  8
CENTER
  6
CENTER2
 48
0.1
100
AcDbLine
 10
3.243081558401002
 20
20.12499997916687
 30
0.0
 11
3.243081558401002
 21
20.45999997916687
 31
0.0
1001
GENIUS_GENOREF_13
1005
16FC
  0
LINE
  5
16DE
330
16CF
100
AcDbEntity
  8
CENTER
  6
CENTER2
 48
0.1
100
AcDbLine
 10
3.243081558401002
 20
20.12499997916687
 30
0.0
 11
2.908081558401002
 21
20.12499997916687
 31
0.0
1001
GENIUS_GENOREF_13
1005
16FC
  0
LINE
  5
16DF
330
16CF
100
AcDbEntity
  8
CENTER
  6
CENTER2
 48
0.1
100
AcDbLine
 10
3.243081558401002
 20
20.19999997916686
 30
0.0
 11
3.243081558401002
 21
19.78999997916686
 31
0.0
1001
GENIUS_GENOREF_13
1005
16FC
  0
TEXT
  5
16E0
330
16CF
100
AcDbEntity
  8
CENTER
100
AcDbText
 10
0.4581960132596237
 20
21.39087818355482
 30
0.0
 40
0.1875
  1
4X
100
AcDbText
  0
LINE
  5
16E1
330
16CF
100
AcDbEntity
  8
0
100
AcDbLine
 10
23.368081558401
 20
22.62999997916687
 30
0.0
 11
23.368081558401
 21
22.49999997916686
 31
0.0
  0
CIRCLE
  5
16E2
330
16CF
100
AcDbEntity
  8
0
100
AcDbCircle
 10
3.243081558401002
 20
20.12499997916687
 30
0.0
 40
0.25
  0
LINE
  5
16E3
330
16CF
100
AcDbEntity
  8
CENTER
  6
CENTER2
 48
0.1
100
AcDbLine
 10
22.493081558401
 20
20.09894077025014
 30
0.0
 11
22.828081558401
 21
20.09894077025014
 31
0.0
1001
GENIUS_GENOREF_13
1005
16FB
  0
LINE
  5
16E4
330
16CF
100
AcDbEntity
  8
CENTER
  6
CENTER2
 48
0.1
100
AcDbLine
 10
22.493081558401
 20
20.09894077025014
 30
0.0
 11
22.493081558401
 21
20.43394077025014
 31
0.0
1001
GENIUS_GENOREF_13
1005
16FB
  0
LINE
  5
16E5
330
16CF
100
AcDbEntity
  8
CENTER
  6
CENTER2
 48
0.1
100
AcDbLine
 10
22.493081558401
 20
20.09894077025014
 30
0.0
 11
22.158081558401
 21
20.09894077025014
 31
0.0
1001
GENIUS_GENOREF_13
1005
16FB
  0
LINE
  5
16E6
330
16CF
100
AcDbEntity
  8
CENTER
  6
CENTER2
 48
0.1
100
AcDbLine
 10
22.493081558401
 20
20.17394077025014
 30
0.0
 11
22.493081558401
 21
19.76394077025014
 31
0.0
1001
GENIUS_GENOREF_13
1005
16FB
  0
CIRCLE
  5
16E7
330
16CF
100
AcDbEntity
  8
0
100
AcDbCircle
 10
22.493081558401
 20
20.09894077025014
 30
0.0
 40
0.25
  0
LINE
  5
16E8
330
16CF
100
AcDbEntity
  8
CENTER
  6
CENTER2
 48
0.1
100
AcDbLine
 10
22.493081558401
 20
0.8749999791668585
 30
0.0
 11
22.828081558401
 21
0.8749999791668585
 31
0.0
1001
GENIUS_GENOREF_13
1005
16FA
  0
LINE
  5
16E9
330
16CF
100
AcDbEntity
  8
CENTER
  6
CENTER2
 48
0.1
100
AcDbLine
 10
22.493081558401
 20
0.8749999791668585
 30
0.0
 11
22.493081558401
 21
1.209999979166859
 31
0.0
1001
GENIUS_GENOREF_13
1005
16FA
  0
LINE
  5
16EA
330
16CF
100
AcDbEntity
  8
CENTER
  6
CENTER2
 48
0.1
100
AcDbLine
 10
22.493081558401
 20
0.8749999791668585
 30
0.0
 11
22.158081558401
 21
0.8749999791668585
 31
0.0
1001
GENIUS_GENOREF_13
1005
16FA
  0
LINE
  5
16EB
330
16CF
100
AcDbEntity
  8
CENTER
  6
CENTER2
 48
0.1
100
AcDbLine
 10
22.493081558401
 20
0.9499999791668578
 30
0.0
 11
22.493081558401
 21
0.5399999791668578
 31
0.0
1001
GENIUS_GENOREF_13
1005
16FA
  0
CIRCLE
  5
16EC
330
16CF
100
AcDbEntity
  8
0
100
AcDbCircle
 10
22.493081558401
 20
0.8749999791668585
 30
0.0
 40
0.25
  0
LINE
  5
16ED
330
16CF
100
AcDbEntity
  8
CENTER
  6
CENTER2
 48
0.1
100
AcDbLine
 10
3.243081558401001
 20
0.8749999791668621
 30
0.0
 11
3.578081558401001
 21
0.8749999791668621
 31
0.0
1001
GENIUS_GENOREF_13
1005
16F9
  0
LINE
  5
16EE
330
16CF
100
AcDbEntity
  8
CENTER
  6
CENTER2
 48
0.1
100
AcDbLine
 10
3.243081558401001
 20
0.8749999791668621
 30
0.0
 11
3.243081558401001
 21
1.209999979166861
 31
0.0
1001
GENIUS_GENOREF_13
1005
16F9
  0
LINE
  5
16EF
330
16CF
100
AcDbEntity
  8
CENTER
  6
CENTER2
 48
0.1
100
AcDbLine
 10
3.243081558401001
 20
0.8749999791668621
 30
0.0
 11
2.908081558401002
 21
0.8749999791668621
 31
0.0
1001
GENIUS_GENOREF_13
1005
16F9
  0
LINE
  5
16F0
330
16CF
100
AcDbEntity
  8
CENTER
  6
CENTER2
 48
0.1
100
AcDbLine
 10
3.243081558401001
 20
0.9499999791668614
 30
0.0
 11
3.243081558401001
 21
0.5399999791668613
 31
0.0
1001
GENIUS_GENOREF_13
1005
16F9
  0
CIRCLE
  5
16F1
330
16CF
100
AcDbEntity
  8
0
100
AcDbCircle
 10
3.243081558401001
 20
0.8749999791668621
 30
0.0
 40
0.25
  0
DIMENSION
  5
16F2
330
16CF
100
AcDbEntity
  8
CENTER
100
AcDbDimension
280
     0
  2
*D9
 10
3.412791198086605
 20
19.94142809080216
 30
0.0
 11
1.201981728284065
 21
21.50263018490325
 31
0.0
 12
5.364049851415501
 22
13.17767201694673
 32
0.0
 70
   131
 71
     5
 42
0.4999999999999956
 73
     0
 74
     0
 75
     0
  3
STANDARD
100
AcDbDiametricDimension
 15
3.073371918715397
 25
20.30857186753156
 35
0.0
 40
0.0
1001
ACAD
1000
DSTYLE
1002
{
1070
    41
1040
0.1875
1070
    43
1040
0.375
1070
    44
1040
0.1875
1070
   141
1040
0.09375
1070
   147
1040
0.25
1070
   271
1070
     2
1070
   276
1070
     2
1070
   277
1070
     2
1070
   289
1070
     0
1002
}
  0
LINE
  5
16F3
330
16CF
100
AcDbEntity
  8
AM_9
100
AcDbLine
 10
2.993081558401002
 20
22.49999997916686
 30
0.0
 11
2.993081558401002
 21
22.62999997916685
 31
0.0
  0
LINE
  5
16F4
330
16CF
100
AcDbEntity
  8
AM_9
100
AcDbLine
 10
3.493081558401002
 20
22.49999997916686
 30
0.0
 11
3.493081558401002
 21
22.62999997916685
 31
0.0
  0
LINE
  5
16F5
330
16CF
100
AcDbEntity
  8
AM_9
100
AcDbLine
 10
22.243081558401
 20
22.49999997916685
 30
0.0
 11
22.243081558401
 21
22.6299999791669
 31
0.0
  0
LINE
  5
16F6
330
16CF
100
AcDbEntity
  8
AM_9
100
AcDbLine
 10
22.743081558401
 20
22.49999997916684
 30
0.0
 11
22.743081558401
 21
22.6299999791669
 31
0.0
  0
LINE
  5
16F7
330
16CF
100
AcDbEntity
  8
CENTER
 48
0.1
100
AcDbLine
 10
22.493081558401
 20
22.37499997916684
 30
0.0
 11
22.493081558401
 21
22.7549999791669
 31
0.0
  0
LINE
  5
16F8
330
16CF
100
AcDbEntity
  8
CENTER
 48
0.1
100
AcDbLine
 10
3.243081558401002
 20
22.37499997916687
 30
0.0
 11
3.243081558401002
 21
22.75499997916685
 31
0.0
  0
POINT
  5
16F9
330
16CF
100
AcDbEntity
  8
0
 60
     1
100
AcDbPoint
 10
4.9890498514155
 20
-2.072327983053266
 30
0.0
1001
GENIUS_GENOLIS_13
1002
{
1000
ENT
1005
16F0
1005
16EF
1005
16EE
1005
16ED
1002
}
1001
GENIUS_GENOENT_13
1002
{
1000
MYREF
1005
16F9
1002
}
1002
{
1000
GRP
1005
0
1002
}
1001
GENIUS_GENOBJ-N-CRS_13
1002
{
1000
OWNER
1000
GEN
1002
}
1001
GENIUS_GENODEF_13
1002
{
1000
HIER
1070
    10
1002
}
1002
{
1000
MANEDIT
1070
     0
1002
}
1002
{
1000
NOSEL
1070
     0
1002
}
1002
{
1000
BEHIND
1070
     0
1002
}
1002
{
1000
OTHER
1070
     0
1002
}
1002
{
1000
REACTOR
1002
}
  0
POINT
  5
16FA
330
16CF
100
AcDbEntity
  8
0
 60
     1
100
AcDbPoint
 10
16.9890498514155
 20
-2.07232798305327
 30
0.0
1001
GENIUS_GENOLIS_13
1002
{
1000
ENT
1005
16EB
1005
16EA
1005
16E9
1005
16E8
1002
}
1001
GENIUS_GENOENT_13
1002
{
1000
MYREF
1005
16FA
1002
}
1002
{
1000
GRP
1005
0
1002
}
1001
GENIUS_GENOBJ-N-CRS_13
1002
{
1000
OWNER
1000
GEN
1002
}
1001
GENIUS_GENODEF_13
1002
{
1000
HIER
1070
    10
1002
}
1002
{
1000
MANEDIT
1070
     0
1002
}
1002
{
1000
NOSEL
1070
     0
1002
}
1002
{
1000
BEHIND
1070
     0
1002
}
1002
{
1000
OTHER
1070
     0
1002
}
1002
{
1000
REACTOR
1002
}
  0
POINT
  5
16FB
330
16CF
100
AcDbEntity
  8
0
 60
     1
100
AcDbPoint
 10
16.6140498514155
 20
13.15161280803001
 30
0.0
1001
GENIUS_GENOLIS_13
1002
{
1000
ENT
1005
16E6
1005
16E5
1005
16E4
1005
16E3
1002
}
1001
GENIUS_GENOENT_13
1002
{
1000
MYREF
1005
16FB
1002
}
1002
{
1000
GRP
1005
0
1002
}
1001
GENIUS_GENOBJ-N-CRS_13
1002
{
1000
OWNER
1000
GEN
1002
}
1001
GENIUS_GENODEF_13
1002
{
1000
HIER
1070
    10
1002
}
1002
{
1000
MANEDIT
1070
     0
1002
}
1002
{
1000
NOSEL
1070
     0
1002
}
1002
{
1000
BEHIND
1070
     0
1002
}
1002
{
1000
OTHER
1070
     0
1002
}
1002
{
1000
REACTOR
1002
}
  0
POINT
  5
16FC
330
16CF
100
AcDbEntity
  8
0
 60
     1
100
AcDbPoint
 10
5.364049851415501
 20
13.17767201694673
 30
0.0
1001
GENIUS_GENOLIS_13
1002
{
1000
ENT
1005
16DF
1005
16DE
1005
16DD
1005
16DC
1002
}
1001
GENIUS_GENOENT_13
1002
{
1000
MYREF
1005
16FC
1002
}
1002
{
1000
GRP
1005
0
1002
}
1001
GENIUS_GENOBJ-N-CRS_13
1002
{
1000
OWNER
1000
GEN
1002
}
1001
GENIUS_GENODEF_13
1002
{
1000
HIER
1070
    10
1002
}
1002
{
1000
MANEDIT
1070
     0
1002
}
1002
{
1000
NOSEL
1070
     0
1002
}
1002
{
1000
BEHIND
1070
     0
1002
}
1002
{
1000
OTHER
1070
     0
1002
}
1002
{
1000
REACTOR
1002
}
  0
ENDBLK
  5
1700
330
16CF
100
AcDbEntity
  8
0
100
AcDbBlockEnd
  0
BLOCK
  5
1AC9
330
1AC8
100
AcDbEntity
  8
0
100
AcDbBlockBegin
  2
*D11
 70
     1
 10
0.0
 20
0.0
 30
0.0
  3
*D11
  1

  0
LINE
  5
1ACA
330
1AC8
100
AcDbEntity
  8
AM_5
 62
     0
 48
0.125
370
    -2
100
AcDbLine
 10
-3.058468293014498
 20
7.822327962220128
 30
0.0
 11
-5.239049813645523
 21
7.822327962220128
 31
0.0
  0
LINE
  5
1ACB
330
1AC8
100
AcDbEntity
  8
AM_5
 62
     0
 48
0.125
370
    -2
100
AcDbLine
 10
-3.058468293014498
 20
-13.05767203777987
 30
0.0
 11
-5.239049813645528
 21
-13.05767203777987
 31
0.0
  0
LINE
  5
1ACC
330
1AC8
100
AcDbEntity
  8
AM_5
 62
     0
 48
0.125
370
    -2
100
AcDbLine
 10
-5.051549813645523
 20
7.634827962220128
 30
0.0
 11
-5.051549813645525
 21
-1.099263169091783
 31
0.0
  0
LINE
  5
1ACD
330
1AC8
100
AcDbEntity
  8
AM_5
 62
     0
 48
0.125
370
    -2
100
AcDbLine
 10
-5.051549813645528
 20
-12.87017203777987
 30
0.0
 11
-5.051549813645525
 21
-1.724263169091783
 31
0.0
  0
SOLID
  5
1ACE
330
1AC8
100
AcDbEntity
  8
AM_5
 62
     0
 48
0.125
100
AcDbTrace
 10
-5.082799813645523
 20
7.634827962220128
 30
0.0
 11
-5.020299813645523
 21
7.634827962220128
 31
0.0
 12
-5.051549813645523
 22
7.822327962220128
 32
0.0
 13
-5.051549813645523
 23
7.822327962220128
 33
0.0
  0
SOLID
  5
1ACF
330
1AC8
100
AcDbEntity
  8
AM_5
 62
     0
 48
0.125
100
AcDbTrace
 10
-5.082799813645528
 20
-12.87017203777987
 30
0.0
 11
-5.020299813645528
 21
-12.87017203777987
 31
0.0
 12
-5.051549813645528
 22
-13.05767203777987
 32
0.0
 13
-5.051549813645528
 23
-13.05767203777987
 33
0.0
  0
MTEXT
  5
1AD0
330
1AC8
100
AcDbEntity
  8
AM_5
 62
     0
 48
0.125
100
AcDbMText
 10
-5.051549813645525
 20
-1.411763169091784
 30
0.0
 40
0.25
 41
0.0
 46
0.0
 71
     5
 72
     1
  1
\A1;20.88
 73
     1
 44
1.0
  0
POINT
  5
1AD1
330
1AC8
100
AcDbEntity
  8
DEFPOINTS
 62
     0
 48
0.125
100
AcDbPoint
 10
-2.995968293014498
 20
7.822327962220128
 30
0.0
  0
POINT
  5
1AD2
330
1AC8
100
AcDbEntity
  8
DEFPOINTS
 62
     0
 48
0.125
100
AcDbPoint
 10
-2.995968293014498
 20
-13.05767203777987
 30
0.0
  0
POINT
  5
1AD3
330
1AC8
100
AcDbEntity
  8
DEFPOINTS
 62
     0
 48
0.125
100
AcDbPoint
 10
-5.051549813645528
 20
-13.05767203777987
 30
0.0
  0
ENDBLK
  5
1AD4
330
1AC8
100
AcDbEntity
  8
0
100
AcDbBlockEnd
  0
BLOCK
  5
1AD6
330
1AD5
100
AcDbEntity
  8
0
100
AcDbBlockBegin
  2
*D12
 70
     1
 10
0.0
 20
0.0
 30
0.0
  3
*D12
  1

  0
LINE
  5
1AD7
330
1AD5
100
AcDbEntity
  8
AM_5
 62
     0
 48
0.125
370
    -2
100
AcDbLine
 10
-2.995968293014498
 20
7.884827962220128
 30
0.0
 11
-2.995968293014498
 21
8.960717228584167
 31
0.0
  0
LINE
  5
1AD8
330
1AD5
100
AcDbEntity
  8
AM_5
 62
     0
 48
0.125
370
    -2
100
AcDbLine
 10
18.3840317069855
 20
7.884827962220092
 30
0.0
 11
18.3840317069855
 21
8.960717228584167
 31
0.0
  0
LINE
  5
1AD9
330
1AD5
100
AcDbEntity
  8
AM_5
 62
     0
 48
0.125
370
    -2
100
AcDbLine
 10
-2.808468293014498
 20
8.773217228584167
 30
0.0
 11
7.048198373652167
 21
8.773217228584167
 31
0.0
  0
LINE
  5
1ADA
330
1AD5
100
AcDbEntity
  8
AM_5
 62
     0
 48
0.125
370
    -2
100
AcDbLine
 10
18.1965317069855
 20
8.773217228584167
 30
0.0
 11
8.339865040318834
 21
8.773217228584167
 31
0.0
  0
SOLID
  5
1ADB
330
1AD5
100
AcDbEntity
  8
AM_5
 62
     0
 48
0.125
100
AcDbTrace
 10
-2.808468293014498
 20
8.804467228584167
 30
0.0
 11
-2.808468293014498
 21
8.741967228584167
 31
0.0
 12
-2.995968293014498
 22
8.773217228584167
 32
0.0
 13
-2.995968293014498
 23
8.773217228584167
 33
0.0
  0
SOLID
  5
1ADC
330
1AD5
100
AcDbEntity
  8
AM_5
 62
     0
 48
0.125
100
AcDbTrace
 10
18.1965317069855
 20
8.804467228584167
 30
0.0
 11
18.1965317069855
 21
8.741967228584167
 31
0.0
 12
18.3840317069855
 22
8.773217228584167
 32
0.0
 13
18.3840317069855
 23
8.773217228584167
 33
0.0
  0
MTEXT
  5
1ADD
330
1AD5
100
AcDbEntity
  8
AM_5
 62
     0
 48
0.125
100
AcDbMText
 10
7.6940317069855
 20
8.773217228584167
 30
0.0
 40
0.25
 41
0.0
 46
0.0
 71
     5
 72
     1
  1
\A1;21.38
 73
     1
 44
1.0
  0
POINT
  5
1ADE
330
1AD5
100
AcDbEntity
  8
DEFPOINTS
 62
     0
 48
0.125
100
AcDbPoint
 10
-2.995968293014498
 20
7.822327962220128
 30
0.0
  0
POINT
  5
1ADF
330
1AD5
100
AcDbEntity
  8
DEFPOINTS
 62
     0
 48
0.125
100
AcDbPoint
 10
18.3840317069855
 20
7.822327962220092
 30
0.0
  0
POINT
  5
1AE0
330
1AD5
100
AcDbEntity
  8
DEFPOINTS
 62
     0
 48
0.125
100
AcDbPoint
 10
18.3840317069855
 20
8.773217228584167
 30
0.0
  0
ENDBLK
  5
1AE1
330
1AD5
100
AcDbEntity
  8
0
100
AcDbBlockEnd
  0
BLOCK
  5
1AE3
330
1AE2
100
AcDbEntity
  8
0
100
AcDbBlockBegin
  2
*D13
 70
     1
 10
0.0
 20
0.0
 30
0.0
  3
*D13
  1

  0
LINE
  5
1AE4
330
1AE2
100
AcDbEntity
  8
AM_5
 62
     0
 48
0.125
370
    -2
100
AcDbLine
 10
-1.930968293014498
 20
7.304827962220127
 30
0.0
 11
-1.930968293014498
 21
8.479152600218919
 31
0.0
  0
LINE
  5
1AE5
330
1AE2
100
AcDbEntity
  8
AM_5
 62
     0
 48
0.125
370
    -2
100
AcDbLine
 10
17.3190317069855
 20
7.319827962220117
 30
0.0
 11
17.3190317069855
 21
8.479152600218919
 31
0.0
  0
LINE
  5
1AE6
330
1AE2
100
AcDbEntity
  8
AM_5
 62
     0
 48
0.125
370
    -2
100
AcDbLine
 10
-1.743468293014498
 20
8.291652600218919
 30
0.0
 11
7.055583399765661
 21
8.291652600218919
 31
0.0
  0
LINE
  5
1AE7
330
1AE2
100
AcDbEntity
  8
AM_5
 62
     0
 48
0.125
370
    -2
100
AcDbLine
 10
17.1315317069855
 20
8.291652600218919
 30
0.0
 11
8.347250066432328
 21
8.291652600218919
 31
0.0
  0
SOLID
  5
1AE8
330
1AE2
100
AcDbEntity
  8
AM_5
 62
     0
 48
0.125
100
AcDbTrace
 10
-1.743468293014498
 20
8.322902600218919
 30
0.0
 11
-1.743468293014498
 21
8.260402600218919
 31
0.0
 12
-1.930968293014498
 22
8.291652600218919
 32
0.0
 13
-1.930968293014498
 23
8.291652600218919
 33
0.0
  0
SOLID
  5
1AE9
330
1AE2
100
AcDbEntity
  8
AM_5
 62
     0
 48
0.125
100
AcDbTrace
 10
17.1315317069855
 20
8.322902600218919
 30
0.0
 11
17.1315317069855
 21
8.260402600218919
 31
0.0
 12
17.3190317069855
 22
8.291652600218919
 32
0.0
 13
17.3190317069855
 23
8.291652600218919
 33
0.0
  0
MTEXT
  5
1AEA
330
1AE2
100
AcDbEntity
  8
AM_5
 62
     0
 48
0.125
100
AcDbMText
 10
7.701416733098994
 20
8.291652600218919
 30
0.0
 40
0.25
 41
0.0
 46
0.0
 71
     5
 72
     1
  1
\A1;19.25
 73
     1
 44
1.0
  0
POINT
  5
1AEB
330
1AE2
100
AcDbEntity
  8
DEFPOINTS
 62
     0
 48
0.125
100
AcDbPoint
 10
-1.930968293014498
 20
7.242327962220127
 30
0.0
  0
POINT
  5
1AEC
330
1AE2
100
AcDbEntity
  8
DEFPOINTS
 62
     0
 48
0.125
100
AcDbPoint
 10
17.3190317069855
 20
7.257327962220117
 30
0.0
  0
POINT
  5
1AED
330
1AE2
100
AcDbEntity
  8
DEFPOINTS
 62
     0
 48
0.125
100
AcDbPoint
 10
17.3190317069855
 20
8.291652600218919
 30
0.0
  0
ENDBLK
  5
1AEE
330
1AE2
100
AcDbEntity
  8
0
100
AcDbBlockEnd
  0
BLOCK
  5
1AF0
330
1AEF
100
AcDbEntity
  8
0
100
AcDbBlockBegin
  2
*D14
 70
     1
 10
0.0
 20
0.0
 30
0.0
  3
*D14
  1

  0
LINE
  5
1AF1
330
1AEF
100
AcDbEntity
  8
AM_5
 62
     0
 48
0.125
370
    -2
100
AcDbLine
 10
-2.228468293014498
 20
7.007327962220127
 30
0.0
 11
-3.838242784009745
 21
7.007327962220127
 31
0.0
  0
LINE
  5
1AF2
330
1AEF
100
AcDbEntity
  8
AM_5
 62
     0
 48
0.125
370
    -2
100
AcDbLine
 10
-2.228468293014498
 20
-12.24267203777987
 30
0.0
 11
-3.838242784009749
 21
-12.24267203777987
 31
0.0
  0
LINE
  5
1AF3
330
1AEF
100
AcDbEntity
  8
AM_5
 62
     0
 48
0.125
370
    -2
100
AcDbLine
 10
-3.650742784009745
 20
6.819827962220127
 30
0.0
 11
-3.650742784009747
 21
-1.099263169091784
 31
0.0
  0
LINE
  5
1AF4
330
1AEF
100
AcDbEntity
  8
AM_5
 62
     0
 48
0.125
370
    -2
100
AcDbLine
 10
-3.650742784009749
 20
-12.05517203777987
 30
0.0
 11
-3.650742784009747
 21
-1.724263169091783
 31
0.0
  0
SOLID
  5
1AF5
330
1AEF
100
AcDbEntity
  8
AM_5
 62
     0
 48
0.125
100
AcDbTrace
 10
-3.681992784009745
 20
6.819827962220127
 30
0.0
 11
-3.619492784009745
 21
6.819827962220127
 31
0.0
 12
-3.650742784009745
 22
7.007327962220127
 32
0.0
 13
-3.650742784009745
 23
7.007327962220127
 33
0.0
  0
SOLID
  5
1AF6
330
1AEF
100
AcDbEntity
  8
AM_5
 62
     0
 48
0.125
100
AcDbTrace
 10
-3.681992784009749
 20
-12.05517203777987
 30
0.0
 11
-3.619492784009749
 21
-12.05517203777987
 31
0.0
 12
-3.650742784009749
 22
-12.24267203777987
 32
0.0
 13
-3.650742784009749
 23
-12.24267203777987
 33
0.0
  0
MTEXT
  5
1AF7
330
1AEF
100
AcDbEntity
  8
AM_5
 62
     0
 48
0.125
100
AcDbMText
 10
-3.650742784009747
 20
-1.411763169091784
 30
0.0
 40
0.25
 41
0.0
 46
0.0
 71
     5
 72
     1
  1
\A1;19.25
 73
     1
 44
1.0
  0
POINT
  5
1AF8
330
1AEF
100
AcDbEntity
  8
DEFPOINTS
 62
     0
 48
0.125
100
AcDbPoint
 10
-2.165968293014498
 20
7.007327962220127
 30
0.0
  0
POINT
  5
1AF9
330
1AEF
100
AcDbEntity
  8
DEFPOINTS
 62
     0
 48
0.125
100
AcDbPoint
 10
-2.165968293014498
 20
-12.24267203777987
 30
0.0
  0
POINT
  5
1AFA
330
1AEF
100
AcDbEntity
  8
DEFPOINTS
 62
     0
 48
0.125
100
AcDbPoint
 10
-3.650742784009749
 20
-12.24267203777987
 30
0.0
  0
ENDBLK
  5
1AFB
330
1AEF
100
AcDbEntity
  8
0
100
AcDbBlockEnd
  0
BLOCK
  5
1AFD
330
1AFC
100
AcDbEntity
  8
0
 48
0.125
100
AcDbBlockBegin
  2
*D15
 70
     1
 10
0.0
 20
0.0
 30
0.0
  3
*D15
  1

  0
LINE
  5
1AFE
330
1AFC
100
AcDbEntity
  8
CENTER
  6
CENTER
 62
     0
 48
0.125
370
    -2
100
AcDbLine
 10
-3.09592775369482
 20
10.4840087539716
 30
0.0
 11
-3.239657484034981
 21
10.60441645562039
 31
0.0
  0
LINE
  5
1AFF
330
1AFC
100
AcDbEntity
  8
CENTER
  6
CENTER
 62
     0
 48
0.125
370
    -2
100
AcDbLine
 10
-3.239657484034981
 20
10.60441645562039
 30
0.0
 11
-3.427157484034981
 21
10.60441645562039
 31
0.0
  0
SOLID
  5
1B00
330
1AFC
100
AcDbEntity
  8
CENTER
  6
CENTER
 62
     0
 48
0.125
100
AcDbTrace
 10
-3.075859803420022
 20
10.50796370902829
 30
0.0
 11
-3.11599570396962
 21
10.4600537989149
 31
0.0
 12
-2.952198023354661
 22
10.3636010523228
 32
0.0
 13
-2.952198023354661
 23
10.3636010523228
 33
0.0
  0
MTEXT
  5
1B01
330
1AFC
100
AcDbEntity
  8
CENTER
  6
CENTER
 62
     0
 48
0.125
100
AcDbMText
 10
-4.156324150701648
 20
10.60441645562039
 30
0.0
 40
0.25
 41
0.0
 46
0.0
 71
     5
 72
     1
  1
\A1;R3/16
 73
     1
 44
1.0
  0
LINE
  5
1B02
330
1AFC
100
AcDbEntity
  8
CENTER
  6
CENTER
 62
     0
 48
0.125
370
    -2
100
AcDbLine
 10
-2.902218293014492
 20
10.243193350674
 30
0.0
 11
-2.714718293014492
 21
10.243193350674
 31
0.0
  0
LINE
  5
1B03
330
1AFC
100
AcDbEntity
  8
CENTER
  6
CENTER
 62
     0
 48
0.125
370
    -2
100
AcDbLine
 10
-2.808468293014492
 20
10.149443350674
 30
0.0
 11
-2.808468293014492
 21
10.336943350674
 31
0.0
  0
POINT
  5
1B04
330
1AFC
100
AcDbEntity
  8
DEFPOINTS
  6
CENTER
 62
     0
 48
0.125
100
AcDbPoint
 10
-2.952198023354661
 20
10.3636010523228
 30
0.0
  0
POINT
  5
1B05
330
1AFC
100
AcDbEntity
  8
DEFPOINTS
  6
CENTER
 62
     0
 48
0.125
100
AcDbPoint
 10
-2.808468293014493
 20
10.243193350674
 30
0.0
  0
ENDBLK
  5
1B06
330
1AFC
100
AcDbEntity
  8
0
 48
0.125
100
AcDbBlockEnd
  0
BLOCK
  5
1B08
330
1B07
100
AcDbEntity
  8
0
 48
0.125
100
AcDbBlockBegin
  2
*D16
 70
     1
 10
0.0
 20
0.0
 30
0.0
  3
*D16
  1

  0
LINE
  5
1B09
330
1B07
100
AcDbEntity
  8
AM_5
 62
     0
 48
0.125
370
    -2
100
AcDbLine
 10
-2.995968293014498
 20
9.555193350674031
 30
0.0
 11
-2.995968293014498
 21
9.152308702906495
 31
0.0
  0
LINE
  5
1B0A
330
1B07
100
AcDbEntity
  8
AM_5
 62
     0
 48
0.125
370
    -2
100
AcDbLine
 10
-2.865968293014498
 20
9.555193350674031
 30
0.0
 11
-2.865968293014498
 21
9.152308702906495
 31
0.0
  0
LINE
  5
1B0B
330
1B07
100
AcDbEntity
  8
AM_5
 62
     0
 48
0.125
370
    -2
100
AcDbLine
 10
-2.678468293014498
 20
9.339808702906495
 30
0.0
 11
-2.490968293014498
 21
9.339808702906495
 31
0.0
  0
LINE
  5
1B0C
330
1B07
100
AcDbEntity
  8
AM_5
 62
     0
 48
0.125
370
    -2
100
AcDbLine
 10
-3.183468293014498
 20
9.339808702906495
 30
0.0
 11
-3.370968293014498
 21
9.339808702906495
 31
0.0
  0
SOLID
  5
1B0D
330
1B07
100
AcDbEntity
  8
AM_5
 62
     0
 48
0.125
100
AcDbTrace
 10
-2.678468293014498
 20
9.371058702906495
 30
0.0
 11
-2.678468293014498
 21
9.308558702906495
 31
0.0
 12
-2.865968293014498
 22
9.339808702906495
 32
0.0
 13
-2.865968293014498
 23
9.339808702906495
 33
0.0
  0
SOLID
  5
1B0E
330
1B07
100
AcDbEntity
  8
AM_5
 62
     0
 48
0.125
100
AcDbTrace
 10
-3.183468293014498
 20
9.371058702906495
 30
0.0
 11
-3.183468293014498
 21
9.308558702906495
 31
0.0
 12
-2.995968293014498
 22
9.339808702906495
 32
0.0
 13
-2.995968293014498
 23
9.339808702906495
 33
0.0
  0
MTEXT
  5
1B0F
330
1B07
100
AcDbEntity
  8
AM_5
 62
     0
 48
0.125
100
AcDbMText
 10
-3.870968293014498
 20
9.339808702906495
 30
0.0
 40
0.25
 41
0.0
 46
0.0
 71
     5
 72
     1
  1
\A1;0.13
 73
     1
 44
1.0
  0
POINT
  5
1B10
330
1B07
100
AcDbEntity
  8
DEFPOINTS
 62
     0
 48
0.125
100
AcDbPoint
 10
-2.995968293014498
 20
9.617693350674031
 30
0.0
  0
POINT
  5
1B11
330
1B07
100
AcDbEntity
  8
DEFPOINTS
 62
     0
 48
0.125
100
AcDbPoint
 10
-2.865968293014498
 20
9.617693350674031
 30
0.0
  0
POINT
  5
1B12
330
1B07
100
AcDbEntity
  8
DEFPOINTS
 62
     0
 48
0.125
100
AcDbPoint
 10
-2.865968293014498
 20
9.339808702906495
 30
0.0
  0
ENDBLK
  5
1B13
330
1B07
100
AcDbEntity
  8
0
 48
0.125
100
AcDbBlockEnd
  0
BLOCK
  5
1B15
330
1B14
100
AcDbEntity
  8
0
 48
0.125
100
AcDbBlockBegin
  2
*D17
 70
     1
 10
0.0
 20
0.0
 30
0.0
  3
*D17
  1

  0
LINE
  5
1B16
330
1B14
100
AcDbEntity
  8
AM_5
 62
     0
 48
0.125
370
    -2
100
AcDbLine
 10
18.25903170698549
 20
10.43069335067407
 30
0.0
 11
18.94153170698549
 21
10.43069335067407
 31
0.0
  0
LINE
  5
1B17
330
1B14
100
AcDbEntity
  8
AM_5
 62
     0
 48
0.125
370
    -2
100
AcDbLine
 10
18.31653170698549
 20
9.617693350674006
 30
0.0
 11
18.94153170698549
 21
9.617693350674006
 31
0.0
  0
LINE
  5
1B18
330
1B14
100
AcDbEntity
  8
AM_5
 62
     0
 48
0.125
370
    -2
100
AcDbLine
 10
18.75403170698549
 20
10.61819335067407
 30
0.0
 11
18.75403170698549
 21
10.80569335067407
 31
0.0
  0
LINE
  5
1B19
330
1B14
100
AcDbEntity
  8
AM_5
 62
     0
 48
0.125
370
    -2
100
AcDbLine
 10
18.75403170698549
 20
9.430193350674006
 30
0.0
 11
18.75403170698549
 21
9.242693350674006
 31
0.0
  0
LINE
  5
1B1A
330
1B14
100
AcDbEntity
  8
AM_5
 62
     0
 48
0.125
370
    -2
100
AcDbLine
 10
18.75403170698549
 20
9.242693350674006
 30
0.0
 11
18.56653170698549
 21
9.242693350674006
 31
0.0
  0
SOLID
  5
1B1B
330
1B14
100
AcDbEntity
  8
AM_5
 62
     0
 48
0.125
100
AcDbTrace
 10
18.72278170698549
 20
10.61819335067407
 30
0.0
 11
18.78528170698549
 21
10.61819335067407
 31
0.0
 12
18.75403170698549
 22
10.43069335067407
 32
0.0
 13
18.75403170698549
 23
10.43069335067407
 33
0.0
  0
SOLID
  5
1B1C
330
1B14
100
AcDbEntity
  8
AM_5
 62
     0
 48
0.125
100
AcDbTrace
 10
18.72278170698549
 20
9.430193350674006
 30
0.0
 11
18.78528170698549
 21
9.430193350674006
 31
0.0
 12
18.75403170698549
 22
9.617693350674006
 32
0.0
 13
18.75403170698549
 23
9.617693350674006
 33
0.0
  0
MTEXT
  5
1B1D
330
1B14
100
AcDbEntity
  8
AM_5
 62
     0
 48
0.125
100
AcDbMText
 10
17.87903170698549
 20
9.242693350674008
 30
0.0
 40
0.25
 41
0.0
 46
0.0
 71
     5
 72
     1
  1
\A1;13/16
 73
     1
 44
1.0
  0
POINT
  5
1B1E
330
1B14
100
AcDbEntity
  8
DEFPOINTS
 62
     0
 48
0.125
100
AcDbPoint
 10
18.19653170698549
 20
10.43069335067407
 30
0.0
  0
POINT
  5
1B1F
330
1B14
100
AcDbEntity
  8
DEFPOINTS
 62
     0
 48
0.125
100
AcDbPoint
 10
18.25403170698549
 20
9.617693350674006
 30
0.0
  0
POINT
  5
1B20
330
1B14
100
AcDbEntity
  8
DEFPOINTS
 62
     0
 48
0.125
100
AcDbPoint
 10
18.75403170698549
 20
9.617693350674006
 30
0.0
  0
ENDBLK
  5
1B21
330
1B14
100
AcDbEntity
  8
0
 48
0.125
100
AcDbBlockEnd
  0
BLOCK
  5
1B23
330
1B22
100
AcDbEntity
  8
0
 48
0.125
100
AcDbBlockBegin
  2
*D18
 70
     1
 10
0.0
 20
0.0
 30
0.0
  3
*D18
  1

  0
LINE
  5
1B24
330
1B22
100
AcDbEntity
  8
CENTER
  6
CENTER
 62
     0
 48
0.125
370
    -2
100
AcDbLine
 10
-2.252408765780976
 20
7.304114539523855
 30
0.0
 11
-3.399960865922117
 21
8.363651495612211
 31
0.0
  0
LINE
  5
1B25
330
1B22
100
AcDbEntity
  8
CENTER
  6
CENTER
 62
     0
 48
0.125
370
    -2
100
AcDbLine
 10
-3.399960865922117
 20
8.363651495612211
 30
0.0
 11
-3.587460865922117
 21
8.363651495612211
 31
0.0
  0
SOLID
  5
1B26
330
1B22
100
AcDbEntity
  8
CENTER
  6
CENTER
 62
     0
 48
0.125
100
AcDbTrace
 10
-2.231209724544996
 20
7.32707457329289
 30
0.0
 11
-2.273607807016957
 21
7.281154505754821
 31
0.0
 12
-2.114648563166771
 22
7.17692029210797
 32
0.0
 13
-2.114648563166771
 23
7.17692029210797
 33
0.0
  0
MTEXT
  5
1B27
330
1B22
100
AcDbEntity
  8
CENTER
  6
CENTER
 62
     0
 48
0.125
100
AcDbMText
 10
-4.316627532588782
 20
8.363651495612213
 30
0.0
 40
0.25
 41
0.0
 46
0.0
 71
     5
 72
     1
  1
\A1;∅0.50"
 73
     1
 44
1.0
  0
LINE
  5
1B28
330
1B22
100
AcDbEntity
  8
CENTER
  6
CENTER
 62
     0
 48
0.125
370
    -2
100
AcDbLine
 10
-2.024718293014498
 20
7.007327962220124
 30
0.0
 11
-1.837218293014498
 21
7.007327962220124
 31
0.0
  0
LINE
  5
1B29
330
1B22
100
AcDbEntity
  8
CENTER
  6
CENTER
 62
     0
 48
0.125
370
    -2
100
AcDbLine
 10
-1.930968293014498
 20
6.913577962220124
 30
0.0
 11
-1.930968293014498
 21
7.101077962220125
 31
0.0
  0
POINT
  5
1B2A
330
1B22
100
AcDbEntity
  8
DEFPOINTS
  6
CENTER
 62
     0
 48
0.125
100
AcDbPoint
 10
-2.114648563166771
 20
7.17692029210797
 30
0.0
  0
POINT
  5
1B2B
330
1B22
100
AcDbEntity
  8
DEFPOINTS
  6
CENTER
 62
     0
 48
0.125
100
AcDbPoint
 10
-1.747288022862224
 20
6.837735632332279
 30
0.0
  0
ENDBLK
  5
1B2C
330
1B22
100
AcDbEntity
  8
0
 48
0.125
100
AcDbBlockEnd
  0
BLOCK
  5
1B6A
330
1B2D
100
AcDbEntity
  8
0
100
AcDbBlockBegin
  2
A$C2EE322AC
 70
     0
 10
0.0
 20
0.0
 30
0.0
  3
A$C2EE322AC
  1

  0
LINE
  5
1B2E
330
1B2D
100
AcDbEntity
  8
0
100
AcDbLine
 10
2.534748177846637
 20
-0.0000000146979477
 30
0.0
 11
23.91474817784664
 21
-0.0000000146979513
 31
0.0
  0
LINE
  5
1B2F
330
1B2D
100
AcDbEntity
  8
0
100
AcDbLine
 10
23.91474817784663
 20
-0.0000000146979495
 30
0.0
 11
23.91474817784663
 21
20.87999998530203
 31
0.0
  0
LINE
  5
1B30
330
1B2D
100
AcDbEntity
  8
0
100
AcDbLine
 10
23.78474817784663
 20
-0.0000000146979495
 30
0.0
 11
23.78474817784663
 21
20.87999998530203
 31
0.0
  0
LINE
  5
1B31
330
1B2D
100
AcDbEntity
  8
0
100
AcDbLine
 10
23.91474817784664
 20
20.87999998530202
 30
0.0
 11
2.534748177846638
 21
20.87999998530206
 31
0.0
  0
LINE
  5
1B32
330
1B2D
100
AcDbEntity
  8
0
100
AcDbLine
 10
2.534748177846638
 20
20.87999998530206
 30
0.0
 11
2.534748177846637
 21
-0.000000014697946
 31
0.0
  0
LINE
  5
1B33
330
1B2D
100
AcDbEntity
  8
0
100
AcDbLine
 10
2.664748177846638
 20
20.87999998530206
 30
0.0
 11
2.664748177846637
 21
-0.000000014697946
 31
0.0
  0
DIMENSION
  5
1B34
330
1B2D
100
AcDbEntity
  8
AM_5
100
AcDbDimension
280
     0
  2
*D11
 10
0.4791666572156084
 20
-0.0000000146979442
 30
0.0
 11
0.4791666572156111
 21
11.64590885399014
 31
0.0
 12
5.530716470861136
 22
13.05767202308192
 32
0.0
 70
   128
  1
<>
 71
     5
 42
20.88
 73
     0
 74
     0
 75
     0
  3
STANDARD$0
100
AcDbAlignedDimension
 13
2.534748177846638
 23
20.87999998530206
 33
0.0
 14
2.534748177846637
 24
-0.000000014697946
 34
0.0
 50
90.0
100
AcDbRotatedDimension
1001
ACAD
1000
DSTYLE
1002
{
1070
   140
1040
0.25
1070
    41
1040
0.1875
1070
    43
1040
0.375
1070
    44
1040
0.1875
1070
   141
1040
0.09375
1070
   147
1040
0.1875
1070
   271
1070
     2
1070
   276
1070
     2
1070
   277
1070
     2
1070
   289
1070
     0
1002
}
  0
LINE
  5
1B35
330
1B2D
100
AcDbEntity
  8
0
100
AcDbLine
 10
2.852248177846638
 20
23.35836537375596
 30
0.0
 11
23.59724817784663
 21
23.35836537375592
 31
0.0
  0
LINE
  5
1B36
330
1B2D
100
AcDbEntity
  8
0
100
AcDbLine
 10
23.72724817784663
 20
23.48836537375604
 30
0.0
 11
2.722248177846637
 21
23.48836537375594
 31
0.0
  0
ARC
  5
1B37
330
1B2D
100
AcDbEntity
  8
0
100
AcDbCircle
 10
23.72724817784663
 20
23.300865373756
 30
0.0
 40
0.1875
100
AcDbArc
 50
0.0
 51
90.0000000000003
  0
DIMENSION
  5
1B38
330
1B2D
100
AcDbEntity
  8
AM_5
100
AcDbDimension
280
     0
  2
*D12
 10
23.91474817784664
 20
21.83088925166609
 30
0.0
 11
13.22474817784663
 21
21.83088925166609
 31
0.0
 12
5.530716470861136
 22
13.05767202308192
 32
0.0
 71
     5
 42
21.38
 73
     0
 74
     0
 75
     0
  3
STANDARD$0
100
AcDbAlignedDimension
 13
2.534748177846638
 23
20.87999998530206
 33
0.0
 14
23.91474817784664
 24
20.87999998530202
 34
0.0
100
AcDbRotatedDimension
1001
ACAD
1000
DSTYLE
1002
{
1070
   140
1040
0.25
1070
    40
1040
1.0
1070
   144
1040
1.0
1070
    41
1040
0.1875
1070
    43
1040
0.375
1070
    44
1040
0.1875
1070
   141
1040
0.09375
1070
   147
1040
0.1875
1070
   271
1070
     2
1070
   276
1070
     2
1070
   277
1070
     2
1070
   289
1070
     0
1002
}
  0
DIMENSION
  5
1B39
330
1B2D
100
AcDbEntity
  8
AM_5
100
AcDbDimension
280
     0
  2
*D13
 10
22.84974817784664
 20
21.34932462330084
 30
0.0
 11
13.23213320396013
 21
21.34932462330084
 31
0.0
 12
5.530716470861136
 22
13.05767202308192
 32
0.0
 70
   128
 71
     5
 42
19.25
 73
     0
 74
     0
 75
     0
  3
STANDARD$0
100
AcDbAlignedDimension
 13
3.599748177846638
 23
20.29999998530206
 33
0.0
 14
22.84974817784664
 24
20.31499998530204
 34
0.0
100
AcDbRotatedDimension
1001
ACAD
1000
DSTYLE
1002
{
1070
   140
1040
0.25
1070
    40
1040
1.0
1070
   144
1040
1.0
1070
    41
1040
0.1875
1070
    43
1040
0.375
1070
    44
1040
0.1875
1070
   141
1040
0.09375
1070
   147
1040
0.1875
1070
   271
1070
     2
1070
   276
1070
     2
1070
   277
1070
     2
1070
   289
1070
     0
1002
}
  0
DIMENSION
  5
1B3A
330
1B2D
100
AcDbEntity
  8
AM_5
100
AcDbDimension
280
     0
  2
*D14
 10
1.879973686851386
 20
0.8149999853020517
 30
0.0
 11
1.879973686851389
 21
11.64590885399014
 31
0.0
 12
5.530716470861136
 22
13.05767202308192
 32
0.0
 70
   128
 71
     5
 42
19.25
 73
     0
 74
     0
 75
     0
  3
STANDARD$0
100
AcDbAlignedDimension
 13
3.364748177846638
 23
20.06499998530205
 33
0.0
 14
3.364748177846638
 24
0.8149999853020517
 34
0.0
 50
90.0
100
AcDbRotatedDimension
1001
ACAD
1000
DSTYLE
1002
{
1070
   140
1040
0.25
1070
    40
1040
1.0
1070
   144
1040
1.0
1070
    41
1040
0.1875
1070
    43
1040
0.375
1070
    44
1040
0.1875
1070
   141
1040
0.09375
1070
   147
1040
0.1875
1070
   271
1070
     2
1070
   276
1070
     2
1070
   277
1070
     2
1070
   289
1070
     0
1002
}
  0
LINE
  5
1B3B
330
1B2D
100
AcDbEntity
  8
CENTER
  6
CENTER2
 48
0.1
100
AcDbLine
 10
3.599748177846638
 20
20.06499998530205
 30
0.0
 11
3.934748177846638
 21
20.06499998530205
 31
0.0
1001
GENIUS_GENOREF_13
1005
1B64
  0
LINE
  5
1B3C
330
1B2D
100
AcDbEntity
  8
CENTER
  6
CENTER2
 48
0.1
100
AcDbLine
 10
3.599748177846638
 20
20.06499998530205
 30
0.0
 11
3.599748177846638
 21
20.39999998530205
 31
0.0
1001
GENIUS_GENOREF_13
1005
1B64
  0
LINE
  5
1B3D
330
1B2D
100
AcDbEntity
  8
CENTER
  6
CENTER2
 48
0.1
100
AcDbLine
 10
3.599748177846638
 20
20.06499998530205
 30
0.0
 11
3.264748177846638
 21
20.06499998530205
 31
0.0
1001
GENIUS_GENOREF_13
1005
1B64
  0
LINE
  5
1B3E
330
1B2D
100
AcDbEntity
  8
CENTER
  6
CENTER2
 48
0.1
100
AcDbLine
 10
3.599748177846638
 20
20.13999998530206
 30
0.0
 11
3.599748177846638
 21
19.72999998530205
 31
0.0
1001
GENIUS_GENOREF_13
1005
1B64
  0
TEXT
  5
1B3F
330
1B2D
100
AcDbEntity
  8
CENTER
100
AcDbText
 10
0.2903148172097616
 20
21.32083710675761
 30
0.0
 40
0.1875
  1
4X
100
AcDbText
  0
CIRCLE
  5
1B40
330
1B2D
100
AcDbEntity
  8
0
100
AcDbCircle
 10
3.599748177846638
 20
20.06499998530205
 30
0.0
 40
0.25
  0
LINE
  5
1B41
330
1B2D
100
AcDbEntity
  8
0
100
AcDbLine
 10
2.534748177846638
 20
23.30086537375594
 30
0.0
 11
2.534748177846638
 21
22.67536537375596
 31
0.0
  0
ARC
  5
1B42
330
1B2D
100
AcDbEntity
  8
0
100
AcDbCircle
 10
2.722248177846638
 20
23.30086537375594
 30
0.0
 40
0.1875
100
AcDbArc
 50
90.00000000000026
 51
180.0
  0
LINE
  5
1B43
330
1B2D
100
AcDbEntity
  8
0
100
AcDbLine
 10
2.534748177846638
 20
22.67536537375596
 30
0.0
 11
2.664748177846638
 21
22.67536537375596
 31
0.0
  0
LINE
  5
1B44
330
1B2D
100
AcDbEntity
  8
0
100
AcDbLine
 10
2.664748177846638
 20
22.67536537375596
 30
0.0
 11
2.664748177846638
 21
23.17086537375596
 31
0.0
  0
ARC
  5
1B45
330
1B2D
100
AcDbEntity
  8
0
100
AcDbCircle
 10
2.852248177846638
 20
23.17086537375596
 30
0.0
 40
0.1875
100
AcDbArc
 50
89.99999999999991
 51
180.0
  0
LINE
  5
1B46
330
1B2D
100
AcDbEntity
  8
0
100
AcDbLine
 10
23.91474817784663
 20
23.300865373756
 30
0.0
 11
23.91474817784663
 21
22.67536537375594
 31
0.0
  0
LINE
  5
1B47
330
1B2D
100
AcDbEntity
  8
0
100
AcDbLine
 10
23.91474817784664
 20
22.67536537375594
 30
0.0
 11
23.78474817784663
 21
22.67536537375594
 31
0.0
  0
LINE
  5
1B48
330
1B2D
100
AcDbEntity
  8
0
100
AcDbLine
 10
23.78474817784663
 20
22.67536537375594
 30
0.0
 11
23.78474817784663
 21
23.17086537375594
 31
0.0
  0
ARC
  5
1B49
330
1B2D
100
AcDbEntity
  8
0
100
AcDbCircle
 10
23.59724817784663
 20
23.17086537375594
 30
0.0
 40
0.1875
100
AcDbArc
 50
0.0
 51
89.99999999999991
  0
LINE
  5
1B4A
330
1B2D
100
AcDbEntity
  8
0
100
AcDbLine
 10
11.78474817784663
 20
23.35836537375593
 30
0.0
 11
11.78474817784663
 21
23.35836537375593
 31
0.0
  0
LINE
  5
1B4B
330
1B2D
100
AcDbEntity
  8
CENTER
 48
0.125
100
AcDbLine
 10
3.599748177846637
 20
23.23336537375596
 30
0.0
 11
3.599748177846638
 21
23.61336537375594
 31
0.0
  0
LINE
  5
1B4C
330
1B2D
100
AcDbEntity
  8
CENTER
  6
CENTER
 48
0.125
100
AcDbLine
 10
22.84974817784663
 20
23.23336537375594
 30
0.0
 11
22.84974817784664
 21
23.613365373756
 31
0.0
  0
DIMENSION
  5
1B4D
330
1B2D
100
AcDbEntity
  8
CENTER
  6
CENTER
 48
0.125
100
AcDbDimension
280
     0
  2
*D15
 10
2.722248177846643
 20
23.30086537375593
 30
0.0
 11
1.374392320159488
 21
23.66208847870232
 31
0.0
 12
5.530716470861136
 22
13.05767202308192
 32
0.0
 70
     4
 71
     5
 42
0.1875000000000089
 73
     0
 74
     0
 75
     0
  3
STANDARD
100
AcDbRadialDimension
 15
2.578518447506475
 25
23.42127307540473
 35
0.0
 40
0.0
1001
ACAD
1000
DSTYLE
1002
{
1070
   140
1040
0.25
1070
    41
1040
0.1875
1070
    43
1040
0.375
1070
    44
1040
0.1875
1070
   141
1040
0.09375
1070
   147
1040
0.1875
1070
   271
1070
     5
1070
   276
1070
     2
1070
   277
1070
     5
1070
   289
1070
     0
1002
}
  0
DIMENSION
  5
1B4E
330
1B2D
100
AcDbEntity
  8
AM_5
100
AcDbDimension
280
     0
  2
*D16
 10
2.664748177846638
 20
22.39748072598843
 30
0.0
 11
1.659748177846638
 21
22.39748072598843
 31
0.0
 12
5.530716470861136
 22
13.05767202308192
 32
0.0
 70
   128
 71
     5
 42
0.1299999999999999
 73
     0
 74
     0
 75
     0
  3
STANDARD$0
100
AcDbAlignedDimension
 13
2.534748177846638
 23
22.67536537375596
 33
0.0
 14
2.664748177846638
 24
22.67536537375596
 34
0.0
 50
0.0000000000001018
100
AcDbRotatedDimension
1001
ACAD
1000
DSTYLE
1002
{
1070
   140
1040
0.25
1070
    40
1040
1.0
1070
   144
1040
1.0
1070
    41
1040
0.1875
1070
    43
1040
0.375
1070
    44
1040
0.1875
1070
   141
1040
0.09375
1070
   147
1040
0.1875
1070
   271
1070
     2
1070
   276
1070
     2
1070
   277
1070
     2
1070
   289
1070
     0
1002
}
  0
DIMENSION
  5
1B4F
330
1B2D
100
AcDbEntity
  8
AM_5
100
AcDbDimension
280
     0
  2
*D17
 10
24.28474817784663
 20
22.67536537375594
 30
0.0
 11
23.40974817784663
 21
22.30036537375594
 31
0.0
 12
5.530716470861136
 22
13.05767202308192
 32
0.0
 71
     5
 42
0.8130000000000645
 73
     0
 74
     0
 75
     0
  3
STANDARD$0
100
AcDbAlignedDimension
 13
23.72724817784663
 23
23.488365373756
 33
0.0
 14
23.78474817784663
 24
22.67536537375594
 34
0.0
 50
90.00000000000019
100
AcDbRotatedDimension
1001
ACAD
1000
DSTYLE
1002
{
1070
   140
1040
0.25
1070
    40
1040
1.0
1070
   144
1040
1.0
1070
    41
1040
0.1875
1070
    43
1040
0.375
1070
    44
1040
0.1875
1070
   141
1040
0.09375
1070
   147
1040
0.1875
1070
   271
1070
     5
1070
   276
1070
     2
1070
   277
1070
     5
1070
   289
1070
     0
1002
}
  0
LINE
  5
1B50
330
1B2D
100
AcDbEntity
  8
CENTER
  6
CENTER2
 48
0.1
100
AcDbLine
 10
22.84974817784664
 20
20.06499998530204
 30
0.0
 11
23.18474817784663
 21
20.06499998530204
 31
0.0
1001
GENIUS_GENOREF_13
1005
1B67
  0
LINE
  5
1B51
330
1B2D
100
AcDbEntity
  8
CENTER
  6
CENTER2
 48
0.1
100
AcDbLine
 10
22.84974817784664
 20
20.06499998530204
 30
0.0
 11
22.84974817784664
 21
20.39999998530205
 31
0.0
1001
GENIUS_GENOREF_13
1005
1B67
  0
LINE
  5
1B52
330
1B2D
100
AcDbEntity
  8
CENTER
  6
CENTER2
 48
0.1
100
AcDbLine
 10
22.84974817784664
 20
20.06499998530204
 30
0.0
 11
22.51474817784663
 21
20.06499998530204
 31
0.0
1001
GENIUS_GENOREF_13
1005
1B67
  0
LINE
  5
1B53
330
1B2D
100
AcDbEntity
  8
CENTER
  6
CENTER2
 48
0.1
100
AcDbLine
 10
22.84974817784664
 20
20.13999998530204
 30
0.0
 11
22.84974817784664
 21
19.72999998530204
 31
0.0
1001
GENIUS_GENOREF_13
1005
1B67
  0
CIRCLE
  5
1B54
330
1B2D
100
AcDbEntity
  8
0
100
AcDbCircle
 10
22.84974817784664
 20
20.06499998530204
 30
0.0
 40
0.25
  0
LINE
  5
1B55
330
1B2D
100
AcDbEntity
  8
CENTER
  6
CENTER2
 48
0.1
100
AcDbLine
 10
3.599748177846637
 20
0.8149999853020517
 30
0.0
 11
3.934748177846637
 21
0.8149999853020517
 31
0.0
1001
GENIUS_GENOREF_13
1005
1B66
  0
LINE
  5
1B56
330
1B2D
100
AcDbEntity
  8
CENTER
  6
CENTER2
 48
0.1
100
AcDbLine
 10
3.599748177846637
 20
0.8149999853020517
 30
0.0
 11
3.599748177846637
 21
1.149999985302052
 31
0.0
1001
GENIUS_GENOREF_13
1005
1B66
  0
LINE
  5
1B57
330
1B2D
100
AcDbEntity
  8
CENTER
  6
CENTER2
 48
0.1
100
AcDbLine
 10
3.599748177846637
 20
0.8149999853020517
 30
0.0
 11
3.264748177846638
 21
0.8149999853020517
 31
0.0
1001
GENIUS_GENOREF_13
1005
1B66
  0
LINE
  5
1B58
330
1B2D
100
AcDbEntity
  8
CENTER
  6
CENTER2
 48
0.1
100
AcDbLine
 10
3.599748177846637
 20
0.889999985302051
 30
0.0
 11
3.599748177846637
 21
0.4799999853020509
 31
0.0
1001
GENIUS_GENOREF_13
1005
1B66
  0
CIRCLE
  5
1B59
330
1B2D
100
AcDbEntity
  8
0
100
AcDbCircle
 10
3.599748177846637
 20
0.8149999853020517
 30
0.0
 40
0.25
  0
LINE
  5
1B5A
330
1B2D
100
AcDbEntity
  8
CENTER
  6
CENTER2
 48
0.1
100
AcDbLine
 10
22.84974817784664
 20
0.8149999853020482
 30
0.0
 11
23.18474817784663
 21
0.8149999853020482
 31
0.0
1001
GENIUS_GENOREF_13
1005
1B65
  0
LINE
  5
1B5B
330
1B2D
100
AcDbEntity
  8
CENTER
  6
CENTER2
 48
0.1
100
AcDbLine
 10
22.84974817784664
 20
0.8149999853020482
 30
0.0
 11
22.84974817784664
 21
1.149999985302049
 31
0.0
1001
GENIUS_GENOREF_13
1005
1B65
  0
LINE
  5
1B5C
330
1B2D
100
AcDbEntity
  8
CENTER
  6
CENTER2
 48
0.1
100
AcDbLine
 10
22.84974817784664
 20
0.8149999853020482
 30
0.0
 11
22.51474817784663
 21
0.8149999853020482
 31
0.0
1001
GENIUS_GENOREF_13
1005
1B65
  0
LINE
  5
1B5D
330
1B2D
100
AcDbEntity
  8
CENTER
  6
CENTER2
 48
0.1
100
AcDbLine
 10
22.84974817784664
 20
0.8899999853020474
 30
0.0
 11
22.84974817784664
 21
0.4799999853020474
 31
0.0
1001
GENIUS_GENOREF_13
1005
1B65
  0
CIRCLE
  5
1B5E
330
1B2D
100
AcDbEntity
  8
0
100
AcDbCircle
 10
22.84974817784664
 20
0.8149999853020482
 30
0.0
 40
0.25
  0
DIMENSION
  5
1B5F
330
1B2D
100
AcDbEntity
  8
CENTER
  6
CENTER
 48
0.125
100
AcDbDimension
280
     0
  2
*D18
 10
3.783428447998911
 20
19.89540765541421
 30
0.0
 11
1.214088938272354
 21
21.42132351869414
 31
0.0
 12
5.530716470861136
 22
13.05767202308192
 32
0.0
 70
   131
 71
     5
 42
0.4999999999999992
 73
     0
 74
     0
 75
     0
  3
STANDARD
100
AcDbDiametricDimension
 15
3.416067907694365
 25
20.2345923151899
 35
0.0
 40
0.0
1001
ACAD
1000
DSTYLE
1002
{
1070
   140
1040
0.25
1070
    41
1040
0.1875
1070
    43
1040
0.375
1070
    44
1040
0.1875
1070
   141
1040
0.09375
1070
   147
1040
0.1875
1070
   271
1070
     2
1070
   276
1070
     2
1070
   277
1070
     3
1070
   289
1070
     0
1002
}
  0
LINE
  5
1B60
330
1B2D
100
AcDbEntity
  8
AM_9
  6
CENTER
 48
0.125
100
AcDbLine
 10
23.09974817784663
 20
23.35836537375595
 30
0.0
 11
23.09974817784663
 21
23.48836537375598
 31
0.0
  0
LINE
  5
1B61
330
1B2D
100
AcDbEntity
  8
AM_9
  6
CENTER
 48
0.125
100
AcDbLine
 10
22.59974817784664
 20
23.35836537375595
 30
0.0
 11
22.59974817784664
 21
23.48836537375598
 31
0.0
  0
LINE
  5
1B62
330
1B2D
100
AcDbEntity
  8
AM_9
  6
CENTER
 48
0.125
100
AcDbLine
 10
3.849748177846638
 20
23.35836537375596
 30
0.0
 11
3.849748177846637
 21
23.48836537375595
 31
0.0
  0
LINE
  5
1B63
330
1B2D
100
AcDbEntity
  8
AM_9
  6
CENTER
 48
0.125
100
AcDbLine
 10
3.349748177846638
 20
23.35836537375596
 30
0.0
 11
3.349748177846638
 21
23.48836537375594
 31
0.0
  0
POINT
  5
1B64
330
1B2D
100
AcDbEntity
  8
0
 60
     1
100
AcDbPoint
 10
5.530716470861136
 20
13.05767202308192
 30
0.0
1001
GENIUS_GENOLIS_13
1002
{
1000
ENT
1005
1B3E
1005
1B3D
1005
1B3C
1005
1B3B
1002
}
1001
GENIUS_GENOENT_13
1002
{
1000
MYREF
1005
1B64
1002
}
1002
{
1000
GRP
1005
0
1002
}
1001
GENIUS_GENOBJ-N-CRS_13
1002
{
1000
OWNER
1000
GEN
1002
}
1001
GENIUS_GENODEF_13
1002
{
1000
HIER
1070
    10
1002
}
1002
{
1000
MANEDIT
1070
     0
1002
}
1002
{
1000
NOSEL
1070
     0
1002
}
1002
{
1000
BEHIND
1070
     0
1002
}
1002
{
1000
OTHER
1070
     0
1002
}
1002
{
1000
REACTOR
1002
}
  0
POINT
  5
1B65
330
1B2D
100
AcDbEntity
  8
0
 60
     1
100
AcDbPoint
 10
12.78071647086113
 20
-6.192327976918079
 30
0.0
1001
GENIUS_GENOLIS_13
1002
{
1000
ENT
1005
1B5D
1005
1B5C
1005
1B5B
1005
1B5A
1002
}
1001
GENIUS_GENOENT_13
1002
{
1000
MYREF
1005
1B65
1002
}
1002
{
1000
GRP
1005
0
1002
}
1001
GENIUS_GENOBJ-N-CRS_13
1002
{
1000
OWNER
1000
GEN
1002
}
1001
GENIUS_GENODEF_13
1002
{
1000
HIER
1070
    10
1002
}
1002
{
1000
MANEDIT
1070
     0
1002
}
1002
{
1000
NOSEL
1070
     0
1002
}
1002
{
1000
BEHIND
1070
     0
1002
}
1002
{
1000
OTHER
1070
     0
1002
}
1002
{
1000
REACTOR
1002
}
  0
POINT
  5
1B66
330
1B2D
100
AcDbEntity
  8
0
 60
     1
100
AcDbPoint
 10
5.530716470861136
 20
-6.192327976918075
 30
0.0
1001
GENIUS_GENOLIS_13
1002
{
1000
ENT
1005
1B58
1005
1B57
1005
1B56
1005
1B55
1002
}
1001
GENIUS_GENOENT_13
1002
{
1000
MYREF
1005
1B66
1002
}
1002
{
1000
GRP
1005
0
1002
}
1001
GENIUS_GENOBJ-N-CRS_13
1002
{
1000
OWNER
1000
GEN
1002
}
1001
GENIUS_GENODEF_13
1002
{
1000
HIER
1070
    10
1002
}
1002
{
1000
MANEDIT
1070
     0
1002
}
1002
{
1000
NOSEL
1070
     0
1002
}
1002
{
1000
BEHIND
1070
     0
1002
}
1002
{
1000
OTHER
1070
     0
1002
}
1002
{
1000
REACTOR
1002
}
  0
POINT
  5
1B67
330
1B2D
100
AcDbEntity
  8
0
 60
     1
100
AcDbPoint
 10
12.78071647086113
 20
13.05767202308192
 30
0.0
1001
GENIUS_GENOLIS_13
1002
{
1000
ENT
1005
1B53
1005
1B52
1005
1B51
1005
1B50
1002
}
1001
GENIUS_GENOENT_13
1002
{
1000
MYREF
1005
1B67
1002
}
1002
{
1000
GRP
1005
0
1002
}
1001
GENIUS_GENOBJ-N-CRS_13
1002
{
1000
OWNER
1000
GEN
1002
}
1001
GENIUS_GENODEF_13
1002
{
1000
HIER
1070
    10
1002
}
1002
{
1000
MANEDIT
1070
     0
1002
}
1002
{
1000
NOSEL
1070
     0
1002
}
1002
{
1000
BEHIND
1070
     0
1002
}
1002
{
1000
OTHER
1070
     0
1002
}
1002
{
1000
REACTOR
1002
}
  0
ENDBLK
  5
1B6B
330
1B2D
100
AcDbEntity
  8
0
100
AcDbBlockEnd
  0
BLOCK
  5
1B6F
330
1B6E
100
AcDbEntity
  8
0
100
AcDbBlockBegin
  2
*D20
 70
     1
 10
0.0
 20
0.0
 30
0.0
  3
*D20
  1

  0
LINE
  5
1B70
330
1B6E
100
AcDbEntity
  8
AM_5
 62
     0
 48
0.125
370
    -2
100
AcDbLine
 10
-3.058468293014498
 20
7.822327962220128
 30
0.0
 11
-5.239049813645523
 21
7.822327962220128
 31
0.0
  0
LINE
  5
1B71
330
1B6E
100
AcDbEntity
  8
AM_5
 62
     0
 48
0.125
370
    -2
100
AcDbLine
 10
-3.058468293014498
 20
-13.05767203777987
 30
0.0
 11
-5.239049813645528
 21
-13.05767203777987
 31
0.0
  0
LINE
  5
1B72
330
1B6E
100
AcDbEntity
  8
AM_5
 62
     0
 48
0.125
370
    -2
100
AcDbLine
 10
-5.051549813645523
 20
7.634827962220128
 30
0.0
 11
-5.051549813645525
 21
0.4297310347477898
 31
0.0
  0
LINE
  5
1B73
330
1B6E
100
AcDbEntity
  8
AM_5
 62
     0
 48
0.125
370
    -2
100
AcDbLine
 10
-5.051549813645528
 20
-12.87017203777987
 30
0.0
 11
-5.051549813645525
 21
-0.1327689652522102
 31
0.0
  0
SOLID
  5
1B74
330
1B6E
100
AcDbEntity
  8
AM_5
 62
     0
 48
0.125
100
AcDbTrace
 10
-5.082799813645523
 20
7.634827962220128
 30
0.0
 11
-5.020299813645523
 21
7.634827962220128
 31
0.0
 12
-5.051549813645523
 22
7.822327962220128
 32
0.0
 13
-5.051549813645523
 23
7.822327962220128
 33
0.0
  0
SOLID
  5
1B75
330
1B6E
100
AcDbEntity
  8
AM_5
 62
     0
 48
0.125
100
AcDbTrace
 10
-5.082799813645528
 20
-12.87017203777987
 30
0.0
 11
-5.020299813645528
 21
-12.87017203777987
 31
0.0
 12
-5.051549813645528
 22
-13.05767203777987
 32
0.0
 13
-5.051549813645528
 23
-13.05767203777987
 33
0.0
  0
MTEXT
  5
1B76
330
1B6E
100
AcDbEntity
  8
AM_5
 62
     0
 48
0.125
100
AcDbMText
 10
-5.051549813645525
 20
0.1484810347477889
 30
0.0
 40
0.1875
 41
0.0
 46
0.0
 71
     5
 72
     1
  1
\A1;20.88
 73
     1
 44
1.0
  0
POINT
  5
1B77
330
1B6E
100
AcDbEntity
  8
DEFPOINTS
 62
     0
 48
0.125
100
AcDbPoint
 10
-2.995968293014498
 20
7.822327962220128
 30
0.0
  0
POINT
  5
1B78
330
1B6E
100
AcDbEntity
  8
DEFPOINTS
 62
     0
 48
0.125
100
AcDbPoint
 10
-2.995968293014498
 20
-13.05767203777987
 30
0.0
  0
POINT
  5
1B79
330
1B6E
100
AcDbEntity
  8
DEFPOINTS
 62
     0
 48
0.125
100
AcDbPoint
 10
-5.051549813645528
 20
-13.05767203777987
 30
0.0
  0
ENDBLK
  5
1B7A
330
1B6E
100
AcDbEntity
  8
0
100
AcDbBlockEnd
  0
BLOCK
  5
1B7C
330
1B7B
100
AcDbEntity
  8
0
100
AcDbBlockBegin
  2
*D21
 70
     1
 10
0.0
 20
0.0
 30
0.0
  3
*D21
  1

  0
LINE
  5
1B7D
330
1B7B
100
AcDbEntity
  8
AM_5
 62
     0
 48
0.125
370
    -2
100
AcDbLine
 10
-2.995968293014498
 20
7.884827962220128
 30
0.0
 11
-2.995968293014498
 21
8.960717228584167
 31
0.0
  0
LINE
  5
1B7E
330
1B7B
100
AcDbEntity
  8
AM_5
 62
     0
 48
0.125
370
    -2
100
AcDbLine
 10
6.3840317069855
 20
7.884827962220112
 30
0.0
 11
6.3840317069855
 21
8.960717228584167
 31
0.0
  0
LINE
  5
1B7F
330
1B7B
100
AcDbEntity
  8
AM_5
 62
     0
 48
0.125
370
    -2
100
AcDbLine
 10
-2.808468293014498
 20
8.773217228584167
 30
0.0
 11
1.225281706985501
 21
8.773217228584167
 31
0.0
  0
LINE
  5
1B80
330
1B7B
100
AcDbEntity
  8
AM_5
 62
     0
 48
0.125
370
    -2
100
AcDbLine
 10
6.1965317069855
 20
8.773217228584167
 30
0.0
 11
2.162781706985501
 21
8.773217228584167
 31
0.0
  0
SOLID
  5
1B81
330
1B7B
100
AcDbEntity
  8
AM_5
 62
     0
 48
0.125
100
AcDbTrace
 10
-2.808468293014498
 20
8.804467228584167
 30
0.0
 11
-2.808468293014498
 21
8.741967228584167
 31
0.0
 12
-2.995968293014498
 22
8.773217228584167
 32
0.0
 13
-2.995968293014498
 23
8.773217228584167
 33
0.0
  0
SOLID
  5
1B82
330
1B7B
100
AcDbEntity
  8
AM_5
 62
     0
 48
0.125
100
AcDbTrace
 10
6.1965317069855
 20
8.804467228584167
 30
0.0
 11
6.1965317069855
 21
8.741967228584167
 31
0.0
 12
6.3840317069855
 22
8.773217228584167
 32
0.0
 13
6.3840317069855
 23
8.773217228584167
 33
0.0
  0
MTEXT
  5
1B83
330
1B7B
100
AcDbEntity
  8
AM_5
 62
     0
 48
0.125
100
AcDbMText
 10
1.694031706985501
 20
8.773217228584167
 30
0.0
 40
0.1875
 41
0.0
 46
0.0
 71
     5
 72
     1
  1
\A1;9.38
 73
     1
 44
1.0
  0
POINT
  5
1B84
330
1B7B
100
AcDbEntity
  8
DEFPOINTS
 62
     0
 48
0.125
100
AcDbPoint
 10
-2.995968293014498
 20
7.822327962220128
 30
0.0
  0
POINT
  5
1B85
330
1B7B
100
AcDbEntity
  8
DEFPOINTS
 62
     0
 48
0.125
100
AcDbPoint
 10
6.3840317069855
 20
7.822327962220112
 30
0.0
  0
POINT
  5
1B86
330
1B7B
100
AcDbEntity
  8
DEFPOINTS
 62
     0
 48
0.125
100
AcDbPoint
 10
6.3840317069855
 20
8.773217228584167
 30
0.0
  0
ENDBLK
  5
1B87
330
1B7B
100
AcDbEntity
  8
0
100
AcDbBlockEnd
  0
BLOCK
  5
1B89
330
1B88
100
AcDbEntity
  8
0
100
AcDbBlockBegin
  2
*D22
 70
     1
 10
0.0
 20
0.0
 30
0.0
  3
*D22
  1

  0
LINE
  5
1B8A
330
1B88
100
AcDbEntity
  8
AM_5
 62
     0
 48
0.125
370
    -2
100
AcDbLine
 10
-1.930968293014498
 20
7.304827962220127
 30
0.0
 11
-1.930968293014498
 21
8.479152600218919
 31
0.0
  0
LINE
  5
1B8B
330
1B88
100
AcDbEntity
  8
AM_5
 62
     0
 48
0.125
370
    -2
100
AcDbLine
 10
5.3190317069855
 20
7.304827962220116
 30
0.0
 11
5.3190317069855
 21
8.479152600218919
 31
0.0
  0
LINE
  5
1B8C
330
1B88
100
AcDbEntity
  8
AM_5
 62
     0
 48
0.125
370
    -2
100
AcDbLine
 10
-1.743468293014498
 20
8.291652600218919
 30
0.0
 11
1.252139963109073
 21
8.291652600218919
 31
0.0
  0
LINE
  5
1B8D
330
1B88
100
AcDbEntity
  8
AM_5
 62
     0
 48
0.125
370
    -2
100
AcDbLine
 10
5.1315317069855
 20
8.291652600218919
 30
0.0
 11
2.189639963109073
 21
8.291652600218919
 31
0.0
  0
SOLID
  5
1B8E
330
1B88
100
AcDbEntity
  8
AM_5
 62
     0
 48
0.125
100
AcDbTrace
 10
-1.743468293014498
 20
8.322902600218919
 30
0.0
 11
-1.743468293014498
 21
8.260402600218919
 31
0.0
 12
-1.930968293014498
 22
8.291652600218919
 32
0.0
 13
-1.930968293014498
 23
8.291652600218919
 33
0.0
  0
SOLID
  5
1B8F
330
1B88
100
AcDbEntity
  8
AM_5
 62
     0
 48
0.125
100
AcDbTrace
 10
5.1315317069855
 20
8.322902600218919
 30
0.0
 11
5.1315317069855
 21
8.260402600218919
 31
0.0
 12
5.3190317069855
 22
8.291652600218919
 32
0.0
 13
5.3190317069855
 23
8.291652600218919
 33
0.0
  0
MTEXT
  5
1B90
330
1B88
100
AcDbEntity
  8
AM_5
 62
     0
 48
0.125
100
AcDbMText
 10
1.720889963109073
 20
8.291652600218919
 30
0.0
 40
0.1875
 41
0.0
 46
0.0
 71
     5
 72
     1
  1
\A1;7.25
 73
     1
 44
1.0
  0
POINT
  5
1B91
330
1B88
100
AcDbEntity
  8
DEFPOINTS
 62
     0
 48
0.125
100
AcDbPoint
 10
-1.930968293014498
 20
7.242327962220127
 30
0.0
  0
POINT
  5
1B92
330
1B88
100
AcDbEntity
  8
DEFPOINTS
 62
     0
 48
0.125
100
AcDbPoint
 10
5.3190317069855
 20
7.242327962220116
 30
0.0
  0
POINT
  5
1B93
330
1B88
100
AcDbEntity
  8
DEFPOINTS
 62
     0
 48
0.125
100
AcDbPoint
 10
5.3190317069855
 20
8.291652600218919
 30
0.0
  0
ENDBLK
  5
1B94
330
1B88
100
AcDbEntity
  8
0
100
AcDbBlockEnd
  0
BLOCK
  5
1B96
330
1B95
100
AcDbEntity
  8
0
100
AcDbBlockBegin
  2
*D23
 70
     1
 10
0.0
 20
0.0
 30
0.0
  3
*D23
  1

  0
LINE
  5
1B97
330
1B95
100
AcDbEntity
  8
AM_5
 62
     0
 48
0.125
370
    -2
100
AcDbLine
 10
-2.228468293014498
 20
7.007327962220127
 30
0.0
 11
-3.838242784009745
 21
7.007327962220127
 31
0.0
  0
LINE
  5
1B98
330
1B95
100
AcDbEntity
  8
AM_5
 62
     0
 48
0.125
370
    -2
100
AcDbLine
 10
-2.228468293014498
 20
-12.24267203777987
 30
0.0
 11
-3.838242784009749
 21
-12.24267203777987
 31
0.0
  0
LINE
  5
1B99
330
1B95
100
AcDbEntity
  8
AM_5
 62
     0
 48
0.125
370
    -2
100
AcDbLine
 10
-3.650742784009745
 20
6.819827962220127
 30
0.0
 11
-3.650742784009747
 21
0.4686084860384632
 31
0.0
  0
LINE
  5
1B9A
330
1B95
100
AcDbEntity
  8
AM_5
 62
     0
 48
0.125
370
    -2
100
AcDbLine
 10
-3.650742784009749
 20
-12.05517203777987
 30
0.0
 11
-3.650742784009747
 21
-0.093891513961537
 31
0.0
  0
SOLID
  5
1B9B
330
1B95
100
AcDbEntity
  8
AM_5
 62
     0
 48
0.125
100
AcDbTrace
 10
-3.681992784009745
 20
6.819827962220127
 30
0.0
 11
-3.619492784009745
 21
6.819827962220127
 31
0.0
 12
-3.650742784009745
 22
7.007327962220127
 32
0.0
 13
-3.650742784009745
 23
7.007327962220127
 33
0.0
  0
SOLID
  5
1B9C
330
1B95
100
AcDbEntity
  8
AM_5
 62
     0
 48
0.125
100
AcDbTrace
 10
-3.681992784009749
 20
-12.05517203777987
 30
0.0
 11
-3.619492784009749
 21
-12.05517203777987
 31
0.0
 12
-3.650742784009749
 22
-12.24267203777987
 32
0.0
 13
-3.650742784009749
 23
-12.24267203777987
 33
0.0
  0
MTEXT
  5
1B9D
330
1B95
100
AcDbEntity
  8
AM_5
 62
     0
 48
0.125
100
AcDbMText
 10
-3.650742784009747
 20
0.1873584860384625
 30
0.0
 40
0.1875
 41
0.0
 46
0.0
 71
     5
 72
     1
  1
\A1;19.25
 73
     1
 44
1.0
  0
POINT
  5
1B9E
330
1B95
100
AcDbEntity
  8
DEFPOINTS
 62
     0
 48
0.125
100
AcDbPoint
 10
-2.165968293014498
 20
7.007327962220127
 30
0.0
  0
POINT
  5
1B9F
330
1B95
100
AcDbEntity
  8
DEFPOINTS
 62
     0
 48
0.125
100
AcDbPoint
 10
-2.165968293014498
 20
-12.24267203777987
 30
0.0
  0
POINT
  5
1BA0
330
1B95
100
AcDbEntity
  8
DEFPOINTS
 62
     0
 48
0.125
100
AcDbPoint
 10
-3.650742784009749
 20
-12.24267203777987
 30
0.0
  0
ENDBLK
  5
1BA1
330
1B95
100
AcDbEntity
  8
0
100
AcDbBlockEnd
  0
BLOCK
  5
1BA3
330
1BA2
100
AcDbEntity
  8
0
 48
0.125
100
AcDbBlockBegin
  2
*D24
 70
     1
 10
0.0
 20
0.0
 30
0.0
  3
*D24
  1

  0
LINE
  5
1BA4
330
1BA2
100
AcDbEntity
  8
CENTER
  6
CENTER
 62
     0
 48
0.125
370
    -2
100
AcDbLine
 10
-3.095927753694819
 20
10.4840087539716
 30
0.0
 11
-3.239657484034978
 21
10.60441645562039
 31
0.0
  0
LINE
  5
1BA5
330
1BA2
100
AcDbEntity
  8
CENTER
  6
CENTER
 62
     0
 48
0.125
370
    -2
100
AcDbLine
 10
-3.239657484034978
 20
10.60441645562039
 30
0.0
 11
-3.427157484034978
 21
10.60441645562039
 31
0.0
  0
SOLID
  5
1BA6
330
1BA2
100
AcDbEntity
  8
CENTER
  6
CENTER
 62
     0
 48
0.125
100
AcDbTrace
 10
-3.075859803420021
 20
10.50796370902829
 30
0.0
 11
-3.115995703969619
 21
10.4600537989149
 31
0.0
 12
-2.95219802335466
 22
10.3636010523228
 32
0.0
 13
-2.95219802335466
 23
10.3636010523228
 33
0.0
  0
MTEXT
  5
1BA7
330
1BA2
100
AcDbEntity
  8
CENTER
  6
CENTER
 62
     0
 48
0.125
100
AcDbMText
 10
-4.004657484034979
 20
10.60441645562039
 30
0.0
 40
0.18
 41
0.0
 46
0.0
 71
     5
 72
     1
  1
\A1;R3/16
 73
     1
 44
1.0
  0
LINE
  5
1BA8
330
1BA2
100
AcDbEntity
  8
CENTER
  6
CENTER
 62
     0
 48
0.125
370
    -2
100
AcDbLine
 10
-2.902218293014493
 20
10.243193350674
 30
0.0
 11
-2.714718293014494
 21
10.243193350674
 31
0.0
  0
LINE
  5
1BA9
330
1BA2
100
AcDbEntity
  8
CENTER
  6
CENTER
 62
     0
 48
0.125
370
    -2
100
AcDbLine
 10
-2.808468293014493
 20
10.149443350674
 30
0.0
 11
-2.808468293014494
 21
10.336943350674
 31
0.0
  0
POINT
  5
1BAA
330
1BA2
100
AcDbEntity
  8
DEFPOINTS
  6
CENTER
 62
     0
 48
0.125
100
AcDbPoint
 10
-2.95219802335466
 20
10.3636010523228
 30
0.0
  0
POINT
  5
1BAB
330
1BA2
100
AcDbEntity
  8
DEFPOINTS
  6
CENTER
 62
     0
 48
0.125
100
AcDbPoint
 10
-2.808468293014494
 20
10.243193350674
 30
0.0
  0
ENDBLK
  5
1BAC
330
1BA2
100
AcDbEntity
  8
0
 48
0.125
100
AcDbBlockEnd
  0
BLOCK
  5
1BAE
330
1BAD
100
AcDbEntity
  8
0
 48
0.125
100
AcDbBlockBegin
  2
*D25
 70
     1
 10
0.0
 20
0.0
 30
0.0
  3
*D25
  1

  0
LINE
  5
1BAF
330
1BAD
100
AcDbEntity
  8
AM_5
 62
     0
 48
0.125
370
    -2
100
AcDbLine
 10
-2.995968293014498
 20
9.555193350674031
 30
0.0
 11
-2.995968293014498
 21
9.152308702906495
 31
0.0
  0
LINE
  5
1BB0
330
1BAD
100
AcDbEntity
  8
AM_5
 62
     0
 48
0.125
370
    -2
100
AcDbLine
 10
-2.865968293014498
 20
9.555193350674031
 30
0.0
 11
-2.865968293014498
 21
9.152308702906495
 31
0.0
  0
LINE
  5
1BB1
330
1BAD
100
AcDbEntity
  8
AM_5
 62
     0
 48
0.125
370
    -2
100
AcDbLine
 10
-2.678468293014498
 20
9.339808702906495
 30
0.0
 11
-2.490968293014498
 21
9.339808702906495
 31
0.0
  0
LINE
  5
1BB2
330
1BAD
100
AcDbEntity
  8
AM_5
 62
     0
 48
0.125
370
    -2
100
AcDbLine
 10
-3.183468293014498
 20
9.339808702906495
 30
0.0
 11
-3.370968293014498
 21
9.339808702906495
 31
0.0
  0
SOLID
  5
1BB3
330
1BAD
100
AcDbEntity
  8
AM_5
 62
     0
 48
0.125
100
AcDbTrace
 10
-2.678468293014498
 20
9.371058702906495
 30
0.0
 11
-2.678468293014498
 21
9.308558702906495
 31
0.0
 12
-2.865968293014498
 22
9.339808702906495
 32
0.0
 13
-2.865968293014498
 23
9.339808702906495
 33
0.0
  0
SOLID
  5
1BB4
330
1BAD
100
AcDbEntity
  8
AM_5
 62
     0
 48
0.125
100
AcDbTrace
 10
-3.183468293014498
 20
9.371058702906495
 30
0.0
 11
-3.183468293014498
 21
9.308558702906495
 31
0.0
 12
-2.995968293014498
 22
9.339808702906495
 32
0.0
 13
-2.995968293014498
 23
9.339808702906495
 33
0.0
  0
MTEXT
  5
1BB5
330
1BAD
100
AcDbEntity
  8
AM_5
 62
     0
 48
0.125
100
AcDbMText
 10
-3.783468293014498
 20
9.339808702906495
 30
0.0
 40
0.18
 41
0.0
 46
0.0
 71
     5
 72
     1
  1
\A1;0.13
 73
     1
 44
1.0
  0
POINT
  5
1BB6
330
1BAD
100
AcDbEntity
  8
DEFPOINTS
 62
     0
 48
0.125
100
AcDbPoint
 10
-2.995968293014498
 20
9.617693350674031
 30
0.0
  0
POINT
  5
1BB7
330
1BAD
100
AcDbEntity
  8
DEFPOINTS
 62
     0
 48
0.125
100
AcDbPoint
 10
-2.865968293014498
 20
9.617693350674031
 30
0.0
  0
POINT
  5
1BB8
330
1BAD
100
AcDbEntity
  8
DEFPOINTS
 62
     0
 48
0.125
100
AcDbPoint
 10
-2.865968293014498
 20
9.339808702906495
 30
0.0
  0
ENDBLK
  5
1BB9
330
1BAD
100
AcDbEntity
  8
0
 48
0.125
100
AcDbBlockEnd
  0
BLOCK
  5
1BBB
330
1BBA
100
AcDbEntity
  8
0
 48
0.125
100
AcDbBlockBegin
  2
*D26
 70
     1
 10
0.0
 20
0.0
 30
0.0
  3
*D26
  1

  0
LINE
  5
1BBC
330
1BBA
100
AcDbEntity
  8
AM_5
 62
     0
 48
0.125
370
    -2
100
AcDbLine
 10
6.259031706985496
 20
10.43069335067407
 30
0.0
 11
6.941531706985496
 21
10.43069335067407
 31
0.0
  0
LINE
  5
1BBD
330
1BBA
100
AcDbEntity
  8
AM_5
 62
     0
 48
0.125
370
    -2
100
AcDbLine
 10
6.316531706985497
 20
9.617693350674006
 30
0.0
 11
6.941531706985495
 21
9.617693350674006
 31
0.0
  0
LINE
  5
1BBE
330
1BBA
100
AcDbEntity
  8
AM_5
 62
     0
 48
0.125
370
    -2
100
AcDbLine
 10
6.754031706985496
 20
10.61819335067407
 30
0.0
 11
6.754031706985496
 21
10.80569335067407
 31
0.0
  0
LINE
  5
1BBF
330
1BBA
100
AcDbEntity
  8
AM_5
 62
     0
 48
0.125
370
    -2
100
AcDbLine
 10
6.754031706985495
 20
9.430193350674006
 30
0.0
 11
6.754031706985495
 21
9.242693350674006
 31
0.0
  0
LINE
  5
1BC0
330
1BBA
100
AcDbEntity
  8
AM_5
 62
     0
 48
0.125
370
    -2
100
AcDbLine
 10
6.754031706985495
 20
9.242693350674006
 30
0.0
 11
6.566531706985495
 21
9.242693350674006
 31
0.0
  0
SOLID
  5
1BC1
330
1BBA
100
AcDbEntity
  8
AM_5
 62
     0
 48
0.125
100
AcDbTrace
 10
6.722781706985496
 20
10.61819335067407
 30
0.0
 11
6.785281706985496
 21
10.61819335067407
 31
0.0
 12
6.754031706985496
 22
10.43069335067407
 32
0.0
 13
6.754031706985496
 23
10.43069335067407
 33
0.0
  0
SOLID
  5
1BC2
330
1BBA
100
AcDbEntity
  8
AM_5
 62
     0
 48
0.125
100
AcDbTrace
 10
6.722781706985495
 20
9.430193350674006
 30
0.0
 11
6.785281706985495
 21
9.430193350674006
 31
0.0
 12
6.754031706985495
 22
9.617693350674006
 32
0.0
 13
6.754031706985495
 23
9.617693350674006
 33
0.0
  0
MTEXT
  5
1BC3
330
1BBA
100
AcDbEntity
  8
AM_5
 62
     0
 48
0.125
100
AcDbMText
 10
6.019031706985494
 20
9.242693350674008
 30
0.0
 40
0.18
 41
0.0
 46
0.0
 71
     5
 72
     1
  1
\A1;13/16
 73
     1
 44
1.0
  0
POINT
  5
1BC4
330
1BBA
100
AcDbEntity
  8
DEFPOINTS
 62
     0
 48
0.125
100
AcDbPoint
 10
6.196531706985496
 20
10.43069335067407
 30
0.0
  0
POINT
  5
1BC5
330
1BBA
100
AcDbEntity
  8
DEFPOINTS
 62
     0
 48
0.125
100
AcDbPoint
 10
6.254031706985497
 20
9.617693350674006
 30
0.0
  0
POINT
  5
1BC6
330
1BBA
100
AcDbEntity
  8
DEFPOINTS
 62
     0
 48
0.125
100
AcDbPoint
 10
6.754031706985495
 20
9.617693350674006
 30
0.0
  0
ENDBLK
  5
1BC7
330
1BBA
100
AcDbEntity
  8
0
 48
0.125
100
AcDbBlockEnd
  0
BLOCK
  5
1BC9
330
1BC8
100
AcDbEntity
  8
0
 48
0.125
100
AcDbBlockBegin
  2
*D27
 70
     1
 10
0.0
 20
0.0
 30
0.0
  3
*D27
  1

  0
LINE
  5
1BCA
330
1BC8
100
AcDbEntity
  8
CENTER
  6
CENTER
 62
     0
 48
0.125
370
    -2
100
AcDbLine
 10
-2.266476477736658
 20
7.288113481762074
 30
0.0
 11
-3.551627532588784
 21
8.363651495612211
 31
0.0
  0
LINE
  5
1BCB
330
1BC8
100
AcDbEntity
  8
CENTER
  6
CENTER
 62
     0
 48
0.125
370
    -2
100
AcDbLine
 10
-3.551627532588784
 20
8.363651495612211
 30
0.0
 11
-3.739127532588784
 21
8.363651495612211
 31
0.0
  0
SOLID
  5
1BCC
330
1BC8
100
AcDbEntity
  8
CENTER
  6
CENTER
 62
     0
 48
0.125
100
AcDbTrace
 10
-2.246420369197947
 20
7.312078352099371
 30
0.0
 11
-2.286532586275368
 21
7.264148611424777
 31
0.0
 12
-2.122687255712874
 22
7.167776830529811
 32
0.0
 13
-2.122687255712874
 23
7.167776830529811
 33
0.0
  0
MTEXT
  5
1BCD
330
1BC8
100
AcDbEntity
  8
CENTER
  6
CENTER
 62
     0
 48
0.125
100
AcDbMText
 10
-4.316627532588782
 20
8.363651495612211
 30
0.0
 40
0.18
 41
0.0
 46
0.0
 71
     5
 72
     1
  1
\A1;∅0.50"
 73
     1
 44
1.0
  0
LINE
  5
1BCE
330
1BC8
100
AcDbEntity
  8
CENTER
  6
CENTER
 62
     0
 48
0.125
370
    -2
100
AcDbLine
 10
-2.024718293014498
 20
7.007327962220125
 30
0.0
 11
-1.837218293014498
 21
7.007327962220125
 31
0.0
  0
LINE
  5
1BCF
330
1BC8
100
AcDbEntity
  8
CENTER
  6
CENTER
 62
     0
 48
0.125
370
    -2
100
AcDbLine
 10
-1.930968293014498
 20
6.913577962220125
 30
0.0
 11
-1.930968293014498
 21
7.101077962220125
 31
0.0
  0
POINT
  5
1BD0
330
1BC8
100
AcDbEntity
  8
DEFPOINTS
  6
CENTER
 62
     0
 48
0.125
100
AcDbPoint
 10
-2.122687255712874
 20
7.167776830529811
 30
0.0
  0
POINT
  5
1BD1
330
1BC8
100
AcDbEntity
  8
DEFPOINTS
  6
CENTER
 62
     0
 48
0.125
100
AcDbPoint
 10
-1.739249330316122
 20
6.846879093910442
 30
0.0
  0
ENDBLK
  5
1BD2
330
1BC8
100
AcDbEntity
  8
0
 48
0.125
100
AcDbBlockEnd
  0
BLOCK
  5
1C10
330
1BD3
100
AcDbEntity
  8
0
100
AcDbBlockBegin
  2
A$C57690C68
 70
     0
 10
0.0
 20
0.0
 30
0.0
  3
A$C57690C68
  1

  0
LINE
  5
1BD4
330
1BD3
100
AcDbEntity
  8
0
100
AcDbLine
 10
2.414956466898289
 20
0.0000000375659734
 30
0.0
 11
11.79495646689828
 21
0.0000000375659717
 31
0.0
  0
LINE
  5
1BD5
330
1BD3
100
AcDbEntity
  8
0
100
AcDbLine
 10
11.79495646689828
 20
0.0000000375659717
 30
0.0
 11
11.79495646689828
 21
20.88000003756596
 31
0.0
  0
LINE
  5
1BD6
330
1BD3
100
AcDbEntity
  8
0
100
AcDbLine
 10
11.66495646689829
 20
0.0000000375659717
 30
0.0
 11
11.66495646689829
 21
20.88000003756596
 31
0.0
  0
LINE
  5
1BD7
330
1BD3
100
AcDbEntity
  8
0
100
AcDbLine
 10
11.79495646689828
 20
20.88000003756596
 30
0.0
 11
2.414956466898289
 21
20.88000003756598
 31
0.0
  0
LINE
  5
1BD8
330
1BD3
100
AcDbEntity
  8
0
100
AcDbLine
 10
2.414956466898289
 20
20.88000003756598
 30
0.0
 11
2.414956466898289
 21
0.0000000375659752
 31
0.0
  0
LINE
  5
1BD9
330
1BD3
100
AcDbEntity
  8
0
100
AcDbLine
 10
2.544956466898289
 20
20.88000003756598
 30
0.0
 11
2.544956466898289
 21
0.0000000375659752
 31
0.0
  0
DIMENSION
  5
1BDA
330
1BD3
100
AcDbEntity
  8
AM_5
100
AcDbDimension
280
     0
  2
*D20
 10
0.35937494626726
 20
0.000000037565977
 30
0.0
 11
0.3593749462672626
 21
13.20615311009364
 31
0.0
 12
5.410924759912788
 22
13.05767207534585
 32
0.0
 70
   128
  1
<>
 71
     5
 42
20.88
 73
     0
 74
     0
 75
     0
  3
STANDARD$0
100
AcDbAlignedDimension
 13
2.414956466898289
 23
20.88000003756598
 33
0.0
 14
2.414956466898289
 24
0.0000000375659752
 34
0.0
 50
90.0
100
AcDbRotatedDimension
1001
ACAD
1000
DSTYLE
1002
{
1070
   140
1040
0.1875
1070
    41
1040
0.1875
1070
    43
1040
0.375
1070
    44
1040
0.1875
1070
   141
1040
0.09375
1070
   147
1040
0.1875
1070
   271
1070
     2
1070
   276
1070
     2
1070
   277
1070
     2
1070
   289
1070
     0
1002
}
  0
LINE
  5
1BDB
330
1BD3
100
AcDbEntity
  8
0
100
AcDbLine
 10
2.73245646689829
 20
23.35836542601988
 30
0.0
 11
11.47745646689828
 21
23.35836542601986
 31
0.0
  0
LINE
  5
1BDC
330
1BD3
100
AcDbEntity
  8
0
100
AcDbLine
 10
11.60745646689828
 20
23.4883654260199
 30
0.0
 11
2.602456466898289
 21
23.48836542601986
 31
0.0
  0
ARC
  5
1BDD
330
1BD3
100
AcDbEntity
  8
0
100
AcDbCircle
 10
11.60745646689828
 20
23.30086542601992
 30
0.0
 40
0.1875
100
AcDbArc
 50
0.0
 51
90.0000000000003
  0
DIMENSION
  5
1BDE
330
1BD3
100
AcDbEntity
  8
AM_5
100
AcDbDimension
280
     0
  2
*D21
 10
11.79495646689828
 20
21.83088930393001
 30
0.0
 11
7.104956466898289
 21
21.83088930393001
 31
0.0
 12
5.410924759912788
 22
13.05767207534585
 32
0.0
 71
     5
 42
9.379999999999999
 73
     0
 74
     0
 75
     0
  3
STANDARD$0
100
AcDbAlignedDimension
 13
2.414956466898289
 23
20.88000003756598
 33
0.0
 14
11.79495646689828
 24
20.88000003756596
 34
0.0
100
AcDbRotatedDimension
1001
ACAD
1000
DSTYLE
1002
{
1070
   140
1040
0.1875
1070
    40
1040
1.0
1070
   144
1040
1.0
1070
    41
1040
0.1875
1070
    43
1040
0.375
1070
    44
1040
0.1875
1070
   141
1040
0.09375
1070
   147
1040
0.1875
1070
   271
1070
     2
1070
   276
1070
     2
1070
   277
1070
     2
1070
   289
1070
     0
1002
}
  0
DIMENSION
  5
1BDF
330
1BD3
100
AcDbEntity
  8
AM_5
100
AcDbDimension
280
     0
  2
*D22
 10
10.72995646689829
 20
21.34932467556477
 30
0.0
 11
7.131814723021861
 21
21.34932467556477
 31
0.0
 12
5.410924759912788
 22
13.05767207534585
 32
0.0
 70
   128
 71
     5
 42
7.249999999999998
 73
     0
 74
     0
 75
     0
  3
STANDARD$0
100
AcDbAlignedDimension
 13
3.479956466898289
 23
20.30000003756597
 33
0.0
 14
10.72995646689829
 24
20.30000003756597
 34
0.0
100
AcDbRotatedDimension
1001
ACAD
1000
DSTYLE
1002
{
1070
   140
1040
0.1875
1070
    40
1040
1.0
1070
   144
1040
1.0
1070
    41
1040
0.1875
1070
    43
1040
0.375
1070
    44
1040
0.1875
1070
   141
1040
0.09375
1070
   147
1040
0.1875
1070
   271
1070
     2
1070
   276
1070
     2
1070
   277
1070
     2
1070
   289
1070
     0
1002
}
  0
DIMENSION
  5
1BE0
330
1BD3
100
AcDbEntity
  8
AM_5
100
AcDbDimension
280
     0
  2
*D23
 10
1.760181975903038
 20
0.8150000375659729
 30
0.0
 11
1.760181975903041
 21
13.24503056138431
 31
0.0
 12
5.410924759912788
 22
13.05767207534585
 32
0.0
 70
   128
 71
     5
 42
19.25
 73
     0
 74
     0
 75
     0
  3
STANDARD$0
100
AcDbAlignedDimension
 13
3.244956466898289
 23
20.06500003756598
 33
0.0
 14
3.244956466898289
 24
0.8150000375659729
 34
0.0
 50
90.0
100
AcDbRotatedDimension
1001
ACAD
1000
DSTYLE
1002
{
1070
   140
1040
0.1875
1070
    40
1040
1.0
1070
   144
1040
1.0
1070
    41
1040
0.1875
1070
    43
1040
0.375
1070
    44
1040
0.1875
1070
   141
1040
0.09375
1070
   147
1040
0.1875
1070
   271
1070
     2
1070
   276
1070
     2
1070
   277
1070
     2
1070
   289
1070
     0
1002
}
  0
LINE
  5
1BE1
330
1BD3
100
AcDbEntity
  8
CENTER
  6
CENTER2
 48
0.1
100
AcDbLine
 10
3.479956466898289
 20
20.06500003756598
 30
0.0
 11
3.814956466898289
 21
20.06500003756598
 31
0.0
1001
GENIUS_GENOREF_13
1005
1C0A
  0
LINE
  5
1BE2
330
1BD3
100
AcDbEntity
  8
CENTER
  6
CENTER2
 48
0.1
100
AcDbLine
 10
3.479956466898289
 20
20.06500003756598
 30
0.0
 11
3.479956466898289
 21
20.40000003756598
 31
0.0
1001
GENIUS_GENOREF_13
1005
1C0A
  0
LINE
  5
1BE3
330
1BD3
100
AcDbEntity
  8
CENTER
  6
CENTER2
 48
0.1
100
AcDbLine
 10
3.479956466898289
 20
20.06500003756598
 30
0.0
 11
3.14495646689829
 21
20.06500003756598
 31
0.0
1001
GENIUS_GENOREF_13
1005
1C0A
  0
LINE
  5
1BE4
330
1BD3
100
AcDbEntity
  8
CENTER
  6
CENTER2
 48
0.1
100
AcDbLine
 10
3.479956466898289
 20
20.14000003756597
 30
0.0
 11
3.479956466898289
 21
19.73000003756597
 31
0.0
1001
GENIUS_GENOREF_13
1005
1C0A
  0
TEXT
  5
1BE5
330
1BD3
100
AcDbEntity
  8
CENTER
100
AcDbText
 10
0.3674880166636143
 20
21.32083715902154
 30
0.0
 40
0.1875
  1
4X
100
AcDbText
  0
CIRCLE
  5
1BE6
330
1BD3
100
AcDbEntity
  8
0
100
AcDbCircle
 10
3.479956466898289
 20
20.06500003756598
 30
0.0
 40
0.25
  0
LINE
  5
1BE7
330
1BD3
100
AcDbEntity
  8
0
100
AcDbLine
 10
2.41495646689829
 20
23.30086542601986
 30
0.0
 11
2.414956466898289
 21
22.67536542601988
 31
0.0
  0
ARC
  5
1BE8
330
1BD3
100
AcDbEntity
  8
0
100
AcDbCircle
 10
2.60245646689829
 20
23.30086542601986
 30
0.0
 40
0.1875
100
AcDbArc
 50
90.00000000000026
 51
180.0
  0
LINE
  5
1BE9
330
1BD3
100
AcDbEntity
  8
0
100
AcDbLine
 10
2.414956466898289
 20
22.67536542601988
 30
0.0
 11
2.544956466898289
 21
22.67536542601988
 31
0.0
  0
LINE
  5
1BEA
330
1BD3
100
AcDbEntity
  8
0
100
AcDbLine
 10
2.544956466898289
 20
22.67536542601988
 30
0.0
 11
2.544956466898289
 21
23.17086542601988
 31
0.0
  0
ARC
  5
1BEB
330
1BD3
100
AcDbEntity
  8
0
100
AcDbCircle
 10
2.732456466898289
 20
23.17086542601988
 30
0.0
 40
0.1875
100
AcDbArc
 50
89.99999999999991
 51
180.0
  0
LINE
  5
1BEC
330
1BD3
100
AcDbEntity
  8
0
100
AcDbLine
 10
11.79495646689828
 20
23.30086542601992
 30
0.0
 11
11.79495646689828
 21
22.67536542601986
 31
0.0
  0
LINE
  5
1BED
330
1BD3
100
AcDbEntity
  8
0
100
AcDbLine
 10
11.79495646689828
 20
22.67536542601986
 30
0.0
 11
11.66495646689828
 21
22.67536542601986
 31
0.0
  0
LINE
  5
1BEE
330
1BD3
100
AcDbEntity
  8
0
100
AcDbLine
 10
11.66495646689828
 20
22.67536542601986
 30
0.0
 11
11.66495646689828
 21
23.17086542601986
 31
0.0
  0
ARC
  5
1BEF
330
1BD3
100
AcDbEntity
  8
0
100
AcDbCircle
 10
11.47745646689828
 20
23.17086542601986
 30
0.0
 40
0.1875
100
AcDbArc
 50
0.0
 51
89.99999999999991
  0
LINE
  5
1BF0
330
1BD3
100
AcDbEntity
  8
0
100
AcDbLine
 10
11.66495646689828
 20
23.35836542601986
 30
0.0
 11
11.66495646689828
 21
23.35836542601986
 31
0.0
  0
LINE
  5
1BF1
330
1BD3
100
AcDbEntity
  8
CENTER
 48
0.125
100
AcDbLine
 10
3.479956466898289
 20
23.23336542601988
 30
0.0
 11
3.47995646689829
 21
23.61336542601986
 31
0.0
  0
LINE
  5
1BF2
330
1BD3
100
AcDbEntity
  8
CENTER
  6
CENTER
 48
0.125
100
AcDbLine
 10
10.72995646689828
 20
23.23336542601986
 30
0.0
 11
10.7299564668983
 21
23.61336542601992
 31
0.0
  0
DIMENSION
  5
1BF3
330
1BD3
100
AcDbEntity
  8
CENTER
  6
CENTER
 48
0.125
100
AcDbDimension
280
     0
  2
*D24
 10
2.602456466898293
 20
23.30086542601986
 30
0.0
 11
1.406267275877809
 21
23.66208853096624
 31
0.0
 12
5.410924759912788
 22
13.05767207534585
 32
0.0
 70
     4
 71
     5
 42
0.1875000000000089
 73
     0
 74
     0
 75
     0
  3
STANDARD
100
AcDbRadialDimension
 15
2.458726736558127
 25
23.42127312766865
 35
0.0
 40
0.0
1001
ACAD
1000
DSTYLE
1002
{
1070
    41
1040
0.1875
1070
    43
1040
0.375
1070
    44
1040
0.1875
1070
   141
1040
0.09375
1070
   147
1040
0.1875
1070
   271
1070
     5
1070
   276
1070
     2
1070
   277
1070
     5
1070
   289
1070
     0
1002
}
  0
DIMENSION
  5
1BF4
330
1BD3
100
AcDbEntity
  8
AM_5
100
AcDbDimension
280
     0
  2
*D25
 10
2.544956466898289
 20
22.39748077825234
 30
0.0
 11
1.627456466898289
 21
22.39748077825234
 31
0.0
 12
5.410924759912788
 22
13.05767207534585
 32
0.0
 70
   128
 71
     5
 42
0.1299999999999999
 73
     0
 74
     0
 75
     0
  3
STANDARD$0
100
AcDbAlignedDimension
 13
2.414956466898289
 23
22.67536542601988
 33
0.0
 14
2.544956466898289
 24
22.67536542601988
 34
0.0
 50
0.0000000000001018
100
AcDbRotatedDimension
1001
ACAD
1000
DSTYLE
1002
{
1070
    40
1040
1.0
1070
   144
1040
1.0
1070
    41
1040
0.1875
1070
    43
1040
0.375
1070
    44
1040
0.1875
1070
   141
1040
0.09375
1070
   147
1040
0.1875
1070
   271
1070
     2
1070
   276
1070
     2
1070
   277
1070
     2
1070
   289
1070
     0
1002
}
  0
DIMENSION
  5
1BF5
330
1BD3
100
AcDbEntity
  8
AM_5
100
AcDbDimension
280
     0
  2
*D26
 10
12.16495646689828
 20
22.67536542601986
 30
0.0
 11
11.42995646689828
 21
22.30036542601986
 31
0.0
 12
5.410924759912788
 22
13.05767207534585
 32
0.0
 71
     5
 42
0.8130000000000645
 73
     0
 74
     0
 75
     0
  3
STANDARD$0
100
AcDbAlignedDimension
 13
11.60745646689828
 23
23.48836542601992
 33
0.0
 14
11.66495646689828
 24
22.67536542601986
 34
0.0
 50
90.00000000000026
100
AcDbRotatedDimension
1001
ACAD
1000
DSTYLE
1002
{
1070
    40
1040
1.0
1070
   144
1040
1.0
1070
    41
1040
0.1875
1070
    43
1040
0.375
1070
    44
1040
0.1875
1070
   141
1040
0.09375
1070
   147
1040
0.1875
1070
   271
1070
     5
1070
   276
1070
     2
1070
   277
1070
     5
1070
   289
1070
     0
1002
}
  0
LINE
  5
1BF6
330
1BD3
100
AcDbEntity
  8
CENTER
  6
CENTER2
 48
0.1
100
AcDbLine
 10
10.72995646689829
 20
20.06500003756597
 30
0.0
 11
11.06495646689829
 21
20.06500003756597
 31
0.0
1001
GENIUS_GENOREF_13
1005
1C0D
  0
LINE
  5
1BF7
330
1BD3
100
AcDbEntity
  8
CENTER
  6
CENTER2
 48
0.1
100
AcDbLine
 10
10.72995646689829
 20
20.06500003756597
 30
0.0
 11
10.72995646689829
 21
20.40000003756597
 31
0.0
1001
GENIUS_GENOREF_13
1005
1C0D
  0
LINE
  5
1BF8
330
1BD3
100
AcDbEntity
  8
CENTER
  6
CENTER2
 48
0.1
100
AcDbLine
 10
10.72995646689829
 20
20.06500003756597
 30
0.0
 11
10.39495646689829
 21
20.06500003756597
 31
0.0
1001
GENIUS_GENOREF_13
1005
1C0D
  0
LINE
  5
1BF9
330
1BD3
100
AcDbEntity
  8
CENTER
  6
CENTER2
 48
0.1
100
AcDbLine
 10
10.72995646689829
 20
20.14000003756597
 30
0.0
 11
10.72995646689829
 21
19.73000003756596
 31
0.0
1001
GENIUS_GENOREF_13
1005
1C0D
  0
CIRCLE
  5
1BFA
330
1BD3
100
AcDbEntity
  8
0
100
AcDbCircle
 10
10.72995646689829
 20
20.06500003756597
 30
0.0
 40
0.25
  0
LINE
  5
1BFB
330
1BD3
100
AcDbEntity
  8
CENTER
  6
CENTER2
 48
0.1
100
AcDbLine
 10
3.479956466898289
 20
0.8150000375659729
 30
0.0
 11
3.814956466898289
 21
0.8150000375659729
 31
0.0
1001
GENIUS_GENOREF_13
1005
1C0C
  0
LINE
  5
1BFC
330
1BD3
100
AcDbEntity
  8
CENTER
  6
CENTER2
 48
0.1
100
AcDbLine
 10
3.479956466898289
 20
0.8150000375659729
 30
0.0
 11
3.479956466898289
 21
1.150000037565973
 31
0.0
1001
GENIUS_GENOREF_13
1005
1C0C
  0
LINE
  5
1BFD
330
1BD3
100
AcDbEntity
  8
CENTER
  6
CENTER2
 48
0.1
100
AcDbLine
 10
3.479956466898289
 20
0.8150000375659729
 30
0.0
 11
3.144956466898289
 21
0.8150000375659729
 31
0.0
1001
GENIUS_GENOREF_13
1005
1C0C
  0
LINE
  5
1BFE
330
1BD3
100
AcDbEntity
  8
CENTER
  6
CENTER2
 48
0.1
100
AcDbLine
 10
3.479956466898289
 20
0.8900000375659722
 30
0.0
 11
3.479956466898289
 21
0.4800000375659721
 31
0.0
1001
GENIUS_GENOREF_13
1005
1C0C
  0
CIRCLE
  5
1BFF
330
1BD3
100
AcDbEntity
  8
0
100
AcDbCircle
 10
3.479956466898289
 20
0.8150000375659729
 30
0.0
 40
0.25
  0
LINE
  5
1C00
330
1BD3
100
AcDbEntity
  8
CENTER
  6
CENTER2
 48
0.1
100
AcDbLine
 10
10.72995646689829
 20
0.8150000375659693
 30
0.0
 11
11.06495646689829
 21
0.8150000375659693
 31
0.0
1001
GENIUS_GENOREF_13
1005
1C0B
  0
LINE
  5
1C01
330
1BD3
100
AcDbEntity
  8
CENTER
  6
CENTER2
 48
0.1
100
AcDbLine
 10
10.72995646689829
 20
0.8150000375659693
 30
0.0
 11
10.72995646689829
 21
1.15000003756597
 31
0.0
1001
GENIUS_GENOREF_13
1005
1C0B
  0
LINE
  5
1C02
330
1BD3
100
AcDbEntity
  8
CENTER
  6
CENTER2
 48
0.1
100
AcDbLine
 10
10.72995646689829
 20
0.8150000375659693
 30
0.0
 11
10.39495646689829
 21
0.8150000375659693
 31
0.0
1001
GENIUS_GENOREF_13
1005
1C0B
  0
LINE
  5
1C03
330
1BD3
100
AcDbEntity
  8
CENTER
  6
CENTER2
 48
0.1
100
AcDbLine
 10
10.72995646689829
 20
0.8900000375659686
 30
0.0
 11
10.72995646689829
 21
0.4800000375659686
 31
0.0
1001
GENIUS_GENOREF_13
1005
1C0B
  0
CIRCLE
  5
1C04
330
1BD3
100
AcDbEntity
  8
0
100
AcDbCircle
 10
10.72995646689829
 20
0.8150000375659693
 30
0.0
 40
0.25
  0
DIMENSION
  5
1C05
330
1BD3
100
AcDbEntity
  8
CENTER
  6
CENTER
 48
0.125
100
AcDbDimension
280
     0
  2
*D27
 10
3.671675429596666
 20
19.90455116925629
 30
0.0
 11
1.094297227324005
 21
21.42132357095806
 31
0.0
 12
5.410924759912788
 22
13.05767207534585
 32
0.0
 70
   131
 71
     5
 42
0.5
 73
     0
 74
     0
 75
     0
  3
STANDARD
100
AcDbDiametricDimension
 15
3.288237504199913
 25
20.22544890587566
 35
0.0
 40
0.0
1001
ACAD
1000
DSTYLE
1002
{
1070
    41
1040
0.1875
1070
    43
1040
0.375
1070
    44
1040
0.1875
1070
   141
1040
0.09375
1070
   147
1040
0.1875
1070
   271
1070
     2
1070
   276
1070
     2
1070
   277
1070
     3
1070
   289
1070
     0
1002
}
  0
LINE
  5
1C06
330
1BD3
100
AcDbEntity
  8
AM_9
  6
CENTER
 48
0.125
100
AcDbLine
 10
10.97995646689829
 20
23.35836542601986
 30
0.0
 11
10.97995646689828
 21
23.4883654260199
 31
0.0
  0
LINE
  5
1C07
330
1BD3
100
AcDbEntity
  8
AM_9
  6
CENTER
 48
0.125
100
AcDbLine
 10
10.47995646689829
 20
23.35836542601986
 30
0.0
 11
10.47995646689829
 21
23.4883654260199
 31
0.0
  0
LINE
  5
1C08
330
1BD3
100
AcDbEntity
  8
AM_9
  6
CENTER
 48
0.125
100
AcDbLine
 10
3.729956466898289
 20
23.35836542601988
 30
0.0
 11
3.729956466898289
 21
23.48836542601987
 31
0.0
  0
LINE
  5
1C09
330
1BD3
100
AcDbEntity
  8
AM_9
  6
CENTER
 48
0.125
100
AcDbLine
 10
3.229956466898289
 20
23.35836542601988
 30
0.0
 11
3.229956466898289
 21
23.48836542601986
 31
0.0
  0
POINT
  5
1C0A
330
1BD3
100
AcDbEntity
  8
0
 60
     1
100
AcDbPoint
 10
5.410924759912788
 20
13.05767207534585
 30
0.0
1001
GENIUS_GENOLIS_13
1002
{
1000
ENT
1005
1BE4
1005
1BE3
1005
1BE2
1005
1BE1
1002
}
1001
GENIUS_GENOENT_13
1002
{
1000
MYREF
1005
1C0A
1002
}
1002
{
1000
GRP
1005
0
1002
}
1001
GENIUS_GENOBJ-N-CRS_13
1002
{
1000
OWNER
1000
GEN
1002
}
1001
GENIUS_GENODEF_13
1002
{
1000
HIER
1070
    10
1002
}
1002
{
1000
MANEDIT
1070
     0
1002
}
1002
{
1000
NOSEL
1070
     0
1002
}
1002
{
1000
BEHIND
1070
     0
1002
}
1002
{
1000
OTHER
1070
     0
1002
}
1002
{
1000
REACTOR
1002
}
  0
POINT
  5
1C0B
330
1BD3
100
AcDbEntity
  8
0
 60
     1
100
AcDbPoint
 10
12.66092475991279
 20
-6.192327924654158
 30
0.0
1001
GENIUS_GENOLIS_13
1002
{
1000
ENT
1005
1C03
1005
1C02
1005
1C01
1005
1C00
1002
}
1001
GENIUS_GENOENT_13
1002
{
1000
MYREF
1005
1C0B
1002
}
1002
{
1000
GRP
1005
0
1002
}
1001
GENIUS_GENOBJ-N-CRS_13
1002
{
1000
OWNER
1000
GEN
1002
}
1001
GENIUS_GENODEF_13
1002
{
1000
HIER
1070
    10
1002
}
1002
{
1000
MANEDIT
1070
     0
1002
}
1002
{
1000
NOSEL
1070
     0
1002
}
1002
{
1000
BEHIND
1070
     0
1002
}
1002
{
1000
OTHER
1070
     0
1002
}
1002
{
1000
REACTOR
1002
}
  0
POINT
  5
1C0C
330
1BD3
100
AcDbEntity
  8
0
 60
     1
100
AcDbPoint
 10
5.410924759912788
 20
-6.192327924654154
 30
0.0
1001
GENIUS_GENOLIS_13
1002
{
1000
ENT
1005
1BFE
1005
1BFD
1005
1BFC
1005
1BFB
1002
}
1001
GENIUS_GENOENT_13
1002
{
1000
MYREF
1005
1C0C
1002
}
1002
{
1000
GRP
1005
0
1002
}
1001
GENIUS_GENOBJ-N-CRS_13
1002
{
1000
OWNER
1000
GEN
1002
}
1001
GENIUS_GENODEF_13
1002
{
1000
HIER
1070
    10
1002
}
1002
{
1000
MANEDIT
1070
     0
1002
}
1002
{
1000
NOSEL
1070
     0
1002
}
1002
{
1000
BEHIND
1070
     0
1002
}
1002
{
1000
OTHER
1070
     0
1002
}
1002
{
1000
REACTOR
1002
}
  0
POINT
  5
1C0D
330
1BD3
100
AcDbEntity
  8
0
 60
     1
100
AcDbPoint
 10
12.66092475991279
 20
13.05767207534584
 30
0.0
1001
GENIUS_GENOLIS_13
1002
{
1000
ENT
1005
1BF9
1005
1BF8
1005
1BF7
1005
1BF6
1002
}
1001
GENIUS_GENOENT_13
1002
{
1000
MYREF
1005
1C0D
1002
}
1002
{
1000
GRP
1005
0
1002
}
1001
GENIUS_GENOBJ-N-CRS_13
1002
{
1000
OWNER
1000
GEN
1002
}
1001
GENIUS_GENODEF_13
1002
{
1000
HIER
1070
    10
1002
}
1002
{
1000
MANEDIT
1070
     0
1002
}
1002
{
1000
NOSEL
1070
     0
1002
}
1002
{
1000
BEHIND
1070
     0
1002
}
1002
{
1000
OTHER
1070
     0
1002
}
1002
{
1000
REACTOR
1002
}
  0
ENDBLK
  5
1C11
330
1BD3
100
AcDbEntity
  8
0
100
AcDbBlockEnd
  0
BLOCK
  5
1EE2
330
1EE1
100
AcDbEntity
  8
0
100
AcDbBlockBegin
  2
*D29
 70
     1
 10
0.0
 20
0.0
 30
0.0
  3
*D29
  1

  0
LINE
  5
1EE3
330
1EE1
100
AcDbEntity
  8
AM_5
 62
     0
370
    -2
100
AcDbLine
 10
-3.058468293014498
 20
7.822327962220128
 30
0.0
 11
-5.239049813645523
 21
7.822327962220128
 31
0.0
  0
LINE
  5
1EE4
330
1EE1
100
AcDbEntity
  8
AM_5
 62
     0
370
    -2
100
AcDbLine
 10
-3.058468293014498
 20
-11.05267203777987
 30
0.0
 11
-5.239049813645528
 21
-11.05267203777987
 31
0.0
  0
LINE
  5
1EE5
330
1EE1
100
AcDbEntity
  8
AM_5
 62
     0
370
    -2
100
AcDbLine
 10
-5.051549813645523
 20
7.634827962220128
 30
0.0
 11
-5.051549813645525
 21
-1.560435282736178
 31
0.0
  0
LINE
  5
1EE6
330
1EE1
100
AcDbEntity
  8
AM_5
 62
     0
370
    -2
100
AcDbLine
 10
-5.051549813645528
 20
-10.86517203777987
 30
0.0
 11
-5.051549813645526
 21
-2.122935282736178
 31
0.0
  0
SOLID
  5
1EE7
330
1EE1
100
AcDbEntity
  8
AM_5
 62
     0
100
AcDbTrace
 10
-5.082799813645523
 20
7.634827962220128
 30
0.0
 11
-5.020299813645523
 21
7.634827962220128
 31
0.0
 12
-5.051549813645523
 22
7.822327962220128
 32
0.0
 13
-5.051549813645523
 23
7.822327962220128
 33
0.0
  0
SOLID
  5
1EE8
330
1EE1
100
AcDbEntity
  8
AM_5
 62
     0
100
AcDbTrace
 10
-5.082799813645528
 20
-10.86517203777987
 30
0.0
 11
-5.020299813645528
 21
-10.86517203777987
 31
0.0
 12
-5.051549813645528
 22
-11.05267203777987
 32
0.0
 13
-5.051549813645528
 23
-11.05267203777987
 33
0.0
  0
MTEXT
  5
1EE9
330
1EE1
100
AcDbEntity
  8
AM_5
 62
     0
100
AcDbMText
 10
-5.051549813645525
 20
-1.841685282736179
 30
0.0
 40
0.1875
 41
0.0
 46
0.0
 71
     5
 72
     1
  1
\A1;18 7/8
 73
     1
 44
1.0
  0
POINT
  5
1EEA
330
1EE1
100
AcDbEntity
  8
DEFPOINTS
 62
     0
100
AcDbPoint
 10
-2.995968293014498
 20
7.822327962220128
 30
0.0
  0
POINT
  5
1EEB
330
1EE1
100
AcDbEntity
  8
DEFPOINTS
 62
     0
100
AcDbPoint
 10
-2.995968293014498
 20
-11.05267203777987
 30
0.0
  0
POINT
  5
1EEC
330
1EE1
100
AcDbEntity
  8
DEFPOINTS
 62
     0
100
AcDbPoint
 10
-5.051549813645528
 20
-11.05267203777987
 30
0.0
  0
ENDBLK
  5
1EED
330
1EE1
100
AcDbEntity
  8
0
100
AcDbBlockEnd
  0
BLOCK
  5
1EEF
330
1EEE
100
AcDbEntity
  8
0
100
AcDbBlockBegin
  2
*D30
 70
     1
 10
0.0
 20
0.0
 30
0.0
  3
*D30
  1

  0
LINE
  5
1EF0
330
1EEE
100
AcDbEntity
  8
AM_5
 62
     0
370
    -2
100
AcDbLine
 10
-2.995968293014498
 20
7.884827962220128
 30
0.0
 11
-2.995968293014498
 21
8.960717228584167
 31
0.0
  0
LINE
  5
1EF1
330
1EEE
100
AcDbEntity
  8
AM_5
 62
     0
370
    -2
100
AcDbLine
 10
11.8790317069855
 20
7.884827962220104
 30
0.0
 11
11.8790317069855
 21
8.960717228584167
 31
0.0
  0
LINE
  5
1EF2
330
1EEE
100
AcDbEntity
  8
AM_5
 62
     0
370
    -2
100
AcDbLine
 10
-2.808468293014498
 20
8.773217228584167
 30
0.0
 11
3.7540317069855
 21
8.773217228584167
 31
0.0
  0
LINE
  5
1EF3
330
1EEE
100
AcDbEntity
  8
AM_5
 62
     0
370
    -2
100
AcDbLine
 10
11.6915317069855
 20
8.773217228584167
 30
0.0
 11
5.1290317069855
 21
8.773217228584167
 31
0.0
  0
SOLID
  5
1EF4
330
1EEE
100
AcDbEntity
  8
AM_5
 62
     0
100
AcDbTrace
 10
-2.808468293014498
 20
8.804467228584167
 30
0.0
 11
-2.808468293014498
 21
8.741967228584167
 31
0.0
 12
-2.995968293014498
 22
8.773217228584167
 32
0.0
 13
-2.995968293014498
 23
8.773217228584167
 33
0.0
  0
SOLID
  5
1EF5
330
1EEE
100
AcDbEntity
  8
AM_5
 62
     0
100
AcDbTrace
 10
11.6915317069855
 20
8.804467228584167
 30
0.0
 11
11.6915317069855
 21
8.741967228584167
 31
0.0
 12
11.8790317069855
 22
8.773217228584167
 32
0.0
 13
11.8790317069855
 23
8.773217228584167
 33
0.0
  0
MTEXT
  5
1EF6
330
1EEE
100
AcDbEntity
  8
AM_5
 62
     0
100
AcDbMText
 10
4.4415317069855
 20
8.773217228584167
 30
0.0
 40
0.1875
 41
0.0
 46
0.0
 71
     5
 72
     1
  1
\A1;14 7/8
 73
     1
 44
1.0
  0
POINT
  5
1EF7
330
1EEE
100
AcDbEntity
  8
DEFPOINTS
 62
     0
100
AcDbPoint
 10
-2.995968293014498
 20
7.822327962220128
 30
0.0
  0
POINT
  5
1EF8
330
1EEE
100
AcDbEntity
  8
DEFPOINTS
 62
     0
100
AcDbPoint
 10
11.8790317069855
 20
7.822327962220104
 30
0.0
  0
POINT
  5
1EF9
330
1EEE
100
AcDbEntity
  8
DEFPOINTS
 62
     0
100
AcDbPoint
 10
11.8790317069855
 20
8.773217228584167
 30
0.0
  0
ENDBLK
  5
1EFA
330
1EEE
100
AcDbEntity
  8
0
100
AcDbBlockEnd
  0
BLOCK
  5
1EFC
330
1EFB
100
AcDbEntity
  8
0
100
AcDbBlockBegin
  2
*D31
 70
     1
 10
0.0
 20
0.0
 30
0.0
  3
*D31
  1

  0
LINE
  5
1EFD
330
1EFB
100
AcDbEntity
  8
AM_5
 62
     0
370
    -2
100
AcDbLine
 10
-3.058468293014498
 20
9.322327962220128
 30
0.0
 11
-3.363924090726214
 21
9.322327962220128
 31
0.0
  0
LINE
  5
1EFE
330
1EFB
100
AcDbEntity
  8
AM_5
 62
     0
370
    -2
100
AcDbLine
 10
-3.058468293014498
 20
9.402327962220109
 30
0.0
 11
-3.363924090726214
 21
9.402327962220109
 31
0.0
  0
LINE
  5
1EFF
330
1EFB
100
AcDbEntity
  8
AM_5
 62
     0
370
    -2
100
AcDbLine
 10
-3.176424090726214
 20
9.134827962220128
 30
0.0
 11
-3.176424090726215
 21
8.947327962220128
 31
0.0
  0
LINE
  5
1F00
330
1EFB
100
AcDbEntity
  8
AM_5
 62
     0
370
    -2
100
AcDbLine
 10
-3.176424090726214
 20
9.589827962220109
 30
0.0
 11
-3.176424090726214
 21
9.777327962220109
 31
0.0
  0
LINE
  5
1F01
330
1EFB
100
AcDbEntity
  8
AM_5
 62
     0
370
    -2
100
AcDbLine
 10
-3.176424090726214
 20
9.777327962220109
 30
0.0
 11
-2.988924090726214
 21
9.777327962220109
 31
0.0
  0
SOLID
  5
1F02
330
1EFB
100
AcDbEntity
  8
AM_5
 62
     0
100
AcDbTrace
 10
-3.207674090726214
 20
9.134827962220128
 30
0.0
 11
-3.145174090726214
 21
9.134827962220128
 31
0.0
 12
-3.176424090726214
 22
9.322327962220128
 32
0.0
 13
-3.176424090726214
 23
9.322327962220128
 33
0.0
  0
SOLID
  5
1F03
330
1EFB
100
AcDbEntity
  8
AM_5
 62
     0
100
AcDbTrace
 10
-3.207674090726214
 20
9.589827962220109
 30
0.0
 11
-3.145174090726214
 21
9.589827962220109
 31
0.0
 12
-3.176424090726214
 22
9.402327962220109
 32
0.0
 13
-3.176424090726214
 23
9.402327962220109
 33
0.0
  0
MTEXT
  5
1F04
330
1EFB
100
AcDbEntity
  8
AM_5
 62
     0
100
AcDbMText
 10
-2.395174090726216
 20
9.777327962220109
 30
0.0
 40
0.1875
 41
0.0
 46
0.0
 71
     5
 72
     1
  1
\A1;0.0800
 73
     1
 44
1.0
  0
POINT
  5
1F05
330
1EFB
100
AcDbEntity
  8
DEFPOINTS
 62
     0
100
AcDbPoint
 10
-2.995968293014498
 20
9.322327962220128
 30
0.0
  0
POINT
  5
1F06
330
1EFB
100
AcDbEntity
  8
DEFPOINTS
 62
     0
100
AcDbPoint
 10
-2.995968293014498
 20
9.402327962220109
 30
0.0
  0
POINT
  5
1F07
330
1EFB
100
AcDbEntity
  8
DEFPOINTS
 62
     0
100
AcDbPoint
 10
-3.176424090726214
 20
9.402327962220109
 30
0.0
  0
ENDBLK
  5
1F08
330
1EFB
100
AcDbEntity
  8
0
100
AcDbBlockEnd
  0
BLOCK
  5
1F0A
330
1F09
100
AcDbEntity
  8
0
100
AcDbBlockBegin
  2
*D32
 70
     1
 10
0.0
 20
0.0
 30
0.0
  3
*D32
  1

  0
LINE
  5
1F0B
330
1F09
100
AcDbEntity
  8
AM_5
 62
     0
370
    -2
100
AcDbLine
 10
-2.683468293014498
 20
7.807327962220128
 30
0.0
 11
-2.683468293014498
 21
8.479152600218919
 31
0.0
  0
LINE
  5
1F0C
330
1F09
100
AcDbEntity
  8
AM_5
 62
     0
370
    -2
100
AcDbLine
 10
11.5665317069855
 20
7.807327962220123
 30
0.0
 11
11.5665317069855
 21
8.479152600218919
 31
0.0
  0
LINE
  5
1F0D
330
1F09
100
AcDbEntity
  8
AM_5
 62
     0
370
    -2
100
AcDbLine
 10
-2.495968293014498
 20
8.291652600218919
 30
0.0
 11
3.875393289397742
 21
8.291652600218919
 31
0.0
  0
LINE
  5
1F0E
330
1F09
100
AcDbEntity
  8
AM_5
 62
     0
370
    -2
100
AcDbLine
 10
11.3790317069855
 20
8.291652600218919
 30
0.0
 11
5.094143289397742
 21
8.291652600218919
 31
0.0
  0
SOLID
  5
1F0F
330
1F09
100
AcDbEntity
  8
AM_5
 62
     0
100
AcDbTrace
 10
-2.495968293014498
 20
8.322902600218919
 30
0.0
 11
-2.495968293014498
 21
8.260402600218919
 31
0.0
 12
-2.683468293014498
 22
8.291652600218919
 32
0.0
 13
-2.683468293014498
 23
8.291652600218919
 33
0.0
  0
SOLID
  5
1F10
330
1F09
100
AcDbEntity
  8
AM_5
 62
     0
100
AcDbTrace
 10
11.3790317069855
 20
8.322902600218919
 30
0.0
 11
11.3790317069855
 21
8.260402600218919
 31
0.0
 12
11.5665317069855
 22
8.291652600218919
 32
0.0
 13
11.5665317069855
 23
8.291652600218919
 33
0.0
  0
MTEXT
  5
1F11
330
1F09
100
AcDbEntity
  8
AM_5
 62
     0
100
AcDbMText
 10
4.484768289397742
 20
8.291652600218919
 30
0.0
 40
0.1875
 41
0.0
 46
0.0
 71
     5
 72
     1
  1
\A1;14.250
 73
     1
 44
1.0
  0
POINT
  5
1F12
330
1F09
100
AcDbEntity
  8
DEFPOINTS
 62
     0
100
AcDbPoint
 10
-2.683468293014498
 20
7.744827962220128
 30
0.0
  0
POINT
  5
1F13
330
1F09
100
AcDbEntity
  8
DEFPOINTS
 62
     0
100
AcDbPoint
 10
11.5665317069855
 20
7.744827962220123
 30
0.0
  0
POINT
  5
1F14
330
1F09
100
AcDbEntity
  8
DEFPOINTS
 62
     0
100
AcDbPoint
 10
11.5665317069855
 20
8.291652600218919
 30
0.0
  0
ENDBLK
  5
1F15
330
1F09
100
AcDbEntity
  8
0
100
AcDbBlockEnd
  0
BLOCK
  5
1F17
330
1F16
100
AcDbEntity
  8
0
100
AcDbBlockBegin
  2
*D33
 70
     1
 10
0.0
 20
0.0
 30
0.0
  3
*D33
  1

  0
LINE
  5
1F18
330
1F16
100
AcDbEntity
  8
AM_5
 62
     0
370
    -2
100
AcDbLine
 10
-2.980968293014498
 20
7.509827962220128
 30
0.0
 11
-3.838242784009745
 21
7.509827962220128
 31
0.0
  0
LINE
  5
1F19
330
1F16
100
AcDbEntity
  8
AM_5
 62
     0
370
    -2
100
AcDbLine
 10
-2.980968293014498
 20
-10.74017203777988
 30
0.0
 11
-3.838242784009749
 21
-10.74017203777988
 31
0.0
  0
LINE
  5
1F1A
330
1F16
100
AcDbEntity
  8
AM_5
 62
     0
370
    -2
100
AcDbLine
 10
-3.650742784009745
 20
7.322327962220128
 30
0.0
 11
-3.650742784009747
 21
-1.513497076538981
 31
0.0
  0
LINE
  5
1F1B
330
1F16
100
AcDbEntity
  8
AM_5
 62
     0
370
    -2
100
AcDbLine
 10
-3.650742784009749
 20
-10.55267203777987
 30
0.0
 11
-3.650742784009747
 21
-2.075997076538981
 31
0.0
  0
SOLID
  5
1F1C
330
1F16
100
AcDbEntity
  8
AM_5
 62
     0
100
AcDbTrace
 10
-3.681992784009745
 20
7.322327962220128
 30
0.0
 11
-3.619492784009745
 21
7.322327962220128
 31
0.0
 12
-3.650742784009745
 22
7.509827962220128
 32
0.0
 13
-3.650742784009745
 23
7.509827962220128
 33
0.0
  0
SOLID
  5
1F1D
330
1F16
100
AcDbEntity
  8
AM_5
 62
     0
100
AcDbTrace
 10
-3.681992784009749
 20
-10.55267203777987
 30
0.0
 11
-3.619492784009749
 21
-10.55267203777987
 31
0.0
 12
-3.650742784009749
 22
-10.74017203777988
 32
0.0
 13
-3.650742784009749
 23
-10.74017203777988
 33
0.0
  0
MTEXT
  5
1F1E
330
1F16
100
AcDbEntity
  8
AM_5
 62
     0
100
AcDbMText
 10
-3.650742784009747
 20
-1.794747076538982
 30
0.0
 40
0.1875
 41
0.0
 46
0.0
 71
     5
 72
     1
  1
\A1;18.250
 73
     1
 44
1.0
  0
POINT
  5
1F1F
330
1F16
100
AcDbEntity
  8
DEFPOINTS
 62
     0
100
AcDbPoint
 10
-2.918468293014498
 20
7.509827962220128
 30
0.0
  0
POINT
  5
1F20
330
1F16
100
AcDbEntity
  8
DEFPOINTS
 62
     0
100
AcDbPoint
 10
-2.918468293014498
 20
-10.74017203777988
 30
0.0
  0
POINT
  5
1F21
330
1F16
100
AcDbEntity
  8
DEFPOINTS
 62
     0
100
AcDbPoint
 10
-3.650742784009749
 20
-10.74017203777988
 30
0.0
  0
ENDBLK
  5
1F22
330
1F16
100
AcDbEntity
  8
0
100
AcDbBlockEnd
  0
BLOCK
  5
1F24
330
1F23
100
AcDbEntity
  8
0
100
AcDbBlockBegin
  2
*D34
 70
     1
 10
0.0
 20
0.0
 30
0.0
  3
*D34
  1

  0
LINE
  5
1F25
330
1F23
100
AcDbEntity
  8
CENTER
 62
     0
370
    -2
100
AcDbLine
 10
-2.864721715416263
 20
7.764393173644719
 30
0.0
 11
-3.341319544949782
 21
8.433761098575665
 31
0.0
  0
LINE
  5
1F26
330
1F23
100
AcDbEntity
  8
CENTER
 62
     0
370
    -2
100
AcDbLine
 10
-3.341319544949782
 20
8.433761098575665
 30
0.0
 11
-3.528819544949781
 21
8.433761098575665
 31
0.0
  0
SOLID
  5
1F27
330
1F23
100
AcDbEntity
  8
CENTER
 62
     0
100
AcDbTrace
 10
-2.839265194273804
 20
7.782518515884895
 30
0.0
 11
-2.890178236558723
 21
7.746267831404543
 31
0.0
 12
-2.755969661975204
 22
7.611654046789963
 32
0.0
 13
-2.755969661975204
 23
7.611654046789963
 33
0.0
  0
MTEXT
  5
1F28
330
1F23
100
AcDbEntity
  8
CENTER
 62
     0
100
AcDbMText
 10
-4.231944544949783
 20
8.433761098575665
 30
0.0
 40
0.1875
 41
0.0
 46
0.0
 71
     5
 72
     1
  1
\A1;∅0.2500
 73
     1
 44
1.0
  0
LINE
  5
1F29
330
1F23
100
AcDbEntity
  8
CENTER
 62
     0
370
    -2
100
AcDbLine
 10
-2.777218293014497
 20
7.509827962220126
 30
0.0
 11
-2.589718293014497
 21
7.509827962220126
 31
0.0
  0
LINE
  5
1F2A
330
1F23
100
AcDbEntity
  8
CENTER
 62
     0
370
    -2
100
AcDbLine
 10
-2.683468293014498
 20
7.416077962220125
 30
0.0
 11
-2.683468293014497
 21
7.603577962220125
 31
0.0
  0
POINT
  5
1F2B
330
1F23
100
AcDbEntity
  8
DEFPOINTS
 62
     0
100
AcDbPoint
 10
-2.755969661975204
 20
7.611654046789963
 30
0.0
  0
POINT
  5
1F2C
330
1F23
100
AcDbEntity
  8
DEFPOINTS
 62
     0
100
AcDbPoint
 10
-2.610966924053791
 20
7.408001877650288
 30
0.0
  0
ENDBLK
  5
1F2D
330
1F23
100
AcDbEntity
  8
0
100
AcDbBlockEnd
  0
BLOCK
  5
1F60
330
1F2E
100
AcDbEntity
  8
0
100
AcDbBlockBegin
  2
A$C57490345
 70
     0
 10
0.0
 20
0.0
 30
0.0
  3
A$C57490345
  1

  0
LINE
  5
1F2F
330
1F2E
100
AcDbEntity
  8
0
100
AcDbLine
 10
2.55558147690003
 20
0.0000000242722109
 30
0.0
 11
4.55558147690003
 21
0.0000000242722109
 31
0.0
  0
LINE
  5
1F30
330
1F2E
100
AcDbEntity
  8
0
100
AcDbLine
 10
4.55558147690003
 20
0.0000000242722109
 30
0.0
 11
17.43058147690003
 21
0.0000000242722109
 31
0.0
  0
LINE
  5
1F31
330
1F2E
100
AcDbEntity
  8
0
100
AcDbLine
 10
17.43058147690003
 20
0.0000000242722127
 30
0.0
 11
17.43058147690003
 21
18.00000002427221
 31
0.0
  0
LINE
  5
1F32
330
1F2E
100
AcDbEntity
  8
0
100
AcDbLine
 10
17.43058147690003
 20
18.00000002427221
 30
0.0
 11
17.43058147690003
 21
18.87500002427221
 31
0.0
  0
LINE
  5
1F33
330
1F2E
100
AcDbEntity
  8
0
100
AcDbLine
 10
17.43058147690003
 20
18.87500002427219
 30
0.0
 11
2.555581476900031
 21
18.87500002427222
 31
0.0
  0
LINE
  5
1F34
330
1F2E
100
AcDbEntity
  8
0
100
AcDbLine
 10
2.555581476900031
 20
18.87500002427222
 30
0.0
 11
2.555581476900031
 21
0.0000000242722145
 31
0.0
  0
DIMENSION
  5
1F35
330
1F2E
100
AcDbEntity
  8
AM_5
100
AcDbDimension
280
     0
  2
*D29
 10
0.4999999562690017
 20
0.0000000242722162
 30
0.0
 11
0.4999999562690043
 21
9.210986779315909
 31
0.0
 12
5.551549769914529
 22
11.05267206205209
 32
0.0
 70
   128
  1
<>
 71
     5
 42
18.875
 73
     0
 74
     0
 75
     0
  3
STANDARD$0
100
AcDbAlignedDimension
 13
2.555581476900031
 23
18.87500002427222
 33
0.0
 14
2.555581476900031
 24
0.0000000242722145
 34
0.0
 50
90.0
100
AcDbRotatedDimension
1001
ACAD
1000
DSTYLE
1002
{
1070
   140
1040
0.1875
1070
    41
1040
0.1875
1070
    43
1040
0.375
1070
    44
1040
0.1875
1070
   141
1040
0.09375
1070
   147
1040
0.1875
1070
   271
1070
     5
1070
   276
1070
     2
1070
   277
1070
     5
1070
   289
1070
     0
1002
}
  0
LINE
  5
1F36
330
1F2E
100
AcDbEntity
  8
0
100
AcDbLine
 10
2.555581476900031
 20
20.37500002427222
 30
0.0
 11
17.43058147690003
 21
20.37500002427219
 31
0.0
  0
LINE
  5
1F37
330
1F2E
100
AcDbEntity
  8
0
100
AcDbLine
 10
17.43058147690003
 20
20.45500002427226
 30
0.0
 11
2.555581476900031
 21
20.4550000242722
 31
0.0
  0
LINE
  5
1F38
330
1F2E
100
AcDbEntity
  8
0
100
AcDbLine
 10
2.555581476900031
 20
20.4550000242722
 30
0.0
 11
2.555581476900031
 21
20.37500002427222
 31
0.0
  0
DIMENSION
  5
1F39
330
1F2E
100
AcDbEntity
  8
AM_5
100
AcDbDimension
280
     0
  2
*D30
 10
17.43058147690003
 20
19.82588929063625
 30
0.0
 11
9.99308147690003
 21
19.82588929063625
 31
0.0
 12
5.551549769914529
 22
11.05267206205209
 32
0.0
 71
     5
 42
14.875
 73
     0
 74
     0
 75
     0
  3
STANDARD$0
100
AcDbAlignedDimension
 13
2.555581476900031
 23
18.87500002427222
 33
0.0
 14
17.43058147690003
 24
18.87500002427219
 34
0.0
100
AcDbRotatedDimension
1001
ACAD
1000
DSTYLE
1002
{
1070
   140
1040
0.1875
1070
    40
1040
1.0
1070
   144
1040
1.0
1070
    41
1040
0.1875
1070
    43
1040
0.375
1070
    44
1040
0.1875
1070
   141
1040
0.09375
1070
   147
1040
0.1875
1070
   271
1070
     5
1070
   276
1070
     2
1070
   277
1070
     5
1070
   289
1070
     0
1002
}
  0
DIMENSION
  5
1F3A
330
1F2E
100
AcDbEntity
  8
AM_5
100
AcDbDimension
280
     0
  2
*D31
 10
2.375125679188315
 20
20.4550000242722
 30
0.0
 11
3.156375679188313
 21
20.8300000242722
 31
0.0
 12
5.551549769914529
 22
11.05267206205209
 32
0.0
 71
     5
 42
0.0799999999999805
 73
     0
 74
     0
 75
     0
  3
STANDARD$0
100
AcDbAlignedDimension
 13
2.555581476900031
 23
20.37500002427222
 33
0.0
 14
2.555581476900031
 24
20.4550000242722
 34
0.0
 50
90.0
100
AcDbRotatedDimension
1001
ACAD
1000
DSTYLE
1002
{
1070
   140
1040
0.1875
1070
    40
1040
1.0
1070
   144
1040
1.0
1070
    41
1040
0.1875
1070
    43
1040
0.375
1070
    44
1040
0.1875
1070
   141
1040
0.09375
1070
   147
1040
0.1875
1070
   271
1070
     4
1070
   276
1070
     2
1070
   277
1070
     2
1070
   289
1070
     0
1002
}
  0
CIRCLE
  5
1F3B
330
1F2E
100
AcDbEntity
  8
0
100
AcDbCircle
 10
2.868081476900031
 20
18.56250002427222
 30
0.0
 40
0.125
  0
CIRCLE
  5
1F3C
330
1F2E
100
AcDbEntity
  8
0
100
AcDbCircle
 10
17.11808147690003
 20
18.56250002427221
 30
0.0
 40
0.125
  0
CIRCLE
  5
1F3D
330
1F2E
100
AcDbEntity
  8
0
100
AcDbCircle
 10
17.11808147690003
 20
0.3125000242722109
 30
0.0
 40
0.125
  0
CIRCLE
  5
1F3E
330
1F2E
100
AcDbEntity
  8
0
100
AcDbCircle
 10
2.86808147690003
 20
0.3125000242722109
 30
0.0
 40
0.125
  0
DIMENSION
  5
1F3F
330
1F2E
100
AcDbEntity
  8
AM_5
100
AcDbDimension
280
     0
  2
*D32
 10
17.11808147690003
 20
19.344324662271
 30
0.0
 11
10.03631805931227
 21
19.344324662271
 31
0.0
 12
5.551549769914529
 22
11.05267206205209
 32
0.0
 70
   128
 71
     5
 42
14.25
 73
     0
 74
     0
 75
     0
  3
STANDARD$0
100
AcDbAlignedDimension
 13
2.868081476900031
 23
18.79750002427222
 33
0.0
 14
17.11808147690003
 24
18.79750002427221
 34
0.0
100
AcDbRotatedDimension
1001
ACAD
1000
DSTYLE
1002
{
1070
   140
1040
0.1875
1070
    40
1040
1.0
1070
   144
1040
1.0
1070
    41
1040
0.1875
1070
    43
1040
0.375
1070
    44
1040
0.1875
1070
   141
1040
0.09375
1070
   147
1040
0.1875
1070
   271
1070
     3
1070
   276
1070
     2
1070
   277
1070
     2
1070
   289
1070
     0
1002
}
  0
DIMENSION
  5
1F40
330
1F2E
100
AcDbEntity
  8
AM_5
100
AcDbDimension
280
     0
  2
*D33
 10
1.90080698590478
 20
0.3125000242722109
 30
0.0
 11
1.900806985904782
 21
9.257924985513106
 31
0.0
 12
5.551549769914529
 22
11.05267206205209
 32
0.0
 70
   128
 71
     5
 42
18.25000000000001
 73
     0
 74
     0
 75
     0
  3
STANDARD$0
100
AcDbAlignedDimension
 13
2.633081476900031
 23
18.56250002427222
 33
0.0
 14
2.633081476900031
 24
0.3125000242722109
 34
0.0
 50
90.0
100
AcDbRotatedDimension
1001
ACAD
1000
DSTYLE
1002
{
1070
   140
1040
0.1875
1070
    40
1040
1.0
1070
   144
1040
1.0
1070
    41
1040
0.1875
1070
    43
1040
0.375
1070
    44
1040
0.1875
1070
   141
1040
0.09375
1070
   147
1040
0.1875
1070
   271
1070
     3
1070
   276
1070
     2
1070
   277
1070
     2
1070
   289
1070
     0
1002
}
  0
LINE
  5
1F41
330
1F2E
100
AcDbEntity
  8
CENTER
  6
CENTER2
 48
0.1
100
AcDbLine
 10
2.868081476900031
 20
18.56250002427222
 30
0.0
 11
3.10308147690003
 21
18.56250002427222
 31
0.0
1001
GENIUS_GENOREF_13
1005
1F5A
  0
LINE
  5
1F42
330
1F2E
100
AcDbEntity
  8
CENTER
  6
CENTER2
 48
0.1
100
AcDbLine
 10
2.868081476900031
 20
18.56250002427222
 30
0.0
 11
2.868081476900031
 21
18.79750002427222
 31
0.0
1001
GENIUS_GENOREF_13
1005
1F5A
  0
LINE
  5
1F43
330
1F2E
100
AcDbEntity
  8
CENTER
  6
CENTER2
 48
0.1
100
AcDbLine
 10
2.868081476900031
 20
18.56250002427222
 30
0.0
 11
2.633081476900031
 21
18.56250002427222
 31
0.0
1001
GENIUS_GENOREF_13
1005
1F5A
  0
LINE
  5
1F44
330
1F2E
100
AcDbEntity
  8
CENTER
  6
CENTER2
 48
0.1
100
AcDbLine
 10
2.868081476900031
 20
18.56250002427222
 30
0.0
 11
2.868081476900031
 21
18.32750002427222
 31
0.0
1001
GENIUS_GENOREF_13
1005
1F5A
  0
LINE
  5
1F45
330
1F2E
100
AcDbEntity
  8
CENTER
  6
CENTER2
 48
0.1
100
AcDbLine
 10
17.11808147690003
 20
18.56250002427221
 30
0.0
 11
17.35308147690003
 21
18.56250002427221
 31
0.0
1001
GENIUS_GENOREF_13
1005
1F5D
  0
LINE
  5
1F46
330
1F2E
100
AcDbEntity
  8
CENTER
  6
CENTER2
 48
0.1
100
AcDbLine
 10
17.11808147690003
 20
18.56250002427221
 30
0.0
 11
17.11808147690003
 21
18.79750002427221
 31
0.0
1001
GENIUS_GENOREF_13
1005
1F5D
  0
LINE
  5
1F47
330
1F2E
100
AcDbEntity
  8
CENTER
  6
CENTER2
 48
0.1
100
AcDbLine
 10
17.11808147690003
 20
18.56250002427221
 30
0.0
 11
16.88308147690003
 21
18.56250002427221
 31
0.0
1001
GENIUS_GENOREF_13
1005
1F5D
  0
LINE
  5
1F48
330
1F2E
100
AcDbEntity
  8
CENTER
  6
CENTER2
 48
0.1
100
AcDbLine
 10
17.11808147690003
 20
18.56250002427221
 30
0.0
 11
17.11808147690003
 21
18.32750002427221
 31
0.0
1001
GENIUS_GENOREF_13
1005
1F5D
  0
LINE
  5
1F49
330
1F2E
100
AcDbEntity
  8
CENTER
  6
CENTER2
 48
0.1
100
AcDbLine
 10
17.11808147690003
 20
0.3125000242722109
 30
0.0
 11
17.35308147690003
 21
0.3125000242722109
 31
0.0
1001
GENIUS_GENOREF_13
1005
1F5C
  0
LINE
  5
1F4A
330
1F2E
100
AcDbEntity
  8
CENTER
  6
CENTER2
 48
0.1
100
AcDbLine
 10
17.11808147690003
 20
0.3125000242722109
 30
0.0
 11
17.11808147690003
 21
0.5475000242722104
 31
0.0
1001
GENIUS_GENOREF_13
1005
1F5C
  0
LINE
  5
1F4B
330
1F2E
100
AcDbEntity
  8
CENTER
  6
CENTER2
 48
0.1
100
AcDbLine
 10
17.11808147690003
 20
0.3125000242722109
 30
0.0
 11
16.88308147690003
 21
0.3125000242722109
 31
0.0
1001
GENIUS_GENOREF_13
1005
1F5C
  0
LINE
  5
1F4C
330
1F2E
100
AcDbEntity
  8
CENTER
  6
CENTER2
 48
0.1
100
AcDbLine
 10
17.11808147690003
 20
0.3125000242722109
 30
0.0
 11
17.11808147690003
 21
0.0775000242722115
 31
0.0
1001
GENIUS_GENOREF_13
1005
1F5C
  0
LINE
  5
1F4D
330
1F2E
100
AcDbEntity
  8
CENTER
  6
CENTER2
 48
0.1
100
AcDbLine
 10
2.86808147690003
 20
0.3125000242722109
 30
0.0
 11
3.10308147690003
 21
0.3125000242722109
 31
0.0
1001
GENIUS_GENOREF_13
1005
1F5B
  0
LINE
  5
1F4E
330
1F2E
100
AcDbEntity
  8
CENTER
  6
CENTER2
 48
0.1
100
AcDbLine
 10
2.86808147690003
 20
0.3125000242722109
 30
0.0
 11
2.86808147690003
 21
0.5475000242722104
 31
0.0
1001
GENIUS_GENOREF_13
1005
1F5B
  0
LINE
  5
1F4F
330
1F2E
100
AcDbEntity
  8
CENTER
  6
CENTER2
 48
0.1
100
AcDbLine
 10
2.86808147690003
 20
0.3125000242722109
 30
0.0
 11
2.633081476900031
 21
0.3125000242722109
 31
0.0
1001
GENIUS_GENOREF_13
1005
1F5B
  0
LINE
  5
1F50
330
1F2E
100
AcDbEntity
  8
CENTER
  6
CENTER2
 48
0.1
100
AcDbLine
 10
2.86808147690003
 20
0.3125000242722109
 30
0.0
 11
2.86808147690003
 21
0.0775000242722115
 31
0.0
1001
GENIUS_GENOREF_13
1005
1F5B
  0
DIMENSION
  5
1F51
330
1F2E
100
AcDbEntity
  8
CENTER
100
AcDbDimension
280
     0
  2
*D34
 10
2.940582845860738
 20
18.46067393970238
 30
0.0
 11
1.319605224964746
 21
19.48643316062775
 31
0.0
 12
5.551549769914529
 22
11.05267206205209
 32
0.0
 70
   131
 71
     5
 42
0.2500000000000018
 73
     0
 74
     0
 75
     0
  3
STANDARD
100
AcDbDiametricDimension
 15
2.795580107939325
 25
18.66432610884205
 35
0.0
 40
0.0
1001
ACAD
1000
DSTYLE
1002
{
1070
   140
1040
0.1875
1070
    41
1040
0.1875
1070
    43
1040
0.375
1070
    44
1040
0.1875
1070
   141
1040
0.09375
1070
   147
1040
0.1875
1070
   271
1070
     4
1070
   276
1070
     2
1070
   277
1070
     2
1070
   289
1070
     0
1002
}
  0
TEXT
  5
1F52
330
1F2E
100
AcDbEntity
  8
CENTER
100
AcDbText
 10
0.6767680567447343
 20
19.41611385433352
 30
0.0
 40
0.125
  1
4X
100
AcDbText
  0
LINE
  5
1F53
330
1F2E
100
AcDbEntity
  8
0
100
AcDbLine
 10
17.43058147690003
 20
20.45500002427222
 30
0.0
 11
17.43058147690003
 21
20.37500002427221
 31
0.0
  0
LINE
  5
1F54
330
1F2E
100
AcDbEntity
  8
AM_9
100
AcDbLine
 10
2.993081476900031
 20
20.37500002427222
 30
0.0
 11
2.993081476900031
 21
20.4550000242722
 31
0.0
  0
LINE
  5
1F55
330
1F2E
100
AcDbEntity
  8
CENTER
 48
0.1
100
AcDbLine
 10
2.868081476900032
 20
20.25000002427221
 30
0.0
 11
2.868081476900029
 21
20.5800000242722
 31
0.0
  0
LINE
  5
1F56
330
1F2E
100
AcDbEntity
  8
AM_9
100
AcDbLine
 10
2.743081476900031
 20
20.37500002427222
 30
0.0
 11
2.743081476900031
 21
20.4550000242722
 31
0.0
  0
LINE
  5
1F57
330
1F2E
100
AcDbEntity
  8
AM_9
100
AcDbLine
 10
17.24308147690003
 20
20.37500002427219
 30
0.0
 11
17.24308147690003
 21
20.45500002427226
 31
0.0
  0
LINE
  5
1F58
330
1F2E
100
AcDbEntity
  8
CENTER
 48
0.1
100
AcDbLine
 10
17.11808147690003
 20
20.25000002427219
 30
0.0
 11
17.11808147690003
 21
20.58000002427227
 31
0.0
  0
LINE
  5
1F59
330
1F2E
100
AcDbEntity
  8
AM_9
100
AcDbLine
 10
16.99308147690003
 20
20.37500002427219
 30
0.0
 11
16.99308147690003
 21
20.45500002427226
 31
0.0
  0
POINT
  5
1F5A
330
1F2E
100
AcDbEntity
  8
0
 60
     1
100
AcDbPoint
 10
5.551549769914529
 20
11.05267206205209
 30
0.0
1001
GENIUS_GENOLIS_13
1002
{
1000
ENT
1005
1F44
1005
1F43
1005
1F42
1005
1F41
1002
}
1001
GENIUS_GENOENT_13
1002
{
1000
MYREF
1005
1F5A
1002
}
1002
{
1000
GRP
1005
0
1002
}
1001
GENIUS_GENOBJ-N-CRS_13
1002
{
1000
OWNER
1000
GEN
1002
}
1001
GENIUS_GENODEF_13
1002
{
1000
HIER
1070
    10
1002
}
1002
{
1000
MANEDIT
1070
     0
1002
}
1002
{
1000
NOSEL
1070
     0
1002
}
1002
{
1000
BEHIND
1070
     0
1002
}
1002
{
1000
OTHER
1070
     0
1002
}
1002
{
1000
REACTOR
1002
}
  0
POINT
  5
1F5B
330
1F2E
100
AcDbEntity
  8
0
 60
     1
100
AcDbPoint
 10
5.551549769914529
 20
6.802672062052084
 30
0.0
1001
GENIUS_GENOLIS_13
1002
{
1000
ENT
1005
1F50
1005
1F4F
1005
1F4E
1005
1F4D
1002
}
1001
GENIUS_GENOENT_13
1002
{
1000
MYREF
1005
1F5B
1002
}
1002
{
1000
GRP
1005
0
1002
}
1001
GENIUS_GENOBJ-N-CRS_13
1002
{
1000
OWNER
1000
GEN
1002
}
1001
GENIUS_GENODEF_13
1002
{
1000
HIER
1070
    10
1002
}
1002
{
1000
MANEDIT
1070
     0
1002
}
1002
{
1000
NOSEL
1070
     0
1002
}
1002
{
1000
BEHIND
1070
     0
1002
}
1002
{
1000
OTHER
1070
     0
1002
}
1002
{
1000
REACTOR
1002
}
  0
POINT
  5
1F5C
330
1F2E
100
AcDbEntity
  8
0
 60
     1
100
AcDbPoint
 10
7.801549769914529
 20
6.802672062052084
 30
0.0
1001
GENIUS_GENOLIS_13
1002
{
1000
ENT
1005
1F4C
1005
1F4B
1005
1F4A
1005
1F49
1002
}
1001
GENIUS_GENOENT_13
1002
{
1000
MYREF
1005
1F5C
1002
}
1002
{
1000
GRP
1005
0
1002
}
1001
GENIUS_GENOBJ-N-CRS_13
1002
{
1000
OWNER
1000
GEN
1002
}
1001
GENIUS_GENODEF_13
1002
{
1000
HIER
1070
    10
1002
}
1002
{
1000
MANEDIT
1070
     0
1002
}
1002
{
1000
NOSEL
1070
     0
1002
}
1002
{
1000
BEHIND
1070
     0
1002
}
1002
{
1000
OTHER
1070
     0
1002
}
1002
{
1000
REACTOR
1002
}
  0
POINT
  5
1F5D
330
1F2E
100
AcDbEntity
  8
0
 60
     1
100
AcDbPoint
 10
7.801549769914529
 20
11.05267206205208
 30
0.0
1001
GENIUS_GENOLIS_13
1002
{
1000
ENT
1005
1F48
1005
1F47
1005
1F46
1005
1F45
1002
}
1001
GENIUS_GENOENT_13
1002
{
1000
MYREF
1005
1F5D
1002
}
1002
{
1000
GRP
1005
0
1002
}
1001
GENIUS_GENOBJ-N-CRS_13
1002
{
1000
OWNER
1000
GEN
1002
}
1001
GENIUS_GENODEF_13
1002
{
1000
HIER
1070
    10
1002
}
1002
{
1000
MANEDIT
1070
     0
1002
}
1002
{
1000
NOSEL
1070
     0
1002
}
1002
{
1000
BEHIND
1070
     0
1002
}
1002
{
1000
OTHER
1070
     0
1002
}
1002
{
1000
REACTOR
1002
}
  0
ENDBLK
  5
1F61
330
1F2E
100
AcDbEntity
  8
0
100
AcDbBlockEnd
  0
BLOCK
  5
201F
330
2014
100
AcDbEntity
  8
0
100
AcDbBlockBegin
  2
*D36
 70
     1
 10
0.0
 20
0.0
 30
0.0
  3
*D36
  1

  0
LINE
  5
2061
330
2014
100
AcDbEntity
  8
AM_5
 62
     0
440
 16777216
370
    -2
100
AcDbLine
 10
4.289743598155866
 20
18.09342006748474
 30
0.0
 11
2.109162077524842
 21
18.09342006748474
 31
0.0
  0
LINE
  5
2062
330
2014
100
AcDbEntity
  8
AM_5
 62
     0
440
 16777216
370
    -2
100
AcDbLine
 10
4.289743598155865
 20
1.218420067484737
 30
0.0
 11
2.109162077524838
 21
1.218420067484738
 31
0.0
  0
LINE
  5
2063
330
2014
100
AcDbEntity
  8
AM_5
 62
     0
440
 16777216
370
    -2
100
AcDbLine
 10
2.296662077524842
 20
17.90592006748474
 30
0.0
 11
2.296662077524841
 21
11.59221095630839
 31
0.0
  0
LINE
  5
2064
330
2014
100
AcDbEntity
  8
AM_5
 62
     0
440
 16777216
370
    -2
100
AcDbLine
 10
2.296662077524838
 20
1.405920067484738
 30
0.0
 11
2.296662077524841
 21
11.02971095630839
 31
0.0
  0
SOLID
  5
2065
330
2014
100
AcDbEntity
  8
AM_5
 62
     0
440
 16777216
100
AcDbTrace
 10
2.265412077524842
 20
17.90592006748474
 30
0.0
 11
2.327912077524842
 21
17.90592006748474
 31
0.0
 12
2.296662077524842
 22
18.09342006748474
 32
0.0
 13
2.296662077524842
 23
18.09342006748474
 33
0.0
  0
SOLID
  5
2066
330
2014
100
AcDbEntity
  8
AM_5
 62
     0
440
 16777216
100
AcDbTrace
 10
2.265412077524838
 20
1.405920067484738
 30
0.0
 11
2.327912077524838
 21
1.405920067484738
 31
0.0
 12
2.296662077524838
 22
1.218420067484738
 32
0.0
 13
2.296662077524838
 23
1.218420067484738
 33
0.0
  0
MTEXT
  5
2067
330
2014
100
AcDbEntity
  8
AM_5
 62
     0
440
 16777216
100
AcDbMText
 10
2.296662077524839
 20
11.31096095630839
 30
0.0
 40
0.1875
 41
0.0
 46
0.0
 71
     5
 72
     1
  1
\A1;16 7/8
 73
     1
 44
1.0
  0
POINT
  5
2068
330
2014
100
AcDbEntity
  8
DEFPOINTS
 62
     0
440
 16777216
100
AcDbPoint
 10
4.352243598155866
 20
18.09342006748474
 30
0.0
  0
POINT
  5
2069
330
2014
100
AcDbEntity
  8
DEFPOINTS
 62
     0
440
 16777216
100
AcDbPoint
 10
4.352243598155865
 20
1.218420067484737
 30
0.0
  0
POINT
  5
206A
330
2014
100
AcDbEntity
  8
DEFPOINTS
 62
     0
440
 16777216
100
AcDbPoint
 10
2.296662077524838
 20
1.218420067484738
 30
0.0
  0
ENDBLK
  5
2020
330
2014
100
AcDbEntity
  8
0
100
AcDbBlockEnd
  0
BLOCK
  5
202C
330
2021
100
AcDbEntity
  8
0
100
AcDbBlockBegin
  2
*D37
 70
     1
 10
0.0
 20
0.0
 30
0.0
  3
*D37
  1

  0
LINE
  5
206B
330
2021
100
AcDbEntity
  8
AM_5
 62
     0
440
 16777216
370
    -2
100
AcDbLine
 10
4.352243598155866
 20
18.15592006748474
 30
0.0
 11
4.352243598155866
 21
19.23180933384878
 31
0.0
  0
LINE
  5
206C
330
2021
100
AcDbEntity
  8
AM_5
 62
     0
440
 16777216
370
    -2
100
AcDbLine
 10
19.22724359815586
 20
18.15592006748471
 30
0.0
 11
19.22724359815586
 21
19.23180933384878
 31
0.0
  0
LINE
  5
206D
330
2021
100
AcDbEntity
  8
AM_5
 62
     0
440
 16777216
370
    -2
100
AcDbLine
 10
4.539743598155866
 20
19.04430933384878
 30
0.0
 11
11.10224359815586
 21
19.04430933384878
 31
0.0
  0
LINE
  5
206E
330
2021
100
AcDbEntity
  8
AM_5
 62
     0
440
 16777216
370
    -2
100
AcDbLine
 10
19.03974359815586
 20
19.04430933384878
 30
0.0
 11
12.47724359815586
 21
19.04430933384878
 31
0.0
  0
SOLID
  5
206F
330
2021
100
AcDbEntity
  8
AM_5
 62
     0
440
 16777216
100
AcDbTrace
 10
4.539743598155866
 20
19.07555933384878
 30
0.0
 11
4.539743598155866
 21
19.01305933384878
 31
0.0
 12
4.352243598155866
 22
19.04430933384878
 32
0.0
 13
4.352243598155866
 23
19.04430933384878
 33
0.0
  0
SOLID
  5
2070
330
2021
100
AcDbEntity
  8
AM_5
 62
     0
440
 16777216
100
AcDbTrace
 10
19.03974359815586
 20
19.07555933384878
 30
0.0
 11
19.03974359815586
 21
19.01305933384878
 31
0.0
 12
19.22724359815586
 22
19.04430933384878
 32
0.0
 13
19.22724359815586
 23
19.04430933384878
 33
0.0
  0
MTEXT
  5
2071
330
2021
100
AcDbEntity
  8
AM_5
 62
     0
440
 16777216
100
AcDbMText
 10
11.78974359815586
 20
19.04430933384878
 30
0.0
 40
0.1875
 41
0.0
 46
0.0
 71
     5
 72
     1
  1
\A1;14 7/8
 73
     1
 44
1.0
  0
POINT
  5
2072
330
2021
100
AcDbEntity
  8
DEFPOINTS
 62
     0
440
 16777216
100
AcDbPoint
 10
4.352243598155866
 20
18.09342006748474
 30
0.0
  0
POINT
  5
2073
330
2021
100
AcDbEntity
  8
DEFPOINTS
 62
     0
440
 16777216
100
AcDbPoint
 10
19.22724359815586
 20
18.09342006748471
 30
0.0
  0
POINT
  5
2074
330
2021
100
AcDbEntity
  8
DEFPOINTS
 62
     0
440
 16777216
100
AcDbPoint
 10
19.22724359815586
 20
19.04430933384878
 30
0.0
  0
ENDBLK
  5
202D
330
2021
100
AcDbEntity
  8
0
100
AcDbBlockEnd
  0
BLOCK
  5
203A
330
202E
100
AcDbEntity
  8
0
100
AcDbBlockBegin
  2
*D38
 70
     1
 10
0.0
 20
0.0
 30
0.0
  3
*D38
  1

  0
LINE
  5
20FE
330
202E
100
AcDbEntity
  8
AM_5
 62
     0
440
 16777216
370
    -2
100
AcDbLine
 10
4.289743598155866
 20
19.61342006748474
 30
0.0
 11
3.98428780044415
 21
19.61342006748474
 31
0.0
  0
LINE
  5
20FF
330
202E
100
AcDbEntity
  8
AM_5
 62
     0
440
 16777216
370
    -2
100
AcDbLine
 10
4.289743598155865
 20
19.67342006748472
 30
0.0
 11
3.98428780044415
 21
19.67342006748472
 31
0.0
  0
LINE
  5
2100
330
202E
100
AcDbEntity
  8
AM_5
 62
     0
440
 16777216
370
    -2
100
AcDbLine
 10
4.17178780044415
 20
19.42592006748474
 30
0.0
 11
4.17178780044415
 21
19.23842006748474
 31
0.0
  0
LINE
  5
2101
330
202E
100
AcDbEntity
  8
AM_5
 62
     0
440
 16777216
370
    -2
100
AcDbLine
 10
4.17178780044415
 20
19.86092006748472
 30
0.0
 11
4.17178780044415
 21
20.04842006748472
 31
0.0
  0
LINE
  5
2102
330
202E
100
AcDbEntity
  8
AM_5
 62
     0
440
 16777216
370
    -2
100
AcDbLine
 10
4.17178780044415
 20
20.04842006748472
 30
0.0
 11
4.35928780044415
 21
20.04842006748472
 31
0.0
  0
SOLID
  5
2103
330
202E
100
AcDbEntity
  8
AM_5
 62
     0
440
 16777216
100
AcDbTrace
 10
4.14053780044415
 20
19.42592006748474
 30
0.0
 11
4.20303780044415
 21
19.42592006748474
 31
0.0
 12
4.17178780044415
 22
19.61342006748474
 32
0.0
 13
4.17178780044415
 23
19.61342006748474
 33
0.0
  0
SOLID
  5
2104
330
202E
100
AcDbEntity
  8
AM_5
 62
     0
440
 16777216
100
AcDbTrace
 10
4.14053780044415
 20
19.86092006748472
 30
0.0
 11
4.20303780044415
 21
19.86092006748472
 31
0.0
 12
4.17178780044415
 22
19.67342006748472
 32
0.0
 13
4.17178780044415
 23
19.67342006748472
 33
0.0
  0
MTEXT
  5
2105
330
202E
100
AcDbEntity
  8
AM_5
 62
     0
440
 16777216
100
AcDbMText
 10
4.953037800444146
 20
20.04842006748472
 30
0.0
 40
0.1875
 41
0.0
 46
0.0
 71
     5
 72
     1
  1
\A1;0.0600
 73
     1
 44
1.0
  0
POINT
  5
2106
330
202E
100
AcDbEntity
  8
DEFPOINTS
 62
     0
440
 16777216
100
AcDbPoint
 10
4.352243598155866
 20
19.61342006748474
 30
0.0
  0
POINT
  5
2107
330
202E
100
AcDbEntity
  8
DEFPOINTS
 62
     0
440
 16777216
100
AcDbPoint
 10
4.352243598155865
 20
19.67342006748472
 30
0.0
  0
POINT
  5
2108
330
202E
100
AcDbEntity
  8
DEFPOINTS
 62
     0
440
 16777216
100
AcDbPoint
 10
4.17178780044415
 20
19.67342006748472
 30
0.0
  0
ENDBLK
  5
203B
330
202E
100
AcDbEntity
  8
0
100
AcDbBlockEnd
  0
BLOCK
  5
2047
330
203C
100
AcDbEntity
  8
0
100
AcDbBlockBegin
  2
*D39
 70
     1
 10
0.0
 20
0.0
 30
0.0
  3
*D39
  1

  0
LINE
  5
2080
330
203C
100
AcDbEntity
  8
AM_5
 62
     0
440
 16777216
370
    -2
100
AcDbLine
 10
4.664743598155865
 20
18.07842006748474
 30
0.0
 11
4.664743598155865
 21
18.75024470548353
 31
0.0
  0
LINE
  5
2081
330
203C
100
AcDbEntity
  8
AM_5
 62
     0
440
 16777216
370
    -2
100
AcDbLine
 10
18.91474359815586
 20
18.07842006748473
 30
0.0
 11
18.91474359815586
 21
18.75024470548353
 31
0.0
  0
LINE
  5
2082
330
203C
100
AcDbEntity
  8
AM_5
 62
     0
440
 16777216
370
    -2
100
AcDbLine
 10
4.852243598155865
 20
18.56274470548353
 30
0.0
 11
11.18697200073491
 21
18.56274470548353
 31
0.0
  0
LINE
  5
2083
330
203C
100
AcDbEntity
  8
AM_5
 62
     0
440
 16777216
370
    -2
100
AcDbLine
 10
18.72724359815586
 20
18.56274470548353
 30
0.0
 11
12.40572200073491
 21
18.56274470548353
 31
0.0
  0
SOLID
  5
2084
330
203C
100
AcDbEntity
  8
AM_5
 62
     0
440
 16777216
100
AcDbTrace
 10
4.852243598155865
 20
18.59399470548353
 30
0.0
 11
4.852243598155865
 21
18.53149470548353
 31
0.0
 12
4.664743598155865
 22
18.56274470548353
 32
0.0
 13
4.664743598155865
 23
18.56274470548353
 33
0.0
  0
SOLID
  5
2085
330
203C
100
AcDbEntity
  8
AM_5
 62
     0
440
 16777216
100
AcDbTrace
 10
18.72724359815586
 20
18.59399470548353
 30
0.0
 11
18.72724359815586
 21
18.53149470548353
 31
0.0
 12
18.91474359815586
 22
18.56274470548353
 32
0.0
 13
18.91474359815586
 23
18.56274470548353
 33
0.0
  0
MTEXT
  5
2086
330
203C
100
AcDbEntity
  8
AM_5
 62
     0
440
 16777216
100
AcDbMText
 10
11.79634700073491
 20
18.56274470548353
 30
0.0
 40
0.1875
 41
0.0
 46
0.0
 71
     5
 72
     1
  1
\A1;14.250
 73
     1
 44
1.0
  0
POINT
  5
2087
330
203C
100
AcDbEntity
  8
DEFPOINTS
 62
     0
440
 16777216
100
AcDbPoint
 10
4.664743598155865
 20
18.01592006748474
 30
0.0
  0
POINT
  5
2088
330
203C
100
AcDbEntity
  8
DEFPOINTS
 62
     0
440
 16777216
100
AcDbPoint
 10
18.91474359815586
 20
18.01592006748473
 30
0.0
  0
POINT
  5
2089
330
203C
100
AcDbEntity
  8
DEFPOINTS
 62
     0
440
 16777216
100
AcDbPoint
 10
18.91474359815586
 20
18.56274470548353
 30
0.0
  0
ENDBLK
  5
2048
330
203C
100
AcDbEntity
  8
0
100
AcDbBlockEnd
  0
BLOCK
  5
2054
330
2049
100
AcDbEntity
  8
0
100
AcDbBlockBegin
  2
*D40
 70
     1
 10
0.0
 20
0.0
 30
0.0
  3
*D40
  1

  0
LINE
  5
208A
330
2049
100
AcDbEntity
  8
AM_5
 62
     0
440
 16777216
370
    -2
100
AcDbLine
 10
4.367243598155866
 20
17.78092006748474
 30
0.0
 11
3.509969107160621
 21
17.78092006748474
 31
0.0
  0
LINE
  5
208B
330
2049
100
AcDbEntity
  8
AM_5
 62
     0
440
 16777216
370
    -2
100
AcDbLine
 10
4.367243598155866
 20
1.530920067484736
 30
0.0
 11
3.509969107160617
 21
1.530920067484736
 31
0.0
  0
LINE
  5
208C
330
2049
100
AcDbEntity
  8
AM_5
 62
     0
440
 16777216
370
    -2
100
AcDbLine
 10
3.697469107160621
 20
17.59342006748474
 30
0.0
 11
3.697469107160619
 21
11.57789329876163
 31
0.0
  0
LINE
  5
208D
330
2049
100
AcDbEntity
  8
AM_5
 62
     0
440
 16777216
370
    -2
100
AcDbLine
 10
3.697469107160617
 20
1.718420067484736
 30
0.0
 11
3.697469107160619
 21
11.01539329876163
 31
0.0
  0
SOLID
  5
208E
330
2049
100
AcDbEntity
  8
AM_5
 62
     0
440
 16777216
100
AcDbTrace
 10
3.666219107160621
 20
17.59342006748474
 30
0.0
 11
3.728719107160621
 21
17.59342006748474
 31
0.0
 12
3.697469107160621
 22
17.78092006748474
 32
0.0
 13
3.697469107160621
 23
17.78092006748474
 33
0.0
  0
SOLID
  5
208F
330
2049
100
AcDbEntity
  8
AM_5
 62
     0
440
 16777216
100
AcDbTrace
 10
3.666219107160617
 20
1.718420067484736
 30
0.0
 11
3.728719107160617
 21
1.718420067484736
 31
0.0
 12
3.697469107160617
 22
1.530920067484736
 32
0.0
 13
3.697469107160617
 23
1.530920067484736
 33
0.0
  0
MTEXT
  5
2090
330
2049
100
AcDbEntity
  8
AM_5
 62
     0
440
 16777216
100
AcDbMText
 10
3.697469107160618
 20
11.29664329876163
 30
0.0
 40
0.1875
 41
0.0
 46
0.0
 71
     5
 72
     1
  1
\A1;16.250
 73
     1
 44
1.0
  0
POINT
  5
2091
330
2049
100
AcDbEntity
  8
DEFPOINTS
 62
     0
440
 16777216
100
AcDbPoint
 10
4.429743598155866
 20
17.78092006748474
 30
0.0
  0
POINT
  5
2092
330
2049
100
AcDbEntity
  8
DEFPOINTS
 62
     0
440
 16777216
100
AcDbPoint
 10
4.429743598155866
 20
1.530920067484736
 30
0.0
  0
POINT
  5
2093
330
2049
100
AcDbEntity
  8
DEFPOINTS
 62
     0
440
 16777216
100
AcDbPoint
 10
3.697469107160617
 20
1.530920067484736
 30
0.0
  0
ENDBLK
  5
2055
330
2049
100
AcDbEntity
  8
0
100
AcDbBlockEnd
  0
BLOCK
  5
205F
330
2056
100
AcDbEntity
  8
0
100
AcDbBlockBegin
  2
*D41
 70
     1
 10
0.0
 20
0.0
 30
0.0
  3
*D41
  1

  0
LINE
  5
2094
330
2056
100
AcDbEntity
  8
CENTER
 62
     0
440
 16777216
370
    -2
100
AcDbLine
 10
4.4834901757541
 20
18.03548527890933
 30
0.0
 11
4.006892346220584
 21
18.70485320384028
 31
0.0
  0
LINE
  5
2095
330
2056
100
AcDbEntity
  8
CENTER
 62
     0
440
 16777216
370
    -2
100
AcDbLine
 10
4.006892346220584
 20
18.70485320384028
 30
0.0
 11
3.819392346220585
 21
18.70485320384028
 31
0.0
  0
SOLID
  5
2096
330
2056
100
AcDbEntity
  8
CENTER
 62
     0
440
 16777216
100
AcDbTrace
 10
4.508946696896559
 20
18.05361062114951
 30
0.0
 11
4.458033654611641
 21
18.01735993666916
 31
0.0
 12
4.59224222919516
 22
17.88274615205458
 32
0.0
 13
4.59224222919516
 23
17.88274615205458
 33
0.0
  0
MTEXT
  5
2097
330
2056
100
AcDbEntity
  8
CENTER
 62
     0
440
 16777216
100
AcDbMText
 10
3.116267346220582
 20
18.70485320384028
 30
0.0
 40
0.1875
 41
0.0
 46
0.0
 71
     5
 72
     1
  1
\A1;∅0.2500
 73
     1
 44
1.0
  0
LINE
  5
2098
330
2056
100
AcDbEntity
  8
CENTER
 62
     0
440
 16777216
370
    -2
100
AcDbLine
 10
4.570993598155868
 20
17.78092006748474
 30
0.0
 11
4.758493598155867
 21
17.78092006748474
 31
0.0
  0
LINE
  5
2099
330
2056
100
AcDbEntity
  8
CENTER
 62
     0
440
 16777216
370
    -2
100
AcDbLine
 10
4.664743598155869
 20
17.68717006748474
 30
0.0
 11
4.664743598155868
 21
17.87467006748474
 31
0.0
  0
POINT
  5
209A
330
2056
100
AcDbEntity
  8
DEFPOINTS
 62
     0
440
 16777216
100
AcDbPoint
 10
4.59224222919516
 20
17.88274615205458
 30
0.0
  0
POINT
  5
209B
330
2056
100
AcDbEntity
  8
DEFPOINTS
 62
     0
440
 16777216
100
AcDbPoint
 10
4.737244967116576
 20
17.6790939829149
 30
0.0
  0
ENDBLK
  5
2060
330
2056
100
AcDbEntity
  8
0
100
AcDbBlockEnd
  0
ENDSEC
  0
SECTION
  2
ENTITIES
  0
TEXT
  5
332
330
18
100
AcDbEntity
  8
TITLE
100
AcDbText
 10
26.10133602626719
 20
0.1086323560561015
 30
0.0
 40
0.075625
  1
DO NOT SCALE
 72
     1
 11
26.54248185960052
 21
0.1086323560561015
 31
0.0
100
AcDbText
  0
MTEXT
  5
1838
330
18
100
AcDbEntity
  8
TITLE
100
AcDbMText
 10
22.38756288951612
 20
1.340770873900851
 30
0.0
 40
0.125
 41
1.958686328020803
 46
0.0
 71
     1
 72
     5
  1
STAINLESS STEEL
 73
     1
 44
1.0
  0
MTEXT
  5
183B
330
18
100
AcDbEntity
  8
TITLE
100
AcDbMText
 10
26.14728355175436
 20
1.312142930202696
 30
0.0
 40
0.0625
 41
0.581055174187668
 46
0.0
 71
     1
 72
     5
  1
LB
 73
     1
 44
1.0
  0
MTEXT
  5
183D
330
18
100
AcDbEntity
  8
TITLE
100
AcDbMText
 10
26.65478743976019
 20
1.304794092076079
 30
0.0
 40
0.0625
 41
0.5589898283871549
 46
0.0
 71
     1
 72
     5
  1
8/28/07
 73
     1
 44
1.0
  0
MTEXT
  5
1841
330
18
100
AcDbEntity
  8
TITLE
100
AcDbMText
 10
27.76885862761469
 20
0.1580100595065801
 30
0.0
 40
0.0625
 41
1.322583478623243
 46
0.0
 71
     1
 72
     5
  1
BACK PANEL
 73
     1
 44
1.0
  0
MTEXT
  5
1849
330
18
100
AcDbEntity
  8
TITLE
100
AcDbMText
 10
30.28849529360858
 20
0.1687530726701709
 30
0.0
 40
0.0625
 41
0.7441470346873587
 46
0.0
 71
     1
 72
     5
  1
HW-MP1816SS
 73
     1
 44
1.0
  0
MTEXT
  5
184C
330
18
100
AcDbEntity
  8
TITLE
100
AcDbMText
 10
30.33780336471949
 20
1.726683941855895
 30
0.0
 40
0.0625
 41
0.335370238472052
 46
0.0
 71
     1
 72
     5
  1
.010
 73
     1
 44
1.0
  0
MTEXT
  5
184E
330
18
100
AcDbEntity
  8
TITLE
100
AcDbMText
 10
31.11654450161117
 20
1.715325226263828
 30
0.0
 40
0.0625
 41
0.5286345070554717
 46
0.0
 71
     1
 72
     5
  1
1/32
 73
     1
 44
1.0
  0
LINE
  5
1FE5
330
18
100
AcDbEntity
  8
0
100
AcDbLine
 10
4.352243598155865
 20
1.218420067484736
 30
0.0
 11
6.352243598155865
 21
1.218420067484736
 31
0.0
  0
LINE
  5
1FE6
330
18
100
AcDbEntity
  8
0
100
AcDbLine
 10
6.352243598155865
 20
1.218420067484736
 30
0.0
 11
19.22724359815586
 21
1.218420067484736
 31
0.0
  0
LINE
  5
1FE7
330
18
100
AcDbEntity
  8
0
100
AcDbLine
 10
19.22724359815586
 20
1.218420067484736
 30
0.0
 11
19.22724359815586
 21
17.21842006748473
 31
0.0
  0
LINE
  5
1FE8
330
18
100
AcDbEntity
  8
0
100
AcDbLine
 10
19.22724359815586
 20
17.21842006748473
 30
0.0
 11
19.22724359815586
 21
18.09342006748471
 31
0.0
  0
LINE
  5
1FE9
330
18
100
AcDbEntity
  8
0
100
AcDbLine
 10
19.22724359815586
 20
18.09342006748471
 30
0.0
 11
4.352243598155866
 21
18.09342006748474
 31
0.0
  0
LINE
  5
1FEA
330
18
100
AcDbEntity
  8
0
100
AcDbLine
 10
4.352243598155866
 20
18.09342006748474
 30
0.0
 11
4.352243598155865
 21
1.218420067484737
 31
0.0
  0
DIMENSION
  5
1FEB
330
18
100
AcDbEntity
  8
AM_5
100
AcDbDimension
280
     0
  2
*D36
 10
2.296662077524838
 20
1.218420067484738
 30
0.0
 11
2.296662077524839
 21
11.31096095630839
 31
0.0
 70
   160
  1
<>
 71
     5
 42
16.875
 73
     0
 74
     0
 75
     0
  3
STANDARD$0
100
AcDbAlignedDimension
 13
4.352243598155866
 23
18.09342006748474
 33
0.0
 14
4.352243598155865
 24
1.218420067484737
 34
0.0
 50
90.0
100
AcDbRotatedDimension
1001
ACAD
1000
DSTYLE
1002
{
1070
   140
1040
0.1875
1070
    41
1040
0.1875
1070
    43
1040
0.375
1070
    44
1040
0.1875
1070
   141
1040
0.09375
1070
   147
1040
0.1875
1070
   271
1070
     5
1070
   276
1070
     2
1070
   277
1070
     5
1070
   289
1070
     0
1002
}
  0
LINE
  5
1FED
330
18
100
AcDbEntity
  8
0
100
AcDbLine
 10
19.22724359815586
 20
19.67342006748479
 30
0.0
 11
4.352243598155865
 21
19.67342006748472
 31
0.0
  0
LINE
  5
1FEE
330
18
100
AcDbEntity
  8
0
100
AcDbLine
 10
4.352243598155865
 20
19.67342006748472
 30
0.0
 11
4.352243598155866
 21
19.61342006748474
 31
0.0
  0
DIMENSION
  5
1FEF
330
18
100
AcDbEntity
  8
AM_5
100
AcDbDimension
280
     0
  2
*D37
 10
19.22724359815586
 20
19.04430933384878
 30
0.0
 11
11.78974359815586
 21
19.04430933384878
 31
0.0
 70
    32
 71
     5
 42
14.875
 73
     0
 74
     0
 75
     0
  3
STANDARD$0
100
AcDbAlignedDimension
 13
4.352243598155866
 23
18.09342006748474
 33
0.0
 14
19.22724359815586
 24
18.09342006748471
 34
0.0
100
AcDbRotatedDimension
1001
ACAD
1000
DSTYLE
1002
{
1070
   140
1040
0.1875
1070
    40
1040
1.0
1070
   144
1040
1.0
1070
    41
1040
0.1875
1070
    43
1040
0.375
1070
    44
1040
0.1875
1070
   141
1040
0.09375
1070
   147
1040
0.1875
1070
   271
1070
     5
1070
   276
1070
     2
1070
   277
1070
     5
1070
   289
1070
     0
1002
}
  0
DIMENSION
  5
1FF0
330
18
100
AcDbEntity
  8
AM_5
100
AcDbDimension
280
     0
  2
*D38
 10
4.17178780044415
 20
19.67342006748472
 30
0.0
 11
4.953037800444146
 21
20.04842006748472
 31
0.0
 70
    32
 71
     5
 42
0.0599999999999845
 73
     0
 74
     0
 75
     0
  3
STANDARD$0
100
AcDbAlignedDimension
 13
4.352243598155866
 23
19.61342006748474
 33
0.0
 14
4.352243598155865
 24
19.67342006748472
 34
0.0
 50
90.0
100
AcDbRotatedDimension
1001
ACAD
1000
DSTYLE
1002
{
1070
   140
1040
0.1875
1070
    40
1040
1.0
1070
   144
1040
1.0
1070
    41
1040
0.1875
1070
    43
1040
0.375
1070
    44
1040
0.1875
1070
   141
1040
0.09375
1070
   147
1040
0.1875
1070
   271
1070
     4
1070
   276
1070
     2
1070
   277
1070
     2
1070
   289
1070
     0
1002
}
  0
CIRCLE
  5
1FF1
330
18
100
AcDbEntity
  8
0
100
AcDbCircle
 10
4.664743598155865
 20
17.78092006748474
 30
0.0
 40
0.125
  0
CIRCLE
  5
1FF2
330
18
100
AcDbEntity
  8
0
100
AcDbCircle
 10
18.91474359815586
 20
17.78092006748473
 30
0.0
 40
0.125
  0
CIRCLE
  5
1FF3
330
18
100
AcDbEntity
  8
0
100
AcDbCircle
 10
18.91474359815586
 20
1.530920067484736
 30
0.0
 40
0.125
  0
CIRCLE
  5
1FF4
330
18
100
AcDbEntity
  8
0
100
AcDbCircle
 10
4.664743598155865
 20
1.530920067484736
 30
0.0
 40
0.125
  0
DIMENSION
  5
1FF5
330
18
100
AcDbEntity
  8
AM_5
100
AcDbDimension
280
     0
  2
*D39
 10
18.91474359815586
 20
18.56274470548353
 30
0.0
 11
11.79634700073491
 21
18.56274470548353
 31
0.0
 70
   160
 71
     5
 42
14.25
 73
     0
 74
     0
 75
     0
  3
STANDARD$0
100
AcDbAlignedDimension
 13
4.664743598155865
 23
18.01592006748474
 33
0.0
 14
18.91474359815586
 24
18.01592006748473
 34
0.0
100
AcDbRotatedDimension
1001
ACAD
1000
DSTYLE
1002
{
1070
   140
1040
0.1875
1070
    40
1040
1.0
1070
   144
1040
1.0
1070
    41
1040
0.1875
1070
    43
1040
0.375
1070
    44
1040
0.1875
1070
   141
1040
0.09375
1070
   147
1040
0.1875
1070
   271
1070
     3
1070
   276
1070
     2
1070
   277
1070
     2
1070
   289
1070
     0
1002
}
  0
DIMENSION
  5
1FF6
330
18
100
AcDbEntity
  8
AM_5
100
AcDbDimension
280
     0
  2
*D40
 10
3.697469107160617
 20
1.530920067484736
 30
0.0
 11
3.697469107160618
 21
11.29664329876163
 31
0.0
 70
   160
 71
     5
 42
16.25
 73
     0
 74
     0
 75
     0
  3
STANDARD$0
100
AcDbAlignedDimension
 13
4.429743598155866
 23
17.78092006748474
 33
0.0
 14
4.429743598155866
 24
1.530920067484736
 34
0.0
 50
90.0
100
AcDbRotatedDimension
1001
ACAD
1000
DSTYLE
1002
{
1070
   140
1040
0.1875
1070
    40
1040
1.0
1070
   144
1040
1.0
1070
    41
1040
0.1875
1070
    43
1040
0.375
1070
    44
1040
0.1875
1070
   141
1040
0.09375
1070
   147
1040
0.1875
1070
   271
1070
     3
1070
   276
1070
     2
1070
   277
1070
     2
1070
   289
1070
     0
1002
}
  0
LINE
  5
1FF7
330
18
100
AcDbEntity
  8
CENTER
  6
CENTER2
 48
0.1
100
AcDbLine
 10
4.664743598155865
 20
17.78092006748474
 30
0.0
 11
4.899743598155866
 21
17.78092006748474
 31
0.0
1001
GENIUS_GENOREF_13
1005
2013
  0
LINE
  5
1FF8
330
18
100
AcDbEntity
  8
CENTER
  6
CENTER2
 48
0.1
100
AcDbLine
 10
4.664743598155865
 20
17.78092006748474
 30
0.0
 11
4.664743598155865
 21
18.01592006748474
 31
0.0
1001
GENIUS_GENOREF_13
1005
2013
  0
LINE
  5
1FF9
330
18
100
AcDbEntity
  8
CENTER
  6
CENTER2
 48
0.1
100
AcDbLine
 10
4.664743598155865
 20
17.78092006748474
 30
0.0
 11
4.429743598155866
 21
17.78092006748474
 31
0.0
1001
GENIUS_GENOREF_13
1005
2013
  0
LINE
  5
1FFA
330
18
100
AcDbEntity
  8
CENTER
  6
CENTER2
 48
0.1
100
AcDbLine
 10
4.664743598155865
 20
17.78092006748474
 30
0.0
 11
4.664743598155865
 21
17.54592006748474
 31
0.0
1001
GENIUS_GENOREF_13
1005
2013
  0
LINE
  5
1FFB
330
18
100
AcDbEntity
  8
CENTER
  6
CENTER2
 48
0.1
100
AcDbLine
 10
18.91474359815586
 20
17.78092006748473
 30
0.0
 11
19.14974359815586
 21
17.78092006748473
 31
0.0
1001
GENIUS_GENOREF_13
1005
2012
  0
LINE
  5
1FFC
330
18
100
AcDbEntity
  8
CENTER
  6
CENTER2
 48
0.1
100
AcDbLine
 10
18.91474359815586
 20
17.78092006748473
 30
0.0
 11
18.91474359815586
 21
18.01592006748473
 31
0.0
1001
GENIUS_GENOREF_13
1005
2012
  0
LINE
  5
1FFD
330
18
100
AcDbEntity
  8
CENTER
  6
CENTER2
 48
0.1
100
AcDbLine
 10
18.91474359815586
 20
17.78092006748473
 30
0.0
 11
18.67974359815586
 21
17.78092006748473
 31
0.0
1001
GENIUS_GENOREF_13
1005
2012
  0
LINE
  5
1FFE
330
18
100
AcDbEntity
  8
CENTER
  6
CENTER2
 48
0.1
100
AcDbLine
 10
18.91474359815586
 20
17.78092006748473
 30
0.0
 11
18.91474359815586
 21
17.54592006748473
 31
0.0
1001
GENIUS_GENOREF_13
1005
2012
  0
LINE
  5
1FFF
330
18
100
AcDbEntity
  8
CENTER
  6
CENTER2
 48
0.1
100
AcDbLine
 10
18.91474359815586
 20
1.530920067484736
 30
0.0
 11
19.14974359815586
 21
1.530920067484736
 31
0.0
1001
GENIUS_GENOREF_13
1005
2011
  0
LINE
  5
2000
330
18
100
AcDbEntity
  8
CENTER
  6
CENTER2
 48
0.1
100
AcDbLine
 10
18.91474359815586
 20
1.530920067484736
 30
0.0
 11
18.91474359815586
 21
1.765920067484735
 31
0.0
1001
GENIUS_GENOREF_13
1005
2011
  0
LINE
  5
2001
330
18
100
AcDbEntity
  8
CENTER
  6
CENTER2
 48
0.1
100
AcDbLine
 10
18.91474359815586
 20
1.530920067484736
 30
0.0
 11
18.67974359815586
 21
1.530920067484736
 31
0.0
1001
GENIUS_GENOREF_13
1005
2011
  0
LINE
  5
2002
330
18
100
AcDbEntity
  8
CENTER
  6
CENTER2
 48
0.1
100
AcDbLine
 10
18.91474359815586
 20
1.530920067484736
 30
0.0
 11
18.91474359815586
 21
1.295920067484736
 31
0.0
1001
GENIUS_GENOREF_13
1005
2011
  0
LINE
  5
2003
330
18
100
AcDbEntity
  8
CENTER
  6
CENTER2
 48
0.1
100
AcDbLine
 10
4.664743598155865
 20
1.530920067484736
 30
0.0
 11
4.899743598155865
 21
1.530920067484736
 31
0.0
1001
GENIUS_GENOREF_13
1005
2010
  0
LINE
  5
2004
330
18
100
AcDbEntity
  8
CENTER
  6
CENTER2
 48
0.1
100
AcDbLine
 10
4.664743598155865
 20
1.530920067484736
 30
0.0
 11
4.664743598155865
 21
1.765920067484735
 31
0.0
1001
GENIUS_GENOREF_13
1005
2010
  0
LINE
  5
2005
330
18
100
AcDbEntity
  8
CENTER
  6
CENTER2
 48
0.1
100
AcDbLine
 10
4.664743598155865
 20
1.530920067484736
 30
0.0
 11
4.429743598155866
 21
1.530920067484736
 31
0.0
1001
GENIUS_GENOREF_13
1005
2010
  0
LINE
  5
2006
330
18
100
AcDbEntity
  8
CENTER
  6
CENTER2
 48
0.1
100
AcDbLine
 10
4.664743598155865
 20
1.530920067484736
 30
0.0
 11
4.664743598155865
 21
1.295920067484736
 31
0.0
1001
GENIUS_GENOREF_13
1005
2010
  0
DIMENSION
  5
2007
330
18
100
AcDbEntity
  8
CENTER
100
AcDbDimension
280
     0
  2
*D41
 10
4.737244967116576
 20
17.6790939829149
 30
0.0
 11
3.116267346220582
 21
18.70485320384028
 31
0.0
 70
   163
 71
     5
 42
0.2500000000000035
 73
     0
 74
     0
 75
     0
  3
STANDARD
100
AcDbDiametricDimension
 15
4.59224222919516
 25
17.88274615205458
 35
0.0
 40
0.0
1001
ACAD
1000
DSTYLE
1002
{
1070
   140
1040
0.1875
1070
    41
1040
0.1875
1070
    43
1040
0.375
1070
    44
1040
0.1875
1070
   141
1040
0.09375
1070
   147
1040
0.1875
1070
   271
1070
     4
1070
   276
1070
     2
1070
   277
1070
     2
1070
   289
1070
     0
1002
}
  0
TEXT
  5
2008
330
18
100
AcDbEntity
  8
CENTER
100
AcDbText
 10
2.473430178000569
 20
18.63453389754604
 30
0.0
 40
0.125
  1
4X
100
AcDbText
  0
LINE
  5
2009
330
18
100
AcDbEntity
  8
0
100
AcDbLine
 10
19.22724359815586
 20
19.67342006748474
 30
0.0
 11
19.22724359815586
 21
19.61342006748471
 31
0.0
  0
LINE
  5
200A
330
18
100
AcDbEntity
  8
AM_9
100
AcDbLine
 10
4.789743598155866
 20
19.61342006748474
 30
0.0
 11
4.789743598155866
 21
19.67342006748472
 31
0.0
  0
LINE
  5
200B
330
18
100
AcDbEntity
  8
CENTER
 48
0.1
100
AcDbLine
 10
4.664743598155867
 20
19.46842006748474
 30
0.0
 11
4.664743598155864
 21
19.79842006748472
 31
0.0
  0
LINE
  5
200C
330
18
100
AcDbEntity
  8
AM_9
100
AcDbLine
 10
4.539743598155865
 20
19.61342006748474
 30
0.0
 11
4.539743598155865
 21
19.67342006748472
 31
0.0
  0
LINE
  5
200D
330
18
100
AcDbEntity
  8
AM_9
100
AcDbLine
 10
19.03974359815587
 20
19.61342006748471
 30
0.0
 11
19.03974359815587
 21
19.67342006748478
 31
0.0
  0
LINE
  5
200E
330
18
100
AcDbEntity
  8
CENTER
 48
0.1
100
AcDbLine
 10
18.91474359815587
 20
19.46842006748472
 30
0.0
 11
18.91474359815586
 21
19.79842006748478
 31
0.0
  0
LINE
  5
200F
330
18
100
AcDbEntity
  8
AM_9
100
AcDbLine
 10
18.78974359815586
 20
19.61342006748471
 30
0.0
 11
18.78974359815586
 21
19.67342006748478
 31
0.0
  0
POINT
  5
2010
330
18
100
AcDbEntity
  8
0
 60
     1
100
AcDbPoint
 10
7.348211891170365
 20
8.236026854511681
 30
0.0
1001
GENIUS_GENOLIS_13
1002
{
1000
ENT
1005
2006
1005
2005
1005
2004
1005
2003
1002
}
1001
GENIUS_GENOENT_13
1002
{
1000
MYREF
1005
2010
1002
}
1002
{
1000
GRP
1005
0
1002
}
1001
GENIUS_GENOBJ-N-CRS_13
1002
{
1000
OWNER
1000
GEN
1002
}
1001
GENIUS_GENODEF_13
1002
{
1000
HIER
1070
    10
1002
}
1002
{
1000
MANEDIT
1070
     0
1002
}
1002
{
1000
NOSEL
1070
     0
1002
}
1002
{
1000
BEHIND
1070
     0
1002
}
1002
{
1000
OTHER
1070
     0
1002
}
1002
{
1000
REACTOR
1002
}
  0
POINT
  5
2011
330
18
100
AcDbEntity
  8
0
 60
     1
100
AcDbPoint
 10
9.598211891170365
 20
8.236026854511681
 30
0.0
1001
GENIUS_GENOLIS_13
1002
{
1000
ENT
1005
2002
1005
2001
1005
2000
1005
1FFF
1002
}
1001
GENIUS_GENOENT_13
1002
{
1000
MYREF
1005
2011
1002
}
1002
{
1000
GRP
1005
0
1002
}
1001
GENIUS_GENOBJ-N-CRS_13
1002
{
1000
OWNER
1000
GEN
1002
}
1001
GENIUS_GENODEF_13
1002
{
1000
HIER
1070
    10
1002
}
1002
{
1000
MANEDIT
1070
     0
1002
}
1002
{
1000
NOSEL
1070
     0
1002
}
1002
{
1000
BEHIND
1070
     0
1002
}
1002
{
1000
OTHER
1070
     0
1002
}
1002
{
1000
REACTOR
1002
}
  0
POINT
  5
2012
330
18
100
AcDbEntity
  8
0
 60
     1
100
AcDbPoint
 10
9.598211891170365
 20
12.48602685451168
 30
0.0
1001
GENIUS_GENOLIS_13
1002
{
1000
ENT
1005
1FFE
1005
1FFD
1005
1FFC
1005
1FFB
1002
}
1001
GENIUS_GENOENT_13
1002
{
1000
MYREF
1005
2012
1002
}
1002
{
1000
GRP
1005
0
1002
}
1001
GENIUS_GENOBJ-N-CRS_13
1002
{
1000
OWNER
1000
GEN
1002
}
1001
GENIUS_GENODEF_13
1002
{
1000
HIER
1070
    10
1002
}
1002
{
1000
MANEDIT
1070
     0
1002
}
1002
{
1000
NOSEL
1070
     0
1002
}
1002
{
1000
BEHIND
1070
     0
1002
}
1002
{
1000
OTHER
1070
     0
1002
}
1002
{
1000
REACTOR
1002
}
  0
POINT
  5
2013
330
18
100
AcDbEntity
  8
0
 60
     1
100
AcDbPoint
 10
7.348211891170365
 20
12.48602685451168
 30
0.0
1001
GENIUS_GENOLIS_13
1002
{
1000
ENT
1005
1FFA
1005
1FF9
1005
1FF8
1005
1FF7
1002
}
1001
GENIUS_GENOENT_13
1002
{
1000
MYREF
1005
2013
1002
}
1002
{
1000
GRP
1005
0
1002
}
1001
GENIUS_GENOBJ-N-CRS_13
1002
{
1000
OWNER
1000
GEN
1002
}
1001
GENIUS_GENODEF_13
1002
{
1000
HIER
1070
    10
1002
}
1002
{
1000
MANEDIT
1070
     0
1002
}
1002
{
1000
NOSEL
1070
     0
1002
}
1002
{
1000
BEHIND
1070
     0
1002
}
1002
{
1000
OTHER
1070
     0
1002
}
1002
{
1000
REACTOR
1002
}
  0
LINE
  5
20FB
330
18
100
AcDbEntity
  8
0
100
AcDbLine
 10
4.352243598155866
 20
19.61342006748474
 30
0.0
 11
19.22724359815586
 21
19.61342006748471
 31
0.0
  0
TEXT
  5
2156
330
18
100
AcDbEntity
  8
TITLE
 62
     1
100
AcDbText
 10
31.00852845841571
 20
1.598995989110274
 30
0.0
 40
0.077625
  1
-
  7
ITALIC
100
AcDbText
  0
TEXT
  5
2157
330
18
100
AcDbEntity
  8
TITLE
 62
     1
100
AcDbText
 10
31.00852845841571
 20
1.67489017895729
 30
0.0
 40
0.077625
  1
+
  7
ITALIC
100
AcDbText
  0
TEXT
  5
2158
330
18
100
AcDbEntity
  8
TITLE
 62
     1
100
AcDbText
 10
31.00852845841571
 20
1.821601531544219
 30
0.0
 40
0.077625
  1
FRACTIONAL
  7
ITALIC
100
AcDbText
  0
TEXT
  5
2159
330
18
100
AcDbEntity
  8
TITLE
 62
     1
100
AcDbText
 10
30.2387790146668
 20
1.599420352371773
 30
0.0
 40
0.077625
  1
-
  7
ITALIC
100
AcDbText
  0
TEXT
  5
215A
330
18
100
AcDbEntity
  8
TITLE
 62
     1
100
AcDbText
 10
30.2387790146668
 20
1.678182472211949
 30
0.0
 40
0.077625
  1
+
  7
ITALIC
100
AcDbText
  0
TEXT
  5
215B
330
18
100
AcDbEntity
  8
TITLE
 62
     1
100
AcDbText
 10
30.2387790146668
 20
1.824893824798871
 30
0.0
 40
0.077625
  1
DECIMAL
  7
ITALIC
100
AcDbText
  0
TEXT
  5
215C
330
18
100
AcDbEntity
  8
TITLE
 62
     1
100
AcDbText
 10
28.96371705089771
 20
1.821543163203228
 30
0.0
 40
0.077625
  1
TOLERANCES
  7
ITALIC
 72
     1
 11
29.33890455089771
 21
1.821543163203228
 31
0.0
100
AcDbText
  0
LINE
  5
215D
330
18
100
AcDbEntity
  8
TITLE
 62
     1
100
AcDbLine
 10
28.66750000000187
 20
2.019999999999999
 30
0.0
 11
28.66750000000187
 21
1.52
 31
0.0
  0
TEXT
  5
215E
330
18
100
AcDbEntity
  8
TITLE
 62
     1
100
AcDbText
 10
28.75671705089771
 20
1.638334226222779
 30
0.0
 40
0.077625
  1
UNLESS SPECIFIED
  7
ITALIC
 72
     1
 11
29.33890455089771
 21
1.638334226222779
 31
0.0
100
AcDbText
  0
TEXT
  5
215F
330
18
100
AcDbEntity
  8
TITLE
 62
     1
100
AcDbText
 10
26.72356982918361
 20
1.411363898473141
 30
0.0
 40
0.07
  1
DATE
  7
ITALIC
 72
     1
 11
26.85190316251694
 21
1.411363898473141
 31
0.0
100
AcDbText
  0
TEXT
  5
2160
330
18
100
AcDbEntity
  8
TITLE
 62
     1
100
AcDbText
 10
26.73095331604248
 20
1.036028150302191
 30
0.0
 40
0.077
  1
DATE
  7
ITALIC
 72
     1
 11
26.87211998270915
 21
1.036028150302191
 31
0.0
100
AcDbText
  0
TEXT
  5
2161
330
18
100
AcDbEntity
  8
TITLE
100
AcDbText
 10
26.06634814273045
 20
1.413090487379109
 30
0.0
 40
0.07
  1
DR. BY
  7
ITALIC
 72
     1
 11
26.24134814273045
 21
1.413090487379109
 31
0.0
100
AcDbText
  0
TEXT
  5
2162
330
18
100
AcDbEntity
  8
TITLE
100
AcDbText
 10
25.983190416017
 20
1.036028150302191
 30
0.0
 40
0.077
  1
CHK. BY
  7
ITALIC
 72
     1
 11
26.214190416017
 21
1.036028150302191
 31
0.0
100
AcDbText
  0
LINE
  5
2163
330
18
100
AcDbEntity
  8
TITLE
 62
     1
100
AcDbLine
 10
30.7161469812032
 20
0.3949999999999998
 30
0.0
 11
30.7161469812032
 21
0.7699999999999998
 31
0.0
  0
TEXT
  5
2164
330
18
100
AcDbEntity
  8
TITLE
 62
     1
100
AcDbText
 10
29.73395570483342
 20
0.2603476771033955
 30
0.0
 40
0.0847
  1
PART NO.
  7
ITALIC
100
AcDbText
  0
LINE
  5
2165
330
18
100
AcDbEntity
  8
TITLE
 62
     1
100
AcDbLine
 10
29.60500000000187
 20
0.3949999999999998
 30
0.0
 11
29.60500000000187
 21
0.019999999999998
 31
0.0
  0
TEXT
  5
2166
330
18
100
AcDbEntity
  8
TITLE
 62
     1
100
AcDbText
 10
27.28316524226153
 20
0.2551247456628447
 30
0.0
 40
0.0847
  1
PART NAME
  7
ITALIC
100
AcDbText
  0
TEXT
  5
2167
330
18
100
AcDbEntity
  8
TITLE
 62
     1
100
AcDbText
 10
27.27133108199639
 20
0.6262791008855413
 30
0.0
 40
0.0847
  1
CUSTOMER
  7
ITALIC
 72
     2
 11
27.92069774866305
 21
0.6262791008855413
 31
0.0
100
AcDbText
  0
TEXT
  5
2168
330
18
100
AcDbEntity
  8
TITLE
 62
     1
100
AcDbText
 10
26.73717193198477
 20
0.6612203616450885
 30
0.0
 40
0.077
  1
DATE
  7
ITALIC
 72
     1
 11
26.87833859865143
 21
0.6612203616450885
 31
0.0
100
AcDbText
  0
TEXT
  5
2169
330
18
100
AcDbEntity
  8
TITLE
100
AcDbText
 10
25.983190416017
 20
0.6583714899502425
 30
0.0
 40
0.077
  1
APD. BY
  7
ITALIC
 72
     1
 11
26.214190416017
 21
0.6583714899502425
 31
0.0
100
AcDbText
  0
TEXT
  5
216A
330
18
100
AcDbEntity
  8
TITLE
100
AcDbText
 10
26.36736136698859
 20
0.2606476355994629
 30
0.0
 40
0.077
  1
SCALE
  7
ITALIC
 72
     1
 11
26.54702803365525
 21
0.2606476355994629
 31
0.0
100
AcDbText
  0
LINE
  5
216B
330
18
100
AcDbEntity
  8
TITLE
 62
     1
100
AcDbLine
 10
26.54250000000188
 20
1.520000000000001
 30
0.0
 11
26.54250000000188
 21
0.3950000000000007
 31
0.0
  0
LINE
  5
216C
330
18
100
AcDbEntity
  8
TITLE
 62
     1
100
AcDbLine
 10
27.16750000000188
 20
1.519999999999997
 30
0.0
 11
27.16750000000188
 21
0.0199999999999989
 31
0.0
  0
LINE
  5
216D
330
18
100
AcDbEntity
  8
TITLE
 62
     1
100
AcDbLine
 10
31.98000000000187
 20
0.7699999999999998
 30
0.0
 11
27.16750000000188
 21
0.7699999999999998
 31
0.0
  0
TEXT
  5
216E
330
18
100
AcDbEntity
  8
TITLE
 62
     1
100
AcDbText
 10
30.76284169851883
 20
0.6633735539934874
 30
0.0
 40
0.0625
  1
AutoCAD DWG. FILE
100
AcDbText
  0
TEXT
  5
216F
330
18
100
AcDbEntity
  8
TITLE
100
AcDbText
 10
25.5726912806374
 20
1.018134033388606
 30
0.0
 40
0.077
  1
CHD.
  7
ITALIC
 72
     1
 11
25.6881912806374
 21
1.018134033388606
 31
0.0
100
AcDbText
  0
TEXT
  5
2170
330
18
100
AcDbEntity
  8
TITLE
100
AcDbText
 10
25.19128875550244
 20
1.027630272371425
 30
0.0
 40
0.077
  1
BY
  7
ITALIC
 72
     1
 11
25.25545542216911
 21
1.027630272371425
 31
0.0
100
AcDbText
  0
TEXT
  5
2171
330
18
100
AcDbEntity
  8
TITLE
100
AcDbText
 10
24.60559266957249
 20
1.022882152880016
 30
0.0
 40
0.077
  1
DATE
  7
ITALIC
 72
     1
 11
24.74675933623915
 21
1.022882152880016
 31
0.0
100
AcDbText
  0
TEXT
  5
2172
330
18
100
AcDbEntity
  8
TITLE
100
AcDbText
 10
21.7187183665341
 20
2.069194271646891
 30
0.0
 40
0.07
  1
NOTES:
  7
ITALIC
100
AcDbText
  0
TEXT
  5
2173
330
18
100
AcDbEntity
  8
TITLE
100
AcDbText
 10
21.63093344085823
 20
1.027630272371425
 30
0.0
 40
0.077
  1
LET.
  7
ITALIC
 72
     1
 11
21.74643344085823
 21
1.027630272371425
 31
0.0
100
AcDbText
  0
TEXT
  5
2174
330
18
100
AcDbEntity
  8
TITLE
100
AcDbText
 10
21.70683914735286
 20
1.381397857861143
 30
0.0
 40
0.077
  1
MATERIAL
  7
ITALIC
100
AcDbText
  0
LINE
  5
2175
330
18
100
AcDbEntity
  8
TITLE
100
AcDbLine
 10
25.91750000000188
 20
0.9574999999999997
 30
0.0
 11
21.48000000000187
 21
0.9575000000000015
 31
0.0
  0
TEXT
  5
2176
330
18
100
AcDbEntity
  8
TITLE
100
AcDbText
 10
22.60137075033691
 20
1.018134033388606
 30
0.0
 40
0.077
  1
REVISION RECORD
  7
ITALIC
 72
     1
 11
23.15320408367024
 21
1.018134033388606
 31
0.0
100
AcDbText
  0
LINE
  5
2177
330
18
100
AcDbEntity
  8
TITLE
100
AcDbLine
 10
25.91750000000188
 20
0.2074999999999989
 30
0.0
 11
21.48000000000187
 21
0.2075000000000016
 31
0.0
  0
LINE
  5
2178
330
18
100
AcDbEntity
  8
TITLE
100
AcDbLine
 10
25.91750000000188
 20
0.5824999999999998
 30
0.0
 11
21.48000000000187
 21
0.5825000000000016
 31
0.0
  0
LINE
  5
2179
330
18
100
AcDbEntity
  8
TITLE
100
AcDbLine
 10
21.48000000000187
 20
2.020000000000001
 30
0.0
 11
21.48000000000187
 21
0.0199999999999998
 31
0.0
  0
LINE
  5
217A
330
18
100
AcDbEntity
  8
TITLE
100
AcDbLine
 10
21.98000000000187
 20
1.144999999999999
 30
0.0
 11
21.98000000000187
 21
0.0199999999999998
 31
0.0
  0
LINE
  5
217B
330
18
100
AcDbEntity
  8
TITLE
100
AcDbLine
 10
24.48000000000187
 20
1.145000000000001
 30
0.0
 11
24.48000000000187
 21
0.0200000000000016
 31
0.0
  0
LINE
  5
217C
330
18
100
AcDbEntity
  8
TITLE
100
AcDbLine
 10
25.04250000000187
 20
1.145000000000001
 30
0.0
 11
25.04250000000187
 21
0.0200000000000025
 31
0.0
  0
LINE
  5
217D
330
18
100
AcDbEntity
  8
TITLE
100
AcDbLine
 10
25.48000000000187
 20
1.145000000000001
 30
0.0
 11
25.48000000000187
 21
0.0200000000000034
 31
0.0
  0
LINE
  5
217E
330
18
100
AcDbEntity
  8
TITLE
100
AcDbLine
 10
25.91750000000188
 20
1.519999999999999
 30
0.0
 11
25.91750000000188
 21
0.0199999999999989
 31
0.0
  0
LINE
  5
217F
330
18
100
AcDbEntity
  8
TITLE
100
AcDbLine
 10
31.98000000000187
 20
2.019999999999999
 30
0.0
 11
21.48000000000187
 21
2.020000000000001
 31
0.0
  0
LINE
  5
2180
330
18
100
AcDbEntity
  8
TITLE
100
AcDbLine
 10
28.66750000000187
 20
1.77
 30
0.0
 11
21.48000000000187
 21
1.770000000000001
 31
0.0
  0
LINE
  5
2181
330
18
100
AcDbEntity
  8
TITLE
100
AcDbLine
 10
31.98000000000187
 20
1.519999999999999
 30
0.0
 11
21.48000000000187
 21
1.520000000000001
 31
0.0
  0
LINE
  5
2182
330
18
100
AcDbEntity
  8
TITLE
100
AcDbLine
 10
27.16750000000188
 20
1.144999999999999
 30
0.0
 11
21.48000000000187
 21
1.145000000000001
 31
0.0
  0
LINE
  5
2183
330
18
100
AcDbEntity
  8
TITLE
100
AcDbLine
 10
27.16750000000188
 20
0.7699999999999998
 30
0.0
 11
21.48000000000187
 21
0.7700000000000016
 31
0.0
  0
LINE
  5
2184
330
18
100
AcDbEntity
  8
TITLE
100
AcDbLine
 10
31.98000000000187
 20
0.3949999999999998
 30
0.0
 11
21.48000000000187
 21
0.3950000000000016
 31
0.0
  0
POLYLINE
  5
2185
330
18
100
AcDbEntity
  8
TITLE
100
AcDb2dPolyline
 66
     1
 10
0.0
 20
0.0
 30
0.0
 70
     1
  0
VERTEX
  5
2186
330
2185
100
AcDbEntity
  8
TITLE
100
AcDbVertex
100
AcDb2dVertex
 10
31.98000000000189
 20
20.85500000000138
 30
0.0
  0
VERTEX
  5
2187
330
2185
100
AcDbEntity
  8
TITLE
100
AcDbVertex
100
AcDb2dVertex
 10
0.0199999999999971
 20
20.85500000000138
 30
0.0
  0
VERTEX
  5
2188
330
2185
100
AcDbEntity
  8
TITLE
100
AcDbVertex
100
AcDb2dVertex
 10
0.0199999999999998
 20
0.0199999999999998
 30
0.0
  0
VERTEX
  5
2189
330
2185
100
AcDbEntity
  8
TITLE
100
AcDbVertex
100
AcDb2dVertex
 10
31.98000000000187
 20
0.0199999999999998
 30
0.0
  0
SEQEND
  5
218A
330
2185
100
AcDbEntity
  8
TITLE
  0
POLYLINE
  5
218B
330
18
100
AcDbEntity
  8
TITLE
100
AcDb2dPolyline
 66
     1
 10
0.0
 20
0.0
 30
0.0
 70
     1
  0
VERTEX
  5
218C
330
218B
100
AcDbEntity
  8
TITLE
100
AcDbVertex
100
AcDb2dVertex
 10
32.00000000000188
 20
20.87500000000138
 30
0.0
  0
VERTEX
  5
218D
330
218B
100
AcDbEntity
  8
TITLE
100
AcDbVertex
100
AcDb2dVertex
 10
-0.0000000000000036
 20
20.87500000000138
 30
0.0
  0
VERTEX
  5
218E
330
218B
100
AcDbEntity
  8
TITLE
100
AcDbVertex
100
AcDb2dVertex
 10
0.0
 20
0.0
 30
0.0
  0
VERTEX
  5
218F
330
218B
100
AcDbEntity
  8
TITLE
100
AcDbVertex
100
AcDb2dVertex
 10
32.00000000000187
 20
0.0
 30
0.0
  0
SEQEND
  5
2190
330
218B
100
AcDbEntity
  8
TITLE
  0
POLYLINE
  5
2191
330
18
100
AcDbEntity
  8
TITLE
100
AcDb2dPolyline
 66
     1
 10
0.0
 20
0.0
 30
0.0
 70
     1
  0
VERTEX
  5
2192
330
2191
100
AcDbEntity
  8
TITLE
100
AcDbVertex
100
AcDb2dVertex
 10
31.99000000000189
 20
20.86500000000139
 30
0.0
  0
VERTEX
  5
2193
330
2191
100
AcDbEntity
  8
TITLE
100
AcDbVertex
100
AcDb2dVertex
 10
0.0099999999999971
 20
20.86500000000139
 30
0.0
  0
VERTEX
  5
2194
330
2191
100
AcDbEntity
  8
TITLE
100
AcDbVertex
100
AcDb2dVertex
 10
0.0099999999999998
 20
0.0099999999999998
 30
0.0
  0
VERTEX
  5
2195
330
2191
100
AcDbEntity
  8
TITLE
100
AcDbVertex
100
AcDb2dVertex
 10
31.99000000000187
 20
0.0099999999999998
 30
0.0
  0
SEQEND
  5
2196
330
2191
100
AcDbEntity
  8
TITLE
  0
TEXT
  5
21A1
330
18
100
AcDbEntity
  8
TITLE
100
AcDbText
 10
27.27083872026663
 20
1.004370607599557
 30
0.0
 40
0.3277153312421063
  1
HUBBELL WIEGMANN
  7
STYLE1
100
AcDbText
  0
TEXT
  5
21D4
330
18
100
AcDbEntity
  8
TITLE
100
AcDbText
 10
30.78534304336826
 20
0.4957276251843556
 30
0.0
 40
0.104625
  1
HW-MP1816CS
100
AcDbText
  0
ENDSEC
  0
SECTION
  2
OBJECTS
  0
DICTIONARY
  5
C
330
0
100
AcDbDictionary
281
     1
  3
ACAD_COLOR
350
15D0
  3
ACAD_GROUP
350
D
  3
ACAD_LAYOUT
350
15D3
  3
ACAD_MATERIAL
350
15CF
  3
ACAD_MLEADERSTYLE
350
21BF
  3
ACAD_MLINESTYLE
350
E
  3
ACAD_PLOTSETTINGS
350
15D4
  3
ACAD_PLOTSTYLENAME
350
15CD
  3
ACAD_SCALELIST
350
21AD
  3
ACAD_TABLESTYLE
350
15D1
  3
ACAD_VISUALSTYLE
350
20CE
  3
AcAmCatalogState
350
1633
  3
ACDB_RECOMPOSE_DATA
350
21DD
  3
AcDbVariableDictionary
350
1851
  3
ACDMSYSVARMGR
350
15F2
  3
ACGREF_MASTER
350
15EC
  3
ACGREFACAD_MASTER
350
1613
  3
AcmDictionary
350
1631
  3
ACME_BOM_MANAGER_NAME
350
15E6
  3
ACME_COMMAND_HISTORY
350
15E3
  3
ACME_SCOPE_NAME
350
15E2
  3
ACMESTATEMGR
350
15EB
  3
AcmeSysVarManager
350
15E4
  3
AcmSystemVariableManager
350
163C
  3
AD_APPL
350
161E
  3
ADSYSVARMGR
350
161D
  3
AmdtNamedDwgMgr
350
160E
  3
AMG
350
15DB
  3
AMGSNAPSETTINGS
350
1672
  3
AMI_MASTER
350
1616
  3
AUTOCAD_ASSEMBLIES_PROJECT
350
1626
  3
Designer_Assemblies_SysVars
350
1621
  3
GREFAM_MODULE
350
1617
  3
StructToggleButtonState
350
20FA
  0
DICTIONARY
  5
21C9
330
2
100
AcDbDictionary
280
     1
281
     1
  3
ACAD_LAYERSTATES
360
21CA
  0
DICTIONARY
  5
20FC
330
18
100
AcDbDictionary
280
     1
281
     1
  3
ACAD_SORTENTS
360
20FD
  0
DICTIONARY
  5
16FD
330
16CF
100
AcDbDictionary
280
     1
281
     1
  3
ACAD_SORTENTS
360
16FE
  0
DICTIONARY
  5
1B68
330
1B2D
100
AcDbDictionary
280
     1
281
     1
  3
ACAD_SORTENTS
360
1B69
  0
DICTIONARY
  5
1C0E
330
1BD3
100
AcDbDictionary
280
     1
281
     1
  3
ACAD_SORTENTS
360
1C0F
  0
DICTIONARY
  5
1F5E
330
1F2E
100
AcDbDictionary
280
     1
281
     1
  3
ACAD_SORTENTS
360
1F5F
  0
DICTIONARY
  5
15D0
102
{ACAD_REACTORS
330
C
102
}
330
C
100
AcDbDictionary
281
     1
  0
DICTIONARY
  5
D
102
{ACAD_REACTORS
330
C
102
}
330
C
100
AcDbDictionary
281
     1
  0
DICTIONARY
  5
15D3
102
{ACAD_REACTORS
330
C
102
}
330
C
100
AcDbDictionary
281
     1
  3
Layout1
350
15D6
  3
Model
350
15D5
  0
DICTIONARY
  5
15CF
102
{ACAD_REACTORS
330
C
102
}
330
C
100
AcDbDictionary
281
     1
  3
ByBlock
350
20CC
  3
ByLayer
350
20CB
  3
Global
350
20CD
  0
DICTIONARY
  5
21BF
102
{ACAD_REACTORS
330
C
102
}
330
C
100
AcDbDictionary
281
     1
  3
Standard
350
21C0
  0
DICTIONARY
  5
E
102
{ACAD_REACTORS
330
C
102
}
330
C
100
AcDbDictionary
281
     1
  3
STANDARD
350
1B
  0
DICTIONARY
  5
15D4
102
{ACAD_REACTORS
330
C
102
}
330
C
100
AcDbDictionary
281
     1
  0
ACDBDICTIONARYWDFLT
  5
15CD
102
{ACAD_REACTORS
330
C
102
}
330
C
100
AcDbDictionary
281
     1
  3
Normal
350
15CE
100
AcDbDictionaryWithDefault
340
15CE
  0
DICTIONARY
  5
21AD
102
{ACAD_REACTORS
330
C
102
}
330
C
100
AcDbDictionary
281
     1
  3
A0
350
21AE
  3
A1
350
21AF
  3
A2
350
21B0
  3
A3
350
21B1
  3
A4
350
21B2
  3
A5
350
21B3
  3
A6
350
21B4
  3
A7
350
21B5
  3
A8
350
21B6
  3
A9
350
21B7
  3
B0
350
21B8
  3
B1
350
21B9
  3
B2
350
21BA
  3
B3
350
21BB
  3
B4
350
21BC
  3
B5
350
21BD
  3
B6
350
21BE
  0
DICTIONARY
  5
15D1
102
{ACAD_REACTORS
330
C
102
}
330
C
100
AcDbDictionary
281
     1
  3
Standard
350
15D2
  0
DICTIONARY
  5
20CE
102
{ACAD_REACTORS
330
C
102
}
330
C
100
AcDbDictionary
281
     1
  3
2dWireframe
350
20D4
  3
3D Hidden
350
20D6
  3
3dWireframe
350
20D5
  3
Basic
350
20D3
  3
Brighten
350
20DA
  3
ColorChange
350
20DE
  3
Conceptual
350
20D7
  3
Dim
350
20D9
  3
EdgeColorOff
350
21AC
  3
Facepattern
350
20DD
  3
Flat
350
20CF
  3
FlatWithEdges
350
20D0
  3
Gouraud
350
20D1
  3
GouraudWithEdges
350
20D2
  3
Hidden
350
21A4
  3
JitterOff
350
21AA
  3
Linepattern
350
20DC
  3
OverhangOff
350
21AB
  3
Realistic
350
20D8
  3
Shaded
350
21A9
  3
Shaded with edges
350
21A8
  3
Shades of Gray
350
21A5
  3
Sketchy
350
21A6
  3
Thicken
350
20DB
  3
Wireframe
350
21A3
  3
X-Ray
350
21A7
  0
ACAD_PROXY_OBJECT
  5
1633
102
{ACAD_REACTORS
330
C
102
}
330
C
100
AcDbProxyObject
 90
      499
 91
      545
 95
    65563
 70
     0
162
                42
311
4091C00E800C
161
               190
310
3FFFFFFFE00A0281403002068AD30B41E0803FF100200C04
 94
        0
1001
ACAD
1000
AcRTDxfName
1000
CATALOGSTATE
1000
AcRTDxfName
1000
CATALOGSTATE
  0
XRECORD
  5
21DD
102
{ACAD_REACTORS
330
C
102
}
330
C
100
AcDbXrecord
280
     1
 90
        1
330
15D2
  0
DICTIONARY
  5
1851
102
{ACAD_REACTORS
330
C
102
}
330
C
100
AcDbDictionary
281
     1
  3
CANNOSCALE
350
21D7
  3
CMLEADERSTYLE
350
21D5
  3
CTABLESTYLE
350
1852
  3
DIMASSOC
350
20BB
  3
LAYEREVAL
350
21D9
  3
LAYERNOTIFY
350
21DA
  3
LIGHTINGUNITS
350
21D8
  3
MSLTSCALE
350
21D6
  3
PROJECTNAME
350
20BC
  0
ACAD_PROXY_OBJECT
  5
15F2
102
{ACAD_REACTORS
330
C
102
}
330
C
100
AcDbProxyObject
 90
      499
 91
      506
 95
    65563
 70
     0
162
                 0
161
               240
310
4C51A47A000000000000000000000000000000000000000000000000000000
330
15F3
330
15F4
330
15F5
330
15F6
330
15F7
330
15F8
330
15F9
330
15FA
330
15FB
330
15FC
330
15FD
330
15FE
330
15FF
330
1600
330
1601
330
1602
330
1603
330
1604
330
1605
330
1606
330
1607
330
1608
330
1609
330
160A
330
160B
330
160C
 94
        0
1001
ACAD
1000
AcRTDxfName
1000
ACIMSYSVARMAN
1000
AcRTDxfName
1000
ACIMSYSVARMAN
  0
ACAD_PROXY_OBJECT
  5
15EC
102
{ACAD_REACTORS
330
C
102
}
330
C
100
AcDbProxyObject
 90
      499
 91
      514
 95
    65563
 70
     0
162
                 0
161
                34
310
040000428C
 94
        0
1001
ACAD
1000
AcRTDxfName
1000
ACGREFMASTER
1000
AcRTDxfName
1000
ACGREFMASTER
  0
ACAD_PROXY_OBJECT
  5
1613
102
{ACAD_REACTORS
330
C
102
}
330
C
100
AcDbProxyObject
 90
      499
 91
      523
 95
    65563
 70
     0
162
                 0
161
               114
310
04000041C08000000000000000000C
 94
        0
1001
ACAD
1000
AcRTDxfName
1000
ACGREFACADMASTER
1000
AcRTDxfName
1000
ACGREFACADMASTER
  0
DICTIONARY
  5
1631
102
{ACAD_REACTORS
330
C
102
}
330
C
100
AcDbDictionary
281
     1
  3
AcmBOMDATA
350
1632
  3
AcmStdDictionary
350
163E
  3
AMDTSECTSYM_ARROWCOLOR
350
165D
  0
ACAD_PROXY_OBJECT
  5
15E6
102
{ACAD_REACTORS
330
C
102
}
330
C
100
AcDbProxyObject
 90
      499
 91
      508
 95
    65563
 70
     0
162
                 0
161
                50
310
0001004040000C
330
0
330
0
330
15E7
 94
        0
1001
ACAD
1000
AcRTDxfName
1000
ACMEDRAWINGMAN
1000
AcRTDxfName
1000
ACMEDRAWINGMAN
  0
ACAD_PROXY_OBJECT
  5
15E3
102
{ACAD_REACTORS
330
C
102
}
330
C
100
AcDbProxyObject
 90
      499
 91
      505
 95
    65563
 70
     0
162
              5342
311
41168013C013C013401045A004F004F004D0041168013C013C013401045A004F004F004D0041168013C013C013401045A004F004F004D0041168013C013C013401065300410056004500410053004C134014C011C008000B4008001400140010400E80080008000800190019401CC01AC01D001BC01C000B8018401C801E00
311
080011801A401B001940158019401C801CC01A401BC01B800E8008000C400C400B800C000B800D800C800B800C800C001054500520041005300450041168013C013C0134010455004E0044004F004115401380110013C010455004E0044004F004193C01180118014C01140150010545005200410053004500411500148012
311
4013401045A004F004F004D004194C0104015801140104014C01304D005300470020002D0020005000500041003A002000200020006400650073006B0074006F0070002E006100720078002000460069006C006500560065007200730069006F006E003A002000310031002E0030002E00360032002E003200300043904013
311
40110015001480114014C01140150011001080134013C011001084E0020002D00200055004E0044004F0042138008000B40080015401380110013C010455004E0044004F004115401380110013C01074500580050004C004F00440045004151401480104014C011401095000410053005400450043004C00490050004154C0
311
10C01040130011401044D004F005600450041134013C0158011401064D005400450044004900540041168013C013C013401065300410056004500410053004C134014C011C008000B4008001400140010400E80080008000800190019401CC01AC01D001BC01C000B8018401C801E00080011801A401B001940158019401C8
311
01CC01A401BC01B800E8008000C400C400B800C000B800D800C800B800C800C000
161
               382
310
478060180601806018060140404060180601806018060180601404040502010101806018060180601806018060140404
 94
        0
1001
ACAD
1000
AcRTDxfName
1000
ACMECOMMANDHISTORY
1000
AcRTDxfName
1000
ACMECOMMANDHISTORY
  0
ACAD_PROXY_OBJECT
  5
15E2
102
{ACAD_REACTORS
330
C
102
}
330
C
100
AcDbProxyObject
 90
      499
 91
      504
 95
    65563
 70
     0
162
                 0
161
               562
310
0B000049808000000000000000001314D600000000000000000000000000000000000000000000000000000000000000000000000000000000000000000000000000AAA406AA8C
360
15E5
360
15E7
360
15ED
360
15EE
360
15EF
360
15F0
360
15F3
360
15F4
360
15F5
360
15F6
360
15F7
360
15F8
360
15F9
360
15FA
360
15FB
360
15FC
360
15FD
360
15FE
360
15FF
360
1600
360
1601
360
1602
360
1603
360
1604
360
1605
360
1606
360
1607
360
1608
360
1609
360
160A
360
160B
360
160C
360
1619
360
161A
360
161B
360
161C
360
1622
360
1623
360
1624
360
1625
360
162A
360
162B
360
162C
360
162D
360
162E
360
162F
360
163D
360
1DA7
360
20F1
 94
        0
1001
ACAD
1000
AcRTDxfName
1000
ACMESCOPE
1000
AcRTDxfName
1000
ACMESCOPE
  0
ACAD_PROXY_OBJECT
  5
15EB
102
{ACAD_REACTORS
330
C
102
}
330
C
100
AcDbProxyObject
 90
      499
 91
      513
 95
    65563
 70
     0
162
                 0
161
                50
310
0B000042E4128C
 94
        0
1001
ACAD
1000
AcRTDxfName
1000
ACMESTATEMGR
1000
AcRTDxfName
1000
ACMESTATEMGR
  0
ACAD_PROXY_OBJECT
  5
15E4
102
{ACAD_REACTORS
330
C
102
}
330
C
100
AcDbProxyObject
 90
      499
 91
      506
 95
    65563
 70
     0
162
                 0
161
                32
310
90140A0000
330
15E5
 94
        0
1001
ACAD
1000
AcRTDxfName
1000
ACIMSYSVARMAN
1000
AcRTDxfName
1000
ACIMSYSVARMAN
  0
ACAD_PROXY_OBJECT
  5
163C
102
{ACAD_REACTORS
330
C
102
}
330
C
100
AcDbProxyObject
 90
      499
 91
      506
 95
    65563
 70
     0
162
                 0
161
                40
310
90240E000000
330
163D
330
1DA7
 94
        0
1001
ACAD
1000
AcRTDxfName
1000
ACIMSYSVARMAN
1000
AcRTDxfName
1000
ACIMSYSVARMAN
  0
ACAD_PROXY_OBJECT
  5
161E
102
{ACAD_REACTORS
330
C
102
}
330
C
100
AcDbProxyObject
 90
      499
 91
      533
 95
    65563
 70
     0
162
                 0
161
                34
310
000B00008C
330
1619
 94
        0
1001
ACAD
1000
AcRTDxfName
1000
NAMEDAPPL
1000
AcRTDxfName
1000
NAMEDAPPL
  0
ACAD_PROXY_OBJECT
  5
161D
102
{ACAD_REACTORS
330
C
102
}
330
C
100
AcDbProxyObject
 90
      499
 91
      506
 95
    65563
 70
     0
162
                 0
161
                 8
310
AA0F
 94
        0
1001
ACAD
1000
AcRTDxfName
1000
ACIMSYSVARMAN
1000
AcRTDxfName
1000
ACIMSYSVARMAN
  0
ACAD_PROXY_OBJECT
  5
160E
102
{ACAD_REACTORS
330
C
102
}
330
C
100
AcDbProxyObject
 90
      499
 91
      520
 95
    65563
 70
     0
162
                 0
161
                42
310
000100005E8C
330
15ED
 94
        0
1001
ACAD
1000
AcRTDxfName
1000
AM_DWGMGR_NAME
1000
AcRTDxfName
1000
AM_DWGMGR_NAME
  0
DICTIONARY
  5
15DB
102
{ACAD_REACTORS
330
C
102
}
330
C
100
AcDbDictionary
281
     1
  3
AcMgSettings
350
15DC
  3
AMGLAYCFG
350
1640
  0
DICTIONARY
  5
1672
102
{ACAD_REACTORS
330
C
102
}
330
C
100
AcDbDictionary
281
     1
  3
DIMENSION
350
1677
  3
FEA
350
1676
  3
HATCH (1)
350
1673
  3
HATCH (2)
350
1674
  3
SIMPLE WELD
350
1678
  3
SYMBOLS
350
1675
  0
ACAD_PROXY_OBJECT
  5
1616
102
{ACAD_REACTORS
330
C
102
}
330
C
100
AcDbProxyObject
 90
      499
 91
      526
 95
    65563
 70
     0
162
                 0
161
                34
310
050000428C
 94
        0
1001
ACAD
1000
AcRTDxfName
1000
AMIMASTER
1000
AcRTDxfName
1000
AMIMASTER
  0
ACAD_PROXY_OBJECT
  5
1626
102
{ACAD_REACTORS
330
C
102
}
330
C
100
AcDbProxyObject
 90
      499
 91
      537
 95
    65563
 70
     0
162
                 0
161
                98
310
0B00005000000000000000000C
330
162D
330
0
330
162E
330
0
330
0
330
0
330
0
330
0
 94
        0
1001
ACAD
1000
AcRTDxfName
1000
ACAMPROJECT
1000
AcRTDxfName
1000
ACAMPROJECT
  0
ACAD_PROXY_OBJECT
  5
1621
102
{ACAD_REACTORS
330
C
102
}
330
C
100
AcDbProxyObject
 90
      499
 91
      506
 95
    65563
 70
     0
162
                 0
161
                64
310
90541A0000000000D8
330
1622
330
1623
330
1624
330
1625
330
20F1
 94
        0
1001
ACAD
1000
AcRTDxfName
1000
ACIMSYSVARMAN
1000
AcRTDxfName
1000
ACIMSYSVARMAN
  0
ACAD_PROXY_OBJECT
  5
1617
102
{ACAD_REACTORS
330
C
102
}
330
C
100
AcDbProxyObject
 90
      499
 91
      527
 95
    65563
 70
     0
162
                 0
161
                 8
310
050F
 94
        0
1001
ACAD
1000
AcRTDxfName
1000
MAPIAMMOUDLE
1000
AcRTDxfName
1000
MAPIAMMOUDLE
  0
ACAD_PROXY_OBJECT
  5
20FA
102
{ACAD_REACTORS
330
C
102
}
330
C
100
AcDbProxyObject
 90
      499
 91
      576
 95
    65563
 70
     0
162
                 0
161
                 1
310
4C
 94
        0
  0
DICTIONARY
  5
21CA
102
{ACAD_REACTORS
330
21C9
102
}
330
21C9
100
AcDbDictionary
281
     1
  0
SORTENTSTABLE
  5
20FD
102
{ACAD_REACTORS
330
20FC
102
}
330
20FC
100
AcDbSortentsTable
330
18
331
2180
  5
2138
331
2177
  5
200C
331
1FFA
  5
2172
331
2181
  5
2149
331
1FFB
  5
2173
331
218B
  5
2151
331
2182
  5
214D
331
1FFC
  5
2174
331
2183
  5
214E
331
1FFD
  5
2175
331
2184
  5
214F
331
1FFE
  5
2176
331
2008
  5
2180
331
2185
  5
2150
331
1FFF
  5
2177
331
2009
  5
2181
331
2000
  5
2178
331
200A
  5
2182
331
2001
  5
2179
331
200B
  5
2183
331
2191
  5
2152
331
2002
  5
217A
331
200C
  5
2184
331
2003
  5
217B
331
2004
  5
217C
331
200D
  5
2185
331
2005
  5
217D
331
200E
  5
218B
331
2006
  5
217E
331
200F
  5
2191
331
2007
  5
217F
331
1838
  5
2156
331
20FB
  5
2164
331
183B
  5
2157
331
183D
  5
2158
331
1849
  5
215A
331
1841
  5
2159
331
184C
  5
215B
331
2156
  5
1FEA
331
2157
  5
1FEB
331
184E
  5
215C
331
2158
  5
1FED
331
2159
  5
1FEE
331
215A
  5
1FEF
331
215B
  5
1FF0
331
215C
  5
1FF1
331
215D
  5
1FF2
331
215E
  5
1FF3
331
332
  5
332
331
215F
  5
1FF4
331
2168
  5
1FFD
331
2160
  5
1FF5
331
2169
  5
1FFE
331
1FE5
  5
215D
331
2161
  5
1FF6
331
216A
  5
1FFF
331
216B
  5
2000
331
1FE6
  5
215E
331
2162
  5
1FF7
331
216C
  5
2001
331
1FE7
  5
215F
331
2163
  5
1FF8
331
1FF0
  5
2168
331
216D
  5
2002
331
1FE8
  5
2160
331
2164
  5
1FF9
331
1FF1
  5
2169
331
216E
  5
2003
331
1FE9
  5
2161
331
2165
  5
1FFA
331
1FF2
  5
216A
331
2178
  5
200D
331
216F
  5
2004
331
1FEA
  5
2162
331
2166
  5
1FFB
331
1FF3
  5
216B
331
2179
  5
200E
331
2170
  5
2005
331
1FEB
  5
2163
331
2167
  5
1FFC
331
1FF4
  5
216C
331
217A
  5
200F
331
2171
  5
2006
331
1FF5
  5
216D
331
217B
  5
20FB
331
2172
  5
2007
331
1FED
  5
2165
331
1FF6
  5
216E
331
217C
  5
2124
331
2173
  5
2008
331
1FEE
  5
2166
331
1FF7
  5
216F
331
2174
  5
2009
331
1FEF
  5
2167
331
217D
  5
2125
331
1FF8
  5
2170
331
2175
  5
200A
331
217E
  5
2126
331
217F
  5
2127
331
2176
  5
200B
331
1FF9
  5
2171
  0
SORTENTSTABLE
  5
16FE
102
{ACAD_REACTORS
330
16FD
102
}
330
16FD
100
AcDbSortentsTable
330
16CF
  0
SORTENTSTABLE
  5
1B69
102
{ACAD_REACTORS
330
1B68
102
}
330
1B68
100
AcDbSortentsTable
330
1B2D
  0
SORTENTSTABLE
  5
1C0F
102
{ACAD_REACTORS
330
1C0E
102
}
330
1C0E
100
AcDbSortentsTable
330
1BD3
  0
SORTENTSTABLE
  5
1F5F
102
{ACAD_REACTORS
330
1F5E
102
}
330
1F5E
100
AcDbSortentsTable
330
1F2E
  0
LAYOUT
  5
15D6
102
{ACAD_REACTORS
330
15D3
102
}
330
15D3
100
AcDbPlotSettings
  1

  2
\\beldingdc\HP LaserJet 4 Sales
  4

  6

 40
0.0
 41
0.0
 42
0.0
 43
0.0
 44
0.0
 45
0.0
 46
0.0
 47
0.0
 48
0.0
 49
0.0
140
0.0
141
0.0
142
1.0
143
1.0
 70
   688
 72
     0
 73
     0
 74
     5
  7

 75
    16
147
1.0
 76
     0
 77
     2
 78
   300
148
0.0
149
0.0
100
AcDbLayout
  1
Layout1
 70
     1
 71
     1
 10
0.0
 20
0.0
 11
12.0
 21
9.0
 12
0.0
 22
0.0
 32
0.0
 14
1.000000000000000E+20
 24
1.000000000000000E+20
 34
1.000000000000000E+20
 15
-1.000000000000000E+20
 25
-1.000000000000000E+20
 35
-1.000000000000000E+20
146
0.0
 13
0.0
 23
0.0
 33
0.0
 16
1.0
 26
0.0
 36
0.0
 17
0.0
 27
1.0
 37
0.0
 76
     0
330
15
  0
LAYOUT
  5
15D5
102
{ACAD_REACTORS
330
15D3
102
}
330
15D3
100
AcDbPlotSettings
  1

  2
HP DesignJet 500 24 by HP
  4
User265
  6

 40
4.995333194732666
 41
16.97568893432617
 42
4.99530029296875
 43
16.97564697265625
 44
558.7576293945312
 45
863.5153198242187
 46
3.776419897700683
 47
-0.0000000000000261
 48
0.0
 49
0.0
140
0.0
141
0.0
142
1.0
143
0.9798283741716847
 70
 11956
 72
     0
 73
     1
 74
     1
  7

 75
     0
147
1.020586897011803
 76
     0
 77
     2
 78
   300
148
0.005220989113789
149
0.021138390632561
100
AcDbLayout
  1
Model
 70
     1
 71
     0
 10
0.0
 20
0.0
 11
12.0
 21
9.0
 12
0.0
 22
0.0
 32
0.0
 14
0.0
 24
0.0
 34
0.0
 15
0.0
 25
0.0
 35
0.0
146
0.0
 13
0.0
 23
0.0
 33
0.0
 16
1.0
 26
0.0
 36
0.0
 17
0.0
 27
1.0
 37
0.0
 76
     0
330
18
331
20C4
1001
ACAD_PSEXT
1000
HP DesignJet 500 24 by HP
1000
HP DesignJet 500 24 by HP
1000
USB001
1000

1070
     0
  0
MATERIAL
  5
20CC
102
{ACAD_REACTORS
330
15CF
102
}
330
15CF
100
AcDbMaterial
  1
ByBlock
 73
     1
 78
     1
172
     1
176
     1
270
     1
274
     1
 94
       63
  0
MATERIAL
  5
20CB
102
{ACAD_REACTORS
330
15CF
102
}
330
15CF
100
AcDbMaterial
  1
ByLayer
 73
     1
 78
     1
172
     1
176
     1
270
     1
274
     1
 94
       63
  0
MATERIAL
  5
20CD
102
{ACAD_REACTORS
330
15CF
102
}
330
15CF
100
AcDbMaterial
  1
Global
 73
     1
 78
     1
172
     1
176
     1
270
     1
274
     1
 94
       63
  0
MLEADERSTYLE
  5
21C0
102
{ACAD_REACTORS
330
21BF
102
}
330
21BF
100
AcDbMLeaderStyle
179
     2
170
     2
171
     1
172
     0
 90
        2
 40
0.0
 41
0.0
173
     1
 91
-1056964608
340
12
 92
       -2
290
     1
 42
0.09
291
     1
 43
0.36
  3
Standard
 44
0.18
300

342
10
174
     1
178
     6
175
     1
176
     0
 93
-1056964608
 45
0.18
292
     0
297
     0
 46
0.18
 94
-1056964608
 47
1.0
 49
1.0
140
1.0
293
     1
141
0.0
294
     1
177
     0
142
1.0
295
     1
296
     0
143
0.125
271
     0
272
     9
273
     9
  0
MLINESTYLE
  5
1B
102
{ACAD_REACTORS
330
E
102
}
330
E
100
AcDbMlineStyle
  2
STANDARD
 70
     0
  3

 62
     0
 51
90.0
 52
90.0
 71
     2
 49
0.5
 62
   256
  6
BYLAYER
 49
-0.5
 62
   256
  6
BYLAYER
  0
ACDBPLACEHOLDER
  5
15CE
102
{ACAD_REACTORS
330
15CD
102
}
330
15CD
  0
SCALE
  5
21AE
102
{ACAD_REACTORS
330
21AD
102
}
330
21AD
100
AcDbScale
 70
     0
300
1:1
140
1.0
141
1.0
290
     1
  0
SCALE
  5
21AF
102
{ACAD_REACTORS
330
21AD
102
}
330
21AD
100
AcDbScale
 70
     0
300
1/128" = 1'-0"
140
0.0078125
141
12.0
290
     0
  0
SCALE
  5
21B0
102
{ACAD_REACTORS
330
21AD
102
}
330
21AD
100
AcDbScale
 70
     0
300
1/64" = 1'-0"
140
0.015625
141
12.0
290
     0
  0
SCALE
  5
21B1
102
{ACAD_REACTORS
330
21AD
102
}
330
21AD
100
AcDbScale
 70
     0
300
1/32" = 1'-0"
140
0.03125
141
12.0
290
     0
  0
SCALE
  5
21B2
102
{ACAD_REACTORS
330
21AD
102
}
330
21AD
100
AcDbScale
 70
     0
300
1/16" = 1'-0"
140
0.0625
141
12.0
290
     0
  0
SCALE
  5
21B3
102
{ACAD_REACTORS
330
21AD
102
}
330
21AD
100
AcDbScale
 70
     0
300
3/32" = 1'-0"
140
0.09375
141
12.0
290
     0
  0
SCALE
  5
21B4
102
{ACAD_REACTORS
330
21AD
102
}
330
21AD
100
AcDbScale
 70
     0
300
1/8" = 1'-0"
140
0.125
141
12.0
290
     0
  0
SCALE
  5
21B5
102
{ACAD_REACTORS
330
21AD
102
}
330
21AD
100
AcDbScale
 70
     0
300
3/16" = 1'-0"
140
0.1875
141
12.0
290
     0
  0
SCALE
  5
21B6
102
{ACAD_REACTORS
330
21AD
102
}
330
21AD
100
AcDbScale
 70
     0
300
1/4" = 1'-0"
140
0.25
141
12.0
290
     0
  0
SCALE
  5
21B7
102
{ACAD_REACTORS
330
21AD
102
}
330
21AD
100
AcDbScale
 70
     0
300
3/8" = 1'-0"
140
0.375
141
12.0
290
     0
  0
SCALE
  5
21B8
102
{ACAD_REACTORS
330
21AD
102
}
330
21AD
100
AcDbScale
 70
     0
300
1/2" = 1'-0"
140
0.5
141
12.0
290
     0
  0
SCALE
  5
21B9
102
{ACAD_REACTORS
330
21AD
102
}
330
21AD
100
AcDbScale
 70
     0
300
3/4" = 1'-0"
140
0.75
141
12.0
290
     0
  0
SCALE
  5
21BA
102
{ACAD_REACTORS
330
21AD
102
}
330
21AD
100
AcDbScale
 70
     0
300
1" = 1'-0"
140
1.0
141
12.0
290
     0
  0
SCALE
  5
21BB
102
{ACAD_REACTORS
330
21AD
102
}
330
21AD
100
AcDbScale
 70
     0
300
1-1/2" = 1'-0"
140
1.5
141
12.0
290
     0
  0
SCALE
  5
21BC
102
{ACAD_REACTORS
330
21AD
102
}
330
21AD
100
AcDbScale
 70
     0
300
3" = 1'-0"
140
3.0
141
12.0
290
     0
  0
SCALE
  5
21BD
102
{ACAD_REACTORS
330
21AD
102
}
330
21AD
100
AcDbScale
 70
     0
300
6" = 1'-0"
140
6.0
141
12.0
290
     0
  0
SCALE
  5
21BE
102
{ACAD_REACTORS
330
21AD
102
}
330
21AD
100
AcDbScale
 70
     0
300
1'-0" = 1'-0"
140
12.0
141
12.0
290
     0
  0
TABLESTYLE
  5
15D2
102
{ACAD_XDICTIONARY
360
21DB
102
}
102
{ACAD_REACTORS
330
15D1
102
}
330
15D1
100
AcDbTableStyle
280
     0
  3
Standard
 70
     0
 71
     0
 40
0.06
 41
0.06
280
     0
281
     0
  7
STANDARD
140
0.18
170
     2
 62
     0
 63
     7
283
     0
 90
        4
 91
        0
  1

274
    -2
284
     1
 64
     0
275
    -2
285
     1
 65
     0
276
    -2
286
     1
 66
     0
277
    -2
287
     1
 67
     0
278
    -2
288
     1
 68
     0
279
    -2
289
     1
 69
     0
  7
STANDARD
140
0.25
170
     5
 62
     0
 63
     7
283
     0
 90
        4
 91
        0
  1

274
    -2
284
     1
 64
     0
275
    -2
285
     1
 65
     0
276
    -2
286
     1
 66
     0
277
    -2
287
     1
 67
     0
278
    -2
288
     1
 68
     0
279
    -2
289
     1
 69
     0
  7
STANDARD
140
0.18
170
     5
 62
     0
 63
     7
283
     0
 90
        4
 91
        0
  1

274
    -2
284
     1
 64
     0
275
    -2
285
     1
 65
     0
276
    -2
286
     1
 66
     0
277
    -2
287
     1
 67
     0
278
    -2
288
     1
 68
     0
279
    -2
289
     1
 69
     0
  0
VISUALSTYLE
  5
20D4
102
{ACAD_REACTORS
330
20CE
102
}
330
20CE
100
AcDbVisualStyle
  2
2dWireframe
 70
     4
177
     2
291
     0
 71
     0
176
     1
 72
     2
176
     1
 73
     0
176
     1
 90
        0
176
     1
 40
0.6
176
     1
 41
30.0
176
     1
 63
     7
421
 16777215
176
     1
 74
     1
176
     1
 91
        4
176
     1
 64
     7
176
     1
 65
   257
176
     1
 75
     1
176
     1
175
     1
176
     1
 42
1.0
176
     1
 92
        0
176
     1
 66
   257
176
     1
 43
1.0
176
     1
 76
     1
176
     1
 77
     6
176
     1
 78
     2
176
     1
 67
     7
176
     1
 79
     5
176
     1
170
     0
176
     1
171
     0
176
     1
290
     0
176
     1
 93
        1
176
     1
 44
0.0
176
     1
173
     0
176
     1
  0
VISUALSTYLE
  5
20D6
102
{ACAD_REACTORS
330
20CE
102
}
330
20CE
100
AcDbVisualStyle
  2
3D Hidden
 70
     6
177
     2
291
     0
 71
     1
176
     1
 72
     2
176
     1
 73
     2
176
     1
 90
        0
176
     1
 40
0.6
176
     1
 41
30.0
176
     1
 63
     7
421
 16777215
176
     1
 74
     2
176
     1
 91
        2
176
     1
 64
     7
176
     1
 65
   257
176
     1
 75
     2
176
     1
175
     1
176
     1
 42
40.0
176
     1
 92
        0
176
     1
 66
   257
176
     1
 43
1.0
176
     1
 76
     1
176
     1
 77
     6
176
     1
 78
     2
176
     1
 67
     7
176
     1
 79
     3
176
     1
170
     0
176
     1
171
     0
176
     1
290
     0
176
     1
 93
        1
176
     1
 44
0.0
176
     1
173
     0
176
     1
  0
VISUALSTYLE
  5
20D5
102
{ACAD_REACTORS
330
20CE
102
}
330
20CE
100
AcDbVisualStyle
  2
3dWireframe
 70
     5
177
     2
291
     0
 71
     0
176
     1
 72
     2
176
     1
 73
     0
176
     1
 90
        0
176
     1
 40
0.6
176
     1
 41
30.0
176
     1
 63
     7
421
 16777215
176
     1
 74
     1
176
     1
 91
        4
176
     1
 64
     7
176
     1
 65
   257
176
     1
 75
     1
176
     1
175
     1
176
     1
 42
1.0
176
     1
 92
        0
176
     1
 66
   257
176
     1
 43
1.0
176
     1
 76
     1
176
     1
 77
     6
176
     1
 78
     2
176
     1
 67
     7
176
     1
 79
     5
176
     1
170
     0
176
     1
171
     0
176
     1
290
     0
176
     1
 93
        1
176
     1
 44
0.0
176
     1
173
     0
176
     1
  0
VISUALSTYLE
  5
20D3
102
{ACAD_REACTORS
330
20CE
102
}
330
20CE
100
AcDbVisualStyle
  2
Basic
 70
     7
177
     2
291
     1
 71
     1
176
     1
 72
     0
176
     1
 73
     1
176
     1
 90
        0
176
     1
 40
0.6
176
     1
 41
30.0
176
     1
 63
     7
421
 16777215
176
     1
 74
     0
176
     1
 91
        4
176
     1
 64
     7
176
     1
 65
   257
176
     1
 75
     1
176
     1
175
     1
176
     1
 42
1.0
176
     1
 92
        8
176
     1
 66
     7
176
     1
 43
1.0
176
     1
 76
     1
176
     1
 77
     6
176
     1
 78
     2
176
     1
 67
     7
176
     1
 79
     5
176
     1
170
     0
176
     1
171
     0
176
     1
290
     0
176
     1
 93
        1
176
     1
 44
0.0
176
     1
173
     0
176
     1
  0
VISUALSTYLE
  5
20DA
102
{ACAD_REACTORS
330
20CE
102
}
330
20CE
100
AcDbVisualStyle
  2
Brighten
 70
    12
177
     2
291
     1
 71
     2
176
     1
 72
     2
176
     1
 73
     0
176
     1
 90
        0
176
     1
 40
0.6
176
     1
 41
30.0
176
     1
 63
     7
421
 16777215
176
     1
 74
     1
176
     1
 91
        4
176
     1
 64
     7
176
     1
 65
   257
176
     1
 75
     1
176
     1
175
     1
176
     1
 42
1.0
176
     1
 92
        8
176
     1
 66
     7
176
     1
 43
1.0
176
     1
 76
     1
176
     1
 77
     6
176
     1
 78
     2
176
     1
 67
     7
176
     1
 79
     5
176
     1
170
     0
176
     1
171
     0
176
     1
290
     0
176
     1
 93
        1
176
     1
 44
50.0
176
     1
173
     0
176
     1
  0
VISUALSTYLE
  5
20DE
102
{ACAD_REACTORS
330
20CE
102
}
330
20CE
100
AcDbVisualStyle
  2
ColorChange
 70
    16
177
     2
291
     1
 71
     2
176
     1
 72
     2
176
     1
 73
     3
176
     1
 90
        0
176
     1
 40
0.6
176
     1
 41
30.0
176
     1
 63
     8
421
  8421504
176
     1
 74
     1
176
     1
 91
        4
176
     1
 64
     7
176
     1
 65
   257
176
     1
 75
     1
176
     1
175
     1
176
     1
 42
1.0
176
     1
 92
        8
176
     1
 66
     8
424
  8421504
176
     1
 43
1.0
176
     1
 76
     1
176
     1
 77
     6
176
     1
 78
     2
176
     1
 67
     7
176
     1
 79
     5
176
     1
170
     0
176
     1
171
     0
176
     1
290
     0
176
     1
 93
        1
176
     1
 44
0.0
176
     1
173
     0
176
     1
  0
VISUALSTYLE
  5
20D7
102
{ACAD_REACTORS
330
20CE
102
}
330
20CE
100
AcDbVisualStyle
  2
Conceptual
 70
     9
177
     2
291
     0
 71
     3
176
     1
 72
     2
176
     1
 73
     0
176
     1
 90
        0
176
     1
 40
0.6
176
     1
 41
30.0
176
     1
 63
     7
421
 16777215
176
     1
 74
     2
176
     1
 91
        2
176
     1
 64
     7
176
     1
 65
   257
176
     1
 75
     1
176
     1
175
     1
176
     1
 42
40.0
176
     1
 92
        8
176
     1
 66
     7
176
     1
 43
1.0
176
     1
 76
     1
176
     1
 77
     6
176
     1
 78
     2
176
     1
 67
     7
176
     1
 79
     3
176
     1
170
     0
176
     1
171
     0
176
     1
290
     0
176
     1
 93
        1
176
     1
 44
0.0
176
     1
173
     0
176
     1
  0
VISUALSTYLE
  5
20D9
102
{ACAD_REACTORS
330
20CE
102
}
330
20CE
100
AcDbVisualStyle
  2
Dim
 70
    11
177
     2
291
     1
 71
     2
176
     1
 72
     2
176
     1
 73
     0
176
     1
 90
        0
176
     1
 40
0.6
176
     1
 41
30.0
176
     1
 63
     7
421
 16777215
176
     1
 74
     1
176
     1
 91
        4
176
     1
 64
     7
176
     1
 65
   257
176
     1
 75
     1
176
     1
175
     1
176
     1
 42
1.0
176
     1
 92
        8
176
     1
 66
     7
176
     1
 43
1.0
176
     1
 76
     1
176
     1
 77
     6
176
     1
 78
     2
176
     1
 67
     7
176
     1
 79
     5
176
     1
170
     0
176
     1
171
     0
176
     1
290
     0
176
     1
 93
        1
176
     1
 44
-50.0
176
     1
173
     0
176
     1
  0
VISUALSTYLE
  5
21AC
102
{ACAD_REACTORS
330
20CE
102
}
330
20CE
100
AcDbVisualStyle
  2
EdgeColorOff
 70
    22
177
     2
291
     1
 71
     2
176
     0
 72
     2
176
     0
 73
     0
176
     0
 90
        0
176
     0
 40
0.6
176
     0
 41
30.0
176
     0
 63
     7
421
 16777215
176
     0
 74
     1
176
     0
 91
        4
176
     0
 64
     7
176
     0
 65
   257
176
     0
 75
     1
176
     0
175
     1
176
     0
 42
1.0
176
     0
 92
        8
176
     2
 66
     7
176
     0
 43
1.0
176
     0
 76
     1
176
     0
 77
     6
176
     0
 78
     2
176
     0
 67
     7
176
     0
 79
     5
176
     0
170
     0
176
     0
171
     0
176
     0
290
     0
176
     0
 93
        1
176
     0
 44
0.0
176
     0
173
     0
176
     0
  0
VISUALSTYLE
  5
20DD
102
{ACAD_REACTORS
330
20CE
102
}
330
20CE
100
AcDbVisualStyle
  2
Facepattern
 70
    15
177
     2
291
     1
 71
     2
176
     1
 72
     2
176
     1
 73
     0
176
     1
 90
        0
176
     1
 40
0.6
176
     1
 41
30.0
176
     1
 63
     7
421
 16777215
176
     1
 74
     1
176
     1
 91
        4
176
     1
 64
     7
176
     1
 65
   257
176
     1
 75
     1
176
     1
175
     1
176
     1
 42
1.0
176
     1
 92
        8
176
     1
 66
     7
176
     1
 43
1.0
176
     1
 76
     1
176
     1
 77
     6
176
     1
 78
     2
176
     1
 67
     7
176
     1
 79
     5
176
     1
170
     0
176
     1
171
     0
176
     1
290
     0
176
     1
 93
        1
176
     1
 44
0.0
176
     1
173
     0
176
     1
  0
VISUALSTYLE
  5
20CF
102
{ACAD_REACTORS
330
20CE
102
}
330
20CE
100
AcDbVisualStyle
  2
Flat
 70
     0
177
     2
291
     1
 71
     2
176
     1
 72
     1
176
     1
 73
     1
176
     1
 90
        2
176
     1
 40
0.6
176
     1
 41
30.0
176
     1
 63
     7
421
 16777215
176
     1
 74
     0
176
     1
 91
        4
176
     1
 64
     7
176
     1
 65
   257
176
     1
 75
     1
176
     1
175
     1
176
     1
 42
1.0
176
     1
 92
        8
176
     1
 66
     7
176
     1
 43
1.0
176
     1
 76
     1
176
     1
 77
     6
176
     1
 78
     2
176
     1
 67
     7
176
     1
 79
     5
176
     1
170
     0
176
     1
171
     0
176
     1
290
     0
176
     1
 93
       13
176
     1
 44
0.0
176
     1
173
     0
176
     1
  0
VISUALSTYLE
  5
20D0
102
{ACAD_REACTORS
330
20CE
102
}
330
20CE
100
AcDbVisualStyle
  2
FlatWithEdges
 70
     1
177
     2
291
     1
 71
     2
176
     1
 72
     1
176
     1
 73
     1
176
     1
 90
        2
176
     1
 40
0.6
176
     1
 41
30.0
176
     1
 63
     7
421
 16777215
176
     1
 74
     1
176
     1
 91
        4
176
     1
 64
     7
176
     1
 65
   257
176
     1
 75
     1
176
     1
175
     1
176
     1
 42
1.0
176
     1
 92
        0
176
     1
 66
   257
176
     1
 43
1.0
176
     1
 76
     1
176
     1
 77
     6
176
     1
 78
     2
176
     1
 67
     7
176
     1
 79
     5
176
     1
170
     0
176
     1
171
     0
176
     1
290
     0
176
     1
 93
       13
176
     1
 44
0.0
176
     1
173
     0
176
     1
  0
VISUALSTYLE
  5
20D1
102
{ACAD_REACTORS
330
20CE
102
}
330
20CE
100
AcDbVisualStyle
  2
Gouraud
 70
     2
177
     2
291
     1
 71
     2
176
     1
 72
     2
176
     1
 73
     1
176
     1
 90
        2
176
     1
 40
0.6
176
     1
 41
30.0
176
     1
 63
     7
421
 16777215
176
     1
 74
     0
176
     1
 91
        4
176
     1
 64
     7
176
     1
 65
   257
176
     1
 75
     1
176
     1
175
     1
176
     1
 42
1.0
176
     1
 92
        0
176
     1
 66
     7
176
     1
 43
1.0
176
     1
 76
     1
176
     1
 77
     6
176
     1
 78
     2
176
     1
 67
     7
176
     1
 79
     5
176
     1
170
     0
176
     1
171
     0
176
     1
290
     0
176
     1
 93
       13
176
     1
 44
0.0
176
     1
173
     0
176
     1
  0
VISUALSTYLE
  5
20D2
102
{ACAD_REACTORS
330
20CE
102
}
330
20CE
100
AcDbVisualStyle
  2
GouraudWithEdges
 70
     3
177
     2
291
     1
 71
     2
176
     1
 72
     2
176
     1
 73
     1
176
     1
 90
        2
176
     1
 40
0.6
176
     1
 41
30.0
176
     1
 63
     7
421
 16777215
176
     1
 74
     1
176
     1
 91
        4
176
     1
 64
     7
176
     1
 65
   257
176
     1
 75
     1
176
     1
175
     1
176
     1
 42
1.0
176
     1
 92
        0
176
     1
 66
   257
176
     1
 43
1.0
176
     1
 76
     1
176
     1
 77
     6
176
     1
 78
     2
176
     1
 67
     7
176
     1
 79
     5
176
     1
170
     0
176
     1
171
     0
176
     1
290
     0
176
     1
 93
       13
176
     1
 44
0.0
176
     1
173
     0
176
     1
  0
VISUALSTYLE
  5
21A4
102
{ACAD_REACTORS
330
20CE
102
}
330
20CE
100
AcDbVisualStyle
  2
Hidden
 70
     6
177
     2
291
     0
 71
     1
176
     1
 72
     2
176
     1
 73
     2
176
     1
 90
        0
176
     1
 40
0.6
176
     1
 41
30.0
176
     1
 63
     7
421
 16777215
176
     1
 74
     2
176
     1
 91
        2
176
     1
 64
     7
176
     1
 65
   257
176
     1
 75
     2
176
     1
175
     1
176
     1
 42
40.0
176
     1
 92
        0
176
     1
 66
   257
176
     1
 43
1.0
176
     1
 76
     1
176
     1
 77
     6
176
     1
 78
     2
176
     1
 67
     7
176
     1
 79
     3
176
     1
170
     0
176
     1
171
     0
176
     1
290
     0
176
     1
 93
        1
176
     1
 44
0.0
176
     1
173
     0
176
     1
  0
VISUALSTYLE
  5
21AA
102
{ACAD_REACTORS
330
20CE
102
}
330
20CE
100
AcDbVisualStyle
  2
JitterOff
 70
    20
177
     2
291
     1
 71
     2
176
     0
 72
     2
176
     0
 73
     0
176
     0
 90
        0
176
     0
 40
0.6
176
     0
 41
30.0
176
     0
 63
     7
421
 16777215
176
     0
 74
     1
176
     0
 91
        4
176
     0
 64
     7
176
     0
 65
   257
176
     0
 75
     1
176
     0
175
     1
176
     0
 42
1.0
176
     0
 92
       10
176
     2
 66
     7
176
     0
 43
1.0
176
     0
 76
     1
176
     0
 77
     6
176
     0
 78
     2
176
     0
 67
     7
176
     0
 79
     5
176
     0
170
     0
176
     0
171
     0
176
     0
290
     0
176
     0
 93
        1
176
     0
 44
0.0
176
     0
173
     0
176
     0
  0
VISUALSTYLE
  5
20DC
102
{ACAD_REACTORS
330
20CE
102
}
330
20CE
100
AcDbVisualStyle
  2
Linepattern
 70
    14
177
     2
291
     1
 71
     2
176
     1
 72
     2
176
     1
 73
     0
176
     1
 90
        0
176
     1
 40
0.6
176
     1
 41
30.0
176
     1
 63
     7
421
 16777215
176
     1
 74
     1
176
     1
 91
        4
176
     1
 64
     7
176
     1
 65
   257
176
     1
 75
     7
176
     1
175
     7
176
     1
 42
1.0
176
     1
 92
        8
176
     1
 66
     7
176
     1
 43
1.0
176
     1
 76
     1
176
     1
 77
     6
176
     1
 78
     2
176
     1
 67
     7
176
     1
 79
     5
176
     1
170
     0
176
     1
171
     0
176
     1
290
     0
176
     1
 93
        1
176
     1
 44
0.0
176
     1
173
     0
176
     1
  0
VISUALSTYLE
  5
21AB
102
{ACAD_REACTORS
330
20CE
102
}
330
20CE
100
AcDbVisualStyle
  2
OverhangOff
 70
    21
177
     2
291
     1
 71
     2
176
     0
 72
     2
176
     0
 73
     0
176
     0
 90
        0
176
     0
 40
0.6
176
     0
 41
30.0
176
     0
 63
     7
421
 16777215
176
     0
 74
     1
176
     0
 91
        4
176
     0
 64
     7
176
     0
 65
   257
176
     0
 75
     1
176
     0
175
     1
176
     0
 42
1.0
176
     0
 92
        9
176
     2
 66
     7
176
     0
 43
1.0
176
     0
 76
     1
176
     0
 77
     6
176
     0
 78
     2
176
     0
 67
     7
176
     0
 79
     5
176
     0
170
     0
176
     0
171
     0
176
     0
290
     0
176
     0
 93
        1
176
     0
 44
0.0
176
     0
173
     0
176
     0
  0
VISUALSTYLE
  5
20D8
102
{ACAD_REACTORS
330
20CE
102
}
330
20CE
100
AcDbVisualStyle
  2
Realistic
 70
     8
177
     2
291
     0
 71
     2
176
     1
 72
     2
176
     1
 73
     0
176
     1
 90
        0
176
     1
 40
0.6
176
     1
 41
30.0
176
     1
 63
     7
421
 16777215
176
     1
 74
     1
176
     1
 91
        0
176
     1
 64
     7
176
     1
 65
   257
176
     1
 75
     1
176
     1
175
     1
176
     1
 42
1.0
176
     1
 92
        8
176
     1
 66
     8
424
  7895160
176
     1
 43
1.0
176
     1
 76
     1
176
     1
 77
     6
176
     1
 78
     2
176
     1
 67
     7
176
     1
 79
     5
176
     1
170
     0
176
     1
171
     0
176
     1
290
     0
176
     1
 93
       13
176
     1
 44
0.0
176
     1
173
     0
176
     1
  0
VISUALSTYLE
  5
21A9
102
{ACAD_REACTORS
330
20CE
102
}
330
20CE
100
AcDbVisualStyle
  2
Shaded
 70
    27
177
     2
291
     0
 71
     2
176
     1
 72
     2
176
     1
 73
     1
176
     1
 90
        2
176
     1
 40
0.6
176
     1
 41
30.0
176
     1
 63
     7
421
 16777215
176
     1
 74
     0
176
     1
 91
        4
176
     1
 64
     7
176
     1
 65
   257
176
     1
 75
     1
176
     1
175
     1
176
     1
 42
1.0
176
     1
 92
        8
176
     1
 66
   257
176
     1
 43
1.0
176
     1
 76
     1
176
     1
 77
     6
176
     1
 78
     2
176
     1
 67
     8
425
  7895160
176
     1
 79
     3
176
     1
170
     0
176
     1
171
     0
176
     1
290
     0
176
     1
 93
        5
176
     1
 44
0.0
176
     1
173
     0
176
     1
  0
VISUALSTYLE
  5
21A8
102
{ACAD_REACTORS
330
20CE
102
}
330
20CE
100
AcDbVisualStyle
  2
Shaded with edges
 70
    26
177
     2
291
     0
 71
     2
176
     1
 72
     2
176
     1
 73
     1
176
     1
 90
        2
176
     1
 40
0.6
176
     1
 41
30.0
176
     1
 63
     7
421
 16777215
176
     1
 74
     1
176
     1
 91
       10
176
     1
 64
     7
176
     1
 65
   257
176
     1
 75
     2
176
     1
175
     1
176
     1
 42
1.0
176
     1
 92
        8
176
     1
 66
   257
176
     1
 43
1.0
176
     1
 76
     1
176
     1
 77
     6
176
     1
 78
     2
176
     1
 67
     7
176
     1
 79
     3
176
     1
170
     0
176
     1
171
     0
176
     1
290
     0
176
     1
 93
        5
176
     1
 44
0.0
176
     1
173
     0
176
     1
  0
VISUALSTYLE
  5
21A5
102
{ACAD_REACTORS
330
20CE
102
}
330
20CE
100
AcDbVisualStyle
  2
Shades of Gray
 70
    23
177
     2
291
     0
 71
     2
176
     1
 72
     2
176
     1
 73
     3
176
     1
 90
        0
176
     1
 40
0.6
176
     1
 41
30.0
176
     1
 63
     7
421
 16777215
176
     1
 74
     2
176
     1
 91
        2
176
     1
 64
     7
176
     1
 65
     7
176
     1
 75
     1
176
     1
175
     1
176
     1
 42
40.0
176
     1
 92
        8
176
     1
 66
     7
176
     1
 43
1.0
176
     1
 76
     1
176
     1
 77
     6
176
     1
 78
     2
176
     1
 67
     7
176
     1
 79
     3
176
     1
170
     0
176
     1
171
     0
176
     1
290
     0
176
     1
 93
        1
176
     1
 44
0.0
176
     1
173
     0
176
     1
  0
VISUALSTYLE
  5
21A6
102
{ACAD_REACTORS
330
20CE
102
}
330
20CE
100
AcDbVisualStyle
  2
Sketchy
 70
    24
177
     2
291
     0
 71
     1
176
     1
 72
     2
176
     1
 73
     2
176
     1
 90
        0
176
     1
 40
0.6
176
     1
 41
30.0
176
     1
 63
     7
421
 16777215
176
     1
 74
     2
176
     1
 91
        2
176
     1
 64
     7
176
     1
 65
     7
176
     1
 75
     1
176
     1
175
     1
176
     1
 42
40.0
176
     1
 92
       11
176
     1
 66
     7
176
     1
 43
1.0
176
     1
 76
     1
176
     1
 77
     6
176
     1
 78
     2
176
     1
 67
     7
176
     1
 79
     6
176
     1
170
     0
176
     1
171
     0
176
     1
290
     0
176
     1
 93
        1
176
     1
 44
0.0
176
     1
173
     0
176
     1
  0
VISUALSTYLE
  5
20DB
102
{ACAD_REACTORS
330
20CE
102
}
330
20CE
100
AcDbVisualStyle
  2
Thicken
 70
    13
177
     2
291
     1
 71
     2
176
     1
 72
     2
176
     1
 73
     0
176
     1
 90
        0
176
     1
 40
0.6
176
     1
 41
30.0
176
     1
 63
     7
421
 16777215
176
     1
 74
     1
176
     1
 91
        4
176
     1
 64
     7
176
     1
 65
   257
176
     1
 75
     1
176
     1
175
     1
176
     1
 42
1.0
176
     1
 92
       12
176
     1
 66
     7
176
     1
 43
1.0
176
     1
 76
     1
176
     1
 77
     6
176
     1
 78
     2
176
     1
 67
     7
176
     1
 79
     5
176
     1
170
     0
176
     1
171
     0
176
     1
290
     0
176
     1
 93
        1
176
     1
 44
0.0
176
     1
173
     0
176
     1
  0
VISUALSTYLE
  5
21A3
102
{ACAD_REACTORS
330
20CE
102
}
330
20CE
100
AcDbVisualStyle
  2
Wireframe
 70
     5
177
     2
291
     0
 71
     0
176
     1
 72
     2
176
     1
 73
     0
176
     1
 90
        0
176
     1
 40
0.6
176
     1
 41
30.0
176
     1
 63
     7
421
 16777215
176
     1
 74
     1
176
     1
 91
        4
176
     1
 64
     7
176
     1
 65
   257
176
     1
 75
     1
176
     1
175
     1
176
     1
 42
1.0
176
     1
 92
        0
176
     1
 66
   257
176
     1
 43
1.0
176
     1
 76
     1
176
     1
 77
     6
176
     1
 78
     2
176
     1
 67
     7
176
     1
 79
     3
176
     1
170
     0
176
     1
171
     0
176
     1
290
     0
176
     1
 93
        1
176
     1
 44
0.0
176
     1
173
     0
176
     1
  0
VISUALSTYLE
  5
21A7
102
{ACAD_REACTORS
330
20CE
102
}
330
20CE
100
AcDbVisualStyle
  2
X-Ray
 70
    25
177
     2
291
     0
 71
     2
176
     1
 72
     2
176
     1
 73
     1
176
     1
 90
        1
176
     1
 40
0.5
176
     1
 41
30.0
176
     1
 63
     7
421
 16777215
176
     1
 74
     1
176
     1
 91
        0
176
     1
 64
     7
176
     1
 65
   257
176
     1
 75
     1
176
     1
175
     1
176
     1
 42
1.0
176
     1
 92
        8
176
     1
 66
     7
176
     1
 43
1.0
176
     1
 76
     1
176
     1
 77
     6
176
     1
 78
     2
176
     1
 67
     7
176
     1
 79
     3
176
     1
170
     0
176
     1
171
     0
176
     1
290
     0
176
     1
 93
       13
176
     1
 44
0.0
176
     1
173
     0
176
     1
  0
DICTIONARYVAR
  5
21D7
102
{ACAD_REACTORS
330
1851
102
}
330
1851
100
DictionaryVariables
280
     0
  1
1:1
  0
DICTIONARYVAR
  5
21D5
102
{ACAD_REACTORS
330
1851
102
}
330
1851
100
DictionaryVariables
280
     0
  1
STANDARD
  0
DICTIONARYVAR
  5
1852
102
{ACAD_REACTORS
330
1851
102
}
330
1851
100
DictionaryVariables
280
     0
  1
STANDARD
  0
DICTIONARYVAR
  5
20BB
102
{ACAD_REACTORS
330
1851
102
}
330
1851
100
DictionaryVariables
280
     0
  1
1
  0
DICTIONARYVAR
  5
21D9
102
{ACAD_REACTORS
330
1851
102
}
330
1851
100
DictionaryVariables
280
     0
  1
1
  0
DICTIONARYVAR
  5
21DA
102
{ACAD_REACTORS
330
1851
102
}
330
1851
100
DictionaryVariables
280
     0
  1
15
  0
DICTIONARYVAR
  5
21D8
102
{ACAD_REACTORS
330
1851
102
}
330
1851
100
DictionaryVariables
280
     0
  1
0
  0
DICTIONARYVAR
  5
21D6
102
{ACAD_REACTORS
330
1851
102
}
330
1851
100
DictionaryVariables
280
     0
  1
0
  0
DICTIONARYVAR
  5
20BC
102
{ACAD_REACTORS
330
1851
102
}
330
1851
100
DictionaryVariables
280
     0
  1

  0
ACAD_PROXY_OBJECT
  5
1632
102
{ACAD_REACTORS
330
1631
102
}
330
1631
100
AcDbProxyObject
 90
      499
 91
      544
 95
    65563
 70
     0
162
                 0
161
                84
310
90100057356C1D8C406AAC
 94
        0
1001
ACAD
1000
AcRTDxfName
1000
ACMDATADICTIONARY
1000
AcRTDxfName
1000
ACMDATADICTIONARY
  0
DICTIONARY
  5
163E
102
{ACAD_REACTORS
330
1631
102
}
330
1631
100
AcDbDictionary
281
     1
  3
ANSI
350
163F
  0
XRECORD
  5
165D
102
{ACAD_REACTORS
330
1631
102
}
330
1631
100
AcDbXrecord
280
     1
 90
-1023410169
  0
ACAD_PROXY_OBJECT
  5
15E5
330
0
100
AcDbProxyObject
 90
      499
 91
      507
 95
    65563
 70
     0
162
               234
311
43904010C01340114014C016401340108013C0130014C01240168011400C
161
                34
310
000101420C
330
15E2
 94
        0
1001
ACAD
1000
AcRTDxfName
1000
ACIMINTSYSVAR
1000
AcRTDxfName
1000
ACIMINTSYSVAR
  0
ACAD_PROXY_OBJECT
  5
15E7
330
0
100
AcDbProxyObject
 90
      499
 91
      509
 95
    65563
 70
     0
162
                74
311
41108013C013400C400C
161
                46
310
00010100AC00
330
15E2
330
0
330
0
 94
        0
1001
ACAD
1000
AcRTDxfName
1000
ACMEVIEW
1000
AcRTDxfName
1000
ACMEVIEW
  0
ACAD_PROXY_OBJECT
  5
15ED
330
0
100
AcDbProxyObject
 90
      499
 91
      515
 95
    65563
 70
     0
162
               546
311
41190018401D00194010839002E0030002E00340033002E00300041190018401D001940109310031002E0030002E00360032002E003000419040138014C012400CC00C400C
161
                92
310
00010101010140501000096C
330
15E2
330
15EE
330
15F2
 94
        0
1001
ACAD
1000
AcRTDxfName
1000
AM_DRAWING_MGR
1000
AcRTDxfName
1000
AM_DRAWING_MGR
  0
ACAD_PROXY_OBJECT
  5
15EE
330
0
100
AcDbProxyObject
 90
      499
 91
      516
 95
    65563
 70
     0
162
                 0
161
                48
310
000190140A009B
330
15E2
330
15EF
 94
        0
1001
ACAD
1000
AcRTDxfName
1000
AM_DWG_DOCUMENT
1000
AcRTDxfName
1000
AM_DWG_DOCUMENT
  0
ACAD_PROXY_OBJECT
  5
15EF
330
0
100
AcDbProxyObject
 90
      499
 91
      517
 95
    65563
 70
     0
162
                 0
161
                48
310
0001AA0000006D
330
15E2
330
15D6
330
15F0
330
0
 94
        0
1001
ACAD
1000
AcRTDxfName
1000
AM_DWG_SHEET
1000
AcRTDxfName
1000
AM_DWG_SHEET
  0
ACAD_PROXY_OBJECT
  5
15F0
330
0
100
AcDbProxyObject
 90
      499
 91
      518
 95
    65563
 70
     0
162
                 0
161
                28
310
0001AAAC
330
15E2
 94
        0
1001
ACAD
1000
AcRTDxfName
1000
AM_VIEWDIMPARMAP
1000
AcRTDxfName
1000
AM_VIEWDIMPARMAP
  0
ACAD_PROXY_OBJECT
  5
15F3
330
0
100
AcDbProxyObject
 90
      499
 91
      507
 95
    65563
 70
     0
162
               138
311
42104013401200130010C01040130010C00C
161
                34
310
000101404C
330
15E2
 94
        0
1001
ACAD
1000
AcRTDxfName
1000
ACIMINTSYSVAR
1000
AcRTDxfName
1000
ACIMINTSYSVAR
  0
ACAD_PROXY_OBJECT
  5
15F4
330
0
100
AcDbProxyObject
 90
      499
 91
      507
 95
    65563
 70
     0
162
               170
311
429040134014801140154014C011401100124013400C
161
                34
310
000101404C
330
15E2
 94
        0
1001
ACAD
1000
AcRTDxfName
1000
ACIMINTSYSVAR
1000
AcRTDxfName
1000
ACIMINTSYSVAR
  0
ACAD_PROXY_OBJECT
  5
15F5
330
0
100
AcDbProxyObject
 90
      499
 91
      507
 95
    65563
 70
     0
162
               202
311
431040134014C0114010C01500124013C013801100124013400C
161
                26
310
0001018C
330
15E2
 94
        0
1001
ACAD
1000
AcRTDxfName
1000
ACIMINTSYSVAR
1000
AcRTDxfName
1000
ACIMINTSYSVAR
  0
ACAD_PROXY_OBJECT
  5
15F6
330
0
100
AcDbProxyObject
 90
      499
 91
      507
 95
    65563
 70
     0
162
               170
311
429040134015801400108013C014801100114014800C
161
                34
310
000101404C
330
15E2
 94
        0
1001
ACAD
1000
AcRTDxfName
1000
ACIMINTSYSVAR
1000
AcRTDxfName
1000
ACIMINTSYSVAR
  0
ACAD_PROXY_OBJECT
  5
15F7
330
0
100
AcDbProxyObject
 90
      499
 91
      507
 95
    65563
 70
     0
162
               170
311
4290401340110015C011C010C013C0130013C014800C
161
                26
310
0001018C
330
15E2
 94
        0
1001
ACAD
1000
AcRTDxfName
1000
ACIMINTSYSVAR
1000
AcRTDxfName
1000
ACIMINTSYSVAR
  0
ACAD_PROXY_OBJECT
  5
15F8
330
0
100
AcDbProxyObject
 90
      499
 91
      507
 95
    65563
 70
     0
162
               218
311
435040134015801240114015C01480114011801480114014C012000C
161
                34
310
000101404C
330
15E2
 94
        0
1001
ACAD
1000
AcRTDxfName
1000
ACIMINTSYSVAR
1000
AcRTDxfName
1000
ACIMINTSYSVAR
  0
ACAD_PROXY_OBJECT
  5
15F9
330
0
100
AcDbProxyObject
 90
      499
 91
      507
 95
    65563
 70
     0
162
               266
311
441040134010401380138013C01500114014001480114014C011401480158011400C
161
                34
310
000101404C
330
15E2
 94
        0
1001
ACAD
1000
AcRTDxfName
1000
ACIMINTSYSVAR
1000
AcRTDxfName
1000
ACIMINTSYSVAR
  0
ACAD_PROXY_OBJECT
  5
15FA
330
0
100
AcDbProxyObject
 90
      499
 91
      507
 95
    65563
 70
     0
162
               266
311
441040134010401540150013C01100124013401040148014801040138011C011400C
161
                34
310
000101404C
330
15E2
 94
        0
1001
ACAD
1000
AcRTDxfName
1000
ACIMINTSYSVAR
1000
AcRTDxfName
1000
ACIMINTSYSVAR
  0
ACAD_PROXY_OBJECT
  5
15FB
330
0
100
AcDbProxyObject
 90
      499
 91
      507
 95
    65563
 70
     0
162
               186
311
42D04013401140160015001480114011801100124013400C
161
                26
310
0001018C
330
15E2
 94
        0
1001
ACAD
1000
AcRTDxfName
1000
ACIMINTSYSVAR
1000
AcRTDxfName
1000
ACIMINTSYSVAR
  0
ACAD_PROXY_OBJECT
  5
15FC
330
0
100
AcDbProxyObject
 90
      499
 91
      507
 95
    65563
 70
     0
162
               186
311
42D040134015001040140010401380138013C0150011400C
161
                34
310
000101404C
330
15E2
 94
        0
1001
ACAD
1000
AcRTDxfName
1000
ACIMINTSYSVAR
1000
AcRTDxfName
1000
ACIMINTSYSVAR
  0
ACAD_PROXY_OBJECT
  5
15FD
330
0
100
AcDbProxyObject
 90
      499
 91
      507
 95
    65563
 70
     0
162
               138
311
421040134010401540150013C010C013000C
161
                34
310
000101404C
330
15E2
 94
        0
1001
ACAD
1000
AcRTDxfName
1000
ACIMINTSYSVAR
1000
AcRTDxfName
1000
ACIMINTSYSVAR
  0
ACAD_PROXY_OBJECT
  5
15FE
330
0
100
AcDbProxyObject
 90
      499
 91
      507
 95
    65563
 70
     0
162
               138
311
421040134010C0130011801140104015000C
161
                34
310
000101414C
330
15E2
 94
        0
1001
ACAD
1000
AcRTDxfName
1000
ACIMINTSYSVAR
1000
AcRTDxfName
1000
ACIMINTSYSVAR
  0
ACAD_PROXY_OBJECT
  5
15FF
330
0
100
AcDbProxyObject
 90
      499
 91
      507
 95
    65563
 70
     0
162
               138
311
421040134010C0130015801240114015C00C
161
                34
310
0001014FCC
330
15E2
 94
        0
1001
ACAD
1000
AcRTDxfName
1000
ACIMINTSYSVAR
1000
AcRTDxfName
1000
ACIMINTSYSVAR
  0
ACAD_PROXY_OBJECT
  5
1600
330
0
100
AcDbProxyObject
 90
      499
 91
      507
 95
    65563
 70
     0
162
               218
311
4350401340120012401100114016801140148013C01100124013400C
161
                34
310
000101404C
330
15E2
 94
        0
1001
ACAD
1000
AcRTDxfName
1000
ACIMINTSYSVAR
1000
AcRTDxfName
1000
ACIMINTSYSVAR
  0
ACAD_PROXY_OBJECT
  5
1601
330
0
100
AcDbProxyObject
 90
      499
 91
      507
 95
    65563
 70
     0
162
               170
311
429040134012001040150010C01200124014C013C00C
161
                34
310
000101404C
330
15E2
 94
        0
1001
ACAD
1000
AcRTDxfName
1000
ACIMINTSYSVAR
1000
AcRTDxfName
1000
ACIMINTSYSVAR
  0
ACAD_PROXY_OBJECT
  5
1602
330
0
100
AcDbProxyObject
 90
      499
 91
      507
 95
    65563
 70
     0
162
               234
311
439040134014C01240138011C0130011401200104015001300104016400C
161
                26
310
0001018C
330
15E2
 94
        0
1001
ACAD
1000
AcRTDxfName
1000
ACIMINTSYSVAR
1000
AcRTDxfName
1000
ACIMINTSYSVAR
  0
ACAD_PROXY_OBJECT
  5
1603
330
0
100
AcDbProxyObject
 90
      499
 91
      507
 95
    65563
 70
     0
162
               186
311
42D0401340110015C011C0118013001100124014C014000C
161
                26
310
0001018C
330
15E2
 94
        0
1001
ACAD
1000
AcRTDxfName
1000
ACIMINTSYSVAR
1000
AcRTDxfName
1000
ACIMINTSYSVAR
  0
ACAD_PROXY_OBJECT
  5
1604
330
0
100
AcDbProxyObject
 90
      499
 91
      507
 95
    65563
 70
     0
162
               138
311
421040134010401540150013C0120013800C
161
                26
310
0001018C
330
15E2
 94
        0
1001
ACAD
1000
AcRTDxfName
1000
ACIMINTSYSVAR
1000
AcRTDxfName
1000
ACIMINTSYSVAR
  0
ACAD_PROXY_OBJECT
  5
1605
330
0
100
AcDbProxyObject
 90
      499
 91
      507
 95
    65563
 70
     0
162
               154
311
42504013401200138010C013C01540138015000C
161
                34
310
000101404C
330
15E2
 94
        0
1001
ACAD
1000
AcRTDxfName
1000
ACIMINTSYSVAR
1000
AcRTDxfName
1000
ACIMINTSYSVAR
  0
ACAD_PROXY_OBJECT
  5
1606
330
0
100
AcDbProxyObject
 90
      499
 91
      507
 95
    65563
 70
     0
162
               138
311
4210401340120013801400148013C012800C
161
                34
310
000101404C
330
15E2
 94
        0
1001
ACAD
1000
AcRTDxfName
1000
ACIMINTSYSVAR
1000
AcRTDxfName
1000
ACIMINTSYSVAR
  0
ACAD_PROXY_OBJECT
  5
1607
330
0
100
AcDbProxyObject
 90
      499
 91
      507
 95
    65563
 70
     0
162
               138
311
42104013401200138015001640140011400C
161
                34
310
00010141CC
330
15E2
 94
        0
1001
ACAD
1000
AcRTDxfName
1000
ACIMINTSYSVAR
1000
AcRTDxfName
1000
ACIMINTSYSVAR
  0
ACAD_PROXY_OBJECT
  5
1608
330
0
100
AcDbProxyObject
 90
      499
 91
      507
 95
    65563
 70
     0
162
               138
311
42104013401200138015801240114015C00C
161
                34
310
00010143CC
330
15E2
 94
        0
1001
ACAD
1000
AcRTDxfName
1000
ACIMINTSYSVAR
1000
AcRTDxfName
1000
ACIMINTSYSVAR
  0
ACAD_PROXY_OBJECT
  5
1609
330
0
100
AcDbProxyObject
 90
      499
 91
      507
 95
    65563
 70
     0
162
               218
311
435040134014C0114010C01500124013C0138010C013C0140016400C
161
                26
310
0001018C
330
15E2
 94
        0
1001
ACAD
1000
AcRTDxfName
1000
ACIMINTSYSVAR
1000
AcRTDxfName
1000
ACIMINTSYSVAR
  0
ACAD_PROXY_OBJECT
  5
160A
330
0
100
AcDbProxyObject
 90
      499
 91
      507
 95
    65563
 70
     0
162
               138
311
421040134010C013001400148013C012800C
161
                34
310
00010140CC
330
15E2
 94
        0
1001
ACAD
1000
AcRTDxfName
1000
ACIMINTSYSVAR
1000
AcRTDxfName
1000
ACIMINTSYSVAR
  0
ACAD_PROXY_OBJECT
  5
160B
330
0
100
AcDbProxyObject
 90
      499
 91
      519
 95
    65563
 70
     0
162
               234
311
439040134010401540150013C012001040150010C01200148013C015000C
161
                90
310
0001010000000000000B900C
330
15E2
 94
        0
1001
ACAD
1000
AcRTDxfName
1000
ACIMREALSYSVAR
1000
AcRTDxfName
1000
ACIMREALSYSVAR
  0
ACAD_PROXY_OBJECT
  5
160C
330
0
100
AcDbProxyObject
 90
      499
 91
      507
 95
    65563
 70
     0
162
               234
311
439040134010401540150013C012001040150010C012001100114015000C
161
                34
310
000101404C
330
15E2
 94
        0
1001
ACAD
1000
AcRTDxfName
1000
ACIMINTSYSVAR
1000
AcRTDxfName
1000
ACIMINTSYSVAR
  0
ACAD_PROXY_OBJECT
  5
1619
330
0
100
AcDbProxyObject
 90
      499
 91
      529
 95
    65563
 70
     0
162
              1176
311
4793401BC01B800800134018401E4008000C400D8008000C400C800E800C400C400E800D000CC008000C800C000C000D4008000A001540150010C00A4010839002E0030002E00340033002E0030004615C0194019000800128018401B8008000C800CC008000C400D400E800D000CC00E800D400C4008000C800C000C000E0
311
0109310031002E0030002E00360032002E00300000
161
               114
310
0001000000009AA6A9AA404040404C
330
15E2
330
161A
330
161B
330
161D
330
0
 94
        0
1001
ACAD
1000
AcRTDxfName
1000
ADAPPL
1000
AcRTDxfName
1000
ADAPPL
  0
ACAD_PROXY_OBJECT
  5
161A
330
0
100
AcDbProxyObject
 90
      499
 91
      530
 95
    65563
 70
     0
162
                 0
161
                70
310
0001AAA80820000000
330
15E2
330
161A
330
161A
 94
        0
1001
ACAD
1000
AcRTDxfName
1000
DEPMGR
1000
AcRTDxfName
1000
DEPMGR
  0
ACAD_PROXY_OBJECT
  5
161B
330
0
100
AcDbProxyObject
 90
      499
 91
      531
 95
    65563
 70
     0
162
                 0
161
                48
310
00010000000040
330
15E2
330
0
330
161C
330
0
330
0
 94
        0
1001
ACAD
1000
AcRTDxfName
1000
PARAMMGR
1000
AcRTDxfName
1000
PARAMMGR
  0
ACAD_PROXY_OBJECT
  5
161C
330
0
100
AcDbProxyObject
 90
      499
 91
      532
 95
    65563
 70
     0
162
                 0
161
                40
310
000100AAAA00
330
15E2
330
0
 94
        0
1001
ACAD
1000
AcRTDxfName
1000
PARAMSCOPE
1000
AcRTDxfName
1000
PARAMSCOPE
  0
ACAD_PROXY_OBJECT
  5
1622
330
0
100
AcDbProxyObject
 90
      499
 91
      536
 95
    65563
 70
     0
162
               276
311
431040104010C013C01340140011001180138010401340114010443004F004D005000C
161
                32
310
0001010100
330
15E2
 94
        0
1001
ACAD
1000
AcRTDxfName
1000
ACIMSTRSYSVAR
1000
AcRTDxfName
1000
ACIMSTRSYSVAR
  0
ACAD_PROXY_OBJECT
  5
1623
330
0
100
AcDbProxyObject
 90
      499
 91
      536
 95
    65563
 70
     0
162
               340
311
4390401040118013C0130011001140148011001180138010401340114010646006F006C00640065007200C
161
                32
310
0001010100
330
15E2
 94
        0
1001
ACAD
1000
AcRTDxfName
1000
ACIMSTRSYSVAR
1000
AcRTDxfName
1000
ACIMSTRSYSVAR
  0
ACAD_PROXY_OBJECT
  5
1624
330
0
100
AcDbProxyObject
 90
      499
 91
      536
 95
    65563
 70
     0
162
               276
311
431040104010401380138013C01100118013801040134011401042800410056002900C
161
                32
310
0001010100
330
15E2
 94
        0
1001
ACAD
1000
AcRTDxfName
1000
ACIMSTRSYSVAR
1000
AcRTDxfName
1000
ACIMSTRSYSVAR
  0
ACAD_PROXY_OBJECT
  5
1625
330
0
100
AcDbProxyObject
 90
      499
 91
      536
 95
    65563
 70
     0
162
               756
311
439040104010C013C01340140015801240114015C01300124014C0150012054006F0070000A00460072006F006E0074000A00520069006700680074000A004C006500660074000A0042006F00740074006F006D000A004100750078003100C
161
                32
310
0001010100
330
15E2
 94
        0
1001
ACAD
1000
AcRTDxfName
1000
ACIMSTRSYSVAR
1000
AcRTDxfName
1000
ACIMSTRSYSVAR
  0
ACAD_PROXY_OBJECT
  5
162A
330
0
100
AcDbProxyObject
 90
      499
 91
      538
 95
    65563
 70
     0
162
                 0
161
                32
310
0001000000
330
15E2
340
1627
330
162C
330
1627
 94
        0
1001
ACAD
1000
AcRTDxfName
1000
ACAMGRCOMPDEF
1000
AcRTDxfName
1000
ACAMGRCOMPDEF
  0
ACAD_PROXY_OBJECT
  5
162B
330
0
100
AcDbProxyObject
 90
      499
 91
      539
 95
    65563
 70
     0
162
                 0
161
                18
310
00018C
330
15E2
 94
        0
1001
ACAD
1000
AcRTDxfName
1000
ACCMCONTEXT
1000
AcRTDxfName
1000
ACCMCONTEXT
  0
ACAD_PROXY_OBJECT
  5
162C
330
0
100
AcDbProxyObject
 90
      499
 91
      540
 95
    65563
 70
     0
162
               138
311
42108014000C400E000C400D8014C014C00C
161
                80
310
0001014140155005540000
330
15E2
330
162A
330
162B
 94
        0
1001
ACAD
1000
AcRTDxfName
1000
ACAMCOMPDEF
1000
AcRTDxfName
1000
ACAMCOMPDEF
  0
ACAD_PROXY_OBJECT
  5
162D
330
0
100
AcDbProxyObject
 90
      499
 91
      541
 95
    65563
 70
     0
162
                 0
161
               178
310
000100AAAAAA881704FDB5985013ACAFA0A2BEDA6A120C
330
15E2
330
162C
 94
        0
1001
ACAD
1000
AcRTDxfName
1000
ACAMCOMPDEFMGR
1000
AcRTDxfName
1000
ACAMCOMPDEFMGR
  0
ACAD_PROXY_OBJECT
  5
162E
330
0
100
AcDbProxyObject
 90
      499
 91
      542
 95
    65563
 70
     0
162
                 0
161
               108
310
000190140A000000000000AAAAAC
330
15E2
330
162F
330
162F
330
162F
330
162F
330
162F
330
0
 94
        0
1001
ACAD
1000
AcRTDxfName
1000
AMCONTEXTMGR
1000
AcRTDxfName
1000
AMCONTEXTMGR
  0
ACAD_PROXY_OBJECT
  5
162F
330
0
100
AcDbProxyObject
 90
      499
 91
      543
 95
    65563
 70
     0
162
                 0
161
                51
310
00010000AAAA8C
330
15E2
330
162E
330
162C
 94
        0
1001
ACAD
1000
AcRTDxfName
1000
ACAMCONTEXTMODELER
1000
AcRTDxfName
1000
ACAMCONTEXTMODELER
  0
ACAD_PROXY_OBJECT
  5
163D
330
0
100
AcDbProxyObject
 90
      499
 91
      536
 95
    65563
 70
     0
162
               212
311
421040134010C01540148014C01500110010441004E0053004900C
161
                32
310
0001010100
330
15E2
 94
        0
1001
ACAD
1000
AcRTDxfName
1000
ACIMSTRSYSVAR
1000
AcRTDxfName
1000
ACIMSTRSYSVAR
  0
ACAD_PROXY_OBJECT
  5
1DA7
330
0
100
AcDbProxyObject
 90
      499
 91
      507
 95
    65563
 70
     0
162
               218
311
4350401340130011C010C013C0130013C01480134013C0110011400C
161
                34
310
000101404C
330
15E2
 94
        0
1001
ACAD
1000
AcRTDxfName
1000
ACIMINTSYSVAR
1000
AcRTDxfName
1000
ACIMINTSYSVAR
  0
ACAD_PROXY_OBJECT
  5
20F1
330
0
100
AcDbProxyObject
 90
      499
 91
      507
 95
    65563
 70
     0
162
               234
311
439040134014C014C0150014801040130015C01040164014C013C013800C
161
                26
310
0001018C
330
15E2
 94
        0
  0
DICTIONARY
  5
15DC
102
{ACAD_REACTORS
330
15DB
102
}
330
15DB
100
AcDbDictionary
281
     1
  3
DWGSETTINGS
350
15DD
  3
TRANSSETTINGS
350
15DE
  0
ACAD_PROXY_OBJECT
  5
1640
102
{ACAD_REACTORS
330
15DB
102
}
330
15DB
100
AcDbProxyObject
 90
      499
 91
      551
 95
    65563
 70
     0
162
             15824
311
404C0010441004D005F0030009013100411040134017C00C402404C8010441004D005F0032009013300411040134017C00CC02404D0010441004D005F0034009013500411040134017C00D402404D8010441004D005F0036009013700411040134017C00DC02404E0010441004D005F0038009013900411040134017C00E40
311
2408C80104010541004D005F003100300090234004100415040134017C00C400C402409240140010541004D005F003100320090230004E00415040134017C00C0013802408C40138010541004D005F0031004E0090232004E00415040134017C00C8013802408CC0138010541004D005F0033004E0090234004E0041504013
311
4017C00D0013802408D40138010541004D005F0035004E0090236004E00415040134017C00D8013802408DC0138010541004D005F0037004E0090238004E00415040134017C00E0013802408E40138010541004D005F0039004E00903320041004E00419040134017C00C400C001380240CD001040138010641004D005F003
311
10031004E00903490050004E00419040134017C00C400C80138024112C013001240138010541004D005F0043004C0090449004E0046004F00421040134017C01400104014801140118024154801040120013400D4010641004D005F0042004F0052009045600490045005700421040134017C015801240114015C014C02419
311
0801140120012401380110010641004D005F0049004E00560090554005200410049004C00415040134017C015001480240D2001240110010641004D005F00480049004400903560049005300419040134017C01580124014C024194001040148011001240134010941004D005F00500041005200440049004D009065200450
311
04600440049004D00425040134017C01480114011801100124013402411080120013801580101390041508012001380158014C010642004500480049004E00440041108013C014800C801055200410048004D00350041108013C014800CC01055200410048004D00350041108013C014800D401055200410048004D0035004
311
110C0104013000C8010134004110C0104013000CC010134004110C0104013000D4010134004110C0104013000DC010134004110C011401380138010137004110C01140138015C010137004110C01300124013801044B004C0049004E004110C013C013800C4010130004110C013C013800C8010131004110C013C013800CC0
311
10132004110C013C013800D00101320041110011401500104010134004111001240104011C010135004111001240130012401013500411100124013401400106500041005200440049004D00411100124013401480106520045004600440049004D00411180114013401380101380041518011401340140013801013800415
311
1801140134014C01400102340041004151801140134014C015001023400410041518011401340158013801013200415180114013401580150010132004112001040150010C0101380041120012401100138010133004112001240110015C01013300411200130012401380101340041120013C010C01380101370041120013
311
C010C015C010137004112401380118013C010449004E0046004F00411300114010401100101350041938017C0108012001380158010239004E0041938017C010C013C013800C4010230004E0041938017C010C013C013800C8010231004E0041938017C010C013C013800CC010232004E0041938017C010C013C013800D001
311
0232004E0041938017C010C011401380138010237004E0041938017C010C01140138015C010237004E0041938017C0110012401300124010235004E0041938017C012001040150010C010238004E0041938017C0120012401100138010233004E0041938017C012001240110015C010233004E0041938017C0130011401040
311
110010235004E0041938017C0138011C012401400103490050004E0041938017C01400120010401380103340041004E0041938017C0150010C013C0138010230004E0041938017C0150012001300124010234004E0041938017C0150013001140138010230004E0041938017C01580140013001240103320041004E0041138
311
011C01240140010249005000411400104013000C801055200410048004D003500411400104013000CC01055200410048004D003500411400104013000D401055200410048004D0035004114001200104013801023400410041140013C014C01380101350041148010C011C01380101370041148010C011C015C01013700411
311
4C01080148012C010134004114C0114010C0150010134004114C0164010800CC0101350041134014C016401340101350041150010C013C0138010130004115001200130012401013400411500124015000C801055200410048004D003500411500124015000CC01055200410048004D003500411500124015000D401055200
311
410048004D0035004115001300114013801013000415500148010401240130010554005200410049004C004115001480130012401013400411500160015000C401013600411500160015000C801013600411500160015000CC01013600411500160015000D401013600411500160015000DC010136004115801240114015C0
311
1045600490045005700411580114011001200103480049004400411580114011001580103560049005300411580140013001240102320041004116801240168010401013400404FC0220
161
              8848
310
4190349201C00030C011E44203800030C011E44201400030C011E44201800030C010FA00C00030C010FA00C00030C010FA00800030C011EA01000030C010FA00400030C010FA3F400030C0241201C00030C011EA00C00030C010FA01C00030C011E40A01C00030C011EA03800030C011EA01400030C011EA01800030C010FA
310
00C00030C010FA00C00030C010FA00800030C011EA01000030C010FA00400030C010FA3F400030C0241201C00030C011EA00C00030C010FA01C00030C011E40A00400030C010F42601000030C010F42E01C00030C011E42600400030C010F42E3F400030C0243600C00030C010F42601C00030C010F42601C00030C011E426
310
00C00030C010F42601000030C010F425538000000C0003FFFFFFFE8000000C0003FFFFFFFE8010000C30043E8020000C30047A8000000C0003FFFFFFFE8000000C0003FFFFFFFE8020000C30047A8070000C30047A81E0000C3004F28000000C0003FFFFFFFE8000000C0003FFFFFFFE8000000C0003FFFFFFFE8000000C00
310
03FFFFFFFD038000000C0003FFFFFFFD038000000C0003FFFFFFFD038000000C0003FFFFFFFD038000000C0003FFFFFFFE8000000C0003FFFFFFFE8000000C0003FFFFFFFE8000000C0003FFFFFFFE8000000C0003FFFFFFFE8000000C0003FFFFFFFE8030000C3003FFFFFFFE8000000C0003FFFFFFFE8030000C30043E80
310
00000C0003FFFFFFFE8030000C30043E8000000C0003FFFFFFFD018000000C0003FFFFFFFD038000000C0003FFFFFFFD038000000C0003FFFFFFFD018000000C0003FFFFFFFE8000000C0003FFFFFFFE8000000C0003FFFFFFFE8000000C0003FFFFFFFE8000000C0003FFFFFFFE8000000C0003FFFFFFFD038000000C0003
310
FFFFFFFD038000000C0003FFFFFFFD038000000C0003FFFFFFFD038000000C0003FFFFFFFE8000000C0003FFFFFFFE8000000C0003FFFFFFFE8000000C0003FFFFFFFD018000000C0003FFFFFFFD038000000C0003FFFFFFFD038000000C0003FFFFFFFE8000000C0003FFFFFFFE8000000C0003FFFFFFFE8000000C0003FF
310
FFFFFD038000000C0003FFFFFFFD018000000C0003FFFFFFFD038000000C0003FFFFFFFE8000000C0003FFFFFFFE8010000C30043E8020000C30047A8000000C0003FFFFFFFE8000000C0003FFFFFFFE8000000C0003FFFFFFFE8000000C0003FFFFFFFE8000000C0003FFFFFFFE8070000C300479018000000C0003FFFFFF
310
FD018020000C30047A8020000C30047A8000000C0003FFFFFFFD038000000C0003FFFFFFFD018010000C30043E8020000C30047A8000000C0003FFFFFFFE8000000C0003FFFFFFFD038000000C0003FFFFFFFE8000000C0003FFFFFFFD018030000C30043E8030000C30043E8000000C0003FFFFFFFE8070000C30047A81E0
310
000C3004F28000000C0003FFFFFFFE8000000C0003FFFFFFFD028000000C0003FFFFFFFD028000000C0003FFFFFFFE8000000C0003FFFFFFFD01AAA3F400030C010A4391E41D1E4190F4151E4110F40D0F4091E4050F4793C7F600
340
14
340
14
340
14
340
1F
340
14
340
14
340
14
340
20
340
14
340
14
340
20
340
160D
340
14
340
14
340
14
340
14
340
1F
340
14
340
14
340
14
340
20
340
14
340
14
340
20
340
160D
340
14
340
1644
340
14
340
14
340
14
340
14
340
14
340
1F
340
14
340
14
340
14
340
13
340
13
340
13
340
13
340
13
340
13
340
13
340
13
340
13
340
164A
340
13
340
13
340
13
340
13
340
13
340
13
340
13
340
13
340
13
340
13
340
13
340
13
340
13
340
14
340
13
340
13
340
13
340
13
340
164B
340
13
340
13
340
164A
340
13
340
13
340
13
340
13
340
13
340
13
340
13
340
13
340
164A
340
13
340
13
340
13
340
164B
340
13
340
13
340
13
340
13
340
13
340
164B
340
13
340
160D
340
13
340
13
340
13
340
13
340
13
340
13
340
164A
340
13
340
13
340
13
340
13
340
13
340
13
340
164B
340
13
340
13
340
13
340
13
340
13
340
13
340
13
340
13
340
13
340
13
340
13
340
13
340
13
340
13
340
160D
340
164C
 94
        0
1001
ACAD
1000
AcRTDxfName
1000
AMGOBJPROPCFG
1000
AcRTDxfName
1000
AMGOBJPROPCFG
  0
ACAD_PROXY_OBJECT
  5
1677
102
{ACAD_REACTORS
330
1672
102
}
330
1672
100
AcDbProxyObject
 90
      499
 91
      568
 95
    65563
 70
     0
162
               434
311
451100124013401140138014C0124013C013800B00104013401100150017C00A8017C01100124013401012A00404A801012A00404A800C
161
                11
310
43EC
 94
        0
1001
ACAD
1000
AcRTDxfName
1000
ACAMGFILTERDAT
1000
AcRTDxfName
1000
ACAMGFILTERDAT
  0
ACAD_PROXY_OBJECT
  5
1676
102
{ACAD_REACTORS
330
1672
102
}
330
1672
100
AcDbProxyObject
 90
      499
 91
      568
 95
    65563
 70
     0
162
               290
311
404A8010B41004D005F004600450041002D0041004D005F002A00404A801012A00404A800C
161
                11
310
43EC
 94
        0
1001
ACAD
1000
AcRTDxfName
1000
ACAMGFILTERDAT
1000
AcRTDxfName
1000
ACAMGFILTERDAT
  0
ACAD_PROXY_OBJECT
  5
1673
102
{ACAD_REACTORS
330
1672
102
}
330
1672
100
AcDbProxyObject
 90
      499
 91
      568
 95
    65563
 70
     0
162
               194
311
4152001040150010C012001012A00404A801012A00404A800C
161
                11
310
43EC
 94
        0
1001
ACAD
1000
AcRTDxfName
1000
ACAMGFILTERDAT
1000
AcRTDxfName
1000
ACAMGFILTERDAT
  0
ACAD_PROXY_OBJECT
  5
1674
102
{ACAD_REACTORS
330
1672
102
}
330
1672
100
AcDbProxyObject
 90
      499
 91
      568
 95
    65563
 70
     0
162
              1026
311
41130012401380114012738002C0038004E002C002A002D0038002C002A002D0038004E002C0041004D005F0038002C0041004D005F0038004E002C002A002D0041004D005F0038002C002A002D0041004D005F0038004E00404A801012A00441240138014C01140148015000B0014C01500110014001040148015000C8011
311
000C
161
                11
310
43EC
 94
        0
1001
ACAD
1000
AcRTDxfName
1000
ACAMGFILTERDAT
1000
AcRTDxfName
1000
ACAMGFILTERDAT
  0
ACAD_PROXY_OBJECT
  5
1678
102
{ACAD_REACTORS
330
1672
102
}
330
1672
100
AcDbProxyObject
 90
      499
 91
      568
 95
    65563
 70
     0
162
               290
311
40D040148010C010441004D005F003500404A801013200419240138014C01140148015000C
161
                11
310
43CC
 94
        0
1001
ACAD
1000
AcRTDxfName
1000
ACAMGFILTERDAT
1000
AcRTDxfName
1000
ACAMGFILTERDAT
  0
ACAD_PROXY_OBJECT
  5
1675
102
{ACAD_REACTORS
330
1672
102
}
330
1672
100
AcDbProxyObject
 90
      499
 91
      568
 95
    65563
 70
     0
162
              2034
311
5E104010C01340118010C0118014801040134011400B00104010C013401100104015001540134015001040148011C0114015000B00104010C0134011001040150015401340124011000B00104010C0134015C011401300110014C0164013400B00104010C0134014C015401480118014C0164013400B00104010C013401180
311
114010401500124011000B00104010C0134014001040148015001480114011800B00104010C01340108010401300130013C013C013800B0010401340110015001140110011C0114014C0164013400B001040134011C014C010C01480114015C010C01040130010C0150010401080130011401012A00404A801012A00404A80
311
0C
161
                11
310
43EC
 94
        0
1001
ACAD
1000
AcRTDxfName
1000
ACAMGFILTERDAT
1000
AcRTDxfName
1000
ACAMGFILTERDAT
  0
DICTIONARY
  5
21DB
330
15D2
100
AcDbDictionary
280
     1
281
     1
  3
ACAD_ROUNDTRIP_2008_TABLESTYLE_CELLSTYLEMAP
360
21DC
  0
ACAD_PROXY_OBJECT
  5
163F
102
{ACAD_REACTORS
330
163E
102
}
330
163E
100
AcDbProxyObject
 90
      499
 91
      550
 95
    65563
 70
     0
162
              3516
311
411040138014C01240243904018C01B4014C01D401C801980150019401E001D0014C01D001900109410063006D0046004300460053007400640043504018C01B4015C019401B0019001A401B8019C014C01D001900108410063006D004900640053007400640042D04018C01B40110018401D001D401B4014C01D001900109
311
410063006D0042004F004D005300740064004410401B4019001D00110019401D0018401A401B0014C01E401B4014C01D00190011141006D0064007400530065006300740069006F006E00530079006D005300740064004450401B4019001D0010C019401B801D0019401C8013001A401B80194014C01D00190011141006D00
311
640074005400680072006500610064004C0069006E00650053007400640042D0401B4019001D0013801BC01D00194014C01D00190010B4100630041006D0067004C006100790053007400640042D04018C010401B4019C011001A401B4014C01D0019001114100630041006D00670048006F006C0065004300680061007200
311
740053007400640043504018C010401B4019C015001A401D001B00194014C01D00190010B410063006D0054006100700065007200530074006400C
161
               705
310
630B81E85EB51B8BE3F8030000C30040540600800030C0200800030C00B81E85EB51B8BE3F4882208120281202812028120281202812028120281202812028120281202812028120281202812028120280A04809FFFE7FFFCC
340
164D
360
164E
360
164F
360
1650
360
1651
360
1652
360
1653
360
1654
360
1655
360
1656
360
1657
360
1658
360
1663
360
1664
360
166F
360
1670
360
20F3
340
0
340
0
340
0
340
0
 94
        0
1001
ACAD
1000
AcRTDxfName
1000
ACMSTANDARDANSI
1000
AcRTDxfName
1000
ACMSTANDARDANSI
  0
ACAD_PROXY_OBJECT
  5
15DD
102
{ACAD_REACTORS
330
15DC
102
}
330
15DC
100
AcDbProxyObject
 90
      499
 91
      503
 95
    65563
 70
     0
162
              3608
311
42D10015C011C014C01140150015001240138011C014C0109430041004E00470041005200520041005900420CC00C001F000D000D401F000D800C00106430045004E0041004E004700424D000D401F000E400C001F000C400CC00D40106430045004E0044004900410041D0C01140138011001240104014C010B30002E0035
311
007C0031002E0030007C0031002E00350041D0C0114013801100124014C01500106430045004E004C0045004E004190C01140138013C01180118010943004C0049004E0041005200520041005900438C000B800C400C800D401F000C000B800C800D401F000C000B800D4010843004C0049004E00450054005900500041560
311
0130012401380114010944005700470055005300430041004C00450041D300104014C0150013C0108012801043200300031003300421340104012C0114015801240114015C010650005300430041004C00450041948011401580124014C0124010130004154C010C010401300114010331003A003100425500124013401140
311
14C01500104013401400107560045005200530049004F004E00414C400D400B800C000C001107B00440057004700530045005400540049004E004700530045004E0044007D0000
161
               548
310
40682A0A940000000000001C07E82A50000000000000601FA50000000000000701FA50000000000000701FA0A82A50A0A9FA040C00800010541528185A9DAC97C99CD0505C
 94
        0
1001
ACAD
1000
AcRTDxfName
1000
AMGSETTINGSOBJ
1000
AcRTDxfName
1000
AMGSETTINGSOBJ
  0
ACAD_PROXY_OBJECT
  5
15DE
102
{ACAD_REACTORS
330
15DC
102
}
330
15DC
100
AcDbProxyObject
 90
      499
 91
      503
 95
    65563
 70
     0
162
              1382
311
43550014801040138014C014C01140150015001240138011C014C0112440052004100570049004E0047005400520041004E0053004C004100540049004F004E004353C01480124011C012401380104013001300164017C013C0138010A53004F0055005200430045004C0041004E00470040D1401380154010955005000520
311
0450053004500520056004500441EC0110015C011C014C01140150015001240138011C014C01140138011001F400
161
               126
310
4060C00800041801000020A0C0080000
 94
        0
1001
ACAD
1000
AcRTDxfName
1000
AMGSETTINGSOBJ
1000
AcRTDxfName
1000
AMGSETTINGSOBJ
  0
CELLSTYLEMAP
  5
21DC
102
{ACAD_REACTORS
330
21DB
102
}
330
21DB
100
AcDbCellStyleMap
 90
        3
300
CELLSTYLE
  1
TABLEFORMAT_BEGIN
 90
        5
170
     1
 91
        0
 92
    32768
 62
   257
 93
        1
300
CONTENTFORMAT
  1
CONTENTFORMAT_BEGIN
 90
        0
 91
        0
 92
        4
 93
        0
300

 40
0.0
140
1.0
 94
        5
 62
     0
340
10
144
0.25
309
CONTENTFORMAT_END
171
     0
 94
        6
 95
        1
302
GRIDFORMAT
  1
GRIDFORMAT_BEGIN
 90
        0
 91
        1
 62
     0
 92
       -2
340
0
 93
        0
 40
0.045
309
GRIDFORMAT_END
 95
        2
302
GRIDFORMAT
  1
GRIDFORMAT_BEGIN
 90
        0
 91
        1
 62
     0
 92
       -2
340
0
 93
        0
 40
0.045
309
GRIDFORMAT_END
 95
        4
302
GRIDFORMAT
  1
GRIDFORMAT_BEGIN
 90
        0
 91
        1
 62
     0
 92
       -2
340
0
 93
        0
 40
0.045
309
GRIDFORMAT_END
 95
        8
302
GRIDFORMAT
  1
GRIDFORMAT_BEGIN
 90
        0
 91
        1
 62
     0
 92
       -2
340
0
 93
        0
 40
0.045
309
GRIDFORMAT_END
 95
       16
302
GRIDFORMAT
  1
GRIDFORMAT_BEGIN
 90
        0
 91
        1
 62
     0
 92
       -2
340
0
 93
        0
 40
0.045
309
GRIDFORMAT_END
 95
       32
302
GRIDFORMAT
  1
GRIDFORMAT_BEGIN
 90
        0
 91
        1
 62
     0
 92
       -2
340
0
 93
        0
 40
0.045
309
GRIDFORMAT_END
309
TABLEFORMAT_END
  1
CELLSTYLE_BEGIN
 90
        1
 91
        1
300
_TITLE
309
CELLSTYLE_END
300
CELLSTYLE
  1
TABLEFORMAT_BEGIN
 90
        5
170
     1
 91
        0
 92
        0
 62
   257
 93
        1
300
CONTENTFORMAT
  1
CONTENTFORMAT_BEGIN
 90
        0
 91
        0
 92
        4
 93
        0
300

 40
0.0
140
1.0
 94
        5
 62
     0
340
10
144
0.18
309
CONTENTFORMAT_END
171
     0
 94
        6
 95
        1
302
GRIDFORMAT
  1
GRIDFORMAT_BEGIN
 90
        0
 91
        1
 62
     0
 92
       -2
340
0
 93
        0
 40
0.045
309
GRIDFORMAT_END
 95
        2
302
GRIDFORMAT
  1
GRIDFORMAT_BEGIN
 90
        0
 91
        1
 62
     0
 92
       -2
340
0
 93
        0
 40
0.045
309
GRIDFORMAT_END
 95
        4
302
GRIDFORMAT
  1
GRIDFORMAT_BEGIN
 90
        0
 91
        1
 62
     0
 92
       -2
340
0
 93
        0
 40
0.045
309
GRIDFORMAT_END
 95
        8
302
GRIDFORMAT
  1
GRIDFORMAT_BEGIN
 90
        0
 91
        1
 62
     0
 92
       -2
340
0
 93
        0
 40
0.045
309
GRIDFORMAT_END
 95
       16
302
GRIDFORMAT
  1
GRIDFORMAT_BEGIN
 90
        0
 91
        1
 62
     0
 92
       -2
340
0
 93
        0
 40
0.045
309
GRIDFORMAT_END
 95
       32
302
GRIDFORMAT
  1
GRIDFORMAT_BEGIN
 90
        0
 91
        1
 62
     0
 92
       -2
340
0
 93
        0
 40
0.045
309
GRIDFORMAT_END
309
TABLEFORMAT_END
  1
CELLSTYLE_BEGIN
 90
        2
 91
        1
300
_HEADER
309
CELLSTYLE_END
300
CELLSTYLE
  1
TABLEFORMAT_BEGIN
 90
        5
170
     1
 91
        0
 92
        0
 62
   257
 93
        1
300
CONTENTFORMAT
  1
CONTENTFORMAT_BEGIN
 90
        0
 91
        0
 92
        4
 93
        0
300

 40
0.0
140
1.0
 94
        2
 62
     0
340
10
144
0.18
309
CONTENTFORMAT_END
171
     0
 94
        6
 95
        1
302
GRIDFORMAT
  1
GRIDFORMAT_BEGIN
 90
        0
 91
        1
 62
     0
 92
       -2
340
0
 93
        0
 40
0.045
309
GRIDFORMAT_END
 95
        2
302
GRIDFORMAT
  1
GRIDFORMAT_BEGIN
 90
        0
 91
        1
 62
     0
 92
       -2
340
0
 93
        0
 40
0.045
309
GRIDFORMAT_END
 95
        4
302
GRIDFORMAT
  1
GRIDFORMAT_BEGIN
 90
        0
 91
        1
 62
     0
 92
       -2
340
0
 93
        0
 40
0.045
309
GRIDFORMAT_END
 95
        8
302
GRIDFORMAT
  1
GRIDFORMAT_BEGIN
 90
        0
 91
        1
 62
     0
 92
       -2
340
0
 93
        0
 40
0.045
309
GRIDFORMAT_END
 95
       16
302
GRIDFORMAT
  1
GRIDFORMAT_BEGIN
 90
        0
 91
        1
 62
     0
 92
       -2
340
0
 93
        0
 40
0.045
309
GRIDFORMAT_END
 95
       32
302
GRIDFORMAT
  1
GRIDFORMAT_BEGIN
 90
        0
 91
        1
 62
     0
 92
       -2
340
0
 93
        0
 40
0.045
309
GRIDFORMAT_END
309
TABLEFORMAT_END
  1
CELLSTYLE_BEGIN
 90
        3
 91
        2
300
_DATA
309
CELLSTYLE_END
  0
ACAD_PROXY_OBJECT
  5
164E
330
163F
100
AcDbProxyObject
 90
      499
 91
      552
 95
    65563
 70
     0
162
                 0
161
                96
310
63020E80A0280A0280A0280800
 94
        0
1001
ACAD
1000
AcRTDxfName
1000
ACMSURFSTANDARDANSI
1000
AcRTDxfName
1000
ACMSURFSTANDARDANSI
  0
ACAD_PROXY_OBJECT
  5
164F
330
163F
100
AcDbProxyObject
 90
      499
 91
      553
 95
    65563
 70
     0
162
                 0
161
               332
310
6310E405014050140501405014050140501405014250140501405014050140501200000000000000040C
340
1659
 94
        0
1001
ACAD
1000
AcRTDxfName
1000
ACMFCFSTANDARDANSI
1000
AcRTDxfName
1000
ACMFCFSTANDARDANSI
  0
ACAD_PROXY_OBJECT
  5
1650
330
163F
100
AcDbProxyObject
 90
      499
 91
      554
 95
    65563
 70
     0
162
                 0
161
               403
310
630C199999999999E99F91F405014050140501405014050140501405014050140501405014050140501405014050140501404C
340
0
 94
        0
1001
ACAD
1000
AcRTDxfName
1000
ACMWELDSTANDARDANSI
1000
AcRTDxfName
1000
ACMWELDSTANDARDANSI
  0
ACAD_PROXY_OBJECT
  5
1651
330
163F
100
AcDbProxyObject
 90
      499
 91
      555
 95
    65563
 70
     0
162
                 0
161
                10
310
630C
 94
        0
1001
ACAD
1000
AcRTDxfName
1000
ACMIDSTANDARDANSI
1000
AcRTDxfName
1000
ACMIDSTANDARDANSI
  0
ACAD_PROXY_OBJECT
  5
1652
330
163F
100
AcDbProxyObject
 90
      499
 91
      556
 95
    65563
 70
     0
162
                 0
161
               257
310
632290EA22A7D90F49F9353333333333727F44D4CCCCCCCCCDC9FC01000061804C
340
165A
340
165B
 94
        0
1001
ACAD
1000
AcRTDxfName
1000
ACMDATUMSTANDARDANSI
1000
AcRTDxfName
1000
ACMDATUMSTANDARDANSI
  0
ACAD_PROXY_OBJECT
  5
1653
330
163F
100
AcDbProxyObject
 90
      499
 91
      557
 95
    65563
 70
     0
162
             22604
311
4112401500114013401044900540045004D004CD1C01140138015001480104010C013C00B001140138015400B000C000B0012401500114013400B0011C011401380150014801040150016000B0009401CC00B000A0011C011401380134014C011C0080019C019401B8019001DC019C008000C800C800C800A40240D4401500
311
16401035100540059004C91C01140138015001480104010C013C00B001140138015400B000C000B001440150016400B0011C011401380150014801040150016000B0009401CC00B000A0011C011401380134014C011C0080019C019401B8019001DC019C008000C800C800CC00A4024113801040134011401044E0041004D0
311
045004CD1C01140138015001480104010C013C00B001140138015400B000C000B0013801040134011400B0011C011401380150014801040150016000B0009401CC00B000A0011C011401380134014C011C0080019C019401B8019001DC019C008000C800C800D800A4012C3D004900460028004900530042004C0041004E00
311
4B00280050004100520054003A004E0041004D00450029002C0042004C004F0043004B003A004E0041004D0045002C0050004100520054003A004E0041004D0045002900415100114014C010C0148010B4400450053004300520049005000540049004F004E004E91C01140138015001480104010C013C00B0011401380154
311
00B000C000B001100114014C010C01480124014001500124013C013800B0011C011401380150014801040150016000B0009401CC00B000A0011C011401380134014C011C0080019C019401B8019001DC019C008000C800C400DC00A4024214C015001040138011001040148011001085300540041004E00440041005200440
311
04DD1C01140138015001480104010C013C00B001140138015400B000C000B0014C015001040138011001040148011000B0011C011401380150014801040150016000B0009401CC00B000A0011C011401380134014C011C0080019C019401B8019001DC019C008000C800C400E000A402421340104015001140148012401040
311
13001084D004100540045005200490041004C004DD1C01140138015001480104010C013C00B001140138015400B000C000B00134010401500114014801240104013000B0011C011401380150014801040150016000B0009401CC00B000A0011C011401380134014C011C0080019C019401B8019001DC019C008000C800C800
311
C400A40241138013C0150011401044E004F00540045004CD1C01140138015001480104010C013C00B001140138015400B000C000B00138013C0150011400B0011C011401380150014801040150016000B0009401CC00B000A0011C011401380134014C011C0080019C019401B8019001DC019C008000C800C800D400A40241
311
958011401380110013C01480106560045004E0044004F0052004D51C01140138015001480104010C013C00B001140138015400B000C000B00158011401380110013C014800B0011C011401380150014801040150016000B0009401CC00B000A0011C011401380134014C011C0080019C019401B8019001DC019C008000C800
311
C800D000A402419100114014C010C014800C8010D4400450053004300520049005000540049004F004E00200032004ED1C01140138015001480104010C013C00B001140138015400B000C000B001100114014C010C01480124014001500124013C0138008000C800B0011C011401380150014801040150016000B0009401CC
311
00B000A0011C011401380134014C011C0080019C019401B8019001DC019C008000CC00D800A4024254C015001040138011001040148011000C8010A5300540041004E004400410052004400200032004E51C01140138015001480104010C013C00B001140138015400B000C000B0014C015001040138011001040148011000
311
8000C800B0011C011401380150014801040150016000B0009401CC00B000A0011C011401380134014C011C0080019C019401B8019001DC019C008000C800C800C000A40242534010401500114014801240104013000C8010A4D004100540045005200490041004C00200032004E11C01140138015001480104010C013C00B0
311
01140138015400B000C000B001340104015001140148012401040130008000C800B0011C011401380150014801040150016000B0009401CC00B000A0011C011401380134014C011C0080019C019401B8019001DC019C008000D000C000A402411340104014C014C01044D004100530053004C91C0114013801500148010401
311
0C013C00B001140138015400B000C000B001340104014C014C00B0011C011401380150014801040150016000B0009401CC00B000A0011C011401380134014C011C0080019C019401B8019001DC019C008000D000C800A4024154001480124010C01140105500052004900430045004CD1C01140138015001480104010C013C
311
00B001140138015400B000C000B0014001480124010C011400B0011C011401380150014801040150016000B0009401CC00B000A0011C011401380134014C011C0080019C019401B8019001DC019C008000D000CC00A40240D1001240134010B4D004500410053005500520045004D0045004E0054004E51C01140138015001
311
480104010C013C00B001140138015400B000C000B0013401140104014C015401480114013401140138015000B0011C011401380150014801040150016000B0009401CC00B000A0011C011401380134014C011C0080019C019401B8019001DC019C008000D000D000A40242508013C0134017C0154013801240150014C01055
311
5004E00490054005300A41CF400F0012401500114013400F801073D003C004900540045004D003E0041CF400F0012401500114013400F801073D003C004900540045004D003E0041CF400F0012401500114013400F801063D003C005100540059003E0041CF400F0012401500114013400F801073D003C004900540045004D
311
003E00AAA901310090B65006100090065006100090045006100630068000A00455CC01C401B4002401CC01C401B40024014C01C401D4018401C8019400800134019401D0019401C80028011C7300710063006D0009007300710063006D0009005300710075006100720065002000430065006E00740069006D006500740065
311
0072000A00459CC01C4019801D0002401CC01C4019801D00024014C01C401D4018401C801940080011801BC01BC01D0002801147300710069006E0009007300710069006E000900530071007500610072006500200049006E000A0043D9C018401B00024019C018401B00024011C018401B001B001BC01B80028010C710074
311
000900710074000900510075006100720074000A0046DB001C40190017C01BC01E8002401B001C40190017C01BC01E80024013001A401C401D401A401900080013C01D401B8018C01940028010A6C0009006C0009004C0069007400650072000A00441B401B0002401B401B00024013401A401B001A401B001A401D0019401
311
C80028010B79006400090079006400090059006100720064000A0042D9801D00024019801D00024011801BC01BC01D00028010B69006E00090069006E00090049006E00630068000A00429B4002401B400240134019401D0019401C80028011163006D00090063006D000900430065006E00740069006D0065007400650072
311
000A00441B401B4002401B401B40024013401A401B001A401B4019401D0019401C80028010C6C00620009006C006200090050006F0075006E0064000A00431BC01E8002401BC01E80024013C01D401B8018C01940028010967000900670009004700720061006D000A0043DB4019C002401B4019C0024013401A401B001A40
311
19C01C8018401B40028010A62007800090062007800090042006F0078000A00C
161
              5144
310
6310F40501405014069011309A4F2590CB64FD0190120280A028120280A03202261349E4B2196C9FA03202405014051C40640A8B95C2E97CBE5024040640480A0280A3A80C81D10782C06030180C80808809014050147501904A383BFDFEFF5FBFCFD0110120280A028EA0320B41396D838E9017D9FA03202405014051D406
310
41A8B95C2E97CBE5F23F40640480A0280A3A80C83D172B85D2F97CBE47E80C809014050147501908A20F0580C0603019010110120280A028EA0321347077FBFDFEBF7F9FA02202405014051D40642A8272DB071D202FB3F40440480A0280A3A80A0485A0681172B85D2F97CBE47E8088090140501475014090C409022E570B
310
A5F2F97C8FD0110120280A028EA028121A81A047DC2910F05877A1FA03202405014051E40643A8BA5C2E97CBE5F23F40640480A1E882045C0F42F5A8DC671FC0F0000618000203159AAD56AB55BEC7E566AB55AAD56FB1FA0280C566AB55AAD56FB1F959AAD56AB55BEC7E80A031218FC7E2F079DC7E4863F1F8BC1E771FA0
310
280C4863F1F8BC1E771F9218FC7E2F079DC7E80A05202566AB55AAD56FB1F959AAD56AB55BEC7E80A0280C566AB55AAD56FB1F959AAD56AB55BEC7E80A030984D2792C865D27E261349E4B219749FA028080159AAD56AB55BEC7E566AB55AAD56FB1FD100000000000000410200C00030C024110340D024090140510429084
310
410190A4064229014290A4290A40A000000000000785F8000000000001E17E80C010000618040380006180077BE9F1B2EDD447E1DEFA7C6CBB7511F9703D0BD6A3717C7F40683480A0482A0E832034B81E85EB51B8BE3F8020000C3008020000C3008010000C30010140501455014050140501405014050140501405014050
310
140501405014050100
340
0
340
0
 94
        0
1001
ACAD
1000
AcRTDxfName
1000
ACMBOMSTANDARDANSI
1000
AcRTDxfName
1000
ACMBOMSTANDARDANSI
  0
ACAD_PROXY_OBJECT
  5
1654
330
163F
100
AcDbProxyObject
 90
      499
 91
      558
 95
    65563
 70
     0
162
               762
311
4BCF4011001140150010401240130008000F0011001140150010401240130017C0130010401080114013000F801700140014C010C010401300114008000F0011001140150010401240130017C01040108014C014C010C01040130011400F800C
161
               608
310
6300B81E85EB51B8CE3F48D0726A6666666666E4FC9A9999999999C93F000000000000380FD0000000000000010000000000000014400000000000000910207800030C00B81E85EB51B8CE3F00
340
160D
340
164D
 94
        0
1001
ACAD
1000
AcRTDxfName
1000
ACMDETAILSTANDARDANSI
1000
AcRTDxfName
1000
ACMDETAILSTANDARDANSI
  0
ACAD_PROXY_OBJECT
  5
1655
330
163F
100
AcDbProxyObject
 90
      499
 91
      559
 95
    65563
 70
     0
162
               826
311
4CCF4014C0114010C01500124013C0138008000F0014C0114010C01500124013C0138017C01300104010801140130017C011801240148014C015000F800B400F0014C0114010C01500124013C0138017C01300104010801140130017C01300104014C015000F800C
161
               405
310
630031703D0BD6A3719C7E4D4CCCCCCCCCEC9F8FFFF8070000C30022103C000186004D4CCCCCCCCCEC9FC5C0F42F5A8DC671FC
340
160D
340
164D
 94
        0
1001
ACAD
1000
AcRTDxfName
1000
ACMSECTIONSTANDARDANSI
1000
AcRTDxfName
1000
ACMSECTIONSTANDARDANSI
  0
ACAD_PROXY_OBJECT
  5
1656
330
163F
100
AcDbProxyObject
 90
      499
 91
      560
 95
    65563
 70
     0
162
                 0
161
               280
310
6302B8716D9CEF7C33F0A5723F0BD4A2F0FC295C8FC2F528BC3FA199999999999F99FC00
 94
        0
1001
ACAD
1000
AcRTDxfName
1000
ACMCENTERLINESTANDARDANSI
1000
AcRTDxfName
1000
ACMCENTERLINESTANDARDANSI
  0
ACAD_PROXY_OBJECT
  5
1657
330
163F
100
AcDbProxyObject
 90
      499
 91
      561
 95
    65563
 70
     0
162
                 0
161
                14
310
6324
340
0
 94
        0
1001
ACAD
1000
AcRTDxfName
1000
ACMTHREADLINESTANDARDANSI
1000
AcRTDxfName
1000
ACMTHREADLINESTANDARDANSI
  0
ACAD_PROXY_OBJECT
  5
1658
330
163F
100
AcDbProxyObject
 90
      499
 91
      562
 95
    65563
 70
     0
162
             13020
311
42950019401B401C001B0018401D00194008000C40005013D003C0069006600280065007100750061006C00280048006F006C0065003A007400610070007000650064002C0022003000220029002C00220025002500630022002C0048006F006C0065003A006E006F006D0069006E0061006C0020002200200022002000690
311
06600280065007100750061006C00280048006F006C0065003A0075006E006900740073002C0022003100220029002C002200780022002C0022002D0022002900200022002000220029003E003C0069006600280065007100750061006C00280048006F006C0065003A007400610070007000650064002C002200300022002
311
9002C0048006F006C0065003A006400690061002C0048006F006C0065003A0070006900740063006800640065007300630029003E0020007B005C00460041004D004700440054003B0078007D0020003C0069006600280065007100750061006C00280048006F006C0065003A007400650072006D0069006E0061007400690
311
06F006E002C0022003000220029002C0048006F006C0065003A00640065007000740068002C0022005400480052005500220029003E005C0050007B005C00460041004D004700440054003B0076007D002500250063003C0048006F006C0065003A00630074006400690061003E0020007B005C00460041004D00470044005
311
4003B0078007D0020003C0048006F006C0065003A0063007400640065007000740068003E0042950019401B401C001B0018401D00194008000C401FE3D003C0069006600280065007100750061006C00280048006F006C0065003A007400610070007000650064002C0022003000220029002C00220025002500630022002C
311
0048006F006C0065003A006E006F006D0069006E0061006C002000220020002200200069006600280065007100750061006C00280048006F006C0065003A0075006E006900740073002C0022003100220029002C002200780022002C0022002D0022002900200022002000220029003E003C00690066002800650071007500
311
61006C00280048006F006C0065003A007400610070007000650064002C0022003000220029002C0048006F006C0065003A006400690061002C0048006F006C0065003A0070006900740063006800640065007300630029003E0020007B005C00460041004D004700440054003B0078007D0020003C00690066002800650071
311
00750061006C00280048006F006C0065003A007400650072006D0069006E006100740069006F006E002C0022003000220029002C0048006F006C0065003A00640065007000740068002C0022005400480052005500220029003E005C0050007B005C00460041004D004700440054003B0077007D002500250063003C004800
311
6F006C0065003A00630074006400690061003E002000580020003C0048006F006C0065003A006300740061006E0067006C0065003E0025002500640042950019401B401C001B0018401D00194008000C401CF3D003C0069006600280065007100750061006C00280048006F006C0065003A007400610070007000650064002
311
C0022003000220029002C00220025002500630022002C0048006F006C0065003A006E006F006D0069006E0061006C002000220020002200200069006600280065007100750061006C00280048006F006C0065003A0075006E006900740073002C0022003100220029002C002200780022002C0022002D00220029002000220
311
02000220029003E003C0069006600280065007100750061006C00280048006F006C0065003A007400610070007000650064002C0022003000220029002C0048006F006C0065003A006400690061002C0048006F006C0065003A0070006900740063006800640065007300630029003E005C0050007B005C00460041004D004
311
700440054003B0078007D0020003C0069006600280065007100750061006C00280048006F006C0065003A007400650072006D0069006E006100740069006F006E002C0022003000220029002C0048006F006C0065003A00640065007000740068002C0022005400480052005500220029003E0042950019401B401C001B001
311
8401D00194008000C801173D003C0053005400440050003A0044004500530043003E0020003C0053005400440050003A005300540044003E0042950019401B401C001B0018401D00194008000C4010C3D003C0053005400440050003A0044004500530043003E00C
161
               640
310
631084050BA4050AA4050240501406901405034050140690140501405014069014051E4090140690140690240515AAABBA065C0F42F5A8DC5F1F9703D0BD6A3717C7F8020000C3008030000C30044103BF
360
1661
330
1661
360
1662
330
1662
360
1660
330
1660
360
165F
360
165E
330
165F
330
165E
 94
        0
1001
ACAD
1000
AcRTDxfName
1000
ACMNOTESTANDARDANSI
1000
AcRTDxfName
1000
ACMNOTESTANDARDANSI
  0
ACAD_PROXY_OBJECT
  5
1663
330
163F
100
AcDbProxyObject
 90
      499
 91
      564
 95
    65563
 70
     0
162
                 0
161
                26
310
63102A8C
340
1640
 94
        0
1001
ACAD
1000
AcRTDxfName
1000
ACAMGLAYSTD
1000
AcRTDxfName
1000
ACAMGLAYSTD
  0
ACAD_PROXY_OBJECT
  5
1664
330
163F
100
AcDbProxyObject
 90
      499
 91
      565
 95
    65563
 70
     0
162
               142
311
408F000F801023C003E0040DB0018C00CC00
161
               172
310
63103000000000000380FC000000000000E03F3FFFEC
340
1665
340
0
340
0
340
1666
340
1667
340
0
340
1668
340
1669
340
166E
340
0
340
0
340
0
 94
        0
1001
ACAD
1000
AcRTDxfName
1000
ACAMGDIMSTD
1000
AcRTDxfName
1000
ACAMGDIMSTD
  0
ACAD_PROXY_OBJECT
  5
166F
330
163F
100
AcDbProxyObject
 90
      499
 91
      566
 95
    65563
 70
     0
162
             20912
311
44D300124014C01500080013C01180080010C013C013C0148011001240138010401500114014C0142470045004E0054005200410043004F002C0045004E0055002C0030002C004C0049005300540020004F004600200043004F004F005200440049004E0041005400450053002C00470045004E00540052004100540058002
311
C00250073002C002800470045004E004D00530047002000670065006E00640069006D007A00200033003000290043CF400F0011001940198018401D401B001D0015001A401D001B0019400F8010A48004F004C00450020005400410042004C0045004E51C01140138015001480104010C013C00B001140138015400B000C00
311
0B00120013C0130011400800150010401080130011400B0011C011401380150014801040150016000B0009401CC00B000A0011C011401380134014C011C0080019C019401B8019001A401B401E8008000CC00C400A4010F3D003C00440065006600610075006C0074005400690074006C0065003E004193C01480124011C01
311
2401380134470045004E0054005200410043004F002C0045004E0055002C0030002C004F0052004900470049004E002C00470045004E00540052004100540058002C00250073002C002800470045004E004D00530047002000670065006E00640069006D007A002000310029004193C01480124011C0124013801344700450
311
04E0054005200410043004F002C0045004E0055002C0030002C004F0052004900470049004E002C00470045004E00540052004100540058002C00250073002C002800470045004E004D00530047002000670065006E00640069006D007A0020003100290041120013C013001140132470045004E0054005200410043004F00
311
2C0045004E0055002C0030002C0048004F004C0045002C00470045004E00540052004100540058002C00250073002C002800470045004E004D00530047002000670065006E00640069006D007A00200032002900538F400F00124011800A00124014C0108013001040138012C00A0012001BC01B00194012401D0019401B40
311
0A400B0013C01C801A4019C01A401B800B00080012001BC01B00194012401D0019401B400A400F800F00124011800A00124014C0108013001040138012C00A0012001BC01B00194012401D0019401B400A400B00088008800B00080012001BC01B00194012401B80190019401E000A400F8010158004BD1C01140138015001
311
480104010C013C00B001140138015400B000C000B0016000B0011C011401380150014801040150016000B0009401CC00B000A0011C011401380134014C011C0080019C019401B8019001A401B401E8008000CC00A4010159004BD1C01140138015001480104010C013C00B001140138015400B000C000B0016400B0011C011
311
401380150014801040150016000B0009401CC00B000A0011C011401380134014C011C0080019C019401B8019001A401B401E8008000D000A4010152004BD1C01140138015001480104010C013C00B001140138015400B000C000B0014800B0011C011401380150014801040150016000B0009401CC00B000A0011C01140138
311
0134014C011C0080019C019401B8019001A401B401E8008000D800A401187B005C004600530059004D0042004F004C007C00420030007C00490030007C00430032007C00500030003B004A007D005191C01140138015001480104010C013C00B001140138015400B000C000B001EC01700118014C016401340108013C01300
311
1F0010800C001F0012400C001F0010C00C801F0014000C000EC012801F400B0011C011401380150014801040150016000B0009401CC00B000A0011C011401380134014C011C0080019C019401B8019001A401B401E8008000DC00A401032500250043004C51C01140138015001480104010C013C00B001140138015400B000
311
C000B000940094010C00B0011C011401380150014801040150016000B0009401CC00B000A0011C011401380134014C011C0080019C019401B8019001A401B401E8008000E000A4010B4400450053004300520049005000540049004F004E004E91C01140138015001480104010C013C00B001140138015400B000C000B0011
311
00114014C010C01480124014001500124013C013800B0011C011401380150014801040150016000B0009401CC00B000A0011C011401380134014C011C0080019C019401B8019001A401B401E8008000C800C000A401044900540045004D004CD1C01140138015001480104010C013C00B001140138015400B000C000B00124
311
01500114013400B0011C011401380150014801040150016000B0009401CC00B000A0011C011401380134014C011C0080019C019401B8019001A401B401E8008000C400D000A4010549004E004400450058004D11C01140138015001480104010C013C00B001140138015400B000C000B00124013801100114016000B0011C0
311
11401380150014801040150016000B0009401CC00B000A0011C011401380134014C011C0080019C019401B8019001A401B401E8008000C400D400A4010448004F004C0045004CD1C01140138015001480104010C013C00B001140138015400B000C000B00120013C0130011400B0011C011401380150014801040150016000
311
B0009401CC00B000A0011C011401380134014C011C0080019C019401B8019001A401B401E8008000C400D800A4010A48004F004C004500200049004E004400450058004E51C01140138015001480104010C013C00B001140138015400B000C000B00120013C0130011400800124013801100114016000B0011C01140138015
311
0014801040150016000B0009401CC00B000A0011C011401380134014C011C0080019C019401B8019001A401B401E8008000C400DC00A401035100540059004C91C01140138015001480104010C013C00B001140138015400B000C000B001440150016400B0011C011401380150014801040150016000B0009401CC00B000A0
311
011C011401380134014C011C0080019C019401B8019001A401B401E8008000C400E400A401085300540041004E0044004100520044004DD1C01140138015001480104010C013C00B001140138015400B000C000B0014C015001040138011001040148011000B0011C011401380150014801040150016000B0009401CC00B00
311
0A0011C011401380134014C011C0080019C019401B8019001A401B401E8008000C800C400A40109550053004500520020004900540045004D004E11C01140138015001480104010C013C00B001140138015400B000C000B00154014C011401480080012401500114013400B0011C011401380150014801040150016000B000
311
9401CC00B000A0011C011401380134014C011C0080019C019401B8019001A401B401E8008000C800C800A4014E3D003C004900460028004900530042004C0041004E004B00280048006F006C0065004900740065006D0029002C004F0072006900670069006E002C00200048006F006C0065004900740065006D0029003E00
311
3C004900460028004900530042004C0041004E004B00280048006F006C0065004900740065006D0029002C00220022002C00200048006F006C00650049006E0064006500780029003E00CC
161
              6854
310
631211A3FFFFFFFD010300002E07A17AD46E2F8FE00800030C01010300002E07A17AD46E2F8FE00800030C0004078000C000000000000000000000000000000007B14AE47E17AA43F2E07A17AD46E2F8FE00800030C007B14AE47E17AA43F2E07A17AD46E2F8FE00800030C02010101E000300000000000000000000000000
310
0000001EC52B91F85EA90FCB81E85EB51B8BE3F8020000C3001EC52B91F85EA90FCB81E85EB51B8BE3F8020000C3008050E4410F4450240D0441507431014391244D154151241D144310D4400004040004041000885000080800080820010FA00010101010104002234000202000202000040A8000404000404000081D0000
310
808000808000104A000101000101030020B4000202000202020041E800040400040010008650000808000808280501A0001010001010500A1D4000202000202080044A8000404000404140089D0000808000808300114A000101000100040021B40002020002020A004569100067FFFFFFF801353333333333D27F3FFFFFFF
310
C0C9A9999999999E93F9FFFFFFFE024D4CCCCCCCCCF49FCFFFFFFFF0126A6666666667A4FE7FFFFFFF811353333333333D27F3FFFFFFFC089A9999999999E93F9FFFFFFFE06CFFFFFFFF03000000000000001027FFFFFFF801353333333333B27F3FFFFFFFC009A9999999999E93F9FFFFFFFE004D4CCCCCCCCCF49FCFFFFF
310
FFF0026A6666666667A4FE7FFFFFFF819703D0BD6A371BC7F3FFFFFFFC0C67666666666606409FFFFFFFE004D4CCCCCCCCCF49FCFFFFFFFF440019FFFFFFFE004D4CCCCCCCCCF49FCFFFFFFFF0326A6666666667A4FE7FFFFFFF819353333333333D27F3FFFFFFFC0C9A9999999999E93F9FFFFFFFE064D4CCCCCCCCCF49FC
310
FFFFFFFF0326A6666666667A4FE7FFFFFFF81B3FFFFFFFC0C00000000000000409FFFFFFFE004D4CCCCCCCCCEC9FCFFFFFFFF0026A6666666667A4FE7FFFFFFF819353333333333D27F3FFFFFFFC009A9999999999E93F9FFFFFFFE065C0F42F5A8DC6F1FCFFFFFFFF0319D999999999819027FFFFFFF801353333333333D2
310
7F3FFFFFFFD044400000010F000000448000001130000004110700010044800000103000100408000400FFFFFFFF4090100014111000000043C0000011200000044C0000010300004111000000043C00000112000000454000000FFFFFFFF8
340
0
340
0
340
0
340
0
340
164D
340
164D
 94
        0
1001
ACAD
1000
AcRTDxfName
1000
ACAMGHOLECHARTSTDANSI
1000
AcRTDxfName
1000
ACAMGHOLECHARTSTDANSI
  0
ACAD_PROXY_OBJECT
  5
1670
330
163F
100
AcDbProxyObject
 90
      499
 91
      567
 95
    65563
 70
     0
162
             10564
311
411040138014C0124010641004E00530049005F004300429040138014C0124017C0150012401500154014C011541004E00530049005F00540052005F005200650076006900730069006F006E006C0069007300740061004450C008000A000C400DC00B800C001E000C800C800B800C001A401B8018C01A000A4010641004E0
311
0530049005F00430044518008000A000C800E000B800C001E000D000C000B800C001A401B8018C01A000A4010641004E00530049005F00460044508008000A000C400C400B800C001E000C400DC00B800C001A401B8018C01A000A4010641004E00530049005F00420044510008000A000C800C800B800C001E000CC00D000
311
B800C001A401B8018C01A000A4010641004E00530049005F00440044514008000A000CC00D000B800C001E000D000D000B800C001A401B8018C01A000A4010641004E00530049005F00450044104008000A000E000B800D401E000C400C400B800C001A401B8018C01A000A4010641004E00530049005F00410043954014C0
311
080015001A401D001B001940080010801B001BC018C01AC010A41004E00530049005F005400490054005500530044D0401B801CC01A40080015001A401D001B001940080010801B001BC018C01AC00800110010C010C41004E00530049005F005400490054004C0045004400430044D0401B801CC01A40080015001A401D00
311
1B001940080010801B001BC018C01AC00800104010C010C41004E00530049005F005400490054004C004500410043004490401B801CC01A40080015001A401D001B001940080010801B001BC018C01AC00800104010B41004E00530049005F005400490054004C00450041004490401B801CC01A40080015001A401D001B00
311
1940080010801B001BC018C01AC00800110010B41004E00530049005F005400490054004C004500440044948019401D801A401CC01A401BC01B801B001A401CC01D000800104017C01080148017C011541004E00530049005F00420052005F005200650076006900730069006F006E006C0069007300740061004494801940
311
1D801A401CC01A401BC01B801B001A401CC01D000800104017C01500148017C011541004E00530049005F00540052005F005200650076006900730069006F006E006C00690073007400610044948019401D801A401CC01A401BC01B801B001A401CC01D000800110017C01080148017C011541004E00530049005F00420052
311
005F005200650076006900730069006F006E006C00690073007400640044948019401D801A401CC01A401BC01B801B001A401CC01D000800110017C01500148017C011541004E00530049005F00540052005F005200650076006900730069006F006E006C00690073007400640044948019401D801A401CC01A401BC01B801
311
B001A401CC01D000800104017C01080130017C011541004E00530049005F0042004C005F005200650076006900730069006F006E006C00690073007400610044948019401D801A401CC01A401BC01B801B001A401CC01D000800104017C01500130017C011541004E00530049005F0054004C005F005200650076006900730
311
069006F006E006C00690073007400610044948019401D801A401CC01A401BC01B801B001A401CC01D000800110017C01080130017C011541004E00530049005F0042004C005F005200650076006900730069006F006E006C00690073007400640044948019401D801A401CC01A401BC01B801B001A401CC01D000800110017
311
C01500130017C011541004E00530049005F0054004C005F005200650076006900730069006F006E006C006900730074006400C
161
                50
310
6319741905420C
 94
        0
1001
ACAD
1000
AcRTDxfName
1000
ACAMGTITLESTD
1000
AcRTDxfName
1000
ACAMGTITLESTD
  0
ACAD_PROXY_OBJECT
  5
20F3
330
163F
100
AcDbProxyObject
 90
      499
 91
      575
 95
    65563
 70
     0
162
                 0
161
                66
310
6310B40501406AAA8C
 94
        0
  0
ACAD_PROXY_OBJECT
  5
1661
330
0
100
AcDbProxyObject
 90
      499
 91
      563
 95
    65563
 70
     0
162
              4364
311
42950019401B401C001B0018401D00194008000C40005013D003C0069006600280065007100750061006C00280048006F006C0065003A007400610070007000650064002C0022003000220029002C00220025002500630022002C0048006F006C0065003A006E006F006D0069006E0061006C0020002200200022002000690
311
06600280065007100750061006C00280048006F006C0065003A0075006E006900740073002C0022003100220029002C002200780022002C0022002D0022002900200022002000220029003E003C0069006600280065007100750061006C00280048006F006C0065003A007400610070007000650064002C002200300022002
311
9002C0048006F006C0065003A006400690061002C0048006F006C0065003A0070006900740063006800640065007300630029003E0020007B005C00460041004D004700440054003B0078007D0020003C0069006600280065007100750061006C00280048006F006C0065003A007400650072006D0069006E0061007400690
311
06F006E002C0022003000220029002C0048006F006C0065003A00640065007000740068002C0022005400480052005500220029003E005C0050007B005C00460041004D004700440054003B0076007D002500250063003C0048006F006C0065003A00630074006400690061003E0020007B005C00460041004D00470044005
311
4003B0078007D0020003C0048006F006C0065003A0063007400640065007000740068003E00C
161
                28
310
6320101C
 94
        0
1001
ACAD
1000
AcRTDxfName
1000
AMDTNOTETEMPLATEDB
1000
AcRTDxfName
1000
AMDTNOTETEMPLATEDB
  0
ACAD_PROXY_OBJECT
  5
1662
330
0
100
AcDbProxyObject
 90
      499
 91
      563
 95
    65563
 70
     0
162
              4244
311
42950019401B401C001B0018401D00194008000C401FE3D003C0069006600280065007100750061006C00280048006F006C0065003A007400610070007000650064002C0022003000220029002C00220025002500630022002C0048006F006C0065003A006E006F006D0069006E0061006C002000220020002200200069006
311
600280065007100750061006C00280048006F006C0065003A0075006E006900740073002C0022003100220029002C002200780022002C0022002D0022002900200022002000220029003E003C0069006600280065007100750061006C00280048006F006C0065003A007400610070007000650064002C00220030002200290
311
02C0048006F006C0065003A006400690061002C0048006F006C0065003A0070006900740063006800640065007300630029003E0020007B005C00460041004D004700440054003B0078007D0020003C0069006600280065007100750061006C00280048006F006C0065003A007400650072006D0069006E006100740069006
311
F006E002C0022003000220029002C0048006F006C0065003A00640065007000740068002C0022005400480052005500220029003E005C0050007B005C00460041004D004700440054003B0077007D002500250063003C0048006F006C0065003A00630074006400690061003E002000580020003C0048006F006C0065003A0
311
06300740061006E0067006C0065003E00250025006400C
161
                28
310
6320101C
 94
        0
1001
ACAD
1000
AcRTDxfName
1000
AMDTNOTETEMPLATEDB
1000
AcRTDxfName
1000
AMDTNOTETEMPLATEDB
  0
ACAD_PROXY_OBJECT
  5
1660
330
0
100
AcDbProxyObject
 90
      499
 91
      563
 95
    65563
 70
     0
162
              3492
311
42950019401B401C001B0018401D00194008000C401CF3D003C0069006600280065007100750061006C00280048006F006C0065003A007400610070007000650064002C0022003000220029002C00220025002500630022002C0048006F006C0065003A006E006F006D0069006E0061006C002000220020002200200069006
311
600280065007100750061006C00280048006F006C0065003A0075006E006900740073002C0022003100220029002C002200780022002C0022002D0022002900200022002000220029003E003C0069006600280065007100750061006C00280048006F006C0065003A007400610070007000650064002C00220030002200290
311
02C0048006F006C0065003A006400690061002C0048006F006C0065003A0070006900740063006800640065007300630029003E005C0050007B005C00460041004D004700440054003B0078007D0020003C0069006600280065007100750061006C00280048006F006C0065003A007400650072006D0069006E00610074006
311
9006F006E002C0022003000220029002C0048006F006C0065003A00640065007000740068002C0022005400480052005500220029003E00C
161
                28
310
6320101C
 94
        0
1001
ACAD
1000
AcRTDxfName
1000
AMDTNOTETEMPLATEDB
1000
AcRTDxfName
1000
AMDTNOTETEMPLATEDB
  0
ACAD_PROXY_OBJECT
  5
165F
330
0
100
AcDbProxyObject
 90
      499
 91
      563
 95
    65563
 70
     0
162
               548
311
42950019401B401C001B0018401D00194008000C801173D003C0053005400440050003A0044004500530043003E0020003C0053005400440050003A005300540044003E00C
161
                28
310
6320101C
 94
        0
1001
ACAD
1000
AcRTDxfName
1000
AMDTNOTETEMPLATEDB
1000
AcRTDxfName
1000
AMDTNOTETEMPLATEDB
  0
ACAD_PROXY_OBJECT
  5
165E
330
0
100
AcDbProxyObject
 90
      499
 91
      563
 95
    65563
 70
     0
162
               372
311
42950019401B401C001B0018401D00194008000C4010C3D003C0053005400440050003A0044004500530043003E00C
161
                28
310
6320101C
 94
        0
1001
ACAD
1000
AcRTDxfName
1000
AMDTNOTETEMPLATEDB
1000
AcRTDxfName
1000
AMDTNOTETEMPLATEDB
  0
ENDSEC
  0
EOF
