  0
SECTION
  2
HEADER
  9
$ACADVER
  1
AC1024
  9
$ACADMAINTVER
 70
    37
  9
$DWGCODEPAGE
  3
ANSI_1252
  9
$LASTSAVEDBY
  1
jtigges
  9
$INSBASE
 10
0.0
 20
0.0
 30
0.0
  9
$EXTMIN
 10
-0.0039060711815466
 20
-0.002548101122315
 30
-0.0000000349181948
  9
$EXTMAX
 10
64.00390666724987
 20
41.75254848996414
 30
0.0000000814935746
  9
$LIMMIN
 10
0.0
 20
0.0
  9
$LIMMAX
 10
12.0
 20
9.0
  9
$ORTHOMODE
 70
     0
  9
$REGENMODE
 70
     1
  9
$FILLMODE
 70
     1
  9
$QTEXTMODE
 70
     0
  9
$MIRRTEXT
 70
     1
  9
$LTSCALE
 40
1.0
  9
$ATTMODE
 70
     1
  9
$TEXTSIZE
 40
0.187
  9
$TRACEWID
 40
0.05
  9
$TEXTSTYLE
  7
STANDARD
  9
$CLAYER
  8
0
  9
$CELTYPE
  6
BYLAYER
  9
$CECOLOR
 62
   256
  9
$CELTSCALE
 40
1.0
  9
$DISPSILH
 70
     0
  9
$DIMSCALE
 40
1.0
  9
$DIMASZ
 40
0.1875
  9
$DIMEXO
 40
0.09375
  9
$DIMDLI
 40
0.375
  9
$DIMRND
 40
0.0
  9
$DIMDLE
 40
0.0
  9
$DIMEXE
 40
0.1875
  9
$DIMTP
 40
0.0
  9
$DIMTM
 40
0.0
  9
$DIMTXT
 40
0.18
  9
$DIMCEN
 40
0.09375
  9
$DIMTSZ
 40
0.0
  9
$DIMTOL
 70
     0
  9
$DIMLIM
 70
     0
  9
$DIMTIH
 70
     1
  9
$DIMTOH
 70
     1
  9
$DIMSE1
 70
     0
  9
$DIMSE2
 70
     0
  9
$DIMTAD
 70
     0
  9
$DIMZIN
 70
     0
  9
$DIMBLK
  1

  9
$DIMASO
 70
     1
  9
$DIMSHO
 70
     0
  9
$DIMPOST
  1

  9
$DIMAPOST
  1

  9
$DIMALT
 70
     0
  9
$DIMALTD
 70
     2
  9
$DIMALTF
 40
25.4
  9
$DIMLFAC
 40
1.0
  9
$DIMTOFL
 70
     0
  9
$DIMTVP
 40
0.0
  9
$DIMTIX
 70
     0
  9
$DIMSOXD
 70
     0
  9
$DIMSAH
 70
     0
  9
$DIMBLK1
  1

  9
$DIMBLK2
  1

  9
$DIMSTYLE
  2
STANDARD
  9
$DIMCLRD
 70
     0
  9
$DIMCLRE
 70
     0
  9
$DIMCLRT
 70
     0
  9
$DIMTFAC
 40
1.0
  9
$DIMGAP
 40
0.1875
  9
$DIMJUST
 70
     0
  9
$DIMSD1
 70
     0
  9
$DIMSD2
 70
     0
  9
$DIMTOLJ
 70
     1
  9
$DIMTZIN
 70
     0
  9
$DIMALTZ
 70
     0
  9
$DIMALTTZ
 70
     0
  9
$DIMUPT
 70
     0
  9
$DIMDEC
 70
     5
  9
$DIMTDEC
 70
     4
  9
$DIMALTU
 70
     2
  9
$DIMALTTD
 70
     2
  9
$DIMTXSTY
  7
STANDARD
  9
$DIMAUNIT
 70
     0
  9
$DIMADEC
 70
     0
  9
$DIMALTRND
 40
0.0
  9
$DIMAZIN
 70
     0
  9
$DIMDSEP
 70
    46
  9
$DIMATFIT
 70
     0
  9
$DIMFRAC
 70
     2
  9
$DIMLDRBLK
  1

  9
$DIMLUNIT
 70
     5
  9
$DIMLWD
 70
    -2
  9
$DIMLWE
 70
    -2
  9
$DIMTMOVE
 70
     0
  9
$DIMFXL
 40
1.0
  9
$DIMFXLON
 70
     0
  9
$DIMJOGANG
 40
0.7853981633974483
  9
$DIMTFILL
 70
     0
  9
$DIMTFILLCLR
 70
     0
  9
$DIMARCSYM
 70
     0
  9
$DIMLTYPE
  6

  9
$DIMLTEX1
  6

  9
$DIMLTEX2
  6

  9
$DIMTXTDIRECTION
 70
     0
  9
$LUNITS
 70
     5
  9
$LUPREC
 70
     5
  9
$SKETCHINC
 40
0.1
  9
$FILLETRAD
 40
0.0
  9
$AUNITS
 70
     0
  9
$AUPREC
 70
     0
  9
$MENU
  1
acad
  9
$ELEVATION
 40
0.0
  9
$PELEVATION
 40
0.0
  9
$THICKNESS
 40
0.0
  9
$LIMCHECK
 70
     0
  9
$CHAMFERA
 40
0.0
  9
$CHAMFERB
 40
0.0
  9
$CHAMFERC
 40
0.0
  9
$CHAMFERD
 40
0.0
  9
$SKPOLY
 70
     0
  9
$TDCREATE
 40
2447475.502853241
  9
$TDUCREATE
 40
2447475.752853241
  9
$TDUPDATE
 40
2456722.314858518
  9
$TDUUPDATE
 40
2456722.564858519
  9
$TDINDWG
 40
0.0366475579
  9
$TDUSRTIMER
 40
0.0366475579
  9
$USRTIMER
 70
     1
  9
$ANGBASE
 50
0.0
  9
$ANGDIR
 70
     0
  9
$PDMODE
 70
     0
  9
$PDSIZE
 40
0.0
  9
$PLINEWID
 40
0.0
  9
$SPLFRAME
 70
     0
  9
$SPLINETYPE
 70
     6
  9
$SPLINESEGS
 70
     8
  9
$HANDSEED
  5
E73
  9
$SURFTAB1
 70
     6
  9
$SURFTAB2
 70
     6
  9
$SURFTYPE
 70
     6
  9
$SURFU
 70
     6
  9
$SURFV
 70
     6
  9
$UCSBASE
  2

  9
$UCSNAME
  2

  9
$UCSORG
 10
0.0
 20
0.0
 30
0.0
  9
$UCSXDIR
 10
1.0
 20
0.0
 30
0.0
  9
$UCSYDIR
 10
0.0
 20
1.0
 30
0.0
  9
$UCSORTHOREF
  2

  9
$UCSORTHOVIEW
 70
     0
  9
$UCSORGTOP
 10
0.0
 20
0.0
 30
0.0
  9
$UCSORGBOTTOM
 10
0.0
 20
0.0
 30
0.0
  9
$UCSORGLEFT
 10
0.0
 20
0.0
 30
0.0
  9
$UCSORGRIGHT
 10
0.0
 20
0.0
 30
0.0
  9
$UCSORGFRONT
 10
0.0
 20
0.0
 30
0.0
  9
$UCSORGBACK
 10
0.0
 20
0.0
 30
0.0
  9
$PUCSBASE
  2

  9
$PUCSNAME
  2

  9
$PUCSORG
 10
0.0
 20
0.0
 30
0.0
  9
$PUCSXDIR
 10
1.0
 20
0.0
 30
0.0
  9
$PUCSYDIR
 10
0.0
 20
1.0
 30
0.0
  9
$PUCSORTHOREF
  2

  9
$PUCSORTHOVIEW
 70
     0
  9
$PUCSORGTOP
 10
0.0
 20
0.0
 30
0.0
  9
$PUCSORGBOTTOM
 10
0.0
 20
0.0
 30
0.0
  9
$PUCSORGLEFT
 10
0.0
 20
0.0
 30
0.0
  9
$PUCSORGRIGHT
 10
0.0
 20
0.0
 30
0.0
  9
$PUCSORGFRONT
 10
0.0
 20
0.0
 30
0.0
  9
$PUCSORGBACK
 10
0.0
 20
0.0
 30
0.0
  9
$USERI1
 70
     0
  9
$USERI2
 70
     0
  9
$USERI3
 70
     0
  9
$USERI4
 70
     0
  9
$USERI5
 70
     0
  9
$USERR1
 40
0.0
  9
$USERR2
 40
0.0
  9
$USERR3
 40
0.0
  9
$USERR4
 40
0.0
  9
$USERR5
 40
0.0
  9
$WORLDVIEW
 70
     1
  9
$SHADEDGE
 70
     3
  9
$SHADEDIF
 70
    70
  9
$TILEMODE
 70
     1
  9
$MAXACTVP
 70
    16
  9
$PINSBASE
 10
0.0
 20
0.0
 30
0.0
  9
$PLIMCHECK
 70
     0
  9
$PEXTMIN
 10
1.000000000000000E+20
 20
1.000000000000000E+20
 30
1.000000000000000E+20
  9
$PEXTMAX
 10
-1.000000000000000E+20
 20
-1.000000000000000E+20
 30
-1.000000000000000E+20
  9
$PLIMMIN
 10
0.0
 20
0.0
  9
$PLIMMAX
 10
12.0
 20
9.0
  9
$UNITMODE
 70
     0
  9
$VISRETAIN
 70
     0
  9
$PLINEGEN
 70
     0
  9
$PSLTSCALE
 70
     0
  9
$TREEDEPTH
 70
  3020
  9
$CMLSTYLE
  2
STANDARD
  9
$CMLJUST
 70
     0
  9
$CMLSCALE
 40
1.0
  9
$PROXYGRAPHICS
 70
     1
  9
$MEASUREMENT
 70
     0
  9
$CELWEIGHT
370
    -1
  9
$ENDCAPS
280
     0
  9
$JOINSTYLE
280
     0
  9
$LWDISPLAY
290
     0
  9
$INSUNITS
 70
     0
  9
$HYPERLINKBASE
  1

  9
$STYLESHEET
  1

  9
$XEDIT
290
     1
  9
$CEPSNTYPE
380
     0
  9
$PSTYLEMODE
290
     1
  9
$FINGERPRINTGUID
  2
{AFF76B40-A337-4AFC-B2FF-52D8F156839B}
  9
$VERSIONGUID
  2
{AB8B0865-9D2B-4196-BE30-2314FB10E786}
  9
$EXTNAMES
290
     1
  9
$PSVPSCALE
 40
0.0
  9
$OLESTARTUP
290
     0
  9
$SORTENTS
280
   127
  9
$INDEXCTL
280
     0
  9
$HIDETEXT
280
     0
  9
$XCLIPFRAME
280
     0
  9
$HALOGAP
280
     0
  9
$OBSCOLOR
 70
   257
  9
$OBSLTYPE
280
     0
  9
$INTERSECTIONDISPLAY
280
     0
  9
$INTERSECTIONCOLOR
 70
   257
  9
$DIMASSOC
280
     1
  9
$PROJECTNAME
  1

  9
$CAMERADISPLAY
290
     0
  9
$LENSLENGTH
 40
50.0
  9
$CAMERAHEIGHT
 40
0.0
  9
$STEPSPERSEC
 40
2.0
  9
$STEPSIZE
 40
6.0
  9
$3DDWFPREC
 40
2.0
  9
$PSOLWIDTH
 40
0.25
  9
$PSOLHEIGHT
 40
4.0
  9
$LOFTANG1
 40
1.570796326794896
  9
$LOFTANG2
 40
1.570796326794896
  9
$LOFTMAG1
 40
0.0
  9
$LOFTMAG2
 40
0.0
  9
$LOFTPARAM
 70
     7
  9
$LOFTNORMALS
280
     1
  9
$LATITUDE
 40
37.795
  9
$LONGITUDE
 40
-122.394
  9
$NORTHDIRECTION
 40
0.0
  9
$TIMEZONE
 70
 -8000
  9
$LIGHTGLYPHDISPLAY
280
     1
  9
$TILEMODELIGHTSYNCH
280
     1
  9
$CMATERIAL
347
D9F
  9
$SOLIDHIST
280
     1
  9
$SHOWHIST
280
     1
  9
$DWFFRAME
280
     2
  9
$DGNFRAME
280
     0
  9
$REALWORLDSCALE
290
     1
  9
$INTERFERECOLOR
 62
     1
  9
$INTERFEREOBJVS
345
DAC
  9
$INTERFEREVPVS
346
E3D
  9
$CSHADOW
280
     0
  9
$SHADOWPLANELOCATION
 40
0.0
  0
ENDSEC
  0
SECTION
  2
CLASSES
  0
CLASS
  1
ACDBDICTIONARYWDFLT
  2
AcDbDictionaryWithDefault
  3
ObjectDBX Classes
 90
        0
 91
        1
280
     0
281
     0
  0
CLASS
  1
TABLESTYLE
  2
AcDbTableStyle
  3
ObjectDBX Classes
 90
     4095
 91
        1
280
     0
281
     0
  0
CLASS
  1
ACME_DOCUMENT
  2
AcMeDbDoc
  3
AcMeServices
 90
        0
 91
        0
280
     0
281
     0
  0
CLASS
  1
AMGSETTINGSOBJ
  2
AmgSettingsObj
  3
"AcadM|Product Description: AutoCAD Mechanical|Company: Autodesk"
 90
        0
 91
        2
280
     0
281
     0
  0
CLASS
  1
ACMESCOPE
  2
AcMeScope
  3
AcMeServices
 90
        0
 91
        1
280
     0
281
     0
  0
CLASS
  1
ACMECOMMANDHISTORY
  2
AcMeCommandHistory
  3
AcMeServices
 90
        0
 91
        1
280
     0
281
     0
  0
CLASS
  1
ACIMSYSVARMAN
  2
AcImSysVarManager
  3
AcMeServices
 90
        0
 91
        5
280
     0
281
     0
  0
CLASS
  1
ACIMINTSYSVAR
  2
AcImIntSysVar
  3
AcMeServices
 90
        0
 91
       27
280
     0
281
     0
  0
CLASS
  1
ACMEDRAWINGMAN
  2
AcMeDrawingMan
  3
AcMeServices
 90
        0
 91
        1
280
     0
281
     0
  0
CLASS
  1
ACMEVIEW
  2
AcMeView
  3
AcMeServices
 90
        0
 91
        1
280
     0
281
     0
  0
CLASS
  1
ACDBENTITYCACHE
  2
AcMeEntityCache
  3
AcMeServices
 90
        0
 91
        0
280
     0
281
     0
  0
CLASS
  1
GSMANAGER
  2
AcMeGSManager
  3
AcMeServices
 90
        0
 91
        0
280
     0
281
     0
  0
CLASS
  1
AMDTINTERNALREACTOR
  2
AmdtInternalReactor
  3
AcMeServices
 90
        0
 91
        0
280
     0
281
     0
  0
CLASS
  1
ACMESTATEMGR
  2
AcMeStateMgr
  3
AcMeServices
 90
        0
 91
        1
280
     0
281
     0
  0
CLASS
  1
ACGREFMASTER
  2
AcGrefMaster
  3
AcAttribServices
 90
        0
 91
        1
280
     0
281
     0
  0
CLASS
  1
AM_DRAWING_MGR
  2
AcDmDwgMgr
  3
AcMechDwgViewMgmt
 90
        0
 91
        1
280
     0
281
     0
  0
CLASS
  1
AM_DWG_DOCUMENT
  2
AcDmDwgDocument
  3
AcMechDwgViewMgmt
 90
        0
 91
        1
280
     0
281
     0
  0
CLASS
  1
AM_DWG_SHEET
  2
AcDmSheet
  3
AcMechDwgViewMgmt
 90
        0
 91
        1
280
     0
281
     0
  0
CLASS
  1
AM_VIEWDIMPARMAP
  2
AcDmViewDimParMap
  3
AcMechDwgViewMgmt
 90
        0
 91
        1
280
     0
281
     0
  0
CLASS
  1
ACIMREALSYSVAR
  2
AcImRealSysVar
  3
AcMeServices
 90
        0
 91
        1
280
     0
281
     0
  0
CLASS
  1
AM_DWGMGR_NAME
  2
AcDmDwgMgrName
  3
AcMechDwgViewMgmt
 90
        0
 91
        1
280
     0
281
     0
  0
CLASS
  1
ACME_DATABASE
  2
AcMeDbDatabase
  3
AcMeServices
 90
        0
 91
        0
280
     0
281
     0
  0
CLASS
  1
ACRFINSADJUSTERMGR
  2
AcRfInsAdjusterMgr
  3
AcMeServices
 90
        0
 91
        0
280
     0
281
     0
  0
CLASS
  1
ACGREFACADMASTER
  2
AcGrefacadMaster
  3
AcGrefServices
 90
        0
 91
        1
280
     0
281
     0
  0
CLASS
  1
AMDTMENUSTATEMGR
  2
AmdtMenuStateMgr
  3
McadcomServices
 90
        0
 91
        0
280
     0
281
     0
  0
CLASS
  1
AMDTMCOMMENUSTATE
  2
AmdtMcomMenuState
  3
McadcomServices
 90
        0
 91
        0
280
     0
281
     0
  0
CLASS
  1
AMIMASTER
  2
AmiMaster
  3
AmiServices
 90
        0
 91
        1
280
     0
281
     0
  0
CLASS
  1
MAPIAMMOUDLE
  2
MApiAmModule
  3
MApiAmServices
 90
        0
 91
        1
280
     0
281
     0
  0
CLASS
  1
AMDTADMENUSTATE
  2
AmdtAdMenuState
  3
DesignerServices
 90
        0
 91
        0
280
     0
281
     0
  0
CLASS
  1
ADAPPL
  2
AcAdAppl
  3
DesignerServices
 90
        0
 91
        1
280
     0
281
     0
  0
CLASS
  1
DEPMGR
  2
AcAdDepMgr
  3
DesignerServices
 90
        0
 91
        1
280
     0
281
     0
  0
CLASS
  1
PARAMMGR
  2
AcAdParamMgr
  3
DesignerServices
 90
        0
 91
        1
280
     0
281
     0
  0
CLASS
  1
PARAMSCOPE
  2
AcAdParamScope
  3
DesignerServices
 90
        0
 91
        1
280
     0
281
     0
  0
CLASS
  1
NAMEDAPPL
  2
AcAdNamedAppl
  3
DesignerServices
 90
        0
 91
        1
280
     0
281
     0
  0
CLASS
  1
AMDTDMMENUSTATE
  2
AmdtDmMenuState
  3
AcMechDwgViewMgmt
 90
        0
 91
        0
280
     0
281
     0
  0
CLASS
  1
AMDTAMMENUSTATE
  2
AmdtAmMenuState
  3
DesignerAssemblies
 90
        0
 91
        0
280
     0
281
     0
  0
CLASS
  1
ACIMSTRSYSVAR
  2
AcImStrSysVar
  3
AcMeServices
 90
        0
 91
        5
280
     0
281
     0
  0
CLASS
  1
ACAMPROJECT
  2
AcAmProject
  3
DesignerAssemblies
 90
        0
 91
        1
280
     0
281
     0
  0
CLASS
  1
ACAMGRCOMPDEF
  2
AcAmGrCompDef
  3
DesignerAssemblies
 90
        0
 91
        1
280
     0
281
     0
  0
CLASS
  1
ACCMCONTEXT
  2
AcCmContext
  3
DesignerAssemblies
 90
        0
 91
        1
280
     0
281
     0
  0
CLASS
  1
ACAMCOMPDEF
  2
AcAmCompDef
  3
DesignerAssemblies
 90
        0
 91
        1
280
     0
281
     0
  0
CLASS
  1
ACAMCOMPDEFMGR
  2
AcAmCompDefMgr
  3
DesignerAssemblies
 90
        0
 91
        1
280
     0
281
     0
  0
CLASS
  1
AMCONTEXTMGR
  2
AcAmContextMgr
  3
DesignerAssemblies
 90
        0
 91
        1
280
     0
281
     0
  0
CLASS
  1
ACAMCONTEXTMODELER
  2
AcAmContextModeler
  3
DesignerAssemblies
 90
        0
 91
        1
280
     0
281
     0
  0
CLASS
  1
ACMDATADICTIONARY
  2
AcmDataDictionary
  3
"AcmSymBB|Product Description: AutoCAD Mechanical|Company: Autodesk"
 90
        0
 91
        1
280
     0
281
     0
  0
CLASS
  1
CATALOGSTATE
  2
AcAmCatalogState
  3
DesignerAssemblies
 90
        0
 91
        1
280
     0
281
     0
  0
CLASS
  1
ACAMGRCOMPDEFSET
  2
AcAmGrCompDefSet
  3
DesignerAssemblies
 90
        0
 91
        0
280
     0
281
     0
  0
CLASS
  1
AMDTBROWSERDBTAB
  2
AmdtBrowserDbTab
  3
McadcomServices
 90
        0
 91
        0
280
     0
281
     0
  0
CLASS
  1
CBROWSERAPPOBJECT
  2
CBrowserAppObject
  3
McadcomServices
 90
        0
 91
        0
280
     0
281
     0
  0
CLASS
  1
DM_PLACEHOLDER
  2
AcDmSelsetPlaceholder
  3
AcMechDwgViewMgmt
 90
        0
 91
        0
280
     0
281
     0
  0
CLASS
  1
ACMSTANDARDANSI
  2
AcmStandardANSI
  3
"Amdt_StdImp|Product Description: AutoCAD Mechanical|Company: Autodesk"
 90
        0
 91
        1
280
     0
281
     0
  0
CLASS
  1
AMGOBJPROPCFG
  2
AmgObjPropCfg
  3
"AmgLay|Product Description: AutoCAD Mechanical|Company: Autodesk"
 90
        1
 91
        1
280
     0
281
     0
  0
CLASS
  1
ACMSURFSTANDARDANSI
  2
AcmSurfTextStdANSI
  3
"Amdt_StdImp|Product Description: AutoCAD Mechanical|Company: Autodesk"
 90
        0
 91
        1
280
     0
281
     0
  0
CLASS
  1
ACMFCFSTANDARDANSI
  2
AcmFCFStdANSI
  3
"Amdt_StdImp|Product Description: AutoCAD Mechanical|Company: Autodesk"
 90
        0
 91
        1
280
     0
281
     0
  0
CLASS
  1
ACMWELDSTANDARDANSI
  2
AcmWeldingStdANSI
  3
"Amdt_StdImp|Product Description: AutoCAD Mechanical|Company: Autodesk"
 90
        0
 91
        1
280
     0
281
     0
  0
CLASS
  1
ACMIDSTANDARDANSI
  2
AcmIdStdANSI
  3
"Amdt_StdImp|Product Description: AutoCAD Mechanical|Company: Autodesk"
 90
        0
 91
        1
280
     0
281
     0
  0
CLASS
  1
ACMDATUMSTANDARDANSI
  2
AcmDatumStdANSI
  3
"Amdt_StdImp|Product Description: AutoCAD Mechanical|Company: Autodesk"
 90
        0
 91
        1
280
     0
281
     0
  0
CLASS
  1
ACMBOMSTANDARDANSI
  2
AcmBOMStdANSI
  3
"Amdt_StdImp|Product Description: AutoCAD Mechanical|Company: Autodesk"
 90
        0
 91
        1
280
     0
281
     0
  0
CLASS
  1
ACMDETAILSTANDARDANSI
  2
AmdtDetailSymStdANSI
  3
"Amdt_StdImp|Product Description: AutoCAD Mechanical|Company: Autodesk"
 90
        0
 91
        1
280
     0
281
     0
  0
CLASS
  1
ACMSECTIONSTANDARDANSI
  2
AmdtSectionSymStdANSI
  3
"Amdt_StdImp|Product Description: AutoCAD Mechanical|Company: Autodesk"
 90
        0
 91
        1
280
     0
281
     0
  0
CLASS
  1
ACMCENTERLINESTANDARDANSI
  2
AmdtCenterLineStdANSI
  3
"Amdt_StdImp|Product Description: AutoCAD Mechanical|Company: Autodesk"
 90
        0
 91
        1
280
     0
281
     0
  0
CLASS
  1
ACMTHREADLINESTANDARDANSI
  2
AmdtThreadLineStdANSI
  3
"Amdt_StdImp|Product Description: AutoCAD Mechanical|Company: Autodesk"
 90
        0
 91
        1
280
     0
281
     0
  0
CLASS
  1
ACMNOTESTANDARDANSI
  2
AmdtNoteStdANSI
  3
"Amdt_StdImp|Product Description: AutoCAD Mechanical|Company: Autodesk"
 90
        0
 91
        1
280
     0
281
     0
  0
CLASS
  1
AMDTNOTETEMPLATEDB
  2
AmdtNoteTemplateDB
  3
AMDT_STDIMP_MODULE_NAME
 90
        0
 91
        6
280
     0
281
     0
  0
CLASS
  1
ACAMGLAYSTD
  2
AcAmgLayStd
  3
"AmgLay|Product Description: AutoCAD Mechanical|Company: Autodesk"
 90
        0
 91
        1
280
     0
281
     0
  0
CLASS
  1
ACAMGDIMSTD
  2
AcAmgDimStd
  3
"AmgDim|Product Description: AutoCAD Mechanical|Company: Autodesk"
 90
        0
 91
        1
280
     0
281
     0
  0
CLASS
  1
ACAMGHOLECHARTSTDANSI
  2
AcAmgHoleChartStdANSI
  3
ACMSYMBB_MODULE_NAME
 90
        0
 91
        1
280
     0
281
     0
  0
CLASS
  1
ACAMGTITLESTD
  2
AcAmgTitleStd
  3
"AmgTitle|Product Description: AutoCAD Mechanical|Company: Autodesk"
 90
        0
 91
        1
280
     0
281
     0
  0
CLASS
  1
ACAMGFILTERDAT
  2
AcAmgFilterDat
  3
"AcadM|Product Description: AutoCAD Mechanical|Company: Autodesk"
 90
        0
 91
        0
280
     0
281
     0
  0
CLASS
  1
DICTIONARYVAR
  2
AcDbDictionaryVar
  3
ObjectDBX Classes
 90
        0
 91
        9
280
     0
281
     0
  0
CLASS
  1
ACDBPLACEHOLDER
  2
AcDbPlaceHolder
  3
ObjectDBX Classes
 90
        0
 91
        1
280
     0
281
     0
  0
CLASS
  1
LAYOUT
  2
AcDbLayout
  3
ObjectDBX Classes
 90
        0
 91
        2
280
     0
281
     0
  0
CLASS
  1
MATERIAL
  2
AcDbMaterial
  3
ObjectDBX Classes
 90
     1153
 91
        3
280
     0
281
     0
  0
CLASS
  1
VISUALSTYLE
  2
AcDbVisualStyle
  3
ObjectDBX Classes
 90
     4095
 91
       26
280
     0
281
     0
  0
CLASS
  1
ACMTAPERSTANDARDANSI
  2
AcmTaperStdANSI
  3
"Amdt_StdImp|Product Description: AutoCAD Mechanical|Company: Autodesk"
 90
        0
 91
        1
280
     0
281
     0
  0
CLASS
  1
SORTENTSTABLE
  2
AcDbSortentsTable
  3
ObjectDBX Classes
 90
        0
 91
        0
280
     0
281
     0
  0
CLASS
  1
CAMSSTRUCTBTNSTATE
  2
StructBtnState
  3
L"DesignerAssemblies"
 90
        0
 91
        1
280
     0
281
     0
  0
CLASS
  1
SCALE
  2
AcDbScale
  3
ObjectDBX Classes
 90
     1153
 91
       17
280
     0
281
     0
  0
CLASS
  1
MLEADERSTYLE
  2
AcDbMLeaderStyle
  3
ACDB_MLEADERSTYLE_CLASS
 90
     4095
 91
        1
280
     0
281
     0
  0
CLASS
  1
CELLSTYLEMAP
  2
AcDbCellStyleMap
  3
ObjectDBX Classes
 90
     1152
 91
        1
280
     0
281
     0
  0
ENDSEC
  0
SECTION
  2
TABLES
  0
TABLE
  2
VPORT
  5
8
330
0
100
AcDbSymbolTable
 70
     1
  0
VPORT
  5
D98
330
8
100
AcDbSymbolTableRecord
100
AcDbViewportTableRecord
  2
*Active
 70
     0
 10
0.0
 20
0.0
 11
1.0
 21
1.0
 12
32.00000029803417
 22
20.87500019442091
 13
0.0
 23
0.0
 14
1.0
 24
1.0
 15
0.0
 25
0.0
 16
0.0
 26
0.0
 36
1.0
 17
0.0
 27
0.0
 37
0.0
 40
42.03818199170399
 41
2.16628959276018
 42
50.0
 43
0.0
 44
0.0
 50
0.0
 51
0.0
 71
     0
 72
   100
 73
     1
 74
     0
 75
     0
 76
     0
 77
     0
 78
     0
281
     0
 65
     1
110
0.0
120
0.0
130
0.0
111
1.0
121
0.0
131
0.0
112
0.0
122
1.0
132
0.0
 79
     0
146
0.0
348
DA8
 60
     3
 61
     5
292
     1
282
     1
141
0.0
142
0.0
 63
   250
421
  3355443
  0
ENDTAB
  0
TABLE
  2
LTYPE
  5
5
330
0
100
AcDbSymbolTable
 70
    16
  0
LTYPE
  5
12
330
5
100
AcDbSymbolTableRecord
100
AcDbLinetypeTableRecord
  2
BYBLOCK
 70
     0
  3

 72
    65
 73
     0
 40
0.0
  0
LTYPE
  5
13
330
5
100
AcDbSymbolTableRecord
100
AcDbLinetypeTableRecord
  2
BYLAYER
 70
     0
  3

 72
    65
 73
     0
 40
0.0
  0
LTYPE
  5
14
330
5
100
AcDbSymbolTableRecord
100
AcDbLinetypeTableRecord
  2
CONTINUOUS
 70
     0
  3
Solid line
 72
    65
 73
     0
 40
0.0
  0
LTYPE
  5
4C
330
5
100
AcDbSymbolTableRecord
100
AcDbLinetypeTableRecord
  2
CENTER
 70
     0
  3
____ _ ____ _ ____ _ ____ _ ____ _ ____ _ ____
 72
    65
 73
     4
 40
2.0
 49
1.25
 74
     0
 49
-0.25
 74
     0
 49
0.25
 74
     0
 49
-0.25
 74
     0
  0
LTYPE
  5
4D
330
5
100
AcDbSymbolTableRecord
100
AcDbLinetypeTableRecord
  2
HIDDEN
 70
     0
  3
_ _ _ _ _ _ _ _ _ _ _ _ _ _ _ _ _ _ _ _ _ _ _
 72
    65
 73
     2
 40
0.375
 49
0.25
 74
     0
 49
-0.125
 74
     0
  0
LTYPE
  5
B74
330
5
100
AcDbSymbolTableRecord
100
AcDbLinetypeTableRecord
  2
PHANTOM2
 70
     0
  3
Phantom (.5x) ___ _ _ ___ _ _ ___ _ _ ___ _ _
 72
    65
 73
     6
 40
1.25
 49
0.625
 74
     0
 49
-0.125
 74
     0
 49
0.125
 74
     0
 49
-0.125
 74
     0
 49
0.125
 74
     0
 49
-0.125
 74
     0
  0
LTYPE
  5
BA8
330
5
100
AcDbSymbolTableRecord
100
AcDbLinetypeTableRecord
  2
AM_ISO02W050
 70
     0
  3
__ __ __ __ __ __ __ __ __ __ __ __ __ __ __
 72
    65
 73
     2
 40
7.5
 49
6.0
 74
     0
 49
-1.5
 74
     0
  0
LTYPE
  5
BA9
330
5
100
AcDbSymbolTableRecord
100
AcDbLinetypeTableRecord
  2
AM_ISO08W050
 70
     0
  3
____ . ____ . ____ . ____ . ____ . ____ . ____
 72
    65
 73
     4
 40
18.0
 49
12.0
 74
     0
 49
-1.5
 74
     0
 49
3.0
 74
     0
 49
-1.5
 74
     0
  0
LTYPE
  5
BAA
330
5
100
AcDbSymbolTableRecord
100
AcDbLinetypeTableRecord
  2
AM_ISO09W050
 70
     0
  3
_____ . . _____ . . _____ . . ____ .. ____
 72
    65
 73
     6
 40
22.5
 49
12.0
 74
     0
 49
-1.5
 74
     0
 49
3.0
 74
     0
 49
-1.5
 74
     0
 49
3.0
 74
     0
 49
-1.5
 74
     0
  0
LTYPE
  5
BAB
330
5
100
AcDbSymbolTableRecord
100
AcDbLinetypeTableRecord
  2
Amconstr
 70
     0
  3
_______________________
 72
    65
 73
     2
 40
9999.0
 49
9999.0
 74
     0
 49
0.0
 74
     0
  0
LTYPE
  5
BAC
330
5
100
AcDbSymbolTableRecord
100
AcDbLinetypeTableRecord
  2
AM_ISO08W050x2
 70
     0
  3
__ . __ . __ . __ . __ . __
 72
    65
 73
     4
 40
9.0
 49
6.0
 74
     0
 49
-0.75
 74
     0
 49
1.5
 74
     0
 49
-0.75
 74
     0
  0
LTYPE
  5
BAD
330
5
100
AcDbSymbolTableRecord
100
AcDbLinetypeTableRecord
  2
AM_ISO02W050x2
 70
     0
  3
 _ _ _ _ _ _ _ _ _ _ _ _
 72
    65
 73
     2
 40
3.75
 49
3.0
 74
     0
 49
-0.75
 74
     0
  0
LTYPE
  5
BB0
330
5
100
AcDbSymbolTableRecord
100
AcDbLinetypeTableRecord
  2
Amzigzag
 70
     0
  3
/\/-/\/-/\/-/\/-/\/-/\/
 72
    65
 73
     2
 40
11.0001
 49
0.0001
 74
     4
 75
   135
340
BAF
 46
0.04
 50
0.0
 44
0.0
 45
0.0
 49
-11.0
 74
     0
  0
LTYPE
  5
BB1
330
5
100
AcDbSymbolTableRecord
100
AcDbLinetypeTableRecord
  2
CENTER2
 70
     0
  3
Center (.5x) ___ _ ___ _ ___ _ ___ _ ___ _ ___
 72
    65
 73
     4
 40
1.125
 49
0.75
 74
     0
 49
-0.125
 74
     0
 49
0.125
 74
     0
 49
-0.125
 74
     0
  0
LTYPE
  5
BB2
330
5
100
AcDbSymbolTableRecord
100
AcDbLinetypeTableRecord
  2
HIDDEN2
 70
     0
  3
Hidden (.5x) _ _ _ _ _ _ _ _ _ _ _ _ _ _ _ _ _
 72
    65
 73
     2
 40
0.1875
 49
0.125
 74
     0
 49
-0.0625
 74
     0
  0
LTYPE
  5
BB3
330
5
100
AcDbSymbolTableRecord
100
AcDbLinetypeTableRecord
  2
Amzigzag2
 70
     0
  3
/\/-/\/-/\/-/\/-/\/-/\/
 72
    65
 73
     2
 40
0.4401
 49
0.0001
 74
     4
 75
   135
340
BAF
 46
0.0016
 50
0.0
 44
0.0
 45
0.0
 49
-0.4400000000000001
 74
     0
  0
LTYPE
  5
BC1
330
5
100
AcDbSymbolTableRecord
100
AcDbLinetypeTableRecord
  2
ACANSTGB
 70
     0
  3
__ . . __ . .
 72
    65
 73
     6
 40
0.35433070866
 49
0.15748031496
 74
     0
 49
-0.03937007874
 74
     0
 49
0.03937007874
 74
     0
 49
-0.03937007874
 74
     0
 49
0.03937007874
 74
     0
 49
-0.03937007874
 74
     0
  0
LTYPE
  5
BC2
330
5
100
AcDbSymbolTableRecord
100
AcDbLinetypeTableRecord
  2
ACANSTGL
 70
     0
  3
_ _ _ _ _
 72
    65
 73
     2
 40
0.11811023622
 49
0.07874015748
 74
     0
 49
-0.03937007874
 74
     0
  0
ENDTAB
  0
TABLE
  2
LAYER
  5
2
102
{ACAD_XDICTIONARY
360
E2F
102
}
330
0
100
AcDbSymbolTable
 70
     8
  0
LAYER
  5
F
330
2
100
AcDbSymbolTableRecord
100
AcDbLayerTableRecord
  2
0
 70
     0
 62
     7
  6
CONTINUOUS
370
    -3
390
B34
347
DA1
  0
LAYER
  5
50
330
2
100
AcDbSymbolTableRecord
100
AcDbLayerTableRecord
  2
DIM
 70
     0
 62
     3
  6
CONTINUOUS
370
    -3
390
B34
347
DA1
  0
LAYER
  5
51
330
2
100
AcDbSymbolTableRecord
100
AcDbLayerTableRecord
  2
HATCH
 70
     0
 62
     4
  6
CONTINUOUS
370
    -3
390
B34
347
DA1
  0
LAYER
  5
52
330
2
100
AcDbSymbolTableRecord
100
AcDbLayerTableRecord
  2
PN
 70
     0
 62
     6
  6
CONTINUOUS
370
    -3
390
B34
347
DA1
  0
LAYER
  5
53
330
2
100
AcDbSymbolTableRecord
100
AcDbLayerTableRecord
  2
TITLE
 70
     0
 62
     1
  6
CONTINUOUS
370
    -3
390
B34
347
DA1
  0
LAYER
  5
54
330
2
100
AcDbSymbolTableRecord
100
AcDbLayerTableRecord
  2
CENTER
 70
     0
 62
     2
  6
CENTER
370
    -3
390
B34
347
DA1
  0
LAYER
  5
55
330
2
100
AcDbSymbolTableRecord
100
AcDbLayerTableRecord
  2
DEFPOINTS
 70
     0
 62
    -7
  6
CONTINUOUS
290
     0
370
    -3
390
B34
347
DA1
  0
LAYER
  5
56
330
2
100
AcDbSymbolTableRecord
100
AcDbLayerTableRecord
  2
HIDE
 70
     0
 62
     5
  6
HIDDEN
370
    -3
390
B34
347
DA1
  0
ENDTAB
  0
TABLE
  2
STYLE
  5
3
330
0
100
AcDbSymbolTable
 70
     8
  0
STYLE
  5
10
330
3
100
AcDbSymbolTableRecord
100
AcDbTextStyleTableRecord
  2
STANDARD
 70
     0
 40
0.0
 41
1.0
 50
0.0
 71
     0
 42
0.187
  3
txt
  4

  0
STYLE
  5
4A
330
3
100
AcDbSymbolTableRecord
100
AcDbTextStyleTableRecord
  2
ITALIC
 70
     0
 40
0.0
 41
1.0
 50
0.0
 71
     0
 42
0.2
  3
txt
  4

  0
STYLE
  5
4B
330
3
100
AcDbSymbolTableRecord
100
AcDbTextStyleTableRecord
  2
COMPLEX
 70
     0
 40
0.0
 41
1.0
 50
0.0
 71
     0
 42
0.156
  3
ROMANC
  4

  0
STYLE
  5
A95
330
3
100
AcDbSymbolTableRecord
100
AcDbTextStyleTableRecord
  2
STYLE1
 70
     0
 40
0.0
 41
1.0
 50
0.0
 71
     0
 42
0.25
  3
swiss.ttf
  4

1001
ACAD
1000
Swis721 BT
1071
       34
  0
STYLE
  5
BAF
330
3
100
AcDbSymbolTableRecord
100
AcDbTextStyleTableRecord
  2

 70
     1
 40
0.0
 41
1.0
 50
0.0
 71
     0
 42
0.187
  3
ltypeshp.shx
  4

  0
STYLE
  5
BB4
330
3
100
AcDbSymbolTableRecord
100
AcDbTextStyleTableRecord
  2
ACANSTS
 70
     0
 40
1.0
 41
1.0
 50
0.0
 71
     0
 42
0.187
  3
romans.shx
  4

  0
STYLE
  5
BC0
330
3
100
AcDbSymbolTableRecord
100
AcDbTextStyleTableRecord
  2
ACANSGDT
 70
     0
 40
0.0
 41
1.0
 50
0.0
 71
     0
 42
0.187
  3
amgdt.shx
  4

  0
STYLE
  5
E2E
330
3
100
AcDbSymbolTableRecord
100
AcDbTextStyleTableRecord
  2

 70
     1
 40
0.0
 41
1.0
 50
0.0
 71
     0
 42
0.187
  3
genltshp.shx
  4

  0
ENDTAB
  0
TABLE
  2
VIEW
  5
6
330
0
100
AcDbSymbolTable
 70
     0
  0
ENDTAB
  0
TABLE
  2
UCS
  5
7
330
0
100
AcDbSymbolTable
 70
     0
  0
ENDTAB
  0
TABLE
  2
APPID
  5
9
330
0
100
AcDbSymbolTable
 70
     9
  0
APPID
  5
11
330
9
100
AcDbSymbolTableRecord
100
AcDbRegAppTableRecord
  2
ACAD
 70
     0
  0
APPID
  5
B47
330
9
100
AcDbSymbolTableRecord
100
AcDbRegAppTableRecord
  2
MCAD_NO_VIS
 70
     0
  0
APPID
  5
B48
330
9
100
AcDbSymbolTableRecord
100
AcDbRegAppTableRecord
  2
ACAD_TEMP_GRAPHIC
 70
     0
  0
APPID
  5
B76
330
9
100
AcDbSymbolTableRecord
100
AcDbRegAppTableRecord
  2
AD_DRAW
 70
     0
  0
APPID
  5
B79
330
9
100
AcDbSymbolTableRecord
100
AcDbRegAppTableRecord
  2
ACATTRIBSERVICES
 70
     0
  0
APPID
  5
B97
330
9
100
AcDbSymbolTableRecord
100
AcDbRegAppTableRecord
  2
DESIGNERASSEMBLIES
 70
     0
  0
APPID
  5
B9D
330
9
100
AcDbSymbolTableRecord
100
AcDbRegAppTableRecord
  2
ACADM_DIM_EDIT
 70
     0
  0
APPID
  5
B9E
330
9
100
AcDbSymbolTableRecord
100
AcDbRegAppTableRecord
  2
AMDT_DM_ADJ
 70
     0
  0
APPID
  5
BE0
330
9
100
AcDbSymbolTableRecord
100
AcDbRegAppTableRecord
  2
ACAD_PSEXT
 70
     0
  0
ENDTAB
  0
TABLE
  2
DIMSTYLE
  5
A
330
0
100
AcDbSymbolTable
 70
     7
100
AcDbDimStyleTable
 71
     1
340
728
  0
DIMSTYLE
105
728
102
{ACAD_REACTORS
330
6A1
330
6A2
330
6A3
330
6A4
330
6A5
330
6AE
330
6AF
330
6B6
330
69B
330
69C
330
69F
330
69D
330
69E
330
6A0
330
6A6
330
6B3
330
71E
102
}
330
A
100
AcDbSymbolTableRecord
100
AcDbDimStyleTableRecord
  2
STANDARD
 70
     0
340
10
  0
DIMSTYLE
105
BCC
330
A
100
AcDbSymbolTableRecord
100
AcDbDimStyleTableRecord
  2
AM_ANSI
 70
     0
  4
mm
 41
0.1
 42
0.05
 43
0.5
 44
0.1
 47
0.1
 48
0.1
 78
     7
 79
     2
140
0.12
141
0.0
146
0.71
147
0.06
176
   256
177
   256
178
     2
274
     4
284
     7
340
10
371
    -1
372
    -1
  0
DIMSTYLE
105
BCD
330
A
100
AcDbSymbolTableRecord
100
AcDbDimStyleTableRecord
  2
AM_ANSI$3
 70
     0
  4
mm
 41
0.1
 42
0.05
 43
0.5
 44
0.1
 47
0.1
 48
0.1
 78
     7
 79
     2
140
0.12
141
0.0
146
0.71
147
0.06
176
   256
177
   256
178
     2
274
     4
284
     7
288
     1
289
     0
340
10
371
    -1
372
    -1
  0
DIMSTYLE
105
BCE
330
A
100
AcDbSymbolTableRecord
100
AcDbDimStyleTableRecord
  2
AM_ANSI$4
 70
     0
  4
mm
 41
0.1
 42
0.05
 43
0.5
 44
0.1
 47
0.1
 48
0.1
 78
     7
 79
     2
140
0.12
141
0.0
146
0.71
147
0.06
176
   256
177
   256
178
     2
274
     4
284
     7
288
     1
289
     0
340
10
371
    -1
372
    -1
  0
DIMSTYLE
105
BCF
330
A
100
AcDbSymbolTableRecord
100
AcDbDimStyleTableRecord
  2
AM_ANSI$7
 70
     0
  4
mm
 41
0.1
 42
0.05
 43
0.5
 44
0.1
 47
0.1
 48
0.1
 78
     7
 79
     2
140
0.24
141
0.0
146
0.71
147
0.06
176
   256
177
   256
178
     2
274
     4
284
     7
340
10
371
    -1
372
    -1
  0
DIMSTYLE
105
BD0
330
A
100
AcDbSymbolTableRecord
100
AcDbDimStyleTableRecord
  2
AM_ANSI$SF
 70
     0
  4
mm
 41
0.1
 42
0.05
 43
0.5
 44
0.1
 47
0.1
 48
0.1
 75
     1
 76
     1
 78
     7
 79
     2
140
0.12
141
0.0
146
0.71
147
0.06
176
   256
177
   256
178
     2
274
     4
284
     7
340
10
371
    -1
372
    -1
  0
DIMSTYLE
105
BD5
330
A
100
AcDbSymbolTableRecord
100
AcDbDimStyleTableRecord
  2
AM_ANSI$SH
 70
     0
  4
mm
 41
0.1
 42
0.05
 43
0.5
 44
0.1
 47
0.1
 48
0.1
 75
     1
 76
     1
 78
     7
 79
     2
140
0.12
141
0.0
146
0.71
147
0.06
173
     1
176
   256
177
   256
178
     2
274
     4
284
     7
340
10
343
BD1
371
    -1
372
    -1
  0
ENDTAB
  0
TABLE
  2
BLOCK_RECORD
  5
1
330
0
100
AcDbSymbolTable
 70
    43
  0
BLOCK_RECORD
  5
18
330
1
100
AcDbSymbolTableRecord
100
AcDbBlockTableRecord
  2
*MODEL_SPACE
340
B3B
 70
     0
280
     1
281
     0
  0
BLOCK_RECORD
  5
15
330
1
100
AcDbSymbolTableRecord
100
AcDbBlockTableRecord
  2
*PAPER_SPACE
340
B3C
 70
     0
280
     1
281
     0
  0
BLOCK_RECORD
  5
1C
330
1
100
AcDbSymbolTableRecord
100
AcDbBlockTableRecord
  2
*X0
340
0
102
{BLKREFS
331
697
102
}
 70
     0
280
     1
281
     0
  0
BLOCK_RECORD
  5
1D
330
1
100
AcDbSymbolTableRecord
100
AcDbBlockTableRecord
  2
*X1
340
0
102
{BLKREFS
331
698
102
}
 70
     0
280
     1
281
     0
  0
BLOCK_RECORD
  5
1E
330
1
100
AcDbSymbolTableRecord
100
AcDbBlockTableRecord
  2
*X2
340
0
102
{BLKREFS
331
699
102
}
 70
     0
280
     1
281
     0
  0
BLOCK_RECORD
  5
1F
330
1
100
AcDbSymbolTableRecord
100
AcDbBlockTableRecord
  2
*X3
340
0
102
{BLKREFS
331
69A
102
}
 70
     0
280
     1
281
     0
  0
BLOCK_RECORD
  5
20
330
1
100
AcDbSymbolTableRecord
100
AcDbBlockTableRecord
  2
*X4
340
0
102
{BLKREFS
331
6A7
102
}
 70
     0
280
     1
281
     0
  0
BLOCK_RECORD
  5
21
330
1
100
AcDbSymbolTableRecord
100
AcDbBlockTableRecord
  2
*X5
340
0
102
{BLKREFS
331
6A8
102
}
 70
     0
280
     1
281
     0
  0
BLOCK_RECORD
  5
22
330
1
100
AcDbSymbolTableRecord
100
AcDbBlockTableRecord
  2
PBH
340
0
102
{BLKREFS
331
6A9
331
6AA
102
}
 70
     0
280
     1
281
     0
  0
BLOCK_RECORD
  5
23
330
1
100
AcDbSymbolTableRecord
100
AcDbBlockTableRecord
  2
PBHD
340
0
102
{BLKREFS
331
6B0
102
}
 70
     0
280
     1
281
     0
  0
BLOCK_RECORD
  5
24
330
1
100
AcDbSymbolTableRecord
100
AcDbBlockTableRecord
  2
*D8
340
0
 70
     0
280
     1
281
     0
  0
BLOCK_RECORD
  5
25
330
1
100
AcDbSymbolTableRecord
100
AcDbBlockTableRecord
  2
*D9
340
0
 70
     0
280
     1
281
     0
  0
BLOCK_RECORD
  5
26
330
1
100
AcDbSymbolTableRecord
100
AcDbBlockTableRecord
  2
*D10
340
0
 70
     0
280
     1
281
     0
  0
BLOCK_RECORD
  5
27
330
1
100
AcDbSymbolTableRecord
100
AcDbBlockTableRecord
  2
*D11
340
0
 70
     0
280
     1
281
     0
  0
BLOCK_RECORD
  5
28
330
1
100
AcDbSymbolTableRecord
100
AcDbBlockTableRecord
  2
SAAR
340
0
102
{BLKREFS
331
6B7
102
}
 70
     0
280
     1
281
     0
  0
BLOCK_RECORD
  5
29
330
1
100
AcDbSymbolTableRecord
100
AcDbBlockTableRecord
  2
*X13
340
0
102
{BLKREFS
331
164
102
}
 70
     0
280
     1
281
     0
  0
BLOCK_RECORD
  5
2A
330
1
100
AcDbSymbolTableRecord
100
AcDbBlockTableRecord
  2
SBBT
340
0
102
{BLKREFS
331
6B8
102
}
 70
     0
280
     1
281
     0
  0
BLOCK_RECORD
  5
2B
330
1
100
AcDbSymbolTableRecord
100
AcDbBlockTableRecord
  2
*X15
340
0
102
{BLKREFS
331
199
102
}
 70
     0
280
     1
281
     0
  0
BLOCK_RECORD
  5
2C
330
1
100
AcDbSymbolTableRecord
100
AcDbBlockTableRecord
  2
SAAL
340
0
102
{BLKREFS
331
6B9
102
}
 70
     0
280
     1
281
     0
  0
BLOCK_RECORD
  5
2D
330
1
100
AcDbSymbolTableRecord
100
AcDbBlockTableRecord
  2
*X17
340
0
102
{BLKREFS
331
1DB
102
}
 70
     0
280
     1
281
     0
  0
BLOCK_RECORD
  5
2E
330
1
100
AcDbSymbolTableRecord
100
AcDbBlockTableRecord
  2
SBBB
340
0
102
{BLKREFS
331
6BA
102
}
 70
     0
280
     1
281
     0
  0
BLOCK_RECORD
  5
2F
330
1
100
AcDbSymbolTableRecord
100
AcDbBlockTableRecord
  2
*X19
340
0
102
{BLKREFS
331
22A
102
}
 70
     0
280
     1
281
     0
  0
BLOCK_RECORD
  5
30
330
1
100
AcDbSymbolTableRecord
100
AcDbBlockTableRecord
  2
SBBTX
340
0
102
{BLKREFS
331
6BB
102
}
 70
     0
280
     1
281
     0
  0
BLOCK_RECORD
  5
31
330
1
100
AcDbSymbolTableRecord
100
AcDbBlockTableRecord
  2
SAATX
340
0
102
{BLKREFS
331
6BC
102
}
 70
     0
280
     1
281
     0
  0
BLOCK_RECORD
  5
BD1
330
1
100
AcDbSymbolTableRecord
100
AcDbBlockTableRecord
  2
GENAXEH
340
0
 70
     0
280
     1
281
     0
  0
BLOCK_RECORD
  5
C11
330
1
100
AcDbSymbolTableRecord
100
AcDbBlockTableRecord
  2
*D24
340
0
 70
     0
280
     1
281
     0
  0
BLOCK_RECORD
  5
C1E
330
1
100
AcDbSymbolTableRecord
100
AcDbBlockTableRecord
  2
*D25
340
0
 70
     0
280
     1
281
     0
  0
BLOCK_RECORD
  5
C2B
330
1
100
AcDbSymbolTableRecord
100
AcDbBlockTableRecord
  2
*D26
340
0
 70
     0
280
     1
281
     0
  0
BLOCK_RECORD
  5
C38
330
1
100
AcDbSymbolTableRecord
100
AcDbBlockTableRecord
  2
*D27
340
0
 70
     0
280
     1
281
     0
  0
BLOCK_RECORD
  5
C45
330
1
100
AcDbSymbolTableRecord
100
AcDbBlockTableRecord
  2
*D28
340
0
 70
     0
280
     1
281
     0
  0
BLOCK_RECORD
  5
C52
330
1
100
AcDbSymbolTableRecord
100
AcDbBlockTableRecord
  2
*D29
340
0
 70
     0
280
     1
281
     0
  0
BLOCK_RECORD
  5
C60
330
1
100
AcDbSymbolTableRecord
100
AcDbBlockTableRecord
  2
*D30
340
0
 70
     0
280
     1
281
     0
  0
BLOCK_RECORD
  5
C6E
330
1
100
AcDbSymbolTableRecord
100
AcDbBlockTableRecord
  2
*D31
340
0
 70
     0
280
     1
281
     0
  0
BLOCK_RECORD
  5
C7B
330
1
100
AcDbSymbolTableRecord
100
AcDbBlockTableRecord
  2
*D32
340
0
 70
     0
280
     1
281
     0
  0
BLOCK_RECORD
  5
C88
330
1
100
AcDbSymbolTableRecord
100
AcDbBlockTableRecord
  2
*D33
340
0
 70
     0
280
     1
281
     0
  0
BLOCK_RECORD
  5
C95
330
1
100
AcDbSymbolTableRecord
100
AcDbBlockTableRecord
  2
*D34
340
0
 70
     0
280
     1
281
     0
  0
BLOCK_RECORD
  5
CE0
330
1
100
AcDbSymbolTableRecord
100
AcDbBlockTableRecord
  2
*D35
340
0
 70
     0
280
     1
281
     0
  0
BLOCK_RECORD
  5
CED
330
1
100
AcDbSymbolTableRecord
100
AcDbBlockTableRecord
  2
*D36
340
0
 70
     0
280
     1
281
     0
  0
BLOCK_RECORD
  5
CFA
330
1
100
AcDbSymbolTableRecord
100
AcDbBlockTableRecord
  2
*D37
340
0
 70
     0
280
     1
281
     0
  0
BLOCK_RECORD
  5
D11
330
1
100
AcDbSymbolTableRecord
100
AcDbBlockTableRecord
  2
*D38
340
0
 70
     0
280
     1
281
     0
  0
BLOCK_RECORD
  5
D1E
330
1
100
AcDbSymbolTableRecord
100
AcDbBlockTableRecord
  2
*D39
340
0
 70
     0
280
     1
281
     0
  0
BLOCK_RECORD
  5
D36
330
1
100
AcDbSymbolTableRecord
100
AcDbBlockTableRecord
  2
*D40
340
0
 70
     0
280
     1
281
     0
  0
BLOCK_RECORD
  5
E04
330
1
100
AcDbSymbolTableRecord
100
AcDbBlockTableRecord
  2
*U41
340
0
 70
     0
280
     1
281
     0
  0
ENDTAB
  0
ENDSEC
  0
SECTION
  2
BLOCKS
  0
BLOCK
  5
59
330
18
100
AcDbEntity
  8
0
100
AcDbBlockBegin
  2
*MODEL_SPACE
 70
     0
 10
0.0
 20
0.0
 30
0.0
  3
*MODEL_SPACE
  1

  0
ENDBLK
  5
5A
330
18
100
AcDbEntity
  8
0
100
AcDbBlockEnd
  0
BLOCK
  5
57
330
15
100
AcDbEntity
 67
     1
  8
0
100
AcDbBlockBegin
  2
*PAPER_SPACE
 70
     0
 10
0.0
 20
0.0
 30
0.0
  3
*PAPER_SPACE
  1

  0
ENDBLK
  5
58
330
15
100
AcDbEntity
 67
     1
  8
0
100
AcDbBlockEnd
  0
BLOCK
  5
5B
330
1C
100
AcDbEntity
  8
0
100
AcDbBlockBegin
  2
*X0
 70
     1
 10
0.0
 20
0.0
 30
0.0
  3
*X0
  1

  0
LINE
  5
5C
330
1C
100
AcDbEntity
  8
0
 62
     0
100
AcDbLine
 10
30.6638548183199
 20
7.329331039163823
 30
0.0
 11
30.78532931239786
 21
7.450805533241787
 31
0.0
  0
LINE
  5
5D
330
1C
100
AcDbEntity
  8
0
 62
     0
100
AcDbLine
 10
30.64429752539616
 20
8.370433918019909
 30
0.0
 11
30.76671492228638
 21
8.492851314910124
 31
0.0
  0
LINE
  5
5E
330
1C
100
AcDbEntity
  8
0
 62
     0
100
AcDbLine
 10
30.6261012503926
 20
9.412897814796176
 30
0.0
 11
30.74810053217489
 21
9.534897096578459
 31
0.0
  0
LINE
  5
5F
330
1C
100
AcDbEntity
  8
0
 62
     0
100
AcDbLine
 10
30.47778923215232
 20
10.32524596833571
 30
0.0
 11
30.57036310721181
 21
10.4178198433952
 31
0.0
  0
LINE
  5
60
330
1C
100
AcDbEntity
  8
0
 62
     0
100
AcDbLine
 10
30.61137597649084
 20
10.45883271267423
 30
0.0
 11
30.72948614206341
 21
10.5769428782468
 31
0.0
  0
LINE
  5
61
330
1C
100
AcDbEntity
  8
0
 62
     0
100
AcDbLine
 10
31.5630037943311
 20
7.167819843395203
 30
0.0
 11
31.6880037943311
 21
7.292819843395203
 31
0.0
  0
LINE
  5
62
330
1C
100
AcDbEntity
  8
0
 62
     0
100
AcDbLine
 10
34.02161299598829
 20
9.626429045052399
 30
0.0
 11
34.14790891893557
 21
9.752724967999677
 31
0.0
  0
LINE
  5
63
330
1C
100
AcDbEntity
  8
0
 62
     0
100
AcDbLine
 10
32.62366396611092
 20
7.167819843395203
 30
0.0
 11
32.74866396611092
 21
7.292819843395203
 31
0.0
  0
LINE
  5
64
330
1C
100
AcDbEntity
  8
0
 62
     0
100
AcDbLine
 10
34.00232148082068
 20
8.546477358104972
 30
0.0
 11
34.12906612457133
 21
8.673222001855611
 31
0.0
  0
LINE
  5
65
330
1C
100
AcDbEntity
  8
0
 62
     0
100
AcDbLine
 10
33.68432413789074
 20
7.167819843395203
 30
0.0
 11
33.80932413789074
 21
7.292819843395203
 31
0.0
  0
LINE
  5
66
330
1C
100
AcDbEntity
  8
0
 62
     0
100
AcDbLine
 10
33.98302996565308
 20
7.466525671157546
 30
0.0
 11
34.11022333020709
 21
7.593719035711545
 31
0.0
  0
LINE
  5
67
330
1C
100
AcDbEntity
  8
0
 62
     0
100
AcDbLine
 10
30.64733023789167
 20
8.196689935515411
 30
0.0
 11
30.76981732063308
 21
8.319177018256832
 31
0.0
  0
LINE
  5
68
330
1C
100
AcDbEntity
  8
0
 62
     0
100
AcDbLine
 10
30.62913396288811
 20
9.239153832291679
 30
0.0
 11
30.7512029305216
 21
9.361222799925169
 31
0.0
  0
LINE
  5
69
330
1C
100
AcDbEntity
  8
0
 62
     0
100
AcDbLine
 10
30.52824901677162
 20
10.19892905795501
 30
0.0
 11
30.73258854041011
 21
10.4032685815935
 31
0.0
  0
LINE
  5
6A
330
1C
100
AcDbEntity
  8
0
 62
     0
100
AcDbLine
 10
30.72577529986804
 20
7.214474825711959
 30
0.0
 11
30.81472098834438
 21
7.303420514188306
 31
0.0
  0
LINE
  5
6B
330
1C
100
AcDbEntity
  8
0
 62
     0
100
AcDbLine
 10
34.03768925863336
 20
10.52638878447728
 30
0.0
 11
34.14471660453366
 21
10.63341613037759
 31
0.0
  0
LINE
  5
6C
330
1C
100
AcDbEntity
  8
0
 62
     0
100
AcDbLine
 10
31.7397804893311
 20
7.167819843395203
 30
0.0
 11
31.8647804893311
 21
7.292819843395203
 31
0.0
  0
LINE
  5
6D
330
1C
100
AcDbEntity
  8
0
 62
     0
100
AcDbLine
 10
34.01839774346576
 20
9.446437097529859
 30
0.0
 11
34.14476845321347
 21
9.57280780727757
 31
0.0
  0
LINE
  5
6E
330
1C
100
AcDbEntity
  8
0
 62
     0
100
AcDbLine
 10
32.80044066111092
 20
7.167819843395203
 30
0.0
 11
32.92544066111092
 21
7.292819843395203
 31
0.0
  0
LINE
  5
6F
330
1C
100
AcDbEntity
  8
0
 62
     0
100
AcDbLine
 10
33.99910622829815
 20
8.366485410582431
 30
0.0
 11
34.12592565884922
 21
8.493304841133504
 31
0.0
  0
LINE
  5
70
330
1C
100
AcDbEntity
  8
0
 62
     0
100
AcDbLine
 10
33.86110083289074
 20
7.167819843395203
 30
0.0
 11
34.10708286448498
 21
7.413801874989439
 31
0.0
  0
LINE
  5
71
330
1C
100
AcDbEntity
  8
0
 62
     0
100
AcDbLine
 10
30.65036295040432
 20
8.02294595202807
 30
0.0
 11
30.77291971899734
 21
8.14550272062109
 31
0.0
  0
LINE
  5
72
330
1C
100
AcDbEntity
  8
0
 62
     0
100
AcDbLine
 10
30.63216667540077
 20
9.065409848804337
 30
0.0
 11
30.75430532888586
 21
9.187548502289425
 31
0.0
  0
LINE
  5
73
330
1C
100
AcDbEntity
  8
0
 62
     0
100
AcDbLine
 10
30.61397040039722
 20
10.1078737455806
 30
0.0
 11
30.73569093877437
 21
10.22959428395776
 31
0.0
  0
LINE
  5
74
330
1C
100
AcDbEntity
  8
0
 62
     0
100
AcDbLine
 10
30.85589701355127
 20
7.167819843395203
 30
0.0
 11
30.98089701355128
 21
7.292819843395203
 31
0.0
  0
LINE
  5
75
330
1C
100
AcDbEntity
  8
0
 62
     0
100
AcDbLine
 10
34.03447400609263
 20
10.34639683593656
 30
0.0
 11
34.15607337563016
 21
10.46799620547408
 31
0.0
  0
LINE
  5
76
330
1C
100
AcDbEntity
  8
0
 62
     0
100
AcDbLine
 10
31.9165571853311
 20
7.167819843395203
 30
0.0
 11
32.04155718533109
 21
7.292819843395203
 31
0.0
  0
LINE
  5
77
330
1C
100
AcDbEntity
  8
0
 62
     0
100
AcDbLine
 10
34.01518249092503
 20
9.266445148989133
 30
0.0
 11
34.1416279874736
 21
9.392890645537702
 31
0.0
  0
LINE
  5
78
330
1C
100
AcDbEntity
  8
0
 62
     0
100
AcDbLine
 10
32.97721735711092
 20
7.167819843395203
 30
0.0
 11
33.10221735711092
 21
7.292819843395203
 31
0.0
  0
LINE
  5
79
330
1C
100
AcDbEntity
  8
0
 62
     0
100
AcDbLine
 10
33.99589097575742
 20
8.186493462041706
 30
0.0
 11
34.12278519310935
 21
8.313387679393636
 31
0.0
  0
LINE
  5
7A
330
1C
100
AcDbEntity
  8
0
 62
     0
100
AcDbLine
 10
30.65339566289983
 20
7.849201969523575
 30
0.0
 11
30.77602211734405
 21
7.9718284239678
 31
0.0
  0
LINE
  5
7B
330
1C
100
AcDbEntity
  8
0
 62
     0
100
AcDbLine
 10
30.63519938789627
 20
8.89166586629984
 30
0.0
 11
30.75740772723257
 21
9.013874205636135
 31
0.0
  0
LINE
  5
7C
330
1C
100
AcDbEntity
  8
0
 62
     0
100
AcDbLine
 10
30.61700311289272
 20
9.934129763076109
 30
0.0
 11
30.73879333712108
 21
10.05591998730447
 31
0.0
  0
LINE
  5
7D
330
1C
100
AcDbEntity
  8
0
 62
     0
100
AcDbLine
 10
31.03267370855127
 20
7.167819843395203
 30
0.0
 11
31.15767370855127
 21
7.292819843395203
 31
0.0
  0
LINE
  5
7E
330
1C
100
AcDbEntity
  8
0
 62
     0
100
AcDbLine
 10
34.03125875357009
 20
10.16640488841402
 30
0.0
 11
34.28267370855127
 21
10.4178198433952
 31
0.0
  0
LINE
  5
7F
330
1C
100
AcDbEntity
  8
0
 62
     0
100
AcDbLine
 10
32.0933338803311
 20
7.167819843395203
 30
0.0
 11
32.2183338803311
 21
7.292819843395203
 31
0.0
  0
LINE
  5
80
330
1C
100
AcDbEntity
  8
0
 62
     0
100
AcDbLine
 10
34.01196723840249
 20
9.086453201466596
 30
0.0
 11
34.13848752175149
 21
9.2129734848156
 31
0.0
  0
LINE
  5
81
330
1C
100
AcDbEntity
  8
0
 62
     0
100
AcDbLine
 10
33.15399405211092
 20
7.167819843395203
 30
0.0
 11
33.27899405211092
 21
7.292819843395203
 31
0.0
  0
LINE
  5
82
330
1C
100
AcDbEntity
  8
0
 62
     0
100
AcDbLine
 10
33.99267572323488
 20
8.00650151451917
 30
0.0
 11
34.11964472738725
 21
8.133470518671535
 31
0.0
  0
ENDBLK
  5
83
330
1C
100
AcDbEntity
  8
0
100
AcDbBlockEnd
  0
BLOCK
  5
84
330
1D
100
AcDbEntity
  8
0
100
AcDbBlockBegin
  2
*X1
 70
     1
 10
0.0
 20
0.0
 30
0.0
  3
*X1
  1

  0
LINE
  5
85
330
1D
100
AcDbEntity
  8
0
 62
     0
100
AcDbLine
 10
31.49358702779765
 20
10.9328198433952
 30
0.0
 11
31.36858702779765
 21
11.0578198433952
 31
0.0
  0
LINE
  5
86
330
1D
100
AcDbEntity
  8
0
 62
     0
100
AcDbLine
 10
30.62042685601783
 20
10.7453198433952
 30
0.0
 11
30.51153798370435
 21
10.85420871570868
 31
0.0
  0
LINE
  5
87
330
1D
100
AcDbEntity
  8
0
 62
     0
100
AcDbLine
 10
32.55424719957747
 20
10.9328198433952
 30
0.0
 11
32.42924719957747
 21
11.0578198433952
 31
0.0
  0
LINE
  5
88
330
1D
100
AcDbEntity
  8
0
 62
     0
100
AcDbLine
 10
33.80240737135729
 20
10.7453198433952
 30
0.0
 11
33.48990737135729
 21
11.0578198433952
 31
0.0
  0
LINE
  5
89
330
1D
100
AcDbEntity
  8
0
 62
     0
100
AcDbLine
 10
31.67036372279766
 20
10.9328198433952
 30
0.0
 11
31.54536372279765
 21
11.0578198433952
 31
0.0
  0
LINE
  5
8A
330
1D
100
AcDbEntity
  8
0
 62
     0
100
AcDbLine
 10
30.79720355101783
 20
10.7453198433952
 30
0.0
 11
30.67220355101783
 21
10.8703198433952
 31
0.0
  0
LINE
  5
8B
330
1D
100
AcDbEntity
  8
0
 62
     0
100
AcDbLine
 10
32.73102389457748
 20
10.9328198433952
 30
0.0
 11
32.60602389457747
 21
11.0578198433952
 31
0.0
  0
LINE
  5
8C
330
1D
100
AcDbEntity
  8
0
 62
     0
100
AcDbLine
 10
34.29023876097627
 20
10.43426514877623
 30
0.0
 11
34.16063676656646
 21
10.56386714318604
 31
0.0
  0
LINE
  5
8D
330
1D
100
AcDbEntity
  8
0
 62
     0
100
AcDbLine
 10
33.9791840663573
 20
10.7453198433952
 30
0.0
 11
33.8541840663573
 21
10.8703198433952
 31
0.0
  0
LINE
  5
8E
330
1D
100
AcDbEntity
  8
0
 62
     0
100
AcDbLine
 10
31.84714041879765
 20
10.9328198433952
 30
0.0
 11
31.72214041879765
 21
11.0578198433952
 31
0.0
  0
LINE
  5
8F
330
1D
100
AcDbEntity
  8
0
 62
     0
100
AcDbLine
 10
30.97398024701783
 20
10.7453198433952
 30
0.0
 11
30.84898024701783
 21
10.8703198433952
 31
0.0
  0
LINE
  5
90
330
1D
100
AcDbEntity
  8
0
 62
     0
100
AcDbLine
 10
32.90780059057747
 20
10.9328198433952
 30
0.0
 11
32.78280059057747
 21
11.0578198433952
 31
0.0
  0
LINE
  5
91
330
1D
100
AcDbEntity
  8
0
 62
     0
100
AcDbLine
 10
34.28384221025029
 20
10.61743839550221
 30
0.0
 11
34.0309607623573
 21
10.8703198433952
 31
0.0
  0
LINE
  5
92
330
1D
100
AcDbEntity
  8
0
 62
     0
100
AcDbLine
 10
32.02391711379764
 20
10.9328198433952
 30
0.0
 11
31.89891711379765
 21
11.0578198433952
 31
0.0
  0
LINE
  5
93
330
1D
100
AcDbEntity
  8
0
 62
     0
100
AcDbLine
 10
31.07453643473339
 20
10.82154035067963
 30
0.0
 11
30.98614808708508
 21
10.90992869832795
 31
0.0
  0
LINE
  5
94
330
1D
100
AcDbEntity
  8
0
 62
     0
100
AcDbLine
 10
33.08457728557747
 20
10.9328198433952
 30
0.0
 11
32.95957728557747
 21
11.0578198433952
 31
0.0
  0
LINE
  5
95
330
1D
100
AcDbEntity
  8
0
 62
     0
100
AcDbLine
 10
34.2774456595605
 20
10.80061164119199
 30
0.0
 11
34.20773745735729
 21
10.8703198433952
 31
0.0
  0
ENDBLK
  5
96
330
1D
100
AcDbEntity
  8
0
100
AcDbBlockEnd
  0
BLOCK
  5
97
330
1E
100
AcDbEntity
  8
0
100
AcDbBlockBegin
  2
*X2
 70
     1
 10
0.0
 20
0.0
 30
0.0
  3
*X2
  1

  0
LINE
  5
98
330
1E
100
AcDbEntity
  8
0
 62
     0
100
AcDbLine
 10
30.613379993703
 20
10.703125
 30
0.0
 11
30.75170860639417
 21
10.703125
 31
0.0
  0
LINE
  5
99
330
1E
100
AcDbEntity
  8
0
 62
     0
100
AcDbLine
 10
34.01374750115298
 20
10.703125
 30
0.0
 11
34.15411012282264
 21
10.703125
 31
0.0
  0
LINE
  5
9A
330
1E
100
AcDbEntity
  8
0
 62
     0
100
AcDbLine
 10
30.61392563072631
 20
10.71875
 30
0.0
 11
30.75021142690554
 21
10.71875
 31
0.0
  0
LINE
  5
9B
330
1E
100
AcDbEntity
  8
0
 62
     0
100
AcDbLine
 10
34.01515066774618
 20
10.71875
 30
0.0
 11
34.15379381904747
 21
10.71875
 31
0.0
  0
LINE
  5
9C
330
1E
100
AcDbEntity
  8
0
 62
     0
100
AcDbLine
 10
30.61447126774962
 20
10.734375
 30
0.0
 11
30.74359474852303
 21
10.734375
 31
0.0
  0
LINE
  5
9D
330
1E
100
AcDbEntity
  8
0
 62
     0
100
AcDbLine
 10
34.02164824122045
 20
10.734375
 30
0.0
 11
34.1534775152723
 21
10.734375
 31
0.0
  0
LINE
  5
9E
330
1E
100
AcDbEntity
  8
0
 62
     0
100
AcDbLine
 10
30.6128343566797
 20
10.6875
 30
0.0
 11
30.74854355399683
 21
10.6875
 31
0.0
  0
LINE
  5
9F
330
1E
100
AcDbEntity
  8
0
 62
     0
100
AcDbLine
 10
34.01701143035953
 20
10.6875
 30
0.0
 11
34.15442642659781
 21
10.6875
 31
0.0
  0
LINE
  5
A0
330
1E
100
AcDbEntity
  8
0
 62
     0
100
AcDbLine
 10
30.61228871965639
 20
10.671875
 30
0.0
 11
30.7396663303601
 21
10.671875
 31
0.0
  0
LINE
  5
A1
330
1E
100
AcDbEntity
  8
0
 62
     0
100
AcDbLine
 10
34.02603252262253
 20
10.671875
 30
0.0
 11
34.15474273037297
 21
10.671875
 31
0.0
  0
ENDBLK
  5
A2
330
1E
100
AcDbEntity
  8
0
100
AcDbBlockEnd
  0
BLOCK
  5
A3
330
1F
100
AcDbEntity
  8
0
100
AcDbBlockBegin
  2
*X3
 70
     1
 10
0.0
 20
0.0
 30
0.0
  3
*X3
  1

  0
LINE
  5
A4
330
1F
100
AcDbEntity
  8
0
 62
     0
100
AcDbLine
 10
30.8125
 20
17.19999667524134
 30
0.0
 11
30.8125
 21
17.33764636558614
 31
0.0
  0
LINE
  5
A5
330
1F
100
AcDbEntity
  8
0
 62
     0
100
AcDbLine
 10
30.8125
 20
23.41317167918358
 30
0.0
 11
30.8125
 21
23.55061548092306
 31
0.0
  0
LINE
  5
A6
330
1F
100
AcDbEntity
  8
0
 62
     0
100
AcDbLine
 10
30.796875
 20
17.20054231226464
 30
0.0
 11
30.796875
 21
17.33321005368787
 31
0.0
  0
LINE
  5
A7
330
1F
100
AcDbEntity
  8
0
 62
     0
100
AcDbLine
 10
30.796875
 20
23.41800843342755
 30
0.0
 11
30.796875
 21
23.55006984389975
 31
0.0
  0
LINE
  5
A8
330
1F
100
AcDbEntity
  8
0
 62
     0
100
AcDbLine
 10
30.828125
 20
17.19945103821803
 30
0.0
 11
30.828125
 21
17.3373193284087
 31
0.0
  0
LINE
  5
A9
330
1F
100
AcDbEntity
  8
0
 62
     0
100
AcDbLine
 10
30.828125
 20
23.41314689586345
 30
0.0
 11
30.828125
 21
23.55116111794637
 31
0.0
  0
LINE
  5
AA
330
1F
100
AcDbEntity
  8
0
 62
     0
100
AcDbLine
 10
30.84375
 20
17.19890540119472
 30
0.0
 11
30.84375
 21
17.33213130520063
 31
0.0
  0
LINE
  5
AB
330
1F
100
AcDbEntity
  8
0
 62
     0
100
AcDbLine
 10
30.84375
 20
23.4179266927909
 30
0.0
 11
30.84375
 21
23.55170675496968
 31
0.0
  0
ENDBLK
  5
AC
330
1F
100
AcDbEntity
  8
0
100
AcDbBlockEnd
  0
BLOCK
  5
AD
330
20
100
AcDbEntity
  8
0
100
AcDbBlockBegin
  2
*X4
 70
     1
 10
0.0
 20
0.0
 30
0.0
  3
*X4
  1

  0
LINE
  5
AE
330
20
100
AcDbEntity
  8
0
 62
     0
100
AcDbLine
 10
30.46906404842052
 20
21.98378267418194
 30
0.0
 11
30.59406404842052
 21
22.10878267418194
 31
0.0
  0
LINE
  5
AF
330
20
100
AcDbEntity
  8
0
 62
     0
100
AcDbLine
 10
30.46906404842052
 20
23.04444284596176
 30
0.0
 11
30.59406404842052
 21
23.16944284596177
 31
0.0
  0
LINE
  5
B0
330
20
100
AcDbEntity
  8
0
 62
     0
100
AcDbLine
 10
30.46906404842052
 20
24.10510301774158
 30
0.0
 11
30.78156404842052
 21
24.41760301774159
 31
0.0
  0
LINE
  5
B1
330
20
100
AcDbEntity
  8
0
 62
     0
100
AcDbLine
 10
30.46906404842052
 20
20.92312250240212
 30
0.0
 11
30.59406404842052
 21
21.04812250240212
 31
0.0
  0
LINE
  5
B2
330
20
100
AcDbEntity
  8
0
 62
     0
100
AcDbLine
 10
30.46906404842052
 20
19.8624623306223
 30
0.0
 11
30.59406404842052
 21
19.9874623306223
 31
0.0
  0
LINE
  5
B3
330
20
100
AcDbEntity
  8
0
 62
     0
100
AcDbLine
 10
30.5144596847193
 20
18.84719779514126
 30
0.0
 11
30.60284803236762
 21
18.93558614278958
 31
0.0
  0
LINE
  5
B4
330
20
100
AcDbEntity
  8
0
 62
     0
100
AcDbLine
 10
30.96864521497073
 20
18.24072315361286
 30
0.0
 11
31.0895010299514
 21
18.36157896859354
 31
0.0
  0
LINE
  5
B5
330
20
100
AcDbEntity
  8
0
 62
     0
100
AcDbLine
 10
30.46906404842052
 20
21.80700597918194
 30
0.0
 11
30.59406404842052
 21
21.93200597918194
 31
0.0
  0
LINE
  5
B6
330
20
100
AcDbEntity
  8
0
 62
     0
100
AcDbLine
 10
30.46906404842052
 20
22.86766615096176
 30
0.0
 11
30.59406404842052
 21
22.99266615096176
 31
0.0
  0
LINE
  5
B7
330
20
100
AcDbEntity
  8
0
 62
     0
100
AcDbLine
 10
30.46906404842052
 20
23.92832632274158
 30
0.0
 11
30.59406404842052
 21
24.05332632274159
 31
0.0
  0
LINE
  5
B8
330
20
100
AcDbEntity
  8
0
 62
     0
100
AcDbLine
 10
30.46906404842052
 20
20.74634580740212
 30
0.0
 11
30.59406404842052
 21
20.87134580740212
 31
0.0
  0
LINE
  5
B9
330
20
100
AcDbEntity
  8
0
 62
     0
100
AcDbLine
 10
30.46906404842052
 20
19.6856856356223
 30
0.0
 11
30.59406404842052
 21
19.8106856356223
 31
0.0
  0
LINE
  5
BA
330
20
100
AcDbEntity
  8
0
 62
     0
100
AcDbLine
 10
30.6028480322193
 20
18.75880944764126
 30
0.0
 11
30.69123637986762
 21
18.84719779528958
 31
0.0
  0
LINE
  5
BB
330
20
100
AcDbEntity
  8
0
 62
     0
100
AcDbLine
 10
30.46906404842052
 20
21.63022928318194
 30
0.0
 11
30.59406404842052
 21
21.75522928318194
 31
0.0
  0
LINE
  5
BC
330
20
100
AcDbEntity
  8
0
 62
     0
100
AcDbLine
 10
30.46906404842052
 20
22.69088945496176
 30
0.0
 11
30.59406404842052
 21
22.81588945496176
 31
0.0
  0
LINE
  5
BD
330
20
100
AcDbEntity
  8
0
 62
     0
100
AcDbLine
 10
30.46906404842052
 20
23.75154962674158
 30
0.0
 11
30.59406404842052
 21
23.87654962674158
 31
0.0
  0
LINE
  5
BE
330
20
100
AcDbEntity
  8
0
 62
     0
100
AcDbLine
 10
30.46906404842052
 20
20.56956911140212
 30
0.0
 11
30.59406404842052
 21
20.69456911140212
 31
0.0
  0
LINE
  5
BF
330
20
100
AcDbEntity
  8
0
 62
     0
100
AcDbLine
 10
30.46906404842052
 20
19.50890893962229
 30
0.0
 11
30.59406404842052
 21
19.6339089396223
 31
0.0
  0
LINE
  5
C0
330
20
100
AcDbEntity
  8
0
 62
     0
100
AcDbLine
 10
30.65656404842052
 20
18.63574876784248
 30
0.0
 11
30.77962472786762
 21
18.75880944728958
 31
0.0
  0
LINE
  5
C1
330
20
100
AcDbEntity
  8
0
 62
     0
100
AcDbLine
 10
30.46906404842052
 20
21.45345258818194
 30
0.0
 11
30.59406404842052
 21
21.57845258818194
 31
0.0
  0
LINE
  5
C2
330
20
100
AcDbEntity
  8
0
 62
     0
100
AcDbLine
 10
30.46906404842052
 20
22.51411275996176
 30
0.0
 11
30.59406404842052
 21
22.63911275996176
 31
0.0
  0
LINE
  5
C3
330
20
100
AcDbEntity
  8
0
 62
     0
100
AcDbLine
 10
30.46906404842052
 20
23.57477293174158
 30
0.0
 11
30.59406404842052
 21
23.69977293174159
 31
0.0
  0
LINE
  5
C4
330
20
100
AcDbEntity
  8
0
 62
     0
100
AcDbLine
 10
30.46906404842052
 20
20.39279241640212
 30
0.0
 11
30.59406404842052
 21
20.51779241640212
 31
0.0
  0
LINE
  5
C5
330
20
100
AcDbEntity
  8
0
 62
     0
100
AcDbLine
 10
30.46906404842052
 20
19.3321322446223
 30
0.0
 11
30.59406404842052
 21
19.4571322446223
 31
0.0
  0
LINE
  5
C6
330
20
100
AcDbEntity
  8
0
 62
     0
100
AcDbLine
 10
30.65656404842052
 20
18.45897207284248
 30
0.0
 11
30.78156404842051
 21
18.58397207284247
 31
0.0
  0
ENDBLK
  5
C7
330
20
100
AcDbEntity
  8
0
100
AcDbBlockEnd
  0
BLOCK
  5
C8
330
21
100
AcDbEntity
  8
0
100
AcDbBlockBegin
  2
*X5
 70
     1
 10
0.0
 20
0.0
 30
0.0
  3
*X5
  1

  0
LINE
  5
C9
330
21
100
AcDbEntity
  8
0
 62
     0
100
AcDbLine
 10
34.35906404842052
 20
19.73460471235036
 30
0.0
 11
34.23406404842052
 21
19.85960471235036
 31
0.0
  0
LINE
  5
CA
330
21
100
AcDbEntity
  8
0
 62
     0
100
AcDbLine
 10
34.35906404842052
 20
18.67394454057054
 30
0.0
 11
34.23406404842052
 21
18.79894454057054
 31
0.0
  0
LINE
  5
CB
330
21
100
AcDbEntity
  8
0
 62
     0
100
AcDbLine
 10
33.56241062303657
 20
18.40993779417468
 30
0.0
 11
33.43983040201287
 21
18.53251801519837
 31
0.0
  0
LINE
  5
CC
330
21
100
AcDbEntity
  8
0
 62
     0
100
AcDbLine
 10
32.5199467262603
 20
18.39174151917112
 30
0.0
 11
32.39778462034453
 21
18.51390362508688
 31
0.0
  0
LINE
  5
CD
330
21
100
AcDbEntity
  8
0
 62
     0
100
AcDbLine
 10
31.47748282948403
 20
18.37354524416756
 30
0.0
 11
31.3557388386762
 21
18.4952892349754
 31
0.0
  0
LINE
  5
CE
330
21
100
AcDbEntity
  8
0
 62
     0
100
AcDbLine
 10
34.35906404842052
 20
20.79526488413018
 30
0.0
 11
34.23406404842052
 21
20.92026488413019
 31
0.0
  0
LINE
  5
CF
330
21
100
AcDbEntity
  8
0
 62
     0
100
AcDbLine
 10
34.35906404842052
 20
21.85592505591001
 30
0.0
 11
34.23406404842052
 21
21.98092505591001
 31
0.0
  0
LINE
  5
D0
330
21
100
AcDbEntity
  8
0
 62
     0
100
AcDbLine
 10
31.61726316740551
 20
24.59772593692502
 30
0.0
 11
31.49108491083109
 21
24.72390419349944
 31
0.0
  0
LINE
  5
D1
330
21
100
AcDbEntity
  8
0
 62
     0
100
AcDbLine
 10
34.35906404842052
 20
22.91658522768983
 30
0.0
 11
34.23406404842052
 21
23.04158522768982
 31
0.0
  0
LINE
  5
D2
330
21
100
AcDbEntity
  8
0
 62
     0
100
AcDbLine
 10
32.69721485435294
 20
24.57843442175742
 30
0.0
 11
32.57058787697515
 21
24.7050613991352
 31
0.0
  0
LINE
  5
D3
330
21
100
AcDbEntity
  8
0
 62
     0
100
AcDbLine
 10
34.35906404842052
 20
23.97724539946965
 30
0.0
 11
34.23406404842052
 21
24.10224539946965
 31
0.0
  0
LINE
  5
D4
330
21
100
AcDbEntity
  8
0
 62
     0
100
AcDbLine
 10
33.77716654130037
 20
24.55914290658981
 30
0.0
 11
33.65009084311922
 21
24.68621860477095
 31
0.0
  0
LINE
  5
D5
330
21
100
AcDbEntity
  8
0
 62
     0
100
AcDbLine
 10
34.35906404842052
 20
18.85072123557054
 30
0.0
 11
34.23406404842052
 21
18.97572123557054
 31
0.0
  0
LINE
  5
D6
330
21
100
AcDbEntity
  8
0
 62
     0
100
AcDbLine
 10
33.73615460554107
 20
18.41297050667018
 30
0.0
 11
33.61350469866617
 21
18.53562041354508
 31
0.0
  0
LINE
  5
D7
330
21
100
AcDbEntity
  8
0
 62
     0
100
AcDbLine
 10
32.6936907087648
 20
18.39477423166663
 30
0.0
 11
32.57145891699783
 21
18.51700602343359
 31
0.0
  0
LINE
  5
D8
330
21
100
AcDbEntity
  8
0
 62
     0
100
AcDbLine
 10
31.65122681198853
 20
18.37657795666307
 30
0.0
 11
31.52941313532949
 21
18.49839163332211
 31
0.0
  0
LINE
  5
D9
330
21
100
AcDbEntity
  8
0
 62
     0
100
AcDbLine
 10
34.35906404842052
 20
19.91138140735036
 30
0.0
 11
34.23406404842052
 21
20.03638140735036
 31
0.0
  0
LINE
  5
DA
330
21
100
AcDbEntity
  8
0
 62
     0
100
AcDbLine
 10
34.35906404842052
 20
20.97204157913019
 30
0.0
 11
34.23406404842052
 21
21.09704157913018
 31
0.0
  0
LINE
  5
DB
330
21
100
AcDbEntity
  8
0
 62
     0
100
AcDbLine
 10
34.35906404842052
 20
22.03270175091001
 30
0.0
 11
34.23406404842052
 21
22.15770175091001
 31
0.0
  0
LINE
  5
DC
330
21
100
AcDbEntity
  8
0
 62
     0
100
AcDbLine
 10
31.79725511492805
 20
24.59451068440249
 30
0.0
 11
31.6710020715532
 21
24.72076372777734
 31
0.0
  0
LINE
  5
DD
330
21
100
AcDbEntity
  8
0
 62
     0
100
AcDbLine
 10
34.35906404842052
 20
23.09336192268983
 30
0.0
 11
34.23406404842052
 21
23.21836192268983
 31
0.0
  0
LINE
  5
DE
330
21
100
AcDbEntity
  8
0
 62
     0
100
AcDbLine
 10
32.87720680187548
 20
24.57521916923488
 30
0.0
 11
32.75050503769727
 21
24.70192093341309
 31
0.0
  0
LINE
  5
DF
330
21
100
AcDbEntity
  8
0
 62
     0
100
AcDbLine
 10
34.35906404842052
 20
24.15402209446965
 30
0.0
 11
34.23406404842052
 21
24.27902209446965
 31
0.0
  0
LINE
  5
E0
330
21
100
AcDbEntity
  8
0
 62
     0
100
AcDbLine
 10
33.95715848882291
 20
24.55592765406727
 30
0.0
 11
33.83000800384134
 21
24.68307813904884
 31
0.0
  0
LINE
  5
E1
330
21
100
AcDbEntity
  8
0
 62
     0
100
AcDbLine
 10
34.35906404842052
 20
19.02749793157054
 30
0.0
 11
34.23406404842052
 21
19.15249793157054
 31
0.0
  0
LINE
  5
E2
330
21
100
AcDbEntity
  8
0
 62
     0
100
AcDbLine
 10
33.9098985890284
 20
18.41600321918284
 30
0.0
 11
33.78717899630191
 21
18.53872281190933
 31
0.0
  0
LINE
  5
E3
330
21
100
AcDbEntity
  8
0
 62
     0
100
AcDbLine
 10
32.86743469225214
 20
18.39780694417928
 30
0.0
 11
32.74513321463357
 21
18.52010842179785
 31
0.0
  0
LINE
  5
E4
330
21
100
AcDbEntity
  8
0
 62
     0
100
AcDbLine
 10
31.82497079547587
 20
18.37961066917573
 30
0.0
 11
31.70308743296523
 21
18.50149403168637
 31
0.0
  0
LINE
  5
E5
330
21
100
AcDbEntity
  8
0
 62
     0
100
AcDbLine
 10
34.35906404842052
 20
20.08815810335036
 30
0.0
 11
34.23406404842052
 21
20.21315810335036
 31
0.0
  0
LINE
  5
E6
330
21
100
AcDbEntity
  8
0
 62
     0
100
AcDbLine
 10
34.35906404842052
 20
21.14881827513019
 30
0.0
 11
34.23406404842052
 21
21.27381827513019
 31
0.0
  0
LINE
  5
E7
330
21
100
AcDbEntity
  8
0
 62
     0
100
AcDbLine
 10
30.89729537652135
 20
24.61058694702936
 30
0.0
 11
30.85819119262898
 21
24.64969113092173
 31
0.0
  0
LINE
  5
E8
330
21
100
AcDbEntity
  8
0
 62
     0
100
AcDbLine
 10
34.35906404842052
 20
22.20947844691
 30
0.0
 11
34.23406404842052
 21
22.33447844691001
 31
0.0
  0
LINE
  5
E9
330
21
100
AcDbEntity
  8
0
 62
     0
100
AcDbLine
 10
31.97724706346878
 20
24.59129543186176
 30
0.0
 11
31.85091923329306
 21
24.71762326203747
 31
0.0
  0
LINE
  5
EA
330
21
100
AcDbEntity
  8
0
 62
     0
100
AcDbLine
 10
34.35906404842052
 20
23.27013861868983
 30
0.0
 11
34.23406404842052
 21
23.39513861868983
 31
0.0
  0
LINE
  5
EB
330
21
100
AcDbEntity
  8
0
 62
     0
100
AcDbLine
 10
33.05719875041621
 20
24.57200391669415
 30
0.0
 11
32.93042219943713
 21
24.69878046767322
 31
0.0
  0
LINE
  5
EC
330
21
100
AcDbEntity
  8
0
 62
     0
100
AcDbLine
 10
34.35906404842052
 20
24.33079879046965
 30
0.0
 11
34.23406404842052
 21
24.45579879046965
 31
0.0
  0
LINE
  5
ED
330
21
100
AcDbEntity
  8
0
 62
     0
100
AcDbLine
 10
34.13715043736363
 20
24.55271240152655
 30
0.0
 11
34.0099251655812
 21
24.67993767330897
 31
0.0
  0
LINE
  5
EE
330
21
100
AcDbEntity
  8
0
 62
     0
100
AcDbLine
 10
34.35906404842052
 20
19.20427462657054
 30
0.0
 11
34.23406404842052
 21
19.32927462657054
 31
0.0
  0
LINE
  5
EF
330
21
100
AcDbEntity
  8
0
 62
     0
100
AcDbLine
 10
34.08364257153291
 20
18.41903593167834
 30
0.0
 11
33.9608532929552
 21
18.54182521025604
 31
0.0
  0
LINE
  5
F0
330
21
100
AcDbEntity
  8
0
 62
     0
100
AcDbLine
 10
33.04117867475664
 20
18.40083965667479
 30
0.0
 11
32.91880751128686
 21
18.52321082014456
 31
0.0
  0
LINE
  5
F1
330
21
100
AcDbEntity
  8
0
 62
     0
100
AcDbLine
 10
31.99871477798037
 20
18.38264338167123
 30
0.0
 11
31.87676172961853
 21
18.50459643003307
 31
0.0
  0
LINE
  5
F2
330
21
100
AcDbEntity
  8
0
 62
     0
100
AcDbLine
 10
30.94212226434166
 20
18.37857572353012
 30
0.0
 11
30.8569940259235
 21
18.46370396194828
 31
0.0
  0
LINE
  5
F3
330
21
100
AcDbEntity
  8
0
 62
     0
100
AcDbLine
 10
34.35906404842052
 20
20.26493479835036
 30
0.0
 11
34.23406404842052
 21
20.38993479835037
 31
0.0
  0
LINE
  5
F4
330
21
100
AcDbEntity
  8
0
 62
     0
100
AcDbLine
 10
34.35906404842052
 20
21.32559497013019
 30
0.0
 11
34.23406404842052
 21
21.45059497013019
 31
0.0
  0
LINE
  5
F5
330
21
100
AcDbEntity
  8
0
 62
     0
100
AcDbLine
 10
31.07728732404389
 20
24.60737169450682
 30
0.0
 11
30.9640429334032
 21
24.72061608514751
 31
0.0
  0
LINE
  5
F6
330
21
100
AcDbEntity
  8
0
 62
     0
100
AcDbLine
 10
34.35906404842052
 20
22.38625514191001
 30
0.0
 11
34.23406404842052
 21
22.51125514191001
 31
0.0
  0
LINE
  5
F7
330
21
100
AcDbEntity
  8
0
 62
     0
100
AcDbLine
 10
32.15723901099132
 20
24.58808017933922
 30
0.0
 11
32.03083639401517
 21
24.71448279631536
 31
0.0
  0
LINE
  5
F8
330
21
100
AcDbEntity
  8
0
 62
     0
100
AcDbLine
 10
34.35906404842052
 20
23.44691531368983
 30
0.0
 11
34.23406404842052
 21
23.57191531368983
 31
0.0
  0
LINE
  5
F9
330
21
100
AcDbEntity
  8
0
 62
     0
100
AcDbLine
 10
33.23719069793874
 20
24.56878866417161
 30
0.0
 11
33.11033936015924
 21
24.69564000195112
 31
0.0
  0
LINE
  5
FA
330
21
100
AcDbEntity
  8
0
 62
     0
100
AcDbLine
 10
34.35810422629695
 20
24.50853530759323
 30
0.0
 11
34.1905116614079
 21
24.67612787248227
 31
0.0
  0
ENDBLK
  5
FB
330
21
100
AcDbEntity
  8
0
100
AcDbBlockEnd
  0
BLOCK
  5
FC
330
22
100
AcDbEntity
  8
0
100
AcDbBlockBegin
  2
PBH
 70
     0
 10
21.92902131621953
 20
8.581798677064792
 30
0.0
  3
PBH
  1

  0
LINE
  5
FD
330
22
100
AcDbEntity
  8
0
100
AcDbLine
 10
21.92902131621954
 20
8.394298677064794
 30
0.0
 11
21.92902131621954
 21
7.827856503842943
 31
0.0
  0
LINE
  5
FE
330
22
100
AcDbEntity
  8
0
100
AcDbLine
 10
21.74152131621954
 20
8.581798677064792
 30
0.0
 11
21.17902131621954
 21
8.581798677064794
 31
0.0
  0
ARC
  5
FF
330
22
100
AcDbEntity
  8
0
100
AcDbCircle
 10
21.92902131621954
 20
8.581798677064794
 30
0.0
 40
0.605
100
AcDbArc
 50
9.034246557932252
 51
80.96575344206765
  0
LINE
  5
100
330
22
100
AcDbEntity
  8
0
100
AcDbLine
 10
22.11652131621954
 20
8.581798677064794
 30
0.0
 11
22.67902131621954
 21
8.581798677064794
 31
0.0
  0
LINE
  5
101
330
22
100
AcDbEntity
  8
0
100
AcDbLine
 10
22.52651608607112
 20
8.676798677064795
 30
0.0
 11
22.60102131621954
 21
8.676798677064796
 31
0.0
  0
LINE
  5
102
330
22
100
AcDbEntity
  8
0
100
AcDbLine
 10
22.52651608607112
 20
8.486798677064795
 30
0.0
 11
22.60102131621954
 21
8.486798677064795
 31
0.0
  0
LINE
  5
103
330
22
100
AcDbEntity
  8
0
100
AcDbLine
 10
22.60102131621954
 20
8.676798677064796
 30
0.0
 11
22.60102131621954
 21
8.486798677064795
 31
0.0
  0
LINE
  5
104
330
22
100
AcDbEntity
  8
0
100
AcDbLine
 10
21.83402131621953
 20
9.253798677064795
 30
0.0
 11
22.02402131621953
 21
9.253798677064795
 31
0.0
  0
LINE
  5
105
330
22
100
AcDbEntity
  8
0
100
AcDbLine
 10
22.02402131621953
 20
9.179293446916359
 30
0.0
 11
22.02402131621953
 21
9.253798677064795
 31
0.0
  0
LINE
  5
106
330
22
100
AcDbEntity
  8
0
100
AcDbLine
 10
21.83402131621953
 20
9.179293446916371
 30
0.0
 11
21.83402131621953
 21
9.253798677064795
 31
0.0
  0
LINE
  5
107
330
22
100
AcDbEntity
  8
0
100
AcDbLine
 10
21.92902131621954
 20
8.769298677064792
 30
0.0
 11
21.92902131621954
 21
9.331798677064792
 31
0.0
  0
LINE
  5
108
330
22
100
AcDbEntity
  8
0
100
AcDbLine
 10
21.92902131621954
 20
8.491798677064794
 30
0.0
 11
21.92902131621954
 21
8.671798677064794
 31
0.0
  0
LINE
  5
109
330
22
100
AcDbEntity
  8
0
100
AcDbLine
 10
21.83902131621954
 20
8.581798677064794
 30
0.0
 11
22.01902131621954
 21
8.581798677064794
 31
0.0
  0
ARC
  5
10A
330
22
100
AcDbEntity
  8
0
100
AcDbCircle
 10
21.92902131621954
 20
8.581798677064794
 30
0.0
 40
0.605
100
AcDbArc
 50
99.03424655793251
 51
350.9657534420679
  0
ENDBLK
  5
10B
330
22
100
AcDbEntity
  8
0
100
AcDbBlockEnd
  0
BLOCK
  5
10C
330
23
100
AcDbEntity
  8
0
100
AcDbBlockBegin
  2
PBHD
 70
     0
 10
21.44309135047178
 20
9.913960507428553
 30
0.0
  3
PBHD
  1

  0
DIMENSION
  5
10D
330
23
100
AcDbEntity
  8
DIM
100
AcDbDimension
280
     0
  2
*D11
 10
22.74781584578225
 20
10.00896050742855
 30
0.0
 11
23.40781584578225
 21
10.36896050742855
 31
0.0
 71
     5
 42
-1.0
 73
     0
 74
     0
 75
     0
100
AcDbAlignedDimension
 13
22.11509135047178
 23
9.818960507428554
 33
0.0
 14
22.11509135047178
 24
10.00896050742855
 34
0.0
 50
90.0
100
AcDbRotatedDimension
  0
DIMENSION
  5
10E
330
23
100
AcDbEntity
  8
DIM
100
AcDbDimension
280
     0
  2
*D10
 10
22.11509135047178
 20
10.86708157109067
 30
0.0
 11
23.00009135047178
 21
10.86708157109067
 31
0.0
 71
     5
 42
-1.0
 73
     0
 74
     0
 75
     0
100
AcDbAlignedDimension
 13
21.44309135047178
 23
10.66396050742855
 33
0.0
 14
22.11509135047178
 24
10.00896050742855
 34
0.0
100
AcDbRotatedDimension
  0
DIMENSION
  5
10F
330
23
100
AcDbEntity
  8
DIM
100
AcDbDimension
280
     0
  2
*D9
 10
20.51031127327053
 20
9.913960507428553
 30
0.0
 11
19.80531127327052
 21
9.553960507428554
 31
0.0
 71
     5
 42
-1.0
 73
     0
 74
     0
 75
     0
100
AcDbAlignedDimension
 13
21.34809135047178
 23
10.58596050742855
 33
0.0
 14
20.69309135047178
 24
9.913960507428553
 34
0.0
 50
90.0
100
AcDbRotatedDimension
  0
DIMENSION
  5
110
330
23
100
AcDbEntity
  8
DIM
100
AcDbDimension
280
     0
  2
*D8
 10
21.07853135301899
 20
10.39678657161443
 30
0.0
 11
22.75957961087168
 21
9.143832983561827
 31
0.0
 70
     3
 71
     5
 42
-1.0
 73
     0
 74
     0
 75
     0
100
AcDbDiametricDimension
 15
21.80765134792457
 25
9.431134443242678
 35
0.0
 40
0.0
  0
ARC
  5
111
330
23
100
AcDbEntity
  8
0
100
AcDbCircle
 10
21.44309135047178
 20
9.913960507428553
 30
0.0
 40
0.605
100
AcDbArc
 50
99.03424655793251
 51
350.9657534420679
  0
LINE
  5
112
330
23
100
AcDbEntity
  8
0
100
AcDbLine
 10
21.35309135047178
 20
9.913960507428553
 30
0.0
 11
21.53309135047178
 21
9.913960507428553
 31
0.0
  0
LINE
  5
113
330
23
100
AcDbEntity
  8
0
100
AcDbLine
 10
21.44309135047178
 20
9.823960507428553
 30
0.0
 11
21.44309135047178
 21
10.00396050742855
 31
0.0
  0
LINE
  5
114
330
23
100
AcDbEntity
  8
0
100
AcDbLine
 10
21.44309135047178
 20
10.10146050742855
 30
0.0
 11
21.44309135047178
 21
10.66396050742855
 31
0.0
  0
LINE
  5
115
330
23
100
AcDbEntity
  8
0
100
AcDbLine
 10
21.34809135047178
 20
10.51145527728013
 30
0.0
 11
21.34809135047178
 21
10.58596050742855
 31
0.0
  0
LINE
  5
116
330
23
100
AcDbEntity
  8
0
100
AcDbLine
 10
21.53809135047178
 20
10.51145527728012
 30
0.0
 11
21.53809135047178
 21
10.58596050742855
 31
0.0
  0
LINE
  5
117
330
23
100
AcDbEntity
  8
0
100
AcDbLine
 10
21.34809135047178
 20
10.58596050742855
 30
0.0
 11
21.53809135047178
 21
10.58596050742855
 31
0.0
  0
LINE
  5
118
330
23
100
AcDbEntity
  8
0
100
AcDbLine
 10
22.11509135047178
 20
10.00896050742855
 30
0.0
 11
22.11509135047178
 21
9.818960507428554
 31
0.0
  0
LINE
  5
119
330
23
100
AcDbEntity
  8
0
100
AcDbLine
 10
22.04058612032337
 20
9.818960507428554
 30
0.0
 11
22.11509135047178
 21
9.818960507428554
 31
0.0
  0
LINE
  5
11A
330
23
100
AcDbEntity
  8
0
100
AcDbLine
 10
22.04058612032337
 20
10.00896050742855
 30
0.0
 11
22.11509135047178
 21
10.00896050742855
 31
0.0
  0
LINE
  5
11B
330
23
100
AcDbEntity
  8
0
100
AcDbLine
 10
21.63059135047178
 20
9.913960507428553
 30
0.0
 11
22.19309135047179
 21
9.913960507428553
 31
0.0
  0
ARC
  5
11C
330
23
100
AcDbEntity
  8
0
100
AcDbCircle
 10
21.44309135047178
 20
9.913960507428553
 30
0.0
 40
0.605
100
AcDbArc
 50
9.034246557932252
 51
80.96575344206765
  0
LINE
  5
11D
330
23
100
AcDbEntity
  8
0
100
AcDbLine
 10
21.25559135047178
 20
9.913960507428551
 30
0.0
 11
20.69309135047178
 21
9.913960507428553
 31
0.0
  0
LINE
  5
11E
330
23
100
AcDbEntity
  8
0
100
AcDbLine
 10
21.44309135047178
 20
9.726460507428553
 30
0.0
 11
21.44309135047178
 21
9.160018334206702
 31
0.0
  0
LINE
  5
11F
330
23
100
AcDbEntity
  8
DIM
100
AcDbLine
 10
20.69701705962673
 20
8.06056035351407
 30
0.0
 11
22.19243789697842
 21
8.06056035351407
 31
0.0
  0
LINE
  5
120
330
23
100
AcDbEntity
  8
DIM
100
AcDbLine
 10
20.69701705962673
 20
8.15356035351407
 30
0.0
 11
22.19243789697842
 21
8.15356035351407
 31
0.0
  0
TEXT
  5
121
330
23
100
AcDbEntity
  8
DIM
100
AcDbText
 10
20.76213586179498
 20
8.248454072937242
 30
0.0
 40
0.1875
  1
DETAIL A
 72
     1
 11
21.44963586179498
 21
8.248454072937242
 31
0.0
100
AcDbText
  0
ENDBLK
  5
122
330
23
100
AcDbEntity
  8
0
100
AcDbBlockEnd
  0
BLOCK
  5
123
330
24
100
AcDbEntity
  8
0
100
AcDbBlockBegin
  2
*D8
 70
     1
 10
0.0
 20
0.0
 30
0.0
  3
*D8
  1

  0
LINE
  5
124
330
24
100
AcDbEntity
  8
0
  6
ByBlock
 62
     0
440
 16777216
100
AcDbLine
 10
21.18699548449255
 20
10.253135841774
 30
0.0
 11
21.69918721645101
 21
9.574785173083103
 31
0.0
  0
SOLID
  5
125
330
24
100
AcDbEntity
  8
0
  6
ByBlock
 62
     0
440
 16777216
100
AcDbTrace
 10
21.21093727279929
 20
10.27121319701959
 30
0.0
 11
21.16305369618581
 21
10.23505848652841
 31
0.0
 12
21.07853135301899
 22
10.39678657161443
 32
0.0
 13
21.07853135301899
 23
10.39678657161443
 33
0.0
  0
SOLID
  5
126
330
24
100
AcDbEntity
  8
0
  6
ByBlock
 62
     0
440
 16777216
100
AcDbTrace
 10
21.72312900475775
 20
9.592862528328696
 30
0.0
 11
21.67524542814428
 21
9.55670781783751
 31
0.0
 12
21.80765134792457
 22
9.431134443242678
 32
0.0
 13
21.80765134792457
 23
9.431134443242678
 33
0.0
  0
LINE
  5
127
330
24
100
AcDbEntity
  8
0
  6
ByBlock
 62
     0
440
 16777216
100
AcDbLine
 10
21.80765134792457
 20
9.431134443242678
 30
0.0
 11
22.02457961087168
 21
9.143832983561827
 31
0.0
  0
LINE
  5
128
330
24
100
AcDbEntity
  8
0
  6
ByBlock
 62
     0
440
 16777216
100
AcDbLine
 10
22.02457961087168
 20
9.143832983561827
 30
0.0
 11
22.20457961087168
 21
9.143832983561827
 31
0.0
  0
TEXT
  5
129
330
24
100
AcDbEntity
  8
0
  6
ByBlock
 62
     0
440
 16777216
100
AcDbText
 10
22.38457961087168
 20
9.053832983561827
 30
0.0
 40
0.18
  1
%%c1.210
100
AcDbText
  0
LINE
  5
12A
330
24
100
AcDbEntity
  8
0
  6
ByBlock
 62
     0
440
 16777216
100
AcDbLine
 10
21.35309135047178
 20
9.913960507428553
 30
0.0
 11
21.53309135047178
 21
9.913960507428553
 31
0.0
  0
LINE
  5
12B
330
24
100
AcDbEntity
  8
0
  6
ByBlock
 62
     0
440
 16777216
100
AcDbLine
 10
21.44309135047178
 20
9.823960507428553
 30
0.0
 11
21.44309135047178
 21
10.00396050742855
 31
0.0
  0
POINT
  5
12C
330
24
100
AcDbEntity
  8
DEFPOINTS
  6
ByBlock
 62
     0
440
 16777216
100
AcDbPoint
 10
21.80765134792457
 20
9.431134443242678
 30
0.0
  0
POINT
  5
12D
330
24
100
AcDbEntity
  8
DEFPOINTS
  6
ByBlock
 62
     0
440
 16777216
100
AcDbPoint
 10
21.07853135301899
 20
10.39678657161443
 30
0.0
  0
ENDBLK
  5
12E
330
24
100
AcDbEntity
  8
0
100
AcDbBlockEnd
  0
BLOCK
  5
12F
330
25
100
AcDbEntity
  8
0
100
AcDbBlockBegin
  2
*D9
 70
     1
 10
0.0
 20
0.0
 30
0.0
  3
*D9
  1

  0
LINE
  5
130
330
25
100
AcDbEntity
  8
0
  6
ByBlock
 62
     0
440
 16777216
100
AcDbLine
 10
21.25434135047178
 20
10.58596050742855
 30
0.0
 11
20.33031127327053
 21
10.58596050742855
 31
0.0
  0
LINE
  5
131
330
25
100
AcDbEntity
  8
0
  6
ByBlock
 62
     0
440
 16777216
100
AcDbLine
 10
20.59934135047178
 20
9.913960507428553
 30
0.0
 11
20.33031127327053
 21
9.913960507428553
 31
0.0
  0
LINE
  5
132
330
25
100
AcDbEntity
  8
0
  6
ByBlock
 62
     0
440
 16777216
100
AcDbLine
 10
20.51031127327053
 20
9.733960507428554
 30
0.0
 11
20.51031127327053
 21
9.553960507428554
 31
0.0
  0
LINE
  5
133
330
25
100
AcDbEntity
  8
0
  6
ByBlock
 62
     0
440
 16777216
100
AcDbLine
 10
20.51031127327053
 20
10.76596050742855
 30
0.0
 11
20.51031127327053
 21
10.94596050742855
 31
0.0
  0
LINE
  5
134
330
25
100
AcDbEntity
  8
0
  6
ByBlock
 62
     0
440
 16777216
100
AcDbLine
 10
20.51031127327053
 20
9.553960507428554
 30
0.0
 11
20.33031127327053
 21
9.553960507428554
 31
0.0
  0
SOLID
  5
135
330
25
100
AcDbEntity
  8
0
  6
ByBlock
 62
     0
440
 16777216
100
AcDbTrace
 10
20.54031127327053
 20
9.733960507428554
 30
0.0
 11
20.48031127327053
 21
9.733960507428554
 31
0.0
 12
20.51031127327053
 22
9.913960507428553
 32
0.0
 13
20.51031127327053
 23
9.913960507428553
 33
0.0
  0
SOLID
  5
136
330
25
100
AcDbEntity
  8
0
  6
ByBlock
 62
     0
440
 16777216
100
AcDbTrace
 10
20.54031127327053
 20
10.76596050742855
 30
0.0
 11
20.48031127327053
 21
10.76596050742855
 31
0.0
 12
20.51031127327053
 22
10.58596050742855
 32
0.0
 13
20.51031127327053
 23
10.58596050742855
 33
0.0
  0
TEXT
  5
137
330
25
100
AcDbEntity
  8
0
  6
ByBlock
 62
     0
440
 16777216
100
AcDbText
 10
19.46031127327053
 20
9.463960507428554
 30
0.0
 40
0.18
  1
0.672
100
AcDbText
  0
POINT
  5
138
330
25
100
AcDbEntity
  8
DEFPOINTS
  6
ByBlock
 62
     0
440
 16777216
100
AcDbPoint
 10
21.34809135047178
 20
10.58596050742855
 30
0.0
  0
POINT
  5
139
330
25
100
AcDbEntity
  8
DEFPOINTS
  6
ByBlock
 62
     0
440
 16777216
100
AcDbPoint
 10
20.69309135047178
 20
9.913960507428553
 30
0.0
  0
POINT
  5
13A
330
25
100
AcDbEntity
  8
DEFPOINTS
  6
ByBlock
 62
     0
440
 16777216
100
AcDbPoint
 10
20.51031127327053
 20
9.913960507428553
 30
0.0
  0
ENDBLK
  5
13B
330
25
100
AcDbEntity
  8
0
100
AcDbBlockEnd
  0
BLOCK
  5
13C
330
26
100
AcDbEntity
  8
0
100
AcDbBlockBegin
  2
*D10
 70
     1
 10
0.0
 20
0.0
 30
0.0
  3
*D10
  1

  0
LINE
  5
13D
330
26
100
AcDbEntity
  8
0
  6
ByBlock
 62
     0
440
 16777216
100
AcDbLine
 10
21.44309135047178
 20
10.75771050742855
 30
0.0
 11
21.44309135047178
 21
11.04708157109067
 31
0.0
  0
LINE
  5
13E
330
26
100
AcDbEntity
  8
0
  6
ByBlock
 62
     0
440
 16777216
100
AcDbLine
 10
22.11509135047178
 20
10.10271050742855
 30
0.0
 11
22.11509135047178
 21
11.04708157109067
 31
0.0
  0
LINE
  5
13F
330
26
100
AcDbEntity
  8
0
  6
ByBlock
 62
     0
440
 16777216
100
AcDbLine
 10
22.29509135047178
 20
10.86708157109067
 30
0.0
 11
22.47509135047178
 21
10.86708157109067
 31
0.0
  0
LINE
  5
140
330
26
100
AcDbEntity
  8
0
  6
ByBlock
 62
     0
440
 16777216
100
AcDbLine
 10
21.26309135047178
 20
10.86708157109067
 30
0.0
 11
21.08309135047178
 21
10.86708157109067
 31
0.0
  0
SOLID
  5
141
330
26
100
AcDbEntity
  8
0
  6
ByBlock
 62
     0
440
 16777216
100
AcDbTrace
 10
22.29509135047178
 20
10.83708157109067
 30
0.0
 11
22.29509135047178
 21
10.89708157109067
 31
0.0
 12
22.11509135047178
 22
10.86708157109067
 32
0.0
 13
22.11509135047178
 23
10.86708157109067
 33
0.0
  0
SOLID
  5
142
330
26
100
AcDbEntity
  8
0
  6
ByBlock
 62
     0
440
 16777216
100
AcDbTrace
 10
21.26309135047178
 20
10.83708157109067
 30
0.0
 11
21.26309135047178
 21
10.89708157109067
 31
0.0
 12
21.44309135047178
 22
10.86708157109067
 32
0.0
 13
21.44309135047178
 23
10.86708157109067
 33
0.0
  0
TEXT
  5
143
330
26
100
AcDbEntity
  8
0
  6
ByBlock
 62
     0
440
 16777216
100
AcDbText
 10
22.65509135047178
 20
10.77708157109067
 30
0.0
 40
0.18
  1
0.672
100
AcDbText
  0
POINT
  5
144
330
26
100
AcDbEntity
  8
DEFPOINTS
  6
ByBlock
 62
     0
440
 16777216
100
AcDbPoint
 10
21.44309135047178
 20
10.66396050742855
 30
0.0
  0
POINT
  5
145
330
26
100
AcDbEntity
  8
DEFPOINTS
  6
ByBlock
 62
     0
440
 16777216
100
AcDbPoint
 10
22.11509135047178
 20
10.00896050742855
 30
0.0
  0
POINT
  5
146
330
26
100
AcDbEntity
  8
DEFPOINTS
  6
ByBlock
 62
     0
440
 16777216
100
AcDbPoint
 10
22.11509135047178
 20
10.86708157109067
 30
0.0
  0
ENDBLK
  5
147
330
26
100
AcDbEntity
  8
0
100
AcDbBlockEnd
  0
BLOCK
  5
148
330
27
100
AcDbEntity
  8
0
100
AcDbBlockBegin
  2
*D11
 70
     1
 10
0.0
 20
0.0
 30
0.0
  3
*D11
  1

  0
LINE
  5
149
330
27
100
AcDbEntity
  8
0
  6
ByBlock
 62
     0
440
 16777216
100
AcDbLine
 10
22.20884135047178
 20
9.818960507428554
 30
0.0
 11
22.92781584578225
 21
9.818960507428554
 31
0.0
  0
LINE
  5
14A
330
27
100
AcDbEntity
  8
0
  6
ByBlock
 62
     0
440
 16777216
100
AcDbLine
 10
22.20884135047178
 20
10.00896050742855
 30
0.0
 11
22.92781584578225
 21
10.00896050742855
 31
0.0
  0
LINE
  5
14B
330
27
100
AcDbEntity
  8
0
  6
ByBlock
 62
     0
440
 16777216
100
AcDbLine
 10
22.74781584578225
 20
10.18896050742855
 30
0.0
 11
22.74781584578225
 21
10.36896050742855
 31
0.0
  0
LINE
  5
14C
330
27
100
AcDbEntity
  8
0
  6
ByBlock
 62
     0
440
 16777216
100
AcDbLine
 10
22.74781584578225
 20
9.638960507428555
 30
0.0
 11
22.74781584578225
 21
9.458960507428555
 31
0.0
  0
LINE
  5
14D
330
27
100
AcDbEntity
  8
0
  6
ByBlock
 62
     0
440
 16777216
100
AcDbLine
 10
22.74781584578225
 20
10.36896050742855
 30
0.0
 11
22.92781584578225
 21
10.36896050742855
 31
0.0
  0
SOLID
  5
14E
330
27
100
AcDbEntity
  8
0
  6
ByBlock
 62
     0
440
 16777216
100
AcDbTrace
 10
22.77781584578225
 20
10.18896050742855
 30
0.0
 11
22.71781584578225
 21
10.18896050742855
 31
0.0
 12
22.74781584578225
 22
10.00896050742855
 32
0.0
 13
22.74781584578225
 23
10.00896050742855
 33
0.0
  0
SOLID
  5
14F
330
27
100
AcDbEntity
  8
0
  6
ByBlock
 62
     0
440
 16777216
100
AcDbTrace
 10
22.77781584578225
 20
9.638960507428555
 30
0.0
 11
22.71781584578225
 21
9.638960507428555
 31
0.0
 12
22.74781584578225
 22
9.818960507428554
 32
0.0
 13
22.74781584578225
 23
9.818960507428554
 33
0.0
  0
TEXT
  5
150
330
27
100
AcDbEntity
  8
0
  6
ByBlock
 62
     0
440
 16777216
100
AcDbText
 10
23.10781584578225
 20
10.27896050742855
 30
0.0
 40
0.18
  1
0.190
100
AcDbText
  0
POINT
  5
151
330
27
100
AcDbEntity
  8
DEFPOINTS
  6
ByBlock
 62
     0
440
 16777216
100
AcDbPoint
 10
22.11509135047178
 20
9.818960507428554
 30
0.0
  0
POINT
  5
152
330
27
100
AcDbEntity
  8
DEFPOINTS
  6
ByBlock
 62
     0
440
 16777216
100
AcDbPoint
 10
22.11509135047178
 20
10.00896050742855
 30
0.0
  0
POINT
  5
153
330
27
100
AcDbEntity
  8
DEFPOINTS
  6
ByBlock
 62
     0
440
 16777216
100
AcDbPoint
 10
22.74781584578225
 20
10.00896050742855
 30
0.0
  0
ENDBLK
  5
154
330
27
100
AcDbEntity
  8
0
100
AcDbBlockEnd
  0
BLOCK
  5
155
330
28
100
AcDbEntity
  8
0
100
AcDbBlockBegin
  2
SAAR
 70
     0
 10
0.0
 20
0.0
 30
0.0
  3
SAAR
  1

  0
TEXT
  5
156
330
28
100
AcDbEntity
  8
0
100
AcDbText
 10
0.3487392072179478
 20
0.5116372546807444
 30
0.0
 40
0.156
  1
A
  7
COMPLEX
 72
     1
 11
0.4230249215036617
 21
0.5116372546807444
 31
0.0
100
AcDbText
  0
LINE
  5
157
330
28
100
AcDbEntity
  8
0
100
AcDbLine
 10
0.4374999999999983
 20
0.2292366486465216
 30
0.0
 11
0.451024804847763
 21
0.2292366486465225
 31
0.0
  0
LINE
  5
158
330
28
100
AcDbEntity
  8
0
100
AcDbLine
 10
0.4074999999999998
 20
0.2292366486465216
 30
0.0
 11
0.4074999999999989
 21
0.0149999999999988
 31
0.0
  0
LINE
  5
159
330
28
100
AcDbEntity
  8
0
100
AcDbLine
 10
0.4374999999999992
 20
0.2292366486465216
 30
0.0
 11
0.4374999999999992
 21
-0.017923002649547
 31
0.0
  0
LINE
  5
15A
330
28
100
AcDbEntity
  8
0
100
AcDbLine
 10
0.4224999999999995
 20
0.0299999999999994
 30
0.0
 11
-0.0000000000000009
 21
0.0299999999999994
 31
0.0
  0
LINE
  5
15B
330
28
100
AcDbEntity
  8
0
100
AcDbLine
 10
0.4571321552628529
 20
0.0
 30
0.0
 11
0.0
 21
0.0
 31
0.0
  0
ARC
  5
15C
330
28
100
AcDbEntity
  8
0
100
AcDbCircle
 10
-0.0774898749921995
 20
0.4486009293161688
 30
0.0
 40
0.5
100
AcDbArc
 50
333.9772135427694
 51
0.3646288638273987
  0
LINE
  5
15D
330
28
100
AcDbEntity
  8
0
100
AcDbLine
 10
0.4374999999999992
 20
0.2292366486465216
 30
0.0
 11
0.4374999999999992
 21
0.2292366486465216
 31
0.0
  0
ARC
  5
15E
330
28
100
AcDbEntity
  8
0
100
AcDbCircle
 10
0.9224898749921965
 20
0.4486009293161688
 30
0.0
 40
0.5
100
AcDbArc
 50
179.6353711361726
 51
206.0227864572306
  0
ARC
  5
15F
330
28
100
AcDbEntity
  8
0
100
AcDbCircle
 10
-0.0774898749921995
 20
0.4486009293161688
 30
0.0
 40
0.5200000000000001
100
AcDbArc
 50
335.0482819082217
 51
344.0535702443027
  0
ARC
  5
160
330
28
100
AcDbEntity
  8
0
100
AcDbCircle
 10
0.9224898749921965
 20
0.4486009293161688
 30
0.0
 40
0.5200000000000001
100
AcDbArc
 50
195.9464297556973
 51
204.951718091778
  0
LINE
  5
161
330
28
100
AcDbEntity
  8
0
100
AcDbLine
 10
0.3939751951522217
 20
0.2292366486465216
 30
0.0
 11
0.4074999999999998
 21
0.2292366486465216
 31
0.0
  0
LINE
  5
162
330
28
100
AcDbEntity
  8
0
100
AcDbLine
 10
0.3939751951522217
 20
0.2292366486465216
 30
0.0
 11
0.371819942802035
 21
0.2292366486465216
 31
0.0
  0
LINE
  5
163
330
28
100
AcDbEntity
  8
0
100
AcDbLine
 10
0.451024804847763
 20
0.2292366486465225
 30
0.0
 11
0.4731800571979621
 21
0.2292366486465216
 31
0.0
  0
INSERT
  5
164
330
28
100
AcDbEntity
  8
0
100
AcDbBlockReference
  2
*X13
 10
-3.748701991468968
 20
-6.921648479033177
 30
0.0
  0
ENDBLK
  5
165
330
28
100
AcDbEntity
  8
0
100
AcDbBlockEnd
  0
BLOCK
  5
166
330
29
100
AcDbEntity
  8
0
100
AcDbBlockBegin
  2
*X13
 70
     1
 10
0.0
 20
0.0
 30
0.0
  3
*X13
  1

  0
LINE
  5
167
330
29
100
AcDbEntity
  8
0
 62
     0
100
AcDbLine
 10
4.158042821030212
 20
7.25625
 30
0.0
 11
4.184361161907728
 21
7.25625
 31
0.0
  0
LINE
  5
168
330
29
100
AcDbEntity
  8
0
 62
     0
100
AcDbLine
 10
4.159464167164085
 20
7.2625
 30
0.0
 11
4.182939815773856
 21
7.2625
 31
0.0
  0
LINE
  5
169
330
29
100
AcDbEntity
  8
0
 62
     0
100
AcDbLine
 10
4.160801607892522
 20
7.26875
 30
0.0
 11
4.181602375045417
 21
7.26875
 31
0.0
  0
LINE
  5
16A
330
29
100
AcDbEntity
  8
0
 62
     0
100
AcDbLine
 10
4.162055829087108
 20
7.275
 30
0.0
 11
4.180348153850832
 21
7.275
 31
0.0
  0
LINE
  5
16B
330
29
100
AcDbEntity
  8
0
 62
     0
100
AcDbLine
 10
4.163227467165616
 20
7.28125
 30
0.0
 11
4.179176515772323
 21
7.28125
 31
0.0
  0
LINE
  5
16C
330
29
100
AcDbEntity
  8
0
 62
     0
100
AcDbLine
 10
4.1643171107912
 20
7.2875
 30
0.0
 11
4.178086872146739
 21
7.2875
 31
0.0
  0
LINE
  5
16D
330
29
100
AcDbEntity
  8
0
 62
     0
100
AcDbLine
 10
4.165325302419223
 20
7.29375
 30
0.0
 11
4.177078680518715
 21
7.29375
 31
0.0
  0
LINE
  5
16E
330
29
100
AcDbEntity
  8
0
 62
     0
100
AcDbLine
 10
4.16625253970155
 20
7.3
 30
0.0
 11
4.17615144323639
 21
7.3
 31
0.0
  0
LINE
  5
16F
330
29
100
AcDbEntity
  8
0
 62
     0
100
AcDbLine
 10
4.167099276757146
 20
7.30625
 30
0.0
 11
4.175304706180795
 21
7.30625
 31
0.0
  0
LINE
  5
170
330
29
100
AcDbEntity
  8
0
 62
     0
100
AcDbLine
 10
4.167865925316793
 20
7.3125
 30
0.0
 11
4.174538057621145
 21
7.3125
 31
0.0
  0
LINE
  5
171
330
29
100
AcDbEntity
  8
0
 62
     0
100
AcDbLine
 10
4.16855285574882
 20
7.31875
 30
0.0
 11
4.17385112718912
 21
7.31875
 31
0.0
  0
LINE
  5
172
330
29
100
AcDbEntity
  8
0
 62
     0
100
AcDbLine
 10
4.169160397971983
 20
7.325
 30
0.0
 11
4.173243584965957
 21
7.325
 31
0.0
  0
LINE
  5
173
330
29
100
AcDbEntity
  8
0
 62
     0
100
AcDbLine
 10
4.169688842260835
 20
7.33125
 30
0.0
 11
4.172715140677103
 21
7.33125
 31
0.0
  0
LINE
  5
174
330
29
100
AcDbEntity
  8
0
 62
     0
100
AcDbLine
 10
4.170138439948251
 20
7.3375
 30
0.0
 11
4.172265542989687
 21
7.3375
 31
0.0
  0
LINE
  5
175
330
29
100
AcDbEntity
  8
0
 62
     0
100
AcDbLine
 10
4.170509404029122
 20
7.34375
 30
0.0
 11
4.171894578908817
 21
7.34375
 31
0.0
  0
LINE
  5
176
330
29
100
AcDbEntity
  8
0
 62
     0
100
AcDbLine
 10
4.170801909668647
 20
7.35
 30
0.0
 11
4.171602073269292
 21
7.35
 31
0.0
  0
LINE
  5
177
330
29
100
AcDbEntity
  8
0
 62
     0
100
AcDbLine
 10
4.171016094618071
 20
7.35625
 30
0.0
 11
4.171387888319867
 21
7.35625
 31
0.0
  0
LINE
  5
178
330
29
100
AcDbEntity
  8
0
 62
     0
100
AcDbLine
 10
4.171152059540171
 20
7.3625
 30
0.0
 11
4.171251923397766
 21
7.3625
 31
0.0
  0
LINE
  5
179
330
29
100
AcDbEntity
  8
0
 62
     0
100
AcDbLine
 10
4.17119411469162
 20
7.36875
 30
0.0
 11
4.171209868246319
 21
7.36875
 31
0.0
  0
LINE
  5
17A
330
29
100
AcDbEntity
  8
0
 62
     0
100
AcDbLine
 10
4.156536832302816
 20
7.25
 30
0.0
 11
4.185867150635123
 21
7.25
 31
0.0
  0
LINE
  5
17B
330
29
100
AcDbEntity
  8
0
 62
     0
100
AcDbLine
 10
4.154945410438709
 20
7.24375
 30
0.0
 11
4.187458572499231
 21
7.24375
 31
0.0
  0
LINE
  5
17C
330
29
100
AcDbEntity
  8
0
 62
     0
100
AcDbLine
 10
4.153267709311144
 20
7.2375
 30
0.0
 11
4.189136273626795
 21
7.2375
 31
0.0
  0
LINE
  5
17D
330
29
100
AcDbEntity
  8
0
 62
     0
100
AcDbLine
 10
4.151502824775956
 20
7.23125
 30
0.0
 11
4.190901158161984
 21
7.23125
 31
0.0
  0
LINE
  5
17E
330
29
100
AcDbEntity
  8
0
 62
     0
100
AcDbLine
 10
4.149649792014731
 20
7.225
 30
0.0
 11
4.170514238817704
 21
7.225
 31
0.0
  0
LINE
  5
17F
330
29
100
AcDbEntity
  8
0
 62
     0
100
AcDbLine
 10
4.17188974412022
 20
7.225
 30
0.0
 11
4.192754190923209
 21
7.225
 31
0.0
  0
LINE
  5
180
330
29
100
AcDbEntity
  8
0
 62
     0
100
AcDbLine
 10
4.147707582635473
 20
7.21875
 30
0.0
 11
4.16865349922432
 21
7.21875
 31
0.0
  0
LINE
  5
181
330
29
100
AcDbEntity
  8
0
 62
     0
100
AcDbLine
 10
4.173750483713604
 20
7.21875
 30
0.0
 11
4.194696400302465
 21
7.21875
 31
0.0
  0
LINE
  5
182
330
29
100
AcDbEntity
  8
0
 62
     0
100
AcDbLine
 10
4.145675101508724
 20
7.2125
 30
0.0
 11
4.166706944063726
 21
7.2125
 31
0.0
  0
LINE
  5
183
330
29
100
AcDbEntity
  8
0
 62
     0
100
AcDbLine
 10
4.175697038874197
 20
7.2125
 30
0.0
 11
4.196728881429214
 21
7.2125
 31
0.0
  0
LINE
  5
184
330
29
100
AcDbEntity
  8
0
 62
     0
100
AcDbLine
 10
4.143551183314425
 20
7.20625
 30
0.0
 11
4.164673557788107
 21
7.20625
 31
0.0
  0
LINE
  5
185
330
29
100
AcDbEntity
  8
0
 62
     0
100
AcDbLine
 10
4.17773042514982
 20
7.20625
 30
0.0
 11
4.198852799623516
 21
7.20625
 31
0.0
  0
LINE
  5
186
330
29
100
AcDbEntity
  8
0
 62
     0
100
AcDbLine
 10
4.141334588771703
 20
7.2
 30
0.0
 11
4.162552262360144
 21
7.2
 31
0.0
  0
LINE
  5
187
330
29
100
AcDbEntity
  8
0
 62
     0
100
AcDbLine
 10
4.179851720577784
 20
7.2
 30
0.0
 11
4.201069394166239
 21
7.2
 31
0.0
  0
LINE
  5
188
330
29
100
AcDbEntity
  8
0
 62
     0
100
AcDbLine
 10
4.139024000520274
 20
7.19375
 30
0.0
 11
4.160341914027816
 21
7.19375
 31
0.0
  0
LINE
  5
189
330
29
100
AcDbEntity
  8
0
 62
     0
100
AcDbLine
 10
4.182062068910108
 20
7.19375
 30
0.0
 11
4.203379982417666
 21
7.19375
 31
0.0
  0
LINE
  5
18A
330
29
100
AcDbEntity
  8
0
 62
     0
100
AcDbLine
 10
4.136618018618079
 20
7.1875
 30
0.0
 11
4.158041299813144
 21
7.1875
 31
0.0
  0
LINE
  5
18B
330
29
100
AcDbEntity
  8
0
 62
     0
100
AcDbLine
 10
4.18436268312478
 20
7.1875
 30
0.0
 11
4.20578596431986
 21
7.1875
 31
0.0
  0
LINE
  5
18C
330
29
100
AcDbEntity
  8
0
 62
     0
100
AcDbLine
 10
4.134115155615204
 20
7.18125
 30
0.0
 11
4.155649133687051
 21
7.18125
 31
0.0
  0
LINE
  5
18D
330
29
100
AcDbEntity
  8
0
 62
     0
100
AcDbLine
 10
4.186754849250876
 20
7.18125
 30
0.0
 11
4.208288827322737
 21
7.18125
 31
0.0
  0
LINE
  5
18E
330
29
100
AcDbEntity
  8
0
 62
     0
100
AcDbLine
 10
4.131513831158817
 20
7.175
 30
0.0
 11
4.153164052399043
 21
7.175
 31
0.0
  0
LINE
  5
18F
330
29
100
AcDbEntity
  8
0
 62
     0
100
AcDbLine
 10
4.189239930538879
 20
7.175
 30
0.0
 11
4.210890151779121
 21
7.175
 31
0.0
  0
LINE
  5
190
330
29
100
AcDbEntity
  8
0
 62
     0
100
AcDbLine
 10
4.128812366077735
 20
7.16875
 30
0.0
 11
4.1505846109264
 21
7.16875
 31
0.0
  0
LINE
  5
191
330
29
100
AcDbEntity
  8
0
 62
     0
100
AcDbLine
 10
4.191819372011525
 20
7.16875
 30
0.0
 11
4.213591616860204
 21
7.16875
 31
0.0
  0
LINE
  5
192
330
29
100
AcDbEntity
  8
0
 62
     0
100
AcDbLine
 10
4.126008975888199
 20
7.1625
 30
0.0
 11
4.147909277503027
 21
7.1625
 31
0.0
  0
LINE
  5
193
330
29
100
AcDbEntity
  8
0
 62
     0
100
AcDbLine
 10
4.194494705434896
 20
7.1625
 30
0.0
 11
4.216395007049741
 21
7.1625
 31
0.0
  0
LINE
  5
194
330
29
100
AcDbEntity
  8
0
 62
     0
100
AcDbLine
 10
4.123101763654189
 20
7.15625
 30
0.0
 11
4.145136428182898
 21
7.15625
 31
0.0
  0
LINE
  5
195
330
29
100
AcDbEntity
  8
0
 62
     0
100
AcDbLine
 10
4.197267554755029
 20
7.15625
 30
0.0
 11
4.219302219283752
 21
7.15625
 31
0.0
  0
ENDBLK
  5
196
330
29
100
AcDbEntity
  8
0
100
AcDbBlockEnd
  0
BLOCK
  5
197
330
2A
100
AcDbEntity
  8
0
100
AcDbBlockBegin
  2
SBBT
 70
     0
 10
0.0
 20
0.0
 30
0.0
  3
SBBT
  1

  0
TEXT
  5
198
330
2A
100
AcDbEntity
  8
0
100
AcDbText
 10
-0.6618640508256033
 20
0.338139455665849
 30
0.0
 40
0.156
  1
B
  7
COMPLEX
 72
     1
 11
-0.5838640508256035
 21
0.338139455665849
 31
0.0
100
AcDbText
  0
INSERT
  5
199
330
2A
100
AcDbEntity
  8
0
100
AcDbBlockReference
  2
*X15
 10
6.921648479033177
 20
-3.748701991468968
 30
0.0
 50
90.0
  0
LINE
  5
19A
330
2A
100
AcDbEntity
  8
0
100
AcDbLine
 10
-0.2292366486465225
 20
0.451024804847763
 30
0.0
 11
-0.2292366486465216
 21
0.4731800571979621
 31
0.0
  0
LINE
  5
19B
330
2A
100
AcDbEntity
  8
0
100
AcDbLine
 10
-0.2292366486465216
 20
0.3939751951522217
 30
0.0
 11
-0.2292366486465216
 21
0.371819942802035
 31
0.0
  0
LINE
  5
19C
330
2A
100
AcDbEntity
  8
0
100
AcDbLine
 10
-0.2292366486465216
 20
0.3939751951522217
 30
0.0
 11
-0.2292366486465216
 21
0.4074999999999998
 31
0.0
  0
ARC
  5
19D
330
2A
100
AcDbEntity
  8
0
100
AcDbCircle
 10
-0.4486009293161688
 20
0.9224898749921965
 30
0.0
 40
0.5200000000000001
100
AcDbArc
 50
285.9464297556974
 51
294.951718091778
  0
ARC
  5
19E
330
2A
100
AcDbEntity
  8
0
100
AcDbCircle
 10
-0.4486009293161688
 20
-0.0774898749921995
 30
0.0
 40
0.5200000000000001
100
AcDbArc
 50
65.04828190822165
 51
74.0535702443027
  0
ARC
  5
19F
330
2A
100
AcDbEntity
  8
0
100
AcDbCircle
 10
-0.4486009293161688
 20
0.9224898749921965
 30
0.0
 40
0.5
100
AcDbArc
 50
269.6353711361726
 51
296.0227864572306
  0
LINE
  5
1A0
330
2A
100
AcDbEntity
  8
0
100
AcDbLine
 10
-0.2292366486465216
 20
0.4374999999999992
 30
0.0
 11
-0.2292366486465216
 21
0.4374999999999992
 31
0.0
  0
ARC
  5
1A1
330
2A
100
AcDbEntity
  8
0
100
AcDbCircle
 10
-0.4486009293161688
 20
-0.0774898749921995
 30
0.0
 40
0.5
100
AcDbArc
 50
63.97721354276936
 51
90.36462886382741
  0
LINE
  5
1A2
330
2A
100
AcDbEntity
  8
0
100
AcDbLine
 10
0.0
 20
0.4571321552628529
 30
0.0
 11
0.0
 21
0.0
 31
0.0
  0
LINE
  5
1A3
330
2A
100
AcDbEntity
  8
0
100
AcDbLine
 10
-0.0299999999999994
 20
0.4224999999999995
 30
0.0
 11
-0.0299999999999994
 21
-0.0000000000000009
 31
0.0
  0
LINE
  5
1A4
330
2A
100
AcDbEntity
  8
0
100
AcDbLine
 10
-0.2292366486465216
 20
0.4374999999999992
 30
0.0
 11
0.017923002649547
 21
0.4374999999999992
 31
0.0
  0
LINE
  5
1A5
330
2A
100
AcDbEntity
  8
0
100
AcDbLine
 10
-0.2292366486465216
 20
0.4074999999999998
 30
0.0
 11
-0.0149999999999988
 21
0.4074999999999989
 31
0.0
  0
LINE
  5
1A6
330
2A
100
AcDbEntity
  8
0
100
AcDbLine
 10
-0.2292366486465216
 20
0.4374999999999983
 30
0.0
 11
-0.2292366486465225
 21
0.451024804847763
 31
0.0
  0
ENDBLK
  5
1A7
330
2A
100
AcDbEntity
  8
0
100
AcDbBlockEnd
  0
BLOCK
  5
1A8
330
2B
100
AcDbEntity
  8
0
100
AcDbBlockBegin
  2
*X15
 70
     1
 10
0.0
 20
0.0
 30
0.0
  3
*X15
  1

  0
LINE
  5
1A9
330
2B
100
AcDbEntity
  8
0
 62
     0
100
AcDbLine
 10
4.158042821030212
 20
7.25625
 30
0.0
 11
4.184361161907728
 21
7.25625
 31
0.0
  0
LINE
  5
1AA
330
2B
100
AcDbEntity
  8
0
 62
     0
100
AcDbLine
 10
4.159464167164085
 20
7.2625
 30
0.0
 11
4.182939815773856
 21
7.2625
 31
0.0
  0
LINE
  5
1AB
330
2B
100
AcDbEntity
  8
0
 62
     0
100
AcDbLine
 10
4.160801607892522
 20
7.26875
 30
0.0
 11
4.181602375045417
 21
7.26875
 31
0.0
  0
LINE
  5
1AC
330
2B
100
AcDbEntity
  8
0
 62
     0
100
AcDbLine
 10
4.162055829087108
 20
7.275
 30
0.0
 11
4.180348153850832
 21
7.275
 31
0.0
  0
LINE
  5
1AD
330
2B
100
AcDbEntity
  8
0
 62
     0
100
AcDbLine
 10
4.163227467165616
 20
7.28125
 30
0.0
 11
4.179176515772323
 21
7.28125
 31
0.0
  0
LINE
  5
1AE
330
2B
100
AcDbEntity
  8
0
 62
     0
100
AcDbLine
 10
4.1643171107912
 20
7.2875
 30
0.0
 11
4.178086872146739
 21
7.2875
 31
0.0
  0
LINE
  5
1AF
330
2B
100
AcDbEntity
  8
0
 62
     0
100
AcDbLine
 10
4.165325302419223
 20
7.29375
 30
0.0
 11
4.177078680518715
 21
7.29375
 31
0.0
  0
LINE
  5
1B0
330
2B
100
AcDbEntity
  8
0
 62
     0
100
AcDbLine
 10
4.16625253970155
 20
7.3
 30
0.0
 11
4.17615144323639
 21
7.3
 31
0.0
  0
LINE
  5
1B1
330
2B
100
AcDbEntity
  8
0
 62
     0
100
AcDbLine
 10
4.167099276757146
 20
7.30625
 30
0.0
 11
4.175304706180795
 21
7.30625
 31
0.0
  0
LINE
  5
1B2
330
2B
100
AcDbEntity
  8
0
 62
     0
100
AcDbLine
 10
4.167865925316793
 20
7.3125
 30
0.0
 11
4.174538057621145
 21
7.3125
 31
0.0
  0
LINE
  5
1B3
330
2B
100
AcDbEntity
  8
0
 62
     0
100
AcDbLine
 10
4.16855285574882
 20
7.31875
 30
0.0
 11
4.17385112718912
 21
7.31875
 31
0.0
  0
LINE
  5
1B4
330
2B
100
AcDbEntity
  8
0
 62
     0
100
AcDbLine
 10
4.169160397971983
 20
7.325
 30
0.0
 11
4.173243584965957
 21
7.325
 31
0.0
  0
LINE
  5
1B5
330
2B
100
AcDbEntity
  8
0
 62
     0
100
AcDbLine
 10
4.169688842260835
 20
7.33125
 30
0.0
 11
4.172715140677103
 21
7.33125
 31
0.0
  0
LINE
  5
1B6
330
2B
100
AcDbEntity
  8
0
 62
     0
100
AcDbLine
 10
4.170138439948251
 20
7.3375
 30
0.0
 11
4.172265542989687
 21
7.3375
 31
0.0
  0
LINE
  5
1B7
330
2B
100
AcDbEntity
  8
0
 62
     0
100
AcDbLine
 10
4.170509404029122
 20
7.34375
 30
0.0
 11
4.171894578908817
 21
7.34375
 31
0.0
  0
LINE
  5
1B8
330
2B
100
AcDbEntity
  8
0
 62
     0
100
AcDbLine
 10
4.170801909668647
 20
7.35
 30
0.0
 11
4.171602073269292
 21
7.35
 31
0.0
  0
LINE
  5
1B9
330
2B
100
AcDbEntity
  8
0
 62
     0
100
AcDbLine
 10
4.171016094618071
 20
7.35625
 30
0.0
 11
4.171387888319867
 21
7.35625
 31
0.0
  0
LINE
  5
1BA
330
2B
100
AcDbEntity
  8
0
 62
     0
100
AcDbLine
 10
4.171152059540171
 20
7.3625
 30
0.0
 11
4.171251923397766
 21
7.3625
 31
0.0
  0
LINE
  5
1BB
330
2B
100
AcDbEntity
  8
0
 62
     0
100
AcDbLine
 10
4.17119411469162
 20
7.36875
 30
0.0
 11
4.171209868246319
 21
7.36875
 31
0.0
  0
LINE
  5
1BC
330
2B
100
AcDbEntity
  8
0
 62
     0
100
AcDbLine
 10
4.156536832302816
 20
7.25
 30
0.0
 11
4.185867150635123
 21
7.25
 31
0.0
  0
LINE
  5
1BD
330
2B
100
AcDbEntity
  8
0
 62
     0
100
AcDbLine
 10
4.154945410438709
 20
7.24375
 30
0.0
 11
4.187458572499231
 21
7.24375
 31
0.0
  0
LINE
  5
1BE
330
2B
100
AcDbEntity
  8
0
 62
     0
100
AcDbLine
 10
4.153267709311144
 20
7.2375
 30
0.0
 11
4.189136273626795
 21
7.2375
 31
0.0
  0
LINE
  5
1BF
330
2B
100
AcDbEntity
  8
0
 62
     0
100
AcDbLine
 10
4.151502824775956
 20
7.23125
 30
0.0
 11
4.190901158161984
 21
7.23125
 31
0.0
  0
LINE
  5
1C0
330
2B
100
AcDbEntity
  8
0
 62
     0
100
AcDbLine
 10
4.149649792014731
 20
7.225
 30
0.0
 11
4.170514238817704
 21
7.225
 31
0.0
  0
LINE
  5
1C1
330
2B
100
AcDbEntity
  8
0
 62
     0
100
AcDbLine
 10
4.17188974412022
 20
7.225
 30
0.0
 11
4.192754190923209
 21
7.225
 31
0.0
  0
LINE
  5
1C2
330
2B
100
AcDbEntity
  8
0
 62
     0
100
AcDbLine
 10
4.147707582635473
 20
7.21875
 30
0.0
 11
4.16865349922432
 21
7.21875
 31
0.0
  0
LINE
  5
1C3
330
2B
100
AcDbEntity
  8
0
 62
     0
100
AcDbLine
 10
4.173750483713604
 20
7.21875
 30
0.0
 11
4.194696400302465
 21
7.21875
 31
0.0
  0
LINE
  5
1C4
330
2B
100
AcDbEntity
  8
0
 62
     0
100
AcDbLine
 10
4.145675101508724
 20
7.2125
 30
0.0
 11
4.166706944063726
 21
7.2125
 31
0.0
  0
LINE
  5
1C5
330
2B
100
AcDbEntity
  8
0
 62
     0
100
AcDbLine
 10
4.175697038874197
 20
7.2125
 30
0.0
 11
4.196728881429214
 21
7.2125
 31
0.0
  0
LINE
  5
1C6
330
2B
100
AcDbEntity
  8
0
 62
     0
100
AcDbLine
 10
4.143551183314425
 20
7.20625
 30
0.0
 11
4.164673557788107
 21
7.20625
 31
0.0
  0
LINE
  5
1C7
330
2B
100
AcDbEntity
  8
0
 62
     0
100
AcDbLine
 10
4.17773042514982
 20
7.20625
 30
0.0
 11
4.198852799623516
 21
7.20625
 31
0.0
  0
LINE
  5
1C8
330
2B
100
AcDbEntity
  8
0
 62
     0
100
AcDbLine
 10
4.141334588771703
 20
7.2
 30
0.0
 11
4.162552262360144
 21
7.2
 31
0.0
  0
LINE
  5
1C9
330
2B
100
AcDbEntity
  8
0
 62
     0
100
AcDbLine
 10
4.179851720577784
 20
7.2
 30
0.0
 11
4.201069394166239
 21
7.2
 31
0.0
  0
LINE
  5
1CA
330
2B
100
AcDbEntity
  8
0
 62
     0
100
AcDbLine
 10
4.139024000520274
 20
7.19375
 30
0.0
 11
4.160341914027816
 21
7.19375
 31
0.0
  0
LINE
  5
1CB
330
2B
100
AcDbEntity
  8
0
 62
     0
100
AcDbLine
 10
4.182062068910108
 20
7.19375
 30
0.0
 11
4.203379982417666
 21
7.19375
 31
0.0
  0
LINE
  5
1CC
330
2B
100
AcDbEntity
  8
0
 62
     0
100
AcDbLine
 10
4.136618018618079
 20
7.1875
 30
0.0
 11
4.158041299813144
 21
7.1875
 31
0.0
  0
LINE
  5
1CD
330
2B
100
AcDbEntity
  8
0
 62
     0
100
AcDbLine
 10
4.18436268312478
 20
7.1875
 30
0.0
 11
4.20578596431986
 21
7.1875
 31
0.0
  0
LINE
  5
1CE
330
2B
100
AcDbEntity
  8
0
 62
     0
100
AcDbLine
 10
4.134115155615204
 20
7.18125
 30
0.0
 11
4.155649133687051
 21
7.18125
 31
0.0
  0
LINE
  5
1CF
330
2B
100
AcDbEntity
  8
0
 62
     0
100
AcDbLine
 10
4.186754849250876
 20
7.18125
 30
0.0
 11
4.208288827322737
 21
7.18125
 31
0.0
  0
LINE
  5
1D0
330
2B
100
AcDbEntity
  8
0
 62
     0
100
AcDbLine
 10
4.131513831158817
 20
7.175
 30
0.0
 11
4.153164052399043
 21
7.175
 31
0.0
  0
LINE
  5
1D1
330
2B
100
AcDbEntity
  8
0
 62
     0
100
AcDbLine
 10
4.189239930538879
 20
7.175
 30
0.0
 11
4.210890151779121
 21
7.175
 31
0.0
  0
LINE
  5
1D2
330
2B
100
AcDbEntity
  8
0
 62
     0
100
AcDbLine
 10
4.128812366077735
 20
7.16875
 30
0.0
 11
4.1505846109264
 21
7.16875
 31
0.0
  0
LINE
  5
1D3
330
2B
100
AcDbEntity
  8
0
 62
     0
100
AcDbLine
 10
4.191819372011525
 20
7.16875
 30
0.0
 11
4.213591616860204
 21
7.16875
 31
0.0
  0
LINE
  5
1D4
330
2B
100
AcDbEntity
  8
0
 62
     0
100
AcDbLine
 10
4.126008975888199
 20
7.1625
 30
0.0
 11
4.147909277503027
 21
7.1625
 31
0.0
  0
LINE
  5
1D5
330
2B
100
AcDbEntity
  8
0
 62
     0
100
AcDbLine
 10
4.194494705434896
 20
7.1625
 30
0.0
 11
4.216395007049741
 21
7.1625
 31
0.0
  0
LINE
  5
1D6
330
2B
100
AcDbEntity
  8
0
 62
     0
100
AcDbLine
 10
4.123101763654189
 20
7.15625
 30
0.0
 11
4.145136428182898
 21
7.15625
 31
0.0
  0
LINE
  5
1D7
330
2B
100
AcDbEntity
  8
0
 62
     0
100
AcDbLine
 10
4.197267554755029
 20
7.15625
 30
0.0
 11
4.219302219283752
 21
7.15625
 31
0.0
  0
ENDBLK
  5
1D8
330
2B
100
AcDbEntity
  8
0
100
AcDbBlockEnd
  0
BLOCK
  5
1D9
330
2C
100
AcDbEntity
  8
0
100
AcDbBlockBegin
  2
SAAL
 70
     0
 10
0.0
 20
0.0
 30
0.0
  3
SAAL
  1

  0
TEXT
  5
1DA
330
2C
100
AcDbEntity
  8
0
100
AcDbText
 10
-0.5040834610697376
 20
0.5122863324383254
 30
0.0
 40
0.156
  1
A
  7
COMPLEX
 72
     1
 11
-0.4297977467840233
 21
0.5122863324383254
 31
0.0
100
AcDbText
  0
INSERT
  5
1DB
330
2C
100
AcDbEntity
  8
0
100
AcDbBlockReference
  2
*X17
 10
3.748701991468969
 20
-6.921648479033177
 30
0.0
 41
-1.0
  0
LINE
  5
1DC
330
2C
100
AcDbEntity
  8
0
100
AcDbLine
 10
-0.4510248048477635
 20
0.2292366486465225
 30
0.0
 11
-0.4731800571979626
 21
0.2292366486465216
 31
0.0
  0
LINE
  5
1DD
330
2C
100
AcDbEntity
  8
0
100
AcDbLine
 10
-0.3939751951522221
 20
0.2292366486465216
 30
0.0
 11
-0.3718199428020354
 21
0.2292366486465216
 31
0.0
  0
LINE
  5
1DE
330
2C
100
AcDbEntity
  8
0
100
AcDbLine
 10
-0.3939751951522221
 20
0.2292366486465216
 30
0.0
 11
-0.4075000000000002
 21
0.2292366486465216
 31
0.0
  0
ARC
  5
1DF
330
2C
100
AcDbEntity
  8
0
100
AcDbCircle
 10
-0.9224898749921969
 20
0.4486009293161688
 30
0.0
 40
0.5200000000000001
100
AcDbArc
 50
335.048281908222
 51
344.0535702443027
  0
ARC
  5
1E0
330
2C
100
AcDbEntity
  8
0
100
AcDbCircle
 10
0.0774898749921995
 20
0.4486009293161688
 30
0.0
 40
0.5200000000000001
100
AcDbArc
 50
195.9464297556973
 51
204.9517180917784
  0
ARC
  5
1E1
330
2C
100
AcDbEntity
  8
0
100
AcDbCircle
 10
-0.9224898749921969
 20
0.4486009293161688
 30
0.0
 40
0.5
100
AcDbArc
 50
333.9772135427694
 51
0.3646288638273872
  0
LINE
  5
1E2
330
2C
100
AcDbEntity
  8
0
100
AcDbLine
 10
-0.4374999999999996
 20
0.2292366486465216
 30
0.0
 11
-0.4374999999999996
 21
0.2292366486465216
 31
0.0
  0
ARC
  5
1E3
330
2C
100
AcDbEntity
  8
0
100
AcDbCircle
 10
0.0774898749921995
 20
0.4486009293161688
 30
0.0
 40
0.5
100
AcDbArc
 50
179.6353711361726
 51
206.0227864572306
  0
LINE
  5
1E4
330
2C
100
AcDbEntity
  8
0
100
AcDbLine
 10
-0.4571321552628534
 20
0.0
 30
0.0
 11
0.0
 21
0.0
 31
0.0
  0
LINE
  5
1E5
330
2C
100
AcDbEntity
  8
0
100
AcDbLine
 10
-0.4224999999999999
 20
0.0299999999999994
 30
0.0
 11
0.0000000000000009
 21
0.0299999999999994
 31
0.0
  0
LINE
  5
1E6
330
2C
100
AcDbEntity
  8
0
100
AcDbLine
 10
-0.4374999999999996
 20
0.2292366486465216
 30
0.0
 11
-0.4374999999999996
 21
-0.017923002649547
 31
0.0
  0
LINE
  5
1E7
330
2C
100
AcDbEntity
  8
0
100
AcDbLine
 10
-0.4075000000000002
 20
0.2292366486465216
 30
0.0
 11
-0.4074999999999993
 21
0.0149999999999988
 31
0.0
  0
LINE
  5
1E8
330
2C
100
AcDbEntity
  8
0
100
AcDbLine
 10
-0.4374999999999987
 20
0.2292366486465216
 30
0.0
 11
-0.4510248048477635
 21
0.2292366486465225
 31
0.0
  0
ENDBLK
  5
1E9
330
2C
100
AcDbEntity
  8
0
100
AcDbBlockEnd
  0
BLOCK
  5
1EA
330
2D
100
AcDbEntity
  8
0
100
AcDbBlockBegin
  2
*X17
 70
     1
 10
0.0
 20
0.0
 30
0.0
  3
*X17
  1

  0
LINE
  5
1EB
330
2D
100
AcDbEntity
  8
0
 62
     0
100
AcDbLine
 10
4.158042821030212
 20
7.25625
 30
0.0
 11
4.184361161907728
 21
7.25625
 31
0.0
  0
LINE
  5
1EC
330
2D
100
AcDbEntity
  8
0
 62
     0
100
AcDbLine
 10
4.159464167164085
 20
7.2625
 30
0.0
 11
4.182939815773856
 21
7.2625
 31
0.0
  0
LINE
  5
1ED
330
2D
100
AcDbEntity
  8
0
 62
     0
100
AcDbLine
 10
4.160801607892522
 20
7.26875
 30
0.0
 11
4.181602375045417
 21
7.26875
 31
0.0
  0
LINE
  5
1EE
330
2D
100
AcDbEntity
  8
0
 62
     0
100
AcDbLine
 10
4.162055829087108
 20
7.275
 30
0.0
 11
4.180348153850832
 21
7.275
 31
0.0
  0
LINE
  5
1EF
330
2D
100
AcDbEntity
  8
0
 62
     0
100
AcDbLine
 10
4.163227467165616
 20
7.28125
 30
0.0
 11
4.179176515772323
 21
7.28125
 31
0.0
  0
LINE
  5
1F0
330
2D
100
AcDbEntity
  8
0
 62
     0
100
AcDbLine
 10
4.1643171107912
 20
7.2875
 30
0.0
 11
4.178086872146739
 21
7.2875
 31
0.0
  0
LINE
  5
1F1
330
2D
100
AcDbEntity
  8
0
 62
     0
100
AcDbLine
 10
4.165325302419223
 20
7.29375
 30
0.0
 11
4.177078680518715
 21
7.29375
 31
0.0
  0
LINE
  5
1F2
330
2D
100
AcDbEntity
  8
0
 62
     0
100
AcDbLine
 10
4.16625253970155
 20
7.3
 30
0.0
 11
4.17615144323639
 21
7.3
 31
0.0
  0
LINE
  5
1F3
330
2D
100
AcDbEntity
  8
0
 62
     0
100
AcDbLine
 10
4.167099276757146
 20
7.30625
 30
0.0
 11
4.175304706180795
 21
7.30625
 31
0.0
  0
LINE
  5
1F4
330
2D
100
AcDbEntity
  8
0
 62
     0
100
AcDbLine
 10
4.167865925316793
 20
7.3125
 30
0.0
 11
4.174538057621145
 21
7.3125
 31
0.0
  0
LINE
  5
1F5
330
2D
100
AcDbEntity
  8
0
 62
     0
100
AcDbLine
 10
4.16855285574882
 20
7.31875
 30
0.0
 11
4.17385112718912
 21
7.31875
 31
0.0
  0
LINE
  5
1F6
330
2D
100
AcDbEntity
  8
0
 62
     0
100
AcDbLine
 10
4.169160397971983
 20
7.325
 30
0.0
 11
4.173243584965957
 21
7.325
 31
0.0
  0
LINE
  5
1F7
330
2D
100
AcDbEntity
  8
0
 62
     0
100
AcDbLine
 10
4.169688842260835
 20
7.33125
 30
0.0
 11
4.172715140677103
 21
7.33125
 31
0.0
  0
LINE
  5
1F8
330
2D
100
AcDbEntity
  8
0
 62
     0
100
AcDbLine
 10
4.170138439948251
 20
7.3375
 30
0.0
 11
4.172265542989687
 21
7.3375
 31
0.0
  0
LINE
  5
1F9
330
2D
100
AcDbEntity
  8
0
 62
     0
100
AcDbLine
 10
4.170509404029122
 20
7.34375
 30
0.0
 11
4.171894578908817
 21
7.34375
 31
0.0
  0
LINE
  5
1FA
330
2D
100
AcDbEntity
  8
0
 62
     0
100
AcDbLine
 10
4.170801909668647
 20
7.35
 30
0.0
 11
4.171602073269292
 21
7.35
 31
0.0
  0
LINE
  5
1FB
330
2D
100
AcDbEntity
  8
0
 62
     0
100
AcDbLine
 10
4.171016094618071
 20
7.35625
 30
0.0
 11
4.171387888319867
 21
7.35625
 31
0.0
  0
LINE
  5
1FC
330
2D
100
AcDbEntity
  8
0
 62
     0
100
AcDbLine
 10
4.171152059540171
 20
7.3625
 30
0.0
 11
4.171251923397766
 21
7.3625
 31
0.0
  0
LINE
  5
1FD
330
2D
100
AcDbEntity
  8
0
 62
     0
100
AcDbLine
 10
4.17119411469162
 20
7.36875
 30
0.0
 11
4.171209868246319
 21
7.36875
 31
0.0
  0
LINE
  5
1FE
330
2D
100
AcDbEntity
  8
0
 62
     0
100
AcDbLine
 10
4.156536832302816
 20
7.25
 30
0.0
 11
4.185867150635123
 21
7.25
 31
0.0
  0
LINE
  5
1FF
330
2D
100
AcDbEntity
  8
0
 62
     0
100
AcDbLine
 10
4.154945410438709
 20
7.24375
 30
0.0
 11
4.187458572499231
 21
7.24375
 31
0.0
  0
LINE
  5
200
330
2D
100
AcDbEntity
  8
0
 62
     0
100
AcDbLine
 10
4.153267709311144
 20
7.2375
 30
0.0
 11
4.189136273626795
 21
7.2375
 31
0.0
  0
LINE
  5
201
330
2D
100
AcDbEntity
  8
0
 62
     0
100
AcDbLine
 10
4.151502824775956
 20
7.23125
 30
0.0
 11
4.190901158161984
 21
7.23125
 31
0.0
  0
LINE
  5
202
330
2D
100
AcDbEntity
  8
0
 62
     0
100
AcDbLine
 10
4.149649792014731
 20
7.225
 30
0.0
 11
4.170514238817704
 21
7.225
 31
0.0
  0
LINE
  5
203
330
2D
100
AcDbEntity
  8
0
 62
     0
100
AcDbLine
 10
4.17188974412022
 20
7.225
 30
0.0
 11
4.192754190923209
 21
7.225
 31
0.0
  0
LINE
  5
204
330
2D
100
AcDbEntity
  8
0
 62
     0
100
AcDbLine
 10
4.147707582635473
 20
7.21875
 30
0.0
 11
4.16865349922432
 21
7.21875
 31
0.0
  0
LINE
  5
205
330
2D
100
AcDbEntity
  8
0
 62
     0
100
AcDbLine
 10
4.173750483713604
 20
7.21875
 30
0.0
 11
4.194696400302465
 21
7.21875
 31
0.0
  0
LINE
  5
206
330
2D
100
AcDbEntity
  8
0
 62
     0
100
AcDbLine
 10
4.145675101508724
 20
7.2125
 30
0.0
 11
4.166706944063726
 21
7.2125
 31
0.0
  0
LINE
  5
207
330
2D
100
AcDbEntity
  8
0
 62
     0
100
AcDbLine
 10
4.175697038874197
 20
7.2125
 30
0.0
 11
4.196728881429214
 21
7.2125
 31
0.0
  0
LINE
  5
208
330
2D
100
AcDbEntity
  8
0
 62
     0
100
AcDbLine
 10
4.143551183314425
 20
7.20625
 30
0.0
 11
4.164673557788107
 21
7.20625
 31
0.0
  0
LINE
  5
209
330
2D
100
AcDbEntity
  8
0
 62
     0
100
AcDbLine
 10
4.17773042514982
 20
7.20625
 30
0.0
 11
4.198852799623516
 21
7.20625
 31
0.0
  0
LINE
  5
20A
330
2D
100
AcDbEntity
  8
0
 62
     0
100
AcDbLine
 10
4.141334588771703
 20
7.2
 30
0.0
 11
4.162552262360144
 21
7.2
 31
0.0
  0
LINE
  5
20B
330
2D
100
AcDbEntity
  8
0
 62
     0
100
AcDbLine
 10
4.179851720577784
 20
7.2
 30
0.0
 11
4.201069394166239
 21
7.2
 31
0.0
  0
LINE
  5
20C
330
2D
100
AcDbEntity
  8
0
 62
     0
100
AcDbLine
 10
4.139024000520274
 20
7.19375
 30
0.0
 11
4.160341914027816
 21
7.19375
 31
0.0
  0
LINE
  5
20D
330
2D
100
AcDbEntity
  8
0
 62
     0
100
AcDbLine
 10
4.182062068910108
 20
7.19375
 30
0.0
 11
4.203379982417666
 21
7.19375
 31
0.0
  0
LINE
  5
20E
330
2D
100
AcDbEntity
  8
0
 62
     0
100
AcDbLine
 10
4.136618018618079
 20
7.1875
 30
0.0
 11
4.158041299813144
 21
7.1875
 31
0.0
  0
LINE
  5
20F
330
2D
100
AcDbEntity
  8
0
 62
     0
100
AcDbLine
 10
4.18436268312478
 20
7.1875
 30
0.0
 11
4.20578596431986
 21
7.1875
 31
0.0
  0
LINE
  5
210
330
2D
100
AcDbEntity
  8
0
 62
     0
100
AcDbLine
 10
4.134115155615204
 20
7.18125
 30
0.0
 11
4.155649133687051
 21
7.18125
 31
0.0
  0
LINE
  5
211
330
2D
100
AcDbEntity
  8
0
 62
     0
100
AcDbLine
 10
4.186754849250876
 20
7.18125
 30
0.0
 11
4.208288827322737
 21
7.18125
 31
0.0
  0
LINE
  5
212
330
2D
100
AcDbEntity
  8
0
 62
     0
100
AcDbLine
 10
4.131513831158817
 20
7.175
 30
0.0
 11
4.153164052399043
 21
7.175
 31
0.0
  0
LINE
  5
213
330
2D
100
AcDbEntity
  8
0
 62
     0
100
AcDbLine
 10
4.189239930538879
 20
7.175
 30
0.0
 11
4.210890151779121
 21
7.175
 31
0.0
  0
LINE
  5
214
330
2D
100
AcDbEntity
  8
0
 62
     0
100
AcDbLine
 10
4.128812366077735
 20
7.16875
 30
0.0
 11
4.1505846109264
 21
7.16875
 31
0.0
  0
LINE
  5
215
330
2D
100
AcDbEntity
  8
0
 62
     0
100
AcDbLine
 10
4.191819372011525
 20
7.16875
 30
0.0
 11
4.213591616860204
 21
7.16875
 31
0.0
  0
LINE
  5
216
330
2D
100
AcDbEntity
  8
0
 62
     0
100
AcDbLine
 10
4.126008975888199
 20
7.1625
 30
0.0
 11
4.147909277503027
 21
7.1625
 31
0.0
  0
LINE
  5
217
330
2D
100
AcDbEntity
  8
0
 62
     0
100
AcDbLine
 10
4.194494705434896
 20
7.1625
 30
0.0
 11
4.216395007049741
 21
7.1625
 31
0.0
  0
LINE
  5
218
330
2D
100
AcDbEntity
  8
0
 62
     0
100
AcDbLine
 10
4.123101763654189
 20
7.15625
 30
0.0
 11
4.145136428182898
 21
7.15625
 31
0.0
  0
LINE
  5
219
330
2D
100
AcDbEntity
  8
0
 62
     0
100
AcDbLine
 10
4.197267554755029
 20
7.15625
 30
0.0
 11
4.219302219283752
 21
7.15625
 31
0.0
  0
ENDBLK
  5
21A
330
2D
100
AcDbEntity
  8
0
100
AcDbBlockEnd
  0
BLOCK
  5
21B
330
2E
100
AcDbEntity
  8
0
100
AcDbBlockBegin
  2
SBBB
 70
     0
 10
0.0
 20
0.0
 30
0.0
  3
SBBB
  1

  0
TEXT
  5
21C
330
2E
100
AcDbEntity
  8
0
100
AcDbText
 10
-0.6558782172982847
 20
-0.50536529293236
 30
0.0
 40
0.156
  1
B
  7
COMPLEX
 72
     1
 11
-0.5778782172982849
 21
-0.50536529293236
 31
0.0
100
AcDbText
  0
LINE
  5
21D
330
2E
100
AcDbEntity
  8
0
100
AcDbLine
 10
-0.2292366486465216
 20
-0.4374999999999983
 30
0.0
 11
-0.2292366486465225
 21
-0.451024804847763
 31
0.0
  0
LINE
  5
21E
330
2E
100
AcDbEntity
  8
0
100
AcDbLine
 10
-0.2292366486465216
 20
-0.4074999999999998
 30
0.0
 11
-0.0149999999999988
 21
-0.4074999999999989
 31
0.0
  0
LINE
  5
21F
330
2E
100
AcDbEntity
  8
0
100
AcDbLine
 10
-0.2292366486465216
 20
-0.4374999999999992
 30
0.0
 11
0.017923002649547
 21
-0.4374999999999992
 31
0.0
  0
LINE
  5
220
330
2E
100
AcDbEntity
  8
0
100
AcDbLine
 10
-0.0299999999999994
 20
-0.4224999999999995
 30
0.0
 11
-0.0299999999999994
 21
0.0000000000000009
 31
0.0
  0
LINE
  5
221
330
2E
100
AcDbEntity
  8
0
100
AcDbLine
 10
0.0
 20
-0.4571321552628529
 30
0.0
 11
0.0
 21
0.0
 31
0.0
  0
ARC
  5
222
330
2E
100
AcDbEntity
  8
0
100
AcDbCircle
 10
-0.4486009293161688
 20
0.0774898749921995
 30
0.0
 40
0.5
100
AcDbArc
 50
269.6353711361726
 51
296.0227864572306
  0
LINE
  5
223
330
2E
100
AcDbEntity
  8
0
100
AcDbLine
 10
-0.2292366486465216
 20
-0.4374999999999992
 30
0.0
 11
-0.2292366486465216
 21
-0.4374999999999992
 31
0.0
  0
ARC
  5
224
330
2E
100
AcDbEntity
  8
0
100
AcDbCircle
 10
-0.4486009293161688
 20
-0.9224898749921965
 30
0.0
 40
0.5
100
AcDbArc
 50
63.97721354276936
 51
90.36462886382739
  0
ARC
  5
225
330
2E
100
AcDbEntity
  8
0
100
AcDbCircle
 10
-0.4486009293161688
 20
0.0774898749921995
 30
0.0
 40
0.5200000000000001
100
AcDbArc
 50
285.9464297556974
 51
294.9517180917784
  0
ARC
  5
226
330
2E
100
AcDbEntity
  8
0
100
AcDbCircle
 10
-0.4486009293161688
 20
-0.9224898749921965
 30
0.0
 40
0.5200000000000001
100
AcDbArc
 50
65.04828190822201
 51
74.0535702443027
  0
LINE
  5
227
330
2E
100
AcDbEntity
  8
0
100
AcDbLine
 10
-0.2292366486465216
 20
-0.3939751951522217
 30
0.0
 11
-0.2292366486465216
 21
-0.4074999999999998
 31
0.0
  0
LINE
  5
228
330
2E
100
AcDbEntity
  8
0
100
AcDbLine
 10
-0.2292366486465216
 20
-0.3939751951522217
 30
0.0
 11
-0.2292366486465216
 21
-0.371819942802035
 31
0.0
  0
LINE
  5
229
330
2E
100
AcDbEntity
  8
0
100
AcDbLine
 10
-0.2292366486465225
 20
-0.451024804847763
 30
0.0
 11
-0.2292366486465216
 21
-0.4731800571979621
 31
0.0
  0
INSERT
  5
22A
330
2E
100
AcDbEntity
  8
0
100
AcDbBlockReference
  2
*X19
 10
6.921648479033177
 20
3.748701991468968
 30
0.0
 41
-1.0
 50
90.0
  0
ENDBLK
  5
22B
330
2E
100
AcDbEntity
  8
0
100
AcDbBlockEnd
  0
BLOCK
  5
22C
330
2F
100
AcDbEntity
  8
0
100
AcDbBlockBegin
  2
*X19
 70
     1
 10
0.0
 20
0.0
 30
0.0
  3
*X19
  1

  0
LINE
  5
22D
330
2F
100
AcDbEntity
  8
0
 62
     0
100
AcDbLine
 10
4.158042821030212
 20
7.25625
 30
0.0
 11
4.184361161907728
 21
7.25625
 31
0.0
  0
LINE
  5
22E
330
2F
100
AcDbEntity
  8
0
 62
     0
100
AcDbLine
 10
4.159464167164085
 20
7.2625
 30
0.0
 11
4.182939815773856
 21
7.2625
 31
0.0
  0
LINE
  5
22F
330
2F
100
AcDbEntity
  8
0
 62
     0
100
AcDbLine
 10
4.160801607892522
 20
7.26875
 30
0.0
 11
4.181602375045417
 21
7.26875
 31
0.0
  0
LINE
  5
230
330
2F
100
AcDbEntity
  8
0
 62
     0
100
AcDbLine
 10
4.162055829087108
 20
7.275
 30
0.0
 11
4.180348153850832
 21
7.275
 31
0.0
  0
LINE
  5
231
330
2F
100
AcDbEntity
  8
0
 62
     0
100
AcDbLine
 10
4.163227467165616
 20
7.28125
 30
0.0
 11
4.179176515772323
 21
7.28125
 31
0.0
  0
LINE
  5
232
330
2F
100
AcDbEntity
  8
0
 62
     0
100
AcDbLine
 10
4.1643171107912
 20
7.2875
 30
0.0
 11
4.178086872146739
 21
7.2875
 31
0.0
  0
LINE
  5
233
330
2F
100
AcDbEntity
  8
0
 62
     0
100
AcDbLine
 10
4.165325302419223
 20
7.29375
 30
0.0
 11
4.177078680518715
 21
7.29375
 31
0.0
  0
LINE
  5
234
330
2F
100
AcDbEntity
  8
0
 62
     0
100
AcDbLine
 10
4.16625253970155
 20
7.3
 30
0.0
 11
4.17615144323639
 21
7.3
 31
0.0
  0
LINE
  5
235
330
2F
100
AcDbEntity
  8
0
 62
     0
100
AcDbLine
 10
4.167099276757146
 20
7.30625
 30
0.0
 11
4.175304706180795
 21
7.30625
 31
0.0
  0
LINE
  5
236
330
2F
100
AcDbEntity
  8
0
 62
     0
100
AcDbLine
 10
4.167865925316793
 20
7.3125
 30
0.0
 11
4.174538057621145
 21
7.3125
 31
0.0
  0
LINE
  5
237
330
2F
100
AcDbEntity
  8
0
 62
     0
100
AcDbLine
 10
4.16855285574882
 20
7.31875
 30
0.0
 11
4.17385112718912
 21
7.31875
 31
0.0
  0
LINE
  5
238
330
2F
100
AcDbEntity
  8
0
 62
     0
100
AcDbLine
 10
4.169160397971983
 20
7.325
 30
0.0
 11
4.173243584965957
 21
7.325
 31
0.0
  0
LINE
  5
239
330
2F
100
AcDbEntity
  8
0
 62
     0
100
AcDbLine
 10
4.169688842260835
 20
7.33125
 30
0.0
 11
4.172715140677103
 21
7.33125
 31
0.0
  0
LINE
  5
23A
330
2F
100
AcDbEntity
  8
0
 62
     0
100
AcDbLine
 10
4.170138439948251
 20
7.3375
 30
0.0
 11
4.172265542989687
 21
7.3375
 31
0.0
  0
LINE
  5
23B
330
2F
100
AcDbEntity
  8
0
 62
     0
100
AcDbLine
 10
4.170509404029122
 20
7.34375
 30
0.0
 11
4.171894578908817
 21
7.34375
 31
0.0
  0
LINE
  5
23C
330
2F
100
AcDbEntity
  8
0
 62
     0
100
AcDbLine
 10
4.170801909668647
 20
7.35
 30
0.0
 11
4.171602073269292
 21
7.35
 31
0.0
  0
LINE
  5
23D
330
2F
100
AcDbEntity
  8
0
 62
     0
100
AcDbLine
 10
4.171016094618071
 20
7.35625
 30
0.0
 11
4.171387888319867
 21
7.35625
 31
0.0
  0
LINE
  5
23E
330
2F
100
AcDbEntity
  8
0
 62
     0
100
AcDbLine
 10
4.171152059540171
 20
7.3625
 30
0.0
 11
4.171251923397766
 21
7.3625
 31
0.0
  0
LINE
  5
23F
330
2F
100
AcDbEntity
  8
0
 62
     0
100
AcDbLine
 10
4.17119411469162
 20
7.36875
 30
0.0
 11
4.171209868246319
 21
7.36875
 31
0.0
  0
LINE
  5
240
330
2F
100
AcDbEntity
  8
0
 62
     0
100
AcDbLine
 10
4.156536832302816
 20
7.25
 30
0.0
 11
4.185867150635123
 21
7.25
 31
0.0
  0
LINE
  5
241
330
2F
100
AcDbEntity
  8
0
 62
     0
100
AcDbLine
 10
4.154945410438709
 20
7.24375
 30
0.0
 11
4.187458572499231
 21
7.24375
 31
0.0
  0
LINE
  5
242
330
2F
100
AcDbEntity
  8
0
 62
     0
100
AcDbLine
 10
4.153267709311144
 20
7.2375
 30
0.0
 11
4.189136273626795
 21
7.2375
 31
0.0
  0
LINE
  5
243
330
2F
100
AcDbEntity
  8
0
 62
     0
100
AcDbLine
 10
4.151502824775956
 20
7.23125
 30
0.0
 11
4.190901158161984
 21
7.23125
 31
0.0
  0
LINE
  5
244
330
2F
100
AcDbEntity
  8
0
 62
     0
100
AcDbLine
 10
4.149649792014731
 20
7.225
 30
0.0
 11
4.170514238817704
 21
7.225
 31
0.0
  0
LINE
  5
245
330
2F
100
AcDbEntity
  8
0
 62
     0
100
AcDbLine
 10
4.17188974412022
 20
7.225
 30
0.0
 11
4.192754190923209
 21
7.225
 31
0.0
  0
LINE
  5
246
330
2F
100
AcDbEntity
  8
0
 62
     0
100
AcDbLine
 10
4.147707582635473
 20
7.21875
 30
0.0
 11
4.16865349922432
 21
7.21875
 31
0.0
  0
LINE
  5
247
330
2F
100
AcDbEntity
  8
0
 62
     0
100
AcDbLine
 10
4.173750483713604
 20
7.21875
 30
0.0
 11
4.194696400302465
 21
7.21875
 31
0.0
  0
LINE
  5
248
330
2F
100
AcDbEntity
  8
0
 62
     0
100
AcDbLine
 10
4.145675101508724
 20
7.2125
 30
0.0
 11
4.166706944063726
 21
7.2125
 31
0.0
  0
LINE
  5
249
330
2F
100
AcDbEntity
  8
0
 62
     0
100
AcDbLine
 10
4.175697038874197
 20
7.2125
 30
0.0
 11
4.196728881429214
 21
7.2125
 31
0.0
  0
LINE
  5
24A
330
2F
100
AcDbEntity
  8
0
 62
     0
100
AcDbLine
 10
4.143551183314425
 20
7.20625
 30
0.0
 11
4.164673557788107
 21
7.20625
 31
0.0
  0
LINE
  5
24B
330
2F
100
AcDbEntity
  8
0
 62
     0
100
AcDbLine
 10
4.17773042514982
 20
7.20625
 30
0.0
 11
4.198852799623516
 21
7.20625
 31
0.0
  0
LINE
  5
24C
330
2F
100
AcDbEntity
  8
0
 62
     0
100
AcDbLine
 10
4.141334588771703
 20
7.2
 30
0.0
 11
4.162552262360144
 21
7.2
 31
0.0
  0
LINE
  5
24D
330
2F
100
AcDbEntity
  8
0
 62
     0
100
AcDbLine
 10
4.179851720577784
 20
7.2
 30
0.0
 11
4.201069394166239
 21
7.2
 31
0.0
  0
LINE
  5
24E
330
2F
100
AcDbEntity
  8
0
 62
     0
100
AcDbLine
 10
4.139024000520274
 20
7.19375
 30
0.0
 11
4.160341914027816
 21
7.19375
 31
0.0
  0
LINE
  5
24F
330
2F
100
AcDbEntity
  8
0
 62
     0
100
AcDbLine
 10
4.182062068910108
 20
7.19375
 30
0.0
 11
4.203379982417666
 21
7.19375
 31
0.0
  0
LINE
  5
250
330
2F
100
AcDbEntity
  8
0
 62
     0
100
AcDbLine
 10
4.136618018618079
 20
7.1875
 30
0.0
 11
4.158041299813144
 21
7.1875
 31
0.0
  0
LINE
  5
251
330
2F
100
AcDbEntity
  8
0
 62
     0
100
AcDbLine
 10
4.18436268312478
 20
7.1875
 30
0.0
 11
4.20578596431986
 21
7.1875
 31
0.0
  0
LINE
  5
252
330
2F
100
AcDbEntity
  8
0
 62
     0
100
AcDbLine
 10
4.134115155615204
 20
7.18125
 30
0.0
 11
4.155649133687051
 21
7.18125
 31
0.0
  0
LINE
  5
253
330
2F
100
AcDbEntity
  8
0
 62
     0
100
AcDbLine
 10
4.186754849250876
 20
7.18125
 30
0.0
 11
4.208288827322737
 21
7.18125
 31
0.0
  0
LINE
  5
254
330
2F
100
AcDbEntity
  8
0
 62
     0
100
AcDbLine
 10
4.131513831158817
 20
7.175
 30
0.0
 11
4.153164052399043
 21
7.175
 31
0.0
  0
LINE
  5
255
330
2F
100
AcDbEntity
  8
0
 62
     0
100
AcDbLine
 10
4.189239930538879
 20
7.175
 30
0.0
 11
4.210890151779121
 21
7.175
 31
0.0
  0
LINE
  5
256
330
2F
100
AcDbEntity
  8
0
 62
     0
100
AcDbLine
 10
4.128812366077735
 20
7.16875
 30
0.0
 11
4.1505846109264
 21
7.16875
 31
0.0
  0
LINE
  5
257
330
2F
100
AcDbEntity
  8
0
 62
     0
100
AcDbLine
 10
4.191819372011525
 20
7.16875
 30
0.0
 11
4.213591616860204
 21
7.16875
 31
0.0
  0
LINE
  5
258
330
2F
100
AcDbEntity
  8
0
 62
     0
100
AcDbLine
 10
4.126008975888199
 20
7.1625
 30
0.0
 11
4.147909277503027
 21
7.1625
 31
0.0
  0
LINE
  5
259
330
2F
100
AcDbEntity
  8
0
 62
     0
100
AcDbLine
 10
4.194494705434896
 20
7.1625
 30
0.0
 11
4.216395007049741
 21
7.1625
 31
0.0
  0
LINE
  5
25A
330
2F
100
AcDbEntity
  8
0
 62
     0
100
AcDbLine
 10
4.123101763654189
 20
7.15625
 30
0.0
 11
4.145136428182898
 21
7.15625
 31
0.0
  0
LINE
  5
25B
330
2F
100
AcDbEntity
  8
0
 62
     0
100
AcDbLine
 10
4.197267554755029
 20
7.15625
 30
0.0
 11
4.219302219283752
 21
7.15625
 31
0.0
  0
ENDBLK
  5
25C
330
2F
100
AcDbEntity
  8
0
100
AcDbBlockEnd
  0
BLOCK
  5
25D
330
30
100
AcDbEntity
  8
0
100
AcDbBlockBegin
  2
SBBTX
 70
     0
 10
0.0
 20
0.0
 30
0.0
  3
SBBTX
  1

  0
LINE
  5
25E
330
30
100
AcDbEntity
  8
0
100
AcDbLine
 10
-0.8421662700371435
 20
0.0199999999999996
 30
0.0
 11
0.8421662700371435
 21
0.0199999999999996
 31
0.0
  0
LINE
  5
25F
330
30
100
AcDbEntity
  8
0
100
AcDbLine
 10
-0.8421662700371435
 20
0.0
 30
0.0
 11
0.8421662700371435
 21
0.0
 31
0.0
  0
TEXT
  5
260
330
30
100
AcDbEntity
  8
0
100
AcDbText
 10
-0.8455144018028244
 20
0.0554512145058732
 30
0.0
 40
0.156
  1
SECTION B-B
  7
COMPLEX
100
AcDbText
  0
ENDBLK
  5
261
330
30
100
AcDbEntity
  8
0
100
AcDbBlockEnd
  0
BLOCK
  5
262
330
31
100
AcDbEntity
  8
0
100
AcDbBlockBegin
  2
SAATX
 70
     0
 10
0.0
 20
0.0
 30
0.0
  3
SAATX
  1

  0
LINE
  5
263
330
31
100
AcDbEntity
  8
0
100
AcDbLine
 10
-0.8421662700371435
 20
0.0
 30
0.0
 11
0.8421662700371435
 21
0.0
 31
0.0
  0
LINE
  5
264
330
31
100
AcDbEntity
  8
0
100
AcDbLine
 10
-0.8421662700371435
 20
0.0199999999999996
 30
0.0
 11
0.8421662700371435
 21
0.0199999999999996
 31
0.0
  0
TEXT
  5
265
330
31
100
AcDbEntity
  8
0
100
AcDbText
 10
-0.8455144018028244
 20
0.0551412039750448
 30
0.0
 40
0.156
  1
SECTION A-A
  7
COMPLEX
100
AcDbText
  0
ENDBLK
  5
266
330
31
100
AcDbEntity
  8
0
100
AcDbBlockEnd
  0
BLOCK
  5
BD3
330
BD1
100
AcDbEntity
  8
0
100
AcDbBlockBegin
  2
GENAXEH
 70
     0
 10
0.0
 20
0.0
 30
0.0
  3
GENAXEH
  1

  0
LINE
  5
BD2
330
BD1
100
AcDbEntity
  8
0
100
AcDbLine
 10
-1.0
 20
0.0
 30
0.0
 11
1.0
 21
0.0
 31
0.0
  0
ENDBLK
  5
BD4
330
BD1
100
AcDbEntity
  8
0
100
AcDbBlockEnd
  0
BLOCK
  5
C1C
330
C11
100
AcDbEntity
  8
0
100
AcDbBlockBegin
  2
*D24
 70
     1
 10
0.0
 20
0.0
 30
0.0
  3
*D24
  1

  0
LINE
  5
D8E
330
C11
100
AcDbEntity
  8
DIM
 62
     0
440
 16777216
370
    -2
100
AcDbLine
 10
10.48339193467093
 20
25.8393712831599
 30
0.0
 11
4.360337872309708
 21
25.8393712831599
 31
0.0
  0
LINE
  5
D8F
330
C11
100
AcDbEntity
  8
DIM
 62
     0
440
 16777216
370
    -2
100
AcDbLine
 10
10.48339193467093
 20
32.4643712831599
 30
0.0
 11
4.36033787230971
 21
32.4643712831599
 31
0.0
  0
LINE
  5
D90
330
C11
100
AcDbEntity
  8
DIM
 62
     0
440
 16777216
370
    -2
100
AcDbLine
 10
4.547837872309709
 20
26.0268712831599
 30
0.0
 11
4.547837872309709
 21
28.91619877365596
 31
0.0
  0
LINE
  5
D91
330
C11
100
AcDbEntity
  8
DIM
 62
     0
440
 16777216
370
    -2
100
AcDbLine
 10
4.54783787230971
 20
32.2768712831599
 30
0.0
 11
4.547837872309709
 21
29.47119877365596
 31
0.0
  0
SOLID
  5
D92
330
C11
100
AcDbEntity
  8
DIM
 62
     0
440
 16777216
100
AcDbTrace
 10
4.516587872309709
 20
26.0268712831599
 30
0.0
 11
4.579087872309709
 21
26.0268712831599
 31
0.0
 12
4.547837872309708
 22
25.8393712831599
 32
0.0
 13
4.547837872309708
 23
25.8393712831599
 33
0.0
  0
SOLID
  5
D93
330
C11
100
AcDbEntity
  8
DIM
 62
     0
440
 16777216
100
AcDbTrace
 10
4.51658787230971
 20
32.2768712831599
 30
0.0
 11
4.57908787230971
 21
32.2768712831599
 31
0.0
 12
4.54783787230971
 22
32.4643712831599
 32
0.0
 13
4.54783787230971
 23
32.4643712831599
 33
0.0
  0
MTEXT
  5
D94
330
C11
100
AcDbEntity
  8
DIM
 62
     0
440
 16777216
100
AcDbMText
 10
4.547837872309704
 20
29.19369877365596
 30
0.0
 40
0.18
 41
0.0
 46
0.0
 71
     5
 72
     1
  1
\A1;6 5/8
 73
     1
 44
1.0
  0
POINT
  5
D95
330
C11
100
AcDbEntity
  8
DEFPOINTS
 62
     0
440
 16777216
100
AcDbPoint
 10
10.57714193467093
 20
25.8393712831599
 30
0.0
  0
POINT
  5
D96
330
C11
100
AcDbEntity
  8
DEFPOINTS
 62
     0
440
 16777216
100
AcDbPoint
 10
10.57714193467093
 20
32.4643712831599
 30
0.0
  0
POINT
  5
D97
330
C11
100
AcDbEntity
  8
DEFPOINTS
 62
     0
440
 16777216
100
AcDbPoint
 10
4.54783787230971
 20
32.4643712831599
 30
0.0
  0
ENDBLK
  5
C1D
330
C11
100
AcDbEntity
  8
0
100
AcDbBlockEnd
  0
BLOCK
  5
C29
330
C1E
100
AcDbEntity
  8
0
100
AcDbBlockBegin
  2
*D25
 70
     1
 10
0.0
 20
0.0
 30
0.0
  3
*D25
  1

  0
LINE
  5
CAC
330
C1E
100
AcDbEntity
  8
DIM
 62
     0
440
 16777216
370
    -2
100
AcDbLine
 10
14.07714193467093
 20
32.2456212831599
 30
0.0
 11
14.07714193467093
 21
34.9970438448018
 31
0.0
  0
LINE
  5
CAD
330
C1E
100
AcDbEntity
  8
DIM
 62
     0
440
 16777216
370
    -2
100
AcDbLine
 10
10.26464193467093
 20
32.2456212831599
 30
0.0
 11
10.26464193467093
 21
34.9970438448018
 31
0.0
  0
LINE
  5
CAE
330
C1E
100
AcDbEntity
  8
DIM
 62
     0
440
 16777216
370
    -2
100
AcDbLine
 10
13.88964193467093
 20
34.8095438448018
 30
0.0
 11
12.89839193467093
 21
34.8095438448018
 31
0.0
  0
LINE
  5
CAF
330
C1E
100
AcDbEntity
  8
DIM
 62
     0
440
 16777216
370
    -2
100
AcDbLine
 10
10.45214193467093
 20
34.8095438448018
 30
0.0
 11
11.44339193467093
 21
34.8095438448018
 31
0.0
  0
SOLID
  5
CB0
330
C1E
100
AcDbEntity
  8
DIM
 62
     0
440
 16777216
100
AcDbTrace
 10
13.88964193467093
 20
34.8407938448018
 30
0.0
 11
13.88964193467093
 21
34.77829384480179
 31
0.0
 12
14.07714193467093
 22
34.8095438448018
 32
0.0
 13
14.07714193467093
 23
34.8095438448018
 33
0.0
  0
SOLID
  5
CB1
330
C1E
100
AcDbEntity
  8
DIM
 62
     0
440
 16777216
100
AcDbTrace
 10
10.45214193467093
 20
34.8407938448018
 30
0.0
 11
10.45214193467093
 21
34.77829384480179
 31
0.0
 12
10.26464193467093
 22
34.8095438448018
 32
0.0
 13
10.26464193467093
 23
34.8095438448018
 33
0.0
  0
MTEXT
  5
CB2
330
C1E
100
AcDbEntity
  8
DIM
 62
     0
440
 16777216
100
AcDbMText
 10
12.17089193467093
 20
34.8095438448018
 30
0.0
 40
0.18
 41
0.0
 46
0.0
 71
     5
 72
     1
  1
\A1;3 13/16
 73
     1
 44
1.0
  0
POINT
  5
CB3
330
C1E
100
AcDbEntity
  8
DEFPOINTS
 62
     0
440
 16777216
100
AcDbPoint
 10
14.07714193467093
 20
32.1518712831599
 30
0.0
  0
POINT
  5
CB4
330
C1E
100
AcDbEntity
  8
DEFPOINTS
 62
     0
440
 16777216
100
AcDbPoint
 10
10.26464193467093
 20
32.1518712831599
 30
0.0
  0
POINT
  5
CB5
330
C1E
100
AcDbEntity
  8
DEFPOINTS
 62
     0
440
 16777216
100
AcDbPoint
 10
10.26464193467093
 20
34.8095438448018
 30
0.0
  0
ENDBLK
  5
C2A
330
C1E
100
AcDbEntity
  8
0
100
AcDbBlockEnd
  0
BLOCK
  5
C36
330
C2B
100
AcDbEntity
  8
0
100
AcDbBlockBegin
  2
*D26
 70
     1
 10
0.0
 20
0.0
 30
0.0
  3
*D26
  1

  0
LINE
  5
CB6
330
C2B
100
AcDbEntity
  8
DIM
 62
     0
440
 16777216
370
    -2
100
AcDbLine
 10
13.42089193467093
 20
31.9018712831599
 30
0.0
 11
13.42089193467093
 21
34.16308559142758
 31
0.0
  0
LINE
  5
CB7
330
C2B
100
AcDbEntity
  8
DIM
 62
     0
440
 16777216
370
    -2
100
AcDbLine
 10
10.92089193467093
 20
31.9018712831599
 30
0.0
 11
10.92089193467093
 21
34.16308559142758
 31
0.0
  0
LINE
  5
CB8
330
C2B
100
AcDbEntity
  8
DIM
 62
     0
440
 16777216
370
    -2
100
AcDbLine
 10
13.23339193467093
 20
33.97558559142757
 30
0.0
 11
12.74839193467093
 21
33.97558559142757
 31
0.0
  0
LINE
  5
CB9
330
C2B
100
AcDbEntity
  8
DIM
 62
     0
440
 16777216
370
    -2
100
AcDbLine
 10
11.10839193467093
 20
33.97558559142757
 30
0.0
 11
11.59339193467093
 21
33.97558559142757
 31
0.0
  0
SOLID
  5
CBA
330
C2B
100
AcDbEntity
  8
DIM
 62
     0
440
 16777216
100
AcDbTrace
 10
13.23339193467093
 20
34.00683559142758
 30
0.0
 11
13.23339193467093
 21
33.94433559142758
 31
0.0
 12
13.42089193467093
 22
33.97558559142757
 32
0.0
 13
13.42089193467093
 23
33.97558559142757
 33
0.0
  0
SOLID
  5
CBB
330
C2B
100
AcDbEntity
  8
DIM
 62
     0
440
 16777216
100
AcDbTrace
 10
11.10839193467093
 20
34.00683559142758
 30
0.0
 11
11.10839193467093
 21
33.94433559142758
 31
0.0
 12
10.92089193467093
 22
33.97558559142757
 32
0.0
 13
10.92089193467093
 23
33.97558559142757
 33
0.0
  0
MTEXT
  5
CBC
330
C2B
100
AcDbEntity
  8
DIM
 62
     0
440
 16777216
100
AcDbMText
 10
12.17089193467093
 20
33.97558559142757
 30
0.0
 40
0.18
 41
0.0
 46
0.0
 71
     5
 72
     1
  1
\A1;2 1/2
 73
     1
 44
1.0
  0
POINT
  5
CBD
330
C2B
100
AcDbEntity
  8
DEFPOINTS
 62
     0
440
 16777216
100
AcDbPoint
 10
13.42089193467093
 20
31.8081212831599
 30
0.0
  0
POINT
  5
CBE
330
C2B
100
AcDbEntity
  8
DEFPOINTS
 62
     0
440
 16777216
100
AcDbPoint
 10
10.92089193467093
 20
31.8081212831599
 30
0.0
  0
POINT
  5
CBF
330
C2B
100
AcDbEntity
  8
DEFPOINTS
 62
     0
440
 16777216
100
AcDbPoint
 10
10.92089193467093
 20
33.97558559142757
 30
0.0
  0
ENDBLK
  5
C37
330
C2B
100
AcDbEntity
  8
0
100
AcDbBlockEnd
  0
BLOCK
  5
C43
330
C38
100
AcDbEntity
  8
0
100
AcDbBlockBegin
  2
*D27
 70
     1
 10
0.0
 20
0.0
 30
0.0
  3
*D27
  1

  0
LINE
  5
D84
330
C38
100
AcDbEntity
  8
DIM
 62
     0
440
 16777216
370
    -2
100
AcDbLine
 10
10.82714193467093
 20
31.8081212831599
 30
0.0
 11
5.826308408706986
 21
31.8081212831599
 31
0.0
  0
LINE
  5
D85
330
C38
100
AcDbEntity
  8
DIM
 62
     0
440
 16777216
370
    -2
100
AcDbLine
 10
10.82714193467093
 20
26.4956212831599
 30
0.0
 11
5.826308408706985
 21
26.4956212831599
 31
0.0
  0
LINE
  5
D86
330
C38
100
AcDbEntity
  8
DIM
 62
     0
440
 16777216
370
    -2
100
AcDbLine
 10
6.013808408706986
 20
31.6206212831599
 30
0.0
 11
6.013808408706985
 21
29.42861825853018
 31
0.0
  0
LINE
  5
D87
330
C38
100
AcDbEntity
  8
DIM
 62
     0
440
 16777216
370
    -2
100
AcDbLine
 10
6.013808408706985
 20
26.6831212831599
 30
0.0
 11
6.013808408706985
 21
28.87361825853018
 31
0.0
  0
SOLID
  5
D88
330
C38
100
AcDbEntity
  8
DIM
 62
     0
440
 16777216
100
AcDbTrace
 10
5.982558408706986
 20
31.6206212831599
 30
0.0
 11
6.045058408706986
 21
31.6206212831599
 31
0.0
 12
6.013808408706986
 22
31.8081212831599
 32
0.0
 13
6.013808408706986
 23
31.8081212831599
 33
0.0
  0
SOLID
  5
D89
330
C38
100
AcDbEntity
  8
DIM
 62
     0
440
 16777216
100
AcDbTrace
 10
5.982558408706985
 20
26.6831212831599
 30
0.0
 11
6.045058408706985
 21
26.6831212831599
 31
0.0
 12
6.013808408706985
 22
26.4956212831599
 32
0.0
 13
6.013808408706985
 23
26.4956212831599
 33
0.0
  0
MTEXT
  5
D8A
330
C38
100
AcDbEntity
  8
DIM
 62
     0
440
 16777216
100
AcDbMText
 10
6.013808408706981
 20
29.15111825853017
 30
0.0
 40
0.18
 41
0.0
 46
0.0
 71
     5
 72
     1
  1
\A1;5 5/16
 73
     1
 44
1.0
  0
POINT
  5
D8B
330
C38
100
AcDbEntity
  8
DEFPOINTS
 62
     0
440
 16777216
100
AcDbPoint
 10
10.92089193467093
 20
31.8081212831599
 30
0.0
  0
POINT
  5
D8C
330
C38
100
AcDbEntity
  8
DEFPOINTS
 62
     0
440
 16777216
100
AcDbPoint
 10
10.92089193467093
 20
26.4956212831599
 30
0.0
  0
POINT
  5
D8D
330
C38
100
AcDbEntity
  8
DEFPOINTS
 62
     0
440
 16777216
100
AcDbPoint
 10
6.013808408706985
 20
26.4956212831599
 30
0.0
  0
ENDBLK
  5
C44
330
C38
100
AcDbEntity
  8
0
100
AcDbBlockEnd
  0
BLOCK
  5
C50
330
C45
100
AcDbEntity
  8
0
100
AcDbBlockBegin
  2
*D28
 70
     1
 10
0.0
 20
0.0
 30
0.0
  3
*D28
  1

  0
LINE
  5
D07
330
C45
100
AcDbEntity
  8
DIM
 62
     0
440
 16777216
370
    -2
100
AcDbLine
 10
13.79913619783674
 20
12.75715510530871
 30
0.0
 11
15.89717535557511
 21
12.75715510530871
 31
0.0
  0
LINE
  5
D08
330
C45
100
AcDbEntity
  8
DIM
 62
     0
440
 16777216
370
    -2
100
AcDbLine
 10
14.09525854959285
 20
16.45965510530871
 30
0.0
 11
15.89717535557511
 21
16.45965510530871
 31
0.0
  0
LINE
  5
D09
330
C45
100
AcDbEntity
  8
DIM
 62
     0
440
 16777216
370
    -2
100
AcDbLine
 10
15.7096753555751
 20
12.94465510530871
 30
0.0
 11
15.7096753555751
 21
14.33090510530871
 31
0.0
  0
LINE
  5
D0A
330
C45
100
AcDbEntity
  8
DIM
 62
     0
440
 16777216
370
    -2
100
AcDbLine
 10
15.7096753555751
 20
16.27215510530871
 30
0.0
 11
15.7096753555751
 21
14.88590510530871
 31
0.0
  0
SOLID
  5
D0B
330
C45
100
AcDbEntity
  8
DIM
 62
     0
440
 16777216
100
AcDbTrace
 10
15.67842535557511
 20
12.94465510530871
 30
0.0
 11
15.74092535557511
 21
12.94465510530871
 31
0.0
 12
15.7096753555751
 22
12.75715510530871
 32
0.0
 13
15.7096753555751
 23
12.75715510530871
 33
0.0
  0
SOLID
  5
D0C
330
C45
100
AcDbEntity
  8
DIM
 62
     0
440
 16777216
100
AcDbTrace
 10
15.67842535557511
 20
16.27215510530871
 30
0.0
 11
15.74092535557511
 21
16.27215510530871
 31
0.0
 12
15.7096753555751
 22
16.45965510530871
 32
0.0
 13
15.7096753555751
 23
16.45965510530871
 33
0.0
  0
MTEXT
  5
D0D
330
C45
100
AcDbEntity
  8
DIM
 62
     0
440
 16777216
100
AcDbMText
 10
15.7096753555751
 20
14.60840510530871
 30
0.0
 40
0.18
 41
0.0
 46
0.0
 71
     5
 72
     1
  1
\A1;3 11/16
 73
     1
 44
1.0
  0
POINT
  5
D0E
330
C45
100
AcDbEntity
  8
DEFPOINTS
 62
     0
440
 16777216
100
AcDbPoint
 10
13.70538619783674
 20
12.75715510530871
 30
0.0
  0
POINT
  5
D0F
330
C45
100
AcDbEntity
  8
DEFPOINTS
 62
     0
440
 16777216
100
AcDbPoint
 10
14.00150854959285
 20
16.45965510530871
 30
0.0
  0
POINT
  5
D10
330
C45
100
AcDbEntity
  8
DEFPOINTS
 62
     0
440
 16777216
100
AcDbPoint
 10
15.7096753555751
 20
16.45965510530871
 30
0.0
  0
ENDBLK
  5
C51
330
C45
100
AcDbEntity
  8
0
100
AcDbBlockEnd
  0
BLOCK
  5
C5E
330
C52
100
AcDbEntity
  8
0
100
AcDbBlockBegin
  2
*D29
 70
     1
 10
0.0
 20
0.0
 30
0.0
  3
*D29
  1

  0
LINE
  5
D79
330
C52
100
AcDbEntity
  8
DIM
 62
     0
440
 16777216
370
    -2
100
AcDbLine
 10
9.662056179291969
 20
29.1518712831599
 30
0.0
 11
8.018625705709734
 21
29.1518712831599
 31
0.0
  0
LINE
  5
D7A
330
C52
100
AcDbEntity
  8
DIM
 62
     0
440
 16777216
370
    -2
100
AcDbLine
 10
11.32714193467093
 20
28.0268712831599
 30
0.0
 11
8.018625705709734
 21
28.0268712831599
 31
0.0
  0
LINE
  5
D7B
330
C52
100
AcDbEntity
  8
DIM
 62
     0
440
 16777216
370
    -2
100
AcDbLine
 10
8.206125705709734
 20
29.3393712831599
 30
0.0
 11
8.206125705709734
 21
29.5268712831599
 31
0.0
  0
LINE
  5
D7C
330
C52
100
AcDbEntity
  8
DIM
 62
     0
440
 16777216
370
    -2
100
AcDbLine
 10
8.206125705709732
 20
27.8393712831599
 30
0.0
 11
8.206125705709732
 21
27.6518712831599
 31
0.0
  0
LINE
  5
D7D
330
C52
100
AcDbEntity
  8
DIM
 62
     0
440
 16777216
370
    -2
100
AcDbLine
 10
8.206125705709732
 20
27.6518712831599
 30
0.0
 11
8.018625705709732
 21
27.6518712831599
 31
0.0
  0
SOLID
  5
D7E
330
C52
100
AcDbEntity
  8
DIM
 62
     0
440
 16777216
100
AcDbTrace
 10
8.174875705709734
 20
29.3393712831599
 30
0.0
 11
8.237375705709734
 21
29.3393712831599
 31
0.0
 12
8.206125705709734
 22
29.1518712831599
 32
0.0
 13
8.206125705709734
 23
29.1518712831599
 33
0.0
  0
SOLID
  5
D7F
330
C52
100
AcDbEntity
  8
DIM
 62
     0
440
 16777216
100
AcDbTrace
 10
8.174875705709732
 20
27.8393712831599
 30
0.0
 11
8.237375705709732
 21
27.8393712831599
 31
0.0
 12
8.206125705709734
 22
28.0268712831599
 32
0.0
 13
8.206125705709734
 23
28.0268712831599
 33
0.0
  0
MTEXT
  5
D80
330
C52
100
AcDbEntity
  8
DIM
 62
     0
440
 16777216
100
AcDbMText
 10
7.471125705709728
 20
27.6518712831599
 30
0.0
 40
0.18
 41
0.0
 46
0.0
 71
     5
 72
     1
  1
\A1;1 1/8
 73
     1
 44
1.0
  0
POINT
  5
D81
330
C52
100
AcDbEntity
  8
DEFPOINTS
 62
     0
440
 16777216
100
AcDbPoint
 10
9.755806179291969
 20
29.1518712831599
 30
0.0
  0
POINT
  5
D82
330
C52
100
AcDbEntity
  8
DEFPOINTS
 62
     0
440
 16777216
100
AcDbPoint
 10
11.42089193467094
 20
28.0268712831599
 30
0.0
  0
POINT
  5
D83
330
C52
100
AcDbEntity
  8
DEFPOINTS
 62
     0
440
 16777216
100
AcDbPoint
 10
8.206125705709734
 20
28.0268712831599
 30
0.0
  0
ENDBLK
  5
C5F
330
C52
100
AcDbEntity
  8
0
100
AcDbBlockEnd
  0
BLOCK
  5
C6C
330
C60
100
AcDbEntity
  8
0
100
AcDbBlockBegin
  2
*D30
 70
     1
 10
0.0
 20
0.0
 30
0.0
  3
*D30
  1

  0
LINE
  5
D6E
330
C60
100
AcDbEntity
  8
DIM
 62
     0
440
 16777216
370
    -2
100
AcDbLine
 10
9.568306179291969
 20
29.1518712831599
 30
0.0
 11
7.249366267445697
 21
29.1518712831599
 31
0.0
  0
LINE
  5
D6F
330
C60
100
AcDbEntity
  8
DIM
 62
     0
440
 16777216
370
    -2
100
AcDbLine
 10
11.32714193467093
 20
30.2768712831599
 30
0.0
 11
7.249366267445698
 21
30.2768712831599
 31
0.0
  0
LINE
  5
D70
330
C60
100
AcDbEntity
  8
DIM
 62
     0
440
 16777216
370
    -2
100
AcDbLine
 10
7.436866267445697
 20
28.9643712831599
 30
0.0
 11
7.436866267445697
 21
28.7768712831599
 31
0.0
  0
LINE
  5
D71
330
C60
100
AcDbEntity
  8
DIM
 62
     0
440
 16777216
370
    -2
100
AcDbLine
 10
7.436866267445698
 20
30.4643712831599
 30
0.0
 11
7.436866267445698
 21
30.65187128315991
 31
0.0
  0
LINE
  5
D72
330
C60
100
AcDbEntity
  8
DIM
 62
     0
440
 16777216
370
    -2
100
AcDbLine
 10
7.436866267445698
 20
30.65187128315991
 30
0.0
 11
7.624366267445698
 21
30.65187128315991
 31
0.0
  0
SOLID
  5
D73
330
C60
100
AcDbEntity
  8
DIM
 62
     0
440
 16777216
100
AcDbTrace
 10
7.405616267445697
 20
28.9643712831599
 30
0.0
 11
7.468116267445697
 21
28.9643712831599
 31
0.0
 12
7.436866267445697
 22
29.1518712831599
 32
0.0
 13
7.436866267445697
 23
29.1518712831599
 33
0.0
  0
SOLID
  5
D74
330
C60
100
AcDbEntity
  8
DIM
 62
     0
440
 16777216
100
AcDbTrace
 10
7.405616267445698
 20
30.4643712831599
 30
0.0
 11
7.468116267445698
 21
30.4643712831599
 31
0.0
 12
7.436866267445698
 22
30.2768712831599
 32
0.0
 13
7.436866267445698
 23
30.2768712831599
 33
0.0
  0
MTEXT
  5
D75
330
C60
100
AcDbEntity
  8
DIM
 62
     0
440
 16777216
100
AcDbMText
 10
8.171866267445693
 20
30.65187128315991
 30
0.0
 40
0.18
 41
0.0
 46
0.0
 71
     5
 72
     1
  1
\A1;1 1/8
 73
     1
 44
1.0
  0
POINT
  5
D76
330
C60
100
AcDbEntity
  8
DEFPOINTS
 62
     0
440
 16777216
100
AcDbPoint
 10
9.662056179291969
 20
29.1518712831599
 30
0.0
  0
POINT
  5
D77
330
C60
100
AcDbEntity
  8
DEFPOINTS
 62
     0
440
 16777216
100
AcDbPoint
 10
11.42089193467093
 20
30.2768712831599
 30
0.0
  0
POINT
  5
D78
330
C60
100
AcDbEntity
  8
DEFPOINTS
 62
     0
440
 16777216
100
AcDbPoint
 10
7.436866267445698
 20
30.2768712831599
 30
0.0
  0
ENDBLK
  5
C6D
330
C60
100
AcDbEntity
  8
0
100
AcDbBlockEnd
  0
BLOCK
  5
C79
330
C6E
100
AcDbEntity
  8
0
100
AcDbBlockBegin
  2
*D31
 70
     1
 10
0.0
 20
0.0
 30
0.0
  3
*D31
  1

  0
LINE
  5
D2C
330
C6E
100
AcDbEntity
  8
DIM
 62
     0
440
 16777216
370
    -2
100
AcDbLine
 10
13.89288619783674
 20
12.75715510530871
 30
0.0
 11
17.49403611843642
 21
12.75715510530871
 31
0.0
  0
LINE
  5
D2D
330
C6E
100
AcDbEntity
  8
DIM
 62
     0
440
 16777216
370
    -2
100
AcDbLine
 10
13.51464193467093
 20
16.6471551053087
 30
0.0
 11
17.49403611843642
 21
16.6471551053087
 31
0.0
  0
LINE
  5
D2E
330
C6E
100
AcDbEntity
  8
DIM
 62
     0
440
 16777216
370
    -2
100
AcDbLine
 10
17.30653611843642
 20
12.94465510530871
 30
0.0
 11
17.30653611843642
 21
14.42465510530871
 31
0.0
  0
LINE
  5
D2F
330
C6E
100
AcDbEntity
  8
DIM
 62
     0
440
 16777216
370
    -2
100
AcDbLine
 10
17.30653611843642
 20
16.4596551053087
 30
0.0
 11
17.30653611843642
 21
14.97965510530871
 31
0.0
  0
SOLID
  5
D30
330
C6E
100
AcDbEntity
  8
DIM
 62
     0
440
 16777216
100
AcDbTrace
 10
17.27528611843642
 20
12.94465510530871
 30
0.0
 11
17.33778611843642
 21
12.94465510530871
 31
0.0
 12
17.30653611843642
 22
12.75715510530871
 32
0.0
 13
17.30653611843642
 23
12.75715510530871
 33
0.0
  0
SOLID
  5
D31
330
C6E
100
AcDbEntity
  8
DIM
 62
     0
440
 16777216
100
AcDbTrace
 10
17.27528611843642
 20
16.4596551053087
 30
0.0
 11
17.33778611843642
 21
16.4596551053087
 31
0.0
 12
17.30653611843642
 22
16.6471551053087
 32
0.0
 13
17.30653611843642
 23
16.6471551053087
 33
0.0
  0
MTEXT
  5
D32
330
C6E
100
AcDbEntity
  8
DIM
 62
     0
440
 16777216
100
AcDbMText
 10
17.30653611843642
 20
14.70215510530871
 30
0.0
 40
0.18
 41
0.0
 46
0.0
 71
     5
 72
     1
  1
\A1;3 7/8
 73
     1
 44
1.0
  0
POINT
  5
D33
330
C6E
100
AcDbEntity
  8
DEFPOINTS
 62
     0
440
 16777216
100
AcDbPoint
 10
13.79913619783674
 20
12.75715510530871
 30
0.0
  0
POINT
  5
D34
330
C6E
100
AcDbEntity
  8
DEFPOINTS
 62
     0
440
 16777216
100
AcDbPoint
 10
13.42089193467093
 20
16.6471551053087
 30
0.0
  0
POINT
  5
D35
330
C6E
100
AcDbEntity
  8
DEFPOINTS
 62
     0
440
 16777216
100
AcDbPoint
 10
17.30653611843642
 20
16.6471551053087
 30
0.0
  0
ENDBLK
  5
C7A
330
C6E
100
AcDbEntity
  8
0
100
AcDbBlockEnd
  0
BLOCK
  5
C86
330
C7B
100
AcDbEntity
  8
0
100
AcDbBlockBegin
  2
*D32
 70
     1
 10
0.0
 20
0.0
 30
0.0
  3
*D32
  1

  0
LINE
  5
C7C
330
C7B
100
AcDbEntity
  8
DIM
 62
     0
440
 16777216
370
    -2
100
AcDbLine
 10
50.20323117856605
 20
31.12224758690882
 30
0.0
 11
51.60615812645631
 21
31.12224758690882
 31
0.0
  0
LINE
  5
C7D
330
C7B
100
AcDbEntity
  8
DIM
 62
     0
440
 16777216
370
    -2
100
AcDbLine
 10
50.20323117856605
 20
26.99327117357409
 30
0.0
 11
51.60615812645631
 21
26.99327117357409
 31
0.0
  0
LINE
  5
C7E
330
C7B
100
AcDbEntity
  8
DIM
 62
     0
440
 16777216
370
    -2
100
AcDbLine
 10
51.41865812645631
 20
30.93474758690882
 30
0.0
 11
51.41865812645631
 21
29.33525938024145
 31
0.0
  0
LINE
  5
C7F
330
C7B
100
AcDbEntity
  8
DIM
 62
     0
440
 16777216
370
    -2
100
AcDbLine
 10
51.41865812645631
 20
27.18077117357409
 30
0.0
 11
51.41865812645631
 21
28.78025938024146
 31
0.0
  0
SOLID
  5
C80
330
C7B
100
AcDbEntity
  8
DIM
 62
     0
440
 16777216
100
AcDbTrace
 10
51.38740812645631
 20
30.93474758690882
 30
0.0
 11
51.44990812645631
 21
30.93474758690882
 31
0.0
 12
51.41865812645631
 22
31.12224758690882
 32
0.0
 13
51.41865812645631
 23
31.12224758690882
 33
0.0
  0
SOLID
  5
C81
330
C7B
100
AcDbEntity
  8
DIM
 62
     0
440
 16777216
100
AcDbTrace
 10
51.38740812645631
 20
27.18077117357409
 30
0.0
 11
51.44990812645631
 21
27.18077117357409
 31
0.0
 12
51.41865812645631
 22
26.99327117357409
 32
0.0
 13
51.41865812645631
 23
26.99327117357409
 33
0.0
  0
MTEXT
  5
C82
330
C7B
100
AcDbEntity
  8
DIM
 62
     0
440
 16777216
100
AcDbMText
 10
51.4186581264563
 20
29.05775938024146
 30
0.0
 40
0.18
 41
0.0
 46
0.0
 71
     5
 72
     1
  1
\A1;4 1/8
 73
     1
 44
1.0
  0
POINT
  5
C83
330
C7B
100
AcDbEntity
  8
DEFPOINTS
 62
     0
440
 16777216
100
AcDbPoint
 10
50.10948117856606
 20
31.12224758690882
 30
0.0
  0
POINT
  5
C84
330
C7B
100
AcDbEntity
  8
DEFPOINTS
 62
     0
440
 16777216
100
AcDbPoint
 10
50.10948117856606
 20
26.99327117357409
 30
0.0
  0
POINT
  5
C85
330
C7B
100
AcDbEntity
  8
DEFPOINTS
 62
     0
440
 16777216
100
AcDbPoint
 10
51.41865812645631
 20
26.99327117357409
 30
0.0
  0
ENDBLK
  5
C87
330
C7B
100
AcDbEntity
  8
0
100
AcDbBlockEnd
  0
BLOCK
  5
C93
330
C88
100
AcDbEntity
  8
0
100
AcDbBlockBegin
  2
*D33
 70
     1
 10
0.0
 20
0.0
 30
0.0
  3
*D33
  1

  0
LINE
  5
C89
330
C88
100
AcDbEntity
  8
DIM
 62
     0
440
 16777216
370
    -2
100
AcDbLine
 10
50.14182195396839
 20
26.05452463612837
 30
0.0
 11
53.83620035983746
 21
26.05452463612837
 31
0.0
  0
LINE
  5
C8A
330
C88
100
AcDbEntity
  8
DIM
 62
     0
440
 16777216
370
    -2
100
AcDbLine
 10
50.14182195396839
 20
32.06099412435455
 30
0.0
 11
53.83620035983746
 21
32.06099412435455
 31
0.0
  0
LINE
  5
C8B
330
C88
100
AcDbEntity
  8
DIM
 62
     0
440
 16777216
370
    -2
100
AcDbLine
 10
53.64870035983745
 20
26.24202463612837
 30
0.0
 11
53.64870035983745
 21
28.79242524170596
 31
0.0
  0
LINE
  5
C8C
330
C88
100
AcDbEntity
  8
DIM
 62
     0
440
 16777216
370
    -2
100
AcDbLine
 10
53.64870035983745
 20
31.87349412435455
 30
0.0
 11
53.64870035983745
 21
29.34742524170596
 31
0.0
  0
SOLID
  5
C8D
330
C88
100
AcDbEntity
  8
DIM
 62
     0
440
 16777216
100
AcDbTrace
 10
53.61745035983745
 20
26.24202463612837
 30
0.0
 11
53.67995035983746
 21
26.24202463612837
 31
0.0
 12
53.64870035983745
 22
26.05452463612837
 32
0.0
 13
53.64870035983745
 23
26.05452463612837
 33
0.0
  0
SOLID
  5
C8E
330
C88
100
AcDbEntity
  8
DIM
 62
     0
440
 16777216
100
AcDbTrace
 10
53.61745035983745
 20
31.87349412435455
 30
0.0
 11
53.67995035983746
 21
31.87349412435455
 31
0.0
 12
53.64870035983745
 22
32.06099412435455
 32
0.0
 13
53.64870035983745
 23
32.06099412435455
 33
0.0
  0
MTEXT
  5
C8F
330
C88
100
AcDbEntity
  8
DIM
 62
     0
440
 16777216
100
AcDbMText
 10
53.64870035983745
 20
29.06992524170597
 30
0.0
 40
0.18
 41
0.0
 46
0.0
 71
     5
 72
     1
  1
\A1;6
 73
     1
 44
1.0
  0
POINT
  5
C90
330
C88
100
AcDbEntity
  8
DEFPOINTS
 62
     0
440
 16777216
100
AcDbPoint
 10
50.04807195396839
 20
26.05452463612837
 30
0.0
  0
POINT
  5
C91
330
C88
100
AcDbEntity
  8
DEFPOINTS
 62
     0
440
 16777216
100
AcDbPoint
 10
50.04807195396839
 20
32.06099412435455
 30
0.0
  0
POINT
  5
C92
330
C88
100
AcDbEntity
  8
DEFPOINTS
 62
     0
440
 16777216
100
AcDbPoint
 10
53.64870035983745
 20
32.06099412435455
 30
0.0
  0
ENDBLK
  5
C94
330
C88
100
AcDbEntity
  8
0
100
AcDbBlockEnd
  0
BLOCK
  5
CA0
330
C95
100
AcDbEntity
  8
0
100
AcDbBlockBegin
  2
*D34
 70
     1
 10
0.0
 20
0.0
 30
0.0
  3
*D34
  1

  0
LINE
  5
C96
330
C95
100
AcDbEntity
  8
DIM
 62
     0
440
 16777216
370
    -2
100
AcDbLine
 10
50.32823117856606
 20
31.49525938024146
 30
0.0
 11
52.74490309669349
 21
31.49525938024146
 31
0.0
  0
LINE
  5
C97
330
C95
100
AcDbEntity
  8
DIM
 62
     0
440
 16777216
370
    -2
100
AcDbLine
 10
50.32823117856606
 20
26.62025938024146
 30
0.0
 11
52.74490309669349
 21
26.62025938024146
 31
0.0
  0
LINE
  5
C98
330
C95
100
AcDbEntity
  8
DIM
 62
     0
440
 16777216
370
    -2
100
AcDbLine
 10
52.55740309669349
 20
31.30775938024146
 30
0.0
 11
52.55740309669349
 21
29.33525938024145
 31
0.0
  0
LINE
  5
C99
330
C95
100
AcDbEntity
  8
DIM
 62
     0
440
 16777216
370
    -2
100
AcDbLine
 10
52.55740309669349
 20
26.80775938024146
 30
0.0
 11
52.55740309669349
 21
28.78025938024145
 31
0.0
  0
SOLID
  5
C9A
330
C95
100
AcDbEntity
  8
DIM
 62
     0
440
 16777216
100
AcDbTrace
 10
52.52615309669349
 20
31.30775938024146
 30
0.0
 11
52.58865309669349
 21
31.30775938024146
 31
0.0
 12
52.55740309669349
 22
31.49525938024146
 32
0.0
 13
52.55740309669349
 23
31.49525938024146
 33
0.0
  0
SOLID
  5
C9B
330
C95
100
AcDbEntity
  8
DIM
 62
     0
440
 16777216
100
AcDbTrace
 10
52.52615309669349
 20
26.80775938024146
 30
0.0
 11
52.58865309669349
 21
26.80775938024146
 31
0.0
 12
52.55740309669349
 22
26.62025938024146
 32
0.0
 13
52.55740309669349
 23
26.62025938024146
 33
0.0
  0
MTEXT
  5
C9C
330
C95
100
AcDbEntity
  8
DIM
 62
     0
440
 16777216
100
AcDbMText
 10
52.55740309669349
 20
29.05775938024146
 30
0.0
 40
0.18
 41
0.0
 46
0.0
 71
     5
 72
     1
  1
\A1;4 7/8
 73
     1
 44
1.0
  0
POINT
  5
C9D
330
C95
100
AcDbEntity
  8
DEFPOINTS
 62
     0
440
 16777216
100
AcDbPoint
 10
50.23448117856606
 20
31.49525938024146
 30
0.0
  0
POINT
  5
C9E
330
C95
100
AcDbEntity
  8
DEFPOINTS
 62
     0
440
 16777216
100
AcDbPoint
 10
50.23448117856606
 20
26.62025938024146
 30
0.0
  0
POINT
  5
C9F
330
C95
100
AcDbEntity
  8
DEFPOINTS
 62
     0
440
 16777216
100
AcDbPoint
 10
52.55740309669349
 20
26.62025938024146
 30
0.0
  0
ENDBLK
  5
CA1
330
C95
100
AcDbEntity
  8
0
100
AcDbBlockEnd
  0
BLOCK
  5
CEB
330
CE0
100
AcDbEntity
  8
0
100
AcDbBlockBegin
  2
*D35
 70
     1
 10
0.0
 20
0.0
 30
0.0
  3
*D35
  1

  0
LINE
  5
CE1
330
CE0
100
AcDbEntity
  8
DIM
 62
     0
440
 16777216
370
    -2
100
AcDbLine
 10
49.35529304038645
 20
12.69429320239027
 30
0.0
 11
49.35529304038645
 21
11.68993428327659
 31
0.0
  0
LINE
  5
CE2
330
CE0
100
AcDbEntity
  8
DIM
 62
     0
440
 16777216
370
    -2
100
AcDbLine
 10
47.16361968420928
 20
12.69429320239027
 30
0.0
 11
47.16361968420928
 21
11.68993428327659
 31
0.0
  0
LINE
  5
CE3
330
CE0
100
AcDbEntity
  8
DIM
 62
     0
440
 16777216
370
    -2
100
AcDbLine
 10
49.16779304038644
 20
11.87743428327659
 30
0.0
 11
48.92695636229786
 21
11.87743428327659
 31
0.0
  0
LINE
  5
CE4
330
CE0
100
AcDbEntity
  8
DIM
 62
     0
440
 16777216
370
    -2
100
AcDbLine
 10
47.35111968420928
 20
11.87743428327659
 30
0.0
 11
47.59195636229787
 21
11.87743428327659
 31
0.0
  0
SOLID
  5
CE5
330
CE0
100
AcDbEntity
  8
DIM
 62
     0
440
 16777216
100
AcDbTrace
 10
49.16779304038644
 20
11.90868428327659
 30
0.0
 11
49.16779304038644
 21
11.84618428327659
 31
0.0
 12
49.35529304038645
 22
11.87743428327659
 32
0.0
 13
49.35529304038645
 23
11.87743428327659
 33
0.0
  0
SOLID
  5
CE6
330
CE0
100
AcDbEntity
  8
DIM
 62
     0
440
 16777216
100
AcDbTrace
 10
47.35111968420928
 20
11.90868428327659
 30
0.0
 11
47.35111968420928
 21
11.84618428327659
 31
0.0
 12
47.16361968420928
 22
11.87743428327659
 32
0.0
 13
47.16361968420928
 23
11.87743428327659
 33
0.0
  0
MTEXT
  5
CE7
330
CE0
100
AcDbEntity
  8
DIM
 62
     0
440
 16777216
100
AcDbMText
 10
48.25945636229787
 20
11.87743428327659
 30
0.0
 40
0.18
 41
0.0
 46
0.0
 71
     5
 72
     1
  1
\A1;2 3/16
 73
     1
 44
1.0
  0
POINT
  5
CE8
330
CE0
100
AcDbEntity
  8
DEFPOINTS
 62
     0
440
 16777216
100
AcDbPoint
 10
49.35529304038645
 20
12.78804320239027
 30
0.0
  0
POINT
  5
CE9
330
CE0
100
AcDbEntity
  8
DEFPOINTS
 62
     0
440
 16777216
100
AcDbPoint
 10
47.16361968420928
 20
12.78804320239027
 30
0.0
  0
POINT
  5
CEA
330
CE0
100
AcDbEntity
  8
DEFPOINTS
 62
     0
440
 16777216
100
AcDbPoint
 10
47.16361968420928
 20
11.87743428327659
 30
0.0
  0
ENDBLK
  5
CEC
330
CE0
100
AcDbEntity
  8
0
100
AcDbBlockEnd
  0
BLOCK
  5
CF8
330
CED
100
AcDbEntity
  8
0
100
AcDbBlockBegin
  2
*D36
 70
     1
 10
0.0
 20
0.0
 30
0.0
  3
*D36
  1

  0
LINE
  5
CEE
330
CED
100
AcDbEntity
  8
DIM
 62
     0
440
 16777216
370
    -2
100
AcDbLine
 10
46.79070636229787
 20
12.56929320239026
 30
0.0
 11
46.79070636229787
 21
10.99648017979957
 31
0.0
  0
LINE
  5
CEF
330
CED
100
AcDbEntity
  8
DIM
 62
     0
440
 16777216
370
    -2
100
AcDbLine
 10
49.72820636229786
 20
12.56929320239026
 30
0.0
 11
49.72820636229786
 21
10.99648017979957
 31
0.0
  0
LINE
  5
CF0
330
CED
100
AcDbEntity
  8
DIM
 62
     0
440
 16777216
370
    -2
100
AcDbLine
 10
46.97820636229787
 20
11.18398017979957
 30
0.0
 11
47.53195636229786
 21
11.18398017979957
 31
0.0
  0
LINE
  5
CF1
330
CED
100
AcDbEntity
  8
DIM
 62
     0
440
 16777216
370
    -2
100
AcDbLine
 10
49.54070636229786
 20
11.18398017979957
 30
0.0
 11
48.98695636229787
 21
11.18398017979957
 31
0.0
  0
SOLID
  5
CF2
330
CED
100
AcDbEntity
  8
DIM
 62
     0
440
 16777216
100
AcDbTrace
 10
46.97820636229787
 20
11.21523017979957
 30
0.0
 11
46.97820636229787
 21
11.15273017979957
 31
0.0
 12
46.79070636229787
 22
11.18398017979957
 32
0.0
 13
46.79070636229787
 23
11.18398017979957
 33
0.0
  0
SOLID
  5
CF3
330
CED
100
AcDbEntity
  8
DIM
 62
     0
440
 16777216
100
AcDbTrace
 10
49.54070636229786
 20
11.21523017979957
 30
0.0
 11
49.54070636229786
 21
11.15273017979957
 31
0.0
 12
49.72820636229786
 22
11.18398017979957
 32
0.0
 13
49.72820636229786
 23
11.18398017979957
 33
0.0
  0
MTEXT
  5
CF4
330
CED
100
AcDbEntity
  8
DIM
 62
     0
440
 16777216
100
AcDbMText
 10
48.25945636229787
 20
11.18398017979957
 30
0.0
 40
0.18
 41
0.0
 46
0.0
 71
     5
 72
     1
  1
\A1;2 15/16
 73
     1
 44
1.0
  0
POINT
  5
CF5
330
CED
100
AcDbEntity
  8
DEFPOINTS
 62
     0
440
 16777216
100
AcDbPoint
 10
46.79070636229787
 20
12.66304320239026
 30
0.0
  0
POINT
  5
CF6
330
CED
100
AcDbEntity
  8
DEFPOINTS
 62
     0
440
 16777216
100
AcDbPoint
 10
49.72820636229786
 20
12.66304320239026
 30
0.0
  0
POINT
  5
CF7
330
CED
100
AcDbEntity
  8
DEFPOINTS
 62
     0
440
 16777216
100
AcDbPoint
 10
49.72820636229786
 20
11.18398017979957
 30
0.0
  0
ENDBLK
  5
CF9
330
CED
100
AcDbEntity
  8
0
100
AcDbBlockEnd
  0
BLOCK
  5
D05
330
CFA
100
AcDbEntity
  8
0
100
AcDbBlockBegin
  2
*D37
 70
     1
 10
0.0
 20
0.0
 30
0.0
  3
*D37
  1

  0
LINE
  5
CFB
330
CFA
100
AcDbEntity
  8
DIM
 62
     0
440
 16777216
370
    -2
100
AcDbLine
 10
46.66247161818477
 20
12.75570242698794
 30
0.0
 11
46.66247161818477
 21
10.22881432138904
 31
0.0
  0
LINE
  5
CFC
330
CFA
100
AcDbEntity
  8
DIM
 62
     0
440
 16777216
370
    -2
100
AcDbLine
 10
49.85644110641095
 20
12.75570242698794
 30
0.0
 11
49.85644110641095
 21
10.22881432138904
 31
0.0
  0
LINE
  5
CFD
330
CFA
100
AcDbEntity
  8
DIM
 62
     0
440
 16777216
370
    -2
100
AcDbLine
 10
46.84997161818478
 20
10.41631432138903
 30
0.0
 11
47.59195636229787
 21
10.41631432138903
 31
0.0
  0
LINE
  5
CFE
330
CFA
100
AcDbEntity
  8
DIM
 62
     0
440
 16777216
370
    -2
100
AcDbLine
 10
49.66894110641095
 20
10.41631432138903
 30
0.0
 11
48.92695636229786
 21
10.41631432138903
 31
0.0
  0
SOLID
  5
CFF
330
CFA
100
AcDbEntity
  8
DIM
 62
     0
440
 16777216
100
AcDbTrace
 10
46.84997161818478
 20
10.44756432138904
 30
0.0
 11
46.84997161818478
 21
10.38506432138904
 31
0.0
 12
46.66247161818477
 22
10.41631432138903
 32
0.0
 13
46.66247161818477
 23
10.41631432138903
 33
0.0
  0
SOLID
  5
D00
330
CFA
100
AcDbEntity
  8
DIM
 62
     0
440
 16777216
100
AcDbTrace
 10
49.66894110641095
 20
10.44756432138904
 30
0.0
 11
49.66894110641095
 21
10.38506432138904
 31
0.0
 12
49.85644110641095
 22
10.41631432138903
 32
0.0
 13
49.85644110641095
 23
10.41631432138903
 33
0.0
  0
MTEXT
  5
D01
330
CFA
100
AcDbEntity
  8
DIM
 62
     0
440
 16777216
100
AcDbMText
 10
48.25945636229787
 20
10.41631432138903
 30
0.0
 40
0.18
 41
0.0
 46
0.0
 71
     5
 72
     1
  1
\A1;3 3/16
 73
     1
 44
1.0
  0
POINT
  5
D02
330
CFA
100
AcDbEntity
  8
DEFPOINTS
 62
     0
440
 16777216
100
AcDbPoint
 10
46.66247161818477
 20
12.84945242698794
 30
0.0
  0
POINT
  5
D03
330
CFA
100
AcDbEntity
  8
DEFPOINTS
 62
     0
440
 16777216
100
AcDbPoint
 10
49.85644110641095
 20
12.84945242698794
 30
0.0
  0
POINT
  5
D04
330
CFA
100
AcDbEntity
  8
DEFPOINTS
 62
     0
440
 16777216
100
AcDbPoint
 10
49.85644110641095
 20
10.41631432138903
 30
0.0
  0
ENDBLK
  5
D06
330
CFA
100
AcDbEntity
  8
0
100
AcDbBlockEnd
  0
BLOCK
  5
D1C
330
D11
100
AcDbEntity
  8
0
100
AcDbBlockBegin
  2
*D38
 70
     1
 10
0.0
 20
0.0
 30
0.0
  3
*D38
  1

  0
LINE
  5
D12
330
D11
100
AcDbEntity
  8
DIM
 62
     0
440
 16777216
370
    -2
100
AcDbLine
 10
49.88770062546367
 20
12.78804320239027
 30
0.0
 11
51.69123677365795
 21
12.78804320239027
 31
0.0
  0
LINE
  5
D13
330
D11
100
AcDbEntity
  8
DIM
 62
     0
440
 16777216
370
    -2
100
AcDbLine
 10
50.00938281607307
 20
16.16304320239027
 30
0.0
 11
51.69123677365796
 21
16.16304320239027
 31
0.0
  0
LINE
  5
D14
330
D11
100
AcDbEntity
  8
DIM
 62
     0
440
 16777216
370
    -2
100
AcDbLine
 10
51.50373677365795
 20
12.97554320239027
 30
0.0
 11
51.50373677365795
 21
14.19804320239026
 31
0.0
  0
LINE
  5
D15
330
D11
100
AcDbEntity
  8
DIM
 62
     0
440
 16777216
370
    -2
100
AcDbLine
 10
51.50373677365795
 20
15.97554320239027
 30
0.0
 11
51.50373677365795
 21
14.75304320239026
 31
0.0
  0
SOLID
  5
D16
330
D11
100
AcDbEntity
  8
DIM
 62
     0
440
 16777216
100
AcDbTrace
 10
51.47248677365794
 20
12.97554320239027
 30
0.0
 11
51.53498677365795
 21
12.97554320239027
 31
0.0
 12
51.50373677365795
 22
12.78804320239027
 32
0.0
 13
51.50373677365795
 23
12.78804320239027
 33
0.0
  0
SOLID
  5
D17
330
D11
100
AcDbEntity
  8
DIM
 62
     0
440
 16777216
100
AcDbTrace
 10
51.47248677365794
 20
15.97554320239027
 30
0.0
 11
51.53498677365795
 21
15.97554320239027
 31
0.0
 12
51.50373677365795
 22
16.16304320239027
 32
0.0
 13
51.50373677365795
 23
16.16304320239027
 33
0.0
  0
MTEXT
  5
D18
330
D11
100
AcDbEntity
  8
DIM
 62
     0
440
 16777216
100
AcDbMText
 10
51.50373677365795
 20
14.47554320239027
 30
0.0
 40
0.18
 41
0.0
 46
0.0
 71
     5
 72
     1
  1
\A1;3 3/8
 73
     1
 44
1.0
  0
POINT
  5
D19
330
D11
100
AcDbEntity
  8
DEFPOINTS
 62
     0
440
 16777216
100
AcDbPoint
 10
49.79395062546367
 20
12.78804320239027
 30
0.0
  0
POINT
  5
D1A
330
D11
100
AcDbEntity
  8
DEFPOINTS
 62
     0
440
 16777216
100
AcDbPoint
 10
49.91563281607307
 20
16.16304320239027
 30
0.0
  0
POINT
  5
D1B
330
D11
100
AcDbEntity
  8
DEFPOINTS
 62
     0
440
 16777216
100
AcDbPoint
 10
51.50373677365795
 20
16.16304320239027
 30
0.0
  0
ENDBLK
  5
D1D
330
D11
100
AcDbEntity
  8
0
100
AcDbBlockEnd
  0
BLOCK
  5
D2A
330
D1E
100
AcDbEntity
  8
0
100
AcDbBlockBegin
  2
*D39
 70
     1
 10
0.0
 20
0.0
 30
0.0
  3
*D39
  1

  0
LINE
  5
D1F
330
D1E
100
AcDbEntity
  8
DIM
 62
     0
440
 16777216
370
    -2
100
AcDbLine
 10
47.15498305759449
 20
16.42804320239026
 30
0.0
 11
47.32604772108212
 21
16.42804320239026
 31
0.0
  0
LINE
  5
D20
330
D1E
100
AcDbEntity
  8
DIM
 62
     0
440
 16777216
370
    -2
100
AcDbLine
 10
47.10320636229785
 20
16.55304320239026
 30
0.0
 11
47.32604772108212
 21
16.55304320239026
 31
0.0
  0
LINE
  5
D21
330
D1E
100
AcDbEntity
  8
DIM
 62
     0
440
 16777216
370
    -2
100
AcDbLine
 10
47.13854772108212
 20
16.24054320239026
 30
0.0
 11
47.13854772108212
 21
16.05304320239026
 31
0.0
  0
LINE
  5
D22
330
D1E
100
AcDbEntity
  8
DIM
 62
     0
440
 16777216
370
    -2
100
AcDbLine
 10
47.13854772108212
 20
16.74054320239026
 30
0.0
 11
47.13854772108212
 21
16.92804320239026
 31
0.0
  0
LINE
  5
D23
330
D1E
100
AcDbEntity
  8
DIM
 62
     0
440
 16777216
370
    -2
100
AcDbLine
 10
47.13854772108212
 20
16.92804320239026
 30
0.0
 11
47.32604772108212
 21
16.92804320239026
 31
0.0
  0
SOLID
  5
D24
330
D1E
100
AcDbEntity
  8
DIM
 62
     0
440
 16777216
100
AcDbTrace
 10
47.10729772108211
 20
16.24054320239026
 30
0.0
 11
47.16979772108212
 21
16.24054320239026
 31
0.0
 12
47.13854772108212
 22
16.42804320239026
 32
0.0
 13
47.13854772108212
 23
16.42804320239026
 33
0.0
  0
SOLID
  5
D25
330
D1E
100
AcDbEntity
  8
DIM
 62
     0
440
 16777216
100
AcDbTrace
 10
47.10729772108211
 20
16.74054320239026
 30
0.0
 11
47.16979772108212
 21
16.74054320239026
 31
0.0
 12
47.13854772108212
 22
16.55304320239026
 32
0.0
 13
47.13854772108212
 23
16.55304320239026
 33
0.0
  0
MTEXT
  5
D26
330
D1E
100
AcDbEntity
  8
DIM
 62
     0
440
 16777216
100
AcDbMText
 10
47.72354772108211
 20
16.92804320239027
 30
0.0
 40
0.18
 41
0.0
 46
0.0
 71
     5
 72
     1
  1
\A1;1/8
 73
     1
 44
1.0
  0
POINT
  5
D27
330
D1E
100
AcDbEntity
  8
DEFPOINTS
 62
     0
440
 16777216
100
AcDbPoint
 10
47.06123305759449
 20
16.42804320239026
 30
0.0
  0
POINT
  5
D28
330
D1E
100
AcDbEntity
  8
DEFPOINTS
 62
     0
440
 16777216
100
AcDbPoint
 10
47.00945636229785
 20
16.55304320239026
 30
0.0
  0
POINT
  5
D29
330
D1E
100
AcDbEntity
  8
DEFPOINTS
 62
     0
440
 16777216
100
AcDbPoint
 10
47.13854772108212
 20
16.55304320239026
 30
0.0
  0
ENDBLK
  5
D2B
330
D1E
100
AcDbEntity
  8
0
100
AcDbBlockEnd
  0
BLOCK
  5
D42
330
D36
100
AcDbEntity
  8
0
100
AcDbBlockBegin
  2
*D40
 70
     1
 10
0.0
 20
0.0
 30
0.0
  3
*D40
  1

  0
LINE
  5
D37
330
D36
100
AcDbEntity
  8
DIM
 62
     0
440
 16777216
370
    -2
100
AcDbLine
 10
46.63121209913206
 20
12.78804320239027
 30
0.0
 11
45.92792425708727
 21
12.78804320239027
 31
0.0
  0
LINE
  5
D38
330
D36
100
AcDbEntity
  8
DIM
 62
     0
440
 16777216
370
    -2
100
AcDbLine
 10
46.63121209913206
 20
12.66304320239027
 30
0.0
 11
45.92792425708727
 21
12.66304320239027
 31
0.0
  0
LINE
  5
D39
330
D36
100
AcDbEntity
  8
DIM
 62
     0
440
 16777216
370
    -2
100
AcDbLine
 10
46.11542425708726
 20
12.97554320239027
 30
0.0
 11
46.11542425708726
 21
13.16304320239027
 31
0.0
  0
LINE
  5
D3A
330
D36
100
AcDbEntity
  8
DIM
 62
     0
440
 16777216
370
    -2
100
AcDbLine
 10
46.11542425708726
 20
12.47554320239027
 30
0.0
 11
46.11542425708726
 21
12.28804320239027
 31
0.0
  0
LINE
  5
D3B
330
D36
100
AcDbEntity
  8
DIM
 62
     0
440
 16777216
370
    -2
100
AcDbLine
 10
46.11542425708726
 20
12.28804320239027
 30
0.0
 11
45.92792425708727
 21
12.28804320239027
 31
0.0
  0
SOLID
  5
D3C
330
D36
100
AcDbEntity
  8
DIM
 62
     0
440
 16777216
100
AcDbTrace
 10
46.08417425708727
 20
12.97554320239027
 30
0.0
 11
46.14667425708726
 21
12.97554320239027
 31
0.0
 12
46.11542425708726
 22
12.78804320239027
 32
0.0
 13
46.11542425708726
 23
12.78804320239027
 33
0.0
  0
SOLID
  5
D3D
330
D36
100
AcDbEntity
  8
DIM
 62
     0
440
 16777216
100
AcDbTrace
 10
46.08417425708727
 20
12.47554320239027
 30
0.0
 11
46.14667425708726
 21
12.47554320239027
 31
0.0
 12
46.11542425708726
 22
12.66304320239027
 32
0.0
 13
46.11542425708726
 23
12.66304320239027
 33
0.0
  0
MTEXT
  5
D3E
330
D36
100
AcDbEntity
  8
DIM
 62
     0
440
 16777216
100
AcDbMText
 10
45.53042425708727
 20
12.28804320239027
 30
0.0
 40
0.18
 41
0.0
 46
0.0
 71
     5
 72
     1
  1
\A1;1/8
 73
     1
 44
1.0
  0
POINT
  5
D3F
330
D36
100
AcDbEntity
  8
DEFPOINTS
 62
     0
440
 16777216
100
AcDbPoint
 10
46.72496209913205
 20
12.78804320239027
 30
0.0
  0
POINT
  5
D40
330
D36
100
AcDbEntity
  8
DEFPOINTS
 62
     0
440
 16777216
100
AcDbPoint
 10
46.72496209913205
 20
12.66304320239027
 30
0.0
  0
POINT
  5
D41
330
D36
100
AcDbEntity
  8
DEFPOINTS
 62
     0
440
 16777216
100
AcDbPoint
 10
46.11542425708726
 20
12.66304320239027
 30
0.0
  0
ENDBLK
  5
D43
330
D36
100
AcDbEntity
  8
0
100
AcDbBlockEnd
  0
BLOCK
  5
E05
330
E04
100
AcDbEntity
  8
0
100
AcDbBlockBegin
  2
*U41
 70
     1
 10
0.0
 20
0.0
 30
0.0
  3
*U41
  1

  0
ENDBLK
  5
E06
330
E04
100
AcDbEntity
  8
0
100
AcDbBlockEnd
  0
ENDSEC
  0
SECTION
  2
ENTITIES
  0
LINE
  5
619
330
18
100
AcDbEntity
  8
0
100
AcDbLine
 10
10.26464193467093
 20
32.1518712831599
 30
0.0
 11
10.26464193467093
 21
26.1518712831599
 31
0.0
  0
LINE
  5
61A
330
18
100
AcDbEntity
  8
0
100
AcDbLine
 10
10.57714193467093
 20
25.8393712831599
 30
0.0
 11
13.76464193467093
 21
25.8393712831599
 31
0.0
  0
LINE
  5
61B
330
18
100
AcDbEntity
  8
0
100
AcDbLine
 10
14.07714193467093
 20
26.1518712831599
 30
0.0
 11
14.07714193467093
 21
32.1518712831599
 31
0.0
  0
LINE
  5
61C
330
18
100
AcDbEntity
  8
0
100
AcDbLine
 10
13.76464193467093
 20
32.4643712831599
 30
0.0
 11
10.57714193467093
 21
32.4643712831599
 31
0.0
  0
LINE
  5
61D
330
18
100
AcDbEntity
  8
0
100
AcDbLine
 10
10.34027531974902
 20
16.4596551053087
 30
0.0
 11
14.00150854959285
 21
16.45965510530871
 31
0.0
  0
LINE
  5
61E
330
18
100
AcDbEntity
  8
0
100
AcDbLine
 10
10.26464193467093
 20
16.02215510530871
 30
0.0
 11
10.27781339306032
 21
16.39933632385261
 31
0.0
  0
LINE
  5
61F
330
18
100
AcDbEntity
  8
0
100
AcDbLine
 10
14.07714193467093
 20
16.02215510530871
 30
0.0
 11
14.06397047628155
 21
16.39933632385261
 31
0.0
  0
ARC
  5
620
330
18
100
AcDbEntity
  8
0
100
AcDbCircle
 10
10.34027531974901
 20
16.3971551053087
 30
0.0
 40
0.0625
100
AcDbArc
 50
90.00000000000003
 51
178.0
  0
ARC
  5
621
330
18
100
AcDbEntity
  8
0
100
AcDbCircle
 10
14.00150854959285
 20
16.39715510530871
 30
0.0
 40
0.0625
100
AcDbArc
 50
2.000000000000015
 51
90.0
  0
LINE
  5
622
330
18
100
AcDbEntity
  8
0
100
AcDbLine
 10
10.26464193467093
 20
15.83465510530871
 30
0.0
 11
14.07714193467093
 21
15.83465510530871
 31
0.0
  0
LINE
  5
623
330
18
100
AcDbEntity
  8
0
100
AcDbLine
 10
10.40060585547037
 20
15.70965510530871
 30
0.0
 11
13.9411780138715
 21
15.70965510530871
 31
0.0
  0
LINE
  5
624
330
18
100
AcDbEntity
  8
0
100
AcDbLine
 10
10.26464193467093
 20
16.00715510530871
 30
0.0
 11
10.26464193467093
 21
15.83465510530871
 31
0.0
  0
LINE
  5
625
330
18
100
AcDbEntity
  8
0
100
AcDbLine
 10
14.07714193467093
 20
16.00715510530871
 30
0.0
 11
14.07714193467093
 21
15.83465510530871
 31
0.0
  0
LINE
  5
626
330
18
100
AcDbEntity
  8
0
100
AcDbLine
 10
10.63639767150513
 20
12.75715510530871
 30
0.0
 11
13.70538619783674
 21
12.75715510530871
 31
0.0
  0
ARC
  5
627
330
18
100
AcDbEntity
  8
0
100
AcDbCircle
 10
10.63639767150512
 20
12.94465510530871
 30
0.0
 40
0.1875
100
AcDbArc
 50
181.0
 51
270.0
  0
ARC
  5
628
330
18
100
AcDbEntity
  8
0
100
AcDbCircle
 10
13.70538619783674
 20
12.94465510530871
 30
0.0
 40
0.1875
100
AcDbArc
 50
270.0
 51
359.0
  0
LINE
  5
629
330
18
100
AcDbEntity
  8
0
100
AcDbLine
 10
10.40060585547037
 20
15.70965510530871
 30
0.0
 11
10.4489262286633
 21
12.94138277910172
 31
0.0
  0
LINE
  5
62A
330
18
100
AcDbEntity
  8
0
100
AcDbLine
 10
10.26464193467093
 20
15.83465510530871
 30
0.0
 11
10.40060585547037
 21
15.70965510530871
 31
0.0
  0
LINE
  5
62B
330
18
100
AcDbEntity
  8
0
100
AcDbLine
 10
13.9411780138715
 20
15.70965510530871
 30
0.0
 11
13.89285764067856
 21
12.94138277910172
 31
0.0
  0
LINE
  5
62C
330
18
100
AcDbEntity
  8
0
100
AcDbLine
 10
14.07714193467093
 20
15.83465510530871
 30
0.0
 11
13.9411780138715
 21
15.70965510530871
 31
0.0
  0
LINE
  5
62D
330
18
100
AcDbEntity
  8
0
100
AcDbLine
 10
10.26464193467093
 20
16.00715510530871
 30
0.0
 11
14.07714193467093
 21
16.00715510530871
 31
0.0
  0
LINE
  5
62E
330
18
100
AcDbEntity
  8
0
100
AcDbLine
 10
10.26464193467093
 20
16.02215510530871
 30
0.0
 11
14.07714193467093
 21
16.02215510530871
 31
0.0
  0
ARC
  5
62F
330
18
100
AcDbEntity
  8
0
100
AcDbCircle
 10
10.57714193467093
 20
32.1518712831599
 30
0.0
 40
0.3125
100
AcDbArc
 50
90.0
 51
180.0
  0
ARC
  5
630
330
18
100
AcDbEntity
  8
0
100
AcDbCircle
 10
13.76464193467093
 20
32.1518712831599
 30
0.0
 40
0.3125
100
AcDbArc
 50
0.0
 51
90.0
  0
ARC
  5
631
330
18
100
AcDbEntity
  8
0
100
AcDbCircle
 10
13.76464193467093
 20
26.1518712831599
 30
0.0
 40
0.3125
100
AcDbArc
 50
270.0
 51
0.0
  0
ARC
  5
632
330
18
100
AcDbEntity
  8
0
100
AcDbCircle
 10
10.57714193467093
 20
26.1518712831599
 30
0.0
 40
0.3125
100
AcDbArc
 50
180.0
 51
270.0
  0
CIRCLE
  5
633
330
18
100
AcDbEntity
  8
0
100
AcDbCircle
 10
10.54589193467093
 20
32.1831212831599
 30
0.0
 40
0.1875
  0
CIRCLE
  5
634
330
18
100
AcDbEntity
  8
0
100
AcDbCircle
 10
10.54589193467093
 20
32.1831212831599
 30
0.0
 40
0.171875
  0
LINE
  5
635
330
18
100
AcDbEntity
  8
0
100
AcDbLine
 10
10.68781349660955
 20
32.08362612809247
 30
0.0
 11
10.44743681392462
 21
32.3240028107774
 31
0.0
  0
LINE
  5
636
330
18
100
AcDbEntity
  8
0
100
AcDbLine
 10
10.64434705541722
 20
32.04223975554242
 30
0.0
 11
10.40501040705342
 21
32.28157640390621
 31
0.0
  0
LINE
  5
637
330
18
100
AcDbEntity
  8
0
100
AcDbLine
 10
10.64434705541722
 20
25.97973975554243
 30
0.0
 11
10.40501040705342
 21
26.21907640390621
 31
0.0
  0
LINE
  5
638
330
18
100
AcDbEntity
  8
0
100
AcDbLine
 10
10.68781349660955
 20
26.02112612809247
 30
0.0
 11
10.44743681392462
 21
26.2615028107774
 31
0.0
  0
CIRCLE
  5
639
330
18
100
AcDbEntity
  8
0
100
AcDbCircle
 10
10.54589193467093
 20
26.1206212831599
 30
0.0
 40
0.171875
  0
CIRCLE
  5
63A
330
18
100
AcDbEntity
  8
0
100
AcDbCircle
 10
10.54589193467093
 20
26.1206212831599
 30
0.0
 40
0.1875
  0
LINE
  5
63B
330
18
100
AcDbEntity
  8
0
100
AcDbLine
 10
13.89434705541721
 20
32.04223975554242
 30
0.0
 11
13.65501040705342
 21
32.28157640390621
 31
0.0
  0
LINE
  5
63C
330
18
100
AcDbEntity
  8
0
100
AcDbLine
 10
13.93781349660955
 20
32.08362612809247
 30
0.0
 11
13.69743681392462
 21
32.3240028107774
 31
0.0
  0
CIRCLE
  5
63D
330
18
100
AcDbEntity
  8
0
100
AcDbCircle
 10
13.79589193467093
 20
32.1831212831599
 30
0.0
 40
0.171875
  0
CIRCLE
  5
63E
330
18
100
AcDbEntity
  8
0
100
AcDbCircle
 10
13.79589193467093
 20
32.1831212831599
 30
0.0
 40
0.1875
  0
LINE
  5
63F
330
18
100
AcDbEntity
  8
0
100
AcDbLine
 10
13.89434705541721
 20
25.97973975554243
 30
0.0
 11
13.65501040705342
 21
26.21907640390621
 31
0.0
  0
LINE
  5
640
330
18
100
AcDbEntity
  8
0
100
AcDbLine
 10
13.93781349660955
 20
26.02112612809247
 30
0.0
 11
13.69743681392462
 21
26.2615028107774
 31
0.0
  0
CIRCLE
  5
641
330
18
100
AcDbEntity
  8
0
100
AcDbCircle
 10
13.79589193467093
 20
26.1206212831599
 30
0.0
 40
0.171875
  0
CIRCLE
  5
642
330
18
100
AcDbEntity
  8
0
100
AcDbCircle
 10
13.79589193467093
 20
26.1206212831599
 30
0.0
 40
0.1875
  0
LINE
  5
643
330
18
100
AcDbEntity
  8
0
100
AcDbLine
 10
10.92089193467093
 20
31.8081212831599
 30
0.0
 11
10.92089193467093
 21
26.4956212831599
 31
0.0
  0
LINE
  5
644
330
18
100
AcDbEntity
  8
0
100
AcDbLine
 10
13.42089193467093
 20
31.8081212831599
 30
0.0
 11
13.42089193467093
 21
26.4956212831599
 31
0.0
  0
LINE
  5
645
330
18
100
AcDbEntity
  8
0
100
AcDbLine
 10
10.92089193467093
 20
31.8081212831599
 30
0.0
 11
13.42089193467093
 21
31.8081212831599
 31
0.0
  0
LINE
  5
646
330
18
100
AcDbEntity
  8
0
100
AcDbLine
 10
10.92089193467093
 20
26.4956212831599
 30
0.0
 11
13.42089193467093
 21
26.4956212831599
 31
0.0
  0
LINE
  5
647
330
18
100
AcDbEntity
  8
0
100
AcDbLine
 10
10.92089193467093
 20
31.9956212831599
 30
0.0
 11
13.42089193467093
 21
31.9956212831599
 31
0.0
  0
LINE
  5
648
330
18
100
AcDbEntity
  8
0
100
AcDbLine
 10
10.73339193467093
 20
31.8081212831599
 30
0.0
 11
10.73339193467093
 21
26.4956212831599
 31
0.0
  0
LINE
  5
649
330
18
100
AcDbEntity
  8
0
100
AcDbLine
 10
10.92089193467093
 20
26.3081212831599
 30
0.0
 11
13.42089193467093
 21
26.3081212831599
 31
0.0
  0
LINE
  5
64A
330
18
100
AcDbEntity
  8
0
100
AcDbLine
 10
13.60839193467093
 20
31.8081212831599
 30
0.0
 11
13.60839193467093
 21
26.4956212831599
 31
0.0
  0
ARC
  5
64B
330
18
100
AcDbEntity
  8
0
100
AcDbCircle
 10
10.92089193467093
 20
31.8081212831599
 30
0.0
 40
0.1875
100
AcDbArc
 50
90.0
 51
180.0
  0
ARC
  5
64C
330
18
100
AcDbEntity
  8
0
100
AcDbCircle
 10
13.42089193467093
 20
31.8081212831599
 30
0.0
 40
0.1875
100
AcDbArc
 50
0.0
 51
90.0
  0
ARC
  5
64D
330
18
100
AcDbEntity
  8
0
100
AcDbCircle
 10
13.42089193467093
 20
26.4956212831599
 30
0.0
 40
0.1875
100
AcDbArc
 50
270.0
 51
0.0
  0
ARC
  5
64E
330
18
100
AcDbEntity
  8
0
100
AcDbCircle
 10
10.92089193467093
 20
26.4956212831599
 30
0.0
 40
0.1875
100
AcDbArc
 50
180.0
 51
270.0
  0
LINE
  5
64F
330
18
100
AcDbEntity
  8
0
100
AcDbLine
 10
10.92089193467093
 20
16.6471551053087
 30
0.0
 11
13.42089193467093
 21
16.6471551053087
 31
0.0
  0
LINE
  5
650
330
18
100
AcDbEntity
  8
0
100
AcDbLine
 10
10.92089193467093
 20
16.6471551053087
 30
0.0
 11
10.73339193467093
 21
16.4596551053087
 31
0.0
  0
LINE
  5
651
330
18
100
AcDbEntity
  8
0
100
AcDbLine
 10
13.42089193467093
 20
16.6471551053087
 30
0.0
 11
13.60839193467093
 21
16.45965510530871
 31
0.0
  0
LINE
  5
652
330
18
100
AcDbEntity
  8
0
100
AcDbLine
 10
46.87373305759449
 20
16.24054320239026
 30
0.0
 11
49.64517966700122
 21
16.24054320239026
 31
0.0
  0
LINE
  5
653
330
18
100
AcDbEntity
  8
0
100
AcDbLine
 10
46.60327990852265
 20
16.16304320239026
 30
0.0
 11
49.91563281607307
 21
16.16304320239027
 31
0.0
  0
LINE
  5
654
330
18
100
AcDbEntity
  8
0
100
AcDbLine
 10
46.73448117856605
 20
25.99533292646625
 30
0.0
 11
46.73448117856605
 21
32.12018583401667
 31
0.0
  0
LINE
  5
655
330
18
100
AcDbEntity
  8
0
100
AcDbLine
 10
46.65698117856606
 20
26.26578607553809
 30
0.0
 11
46.65698117856606
 21
31.84973268494482
 31
0.0
  0
LINE
  5
656
330
18
100
AcDbEntity
  8
0
100
AcDbLine
 10
26.99468911488799
 20
31.71400938024146
 30
0.0
 11
27.18218911488798
 21
31.90150938024146
 31
0.0
  0
LINE
  5
657
330
18
100
AcDbEntity
  8
0
100
AcDbLine
 10
26.99468911488799
 20
26.40150938024146
 30
0.0
 11
27.18218911488799
 21
26.21400938024146
 31
0.0
  0
LINE
  5
658
330
18
100
AcDbEntity
  8
0
100
AcDbLine
 10
26.99468911488799
 20
26.40150938024146
 30
0.0
 11
26.99468911488799
 21
31.71400938024146
 31
0.0
  0
LINE
  5
659
330
18
100
AcDbEntity
  8
0
100
AcDbLine
 10
27.61968911488799
 20
25.74525938024146
 30
0.0
 11
27.61968911488799
 21
32.37025938024146
 31
0.0
  0
LINE
  5
65A
330
18
100
AcDbEntity
  8
0
100
AcDbLine
 10
27.63468911488799
 20
25.74525938024146
 30
0.0
 11
27.63468911488799
 21
32.37025938024146
 31
0.0
  0
LINE
  5
65B
330
18
100
AcDbEntity
  8
0
100
AcDbLine
 10
27.80718911488798
 20
32.37025938024146
 30
0.0
 11
27.93218911488799
 21
32.23429545944202
 31
0.0
  0
LINE
  5
65C
330
18
100
AcDbEntity
  8
0
100
AcDbLine
 10
27.93218911488799
 20
32.23429545944202
 30
0.0
 11
30.70046144109498
 21
32.18597508624909
 31
0.0
  0
LINE
  5
65D
330
18
100
AcDbEntity
  8
0
100
AcDbLine
 10
27.80718911488798
 20
25.74525938024146
 30
0.0
 11
27.93218911488799
 21
25.8812233010409
 31
0.0
  0
LINE
  5
65E
330
18
100
AcDbEntity
  8
0
100
AcDbLine
 10
27.93218911488799
 20
25.8812233010409
 30
0.0
 11
30.70046144109498
 21
25.92954367423383
 31
0.0
  0
ARC
  5
65F
330
18
100
AcDbEntity
  8
0
100
AcDbCircle
 10
30.69718911488798
 20
31.99850364340726
 30
0.0
 40
0.1875
100
AcDbArc
 50
0.0
 51
89.0
  0
ARC
  5
660
330
18
100
AcDbEntity
  8
0
100
AcDbCircle
 10
30.69718911488798
 20
26.11701511707565
 30
0.0
 40
0.1875
100
AcDbArc
 50
271.0
 51
0.0
  0
LINE
  5
661
330
18
100
AcDbEntity
  8
0
100
AcDbLine
 10
30.88468911488798
 20
26.11701511707565
 30
0.0
 11
30.88468911488798
 21
31.99850364340726
 31
0.0
  0
LINE
  5
662
330
18
100
AcDbEntity
  8
0
100
AcDbLine
 10
27.63468911488799
 20
32.37025938024146
 30
0.0
 11
27.80718911488798
 21
32.37025938024146
 31
0.0
  0
LINE
  5
663
330
18
100
AcDbEntity
  8
0
100
AcDbLine
 10
27.63468911488799
 20
25.74525938024146
 30
0.0
 11
27.80718911488798
 21
25.74525938024146
 31
0.0
  0
LINE
  5
664
330
18
100
AcDbEntity
  8
0
100
AcDbLine
 10
27.93218911488799
 20
25.8812233010409
 30
0.0
 11
27.93218911488798
 21
32.23429545944203
 31
0.0
  0
LINE
  5
665
330
18
100
AcDbEntity
  8
0
100
AcDbLine
 10
27.80718911488798
 20
25.74525938024146
 30
0.0
 11
27.80718911488798
 21
32.37025938024146
 31
0.0
  0
ARC
  5
666
330
18
100
AcDbEntity
  8
0
100
AcDbCircle
 10
27.24468911488798
 20
32.29462599516337
 30
0.0
 40
0.0625
100
AcDbArc
 50
92.00000000000001
 51
180.0
  0
ARC
  5
667
330
18
100
AcDbEntity
  8
0
100
AcDbCircle
 10
27.24468911488799
 20
25.82089276531954
 30
0.0
 40
0.0625
100
AcDbArc
 50
180.0
 51
267.9999999999999
  0
LINE
  5
668
330
18
100
AcDbEntity
  8
0
100
AcDbLine
 10
27.61968911488799
 20
32.37025938024146
 30
0.0
 11
27.24250789634408
 21
32.35708792185207
 31
0.0
  0
LINE
  5
669
330
18
100
AcDbEntity
  8
0
100
AcDbLine
 10
27.61968911488799
 20
25.74525938024146
 30
0.0
 11
27.24250789634408
 21
25.75843083863084
 31
0.0
  0
LINE
  5
66A
330
18
100
AcDbEntity
  8
0
100
AcDbLine
 10
27.18218911488799
 20
25.82089276531954
 30
0.0
 11
27.18218911488798
 21
32.29462599516338
 31
0.0
  0
LINE
  5
66B
330
18
100
AcDbEntity
  8
0
100
AcDbLine
 10
50.03021855148854
 20
16.16419910050188
 30
0.0
 11
49.90403579408468
 21
16.16419910050188
 31
0.0
  0
LINE
  5
66C
330
18
100
AcDbEntity
  8
0
100
AcDbLine
 10
50.02870029336772
 20
16.23919910050188
 30
0.0
 11
49.90460910834365
 21
16.23919910050188
 31
0.0
  0
ARC
  5
66D
330
18
100
AcDbEntity
  8
0
100
AcDbCircle
 10
49.94282791375995
 20
16.20140475742552
 30
0.0
 40
0.0537502507526586
100
AcDbArc
 50
135.3199400149533
 51
223.8041173829552
  0
LINE
  5
66E
330
18
100
AcDbEntity
  8
0
100
AcDbLine
 10
50.02870029336772
 20
16.23919910050188
 30
0.0
 11
50.03021855148854
 21
16.16419910050188
 31
0.0
  0
LINE
  5
66F
330
18
100
AcDbEntity
  8
0
100
AcDbLine
 10
46.48757302041691
 20
16.16329462308227
 30
0.0
 11
46.49019207812879
 21
16.23829462308227
 31
0.0
  0
ARC
  5
670
330
18
100
AcDbEntity
  8
0
100
AcDbCircle
 10
46.57344540002469
 20
16.20108896615863
 30
0.0
 40
0.0537502507526586
100
AcDbArc
 50
315.3199400149533
 51
43.80411738295514
  0
LINE
  5
671
330
18
100
AcDbEntity
  8
0
100
AcDbLine
 10
46.48757302041691
 20
16.16329462308227
 30
0.0
 11
46.61166420544097
 21
16.16329462308227
 31
0.0
  0
LINE
  5
672
330
18
100
AcDbEntity
  8
0
100
AcDbLine
 10
46.49019207812879
 20
16.23829462308227
 30
0.0
 11
46.61223751969996
 21
16.23829462308227
 31
0.0
  0
LINE
  5
673
330
18
100
AcDbEntity
  8
0
100
AcDbLine
 10
46.73360832277452
 20
32.23513263265522
 30
0.0
 11
46.65860832277452
 21
32.23251357494334
 31
0.0
  0
ARC
  5
674
330
18
100
AcDbEntity
  8
0
100
AcDbCircle
 10
46.69581397969816
 20
32.14926025304743
 30
0.0
 40
0.0537502507526586
100
AcDbArc
 50
226.1958826170449
 51
314.6800599850467
  0
LINE
  5
675
330
18
100
AcDbEntity
  8
0
100
AcDbLine
 10
46.73360832277452
 20
32.23513263265522
 30
0.0
 11
46.73360832277452
 21
32.11104144763115
 31
0.0
  0
LINE
  5
676
330
18
100
AcDbEntity
  8
0
100
AcDbLine
 10
46.65860832277452
 20
32.23251357494334
 30
0.0
 11
46.65860832277452
 21
32.11046813337217
 31
0.0
  0
LINE
  5
677
330
18
100
AcDbEntity
  8
0
100
AcDbLine
 10
46.65741115606905
 20
25.88398354745674
 30
0.0
 11
46.65741115606905
 21
26.00602898902791
 31
0.0
  0
LINE
  5
678
330
18
100
AcDbEntity
  8
0
100
AcDbLine
 10
46.73241115606905
 20
25.88136448974486
 30
0.0
 11
46.73241115606905
 21
26.00545567476892
 31
0.0
  0
ARC
  5
679
330
18
100
AcDbEntity
  8
0
100
AcDbCircle
 10
46.69461681299268
 20
25.96723686935264
 30
0.0
 40
0.0537502507526586
100
AcDbArc
 50
45.31994001495333
 51
133.8041173829551
  0
LINE
  5
67A
330
18
100
AcDbEntity
  8
0
100
AcDbLine
 10
46.73241115606905
 20
25.88136448974486
 30
0.0
 11
46.65741115606905
 21
25.88398354745674
 31
0.0
  0
LINE
  5
67B
330
18
100
AcDbEntity
  8
0
100
AcDbLine
 10
47.10470884007654
 20
16.16304320239026
 30
0.0
 11
47.16361968420928
 21
12.78804320239027
 31
0.0
  0
LINE
  5
67C
330
18
100
AcDbEntity
  8
0
100
AcDbLine
 10
49.41420388451918
 20
16.16304320239027
 30
0.0
 11
49.35529304038645
 21
12.78804320239027
 31
0.0
  0
LINE
  5
67D
330
18
100
AcDbEntity
  8
0
100
AcDbLine
 10
46.73448117856605
 20
31.18253626878005
 30
0.0
 11
50.10948117856606
 21
31.12224758690882
 31
0.0
  0
LINE
  5
67E
330
18
100
AcDbEntity
  8
0
100
AcDbLine
 10
46.73448117856605
 20
26.93298249170286
 30
0.0
 11
50.10948117856606
 21
26.99327117357409
 31
0.0
  0
LINE
  5
67F
330
18
100
AcDbEntity
  8
HIDE
100
AcDbLine
 10
46.73448117856605
 20
26.80775938024146
 30
0.0
 11
49.73448117856606
 21
26.79275938024146
 31
0.0
  0
LINE
  5
680
330
18
100
AcDbEntity
  8
HIDE
100
AcDbLine
 10
46.73448117856605
 20
26.43275938024146
 30
0.0
 11
49.73448117856606
 21
26.44775938024146
 31
0.0
  0
LINE
  5
681
330
18
100
AcDbEntity
  8
HIDE
100
AcDbLine
 10
49.73448117856606
 20
26.79275938024146
 30
0.0
 11
49.73448117856606
 21
26.72925938024146
 31
0.0
  0
LINE
  5
682
330
18
100
AcDbEntity
  8
HIDE
100
AcDbLine
 10
49.73448117856606
 20
26.72925938024146
 30
0.0
 11
50.23448117856606
 21
26.72925938024146
 31
0.0
  0
LINE
  5
683
330
18
100
AcDbEntity
  8
HIDE
100
AcDbLine
 10
49.73448117856606
 20
26.51125938024146
 30
0.0
 11
50.23448117856606
 21
26.51125938024146
 31
0.0
  0
LINE
  5
684
330
18
100
AcDbEntity
  8
HIDE
100
AcDbLine
 10
49.73448117856606
 20
26.51125938024146
 30
0.0
 11
49.73448117856606
 21
26.44775938024146
 31
0.0
  0
LINE
  5
685
330
18
100
AcDbEntity
  8
HIDE
100
AcDbLine
 10
49.73448117856606
 20
31.38625938024146
 30
0.0
 11
49.73448117856606
 21
31.32275938024146
 31
0.0
  0
LINE
  5
686
330
18
100
AcDbEntity
  8
HIDE
100
AcDbLine
 10
49.73448117856606
 20
31.38625938024146
 30
0.0
 11
50.23448117856606
 21
31.38625938024146
 31
0.0
  0
LINE
  5
687
330
18
100
AcDbEntity
  8
HIDE
100
AcDbLine
 10
49.73448117856606
 20
31.60425938024146
 30
0.0
 11
50.23448117856606
 21
31.60425938024146
 31
0.0
  0
LINE
  5
688
330
18
100
AcDbEntity
  8
HIDE
100
AcDbLine
 10
49.73448117856606
 20
31.66775938024146
 30
0.0
 11
49.73448117856606
 21
31.60425938024146
 31
0.0
  0
LINE
  5
689
330
18
100
AcDbEntity
  8
HIDE
100
AcDbLine
 10
46.73448117856605
 20
31.68275938024147
 30
0.0
 11
49.73448117856606
 21
31.66775938024146
 31
0.0
  0
LINE
  5
68A
330
18
100
AcDbEntity
  8
HIDE
100
AcDbLine
 10
46.73448117856605
 20
31.30775938024146
 30
0.0
 11
49.73448117856606
 21
31.32275938024146
 31
0.0
  0
LINE
  5
68B
330
18
100
AcDbEntity
  8
HIDE
100
AcDbLine
 10
46.60320636229786
 20
16.16304320239027
 30
0.0
 11
46.61820636229786
 21
13.16304320239026
 31
0.0
  0
LINE
  5
68C
330
18
100
AcDbEntity
  8
HIDE
100
AcDbLine
 10
46.97820636229787
 20
16.16304320239026
 30
0.0
 11
46.96320636229787
 21
13.16304320239026
 31
0.0
  0
LINE
  5
68D
330
18
100
AcDbEntity
  8
HIDE
100
AcDbLine
 10
46.96320636229787
 20
13.16304320239026
 30
0.0
 11
46.89970636229786
 21
13.16304320239026
 31
0.0
  0
LINE
  5
68E
330
18
100
AcDbEntity
  8
HIDE
100
AcDbLine
 10
46.89970636229786
 20
13.16304320239026
 30
0.0
 11
46.89970636229786
 21
12.66304320239026
 31
0.0
  0
LINE
  5
68F
330
18
100
AcDbEntity
  8
HIDE
100
AcDbLine
 10
46.68170636229786
 20
13.16304320239026
 30
0.0
 11
46.68170636229786
 21
12.66304320239026
 31
0.0
  0
LINE
  5
690
330
18
100
AcDbEntity
  8
HIDE
100
AcDbLine
 10
46.68170636229786
 20
13.16304320239026
 30
0.0
 11
46.61820636229786
 21
13.16304320239026
 31
0.0
  0
LINE
  5
691
330
18
100
AcDbEntity
  8
HIDE
100
AcDbLine
 10
49.54070636229786
 20
16.16304320239027
 30
0.0
 11
49.55570636229786
 21
13.16304320239026
 31
0.0
  0
LINE
  5
692
330
18
100
AcDbEntity
  8
HIDE
100
AcDbLine
 10
49.91570636229786
 20
16.16304320239027
 30
0.0
 11
49.90070636229786
 21
13.16304320239026
 31
0.0
  0
LINE
  5
693
330
18
100
AcDbEntity
  8
HIDE
100
AcDbLine
 10
49.90070636229786
 20
13.16304320239026
 30
0.0
 11
49.83720636229787
 21
13.16304320239026
 31
0.0
  0
LINE
  5
694
330
18
100
AcDbEntity
  8
HIDE
100
AcDbLine
 10
49.83720636229787
 20
13.16304320239026
 30
0.0
 11
49.83720636229787
 21
12.66304320239026
 31
0.0
  0
LINE
  5
695
330
18
100
AcDbEntity
  8
HIDE
100
AcDbLine
 10
49.61920636229786
 20
13.16304320239026
 30
0.0
 11
49.61920636229786
 21
12.66304320239026
 31
0.0
  0
LINE
  5
696
330
18
100
AcDbEntity
  8
HIDE
100
AcDbLine
 10
49.61920636229786
 20
13.16304320239026
 30
0.0
 11
49.55570636229786
 21
13.16304320239026
 31
0.0
  0
INSERT
  5
697
330
18
100
AcDbEntity
  8
HATCH
100
AcDbBlockReference
  2
*X0
 10
15.87541713014554
 20
5.495223358995064
 30
0.0
  0
INSERT
  5
698
330
18
100
AcDbEntity
  8
HATCH
100
AcDbBlockReference
  2
*X1
 10
15.87541713014554
 20
5.495223358995064
 30
0.0
  0
INSERT
  5
699
330
18
100
AcDbEntity
  8
HATCH
100
AcDbBlockReference
  2
*X2
 10
15.87541713014554
 20
5.495223358995064
 30
0.0
  0
INSERT
  5
69A
330
18
100
AcDbEntity
  8
HATCH
100
AcDbBlockReference
  2
*X3
 10
15.87541713014554
 20
8.682921580126553
 30
0.0
  0
DIMENSION
  5
69B
330
18
100
AcDbEntity
  8
DIM
100
AcDbDimension
280
     0
  2
*D32
 10
51.41865812645631
 20
26.99327117357409
 30
0.0
 11
51.4186581264563
 21
29.05775938024146
 31
0.0
 70
    32
 71
     5
 42
4.128976413334733
 73
     0
 74
     0
 75
     0
  3
STANDARD
100
AcDbAlignedDimension
 13
50.10948117856606
 23
31.12224758690882
 33
0.0
 14
50.10948117856606
 24
26.99327117357409
 34
0.0
 50
90.0
100
AcDbRotatedDimension
1001
ACAD
1000
DSTYLE
1002
{
1070
    41
1040
0.1875
1070
    42
1040
0.09375
1070
    43
1040
0.375
1070
    44
1040
0.1875
1070
   141
1040
0.09375
1070
   147
1040
0.1875
1070
   271
1070
     5
1070
   276
1070
     2
1070
   277
1070
     5
1070
   289
1070
     0
1002
}
  0
DIMENSION
  5
69C
330
18
100
AcDbEntity
  8
DIM
100
AcDbDimension
280
     0
  2
*D33
 10
53.64870035983745
 20
32.06099412435455
 30
0.0
 11
53.64870035983745
 21
29.06992524170597
 31
0.0
 70
   160
 71
     5
 42
6.006469488226176
 73
     0
 74
     0
 75
     0
  3
STANDARD
100
AcDbAlignedDimension
 13
50.04807195396839
 23
26.05452463612837
 33
0.0
 14
50.04807195396839
 24
32.06099412435455
 34
0.0
 50
90.0
100
AcDbRotatedDimension
1001
ACAD
1000
DSTYLE
1002
{
1070
    41
1040
0.1875
1070
    42
1040
0.09375
1070
    43
1040
0.375
1070
    44
1040
0.1875
1070
   141
1040
0.09375
1070
   147
1040
0.1875
1070
   271
1070
     5
1070
   276
1070
     2
1070
   277
1070
     5
1070
   289
1070
     0
1002
}
  0
DIMENSION
  5
69D
330
18
100
AcDbEntity
  8
DIM
100
AcDbDimension
280
     0
  2
*D35
 10
47.16361968420928
 20
11.87743428327659
 30
0.0
 11
48.25945636229787
 21
11.87743428327659
 31
0.0
 70
    32
 71
     5
 42
2.191673356177169
 73
     0
 74
     0
 75
     0
  3
STANDARD
100
AcDbAlignedDimension
 13
49.35529304038645
 23
12.78804320239027
 33
0.0
 14
47.16361968420928
 24
12.78804320239027
 34
0.0
100
AcDbRotatedDimension
1001
ACAD
1000
DSTYLE
1002
{
1070
    41
1040
0.1875
1070
    42
1040
0.09375
1070
    43
1040
0.375
1070
    44
1040
0.1875
1070
   141
1040
0.09375
1070
   147
1040
0.1875
1070
   271
1070
     5
1070
   276
1070
     2
1070
   277
1070
     5
1070
   289
1070
     0
1002
}
  0
DIMENSION
  5
69E
330
18
100
AcDbEntity
  8
DIM
100
AcDbDimension
280
     0
  2
*D36
 10
49.72820636229786
 20
11.18398017979957
 30
0.0
 11
48.25945636229787
 21
11.18398017979957
 31
0.0
 70
    32
 71
     5
 42
2.937499999999992
 73
     0
 74
     0
 75
     0
  3
STANDARD
100
AcDbAlignedDimension
 13
46.79070636229787
 23
12.66304320239026
 33
0.0
 14
49.72820636229786
 24
12.66304320239026
 34
0.0
100
AcDbRotatedDimension
1001
ACAD
1000
DSTYLE
1002
{
1070
    41
1040
0.1875
1070
    42
1040
0.09375
1070
    43
1040
0.375
1070
    44
1040
0.1875
1070
   141
1040
0.09375
1070
   147
1040
0.1875
1070
   271
1070
     5
1070
   276
1070
     2
1070
   277
1070
     5
1070
   289
1070
     0
1002
}
  0
DIMENSION
  5
69F
330
18
100
AcDbEntity
  8
DIM
100
AcDbDimension
280
     0
  2
*D34
 10
52.55740309669349
 20
26.62025938024146
 30
0.0
 11
52.55740309669349
 21
29.05775938024146
 31
0.0
 70
   160
 71
     5
 42
4.875
 73
     0
 74
     0
 75
     0
  3
STANDARD
100
AcDbAlignedDimension
 13
50.23448117856606
 23
31.49525938024146
 33
0.0
 14
50.23448117856606
 24
26.62025938024146
 34
0.0
 50
90.0
100
AcDbRotatedDimension
1001
ACAD
1000
DSTYLE
1002
{
1070
    41
1040
0.1875
1070
    42
1040
0.09375
1070
    43
1040
0.375
1070
    44
1040
0.1875
1070
   141
1040
0.09375
1070
   147
1040
0.1875
1070
   271
1070
     5
1070
   276
1070
     2
1070
   277
1070
     5
1070
   289
1070
     0
1002
}
  0
DIMENSION
  5
6A0
330
18
100
AcDbEntity
  8
DIM
100
AcDbDimension
280
     0
  2
*D37
 10
49.85644110641095
 20
10.41631432138903
 30
0.0
 11
48.25945636229787
 21
10.41631432138903
 31
0.0
 70
    32
 71
     5
 42
3.193969488226166
 73
     0
 74
     0
 75
     0
  3
STANDARD
100
AcDbAlignedDimension
 13
46.66247161818477
 23
12.84945242698794
 33
0.0
 14
49.85644110641095
 24
12.84945242698794
 34
0.0
100
AcDbRotatedDimension
1001
ACAD
1000
DSTYLE
1002
{
1070
    41
1040
0.1875
1070
    42
1040
0.09375
1070
    43
1040
0.375
1070
    44
1040
0.1875
1070
   141
1040
0.09375
1070
   147
1040
0.1875
1070
   271
1070
     5
1070
   276
1070
     2
1070
   277
1070
     5
1070
   289
1070
     0
1002
}
  0
DIMENSION
  5
6A1
330
18
100
AcDbEntity
  8
DIM
100
AcDbDimension
280
     0
  2
*D24
 10
4.54783787230971
 20
32.4643712831599
 30
0.0
 11
4.547837872309704
 21
29.19369877365596
 31
0.0
 70
   160
 71
     5
 42
6.624999999999996
 73
     0
 74
     0
 75
     0
  3
STANDARD
100
AcDbAlignedDimension
 13
10.57714193467093
 23
25.8393712831599
 33
0.0
 14
10.57714193467093
 24
32.4643712831599
 34
0.0
 50
90.0
100
AcDbRotatedDimension
1001
ACAD
1000
DSTYLE
1002
{
1070
    41
1040
0.1875
1070
    42
1040
0.09375
1070
    43
1040
0.375
1070
    44
1040
0.1875
1070
   141
1040
0.09375
1070
   147
1040
0.1875
1070
   271
1070
     5
1070
   276
1070
     2
1070
   277
1070
     5
1070
   289
1070
     0
1002
}
  0
DIMENSION
  5
6A2
330
18
100
AcDbEntity
  8
DIM
100
AcDbDimension
280
     0
  2
*D25
 10
10.26464193467093
 20
34.8095438448018
 30
0.0
 11
12.17089193467093
 21
34.8095438448018
 31
0.0
 70
    32
 71
     5
 42
3.8125
 73
     0
 74
     0
 75
     0
  3
STANDARD
100
AcDbAlignedDimension
 13
14.07714193467093
 23
32.1518712831599
 33
0.0
 14
10.26464193467093
 24
32.1518712831599
 34
0.0
100
AcDbRotatedDimension
1001
ACAD
1000
DSTYLE
1002
{
1070
    41
1040
0.1875
1070
    42
1040
0.09375
1070
    43
1040
0.375
1070
    44
1040
0.1875
1070
   141
1040
0.09375
1070
   147
1040
0.1875
1070
   271
1070
     5
1070
   276
1070
     2
1070
   277
1070
     5
1070
   289
1070
     0
1002
}
  0
DIMENSION
  5
6A3
330
18
100
AcDbEntity
  8
DIM
100
AcDbDimension
280
     0
  2
*D26
 10
10.92089193467093
 20
33.97558559142757
 30
0.0
 11
12.17089193467093
 21
33.97558559142757
 31
0.0
 70
    32
 71
     5
 42
2.5
 73
     0
 74
     0
 75
     0
  3
STANDARD
100
AcDbAlignedDimension
 13
13.42089193467093
 23
31.8081212831599
 33
0.0
 14
10.92089193467093
 24
31.8081212831599
 34
0.0
100
AcDbRotatedDimension
1001
ACAD
1000
DSTYLE
1002
{
1070
    41
1040
0.1875
1070
    42
1040
0.09375
1070
    43
1040
0.375
1070
    44
1040
0.1875
1070
   141
1040
0.09375
1070
   147
1040
0.1875
1070
   271
1070
     5
1070
   276
1070
     2
1070
   277
1070
     5
1070
   289
1070
     0
1002
}
  0
DIMENSION
  5
6A4
330
18
100
AcDbEntity
  8
DIM
100
AcDbDimension
280
     0
  2
*D27
 10
6.013808408706985
 20
26.4956212831599
 30
0.0
 11
6.013808408706981
 21
29.15111825853017
 31
0.0
 70
   160
 71
     5
 42
5.3125
 73
     0
 74
     0
 75
     0
  3
STANDARD
100
AcDbAlignedDimension
 13
10.92089193467093
 23
31.8081212831599
 33
0.0
 14
10.92089193467093
 24
26.4956212831599
 34
0.0
 50
90.0
100
AcDbRotatedDimension
1001
ACAD
1000
DSTYLE
1002
{
1070
    41
1040
0.1875
1070
    42
1040
0.09375
1070
    43
1040
0.375
1070
    44
1040
0.1875
1070
   141
1040
0.09375
1070
   147
1040
0.1875
1070
   271
1070
     5
1070
   276
1070
     2
1070
   277
1070
     5
1070
   289
1070
     0
1002
}
  0
DIMENSION
  5
6A5
330
18
100
AcDbEntity
  8
DIM
100
AcDbDimension
280
     0
  2
*D28
 10
15.7096753555751
 20
16.45965510530871
 30
0.0
 11
15.7096753555751
 21
14.60840510530871
 31
0.0
 70
    32
 71
     5
 42
3.702500000000002
 73
     0
 74
     0
 75
     0
  3
STANDARD
100
AcDbAlignedDimension
 13
13.70538619783674
 23
12.75715510530871
 33
0.0
 14
14.00150854959285
 24
16.45965510530871
 34
0.0
 50
90.0
100
AcDbRotatedDimension
1001
ACAD
1000
DSTYLE
1002
{
1070
    41
1040
0.1875
1070
    42
1040
0.09375
1070
    43
1040
0.375
1070
    44
1040
0.1875
1070
   141
1040
0.09375
1070
   147
1040
0.1875
1070
   271
1070
     5
1070
   276
1070
     2
1070
   277
1070
     5
1070
   289
1070
     0
1002
}
  0
DIMENSION
  5
6A6
330
18
100
AcDbEntity
  8
DIM
100
AcDbDimension
280
     0
  2
*D38
 10
51.50373677365795
 20
16.16304320239027
 30
0.0
 11
51.50373677365795
 21
14.47554320239027
 31
0.0
 70
   160
 71
     5
 42
3.375000000000001
 73
     0
 74
     0
 75
     0
  3
STANDARD
100
AcDbAlignedDimension
 13
49.79395062546367
 23
12.78804320239027
 33
0.0
 14
49.91563281607307
 24
16.16304320239027
 34
0.0
 50
90.0
100
AcDbRotatedDimension
1001
ACAD
1000
DSTYLE
1002
{
1070
    41
1040
0.1875
1070
    42
1040
0.09375
1070
    43
1040
0.375
1070
    44
1040
0.1875
1070
   141
1040
0.09375
1070
   147
1040
0.1875
1070
   271
1070
     5
1070
   276
1070
     2
1070
   277
1070
     5
1070
   289
1070
     0
1002
}
  0
INSERT
  5
6A7
330
18
100
AcDbEntity
  8
HATCH
100
AcDbBlockReference
  2
*X4
 10
15.87541713014554
 20
7.508915948801416
 30
0.0
  0
INSERT
  5
6A8
330
18
100
AcDbEntity
  8
HATCH
100
AcDbBlockReference
  2
*X5
 10
15.87541713014554
 20
7.508915948801416
 30
0.0
  0
INSERT
  5
6A9
330
18
100
AcDbEntity
  8
0
100
AcDbBlockReference
  2
PBH
 10
12.17089193467093
 20
28.02687128315989
 30
0.0
  0
INSERT
  5
6AA
330
18
100
AcDbEntity
  8
0
100
AcDbBlockReference
  2
PBH
 10
12.17089193467093
 20
30.2768712831599
 30
0.0
  0
LINE
  5
6AB
330
18
100
AcDbEntity
  8
CENTER
100
AcDbLine
 10
14.62328647592355
 20
29.1518712831599
 30
0.0
 11
9.755806179291969
 21
29.1518712831599
 31
0.0
  0
TEXT
  5
6AC
330
18
100
AcDbEntity
  8
CENTER
100
AcDbText
 10
14.50384914427511
 20
29.01251085696316
 30
0.0
 40
0.25
  1
C
100
AcDbText
  0
TEXT
  5
6AD
330
18
100
AcDbEntity
  8
CENTER
100
AcDbText
 10
14.61183358110795
 20
28.83672824729377
 30
0.0
 40
0.25
  1
L
100
AcDbText
  0
DIMENSION
  5
6AE
330
18
100
AcDbEntity
  8
DIM
100
AcDbDimension
280
     0
  2
*D29
 10
8.206125705709734
 20
28.0268712831599
 30
0.0
 11
7.471125705709728
 21
27.6518712831599
 31
0.0
 70
   160
 71
     5
 42
1.125
 73
     0
 74
     0
 75
     0
  3
STANDARD
100
AcDbAlignedDimension
 13
9.755806179291969
 23
29.1518712831599
 33
0.0
 14
11.42089193467094
 24
28.0268712831599
 34
0.0
 50
90.0
100
AcDbRotatedDimension
1001
ACAD
1000
DSTYLE
1002
{
1070
    41
1040
0.1875
1070
    42
1040
0.09375
1070
    43
1040
0.375
1070
    44
1040
0.1875
1070
   141
1040
0.09375
1070
   147
1040
0.1875
1070
   271
1070
     5
1070
   276
1070
     2
1070
   277
1070
     5
1070
   289
1070
     0
1002
}
  0
DIMENSION
  5
6AF
330
18
100
AcDbEntity
  8
DIM
100
AcDbDimension
280
     0
  2
*D30
 10
7.436866267445698
 20
30.2768712831599
 30
0.0
 11
8.171866267445693
 21
30.65187128315991
 31
0.0
 70
   160
 71
     5
 42
1.125
 73
     0
 74
     0
 75
     0
  3
STANDARD
100
AcDbAlignedDimension
 13
9.662056179291969
 23
29.1518712831599
 33
0.0
 14
11.42089193467093
 24
30.2768712831599
 34
0.0
 50
90.0
100
AcDbRotatedDimension
1001
ACAD
1000
DSTYLE
1002
{
1070
    41
1040
0.1875
1070
    42
1040
0.09375
1070
    43
1040
0.375
1070
    44
1040
0.1875
1070
   141
1040
0.09375
1070
   147
1040
0.1875
1070
   271
1070
     5
1070
   276
1070
     2
1070
   277
1070
     5
1070
   289
1070
     0
1002
}
  0
INSERT
  5
6B0
330
18
100
AcDbEntity
  8
0
100
AcDbBlockReference
  2
PBHD
 10
29.72075209915866
 20
13.70961301983168
 30
0.0
  0
LINE
  5
6B1
330
18
100
AcDbEntity
  8
CENTER
100
AcDbLine
 10
12.17089193467093
 20
31.18411712837805
 30
0.0
 11
12.17089193467093
 21
32.66226929631592
 31
0.0
  0
LINE
  5
6B2
330
18
100
AcDbEntity
  8
CENTER
100
AcDbLine
 10
12.17089193467093
 20
27.1206212831599
 30
0.0
 11
12.17089193467093
 21
25.64378381744056
 31
0.0
  0
DIMENSION
  5
6B3
330
18
100
AcDbEntity
  8
DIM
100
AcDbDimension
280
     0
  2
*D39
 10
47.13854772108212
 20
16.55304320239026
 30
0.0
 11
47.72354772108211
 21
16.92804320239027
 31
0.0
 70
    32
 71
     5
 42
0.125
 73
     0
 74
     0
 75
     0
  3
STANDARD
100
AcDbAlignedDimension
 13
47.06123305759449
 23
16.42804320239026
 33
0.0
 14
47.00945636229785
 24
16.55304320239026
 34
0.0
 50
90.0
100
AcDbRotatedDimension
1001
ACAD
1000
DSTYLE
1002
{
1070
    41
1040
0.1875
1070
    42
1040
0.09375
1070
    43
1040
0.375
1070
    44
1040
0.1875
1070
   141
1040
0.09375
1070
   147
1040
0.1875
1070
   271
1070
     5
1070
   276
1070
     2
1070
   277
1070
     5
1070
   289
1070
     0
1002
}
  0
TEXT
  5
6B4
330
18
100
AcDbEntity
  8
CENTER
100
AcDbText
 10
12.08401608252113
 20
25.52577496123482
 30
0.0
 40
0.25
  1
C
100
AcDbText
  0
TEXT
  5
6B5
330
18
100
AcDbEntity
  8
CENTER
100
AcDbText
 10
12.19200051935396
 20
25.34999235156544
 30
0.0
 40
0.25
  1
L
100
AcDbText
  0
DIMENSION
  5
6B6
330
18
100
AcDbEntity
  8
DIM
100
AcDbDimension
280
     0
  2
*D31
 10
17.30653611843642
 20
16.6471551053087
 30
0.0
 11
17.30653611843642
 21
14.70215510530871
 31
0.0
 70
    32
 71
     5
 42
3.889999999999995
 73
     0
 74
     0
 75
     0
  3
STANDARD
100
AcDbAlignedDimension
 13
13.79913619783674
 23
12.75715510530871
 33
0.0
 14
13.42089193467093
 24
16.6471551053087
 34
0.0
 50
90.0
100
AcDbRotatedDimension
1001
ACAD
1000
DSTYLE
1002
{
1070
    41
1040
0.1875
1070
    42
1040
0.09375
1070
    43
1040
0.375
1070
    44
1040
0.1875
1070
   141
1040
0.09375
1070
   147
1040
0.1875
1070
   271
1070
     5
1070
   276
1070
     2
1070
   277
1070
     5
1070
   289
1070
     0
1002
}
  0
INSERT
  5
6B7
330
18
100
AcDbEntity
  8
DIM
100
AcDbBlockReference
  2
SAAR
 10
14.17014193467093
 20
30.36938646357435
 30
0.0
 41
2.0
 42
2.0
 43
2.0
  0
INSERT
  5
6B8
330
18
100
AcDbEntity
  8
DIM
100
AcDbBlockReference
  2
SBBT
 10
13.02969796872383
 20
32.64739865799727
 30
0.0
 41
2.0
 42
2.0
 43
2.0
  0
INSERT
  5
6B9
330
18
100
AcDbEntity
  8
DIM
100
AcDbBlockReference
  2
SAAL
 10
10.17164193467093
 20
30.36938646357436
 30
0.0
 41
2.0
 42
2.0
 43
2.0
  0
INSERT
  5
6BA
330
18
100
AcDbEntity
  8
DIM
100
AcDbBlockReference
  2
SBBB
 10
13.02969796872383
 20
25.6125468070503
 30
0.0
 41
2.0
 42
2.0
 43
2.0
  0
INSERT
  5
6BB
330
18
100
AcDbEntity
  8
DIM
100
AcDbBlockReference
  2
SBBTX
 10
48.62490879362955
 20
24.29118238622214
 30
0.0
 41
2.0
 42
2.0
 43
2.0
  0
INSERT
  5
6BC
330
18
100
AcDbEntity
  8
DIM
100
AcDbBlockReference
  2
SAATX
 10
48.62490879362955
 20
8.873544601062128
 30
0.0
 41
2.0
 42
2.0
 43
2.0
  0
TEXT
  5
6BF
330
18
100
AcDbEntity
  8
TITLE
100
AcDbText
 10
44.78434448856424
 20
2.372145699294977
 30
0.0
 40
0.187
  1
F.R. POLYESTER FIBERGLASS
100
AcDbText
  0
TEXT
  5
6C0
330
18
100
AcDbEntity
  8
TITLE
100
AcDbText
 10
56.27012092289253
 20
0.1721718652714064
 30
0.0
 40
0.187
  1
ENCLOSURE
100
AcDbText
  0
TEXT
  5
6C1
330
18
100
AcDbEntity
  8
TITLE
100
AcDbText
 10
61.16705277546757
 20
0.1721718652714064
 30
0.0
 40
0.187
  1
HW-N4X2PB
100
AcDbText
  0
SOLID
  5
6C2
330
18
100
AcDbEntity
  8
DIM
100
AcDbTrace
 10
12.8843258446914
 20
27.64215198371779
 30
0.0
 11
12.92212691651755
 21
27.6887468221529
 31
0.0
 12
12.76344186529915
 22
27.77885261841381
 32
0.0
 13
12.76344186529915
 23
27.77885261841381
 33
0.0
  0
LINE
  5
6C3
330
18
100
AcDbEntity
  8
DIM
100
AcDbLine
 10
12.90322638060447
 20
27.66544940293535
 30
0.0
 11
14.62401862776305
 21
26.26941942370665
 31
0.0
  0
LINE
  5
6C4
330
18
100
AcDbEntity
  8
DIM
100
AcDbLine
 10
14.62401862776305
 20
26.26941942370665
 30
0.0
 11
14.80401862776305
 21
26.26941942370665
 31
0.0
  0
TEXT
  5
6C5
330
18
100
AcDbEntity
  8
DIM
100
AcDbText
 10
14.98401862776305
 20
26.17941942370665
 30
0.0
 40
0.18
  1
SEE DETAIL A
100
AcDbText
  0
SOLID
  5
6C6
330
18
100
AcDbEntity
  8
DIM
100
AcDbTrace
 10
14.01937369749221
 20
25.85788417995419
 30
0.0
 11
14.06790837251637
 21
25.89316002608577
 31
0.0
 12
13.93781349660955
 22
26.02112612809247
 32
0.0
 13
13.93781349660955
 23
26.02112612809247
 33
0.0
  0
LINE
  5
6C7
330
18
100
AcDbEntity
  8
DIM
100
AcDbLine
 10
14.04364103500429
 20
25.87552210301998
 30
0.0
 11
14.46897056422439
 21
25.29032762173443
 31
0.0
  0
LINE
  5
6C8
330
18
100
AcDbEntity
  8
DIM
100
AcDbLine
 10
14.46897056422439
 20
25.29032762173443
 30
0.0
 11
14.64897056422439
 21
25.29032762173443
 31
0.0
  0
TEXT
  5
6C9
330
18
100
AcDbEntity
  8
DIM
100
AcDbText
 10
14.82897056422439
 20
25.20032762173443
 30
0.0
 40
0.18
  1
10-24 S.S. PAN HD. SCREW
100
AcDbText
  0
POLYLINE
  5
6CA
330
18
100
AcDbEntity
  8
0
100
AcDb2dPolyline
 66
     1
 10
0.0
 20
0.0
 30
0.0
 70
     1
  0
VERTEX
  5
6CB
330
6CA
100
AcDbEntity
  8
0
100
AcDbVertex
100
AcDb2dVertex
 10
50.0406301692605
 20
15.92804320239027
 30
0.0
  0
VERTEX
  5
6CC
330
6CA
100
AcDbEntity
  8
0
100
AcDbVertex
100
AcDb2dVertex
 10
50.16570636229786
 20
15.92804320239027
 30
0.0
  0
VERTEX
  5
6CD
330
6CA
100
AcDbEntity
  8
0
100
AcDbVertex
100
AcDb2dVertex
 10
50.15253490390847
 20
16.30522442093417
 30
0.0
 42
0.4040262258351567
  0
VERTEX
  5
6CE
330
6CA
100
AcDbEntity
  8
0
100
AcDbVertex
100
AcDb2dVertex
 10
50.09007297721979
 20
16.36554320239027
 30
0.0
  0
VERTEX
  5
6CF
330
6CA
100
AcDbEntity
  8
0
100
AcDbVertex
100
AcDb2dVertex
 10
49.69695636229786
 20
16.36554320239026
 30
0.0
  0
VERTEX
  5
6D0
330
6CA
100
AcDbEntity
  8
0
100
AcDbVertex
100
AcDb2dVertex
 10
49.50945636229786
 20
16.55304320239026
 30
0.0
  0
VERTEX
  5
6D1
330
6CA
100
AcDbEntity
  8
0
100
AcDbVertex
100
AcDb2dVertex
 10
47.00945636229785
 20
16.55304320239026
 30
0.0
  0
VERTEX
  5
6D2
330
6CA
100
AcDbEntity
  8
0
100
AcDbVertex
100
AcDb2dVertex
 10
46.82195636229785
 20
16.36554320239026
 30
0.0
  0
VERTEX
  5
6D3
330
6CA
100
AcDbEntity
  8
0
100
AcDbVertex
100
AcDb2dVertex
 10
46.42883974737594
 20
16.36554320239026
 30
0.0
 42
0.4040262258351567
  0
VERTEX
  5
6D4
330
6CA
100
AcDbEntity
  8
0
100
AcDbVertex
100
AcDb2dVertex
 10
46.36637782068724
 20
16.30522442093417
 30
0.0
  0
VERTEX
  5
6D5
330
6CA
100
AcDbEntity
  8
0
100
AcDbVertex
100
AcDb2dVertex
 10
46.35320636229786
 20
15.92804320239027
 30
0.0
  0
VERTEX
  5
6D6
330
6CA
100
AcDbEntity
  8
0
100
AcDbVertex
100
AcDb2dVertex
 10
46.47828255533521
 20
15.92804320239027
 30
0.0
  0
VERTEX
  5
6D7
330
6CA
100
AcDbEntity
  8
0
100
AcDbVertex
100
AcDb2dVertex
 10
46.48919529580139
 20
16.24054320239026
 30
0.0
  0
VERTEX
  5
6D8
330
6CA
100
AcDbEntity
  8
0
100
AcDbVertex
100
AcDb2dVertex
 10
46.87373305759449
 20
16.24054320239026
 30
0.0
  0
VERTEX
  5
6D9
330
6CA
100
AcDbEntity
  8
0
100
AcDbVertex
100
AcDb2dVertex
 10
47.06123305759449
 20
16.42804320239026
 30
0.0
  0
VERTEX
  5
6DA
330
6CA
100
AcDbEntity
  8
0
100
AcDbVertex
100
AcDb2dVertex
 10
49.45767966700122
 20
16.42804320239026
 30
0.0
  0
VERTEX
  5
6DB
330
6CA
100
AcDbEntity
  8
0
100
AcDbVertex
100
AcDb2dVertex
 10
49.64517966700122
 20
16.24054320239026
 30
0.0
  0
VERTEX
  5
6DC
330
6CA
100
AcDbEntity
  8
0
100
AcDbVertex
100
AcDb2dVertex
 10
50.02971742879434
 20
16.24054320239026
 30
0.0
  0
SEQEND
  5
6DD
330
6CA
100
AcDbEntity
  8
0
  0
POLYLINE
  5
6DE
330
18
100
AcDbEntity
  8
0
100
AcDb2dPolyline
 66
     1
 10
0.0
 20
0.0
 30
0.0
 70
     1
  0
VERTEX
  5
6DF
330
6DE
100
AcDbEntity
  8
0
100
AcDbVertex
100
AcDb2dVertex
 10
46.50114094899635
 20
16.16304320239026
 30
0.0
  0
VERTEX
  5
6E0
330
6DE
100
AcDbEntity
  8
0
100
AcDbVertex
100
AcDb2dVertex
 10
46.48397740128115
 20
15.91304320239027
 30
0.0
  0
VERTEX
  5
6E1
330
6DE
100
AcDbEntity
  8
0
100
AcDbVertex
100
AcDb2dVertex
 10
46.35320636229786
 20
15.91304320239027
 30
0.0
  0
VERTEX
  5
6E2
330
6DE
100
AcDbEntity
  8
0
100
AcDbVertex
100
AcDb2dVertex
 10
46.35320636229786
 20
15.74054320239027
 30
0.0
  0
VERTEX
  5
6E3
330
6DE
100
AcDbEntity
  8
0
100
AcDbVertex
100
AcDb2dVertex
 10
46.48917028309729
 20
15.61554320239027
 30
0.0
  0
VERTEX
  5
6E4
330
6DE
100
AcDbEntity
  8
0
100
AcDbVertex
100
AcDb2dVertex
 10
46.53749065629023
 20
12.84727087618328
 30
0.0
 42
0.4091108014277098
  0
VERTEX
  5
6E5
330
6DE
100
AcDbEntity
  8
0
100
AcDbVertex
100
AcDb2dVertex
 10
46.72496209913205
 20
12.66304320239027
 30
0.0
  0
VERTEX
  5
6E6
330
6DE
100
AcDbEntity
  8
0
100
AcDbVertex
100
AcDb2dVertex
 10
49.79395062546367
 20
12.66304320239027
 30
0.0
 42
0.4091108014277098
  0
VERTEX
  5
6E7
330
6DE
100
AcDbEntity
  8
0
100
AcDbVertex
100
AcDb2dVertex
 10
49.9814220683055
 20
12.84727087618328
 30
0.0
  0
VERTEX
  5
6E8
330
6DE
100
AcDbEntity
  8
0
100
AcDbVertex
100
AcDb2dVertex
 10
50.02974244149842
 20
15.61554320239027
 30
0.0
  0
VERTEX
  5
6E9
330
6DE
100
AcDbEntity
  8
0
100
AcDbVertex
100
AcDb2dVertex
 10
50.16570636229786
 20
15.74054320239027
 30
0.0
  0
VERTEX
  5
6EA
330
6DE
100
AcDbEntity
  8
0
100
AcDbVertex
100
AcDb2dVertex
 10
50.16570636229786
 20
15.91304320239027
 30
0.0
  0
VERTEX
  5
6EB
330
6DE
100
AcDbEntity
  8
0
100
AcDbVertex
100
AcDb2dVertex
 10
50.03493532331456
 20
15.91304320239027
 30
0.0
  0
VERTEX
  5
6EC
330
6DE
100
AcDbEntity
  8
0
100
AcDbVertex
100
AcDb2dVertex
 10
50.01777177559938
 20
16.16304320239027
 30
0.0
  0
VERTEX
  5
6ED
330
6DE
100
AcDbEntity
  8
0
100
AcDbVertex
100
AcDb2dVertex
 10
49.91563281607307
 20
16.16304320239027
 30
0.0
  0
VERTEX
  5
6EE
330
6DE
100
AcDbEntity
  8
0
100
AcDbVertex
100
AcDb2dVertex
 10
49.85644110641095
 20
12.84945242698794
 30
0.0
 42
-0.4091108014277098
  0
VERTEX
  5
6EF
330
6DE
100
AcDbEntity
  8
0
100
AcDbVertex
100
AcDb2dVertex
 10
49.79395062546367
 20
12.78804320239027
 30
0.0
  0
VERTEX
  5
6F0
330
6DE
100
AcDbEntity
  8
0
100
AcDbVertex
100
AcDb2dVertex
 10
46.72496209913205
 20
12.78804320239027
 30
0.0
 42
-0.4091108014277098
  0
VERTEX
  5
6F1
330
6DE
100
AcDbEntity
  8
0
100
AcDbVertex
100
AcDb2dVertex
 10
46.66247161818477
 20
12.84945242698794
 30
0.0
  0
VERTEX
  5
6F2
330
6DE
100
AcDbEntity
  8
0
100
AcDbVertex
100
AcDb2dVertex
 10
46.60327990852265
 20
16.16304320239026
 30
0.0
  0
SEQEND
  5
6F3
330
6DE
100
AcDbEntity
  8
0
  0
POLYLINE
  5
6F4
330
18
100
AcDbEntity
  8
0
100
AcDb2dPolyline
 66
     1
 10
0.0
 20
0.0
 30
0.0
 70
     1
  0
VERTEX
  5
6F5
330
6F4
100
AcDbEntity
  8
0
100
AcDbVertex
100
AcDb2dVertex
 10
46.96948117856606
 20
25.87033557327881
 30
0.0
  0
VERTEX
  5
6F6
330
6F4
100
AcDbEntity
  8
0
100
AcDbVertex
100
AcDb2dVertex
 10
46.96948117856606
 20
25.74525938024146
 30
0.0
  0
VERTEX
  5
6F7
330
6F4
100
AcDbEntity
  8
0
100
AcDbVertex
100
AcDb2dVertex
 10
46.59229996002215
 20
25.75843083863084
 30
0.0
 42
-0.4040262258351567
  0
VERTEX
  5
6F8
330
6F4
100
AcDbEntity
  8
0
100
AcDbVertex
100
AcDb2dVertex
 10
46.53198117856605
 20
25.82089276531954
 30
0.0
  0
VERTEX
  5
6F9
330
6F4
100
AcDbEntity
  8
0
100
AcDbVertex
100
AcDb2dVertex
 10
46.53198117856605
 20
26.21400938024145
 30
0.0
  0
VERTEX
  5
6FA
330
6F4
100
AcDbEntity
  8
0
100
AcDbVertex
100
AcDb2dVertex
 10
46.34448117856606
 20
26.40150938024145
 30
0.0
  0
VERTEX
  5
6FB
330
6F4
100
AcDbEntity
  8
0
100
AcDbVertex
100
AcDb2dVertex
 10
46.34448117856606
 20
31.71400938024146
 30
0.0
  0
VERTEX
  5
6FC
330
6F4
100
AcDbEntity
  8
0
100
AcDbVertex
100
AcDb2dVertex
 10
46.53198117856605
 20
31.90150938024146
 30
0.0
  0
VERTEX
  5
6FD
330
6F4
100
AcDbEntity
  8
0
100
AcDbVertex
100
AcDb2dVertex
 10
46.53198117856605
 20
32.29462599516338
 30
0.0
 42
-0.4040262258351567
  0
VERTEX
  5
6FE
330
6F4
100
AcDbEntity
  8
0
100
AcDbVertex
100
AcDb2dVertex
 10
46.59229996002215
 20
32.35708792185207
 30
0.0
  0
VERTEX
  5
6FF
330
6F4
100
AcDbEntity
  8
0
100
AcDbVertex
100
AcDb2dVertex
 10
46.96948117856606
 20
32.37025938024146
 30
0.0
  0
VERTEX
  5
700
330
6F4
100
AcDbEntity
  8
0
100
AcDbVertex
100
AcDb2dVertex
 10
46.96948117856606
 20
32.24518318720411
 30
0.0
  0
VERTEX
  5
701
330
6F4
100
AcDbEntity
  8
0
100
AcDbVertex
100
AcDb2dVertex
 10
46.65698117856606
 20
32.23427044673794
 30
0.0
  0
VERTEX
  5
702
330
6F4
100
AcDbEntity
  8
0
100
AcDbVertex
100
AcDb2dVertex
 10
46.65698117856606
 20
31.84973268494482
 30
0.0
  0
VERTEX
  5
703
330
6F4
100
AcDbEntity
  8
0
100
AcDbVertex
100
AcDb2dVertex
 10
46.46948117856605
 20
31.66223268494482
 30
0.0
  0
VERTEX
  5
704
330
6F4
100
AcDbEntity
  8
0
100
AcDbVertex
100
AcDb2dVertex
 10
46.46948117856605
 20
26.45328607553809
 30
0.0
  0
VERTEX
  5
705
330
6F4
100
AcDbEntity
  8
0
100
AcDbVertex
100
AcDb2dVertex
 10
46.65698117856606
 20
26.26578607553809
 30
0.0
  0
VERTEX
  5
706
330
6F4
100
AcDbEntity
  8
0
100
AcDbVertex
100
AcDb2dVertex
 10
46.65698117856606
 20
25.88124831374499
 30
0.0
  0
SEQEND
  5
707
330
6F4
100
AcDbEntity
  8
0
  0
POLYLINE
  5
708
330
18
100
AcDbEntity
  8
0
100
AcDb2dPolyline
 66
     1
 10
0.0
 20
0.0
 30
0.0
 70
     1
  0
VERTEX
  5
709
330
708
100
AcDbEntity
  8
0
100
AcDbVertex
100
AcDb2dVertex
 10
47.28198117856606
 20
32.23429545944203
 30
0.0
  0
VERTEX
  5
70A
330
708
100
AcDbEntity
  8
0
100
AcDbVertex
100
AcDb2dVertex
 10
50.05025350477305
 20
32.1859750862491
 30
0.0
 42
-0.4091108014277097
  0
VERTEX
  5
70B
330
708
100
AcDbEntity
  8
0
100
AcDbVertex
100
AcDb2dVertex
 10
50.23448117856606
 20
31.99850364340727
 30
0.0
  0
VERTEX
  5
70C
330
708
100
AcDbEntity
  8
0
100
AcDbVertex
100
AcDb2dVertex
 10
50.23448117856606
 20
26.11701511707565
 30
0.0
 42
-0.4091108014277098
  0
VERTEX
  5
70D
330
708
100
AcDbEntity
  8
0
100
AcDbVertex
100
AcDb2dVertex
 10
50.05025350477304
 20
25.92954367423383
 30
0.0
  0
VERTEX
  5
70E
330
708
100
AcDbEntity
  8
0
100
AcDbVertex
100
AcDb2dVertex
 10
47.28198117856606
 20
25.88122330104089
 30
0.0
  0
VERTEX
  5
70F
330
708
100
AcDbEntity
  8
0
100
AcDbVertex
100
AcDb2dVertex
 10
47.15698117856605
 20
25.74525938024146
 30
0.0
  0
VERTEX
  5
710
330
708
100
AcDbEntity
  8
0
100
AcDbVertex
100
AcDb2dVertex
 10
46.98448117856606
 20
25.74525938024146
 30
0.0
  0
VERTEX
  5
711
330
708
100
AcDbEntity
  8
0
100
AcDbVertex
100
AcDb2dVertex
 10
46.98448117856606
 20
25.87603041922475
 30
0.0
  0
VERTEX
  5
712
330
708
100
AcDbEntity
  8
0
100
AcDbVertex
100
AcDb2dVertex
 10
46.73448117856605
 20
25.89319396693995
 30
0.0
  0
VERTEX
  5
713
330
708
100
AcDbEntity
  8
0
100
AcDbVertex
100
AcDb2dVertex
 10
46.73448117856605
 20
25.99533292646625
 30
0.0
  0
VERTEX
  5
714
330
708
100
AcDbEntity
  8
0
100
AcDbVertex
100
AcDb2dVertex
 10
50.04807195396839
 20
26.05452463612837
 30
0.0
 42
0.4091108014277098
  0
VERTEX
  5
715
330
708
100
AcDbEntity
  8
0
100
AcDbVertex
100
AcDb2dVertex
 10
50.10948117856607
 20
26.11701511707565
 30
0.0
  0
VERTEX
  5
716
330
708
100
AcDbEntity
  8
0
100
AcDbVertex
100
AcDb2dVertex
 10
50.10948117856607
 20
31.99850364340727
 30
0.0
 42
0.4091108014277097
  0
VERTEX
  5
717
330
708
100
AcDbEntity
  8
0
100
AcDbVertex
100
AcDb2dVertex
 10
50.04807195396839
 20
32.06099412435455
 30
0.0
  0
VERTEX
  5
718
330
708
100
AcDbEntity
  8
0
100
AcDbVertex
100
AcDb2dVertex
 10
46.73448117856605
 20
32.12018583401667
 30
0.0
  0
VERTEX
  5
719
330
708
100
AcDbEntity
  8
0
100
AcDbVertex
100
AcDb2dVertex
 10
46.73448117856605
 20
32.22232479354298
 30
0.0
  0
VERTEX
  5
71A
330
708
100
AcDbEntity
  8
0
100
AcDbVertex
100
AcDb2dVertex
 10
46.98448117856606
 20
32.23948834125817
 30
0.0
  0
VERTEX
  5
71B
330
708
100
AcDbEntity
  8
0
100
AcDbVertex
100
AcDb2dVertex
 10
46.98448117856606
 20
32.37025938024146
 30
0.0
  0
VERTEX
  5
71C
330
708
100
AcDbEntity
  8
0
100
AcDbVertex
100
AcDb2dVertex
 10
47.15698117856605
 20
32.37025938024146
 30
0.0
  0
SEQEND
  5
71D
330
708
100
AcDbEntity
  8
0
  0
DIMENSION
  5
71E
330
18
100
AcDbEntity
  8
DIM
100
AcDbDimension
280
     0
  2
*D40
 10
46.11542425708726
 20
12.66304320239027
 30
0.0
 11
45.53042425708727
 21
12.28804320239027
 31
0.0
 70
    32
 71
     5
 42
0.125
 73
     0
 74
     0
 75
     0
  3
STANDARD
100
AcDbAlignedDimension
 13
46.72496209913205
 23
12.78804320239027
 33
0.0
 14
46.72496209913205
 24
12.66304320239027
 34
0.0
 50
90.0
100
AcDbRotatedDimension
1001
ACAD
1000
DSTYLE
1002
{
1070
    41
1040
0.1875
1070
    42
1040
0.09375
1070
    43
1040
0.375
1070
    44
1040
0.1875
1070
   141
1040
0.09375
1070
   147
1040
0.1875
1070
   271
1070
     5
1070
   276
1070
     2
1070
   277
1070
     5
1070
   289
1070
     0
1002
}
  0
TEXT
  5
71F
330
18
100
AcDbEntity
  8
DIM
100
AcDbText
 10
45.11426241739633
 20
11.90367140360683
 30
0.0
 40
0.187
  1
TYP.
100
AcDbText
  0
SOLID
  5
720
330
18
100
AcDbEntity
  8
DIM
100
AcDbTrace
 10
46.6248400003801
 20
32.39114889297764
 30
0.0
 11
46.57239875605196
 21
32.36199557595681
 31
0.0
 12
46.68607932927851
 22
32.21924850148282
 32
0.0
 13
46.68607932927851
 23
32.21924850148282
 33
0.0
  0
LINE
  5
721
330
18
100
AcDbEntity
  8
DIM
100
AcDbLine
 10
46.59861937821603
 20
32.37657223446723
 30
0.0
 11
46.09395682509943
 21
33.28436369546443
 31
0.0
  0
LINE
  5
722
330
18
100
AcDbEntity
  8
DIM
100
AcDbLine
 10
46.09395682509943
 20
33.28436369546443
 30
0.0
 11
45.91395682509943
 21
33.28436369546443
 31
0.0
  0
TEXT
  5
723
330
18
100
AcDbEntity
  8
DIM
100
AcDbText
 10
44.71715498634806
 20
33.19436369546443
 30
0.0
 40
0.18
  1
GASKET
100
AcDbText
  0
TEXT
  5
724
330
18
100
AcDbEntity
  8
TITLE
100
AcDbText
 10
62.32602244465855
 20
3.270698908963567
 30
0.0
 40
0.187
  1
1/32
100
AcDbText
  0
TEXT
  5
725
330
18
100
AcDbEntity
  8
TITLE
100
AcDbText
 10
52.2875076868285
 20
2.366327774310242
 30
0.0
 40
0.187
  1
SH
100
AcDbText
  0
TEXT
  5
726
330
18
100
AcDbEntity
  8
TITLE
100
AcDbText
 10
53.23839985350492
 20
2.366327774310242
 30
0.0
 40
0.187
  1
7/16/91
 41
0.9118643715730785
 72
     5
 11
54.26151167840991
 21
2.366327774310242
 31
0.0
100
AcDbText
  0
POLYLINE
  5
A99
330
18
100
AcDbEntity
  8
TITLE
100
AcDb2dPolyline
 66
     1
 10
0.0
 20
0.0
 30
0.0
 70
     1
  0
VERTEX
  5
A9A
330
A99
100
AcDbEntity
  8
TITLE
100
AcDbVertex
100
AcDb2dVertex
 10
63.98000000000377
 20
41.73000000000278
 30
0.0
  0
VERTEX
  5
A9B
330
A99
100
AcDbEntity
  8
TITLE
100
AcDbVertex
100
AcDb2dVertex
 10
0.0199999999999943
 20
41.73000000000278
 30
0.0
  0
VERTEX
  5
A9C
330
A99
100
AcDbEntity
  8
TITLE
100
AcDbVertex
100
AcDb2dVertex
 10
0.0199999999999996
 20
0.0200000000000014
 30
0.0
  0
VERTEX
  5
A9D
330
A99
100
AcDbEntity
  8
TITLE
100
AcDbVertex
100
AcDb2dVertex
 10
63.98000000000374
 20
0.0200000000000014
 30
0.0
  0
SEQEND
  5
A9E
330
A99
100
AcDbEntity
  8
TITLE
  0
POLYLINE
  5
A9F
330
18
100
AcDbEntity
  8
TITLE
100
AcDb2dPolyline
 66
     1
 10
0.0
 20
0.0
 30
0.0
 70
     1
  0
VERTEX
  5
AA0
330
A9F
100
AcDbEntity
  8
TITLE
100
AcDbVertex
100
AcDb2dVertex
 10
64.00000000000376
 20
41.75000000000276
 30
0.0
  0
VERTEX
  5
AA1
330
A9F
100
AcDbEntity
  8
TITLE
100
AcDbVertex
100
AcDb2dVertex
 10
-0.0000000000000071
 20
41.75000000000276
 30
0.0
  0
VERTEX
  5
AA2
330
A9F
100
AcDbEntity
  8
TITLE
100
AcDbVertex
100
AcDb2dVertex
 10
0.0
 20
0.0000000000000018
 30
0.0
  0
VERTEX
  5
AA3
330
A9F
100
AcDbEntity
  8
TITLE
100
AcDbVertex
100
AcDb2dVertex
 10
64.00000000000374
 20
0.0000000000000018
 30
0.0
  0
SEQEND
  5
AA4
330
A9F
100
AcDbEntity
  8
TITLE
  0
POLYLINE
  5
AA5
330
18
100
AcDbEntity
  8
TITLE
100
AcDb2dPolyline
 66
     1
 10
0.0
 20
0.0
 30
0.0
 70
     1
  0
VERTEX
  5
AA6
330
AA5
100
AcDbEntity
  8
TITLE
100
AcDbVertex
100
AcDb2dVertex
 10
63.96000000000377
 20
41.71000000000276
 30
0.0
  0
VERTEX
  5
AA7
330
AA5
100
AcDbEntity
  8
TITLE
100
AcDbVertex
100
AcDb2dVertex
 10
0.0399999999999943
 20
41.71000000000276
 30
0.0
  0
VERTEX
  5
AA8
330
AA5
100
AcDbEntity
  8
TITLE
100
AcDbVertex
100
AcDb2dVertex
 10
0.0399999999999996
 20
0.0400000000000014
 30
0.0
  0
VERTEX
  5
AA9
330
AA5
100
AcDbEntity
  8
TITLE
100
AcDbVertex
100
AcDb2dVertex
 10
63.96000000000374
 20
0.0400000000000014
 30
0.0
  0
SEQEND
  5
AAA
330
AA5
100
AcDbEntity
  8
TITLE
  0
LINE
  5
AAB
330
18
100
AcDbEntity
  8
TITLE
100
AcDbLine
 10
63.96000000000374
 20
0.7900000000000014
 30
0.0
 11
42.96000000000375
 21
0.790000000000005
 31
0.0
  0
LINE
  5
AAC
330
18
100
AcDbEntity
  8
TITLE
100
AcDbLine
 10
54.33500000000375
 20
1.540000000000001
 30
0.0
 11
42.96000000000375
 21
1.540000000000004
 31
0.0
  0
LINE
  5
AAD
330
18
100
AcDbEntity
  8
TITLE
100
AcDbLine
 10
54.33500000000375
 20
2.290000000000001
 30
0.0
 11
42.96000000000375
 21
2.290000000000004
 31
0.0
  0
LINE
  5
AAE
330
18
100
AcDbEntity
  8
TITLE
100
AcDbLine
 10
63.96000000000374
 20
3.040000000000001
 30
0.0
 11
42.96000000000375
 21
3.040000000000004
 31
0.0
  0
LINE
  5
AAF
330
18
100
AcDbEntity
  8
TITLE
100
AcDbLine
 10
57.33500000000375
 20
3.540000000000002
 30
0.0
 11
42.96000000000375
 21
3.540000000000004
 31
0.0
  0
LINE
  5
AB0
330
18
100
AcDbEntity
  8
TITLE
100
AcDbLine
 10
63.96000000000374
 20
4.04
 30
0.0
 11
42.96000000000375
 21
4.040000000000004
 31
0.0
  0
LINE
  5
AB1
330
18
100
AcDbEntity
  8
TITLE
100
AcDbLine
 10
51.83500000000375
 20
3.040000000000001
 30
0.0
 11
51.83500000000375
 21
0.0399999999999996
 31
0.0
  0
LINE
  5
AB2
330
18
100
AcDbEntity
  8
TITLE
100
AcDbLine
 10
50.96000000000374
 20
2.290000000000004
 30
0.0
 11
50.96000000000374
 21
0.0400000000000085
 31
0.0
  0
LINE
  5
AB3
330
18
100
AcDbEntity
  8
TITLE
100
AcDbLine
 10
50.08500000000374
 20
2.290000000000004
 30
0.0
 11
50.08500000000374
 21
0.0400000000000067
 31
0.0
  0
LINE
  5
AB4
330
18
100
AcDbEntity
  8
TITLE
100
AcDbLine
 10
48.96000000000374
 20
2.290000000000004
 30
0.0
 11
48.96000000000374
 21
0.0400000000000049
 31
0.0
  0
LINE
  5
AB5
330
18
100
AcDbEntity
  8
TITLE
100
AcDbLine
 10
43.96000000000374
 20
2.290000000000001
 30
0.0
 11
43.96000000000374
 21
0.0400000000000014
 31
0.0
  0
LINE
  5
AB6
330
18
100
AcDbEntity
  8
TITLE
100
AcDbLine
 10
42.96000000000375
 20
4.040000000000004
 30
0.0
 11
42.96000000000375
 21
0.0400000000000014
 31
0.0
  0
LINE
  5
AB7
330
18
100
AcDbEntity
  8
TITLE
100
AcDbLine
 10
51.83500000000375
 20
1.165000000000001
 30
0.0
 11
42.96000000000375
 21
1.165000000000004
 31
0.0
  0
LINE
  5
AB8
330
18
100
AcDbEntity
  8
TITLE
100
AcDbLine
 10
51.83500000000375
 20
0.4149999999999996
 30
0.0
 11
42.96000000000375
 21
0.415000000000005
 31
0.0
  0
TEXT
  5
AB9
330
18
100
AcDbEntity
  8
TITLE
100
AcDbText
 10
45.20274150067381
 20
2.036268066777214
 30
0.0
 40
0.154
  1
REVISION RECORD
  7
ITALIC
 72
     1
 11
46.30640816734048
 21
2.036268066777214
 31
0.0
100
AcDbText
  0
LINE
  5
ABA
330
18
100
AcDbEntity
  8
TITLE
100
AcDbLine
 10
51.83500000000375
 20
1.915000000000001
 30
0.0
 11
42.96000000000375
 21
1.915000000000004
 31
0.0
  0
TEXT
  5
ABB
330
18
100
AcDbEntity
  8
TITLE
100
AcDbText
 10
43.41367829470571
 20
2.762795715722289
 30
0.0
 40
0.154
  1
MATERIAL
  7
ITALIC
100
AcDbText
  0
TEXT
  5
ABC
330
18
100
AcDbEntity
  8
TITLE
100
AcDbText
 10
43.26186688171646
 20
2.055260544742853
 30
0.0
 40
0.154
  1
LET.
  7
ITALIC
 72
     1
 11
43.49286688171646
 21
2.055260544742853
 31
0.0
100
AcDbText
  0
TEXT
  5
ABD
330
18
100
AcDbEntity
  8
TITLE
100
AcDbText
 10
43.43743673306819
 20
4.138388543293784
 30
0.0
 40
0.14
  1
NOTES:
  7
ITALIC
100
AcDbText
  0
TEXT
  5
ABE
330
18
100
AcDbEntity
  8
TITLE
100
AcDbText
 10
49.21118533914498
 20
2.045764305760033
 30
0.0
 40
0.154
  1
DATE
  7
ITALIC
 72
     1
 11
49.4935186724783
 21
2.045764305760033
 31
0.0
100
AcDbText
  0
TEXT
  5
ABF
330
18
100
AcDbEntity
  8
TITLE
100
AcDbText
 10
50.38257751100488
 20
2.055260544742853
 30
0.0
 40
0.154
  1
BY
  7
ITALIC
 72
     1
 11
50.51091084433821
 21
2.055260544742853
 31
0.0
100
AcDbText
  0
TEXT
  5
AC0
330
18
100
AcDbEntity
  8
TITLE
100
AcDbText
 10
51.14538256127479
 20
2.036268066777214
 30
0.0
 40
0.154
  1
CHD.
  7
ITALIC
 72
     1
 11
51.3763825612748
 21
2.036268066777214
 31
0.0
100
AcDbText
  0
TEXT
  5
AC1
330
18
100
AcDbEntity
  8
TITLE
 62
     1
100
AcDbText
 10
61.83818339703766
 20
1.326747107986976
 30
0.0
 40
0.125
  1
AutoCAD DWG. FILE
100
AcDbText
  0
LINE
  5
AC2
330
18
100
AcDbEntity
  8
TITLE
 62
     1
100
AcDbLine
 10
63.96000000000374
 20
1.540000000000001
 30
0.0
 11
54.33500000000375
 21
1.540000000000001
 31
0.0
  0
LINE
  5
AC3
330
18
100
AcDbEntity
  8
TITLE
 62
     1
100
AcDbLine
 10
54.33500000000375
 20
3.039999999999997
 30
0.0
 11
54.33500000000375
 21
0.0399999999999996
 31
0.0
  0
LINE
  5
AC4
330
18
100
AcDbEntity
  8
TITLE
 62
     1
100
AcDbLine
 10
53.08500000000375
 20
3.040000000000004
 30
0.0
 11
53.08500000000375
 21
0.7900000000000032
 31
0.0
  0
TEXT
  5
AC5
330
18
100
AcDbEntity
  8
TITLE
100
AcDbText
 10
52.73472273397718
 20
0.5212952711989276
 30
0.0
 40
0.154
  1
SCALE
  7
ITALIC
 72
     1
 11
53.09405606731051
 21
0.5212952711989276
 31
0.0
100
AcDbText
  0
TEXT
  5
AC6
330
18
100
AcDbEntity
  8
TITLE
100
AcDbText
 10
52.20267205253438
 20
0.2172647121122048
 30
0.0
 40
0.15125
  1
DO NOT SCALE
 72
     1
 11
53.08496371920104
 21
0.2172647121122048
 31
0.0
100
AcDbText
  0
TEXT
  5
AC7
330
18
100
AcDbEntity
  8
TITLE
100
AcDbText
 10
51.96638083203399
 20
1.316742979900486
 30
0.0
 40
0.154
  1
APD. BY
  7
ITALIC
 72
     1
 11
52.42838083203399
 21
1.316742979900486
 31
0.0
100
AcDbText
  0
TEXT
  5
AC8
330
18
100
AcDbEntity
  8
TITLE
 62
     1
100
AcDbText
 10
53.47434386396953
 20
1.322440723290178
 30
0.0
 40
0.154
  1
DATE
  7
ITALIC
 72
     1
 11
53.75667719730286
 21
1.322440723290178
 31
0.0
100
AcDbText
  0
TEXT
  5
AC9
330
18
100
AcDbEntity
  8
TITLE
 62
     1
100
AcDbText
 10
54.54266216399277
 20
1.252558201771084
 30
0.0
 40
0.1694
  1
CUSTOMER
  7
ITALIC
 72
     2
 11
55.8413954973261
 21
1.252558201771084
 31
0.0
100
AcDbText
  0
TEXT
  5
ACA
330
18
100
AcDbEntity
  8
TITLE
 62
     1
100
AcDbText
 10
54.56633048452305
 20
0.5102494913256912
 30
0.0
 40
0.1694
  1
PART NAME
  7
ITALIC
100
AcDbText
  0
LINE
  5
ACB
330
18
100
AcDbEntity
  8
TITLE
 62
     1
100
AcDbLine
 10
59.21000000000375
 20
0.7900000000000014
 30
0.0
 11
59.21000000000375
 21
0.0399999999999978
 31
0.0
  0
TEXT
  5
ACC
330
18
100
AcDbEntity
  8
TITLE
 62
     1
100
AcDbText
 10
59.46791140966684
 20
0.5206953542067927
 30
0.0
 40
0.1694
  1
PART NO.
  7
ITALIC
100
AcDbText
  0
LINE
  5
ACD
330
18
100
AcDbEntity
  8
TITLE
 62
     1
100
AcDbLine
 10
61.74479396240641
 20
0.7900000000000014
 30
0.0
 11
61.74479396240641
 21
1.540000000000001
 31
0.0
  0
TEXT
  5
ACE
330
18
100
AcDbEntity
  8
TITLE
100
AcDbText
 10
51.96638083203399
 20
2.072056300604384
 30
0.0
 40
0.154
  1
CHK. BY
  7
ITALIC
 72
     1
 11
52.42838083203399
 21
2.072056300604384
 31
0.0
100
AcDbText
  0
TEXT
  5
ACF
330
18
100
AcDbEntity
  8
TITLE
100
AcDbText
 10
52.13269628546089
 20
2.82618097475822
 30
0.0
 40
0.14
  1
DR. BY
  7
ITALIC
 72
     1
 11
52.48269628546089
 21
2.82618097475822
 31
0.0
100
AcDbText
  0
TEXT
  5
AD0
330
18
100
AcDbEntity
  8
TITLE
 62
     1
100
AcDbText
 10
53.46190663208497
 20
2.072056300604384
 30
0.0
 40
0.154
  1
DATE
  7
ITALIC
 72
     1
 11
53.7442399654183
 21
2.072056300604384
 31
0.0
100
AcDbText
  0
TEXT
  5
AD1
330
18
100
AcDbEntity
  8
TITLE
 62
     1
100
AcDbText
 10
53.44713965836721
 20
2.822727796946285
 30
0.0
 40
0.14
  1
DATE
  7
ITALIC
 72
     1
 11
53.70380632503388
 21
2.822727796946285
 31
0.0
100
AcDbText
  0
TEXT
  5
AD2
330
18
100
AcDbEntity
  8
TITLE
 62
     1
100
AcDbText
 10
57.51343410179541
 20
3.27666845244556
 30
0.0
 40
0.15525
  1
UNLESS SPECIFIED
  7
ITALIC
 72
     1
 11
58.67780910179541
 21
3.27666845244556
 31
0.0
100
AcDbText
  0
LINE
  5
AD3
330
18
100
AcDbEntity
  8
TITLE
 62
     1
100
AcDbLine
 10
57.33500000000375
 20
4.04
 30
0.0
 11
57.33500000000375
 21
3.040000000000001
 31
0.0
  0
TEXT
  5
AD4
330
18
100
AcDbEntity
  8
TITLE
 62
     1
100
AcDbText
 10
57.92743410179541
 20
3.643086326406458
 30
0.0
 40
0.15525
  1
TOLERANCES
  7
ITALIC
 72
     1
 11
58.67780910179541
 21
3.643086326406458
 31
0.0
100
AcDbText
  0
TEXT
  5
AD5
330
18
100
AcDbEntity
  8
TITLE
 62
     1
100
AcDbText
 10
60.47755802933359
 20
3.649787649597743
 30
0.0
 40
0.15525
  1
DECIMAL
  7
ITALIC
100
AcDbText
  0
TEXT
  5
AD6
330
18
100
AcDbEntity
  8
TITLE
 62
     1
100
AcDbText
 10
60.47755802933359
 20
3.356364944423901
 30
0.0
 40
0.15525
  1
+
  7
ITALIC
100
AcDbText
  0
TEXT
  5
AD7
330
18
100
AcDbEntity
  8
TITLE
 62
     1
100
AcDbText
 10
60.47755802933359
 20
3.198840704743548
 30
0.0
 40
0.15525
  1
-
  7
ITALIC
100
AcDbText
  0
TEXT
  5
AD8
330
18
100
AcDbEntity
  8
TITLE
 62
     1
100
AcDbText
 10
62.01705691683141
 20
3.64320306308844
 30
0.0
 40
0.15525
  1
FRACTIONAL
  7
ITALIC
100
AcDbText
  0
TEXT
  5
AD9
330
18
100
AcDbEntity
  8
TITLE
 62
     1
100
AcDbText
 10
62.01705691683141
 20
3.349780357914581
 30
0.0
 40
0.15525
  1
+
  7
ITALIC
100
AcDbText
  0
TEXT
  5
ADA
330
18
100
AcDbEntity
  8
TITLE
 62
     1
100
AcDbText
 10
62.01705691683141
 20
3.19799197822055
 30
0.0
 40
0.15525
  1
-
  7
ITALIC
100
AcDbText
  0
TEXT
  5
B0E
330
18
100
AcDbEntity
  8
TITLE
100
AcDbText
 10
60.74232441475172
 20
3.270698908963567
 30
0.0
 40
0.187
  1
.010
100
AcDbText
  0
TEXT
  5
B29
330
18
100
AcDbEntity
  8
TITLE
100
AcDbText
 10
44.81570302437405
 20
3.600480052545762
 30
0.0
 40
0.187
  1
NEMA 4X  COLOR: GLACIER GRAY RR1013
100
AcDbText
  0
TEXT
  5
B2A
330
18
100
AcDbEntity
  8
TITLE
100
AcDbText
 10
44.81570302437405
 20
3.130135359382133
 30
0.0
 40
0.187
  1
GROUND STRAP TO BE FURNISHED WITH ENCLOSURE
100
AcDbText
  0
TEXT
  5
E3A
330
18
100
AcDbEntity
  8
TITLE
100
AcDbText
 10
55.03201404891777
 20
1.969260717533956
 30
0.0
 40
0.5931705105166513
  1
HUBBELL WIEGMANN
  7
STYLE1
100
AcDbText
  0
TEXT
  5
E69
330
18
100
AcDbEntity
  8
TITLE
100
AcDbText
 10
61.83988042960034
 20
0.9799098814588919
 30
0.0
 40
0.187
  1
HW-N4X2PB
100
AcDbText
  0
ENDSEC
  0
SECTION
  2
OBJECTS
  0
DICTIONARY
  5
C
330
0
100
AcDbDictionary
281
     1
  3
ACAD_COLOR
350
B36
  3
ACAD_GROUP
350
D
  3
ACAD_LAYOUT
350
B39
  3
ACAD_MATERIAL
350
B35
  3
ACAD_MLEADERSTYLE
350
E59
  3
ACAD_MLINESTYLE
350
E
  3
ACAD_PLOTSETTINGS
350
B3A
  3
ACAD_PLOTSTYLENAME
350
B33
  3
ACAD_SCALELIST
350
E47
  3
ACAD_TABLESTYLE
350
B37
  3
ACAD_VISUALSTYLE
350
DA2
  3
AcAmCatalogState
350
E0E
  3
ACDB_RECOMPOSE_DATA
350
E72
  3
AcDbVariableDictionary
350
BEF
  3
ACDMSYSVARMGR
350
DCF
  3
ACGREF_MASTER
350
DC9
  3
ACGREFACAD_MASTER
350
DED
  3
AcmDictionary
350
B98
  3
ACME_BOM_MANAGER_NAME
350
DC3
  3
ACME_COMMAND_HISTORY
350
DC0
  3
ACME_SCOPE_NAME
350
DBF
  3
ACMESTATEMGR
350
DC8
  3
AcmeSysVarManager
350
DC1
  3
AcmSystemVariableManager
350
DF2
  3
AD_APPL
350
DFA
  3
ADSYSVARMGR
350
DF9
  3
AmdtNamedDwgMgr
350
DEA
  3
AMG
350
B42
  3
AMGSNAPSETTINGS
350
BD9
  3
AMI_MASTER
350
DF0
  3
AUTOCAD_ASSEMBLIES_PROJECT
350
E03
  3
Designer_Assemblies_SysVars
350
DFD
  3
GREFAM_MODULE
350
DF1
  3
StructToggleButtonState
350
E3B
  0
DICTIONARY
  5
E2F
330
2
100
AcDbDictionary
280
     1
281
     1
  3
ACAD_LAYERSTATES
360
E30
  0
DICTIONARY
  5
B36
102
{ACAD_REACTORS
330
C
102
}
330
C
100
AcDbDictionary
281
     1
  0
DICTIONARY
  5
D
102
{ACAD_REACTORS
330
C
102
}
330
C
100
AcDbDictionary
281
     1
  0
DICTIONARY
  5
B39
102
{ACAD_REACTORS
330
C
102
}
330
C
100
AcDbDictionary
281
     1
  3
Layout1
350
B3C
  3
Model
350
B3B
  0
DICTIONARY
  5
B35
102
{ACAD_REACTORS
330
C
102
}
330
C
100
AcDbDictionary
281
     1
  3
ByBlock
350
DA0
  3
ByLayer
350
D9F
  3
Global
350
DA1
  0
DICTIONARY
  5
E59
102
{ACAD_REACTORS
330
C
102
}
330
C
100
AcDbDictionary
281
     1
  3
Standard
350
E5A
  0
DICTIONARY
  5
E
102
{ACAD_REACTORS
330
C
102
}
330
C
100
AcDbDictionary
281
     1
  3
STANDARD
350
1B
  0
DICTIONARY
  5
B3A
102
{ACAD_REACTORS
330
C
102
}
330
C
100
AcDbDictionary
281
     1
  0
ACDBDICTIONARYWDFLT
  5
B33
102
{ACAD_REACTORS
330
C
102
}
330
C
100
AcDbDictionary
281
     1
  3
Normal
350
B34
100
AcDbDictionaryWithDefault
340
B34
  0
DICTIONARY
  5
E47
102
{ACAD_REACTORS
330
C
102
}
330
C
100
AcDbDictionary
281
     1
  3
A0
350
E48
  3
A1
350
E49
  3
A2
350
E4A
  3
A3
350
E4B
  3
A4
350
E4C
  3
A5
350
E4D
  3
A6
350
E4E
  3
A7
350
E4F
  3
A8
350
E50
  3
A9
350
E51
  3
B0
350
E52
  3
B1
350
E53
  3
B2
350
E54
  3
B3
350
E55
  3
B4
350
E56
  3
B5
350
E57
  3
B6
350
E58
  0
DICTIONARY
  5
B37
102
{ACAD_REACTORS
330
C
102
}
330
C
100
AcDbDictionary
281
     1
  3
Standard
350
B38
  0
DICTIONARY
  5
DA2
102
{ACAD_REACTORS
330
C
102
}
330
C
100
AcDbDictionary
281
     1
  3
2dWireframe
350
DA8
  3
3D Hidden
350
DAA
  3
3dWireframe
350
DA9
  3
Basic
350
DA7
  3
Brighten
350
DAE
  3
ColorChange
350
DB2
  3
Conceptual
350
DAB
  3
Dim
350
DAD
  3
EdgeColorOff
350
E46
  3
Facepattern
350
DB1
  3
Flat
350
DA3
  3
FlatWithEdges
350
DA4
  3
Gouraud
350
DA5
  3
GouraudWithEdges
350
DA6
  3
Hidden
350
E3E
  3
JitterOff
350
E44
  3
Linepattern
350
DB0
  3
OverhangOff
350
E45
  3
Realistic
350
DAC
  3
Shaded
350
E43
  3
Shaded with edges
350
E42
  3
Shades of Gray
350
E3F
  3
Sketchy
350
E40
  3
Thicken
350
DAF
  3
Wireframe
350
E3D
  3
X-Ray
350
E41
  0
ACAD_PROXY_OBJECT
  5
E0E
102
{ACAD_REACTORS
330
C
102
}
330
C
100
AcDbProxyObject
 90
      499
 91
      545
 95
    65563
 70
     0
162
              1018
311
4FD1C00E80170011401B8019C01A401B80194019401C801A401B8019C0170010C010401100080011801A401B0019401CC0170010C011800B0008001180080014C019401C801A4019401CC00B000800140010800B001400108015C0170010C011800980118008000C800B401100080019001C8018401DC01A401B8019C01CC0
311
0C
161
                94
310
3FFFFFFFE00A0284403002A8
 94
        0
  0
XRECORD
  5
E72
102
{ACAD_REACTORS
330
C
102
}
330
C
100
AcDbXrecord
280
     1
 90
        1
330
B38
  0
DICTIONARY
  5
BEF
102
{ACAD_REACTORS
330
C
102
}
330
C
100
AcDbDictionary
281
     1
  3
CANNOSCALE
350
E6C
  3
CMLEADERSTYLE
350
E6A
  3
CTABLESTYLE
350
BF0
  3
DIMASSOC
350
BF1
  3
LAYEREVAL
350
E6E
  3
LAYERNOTIFY
350
E6F
  3
LIGHTINGUNITS
350
E6D
  3
MSLTSCALE
350
E6B
  3
PROJECTNAME
350
BF2
  0
ACAD_PROXY_OBJECT
  5
DCF
102
{ACAD_REACTORS
330
C
102
}
330
C
100
AcDbProxyObject
 90
      499
 91
      506
 95
    65563
 70
     0
162
                 0
161
               240
310
4C51A482000000000000000000000000000000000000000000000000000072
330
DD0
330
DD1
330
DD2
330
DD3
330
DD4
330
DD5
330
DD6
330
DD7
330
DD8
330
DD9
330
DDA
330
DDB
330
DDC
330
DDD
330
DDE
330
DDF
330
DE0
330
DE1
330
DE2
330
DE3
330
DE4
330
DE5
330
DE6
330
DE7
330
DE8
330
DE9
 94
        0
  0
ACAD_PROXY_OBJECT
  5
DC9
102
{ACAD_REACTORS
330
C
102
}
330
C
100
AcDbProxyObject
 90
      499
 91
      514
 95
    65563
 70
     0
162
                 0
161
                34
310
040000428C
 94
        0
  0
ACAD_PROXY_OBJECT
  5
DED
102
{ACAD_REACTORS
330
C
102
}
330
C
100
AcDbProxyObject
 90
      499
 91
      523
 95
    65563
 70
     0
162
                 0
161
               114
310
04000041C08000000000000000000C
 94
        0
  0
DICTIONARY
  5
B98
102
{ACAD_REACTORS
330
C
102
}
330
C
100
AcDbDictionary
281
     1
  3
AcmBOMDATA
350
E0D
  3
AcmStdDictionary
350
BA5
  3
AMDTSECTSYM_ARROWCOLOR
350
BC4
  0
ACAD_PROXY_OBJECT
  5
DC3
102
{ACAD_REACTORS
330
C
102
}
330
C
100
AcDbProxyObject
 90
      499
 91
      508
 95
    65563
 70
     0
162
                 0
161
                50
310
0000004040000C
330
0
330
0
330
DC4
 94
        0
  0
ACAD_PROXY_OBJECT
  5
DC0
102
{ACAD_REACTORS
330
C
102
}
330
C
100
AcDbProxyObject
 90
      499
 91
      505
 95
    65563
 70
     0
162
              2130
311
4390401340110015001480114014C01140150011001080134013C011001084E0020002D00200055004E0044004F0042138008000B40080015401380110013C010455004E0044004F004115401380110013C010545005200410053004500425400104014C01500114010C013001240140010545005200410053004500419100
311
110011401100124015001045A004F004F004D0041168013C013C013401065300410056004500410053004C134014C011C008000B4008001400140010400E80080008000800190019401CC01AC01D001BC01C000B8018401C801E00080011801A401B001940158019401C801CC01A401BC01B800E8008000C400C400B800C00
311
0B800D800C800B800C800C000C
161
               150
310
42805020101018060180601806018060140404
 94
        0
  0
ACAD_PROXY_OBJECT
  5
DBF
102
{ACAD_REACTORS
330
C
102
}
330
C
100
AcDbProxyObject
 90
      499
 91
      504
 95
    65563
 70
     0
162
                 0
161
               546
310
0B00004980800000000000000000130502000000000000000000000000000000000000000000000000000000000000000000000000000000000000000000000000AAAAAA8C
360
DC2
360
DC4
360
DCA
360
DCB
360
DCC
360
DCD
360
DD0
360
DD1
360
DD2
360
DD3
360
DD4
360
DD5
360
DD6
360
DD7
360
DD8
360
DD9
360
DDA
360
DDB
360
DDC
360
DDD
360
DDE
360
DDF
360
DE0
360
DE1
360
DE2
360
DE3
360
DE4
360
DE5
360
DE6
360
DE7
360
DE8
360
DE9
360
DF3
360
DF5
360
DF6
360
DF7
360
DF8
360
DFE
360
DFF
360
E00
360
E01
360
E02
360
E07
360
E08
360
E09
360
E0A
360
E0B
360
E0C
 94
        0
  0
ACAD_PROXY_OBJECT
  5
DC8
102
{ACAD_REACTORS
330
C
102
}
330
C
100
AcDbProxyObject
 90
      499
 91
      513
 95
    65563
 70
     0
162
                 0
161
                50
310
0B000042E4128C
 94
        0
  0
ACAD_PROXY_OBJECT
  5
DC1
102
{ACAD_REACTORS
330
C
102
}
330
C
100
AcDbProxyObject
 90
      499
 91
      506
 95
    65563
 70
     0
162
                 0
161
                32
310
9014220000
330
DC2
 94
        0
  0
ACAD_PROXY_OBJECT
  5
DF2
102
{ACAD_REACTORS
330
C
102
}
330
C
100
AcDbProxyObject
 90
      499
 91
      506
 95
    65563
 70
     0
162
                 0
161
                32
310
9014220000
330
DF3
 94
        0
  0
ACAD_PROXY_OBJECT
  5
DFA
102
{ACAD_REACTORS
330
C
102
}
330
C
100
AcDbProxyObject
 90
      499
 91
      533
 95
    65563
 70
     0
162
                 0
161
                34
310
000B00008C
330
DF5
 94
        0
  0
ACAD_PROXY_OBJECT
  5
DF9
102
{ACAD_REACTORS
330
C
102
}
330
C
100
AcDbProxyObject
 90
      499
 91
      506
 95
    65563
 70
     0
162
                 0
161
                 8
310
AA39
 94
        0
  0
ACAD_PROXY_OBJECT
  5
DEA
102
{ACAD_REACTORS
330
C
102
}
330
C
100
AcDbProxyObject
 90
      499
 91
      520
 95
    65563
 70
     0
162
                 0
161
                42
310
000100005E8C
330
DCA
 94
        0
  0
DICTIONARY
  5
B42
102
{ACAD_REACTORS
330
C
102
}
330
C
100
AcDbDictionary
281
     1
  3
AcMgSettings
350
DBB
  3
AMGLAYCFG
350
E16
  0
DICTIONARY
  5
BD9
102
{ACAD_REACTORS
330
C
102
}
330
C
100
AcDbDictionary
281
     1
  0
ACAD_PROXY_OBJECT
  5
DF0
102
{ACAD_REACTORS
330
C
102
}
330
C
100
AcDbProxyObject
 90
      499
 91
      526
 95
    65563
 70
     0
162
                 0
161
                34
310
050000428C
 94
        0
  0
ACAD_PROXY_OBJECT
  5
E03
102
{ACAD_REACTORS
330
C
102
}
330
C
100
AcDbProxyObject
 90
      499
 91
      537
 95
    65563
 70
     0
162
                 0
161
                98
310
0B00005000000000000000000C
330
E0A
330
0
330
E0B
330
0
330
0
330
0
330
0
330
0
 94
        0
  0
ACAD_PROXY_OBJECT
  5
DFD
102
{ACAD_REACTORS
330
C
102
}
330
C
100
AcDbProxyObject
 90
      499
 91
      506
 95
    65563
 70
     0
162
                 0
161
                64
310
9054220000000000A9
330
DFE
330
DFF
330
E00
330
E01
330
E02
 94
        0
  0
ACAD_PROXY_OBJECT
  5
DF1
102
{ACAD_REACTORS
330
C
102
}
330
C
100
AcDbProxyObject
 90
      499
 91
      527
 95
    65563
 70
     0
162
                 0
161
                 8
310
0539
 94
        0
  0
ACAD_PROXY_OBJECT
  5
E3B
102
{ACAD_REACTORS
330
C
102
}
330
C
100
AcDbProxyObject
 90
      499
 91
      576
 95
    65563
 70
     0
162
                 0
161
                 1
310
4C
 94
        0
  0
DICTIONARY
  5
E30
102
{ACAD_REACTORS
330
E2F
102
}
330
E2F
100
AcDbDictionary
281
     1
  0
LAYOUT
  5
B3C
102
{ACAD_REACTORS
330
B39
102
}
330
B39
100
AcDbPlotSettings
  1

  2
\\BELDINGDC\IBM 4039 LaserPrinter PS
  4

  6

 40
0.0
 41
0.0
 42
0.0
 43
0.0
 44
0.0
 45
0.0
 46
0.0
 47
0.0
 48
0.0
 49
0.0
140
0.0
141
0.0
142
1.0
143
1.0
 70
   688
 72
     0
 73
     0
 74
     5
  7

 75
    16
147
1.0
 76
     0
 77
     2
 78
   300
148
0.0
149
0.0
100
AcDbLayout
  1
Layout1
 70
     0
 71
     1
 10
0.0
 20
0.0
 11
12.0
 21
9.0
 12
0.0
 22
0.0
 32
0.0
 14
1.000000000000000E+20
 24
1.000000000000000E+20
 34
1.000000000000000E+20
 15
-1.000000000000000E+20
 25
-1.000000000000000E+20
 35
-1.000000000000000E+20
146
0.0
 13
0.0
 23
0.0
 33
0.0
 16
1.0
 26
0.0
 36
0.0
 17
0.0
 27
1.0
 37
0.0
 76
     0
330
15
  0
LAYOUT
  5
B3B
102
{ACAD_REACTORS
330
B39
102
}
330
B39
100
AcDbPlotSettings
  1

  2
HP DesignJet 500 24 by HP
  4
User265
  6

 40
4.995333194732666
 41
16.97568893432617
 42
4.99530029296875
 43
16.97564697265625
 44
558.7576293945312
 45
863.5153198242187
 46
3.776419897700728
 47
0.0
 48
0.0
 49
0.0
140
0.0
141
0.0
142
1.0
143
1.959656748343369
 70
 11956
 72
     0
 73
     1
 74
     1
  7

 75
     0
147
0.5102934485059018
 76
     0
 77
     2
 78
   300
148
0.0104419782283003
149
0.0422767812652353
100
AcDbLayout
  1
Model
 70
     1
 71
     0
 10
0.0
 20
0.0
 11
12.0
 21
9.0
 12
0.0
 22
0.0
 32
0.0
 14
0.0
 24
0.0
 34
0.0
 15
0.0
 25
0.0
 35
0.0
146
0.0
 13
0.0
 23
0.0
 33
0.0
 16
1.0
 26
0.0
 36
0.0
 17
0.0
 27
1.0
 37
0.0
 76
     0
330
18
331
D98
1001
ACAD_PSEXT
1000
HP DesignJet 500 24 by HP
1000
HP DesignJet 500 24 by HP
1000
USB001
1000

1070
     0
  0
MATERIAL
  5
DA0
102
{ACAD_REACTORS
330
B35
102
}
330
B35
100
AcDbMaterial
  1
ByBlock
 73
     1
 78
     1
172
     1
176
     1
270
     1
274
     1
 94
       63
  0
MATERIAL
  5
D9F
102
{ACAD_REACTORS
330
B35
102
}
330
B35
100
AcDbMaterial
  1
ByLayer
 73
     1
 78
     1
172
     1
176
     1
270
     1
274
     1
 94
       63
  0
MATERIAL
  5
DA1
102
{ACAD_REACTORS
330
B35
102
}
330
B35
100
AcDbMaterial
  1
Global
 73
     1
 78
     1
172
     1
176
     1
270
     1
274
     1
 94
       63
  0
MLEADERSTYLE
  5
E5A
102
{ACAD_REACTORS
330
E59
102
}
330
E59
100
AcDbMLeaderStyle
179
     2
170
     2
171
     1
172
     0
 90
        2
 40
0.0
 41
0.0
173
     1
 91
-1056964608
340
12
 92
       -2
290
     1
 42
0.09
291
     1
 43
0.36
  3
Standard
 44
0.18
300

342
10
174
     1
178
     6
175
     1
176
     0
 93
-1056964608
 45
0.18
292
     0
297
     0
 46
0.18
 94
-1056964608
 47
1.0
 49
1.0
140
1.0
293
     1
141
0.0
294
     1
177
     0
142
1.0
295
     1
296
     0
143
0.125
271
     0
272
     9
273
     9
  0
MLINESTYLE
  5
1B
102
{ACAD_REACTORS
330
E
102
}
330
E
100
AcDbMlineStyle
  2
STANDARD
 70
     0
  3

 62
     0
 51
90.0
 52
90.0
 71
     2
 49
0.5
 62
   256
  6
BYLAYER
 49
-0.5
 62
   256
  6
BYLAYER
  0
ACDBPLACEHOLDER
  5
B34
102
{ACAD_REACTORS
330
B33
102
}
330
B33
  0
SCALE
  5
E48
102
{ACAD_REACTORS
330
E47
102
}
330
E47
100
AcDbScale
 70
     0
300
1:1
140
1.0
141
1.0
290
     1
  0
SCALE
  5
E49
102
{ACAD_REACTORS
330
E47
102
}
330
E47
100
AcDbScale
 70
     0
300
1/128" = 1'-0"
140
0.0078125
141
12.0
290
     0
  0
SCALE
  5
E4A
102
{ACAD_REACTORS
330
E47
102
}
330
E47
100
AcDbScale
 70
     0
300
1/64" = 1'-0"
140
0.015625
141
12.0
290
     0
  0
SCALE
  5
E4B
102
{ACAD_REACTORS
330
E47
102
}
330
E47
100
AcDbScale
 70
     0
300
1/32" = 1'-0"
140
0.03125
141
12.0
290
     0
  0
SCALE
  5
E4C
102
{ACAD_REACTORS
330
E47
102
}
330
E47
100
AcDbScale
 70
     0
300
1/16" = 1'-0"
140
0.0625
141
12.0
290
     0
  0
SCALE
  5
E4D
102
{ACAD_REACTORS
330
E47
102
}
330
E47
100
AcDbScale
 70
     0
300
3/32" = 1'-0"
140
0.09375
141
12.0
290
     0
  0
SCALE
  5
E4E
102
{ACAD_REACTORS
330
E47
102
}
330
E47
100
AcDbScale
 70
     0
300
1/8" = 1'-0"
140
0.125
141
12.0
290
     0
  0
SCALE
  5
E4F
102
{ACAD_REACTORS
330
E47
102
}
330
E47
100
AcDbScale
 70
     0
300
3/16" = 1'-0"
140
0.1875
141
12.0
290
     0
  0
SCALE
  5
E50
102
{ACAD_REACTORS
330
E47
102
}
330
E47
100
AcDbScale
 70
     0
300
1/4" = 1'-0"
140
0.25
141
12.0
290
     0
  0
SCALE
  5
E51
102
{ACAD_REACTORS
330
E47
102
}
330
E47
100
AcDbScale
 70
     0
300
3/8" = 1'-0"
140
0.375
141
12.0
290
     0
  0
SCALE
  5
E52
102
{ACAD_REACTORS
330
E47
102
}
330
E47
100
AcDbScale
 70
     0
300
1/2" = 1'-0"
140
0.5
141
12.0
290
     0
  0
SCALE
  5
E53
102
{ACAD_REACTORS
330
E47
102
}
330
E47
100
AcDbScale
 70
     0
300
3/4" = 1'-0"
140
0.75
141
12.0
290
     0
  0
SCALE
  5
E54
102
{ACAD_REACTORS
330
E47
102
}
330
E47
100
AcDbScale
 70
     0
300
1" = 1'-0"
140
1.0
141
12.0
290
     0
  0
SCALE
  5
E55
102
{ACAD_REACTORS
330
E47
102
}
330
E47
100
AcDbScale
 70
     0
300
1-1/2" = 1'-0"
140
1.5
141
12.0
290
     0
  0
SCALE
  5
E56
102
{ACAD_REACTORS
330
E47
102
}
330
E47
100
AcDbScale
 70
     0
300
3" = 1'-0"
140
3.0
141
12.0
290
     0
  0
SCALE
  5
E57
102
{ACAD_REACTORS
330
E47
102
}
330
E47
100
AcDbScale
 70
     0
300
6" = 1'-0"
140
6.0
141
12.0
290
     0
  0
SCALE
  5
E58
102
{ACAD_REACTORS
330
E47
102
}
330
E47
100
AcDbScale
 70
     0
300
1'-0" = 1'-0"
140
12.0
141
12.0
290
     0
  0
TABLESTYLE
  5
B38
102
{ACAD_XDICTIONARY
360
E70
102
}
102
{ACAD_REACTORS
330
B37
102
}
330
B37
100
AcDbTableStyle
280
     0
  3
Standard
 70
     0
 71
     0
 40
0.06
 41
0.06
280
     0
281
     0
  7
STANDARD
140
0.18
170
     2
 62
     0
 63
     7
283
     0
 90
        4
 91
        0
  1

274
    -2
284
     1
 64
     0
275
    -2
285
     1
 65
     0
276
    -2
286
     1
 66
     0
277
    -2
287
     1
 67
     0
278
    -2
288
     1
 68
     0
279
    -2
289
     1
 69
     0
  7
STANDARD
140
0.25
170
     5
 62
     0
 63
     7
283
     0
 90
        4
 91
        0
  1

274
    -2
284
     1
 64
     0
275
    -2
285
     1
 65
     0
276
    -2
286
     1
 66
     0
277
    -2
287
     1
 67
     0
278
    -2
288
     1
 68
     0
279
    -2
289
     1
 69
     0
  7
STANDARD
140
0.18
170
     5
 62
     0
 63
     7
283
     0
 90
        4
 91
        0
  1

274
    -2
284
     1
 64
     0
275
    -2
285
     1
 65
     0
276
    -2
286
     1
 66
     0
277
    -2
287
     1
 67
     0
278
    -2
288
     1
 68
     0
279
    -2
289
     1
 69
     0
  0
VISUALSTYLE
  5
DA8
102
{ACAD_REACTORS
330
DA2
102
}
330
DA2
100
AcDbVisualStyle
  2
2dWireframe
 70
     4
177
     2
291
     0
 71
     0
176
     1
 72
     2
176
     1
 73
     0
176
     1
 90
        0
176
     1
 40
0.6
176
     1
 41
30.0
176
     1
 63
     7
421
 16777215
176
     1
 74
     1
176
     1
 91
        4
176
     1
 64
     7
176
     1
 65
   257
176
     1
 75
     1
176
     1
175
     1
176
     1
 42
1.0
176
     1
 92
        0
176
     1
 66
   257
176
     1
 43
1.0
176
     1
 76
     1
176
     1
 77
     6
176
     1
 78
     2
176
     1
 67
     7
176
     1
 79
     5
176
     1
170
     0
176
     1
171
     0
176
     1
290
     0
176
     1
 93
        1
176
     1
 44
0.0
176
     1
173
     0
176
     1
  0
VISUALSTYLE
  5
DAA
102
{ACAD_REACTORS
330
DA2
102
}
330
DA2
100
AcDbVisualStyle
  2
3D Hidden
 70
     6
177
     2
291
     0
 71
     1
176
     1
 72
     2
176
     1
 73
     2
176
     1
 90
        0
176
     1
 40
0.6
176
     1
 41
30.0
176
     1
 63
     7
421
 16777215
176
     1
 74
     2
176
     1
 91
        2
176
     1
 64
     7
176
     1
 65
   257
176
     1
 75
     2
176
     1
175
     1
176
     1
 42
40.0
176
     1
 92
        0
176
     1
 66
   257
176
     1
 43
1.0
176
     1
 76
     1
176
     1
 77
     6
176
     1
 78
     2
176
     1
 67
     7
176
     1
 79
     3
176
     1
170
     0
176
     1
171
     0
176
     1
290
     0
176
     1
 93
        1
176
     1
 44
0.0
176
     1
173
     0
176
     1
  0
VISUALSTYLE
  5
DA9
102
{ACAD_REACTORS
330
DA2
102
}
330
DA2
100
AcDbVisualStyle
  2
3dWireframe
 70
     5
177
     2
291
     0
 71
     0
176
     1
 72
     2
176
     1
 73
     0
176
     1
 90
        0
176
     1
 40
0.6
176
     1
 41
30.0
176
     1
 63
     7
421
 16777215
176
     1
 74
     1
176
     1
 91
        4
176
     1
 64
     7
176
     1
 65
   257
176
     1
 75
     1
176
     1
175
     1
176
     1
 42
1.0
176
     1
 92
        0
176
     1
 66
   257
176
     1
 43
1.0
176
     1
 76
     1
176
     1
 77
     6
176
     1
 78
     2
176
     1
 67
     7
176
     1
 79
     5
176
     1
170
     0
176
     1
171
     0
176
     1
290
     0
176
     1
 93
        1
176
     1
 44
0.0
176
     1
173
     0
176
     1
  0
VISUALSTYLE
  5
DA7
102
{ACAD_REACTORS
330
DA2
102
}
330
DA2
100
AcDbVisualStyle
  2
Basic
 70
     7
177
     2
291
     1
 71
     1
176
     1
 72
     0
176
     1
 73
     1
176
     1
 90
        0
176
     1
 40
0.6
176
     1
 41
30.0
176
     1
 63
     7
421
 16777215
176
     1
 74
     0
176
     1
 91
        4
176
     1
 64
     7
176
     1
 65
   257
176
     1
 75
     1
176
     1
175
     1
176
     1
 42
1.0
176
     1
 92
        8
176
     1
 66
     7
176
     1
 43
1.0
176
     1
 76
     1
176
     1
 77
     6
176
     1
 78
     2
176
     1
 67
     7
176
     1
 79
     5
176
     1
170
     0
176
     1
171
     0
176
     1
290
     0
176
     1
 93
        1
176
     1
 44
0.0
176
     1
173
     0
176
     1
  0
VISUALSTYLE
  5
DAE
102
{ACAD_REACTORS
330
DA2
102
}
330
DA2
100
AcDbVisualStyle
  2
Brighten
 70
    12
177
     2
291
     1
 71
     2
176
     1
 72
     2
176
     1
 73
     0
176
     1
 90
        0
176
     1
 40
0.6
176
     1
 41
30.0
176
     1
 63
     7
421
 16777215
176
     1
 74
     1
176
     1
 91
        4
176
     1
 64
     7
176
     1
 65
   257
176
     1
 75
     1
176
     1
175
     1
176
     1
 42
1.0
176
     1
 92
        8
176
     1
 66
     7
176
     1
 43
1.0
176
     1
 76
     1
176
     1
 77
     6
176
     1
 78
     2
176
     1
 67
     7
176
     1
 79
     5
176
     1
170
     0
176
     1
171
     0
176
     1
290
     0
176
     1
 93
        1
176
     1
 44
50.0
176
     1
173
     0
176
     1
  0
VISUALSTYLE
  5
DB2
102
{ACAD_REACTORS
330
DA2
102
}
330
DA2
100
AcDbVisualStyle
  2
ColorChange
 70
    16
177
     2
291
     1
 71
     2
176
     1
 72
     2
176
     1
 73
     3
176
     1
 90
        0
176
     1
 40
0.6
176
     1
 41
30.0
176
     1
 63
     8
421
  8421504
176
     1
 74
     1
176
     1
 91
        4
176
     1
 64
     7
176
     1
 65
   257
176
     1
 75
     1
176
     1
175
     1
176
     1
 42
1.0
176
     1
 92
        8
176
     1
 66
     8
424
  8421504
176
     1
 43
1.0
176
     1
 76
     1
176
     1
 77
     6
176
     1
 78
     2
176
     1
 67
     7
176
     1
 79
     5
176
     1
170
     0
176
     1
171
     0
176
     1
290
     0
176
     1
 93
        1
176
     1
 44
0.0
176
     1
173
     0
176
     1
  0
VISUALSTYLE
  5
DAB
102
{ACAD_REACTORS
330
DA2
102
}
330
DA2
100
AcDbVisualStyle
  2
Conceptual
 70
     9
177
     2
291
     0
 71
     3
176
     1
 72
     2
176
     1
 73
     0
176
     1
 90
        0
176
     1
 40
0.6
176
     1
 41
30.0
176
     1
 63
     7
421
 16777215
176
     1
 74
     2
176
     1
 91
        2
176
     1
 64
     7
176
     1
 65
   257
176
     1
 75
     1
176
     1
175
     1
176
     1
 42
40.0
176
     1
 92
        8
176
     1
 66
     7
176
     1
 43
1.0
176
     1
 76
     1
176
     1
 77
     6
176
     1
 78
     2
176
     1
 67
     7
176
     1
 79
     3
176
     1
170
     0
176
     1
171
     0
176
     1
290
     0
176
     1
 93
        1
176
     1
 44
0.0
176
     1
173
     0
176
     1
  0
VISUALSTYLE
  5
DAD
102
{ACAD_REACTORS
330
DA2
102
}
330
DA2
100
AcDbVisualStyle
  2
Dim
 70
    11
177
     2
291
     1
 71
     2
176
     1
 72
     2
176
     1
 73
     0
176
     1
 90
        0
176
     1
 40
0.6
176
     1
 41
30.0
176
     1
 63
     7
421
 16777215
176
     1
 74
     1
176
     1
 91
        4
176
     1
 64
     7
176
     1
 65
   257
176
     1
 75
     1
176
     1
175
     1
176
     1
 42
1.0
176
     1
 92
        8
176
     1
 66
     7
176
     1
 43
1.0
176
     1
 76
     1
176
     1
 77
     6
176
     1
 78
     2
176
     1
 67
     7
176
     1
 79
     5
176
     1
170
     0
176
     1
171
     0
176
     1
290
     0
176
     1
 93
        1
176
     1
 44
-50.0
176
     1
173
     0
176
     1
  0
VISUALSTYLE
  5
E46
102
{ACAD_REACTORS
330
DA2
102
}
330
DA2
100
AcDbVisualStyle
  2
EdgeColorOff
 70
    22
177
     2
291
     1
 71
     2
176
     0
 72
     2
176
     0
 73
     0
176
     0
 90
        0
176
     0
 40
0.6
176
     0
 41
30.0
176
     0
 63
     7
421
 16777215
176
     0
 74
     1
176
     0
 91
        4
176
     0
 64
     7
176
     0
 65
   257
176
     0
 75
     1
176
     0
175
     1
176
     0
 42
1.0
176
     0
 92
        8
176
     2
 66
     7
176
     0
 43
1.0
176
     0
 76
     1
176
     0
 77
     6
176
     0
 78
     2
176
     0
 67
     7
176
     0
 79
     5
176
     0
170
     0
176
     0
171
     0
176
     0
290
     0
176
     0
 93
        1
176
     0
 44
0.0
176
     0
173
     0
176
     0
  0
VISUALSTYLE
  5
DB1
102
{ACAD_REACTORS
330
DA2
102
}
330
DA2
100
AcDbVisualStyle
  2
Facepattern
 70
    15
177
     2
291
     1
 71
     2
176
     1
 72
     2
176
     1
 73
     0
176
     1
 90
        0
176
     1
 40
0.6
176
     1
 41
30.0
176
     1
 63
     7
421
 16777215
176
     1
 74
     1
176
     1
 91
        4
176
     1
 64
     7
176
     1
 65
   257
176
     1
 75
     1
176
     1
175
     1
176
     1
 42
1.0
176
     1
 92
        8
176
     1
 66
     7
176
     1
 43
1.0
176
     1
 76
     1
176
     1
 77
     6
176
     1
 78
     2
176
     1
 67
     7
176
     1
 79
     5
176
     1
170
     0
176
     1
171
     0
176
     1
290
     0
176
     1
 93
        1
176
     1
 44
0.0
176
     1
173
     0
176
     1
  0
VISUALSTYLE
  5
DA3
102
{ACAD_REACTORS
330
DA2
102
}
330
DA2
100
AcDbVisualStyle
  2
Flat
 70
     0
177
     2
291
     1
 71
     2
176
     1
 72
     1
176
     1
 73
     1
176
     1
 90
        2
176
     1
 40
0.6
176
     1
 41
30.0
176
     1
 63
     7
421
 16777215
176
     1
 74
     0
176
     1
 91
        4
176
     1
 64
     7
176
     1
 65
   257
176
     1
 75
     1
176
     1
175
     1
176
     1
 42
1.0
176
     1
 92
        8
176
     1
 66
     7
176
     1
 43
1.0
176
     1
 76
     1
176
     1
 77
     6
176
     1
 78
     2
176
     1
 67
     7
176
     1
 79
     5
176
     1
170
     0
176
     1
171
     0
176
     1
290
     0
176
     1
 93
       13
176
     1
 44
0.0
176
     1
173
     0
176
     1
  0
VISUALSTYLE
  5
DA4
102
{ACAD_REACTORS
330
DA2
102
}
330
DA2
100
AcDbVisualStyle
  2
FlatWithEdges
 70
     1
177
     2
291
     1
 71
     2
176
     1
 72
     1
176
     1
 73
     1
176
     1
 90
        2
176
     1
 40
0.6
176
     1
 41
30.0
176
     1
 63
     7
421
 16777215
176
     1
 74
     1
176
     1
 91
        4
176
     1
 64
     7
176
     1
 65
   257
176
     1
 75
     1
176
     1
175
     1
176
     1
 42
1.0
176
     1
 92
        0
176
     1
 66
   257
176
     1
 43
1.0
176
     1
 76
     1
176
     1
 77
     6
176
     1
 78
     2
176
     1
 67
     7
176
     1
 79
     5
176
     1
170
     0
176
     1
171
     0
176
     1
290
     0
176
     1
 93
       13
176
     1
 44
0.0
176
     1
173
     0
176
     1
  0
VISUALSTYLE
  5
DA5
102
{ACAD_REACTORS
330
DA2
102
}
330
DA2
100
AcDbVisualStyle
  2
Gouraud
 70
     2
177
     2
291
     1
 71
     2
176
     1
 72
     2
176
     1
 73
     1
176
     1
 90
        2
176
     1
 40
0.6
176
     1
 41
30.0
176
     1
 63
     7
421
 16777215
176
     1
 74
     0
176
     1
 91
        4
176
     1
 64
     7
176
     1
 65
   257
176
     1
 75
     1
176
     1
175
     1
176
     1
 42
1.0
176
     1
 92
        0
176
     1
 66
     7
176
     1
 43
1.0
176
     1
 76
     1
176
     1
 77
     6
176
     1
 78
     2
176
     1
 67
     7
176
     1
 79
     5
176
     1
170
     0
176
     1
171
     0
176
     1
290
     0
176
     1
 93
       13
176
     1
 44
0.0
176
     1
173
     0
176
     1
  0
VISUALSTYLE
  5
DA6
102
{ACAD_REACTORS
330
DA2
102
}
330
DA2
100
AcDbVisualStyle
  2
GouraudWithEdges
 70
     3
177
     2
291
     1
 71
     2
176
     1
 72
     2
176
     1
 73
     1
176
     1
 90
        2
176
     1
 40
0.6
176
     1
 41
30.0
176
     1
 63
     7
421
 16777215
176
     1
 74
     1
176
     1
 91
        4
176
     1
 64
     7
176
     1
 65
   257
176
     1
 75
     1
176
     1
175
     1
176
     1
 42
1.0
176
     1
 92
        0
176
     1
 66
   257
176
     1
 43
1.0
176
     1
 76
     1
176
     1
 77
     6
176
     1
 78
     2
176
     1
 67
     7
176
     1
 79
     5
176
     1
170
     0
176
     1
171
     0
176
     1
290
     0
176
     1
 93
       13
176
     1
 44
0.0
176
     1
173
     0
176
     1
  0
VISUALSTYLE
  5
E3E
102
{ACAD_REACTORS
330
DA2
102
}
330
DA2
100
AcDbVisualStyle
  2
Hidden
 70
     6
177
     2
291
     0
 71
     1
176
     1
 72
     2
176
     1
 73
     2
176
     1
 90
        0
176
     1
 40
0.6
176
     1
 41
30.0
176
     1
 63
     7
421
 16777215
176
     1
 74
     2
176
     1
 91
        2
176
     1
 64
     7
176
     1
 65
   257
176
     1
 75
     2
176
     1
175
     1
176
     1
 42
40.0
176
     1
 92
        0
176
     1
 66
   257
176
     1
 43
1.0
176
     1
 76
     1
176
     1
 77
     6
176
     1
 78
     2
176
     1
 67
     7
176
     1
 79
     3
176
     1
170
     0
176
     1
171
     0
176
     1
290
     0
176
     1
 93
        1
176
     1
 44
0.0
176
     1
173
     0
176
     1
  0
VISUALSTYLE
  5
E44
102
{ACAD_REACTORS
330
DA2
102
}
330
DA2
100
AcDbVisualStyle
  2
JitterOff
 70
    20
177
     2
291
     1
 71
     2
176
     0
 72
     2
176
     0
 73
     0
176
     0
 90
        0
176
     0
 40
0.6
176
     0
 41
30.0
176
     0
 63
     7
421
 16777215
176
     0
 74
     1
176
     0
 91
        4
176
     0
 64
     7
176
     0
 65
   257
176
     0
 75
     1
176
     0
175
     1
176
     0
 42
1.0
176
     0
 92
       10
176
     2
 66
     7
176
     0
 43
1.0
176
     0
 76
     1
176
     0
 77
     6
176
     0
 78
     2
176
     0
 67
     7
176
     0
 79
     5
176
     0
170
     0
176
     0
171
     0
176
     0
290
     0
176
     0
 93
        1
176
     0
 44
0.0
176
     0
173
     0
176
     0
  0
VISUALSTYLE
  5
DB0
102
{ACAD_REACTORS
330
DA2
102
}
330
DA2
100
AcDbVisualStyle
  2
Linepattern
 70
    14
177
     2
291
     1
 71
     2
176
     1
 72
     2
176
     1
 73
     0
176
     1
 90
        0
176
     1
 40
0.6
176
     1
 41
30.0
176
     1
 63
     7
421
 16777215
176
     1
 74
     1
176
     1
 91
        4
176
     1
 64
     7
176
     1
 65
   257
176
     1
 75
     7
176
     1
175
     7
176
     1
 42
1.0
176
     1
 92
        8
176
     1
 66
     7
176
     1
 43
1.0
176
     1
 76
     1
176
     1
 77
     6
176
     1
 78
     2
176
     1
 67
     7
176
     1
 79
     5
176
     1
170
     0
176
     1
171
     0
176
     1
290
     0
176
     1
 93
        1
176
     1
 44
0.0
176
     1
173
     0
176
     1
  0
VISUALSTYLE
  5
E45
102
{ACAD_REACTORS
330
DA2
102
}
330
DA2
100
AcDbVisualStyle
  2
OverhangOff
 70
    21
177
     2
291
     1
 71
     2
176
     0
 72
     2
176
     0
 73
     0
176
     0
 90
        0
176
     0
 40
0.6
176
     0
 41
30.0
176
     0
 63
     7
421
 16777215
176
     0
 74
     1
176
     0
 91
        4
176
     0
 64
     7
176
     0
 65
   257
176
     0
 75
     1
176
     0
175
     1
176
     0
 42
1.0
176
     0
 92
        9
176
     2
 66
     7
176
     0
 43
1.0
176
     0
 76
     1
176
     0
 77
     6
176
     0
 78
     2
176
     0
 67
     7
176
     0
 79
     5
176
     0
170
     0
176
     0
171
     0
176
     0
290
     0
176
     0
 93
        1
176
     0
 44
0.0
176
     0
173
     0
176
     0
  0
VISUALSTYLE
  5
DAC
102
{ACAD_REACTORS
330
DA2
102
}
330
DA2
100
AcDbVisualStyle
  2
Realistic
 70
     8
177
     2
291
     0
 71
     2
176
     1
 72
     2
176
     1
 73
     0
176
     1
 90
        0
176
     1
 40
0.6
176
     1
 41
30.0
176
     1
 63
     7
421
 16777215
176
     1
 74
     1
176
     1
 91
        0
176
     1
 64
     7
176
     1
 65
   257
176
     1
 75
     1
176
     1
175
     1
176
     1
 42
1.0
176
     1
 92
        8
176
     1
 66
     8
424
  7895160
176
     1
 43
1.0
176
     1
 76
     1
176
     1
 77
     6
176
     1
 78
     2
176
     1
 67
     7
176
     1
 79
     5
176
     1
170
     0
176
     1
171
     0
176
     1
290
     0
176
     1
 93
       13
176
     1
 44
0.0
176
     1
173
     0
176
     1
  0
VISUALSTYLE
  5
E43
102
{ACAD_REACTORS
330
DA2
102
}
330
DA2
100
AcDbVisualStyle
  2
Shaded
 70
    27
177
     2
291
     0
 71
     2
176
     1
 72
     2
176
     1
 73
     1
176
     1
 90
        2
176
     1
 40
0.6
176
     1
 41
30.0
176
     1
 63
     7
421
 16777215
176
     1
 74
     0
176
     1
 91
        4
176
     1
 64
     7
176
     1
 65
   257
176
     1
 75
     1
176
     1
175
     1
176
     1
 42
1.0
176
     1
 92
        8
176
     1
 66
   257
176
     1
 43
1.0
176
     1
 76
     1
176
     1
 77
     6
176
     1
 78
     2
176
     1
 67
     8
425
  7895160
176
     1
 79
     3
176
     1
170
     0
176
     1
171
     0
176
     1
290
     0
176
     1
 93
        5
176
     1
 44
0.0
176
     1
173
     0
176
     1
  0
VISUALSTYLE
  5
E42
102
{ACAD_REACTORS
330
DA2
102
}
330
DA2
100
AcDbVisualStyle
  2
Shaded with edges
 70
    26
177
     2
291
     0
 71
     2
176
     1
 72
     2
176
     1
 73
     1
176
     1
 90
        2
176
     1
 40
0.6
176
     1
 41
30.0
176
     1
 63
     7
421
 16777215
176
     1
 74
     1
176
     1
 91
       10
176
     1
 64
     7
176
     1
 65
   257
176
     1
 75
     2
176
     1
175
     1
176
     1
 42
1.0
176
     1
 92
        8
176
     1
 66
   257
176
     1
 43
1.0
176
     1
 76
     1
176
     1
 77
     6
176
     1
 78
     2
176
     1
 67
     7
176
     1
 79
     3
176
     1
170
     0
176
     1
171
     0
176
     1
290
     0
176
     1
 93
        5
176
     1
 44
0.0
176
     1
173
     0
176
     1
  0
VISUALSTYLE
  5
E3F
102
{ACAD_REACTORS
330
DA2
102
}
330
DA2
100
AcDbVisualStyle
  2
Shades of Gray
 70
    23
177
     2
291
     0
 71
     2
176
     1
 72
     2
176
     1
 73
     3
176
     1
 90
        0
176
     1
 40
0.6
176
     1
 41
30.0
176
     1
 63
     7
421
 16777215
176
     1
 74
     2
176
     1
 91
        2
176
     1
 64
     7
176
     1
 65
     7
176
     1
 75
     1
176
     1
175
     1
176
     1
 42
40.0
176
     1
 92
        8
176
     1
 66
     7
176
     1
 43
1.0
176
     1
 76
     1
176
     1
 77
     6
176
     1
 78
     2
176
     1
 67
     7
176
     1
 79
     3
176
     1
170
     0
176
     1
171
     0
176
     1
290
     0
176
     1
 93
        1
176
     1
 44
0.0
176
     1
173
     0
176
     1
  0
VISUALSTYLE
  5
E40
102
{ACAD_REACTORS
330
DA2
102
}
330
DA2
100
AcDbVisualStyle
  2
Sketchy
 70
    24
177
     2
291
     0
 71
     1
176
     1
 72
     2
176
     1
 73
     2
176
     1
 90
        0
176
     1
 40
0.6
176
     1
 41
30.0
176
     1
 63
     7
421
 16777215
176
     1
 74
     2
176
     1
 91
        2
176
     1
 64
     7
176
     1
 65
     7
176
     1
 75
     1
176
     1
175
     1
176
     1
 42
40.0
176
     1
 92
       11
176
     1
 66
     7
176
     1
 43
1.0
176
     1
 76
     1
176
     1
 77
     6
176
     1
 78
     2
176
     1
 67
     7
176
     1
 79
     6
176
     1
170
     0
176
     1
171
     0
176
     1
290
     0
176
     1
 93
        1
176
     1
 44
0.0
176
     1
173
     0
176
     1
  0
VISUALSTYLE
  5
DAF
102
{ACAD_REACTORS
330
DA2
102
}
330
DA2
100
AcDbVisualStyle
  2
Thicken
 70
    13
177
     2
291
     1
 71
     2
176
     1
 72
     2
176
     1
 73
     0
176
     1
 90
        0
176
     1
 40
0.6
176
     1
 41
30.0
176
     1
 63
     7
421
 16777215
176
     1
 74
     1
176
     1
 91
        4
176
     1
 64
     7
176
     1
 65
   257
176
     1
 75
     1
176
     1
175
     1
176
     1
 42
1.0
176
     1
 92
       12
176
     1
 66
     7
176
     1
 43
1.0
176
     1
 76
     1
176
     1
 77
     6
176
     1
 78
     2
176
     1
 67
     7
176
     1
 79
     5
176
     1
170
     0
176
     1
171
     0
176
     1
290
     0
176
     1
 93
        1
176
     1
 44
0.0
176
     1
173
     0
176
     1
  0
VISUALSTYLE
  5
E3D
102
{ACAD_REACTORS
330
DA2
102
}
330
DA2
100
AcDbVisualStyle
  2
Wireframe
 70
     5
177
     2
291
     0
 71
     0
176
     1
 72
     2
176
     1
 73
     0
176
     1
 90
        0
176
     1
 40
0.6
176
     1
 41
30.0
176
     1
 63
     7
421
 16777215
176
     1
 74
     1
176
     1
 91
        4
176
     1
 64
     7
176
     1
 65
   257
176
     1
 75
     1
176
     1
175
     1
176
     1
 42
1.0
176
     1
 92
        0
176
     1
 66
   257
176
     1
 43
1.0
176
     1
 76
     1
176
     1
 77
     6
176
     1
 78
     2
176
     1
 67
     7
176
     1
 79
     3
176
     1
170
     0
176
     1
171
     0
176
     1
290
     0
176
     1
 93
        1
176
     1
 44
0.0
176
     1
173
     0
176
     1
  0
VISUALSTYLE
  5
E41
102
{ACAD_REACTORS
330
DA2
102
}
330
DA2
100
AcDbVisualStyle
  2
X-Ray
 70
    25
177
     2
291
     0
 71
     2
176
     1
 72
     2
176
     1
 73
     1
176
     1
 90
        1
176
     1
 40
0.5
176
     1
 41
30.0
176
     1
 63
     7
421
 16777215
176
     1
 74
     1
176
     1
 91
        0
176
     1
 64
     7
176
     1
 65
   257
176
     1
 75
     1
176
     1
175
     1
176
     1
 42
1.0
176
     1
 92
        8
176
     1
 66
     7
176
     1
 43
1.0
176
     1
 76
     1
176
     1
 77
     6
176
     1
 78
     2
176
     1
 67
     7
176
     1
 79
     3
176
     1
170
     0
176
     1
171
     0
176
     1
290
     0
176
     1
 93
       13
176
     1
 44
0.0
176
     1
173
     0
176
     1
  0
DICTIONARYVAR
  5
E6C
102
{ACAD_REACTORS
330
BEF
102
}
330
BEF
100
DictionaryVariables
280
     0
  1
1:1
  0
DICTIONARYVAR
  5
E6A
102
{ACAD_REACTORS
330
BEF
102
}
330
BEF
100
DictionaryVariables
280
     0
  1
STANDARD
  0
DICTIONARYVAR
  5
BF0
102
{ACAD_REACTORS
330
BEF
102
}
330
BEF
100
DictionaryVariables
280
     0
  1
STANDARD
  0
DICTIONARYVAR
  5
BF1
102
{ACAD_REACTORS
330
BEF
102
}
330
BEF
100
DictionaryVariables
280
     0
  1
1
  0
DICTIONARYVAR
  5
E6E
102
{ACAD_REACTORS
330
BEF
102
}
330
BEF
100
DictionaryVariables
280
     0
  1
1
  0
DICTIONARYVAR
  5
E6F
102
{ACAD_REACTORS
330
BEF
102
}
330
BEF
100
DictionaryVariables
280
     0
  1
15
  0
DICTIONARYVAR
  5
E6D
102
{ACAD_REACTORS
330
BEF
102
}
330
BEF
100
DictionaryVariables
280
     0
  1
0
  0
DICTIONARYVAR
  5
E6B
102
{ACAD_REACTORS
330
BEF
102
}
330
BEF
100
DictionaryVariables
280
     0
  1
0
  0
DICTIONARYVAR
  5
BF2
102
{ACAD_REACTORS
330
BEF
102
}
330
BEF
100
DictionaryVariables
280
     0
  1

  0
ACAD_PROXY_OBJECT
  5
E0D
102
{ACAD_REACTORS
330
B98
102
}
330
B98
100
AcDbProxyObject
 90
      499
 91
      544
 95
    65563
 70
     0
162
                 0
161
                84
310
90100057356C1D8C406AAC
 94
        0
  0
DICTIONARY
  5
BA5
102
{ACAD_REACTORS
330
B98
102
}
330
B98
100
AcDbDictionary
281
     1
  3
ANSI
350
E15
  0
XRECORD
  5
BC4
102
{ACAD_REACTORS
330
B98
102
}
330
B98
100
AcDbXrecord
280
     1
 90
-1023410169
  0
ACAD_PROXY_OBJECT
  5
DC2
330
0
100
AcDbProxyObject
 90
      499
 91
      507
 95
    65563
 70
     0
162
               234
311
43904010C01340114014C016401340108013C0130014C01240168011400C
161
                34
310
000101420C
330
DBF
 94
        0
  0
ACAD_PROXY_OBJECT
  5
DC4
330
0
100
AcDbProxyObject
 90
      499
 91
      509
 95
    65563
 70
     0
162
                74
311
41108013C013400C400C
161
                46
310
00010100AC00
330
DBF
330
0
330
0
 94
        0
  0
ACAD_PROXY_OBJECT
  5
DCA
330
0
100
AcDbProxyObject
 90
      499
 91
      515
 95
    65563
 70
     0
162
               562
311
41190018401D001940109310031002E0030002E00360032002E00300041190018401D001940109310031002E0030002E00360032002E003000419040138014C012400CC00C400C
161
                92
310
00010101010140501000096C
330
DBF
330
DCB
330
DCF
 94
        0
  0
ACAD_PROXY_OBJECT
  5
DCB
330
0
100
AcDbProxyObject
 90
      499
 91
      516
 95
    65563
 70
     0
162
                 0
161
                48
310
00019014220092
330
DBF
330
DCC
 94
        0
  0
ACAD_PROXY_OBJECT
  5
DCC
330
0
100
AcDbProxyObject
 90
      499
 91
      517
 95
    65563
 70
     0
162
                 0
161
                48
310
0001AA0000008F
330
DBF
330
B3C
330
DCD
330
0
 94
        0
  0
ACAD_PROXY_OBJECT
  5
DCD
330
0
100
AcDbProxyObject
 90
      499
 91
      518
 95
    65563
 70
     0
162
                 0
161
                28
310
0001AAAC
330
DBF
 94
        0
  0
ACAD_PROXY_OBJECT
  5
DD0
330
0
100
AcDbProxyObject
 90
      499
 91
      507
 95
    65563
 70
     0
162
               138
311
42104013401200130010C01040130010C00C
161
                34
310
000101404C
330
DBF
 94
        0
  0
ACAD_PROXY_OBJECT
  5
DD1
330
0
100
AcDbProxyObject
 90
      499
 91
      507
 95
    65563
 70
     0
162
               170
311
429040134014801140154014C011401100124013400C
161
                34
310
000101404C
330
DBF
 94
        0
  0
ACAD_PROXY_OBJECT
  5
DD2
330
0
100
AcDbProxyObject
 90
      499
 91
      507
 95
    65563
 70
     0
162
               202
311
431040134014C0114010C01500124013C013801100124013400C
161
                26
310
0001018C
330
DBF
 94
        0
  0
ACAD_PROXY_OBJECT
  5
DD3
330
0
100
AcDbProxyObject
 90
      499
 91
      507
 95
    65563
 70
     0
162
               170
311
429040134015801400108013C014801100114014800C
161
                34
310
000101404C
330
DBF
 94
        0
  0
ACAD_PROXY_OBJECT
  5
DD4
330
0
100
AcDbProxyObject
 90
      499
 91
      507
 95
    65563
 70
     0
162
               170
311
4290401340110015C011C010C013C0130013C014800C
161
                26
310
0001018C
330
DBF
 94
        0
  0
ACAD_PROXY_OBJECT
  5
DD5
330
0
100
AcDbProxyObject
 90
      499
 91
      507
 95
    65563
 70
     0
162
               218
311
435040134015801240114015C01480114011801480114014C012000C
161
                34
310
000101404C
330
DBF
 94
        0
  0
ACAD_PROXY_OBJECT
  5
DD6
330
0
100
AcDbProxyObject
 90
      499
 91
      507
 95
    65563
 70
     0
162
               266
311
441040134010401380138013C01500114014001480114014C011401480158011400C
161
                34
310
000101404C
330
DBF
 94
        0
  0
ACAD_PROXY_OBJECT
  5
DD7
330
0
100
AcDbProxyObject
 90
      499
 91
      507
 95
    65563
 70
     0
162
               266
311
441040134010401540150013C01100124013401040148014801040138011C011400C
161
                34
310
000101404C
330
DBF
 94
        0
  0
ACAD_PROXY_OBJECT
  5
DD8
330
0
100
AcDbProxyObject
 90
      499
 91
      507
 95
    65563
 70
     0
162
               186
311
42D04013401140160015001480114011801100124013400C
161
                26
310
0001018C
330
DBF
 94
        0
  0
ACAD_PROXY_OBJECT
  5
DD9
330
0
100
AcDbProxyObject
 90
      499
 91
      507
 95
    65563
 70
     0
162
               186
311
42D040134015001040140010401380138013C0150011400C
161
                34
310
000101404C
330
DBF
 94
        0
  0
ACAD_PROXY_OBJECT
  5
DDA
330
0
100
AcDbProxyObject
 90
      499
 91
      507
 95
    65563
 70
     0
162
               138
311
421040134010401540150013C010C013000C
161
                34
310
000101404C
330
DBF
 94
        0
  0
ACAD_PROXY_OBJECT
  5
DDB
330
0
100
AcDbProxyObject
 90
      499
 91
      507
 95
    65563
 70
     0
162
               138
311
421040134010C0130011801140104015000C
161
                34
310
000101414C
330
DBF
 94
        0
  0
ACAD_PROXY_OBJECT
  5
DDC
330
0
100
AcDbProxyObject
 90
      499
 91
      507
 95
    65563
 70
     0
162
               138
311
421040134010C0130015801240114015C00C
161
                34
310
0001014FCC
330
DBF
 94
        0
  0
ACAD_PROXY_OBJECT
  5
DDD
330
0
100
AcDbProxyObject
 90
      499
 91
      507
 95
    65563
 70
     0
162
               218
311
4350401340120012401100114016801140148013C01100124013400C
161
                34
310
000101404C
330
DBF
 94
        0
  0
ACAD_PROXY_OBJECT
  5
DDE
330
0
100
AcDbProxyObject
 90
      499
 91
      507
 95
    65563
 70
     0
162
               170
311
429040134012001040150010C01200124014C013C00C
161
                34
310
000101404C
330
DBF
 94
        0
  0
ACAD_PROXY_OBJECT
  5
DDF
330
0
100
AcDbProxyObject
 90
      499
 91
      507
 95
    65563
 70
     0
162
               234
311
439040134014C01240138011C0130011401200104015001300104016400C
161
                26
310
0001018C
330
DBF
 94
        0
  0
ACAD_PROXY_OBJECT
  5
DE0
330
0
100
AcDbProxyObject
 90
      499
 91
      507
 95
    65563
 70
     0
162
               186
311
42D0401340110015C011C0118013001100124014C014000C
161
                26
310
0001018C
330
DBF
 94
        0
  0
ACAD_PROXY_OBJECT
  5
DE1
330
0
100
AcDbProxyObject
 90
      499
 91
      507
 95
    65563
 70
     0
162
               138
311
421040134010401540150013C0120013800C
161
                26
310
0001018C
330
DBF
 94
        0
  0
ACAD_PROXY_OBJECT
  5
DE2
330
0
100
AcDbProxyObject
 90
      499
 91
      507
 95
    65563
 70
     0
162
               154
311
42504013401200138010C013C01540138015000C
161
                34
310
000101404C
330
DBF
 94
        0
  0
ACAD_PROXY_OBJECT
  5
DE3
330
0
100
AcDbProxyObject
 90
      499
 91
      507
 95
    65563
 70
     0
162
               138
311
4210401340120013801400148013C012800C
161
                34
310
000101404C
330
DBF
 94
        0
  0
ACAD_PROXY_OBJECT
  5
DE4
330
0
100
AcDbProxyObject
 90
      499
 91
      507
 95
    65563
 70
     0
162
               138
311
42104013401200138015001640140011400C
161
                34
310
00010141CC
330
DBF
 94
        0
  0
ACAD_PROXY_OBJECT
  5
DE5
330
0
100
AcDbProxyObject
 90
      499
 91
      507
 95
    65563
 70
     0
162
               138
311
42104013401200138015801240114015C00C
161
                34
310
00010143CC
330
DBF
 94
        0
  0
ACAD_PROXY_OBJECT
  5
DE6
330
0
100
AcDbProxyObject
 90
      499
 91
      507
 95
    65563
 70
     0
162
               218
311
435040134014C0114010C01500124013C0138010C013C0140016400C
161
                26
310
0001018C
330
DBF
 94
        0
  0
ACAD_PROXY_OBJECT
  5
DE7
330
0
100
AcDbProxyObject
 90
      499
 91
      507
 95
    65563
 70
     0
162
               138
311
421040134010C013001400148013C012800C
161
                34
310
00010140CC
330
DBF
 94
        0
  0
ACAD_PROXY_OBJECT
  5
DE8
330
0
100
AcDbProxyObject
 90
      499
 91
      519
 95
    65563
 70
     0
162
               234
311
439040134010401540150013C012001040150010C01200148013C015000C
161
                90
310
0001010000000000000B900C
330
DBF
 94
        0
  0
ACAD_PROXY_OBJECT
  5
DE9
330
0
100
AcDbProxyObject
 90
      499
 91
      507
 95
    65563
 70
     0
162
               234
311
439040134010401540150013C012001040150010C012001100114015000C
161
                34
310
000101404C
330
DBF
 94
        0
  0
ACAD_PROXY_OBJECT
  5
DF3
330
0
100
AcDbProxyObject
 90
      499
 91
      536
 95
    65563
 70
     0
162
               212
311
421040134010C01540148014C01500110010441004E0053004900C
161
                32
310
0001010100
330
DBF
 94
        0
  0
ACAD_PROXY_OBJECT
  5
DF5
330
0
100
AcDbProxyObject
 90
      499
 91
      529
 95
    65563
 70
     0
162
              1192
311
4791801C801A400800128018401B8008000C800D4008000C400C800E800D000E400E800C400C8008000C800C000C000E0008000A001540150010C00A40109310031002E0030002E00360032002E0030004611801C801A400800128018401B8008000C800D4008000C000DC00E800D400CC00E800C800DC008000C800C000C0
311
00E00109310031002E0030002E00360032002E003000C3
161
               114
310
0001000000009AA6A9AA404040404C
330
DBF
330
DF6
330
DF7
330
DF9
330
0
 94
        0
  0
ACAD_PROXY_OBJECT
  5
DF6
330
0
100
AcDbProxyObject
 90
      499
 91
      530
 95
    65563
 70
     0
162
                 0
161
                70
310
0001AAA80820000000
330
DBF
330
DF6
330
DF6
 94
        0
  0
ACAD_PROXY_OBJECT
  5
DF7
330
0
100
AcDbProxyObject
 90
      499
 91
      531
 95
    65563
 70
     0
162
                 0
161
                48
310
000100000000CA
330
DBF
330
0
330
DF8
330
0
330
0
 94
        0
  0
ACAD_PROXY_OBJECT
  5
DF8
330
0
100
AcDbProxyObject
 90
      499
 91
      532
 95
    65563
 70
     0
162
                 0
161
                40
310
000100AAAA00
330
DBF
330
0
 94
        0
  0
ACAD_PROXY_OBJECT
  5
DFE
330
0
100
AcDbProxyObject
 90
      499
 91
      536
 95
    65563
 70
     0
162
               276
311
431040104010C013C01340140011001180138010401340114010443004F004D005000C
161
                32
310
0001010100
330
DBF
 94
        0
  0
ACAD_PROXY_OBJECT
  5
DFF
330
0
100
AcDbProxyObject
 90
      499
 91
      536
 95
    65563
 70
     0
162
               340
311
4390401040118013C0130011001140148011001180138010401340114010646006F006C00640065007200C
161
                32
310
0001010100
330
DBF
 94
        0
  0
ACAD_PROXY_OBJECT
  5
E00
330
0
100
AcDbProxyObject
 90
      499
 91
      536
 95
    65563
 70
     0
162
               276
311
431040104010401380138013C01100118013801040134011401042800410056002900C
161
                32
310
0001010100
330
DBF
 94
        0
  0
ACAD_PROXY_OBJECT
  5
E01
330
0
100
AcDbProxyObject
 90
      499
 91
      536
 95
    65563
 70
     0
162
               756
311
439040104010C013C01340140015801240114015C01300124014C0150012054006F0070000A00460072006F006E0074000A00520069006700680074000A004C006500660074000A0042006F00740074006F006D000A004100750078003100C
161
                32
310
0001010100
330
DBF
 94
        0
  0
ACAD_PROXY_OBJECT
  5
E02
330
0
100
AcDbProxyObject
 90
      499
 91
      507
 95
    65563
 70
     0
162
               234
311
439040134014C014C0150014801040130015C01040164014C013C013800C
161
                26
310
0001018C
330
DBF
 94
        0
  0
ACAD_PROXY_OBJECT
  5
E07
330
0
100
AcDbProxyObject
 90
      499
 91
      538
 95
    65563
 70
     0
162
                 0
161
                32
310
0001000000
330
DBF
340
E04
330
E09
330
E04
 94
        0
  0
ACAD_PROXY_OBJECT
  5
E08
330
0
100
AcDbProxyObject
 90
      499
 91
      539
 95
    65563
 70
     0
162
                 0
161
                18
310
00018C
330
DBF
 94
        0
  0
ACAD_PROXY_OBJECT
  5
E09
330
0
100
AcDbProxyObject
 90
      499
 91
      540
 95
    65563
 70
     0
162
                90
311
4150C011800C80140010800C
161
                80
310
0001014140155005540000
330
DBF
330
E07
330
E08
 94
        0
  0
ACAD_PROXY_OBJECT
  5
E0A
330
0
100
AcDbProxyObject
 90
      499
 91
      541
 95
    65563
 70
     0
162
                 0
161
               178
310
000100AAAAAA9ED28F22E74C5650EDD62D760987178BCC
330
DBF
330
E09
 94
        0
  0
ACAD_PROXY_OBJECT
  5
E0B
330
0
100
AcDbProxyObject
 90
      499
 91
      542
 95
    65563
 70
     0
162
                 0
161
               108
310
0001901422000000000000AAAAAC
330
DBF
330
E0C
330
E0C
330
E0C
330
E0C
330
E0C
330
0
 94
        0
  0
ACAD_PROXY_OBJECT
  5
E0C
330
0
100
AcDbProxyObject
 90
      499
 91
      543
 95
    65563
 70
     0
162
                 0
161
                51
310
00010000AAAA8C
330
DBF
330
E0B
330
E09
 94
        0
  0
DICTIONARY
  5
DBB
102
{ACAD_REACTORS
330
B42
102
}
330
B42
100
AcDbDictionary
281
     1
  3
DWGSETTINGS
350
DBC
  3
TRANSSETTINGS
350
DBD
  0
ACAD_PROXY_OBJECT
  5
E16
102
{ACAD_REACTORS
330
B42
102
}
330
B42
100
AcDbProxyObject
 90
      499
 91
      551
 95
    65563
 70
     0
162
             15824
311
404C0010441004D005F0030009013100411040134017C00C402404C8010441004D005F0032009013300411040134017C00CC02404D0010441004D005F0034009013500411040134017C00D402404D8010441004D005F0036009013700411040134017C00DC02404E0010441004D005F0038009013900411040134017C00E40
311
2408C80104010541004D005F003100300090234004100415040134017C00C400C402409240140010541004D005F003100320090230004E00415040134017C00C0013802408C40138010541004D005F0031004E0090232004E00415040134017C00C8013802408CC0138010541004D005F0033004E0090234004E0041504013
311
4017C00D0013802408D40138010541004D005F0035004E0090236004E00415040134017C00D8013802408DC0138010541004D005F0037004E0090238004E00415040134017C00E0013802408E40138010541004D005F0039004E00903320041004E00419040134017C00C400C001380240CD001040138010641004D005F003
311
10031004E00903490050004E00419040134017C00C400C80138024112C013001240138010541004D005F0043004C0090449004E0046004F00421040134017C01400104014801140118024154801040120013400D4010641004D005F0042004F0052009045600490045005700421040134017C015801240114015C014C02419
311
0801140120012401380110010641004D005F0049004E00560090554005200410049004C00415040134017C015001480240D2001240110010641004D005F00480049004400903560049005300419040134017C01580124014C024194001040148011001240134010941004D005F00500041005200440049004D009065200450
311
04600440049004D00425040134017C01480114011801100124013402411080120013801580101390041508012001380158014C010642004500480049004E00440041108013C014800C801055200410048004D00350041108013C014800CC01055200410048004D00350041108013C014800D401055200410048004D0035004
311
110C0104013000C8010134004110C0104013000CC010134004110C0104013000D4010134004110C0104013000DC010134004110C011401380138010137004110C01140138015C010137004110C01300124013801044B004C0049004E004110C013C013800C4010130004110C013C013800C8010131004110C013C013800CC0
311
10132004110C013C013800D00101320041110011401500104010134004111001240104011C010135004111001240130012401013500411100124013401400106500041005200440049004D00411100124013401480106520045004600440049004D00411180114013401380101380041518011401340140013801013800415
311
1801140134014C01400102340041004151801140134014C015001023400410041518011401340158013801013200415180114013401580150010132004112001040150010C0101380041120012401100138010133004112001240110015C01013300411200130012401380101340041120013C010C01380101370041120013
311
C010C015C010137004112401380118013C010449004E0046004F00411300114010401100101350041938017C0108012001380158010239004E0041938017C010C013C013800C4010230004E0041938017C010C013C013800C8010231004E0041938017C010C013C013800CC010232004E0041938017C010C013C013800D001
311
0232004E0041938017C010C011401380138010237004E0041938017C010C01140138015C010237004E0041938017C0110012401300124010235004E0041938017C012001040150010C010238004E0041938017C0120012401100138010233004E0041938017C012001240110015C010233004E0041938017C0130011401040
311
110010235004E0041938017C0138011C012401400103490050004E0041938017C01400120010401380103340041004E0041938017C0150010C013C0138010230004E0041938017C0150012001300124010234004E0041938017C0150013001140138010230004E0041938017C01580140013001240103320041004E0041138
311
011C01240140010249005000411400104013000C801055200410048004D003500411400104013000CC01055200410048004D003500411400104013000D401055200410048004D0035004114001200104013801023400410041140013C014C01380101350041148010C011C01380101370041148010C011C015C01013700411
311
4C01080148012C010134004114C0114010C0150010134004114C0164010800CC0101350041134014C016401340101350041150010C013C0138010130004115001200130012401013400411500124015000C801055200410048004D003500411500124015000CC01055200410048004D003500411500124015000D401055200
311
410048004D0035004115001300114013801013000415500148010401240130010554005200410049004C004115001480130012401013400411500160015000C401013600411500160015000C801013600411500160015000CC01013600411500160015000D401013600411500160015000DC010136004115801240114015C0
311
1045600490045005700411580114011001200103480049004400411580114011001580103560049005300411580140013001240102320041004116801240168010401013400404FC0200
161
              8848
310
4190349201C00030C011E44203800030C011E44201400030C011E44201800030C010FA00C00030C010FA00C00030C010FA00800030C011EA01000030C010FA00400030C010FA3F400030C0241201C00030C011EA00C00030C010FA01C00030C011E40A01C00030C011EA03800030C011EA01400030C011EA01800030C010FA
310
00C00030C010FA00C00030C010FA00800030C011EA01000030C010FA00400030C010FA3F400030C0241201C00030C011EA00C00030C010FA01C00030C011E40A00400030C010F42601000030C010F42E01C00030C011E42600400030C010F42E3F400030C0243600C00030C010F42601C00030C010F42601C00030C011E426
310
00C00030C010F42601000030C010F425538000000C0003FFFFFFFE8000000C0003FFFFFFFE8010000C30043E8020000C30047A8000000C0003FFFFFFFE8000000C0003FFFFFFFE8020000C30047A8070000C30047A81E0000C3004F28000000C0003FFFFFFFE8000000C0003FFFFFFFE8000000C0003FFFFFFFE8000000C00
310
03FFFFFFFD038000000C0003FFFFFFFD038000000C0003FFFFFFFD038000000C0003FFFFFFFD038000000C0003FFFFFFFE8000000C0003FFFFFFFE8000000C0003FFFFFFFE8000000C0003FFFFFFFE8000000C0003FFFFFFFE8000000C0003FFFFFFFE8030000C3003FFFFFFFE8000000C0003FFFFFFFE8030000C30043E80
310
00000C0003FFFFFFFE8030000C30043E8000000C0003FFFFFFFD018000000C0003FFFFFFFD038000000C0003FFFFFFFD038000000C0003FFFFFFFD018000000C0003FFFFFFFE8000000C0003FFFFFFFE8000000C0003FFFFFFFE8000000C0003FFFFFFFE8000000C0003FFFFFFFE8000000C0003FFFFFFFD038000000C0003
310
FFFFFFFD038000000C0003FFFFFFFD038000000C0003FFFFFFFD038000000C0003FFFFFFFE8000000C0003FFFFFFFE8000000C0003FFFFFFFE8000000C0003FFFFFFFD018000000C0003FFFFFFFD038000000C0003FFFFFFFD038000000C0003FFFFFFFE8000000C0003FFFFFFFE8000000C0003FFFFFFFE8000000C0003FF
310
FFFFFD038000000C0003FFFFFFFD018000000C0003FFFFFFFD038000000C0003FFFFFFFE8000000C0003FFFFFFFE8010000C30043E8020000C30047A8000000C0003FFFFFFFE8000000C0003FFFFFFFE8000000C0003FFFFFFFE8000000C0003FFFFFFFE8000000C0003FFFFFFFE8070000C300479018000000C0003FFFFFF
310
FD018020000C30047A8020000C30047A8000000C0003FFFFFFFD038000000C0003FFFFFFFD018010000C30043E8020000C30047A8000000C0003FFFFFFFE8000000C0003FFFFFFFD038000000C0003FFFFFFFE8000000C0003FFFFFFFD018030000C30043E8030000C30043E8000000C0003FFFFFFFE8070000C30047A81E0
310
000C3004F28000000C0003FFFFFFFE8000000C0003FFFFFFFD028000000C0003FFFFFFFD028000000C0003FFFFFFFE8000000C0003FFFFFFFD01AAA3F400030C010A4391E41D1E4190F4151E4110F40D0F4091E4050F4793C7F600
340
14
340
14
340
14
340
4D
340
14
340
14
340
14
340
4C
340
14
340
14
340
4C
340
B74
340
14
340
14
340
14
340
14
340
4D
340
14
340
14
340
14
340
4C
340
14
340
14
340
4C
340
B74
340
14
340
BAB
340
14
340
14
340
14
340
14
340
14
340
4D
340
14
340
14
340
14
340
13
340
13
340
13
340
13
340
13
340
13
340
13
340
13
340
13
340
BB1
340
13
340
13
340
13
340
13
340
13
340
13
340
13
340
13
340
13
340
13
340
13
340
13
340
13
340
14
340
13
340
13
340
13
340
13
340
BB2
340
13
340
13
340
BB1
340
13
340
13
340
13
340
13
340
13
340
13
340
13
340
13
340
BB1
340
13
340
13
340
13
340
BB2
340
13
340
13
340
13
340
13
340
13
340
BB2
340
13
340
B74
340
13
340
13
340
13
340
13
340
13
340
13
340
BB1
340
13
340
13
340
13
340
13
340
13
340
13
340
BB2
340
13
340
13
340
13
340
13
340
13
340
13
340
13
340
13
340
13
340
13
340
13
340
13
340
13
340
13
340
B74
340
BB3
 94
        0
  0
DICTIONARY
  5
E70
330
B38
100
AcDbDictionary
280
     1
281
     1
  3
ACAD_ROUNDTRIP_2008_TABLESTYLE_CELLSTYLEMAP
360
E71
  0
ACAD_PROXY_OBJECT
  5
E15
102
{ACAD_REACTORS
330
BA5
102
}
330
BA5
100
AcDbProxyObject
 90
      499
 91
      550
 95
    65563
 70
     0
162
              3516
311
411040138014C01240243904018C01B4014C01D401C801980150019401E001D0014C01D001900109410063006D0046004300460053007400640043504018C01B4015C019401B0019001A401B8019C014C01D001900108410063006D004900640053007400640042D04018C01B40110018401D001D401B4014C01D001900109
311
410063006D0042004F004D005300740064004410401B4019001D00110019401D0018401A401B0014C01E401B4014C01D00190011141006D0064007400530065006300740069006F006E00530079006D005300740064004450401B4019001D0010C019401B801D0019401C8013001A401B80194014C01D00190011141006D00
311
640074005400680072006500610064004C0069006E00650053007400640042D0401B4019001D0013801BC01D00194014C01D00190010B410063006D005400610070006500720053007400640042D04018C010401B4019C0130018401E4014C01D00190010B4100630041006D006700440069006D0053007400640044504018
311
C010401B4019C012001BC01B00194010C01A0018401C801D0014C01D00190010D4100630041006D0067005400690074006C006500530074006400C
161
               705
310
630B81E85EB51B8BE3F8030000C30040540600800030C0200800030C00B81E85EB51B8BE3F4882208120281202812028120281202812028120281202812028120281202812028120281202812028120280A04809FFFE7FFFCC
340
BB4
360
E17
360
E18
360
E19
360
E1A
360
E1B
360
E1C
360
E1D
360
E1E
360
E1F
360
E20
360
E21
360
E22
360
E29
360
E2A
360
E2B
360
E2C
340
0
340
0
340
0
340
0
 94
        0
  0
ACAD_PROXY_OBJECT
  5
DBC
102
{ACAD_REACTORS
330
DBB
102
}
330
DBB
100
AcDbProxyObject
 90
      499
 91
      503
 95
    65563
 70
     0
162
              3560
311
42D10015C011C014C01140150015001240138011C014C0109430041004E00470041005200520041005900420CC00C001F000D000D401F000D800C00106430045004E0041004E004700424D000D401F000E400C001F000C400CC00D40106430045004E0044004900410041D0C01140138011001240104014C010B30002E0035
311
007C0031002E0030007C0031002E00350041D0C0114013801100124014C01500106430045004E004C0045004E004190C01140138013C01180118010943004C0049004E0041005200520041005900438C000B800C400C800D401F000C000B800C800D401F000C000B800D4010843004C0049004E00450054005900500041560
311
0130012401380114010944005700470055005300430041004C00450041D300104014C0150013C0108012801013000421340104012C0114015801240114015C010650005300430041004C00450041948011401580124014C0124010130004154C010C010401300114010331003A00310042550012401340114014C015001040
311
13401400107560045005200530049004F004E00414C400D400B800C000C001107B00440057004700530045005400540049004E004700530045004E0044007D0000
161
               548
310
40682A0A940000000000001C07E82A50000000000000601FA50000000000000701FA50000000000000701FA0A82A50A0A9FA040C008000105415283735CCB457C99CD0505C
 94
        0
  0
ACAD_PROXY_OBJECT
  5
DBD
102
{ACAD_REACTORS
330
DBB
102
}
330
DBB
100
AcDbProxyObject
 90
      499
 91
      503
 95
    65563
 70
     0
162
              1382
311
43550014801040138014C014C01140150015001240138011C014C0112440052004100570049004E0047005400520041004E0053004C004100540049004F004E004353C01480124011C012401380104013001300164017C013C0138010A53004F0055005200430045004C0041004E00470040D1401380154010955005000520
311
0450053004500520056004500441EC0110015C011C014C01140150015001240138011C014C01140138011001F400
161
               126
310
4060C00800041801000020A0C0080000
 94
        0
  0
CELLSTYLEMAP
  5
E71
102
{ACAD_REACTORS
330
E70
102
}
330
E70
100
AcDbCellStyleMap
 90
        3
300
CELLSTYLE
  1
TABLEFORMAT_BEGIN
 90
        5
170
     1
 91
        0
 92
    32768
 62
   257
 93
        1
300
CONTENTFORMAT
  1
CONTENTFORMAT_BEGIN
 90
        0
 91
        0
 92
        4
 93
        0
300

 40
0.0
140
1.0
 94
        5
 62
     0
340
10
144
0.25
309
CONTENTFORMAT_END
171
     0
 94
        6
 95
        1
302
GRIDFORMAT
  1
GRIDFORMAT_BEGIN
 90
        0
 91
        1
 62
     0
 92
       -2
340
0
 93
        0
 40
0.045
309
GRIDFORMAT_END
 95
        2
302
GRIDFORMAT
  1
GRIDFORMAT_BEGIN
 90
        0
 91
        1
 62
     0
 92
       -2
340
0
 93
        0
 40
0.045
309
GRIDFORMAT_END
 95
        4
302
GRIDFORMAT
  1
GRIDFORMAT_BEGIN
 90
        0
 91
        1
 62
     0
 92
       -2
340
0
 93
        0
 40
0.045
309
GRIDFORMAT_END
 95
        8
302
GRIDFORMAT
  1
GRIDFORMAT_BEGIN
 90
        0
 91
        1
 62
     0
 92
       -2
340
0
 93
        0
 40
0.045
309
GRIDFORMAT_END
 95
       16
302
GRIDFORMAT
  1
GRIDFORMAT_BEGIN
 90
        0
 91
        1
 62
     0
 92
       -2
340
0
 93
        0
 40
0.045
309
GRIDFORMAT_END
 95
       32
302
GRIDFORMAT
  1
GRIDFORMAT_BEGIN
 90
        0
 91
        1
 62
     0
 92
       -2
340
0
 93
        0
 40
0.045
309
GRIDFORMAT_END
309
TABLEFORMAT_END
  1
CELLSTYLE_BEGIN
 90
        1
 91
        1
300
_TITLE
309
CELLSTYLE_END
300
CELLSTYLE
  1
TABLEFORMAT_BEGIN
 90
        5
170
     1
 91
        0
 92
        0
 62
   257
 93
        1
300
CONTENTFORMAT
  1
CONTENTFORMAT_BEGIN
 90
        0
 91
        0
 92
        4
 93
        0
300

 40
0.0
140
1.0
 94
        5
 62
     0
340
10
144
0.18
309
CONTENTFORMAT_END
171
     0
 94
        6
 95
        1
302
GRIDFORMAT
  1
GRIDFORMAT_BEGIN
 90
        0
 91
        1
 62
     0
 92
       -2
340
0
 93
        0
 40
0.045
309
GRIDFORMAT_END
 95
        2
302
GRIDFORMAT
  1
GRIDFORMAT_BEGIN
 90
        0
 91
        1
 62
     0
 92
       -2
340
0
 93
        0
 40
0.045
309
GRIDFORMAT_END
 95
        4
302
GRIDFORMAT
  1
GRIDFORMAT_BEGIN
 90
        0
 91
        1
 62
     0
 92
       -2
340
0
 93
        0
 40
0.045
309
GRIDFORMAT_END
 95
        8
302
GRIDFORMAT
  1
GRIDFORMAT_BEGIN
 90
        0
 91
        1
 62
     0
 92
       -2
340
0
 93
        0
 40
0.045
309
GRIDFORMAT_END
 95
       16
302
GRIDFORMAT
  1
GRIDFORMAT_BEGIN
 90
        0
 91
        1
 62
     0
 92
       -2
340
0
 93
        0
 40
0.045
309
GRIDFORMAT_END
 95
       32
302
GRIDFORMAT
  1
GRIDFORMAT_BEGIN
 90
        0
 91
        1
 62
     0
 92
       -2
340
0
 93
        0
 40
0.045
309
GRIDFORMAT_END
309
TABLEFORMAT_END
  1
CELLSTYLE_BEGIN
 90
        2
 91
        1
300
_HEADER
309
CELLSTYLE_END
300
CELLSTYLE
  1
TABLEFORMAT_BEGIN
 90
        5
170
     1
 91
        0
 92
        0
 62
   257
 93
        1
300
CONTENTFORMAT
  1
CONTENTFORMAT_BEGIN
 90
        0
 91
        0
 92
        4
 93
        0
300

 40
0.0
140
1.0
 94
        2
 62
     0
340
10
144
0.18
309
CONTENTFORMAT_END
171
     0
 94
        6
 95
        1
302
GRIDFORMAT
  1
GRIDFORMAT_BEGIN
 90
        0
 91
        1
 62
     0
 92
       -2
340
0
 93
        0
 40
0.045
309
GRIDFORMAT_END
 95
        2
302
GRIDFORMAT
  1
GRIDFORMAT_BEGIN
 90
        0
 91
        1
 62
     0
 92
       -2
340
0
 93
        0
 40
0.045
309
GRIDFORMAT_END
 95
        4
302
GRIDFORMAT
  1
GRIDFORMAT_BEGIN
 90
        0
 91
        1
 62
     0
 92
       -2
340
0
 93
        0
 40
0.045
309
GRIDFORMAT_END
 95
        8
302
GRIDFORMAT
  1
GRIDFORMAT_BEGIN
 90
        0
 91
        1
 62
     0
 92
       -2
340
0
 93
        0
 40
0.045
309
GRIDFORMAT_END
 95
       16
302
GRIDFORMAT
  1
GRIDFORMAT_BEGIN
 90
        0
 91
        1
 62
     0
 92
       -2
340
0
 93
        0
 40
0.045
309
GRIDFORMAT_END
 95
       32
302
GRIDFORMAT
  1
GRIDFORMAT_BEGIN
 90
        0
 91
        1
 62
     0
 92
       -2
340
0
 93
        0
 40
0.045
309
GRIDFORMAT_END
309
TABLEFORMAT_END
  1
CELLSTYLE_BEGIN
 90
        3
 91
        2
300
_DATA
309
CELLSTYLE_END
  0
ACAD_PROXY_OBJECT
  5
E17
330
E15
100
AcDbProxyObject
 90
      499
 91
      552
 95
    65563
 70
     0
162
                 0
161
                96
310
63020E80A0280A0280A0280800
 94
        0
  0
ACAD_PROXY_OBJECT
  5
E18
330
E15
100
AcDbProxyObject
 90
      499
 91
      553
 95
    65563
 70
     0
162
                 0
161
               332
310
6310E405014050140501405014050140501405014250140501405014050140501200000000000000040C
340
BC0
 94
        0
  0
ACAD_PROXY_OBJECT
  5
E19
330
E15
100
AcDbProxyObject
 90
      499
 91
      554
 95
    65563
 70
     0
162
                 0
161
               403
310
630C199999999999E99F91F405014050140501405014050140501405014050140501405014050140501405014050140501404C
340
0
 94
        0
  0
ACAD_PROXY_OBJECT
  5
E1A
330
E15
100
AcDbProxyObject
 90
      499
 91
      555
 95
    65563
 70
     0
162
                 0
161
                10
310
630C
 94
        0
  0
ACAD_PROXY_OBJECT
  5
E1B
330
E15
100
AcDbProxyObject
 90
      499
 91
      556
 95
    65563
 70
     0
162
                 0
161
               257
310
632290EA22A7D90F49F9353333333333727F44D4CCCCCCCCCDC9FC01000061804C
340
BC1
340
BC2
 94
        0
  0
ACAD_PROXY_OBJECT
  5
E1C
330
E15
100
AcDbProxyObject
 90
      499
 91
      557
 95
    65563
 70
     0
162
             22604
311
4112401500114013401044900540045004D004CD1C01140138015001480104010C013C00B001140138015400B000C000B0012401500114013400B0011C011401380150014801040150016000B0009401CC00B000A0011C011401380134014C011C0080019C019401B8019001DC019C008000C800C800C800A40240D4401500
311
16401035100540059004C91C01140138015001480104010C013C00B001140138015400B000C000B001440150016400B0011C011401380150014801040150016000B0009401CC00B000A0011C011401380134014C011C0080019C019401B8019001DC019C008000C800C800CC00A4024113801040134011401044E0041004D0
311
045004CD1C01140138015001480104010C013C00B001140138015400B000C000B0013801040134011400B0011C011401380150014801040150016000B0009401CC00B000A0011C011401380134014C011C0080019C019401B8019001DC019C008000C800C800D800A4012C3D004900460028004900530042004C0041004E00
311
4B00280050004100520054003A004E0041004D00450029002C0042004C004F0043004B003A004E0041004D0045002C0050004100520054003A004E0041004D0045002900415100114014C010C0148010B4400450053004300520049005000540049004F004E004E91C01140138015001480104010C013C00B0011401380154
311
00B000C000B001100114014C010C01480124014001500124013C013800B0011C011401380150014801040150016000B0009401CC00B000A0011C011401380134014C011C0080019C019401B8019001DC019C008000C800C400DC00A4024214C015001040138011001040148011001085300540041004E00440041005200440
311
04DD1C01140138015001480104010C013C00B001140138015400B000C000B0014C015001040138011001040148011000B0011C011401380150014801040150016000B0009401CC00B000A0011C011401380134014C011C0080019C019401B8019001DC019C008000C800C400E000A402421340104015001140148012401040
311
13001084D004100540045005200490041004C004DD1C01140138015001480104010C013C00B001140138015400B000C000B00134010401500114014801240104013000B0011C011401380150014801040150016000B0009401CC00B000A0011C011401380134014C011C0080019C019401B8019001DC019C008000C800C800
311
C400A40241138013C0150011401044E004F00540045004CD1C01140138015001480104010C013C00B001140138015400B000C000B00138013C0150011400B0011C011401380150014801040150016000B0009401CC00B000A0011C011401380134014C011C0080019C019401B8019001DC019C008000C800C800D400A40241
311
958011401380110013C01480106560045004E0044004F0052004D51C01140138015001480104010C013C00B001140138015400B000C000B00158011401380110013C014800B0011C011401380150014801040150016000B0009401CC00B000A0011C011401380134014C011C0080019C019401B8019001DC019C008000C800
311
C800D000A402419100114014C010C014800C8010D4400450053004300520049005000540049004F004E00200032004ED1C01140138015001480104010C013C00B001140138015400B000C000B001100114014C010C01480124014001500124013C0138008000C800B0011C011401380150014801040150016000B0009401CC
311
00B000A0011C011401380134014C011C0080019C019401B8019001DC019C008000CC00D800A4024254C015001040138011001040148011000C8010A5300540041004E004400410052004400200032004E51C01140138015001480104010C013C00B001140138015400B000C000B0014C015001040138011001040148011000
311
8000C800B0011C011401380150014801040150016000B0009401CC00B000A0011C011401380134014C011C0080019C019401B8019001DC019C008000C800C800C000A40242534010401500114014801240104013000C8010A4D004100540045005200490041004C00200032004E11C01140138015001480104010C013C00B0
311
01140138015400B000C000B001340104015001140148012401040130008000C800B0011C011401380150014801040150016000B0009401CC00B000A0011C011401380134014C011C0080019C019401B8019001DC019C008000D000C000A402411340104014C014C01044D004100530053004C91C0114013801500148010401
311
0C013C00B001140138015400B000C000B001340104014C014C00B0011C011401380150014801040150016000B0009401CC00B000A0011C011401380134014C011C0080019C019401B8019001DC019C008000D000C800A4024154001480124010C01140105500052004900430045004CD1C01140138015001480104010C013C
311
00B001140138015400B000C000B0014001480124010C011400B0011C011401380150014801040150016000B0009401CC00B000A0011C011401380134014C011C0080019C019401B8019001DC019C008000D000CC00A40240D1001240134010B4D004500410053005500520045004D0045004E0054004E51C01140138015001
311
480104010C013C00B001140138015400B000C000B0013401140104014C015401480114013401140138015000B0011C011401380150014801040150016000B0009401CC00B000A0011C011401380134014C011C0080019C019401B8019001DC019C008000D000D000A40242508013C0134017C0154013801240150014C01055
311
5004E00490054005300A41CF400F0012401500114013400F801073D003C004900540045004D003E0041CF400F0012401500114013400F801073D003C004900540045004D003E0041CF400F0012401500114013400F801063D003C005100540059003E0041CF400F0012401500114013400F801073D003C004900540045004D
311
003E00AAA901310090B65006100090065006100090045006100630068000A00455CC01C401B4002401CC01C401B40024014C01C401D4018401C8019400800134019401D0019401C80028011C7300710063006D0009007300710063006D0009005300710075006100720065002000430065006E00740069006D006500740065
311
0072000A00459CC01C4019801D0002401CC01C4019801D00024014C01C401D4018401C801940080011801BC01BC01D0002801147300710069006E0009007300710069006E000900530071007500610072006500200049006E000A0043D9C018401B00024019C018401B00024011C018401B001B001BC01B80028010C710074
311
000900710074000900510075006100720074000A0046DB001C40190017C01BC01E8002401B001C40190017C01BC01E80024013001A401C401D401A401900080013C01D401B8018C01940028010A6C0009006C0009004C0069007400650072000A00441B401B0002401B401B00024013401A401B001A401B001A401D0019401
311
C80028010B79006400090079006400090059006100720064000A0042D9801D00024019801D00024011801BC01BC01D00028010B69006E00090069006E00090049006E00630068000A00429B4002401B400240134019401D0019401C80028011163006D00090063006D000900430065006E00740069006D0065007400650072
311
000A00441B401B4002401B401B40024013401A401B001A401B4019401D0019401C80028010C6C00620009006C006200090050006F0075006E0064000A00431BC01E8002401BC01E80024013C01D401B8018C01940028010967000900670009004700720061006D000A0043DB4019C002401B4019C0024013401A401B001A40
311
19C01C8018401B40028010A62007800090062007800090042006F0078000A00C
161
              5144
310
6310F40501405014069011349A4F2590CB64FD0190120280A028120280A03202269349E4B2196C9FA03202405014051C40640A8BA5C2E97CBE5024040640480A0280A3A80C81D10782C06030180C80808809014050147501904A383BFDFEFF5FBFCFD0110120280A028EA0320B41416D838E9017D9FA03202405014051D406
310
41A8BA5C2E97CBE5F23F40640480A0280A3A80C83D174B85D2F97CBE47E80C809014050147501908A20F0580C0603019010110120280A028EA0321347077FBFDFEBF7F9FA02202405014051D40642A8282DB071D202FB3F40440480A0280A3A80A0485A0681174B85D2F97CBE47E8088090140501475014090C409022E970B
310
A5F2F97C8FD0110120280A028EA028121A81A040043110F05877A1FA03202405014051E40643A8BA5C2E97CBE5F23F40640480A1E882045C0F42F5A8DC671FC0F0000618000203159AAD56AB55BEC7E566AB55AAD56FB1FA0280C566AB55AAD56FB1F959AAD56AB55BEC7E80A031218FC7E2F079DC7E4863F1F8BC1E771FA0
310
280C4863F1F8BC1E771F9218FC7E2F079DC7E80A05202566AB55AAD56FB1F959AAD56AB55BEC7E80A0280C566AB55AAD56FB1F959AAD56AB55BEC7E80A0309A4D2792C865D27E269349E4B219749FA028080159AAD56AB55BEC7E566AB55AAD56FB1FD100000000000000410200C00030C024110340D024090140510429084
310
410190A4064229014290A4290A40A000000000000785F8000000000001E17E80C010000618040380006180077BE9F1B2EDD447E1DEFA7C6CBB7511F9703D0BD6A3717C7F40683480A0482A0E832034B81E85EB51B8BE3F8020000C3008020000C3008010000C30010140501455014050140501405014050140501405014050
310
140501405014050100
340
0
340
0
 94
        0
  0
ACAD_PROXY_OBJECT
  5
E1D
330
E15
100
AcDbProxyObject
 90
      499
 91
      558
 95
    65563
 70
     0
162
               762
311
4BCF4011001140150010401240130008000F0011001140150010401240130017C0130010401080114013000F801700140014C010C010401300114008000F0011001140150010401240130017C01040108014C014C010C01040130011400F800C
161
               608
310
6300B81E85EB51B8CE3F48D0726A6666666666E4FC9A9999999999C93F000000000000380FD0000000000000010000000000000014400000000000000910207800030C00B81E85EB51B8CE3F00
340
B74
340
BB4
 94
        0
  0
ACAD_PROXY_OBJECT
  5
E1E
330
E15
100
AcDbProxyObject
 90
      499
 91
      559
 95
    65563
 70
     0
162
               826
311
4CCF4014C0114010C01500124013C0138008000F0014C0114010C01500124013C0138017C01300104010801140130017C011801240148014C015000F800B400F0014C0114010C01500124013C0138017C01300104010801140130017C01300104014C015000F800C
161
               405
310
630031703D0BD6A3719C7E4D4CCCCCCCCCEC9F8FFFF8070000C30022103C000186004D4CCCCCCCCCEC9FC5C0F42F5A8DC671FC
340
B74
340
BB4
 94
        0
  0
ACAD_PROXY_OBJECT
  5
E1F
330
E15
100
AcDbProxyObject
 90
      499
 91
      560
 95
    65563
 70
     0
162
                 0
161
               280
310
6302B8716D9CEF7C33F0A5723F0BD4A2F0FC295C8FC2F528BC3FA199999999999F99FC00
 94
        0
  0
ACAD_PROXY_OBJECT
  5
E20
330
E15
100
AcDbProxyObject
 90
      499
 91
      561
 95
    65563
 70
     0
162
                 0
161
                14
310
6324
340
0
 94
        0
  0
ACAD_PROXY_OBJECT
  5
E21
330
E15
100
AcDbProxyObject
 90
      499
 91
      562
 95
    65563
 70
     0
162
             13376
311
42950019401B401C001B0018401D00194008000C40005013D003C0069006600280065007100750061006C00280048006F006C0065003A007400610070007000650064002C0022003000220029002C00220025002500630022002C0048006F006C0065003A006E006F006D0069006E0061006C0020002200200022002000690
311
06600280065007100750061006C00280048006F006C0065003A0075006E006900740073002C0022003100220029002C002200780022002C0022002D0022002900200022002000220029003E003C0069006600280065007100750061006C00280048006F006C0065003A007400610070007000650064002C002200300022002
311
9002C0048006F006C0065003A006400690061002C0048006F006C0065003A0070006900740063006800640065007300630029003E0020007B005C00460041004D004700440054003B0078007D0020003C0069006600280065007100750061006C00280048006F006C0065003A007400650072006D0069006E0061007400690
311
06F006E002C0022003000220029002C0048006F006C0065003A00640065007000740068002C0022005400480052005500220029003E005C0050007B005C00460041004D004700440054003B0076007D002500250063003C0048006F006C0065003A00630074006400690061003E0020007B005C00460041004D00470044005
311
4003B0078007D0020003C0048006F006C0065003A0063007400640065007000740068003E0042950019401B401C001B0018401D00194008000C401FE3D003C0069006600280065007100750061006C00280048006F006C0065003A007400610070007000650064002C0022003000220029002C00220025002500630022002C
311
0048006F006C0065003A006E006F006D0069006E0061006C002000220020002200200069006600280065007100750061006C00280048006F006C0065003A0075006E006900740073002C0022003100220029002C002200780022002C0022002D0022002900200022002000220029003E003C00690066002800650071007500
311
61006C00280048006F006C0065003A007400610070007000650064002C0022003000220029002C0048006F006C0065003A006400690061002C0048006F006C0065003A0070006900740063006800640065007300630029003E0020007B005C00460041004D004700440054003B0078007D0020003C00690066002800650071
311
00750061006C00280048006F006C0065003A007400650072006D0069006E006100740069006F006E002C0022003000220029002C0048006F006C0065003A00640065007000740068002C0022005400480052005500220029003E005C0050007B005C00460041004D004700440054003B0077007D002500250063003C004800
311
6F006C0065003A00630074006400690061003E002000580020003C0048006F006C0065003A006300740061006E0067006C0065003E0025002500640042950019401B401C001B0018401D00194008000C401CF3D003C0069006600280065007100750061006C00280048006F006C0065003A007400610070007000650064002
311
C0022003000220029002C00220025002500630022002C0048006F006C0065003A006E006F006D0069006E0061006C002000220020002200200069006600280065007100750061006C00280048006F006C0065003A0075006E006900740073002C0022003100220029002C002200780022002C0022002D00220029002000220
311
02000220029003E003C0069006600280065007100750061006C00280048006F006C0065003A007400610070007000650064002C0022003000220029002C0048006F006C0065003A006400690061002C0048006F006C0065003A0070006900740063006800640065007300630029003E005C0050007B005C00460041004D004
311
700440054003B0078007D0020003C0069006600280065007100750061006C00280048006F006C0065003A007400650072006D0069006E006100740069006F006E002C0022003000220029002C0048006F006C0065003A00640065007000740068002C0022005400480052005500220029003E0042950019401B401C001B001
311
8401D00194008000C801173D003C0053005400440050003A0044004500530043003E0020003C0053005400440050003A005300540044003E0042950019401B401C001B0018401D00194008000C4010C3D003C0053005400440050003A0044004500530043003E0042950019401B401C001B0018401D00194008000CC010B3D
311
003C0053005400440050003A005300540044003E0010
161
               656
310
631084050BA4050AA4050240501406901405034050140690140501405014069014051E40D0140690140690140690340515AAAC645C0F42F5A8DC5F1F9703D0BD6A3717C7F8020000C3008030000C3004410300
360
E27
330
E27
360
E28
330
E28
360
E26
330
E26
360
E24
360
E23
360
E25
330
E24
330
E23
330
E25
 94
        0
  0
ACAD_PROXY_OBJECT
  5
E22
330
E15
100
AcDbProxyObject
 90
      499
 91
      574
 95
    65563
 70
     0
162
                 0
161
                66
310
6310B40501406AAA8C
 94
        0
  0
ACAD_PROXY_OBJECT
  5
E29
330
E15
100
AcDbProxyObject
 90
      499
 91
      564
 95
    65563
 70
     0
162
                 0
161
                26
310
63102A8C
340
E16
 94
        0
  0
ACAD_PROXY_OBJECT
  5
E2A
330
E15
100
AcDbProxyObject
 90
      499
 91
      565
 95
    65563
 70
     0
162
               142
311
408F000F801023C003E0040DB0018C00CC00
161
               172
310
63103000000000000380FC000000000000E03F3FFFEC
340
BCC
340
0
340
0
340
BCD
340
BCE
340
0
340
BCF
340
BD0
340
BD5
340
0
340
BCE
340
0
 94
        0
  0
ACAD_PROXY_OBJECT
  5
E2B
330
E15
100
AcDbProxyObject
 90
      499
 91
      566
 95
    65563
 70
     0
162
             20912
311
44D300124014C01500080013C01180080010C013C013C0148011001240138010401500114014C0142470045004E0054005200410043004F002C0045004E0055002C0030002C004C0049005300540020004F004600200043004F004F005200440049004E0041005400450053002C00470045004E00540052004100540058002
311
C00250073002C002800470045004E004D00530047002000670065006E00640069006D007A00200033003000290043CF400F0011001940198018401D401B001D0015001A401D001B0019400F8010A48004F004C00450020005400410042004C0045004E51C01140138015001480104010C013C00B001140138015400B000C00
311
0B00120013C0130011400800150010401080130011400B0011C011401380150014801040150016000B0009401CC00B000A0011C011401380134014C011C0080019C019401B8019001A401B401E8008000CC00C400A4010F3D003C00440065006600610075006C0074005400690074006C0065003E004193C01480124011C01
311
2401380134470045004E0054005200410043004F002C0045004E0055002C0030002C004F0052004900470049004E002C00470045004E00540052004100540058002C00250073002C002800470045004E004D00530047002000670065006E00640069006D007A002000310029004193C01480124011C0124013801344700450
311
04E0054005200410043004F002C0045004E0055002C0030002C004F0052004900470049004E002C00470045004E00540052004100540058002C00250073002C002800470045004E004D00530047002000670065006E00640069006D007A0020003100290041120013C013001140132470045004E0054005200410043004F00
311
2C0045004E0055002C0030002C0048004F004C0045002C00470045004E00540052004100540058002C00250073002C002800470045004E004D00530047002000670065006E00640069006D007A00200032002900538F400F00124011800A00124014C0108013001040138012C00A0012001BC01B00194012401D0019401B40
311
0A400B0013C01C801A4019C01A401B800B00080012001BC01B00194012401D0019401B400A400F800F00124011800A00124014C0108013001040138012C00A0012001BC01B00194012401D0019401B400A400B00088008800B00080012001BC01B00194012401B80190019401E000A400F8010158004BD1C01140138015001
311
480104010C013C00B001140138015400B000C000B0016000B0011C011401380150014801040150016000B0009401CC00B000A0011C011401380134014C011C0080019C019401B8019001A401B401E8008000CC00A4010159004BD1C01140138015001480104010C013C00B001140138015400B000C000B0016400B0011C011
311
401380150014801040150016000B0009401CC00B000A0011C011401380134014C011C0080019C019401B8019001A401B401E8008000D000A4010152004BD1C01140138015001480104010C013C00B001140138015400B000C000B0014800B0011C011401380150014801040150016000B0009401CC00B000A0011C01140138
311
0134014C011C0080019C019401B8019001A401B401E8008000D800A401187B005C004600530059004D0042004F004C007C00420030007C00490030007C00430032007C00500030003B004A007D005191C01140138015001480104010C013C00B001140138015400B000C000B001EC01700118014C016401340108013C01300
311
1F0010800C001F0012400C001F0010C00C801F0014000C000EC012801F400B0011C011401380150014801040150016000B0009401CC00B000A0011C011401380134014C011C0080019C019401B8019001A401B401E8008000DC00A401032500250043004C51C01140138015001480104010C013C00B001140138015400B000
311
C000B000940094010C00B0011C011401380150014801040150016000B0009401CC00B000A0011C011401380134014C011C0080019C019401B8019001A401B401E8008000E000A4010B4400450053004300520049005000540049004F004E004E91C01140138015001480104010C013C00B001140138015400B000C000B0011
311
00114014C010C01480124014001500124013C013800B0011C011401380150014801040150016000B0009401CC00B000A0011C011401380134014C011C0080019C019401B8019001A401B401E8008000C800C000A401044900540045004D004CD1C01140138015001480104010C013C00B001140138015400B000C000B00124
311
01500114013400B0011C011401380150014801040150016000B0009401CC00B000A0011C011401380134014C011C0080019C019401B8019001A401B401E8008000C400D000A4010549004E004400450058004D11C01140138015001480104010C013C00B001140138015400B000C000B00124013801100114016000B0011C0
311
11401380150014801040150016000B0009401CC00B000A0011C011401380134014C011C0080019C019401B8019001A401B401E8008000C400D400A4010448004F004C0045004CD1C01140138015001480104010C013C00B001140138015400B000C000B00120013C0130011400B0011C011401380150014801040150016000
311
B0009401CC00B000A0011C011401380134014C011C0080019C019401B8019001A401B401E8008000C400D800A4010A48004F004C004500200049004E004400450058004E51C01140138015001480104010C013C00B001140138015400B000C000B00120013C0130011400800124013801100114016000B0011C01140138015
311
0014801040150016000B0009401CC00B000A0011C011401380134014C011C0080019C019401B8019001A401B401E8008000C400DC00A40109550053004500520020004900540045004D004E11C01140138015001480104010C013C00B001140138015400B000C000B00154014C011401480080012401500114013400B0011C
311
011401380150014801040150016000B0009401CC00B000A0011C011401380134014C011C0080019C019401B8019001A401B401E8008000C800C800A401035100540059004C91C01140138015001480104010C013C00B001140138015400B000C000B001440150016400B0011C011401380150014801040150016000B000940
311
1CC00B000A0011C011401380134014C011C0080019C019401B8019001A401B401E8008000C400E400A401085300540041004E0044004100520044004DD1C01140138015001480104010C013C00B001140138015400B000C000B0014C015001040138011001040148011000B0011C011401380150014801040150016000B000
311
9401CC00B000A0011C011401380134014C011C0080019C019401B8019001A401B401E8008000C800C400A4014E3D003C004900460028004900530042004C0041004E004B00280048006F006C0065004900740065006D0029002C004F0072006900670069006E002C00200048006F006C0065004900740065006D0029003E00
311
3C004900460028004900530042004C0041004E004B00280048006F006C0065004900740065006D0029002C00220022002C00200048006F006C00650049006E0064006500780029003E00CC
161
              6822
310
631211A9010300002E07A17AD46E2F8FE00800030C01010300002E07A17AD46E2F8FE00800030C0004078000C000000000000000000000000000000007B14AE47E17AA43F2E07A17AD46E2F8FE00800030C007B14AE47E17AA43F2E07A17AD46E2F8FE00800030C02010101E0003000000000000000000000000000000001E
310
C52B91F85EA90FCB81E85EB51B8BE3F8020000C3001EC52B91F85EA90FCB81E85EB51B8BE3F8020000C3008050E4410F4450240D0441507431014391244D154151241D144310D4400004040004041000885000080800080820010FA00010101010104002234000202000202000040A8000404000404000081D000080800080
310
8000104A000101000101030020B4000202000202020041E800040400040010008650000808000808280501A0001010001010500A1D4000202000202080044A8000404000404140089D0000808000808280115A0001010001010600229400020200020008004369100067FFFFFFF801353333333333D27F3FFFFFFFC0C9A999
310
9999999E93F9FFFFFFFE024D4CCCCCCCCCF49FCFFFFFFFF0126A6666666667A4FE7FFFFFFF811353333333333D27F3FFFFFFFC089A9999999999E93F9FFFFFFFE06CFFFFFFFF03000000000000001027FFFFFFF801353333333333B27F3FFFFFFFC009A9999999999E93F9FFFFFFFE004D4CCCCCCCCCF49FCFFFFFFFF0026A
310
6666666667A4FE7FFFFFFF801353333333333D27F3FFFFFFFC0CB81E85EB51B8DE3F9FFFFFFFE0633B33333333303204FFFFFFFF440019FFFFFFFE004D4CCCCCCCCCF49FCFFFFFFFF0326A6666666667A4FE7FFFFFFF819353333333333D27F3FFFFFFFC0C9A9999999999E93F9FFFFFFFE064D4CCCCCCCCCF49FCFFFFFFFF
310
0326A6666666667A4FE7FFFFFFF81B3FFFFFFFC0C00000000000000409FFFFFFFE004D4CCCCCCCCCEC9FCFFFFFFFF0026A6666666667A4FE7FFFFFFF819353333333333D27F3FFFFFFFC009A9999999999E93F9FFFFFFFE004D4CCCCCCCCCF49FCFFFFFFFF032E07A17AD46E378FE7FFFFFFF818CECCCCCCCCCC0C813FFFFF
310
FFD044400000010F000000448000001130000004110700010044800000103000100408000400FFFFFFFF4090100014111000000043C0000011200000044C0000010300004111000000043C00000112000000454000000FFFFFFFF8
340
0
340
0
340
0
340
0
340
BB4
340
BB4
 94
        0
  0
ACAD_PROXY_OBJECT
  5
E2C
330
E15
100
AcDbProxyObject
 90
      499
 91
      567
 95
    65563
 70
     0
162
             10564
311
411040138014C0124010641004E00530049005F004300429040138014C0124017C0150012401500154014C011541004E00530049005F00540052005F005200650076006900730069006F006E006C0069007300740061004450C008000A000C400DC00B800C001E000C800C800B800C001A401B8018C01A000A4010641004E0
311
0530049005F00430044518008000A000C800E000B800C001E000D000C000B800C001A401B8018C01A000A4010641004E00530049005F00460044508008000A000C400C400B800C001E000C400DC00B800C001A401B8018C01A000A4010641004E00530049005F00420044510008000A000C800C800B800C001E000CC00D000
311
B800C001A401B8018C01A000A4010641004E00530049005F00440044514008000A000CC00D000B800C001E000D000D000B800C001A401B8018C01A000A4010641004E00530049005F00450044104008000A000E000B800D401E000C400C400B800C001A401B8018C01A000A4010641004E00530049005F00410043954014C0
311
080015001A401D001B001940080010801B001BC018C01AC010A41004E00530049005F005400490054005500530044D0401B801CC01A40080015001A401D001B001940080010801B001BC018C01AC00800110010C010C41004E00530049005F005400490054004C0045004400430044D0401B801CC01A40080015001A401D00
311
1B001940080010801B001BC018C01AC00800104010C010C41004E00530049005F005400490054004C004500410043004490401B801CC01A40080015001A401D001B001940080010801B001BC018C01AC00800104010B41004E00530049005F005400490054004C00450041004490401B801CC01A40080015001A401D001B00
311
1940080010801B001BC018C01AC00800110010B41004E00530049005F005400490054004C004500440044948019401D801A401CC01A401BC01B801B001A401CC01D000800104017C01080148017C011541004E00530049005F00420052005F005200650076006900730069006F006E006C0069007300740061004494801940
311
1D801A401CC01A401BC01B801B001A401CC01D000800104017C01500148017C011541004E00530049005F00540052005F005200650076006900730069006F006E006C00690073007400610044948019401D801A401CC01A401BC01B801B001A401CC01D000800110017C01080148017C011541004E00530049005F00420052
311
005F005200650076006900730069006F006E006C00690073007400640044948019401D801A401CC01A401BC01B801B001A401CC01D000800110017C01500148017C011541004E00530049005F00540052005F005200650076006900730069006F006E006C00690073007400640044948019401D801A401CC01A401BC01B801
311
B001A401CC01D000800104017C01080130017C011541004E00530049005F0042004C005F005200650076006900730069006F006E006C00690073007400610044948019401D801A401CC01A401BC01B801B001A401CC01D000800104017C01500130017C011541004E00530049005F0054004C005F005200650076006900730
311
069006F006E006C00690073007400610044948019401D801A401CC01A401BC01B801B001A401CC01D000800110017C01080130017C011541004E00530049005F0042004C005F005200650076006900730069006F006E006C00690073007400640044948019401D801A401CC01A401BC01B801B001A401CC01D000800110017
311
C01500130017C011541004E00530049005F0054004C005F005200650076006900730069006F006E006C006900730074006400C
161
                50
310
6319741905420C
 94
        0
  0
ACAD_PROXY_OBJECT
  5
E27
330
0
100
AcDbProxyObject
 90
      499
 91
      563
 95
    65563
 70
     0
162
              4364
311
42950019401B401C001B0018401D00194008000C40005013D003C0069006600280065007100750061006C00280048006F006C0065003A007400610070007000650064002C0022003000220029002C00220025002500630022002C0048006F006C0065003A006E006F006D0069006E0061006C0020002200200022002000690
311
06600280065007100750061006C00280048006F006C0065003A0075006E006900740073002C0022003100220029002C002200780022002C0022002D0022002900200022002000220029003E003C0069006600280065007100750061006C00280048006F006C0065003A007400610070007000650064002C002200300022002
311
9002C0048006F006C0065003A006400690061002C0048006F006C0065003A0070006900740063006800640065007300630029003E0020007B005C00460041004D004700440054003B0078007D0020003C0069006600280065007100750061006C00280048006F006C0065003A007400650072006D0069006E0061007400690
311
06F006E002C0022003000220029002C0048006F006C0065003A00640065007000740068002C0022005400480052005500220029003E005C0050007B005C00460041004D004700440054003B0076007D002500250063003C0048006F006C0065003A00630074006400690061003E0020007B005C00460041004D00470044005
311
4003B0078007D0020003C0048006F006C0065003A0063007400640065007000740068003E00C
161
                28
310
6320101C
 94
        0
  0
ACAD_PROXY_OBJECT
  5
E28
330
0
100
AcDbProxyObject
 90
      499
 91
      563
 95
    65563
 70
     0
162
              4244
311
42950019401B401C001B0018401D00194008000C401FE3D003C0069006600280065007100750061006C00280048006F006C0065003A007400610070007000650064002C0022003000220029002C00220025002500630022002C0048006F006C0065003A006E006F006D0069006E0061006C002000220020002200200069006
311
600280065007100750061006C00280048006F006C0065003A0075006E006900740073002C0022003100220029002C002200780022002C0022002D0022002900200022002000220029003E003C0069006600280065007100750061006C00280048006F006C0065003A007400610070007000650064002C00220030002200290
311
02C0048006F006C0065003A006400690061002C0048006F006C0065003A0070006900740063006800640065007300630029003E0020007B005C00460041004D004700440054003B0078007D0020003C0069006600280065007100750061006C00280048006F006C0065003A007400650072006D0069006E006100740069006
311
F006E002C0022003000220029002C0048006F006C0065003A00640065007000740068002C0022005400480052005500220029003E005C0050007B005C00460041004D004700440054003B0077007D002500250063003C0048006F006C0065003A00630074006400690061003E002000580020003C0048006F006C0065003A0
311
06300740061006E0067006C0065003E00250025006400C
161
                28
310
6320101C
 94
        0
  0
ACAD_PROXY_OBJECT
  5
E26
330
0
100
AcDbProxyObject
 90
      499
 91
      563
 95
    65563
 70
     0
162
              3492
311
42950019401B401C001B0018401D00194008000C401CF3D003C0069006600280065007100750061006C00280048006F006C0065003A007400610070007000650064002C0022003000220029002C00220025002500630022002C0048006F006C0065003A006E006F006D0069006E0061006C002000220020002200200069006
311
600280065007100750061006C00280048006F006C0065003A0075006E006900740073002C0022003100220029002C002200780022002C0022002D0022002900200022002000220029003E003C0069006600280065007100750061006C00280048006F006C0065003A007400610070007000650064002C00220030002200290
311
02C0048006F006C0065003A006400690061002C0048006F006C0065003A0070006900740063006800640065007300630029003E005C0050007B005C00460041004D004700440054003B0078007D0020003C0069006600280065007100750061006C00280048006F006C0065003A007400650072006D0069006E00610074006
311
9006F006E002C0022003000220029002C0048006F006C0065003A00640065007000740068002C0022005400480052005500220029003E00C
161
                28
310
6320101C
 94
        0
  0
ACAD_PROXY_OBJECT
  5
E24
330
0
100
AcDbProxyObject
 90
      499
 91
      563
 95
    65563
 70
     0
162
               548
311
42950019401B401C001B0018401D00194008000C801173D003C0053005400440050003A0044004500530043003E0020003C0053005400440050003A005300540044003E00C
161
                28
310
6320101C
 94
        0
  0
ACAD_PROXY_OBJECT
  5
E23
330
0
100
AcDbProxyObject
 90
      499
 91
      563
 95
    65563
 70
     0
162
               372
311
42950019401B401C001B0018401D00194008000C4010C3D003C0053005400440050003A0044004500530043003E00C
161
                28
310
6320101C
 94
        0
  0
ACAD_PROXY_OBJECT
  5
E25
330
0
100
AcDbProxyObject
 90
      499
 91
      563
 95
    65563
 70
     0
162
               356
311
42950019401B401C001B0018401D00194008000CC010B3D003C0053005400440050003A005300540044003E00C
161
                28
310
6320101C
 94
        0
  0
ENDSEC
  0
EOF
