  0
SECTION
  2
HEADER
  9
$ACADVER
  1
AC1024
  9
$ACADMAINTVER
 70
    37
  9
$DWGCODEPAGE
  3
ANSI_1252
  9
$LASTSAVEDBY
  1
jtigges
  9
$INSBASE
 10
0.0
 20
0.0
 30
0.0
  9
$EXTMIN
 10
-0.0019695894768574
 20
-0.001274011681403
 30
-0.0015258207003583
  9
$EXTMAX
 10
64.00472370926781
 20
41.75127420609778
 30
0.0000000349246037
  9
$LIMMIN
 10
0.0
 20
0.0
  9
$LIMMAX
 10
12.0
 20
9.0
  9
$ORTHOMODE
 70
     0
  9
$REGENMODE
 70
     1
  9
$FILLMODE
 70
     1
  9
$QTEXTMODE
 70
     0
  9
$MIRRTEXT
 70
     1
  9
$LTSCALE
 40
1.0
  9
$ATTMODE
 70
     1
  9
$TEXTSIZE
 40
0.2
  9
$TRACEWID
 40
0.05
  9
$TEXTSTYLE
  7
STANDARD
  9
$CLAYER
  8
0
  9
$CELTYPE
  6
BYLAYER
  9
$CECOLOR
 62
   256
  9
$CELTSCALE
 40
1.0
  9
$DISPSILH
 70
     0
  9
$DIMSCALE
 40
1.0
  9
$DIMASZ
 40
0.1875
  9
$DIMEXO
 40
0.1875
  9
$DIMDLI
 40
0.375
  9
$DIMRND
 40
0.0
  9
$DIMDLE
 40
0.0
  9
$DIMEXE
 40
0.09375
  9
$DIMTP
 40
0.0
  9
$DIMTM
 40
0.0
  9
$DIMTXT
 40
0.187
  9
$DIMCEN
 40
0.09375
  9
$DIMTSZ
 40
0.0
  9
$DIMTOL
 70
     0
  9
$DIMLIM
 70
     0
  9
$DIMTIH
 70
     1
  9
$DIMTOH
 70
     1
  9
$DIMSE1
 70
     0
  9
$DIMSE2
 70
     0
  9
$DIMTAD
 70
     0
  9
$DIMZIN
 70
     0
  9
$DIMBLK
  1

  9
$DIMASO
 70
     1
  9
$DIMSHO
 70
     1
  9
$DIMPOST
  1

  9
$DIMAPOST
  1

  9
$DIMALT
 70
     0
  9
$DIMALTD
 70
     2
  9
$DIMALTF
 40
25.4
  9
$DIMLFAC
 40
1.0
  9
$DIMTOFL
 70
     0
  9
$DIMTVP
 40
0.0
  9
$DIMTIX
 70
     0
  9
$DIMSOXD
 70
     0
  9
$DIMSAH
 70
     0
  9
$DIMBLK1
  1

  9
$DIMBLK2
  1

  9
$DIMSTYLE
  2
STANDARD
  9
$DIMCLRD
 70
     0
  9
$DIMCLRE
 70
     0
  9
$DIMCLRT
 70
     0
  9
$DIMTFAC
 40
0.4973262032085562
  9
$DIMGAP
 40
0.1875
  9
$DIMJUST
 70
     0
  9
$DIMSD1
 70
     0
  9
$DIMSD2
 70
     0
  9
$DIMTOLJ
 70
     1
  9
$DIMTZIN
 70
     0
  9
$DIMALTZ
 70
     0
  9
$DIMALTTZ
 70
     0
  9
$DIMUPT
 70
     0
  9
$DIMDEC
 70
     4
  9
$DIMTDEC
 70
     4
  9
$DIMALTU
 70
     2
  9
$DIMALTTD
 70
     2
  9
$DIMTXSTY
  7
STANDARD
  9
$DIMAUNIT
 70
     0
  9
$DIMADEC
 70
     0
  9
$DIMALTRND
 40
0.0
  9
$DIMAZIN
 70
     0
  9
$DIMDSEP
 70
    46
  9
$DIMATFIT
 70
     0
  9
$DIMFRAC
 70
     0
  9
$DIMLDRBLK
  1

  9
$DIMLUNIT
 70
     2
  9
$DIMLWD
 70
    -2
  9
$DIMLWE
 70
    -2
  9
$DIMTMOVE
 70
     0
  9
$DIMFXL
 40
1.0
  9
$DIMFXLON
 70
     0
  9
$DIMJOGANG
 40
0.7853981633974483
  9
$DIMTFILL
 70
     0
  9
$DIMTFILLCLR
 70
     0
  9
$DIMARCSYM
 70
     0
  9
$DIMLTYPE
  6

  9
$DIMLTEX1
  6

  9
$DIMLTEX2
  6

  9
$DIMTXTDIRECTION
 70
     0
  9
$LUNITS
 70
     5
  9
$LUPREC
 70
     5
  9
$SKETCHINC
 40
0.1
  9
$FILLETRAD
 40
0.0
  9
$AUNITS
 70
     0
  9
$AUPREC
 70
     1
  9
$MENU
  1
acad
  9
$ELEVATION
 40
0.0
  9
$PELEVATION
 40
0.0
  9
$THICKNESS
 40
0.0
  9
$LIMCHECK
 70
     0
  9
$CHAMFERA
 40
0.0
  9
$CHAMFERB
 40
0.0
  9
$CHAMFERC
 40
0.0
  9
$CHAMFERD
 40
0.0
  9
$SKPOLY
 70
     0
  9
$TDCREATE
 40
2450019.262096065
  9
$TDUCREATE
 40
2450019.512096065
  9
$TDUPDATE
 40
2456722.316838889
  9
$TDUUPDATE
 40
2456722.566838889
  9
$TDINDWG
 40
0.0395099884
  9
$TDUSRTIMER
 40
0.0395099884
  9
$USRTIMER
 70
     1
  9
$ANGBASE
 50
0.0
  9
$ANGDIR
 70
     0
  9
$PDMODE
 70
     0
  9
$PDSIZE
 40
0.0
  9
$PLINEWID
 40
0.0
  9
$SPLFRAME
 70
     0
  9
$SPLINETYPE
 70
     6
  9
$SPLINESEGS
 70
     8
  9
$HANDSEED
  5
CEC
  9
$SURFTAB1
 70
     6
  9
$SURFTAB2
 70
     6
  9
$SURFTYPE
 70
     6
  9
$SURFU
 70
     6
  9
$SURFV
 70
     6
  9
$UCSBASE
  2

  9
$UCSNAME
  2

  9
$UCSORG
 10
0.0
 20
0.0
 30
0.0
  9
$UCSXDIR
 10
1.0
 20
0.0
 30
0.0
  9
$UCSYDIR
 10
0.0
 20
1.0
 30
0.0
  9
$UCSORTHOREF
  2

  9
$UCSORTHOVIEW
 70
     0
  9
$UCSORGTOP
 10
0.0
 20
0.0
 30
0.0
  9
$UCSORGBOTTOM
 10
0.0
 20
0.0
 30
0.0
  9
$UCSORGLEFT
 10
0.0
 20
0.0
 30
0.0
  9
$UCSORGRIGHT
 10
0.0
 20
0.0
 30
0.0
  9
$UCSORGFRONT
 10
0.0
 20
0.0
 30
0.0
  9
$UCSORGBACK
 10
0.0
 20
0.0
 30
0.0
  9
$PUCSBASE
  2

  9
$PUCSNAME
  2

  9
$PUCSORG
 10
0.0
 20
0.0
 30
0.0
  9
$PUCSXDIR
 10
1.0
 20
0.0
 30
0.0
  9
$PUCSYDIR
 10
0.0
 20
1.0
 30
0.0
  9
$PUCSORTHOREF
  2

  9
$PUCSORTHOVIEW
 70
     0
  9
$PUCSORGTOP
 10
0.0
 20
0.0
 30
0.0
  9
$PUCSORGBOTTOM
 10
0.0
 20
0.0
 30
0.0
  9
$PUCSORGLEFT
 10
0.0
 20
0.0
 30
0.0
  9
$PUCSORGRIGHT
 10
0.0
 20
0.0
 30
0.0
  9
$PUCSORGFRONT
 10
0.0
 20
0.0
 30
0.0
  9
$PUCSORGBACK
 10
0.0
 20
0.0
 30
0.0
  9
$USERI1
 70
     0
  9
$USERI2
 70
     0
  9
$USERI3
 70
     0
  9
$USERI4
 70
     0
  9
$USERI5
 70
     0
  9
$USERR1
 40
0.0
  9
$USERR2
 40
0.0
  9
$USERR3
 40
0.0
  9
$USERR4
 40
0.0
  9
$USERR5
 40
0.0
  9
$WORLDVIEW
 70
     1
  9
$SHADEDGE
 70
     3
  9
$SHADEDIF
 70
    70
  9
$TILEMODE
 70
     1
  9
$MAXACTVP
 70
    16
  9
$PINSBASE
 10
0.0
 20
0.0
 30
0.0
  9
$PLIMCHECK
 70
     0
  9
$PEXTMIN
 10
1.000000000000000E+20
 20
1.000000000000000E+20
 30
1.000000000000000E+20
  9
$PEXTMAX
 10
-1.000000000000000E+20
 20
-1.000000000000000E+20
 30
-1.000000000000000E+20
  9
$PLIMMIN
 10
0.0
 20
0.0
  9
$PLIMMAX
 10
12.0
 20
9.0
  9
$UNITMODE
 70
     0
  9
$VISRETAIN
 70
     0
  9
$PLINEGEN
 70
     0
  9
$PSLTSCALE
 70
     1
  9
$TREEDEPTH
 70
  3020
  9
$CMLSTYLE
  2
STANDARD
  9
$CMLJUST
 70
     0
  9
$CMLSCALE
 40
1.0
  9
$PROXYGRAPHICS
 70
     1
  9
$MEASUREMENT
 70
     0
  9
$CELWEIGHT
370
    -1
  9
$ENDCAPS
280
     0
  9
$JOINSTYLE
280
     0
  9
$LWDISPLAY
290
     0
  9
$INSUNITS
 70
     0
  9
$HYPERLINKBASE
  1

  9
$STYLESHEET
  1

  9
$XEDIT
290
     1
  9
$CEPSNTYPE
380
     0
  9
$PSTYLEMODE
290
     1
  9
$FINGERPRINTGUID
  2
{6C84AD6B-9F12-4149-8653-1F024749112F}
  9
$VERSIONGUID
  2
{601F9718-27FD-444A-95C0-DCC8F24FA1BB}
  9
$EXTNAMES
290
     1
  9
$PSVPSCALE
 40
0.0
  9
$OLESTARTUP
290
     0
  9
$SORTENTS
280
   127
  9
$INDEXCTL
280
     0
  9
$HIDETEXT
280
     0
  9
$XCLIPFRAME
280
     2
  9
$HALOGAP
280
     0
  9
$OBSCOLOR
 70
   257
  9
$OBSLTYPE
280
     0
  9
$INTERSECTIONDISPLAY
280
     0
  9
$INTERSECTIONCOLOR
 70
   257
  9
$DIMASSOC
280
     1
  9
$PROJECTNAME
  1

  9
$CAMERADISPLAY
290
     0
  9
$LENSLENGTH
 40
50.0
  9
$CAMERAHEIGHT
 40
0.0
  9
$STEPSPERSEC
 40
2.0
  9
$STEPSIZE
 40
6.0
  9
$3DDWFPREC
 40
2.0
  9
$PSOLWIDTH
 40
0.25
  9
$PSOLHEIGHT
 40
4.0
  9
$LOFTANG1
 40
1.570796326794896
  9
$LOFTANG2
 40
1.570796326794896
  9
$LOFTMAG1
 40
0.0
  9
$LOFTMAG2
 40
0.0
  9
$LOFTPARAM
 70
     7
  9
$LOFTNORMALS
280
     1
  9
$LATITUDE
 40
37.795
  9
$LONGITUDE
 40
-122.394
  9
$NORTHDIRECTION
 40
0.0
  9
$TIMEZONE
 70
 -8000
  9
$LIGHTGLYPHDISPLAY
280
     1
  9
$TILEMODELIGHTSYNCH
280
     1
  9
$CMATERIAL
347
C99
  9
$SOLIDHIST
280
     1
  9
$SHOWHIST
280
     1
  9
$DWFFRAME
280
     2
  9
$DGNFRAME
280
     0
  9
$REALWORLDSCALE
290
     1
  9
$INTERFERECOLOR
 62
     1
  9
$INTERFEREOBJVS
345
CBB
  9
$INTERFEREVPVS
346
CB8
  9
$CSHADOW
280
     0
  9
$SHADOWPLANELOCATION
 40
0.0
  0
ENDSEC
  0
SECTION
  2
CLASSES
  0
CLASS
  1
ACDBDICTIONARYWDFLT
  2
AcDbDictionaryWithDefault
  3
ObjectDBX Classes
 90
        0
 91
        1
280
     0
281
     0
  0
CLASS
  1
TABLESTYLE
  2
AcDbTableStyle
  3
ObjectDBX Classes
 90
     4095
 91
        1
280
     0
281
     0
  0
CLASS
  1
DICTIONARYVAR
  2
AcDbDictionaryVar
  3
ObjectDBX Classes
 90
        0
 91
        9
280
     0
281
     0
  0
CLASS
  1
SORTENTSTABLE
  2
AcDbSortentsTable
  3
ObjectDBX Classes
 90
        0
 91
        1
280
     0
281
     0
  0
CLASS
  1
MATERIAL
  2
AcDbMaterial
  3
ObjectDBX Classes
 90
     1153
 91
        3
280
     0
281
     0
  0
CLASS
  1
VISUALSTYLE
  2
AcDbVisualStyle
  3
ObjectDBX Classes
 90
     4095
 91
       24
280
     0
281
     0
  0
CLASS
  1
SCALE
  2
AcDbScale
  3
ObjectDBX Classes
 90
     1153
 91
       17
280
     0
281
     0
  0
CLASS
  1
MLEADERSTYLE
  2
AcDbMLeaderStyle
  3
ACDB_MLEADERSTYLE_CLASS
 90
     4095
 91
        1
280
     0
281
     0
  0
CLASS
  1
CELLSTYLEMAP
  2
AcDbCellStyleMap
  3
ObjectDBX Classes
 90
     1152
 91
        1
280
     0
281
     0
  0
ENDSEC
  0
SECTION
  2
TABLES
  0
TABLE
  2
VPORT
  5
8
330
0
100
AcDbSymbolTable
 70
     1
  0
VPORT
  5
C92
330
8
100
AcDbSymbolTableRecord
100
AcDbViewportTableRecord
  2
*Active
 70
     0
 10
0.0
 20
0.0
 11
1.0
 21
1.0
 12
32.00137705989547
 22
20.87500009720819
 13
0.0
 23
0.0
 14
1.0
 24
1.0
 15
0.0
 25
0.0
 16
0.0
 26
0.0
 36
1.0
 17
0.0
 27
0.0
 37
0.0
 40
42.03561634128955
 41
2.16628959276018
 42
50.0
 43
0.0
 44
0.0
 50
0.0
 51
0.0
 71
     0
 72
   100
 73
     1
 74
     0
 75
     0
 76
     0
 77
     0
 78
     0
281
     0
 65
     1
110
0.0
120
0.0
130
0.0
111
1.0
121
0.0
131
0.0
112
0.0
122
1.0
132
0.0
 79
     0
146
0.0
348
CB7
 60
     3
 61
     5
292
     1
282
     1
141
0.0
142
0.0
 63
   250
421
  3355443
  0
ENDTAB
  0
TABLE
  2
LTYPE
  5
5
330
0
100
AcDbSymbolTable
 70
     3
  0
LTYPE
  5
12
330
5
100
AcDbSymbolTableRecord
100
AcDbLinetypeTableRecord
  2
BYBLOCK
 70
     0
  3

 72
    65
 73
     0
 40
0.0
  0
LTYPE
  5
13
330
5
100
AcDbSymbolTableRecord
100
AcDbLinetypeTableRecord
  2
BYLAYER
 70
     0
  3

 72
    65
 73
     0
 40
0.0
  0
LTYPE
  5
14
330
5
100
AcDbSymbolTableRecord
100
AcDbLinetypeTableRecord
  2
CONTINUOUS
 70
     0
  3
Solid line
 72
    65
 73
     0
 40
0.0
  0
LTYPE
  5
54
330
5
100
AcDbSymbolTableRecord
100
AcDbLinetypeTableRecord
  2
HIDDEN
 70
     0
  3
_ _ _ _ _ _ _ _ _ _ _ _ _ _ _ _ _ _ _ _ _ _ _
 72
    65
 73
     2
 40
0.375
 49
0.25
 74
     0
 49
-0.125
 74
     0
  0
LTYPE
  5
55
330
5
100
AcDbSymbolTableRecord
100
AcDbLinetypeTableRecord
  2
CENTER
 70
     0
  3
____ _ ____ _ ____ _ ____ _ ____ _ ____ _ ____
 72
    65
 73
     4
 40
2.0
 49
1.25
 74
     0
 49
-0.25
 74
     0
 49
0.25
 74
     0
 49
-0.25
 74
     0
  0
ENDTAB
  0
TABLE
  2
LAYER
  5
2
330
0
100
AcDbSymbolTable
 70
     7
  0
LAYER
  5
F
330
2
100
AcDbSymbolTableRecord
100
AcDbLayerTableRecord
  2
0
 70
     0
 62
     7
  6
CONTINUOUS
370
    -3
390
C2F
347
CA9
  0
LAYER
  5
58
330
2
100
AcDbSymbolTableRecord
100
AcDbLayerTableRecord
  2
DIM
 70
     0
 62
     3
  6
CONTINUOUS
370
    -3
390
C2F
347
CA9
  0
LAYER
  5
59
330
2
100
AcDbSymbolTableRecord
100
AcDbLayerTableRecord
  2
HATCH
 70
     0
 62
     4
  6
CONTINUOUS
370
    -3
390
C2F
347
CA9
  0
LAYER
  5
5B
330
2
100
AcDbSymbolTableRecord
100
AcDbLayerTableRecord
  2
HIDE
 70
     0
 62
     5
  6
HIDDEN
370
    -3
390
C2F
347
CA9
  0
LAYER
  5
5C
330
2
100
AcDbSymbolTableRecord
100
AcDbLayerTableRecord
  2
CENTER
 70
     0
 62
     2
  6
CENTER
370
    -3
390
C2F
347
CA9
  0
LAYER
  5
5D
330
2
100
AcDbSymbolTableRecord
100
AcDbLayerTableRecord
  2
TITLE
 70
     0
 62
     1
  6
CONTINUOUS
370
    -3
390
C2F
347
CA9
  0
LAYER
  5
5E
330
2
100
AcDbSymbolTableRecord
100
AcDbLayerTableRecord
  2
DEFPOINTS
 70
     0
 62
    -7
  6
CONTINUOUS
290
     0
370
    -3
390
C2F
347
CA9
  0
ENDTAB
  0
TABLE
  2
STYLE
  5
3
330
0
100
AcDbSymbolTable
 70
     4
  0
STYLE
  5
10
330
3
100
AcDbSymbolTableRecord
100
AcDbTextStyleTableRecord
  2
STANDARD
 70
     0
 40
0.0
 41
1.0
 50
0.0
 71
     0
 42
0.2
  3
txt
  4

  0
STYLE
  5
52
330
3
100
AcDbSymbolTableRecord
100
AcDbTextStyleTableRecord
  2
ITALIC
 70
     0
 40
0.0
 41
1.0
 50
0.0
 71
     0
 42
0.2
  3
txt
  4

  0
STYLE
  5
53
330
3
100
AcDbSymbolTableRecord
100
AcDbTextStyleTableRecord
  2
COMPLEX
 70
     0
 40
0.0
 41
1.0
 50
0.0
 71
     0
 42
0.156
  3
ROMANC
  4

  0
STYLE
  5
B11
330
3
100
AcDbSymbolTableRecord
100
AcDbTextStyleTableRecord
  2
STYLE1
 70
     0
 40
0.0
 41
1.0
 50
0.0
 71
     0
 42
0.25
  3
swiss.ttf
  4

1001
ACAD
1000
Swis721 BT
1071
       34
  0
ENDTAB
  0
TABLE
  2
VIEW
  5
6
330
0
100
AcDbSymbolTable
 70
     0
  0
ENDTAB
  0
TABLE
  2
UCS
  5
7
330
0
100
AcDbSymbolTable
 70
     0
  0
ENDTAB
  0
TABLE
  2
APPID
  5
9
330
0
100
AcDbSymbolTable
 70
     2
  0
APPID
  5
11
330
9
100
AcDbSymbolTableRecord
100
AcDbRegAppTableRecord
  2
ACAD
 70
     0
  0
APPID
  5
C62
330
9
100
AcDbSymbolTableRecord
100
AcDbRegAppTableRecord
  2
ACAD_PSEXT
 70
     0
  0
ENDTAB
  0
TABLE
  2
DIMSTYLE
  5
A
330
0
100
AcDbSymbolTable
 70
     1
100
AcDbDimStyleTable
 71
     1
340
7A6
  0
DIMSTYLE
105
7A6
330
A
100
AcDbSymbolTableRecord
100
AcDbDimStyleTableRecord
  2
STANDARD
 70
     0
340
10
  0
ENDTAB
  0
TABLE
  2
BLOCK_RECORD
  5
1
330
0
100
AcDbSymbolTable
 70
    39
  0
BLOCK_RECORD
  5
18
102
{ACAD_XDICTIONARY
360
C81
102
}
330
1
100
AcDbSymbolTableRecord
100
AcDbBlockTableRecord
  2
*MODEL_SPACE
340
C34
 70
     0
280
     1
281
     0
  0
BLOCK_RECORD
  5
15
330
1
100
AcDbSymbolTableRecord
100
AcDbBlockTableRecord
  2
*PAPER_SPACE
340
C35
 70
     0
280
     1
281
     0
  0
BLOCK_RECORD
  5
27
330
1
100
AcDbSymbolTableRecord
100
AcDbBlockTableRecord
  2
SAATX
340
0
102
{BLKREFS
331
607
102
}
 70
     0
280
     1
281
     0
  0
BLOCK_RECORD
  5
28
330
1
100
AcDbSymbolTableRecord
100
AcDbBlockTableRecord
  2
SBBTX
340
0
102
{BLKREFS
331
608
102
}
 70
     0
280
     1
281
     0
  0
BLOCK_RECORD
  5
29
330
1
100
AcDbSymbolTableRecord
100
AcDbBlockTableRecord
  2
SAAR
340
0
102
{BLKREFS
331
643
102
}
 70
     0
280
     1
281
     0
  0
BLOCK_RECORD
  5
2A
330
1
100
AcDbSymbolTableRecord
100
AcDbBlockTableRecord
  2
*X3
340
0
102
{BLKREFS
331
35F
102
}
 70
     0
280
     1
281
     0
  0
BLOCK_RECORD
  5
2B
330
1
100
AcDbSymbolTableRecord
100
AcDbBlockTableRecord
  2
SBBT
340
0
102
{BLKREFS
331
642
102
}
 70
     0
280
     1
281
     0
  0
BLOCK_RECORD
  5
2C
330
1
100
AcDbSymbolTableRecord
100
AcDbBlockTableRecord
  2
*X5
340
0
102
{BLKREFS
331
394
102
}
 70
     0
280
     1
281
     0
  0
BLOCK_RECORD
  5
2D
330
1
100
AcDbSymbolTableRecord
100
AcDbBlockTableRecord
  2
SBBB
340
0
102
{BLKREFS
331
641
102
}
 70
     0
280
     1
281
     0
  0
BLOCK_RECORD
  5
2E
330
1
100
AcDbSymbolTableRecord
100
AcDbBlockTableRecord
  2
*X7
340
0
102
{BLKREFS
331
3E3
102
}
 70
     0
280
     1
281
     0
  0
BLOCK_RECORD
  5
2F
330
1
100
AcDbSymbolTableRecord
100
AcDbBlockTableRecord
  2
*X8
340
0
102
{BLKREFS
331
638
102
}
 70
     0
280
     1
281
     0
  0
BLOCK_RECORD
  5
30
330
1
100
AcDbSymbolTableRecord
100
AcDbBlockTableRecord
  2
SAAL
340
0
102
{BLKREFS
331
606
102
}
 70
     0
280
     1
281
     0
  0
BLOCK_RECORD
  5
31
330
1
100
AcDbSymbolTableRecord
100
AcDbBlockTableRecord
  2
*X10
340
0
102
{BLKREFS
331
446
102
}
 70
     0
280
     1
281
     0
  0
BLOCK_RECORD
  5
32
330
1
100
AcDbSymbolTableRecord
100
AcDbBlockTableRecord
  2
*X11
340
0
102
{BLKREFS
331
6DB
102
}
 70
     0
280
     1
281
     0
  0
BLOCK_RECORD
  5
33
330
1
100
AcDbSymbolTableRecord
100
AcDbBlockTableRecord
  2
*X12
340
0
102
{BLKREFS
331
6CB
102
}
 70
     0
280
     1
281
     0
  0
BLOCK_RECORD
  5
34
330
1
100
AcDbSymbolTableRecord
100
AcDbBlockTableRecord
  2
*X13
340
0
102
{BLKREFS
331
6FA
102
}
 70
     0
280
     1
281
     0
  0
BLOCK_RECORD
  5
36
330
1
100
AcDbSymbolTableRecord
100
AcDbBlockTableRecord
  2
*D14
340
0
 70
     0
280
     1
281
     0
  0
BLOCK_RECORD
  5
37
330
1
100
AcDbSymbolTableRecord
100
AcDbBlockTableRecord
  2
*D15
340
0
 70
     0
280
     1
281
     0
  0
BLOCK_RECORD
  5
38
330
1
100
AcDbSymbolTableRecord
100
AcDbBlockTableRecord
  2
*D16
340
0
 70
     0
280
     1
281
     0
  0
BLOCK_RECORD
  5
39
330
1
100
AcDbSymbolTableRecord
100
AcDbBlockTableRecord
  2
*D17
340
0
 70
     0
280
     1
281
     0
  0
BLOCK_RECORD
  5
3A
330
1
100
AcDbSymbolTableRecord
100
AcDbBlockTableRecord
  2
*D18
340
0
 70
     0
280
     1
281
     0
  0
BLOCK_RECORD
  5
3B
330
1
100
AcDbSymbolTableRecord
100
AcDbBlockTableRecord
  2
*D19
340
0
 70
     0
280
     1
281
     0
  0
BLOCK_RECORD
  5
3C
330
1
100
AcDbSymbolTableRecord
100
AcDbBlockTableRecord
  2
*D20
340
0
 70
     0
280
     1
281
     0
  0
BLOCK_RECORD
  5
3D
330
1
100
AcDbSymbolTableRecord
100
AcDbBlockTableRecord
  2
*D21
340
0
 70
     0
280
     1
281
     0
  0
BLOCK_RECORD
  5
3E
330
1
100
AcDbSymbolTableRecord
100
AcDbBlockTableRecord
  2
*D22
340
0
 70
     0
280
     1
281
     0
  0
BLOCK_RECORD
  5
3F
330
1
100
AcDbSymbolTableRecord
100
AcDbBlockTableRecord
  2
*D23
340
0
 70
     0
280
     1
281
     0
  0
BLOCK_RECORD
  5
40
330
1
100
AcDbSymbolTableRecord
100
AcDbBlockTableRecord
  2
*D24
340
0
 70
     0
280
     1
281
     0
  0
BLOCK_RECORD
  5
41
330
1
100
AcDbSymbolTableRecord
100
AcDbBlockTableRecord
  2
*D25
340
0
 70
     0
280
     1
281
     0
  0
BLOCK_RECORD
  5
45
330
1
100
AcDbSymbolTableRecord
100
AcDbBlockTableRecord
  2
*D26
340
0
 70
     0
280
     1
281
     0
  0
BLOCK_RECORD
  5
46
330
1
100
AcDbSymbolTableRecord
100
AcDbBlockTableRecord
  2
*D27
340
0
 70
     0
280
     1
281
     0
  0
BLOCK_RECORD
  5
47
330
1
100
AcDbSymbolTableRecord
100
AcDbBlockTableRecord
  2
*D28
340
0
 70
     0
280
     1
281
     0
  0
BLOCK_RECORD
  5
48
330
1
100
AcDbSymbolTableRecord
100
AcDbBlockTableRecord
  2
*D29
340
0
 70
     0
280
     1
281
     0
  0
BLOCK_RECORD
  5
49
330
1
100
AcDbSymbolTableRecord
100
AcDbBlockTableRecord
  2
*D30
340
0
 70
     0
280
     1
281
     0
  0
BLOCK_RECORD
  5
4A
330
1
100
AcDbSymbolTableRecord
100
AcDbBlockTableRecord
  2
*D31
340
0
 70
     0
280
     1
281
     0
  0
BLOCK_RECORD
  5
4B
330
1
100
AcDbSymbolTableRecord
100
AcDbBlockTableRecord
  2
*D32
340
0
 70
     0
280
     1
281
     0
  0
BLOCK_RECORD
  5
4C
330
1
100
AcDbSymbolTableRecord
100
AcDbBlockTableRecord
  2
*D33
340
0
 70
     0
280
     1
281
     0
  0
BLOCK_RECORD
  5
4D
330
1
100
AcDbSymbolTableRecord
100
AcDbBlockTableRecord
  2
*D34
340
0
 70
     0
280
     1
281
     0
  0
BLOCK_RECORD
  5
4E
330
1
100
AcDbSymbolTableRecord
100
AcDbBlockTableRecord
  2
*D35
340
0
 70
     0
280
     1
281
     0
  0
BLOCK_RECORD
  5
4F
330
1
100
AcDbSymbolTableRecord
100
AcDbBlockTableRecord
  2
*D36
340
0
 70
     0
280
     1
281
     0
  0
BLOCK_RECORD
  5
50
330
1
100
AcDbSymbolTableRecord
100
AcDbBlockTableRecord
  2
*D37
340
0
 70
     0
280
     1
281
     0
  0
BLOCK_RECORD
  5
51
330
1
100
AcDbSymbolTableRecord
100
AcDbBlockTableRecord
  2
*D38
340
0
 70
     0
280
     1
281
     0
  0
ENDTAB
  0
ENDSEC
  0
SECTION
  2
BLOCKS
  0
BLOCK
  5
61
330
18
100
AcDbEntity
  8
0
100
AcDbBlockBegin
  2
*MODEL_SPACE
 70
     0
 10
0.0
 20
0.0
 30
0.0
  3
*MODEL_SPACE
  1

  0
ENDBLK
  5
62
330
18
100
AcDbEntity
  8
0
100
AcDbBlockEnd
  0
BLOCK
  5
5F
330
15
100
AcDbEntity
 67
     1
  8
0
100
AcDbBlockBegin
  2
*PAPER_SPACE
 70
     0
 10
0.0
 20
0.0
 30
0.0
  3
*PAPER_SPACE
  1

  0
ENDBLK
  5
60
330
15
100
AcDbEntity
 67
     1
  8
0
100
AcDbBlockEnd
  0
BLOCK
  5
346
330
27
100
AcDbEntity
  8
0
100
AcDbBlockBegin
  2
SAATX
 70
     0
 10
0.0
 20
0.0
 30
0.0
  3
SAATX
  1

  0
LINE
  5
347
330
27
100
AcDbEntity
  8
0
100
AcDbLine
 10
-0.8421662700371435
 20
0.0
 30
0.0
 11
0.8421662700371435
 21
0.0
 31
0.0
  0
LINE
  5
348
330
27
100
AcDbEntity
  8
0
100
AcDbLine
 10
-0.8421662700371435
 20
0.0199999999999996
 30
0.0
 11
0.8421662700371435
 21
0.0199999999999996
 31
0.0
  0
TEXT
  5
349
330
27
100
AcDbEntity
  8
0
100
AcDbText
 10
-0.8455144018028244
 20
0.0551412039750448
 30
0.0
 40
0.156
  1
SECTION A-A
  7
COMPLEX
100
AcDbText
  0
ENDBLK
  5
34A
330
27
100
AcDbEntity
  8
0
100
AcDbBlockEnd
  0
BLOCK
  5
34B
330
28
100
AcDbEntity
  8
0
100
AcDbBlockBegin
  2
SBBTX
 70
     0
 10
0.0
 20
0.0
 30
0.0
  3
SBBTX
  1

  0
LINE
  5
34C
330
28
100
AcDbEntity
  8
0
100
AcDbLine
 10
-0.8421662700371435
 20
0.0199999999999996
 30
0.0
 11
0.8421662700371435
 21
0.0199999999999996
 31
0.0
  0
LINE
  5
34D
330
28
100
AcDbEntity
  8
0
100
AcDbLine
 10
-0.8421662700371435
 20
0.0
 30
0.0
 11
0.8421662700371435
 21
0.0
 31
0.0
  0
TEXT
  5
34E
330
28
100
AcDbEntity
  8
0
100
AcDbText
 10
-0.8455144018028244
 20
0.0554512145058732
 30
0.0
 40
0.156
  1
SECTION B-B
  7
COMPLEX
100
AcDbText
  0
ENDBLK
  5
34F
330
28
100
AcDbEntity
  8
0
100
AcDbBlockEnd
  0
BLOCK
  5
350
330
29
100
AcDbEntity
  8
0
100
AcDbBlockBegin
  2
SAAR
 70
     0
 10
0.0
 20
0.0
 30
0.0
  3
SAAR
  1

  0
TEXT
  5
351
330
29
100
AcDbEntity
  8
0
100
AcDbText
 10
0.3487392072179478
 20
0.5116372546807444
 30
0.0
 40
0.156
  1
A
  7
COMPLEX
 72
     1
 11
0.4230249215036617
 21
0.5116372546807444
 31
0.0
100
AcDbText
  0
LINE
  5
352
330
29
100
AcDbEntity
  8
0
100
AcDbLine
 10
0.4374999999999983
 20
0.2292366486465216
 30
0.0
 11
0.451024804847763
 21
0.2292366486465225
 31
0.0
  0
LINE
  5
353
330
29
100
AcDbEntity
  8
0
100
AcDbLine
 10
0.4074999999999998
 20
0.2292366486465216
 30
0.0
 11
0.4074999999999989
 21
0.0149999999999988
 31
0.0
  0
LINE
  5
354
330
29
100
AcDbEntity
  8
0
100
AcDbLine
 10
0.4374999999999992
 20
0.2292366486465216
 30
0.0
 11
0.4374999999999992
 21
-0.017923002649547
 31
0.0
  0
LINE
  5
355
330
29
100
AcDbEntity
  8
0
100
AcDbLine
 10
0.4224999999999995
 20
0.0299999999999994
 30
0.0
 11
-0.0000000000000009
 21
0.0299999999999994
 31
0.0
  0
LINE
  5
356
330
29
100
AcDbEntity
  8
0
100
AcDbLine
 10
0.4571321552628529
 20
0.0
 30
0.0
 11
0.0
 21
0.0
 31
0.0
  0
ARC
  5
357
330
29
100
AcDbEntity
  8
0
100
AcDbCircle
 10
-0.0774898749921995
 20
0.4486009293161688
 30
0.0
 40
0.5
100
AcDbArc
 50
333.9772135427694
 51
0.3646288638273987
  0
LINE
  5
358
330
29
100
AcDbEntity
  8
0
100
AcDbLine
 10
0.4374999999999992
 20
0.2292366486465216
 30
0.0
 11
0.4374999999999992
 21
0.2292366486465216
 31
0.0
  0
ARC
  5
359
330
29
100
AcDbEntity
  8
0
100
AcDbCircle
 10
0.9224898749921965
 20
0.4486009293161688
 30
0.0
 40
0.5
100
AcDbArc
 50
179.6353711361726
 51
206.0227864572306
  0
ARC
  5
35A
330
29
100
AcDbEntity
  8
0
100
AcDbCircle
 10
-0.0774898749921995
 20
0.4486009293161688
 30
0.0
 40
0.5200000000000001
100
AcDbArc
 50
335.0482819082217
 51
344.0535702443027
  0
ARC
  5
35B
330
29
100
AcDbEntity
  8
0
100
AcDbCircle
 10
0.9224898749921965
 20
0.4486009293161688
 30
0.0
 40
0.5200000000000001
100
AcDbArc
 50
195.9464297556973
 51
204.951718091778
  0
LINE
  5
35C
330
29
100
AcDbEntity
  8
0
100
AcDbLine
 10
0.3939751951522217
 20
0.2292366486465216
 30
0.0
 11
0.4074999999999998
 21
0.2292366486465216
 31
0.0
  0
LINE
  5
35D
330
29
100
AcDbEntity
  8
0
100
AcDbLine
 10
0.3939751951522217
 20
0.2292366486465216
 30
0.0
 11
0.371819942802035
 21
0.2292366486465216
 31
0.0
  0
LINE
  5
35E
330
29
100
AcDbEntity
  8
0
100
AcDbLine
 10
0.451024804847763
 20
0.2292366486465225
 30
0.0
 11
0.4731800571979621
 21
0.2292366486465216
 31
0.0
  0
INSERT
  5
35F
330
29
100
AcDbEntity
  8
0
100
AcDbBlockReference
  2
*X3
 10
-3.748701991468968
 20
-6.921648479033177
 30
0.0
  0
ENDBLK
  5
360
330
29
100
AcDbEntity
  8
0
100
AcDbBlockEnd
  0
BLOCK
  5
361
330
2A
100
AcDbEntity
  8
0
100
AcDbBlockBegin
  2
*X3
 70
     1
 10
0.0
 20
0.0
 30
0.0
  3
*X3
  1

  0
LINE
  5
362
330
2A
100
AcDbEntity
  8
0
 62
     0
100
AcDbLine
 10
4.158042821030212
 20
7.25625
 30
0.0
 11
4.184361161907728
 21
7.25625
 31
0.0
  0
LINE
  5
363
330
2A
100
AcDbEntity
  8
0
 62
     0
100
AcDbLine
 10
4.159464167164085
 20
7.2625
 30
0.0
 11
4.182939815773856
 21
7.2625
 31
0.0
  0
LINE
  5
364
330
2A
100
AcDbEntity
  8
0
 62
     0
100
AcDbLine
 10
4.160801607892522
 20
7.26875
 30
0.0
 11
4.181602375045417
 21
7.26875
 31
0.0
  0
LINE
  5
365
330
2A
100
AcDbEntity
  8
0
 62
     0
100
AcDbLine
 10
4.162055829087108
 20
7.275
 30
0.0
 11
4.180348153850832
 21
7.275
 31
0.0
  0
LINE
  5
366
330
2A
100
AcDbEntity
  8
0
 62
     0
100
AcDbLine
 10
4.163227467165616
 20
7.28125
 30
0.0
 11
4.179176515772323
 21
7.28125
 31
0.0
  0
LINE
  5
367
330
2A
100
AcDbEntity
  8
0
 62
     0
100
AcDbLine
 10
4.1643171107912
 20
7.2875
 30
0.0
 11
4.178086872146739
 21
7.2875
 31
0.0
  0
LINE
  5
368
330
2A
100
AcDbEntity
  8
0
 62
     0
100
AcDbLine
 10
4.165325302419223
 20
7.29375
 30
0.0
 11
4.177078680518715
 21
7.29375
 31
0.0
  0
LINE
  5
369
330
2A
100
AcDbEntity
  8
0
 62
     0
100
AcDbLine
 10
4.16625253970155
 20
7.3
 30
0.0
 11
4.17615144323639
 21
7.3
 31
0.0
  0
LINE
  5
36A
330
2A
100
AcDbEntity
  8
0
 62
     0
100
AcDbLine
 10
4.167099276757146
 20
7.30625
 30
0.0
 11
4.175304706180795
 21
7.30625
 31
0.0
  0
LINE
  5
36B
330
2A
100
AcDbEntity
  8
0
 62
     0
100
AcDbLine
 10
4.167865925316793
 20
7.3125
 30
0.0
 11
4.174538057621145
 21
7.3125
 31
0.0
  0
LINE
  5
36C
330
2A
100
AcDbEntity
  8
0
 62
     0
100
AcDbLine
 10
4.16855285574882
 20
7.31875
 30
0.0
 11
4.17385112718912
 21
7.31875
 31
0.0
  0
LINE
  5
36D
330
2A
100
AcDbEntity
  8
0
 62
     0
100
AcDbLine
 10
4.169160397971983
 20
7.325
 30
0.0
 11
4.173243584965957
 21
7.325
 31
0.0
  0
LINE
  5
36E
330
2A
100
AcDbEntity
  8
0
 62
     0
100
AcDbLine
 10
4.169688842260835
 20
7.33125
 30
0.0
 11
4.172715140677103
 21
7.33125
 31
0.0
  0
LINE
  5
36F
330
2A
100
AcDbEntity
  8
0
 62
     0
100
AcDbLine
 10
4.170138439948251
 20
7.3375
 30
0.0
 11
4.172265542989687
 21
7.3375
 31
0.0
  0
LINE
  5
370
330
2A
100
AcDbEntity
  8
0
 62
     0
100
AcDbLine
 10
4.170509404029122
 20
7.34375
 30
0.0
 11
4.171894578908817
 21
7.34375
 31
0.0
  0
LINE
  5
371
330
2A
100
AcDbEntity
  8
0
 62
     0
100
AcDbLine
 10
4.170801909668647
 20
7.35
 30
0.0
 11
4.171602073269292
 21
7.35
 31
0.0
  0
LINE
  5
372
330
2A
100
AcDbEntity
  8
0
 62
     0
100
AcDbLine
 10
4.171016094618071
 20
7.35625
 30
0.0
 11
4.171387888319867
 21
7.35625
 31
0.0
  0
LINE
  5
373
330
2A
100
AcDbEntity
  8
0
 62
     0
100
AcDbLine
 10
4.171152059540171
 20
7.3625
 30
0.0
 11
4.171251923397766
 21
7.3625
 31
0.0
  0
LINE
  5
374
330
2A
100
AcDbEntity
  8
0
 62
     0
100
AcDbLine
 10
4.17119411469162
 20
7.36875
 30
0.0
 11
4.171209868246319
 21
7.36875
 31
0.0
  0
LINE
  5
375
330
2A
100
AcDbEntity
  8
0
 62
     0
100
AcDbLine
 10
4.156536832302816
 20
7.25
 30
0.0
 11
4.185867150635123
 21
7.25
 31
0.0
  0
LINE
  5
376
330
2A
100
AcDbEntity
  8
0
 62
     0
100
AcDbLine
 10
4.154945410438709
 20
7.24375
 30
0.0
 11
4.187458572499231
 21
7.24375
 31
0.0
  0
LINE
  5
377
330
2A
100
AcDbEntity
  8
0
 62
     0
100
AcDbLine
 10
4.153267709311144
 20
7.2375
 30
0.0
 11
4.189136273626795
 21
7.2375
 31
0.0
  0
LINE
  5
378
330
2A
100
AcDbEntity
  8
0
 62
     0
100
AcDbLine
 10
4.151502824775956
 20
7.23125
 30
0.0
 11
4.190901158161984
 21
7.23125
 31
0.0
  0
LINE
  5
379
330
2A
100
AcDbEntity
  8
0
 62
     0
100
AcDbLine
 10
4.149649792014731
 20
7.225
 30
0.0
 11
4.170514238817704
 21
7.225
 31
0.0
  0
LINE
  5
37A
330
2A
100
AcDbEntity
  8
0
 62
     0
100
AcDbLine
 10
4.17188974412022
 20
7.225
 30
0.0
 11
4.192754190923209
 21
7.225
 31
0.0
  0
LINE
  5
37B
330
2A
100
AcDbEntity
  8
0
 62
     0
100
AcDbLine
 10
4.147707582635473
 20
7.21875
 30
0.0
 11
4.16865349922432
 21
7.21875
 31
0.0
  0
LINE
  5
37C
330
2A
100
AcDbEntity
  8
0
 62
     0
100
AcDbLine
 10
4.173750483713604
 20
7.21875
 30
0.0
 11
4.194696400302465
 21
7.21875
 31
0.0
  0
LINE
  5
37D
330
2A
100
AcDbEntity
  8
0
 62
     0
100
AcDbLine
 10
4.145675101508724
 20
7.2125
 30
0.0
 11
4.166706944063726
 21
7.2125
 31
0.0
  0
LINE
  5
37E
330
2A
100
AcDbEntity
  8
0
 62
     0
100
AcDbLine
 10
4.175697038874197
 20
7.2125
 30
0.0
 11
4.196728881429214
 21
7.2125
 31
0.0
  0
LINE
  5
37F
330
2A
100
AcDbEntity
  8
0
 62
     0
100
AcDbLine
 10
4.143551183314425
 20
7.20625
 30
0.0
 11
4.164673557788107
 21
7.20625
 31
0.0
  0
LINE
  5
380
330
2A
100
AcDbEntity
  8
0
 62
     0
100
AcDbLine
 10
4.17773042514982
 20
7.20625
 30
0.0
 11
4.198852799623516
 21
7.20625
 31
0.0
  0
LINE
  5
381
330
2A
100
AcDbEntity
  8
0
 62
     0
100
AcDbLine
 10
4.141334588771703
 20
7.2
 30
0.0
 11
4.162552262360144
 21
7.2
 31
0.0
  0
LINE
  5
382
330
2A
100
AcDbEntity
  8
0
 62
     0
100
AcDbLine
 10
4.179851720577784
 20
7.2
 30
0.0
 11
4.201069394166239
 21
7.2
 31
0.0
  0
LINE
  5
383
330
2A
100
AcDbEntity
  8
0
 62
     0
100
AcDbLine
 10
4.139024000520274
 20
7.19375
 30
0.0
 11
4.160341914027816
 21
7.19375
 31
0.0
  0
LINE
  5
384
330
2A
100
AcDbEntity
  8
0
 62
     0
100
AcDbLine
 10
4.182062068910108
 20
7.19375
 30
0.0
 11
4.203379982417666
 21
7.19375
 31
0.0
  0
LINE
  5
385
330
2A
100
AcDbEntity
  8
0
 62
     0
100
AcDbLine
 10
4.136618018618079
 20
7.1875
 30
0.0
 11
4.158041299813144
 21
7.1875
 31
0.0
  0
LINE
  5
386
330
2A
100
AcDbEntity
  8
0
 62
     0
100
AcDbLine
 10
4.18436268312478
 20
7.1875
 30
0.0
 11
4.20578596431986
 21
7.1875
 31
0.0
  0
LINE
  5
387
330
2A
100
AcDbEntity
  8
0
 62
     0
100
AcDbLine
 10
4.134115155615204
 20
7.18125
 30
0.0
 11
4.155649133687051
 21
7.18125
 31
0.0
  0
LINE
  5
388
330
2A
100
AcDbEntity
  8
0
 62
     0
100
AcDbLine
 10
4.186754849250876
 20
7.18125
 30
0.0
 11
4.208288827322737
 21
7.18125
 31
0.0
  0
LINE
  5
389
330
2A
100
AcDbEntity
  8
0
 62
     0
100
AcDbLine
 10
4.131513831158817
 20
7.175
 30
0.0
 11
4.153164052399043
 21
7.175
 31
0.0
  0
LINE
  5
38A
330
2A
100
AcDbEntity
  8
0
 62
     0
100
AcDbLine
 10
4.189239930538879
 20
7.175
 30
0.0
 11
4.210890151779121
 21
7.175
 31
0.0
  0
LINE
  5
38B
330
2A
100
AcDbEntity
  8
0
 62
     0
100
AcDbLine
 10
4.128812366077735
 20
7.16875
 30
0.0
 11
4.1505846109264
 21
7.16875
 31
0.0
  0
LINE
  5
38C
330
2A
100
AcDbEntity
  8
0
 62
     0
100
AcDbLine
 10
4.191819372011525
 20
7.16875
 30
0.0
 11
4.213591616860204
 21
7.16875
 31
0.0
  0
LINE
  5
38D
330
2A
100
AcDbEntity
  8
0
 62
     0
100
AcDbLine
 10
4.126008975888199
 20
7.1625
 30
0.0
 11
4.147909277503027
 21
7.1625
 31
0.0
  0
LINE
  5
38E
330
2A
100
AcDbEntity
  8
0
 62
     0
100
AcDbLine
 10
4.194494705434896
 20
7.1625
 30
0.0
 11
4.216395007049741
 21
7.1625
 31
0.0
  0
LINE
  5
38F
330
2A
100
AcDbEntity
  8
0
 62
     0
100
AcDbLine
 10
4.123101763654189
 20
7.15625
 30
0.0
 11
4.145136428182898
 21
7.15625
 31
0.0
  0
LINE
  5
390
330
2A
100
AcDbEntity
  8
0
 62
     0
100
AcDbLine
 10
4.197267554755029
 20
7.15625
 30
0.0
 11
4.219302219283752
 21
7.15625
 31
0.0
  0
ENDBLK
  5
391
330
2A
100
AcDbEntity
  8
0
100
AcDbBlockEnd
  0
BLOCK
  5
392
330
2B
100
AcDbEntity
  8
0
100
AcDbBlockBegin
  2
SBBT
 70
     0
 10
0.0
 20
0.0
 30
0.0
  3
SBBT
  1

  0
TEXT
  5
393
330
2B
100
AcDbEntity
  8
0
100
AcDbText
 10
-0.6618640508256033
 20
0.338139455665849
 30
0.0
 40
0.156
  1
B
  7
COMPLEX
 72
     1
 11
-0.5838640508256035
 21
0.338139455665849
 31
0.0
100
AcDbText
  0
INSERT
  5
394
330
2B
100
AcDbEntity
  8
0
100
AcDbBlockReference
  2
*X5
 10
6.921648479033177
 20
-3.748701991468968
 30
0.0
 50
90.0
  0
LINE
  5
395
330
2B
100
AcDbEntity
  8
0
100
AcDbLine
 10
-0.2292366486465225
 20
0.451024804847763
 30
0.0
 11
-0.2292366486465216
 21
0.4731800571979621
 31
0.0
  0
LINE
  5
396
330
2B
100
AcDbEntity
  8
0
100
AcDbLine
 10
-0.2292366486465216
 20
0.3939751951522217
 30
0.0
 11
-0.2292366486465216
 21
0.371819942802035
 31
0.0
  0
LINE
  5
397
330
2B
100
AcDbEntity
  8
0
100
AcDbLine
 10
-0.2292366486465216
 20
0.3939751951522217
 30
0.0
 11
-0.2292366486465216
 21
0.4074999999999998
 31
0.0
  0
ARC
  5
398
330
2B
100
AcDbEntity
  8
0
100
AcDbCircle
 10
-0.4486009293161688
 20
0.9224898749921965
 30
0.0
 40
0.5200000000000001
100
AcDbArc
 50
285.9464297556974
 51
294.951718091778
  0
ARC
  5
399
330
2B
100
AcDbEntity
  8
0
100
AcDbCircle
 10
-0.4486009293161688
 20
-0.0774898749921995
 30
0.0
 40
0.5200000000000001
100
AcDbArc
 50
65.04828190822165
 51
74.0535702443027
  0
ARC
  5
39A
330
2B
100
AcDbEntity
  8
0
100
AcDbCircle
 10
-0.4486009293161688
 20
0.9224898749921965
 30
0.0
 40
0.5
100
AcDbArc
 50
269.6353711361726
 51
296.0227864572306
  0
LINE
  5
39B
330
2B
100
AcDbEntity
  8
0
100
AcDbLine
 10
-0.2292366486465216
 20
0.4374999999999992
 30
0.0
 11
-0.2292366486465216
 21
0.4374999999999992
 31
0.0
  0
ARC
  5
39C
330
2B
100
AcDbEntity
  8
0
100
AcDbCircle
 10
-0.4486009293161688
 20
-0.0774898749921995
 30
0.0
 40
0.5
100
AcDbArc
 50
63.97721354276936
 51
90.36462886382741
  0
LINE
  5
39D
330
2B
100
AcDbEntity
  8
0
100
AcDbLine
 10
0.0
 20
0.4571321552628529
 30
0.0
 11
0.0
 21
0.0
 31
0.0
  0
LINE
  5
39E
330
2B
100
AcDbEntity
  8
0
100
AcDbLine
 10
-0.0299999999999994
 20
0.4224999999999995
 30
0.0
 11
-0.0299999999999994
 21
-0.0000000000000009
 31
0.0
  0
LINE
  5
39F
330
2B
100
AcDbEntity
  8
0
100
AcDbLine
 10
-0.2292366486465216
 20
0.4374999999999992
 30
0.0
 11
0.017923002649547
 21
0.4374999999999992
 31
0.0
  0
LINE
  5
3A0
330
2B
100
AcDbEntity
  8
0
100
AcDbLine
 10
-0.2292366486465216
 20
0.4074999999999998
 30
0.0
 11
-0.0149999999999988
 21
0.4074999999999989
 31
0.0
  0
LINE
  5
3A1
330
2B
100
AcDbEntity
  8
0
100
AcDbLine
 10
-0.2292366486465216
 20
0.4374999999999983
 30
0.0
 11
-0.2292366486465225
 21
0.451024804847763
 31
0.0
  0
ENDBLK
  5
3A2
330
2B
100
AcDbEntity
  8
0
100
AcDbBlockEnd
  0
BLOCK
  5
3A3
330
2C
100
AcDbEntity
  8
0
100
AcDbBlockBegin
  2
*X5
 70
     1
 10
0.0
 20
0.0
 30
0.0
  3
*X5
  1

  0
LINE
  5
3A4
330
2C
100
AcDbEntity
  8
0
 62
     0
100
AcDbLine
 10
4.158042821030212
 20
7.25625
 30
0.0
 11
4.184361161907728
 21
7.25625
 31
0.0
  0
LINE
  5
3A5
330
2C
100
AcDbEntity
  8
0
 62
     0
100
AcDbLine
 10
4.159464167164085
 20
7.2625
 30
0.0
 11
4.182939815773856
 21
7.2625
 31
0.0
  0
LINE
  5
3A6
330
2C
100
AcDbEntity
  8
0
 62
     0
100
AcDbLine
 10
4.160801607892522
 20
7.26875
 30
0.0
 11
4.181602375045417
 21
7.26875
 31
0.0
  0
LINE
  5
3A7
330
2C
100
AcDbEntity
  8
0
 62
     0
100
AcDbLine
 10
4.162055829087108
 20
7.275
 30
0.0
 11
4.180348153850832
 21
7.275
 31
0.0
  0
LINE
  5
3A8
330
2C
100
AcDbEntity
  8
0
 62
     0
100
AcDbLine
 10
4.163227467165616
 20
7.28125
 30
0.0
 11
4.179176515772323
 21
7.28125
 31
0.0
  0
LINE
  5
3A9
330
2C
100
AcDbEntity
  8
0
 62
     0
100
AcDbLine
 10
4.1643171107912
 20
7.2875
 30
0.0
 11
4.178086872146739
 21
7.2875
 31
0.0
  0
LINE
  5
3AA
330
2C
100
AcDbEntity
  8
0
 62
     0
100
AcDbLine
 10
4.165325302419223
 20
7.29375
 30
0.0
 11
4.177078680518715
 21
7.29375
 31
0.0
  0
LINE
  5
3AB
330
2C
100
AcDbEntity
  8
0
 62
     0
100
AcDbLine
 10
4.16625253970155
 20
7.3
 30
0.0
 11
4.17615144323639
 21
7.3
 31
0.0
  0
LINE
  5
3AC
330
2C
100
AcDbEntity
  8
0
 62
     0
100
AcDbLine
 10
4.167099276757146
 20
7.30625
 30
0.0
 11
4.175304706180795
 21
7.30625
 31
0.0
  0
LINE
  5
3AD
330
2C
100
AcDbEntity
  8
0
 62
     0
100
AcDbLine
 10
4.167865925316793
 20
7.3125
 30
0.0
 11
4.174538057621145
 21
7.3125
 31
0.0
  0
LINE
  5
3AE
330
2C
100
AcDbEntity
  8
0
 62
     0
100
AcDbLine
 10
4.16855285574882
 20
7.31875
 30
0.0
 11
4.17385112718912
 21
7.31875
 31
0.0
  0
LINE
  5
3AF
330
2C
100
AcDbEntity
  8
0
 62
     0
100
AcDbLine
 10
4.169160397971983
 20
7.325
 30
0.0
 11
4.173243584965957
 21
7.325
 31
0.0
  0
LINE
  5
3B0
330
2C
100
AcDbEntity
  8
0
 62
     0
100
AcDbLine
 10
4.169688842260835
 20
7.33125
 30
0.0
 11
4.172715140677103
 21
7.33125
 31
0.0
  0
LINE
  5
3B1
330
2C
100
AcDbEntity
  8
0
 62
     0
100
AcDbLine
 10
4.170138439948251
 20
7.3375
 30
0.0
 11
4.172265542989687
 21
7.3375
 31
0.0
  0
LINE
  5
3B2
330
2C
100
AcDbEntity
  8
0
 62
     0
100
AcDbLine
 10
4.170509404029122
 20
7.34375
 30
0.0
 11
4.171894578908817
 21
7.34375
 31
0.0
  0
LINE
  5
3B3
330
2C
100
AcDbEntity
  8
0
 62
     0
100
AcDbLine
 10
4.170801909668647
 20
7.35
 30
0.0
 11
4.171602073269292
 21
7.35
 31
0.0
  0
LINE
  5
3B4
330
2C
100
AcDbEntity
  8
0
 62
     0
100
AcDbLine
 10
4.171016094618071
 20
7.35625
 30
0.0
 11
4.171387888319867
 21
7.35625
 31
0.0
  0
LINE
  5
3B5
330
2C
100
AcDbEntity
  8
0
 62
     0
100
AcDbLine
 10
4.171152059540171
 20
7.3625
 30
0.0
 11
4.171251923397766
 21
7.3625
 31
0.0
  0
LINE
  5
3B6
330
2C
100
AcDbEntity
  8
0
 62
     0
100
AcDbLine
 10
4.17119411469162
 20
7.36875
 30
0.0
 11
4.171209868246319
 21
7.36875
 31
0.0
  0
LINE
  5
3B7
330
2C
100
AcDbEntity
  8
0
 62
     0
100
AcDbLine
 10
4.156536832302816
 20
7.25
 30
0.0
 11
4.185867150635123
 21
7.25
 31
0.0
  0
LINE
  5
3B8
330
2C
100
AcDbEntity
  8
0
 62
     0
100
AcDbLine
 10
4.154945410438709
 20
7.24375
 30
0.0
 11
4.187458572499231
 21
7.24375
 31
0.0
  0
LINE
  5
3B9
330
2C
100
AcDbEntity
  8
0
 62
     0
100
AcDbLine
 10
4.153267709311144
 20
7.2375
 30
0.0
 11
4.189136273626795
 21
7.2375
 31
0.0
  0
LINE
  5
3BA
330
2C
100
AcDbEntity
  8
0
 62
     0
100
AcDbLine
 10
4.151502824775956
 20
7.23125
 30
0.0
 11
4.190901158161984
 21
7.23125
 31
0.0
  0
LINE
  5
3BB
330
2C
100
AcDbEntity
  8
0
 62
     0
100
AcDbLine
 10
4.149649792014731
 20
7.225
 30
0.0
 11
4.170514238817704
 21
7.225
 31
0.0
  0
LINE
  5
3BC
330
2C
100
AcDbEntity
  8
0
 62
     0
100
AcDbLine
 10
4.17188974412022
 20
7.225
 30
0.0
 11
4.192754190923209
 21
7.225
 31
0.0
  0
LINE
  5
3BD
330
2C
100
AcDbEntity
  8
0
 62
     0
100
AcDbLine
 10
4.147707582635473
 20
7.21875
 30
0.0
 11
4.16865349922432
 21
7.21875
 31
0.0
  0
LINE
  5
3BE
330
2C
100
AcDbEntity
  8
0
 62
     0
100
AcDbLine
 10
4.173750483713604
 20
7.21875
 30
0.0
 11
4.194696400302465
 21
7.21875
 31
0.0
  0
LINE
  5
3BF
330
2C
100
AcDbEntity
  8
0
 62
     0
100
AcDbLine
 10
4.145675101508724
 20
7.2125
 30
0.0
 11
4.166706944063726
 21
7.2125
 31
0.0
  0
LINE
  5
3C0
330
2C
100
AcDbEntity
  8
0
 62
     0
100
AcDbLine
 10
4.175697038874197
 20
7.2125
 30
0.0
 11
4.196728881429214
 21
7.2125
 31
0.0
  0
LINE
  5
3C1
330
2C
100
AcDbEntity
  8
0
 62
     0
100
AcDbLine
 10
4.143551183314425
 20
7.20625
 30
0.0
 11
4.164673557788107
 21
7.20625
 31
0.0
  0
LINE
  5
3C2
330
2C
100
AcDbEntity
  8
0
 62
     0
100
AcDbLine
 10
4.17773042514982
 20
7.20625
 30
0.0
 11
4.198852799623516
 21
7.20625
 31
0.0
  0
LINE
  5
3C3
330
2C
100
AcDbEntity
  8
0
 62
     0
100
AcDbLine
 10
4.141334588771703
 20
7.2
 30
0.0
 11
4.162552262360144
 21
7.2
 31
0.0
  0
LINE
  5
3C4
330
2C
100
AcDbEntity
  8
0
 62
     0
100
AcDbLine
 10
4.179851720577784
 20
7.2
 30
0.0
 11
4.201069394166239
 21
7.2
 31
0.0
  0
LINE
  5
3C5
330
2C
100
AcDbEntity
  8
0
 62
     0
100
AcDbLine
 10
4.139024000520274
 20
7.19375
 30
0.0
 11
4.160341914027816
 21
7.19375
 31
0.0
  0
LINE
  5
3C6
330
2C
100
AcDbEntity
  8
0
 62
     0
100
AcDbLine
 10
4.182062068910108
 20
7.19375
 30
0.0
 11
4.203379982417666
 21
7.19375
 31
0.0
  0
LINE
  5
3C7
330
2C
100
AcDbEntity
  8
0
 62
     0
100
AcDbLine
 10
4.136618018618079
 20
7.1875
 30
0.0
 11
4.158041299813144
 21
7.1875
 31
0.0
  0
LINE
  5
3C8
330
2C
100
AcDbEntity
  8
0
 62
     0
100
AcDbLine
 10
4.18436268312478
 20
7.1875
 30
0.0
 11
4.20578596431986
 21
7.1875
 31
0.0
  0
LINE
  5
3C9
330
2C
100
AcDbEntity
  8
0
 62
     0
100
AcDbLine
 10
4.134115155615204
 20
7.18125
 30
0.0
 11
4.155649133687051
 21
7.18125
 31
0.0
  0
LINE
  5
3CA
330
2C
100
AcDbEntity
  8
0
 62
     0
100
AcDbLine
 10
4.186754849250876
 20
7.18125
 30
0.0
 11
4.208288827322737
 21
7.18125
 31
0.0
  0
LINE
  5
3CB
330
2C
100
AcDbEntity
  8
0
 62
     0
100
AcDbLine
 10
4.131513831158817
 20
7.175
 30
0.0
 11
4.153164052399043
 21
7.175
 31
0.0
  0
LINE
  5
3CC
330
2C
100
AcDbEntity
  8
0
 62
     0
100
AcDbLine
 10
4.189239930538879
 20
7.175
 30
0.0
 11
4.210890151779121
 21
7.175
 31
0.0
  0
LINE
  5
3CD
330
2C
100
AcDbEntity
  8
0
 62
     0
100
AcDbLine
 10
4.128812366077735
 20
7.16875
 30
0.0
 11
4.1505846109264
 21
7.16875
 31
0.0
  0
LINE
  5
3CE
330
2C
100
AcDbEntity
  8
0
 62
     0
100
AcDbLine
 10
4.191819372011525
 20
7.16875
 30
0.0
 11
4.213591616860204
 21
7.16875
 31
0.0
  0
LINE
  5
3CF
330
2C
100
AcDbEntity
  8
0
 62
     0
100
AcDbLine
 10
4.126008975888199
 20
7.1625
 30
0.0
 11
4.147909277503027
 21
7.1625
 31
0.0
  0
LINE
  5
3D0
330
2C
100
AcDbEntity
  8
0
 62
     0
100
AcDbLine
 10
4.194494705434896
 20
7.1625
 30
0.0
 11
4.216395007049741
 21
7.1625
 31
0.0
  0
LINE
  5
3D1
330
2C
100
AcDbEntity
  8
0
 62
     0
100
AcDbLine
 10
4.123101763654189
 20
7.15625
 30
0.0
 11
4.145136428182898
 21
7.15625
 31
0.0
  0
LINE
  5
3D2
330
2C
100
AcDbEntity
  8
0
 62
     0
100
AcDbLine
 10
4.197267554755029
 20
7.15625
 30
0.0
 11
4.219302219283752
 21
7.15625
 31
0.0
  0
ENDBLK
  5
3D3
330
2C
100
AcDbEntity
  8
0
100
AcDbBlockEnd
  0
BLOCK
  5
3D4
330
2D
100
AcDbEntity
  8
0
100
AcDbBlockBegin
  2
SBBB
 70
     0
 10
0.0
 20
0.0
 30
0.0
  3
SBBB
  1

  0
TEXT
  5
3D5
330
2D
100
AcDbEntity
  8
0
100
AcDbText
 10
-0.6558782172982847
 20
-0.50536529293236
 30
0.0
 40
0.156
  1
B
  7
COMPLEX
 72
     1
 11
-0.5778782172982849
 21
-0.50536529293236
 31
0.0
100
AcDbText
  0
LINE
  5
3D6
330
2D
100
AcDbEntity
  8
0
100
AcDbLine
 10
-0.2292366486465216
 20
-0.4374999999999983
 30
0.0
 11
-0.2292366486465225
 21
-0.451024804847763
 31
0.0
  0
LINE
  5
3D7
330
2D
100
AcDbEntity
  8
0
100
AcDbLine
 10
-0.2292366486465216
 20
-0.4074999999999998
 30
0.0
 11
-0.0149999999999988
 21
-0.4074999999999989
 31
0.0
  0
LINE
  5
3D8
330
2D
100
AcDbEntity
  8
0
100
AcDbLine
 10
-0.2292366486465216
 20
-0.4374999999999992
 30
0.0
 11
0.017923002649547
 21
-0.4374999999999992
 31
0.0
  0
LINE
  5
3D9
330
2D
100
AcDbEntity
  8
0
100
AcDbLine
 10
-0.0299999999999994
 20
-0.4224999999999995
 30
0.0
 11
-0.0299999999999994
 21
0.0000000000000009
 31
0.0
  0
LINE
  5
3DA
330
2D
100
AcDbEntity
  8
0
100
AcDbLine
 10
0.0
 20
-0.4571321552628529
 30
0.0
 11
0.0
 21
0.0
 31
0.0
  0
ARC
  5
3DB
330
2D
100
AcDbEntity
  8
0
100
AcDbCircle
 10
-0.4486009293161688
 20
0.0774898749921995
 30
0.0
 40
0.5
100
AcDbArc
 50
269.6353711361726
 51
296.0227864572306
  0
LINE
  5
3DC
330
2D
100
AcDbEntity
  8
0
100
AcDbLine
 10
-0.2292366486465216
 20
-0.4374999999999992
 30
0.0
 11
-0.2292366486465216
 21
-0.4374999999999992
 31
0.0
  0
ARC
  5
3DD
330
2D
100
AcDbEntity
  8
0
100
AcDbCircle
 10
-0.4486009293161688
 20
-0.9224898749921965
 30
0.0
 40
0.5
100
AcDbArc
 50
63.97721354276936
 51
90.36462886382739
  0
ARC
  5
3DE
330
2D
100
AcDbEntity
  8
0
100
AcDbCircle
 10
-0.4486009293161688
 20
0.0774898749921995
 30
0.0
 40
0.5200000000000001
100
AcDbArc
 50
285.9464297556974
 51
294.9517180917784
  0
ARC
  5
3DF
330
2D
100
AcDbEntity
  8
0
100
AcDbCircle
 10
-0.4486009293161688
 20
-0.9224898749921965
 30
0.0
 40
0.5200000000000001
100
AcDbArc
 50
65.04828190822201
 51
74.0535702443027
  0
LINE
  5
3E0
330
2D
100
AcDbEntity
  8
0
100
AcDbLine
 10
-0.2292366486465216
 20
-0.3939751951522217
 30
0.0
 11
-0.2292366486465216
 21
-0.4074999999999998
 31
0.0
  0
LINE
  5
3E1
330
2D
100
AcDbEntity
  8
0
100
AcDbLine
 10
-0.2292366486465216
 20
-0.3939751951522217
 30
0.0
 11
-0.2292366486465216
 21
-0.371819942802035
 31
0.0
  0
LINE
  5
3E2
330
2D
100
AcDbEntity
  8
0
100
AcDbLine
 10
-0.2292366486465225
 20
-0.451024804847763
 30
0.0
 11
-0.2292366486465216
 21
-0.4731800571979621
 31
0.0
  0
INSERT
  5
3E3
330
2D
100
AcDbEntity
  8
0
100
AcDbBlockReference
  2
*X7
 10
6.921648479033177
 20
3.748701991468968
 30
0.0
 41
-1.0
 50
90.0
  0
ENDBLK
  5
3E4
330
2D
100
AcDbEntity
  8
0
100
AcDbBlockEnd
  0
BLOCK
  5
3E5
330
2E
100
AcDbEntity
  8
0
100
AcDbBlockBegin
  2
*X7
 70
     1
 10
0.0
 20
0.0
 30
0.0
  3
*X7
  1

  0
LINE
  5
3E6
330
2E
100
AcDbEntity
  8
0
 62
     0
100
AcDbLine
 10
4.158042821030212
 20
7.25625
 30
0.0
 11
4.184361161907728
 21
7.25625
 31
0.0
  0
LINE
  5
3E7
330
2E
100
AcDbEntity
  8
0
 62
     0
100
AcDbLine
 10
4.159464167164085
 20
7.2625
 30
0.0
 11
4.182939815773856
 21
7.2625
 31
0.0
  0
LINE
  5
3E8
330
2E
100
AcDbEntity
  8
0
 62
     0
100
AcDbLine
 10
4.160801607892522
 20
7.26875
 30
0.0
 11
4.181602375045417
 21
7.26875
 31
0.0
  0
LINE
  5
3E9
330
2E
100
AcDbEntity
  8
0
 62
     0
100
AcDbLine
 10
4.162055829087108
 20
7.275
 30
0.0
 11
4.180348153850832
 21
7.275
 31
0.0
  0
LINE
  5
3EA
330
2E
100
AcDbEntity
  8
0
 62
     0
100
AcDbLine
 10
4.163227467165616
 20
7.28125
 30
0.0
 11
4.179176515772323
 21
7.28125
 31
0.0
  0
LINE
  5
3EB
330
2E
100
AcDbEntity
  8
0
 62
     0
100
AcDbLine
 10
4.1643171107912
 20
7.2875
 30
0.0
 11
4.178086872146739
 21
7.2875
 31
0.0
  0
LINE
  5
3EC
330
2E
100
AcDbEntity
  8
0
 62
     0
100
AcDbLine
 10
4.165325302419223
 20
7.29375
 30
0.0
 11
4.177078680518715
 21
7.29375
 31
0.0
  0
LINE
  5
3ED
330
2E
100
AcDbEntity
  8
0
 62
     0
100
AcDbLine
 10
4.16625253970155
 20
7.3
 30
0.0
 11
4.17615144323639
 21
7.3
 31
0.0
  0
LINE
  5
3EE
330
2E
100
AcDbEntity
  8
0
 62
     0
100
AcDbLine
 10
4.167099276757146
 20
7.30625
 30
0.0
 11
4.175304706180795
 21
7.30625
 31
0.0
  0
LINE
  5
3EF
330
2E
100
AcDbEntity
  8
0
 62
     0
100
AcDbLine
 10
4.167865925316793
 20
7.3125
 30
0.0
 11
4.174538057621145
 21
7.3125
 31
0.0
  0
LINE
  5
3F0
330
2E
100
AcDbEntity
  8
0
 62
     0
100
AcDbLine
 10
4.16855285574882
 20
7.31875
 30
0.0
 11
4.17385112718912
 21
7.31875
 31
0.0
  0
LINE
  5
3F1
330
2E
100
AcDbEntity
  8
0
 62
     0
100
AcDbLine
 10
4.169160397971983
 20
7.325
 30
0.0
 11
4.173243584965957
 21
7.325
 31
0.0
  0
LINE
  5
3F2
330
2E
100
AcDbEntity
  8
0
 62
     0
100
AcDbLine
 10
4.169688842260835
 20
7.33125
 30
0.0
 11
4.172715140677103
 21
7.33125
 31
0.0
  0
LINE
  5
3F3
330
2E
100
AcDbEntity
  8
0
 62
     0
100
AcDbLine
 10
4.170138439948251
 20
7.3375
 30
0.0
 11
4.172265542989687
 21
7.3375
 31
0.0
  0
LINE
  5
3F4
330
2E
100
AcDbEntity
  8
0
 62
     0
100
AcDbLine
 10
4.170509404029122
 20
7.34375
 30
0.0
 11
4.171894578908817
 21
7.34375
 31
0.0
  0
LINE
  5
3F5
330
2E
100
AcDbEntity
  8
0
 62
     0
100
AcDbLine
 10
4.170801909668647
 20
7.35
 30
0.0
 11
4.171602073269292
 21
7.35
 31
0.0
  0
LINE
  5
3F6
330
2E
100
AcDbEntity
  8
0
 62
     0
100
AcDbLine
 10
4.171016094618071
 20
7.35625
 30
0.0
 11
4.171387888319867
 21
7.35625
 31
0.0
  0
LINE
  5
3F7
330
2E
100
AcDbEntity
  8
0
 62
     0
100
AcDbLine
 10
4.171152059540171
 20
7.3625
 30
0.0
 11
4.171251923397766
 21
7.3625
 31
0.0
  0
LINE
  5
3F8
330
2E
100
AcDbEntity
  8
0
 62
     0
100
AcDbLine
 10
4.17119411469162
 20
7.36875
 30
0.0
 11
4.171209868246319
 21
7.36875
 31
0.0
  0
LINE
  5
3F9
330
2E
100
AcDbEntity
  8
0
 62
     0
100
AcDbLine
 10
4.156536832302816
 20
7.25
 30
0.0
 11
4.185867150635123
 21
7.25
 31
0.0
  0
LINE
  5
3FA
330
2E
100
AcDbEntity
  8
0
 62
     0
100
AcDbLine
 10
4.154945410438709
 20
7.24375
 30
0.0
 11
4.187458572499231
 21
7.24375
 31
0.0
  0
LINE
  5
3FB
330
2E
100
AcDbEntity
  8
0
 62
     0
100
AcDbLine
 10
4.153267709311144
 20
7.2375
 30
0.0
 11
4.189136273626795
 21
7.2375
 31
0.0
  0
LINE
  5
3FC
330
2E
100
AcDbEntity
  8
0
 62
     0
100
AcDbLine
 10
4.151502824775956
 20
7.23125
 30
0.0
 11
4.190901158161984
 21
7.23125
 31
0.0
  0
LINE
  5
3FD
330
2E
100
AcDbEntity
  8
0
 62
     0
100
AcDbLine
 10
4.149649792014731
 20
7.225
 30
0.0
 11
4.170514238817704
 21
7.225
 31
0.0
  0
LINE
  5
3FE
330
2E
100
AcDbEntity
  8
0
 62
     0
100
AcDbLine
 10
4.17188974412022
 20
7.225
 30
0.0
 11
4.192754190923209
 21
7.225
 31
0.0
  0
LINE
  5
3FF
330
2E
100
AcDbEntity
  8
0
 62
     0
100
AcDbLine
 10
4.147707582635473
 20
7.21875
 30
0.0
 11
4.16865349922432
 21
7.21875
 31
0.0
  0
LINE
  5
400
330
2E
100
AcDbEntity
  8
0
 62
     0
100
AcDbLine
 10
4.173750483713604
 20
7.21875
 30
0.0
 11
4.194696400302465
 21
7.21875
 31
0.0
  0
LINE
  5
401
330
2E
100
AcDbEntity
  8
0
 62
     0
100
AcDbLine
 10
4.145675101508724
 20
7.2125
 30
0.0
 11
4.166706944063726
 21
7.2125
 31
0.0
  0
LINE
  5
402
330
2E
100
AcDbEntity
  8
0
 62
     0
100
AcDbLine
 10
4.175697038874197
 20
7.2125
 30
0.0
 11
4.196728881429214
 21
7.2125
 31
0.0
  0
LINE
  5
403
330
2E
100
AcDbEntity
  8
0
 62
     0
100
AcDbLine
 10
4.143551183314425
 20
7.20625
 30
0.0
 11
4.164673557788107
 21
7.20625
 31
0.0
  0
LINE
  5
404
330
2E
100
AcDbEntity
  8
0
 62
     0
100
AcDbLine
 10
4.17773042514982
 20
7.20625
 30
0.0
 11
4.198852799623516
 21
7.20625
 31
0.0
  0
LINE
  5
405
330
2E
100
AcDbEntity
  8
0
 62
     0
100
AcDbLine
 10
4.141334588771703
 20
7.2
 30
0.0
 11
4.162552262360144
 21
7.2
 31
0.0
  0
LINE
  5
406
330
2E
100
AcDbEntity
  8
0
 62
     0
100
AcDbLine
 10
4.179851720577784
 20
7.2
 30
0.0
 11
4.201069394166239
 21
7.2
 31
0.0
  0
LINE
  5
407
330
2E
100
AcDbEntity
  8
0
 62
     0
100
AcDbLine
 10
4.139024000520274
 20
7.19375
 30
0.0
 11
4.160341914027816
 21
7.19375
 31
0.0
  0
LINE
  5
408
330
2E
100
AcDbEntity
  8
0
 62
     0
100
AcDbLine
 10
4.182062068910108
 20
7.19375
 30
0.0
 11
4.203379982417666
 21
7.19375
 31
0.0
  0
LINE
  5
409
330
2E
100
AcDbEntity
  8
0
 62
     0
100
AcDbLine
 10
4.136618018618079
 20
7.1875
 30
0.0
 11
4.158041299813144
 21
7.1875
 31
0.0
  0
LINE
  5
40A
330
2E
100
AcDbEntity
  8
0
 62
     0
100
AcDbLine
 10
4.18436268312478
 20
7.1875
 30
0.0
 11
4.20578596431986
 21
7.1875
 31
0.0
  0
LINE
  5
40B
330
2E
100
AcDbEntity
  8
0
 62
     0
100
AcDbLine
 10
4.134115155615204
 20
7.18125
 30
0.0
 11
4.155649133687051
 21
7.18125
 31
0.0
  0
LINE
  5
40C
330
2E
100
AcDbEntity
  8
0
 62
     0
100
AcDbLine
 10
4.186754849250876
 20
7.18125
 30
0.0
 11
4.208288827322737
 21
7.18125
 31
0.0
  0
LINE
  5
40D
330
2E
100
AcDbEntity
  8
0
 62
     0
100
AcDbLine
 10
4.131513831158817
 20
7.175
 30
0.0
 11
4.153164052399043
 21
7.175
 31
0.0
  0
LINE
  5
40E
330
2E
100
AcDbEntity
  8
0
 62
     0
100
AcDbLine
 10
4.189239930538879
 20
7.175
 30
0.0
 11
4.210890151779121
 21
7.175
 31
0.0
  0
LINE
  5
40F
330
2E
100
AcDbEntity
  8
0
 62
     0
100
AcDbLine
 10
4.128812366077735
 20
7.16875
 30
0.0
 11
4.1505846109264
 21
7.16875
 31
0.0
  0
LINE
  5
410
330
2E
100
AcDbEntity
  8
0
 62
     0
100
AcDbLine
 10
4.191819372011525
 20
7.16875
 30
0.0
 11
4.213591616860204
 21
7.16875
 31
0.0
  0
LINE
  5
411
330
2E
100
AcDbEntity
  8
0
 62
     0
100
AcDbLine
 10
4.126008975888199
 20
7.1625
 30
0.0
 11
4.147909277503027
 21
7.1625
 31
0.0
  0
LINE
  5
412
330
2E
100
AcDbEntity
  8
0
 62
     0
100
AcDbLine
 10
4.194494705434896
 20
7.1625
 30
0.0
 11
4.216395007049741
 21
7.1625
 31
0.0
  0
LINE
  5
413
330
2E
100
AcDbEntity
  8
0
 62
     0
100
AcDbLine
 10
4.123101763654189
 20
7.15625
 30
0.0
 11
4.145136428182898
 21
7.15625
 31
0.0
  0
LINE
  5
414
330
2E
100
AcDbEntity
  8
0
 62
     0
100
AcDbLine
 10
4.197267554755029
 20
7.15625
 30
0.0
 11
4.219302219283752
 21
7.15625
 31
0.0
  0
ENDBLK
  5
415
330
2E
100
AcDbEntity
  8
0
100
AcDbBlockEnd
  0
BLOCK
  5
416
330
2F
100
AcDbEntity
  8
0
100
AcDbBlockBegin
  2
*X8
 70
     1
 10
0.0
 20
0.0
 30
0.0
  3
*X8
  1

  0
LINE
  5
417
330
2F
100
AcDbEntity
  8
0
 62
     0
100
AcDbLine
 10
38.91208393030641
 20
25.52302150531773
 30
0.0
 11
38.78708393030641
 21
25.64802150531774
 31
0.0
  0
LINE
  5
418
330
2F
100
AcDbEntity
  8
0
 62
     0
100
AcDbLine
 10
36.65807125150623
 20
27.77703418411791
 30
0.0
 11
36.4170839303064
 21
28.01802150531774
 31
0.0
  0
LINE
  5
419
330
2F
100
AcDbEntity
  8
0
 62
     0
100
AcDbLine
 10
38.11658880147155
 20
25.52302150531773
 30
0.0
 11
37.99158880147154
 21
25.64802150531773
 31
0.0
  0
LINE
  5
41A
330
2F
100
AcDbEntity
  8
0
 62
     0
100
AcDbLine
 10
36.67220334727941
 20
26.96740695950987
 30
0.0
 11
36.54496332339556
 21
27.09464698339372
 31
0.0
  0
LINE
  5
41B
330
2F
100
AcDbEntity
  8
0
 62
     0
100
AcDbLine
 10
37.32109367263668
 20
25.52302150531773
 30
0.0
 11
37.19609367263668
 21
25.64802150531773
 31
0.0
  0
LINE
  5
41C
330
2F
100
AcDbEntity
  8
0
 62
     0
100
AcDbLine
 10
36.68633544305259
 20
26.15777973490182
 30
0.0
 11
36.55909541916873
 21
26.28501975878567
 31
0.0
  0
LINE
  5
41D
330
2F
100
AcDbEntity
  8
0
 62
     0
100
AcDbLine
 10
39.70348911475632
 20
25.52711144970269
 30
0.0
 11
39.58257905914127
 21
25.64802150531774
 31
0.0
  0
LINE
  5
41E
330
2F
100
AcDbEntity
  8
0
 62
     0
100
AcDbLine
 10
39.8600206887397
 20
26.16607500455419
 30
0.0
 11
39.73714642596887
 21
26.288949267325
 31
0.0
  0
LINE
  5
41F
330
2F
100
AcDbEntity
  8
0
 62
     0
100
AcDbLine
 10
39.87366789499235
 20
26.9479229271364
 30
0.0
 11
39.75079363222153
 21
27.07079718990721
 31
0.0
  0
LINE
  5
420
330
2F
100
AcDbEntity
  8
0
 62
     0
100
AcDbLine
 10
39.89734100989164
 20
27.71974494107198
 30
0.0
 11
39.76444083847419
 21
27.85264511248942
 31
0.0
  0
LINE
  5
421
330
2F
100
AcDbEntity
  8
0
 62
     0
100
AcDbLine
 10
39.04466645155641
 20
25.52302150531773
 30
0.0
 11
38.91966645155641
 21
25.64802150531774
 31
0.0
  0
LINE
  5
422
330
2F
100
AcDbEntity
  8
0
 62
     0
100
AcDbLine
 10
36.65571590221465
 20
27.91197205465949
 30
0.0
 11
36.53020653134349
 21
28.03748142553065
 31
0.0
  0
LINE
  5
423
330
2F
100
AcDbEntity
  8
0
 62
     0
100
AcDbLine
 10
38.24917132272155
 20
25.52302150531773
 30
0.0
 11
38.12417132272154
 21
25.64802150531773
 31
0.0
  0
LINE
  5
424
330
2F
100
AcDbEntity
  8
0
 62
     0
100
AcDbLine
 10
36.66984799798783
 20
27.10234483005145
 30
0.0
 11
36.54260797410398
 21
27.2295848539353
 31
0.0
  0
LINE
  5
425
330
2F
100
AcDbEntity
  8
0
 62
     0
100
AcDbLine
 10
37.45367619388668
 20
25.52302150531773
 30
0.0
 11
37.32867619388668
 21
25.64802150531773
 31
0.0
  0
LINE
  5
426
330
2F
100
AcDbEntity
  8
0
 62
     0
100
AcDbLine
 10
36.68398009376101
 20
26.2927176054434
 30
0.0
 11
36.55674006987716
 21
26.41995762932725
 31
0.0
  0
LINE
  5
427
330
2F
100
AcDbEntity
  8
0
 62
     0
100
AcDbLine
 10
39.79105041391608
 20
25.57213267179293
 30
0.0
 11
39.68479219116599
 21
25.67839089454302
 31
0.0
  0
LINE
  5
428
330
2F
100
AcDbEntity
  8
0
 62
     0
100
AcDbLine
 10
39.86229522311132
 20
26.29638299143256
 30
0.0
 11
39.7394209603405
 21
26.41925725420338
 31
0.0
  0
LINE
  5
429
330
2F
100
AcDbEntity
  8
0
 62
     0
100
AcDbLine
 10
39.87594242936398
 20
27.07823091401477
 30
0.0
 11
39.75306816659315
 21
27.20110517678559
 31
0.0
  0
LINE
  5
42A
330
2F
100
AcDbEntity
  8
0
 62
     0
100
AcDbLine
 10
39.96363227051663
 20
27.78603620169698
 30
0.0
 11
39.76671537284581
 21
27.9829530993678
 31
0.0
  0
LINE
  5
42B
330
2F
100
AcDbEntity
  8
0
 62
     0
100
AcDbLine
 10
39.17724897355641
 20
25.52302150531773
 30
0.0
 11
39.05224897355641
 21
25.64802150531774
 31
0.0
  0
LINE
  5
42C
330
2F
100
AcDbEntity
  8
0
 62
     0
100
AcDbLine
 10
36.65336055290975
 20
28.04690992596439
 30
0.0
 11
36.53887167832308
 21
28.16139880055107
 31
0.0
  0
LINE
  5
42D
330
2F
100
AcDbEntity
  8
0
 62
     0
100
AcDbLine
 10
38.38175384472155
 20
25.52302150531773
 30
0.0
 11
38.25675384472154
 21
25.64802150531773
 31
0.0
  0
LINE
  5
42E
330
2F
100
AcDbEntity
  8
0
 62
     0
100
AcDbLine
 10
36.66749264868293
 20
27.23728270135635
 30
0.0
 11
36.54025262479908
 21
27.3645227252402
 31
0.0
  0
LINE
  5
42F
330
2F
100
AcDbEntity
  8
0
 62
     0
100
AcDbLine
 10
37.58625871588668
 20
25.52302150531773
 30
0.0
 11
37.46125871588668
 21
25.64802150531773
 31
0.0
  0
LINE
  5
430
330
2F
100
AcDbEntity
  8
0
 62
     0
100
AcDbLine
 10
36.68162474445611
 20
26.4276554767483
 30
0.0
 11
36.55438472057226
 21
26.55489550063215
 31
0.0
  0
LINE
  5
431
330
2F
100
AcDbEntity
  8
0
 62
     0
100
AcDbLine
 10
36.79076358705181
 20
25.52302150531773
 30
0.0
 11
36.56851681634544
 21
25.7452682760241
 31
0.0
  0
LINE
  5
432
330
2F
100
AcDbEntity
  8
0
 62
     0
100
AcDbLine
 10
39.8429421604606
 20
25.6528234472484
 30
0.0
 11
39.72801082943764
 21
25.76775477827137
 31
0.0
  0
LINE
  5
433
330
2F
100
AcDbEntity
  8
0
 62
     0
100
AcDbLine
 10
39.86456975749582
 20
26.42669097904807
 30
0.0
 11
39.74169549472499
 21
26.54956524181889
 31
0.0
  0
LINE
  5
434
330
2F
100
AcDbEntity
  8
0
 62
     0
100
AcDbLine
 10
39.87821696374847
 20
27.20853890163028
 30
0.0
 11
39.75534270097765
 21
27.33141316440109
 31
0.0
  0
LINE
  5
435
330
2F
100
AcDbEntity
  8
0
 62
     0
100
AcDbLine
 10
40.02311757413738
 20
27.85913342007622
 30
0.0
 11
39.76898990723031
 21
28.11326108698331
 31
0.0
  0
LINE
  5
436
330
2F
100
AcDbEntity
  8
0
 62
     0
100
AcDbLine
 10
39.30983149480641
 20
25.52302150531773
 30
0.0
 11
39.18483149480641
 21
25.64802150531774
 31
0.0
  0
LINE
  5
437
330
2F
100
AcDbEntity
  8
0
 62
     0
100
AcDbLine
 10
36.65100520361817
 20
28.18184779650597
 30
0.0
 11
36.56483149480642
 21
28.26802150531774
 31
0.0
  0
LINE
  5
438
330
2F
100
AcDbEntity
  8
0
 62
     0
100
AcDbLine
 10
38.51433636597155
 20
25.52302150531773
 30
0.0
 11
38.38933636597154
 21
25.64802150531773
 31
0.0
  0
LINE
  5
439
330
2F
100
AcDbEntity
  8
0
 62
     0
100
AcDbLine
 10
36.66513729939135
 20
27.37222057189793
 30
0.0
 11
36.5378972755075
 21
27.49946059578177
 31
0.0
  0
LINE
  5
43A
330
2F
100
AcDbEntity
  8
0
 62
     0
100
AcDbLine
 10
37.71884123713668
 20
25.52302150531773
 30
0.0
 11
37.59384123713668
 21
25.64802150531773
 31
0.0
  0
LINE
  5
43B
330
2F
100
AcDbEntity
  8
0
 62
     0
100
AcDbLine
 10
36.67926939516453
 20
26.56259334728988
 30
0.0
 11
36.55202937128068
 21
26.68983337117373
 31
0.0
  0
LINE
  5
43C
330
2F
100
AcDbEntity
  8
0
 62
     0
100
AcDbLine
 10
36.92334610830182
 20
25.52302150531773
 30
0.0
 11
36.79646471646723
 21
25.64990289715231
 31
0.0
  0
LINE
  5
43D
330
2F
100
AcDbEntity
  8
0
 62
     0
100
AcDbLine
 10
36.69495185577172
 20
25.75141575784783
 30
0.0
 11
36.56616146705386
 21
25.88020614656568
 31
0.0
  0
LINE
  5
43E
330
2F
100
AcDbEntity
  8
0
 62
     0
100
AcDbLine
 10
39.85319708561478
 20
25.77515104334424
 30
0.0
 11
39.73032282284396
 21
25.89802530611506
 31
0.0
  0
LINE
  5
43F
330
2F
100
AcDbEntity
  8
0
 62
     0
100
AcDbLine
 10
39.86684429186744
 20
26.55699896592644
 30
0.0
 11
39.74397002909661
 21
26.67987322869726
 31
0.0
  0
LINE
  5
440
330
2F
100
AcDbEntity
  8
0
 62
     0
100
AcDbLine
 10
39.8804914981201
 20
27.33884688850865
 30
0.0
 11
39.75761723534927
 21
27.46172115127947
 31
0.0
  0
LINE
  5
441
330
2F
100
AcDbEntity
  8
0
 62
     0
100
AcDbLine
 10
40.02311757413738
 20
27.99171594132622
 30
0.0
 11
39.99681201014587
 21
28.01802150531774
 31
0.0
  0
LINE
  5
442
330
2F
100
AcDbEntity
  8
0
 62
     0
100
AcDbLine
 10
39.88449238161204
 20
28.13034113385157
 30
0.0
 11
39.77126444160193
 21
28.24356907386168
 31
0.0
  0
ENDBLK
  5
443
330
2F
100
AcDbEntity
  8
0
100
AcDbBlockEnd
  0
BLOCK
  5
444
330
30
100
AcDbEntity
  8
0
100
AcDbBlockBegin
  2
SAAL
 70
     0
 10
0.0
 20
0.0
 30
0.0
  3
SAAL
  1

  0
TEXT
  5
445
330
30
100
AcDbEntity
  8
0
100
AcDbText
 10
-0.5040834610697376
 20
0.5122863324383254
 30
0.0
 40
0.156
  1
A
  7
COMPLEX
 72
     1
 11
-0.4297977467840233
 21
0.5122863324383254
 31
0.0
100
AcDbText
  0
INSERT
  5
446
330
30
100
AcDbEntity
  8
0
100
AcDbBlockReference
  2
*X10
 10
3.748701991468969
 20
-6.921648479033177
 30
0.0
 41
-1.0
  0
LINE
  5
447
330
30
100
AcDbEntity
  8
0
100
AcDbLine
 10
-0.4510248048477635
 20
0.2292366486465225
 30
0.0
 11
-0.4731800571979626
 21
0.2292366486465216
 31
0.0
  0
LINE
  5
448
330
30
100
AcDbEntity
  8
0
100
AcDbLine
 10
-0.3939751951522221
 20
0.2292366486465216
 30
0.0
 11
-0.3718199428020354
 21
0.2292366486465216
 31
0.0
  0
LINE
  5
449
330
30
100
AcDbEntity
  8
0
100
AcDbLine
 10
-0.3939751951522221
 20
0.2292366486465216
 30
0.0
 11
-0.4075000000000002
 21
0.2292366486465216
 31
0.0
  0
ARC
  5
44A
330
30
100
AcDbEntity
  8
0
100
AcDbCircle
 10
-0.9224898749921969
 20
0.4486009293161688
 30
0.0
 40
0.5200000000000001
100
AcDbArc
 50
335.048281908222
 51
344.0535702443027
  0
ARC
  5
44B
330
30
100
AcDbEntity
  8
0
100
AcDbCircle
 10
0.0774898749921995
 20
0.4486009293161688
 30
0.0
 40
0.5200000000000001
100
AcDbArc
 50
195.9464297556973
 51
204.9517180917784
  0
ARC
  5
44C
330
30
100
AcDbEntity
  8
0
100
AcDbCircle
 10
-0.9224898749921969
 20
0.4486009293161688
 30
0.0
 40
0.5
100
AcDbArc
 50
333.9772135427694
 51
0.3646288638273872
  0
LINE
  5
44D
330
30
100
AcDbEntity
  8
0
100
AcDbLine
 10
-0.4374999999999996
 20
0.2292366486465216
 30
0.0
 11
-0.4374999999999996
 21
0.2292366486465216
 31
0.0
  0
ARC
  5
44E
330
30
100
AcDbEntity
  8
0
100
AcDbCircle
 10
0.0774898749921995
 20
0.4486009293161688
 30
0.0
 40
0.5
100
AcDbArc
 50
179.6353711361726
 51
206.0227864572306
  0
LINE
  5
44F
330
30
100
AcDbEntity
  8
0
100
AcDbLine
 10
-0.4571321552628534
 20
0.0
 30
0.0
 11
0.0
 21
0.0
 31
0.0
  0
LINE
  5
450
330
30
100
AcDbEntity
  8
0
100
AcDbLine
 10
-0.4224999999999999
 20
0.0299999999999994
 30
0.0
 11
0.0000000000000009
 21
0.0299999999999994
 31
0.0
  0
LINE
  5
451
330
30
100
AcDbEntity
  8
0
100
AcDbLine
 10
-0.4374999999999996
 20
0.2292366486465216
 30
0.0
 11
-0.4374999999999996
 21
-0.017923002649547
 31
0.0
  0
LINE
  5
452
330
30
100
AcDbEntity
  8
0
100
AcDbLine
 10
-0.4075000000000002
 20
0.2292366486465216
 30
0.0
 11
-0.4074999999999993
 21
0.0149999999999988
 31
0.0
  0
LINE
  5
453
330
30
100
AcDbEntity
  8
0
100
AcDbLine
 10
-0.4374999999999987
 20
0.2292366486465216
 30
0.0
 11
-0.4510248048477635
 21
0.2292366486465225
 31
0.0
  0
ENDBLK
  5
454
330
30
100
AcDbEntity
  8
0
100
AcDbBlockEnd
  0
BLOCK
  5
455
330
31
100
AcDbEntity
  8
0
100
AcDbBlockBegin
  2
*X10
 70
     1
 10
0.0
 20
0.0
 30
0.0
  3
*X10
  1

  0
LINE
  5
456
330
31
100
AcDbEntity
  8
0
 62
     0
100
AcDbLine
 10
4.158042821030212
 20
7.25625
 30
0.0
 11
4.184361161907728
 21
7.25625
 31
0.0
  0
LINE
  5
457
330
31
100
AcDbEntity
  8
0
 62
     0
100
AcDbLine
 10
4.159464167164085
 20
7.2625
 30
0.0
 11
4.182939815773856
 21
7.2625
 31
0.0
  0
LINE
  5
458
330
31
100
AcDbEntity
  8
0
 62
     0
100
AcDbLine
 10
4.160801607892522
 20
7.26875
 30
0.0
 11
4.181602375045417
 21
7.26875
 31
0.0
  0
LINE
  5
459
330
31
100
AcDbEntity
  8
0
 62
     0
100
AcDbLine
 10
4.162055829087108
 20
7.275
 30
0.0
 11
4.180348153850832
 21
7.275
 31
0.0
  0
LINE
  5
45A
330
31
100
AcDbEntity
  8
0
 62
     0
100
AcDbLine
 10
4.163227467165616
 20
7.28125
 30
0.0
 11
4.179176515772323
 21
7.28125
 31
0.0
  0
LINE
  5
45B
330
31
100
AcDbEntity
  8
0
 62
     0
100
AcDbLine
 10
4.1643171107912
 20
7.2875
 30
0.0
 11
4.178086872146739
 21
7.2875
 31
0.0
  0
LINE
  5
45C
330
31
100
AcDbEntity
  8
0
 62
     0
100
AcDbLine
 10
4.165325302419223
 20
7.29375
 30
0.0
 11
4.177078680518715
 21
7.29375
 31
0.0
  0
LINE
  5
45D
330
31
100
AcDbEntity
  8
0
 62
     0
100
AcDbLine
 10
4.16625253970155
 20
7.3
 30
0.0
 11
4.17615144323639
 21
7.3
 31
0.0
  0
LINE
  5
45E
330
31
100
AcDbEntity
  8
0
 62
     0
100
AcDbLine
 10
4.167099276757146
 20
7.30625
 30
0.0
 11
4.175304706180795
 21
7.30625
 31
0.0
  0
LINE
  5
45F
330
31
100
AcDbEntity
  8
0
 62
     0
100
AcDbLine
 10
4.167865925316793
 20
7.3125
 30
0.0
 11
4.174538057621145
 21
7.3125
 31
0.0
  0
LINE
  5
460
330
31
100
AcDbEntity
  8
0
 62
     0
100
AcDbLine
 10
4.16855285574882
 20
7.31875
 30
0.0
 11
4.17385112718912
 21
7.31875
 31
0.0
  0
LINE
  5
461
330
31
100
AcDbEntity
  8
0
 62
     0
100
AcDbLine
 10
4.169160397971983
 20
7.325
 30
0.0
 11
4.173243584965957
 21
7.325
 31
0.0
  0
LINE
  5
462
330
31
100
AcDbEntity
  8
0
 62
     0
100
AcDbLine
 10
4.169688842260835
 20
7.33125
 30
0.0
 11
4.172715140677103
 21
7.33125
 31
0.0
  0
LINE
  5
463
330
31
100
AcDbEntity
  8
0
 62
     0
100
AcDbLine
 10
4.170138439948251
 20
7.3375
 30
0.0
 11
4.172265542989687
 21
7.3375
 31
0.0
  0
LINE
  5
464
330
31
100
AcDbEntity
  8
0
 62
     0
100
AcDbLine
 10
4.170509404029122
 20
7.34375
 30
0.0
 11
4.171894578908817
 21
7.34375
 31
0.0
  0
LINE
  5
465
330
31
100
AcDbEntity
  8
0
 62
     0
100
AcDbLine
 10
4.170801909668647
 20
7.35
 30
0.0
 11
4.171602073269292
 21
7.35
 31
0.0
  0
LINE
  5
466
330
31
100
AcDbEntity
  8
0
 62
     0
100
AcDbLine
 10
4.171016094618071
 20
7.35625
 30
0.0
 11
4.171387888319867
 21
7.35625
 31
0.0
  0
LINE
  5
467
330
31
100
AcDbEntity
  8
0
 62
     0
100
AcDbLine
 10
4.171152059540171
 20
7.3625
 30
0.0
 11
4.171251923397766
 21
7.3625
 31
0.0
  0
LINE
  5
468
330
31
100
AcDbEntity
  8
0
 62
     0
100
AcDbLine
 10
4.17119411469162
 20
7.36875
 30
0.0
 11
4.171209868246319
 21
7.36875
 31
0.0
  0
LINE
  5
469
330
31
100
AcDbEntity
  8
0
 62
     0
100
AcDbLine
 10
4.156536832302816
 20
7.25
 30
0.0
 11
4.185867150635123
 21
7.25
 31
0.0
  0
LINE
  5
46A
330
31
100
AcDbEntity
  8
0
 62
     0
100
AcDbLine
 10
4.154945410438709
 20
7.24375
 30
0.0
 11
4.187458572499231
 21
7.24375
 31
0.0
  0
LINE
  5
46B
330
31
100
AcDbEntity
  8
0
 62
     0
100
AcDbLine
 10
4.153267709311144
 20
7.2375
 30
0.0
 11
4.189136273626795
 21
7.2375
 31
0.0
  0
LINE
  5
46C
330
31
100
AcDbEntity
  8
0
 62
     0
100
AcDbLine
 10
4.151502824775956
 20
7.23125
 30
0.0
 11
4.190901158161984
 21
7.23125
 31
0.0
  0
LINE
  5
46D
330
31
100
AcDbEntity
  8
0
 62
     0
100
AcDbLine
 10
4.149649792014731
 20
7.225
 30
0.0
 11
4.170514238817704
 21
7.225
 31
0.0
  0
LINE
  5
46E
330
31
100
AcDbEntity
  8
0
 62
     0
100
AcDbLine
 10
4.17188974412022
 20
7.225
 30
0.0
 11
4.192754190923209
 21
7.225
 31
0.0
  0
LINE
  5
46F
330
31
100
AcDbEntity
  8
0
 62
     0
100
AcDbLine
 10
4.147707582635473
 20
7.21875
 30
0.0
 11
4.16865349922432
 21
7.21875
 31
0.0
  0
LINE
  5
470
330
31
100
AcDbEntity
  8
0
 62
     0
100
AcDbLine
 10
4.173750483713604
 20
7.21875
 30
0.0
 11
4.194696400302465
 21
7.21875
 31
0.0
  0
LINE
  5
471
330
31
100
AcDbEntity
  8
0
 62
     0
100
AcDbLine
 10
4.145675101508724
 20
7.2125
 30
0.0
 11
4.166706944063726
 21
7.2125
 31
0.0
  0
LINE
  5
472
330
31
100
AcDbEntity
  8
0
 62
     0
100
AcDbLine
 10
4.175697038874197
 20
7.2125
 30
0.0
 11
4.196728881429214
 21
7.2125
 31
0.0
  0
LINE
  5
473
330
31
100
AcDbEntity
  8
0
 62
     0
100
AcDbLine
 10
4.143551183314425
 20
7.20625
 30
0.0
 11
4.164673557788107
 21
7.20625
 31
0.0
  0
LINE
  5
474
330
31
100
AcDbEntity
  8
0
 62
     0
100
AcDbLine
 10
4.17773042514982
 20
7.20625
 30
0.0
 11
4.198852799623516
 21
7.20625
 31
0.0
  0
LINE
  5
475
330
31
100
AcDbEntity
  8
0
 62
     0
100
AcDbLine
 10
4.141334588771703
 20
7.2
 30
0.0
 11
4.162552262360144
 21
7.2
 31
0.0
  0
LINE
  5
476
330
31
100
AcDbEntity
  8
0
 62
     0
100
AcDbLine
 10
4.179851720577784
 20
7.2
 30
0.0
 11
4.201069394166239
 21
7.2
 31
0.0
  0
LINE
  5
477
330
31
100
AcDbEntity
  8
0
 62
     0
100
AcDbLine
 10
4.139024000520274
 20
7.19375
 30
0.0
 11
4.160341914027816
 21
7.19375
 31
0.0
  0
LINE
  5
478
330
31
100
AcDbEntity
  8
0
 62
     0
100
AcDbLine
 10
4.182062068910108
 20
7.19375
 30
0.0
 11
4.203379982417666
 21
7.19375
 31
0.0
  0
LINE
  5
479
330
31
100
AcDbEntity
  8
0
 62
     0
100
AcDbLine
 10
4.136618018618079
 20
7.1875
 30
0.0
 11
4.158041299813144
 21
7.1875
 31
0.0
  0
LINE
  5
47A
330
31
100
AcDbEntity
  8
0
 62
     0
100
AcDbLine
 10
4.18436268312478
 20
7.1875
 30
0.0
 11
4.20578596431986
 21
7.1875
 31
0.0
  0
LINE
  5
47B
330
31
100
AcDbEntity
  8
0
 62
     0
100
AcDbLine
 10
4.134115155615204
 20
7.18125
 30
0.0
 11
4.155649133687051
 21
7.18125
 31
0.0
  0
LINE
  5
47C
330
31
100
AcDbEntity
  8
0
 62
     0
100
AcDbLine
 10
4.186754849250876
 20
7.18125
 30
0.0
 11
4.208288827322737
 21
7.18125
 31
0.0
  0
LINE
  5
47D
330
31
100
AcDbEntity
  8
0
 62
     0
100
AcDbLine
 10
4.131513831158817
 20
7.175
 30
0.0
 11
4.153164052399043
 21
7.175
 31
0.0
  0
LINE
  5
47E
330
31
100
AcDbEntity
  8
0
 62
     0
100
AcDbLine
 10
4.189239930538879
 20
7.175
 30
0.0
 11
4.210890151779121
 21
7.175
 31
0.0
  0
LINE
  5
47F
330
31
100
AcDbEntity
  8
0
 62
     0
100
AcDbLine
 10
4.128812366077735
 20
7.16875
 30
0.0
 11
4.1505846109264
 21
7.16875
 31
0.0
  0
LINE
  5
480
330
31
100
AcDbEntity
  8
0
 62
     0
100
AcDbLine
 10
4.191819372011525
 20
7.16875
 30
0.0
 11
4.213591616860204
 21
7.16875
 31
0.0
  0
LINE
  5
481
330
31
100
AcDbEntity
  8
0
 62
     0
100
AcDbLine
 10
4.126008975888199
 20
7.1625
 30
0.0
 11
4.147909277503027
 21
7.1625
 31
0.0
  0
LINE
  5
482
330
31
100
AcDbEntity
  8
0
 62
     0
100
AcDbLine
 10
4.194494705434896
 20
7.1625
 30
0.0
 11
4.216395007049741
 21
7.1625
 31
0.0
  0
LINE
  5
483
330
31
100
AcDbEntity
  8
0
 62
     0
100
AcDbLine
 10
4.123101763654189
 20
7.15625
 30
0.0
 11
4.145136428182898
 21
7.15625
 31
0.0
  0
LINE
  5
484
330
31
100
AcDbEntity
  8
0
 62
     0
100
AcDbLine
 10
4.197267554755029
 20
7.15625
 30
0.0
 11
4.219302219283752
 21
7.15625
 31
0.0
  0
ENDBLK
  5
485
330
31
100
AcDbEntity
  8
0
100
AcDbBlockEnd
  0
BLOCK
  5
486
330
32
100
AcDbEntity
  8
0
100
AcDbBlockBegin
  2
*X11
 70
     1
 10
0.0
 20
0.0
 30
0.0
  3
*X11
  1

  0
LINE
  5
487
330
32
100
AcDbEntity
  8
0
 62
     0
100
AcDbLine
 10
40.74096104733079
 20
16.08061205344995
 30
0.0
 11
40.86596104733081
 21
16.20561205344997
 31
0.0
  0
LINE
  5
488
330
32
100
AcDbEntity
  8
0
 62
     0
100
AcDbLine
 10
39.94546591849593
 20
16.08061205344995
 30
0.0
 11
40.07046591849596
 21
16.20561205344998
 31
0.0
  0
LINE
  5
489
330
32
100
AcDbEntity
  8
0
 62
     0
100
AcDbLine
 10
39.54295323269292
 20
16.47359449648179
 30
0.0
 11
39.58747078966107
 21
16.51811205344995
 31
0.0
  0
LINE
  5
48A
330
32
100
AcDbEntity
  8
0
 62
     0
100
AcDbLine
 10
41.53645617616566
 20
16.08061205344995
 30
0.0
 11
41.66145617616567
 21
16.20561205344997
 31
0.0
  0
LINE
  5
48B
330
32
100
AcDbEntity
  8
0
 62
     0
100
AcDbLine
 10
42.33195130500052
 20
16.08061205344995
 30
0.0
 11
42.45695130500053
 21
16.20561205344996
 31
0.0
  0
LINE
  5
48C
330
32
100
AcDbEntity
  8
0
 62
     0
100
AcDbLine
 10
40.8735435685808
 20
16.08061205344995
 30
0.0
 11
40.99854356858082
 21
16.20561205344997
 31
0.0
  0
LINE
  5
48D
330
32
100
AcDbEntity
  8
0
 62
     0
100
AcDbLine
 10
40.07804843974593
 20
16.08061205344995
 30
0.0
 11
40.20304843974596
 21
16.20561205344998
 31
0.0
  0
LINE
  5
48E
330
32
100
AcDbEntity
  8
0
 62
     0
100
AcDbLine
 10
39.54742689270601
 20
16.3454856352449
 30
0.0
 11
39.6663986453477
 21
16.46445738788657
 31
0.0
  0
LINE
  5
48F
330
32
100
AcDbEntity
  8
0
 62
     0
100
AcDbLine
 10
41.66903869741566
 20
16.08061205344995
 30
0.0
 11
41.79403869741568
 21
16.20561205344996
 31
0.0
  0
LINE
  5
490
330
32
100
AcDbEntity
  8
0
 62
     0
100
AcDbLine
 10
42.46453382625053
 20
16.08061205344995
 30
0.0
 11
42.58953382625054
 21
16.20561205344996
 31
0.0
  0
LINE
  5
491
330
32
100
AcDbEntity
  8
0
 62
     0
100
AcDbLine
 10
41.0061260905808
 20
16.08061205344995
 30
0.0
 11
41.13112609058082
 21
16.20561205344997
 31
0.0
  0
LINE
  5
492
330
32
100
AcDbEntity
  8
0
 62
     0
100
AcDbLine
 10
40.21063096174593
 20
16.08061205344995
 30
0.0
 11
40.33563096174596
 21
16.20561205344998
 31
0.0
  0
LINE
  5
493
330
32
100
AcDbEntity
  8
0
 62
     0
100
AcDbLine
 10
39.55190055274443
 20
16.21737677328331
 30
0.0
 11
39.6663986453477
 21
16.33187486588658
 31
0.0
  0
LINE
  5
494
330
32
100
AcDbEntity
  8
0
 62
     0
100
AcDbLine
 10
41.80162121941566
 20
16.08061205344995
 30
0.0
 11
41.92662121941568
 21
16.20561205344996
 31
0.0
  0
LINE
  5
495
330
32
100
AcDbEntity
  8
0
 62
     0
100
AcDbLine
 10
42.59711634825053
 20
16.08061205344995
 30
0.0
 11
42.72211634825054
 21
16.20561205344995
 31
0.0
  0
LINE
  5
496
330
32
100
AcDbEntity
  8
0
 62
     0
100
AcDbLine
 10
40.34321348299593
 20
16.08061205344995
 30
0.0
 11
40.46821348299596
 21
16.20561205344998
 31
0.0
  0
LINE
  5
497
330
32
100
AcDbEntity
  8
0
 62
     0
100
AcDbLine
 10
39.5695625272091
 20
16.10245622649798
 30
0.0
 11
39.67893850730011
 21
16.21183220658899
 31
0.0
  0
LINE
  5
498
330
32
100
AcDbEntity
  8
0
 62
     0
100
AcDbLine
 10
41.13870861183079
 20
16.08061205344995
 30
0.0
 11
41.26370861183082
 21
16.20561205344997
 31
0.0
  0
LINE
  5
499
330
32
100
AcDbEntity
  8
0
 62
     0
100
AcDbLine
 10
41.93420374066566
 20
16.08061205344995
 30
0.0
 11
42.05920374066567
 21
16.20561205344996
 31
0.0
  0
LINE
  5
49A
330
32
100
AcDbEntity
  8
0
 62
     0
100
AcDbLine
 10
42.72969886950053
 20
16.08061205344995
 30
0.0
 11
42.85469886950053
 21
16.20561205344995
 31
0.0
  0
LINE
  5
49B
330
32
100
AcDbEntity
  8
0
 62
     0
100
AcDbLine
 10
43.04144149730606
 20
16.39235468125547
 30
0.0
 11
43.1664140922817
 21
16.51732727623111
 31
0.0
  0
ENDBLK
  5
49C
330
32
100
AcDbEntity
  8
0
100
AcDbBlockEnd
  0
BLOCK
  5
49D
330
33
100
AcDbEntity
  8
0
100
AcDbBlockBegin
  2
*X12
 70
     1
 10
0.0
 20
0.0
 30
0.0
  3
*X12
  1

  0
LINE
  5
49E
330
33
100
AcDbEntity
  8
0
 62
     0
100
AcDbLine
 10
51.00414534447139
 20
21.57082557758135
 30
0.0
 11
51.12914534447139
 21
21.69582557758135
 31
0.0
  0
LINE
  5
49F
330
33
100
AcDbEntity
  8
0
 62
     0
100
AcDbLine
 10
51.00414534447139
 20
22.36632070641621
 30
0.0
 11
51.12914534447139
 21
22.49132070641621
 31
0.0
  0
LINE
  5
4A0
330
33
100
AcDbEntity
  8
0
 62
     0
100
AcDbLine
 10
50.85408852242614
 20
23.01175901320582
 30
0.0
 11
50.96938948337385
 21
23.12705997415353
 31
0.0
  0
LINE
  5
4A1
330
33
100
AcDbEntity
  8
0
 62
     0
100
AcDbLine
 10
51.00414534447139
 20
20.77533044874648
 30
0.0
 11
51.12914534447139
 21
20.90033044874648
 31
0.0
  0
LINE
  5
4A2
330
33
100
AcDbEntity
  8
0
 62
     0
100
AcDbLine
 10
51.00414534447139
 20
19.97983531991162
 30
0.0
 11
51.12914534447139
 21
20.10483531991162
 31
0.0
  0
LINE
  5
4A3
330
33
100
AcDbEntity
  8
0
 62
     0
100
AcDbLine
 10
51.00414534447139
 20
21.43824305633135
 30
0.0
 11
51.12914534447139
 21
21.56324305633135
 31
0.0
  0
LINE
  5
4A4
330
33
100
AcDbEntity
  8
0
 62
     0
100
AcDbLine
 10
51.00414534447139
 20
22.23373818516621
 30
0.0
 11
51.12914534447139
 21
22.35873818516621
 31
0.0
  0
LINE
  5
4A5
330
33
100
AcDbEntity
  8
0
 62
     0
100
AcDbLine
 10
50.98445458423004
 20
23.00954255375972
 30
0.0
 11
51.09280133018358
 21
23.11788929971326
 31
0.0
  0
LINE
  5
4A6
330
33
100
AcDbEntity
  8
0
 62
     0
100
AcDbLine
 10
51.00414534447139
 20
20.64274792749648
 30
0.0
 11
51.12914534447139
 21
20.76774792749648
 31
0.0
  0
LINE
  5
4A7
330
33
100
AcDbEntity
  8
0
 62
     0
100
AcDbLine
 10
50.6916453444714
 20
19.53475279866162
 30
0.0
 11
50.69730870705718
 21
19.54041616124741
 31
0.0
  0
LINE
  5
4A8
330
33
100
AcDbEntity
  8
0
 62
     0
100
AcDbLine
 10
51.00414534447139
 20
19.84725279866162
 30
0.0
 11
51.12914534447139
 21
19.97225279866162
 31
0.0
  0
LINE
  5
4A9
330
33
100
AcDbEntity
  8
0
 62
     0
100
AcDbLine
 10
51.00414534447139
 20
22.10115566316621
 30
0.0
 11
51.12914534447139
 21
22.22615566316621
 31
0.0
  0
LINE
  5
4AA
330
33
100
AcDbEntity
  8
0
 62
     0
100
AcDbLine
 10
51.00414534447138
 20
22.89665079200107
 30
0.0
 11
51.12914534447139
 21
23.02165079200108
 31
0.0
  0
LINE
  5
4AB
330
33
100
AcDbEntity
  8
0
 62
     0
100
AcDbLine
 10
51.00414534447139
 20
21.30566053433135
 30
0.0
 11
51.12914534447139
 21
21.43066053433135
 31
0.0
  0
LINE
  5
4AC
330
33
100
AcDbEntity
  8
0
 62
     0
100
AcDbLine
 10
51.00414534447139
 20
20.51016540549648
 30
0.0
 11
51.12914534447139
 21
20.63516540549648
 31
0.0
  0
LINE
  5
4AD
330
33
100
AcDbEntity
  8
0
 62
     0
100
AcDbLine
 10
50.70537052284749
 20
19.41589545503772
 30
0.0
 11
50.82989122905718
 21
19.54041616124741
 31
0.0
  0
LINE
  5
4AE
330
33
100
AcDbEntity
  8
0
 62
     0
100
AcDbLine
 10
51.00414534447139
 20
19.71467027666162
 30
0.0
 11
51.12914534447139
 21
19.83967027666162
 31
0.0
  0
LINE
  5
4AF
330
33
100
AcDbEntity
  8
0
 62
     0
100
AcDbLine
 10
51.00414534447139
 20
21.96857314191621
 30
0.0
 11
51.12914534447139
 21
22.09357314191621
 31
0.0
  0
LINE
  5
4B0
330
33
100
AcDbEntity
  8
0
 62
     0
100
AcDbLine
 10
51.00414534447139
 20
22.76406827075107
 30
0.0
 11
51.12914534447139
 21
22.88906827075107
 31
0.0
  0
LINE
  5
4B1
330
33
100
AcDbEntity
  8
0
 62
     0
100
AcDbLine
 10
51.00414534447139
 20
21.17307801308134
 30
0.0
 11
51.12914534447139
 21
21.29807801308135
 31
0.0
  0
LINE
  5
4B2
330
33
100
AcDbEntity
  8
0
 62
     0
100
AcDbLine
 10
51.00414534447139
 20
20.37758288424648
 30
0.0
 11
51.12914534447139
 21
20.50258288424648
 31
0.0
  0
LINE
  5
4B3
330
33
100
AcDbEntity
  8
0
 62
     0
100
AcDbLine
 10
50.84275045711484
 20
19.42069286805506
 30
0.0
 11
50.96247375030719
 21
19.54041616124741
 31
0.0
  0
LINE
  5
4B4
330
33
100
AcDbEntity
  8
0
 62
     0
100
AcDbLine
 10
51.00414534447139
 20
19.58208775541162
 30
0.0
 11
51.12914534447139
 21
19.70708775541162
 31
0.0
  0
ENDBLK
  5
4B5
330
33
100
AcDbEntity
  8
0
100
AcDbBlockEnd
  0
BLOCK
  5
4B6
330
34
100
AcDbEntity
  8
0
100
AcDbBlockBegin
  2
*X13
 70
     1
 10
0.0
 20
0.0
 30
0.0
  3
*X13
  1

  0
LINE
  5
4B7
330
34
100
AcDbEntity
  8
0
 62
     0
100
AcDbLine
 10
46.98388857021115
 20
20.89836242369741
 30
0.0
 11
46.87768156743739
 21
21.00456942647117
 31
0.0
  0
LINE
  5
4B8
330
34
100
AcDbEntity
  8
0
 62
     0
100
AcDbLine
 10
45.98648450952065
 20
20.83510631260808
 30
0.0
 11
45.86361024674984
 21
20.95798057537889
 31
0.0
  0
LINE
  5
4B9
330
34
100
AcDbEntity
  8
0
 62
     0
100
AcDbLine
 10
44.94402061274438
 20
20.81691003760453
 30
0.0
 11
44.82114634997357
 21
20.93978430037534
 31
0.0
  0
LINE
  5
4BA
330
34
100
AcDbEntity
  8
0
 62
     0
100
AcDbLine
 10
47.04609963283668
 20
21.8968115328517
 30
0.0
 11
46.92109963283668
 21
22.0218115328517
 31
0.0
  0
LINE
  5
4BB
330
34
100
AcDbEntity
  8
0
 62
     0
100
AcDbLine
 10
44.80246546320326
 20
24.14044570248512
 30
0.0
 11
44.55109963283667
 21
24.3918115328517
 31
0.0
  0
LINE
  5
4BC
330
34
100
AcDbEntity
  8
0
 62
     0
100
AcDbLine
 10
47.04609963283668
 20
22.95747170463152
 30
0.0
 11
46.92109963283669
 21
23.08247170463152
 31
0.0
  0
LINE
  5
4BD
330
34
100
AcDbEntity
  8
0
 62
     0
100
AcDbLine
 10
45.88196842934734
 20
24.12160290812087
 30
0.0
 11
45.75472840546349
 21
24.24884293200472
 31
0.0
  0
LINE
  5
4BE
330
34
100
AcDbEntity
  8
0
 62
     0
100
AcDbLine
 10
47.04609963283668
 20
24.01813187641134
 30
0.0
 11
46.83423137160755
 21
24.23000013764048
 31
0.0
  0
LINE
  5
4BF
330
34
100
AcDbEntity
  8
0
 62
     0
100
AcDbLine
 10
47.04462661163391
 20
21.01440107727464
 30
0.0
 11
46.92109963283668
 21
21.13792805607189
 31
0.0
  0
LINE
  5
4C0
330
34
100
AcDbEntity
  8
0
 62
     0
100
AcDbLine
 10
46.16022849202515
 20
20.83813902510359
 30
0.0
 11
46.03735422925434
 21
20.9610132878744
 31
0.0
  0
LINE
  5
4C1
330
34
100
AcDbEntity
  8
0
 62
     0
100
AcDbLine
 10
45.11776459524889
 20
20.81994275010003
 30
0.0
 11
44.99489033247807
 21
20.94281701287085
 31
0.0
  0
LINE
  5
4C2
330
34
100
AcDbEntity
  8
0
 62
     0
100
AcDbLine
 10
47.04609963283668
 20
22.0735882278517
 30
0.0
 11
46.92109963283668
 21
22.1985882278517
 31
0.0
  0
LINE
  5
4C3
330
34
100
AcDbEntity
  8
0
 62
     0
100
AcDbLine
 10
44.98238262392537
 20
24.13730523676302
 30
0.0
 11
44.7190644713247
 21
24.40062338936368
 31
0.0
  0
LINE
  5
4C4
330
34
100
AcDbEntity
  8
0
 62
     0
100
AcDbLine
 10
47.04609963283668
 20
23.13424839963152
 30
0.0
 11
46.92109963283669
 21
23.25924839963152
 31
0.0
  0
LINE
  5
4C5
330
34
100
AcDbEntity
  8
0
 62
     0
100
AcDbLine
 10
46.06188559006945
 20
24.11846244239876
 30
0.0
 11
45.9346455661856
 21
24.24570246628261
 31
0.0
  0
LINE
  5
4C6
330
34
100
AcDbEntity
  8
0
 62
     0
100
AcDbLine
 10
46.3339724755125
 20
20.84117173761624
 30
0.0
 11
46.21109821274168
 21
20.96404600038706
 31
0.0
  0
LINE
  5
4C7
330
34
100
AcDbEntity
  8
0
 62
     0
100
AcDbLine
 10
45.29150857873623
 20
20.82297546261269
 30
0.0
 11
45.16863431596541
 21
20.9458497253835
 31
0.0
  0
LINE
  5
4C8
330
34
100
AcDbEntity
  8
0
 62
     0
100
AcDbLine
 10
47.04609963283668
 20
21.18970475207188
 30
0.0
 11
46.92109963283668
 21
21.31470475207189
 31
0.0
  0
LINE
  5
4C9
330
34
100
AcDbEntity
  8
0
 62
     0
100
AcDbLine
 10
47.04609963283668
 20
22.2503649238517
 30
0.0
 11
46.92109963283668
 21
22.3753649238517
 31
0.0
  0
LINE
  5
4CA
330
34
100
AcDbEntity
  8
0
 62
     0
100
AcDbLine
 10
45.16229978566523
 20
24.13416477102315
 30
0.0
 11
45.0350597617814
 21
24.26140479490698
 31
0.0
  0
LINE
  5
4CB
330
34
100
AcDbEntity
  8
0
 62
     0
100
AcDbLine
 10
47.04609963283668
 20
23.31102509563152
 30
0.0
 11
46.92109963283669
 21
23.43602509563152
 31
0.0
  0
LINE
  5
4CC
330
34
100
AcDbEntity
  8
0
 62
     0
100
AcDbLine
 10
46.24180275180932
 20
24.11532197665889
 30
0.0
 11
46.11456272792547
 21
24.24256200054274
 31
0.0
  0
LINE
  5
4CD
330
34
100
AcDbEntity
  8
0
 62
     0
100
AcDbLine
 10
46.50771645801699
 20
20.84420445011175
 30
0.0
 11
46.38484219524618
 21
20.96707871288256
 31
0.0
  0
LINE
  5
4CE
330
34
100
AcDbEntity
  8
0
 62
     0
100
AcDbLine
 10
45.46525256124072
 20
20.82600817510819
 30
0.0
 11
45.34237829846991
 21
20.94888243787901
 31
0.0
  0
LINE
  5
4CF
330
34
100
AcDbEntity
  8
0
 62
     0
100
AcDbLine
 10
44.55132002716381
 20
20.67928053740529
 30
0.0
 11
44.55109963283667
 21
20.67950093173242
 31
0.0
  0
LINE
  5
4D0
330
34
100
AcDbEntity
  8
0
 62
     0
100
AcDbLine
 10
44.41073364193122
 20
20.81986692263789
 30
0.0
 11
44.30109963283668
 21
20.92950093173242
 31
0.0
  0
LINE
  5
4D1
330
34
100
AcDbEntity
  8
0
 62
     0
100
AcDbLine
 10
47.04609963283668
 20
21.36648144707188
 30
0.0
 11
46.92109963283668
 21
21.49148144707189
 31
0.0
  0
LINE
  5
4D2
330
34
100
AcDbEntity
  8
0
 62
     0
100
AcDbLine
 10
47.04609963283668
 20
22.4271416188517
 30
0.0
 11
46.92109963283669
 21
22.5521416188517
 31
0.0
  0
LINE
  5
4D3
330
34
100
AcDbEntity
  8
0
 62
     0
100
AcDbLine
 10
45.34221694638735
 20
24.13102430530104
 30
0.0
 11
45.21497692250351
 21
24.25826432918488
 31
0.0
  0
LINE
  5
4D4
330
34
100
AcDbEntity
  8
0
 62
     0
100
AcDbLine
 10
47.04609963283668
 20
23.48780179063152
 30
0.0
 11
46.92109963283669
 21
23.61280179063152
 31
0.0
  0
LINE
  5
4D5
330
34
100
AcDbEntity
  8
0
 62
     0
100
AcDbLine
 10
46.42171991253142
 20
24.11218151093678
 30
0.0
 11
46.29447988864757
 21
24.23942153482064
 31
0.0
  0
ENDBLK
  5
4D6
330
34
100
AcDbEntity
  8
0
100
AcDbBlockEnd
  0
BLOCK
  5
4D7
330
36
100
AcDbEntity
  8
0
100
AcDbBlockBegin
  2
*D14
 70
     1
 10
0.0
 20
0.0
 30
0.0
  3
*D14
  1

  0
LINE
  5
4D8
330
36
100
AcDbEntity
  8
0
  6
ByBlock
 62
     0
440
 16777216
100
AcDbLine
 10
59.88009114213111
 20
56.08218804954788
 30
0.0
 11
59.88009114213111
 21
52.2397788249502
 31
0.0
  0
LINE
  5
4D9
330
36
100
AcDbEntity
  8
0
  6
ByBlock
 62
     0
440
 16777216
100
AcDbLine
 10
56.84722165390495
 20
56.08218804954788
 30
0.0
 11
56.84722165390495
 21
52.2397788249502
 31
0.0
  0
LINE
  5
4DA
330
36
100
AcDbEntity
  8
0
  6
ByBlock
 62
     0
440
 16777216
100
AcDbLine
 10
59.69309114213111
 20
52.3327788249502
 30
0.0
 11
59.03356320997832
 21
52.3327788249502
 31
0.0
  0
LINE
  5
4DB
330
36
100
AcDbEntity
  8
0
  6
ByBlock
 62
     0
440
 16777216
100
AcDbLine
 10
57.03422165390495
 20
52.3327788249502
 30
0.0
 11
57.66222987664498
 21
52.3327788249502
 31
0.0
  0
SOLID
  5
4DC
330
36
100
AcDbEntity
  8
0
  6
ByBlock
 62
     0
440
 16777216
100
AcDbTrace
 10
59.69309114213111
 20
52.36394549161687
 30
0.0
 11
59.69309114213111
 21
52.30161215828354
 31
0.0
 12
59.88009114213111
 22
52.3327788249502
 32
0.0
 13
59.88009114213111
 23
52.3327788249502
 33
0.0
  0
SOLID
  5
4DD
330
36
100
AcDbEntity
  8
0
  6
ByBlock
 62
     0
440
 16777216
100
AcDbTrace
 10
57.03422165390495
 20
52.36394549161687
 30
0.0
 11
57.03422165390495
 21
52.30161215828354
 31
0.0
 12
56.84722165390495
 22
52.3327788249502
 32
0.0
 13
56.84722165390495
 23
52.3327788249502
 33
0.0
  0
TEXT
  5
4DE
330
36
100
AcDbEntity
  8
0
  6
ByBlock
 62
     0
440
 16777216
100
AcDbText
 10
57.84922987664498
 20
52.2392788249502
 30
0.0
 40
0.187
  1
3 1/32
 72
     1
 11
58.34789654331165
 21
52.3327788249502
 31
0.0
100
AcDbText
 73
     2
  0
POINT
  5
4DF
330
36
100
AcDbEntity
  8
DEFPOINTS
  6
ByBlock
 62
     0
440
 16777216
100
AcDbPoint
 10
59.88009114213111
 20
56.26918804954788
 30
0.0
  0
POINT
  5
4E0
330
36
100
AcDbEntity
  8
DEFPOINTS
  6
ByBlock
 62
     0
440
 16777216
100
AcDbPoint
 10
56.84722165390495
 20
56.26918804954787
 30
0.0
  0
POINT
  5
4E1
330
36
100
AcDbEntity
  8
DEFPOINTS
  6
ByBlock
 62
     0
440
 16777216
100
AcDbPoint
 10
56.84722165390495
 20
52.3327788249502
 30
0.0
  0
ENDBLK
  5
4E2
330
36
100
AcDbEntity
  8
0
100
AcDbBlockEnd
  0
BLOCK
  5
4E3
330
37
100
AcDbEntity
  8
0
100
AcDbBlockBegin
  2
*D15
 70
     1
 10
0.0
 20
0.0
 30
0.0
  3
*D15
  1

  0
LINE
  5
4E4
330
37
100
AcDbEntity
  8
0
  6
ByBlock
 62
     0
440
 16777216
100
AcDbLine
 10
57.34836971992945
 20
56.0207788249502
 30
0.0
 11
57.34836971992945
 21
54.7397788249502
 31
0.0
  0
LINE
  5
4E5
330
37
100
AcDbEntity
  8
0
  6
ByBlock
 62
     0
440
 16777216
100
AcDbLine
 10
59.37894307610662
 20
56.0207788249502
 30
0.0
 11
59.37894307610662
 21
54.7397788249502
 31
0.0
  0
LINE
  5
4E6
330
37
100
AcDbEntity
  8
0
  6
ByBlock
 62
     0
440
 16777216
100
AcDbLine
 10
57.53536971992945
 20
54.8327788249502
 30
0.0
 11
57.66222987664498
 21
54.8327788249502
 31
0.0
  0
LINE
  5
4E7
330
37
100
AcDbEntity
  8
0
  6
ByBlock
 62
     0
440
 16777216
100
AcDbLine
 10
59.19194307610662
 20
54.8327788249502
 30
0.0
 11
59.03356320997832
 21
54.8327788249502
 31
0.0
  0
SOLID
  5
4E8
330
37
100
AcDbEntity
  8
0
  6
ByBlock
 62
     0
440
 16777216
100
AcDbTrace
 10
57.53536971992945
 20
54.86394549161687
 30
0.0
 11
57.53536971992945
 21
54.80161215828354
 31
0.0
 12
57.34836971992945
 22
54.8327788249502
 32
0.0
 13
57.34836971992945
 23
54.8327788249502
 33
0.0
  0
SOLID
  5
4E9
330
37
100
AcDbEntity
  8
0
  6
ByBlock
 62
     0
440
 16777216
100
AcDbTrace
 10
59.19194307610662
 20
54.86394549161687
 30
0.0
 11
59.19194307610662
 21
54.80161215828354
 31
0.0
 12
59.37894307610662
 22
54.8327788249502
 32
0.0
 13
59.37894307610662
 23
54.8327788249502
 33
0.0
  0
TEXT
  5
4EA
330
37
100
AcDbEntity
  8
0
  6
ByBlock
 62
     0
440
 16777216
100
AcDbText
 10
57.84922987664498
 20
54.7392788249502
 30
0.0
 40
0.187
  1
2 1/32
 72
     1
 11
58.34789654331165
 21
54.8327788249502
 31
0.0
100
AcDbText
 73
     2
  0
POINT
  5
4EB
330
37
100
AcDbEntity
  8
DEFPOINTS
  6
ByBlock
 62
     0
440
 16777216
100
AcDbPoint
 10
57.34836971992945
 20
56.2077788249502
 30
0.0
  0
POINT
  5
4EC
330
37
100
AcDbEntity
  8
DEFPOINTS
  6
ByBlock
 62
     0
440
 16777216
100
AcDbPoint
 10
59.37894307610662
 20
56.2077788249502
 30
0.0
  0
POINT
  5
4ED
330
37
100
AcDbEntity
  8
DEFPOINTS
  6
ByBlock
 62
     0
440
 16777216
100
AcDbPoint
 10
59.37894307610662
 20
54.8327788249502
 30
0.0
  0
ENDBLK
  5
4EE
330
37
100
AcDbEntity
  8
0
100
AcDbBlockEnd
  0
BLOCK
  5
4EF
330
38
100
AcDbEntity
  8
0
100
AcDbBlockBegin
  2
*D16
 70
     1
 10
0.0
 20
0.0
 30
0.0
  3
*D16
  1

  0
LINE
  5
4F0
330
38
100
AcDbEntity
  8
0
  6
ByBlock
 62
     0
440
 16777216
100
AcDbLine
 10
60.00460066118384
 20
56.2077788249502
 30
0.0
 11
62.01917782399722
 21
56.2077788249502
 31
0.0
  0
LINE
  5
4F1
330
38
100
AcDbEntity
  8
0
  6
ByBlock
 62
     0
440
 16777216
100
AcDbLine
 10
60.21492508202804
 20
58.8277788249502
 30
0.0
 11
62.01917782399722
 21
58.8277788249502
 31
0.0
  0
LINE
  5
4F2
330
38
100
AcDbEntity
  8
0
  6
ByBlock
 62
     0
440
 16777216
100
AcDbLine
 10
61.92617782399722
 20
56.3947788249502
 30
0.0
 11
61.92617782399722
 21
57.23727882495021
 31
0.0
  0
LINE
  5
4F3
330
38
100
AcDbEntity
  8
0
  6
ByBlock
 62
     0
440
 16777216
100
AcDbLine
 10
61.92617782399722
 20
58.64077882495021
 30
0.0
 11
61.92617782399722
 21
57.7982788249502
 31
0.0
  0
SOLID
  5
4F4
330
38
100
AcDbEntity
  8
0
  6
ByBlock
 62
     0
440
 16777216
100
AcDbTrace
 10
61.89501115733055
 20
56.3947788249502
 30
0.0
 11
61.95734449066389
 21
56.3947788249502
 31
0.0
 12
61.92617782399722
 22
56.2077788249502
 32
0.0
 13
61.92617782399722
 23
56.2077788249502
 33
0.0
  0
SOLID
  5
4F5
330
38
100
AcDbEntity
  8
0
  6
ByBlock
 62
     0
440
 16777216
100
AcDbTrace
 10
61.89501115733055
 20
58.64077882495021
 30
0.0
 11
61.95734449066389
 21
58.64077882495021
 31
0.0
 12
61.92617782399722
 22
58.8277788249502
 32
0.0
 13
61.92617782399722
 23
58.8277788249502
 33
0.0
  0
TEXT
  5
4F6
330
38
100
AcDbEntity
  8
0
  6
ByBlock
 62
     0
440
 16777216
100
AcDbText
 10
61.48984449066389
 20
57.42427882495021
 30
0.0
 40
0.187
  1
2 5/8
 72
     1
 11
61.92617782399722
 21
57.5177788249502
 31
0.0
100
AcDbText
 73
     2
  0
POINT
  5
4F7
330
38
100
AcDbEntity
  8
DEFPOINTS
  6
ByBlock
 62
     0
440
 16777216
100
AcDbPoint
 10
59.81760066118384
 20
56.2077788249502
 30
0.0
  0
POINT
  5
4F8
330
38
100
AcDbEntity
  8
DEFPOINTS
  6
ByBlock
 62
     0
440
 16777216
100
AcDbPoint
 10
60.02792508202804
 20
58.8277788249502
 30
0.0
  0
POINT
  5
4F9
330
38
100
AcDbEntity
  8
DEFPOINTS
  6
ByBlock
 62
     0
440
 16777216
100
AcDbPoint
 10
61.92617782399722
 20
58.8277788249502
 30
0.0
  0
ENDBLK
  5
4FA
330
38
100
AcDbEntity
  8
0
100
AcDbBlockEnd
  0
BLOCK
  5
4FB
330
39
100
AcDbEntity
  8
0
100
AcDbBlockBegin
  2
*D17
 70
     1
 10
0.0
 20
0.0
 30
0.0
  3
*D17
  1

  0
LINE
  5
4FC
330
39
100
AcDbEntity
  8
0
  6
ByBlock
 62
     0
440
 16777216
100
AcDbLine
 10
57.30263744981752
 20
59.01477882495019
 30
0.0
 11
57.30263744981752
 21
60.54577882495021
 31
0.0
  0
LINE
  5
4FD
330
39
100
AcDbEntity
  8
0
  6
ByBlock
 62
     0
440
 16777216
100
AcDbLine
 10
59.42467534621855
 20
59.0147788249502
 30
0.0
 11
59.42467534621855
 21
60.54577882495021
 31
0.0
  0
LINE
  5
4FE
330
39
100
AcDbEntity
  8
0
  6
ByBlock
 62
     0
440
 16777216
100
AcDbLine
 10
57.48963744981752
 20
60.4527788249502
 30
0.0
 11
57.83903973135139
 21
60.4527788249502
 31
0.0
  0
LINE
  5
4FF
330
39
100
AcDbEntity
  8
0
  6
ByBlock
 62
     0
440
 16777216
100
AcDbLine
 10
59.23767534621855
 20
60.4527788249502
 30
0.0
 11
59.02337306468471
 21
60.4527788249502
 31
0.0
  0
SOLID
  5
500
330
39
100
AcDbEntity
  8
0
  6
ByBlock
 62
     0
440
 16777216
100
AcDbTrace
 10
57.48963744981752
 20
60.48394549161686
 30
0.0
 11
57.48963744981752
 21
60.42161215828354
 31
0.0
 12
57.30263744981752
 22
60.4527788249502
 32
0.0
 13
57.30263744981752
 23
60.4527788249502
 33
0.0
  0
SOLID
  5
501
330
39
100
AcDbEntity
  8
0
  6
ByBlock
 62
     0
440
 16777216
100
AcDbTrace
 10
59.23767534621855
 20
60.48394549161686
 30
0.0
 11
59.23767534621855
 21
60.42161215828354
 31
0.0
 12
59.42467534621855
 22
60.4527788249502
 32
0.0
 13
59.42467534621855
 23
60.4527788249502
 33
0.0
  0
TEXT
  5
502
330
39
100
AcDbEntity
  8
0
  6
ByBlock
 62
     0
440
 16777216
100
AcDbText
 10
58.02603973135138
 20
60.3592788249502
 30
0.0
 40
0.187
  1
2 1/8
 72
     1
 11
58.43120639801804
 21
60.4527788249502
 31
0.0
100
AcDbText
 73
     2
  0
POINT
  5
503
330
39
100
AcDbEntity
  8
DEFPOINTS
  6
ByBlock
 62
     0
440
 16777216
100
AcDbPoint
 10
57.30263744981752
 20
58.8277788249502
 30
0.0
  0
POINT
  5
504
330
39
100
AcDbEntity
  8
DEFPOINTS
  6
ByBlock
 62
     0
440
 16777216
100
AcDbPoint
 10
59.42467534621855
 20
58.8277788249502
 30
0.0
  0
POINT
  5
505
330
39
100
AcDbEntity
  8
DEFPOINTS
  6
ByBlock
 62
     0
440
 16777216
100
AcDbPoint
 10
59.42467534621855
 20
60.4527788249502
 30
0.0
  0
ENDBLK
  5
506
330
39
100
AcDbEntity
  8
0
100
AcDbBlockEnd
  0
BLOCK
  5
507
330
3A
100
AcDbEntity
  8
0
100
AcDbBlockBegin
  2
*D18
 70
     1
 10
0.0
 20
0.0
 30
0.0
  3
*D18
  1

  0
LINE
  5
508
330
3A
100
AcDbEntity
  8
0
  6
ByBlock
 62
     0
440
 16777216
100
AcDbLine
 10
56.80256128579558
 20
59.0147788249502
 30
0.0
 11
56.80256128579558
 21
61.50195931099755
 31
0.0
  0
LINE
  5
509
330
3A
100
AcDbEntity
  8
0
  6
ByBlock
 62
     0
440
 16777216
100
AcDbLine
 10
59.92475151024048
 20
59.0147788249502
 30
0.0
 11
59.92475151024048
 21
61.50195931099755
 31
0.0
  0
LINE
  5
50A
330
3A
100
AcDbEntity
  8
0
  6
ByBlock
 62
     0
440
 16777216
100
AcDbLine
 10
56.98956128579558
 20
61.40895931099755
 30
0.0
 11
57.83903973135137
 21
61.40895931099755
 31
0.0
  0
LINE
  5
50B
330
3A
100
AcDbEntity
  8
0
  6
ByBlock
 62
     0
440
 16777216
100
AcDbLine
 10
59.73775151024048
 20
61.40895931099755
 30
0.0
 11
59.0233730646847
 21
61.40895931099755
 31
0.0
  0
SOLID
  5
50C
330
3A
100
AcDbEntity
  8
0
  6
ByBlock
 62
     0
440
 16777216
100
AcDbTrace
 10
56.98956128579558
 20
61.44012597766421
 30
0.0
 11
56.98956128579558
 21
61.37779264433088
 31
0.0
 12
56.80256128579558
 22
61.40895931099755
 32
0.0
 13
56.80256128579558
 23
61.40895931099755
 33
0.0
  0
SOLID
  5
50D
330
3A
100
AcDbEntity
  8
0
  6
ByBlock
 62
     0
440
 16777216
100
AcDbTrace
 10
59.73775151024048
 20
61.44012597766421
 30
0.0
 11
59.73775151024048
 21
61.37779264433088
 31
0.0
 12
59.92475151024048
 22
61.40895931099755
 32
0.0
 13
59.92475151024048
 23
61.40895931099755
 33
0.0
  0
TEXT
  5
50E
330
3A
100
AcDbEntity
  8
0
  6
ByBlock
 62
     0
440
 16777216
100
AcDbText
 10
58.02603973135136
 20
61.31545931099755
 30
0.0
 40
0.187
  1
3 1/8
 72
     1
 11
58.43120639801803
 21
61.40895931099755
 31
0.0
100
AcDbText
 73
     2
  0
POINT
  5
50F
330
3A
100
AcDbEntity
  8
DEFPOINTS
  6
ByBlock
 62
     0
440
 16777216
100
AcDbPoint
 10
56.80256128579558
 20
58.8277788249502
 30
0.0
  0
POINT
  5
510
330
3A
100
AcDbEntity
  8
DEFPOINTS
  6
ByBlock
 62
     0
440
 16777216
100
AcDbPoint
 10
59.92475151024048
 20
58.8277788249502
 30
0.0
  0
POINT
  5
511
330
3A
100
AcDbEntity
  8
DEFPOINTS
  6
ByBlock
 62
     0
440
 16777216
100
AcDbPoint
 10
59.92475151024048
 20
61.40895931099755
 30
0.0
  0
ENDBLK
  5
512
330
3A
100
AcDbEntity
  8
0
100
AcDbBlockEnd
  0
BLOCK
  5
513
330
3B
100
AcDbEntity
  8
0
100
AcDbBlockBegin
  2
*D19
 70
     1
 10
0.0
 20
0.0
 30
0.0
  3
*D19
  1

  0
LINE
  5
514
330
3B
100
AcDbEntity
  8
0
  6
ByBlock
 62
     0
440
 16777216
100
AcDbLine
 10
56.98865639801803
 20
55.8957788249502
 30
0.0
 11
56.98865639801803
 21
53.4897788249502
 31
0.0
  0
LINE
  5
515
330
3B
100
AcDbEntity
  8
0
  6
ByBlock
 62
     0
440
 16777216
100
AcDbLine
 10
59.73865639801802
 20
55.8957788249502
 30
0.0
 11
59.73865639801802
 21
53.4897788249502
 31
0.0
  0
LINE
  5
516
330
3B
100
AcDbEntity
  8
0
  6
ByBlock
 62
     0
440
 16777216
100
AcDbLine
 10
57.17565639801803
 20
53.5827788249502
 30
0.0
 11
57.9270132099783
 21
53.5827788249502
 31
0.0
  0
LINE
  5
517
330
3B
100
AcDbEntity
  8
0
  6
ByBlock
 62
     0
440
 16777216
100
AcDbLine
 10
59.55165639801802
 20
53.5827788249502
 30
0.0
 11
59.17367987664497
 21
53.5827788249502
 31
0.0
  0
SOLID
  5
518
330
3B
100
AcDbEntity
  8
0
  6
ByBlock
 62
     0
440
 16777216
100
AcDbTrace
 10
57.17565639801803
 20
53.61394549161687
 30
0.0
 11
57.17565639801803
 21
53.55161215828354
 31
0.0
 12
56.98865639801803
 22
53.5827788249502
 32
0.0
 13
56.98865639801803
 23
53.5827788249502
 33
0.0
  0
SOLID
  5
519
330
3B
100
AcDbEntity
  8
0
  6
ByBlock
 62
     0
440
 16777216
100
AcDbTrace
 10
59.55165639801802
 20
53.61394549161687
 30
0.0
 11
59.55165639801802
 21
53.55161215828354
 31
0.0
 12
59.73865639801802
 22
53.5827788249502
 32
0.0
 13
59.73865639801802
 23
53.5827788249502
 33
0.0
  0
TEXT
  5
51A
330
3B
100
AcDbEntity
  8
0
  6
ByBlock
 62
     0
440
 16777216
100
AcDbText
 10
58.11401320997831
 20
53.4892788249502
 30
0.0
 40
0.187
  1
2 3/4
 72
     1
 11
58.55034654331164
 21
53.5827788249502
 31
0.0
100
AcDbText
 73
     2
  0
POINT
  5
51B
330
3B
100
AcDbEntity
  8
DEFPOINTS
  6
ByBlock
 62
     0
440
 16777216
100
AcDbPoint
 10
56.98865639801803
 20
56.0827788249502
 30
0.0
  0
POINT
  5
51C
330
3B
100
AcDbEntity
  8
DEFPOINTS
  6
ByBlock
 62
     0
440
 16777216
100
AcDbPoint
 10
59.73865639801802
 20
56.0827788249502
 30
0.0
  0
POINT
  5
51D
330
3B
100
AcDbEntity
  8
DEFPOINTS
  6
ByBlock
 62
     0
440
 16777216
100
AcDbPoint
 10
59.73865639801802
 20
53.5827788249502
 30
0.0
  0
ENDBLK
  5
51E
330
3B
100
AcDbEntity
  8
0
100
AcDbBlockEnd
  0
BLOCK
  5
51F
330
3C
100
AcDbEntity
  8
0
100
AcDbBlockBegin
  2
*D20
 70
     1
 10
0.0
 20
0.0
 30
0.0
  3
*D20
  1

  0
LINE
  5
520
330
3C
100
AcDbEntity
  8
0
  6
ByBlock
 62
     0
440
 16777216
100
AcDbLine
 10
60.04455433636673
 20
69.0971931203212
 30
0.0
 11
65.38724463657473
 21
69.0971931203212
 31
0.0
  0
LINE
  5
521
330
3C
100
AcDbEntity
  8
0
  6
ByBlock
 62
     0
440
 16777216
100
AcDbLine
 10
60.04455433636671
 20
65.96802363209505
 30
0.0
 11
65.38724463657473
 21
65.96802363209505
 31
0.0
  0
LINE
  5
522
330
3C
100
AcDbEntity
  8
0
  6
ByBlock
 62
     0
440
 16777216
100
AcDbLine
 10
65.29424463657473
 20
68.91019312032121
 30
0.0
 11
65.29424463657473
 21
67.97458402599926
 31
0.0
  0
LINE
  5
523
330
3C
100
AcDbEntity
  8
0
  6
ByBlock
 62
     0
440
 16777216
100
AcDbLine
 10
65.29424463657473
 20
66.15502363209505
 30
0.0
 11
65.29424463657473
 21
67.41358402599925
 31
0.0
  0
SOLID
  5
524
330
3C
100
AcDbEntity
  8
0
  6
ByBlock
 62
     0
440
 16777216
100
AcDbTrace
 10
65.26307796990806
 20
68.91019312032121
 30
0.0
 11
65.3254113032414
 21
68.91019312032121
 31
0.0
 12
65.29424463657473
 22
69.0971931203212
 32
0.0
 13
65.29424463657473
 23
69.0971931203212
 33
0.0
  0
SOLID
  5
525
330
3C
100
AcDbEntity
  8
0
  6
ByBlock
 62
     0
440
 16777216
100
AcDbTrace
 10
65.26307796990806
 20
66.15502363209505
 30
0.0
 11
65.3254113032414
 21
66.15502363209505
 31
0.0
 12
65.29424463657473
 22
65.96802363209505
 32
0.0
 13
65.29424463657473
 23
65.96802363209505
 33
0.0
  0
TEXT
  5
526
330
3C
100
AcDbEntity
  8
0
  6
ByBlock
 62
     0
440
 16777216
100
AcDbText
 10
64.88907796990805
 20
67.60058402599925
 30
0.0
 40
0.187
  1
3 1/8
 72
     1
 11
65.29424463657473
 21
67.69408402599926
 31
0.0
100
AcDbText
 73
     2
  0
POINT
  5
527
330
3C
100
AcDbEntity
  8
DEFPOINTS
  6
ByBlock
 62
     0
440
 16777216
100
AcDbPoint
 10
59.85755433636673
 20
69.0971931203212
 30
0.0
  0
POINT
  5
528
330
3C
100
AcDbEntity
  8
DEFPOINTS
  6
ByBlock
 62
     0
440
 16777216
100
AcDbPoint
 10
59.85755433636672
 20
65.96802363209505
 30
0.0
  0
POINT
  5
529
330
3C
100
AcDbEntity
  8
DEFPOINTS
  6
ByBlock
 62
     0
440
 16777216
100
AcDbPoint
 10
65.29424463657473
 20
65.96802363209505
 30
0.0
  0
ENDBLK
  5
52A
330
3C
100
AcDbEntity
  8
0
100
AcDbBlockEnd
  0
BLOCK
  5
52B
330
3D
100
AcDbEntity
  8
0
100
AcDbBlockBegin
  2
*D21
 70
     1
 10
0.0
 20
0.0
 30
0.0
  3
*D21
  1

  0
LINE
  5
52C
330
3D
100
AcDbEntity
  8
0
  6
ByBlock
 62
     0
440
 16777216
100
AcDbLine
 10
60.10596356096439
 20
66.73607016954076
 30
0.0
 11
61.88724463657473
 21
66.73607016954076
 31
0.0
  0
LINE
  5
52D
330
3D
100
AcDbEntity
  8
0
  6
ByBlock
 62
     0
440
 16777216
100
AcDbLine
 10
60.10596356096439
 20
68.32914658287548
 30
0.0
 11
61.88724463657473
 21
68.32914658287548
 31
0.0
  0
LINE
  5
52E
330
3D
100
AcDbEntity
  8
0
  6
ByBlock
 62
     0
440
 16777216
100
AcDbLine
 10
61.79424463657473
 20
66.92307016954076
 30
0.0
 11
61.79424463657473
 21
67.31005837620813
 31
0.0
  0
LINE
  5
52F
330
3D
100
AcDbEntity
  8
0
  6
ByBlock
 62
     0
440
 16777216
100
AcDbLine
 10
61.79424463657473
 20
68.14214658287548
 30
0.0
 11
61.79424463657473
 21
67.87105837620813
 31
0.0
  0
SOLID
  5
530
330
3D
100
AcDbEntity
  8
0
  6
ByBlock
 62
     0
440
 16777216
100
AcDbTrace
 10
61.76307796990807
 20
66.92307016954076
 30
0.0
 11
61.82541130324139
 21
66.92307016954076
 31
0.0
 12
61.79424463657473
 22
66.73607016954076
 32
0.0
 13
61.79424463657473
 23
66.73607016954076
 33
0.0
  0
SOLID
  5
531
330
3D
100
AcDbEntity
  8
0
  6
ByBlock
 62
     0
440
 16777216
100
AcDbTrace
 10
61.76307796990807
 20
68.14214658287548
 30
0.0
 11
61.82541130324139
 21
68.14214658287548
 31
0.0
 12
61.79424463657473
 22
68.32914658287548
 32
0.0
 13
61.79424463657473
 23
68.32914658287548
 33
0.0
  0
TEXT
  5
532
330
3D
100
AcDbEntity
  8
0
  6
ByBlock
 62
     0
440
 16777216
100
AcDbText
 10
61.23324463657473
 20
67.49705837620813
 30
0.0
 40
0.187
  1
1 19/32
 72
     1
 11
61.79424463657473
 21
67.59055837620813
 31
0.0
100
AcDbText
 73
     2
  0
POINT
  5
533
330
3D
100
AcDbEntity
  8
DEFPOINTS
  6
ByBlock
 62
     0
440
 16777216
100
AcDbPoint
 10
59.9189635609644
 20
66.73607016954076
 30
0.0
  0
POINT
  5
534
330
3D
100
AcDbEntity
  8
DEFPOINTS
  6
ByBlock
 62
     0
440
 16777216
100
AcDbPoint
 10
59.9189635609644
 20
68.32914658287548
 30
0.0
  0
POINT
  5
535
330
3D
100
AcDbEntity
  8
DEFPOINTS
  6
ByBlock
 62
     0
440
 16777216
100
AcDbPoint
 10
61.79424463657473
 20
68.32914658287548
 30
0.0
  0
ENDBLK
  5
536
330
3D
100
AcDbEntity
  8
0
100
AcDbBlockEnd
  0
BLOCK
  5
537
330
3E
100
AcDbEntity
  8
0
100
AcDbBlockBegin
  2
*D22
 70
     1
 10
0.0
 20
0.0
 30
0.0
  3
*D22
  1

  0
LINE
  5
538
330
3E
100
AcDbEntity
  8
0
  6
ByBlock
 62
     0
440
 16777216
100
AcDbLine
 10
57.1119635609644
 20
66.69033789942884
 30
0.0
 11
55.06596356096441
 21
66.69033789942884
 31
0.0
  0
LINE
  5
539
330
3E
100
AcDbEntity
  8
0
  6
ByBlock
 62
     0
440
 16777216
100
AcDbLine
 10
57.1119635609644
 20
68.37487885298742
 30
0.0
 11
55.06596356096441
 21
68.37487885298742
 31
0.0
  0
LINE
  5
53A
330
3E
100
AcDbEntity
  8
0
  6
ByBlock
 62
     0
440
 16777216
100
AcDbLine
 10
55.1589635609644
 20
66.87733789942884
 30
0.0
 11
55.1589635609644
 21
67.31005837620813
 31
0.0
  0
LINE
  5
53B
330
3E
100
AcDbEntity
  8
0
  6
ByBlock
 62
     0
440
 16777216
100
AcDbLine
 10
55.1589635609644
 20
68.18787885298743
 30
0.0
 11
55.1589635609644
 21
67.87105837620813
 31
0.0
  0
SOLID
  5
53C
330
3E
100
AcDbEntity
  8
0
  6
ByBlock
 62
     0
440
 16777216
100
AcDbTrace
 10
55.12779689429773
 20
66.87733789942884
 30
0.0
 11
55.19013022763107
 21
66.87733789942884
 31
0.0
 12
55.1589635609644
 22
66.69033789942884
 32
0.0
 13
55.1589635609644
 23
66.69033789942884
 33
0.0
  0
SOLID
  5
53D
330
3E
100
AcDbEntity
  8
0
  6
ByBlock
 62
     0
440
 16777216
100
AcDbTrace
 10
55.12779689429773
 20
68.18787885298743
 30
0.0
 11
55.19013022763107
 21
68.18787885298743
 31
0.0
 12
55.1589635609644
 22
68.37487885298742
 32
0.0
 13
55.1589635609644
 23
68.37487885298742
 33
0.0
  0
TEXT
  5
53E
330
3E
100
AcDbEntity
  8
0
  6
ByBlock
 62
     0
440
 16777216
100
AcDbText
 10
54.66029689429774
 20
67.49705837620813
 30
0.0
 40
0.187
  1
1 11/16
 72
     1
 11
55.1589635609644
 21
67.59055837620813
 31
0.0
100
AcDbText
 73
     2
  0
POINT
  5
53F
330
3E
100
AcDbEntity
  8
DEFPOINTS
  6
ByBlock
 62
     0
440
 16777216
100
AcDbPoint
 10
57.2989635609644
 20
66.69033789942884
 30
0.0
  0
POINT
  5
540
330
3E
100
AcDbEntity
  8
DEFPOINTS
  6
ByBlock
 62
     0
440
 16777216
100
AcDbPoint
 10
57.2989635609644
 20
68.37487885298742
 30
0.0
  0
POINT
  5
541
330
3E
100
AcDbEntity
  8
DEFPOINTS
  6
ByBlock
 62
     0
440
 16777216
100
AcDbPoint
 10
55.1589635609644
 20
68.37487885298742
 30
0.0
  0
ENDBLK
  5
542
330
3E
100
AcDbEntity
  8
0
100
AcDbBlockEnd
  0
BLOCK
  5
543
330
3F
100
AcDbEntity
  8
0
100
AcDbBlockBegin
  2
*D23
 70
     1
 10
0.0
 20
0.0
 30
0.0
  3
*D23
  1

  0
LINE
  5
544
330
3F
100
AcDbEntity
  8
0
  6
ByBlock
 62
     0
440
 16777216
100
AcDbLine
 10
57.1119635609644
 20
65.92336326398566
 30
0.0
 11
53.3159635609644
 21
65.92336326398566
 31
0.0
  0
LINE
  5
545
330
3F
100
AcDbEntity
  8
0
  6
ByBlock
 62
     0
440
 16777216
100
AcDbLine
 10
57.1119635609644
 20
69.1418534884306
 30
0.0
 11
53.3159635609644
 21
69.1418534884306
 31
0.0
  0
LINE
  5
546
330
3F
100
AcDbEntity
  8
0
  6
ByBlock
 62
     0
440
 16777216
100
AcDbLine
 10
53.4089635609644
 20
66.11036326398566
 30
0.0
 11
53.4089635609644
 21
67.31005837620812
 31
0.0
  0
LINE
  5
547
330
3F
100
AcDbEntity
  8
0
  6
ByBlock
 62
     0
440
 16777216
100
AcDbLine
 10
53.4089635609644
 20
68.9548534884306
 30
0.0
 11
53.4089635609644
 21
67.87105837620813
 31
0.0
  0
SOLID
  5
548
330
3F
100
AcDbEntity
  8
0
  6
ByBlock
 62
     0
440
 16777216
100
AcDbTrace
 10
53.37779689429773
 20
66.11036326398566
 30
0.0
 11
53.44013022763107
 21
66.11036326398566
 31
0.0
 12
53.4089635609644
 22
65.92336326398566
 32
0.0
 13
53.4089635609644
 23
65.92336326398566
 33
0.0
  0
SOLID
  5
549
330
3F
100
AcDbEntity
  8
0
  6
ByBlock
 62
     0
440
 16777216
100
AcDbTrace
 10
53.37779689429773
 20
68.9548534884306
 30
0.0
 11
53.44013022763107
 21
68.9548534884306
 31
0.0
 12
53.4089635609644
 22
69.1418534884306
 32
0.0
 13
53.4089635609644
 23
69.1418534884306
 33
0.0
  0
TEXT
  5
54A
330
3F
100
AcDbEntity
  8
0
  6
ByBlock
 62
     0
440
 16777216
100
AcDbText
 10
52.87913022763106
 20
67.49705837620813
 30
0.0
 40
0.187
  1
3 7/32
 72
     1
 11
53.4089635609644
 21
67.59055837620813
 31
0.0
100
AcDbText
 73
     2
  0
POINT
  5
54B
330
3F
100
AcDbEntity
  8
DEFPOINTS
  6
ByBlock
 62
     0
440
 16777216
100
AcDbPoint
 10
57.2989635609644
 20
65.92336326398566
 30
0.0
  0
POINT
  5
54C
330
3F
100
AcDbEntity
  8
DEFPOINTS
  6
ByBlock
 62
     0
440
 16777216
100
AcDbPoint
 10
57.2989635609644
 20
69.1418534884306
 30
0.0
  0
POINT
  5
54D
330
3F
100
AcDbEntity
  8
DEFPOINTS
  6
ByBlock
 62
     0
440
 16777216
100
AcDbPoint
 10
53.4089635609644
 20
69.1418534884306
 30
0.0
  0
ENDBLK
  5
54E
330
3F
100
AcDbEntity
  8
0
100
AcDbBlockEnd
  0
BLOCK
  5
54F
330
40
100
AcDbEntity
  8
0
100
AcDbBlockBegin
  2
*D24
 70
     1
 10
0.0
 20
0.0
 30
0.0
  3
*D24
  1

  0
LINE
  5
550
330
40
100
AcDbEntity
  8
0
  6
ByBlock
 62
     0
440
 16777216
100
AcDbLine
 10
60.2309635609644
 20
66.37635837620814
 30
0.0
 11
63.63724463657473
 21
66.37635837620814
 31
0.0
  0
LINE
  5
551
330
40
100
AcDbEntity
  8
0
  6
ByBlock
 62
     0
440
 16777216
100
AcDbLine
 10
60.2309635609644
 20
68.68885837620812
 30
0.0
 11
63.63724463657473
 21
68.68885837620812
 31
0.0
  0
LINE
  5
552
330
40
100
AcDbEntity
  8
0
  6
ByBlock
 62
     0
440
 16777216
100
AcDbLine
 10
63.54424463657473
 20
66.56335837620814
 30
0.0
 11
63.54424463657473
 21
67.31005837620813
 31
0.0
  0
LINE
  5
553
330
40
100
AcDbEntity
  8
0
  6
ByBlock
 62
     0
440
 16777216
100
AcDbLine
 10
63.54424463657473
 20
68.50185837620812
 30
0.0
 11
63.54424463657473
 21
67.87105837620813
 31
0.0
  0
SOLID
  5
554
330
40
100
AcDbEntity
  8
0
  6
ByBlock
 62
     0
440
 16777216
100
AcDbTrace
 10
63.51307796990806
 20
66.56335837620814
 30
0.0
 11
63.5754113032414
 21
66.56335837620814
 31
0.0
 12
63.54424463657473
 22
66.37635837620814
 32
0.0
 13
63.54424463657473
 23
66.37635837620814
 33
0.0
  0
SOLID
  5
555
330
40
100
AcDbEntity
  8
0
  6
ByBlock
 62
     0
440
 16777216
100
AcDbTrace
 10
63.51307796990806
 20
68.50185837620812
 30
0.0
 11
63.5754113032414
 21
68.50185837620812
 31
0.0
 12
63.54424463657473
 22
68.68885837620812
 32
0.0
 13
63.54424463657473
 23
68.68885837620812
 33
0.0
  0
TEXT
  5
556
330
40
100
AcDbEntity
  8
0
  6
ByBlock
 62
     0
440
 16777216
100
AcDbText
 10
63.04557796990806
 20
67.49705837620813
 30
0.0
 40
0.187
  1
2 5/16
 72
     1
 11
63.54424463657473
 21
67.59055837620813
 31
0.0
100
AcDbText
 73
     2
  0
POINT
  5
557
330
40
100
AcDbEntity
  8
DEFPOINTS
  6
ByBlock
 62
     0
440
 16777216
100
AcDbPoint
 10
60.0439635609644
 20
66.37635837620814
 30
0.0
  0
POINT
  5
558
330
40
100
AcDbEntity
  8
DEFPOINTS
  6
ByBlock
 62
     0
440
 16777216
100
AcDbPoint
 10
60.0439635609644
 20
68.68885837620812
 30
0.0
  0
POINT
  5
559
330
40
100
AcDbEntity
  8
DEFPOINTS
  6
ByBlock
 62
     0
440
 16777216
100
AcDbPoint
 10
63.54424463657473
 20
68.68885837620812
 30
0.0
  0
ENDBLK
  5
55A
330
40
100
AcDbEntity
  8
0
100
AcDbBlockEnd
  0
BLOCK
  5
55B
330
41
100
AcDbEntity
  8
0
100
AcDbBlockBegin
  2
*D25
 70
     1
 10
0.0
 20
0.0
 30
0.0
  3
*D25
  1

  0
LINE
  5
55C
330
41
100
AcDbEntity
  8
0
  6
ByBlock
 62
     0
440
 16777216
100
AcDbLine
 10
30.66883353519842
 20
56.0827788249502
 30
0.0
 11
32.6834106980118
 21
56.0827788249502
 31
0.0
  0
LINE
  5
55D
330
41
100
AcDbEntity
  8
0
  6
ByBlock
 62
     0
440
 16777216
100
AcDbLine
 10
30.95177731293372
 20
59.0302788249502
 30
0.0
 11
32.6834106980118
 21
59.0302788249502
 31
0.0
  0
LINE
  5
55E
330
41
100
AcDbEntity
  8
0
  6
ByBlock
 62
     0
440
 16777216
100
AcDbLine
 10
32.5904106980118
 20
56.2697788249502
 30
0.0
 11
32.5904106980118
 21
57.2760288249502
 31
0.0
  0
LINE
  5
55F
330
41
100
AcDbEntity
  8
0
  6
ByBlock
 62
     0
440
 16777216
100
AcDbLine
 10
32.5904106980118
 20
58.8432788249502
 30
0.0
 11
32.5904106980118
 21
57.8370288249502
 31
0.0
  0
SOLID
  5
560
330
41
100
AcDbEntity
  8
0
  6
ByBlock
 62
     0
440
 16777216
100
AcDbTrace
 10
32.55924403134513
 20
56.2697788249502
 30
0.0
 11
32.62157736467846
 21
56.2697788249502
 31
0.0
 12
32.5904106980118
 22
56.0827788249502
 32
0.0
 13
32.5904106980118
 23
56.0827788249502
 33
0.0
  0
SOLID
  5
561
330
41
100
AcDbEntity
  8
0
  6
ByBlock
 62
     0
440
 16777216
100
AcDbTrace
 10
32.55924403134513
 20
58.8432788249502
 30
0.0
 11
32.62157736467846
 21
58.8432788249502
 31
0.0
 12
32.5904106980118
 22
59.0302788249502
 32
0.0
 13
32.5904106980118
 23
59.0302788249502
 33
0.0
  0
TEXT
  5
562
330
41
100
AcDbEntity
  8
0
  6
ByBlock
 62
     0
440
 16777216
100
AcDbText
 10
32.02941069801179
 20
57.46302882495021
 30
0.0
 40
0.187
  1
2 15/16
 72
     1
 11
32.5904106980118
 21
57.5565288249502
 31
0.0
100
AcDbText
 73
     2
  0
POINT
  5
563
330
41
100
AcDbEntity
  8
DEFPOINTS
  6
ByBlock
 62
     0
440
 16777216
100
AcDbPoint
 10
30.48183353519841
 20
56.0827788249502
 30
0.0
  0
POINT
  5
564
330
41
100
AcDbEntity
  8
DEFPOINTS
  6
ByBlock
 62
     0
440
 16777216
100
AcDbPoint
 10
30.76477731293372
 20
59.0302788249502
 30
0.0
  0
POINT
  5
565
330
41
100
AcDbEntity
  8
DEFPOINTS
  6
ByBlock
 62
     0
440
 16777216
100
AcDbPoint
 10
32.5904106980118
 20
59.0302788249502
 30
0.0
  0
ENDBLK
  5
566
330
41
100
AcDbEntity
  8
0
100
AcDbBlockEnd
  0
BLOCK
  5
567
330
45
100
AcDbEntity
  8
0
100
AcDbBlockBegin
  2
*D26
 70
     1
 10
0.0
 20
0.0
 30
0.0
  3
*D26
  1

  0
LINE
  5
568
330
45
100
AcDbEntity
  8
0
  6
ByBlock
 62
     0
440
 16777216
100
AcDbLine
 10
14.30300391792573
 20
25.59403393437571
 30
0.0
 11
11.893582604298
 21
25.59403393437571
 31
0.0
  0
LINE
  5
569
330
45
100
AcDbEntity
  8
0
  6
ByBlock
 62
     0
440
 16777216
100
AcDbLine
 10
14.30300391792572
 20
29.31537678633409
 30
0.0
 11
11.893582604298
 21
29.31537678633409
 31
0.0
  0
LINE
  5
56A
330
45
100
AcDbEntity
  8
0
  6
ByBlock
 62
     0
440
 16777216
100
AcDbLine
 10
11.986582604298
 20
25.78103393437571
 30
0.0
 11
11.986582604298
 21
27.2284648267396
 31
0.0
  0
LINE
  5
56B
330
45
100
AcDbEntity
  8
0
  6
ByBlock
 62
     0
440
 16777216
100
AcDbLine
 10
11.986582604298
 20
29.12837678633409
 30
0.0
 11
11.986582604298
 21
27.78946482673959
 31
0.0
  0
SOLID
  5
56C
330
45
100
AcDbEntity
  8
0
  6
ByBlock
 62
     0
440
 16777216
100
AcDbTrace
 10
11.95541593763133
 20
25.78103393437571
 30
0.0
 11
12.01774927096467
 21
25.78103393437571
 31
0.0
 12
11.986582604298
 22
25.59403393437571
 32
0.0
 13
11.986582604298
 23
25.59403393437571
 33
0.0
  0
SOLID
  5
56D
330
45
100
AcDbEntity
  8
0
  6
ByBlock
 62
     0
440
 16777216
100
AcDbTrace
 10
11.95541593763133
 20
29.12837678633409
 30
0.0
 11
12.01774927096467
 21
29.12837678633409
 31
0.0
 12
11.986582604298
 22
29.31537678633409
 32
0.0
 13
11.986582604298
 23
29.31537678633409
 33
0.0
  0
TEXT
  5
56E
330
45
100
AcDbEntity
  8
0
  6
ByBlock
 62
     0
440
 16777216
100
AcDbText
 10
11.36324927096469
 20
27.41546482673959
 30
0.0
 40
0.187
  1
3 23/32
 72
     1
 11
11.98658260429802
 21
27.50896482673959
 31
0.0
100
AcDbText
 73
     2
  0
POINT
  5
56F
330
45
100
AcDbEntity
  8
DEFPOINTS
  6
ByBlock
 62
     0
440
 16777216
100
AcDbPoint
 10
14.49000391792573
 20
25.59403393437571
 30
0.0
  0
POINT
  5
570
330
45
100
AcDbEntity
  8
DEFPOINTS
  6
ByBlock
 62
     0
440
 16777216
100
AcDbPoint
 10
14.49000391792572
 20
29.31537678633409
 30
0.0
  0
POINT
  5
571
330
45
100
AcDbEntity
  8
DEFPOINTS
  6
ByBlock
 62
     0
440
 16777216
100
AcDbPoint
 10
11.986582604298
 20
29.31537678633409
 30
0.0
  0
ENDBLK
  5
572
330
45
100
AcDbEntity
  8
0
100
AcDbBlockEnd
  0
BLOCK
  5
573
330
46
100
AcDbEntity
  8
0
100
AcDbBlockBegin
  2
*D27
 70
     1
 10
0.0
 20
0.0
 30
0.0
  3
*D27
  1

  0
LINE
  5
574
330
46
100
AcDbEntity
  8
0
  6
ByBlock
 62
     0
440
 16777216
100
AcDbLine
 10
45.03189690771487
 20
16.98287458494156
 30
0.0
 11
44.96831253444687
 21
16.98287458494156
 31
0.0
  0
LINE
  5
575
330
46
100
AcDbEntity
  8
0
  6
ByBlock
 62
     0
440
 16777216
100
AcDbLine
 10
45.05622493990045
 20
17.10787458494156
 30
0.0
 11
44.96831253444687
 21
17.10787458494156
 31
0.0
  0
LINE
  5
576
330
46
100
AcDbEntity
  8
0
  6
ByBlock
 62
     0
440
 16777216
100
AcDbLine
 10
44.87531253444687
 20
16.79587458494156
 30
0.0
 11
44.87531253444687
 21
16.60887458494157
 31
0.0
  0
LINE
  5
577
330
46
100
AcDbEntity
  8
0
  6
ByBlock
 62
     0
440
 16777216
100
AcDbLine
 10
44.87531253444687
 20
17.29487458494157
 30
0.0
 11
44.87531253444687
 21
17.48187458494156
 31
0.0
  0
LINE
  5
578
330
46
100
AcDbEntity
  8
0
  6
ByBlock
 62
     0
440
 16777216
100
AcDbLine
 10
44.87531253444687
 20
17.48187458494156
 30
0.0
 11
45.06231253444687
 21
17.48187458494156
 31
0.0
  0
SOLID
  5
579
330
46
100
AcDbEntity
  8
0
  6
ByBlock
 62
     0
440
 16777216
100
AcDbTrace
 10
44.8441458677802
 20
16.79587458494156
 30
0.0
 11
44.90647920111353
 21
16.79587458494156
 31
0.0
 12
44.87531253444687
 22
16.98287458494156
 32
0.0
 13
44.87531253444687
 23
16.98287458494156
 33
0.0
  0
SOLID
  5
57A
330
46
100
AcDbEntity
  8
0
  6
ByBlock
 62
     0
440
 16777216
100
AcDbTrace
 10
44.8441458677802
 20
17.29487458494157
 30
0.0
 11
44.90647920111353
 21
17.29487458494157
 31
0.0
 12
44.87531253444687
 22
17.10787458494156
 32
0.0
 13
44.87531253444687
 23
17.10787458494156
 33
0.0
  0
TEXT
  5
57B
330
46
100
AcDbEntity
  8
0
  6
ByBlock
 62
     0
440
 16777216
100
AcDbText
 10
45.24931253444687
 20
17.38837458494156
 30
0.0
 40
0.187
  1
0.125
 72
     1
 11
45.57656253444687
 21
17.48187458494156
 31
0.0
100
AcDbText
 73
     2
  0
POINT
  5
57C
330
46
100
AcDbEntity
  8
DEFPOINTS
  6
ByBlock
 62
     0
440
 16777216
100
AcDbPoint
 10
44.84489690771487
 20
16.98287458494156
 30
0.0
  0
POINT
  5
57D
330
46
100
AcDbEntity
  8
DEFPOINTS
  6
ByBlock
 62
     0
440
 16777216
100
AcDbPoint
 10
44.86922493990046
 20
17.10787458494156
 30
0.0
  0
POINT
  5
57E
330
46
100
AcDbEntity
  8
DEFPOINTS
  6
ByBlock
 62
     0
440
 16777216
100
AcDbPoint
 10
44.87531253444687
 20
17.10787458494156
 30
0.0
  0
ENDBLK
  5
57F
330
46
100
AcDbEntity
  8
0
100
AcDbBlockEnd
  0
BLOCK
  5
580
330
47
100
AcDbEntity
  8
0
100
AcDbBlockBegin
  2
*D28
 70
     1
 10
0.0
 20
0.0
 30
0.0
  3
*D28
  1

  0
LINE
  5
581
330
47
100
AcDbEntity
  8
0
  6
ByBlock
 62
     0
440
 16777216
100
AcDbLine
 10
43.95282394861562
 20
14.28537458494156
 30
0.0
 11
43.13525295397112
 21
14.28537458494156
 31
0.0
  0
LINE
  5
582
330
47
100
AcDbEntity
  8
0
  6
ByBlock
 62
     0
440
 16777216
100
AcDbLine
 10
43.89140536967088
 20
14.16037458494157
 30
0.0
 11
43.13525295397112
 21
14.16037458494157
 31
0.0
  0
LINE
  5
583
330
47
100
AcDbEntity
  8
0
  6
ByBlock
 62
     0
440
 16777216
100
AcDbLine
 10
43.22825295397112
 20
14.47237458494156
 30
0.0
 11
43.22825295397112
 21
14.65937458494156
 31
0.0
  0
LINE
  5
584
330
47
100
AcDbEntity
  8
0
  6
ByBlock
 62
     0
440
 16777216
100
AcDbLine
 10
43.22825295397112
 20
13.97337458494157
 30
0.0
 11
43.22825295397112
 21
13.78637458494156
 31
0.0
  0
LINE
  5
585
330
47
100
AcDbEntity
  8
0
  6
ByBlock
 62
     0
440
 16777216
100
AcDbLine
 10
43.22825295397112
 20
13.78637458494156
 30
0.0
 11
43.04125295397112
 21
13.78637458494156
 31
0.0
  0
SOLID
  5
586
330
47
100
AcDbEntity
  8
0
  6
ByBlock
 62
     0
440
 16777216
100
AcDbTrace
 10
43.19708628730445
 20
14.47237458494156
 30
0.0
 11
43.25941962063779
 21
14.47237458494156
 31
0.0
 12
43.22825295397112
 22
14.28537458494156
 32
0.0
 13
43.22825295397112
 23
14.28537458494156
 33
0.0
  0
SOLID
  5
587
330
47
100
AcDbEntity
  8
0
  6
ByBlock
 62
     0
440
 16777216
100
AcDbTrace
 10
43.19708628730445
 20
13.97337458494157
 30
0.0
 11
43.25941962063779
 21
13.97337458494157
 31
0.0
 12
43.22825295397112
 22
14.16037458494157
 32
0.0
 13
43.22825295397112
 23
14.16037458494157
 33
0.0
  0
TEXT
  5
588
330
47
100
AcDbEntity
  8
0
  6
ByBlock
 62
     0
440
 16777216
100
AcDbText
 10
42.19975295397111
 20
13.69287458494157
 30
0.0
 40
0.187
  1
0.125
 72
     1
 11
42.52700295397112
 21
13.78637458494156
 31
0.0
100
AcDbText
 73
     2
  0
POINT
  5
589
330
47
100
AcDbEntity
  8
DEFPOINTS
  6
ByBlock
 62
     0
440
 16777216
100
AcDbPoint
 10
44.13982394861562
 20
14.28537458494156
 30
0.0
  0
POINT
  5
58A
330
47
100
AcDbEntity
  8
DEFPOINTS
  6
ByBlock
 62
     0
440
 16777216
100
AcDbPoint
 10
44.07840536967088
 20
14.16037458494157
 30
0.0
  0
POINT
  5
58B
330
47
100
AcDbEntity
  8
DEFPOINTS
  6
ByBlock
 62
     0
440
 16777216
100
AcDbPoint
 10
43.22825295397112
 20
14.16037458494157
 30
0.0
  0
ENDBLK
  5
58C
330
47
100
AcDbEntity
  8
0
100
AcDbBlockEnd
  0
BLOCK
  5
58D
330
48
100
AcDbEntity
  8
0
100
AcDbBlockBegin
  2
*D29
 70
     1
 10
0.0
 20
0.0
 30
0.0
  3
*D29
  1

  0
LINE
  5
58E
330
48
100
AcDbEntity
  8
0
  6
ByBlock
 62
     0
440
 16777216
100
AcDbLine
 10
12.64317656284852
 20
26.05821312149516
 30
0.0
 11
13.12296377816481
 21
25.62721796108837
 31
0.0
  0
LINE
  5
58F
330
48
100
AcDbEntity
  8
0
  6
ByBlock
 62
     0
440
 16777216
100
AcDbLine
 10
13.12296377816481
 20
25.62721796108837
 30
0.0
 11
13.30996377816481
 21
25.62721796108837
 31
0.0
  0
SOLID
  5
590
330
48
100
AcDbEntity
  8
0
  6
ByBlock
 62
     0
440
 16777216
100
AcDbTrace
 10
12.62234888613699
 20
26.03502758734321
 30
0.0
 11
12.66400423956005
 21
26.0813986556471
 31
0.0
 12
12.50406335793685
 22
26.18317918176435
 32
0.0
 13
12.50406335793685
 23
26.18317918176435
 33
0.0
  0
LINE
  5
591
330
48
100
AcDbEntity
  8
0
  6
ByBlock
 62
     0
440
 16777216
100
AcDbLine
 10
12.28573700581246
 20
26.29845536035492
 30
0.0
 11
12.46573700581246
 21
26.29845536035492
 31
0.0
  0
LINE
  5
592
330
48
100
AcDbEntity
  8
0
  6
ByBlock
 62
     0
440
 16777216
100
AcDbLine
 10
12.37573700581245
 20
26.20845536035492
 30
0.0
 11
12.37573700581245
 21
26.38845536035492
 31
0.0
  0
TEXT
  5
593
330
48
100
AcDbEntity
  8
0
  6
ByBlock
 62
     0
440
 16777216
100
AcDbText
 10
13.4969637781648
 20
25.53371796108838
 30
0.0
 40
0.187
  1
%%c0.345
 72
     1
 11
13.94888044483147
 21
25.62721796108837
 31
0.0
100
AcDbText
 73
     2
  0
POINT
  5
594
330
48
100
AcDbEntity
  8
DEFPOINTS
  6
ByBlock
 62
     0
440
 16777216
100
AcDbPoint
 10
12.50406335793685
 20
26.18317918176435
 30
0.0
  0
POINT
  5
595
330
48
100
AcDbEntity
  8
DEFPOINTS
  6
ByBlock
 62
     0
440
 16777216
100
AcDbPoint
 10
12.24741065368806
 20
26.41373153894549
 30
0.0
  0
ENDBLK
  5
596
330
48
100
AcDbEntity
  8
0
100
AcDbBlockEnd
  0
BLOCK
  5
597
330
49
100
AcDbEntity
  8
0
100
AcDbBlockBegin
  2
*D30
 70
     1
 10
0.0
 20
0.0
 30
0.0
  3
*D30
  1

  0
LINE
  5
598
330
49
100
AcDbEntity
  8
0
  6
ByBlock
 62
     0
440
 16777216
100
AcDbLine
 10
12.64276445597713
 20
26.42617513509068
 30
0.0
 11
13.1000555467326
 21
26.64489839767636
 31
0.0
  0
LINE
  5
599
330
49
100
AcDbEntity
  8
0
  6
ByBlock
 62
     0
440
 16777216
100
AcDbLine
 10
13.1000555467326
 20
26.64489839767636
 30
0.0
 11
13.28705554673261
 21
26.64489839767635
 31
0.0
  0
SOLID
  5
59A
330
49
100
AcDbEntity
  8
0
  6
ByBlock
 62
     0
440
 16777216
100
AcDbTrace
 10
12.65621242775392
 20
26.39805906911051
 30
0.0
 11
12.62931648420034
 21
26.45429120107086
 31
0.0
 12
12.47406806009607
 22
26.34548730442992
 32
0.0
 13
12.47406806009607
 23
26.34548730442992
 33
0.0
  0
LINE
  5
59B
330
49
100
AcDbEntity
  8
0
  6
ByBlock
 62
     0
440
 16777216
100
AcDbLine
 10
12.28573700581245
 20
26.29845536035493
 30
0.0
 11
12.46573700581245
 21
26.29845536035493
 31
0.0
  0
LINE
  5
59C
330
49
100
AcDbEntity
  8
0
  6
ByBlock
 62
     0
440
 16777216
100
AcDbLine
 10
12.37573700581245
 20
26.20845536035492
 30
0.0
 11
12.37573700581245
 21
26.38845536035493
 31
0.0
  0
TEXT
  5
59D
330
49
100
AcDbEntity
  8
0
  6
ByBlock
 62
     0
440
 16777216
100
AcDbText
 10
13.4740555467326
 20
26.55139839767636
 30
0.0
 40
0.187
  1
%%c0.218
 72
     1
 11
13.8948055467326
 21
26.64489839767636
 31
0.0
100
AcDbText
 73
     2
  0
POINT
  5
59E
330
49
100
AcDbEntity
  8
DEFPOINTS
  6
ByBlock
 62
     0
440
 16777216
100
AcDbPoint
 10
12.47406806009607
 20
26.34548730442992
 30
0.0
  0
POINT
  5
59F
330
49
100
AcDbEntity
  8
DEFPOINTS
  6
ByBlock
 62
     0
440
 16777216
100
AcDbPoint
 10
12.27740595152884
 20
26.25142341627993
 30
0.0
  0
ENDBLK
  5
5A0
330
49
100
AcDbEntity
  8
0
100
AcDbBlockEnd
  0
BLOCK
  5
5A1
330
4A
100
AcDbEntity
  8
0
100
AcDbBlockBegin
  2
*D31
 70
     1
 10
0.0
 20
0.0
 30
0.0
  3
*D31
  1

  0
LINE
  5
5A2
330
4A
100
AcDbEntity
  8
0
  6
ByBlock
 62
     0
440
 16777216
100
AcDbLine
 10
9.348737005812447
 20
26.29845536035491
 30
0.0
 11
7.313673329688944
 21
26.29845536035491
 31
0.0
  0
LINE
  5
5A3
330
4A
100
AcDbEntity
  8
0
  6
ByBlock
 62
     0
440
 16777216
100
AcDbLine
 10
9.348737005812447
 20
28.6109553603549
 30
0.0
 11
7.313673329688944
 21
28.6109553603549
 31
0.0
  0
LINE
  5
5A4
330
4A
100
AcDbEntity
  8
0
  6
ByBlock
 62
     0
440
 16777216
100
AcDbLine
 10
7.406673329688944
 20
26.48545536035492
 30
0.0
 11
7.406673329688944
 21
27.17320536035491
 31
0.0
  0
LINE
  5
5A5
330
4A
100
AcDbEntity
  8
0
  6
ByBlock
 62
     0
440
 16777216
100
AcDbLine
 10
7.406673329688944
 20
28.4239553603549
 30
0.0
 11
7.406673329688944
 21
27.73420536035491
 31
0.0
  0
SOLID
  5
5A6
330
4A
100
AcDbEntity
  8
0
  6
ByBlock
 62
     0
440
 16777216
100
AcDbTrace
 10
7.375506663022277
 20
26.48545536035492
 30
0.0
 11
7.43783999635561
 21
26.48545536035492
 31
0.0
 12
7.406673329688944
 22
26.29845536035491
 32
0.0
 13
7.406673329688944
 23
26.29845536035491
 33
0.0
  0
SOLID
  5
5A7
330
4A
100
AcDbEntity
  8
0
  6
ByBlock
 62
     0
440
 16777216
100
AcDbTrace
 10
7.375506663022277
 20
28.4239553603549
 30
0.0
 11
7.43783999635561
 21
28.4239553603549
 31
0.0
 12
7.406673329688944
 22
28.6109553603549
 32
0.0
 13
7.406673329688944
 23
28.6109553603549
 33
0.0
  0
TEXT
  5
5A8
330
4A
100
AcDbEntity
  8
0
  6
ByBlock
 62
     0
440
 16777216
100
AcDbText
 10
6.908006663022277
 20
27.36020536035491
 30
0.0
 40
0.187
  1
2 5/16
 72
     1
 11
7.406673329688944
 21
27.45370536035491
 31
0.0
100
AcDbText
 73
     2
  0
POINT
  5
5A9
330
4A
100
AcDbEntity
  8
DEFPOINTS
  6
ByBlock
 62
     0
440
 16777216
100
AcDbPoint
 10
9.535737005812446
 20
26.29845536035491
 30
0.0
  0
POINT
  5
5AA
330
4A
100
AcDbEntity
  8
DEFPOINTS
  6
ByBlock
 62
     0
440
 16777216
100
AcDbPoint
 10
9.535737005812446
 20
28.6109553603549
 30
0.0
  0
POINT
  5
5AB
330
4A
100
AcDbEntity
  8
DEFPOINTS
  6
ByBlock
 62
     0
440
 16777216
100
AcDbPoint
 10
7.406673329688944
 20
28.6109553603549
 30
0.0
  0
ENDBLK
  5
5AC
330
4A
100
AcDbEntity
  8
0
100
AcDbBlockEnd
  0
BLOCK
  5
5AD
330
4B
100
AcDbEntity
  8
0
100
AcDbBlockBegin
  2
*D32
 70
     1
 10
0.0
 20
0.0
 30
0.0
  3
*D32
  1

  0
LINE
  5
5AE
330
4B
100
AcDbEntity
  8
0
  6
ByBlock
 62
     0
440
 16777216
100
AcDbLine
 10
9.62573700581245
 20
28.88795536035491
 30
0.0
 11
9.62573700581245
 21
30.6686201968146
 31
0.0
  0
LINE
  5
5AF
330
4B
100
AcDbEntity
  8
0
  6
ByBlock
 62
     0
440
 16777216
100
AcDbLine
 10
12.37573700581245
 20
28.88795536035491
 30
0.0
 11
12.37573700581245
 21
30.6686201968146
 31
0.0
  0
LINE
  5
5B0
330
4B
100
AcDbEntity
  8
0
  6
ByBlock
 62
     0
440
 16777216
100
AcDbLine
 10
9.812737005812449
 20
30.57562019681461
 30
0.0
 11
10.37740367247912
 21
30.57562019681461
 31
0.0
  0
LINE
  5
5B1
330
4B
100
AcDbEntity
  8
0
  6
ByBlock
 62
     0
440
 16777216
100
AcDbLine
 10
12.18873700581245
 20
30.57562019681461
 30
0.0
 11
11.62407033914578
 21
30.57562019681461
 31
0.0
  0
SOLID
  5
5B2
330
4B
100
AcDbEntity
  8
0
  6
ByBlock
 62
     0
440
 16777216
100
AcDbTrace
 10
9.812737005812449
 20
30.60678686348127
 30
0.0
 11
9.812737005812449
 21
30.54445353014794
 31
0.0
 12
9.62573700581245
 22
30.57562019681461
 32
0.0
 13
9.62573700581245
 23
30.57562019681461
 33
0.0
  0
SOLID
  5
5B3
330
4B
100
AcDbEntity
  8
0
  6
ByBlock
 62
     0
440
 16777216
100
AcDbTrace
 10
12.18873700581245
 20
30.60678686348127
 30
0.0
 11
12.18873700581245
 21
30.54445353014794
 31
0.0
 12
12.37573700581245
 22
30.57562019681461
 32
0.0
 13
12.37573700581245
 23
30.57562019681461
 33
0.0
  0
TEXT
  5
5B4
330
4B
100
AcDbEntity
  8
0
  6
ByBlock
 62
     0
440
 16777216
100
AcDbText
 10
10.56440367247912
 20
30.48212019681461
 30
0.0
 40
0.187
  1
2 3/4
 72
     1
 11
11.00073700581245
 21
30.57562019681461
 31
0.0
100
AcDbText
 73
     2
  0
POINT
  5
5B5
330
4B
100
AcDbEntity
  8
DEFPOINTS
  6
ByBlock
 62
     0
440
 16777216
100
AcDbPoint
 10
9.62573700581245
 20
28.70095536035491
 30
0.0
  0
POINT
  5
5B6
330
4B
100
AcDbEntity
  8
DEFPOINTS
  6
ByBlock
 62
     0
440
 16777216
100
AcDbPoint
 10
12.37573700581245
 20
28.70095536035491
 30
0.0
  0
POINT
  5
5B7
330
4B
100
AcDbEntity
  8
DEFPOINTS
  6
ByBlock
 62
     0
440
 16777216
100
AcDbPoint
 10
12.37573700581245
 20
30.57562019681461
 30
0.0
  0
ENDBLK
  5
5B8
330
4B
100
AcDbEntity
  8
0
100
AcDbBlockEnd
  0
BLOCK
  5
5B9
330
4C
100
AcDbEntity
  8
0
100
AcDbBlockBegin
  2
*D33
 70
     1
 10
0.0
 20
0.0
 30
0.0
  3
*D33
  1

  0
LINE
  5
5BA
330
4C
100
AcDbEntity
  8
0
  6
ByBlock
 62
     0
440
 16777216
100
AcDbLine
 10
12.50075843179166
 20
29.27872678633411
 30
0.0
 11
12.50075843179166
 21
31.64011311934252
 31
0.0
  0
LINE
  5
5BB
330
4C
100
AcDbEntity
  8
0
  6
ByBlock
 62
     0
440
 16777216
100
AcDbLine
 10
9.500715579833258
 20
29.27872678633411
 30
0.0
 11
9.500715579833258
 21
31.64011311934252
 31
0.0
  0
LINE
  5
5BC
330
4C
100
AcDbEntity
  8
0
  6
ByBlock
 62
     0
440
 16777216
100
AcDbLine
 10
12.31375843179167
 20
31.54711311934252
 30
0.0
 11
11.25007033914578
 21
31.54711311934252
 31
0.0
  0
LINE
  5
5BD
330
4C
100
AcDbEntity
  8
0
  6
ByBlock
 62
     0
440
 16777216
100
AcDbLine
 10
9.687715579833257
 20
31.54711311934252
 30
0.0
 11
10.75140367247912
 21
31.54711311934252
 31
0.0
  0
SOLID
  5
5BE
330
4C
100
AcDbEntity
  8
0
  6
ByBlock
 62
     0
440
 16777216
100
AcDbTrace
 10
12.31375843179167
 20
31.57827978600919
 30
0.0
 11
12.31375843179167
 21
31.51594645267585
 31
0.0
 12
12.50075843179166
 22
31.54711311934252
 32
0.0
 13
12.50075843179166
 23
31.54711311934252
 33
0.0
  0
SOLID
  5
5BF
330
4C
100
AcDbEntity
  8
0
  6
ByBlock
 62
     0
440
 16777216
100
AcDbTrace
 10
9.687715579833257
 20
31.57827978600919
 30
0.0
 11
9.687715579833257
 21
31.51594645267585
 31
0.0
 12
9.500715579833258
 22
31.54711311934252
 32
0.0
 13
9.500715579833258
 23
31.54711311934252
 33
0.0
  0
TEXT
  5
5C0
330
4C
100
AcDbEntity
  8
0
  6
ByBlock
 62
     0
440
 16777216
100
AcDbText
 10
10.93840367247912
 20
31.45361311934252
 30
0.0
 40
0.187
  1
3
 72
     1
 11
11.00073700581245
 21
31.54711311934252
 31
0.0
100
AcDbText
 73
     2
  0
POINT
  5
5C1
330
4C
100
AcDbEntity
  8
DEFPOINTS
  6
ByBlock
 62
     0
440
 16777216
100
AcDbPoint
 10
12.50075843179166
 20
29.09172678633412
 30
0.0
  0
POINT
  5
5C2
330
4C
100
AcDbEntity
  8
DEFPOINTS
  6
ByBlock
 62
     0
440
 16777216
100
AcDbPoint
 10
9.500715579833258
 20
29.09172678633412
 30
0.0
  0
POINT
  5
5C3
330
4C
100
AcDbEntity
  8
DEFPOINTS
  6
ByBlock
 62
     0
440
 16777216
100
AcDbPoint
 10
9.500715579833258
 20
31.54711311934252
 30
0.0
  0
ENDBLK
  5
5C4
330
4C
100
AcDbEntity
  8
0
100
AcDbBlockEnd
  0
BLOCK
  5
5C5
330
4D
100
AcDbEntity
  8
0
100
AcDbBlockBegin
  2
*D34
 70
     1
 10
0.0
 20
0.0
 30
0.0
  3
*D34
  1

  0
LINE
  5
5C6
330
4D
100
AcDbEntity
  8
0
  6
ByBlock
 62
     0
440
 16777216
100
AcDbLine
 10
9.223715579833255
 20
25.90768393437571
 30
0.0
 11
5.794597124807246
 21
25.90768393437571
 31
0.0
  0
LINE
  5
5C7
330
4D
100
AcDbEntity
  8
0
  6
ByBlock
 62
     0
440
 16777216
100
AcDbLine
 10
9.223715579833255
 20
29.00172678633411
 30
0.0
 11
5.794597124807246
 21
29.00172678633411
 31
0.0
  0
LINE
  5
5C8
330
4D
100
AcDbEntity
  8
0
  6
ByBlock
 62
     0
440
 16777216
100
AcDbLine
 10
5.887597124807246
 20
26.09468393437571
 30
0.0
 11
5.887597124807246
 21
27.17320536035491
 31
0.0
  0
LINE
  5
5C9
330
4D
100
AcDbEntity
  8
0
  6
ByBlock
 62
     0
440
 16777216
100
AcDbLine
 10
5.887597124807246
 20
28.81472678633411
 30
0.0
 11
5.887597124807246
 21
27.73420536035491
 31
0.0
  0
SOLID
  5
5CA
330
4D
100
AcDbEntity
  8
0
  6
ByBlock
 62
     0
440
 16777216
100
AcDbTrace
 10
5.85643045814058
 20
26.09468393437571
 30
0.0
 11
5.918763791473913
 21
26.09468393437571
 31
0.0
 12
5.887597124807246
 22
25.90768393437571
 32
0.0
 13
5.887597124807246
 23
25.90768393437571
 33
0.0
  0
SOLID
  5
5CB
330
4D
100
AcDbEntity
  8
0
  6
ByBlock
 62
     0
440
 16777216
100
AcDbTrace
 10
5.85643045814058
 20
28.81472678633411
 30
0.0
 11
5.918763791473913
 21
28.81472678633411
 31
0.0
 12
5.887597124807246
 22
29.00172678633411
 32
0.0
 13
5.887597124807246
 23
29.00172678633411
 33
0.0
  0
TEXT
  5
5CC
330
4D
100
AcDbEntity
  8
0
  6
ByBlock
 62
     0
440
 16777216
100
AcDbText
 10
5.357763791473913
 20
27.36020536035491
 30
0.0
 40
0.187
  1
3 3/32
 72
     1
 11
5.887597124807246
 21
27.45370536035491
 31
0.0
100
AcDbText
 73
     2
  0
POINT
  5
5CD
330
4D
100
AcDbEntity
  8
DEFPOINTS
  6
ByBlock
 62
     0
440
 16777216
100
AcDbPoint
 10
9.410715579833254
 20
25.90768393437571
 30
0.0
  0
POINT
  5
5CE
330
4D
100
AcDbEntity
  8
DEFPOINTS
  6
ByBlock
 62
     0
440
 16777216
100
AcDbPoint
 10
9.410715579833254
 20
29.00172678633411
 30
0.0
  0
POINT
  5
5CF
330
4D
100
AcDbEntity
  8
DEFPOINTS
  6
ByBlock
 62
     0
440
 16777216
100
AcDbPoint
 10
5.887597124807246
 20
29.00172678633411
 30
0.0
  0
ENDBLK
  5
5D0
330
4D
100
AcDbEntity
  8
0
100
AcDbBlockEnd
  0
BLOCK
  5
5D1
330
4E
100
AcDbEntity
  8
0
100
AcDbBlockBegin
  2
*D35
 70
     1
 10
0.0
 20
0.0
 30
0.0
  3
*D35
  1

  0
LINE
  5
5D2
330
4E
100
AcDbEntity
  8
0
  6
ByBlock
 62
     0
440
 16777216
100
AcDbLine
 10
36.71558455579049
 20
29.36621808976147
 30
0.0
 11
36.71558455579049
 21
30.6686201968146
 31
0.0
  0
LINE
  5
5D3
330
4E
100
AcDbEntity
  8
0
  6
ByBlock
 62
     0
440
 16777216
100
AcDbLine
 10
38.90192585921786
 20
29.1437996235207
 30
0.0
 11
38.90192585921786
 21
30.6686201968146
 31
0.0
  0
LINE
  5
5D4
330
4E
100
AcDbEntity
  8
0
  6
ByBlock
 62
     0
440
 16777216
100
AcDbLine
 10
36.90258455579048
 20
30.5756201968146
 30
0.0
 11
37.12308854083751
 21
30.5756201968146
 31
0.0
  0
LINE
  5
5D5
330
4E
100
AcDbEntity
  8
0
  6
ByBlock
 62
     0
440
 16777216
100
AcDbLine
 10
38.71492585921786
 20
30.5756201968146
 30
0.0
 11
38.49442187417085
 21
30.5756201968146
 31
0.0
  0
SOLID
  5
5D6
330
4E
100
AcDbEntity
  8
0
  6
ByBlock
 62
     0
440
 16777216
100
AcDbTrace
 10
36.90258455579048
 20
30.60678686348127
 30
0.0
 11
36.90258455579048
 21
30.54445353014793
 31
0.0
 12
36.71558455579049
 22
30.5756201968146
 32
0.0
 13
36.71558455579049
 23
30.5756201968146
 33
0.0
  0
SOLID
  5
5D7
330
4E
100
AcDbEntity
  8
0
  6
ByBlock
 62
     0
440
 16777216
100
AcDbTrace
 10
38.71492585921786
 20
30.60678686348127
 30
0.0
 11
38.71492585921786
 21
30.54445353014793
 31
0.0
 12
38.90192585921786
 22
30.5756201968146
 32
0.0
 13
38.90192585921786
 23
30.5756201968146
 33
0.0
  0
TEXT
  5
5D8
330
4E
100
AcDbEntity
  8
0
  6
ByBlock
 62
     0
440
 16777216
100
AcDbText
 10
37.31008854083751
 20
30.4821201968146
 30
0.0
 40
0.187
  1
2 3/16
 72
     1
 11
37.80875520750418
 21
30.5756201968146
 31
0.0
100
AcDbText
 73
     2
  0
POINT
  5
5D9
330
4E
100
AcDbEntity
  8
DEFPOINTS
  6
ByBlock
 62
     0
440
 16777216
100
AcDbPoint
 10
36.71558455579049
 20
29.17921808976147
 30
0.0
  0
POINT
  5
5DA
330
4E
100
AcDbEntity
  8
DEFPOINTS
  6
ByBlock
 62
     0
440
 16777216
100
AcDbPoint
 10
38.90192585921786
 20
28.9567996235207
 30
0.0
  0
POINT
  5
5DB
330
4E
100
AcDbEntity
  8
DEFPOINTS
  6
ByBlock
 62
     0
440
 16777216
100
AcDbPoint
 10
38.90192585921786
 20
30.5756201968146
 30
0.0
  0
ENDBLK
  5
5DC
330
4E
100
AcDbEntity
  8
0
100
AcDbBlockEnd
  0
BLOCK
  5
5DD
330
4F
100
AcDbEntity
  8
0
100
AcDbBlockBegin
  2
*D36
 70
     1
 10
0.0
 20
0.0
 30
0.0
  3
*D36
  1

  0
LINE
  5
5DE
330
4F
100
AcDbEntity
  8
0
  6
ByBlock
 62
     0
440
 16777216
100
AcDbLine
 10
52.84796386412387
 20
29.09545536035489
 30
0.0
 11
52.84796386412387
 21
30.6686201968146
 31
0.0
  0
LINE
  5
5DF
330
4F
100
AcDbEntity
  8
0
  6
ByBlock
 62
     0
440
 16777216
100
AcDbLine
 10
50.60296386412387
 20
29.35412404436492
 30
0.0
 11
50.60296386412387
 21
30.6686201968146
 31
0.0
  0
LINE
  5
5E0
330
4F
100
AcDbEntity
  8
0
  6
ByBlock
 62
     0
440
 16777216
100
AcDbLine
 10
52.66096386412387
 20
30.5756201968146
 30
0.0
 11
52.31763053079052
 21
30.5756201968146
 31
0.0
  0
LINE
  5
5E1
330
4F
100
AcDbEntity
  8
0
  6
ByBlock
 62
     0
440
 16777216
100
AcDbLine
 10
50.78996386412387
 20
30.5756201968146
 30
0.0
 11
51.13329719745719
 21
30.5756201968146
 31
0.0
  0
SOLID
  5
5E2
330
4F
100
AcDbEntity
  8
0
  6
ByBlock
 62
     0
440
 16777216
100
AcDbTrace
 10
52.66096386412387
 20
30.60678686348127
 30
0.0
 11
52.66096386412387
 21
30.54445353014793
 31
0.0
 12
52.84796386412387
 22
30.5756201968146
 32
0.0
 13
52.84796386412387
 23
30.5756201968146
 33
0.0
  0
SOLID
  5
5E3
330
4F
100
AcDbEntity
  8
0
  6
ByBlock
 62
     0
440
 16777216
100
AcDbTrace
 10
50.78996386412387
 20
30.60678686348127
 30
0.0
 11
50.78996386412387
 21
30.54445353014793
 31
0.0
 12
50.60296386412387
 22
30.5756201968146
 32
0.0
 13
50.60296386412387
 23
30.5756201968146
 33
0.0
  0
TEXT
  5
5E4
330
4F
100
AcDbEntity
  8
0
  6
ByBlock
 62
     0
440
 16777216
100
AcDbText
 10
51.32029719745719
 20
30.4821201968146
 30
0.0
 40
0.187
  1
2 1/4
 72
     1
 11
51.72546386412385
 21
30.5756201968146
 31
0.0
100
AcDbText
 73
     2
  0
POINT
  5
5E5
330
4F
100
AcDbEntity
  8
DEFPOINTS
  6
ByBlock
 62
     0
440
 16777216
100
AcDbPoint
 10
52.84796386412387
 20
28.90845536035488
 30
0.0
  0
POINT
  5
5E6
330
4F
100
AcDbEntity
  8
DEFPOINTS
  6
ByBlock
 62
     0
440
 16777216
100
AcDbPoint
 10
50.60296386412387
 20
29.16712404436492
 30
0.0
  0
POINT
  5
5E7
330
4F
100
AcDbEntity
  8
DEFPOINTS
  6
ByBlock
 62
     0
440
 16777216
100
AcDbPoint
 10
50.60296386412387
 20
30.5756201968146
 30
0.0
  0
ENDBLK
  5
5E8
330
4F
100
AcDbEntity
  8
0
100
AcDbBlockEnd
  0
BLOCK
  5
5E9
330
50
100
AcDbEntity
  8
0
100
AcDbBlockBegin
  2
*D37
 70
     1
 10
0.0
 20
0.0
 30
0.0
  3
*D37
  1

  0
LINE
  5
5EA
330
50
100
AcDbEntity
  8
0
  6
ByBlock
 62
     0
440
 16777216
100
AcDbLine
 10
52.84796386412387
 20
28.97045536035489
 30
0.0
 11
52.84796386412387
 21
30.6686201968146
 31
0.0
  0
LINE
  5
5EB
330
50
100
AcDbEntity
  8
0
  6
ByBlock
 62
     0
440
 16777216
100
AcDbLine
 10
53.34796386412387
 20
29.1437996235207
 30
0.0
 11
53.34796386412387
 21
30.6686201968146
 31
0.0
  0
LINE
  5
5EC
330
50
100
AcDbEntity
  8
0
  6
ByBlock
 62
     0
440
 16777216
100
AcDbLine
 10
52.66096386412387
 20
30.5756201968146
 30
0.0
 11
52.47396386412386
 21
30.5756201968146
 31
0.0
  0
LINE
  5
5ED
330
50
100
AcDbEntity
  8
0
  6
ByBlock
 62
     0
440
 16777216
100
AcDbLine
 10
53.53496386412387
 20
30.5756201968146
 30
0.0
 11
53.72196386412387
 21
30.5756201968146
 31
0.0
  0
SOLID
  5
5EE
330
50
100
AcDbEntity
  8
0
  6
ByBlock
 62
     0
440
 16777216
100
AcDbTrace
 10
52.66096386412387
 20
30.60678686348127
 30
0.0
 11
52.66096386412387
 21
30.54445353014793
 31
0.0
 12
52.84796386412387
 22
30.5756201968146
 32
0.0
 13
52.84796386412387
 23
30.5756201968146
 33
0.0
  0
SOLID
  5
5EF
330
50
100
AcDbEntity
  8
0
  6
ByBlock
 62
     0
440
 16777216
100
AcDbTrace
 10
53.53496386412387
 20
30.60678686348127
 30
0.0
 11
53.53496386412387
 21
30.54445353014793
 31
0.0
 12
53.34796386412387
 22
30.5756201968146
 32
0.0
 13
53.34796386412387
 23
30.5756201968146
 33
0.0
  0
TEXT
  5
5F0
330
50
100
AcDbEntity
  8
0
  6
ByBlock
 62
     0
440
 16777216
100
AcDbText
 10
53.90896386412386
 20
30.4821201968146
 30
0.0
 40
0.187
  1
1/2
 72
     1
 11
54.12713053079052
 21
30.5756201968146
 31
0.0
100
AcDbText
 73
     2
  0
POINT
  5
5F1
330
50
100
AcDbEntity
  8
DEFPOINTS
  6
ByBlock
 62
     0
440
 16777216
100
AcDbPoint
 10
52.84796386412387
 20
28.78345536035489
 30
0.0
  0
POINT
  5
5F2
330
50
100
AcDbEntity
  8
DEFPOINTS
  6
ByBlock
 62
     0
440
 16777216
100
AcDbPoint
 10
53.34796386412387
 20
28.9567996235207
 30
0.0
  0
POINT
  5
5F3
330
50
100
AcDbEntity
  8
DEFPOINTS
  6
ByBlock
 62
     0
440
 16777216
100
AcDbPoint
 10
53.34796386412387
 20
30.5756201968146
 30
0.0
  0
ENDBLK
  5
5F4
330
50
100
AcDbEntity
  8
0
100
AcDbBlockEnd
  0
BLOCK
  5
5F5
330
51
100
AcDbEntity
  8
0
100
AcDbBlockBegin
  2
*D38
 70
     1
 10
0.0
 20
0.0
 30
0.0
  3
*D38
  1

  0
LINE
  5
5F6
330
51
100
AcDbEntity
  8
0
  6
ByBlock
 62
     0
440
 16777216
100
AcDbLine
 10
27.1767081526133
 20
29.18987678633409
 30
0.0
 11
27.1767081526133
 21
31.64011311934252
 31
0.0
  0
LINE
  5
5F7
330
51
100
AcDbEntity
  8
0
  6
ByBlock
 62
     0
440
 16777216
100
AcDbLine
 10
23.55166530065493
 20
29.18987678633409
 30
0.0
 11
23.55166530065493
 21
31.64011311934252
 31
0.0
  0
LINE
  5
5F8
330
51
100
AcDbEntity
  8
0
  6
ByBlock
 62
     0
440
 16777216
100
AcDbLine
 10
26.9897081526133
 20
31.54711311934252
 30
0.0
 11
26.05507005996745
 21
31.54711311934252
 31
0.0
  0
LINE
  5
5F9
330
51
100
AcDbEntity
  8
0
  6
ByBlock
 62
     0
440
 16777216
100
AcDbLine
 10
23.73866530065493
 20
31.54711311934252
 30
0.0
 11
24.80840339330078
 21
31.54711311934252
 31
0.0
  0
SOLID
  5
5FA
330
51
100
AcDbEntity
  8
0
  6
ByBlock
 62
     0
440
 16777216
100
AcDbTrace
 10
26.9897081526133
 20
31.57827978600919
 30
0.0
 11
26.9897081526133
 21
31.51594645267585
 31
0.0
 12
27.1767081526133
 22
31.54711311934252
 32
0.0
 13
27.1767081526133
 23
31.54711311934252
 33
0.0
  0
SOLID
  5
5FB
330
51
100
AcDbEntity
  8
0
  6
ByBlock
 62
     0
440
 16777216
100
AcDbTrace
 10
23.73866530065493
 20
31.57827978600919
 30
0.0
 11
23.73866530065493
 21
31.51594645267585
 31
0.0
 12
23.55166530065493
 22
31.54711311934252
 32
0.0
 13
23.55166530065493
 23
31.54711311934252
 33
0.0
  0
TEXT
  5
5FC
330
51
100
AcDbEntity
  8
0
  6
ByBlock
 62
     0
440
 16777216
100
AcDbText
 10
24.99540339330078
 20
31.45361311934252
 30
0.0
 40
0.187
  1
3 5/8
 72
     1
 11
25.43173672663411
 21
31.54711311934252
 31
0.0
100
AcDbText
 73
     2
  0
POINT
  5
5FD
330
51
100
AcDbEntity
  8
DEFPOINTS
  6
ByBlock
 62
     0
440
 16777216
100
AcDbPoint
 10
27.1767081526133
 20
29.00287678633409
 30
0.0
  0
POINT
  5
5FE
330
51
100
AcDbEntity
  8
DEFPOINTS
  6
ByBlock
 62
     0
440
 16777216
100
AcDbPoint
 10
23.55166530065493
 20
29.00287678633409
 30
0.0
  0
POINT
  5
5FF
330
51
100
AcDbEntity
  8
DEFPOINTS
  6
ByBlock
 62
     0
440
 16777216
100
AcDbPoint
 10
23.55166530065493
 20
31.54711311934252
 30
0.0
  0
ENDBLK
  5
600
330
51
100
AcDbEntity
  8
0
100
AcDbBlockEnd
  0
ENDSEC
  0
SECTION
  2
ENTITIES
  0
DIMENSION
  5
605
330
18
100
AcDbEntity
  8
DIM
100
AcDbDimension
280
     0
  2
*D35
 10
38.90192585921786
 20
30.5756201968146
 30
0.0
 11
37.80875520750418
 21
30.5756201968146
 31
0.0
 70
   128
 71
     5
 42
-1.0
 73
     0
 74
     0
 75
     0
100
AcDbAlignedDimension
 13
36.71558455579049
 23
29.17921808976147
 33
0.0
 14
38.90192585921786
 24
28.9567996235207
 34
0.0
100
AcDbRotatedDimension
  0
INSERT
  5
606
330
18
100
AcDbEntity
  8
DIM
100
AcDbBlockReference
  2
SAAL
 10
23.38392775712371
 20
27.43184321041169
 30
0.0
 41
2.0
 42
2.0
 43
2.0
  0
INSERT
  5
607
330
18
100
AcDbEntity
  8
DIM
100
AcDbBlockReference
  2
SAATX
 10
51.84743230145345
 20
8.315932521794245
 30
0.0
 41
2.0
 42
2.0
 43
2.0
  0
INSERT
  5
608
330
18
100
AcDbEntity
  8
DIM
100
AcDbBlockReference
  2
SBBTX
 10
51.87421386412387
 20
23.75857231800003
 30
0.0
 41
2.0
 42
2.0
 43
2.0
  0
LINE
  5
609
330
18
100
AcDbEntity
  8
0
100
AcDbLine
 10
53.54285297388035
 20
16.84287458494156
 30
0.0
 11
53.56173529010305
 21
16.84287458494156
 31
0.0
  0
LINE
  5
60A
330
18
100
AcDbEntity
  8
0
100
AcDbLine
 10
50.18669243814469
 20
16.84287458494156
 30
0.0
 11
50.2055747543674
 21
16.84287458494156
 31
0.0
  0
LINE
  5
60B
330
18
100
AcDbEntity
  8
HIDE
100
AcDbLine
 10
53.35821386412387
 20
14.66037458494156
 30
0.0
 11
53.42171386412387
 21
14.66037458494156
 31
0.0
  0
LINE
  5
60C
330
18
100
AcDbEntity
  8
HIDE
100
AcDbLine
 10
53.35821386412387
 20
14.66037458494156
 30
0.0
 11
53.35821386412387
 21
14.16037458494156
 31
0.0
  0
LINE
  5
60D
330
18
100
AcDbEntity
  8
HIDE
100
AcDbLine
 10
53.14021386412386
 20
14.66037458494156
 30
0.0
 11
53.14021386412386
 21
14.16037458494156
 31
0.0
  0
LINE
  5
60E
330
18
100
AcDbEntity
  8
HIDE
100
AcDbLine
 10
53.07671386412387
 20
14.66037458494156
 30
0.0
 11
53.14021386412386
 21
14.66037458494156
 31
0.0
  0
LINE
  5
60F
330
18
100
AcDbEntity
  8
HIDE
100
AcDbLine
 10
53.07671386412387
 20
14.66037458494156
 30
0.0
 11
53.06171386412387
 21
16.90537458494156
 31
0.0
  0
LINE
  5
610
330
18
100
AcDbEntity
  8
HIDE
100
AcDbLine
 10
53.43671386412387
 20
16.90537458494156
 30
0.0
 11
53.42171386412387
 21
14.66037458494156
 31
0.0
  0
LINE
  5
611
330
18
100
AcDbEntity
  8
HIDE
100
AcDbLine
 10
50.31171386412387
 20
16.90537458494156
 30
0.0
 11
50.32671386412387
 21
14.66037458494156
 31
0.0
  0
LINE
  5
612
330
18
100
AcDbEntity
  8
HIDE
100
AcDbLine
 10
50.67171386412386
 20
14.66037458494156
 30
0.0
 11
50.68671386412386
 21
16.90537458494156
 31
0.0
  0
LINE
  5
613
330
18
100
AcDbEntity
  8
0
100
AcDbLine
 10
50.31311875190143
 20
16.90537458494156
 30
0.0
 11
53.43530897634632
 21
16.90537458494156
 31
0.0
  0
LINE
  5
614
330
18
100
AcDbEntity
  8
HIDE
100
AcDbLine
 10
50.67171386412386
 20
14.66037458494156
 30
0.0
 11
50.60821386412388
 21
14.66037458494156
 31
0.0
  0
LINE
  5
615
330
18
100
AcDbEntity
  8
HIDE
100
AcDbLine
 10
50.60821386412388
 20
14.66037458494156
 30
0.0
 11
50.60821386412388
 21
14.16037458494156
 31
0.0
  0
LINE
  5
616
330
18
100
AcDbEntity
  8
HIDE
100
AcDbLine
 10
50.39021386412387
 20
14.66037458494156
 30
0.0
 11
50.39021386412387
 21
14.16037458494156
 31
0.0
  0
LINE
  5
617
330
18
100
AcDbEntity
  8
HIDE
100
AcDbLine
 10
50.39021386412387
 20
14.66037458494156
 30
0.0
 11
50.32671386412387
 21
14.66037458494156
 31
0.0
  0
LINE
  5
618
330
18
100
AcDbEntity
  8
0
100
AcDbLine
 10
52.9352328123244
 20
16.90537458494156
 30
0.0
 11
52.88950054221245
 21
14.28537458494156
 31
0.0
  0
LINE
  5
619
330
18
100
AcDbEntity
  8
0
100
AcDbLine
 10
50.81319491592337
 20
16.90537458494156
 30
0.0
 11
50.85892718603529
 21
14.28537458494156
 31
0.0
  0
LWPOLYLINE
  5
61A
330
18
100
AcDbEntity
  8
0
 62
     7
100
AcDbPolyline
 90
       20
 70
     1
 43
0.0
 10
50.35670721800825
 20
14.4081930341369
 10
50.31311875190143
 20
16.90537458494156
 10
50.20994518011388
 20
16.90537458494156
 10
50.19246347712799
 20
16.65537458494156
 10
50.06169243814469
 20
16.65537458494156
 10
50.06169243814469
 20
16.48287458494156
 10
50.19785113471733
 20
16.34671588836894
 10
50.23279815811624
 20
14.34460225873458
 42
0.4091108014277117
 10
50.42026960095806
 20
14.16037458494157
 10
53.32815812728968
 20
14.16037458494157
 42
0.4091108014277065
 10
53.5156295701315
 20
14.34460225873458
 10
53.55057659353043
 20
16.34671588836894
 10
53.68673529010306
 20
16.48287458494156
 10
53.68673529010306
 20
16.65537458494156
 10
53.55596425111976
 20
16.65537458494156
 10
53.53848254813389
 20
16.90537458494156
 10
53.43530897634632
 20
16.90537458494156
 10
53.3917205102395
 20
14.40819303413691
 42
-0.4091108014277121
 10
53.26673954834495
 20
14.28537458494157
 10
50.4816881799028
 20
14.28537458494156
 42
-0.4091108014277121
  0
DIMENSION
  5
630
330
18
100
AcDbEntity
  8
DIM
100
AcDbDimension
280
     0
  2
*D14
 10
50.3577791200108
 20
10.41037458494157
 30
0.0
 11
51.85845400941749
 21
10.41037458494157
 31
0.0
 12
-6.48944253389417
 22
-41.92240424000863
 32
0.0
 70
   128
 71
     5
 42
-1.0
 73
     0
 74
     0
 75
     0
100
AcDbAlignedDimension
 13
53.39064860823696
 23
14.34678380953924
 33
0.0
 14
50.3577791200108
 24
14.34678380953923
 34
0.0
100
AcDbRotatedDimension
  0
DIMENSION
  5
631
330
18
100
AcDbEntity
  8
DIM
100
AcDbDimension
280
     0
  2
*D15
 10
52.88950054221245
 20
12.91037458494157
 30
0.0
 11
51.85845400941749
 21
12.91037458494157
 31
0.0
 12
-6.48944253389417
 22
-41.92240424000863
 32
0.0
 70
   128
 71
     5
 42
-1.0
 73
     0
 74
     0
 75
     0
100
AcDbAlignedDimension
 13
50.85892718603529
 23
14.28537458494156
 33
0.0
 14
52.88950054221245
 24
14.28537458494156
 34
0.0
100
AcDbRotatedDimension
  0
DIMENSION
  5
632
330
18
100
AcDbEntity
  8
DIM
100
AcDbDimension
280
     0
  2
*D16
 10
55.43673529010306
 20
16.90537458494156
 30
0.0
 11
55.43673529010306
 21
15.59537458494157
 31
0.0
 12
-6.48944253389417
 22
-41.92240424000863
 32
0.0
 70
   128
 71
     5
 42
-1.0
 73
     0
 74
     0
 75
     0
100
AcDbAlignedDimension
 13
53.32815812728968
 23
14.28537458494156
 33
0.0
 14
53.53848254813389
 24
16.90537458494156
 34
0.0
 50
90.0
100
AcDbRotatedDimension
  0
LINE
  5
633
330
18
100
AcDbEntity
  8
HIDE
100
AcDbLine
 10
50.60821386412388
 20
14.16037458494156
 30
0.0
 11
50.39021386412387
 21
14.16037458494156
 31
0.0
  0
LINE
  5
634
330
18
100
AcDbEntity
  8
HIDE
100
AcDbLine
 10
53.35821386412387
 20
14.16037458494156
 30
0.0
 11
53.14021386412386
 21
14.16037458494156
 31
0.0
  0
DIMENSION
  5
635
330
18
100
AcDbEntity
  8
DIM
100
AcDbDimension
280
     0
  2
*D17
 10
52.9352328123244
 20
18.53037458494156
 30
0.0
 11
51.94176386412388
 21
18.53037458494156
 31
0.0
 12
-6.48944253389417
 22
-41.92240424000863
 32
0.0
 70
   128
 71
     5
 42
-1.0
 73
     0
 74
     0
 75
     0
100
AcDbAlignedDimension
 13
50.81319491592337
 23
16.90537458494156
 33
0.0
 14
52.9352328123244
 24
16.90537458494156
 34
0.0
100
AcDbRotatedDimension
  0
DIMENSION
  5
636
330
18
100
AcDbEntity
  8
DIM
100
AcDbDimension
280
     0
  2
*D18
 10
53.43530897634632
 20
19.48655507098891
 30
0.0
 11
51.94176386412387
 21
19.48655507098892
 31
0.0
 12
-6.48944253389417
 22
-41.92240424000863
 32
0.0
 70
   128
 71
     5
 42
-1.0
 73
     0
 74
     0
 75
     0
100
AcDbAlignedDimension
 13
50.31311875190143
 23
16.90537458494156
 33
0.0
 14
53.43530897634632
 24
16.90537458494156
 34
0.0
100
AcDbRotatedDimension
  0
DIMENSION
  5
637
330
18
100
AcDbEntity
  8
DIM
100
AcDbDimension
280
     0
  2
*D19
 10
53.24921386412387
 20
11.66037458494157
 30
0.0
 11
52.06090400941748
 21
11.66037458494157
 31
0.0
 12
-6.48944253389417
 22
-41.92240424000863
 32
0.0
 70
   128
 71
     5
 42
-1.0
 73
     0
 74
     0
 75
     0
100
AcDbAlignedDimension
 13
50.49921386412387
 23
14.16037458494156
 33
0.0
 14
53.24921386412387
 24
14.16037458494156
 34
0.0
100
AcDbRotatedDimension
  0
INSERT
  5
638
330
18
100
AcDbEntity
  8
HATCH
100
AcDbBlockReference
  2
*X8
 10
13.66361771596567
 20
-11.36264692037616
 30
0.0
  0
DIMENSION
  5
639
330
18
100
AcDbEntity
  8
DIM
100
AcDbDimension
280
     0
  2
*D20
 10
58.5982449397342
 20
25.89012061624182
 30
0.0
 11
58.5982449397342
 21
27.61618101014603
 31
0.0
 12
-6.695999696840537
 22
-40.07790301585322
 32
0.0
 70
   128
 71
     5
 42
-1.0
 73
     0
 74
     0
 75
     0
100
AcDbAlignedDimension
 13
53.1615546395262
 23
29.01929010446798
 33
0.0
 14
53.16155463952618
 24
25.89012061624182
 34
0.0
 50
90.0
100
AcDbRotatedDimension
  0
DIMENSION
  5
63A
330
18
100
AcDbEntity
  8
DIM
100
AcDbDimension
280
     0
  2
*D21
 10
55.0982449397342
 20
28.25124356702225
 30
0.0
 11
55.0982449397342
 21
27.51265536035491
 31
0.0
 12
-6.695999696840537
 22
-40.07790301585322
 32
0.0
 70
   128
 71
     5
 42
-1.0
 73
     0
 74
     0
 75
     0
100
AcDbAlignedDimension
 13
53.22296386412387
 23
26.65816715368754
 33
0.0
 14
53.22296386412387
 24
28.25124356702225
 34
0.0
 50
90.0
100
AcDbRotatedDimension
  0
DIMENSION
  5
63B
330
18
100
AcDbEntity
  8
DIM
100
AcDbDimension
280
     0
  2
*D22
 10
48.46296386412387
 20
28.29697583713419
 30
0.0
 11
48.46296386412387
 21
27.51265536035491
 31
0.0
 12
-6.695999696840537
 22
-40.07790301585322
 32
0.0
 70
   128
 71
     5
 42
-1.0
 73
     0
 74
     0
 75
     0
100
AcDbAlignedDimension
 13
50.60296386412387
 23
26.61243488357561
 33
0.0
 14
50.60296386412387
 24
28.29697583713419
 34
0.0
 50
90.0
100
AcDbRotatedDimension
  0
DIMENSION
  5
63C
330
18
100
AcDbEntity
  8
DIM
100
AcDbDimension
280
     0
  2
*D23
 10
46.71296386412387
 20
29.06395047257737
 30
0.0
 11
46.71296386412387
 21
27.51265536035491
 31
0.0
 12
-6.695999696840537
 22
-40.07790301585322
 32
0.0
 70
   128
 71
     5
 42
-1.0
 73
     0
 74
     0
 75
     0
100
AcDbAlignedDimension
 13
50.60296386412387
 23
25.84546024813243
 33
0.0
 14
50.60296386412387
 24
29.06395047257737
 34
0.0
 50
90.0
100
AcDbRotatedDimension
  0
DIMENSION
  5
63D
330
18
100
AcDbEntity
  8
DIM
100
AcDbDimension
280
     0
  2
*D24
 10
56.8482449397342
 20
28.61095536035488
 30
0.0
 11
56.8482449397342
 21
27.51265536035491
 31
0.0
 12
-6.695999696840537
 22
-40.07790301585322
 32
0.0
 70
   128
 71
     5
 42
-1.0
 73
     0
 74
     0
 75
     0
100
AcDbAlignedDimension
 13
53.34796386412387
 23
26.29845536035491
 33
0.0
 14
53.34796386412387
 24
28.61095536035488
 34
0.0
 50
90.0
100
AcDbRotatedDimension
  0
LINE
  5
63E
330
18
100
AcDbEntity
  8
0
100
AcDbLine
 10
23.68782399722757
 20
16.34671588836894
 30
0.0
 11
27.04054945604068
 21
16.34671588836894
 31
0.0
  0
LINE
  5
63F
330
18
100
AcDbEntity
  8
0
100
AcDbLine
 10
27.1767081526133
 20
16.48287458494156
 30
0.0
 11
27.04054945604068
 21
16.34671588836894
 31
0.0
  0
LINE
  5
640
330
18
100
AcDbEntity
  8
0
100
AcDbLine
 10
23.55166530065495
 20
16.48287458494156
 30
0.0
 11
23.68782399722757
 21
16.34671588836894
 31
0.0
  0
INSERT
  5
641
330
18
100
AcDbEntity
  8
DIM
100
AcDbBlockReference
  2
SBBB
 10
26.14244276068701
 20
25.36720945826611
 30
0.0
 41
2.0
 42
2.0
 43
2.0
  0
INSERT
  5
642
330
18
100
AcDbEntity
  8
DIM
100
AcDbBlockReference
  2
SBBT
 10
26.14244276068701
 20
29.49840416117146
 30
0.0
 41
2.0
 42
2.0
 43
2.0
  0
INSERT
  5
643
330
18
100
AcDbEntity
  8
DIM
100
AcDbBlockReference
  2
SAAR
 10
27.2697081526133
 20
27.41473149317809
 30
0.0
 41
2.0
 42
2.0
 43
2.0
  0
DIMENSION
  5
644
330
18
100
AcDbEntity
  8
DIM
100
AcDbDimension
280
     0
  2
*D25
 10
28.9267081526133
 20
17.10787458494156
 30
0.0
 11
28.9267081526133
 21
15.63412458494157
 31
0.0
 12
-3.6637025453985
 22
-41.92240424000863
 32
0.0
 70
   128
 71
     5
 42
-1.0
 73
     0
 74
     0
 75
     0
100
AcDbAlignedDimension
 13
26.81813098979992
 23
14.16037458494157
 33
0.0
 14
27.10107476753523
 24
17.10787458494156
 34
0.0
 50
90.0
100
AcDbRotatedDimension
  0
DIMENSION
  5
645
330
18
100
AcDbEntity
  8
DIM
100
AcDbDimension
280
     0
  2
*D38
 10
23.55166530065493
 20
31.54711311934252
 30
0.0
 11
25.43173672663411
 21
31.54711311934252
 31
0.0
 70
   128
 71
     5
 42
-1.0
 73
     0
 74
     0
 75
     0
100
AcDbAlignedDimension
 13
27.1767081526133
 23
29.00287678633409
 33
0.0
 14
23.55166530065493
 24
29.00287678633409
 34
0.0
100
AcDbRotatedDimension
  0
DIMENSION
  5
646
330
18
100
AcDbEntity
  8
DIM
100
AcDbDimension
280
     0
  2
*D26
 10
21.36074398702721
 20
29.31537678633409
 30
0.0
 11
21.36074398702723
 21
27.50896482673959
 31
0.0
 12
9.374161382729212
 22
0.0
 32
0.0
 70
   128
 71
     5
 42
-1.0
 73
     0
 74
     0
 75
     0
100
AcDbAlignedDimension
 13
23.86416530065495
 23
25.59403393437571
 33
0.0
 14
23.86416530065493
 24
29.31537678633409
 34
0.0
 50
90.0
100
AcDbRotatedDimension
  0
LINE
  5
647
330
18
100
AcDbEntity
  8
0
100
AcDbLine
 10
23.55166530065495
 20
16.67037458494156
 30
0.0
 11
27.1767081526133
 21
16.67037458494156
 31
0.0
  0
LINE
  5
648
330
18
100
AcDbEntity
  8
0
100
AcDbLine
 10
23.55166530065495
 20
16.65537458494156
 30
0.0
 11
27.1767081526133
 21
16.65537458494156
 31
0.0
  0
LINE
  5
649
330
18
100
AcDbEntity
  8
0
100
AcDbLine
 10
27.04054945604068
 20
16.34671588836894
 30
0.0
 11
27.00560243264174
 21
14.34460225873458
 31
0.0
  0
LINE
  5
64A
330
18
100
AcDbEntity
  8
0
100
AcDbLine
 10
23.68782399722757
 20
16.34671588836894
 30
0.0
 11
23.72277102062651
 21
14.34460225873458
 31
0.0
  0
ARC
  5
64B
330
18
100
AcDbEntity
  8
0
100
AcDbCircle
 10
26.81813098979992
 20
14.34787458494157
 30
0.0
 40
0.1875
100
AcDbArc
 50
270.0
 51
359.0
  0
ARC
  5
64C
330
18
100
AcDbEntity
  8
0
100
AcDbCircle
 10
23.91024246346834
 20
14.34787458494157
 30
0.0
 40
0.1875
100
AcDbArc
 50
181.0
 51
270.0
  0
LINE
  5
64D
330
18
100
AcDbEntity
  8
0
100
AcDbLine
 10
23.91024246346834
 20
14.16037458494157
 30
0.0
 11
26.81813098979992
 21
14.16037458494157
 31
0.0
  0
LINE
  5
64E
330
18
100
AcDbEntity
  8
0
100
AcDbLine
 10
27.1767081526133
 20
16.65537458494156
 30
0.0
 11
27.1767081526133
 21
16.48287458494156
 31
0.0
  0
LINE
  5
64F
330
18
100
AcDbEntity
  8
0
100
AcDbLine
 10
23.55166530065495
 20
16.65537458494156
 30
0.0
 11
23.55166530065495
 21
16.48287458494156
 31
0.0
  0
LINE
  5
650
330
18
100
AcDbEntity
  8
0
100
AcDbLine
 10
23.55166530065495
 20
16.48287458494156
 30
0.0
 11
27.1767081526133
 21
16.48287458494156
 31
0.0
  0
ARC
  5
651
330
18
100
AcDbEntity
  8
0
100
AcDbCircle
 10
27.10107476753523
 20
17.04537458494156
 30
0.0
 40
0.0625
100
AcDbArc
 50
2.000000000000015
 51
90.0
  0
ARC
  5
652
330
18
100
AcDbEntity
  8
0
100
AcDbCircle
 10
23.62729868573302
 20
17.04537458494156
 30
0.0
 40
0.0625
100
AcDbArc
 50
90.00000000000003
 51
178.0
  0
LINE
  5
653
330
18
100
AcDbEntity
  8
0
100
AcDbLine
 10
27.1767081526133
 20
16.67037458494156
 30
0.0
 11
27.16353669422391
 21
17.04755580348547
 31
0.0
  0
LINE
  5
654
330
18
100
AcDbEntity
  8
0
100
AcDbLine
 10
23.55166530065495
 20
16.67037458494156
 30
0.0
 11
23.56483675904433
 21
17.04755580348547
 31
0.0
  0
LINE
  5
655
330
18
100
AcDbEntity
  8
0
100
AcDbLine
 10
23.62729868573302
 20
17.10787458494156
 30
0.0
 11
27.10107476753523
 21
17.10787458494156
 31
0.0
  0
DIMENSION
  5
656
330
18
100
AcDbEntity
  8
DIM
100
AcDbDimension
280
     0
  2
*D27
 10
51.21717676573404
 20
17.10787458494156
 30
0.0
 11
51.91842676573404
 21
17.48187458494156
 31
0.0
 12
6.341864231287175
 22
0.0
 32
0.0
 71
     5
 42
-1.0
 73
     0
 74
     0
 75
     0
100
AcDbAlignedDimension
 13
51.18676113900205
 23
16.98287458494156
 33
0.0
 14
51.21108917118764
 24
17.10787458494156
 34
0.0
 50
90.0
100
AcDbRotatedDimension
  0
DIMENSION
  5
657
330
18
100
AcDbEntity
  8
DIM
100
AcDbDimension
280
     0
  2
*D28
 10
49.5701171852583
 20
14.16037458494157
 30
0.0
 11
48.86886718525829
 21
13.78637458494156
 31
0.0
 12
6.341864231287175
 22
0.0
 32
0.0
 71
     5
 42
-1.0
 73
     0
 74
     0
 75
     0
100
AcDbAlignedDimension
 13
50.4816881799028
 23
14.28537458494156
 33
0.0
 14
50.42026960095806
 24
14.16037458494157
 34
0.0
 50
90.0
100
AcDbRotatedDimension
  0
LWPOLYLINE
  5
658
330
18
100
AcDbEntity
  8
0
 62
     2
100
AcDbPolyline
 90
        4
 70
     1
 43
0.0
 10
50.2976540020032
 20
16.91337458494583
 42
0.9999834785717778
 10
50.2976540020032
 20
16.9758745849373
 10
50.22161375514117
 20
16.97587458493883
 42
1.000013231781622
 10
50.22161375514117
 20
16.9133745849443
  0
LWPOLYLINE
  5
65E
330
18
100
AcDbEntity
  8
0
 62
     2
100
AcDbPolyline
 90
        4
 70
     1
 43
0.0
 10
53.45077372624455
 20
16.91337458494583
 42
-0.9999834785717778
 10
53.45077372624455
 20
16.9758745849373
 10
53.52681397310657
 20
16.97587458493883
 42
-1.000013231781622
 10
53.52681397310657
 20
16.9133745849443
  0
SOLID
  5
664
330
18
100
AcDbEntity
  8
DIM
100
AcDbTrace
 10
50.12418439684024
 20
17.1102385047778
 30
0.0
 11
50.07607939346434
 21
17.07059820842864
 31
0.0
 12
50.21905278419975
 22
16.94610334647551
 32
0.0
 13
50.21905278419975
 23
16.94610334647551
 33
0.0
  0
LINE
  5
665
330
18
100
AcDbEntity
  8
DIM
100
AcDbLine
 10
50.10013189515229
 20
17.09041835660323
 30
0.0
 11
49.34592345127386
 21
18.00567891417673
 31
0.0
  0
LINE
  5
666
330
18
100
AcDbEntity
  8
DIM
100
AcDbLine
 10
49.34592345127386
 20
18.00567891417673
 30
0.0
 11
49.15892345127386
 21
18.00567891417673
 31
0.0
  0
TEXT
  5
667
330
18
100
AcDbEntity
  8
DIM
100
AcDbText
 10
47.89813530216279
 20
17.91217891417673
 30
0.0
 40
0.187
  1
GASKET
100
AcDbText
  0
LINE
  5
668
330
18
100
AcDbEntity
  8
DIM
100
AcDbLine
 10
28.06621442399109
 20
30.14443743221902
 30
0.0
 11
28.25321442399109
 21
30.14443743221902
 31
0.0
  0
TEXT
  5
669
330
18
100
AcDbEntity
  8
DIM
100
AcDbText
 10
28.44021442399109
 20
30.05093743221902
 30
0.0
 40
0.187
  1
10-24 X 3/4 S.S. 
100
AcDbText
  0
TEXT
  5
66A
330
18
100
AcDbEntity
  8
DIM
100
AcDbText
 10
28.45265294609144
 20
29.74022158559803
 30
0.0
 40
0.187
  1
PAN HD. SCREW
100
AcDbText
  0
TEXT
  5
66B
330
18
100
AcDbEntity
  8
DIM
100
AcDbText
 10
28.45265294609144
 20
29.42855491893136
 30
0.0
 40
0.187
  1
4 REQ'D.
100
AcDbText
  0
TEXT
  5
66E
330
18
100
AcDbEntity
  8
TITLE
100
AcDbText
 10
44.74101858325111
 20
2.421898353972657
 30
0.0
 40
0.187
  1
F.R. POLYESTER FIBERGLASS
100
AcDbText
  0
TEXT
  5
66F
330
18
100
AcDbEntity
  8
TITLE
100
AcDbText
 10
52.37442843698459
 20
2.403143248823269
 30
0.0
 40
0.187
  1
GF
100
AcDbText
  0
TEXT
  5
670
330
18
100
AcDbEntity
  8
TITLE
100
AcDbText
 10
56.3104177797388
 20
0.1900408411951275
 30
0.0
 40
0.187
  1
ENCLOSURE
100
AcDbText
  0
TEXT
  5
671
330
18
100
AcDbEntity
  8
TITLE
100
AcDbText
 10
61.06171108425122
 20
0.1830737823713733
 30
0.0
 40
0.187
  1
HW-N4X332
100
AcDbText
  0
TEXT
  5
673
330
18
100
AcDbEntity
  8
TITLE
100
AcDbText
 10
44.71726211672854
 20
3.637612348247252
 30
0.0
 40
0.187
  1
NEMA 4X
100
AcDbText
  0
TEXT
  5
674
330
18
100
AcDbEntity
  8
TITLE
100
AcDbText
 10
53.17456419876062
 20
2.385744489080259
 30
0.0
 40
0.187
  1
7/23/93
 41
0.800351545947276
 72
     5
 11
54.17233579270822
 21
2.385744489080259
 31
0.0
100
AcDbText
  0
DIMENSION
  5
675
330
18
100
AcDbEntity
  8
DIM
100
AcDbDimension
280
     0
  2
*D37
 10
53.34796386412387
 20
30.5756201968146
 30
0.0
 11
54.12713053079052
 21
30.5756201968146
 31
0.0
 70
   128
 71
     5
 42
-1.0
 73
     0
 74
     0
 75
     0
100
AcDbAlignedDimension
 13
52.84796386412387
 23
28.78345536035489
 33
0.0
 14
53.34796386412387
 24
28.9567996235207
 34
0.0
100
AcDbRotatedDimension
  0
DIMENSION
  5
676
330
18
100
AcDbEntity
  8
DIM
100
AcDbDimension
280
     0
  2
*D36
 10
50.60296386412387
 20
30.5756201968146
 30
0.0
 11
51.72546386412385
 21
30.5756201968146
 31
0.0
 70
   128
 71
     5
 42
-1.0
 73
     0
 74
     0
 75
     0
100
AcDbAlignedDimension
 13
52.84796386412387
 23
28.90845536035488
 33
0.0
 14
50.60296386412387
 24
29.16712404436492
 34
0.0
100
AcDbRotatedDimension
  0
LINE
  5
677
330
18
100
AcDbEntity
  8
0
100
AcDbLine
 10
50.65046386412387
 20
25.73896515277758
 30
0.0
 11
50.65046386412387
 21
25.71903393437571
 31
0.0
  0
LINE
  5
678
330
18
100
AcDbEntity
  8
HIDE
100
AcDbLine
 10
52.84796386412387
 20
28.71995536035491
 30
0.0
 11
52.84796386412387
 21
28.7834553603549
 31
0.0
  0
LINE
  5
679
330
18
100
AcDbEntity
  8
HIDE
100
AcDbLine
 10
52.84796386412387
 20
28.71995536035491
 30
0.0
 11
53.34796386412387
 21
28.71995536035491
 31
0.0
  0
LINE
  5
67A
330
18
100
AcDbEntity
  8
HIDE
100
AcDbLine
 10
52.84796386412387
 20
28.50195536035491
 30
0.0
 11
53.34796386412387
 21
28.50195536035491
 31
0.0
  0
LINE
  5
67B
330
18
100
AcDbEntity
  8
HIDE
100
AcDbLine
 10
52.84796386412387
 20
28.4384553603549
 30
0.0
 11
52.84796386412387
 21
28.50195536035491
 31
0.0
  0
LINE
  5
67C
330
18
100
AcDbEntity
  8
HIDE
100
AcDbLine
 10
52.84796386412387
 20
28.4384553603549
 30
0.0
 11
50.60296386412385
 21
28.4234553603549
 31
0.0
  0
LINE
  5
67D
330
18
100
AcDbEntity
  8
HIDE
100
AcDbLine
 10
52.84796386412387
 20
28.7834553603549
 30
0.0
 11
50.60296386412386
 21
28.7984553603549
 31
0.0
  0
LINE
  5
67E
330
18
100
AcDbEntity
  8
HIDE
100
AcDbLine
 10
52.84796386412387
 20
26.1259553603549
 30
0.0
 11
50.60296386412386
 21
26.11095536035492
 31
0.0
  0
LINE
  5
67F
330
18
100
AcDbEntity
  8
HIDE
100
AcDbLine
 10
52.84796386412387
 20
26.4709553603549
 30
0.0
 11
50.60296386412385
 21
26.48595536035492
 31
0.0
  0
LINE
  5
680
330
18
100
AcDbEntity
  8
HIDE
100
AcDbLine
 10
52.84796386412387
 20
26.4709553603549
 30
0.0
 11
52.84796386412387
 21
26.40745536035492
 31
0.0
  0
LINE
  5
681
330
18
100
AcDbEntity
  8
HIDE
100
AcDbLine
 10
52.84796386412387
 20
26.40745536035492
 30
0.0
 11
53.34796386412387
 21
26.40745536035492
 31
0.0
  0
LINE
  5
682
330
18
100
AcDbEntity
  8
HIDE
100
AcDbLine
 10
52.84796386412387
 20
26.18945536035491
 30
0.0
 11
53.34796386412387
 21
26.18945536035491
 31
0.0
  0
LINE
  5
683
330
18
100
AcDbEntity
  8
HIDE
100
AcDbLine
 10
52.84796386412387
 20
26.18945536035491
 30
0.0
 11
52.84796386412387
 21
26.1259553603549
 31
0.0
  0
LINE
  5
684
330
18
100
AcDbEntity
  8
0
100
AcDbLine
 10
50.60296386412386
 20
29.06395047257738
 30
0.0
 11
50.60296386412386
 21
25.84546024813243
 31
0.0
  0
LINE
  5
685
330
18
100
AcDbEntity
  8
0
100
AcDbLine
 10
53.22296386412387
 20
28.25124356702227
 30
0.0
 11
50.60296386412386
 21
28.29697583713421
 31
0.0
  0
LINE
  5
686
330
18
100
AcDbEntity
  8
0
100
AcDbLine
 10
53.22296386412387
 20
26.65816715368754
 30
0.0
 11
50.60296386412386
 21
26.61243488357561
 31
0.0
  0
LWPOLYLINE
  5
687
330
18
100
AcDbEntity
  8
0
100
AcDbPolyline
 90
       20
 70
     1
 43
0.0
 10
50.85296386412387
 20
25.72480497335899
 10
50.60296386412386
 20
25.74228667634488
 10
50.60296386412386
 20
25.84546024813243
 10
53.10014541492852
 20
25.88904871423929
 42
0.4091108014277082
 10
53.22296386412386
 20
26.01402967613384
 10
53.22296386412387
 20
28.89538104457598
 42
0.4091108014277101
 10
53.10014541492852
 20
29.02036200647053
 10
50.60296386412386
 20
29.06395047257738
 10
50.60296386412386
 20
29.16712404436493
 10
50.85296386412387
 20
29.18460574735082
 10
50.85296386412387
 20
29.31537678633411
 10
51.02546386412386
 20
29.31537678633411
 10
51.1616225606965
 20
29.17921808976147
 10
53.16373619033086
 20
29.14427106636254
 42
-0.4091108014277117
 10
53.34796386412387
 20
28.95679962352072
 10
53.34796386412387
 20
25.9526110971891
 42
-0.4091108014277119
 10
53.16373619033085
 20
25.76513965434727
 10
51.16162256069649
 20
25.73019263094835
 10
51.02546386412386
 20
25.59403393437571
 10
50.85296386412387
 20
25.59403393437571
  0
LINE
  5
69D
330
18
100
AcDbEntity
  8
HIDE
100
AcDbLine
 10
53.34796386412387
 20
26.18945536035491
 30
0.0
 11
53.34796386412387
 21
26.40745536035492
 31
0.0
  0
LINE
  5
69E
330
18
100
AcDbEntity
  8
HIDE
100
AcDbLine
 10
53.34796386412387
 20
28.50195536035491
 30
0.0
 11
53.34796386412387
 21
28.71995536035491
 31
0.0
  0
LINE
  5
69F
330
18
100
AcDbEntity
  8
0
100
AcDbLine
 10
24.00504682827243
 20
25.80807881362943
 30
0.0
 11
23.76571017990864
 21
26.04741546199321
 31
0.0
  0
LINE
  5
6A0
330
18
100
AcDbEntity
  8
0
100
AcDbLine
 10
23.96262042140123
 20
25.76565240675825
 30
0.0
 11
23.72328377303744
 21
26.00498905512202
 31
0.0
  0
CIRCLE
  5
6A1
330
18
100
AcDbEntity
  8
0
100
AcDbCircle
 10
23.86416530065495
 20
25.90653393437571
 30
0.0
 40
0.171875
  0
LINE
  5
6A2
330
18
100
AcDbEntity
  8
0
100
AcDbLine
 10
27.00508968023078
 20
25.80807881362943
 30
0.0
 11
26.76575303186699
 21
26.04741546199321
 31
0.0
  0
LINE
  5
6A3
330
18
100
AcDbEntity
  8
0
100
AcDbLine
 10
26.96266327335958
 20
25.76565240675825
 30
0.0
 11
26.7233266249958
 21
26.00498905512202
 31
0.0
  0
CIRCLE
  5
6A4
330
18
100
AcDbEntity
  8
0
100
AcDbCircle
 10
26.8642081526133
 20
25.90653393437571
 30
0.0
 40
0.171875
  0
LINE
  5
6A5
330
18
100
AcDbEntity
  8
0
100
AcDbLine
 10
27.00508968023078
 20
28.90442166558781
 30
0.0
 11
26.76575303186699
 21
29.1437583139516
 31
0.0
  0
LINE
  5
6A6
330
18
100
AcDbEntity
  8
0
100
AcDbLine
 10
26.96266327335958
 20
28.86199525871663
 30
0.0
 11
26.7233266249958
 21
29.10133190708041
 31
0.0
  0
CIRCLE
  5
6A7
330
18
100
AcDbEntity
  8
0
100
AcDbCircle
 10
26.8642081526133
 20
29.00287678633411
 30
0.0
 40
0.171875
  0
LINE
  5
6A8
330
18
100
AcDbEntity
  8
0
100
AcDbLine
 10
24.00504682827243
 20
28.90442166558781
 30
0.0
 11
23.76571017990864
 21
29.1437583139516
 31
0.0
  0
LINE
  5
6A9
330
18
100
AcDbEntity
  8
0
100
AcDbLine
 10
23.96262042140123
 20
28.86199525871663
 30
0.0
 11
23.72328377303744
 21
29.10133190708041
 31
0.0
  0
CIRCLE
  5
6AA
330
18
100
AcDbEntity
  8
0
100
AcDbCircle
 10
23.86416530065495
 20
29.00287678633411
 30
0.0
 40
0.171875
  0
CIRCLE
  5
6AB
330
18
100
AcDbEntity
  8
0
 62
     4
100
AcDbCircle
 10
23.86416530065495
 20
25.90653393437571
 30
0.0
 40
0.1875
  0
ARC
  5
6AC
330
18
100
AcDbEntity
  8
0
100
AcDbCircle
 10
23.86416530065495
 20
25.90653393437571
 30
0.0
 40
0.3125
100
AcDbArc
 50
180.0
 51
270.0
  0
ARC
  5
6AD
330
18
100
AcDbEntity
  8
0
100
AcDbCircle
 10
26.86420815261331
 20
25.90653393437571
 30
0.0
 40
0.3125
100
AcDbArc
 50
270.0
 51
0.0
  0
ARC
  5
6AE
330
18
100
AcDbEntity
  8
0
100
AcDbCircle
 10
26.8642081526133
 20
29.00287678633411
 30
0.0
 40
0.3125
100
AcDbArc
 50
0.0
 51
90.0
  0
ARC
  5
6AF
330
18
100
AcDbEntity
  8
0
100
AcDbCircle
 10
23.86416530065493
 20
29.00287678633411
 30
0.0
 40
0.3125
100
AcDbArc
 50
90.0
 51
180.0
  0
LINE
  5
6B0
330
18
100
AcDbEntity
  8
0
100
AcDbLine
 10
26.8642081526133
 20
29.31537678633411
 30
0.0
 11
23.86416530065493
 21
29.31537678633411
 31
0.0
  0
LINE
  5
6B1
330
18
100
AcDbEntity
  8
0
100
AcDbLine
 10
27.1767081526133
 20
25.90653393437571
 30
0.0
 11
27.1767081526133
 21
29.00287678633411
 31
0.0
  0
LINE
  5
6B2
330
18
100
AcDbEntity
  8
0
100
AcDbLine
 10
23.86416530065495
 20
25.59403393437571
 30
0.0
 11
26.8642081526133
 21
25.59403393437571
 31
0.0
  0
LINE
  5
6B3
330
18
100
AcDbEntity
  8
0
100
AcDbLine
 10
23.55166530065493
 20
29.00287678633411
 30
0.0
 11
23.55166530065495
 21
25.90653393437571
 31
0.0
  0
CIRCLE
  5
6B4
330
18
100
AcDbEntity
  8
0
 62
     4
100
AcDbCircle
 10
23.86416530065495
 20
29.00287678633411
 30
0.0
 40
0.1875
  0
CIRCLE
  5
6B5
330
18
100
AcDbEntity
  8
0
 62
     4
100
AcDbCircle
 10
26.8642081526133
 20
29.00287678633411
 30
0.0
 40
0.1875
  0
CIRCLE
  5
6B6
330
18
100
AcDbEntity
  8
0
 62
     4
100
AcDbCircle
 10
26.8642081526133
 20
25.90653393437571
 30
0.0
 40
0.1875
  0
LINE
  5
6B7
330
18
100
AcDbEntity
  8
0
100
AcDbLine
 10
36.57942585921786
 20
29.31537678633411
 30
0.0
 11
36.71558455579049
 21
29.17921808976148
 31
0.0
  0
LINE
  5
6B8
330
18
100
AcDbEntity
  8
0
100
AcDbLine
 10
36.71558455579049
 20
25.73019263094833
 30
0.0
 11
36.71558455579049
 21
29.17921808976148
 31
0.0
  0
LINE
  5
6B9
330
18
100
AcDbEntity
  8
0
100
AcDbLine
 10
36.57942585921786
 20
25.5940339343757
 30
0.0
 11
36.71558455579049
 21
25.73019263094833
 31
0.0
  0
LINE
  5
6BA
330
18
100
AcDbEntity
  8
0
100
AcDbLine
 10
35.95442585921787
 20
25.66966731945377
 30
0.0
 11
35.95442585921786
 21
29.23974340125603
 31
0.0
  0
LINE
  5
6BB
330
18
100
AcDbEntity
  8
0
100
AcDbLine
 10
36.39192585921786
 20
25.5940339343757
 30
0.0
 11
36.01474464067396
 21
25.60720539276509
 31
0.0
  0
LINE
  5
6BC
330
18
100
AcDbEntity
  8
0
100
AcDbLine
 10
36.39192585921786
 20
29.31537678633411
 30
0.0
 11
36.01474464067396
 21
29.30220532794471
 31
0.0
  0
ARC
  5
6BD
330
18
100
AcDbEntity
  8
0
100
AcDbCircle
 10
36.01692585921787
 20
25.66966731945377
 30
0.0
 40
0.0625
100
AcDbArc
 50
180.0
 51
267.9999999999999
  0
ARC
  5
6BE
330
18
100
AcDbEntity
  8
0
100
AcDbCircle
 10
36.01692585921786
 20
29.23974340125602
 30
0.0
 40
0.0625
100
AcDbArc
 50
92.00000000000001
 51
180.0
  0
LINE
  5
6BF
330
18
100
AcDbEntity
  8
0
100
AcDbLine
 10
36.57942585921786
 20
25.5940339343757
 30
0.0
 11
36.57942585921786
 21
29.31537678633411
 31
0.0
  0
LINE
  5
6C0
330
18
100
AcDbEntity
  8
0
100
AcDbLine
 10
36.40692585921786
 20
25.5940339343757
 30
0.0
 11
36.57942585921786
 21
25.5940339343757
 31
0.0
  0
LINE
  5
6C1
330
18
100
AcDbEntity
  8
0
100
AcDbLine
 10
36.40692585921786
 20
29.31537678633411
 30
0.0
 11
36.57942585921786
 21
29.31537678633411
 31
0.0
  0
LINE
  5
6C2
330
18
100
AcDbEntity
  8
0
100
AcDbLine
 10
38.90192585921786
 20
25.9526110971891
 30
0.0
 11
38.90192585921785
 21
28.95679962352072
 31
0.0
  0
ARC
  5
6C3
330
18
100
AcDbEntity
  8
0
100
AcDbCircle
 10
38.71442585921786
 20
25.9526110971891
 30
0.0
 40
0.1875
100
AcDbArc
 50
271.0
 51
0.0
  0
ARC
  5
6C4
330
18
100
AcDbEntity
  8
0
100
AcDbCircle
 10
38.71442585921785
 20
28.95679962352072
 30
0.0
 40
0.1875
100
AcDbArc
 50
0.0
 51
89.0
  0
LINE
  5
6C5
330
18
100
AcDbEntity
  8
0
100
AcDbLine
 10
36.71558455579049
 20
25.73019263094833
 30
0.0
 11
38.71769818542486
 21
25.76513965434727
 31
0.0
  0
LINE
  5
6C6
330
18
100
AcDbEntity
  8
0
100
AcDbLine
 10
36.71558455579049
 20
29.17921808976148
 30
0.0
 11
38.71769818542484
 21
29.14427106636254
 31
0.0
  0
LINE
  5
6C7
330
18
100
AcDbEntity
  8
0
100
AcDbLine
 10
36.40692585921786
 20
25.5940339343757
 30
0.0
 11
36.40692585921786
 21
29.31537678633411
 31
0.0
  0
LINE
  5
6C8
330
18
100
AcDbEntity
  8
0
100
AcDbLine
 10
36.39192585921786
 20
25.5940339343757
 30
0.0
 11
36.39192585921786
 21
29.31537678633411
 31
0.0
  0
SOLID
  5
6C9
330
18
100
AcDbEntity
  8
DIM
100
AcDbTrace
 10
27.10644629094302
 20
29.17122254728543
 30
0.0
 11
27.06307396372999
 21
29.21599179651489
 31
0.0
 12
26.9504523796481
 22
29.06349019026107
 32
0.0
 13
26.9504523796481
 23
29.06349019026107
 33
0.0
  0
LINE
  5
6CA
330
18
100
AcDbEntity
  8
DIM
100
AcDbLine
 10
27.0847601273365
 20
29.19360717190016
 30
0.0
 11
28.06621442399109
 21
30.14443743221902
 31
0.0
  0
INSERT
  5
6CB
330
18
100
AcDbEntity
  8
HATCH
100
AcDbBlockReference
  2
*X12
 10
101.5296092085952
 20
48.73079294758152
 30
0.0
 50
180.0
  0
LWPOLYLINE
  5
6CC
330
18
100
AcDbEntity
  8
0
100
AcDbPolyline
 90
       12
 70
     1
 43
0.0
 10
50.52546386412387
 20
25.75028393437571
 10
50.52546386412386
 20
29.15912678633412
 42
-0.4142135623730951
 10
50.55671386412386
 20
29.19037678633412
 10
50.83796386412386
 20
29.19037678633412
 10
50.83796386412386
 20
29.31537678633412
 10
50.46078264557996
 20
29.30220532794473
 42
0.4040262258351378
 10
50.40046386412386
 20
29.23974340125604
 10
50.40046386412387
 20
25.66966731945379
 42
0.4040262258351551
 10
50.46078264557996
 20
25.6072053927651
 10
50.83796386412386
 20
25.59403393437571
 10
50.83796386412386
 20
25.71903393437571
 10
50.55671386412387
 20
25.71903393437571
 42
-0.4142135623730951
  0
LINE
  5
6DA
330
18
100
AcDbEntity
  8
0
100
AcDbLine
 10
50.83796386412386
 20
25.71903393437571
 30
0.0
 11
50.83796386412386
 21
25.72585387553816
 31
0.0
  0
INSERT
  5
6DB
330
18
100
AcDbEntity
  8
HATCH
100
AcDbBlockReference
  2
*X11
 10
93.22813393545075
 20
33.18848663839153
 30
0.0
 50
180.0
  0
LWPOLYLINE
  5
6DC
330
18
100
AcDbEntity
  8
0
100
AcDbPolyline
 90
       12
 70
     1
 43
0.0
 10
53.56173529010305
 20
16.95162458494158
 42
0.4142135623730951
 10
53.53048529010305
 20
16.98287458494154
 10
50.21794243814469
 20
16.98287458494156
 42
0.4142135623730951
 10
50.18669243814469
 20
16.95162458494156
 10
50.18669243814469
 20
16.67037458494156
 10
50.06169243814469
 20
16.67037458494156
 10
50.07486389653408
 20
17.04755580348547
 42
-0.4040262258351711
 10
50.13732582322278
 20
17.10787458494156
 10
53.61110190502498
 20
17.10787458494156
 42
-0.4040262258351709
 10
53.67356383171367
 20
17.04755580348547
 10
53.68673529010306
 20
16.67037458494156
 10
53.56173529010305
 20
16.67037458494156
  0
LINE
  5
6EB
330
18
100
AcDbEntity
  8
0
100
AcDbLine
 10
50.83796386412386
 20
29.18355684517167
 30
0.0
 11
50.83796386412386
 21
29.19037678633412
 31
0.0
  0
LINE
  5
6EC
330
18
100
AcDbEntity
  8
0
100
AcDbLine
 10
50.65046386412387
 20
29.17044556793225
 30
0.0
 11
50.65046386412387
 21
29.19037678633412
 31
0.0
  0
LINE
  5
6ED
330
18
100
AcDbEntity
  8
0
100
AcDbLine
 10
50.65046386412387
 20
25.73896515277756
 30
0.0
 11
50.65046386412387
 21
25.71903393437571
 31
0.0
  0
LWPOLYLINE
  5
6EE
330
18
100
AcDbEntity
  8
0
 62
     2
100
AcDbPolyline
 90
        4
 70
     1
 43
0.0
 10
50.59496386411961
 20
25.82999549823422
 42
0.9999834785717778
 10
50.53246386412813
 20
25.82999549823422
 10
50.5324638641266
 20
25.75395525137218
 42
1.000013231781622
 10
50.59496386412114
 20
25.75395525137218
  0
LWPOLYLINE
  5
6F4
330
18
100
AcDbEntity
  8
0
 62
     2
100
AcDbPolyline
 90
        4
 70
     1
 43
0.0
 10
50.59496386411961
 20
29.0794152224756
 42
-0.9999834785717778
 10
50.53246386412813
 20
29.0794152224756
 10
50.5324638641266
 20
29.15545546933762
 42
-1.000013231781622
 10
50.59496386412114
 20
29.15545546933762
  0
INSERT
  5
6FA
330
18
100
AcDbEntity
  8
HATCH
100
AcDbBlockReference
  2
*X13
 10
6.301864231287183
 20
4.914753396970425
 30
0.0
  0
TEXT
  5
6FC
330
18
100
AcDbEntity
  8
DIM
100
AcDbText
 10
29.7624936941542
 20
15.52789394294771
 30
0.0
 40
0.2
  1
REF.
100
AcDbText
  0
LINE
  5
6FD
330
18
100
AcDbEntity
  8
HIDE
100
AcDbLine
 10
52.84796386412387
 20
28.50195536035491
 30
0.0
 11
52.84796386412387
 21
28.71995536035491
 31
0.0
  0
LINE
  5
6FE
330
18
100
AcDbEntity
  8
HIDE
100
AcDbLine
 10
52.84796386412387
 20
26.18945536035491
 30
0.0
 11
52.84796386412387
 21
26.40745536035492
 31
0.0
  0
LWPOLYLINE
  5
6FF
330
18
100
AcDbEntity
  8
0
100
AcDbPolyline
 90
       24
 70
     1
 43
0.0
 10
10.98778887784908
 20
26.49173488357561
 10
11.11283861365855
 20
26.49173488357561
 42
-0.414213562373101
 10
11.28283861365856
 20
26.32173488357562
 10
11.28283861365856
 20
25.92978667634489
 42
0.4142135623730902
 10
11.48783861365855
 20
25.72478667634488
 10
13.44127651005959
 20
25.72478667634488
 42
0.4142135623730902
 10
13.64627651005959
 20
25.92978667634489
 10
13.64627651005959
 20
26.32173488357561
 42
-0.414213562373101
 10
13.81627651005959
 20
26.49173488357561
 10
13.94132624586908
 20
26.49173488357561
 42
0.4142135623730902
 10
14.14632624586907
 20
26.69673488357561
 10
14.14632624586907
 20
28.21267583713421
 42
0.4142135623730902
 10
13.94132624586908
 20
28.41767583713421
 10
13.81627651005961
 20
28.41767583713421
 42
-0.414213562373101
 10
13.6462765100596
 20
28.58767583713421
 10
13.64627651005959
 20
28.97962404436493
 42
0.4142135623730902
 10
13.44127651005959
 20
29.18462404436493
 10
11.48783861365855
 20
29.18462404436493
 42
0.4142135623730902
 10
11.28283861365856
 20
28.97962404436493
 10
11.28283861365855
 20
28.58767583713419
 42
-0.414213562373101
 10
11.11283861365855
 20
28.41767583713419
 10
10.98778887784906
 20
28.41767583713419
 42
0.4142135623730902
 10
10.78278887784906
 20
28.21267583713419
 10
10.78278887784908
 20
26.69673488357561
 42
0.4142135623730902
  0
LWPOLYLINE
  5
719
330
18
100
AcDbEntity
  8
0
100
AcDbPolyline
 90
       24
 70
     1
 43
0.0
 10
10.98778887784908
 20
26.50923488357561
 10
11.11283861365855
 20
26.50923488357562
 42
-0.4142135623731
 10
11.30033861365856
 20
26.32173488357562
 10
11.30033861365856
 20
25.92978667634489
 42
0.414213562373097
 10
11.48783861365855
 20
25.74228667634488
 10
13.44127651005959
 20
25.74228667634488
 42
0.4142135623730946
 10
13.62877651005959
 20
25.92978667634489
 10
13.62877651005959
 20
26.32173488357561
 42
-0.4142135623730975
 10
13.81627651005959
 20
26.50923488357561
 10
13.94132624586908
 20
26.50923488357561
 42
0.4142135623730961
 10
14.12882624586908
 20
26.69673488357561
 10
14.12882624586908
 20
28.21267583713421
 42
0.4142135623730956
 10
13.94132624586908
 20
28.40017583713421
 10
13.81627651005961
 20
28.40017583713421
 42
-0.4142135623730927
 10
13.62877651005961
 20
28.58767583713421
 10
13.62877651005959
 20
28.97962404436493
 42
0.4142135623730961
 10
13.44127651005959
 20
29.16712404436493
 10
11.48783861365855
 20
29.16712404436493
 42
0.4142135623730923
 10
11.30033861365856
 20
28.97962404436493
 10
11.30033861365855
 20
28.58767583713419
 42
-0.4142135623730951
 10
11.11283861365855
 20
28.40017583713419
 10
10.98778887784906
 20
28.40017583713419
 42
0.4142135623730961
 10
10.80028887784906
 20
28.21267583713419
 10
10.80028887784908
 20
26.69673488357561
 42
0.4142135623730975
  0
LINE
  5
733
330
18
100
AcDbEntity
  8
0
100
AcDbLine
 10
13.96457898783825
 20
25.59403393437571
 30
0.0
 11
10.96453613587989
 21
25.59403393437571
 31
0.0
  0
LINE
  5
734
330
18
100
AcDbEntity
  8
0
100
AcDbLine
 10
13.96457898783825
 20
29.31537678633411
 30
0.0
 11
10.96453613587989
 21
29.31537678633411
 31
0.0
  0
LWPOLYLINE
  5
735
330
18
100
AcDbEntity
  8
0
100
AcDbPolyline
 90
       24
 70
     1
 43
0.0
 10
10.99728887784908
 20
26.6122348835756
 10
11.11283861365855
 20
26.61223488357562
 42
-0.4142135623730982
 10
11.40333861365856
 20
26.32173488357562
 10
11.40333861365856
 20
25.93928667634489
 42
0.4142135623730956
 10
11.49733861365856
 20
25.84528667634488
 10
13.43177651005959
 20
25.84528667634488
 42
0.4142135623730888
 10
13.52577651005958
 20
25.93928667634489
 10
13.5257765100596
 20
26.32173488357561
 42
-0.4142135623730982
 10
13.81627651005959
 20
26.61223488357562
 10
13.93182624586907
 20
26.6122348835756
 42
0.4142135623731029
 10
14.02582624586907
 20
26.70623488357561
 10
14.02582624586908
 20
28.2031758371342
 42
0.4142135623730789
 10
13.93182624586909
 20
28.29717583713421
 10
13.81627651005961
 20
28.29717583713421
 42
-0.4142135623730982
 10
13.5257765100596
 20
28.58767583713421
 10
13.5257765100596
 20
28.97012404436493
 42
0.4142135623730855
 10
13.43177651005959
 20
29.06412404436494
 10
11.49733861365856
 20
29.06412404436493
 42
0.4142135623730888
 10
11.40333861365856
 20
28.97012404436493
 10
11.40333861365855
 20
28.58767583713419
 42
-0.4142135623730982
 10
11.11283861365855
 20
28.2971758371342
 10
10.99728887784907
 20
28.2971758371342
 42
0.4142135623730961
 10
10.90328887784907
 20
28.20317583713419
 10
10.90328887784908
 20
26.70623488357561
 42
0.4142135623731023
  0
DIMENSION
  5
74F
330
18
100
AcDbEntity
  8
DIM
100
AcDbDimension
280
     0
  2
*D33
 10
10.96453613587987
 20
31.54711311934252
 30
0.0
 11
12.46455756185907
 21
31.54711311934252
 31
0.0
 12
1.463820556046613
 22
0.0
 32
0.0
 70
   128
 71
     5
 42
-1.0
 73
     0
 74
     0
 75
     0
100
AcDbAlignedDimension
 13
13.96457898783828
 23
29.09172678633412
 33
0.0
 14
10.96453613587987
 24
29.09172678633412
 34
0.0
100
AcDbRotatedDimension
  0
DIMENSION
  5
750
330
18
100
AcDbEntity
  8
DIM
100
AcDbDimension
280
     0
  2
*D32
 10
13.83955756185907
 20
30.57562019681461
 30
0.0
 11
12.46455756185907
 21
30.57562019681461
 31
0.0
 12
1.463820556046613
 22
0.0
 32
0.0
 70
   128
 71
     5
 42
-1.0
 73
     0
 74
     0
 75
     0
100
AcDbAlignedDimension
 13
11.08955756185906
 23
28.70095536035491
 33
0.0
 14
13.83955756185907
 24
28.70095536035491
 34
0.0
100
AcDbRotatedDimension
  0
LWPOLYLINE
  5
751
330
18
100
AcDbEntity
  8
0
100
AcDbPolyline
 90
       24
 70
     1
 43
0.0
 10
10.99728887784908
 20
26.65703488357561
 10
11.11283861365855
 20
26.65703488357561
 42
-0.4142135623730958
 10
11.44813861365856
 20
26.32173488357562
 10
11.44813861365856
 20
25.93928667634489
 42
0.4142135623730903
 10
11.49733861365856
 20
25.89008667634487
 10
13.43177651005959
 20
25.89008667634487
 42
0.4142135623730903
 10
13.48097651005959
 20
25.93928667634489
 10
13.48097651005959
 20
26.32173488357561
 42
-0.4142135623730958
 10
13.81627651005959
 20
26.65703488357561
 10
13.93182624586907
 20
26.65703488357561
 42
0.4142135623730903
 10
13.98102624586907
 20
26.70623488357561
 10
13.98102624586907
 20
28.2031758371342
 42
0.4142135623730268
 10
13.93182624586909
 20
28.2523758371342
 10
13.81627651005961
 20
28.2523758371342
 42
-0.4142135623731051
 10
13.4809765100596
 20
28.58767583713421
 10
13.48097651005959
 20
28.97012404436493
 42
0.4142135623730691
 10
13.43177651005959
 20
29.01932404436493
 10
11.49733861365856
 20
29.01932404436493
 42
0.4142135623730691
 10
11.44813861365856
 20
28.97012404436493
 10
11.44813861365855
 20
28.58767583713419
 42
-0.4142135623730989
 10
11.11283861365855
 20
28.25237583713419
 10
10.99728887784907
 20
28.25237583713419
 42
0.4142135623730691
 10
10.94808887784907
 20
28.20317583713419
 10
10.94808887784908
 20
26.70623488357561
 42
0.4142135623730903
  0
DIMENSION
  5
76B
330
18
100
AcDbEntity
  8
DIM
100
AcDbDimension
280
     0
  2
*D31
 10
8.870493885735555
 20
28.6109553603549
 30
0.0
 11
8.870493885735555
 21
27.45370536035491
 31
0.0
 12
1.463820556046613
 22
0.0
 32
0.0
 70
   128
 71
     5
 42
-1.0
 73
     0
 74
     0
 75
     0
100
AcDbAlignedDimension
 13
10.99955756185906
 23
26.29845536035491
 33
0.0
 14
10.99955756185906
 24
28.6109553603549
 34
0.0
 50
90.0
100
AcDbRotatedDimension
  0
DIMENSION
  5
76C
330
18
100
AcDbEntity
  8
DIM
100
AcDbDimension
280
     0
  2
*D34
 10
7.35141768085386
 20
29.00172678633411
 30
0.0
 11
7.35141768085386
 21
27.45370536035491
 31
0.0
 12
1.463820556046613
 22
0.0
 32
0.0
 70
   128
 71
     5
 42
-1.0
 73
     0
 74
     0
 75
     0
100
AcDbAlignedDimension
 13
10.87453613587987
 23
25.90768393437571
 33
0.0
 14
10.87453613587987
 24
29.00172678633411
 34
0.0
 50
90.0
100
AcDbRotatedDimension
  0
LINE
  5
76D
330
18
100
AcDbEntity
  8
0
100
AcDbLine
 10
10.65203613587989
 20
25.90653393437571
 30
0.0
 11
10.65203613587989
 21
29.00287678633411
 31
0.0
  0
LINE
  5
76E
330
18
100
AcDbEntity
  8
CENTER
100
AcDbLine
 10
10.87453613587987
 20
25.90768393437571
 30
0.0
 11
11.05453613587987
 21
25.90768393437571
 31
0.0
  0
CIRCLE
  5
76F
330
18
100
AcDbEntity
  8
0
100
AcDbCircle
 10
11.08955756185906
 20
26.29845536035491
 30
0.0
 40
0.1875
  0
CIRCLE
  5
770
330
18
100
AcDbEntity
  8
0
 62
     4
100
AcDbCircle
 10
10.96453613587987
 20
25.90768393437571
 30
0.0
 40
0.109
  0
CIRCLE
  5
771
330
18
100
AcDbEntity
  8
0
 62
     4
100
AcDbCircle
 10
10.96453613587987
 20
25.90768393437571
 30
0.0
 40
0.076
  0
ARC
  5
772
330
18
100
AcDbEntity
  8
0
100
AcDbCircle
 10
10.96453613587989
 20
25.90653393437571
 30
0.0
 40
0.3125
100
AcDbArc
 50
180.0
 51
270.0
  0
CIRCLE
  5
773
330
18
100
AcDbEntity
  8
0
100
AcDbCircle
 10
11.08955756185906
 20
26.29845536035491
 30
0.0
 40
0.109
  0
LINE
  5
774
330
18
100
AcDbEntity
  8
CENTER
100
AcDbLine
 10
10.99955756185906
 20
26.29845536035491
 30
0.0
 11
11.17955756185907
 21
26.29845536035491
 31
0.0
  0
LINE
  5
775
330
18
100
AcDbEntity
  8
CENTER
100
AcDbLine
 10
11.08955756185906
 20
26.20845536035491
 30
0.0
 11
11.08955756185906
 21
26.38845536035492
 31
0.0
  0
CIRCLE
  5
776
330
18
100
AcDbEntity
  8
0
100
AcDbCircle
 10
11.08955756185906
 20
26.29845536035491
 30
0.0
 40
0.1725
  0
LINE
  5
777
330
18
100
AcDbEntity
  8
CENTER
100
AcDbLine
 10
10.96453613587987
 20
25.81768393437572
 30
0.0
 11
10.96453613587987
 21
25.99768393437571
 31
0.0
  0
CIRCLE
  5
778
330
18
100
AcDbEntity
  8
0
100
AcDbCircle
 10
11.08955756185906
 20
28.6109553603549
 30
0.0
 40
0.1875
  0
CIRCLE
  5
779
330
18
100
AcDbEntity
  8
0
100
AcDbCircle
 10
11.08955756185906
 20
28.6109553603549
 30
0.0
 40
0.109
  0
LINE
  5
77A
330
18
100
AcDbEntity
  8
CENTER
100
AcDbLine
 10
10.99955756185906
 20
28.6109553603549
 30
0.0
 11
11.17955756185907
 21
28.6109553603549
 31
0.0
  0
LINE
  5
77B
330
18
100
AcDbEntity
  8
CENTER
100
AcDbLine
 10
11.08955756185906
 20
28.5209553603549
 30
0.0
 11
11.08955756185906
 21
28.70095536035491
 31
0.0
  0
CIRCLE
  5
77C
330
18
100
AcDbEntity
  8
0
100
AcDbCircle
 10
11.08955756185906
 20
28.6109553603549
 30
0.0
 40
0.1725
  0
LINE
  5
77D
330
18
100
AcDbEntity
  8
CENTER
100
AcDbLine
 10
10.87453613587987
 20
29.00172678633411
 30
0.0
 11
11.05453613587987
 21
29.00172678633411
 31
0.0
  0
ARC
  5
77E
330
18
100
AcDbEntity
  8
0
100
AcDbCircle
 10
10.96453613587989
 20
29.00287678633411
 30
0.0
 40
0.3125
100
AcDbArc
 50
90.0
 51
180.0
  0
CIRCLE
  5
77F
330
18
100
AcDbEntity
  8
0
 62
     4
100
AcDbCircle
 10
10.96453613587987
 20
29.00172678633411
 30
0.0
 40
0.076
  0
CIRCLE
  5
780
330
18
100
AcDbEntity
  8
0
 62
     4
100
AcDbCircle
 10
10.96453613587987
 20
29.00172678633411
 30
0.0
 40
0.109
  0
LINE
  5
781
330
18
100
AcDbEntity
  8
CENTER
100
AcDbLine
 10
10.96453613587987
 20
28.91172678633411
 30
0.0
 11
10.96453613587987
 21
29.09172678633412
 31
0.0
  0
LINE
  5
782
330
18
100
AcDbEntity
  8
0
100
AcDbLine
 10
14.27707898783825
 20
25.90653393437571
 30
0.0
 11
14.27707898783825
 21
29.00287678633411
 31
0.0
  0
LINE
  5
783
330
18
100
AcDbEntity
  8
CENTER
100
AcDbLine
 10
13.87457898783827
 20
25.90768393437571
 30
0.0
 11
14.05457898783828
 21
25.90768393437571
 31
0.0
  0
ARC
  5
784
330
18
100
AcDbEntity
  8
0
100
AcDbCircle
 10
13.96457898783825
 20
25.90653393437571
 30
0.0
 40
0.3125
100
AcDbArc
 50
270.0
 51
0.0
  0
CIRCLE
  5
785
330
18
100
AcDbEntity
  8
0
 62
     4
100
AcDbCircle
 10
13.96457898783828
 20
25.90768393437571
 30
0.0
 40
0.076
  0
CIRCLE
  5
786
330
18
100
AcDbEntity
  8
0
 62
     4
100
AcDbCircle
 10
13.96457898783828
 20
25.90768393437571
 30
0.0
 40
0.109
  0
CIRCLE
  5
787
330
18
100
AcDbEntity
  8
0
100
AcDbCircle
 10
13.83955756185907
 20
26.29845536035491
 30
0.0
 40
0.109
  0
LINE
  5
788
330
18
100
AcDbEntity
  8
CENTER
100
AcDbLine
 10
13.74955756185906
 20
26.29845536035491
 30
0.0
 11
13.92955756185907
 21
26.29845536035491
 31
0.0
  0
LINE
  5
789
330
18
100
AcDbEntity
  8
CENTER
100
AcDbLine
 10
13.83955756185907
 20
26.20845536035491
 30
0.0
 11
13.83955756185907
 21
26.38845536035492
 31
0.0
  0
CIRCLE
  5
78A
330
18
100
AcDbEntity
  8
0
100
AcDbCircle
 10
13.83955756185907
 20
26.29845536035491
 30
0.0
 40
0.1875
  0
CIRCLE
  5
78B
330
18
100
AcDbEntity
  8
0
100
AcDbCircle
 10
13.83955756185907
 20
26.29845536035491
 30
0.0
 40
0.1725
  0
LINE
  5
78C
330
18
100
AcDbEntity
  8
CENTER
100
AcDbLine
 10
13.96457898783828
 20
25.81768393437572
 30
0.0
 11
13.96457898783828
 21
25.99768393437571
 31
0.0
  0
CIRCLE
  5
78D
330
18
100
AcDbEntity
  8
0
100
AcDbCircle
 10
13.83955756185907
 20
28.6109553603549
 30
0.0
 40
0.109
  0
LINE
  5
78E
330
18
100
AcDbEntity
  8
CENTER
100
AcDbLine
 10
13.74955756185906
 20
28.6109553603549
 30
0.0
 11
13.92955756185907
 21
28.6109553603549
 31
0.0
  0
LINE
  5
78F
330
18
100
AcDbEntity
  8
CENTER
100
AcDbLine
 10
13.83955756185907
 20
28.5209553603549
 30
0.0
 11
13.83955756185907
 21
28.70095536035491
 31
0.0
  0
CIRCLE
  5
790
330
18
100
AcDbEntity
  8
0
100
AcDbCircle
 10
13.83955756185907
 20
28.6109553603549
 30
0.0
 40
0.1875
  0
CIRCLE
  5
791
330
18
100
AcDbEntity
  8
0
100
AcDbCircle
 10
13.83955756185907
 20
28.6109553603549
 30
0.0
 40
0.1725
  0
LINE
  5
792
330
18
100
AcDbEntity
  8
CENTER
100
AcDbLine
 10
13.87457898783827
 20
29.00172678633411
 30
0.0
 11
14.05457898783828
 21
29.00172678633411
 31
0.0
  0
ARC
  5
793
330
18
100
AcDbEntity
  8
0
100
AcDbCircle
 10
13.96457898783825
 20
29.00287678633411
 30
0.0
 40
0.3125
100
AcDbArc
 50
0.0
 51
90.0
  0
CIRCLE
  5
794
330
18
100
AcDbEntity
  8
0
 62
     4
100
AcDbCircle
 10
13.96457898783828
 20
29.00172678633411
 30
0.0
 40
0.076
  0
CIRCLE
  5
795
330
18
100
AcDbEntity
  8
0
 62
     4
100
AcDbCircle
 10
13.96457898783828
 20
29.00172678633411
 30
0.0
 40
0.109
  0
LINE
  5
796
330
18
100
AcDbEntity
  8
CENTER
100
AcDbLine
 10
13.96457898783828
 20
28.91172678633411
 30
0.0
 11
13.96457898783828
 21
29.09172678633412
 31
0.0
  0
SOLID
  5
797
330
18
100
AcDbEntity
  8
DIM
100
AcDbTrace
 10
14.19912355240293
 20
29.17027225205522
 30
0.0
 11
14.15474145069342
 21
29.2140406595233
 31
0.0
 12
14.04562727914395
 22
29.05901015066074
 32
0.0
 13
14.04562727914395
 23
29.05901015066074
 33
0.0
  0
LINE
  5
798
330
18
100
AcDbEntity
  8
DIM
100
AcDbLine
 10
14.17693250154818
 20
29.19215645578926
 30
0.0
 11
14.93347077505544
 21
29.95930245319447
 31
0.0
  0
LINE
  5
799
330
18
100
AcDbEntity
  8
DIM
100
AcDbLine
 10
14.93347077505544
 20
29.95930245319447
 30
0.0
 11
15.12047077505544
 21
29.95930245319447
 31
0.0
  0
TEXT
  5
79A
330
18
100
AcDbEntity
  8
DIM
100
AcDbText
 10
15.30747077505544
 20
29.86580245319447
 30
0.0
 40
0.187
  1
10-24 BRASS INSERT
 11
15.30747077505544
 21
29.95930245319447
 31
0.0
100
AcDbText
 73
     2
  0
TEXT
  5
79B
330
18
100
AcDbEntity
  8
DIM
100
AcDbText
 10
15.29445142899576
 20
29.54177557514539
 30
0.0
 40
0.187
  1
4 PLC'S.
100
AcDbText
  0
LINE
  5
79C
330
18
100
AcDbEntity
  8
DIM
100
AcDbLine
 10
11.26409132495657
 20
23.75857231800003
 30
0.0
 11
13.66502379876157
 21
23.75857231800003
 31
0.0
  0
LINE
  5
79D
330
18
100
AcDbEntity
  8
DIM
100
AcDbLine
 10
11.26409132495657
 20
23.71857231800003
 30
0.0
 11
13.66502379876157
 21
23.71857231800003
 31
0.0
  0
TEXT
  5
79E
330
18
100
AcDbEntity
  8
DIM
100
AcDbText
 10
11.25739506142521
 20
23.82947474701177
 30
0.0
 40
0.312
  1
TOP VIEW
  7
COMPLEX
100
AcDbText
  0
TEXT
  5
79F
330
18
100
AcDbEntity
  8
DIM
100
AcDbText
 10
11.25073533065705
 20
23.38972732844362
 30
0.0
 40
0.187
  1
WITHOUT COVER
100
AcDbText
  0
DIMENSION
  5
7A0
330
18
100
AcDbEntity
  8
DIM
100
AcDbDimension
280
     0
  2
*D29
 10
13.71123120973467
 20
26.41373153894549
 30
0.0
 11
15.41270100087809
 21
25.62721796108837
 31
0.0
 12
1.463820556046613
 22
0.0
 32
0.0
 70
     3
 71
     5
 42
-1.0
 73
     0
 74
     0
 75
     0
100
AcDbDiametricDimension
 15
13.96788391398347
 25
26.18317918176435
 35
0.0
 40
0.8319438737402043
  0
DIMENSION
  5
7A1
330
18
100
AcDbEntity
  8
DIM
100
AcDbDimension
280
     0
  2
*D30
 10
13.74122650757546
 20
26.25142341627993
 30
0.0
 11
15.35862610277922
 21
26.64489839767636
 31
0.0
 12
1.463820556046613
 22
0.0
 32
0.0
 70
     3
 71
     5
 42
-1.0
 73
     0
 74
     0
 75
     0
100
AcDbDiametricDimension
 15
13.93788861614268
 25
26.34548730442992
 35
0.0
 40
0.6939072965350307
  0
TEXT
  5
7A2
330
18
100
AcDbEntity
  8
DIM
100
AcDbText
 10
14.89424368914672
 20
26.20568102754613
 30
0.0
 40
0.187
  1
4 PLC'S.
100
AcDbText
  0
TEXT
  5
7A3
330
18
100
AcDbEntity
  8
DIM
100
AcDbText
 10
14.89424368914672
 20
25.2184879463045
 30
0.0
 40
0.187
  1
4 PLC'S.
100
AcDbText
  0
LINE
  5
7A4
330
18
100
AcDbEntity
  8
HIDE
100
AcDbLine
 10
50.39021386412387
 20
14.66037458494156
 30
0.0
 11
50.60821386412388
 21
14.66037458494156
 31
0.0
  0
LINE
  5
7A5
330
18
100
AcDbEntity
  8
HIDE
100
AcDbLine
 10
53.14021386412386
 20
14.66037458494156
 30
0.0
 11
53.35821386412387
 21
14.66037458494156
 31
0.0
  0
TEXT
  5
B8E
330
18
100
AcDbEntity
  8
TITLE
100
AcDbText
 10
60.76706159810033
 20
3.267587343889921
 30
0.0
 40
0.187
  1
.010
100
AcDbText
  0
TEXT
  5
B8F
330
18
100
AcDbEntity
  8
TITLE
100
AcDbText
 10
62.32133773630073
 20
3.267587343889921
 30
0.0
 40
0.187
  1
1/32
100
AcDbText
  0
TEXT
  5
B90
330
18
100
AcDbEntity
  8
TITLE
100
AcDbText
 10
44.71726211672854
 20
3.160609301065441
 30
0.0
 40
0.187
  1
COLOR: GRAY 
100
AcDbText
  0
LWPOLYLINE
  5
B99
330
18
100
AcDbEntity
  8
TITLE
100
AcDbPolyline
 90
        4
 70
     1
 43
0.0
 10
63.98000000000377
 20
41.73000000000278
 10
0.0199999999999943
 20
41.73000000000278
 10
0.0199999999999996
 20
0.0200000000000014
 10
63.98000000000374
 20
0.0200000000000014
  0
LWPOLYLINE
  5
B9F
330
18
100
AcDbEntity
  8
TITLE
100
AcDbPolyline
 90
        4
 70
     1
 43
0.0
 10
64.00000000000376
 20
41.75000000000276
 10
-0.0000000000000071
 20
41.75000000000276
 10
0.0
 20
0.0000000000000018
 10
64.00000000000374
 20
0.0000000000000018
  0
LINE
  5
BAB
330
18
100
AcDbEntity
  8
TITLE
100
AcDbLine
 10
63.96000000000374
 20
0.7900000000000014
 30
0.0
 11
42.96000000000375
 21
0.790000000000005
 31
0.0
  0
LINE
  5
BAC
330
18
100
AcDbEntity
  8
TITLE
100
AcDbLine
 10
54.33500000000375
 20
1.540000000000001
 30
0.0
 11
42.96000000000375
 21
1.540000000000004
 31
0.0
  0
LINE
  5
BAD
330
18
100
AcDbEntity
  8
TITLE
100
AcDbLine
 10
54.33500000000375
 20
2.290000000000001
 30
0.0
 11
42.96000000000375
 21
2.290000000000004
 31
0.0
  0
LINE
  5
BAE
330
18
100
AcDbEntity
  8
TITLE
100
AcDbLine
 10
63.96000000000374
 20
3.040000000000001
 30
0.0
 11
42.96000000000375
 21
3.040000000000004
 31
0.0
  0
LINE
  5
BAF
330
18
100
AcDbEntity
  8
TITLE
100
AcDbLine
 10
57.33500000000375
 20
3.540000000000002
 30
0.0
 11
42.96000000000375
 21
3.540000000000004
 31
0.0
  0
LINE
  5
BB0
330
18
100
AcDbEntity
  8
TITLE
100
AcDbLine
 10
63.96000000000374
 20
4.04
 30
0.0
 11
42.96000000000375
 21
4.040000000000004
 31
0.0
  0
LINE
  5
BB1
330
18
100
AcDbEntity
  8
TITLE
100
AcDbLine
 10
51.83500000000375
 20
3.040000000000001
 30
0.0
 11
51.83500000000375
 21
0.0399999999999996
 31
0.0
  0
LINE
  5
BB2
330
18
100
AcDbEntity
  8
TITLE
100
AcDbLine
 10
50.96000000000374
 20
2.290000000000004
 30
0.0
 11
50.96000000000374
 21
0.0400000000000085
 31
0.0
  0
LINE
  5
BB3
330
18
100
AcDbEntity
  8
TITLE
100
AcDbLine
 10
50.08500000000374
 20
2.290000000000004
 30
0.0
 11
50.08500000000374
 21
0.0400000000000067
 31
0.0
  0
LINE
  5
BB4
330
18
100
AcDbEntity
  8
TITLE
100
AcDbLine
 10
48.96000000000374
 20
2.290000000000004
 30
0.0
 11
48.96000000000374
 21
0.0400000000000049
 31
0.0
  0
LINE
  5
BB5
330
18
100
AcDbEntity
  8
TITLE
100
AcDbLine
 10
43.96000000000374
 20
2.290000000000001
 30
0.0
 11
43.96000000000374
 21
0.0400000000000014
 31
0.0
  0
LINE
  5
BB6
330
18
100
AcDbEntity
  8
TITLE
100
AcDbLine
 10
42.96000000000375
 20
4.040000000000004
 30
0.0
 11
42.96000000000375
 21
0.0400000000000014
 31
0.0
  0
LINE
  5
BB7
330
18
100
AcDbEntity
  8
TITLE
100
AcDbLine
 10
51.83500000000375
 20
1.165000000000001
 30
0.0
 11
42.96000000000375
 21
1.165000000000004
 31
0.0
  0
LINE
  5
BB8
330
18
100
AcDbEntity
  8
TITLE
100
AcDbLine
 10
51.83500000000375
 20
0.4149999999999996
 30
0.0
 11
42.96000000000375
 21
0.415000000000005
 31
0.0
  0
TEXT
  5
BB9
330
18
100
AcDbEntity
  8
TITLE
100
AcDbText
 10
45.20274150067381
 20
2.036268066777214
 30
0.0
 40
0.154
  1
REVISION RECORD
  7
ITALIC
 72
     1
 11
46.30640816734048
 21
2.036268066777214
 31
0.0
100
AcDbText
  0
LINE
  5
BBA
330
18
100
AcDbEntity
  8
TITLE
100
AcDbLine
 10
51.83500000000375
 20
1.915000000000001
 30
0.0
 11
42.96000000000375
 21
1.915000000000004
 31
0.0
  0
TEXT
  5
BBB
330
18
100
AcDbEntity
  8
TITLE
100
AcDbText
 10
43.41367829470571
 20
2.762795715722289
 30
0.0
 40
0.154
  1
MATERIAL
  7
ITALIC
100
AcDbText
  0
TEXT
  5
BBC
330
18
100
AcDbEntity
  8
TITLE
100
AcDbText
 10
43.26186688171646
 20
2.055260544742853
 30
0.0
 40
0.154
  1
LET.
  7
ITALIC
 72
     1
 11
43.49286688171646
 21
2.055260544742853
 31
0.0
100
AcDbText
  0
TEXT
  5
BBD
330
18
100
AcDbEntity
  8
TITLE
100
AcDbText
 10
43.43743673306819
 20
4.138388543293784
 30
0.0
 40
0.14
  1
NOTES:
  7
ITALIC
100
AcDbText
  0
TEXT
  5
BBE
330
18
100
AcDbEntity
  8
TITLE
100
AcDbText
 10
49.21118533914498
 20
2.045764305760033
 30
0.0
 40
0.154
  1
DATE
  7
ITALIC
 72
     1
 11
49.4935186724783
 21
2.045764305760033
 31
0.0
100
AcDbText
  0
TEXT
  5
BBF
330
18
100
AcDbEntity
  8
TITLE
100
AcDbText
 10
50.38257751100488
 20
2.055260544742853
 30
0.0
 40
0.154
  1
BY
  7
ITALIC
 72
     1
 11
50.51091084433821
 21
2.055260544742853
 31
0.0
100
AcDbText
  0
TEXT
  5
BC0
330
18
100
AcDbEntity
  8
TITLE
100
AcDbText
 10
51.14538256127479
 20
2.036268066777214
 30
0.0
 40
0.154
  1
CHD.
  7
ITALIC
 72
     1
 11
51.3763825612748
 21
2.036268066777214
 31
0.0
100
AcDbText
  0
TEXT
  5
BC1
330
18
100
AcDbEntity
  8
TITLE
 62
     1
100
AcDbText
 10
61.83818339703766
 20
1.326747107986976
 30
0.0
 40
0.125
  1
AutoCAD DWG. FILE
100
AcDbText
  0
LINE
  5
BC2
330
18
100
AcDbEntity
  8
TITLE
 62
     1
100
AcDbLine
 10
63.96000000000374
 20
1.540000000000001
 30
0.0
 11
54.33500000000375
 21
1.540000000000001
 31
0.0
  0
LINE
  5
BC3
330
18
100
AcDbEntity
  8
TITLE
 62
     1
100
AcDbLine
 10
54.33500000000375
 20
3.039999999999997
 30
0.0
 11
54.33500000000375
 21
0.0399999999999996
 31
0.0
  0
LINE
  5
BC4
330
18
100
AcDbEntity
  8
TITLE
 62
     1
100
AcDbLine
 10
53.08500000000375
 20
3.040000000000004
 30
0.0
 11
53.08500000000375
 21
0.7900000000000032
 31
0.0
  0
TEXT
  5
BC5
330
18
100
AcDbEntity
  8
TITLE
100
AcDbText
 10
52.73472273397718
 20
0.5212952711989276
 30
0.0
 40
0.154
  1
SCALE
  7
ITALIC
 72
     1
 11
53.09405606731051
 21
0.5212952711989276
 31
0.0
100
AcDbText
  0
TEXT
  5
BC6
330
18
100
AcDbEntity
  8
TITLE
100
AcDbText
 10
52.20267205253438
 20
0.2172647121122048
 30
0.0
 40
0.15125
  1
DO NOT SCALE
 72
     1
 11
53.08496371920104
 21
0.2172647121122048
 31
0.0
100
AcDbText
  0
TEXT
  5
BC7
330
18
100
AcDbEntity
  8
TITLE
100
AcDbText
 10
51.96638083203399
 20
1.316742979900486
 30
0.0
 40
0.154
  1
APD. BY
  7
ITALIC
 72
     1
 11
52.42838083203399
 21
1.316742979900486
 31
0.0
100
AcDbText
  0
TEXT
  5
BC8
330
18
100
AcDbEntity
  8
TITLE
 62
     1
100
AcDbText
 10
53.47434386396953
 20
1.322440723290178
 30
0.0
 40
0.154
  1
DATE
  7
ITALIC
 72
     1
 11
53.75667719730286
 21
1.322440723290178
 31
0.0
100
AcDbText
  0
TEXT
  5
BC9
330
18
100
AcDbEntity
  8
TITLE
 62
     1
100
AcDbText
 10
54.54266216399277
 20
1.252558201771084
 30
0.0
 40
0.1694
  1
CUSTOMER
  7
ITALIC
 72
     2
 11
55.8413954973261
 21
1.252558201771084
 31
0.0
100
AcDbText
  0
TEXT
  5
BCA
330
18
100
AcDbEntity
  8
TITLE
 62
     1
100
AcDbText
 10
54.56633048452305
 20
0.5102494913256912
 30
0.0
 40
0.1694
  1
PART NAME
  7
ITALIC
100
AcDbText
  0
LINE
  5
BCB
330
18
100
AcDbEntity
  8
TITLE
 62
     1
100
AcDbLine
 10
59.21000000000375
 20
0.7900000000000014
 30
0.0
 11
59.21000000000375
 21
0.0399999999999978
 31
0.0
  0
TEXT
  5
BCC
330
18
100
AcDbEntity
  8
TITLE
 62
     1
100
AcDbText
 10
59.46791140966684
 20
0.5206953542067927
 30
0.0
 40
0.1694
  1
PART NO.
  7
ITALIC
100
AcDbText
  0
LINE
  5
BCD
330
18
100
AcDbEntity
  8
TITLE
 62
     1
100
AcDbLine
 10
61.74479396240641
 20
0.7900000000000014
 30
0.0
 11
61.74479396240641
 21
1.540000000000001
 31
0.0
  0
TEXT
  5
BCE
330
18
100
AcDbEntity
  8
TITLE
100
AcDbText
 10
51.96638083203399
 20
2.072056300604384
 30
0.0
 40
0.154
  1
CHK. BY
  7
ITALIC
 72
     1
 11
52.42838083203399
 21
2.072056300604384
 31
0.0
100
AcDbText
  0
TEXT
  5
BCF
330
18
100
AcDbEntity
  8
TITLE
100
AcDbText
 10
52.13269628546089
 20
2.82618097475822
 30
0.0
 40
0.14
  1
DR. BY
  7
ITALIC
 72
     1
 11
52.48269628546089
 21
2.82618097475822
 31
0.0
100
AcDbText
  0
TEXT
  5
BD0
330
18
100
AcDbEntity
  8
TITLE
 62
     1
100
AcDbText
 10
53.46190663208497
 20
2.072056300604384
 30
0.0
 40
0.154
  1
DATE
  7
ITALIC
 72
     1
 11
53.7442399654183
 21
2.072056300604384
 31
0.0
100
AcDbText
  0
TEXT
  5
BD1
330
18
100
AcDbEntity
  8
TITLE
 62
     1
100
AcDbText
 10
53.44713965836721
 20
2.822727796946285
 30
0.0
 40
0.14
  1
DATE
  7
ITALIC
 72
     1
 11
53.70380632503388
 21
2.822727796946285
 31
0.0
100
AcDbText
  0
TEXT
  5
BD2
330
18
100
AcDbEntity
  8
TITLE
 62
     1
100
AcDbText
 10
57.51343410179541
 20
3.27666845244556
 30
0.0
 40
0.15525
  1
UNLESS SPECIFIED
  7
ITALIC
 72
     1
 11
58.67780910179541
 21
3.27666845244556
 31
0.0
100
AcDbText
  0
LINE
  5
BD3
330
18
100
AcDbEntity
  8
TITLE
 62
     1
100
AcDbLine
 10
57.33500000000375
 20
4.04
 30
0.0
 11
57.33500000000375
 21
3.040000000000001
 31
0.0
  0
TEXT
  5
BD4
330
18
100
AcDbEntity
  8
TITLE
 62
     1
100
AcDbText
 10
57.92743410179541
 20
3.643086326406458
 30
0.0
 40
0.15525
  1
TOLERANCES
  7
ITALIC
 72
     1
 11
58.67780910179541
 21
3.643086326406458
 31
0.0
100
AcDbText
  0
TEXT
  5
BD5
330
18
100
AcDbEntity
  8
TITLE
 62
     1
100
AcDbText
 10
60.47755802933359
 20
3.649787649597743
 30
0.0
 40
0.15525
  1
DECIMAL
  7
ITALIC
100
AcDbText
  0
TEXT
  5
BD6
330
18
100
AcDbEntity
  8
TITLE
 62
     1
100
AcDbText
 10
60.47755802933359
 20
3.356364944423901
 30
0.0
 40
0.15525
  1
+
  7
ITALIC
100
AcDbText
  0
TEXT
  5
BD7
330
18
100
AcDbEntity
  8
TITLE
 62
     1
100
AcDbText
 10
60.47755802933359
 20
3.198840704743548
 30
0.0
 40
0.15525
  1
-
  7
ITALIC
100
AcDbText
  0
TEXT
  5
BD8
330
18
100
AcDbEntity
  8
TITLE
 62
     1
100
AcDbText
 10
62.01705691683141
 20
3.64320306308844
 30
0.0
 40
0.15525
  1
FRACTIONAL
  7
ITALIC
100
AcDbText
  0
TEXT
  5
BD9
330
18
100
AcDbEntity
  8
TITLE
 62
     1
100
AcDbText
 10
62.01705691683141
 20
3.349780357914581
 30
0.0
 40
0.15525
  1
+
  7
ITALIC
100
AcDbText
  0
TEXT
  5
BDA
330
18
100
AcDbEntity
  8
TITLE
 62
     1
100
AcDbText
 10
62.01705691683141
 20
3.19799197822055
 30
0.0
 40
0.15525
  1
-
  7
ITALIC
100
AcDbText
  0
TEXT
  5
C7C
330
18
100
AcDbEntity
  8
TITLE
100
AcDbText
 10
61.99338244641575
 20
0.9363642409773618
 30
0.0
 40
0.187
  1
HW-N4X332
100
AcDbText
  0
LINE
  5
C7D
330
18
100
AcDbEntity
  8
TITLE
100
AcDbLine
 10
63.96000000000377
 20
41.71000000000276
 30
0.0
 11
0.0399999999999943
 21
41.71000000000276
 31
0.0
  0
LINE
  5
C7E
330
18
100
AcDbEntity
  8
TITLE
100
AcDbLine
 10
0.0399999999999943
 20
41.71000000000276
 30
0.0
 11
0.0399999999999996
 21
0.0400000000000014
 31
0.0
  0
LINE
  5
C7F
330
18
100
AcDbEntity
  8
TITLE
100
AcDbLine
 10
0.0399999999999996
 20
0.0400000000000014
 30
0.0
 11
63.96000000000374
 21
0.0400000000000014
 31
0.0
  0
LINE
  5
C80
330
18
100
AcDbEntity
  8
TITLE
100
AcDbLine
 10
63.96000000000374
 20
0.0400000000000014
 30
0.0
 11
63.96000000000377
 21
41.71000000000276
 31
0.0
  0
TEXT
  5
C8A
330
18
100
AcDbEntity
  8
TITLE
100
AcDbText
 10
56.13062753940764
 20
2.079146848346909
 30
0.0
 40
0.4401508407560161
  1
HUBBELL WIEGMANN
  7
STYLE1
100
AcDbText
  0
ENDSEC
  0
SECTION
  2
OBJECTS
  0
DICTIONARY
  5
C
330
0
100
AcDbDictionary
281
     1
  3
ACAD_COLOR
350
C31
  3
ACAD_GROUP
350
D
  3
ACAD_LAYOUT
350
C32
  3
ACAD_MATERIAL
350
C30
  3
ACAD_MLEADERSTYLE
350
CDC
  3
ACAD_MLINESTYLE
350
E
  3
ACAD_PLOTSETTINGS
350
C33
  3
ACAD_PLOTSTYLENAME
350
C2E
  3
ACAD_SCALELIST
350
CCA
  3
ACAD_TABLESTYLE
350
C3C
  3
ACAD_VISUALSTYLE
350
CB1
  3
ACDB_RECOMPOSE_DATA
350
CEB
  3
AcDbVariableDictionary
350
C49
  0
DICTIONARY
  5
C81
330
18
100
AcDbDictionary
280
     1
281
     1
  3
ACAD_SORTENTS
360
C82
  0
DICTIONARY
  5
C31
102
{ACAD_REACTORS
330
C
102
}
330
C
100
AcDbDictionary
281
     1
  0
DICTIONARY
  5
D
102
{ACAD_REACTORS
330
C
102
}
330
C
100
AcDbDictionary
281
     1
  0
DICTIONARY
  5
C32
102
{ACAD_REACTORS
330
C
102
}
330
C
100
AcDbDictionary
281
     1
  3
Layout1
350
C35
  3
Model
350
C34
  0
DICTIONARY
  5
C30
102
{ACAD_REACTORS
330
C
102
}
330
C
100
AcDbDictionary
281
     1
  3
ByBlock
350
CA1
  3
ByLayer
350
C99
  3
Global
350
CA9
  0
DICTIONARY
  5
CDC
102
{ACAD_REACTORS
330
C
102
}
330
C
100
AcDbDictionary
281
     1
  3
Standard
350
CDD
  0
DICTIONARY
  5
E
102
{ACAD_REACTORS
330
C
102
}
330
C
100
AcDbDictionary
281
     1
  3
STANDARD
350
1B
  0
DICTIONARY
  5
C33
102
{ACAD_REACTORS
330
C
102
}
330
C
100
AcDbDictionary
281
     1
  0
ACDBDICTIONARYWDFLT
  5
C2E
102
{ACAD_REACTORS
330
C
102
}
330
C
100
AcDbDictionary
281
     1
  3
Normal
350
C2F
100
AcDbDictionaryWithDefault
340
C2F
  0
DICTIONARY
  5
CCA
102
{ACAD_REACTORS
330
C
102
}
330
C
100
AcDbDictionary
281
     1
  3
A0
350
CCB
  3
A1
350
CCC
  3
A2
350
CCD
  3
A3
350
CCE
  3
A4
350
CCF
  3
A5
350
CD0
  3
A6
350
CD1
  3
A7
350
CD2
  3
A8
350
CD3
  3
A9
350
CD4
  3
B0
350
CD5
  3
B1
350
CD6
  3
B2
350
CD7
  3
B3
350
CD8
  3
B4
350
CD9
  3
B5
350
CDA
  3
B6
350
CDB
  0
DICTIONARY
  5
C3C
102
{ACAD_REACTORS
330
C
102
}
330
C
100
AcDbDictionary
281
     1
  3
Standard
350
C3D
  0
DICTIONARY
  5
CB1
102
{ACAD_REACTORS
330
C
102
}
330
C
100
AcDbDictionary
281
     1
  3
2dWireframe
350
CB7
  3
Basic
350
CB6
  3
Brighten
350
CBD
  3
ColorChange
350
CC1
  3
Conceptual
350
CBA
  3
Dim
350
CBC
  3
EdgeColorOff
350
CC9
  3
Facepattern
350
CC0
  3
Flat
350
CB2
  3
FlatWithEdges
350
CB3
  3
Gouraud
350
CB4
  3
GouraudWithEdges
350
CB5
  3
Hidden
350
CB9
  3
JitterOff
350
CC7
  3
Linepattern
350
CBF
  3
OverhangOff
350
CC8
  3
Realistic
350
CBB
  3
Shaded
350
CC6
  3
Shaded with edges
350
CC5
  3
Shades of Gray
350
CC2
  3
Sketchy
350
CC3
  3
Thicken
350
CBE
  3
Wireframe
350
CB8
  3
X-Ray
350
CC4
  0
XRECORD
  5
CEB
102
{ACAD_REACTORS
330
C
102
}
330
C
100
AcDbXrecord
280
     1
 90
        1
330
C3D
  0
DICTIONARY
  5
C49
102
{ACAD_REACTORS
330
C
102
}
330
C
100
AcDbDictionary
281
     1
  3
CANNOSCALE
350
CE5
  3
CMLEADERSTYLE
350
CE3
  3
CTABLESTYLE
350
C4A
  3
DIMASSOC
350
C4B
  3
LAYEREVAL
350
CE7
  3
LAYERNOTIFY
350
CE8
  3
LIGHTINGUNITS
350
CE6
  3
MSLTSCALE
350
CE4
  3
PROJECTNAME
350
C4C
  0
SORTENTSTABLE
  5
C82
102
{ACAD_REACTORS
330
C81
102
}
330
C81
100
AcDbSortentsTable
330
18
331
618
  5
618
331
B99
  5
B99
331
BD8
  5
BDF
331
66E
  5
66E
331
66A
  5
66A
331
6B5
  5
6B5
331
666
  5
666
331
787
  5
787
331
6B1
  5
6B1
331
6FC
  5
6FC
331
783
  5
783
331
614
  5
614
331
610
  5
610
331
60C
  5
60C
331
608
  5
608
331
C7F
  5
BAD
331
BD4
  5
BD8
331
BD0
  5
BD4
331
BCC
  5
BD0
331
BC8
  5
BCC
331
65E
  5
65E
331
77F
  5
77F
331
6AD
  5
6AD
331
6F4
  5
6F4
331
77B
  5
77B
331
6A9
  5
6A9
331
656
  5
656
331
777
  5
777
331
6A5
  5
6A5
331
652
  5
652
331
6EC
  5
6EC
331
773
  5
773
331
6A1
  5
6A1
331
7A5
  5
7A5
331
BC4
  5
BC8
331
BC0
  5
BC4
331
7A1
  5
7A1
331
BBC
  5
BC0
331
79D
  5
79D
331
BB8
  5
BBC
331
799
  5
799
331
64E
  5
64E
331
76F
  5
76F
331
69D
  5
69D
331
76B
  5
76B
331
6DC
  5
6DC
331
64A
  5
64A
331
685
  5
685
331
646
  5
646
331
681
  5
681
331
6CC
  5
6CC
331
642
  5
642
331
6C8
  5
6C8
331
BB4
  5
BB8
331
795
  5
795
331
BB0
  5
BB4
331
791
  5
791
331
BAC
  5
BB0
331
78D
  5
78D
331
789
  5
789
331
63E
  5
63E
331
74F
  5
74F
331
67D
  5
67D
331
6C4
  5
6C4
331
63A
  5
63A
331
679
  5
679
331
6C0
  5
6C0
331
636
  5
636
331
675
  5
675
331
632
  5
632
331
6BC
  5
6BC
331
733
  5
733
331
671
  5
671
331
6B8
  5
6B8
331
B90
  5
B90
331
669
  5
669
331
665
  5
665
331
6FF
  5
6FF
331
786
  5
786
331
6B4
  5
6B4
331
782
  5
782
331
6B0
  5
6B0
331
617
  5
617
331
613
  5
613
331
60F
  5
60F
331
60B
  5
60B
331
BD7
  5
BDB
331
BD3
  5
BD7
331
C7E
  5
BAC
331
BCF
  5
BD3
331
BCB
  5
BCF
331
77E
  5
77E
331
6AC
  5
6AC
331
77A
  5
77A
331
6A8
  5
6A8
331
6A4
  5
6A4
331
655
  5
655
331
776
  5
776
331
6A0
  5
6A0
331
651
  5
651
331
6EB
  5
6EB
331
772
  5
772
331
607
  5
607
331
BC7
  5
BCB
331
BC3
  5
BC7
331
7A4
  5
7A4
331
BBF
  5
BC3
331
7A0
  5
7A0
331
BBB
  5
BBF
331
79C
  5
79C
331
798
  5
798
331
64D
  5
64D
331
76E
  5
76E
331
6DB
  5
6DB
331
649
  5
649
331
645
  5
645
331
684
  5
684
331
6CB
  5
6CB
331
641
  5
641
331
680
  5
680
331
BB7
  5
BBB
331
794
  5
794
331
BB3
  5
BB7
331
BAF
  5
BB3
331
790
  5
790
331
BAB
  5
BAF
331
78C
  5
78C
331
788
  5
788
331
63D
  5
63D
331
67C
  5
67C
331
6C7
  5
6C7
331
678
  5
678
331
6C3
  5
6C3
331
639
  5
639
331
674
  5
674
331
6BF
  5
6BF
331
635
  5
635
331
670
  5
670
331
6BB
  5
6BB
331
631
  5
631
331
61A
  5
61A
331
B9F
  5
B9F
331
BDA
  5
BE1
331
6B7
  5
6B7
331
668
  5
668
331
6B3
  5
6B3
331
664
  5
664
331
6FE
  5
6FE
331
785
  5
785
331
6FA
  5
6FA
331
781
  5
781
331
616
  5
616
331
612
  5
612
331
60E
  5
60E
331
60A
  5
60A
331
BD6
  5
BDA
331
B8F
  5
B8F
331
C7D
  5
BAB
331
BD2
  5
BD6
331
BCE
  5
BD2
331
BCA
  5
BCE
331
6AF
  5
6AF
331
77D
  5
77D
331
6AB
  5
6AB
331
658
  5
658
331
779
  5
779
331
6A7
  5
6A7
331
654
  5
654
331
6EE
  5
6EE
331
775
  5
775
331
6A3
  5
6A3
331
650
  5
650
331
771
  5
771
331
606
  5
606
331
BC6
  5
BCA
331
BC2
  5
BC6
331
7A3
  5
7A3
331
BBE
  5
BC2
331
79F
  5
79F
331
BBA
  5
BBE
331
79B
  5
79B
331
69F
  5
69F
331
64C
  5
64C
331
76D
  5
76D
331
687
  5
687
331
6DA
  5
6DA
331
648
  5
648
331
683
  5
683
331
644
  5
644
331
640
  5
640
331
6CA
  5
6CA
331
751
  5
751
331
BB6
  5
BBA
331
797
  5
797
331
BB2
  5
BB6
331
793
  5
793
331
BAE
  5
BB2
331
78F
  5
78F
331
78B
  5
78B
331
67F
  5
67F
331
6C6
  5
6C6
331
63C
  5
63C
331
67B
  5
67B
331
6C2
  5
6C2
331
638
  5
638
331
677
  5
677
331
634
  5
634
331
6BE
  5
6BE
331
735
  5
735
331
673
  5
673
331
6BA
  5
6BA
331
630
  5
630
331
619
  5
619
331
BD9
  5
BE0
331
C80
  5
BAE
331
66F
  5
66F
331
66B
  5
66B
331
719
  5
719
331
667
  5
667
331
6B6
  5
6B6
331
6FD
  5
6FD
331
784
  5
784
331
6B2
  5
6B2
331
780
  5
780
331
615
  5
615
331
611
  5
611
331
60D
  5
60D
331
609
  5
609
331
BD5
  5
BD9
331
B8E
  5
B8E
331
C7C
  5
C80
331
BD1
  5
BD5
331
BCD
  5
BD1
331
BC9
  5
BCD
331
6AE
  5
6AE
331
77C
  5
77C
331
6AA
  5
6AA
331
6A6
  5
6A6
331
778
  5
778
331
657
  5
657
331
6A2
  5
6A2
331
653
  5
653
331
6ED
  5
6ED
331
774
  5
774
331
770
  5
770
331
605
  5
605
331
BC5
  5
BC9
331
BC1
  5
BC5
331
7A2
  5
7A2
331
BBD
  5
BC1
331
79E
  5
79E
331
BB9
  5
BBD
331
79A
  5
79A
331
64F
  5
64F
331
69E
  5
69E
331
64B
  5
64B
331
76C
  5
76C
331
647
  5
647
331
686
  5
686
331
643
  5
643
331
682
  5
682
331
750
  5
750
331
6C9
  5
6C9
331
796
  5
796
331
BB5
  5
BB9
331
BB1
  5
BB5
331
792
  5
792
331
BAD
  5
BB1
331
78E
  5
78E
331
78A
  5
78A
331
63F
  5
63F
331
67E
  5
67E
331
63B
  5
63B
331
67A
  5
67A
331
6C5
  5
6C5
331
676
  5
676
331
6C1
  5
6C1
331
637
  5
637
331
633
  5
633
331
6BD
  5
6BD
331
734
  5
734
331
6B9
  5
6B9
  0
LAYOUT
  5
C35
102
{ACAD_REACTORS
330
C32
102
}
330
C32
100
AcDbPlotSettings
  1

  2
\\BELDING_BDC_1\IBM 4039 LaserPrinter Plus
  4

  6

 40
0.0
 41
0.0
 42
0.0
 43
0.0
 44
0.0
 45
0.0
 46
0.0
 47
0.0
 48
0.0
 49
0.0
140
0.0
141
0.0
142
1.0
143
1.0
 70
   688
 72
     0
 73
     0
 74
     5
  7

 75
    16
147
1.0
 76
     0
 77
     2
 78
   300
148
0.0
149
0.0
100
AcDbLayout
  1
Layout1
 70
     1
 71
     1
 10
0.0
 20
0.0
 11
12.0
 21
9.0
 12
0.0
 22
0.0
 32
0.0
 14
1.000000000000000E+20
 24
1.000000000000000E+20
 34
1.000000000000000E+20
 15
-1.000000000000000E+20
 25
-1.000000000000000E+20
 35
-1.000000000000000E+20
146
0.0
 13
0.0
 23
0.0
 33
0.0
 16
1.0
 26
0.0
 36
0.0
 17
0.0
 27
1.0
 37
0.0
 76
     0
330
15
  0
LAYOUT
  5
C34
102
{ACAD_REACTORS
330
C32
102
}
330
C32
100
AcDbPlotSettings
  1

  2
HP DesignJet 500 24 by HP
  4
User265
  6

 40
4.995333194732666
 41
16.97568893432617
 42
4.99530029296875
 43
16.97564697265625
 44
558.7576293945312
 45
863.5153198242187
 46
3.803057886657983
 47
0.0
 48
0.0
 49
0.0
140
0.0
141
0.0
142
1.0
143
1.959703229970991
 70
 11956
 72
     0
 73
     1
 74
     1
  7

 75
     0
147
0.5102813450048775
 76
     0
 77
     2
 78
   300
148
0.0496055901631706
149
0.032359896707635
100
AcDbLayout
  1
Model
 70
     1
 71
     0
 10
0.0
 20
0.0
 11
12.0
 21
9.0
 12
0.0
 22
0.0
 32
0.0
 14
0.0
 24
0.0
 34
0.0
 15
0.0
 25
0.0
 35
0.0
146
0.0
 13
0.0
 23
0.0
 33
0.0
 16
1.0
 26
0.0
 36
0.0
 17
0.0
 27
1.0
 37
0.0
 76
     0
330
18
331
C92
1001
ACAD_PSEXT
1000
HP DesignJet 500 24 by HP
1000
HP DesignJet 500 24 by HP
1000
USB001
1000

1070
     0
  0
MATERIAL
  5
CA1
102
{ACAD_XDICTIONARY
360
CA2
102
}
102
{ACAD_REACTORS
330
C30
102
}
330
C30
100
AcDbMaterial
  1
ByBlock
 72
     0
 43
0.0208333333333333
 43
0.0
 43
0.0
 43
0.0
 43
0.0
 43
0.0208333333333333
 43
0.0
 43
0.0
 43
0.0
 43
0.0
 43
1.0
 43
0.0
 43
0.0
 43
0.0
 43
0.0
 43
1.0
 77
     0
 47
0.0208333333333333
 47
0.0
 47
0.0
 47
0.0
 47
0.0
 47
0.0208333333333333
 47
0.0
 47
0.0
 47
0.0
 47
0.0
 47
1.0
 47
0.0
 47
0.0
 47
0.0
 47
0.0
 47
1.0
171
     0
 49
0.0208333333333333
 49
0.0
 49
0.0
 49
0.0
 49
0.0
 49
0.0208333333333333
 49
0.0
 49
0.0
 49
0.0
 49
0.0
 49
1.0
 49
0.0
 49
0.0
 49
0.0
 49
0.0
 49
1.0
175
     0
142
0.0208333333333333
142
0.0
142
0.0
142
0.0
142
0.0
142
0.0208333333333333
142
0.0
142
0.0
142
0.0
142
0.0
142
1.0
142
0.0
142
0.0
142
0.0
142
0.0
142
1.0
179
     0
144
0.0208333333333333
144
0.0
144
0.0
144
0.0
144
0.0
144
0.0208333333333333
144
0.0
144
0.0
144
0.0
144
0.0
144
1.0
144
0.0
144
0.0
144
0.0
144
0.0
144
1.0
147
0.0208333333333333
147
0.0
147
0.0
147
0.0
147
0.0
147
0.0208333333333333
147
0.0
147
0.0
147
0.0
147
0.0
147
1.0
147
0.0
147
0.0
147
0.0
147
0.0
147
1.0
  0
MATERIAL
  5
C99
102
{ACAD_XDICTIONARY
360
C9A
102
}
102
{ACAD_REACTORS
330
C30
102
}
330
C30
100
AcDbMaterial
  1
ByLayer
 72
     0
 43
0.0208333333333333
 43
0.0
 43
0.0
 43
0.0
 43
0.0
 43
0.0208333333333333
 43
0.0
 43
0.0
 43
0.0
 43
0.0
 43
1.0
 43
0.0
 43
0.0
 43
0.0
 43
0.0
 43
1.0
 77
     0
 47
0.0208333333333333
 47
0.0
 47
0.0
 47
0.0
 47
0.0
 47
0.0208333333333333
 47
0.0
 47
0.0
 47
0.0
 47
0.0
 47
1.0
 47
0.0
 47
0.0
 47
0.0
 47
0.0
 47
1.0
171
     0
 49
0.0208333333333333
 49
0.0
 49
0.0
 49
0.0
 49
0.0
 49
0.0208333333333333
 49
0.0
 49
0.0
 49
0.0
 49
0.0
 49
1.0
 49
0.0
 49
0.0
 49
0.0
 49
0.0
 49
1.0
175
     0
142
0.0208333333333333
142
0.0
142
0.0
142
0.0
142
0.0
142
0.0208333333333333
142
0.0
142
0.0
142
0.0
142
0.0
142
1.0
142
0.0
142
0.0
142
0.0
142
0.0
142
1.0
179
     0
144
0.0208333333333333
144
0.0
144
0.0
144
0.0
144
0.0
144
0.0208333333333333
144
0.0
144
0.0
144
0.0
144
0.0
144
1.0
144
0.0
144
0.0
144
0.0
144
0.0
144
1.0
147
0.0208333333333333
147
0.0
147
0.0
147
0.0
147
0.0
147
0.0208333333333333
147
0.0
147
0.0
147
0.0
147
0.0
147
1.0
147
0.0
147
0.0
147
0.0
147
0.0
147
1.0
  0
MATERIAL
  5
CA9
102
{ACAD_XDICTIONARY
360
CAA
102
}
102
{ACAD_REACTORS
330
C30
102
}
330
C30
100
AcDbMaterial
  1
Global
 72
     0
 43
0.0208333333333333
 43
0.0
 43
0.0
 43
0.0
 43
0.0
 43
0.0208333333333333
 43
0.0
 43
0.0
 43
0.0
 43
0.0
 43
1.0
 43
0.0
 43
0.0
 43
0.0
 43
0.0
 43
1.0
 77
     0
 47
0.0208333333333333
 47
0.0
 47
0.0
 47
0.0
 47
0.0
 47
0.0208333333333333
 47
0.0
 47
0.0
 47
0.0
 47
0.0
 47
1.0
 47
0.0
 47
0.0
 47
0.0
 47
0.0
 47
1.0
171
     0
 49
0.0208333333333333
 49
0.0
 49
0.0
 49
0.0
 49
0.0
 49
0.0208333333333333
 49
0.0
 49
0.0
 49
0.0
 49
0.0
 49
1.0
 49
0.0
 49
0.0
 49
0.0
 49
0.0
 49
1.0
175
     0
142
0.0208333333333333
142
0.0
142
0.0
142
0.0
142
0.0
142
0.0208333333333333
142
0.0
142
0.0
142
0.0
142
0.0
142
1.0
142
0.0
142
0.0
142
0.0
142
0.0
142
1.0
179
     0
144
0.0208333333333333
144
0.0
144
0.0
144
0.0
144
0.0
144
0.0208333333333333
144
0.0
144
0.0
144
0.0
144
0.0
144
1.0
144
0.0
144
0.0
144
0.0
144
0.0
144
1.0
147
0.0208333333333333
147
0.0
147
0.0
147
0.0
147
0.0
147
0.0208333333333333
147
0.0
147
0.0
147
0.0
147
0.0
147
1.0
147
0.0
147
0.0
147
0.0
147
0.0
147
1.0
  0
MLEADERSTYLE
  5
CDD
102
{ACAD_REACTORS
330
CDC
102
}
330
CDC
100
AcDbMLeaderStyle
179
     2
170
     2
171
     1
172
     0
 90
        2
 40
0.0
 41
0.0
173
     1
 91
-1056964608
340
12
 92
       -2
290
     1
 42
0.09
291
     1
 43
0.36
  3
Standard
 44
0.18
300

342
10
174
     1
178
     6
175
     1
176
     0
 93
-1056964608
 45
0.18
292
     0
297
     0
 46
0.18
 94
-1056964608
 47
1.0
 49
1.0
140
1.0
293
     1
141
0.0
294
     1
177
     0
142
1.0
295
     1
296
     0
143
0.125
271
     0
272
     9
273
     9
  0
MLINESTYLE
  5
1B
102
{ACAD_REACTORS
330
E
102
}
330
E
100
AcDbMlineStyle
  2
STANDARD
 70
     0
  3

 62
     0
 51
90.0
 52
90.0
 71
     2
 49
0.5
 62
   256
  6
BYLAYER
 49
-0.5
 62
   256
  6
BYLAYER
  0
ACDBPLACEHOLDER
  5
C2F
102
{ACAD_REACTORS
330
C2E
102
}
330
C2E
  0
SCALE
  5
CCB
102
{ACAD_REACTORS
330
CCA
102
}
330
CCA
100
AcDbScale
 70
     0
300
1:1
140
1.0
141
1.0
290
     1
  0
SCALE
  5
CCC
102
{ACAD_REACTORS
330
CCA
102
}
330
CCA
100
AcDbScale
 70
     0
300
1/128" = 1'-0"
140
0.0078125
141
12.0
290
     0
  0
SCALE
  5
CCD
102
{ACAD_REACTORS
330
CCA
102
}
330
CCA
100
AcDbScale
 70
     0
300
1/64" = 1'-0"
140
0.015625
141
12.0
290
     0
  0
SCALE
  5
CCE
102
{ACAD_REACTORS
330
CCA
102
}
330
CCA
100
AcDbScale
 70
     0
300
1/32" = 1'-0"
140
0.03125
141
12.0
290
     0
  0
SCALE
  5
CCF
102
{ACAD_REACTORS
330
CCA
102
}
330
CCA
100
AcDbScale
 70
     0
300
1/16" = 1'-0"
140
0.0625
141
12.0
290
     0
  0
SCALE
  5
CD0
102
{ACAD_REACTORS
330
CCA
102
}
330
CCA
100
AcDbScale
 70
     0
300
3/32" = 1'-0"
140
0.09375
141
12.0
290
     0
  0
SCALE
  5
CD1
102
{ACAD_REACTORS
330
CCA
102
}
330
CCA
100
AcDbScale
 70
     0
300
1/8" = 1'-0"
140
0.125
141
12.0
290
     0
  0
SCALE
  5
CD2
102
{ACAD_REACTORS
330
CCA
102
}
330
CCA
100
AcDbScale
 70
     0
300
3/16" = 1'-0"
140
0.1875
141
12.0
290
     0
  0
SCALE
  5
CD3
102
{ACAD_REACTORS
330
CCA
102
}
330
CCA
100
AcDbScale
 70
     0
300
1/4" = 1'-0"
140
0.25
141
12.0
290
     0
  0
SCALE
  5
CD4
102
{ACAD_REACTORS
330
CCA
102
}
330
CCA
100
AcDbScale
 70
     0
300
3/8" = 1'-0"
140
0.375
141
12.0
290
     0
  0
SCALE
  5
CD5
102
{ACAD_REACTORS
330
CCA
102
}
330
CCA
100
AcDbScale
 70
     0
300
1/2" = 1'-0"
140
0.5
141
12.0
290
     0
  0
SCALE
  5
CD6
102
{ACAD_REACTORS
330
CCA
102
}
330
CCA
100
AcDbScale
 70
     0
300
3/4" = 1'-0"
140
0.75
141
12.0
290
     0
  0
SCALE
  5
CD7
102
{ACAD_REACTORS
330
CCA
102
}
330
CCA
100
AcDbScale
 70
     0
300
1" = 1'-0"
140
1.0
141
12.0
290
     0
  0
SCALE
  5
CD8
102
{ACAD_REACTORS
330
CCA
102
}
330
CCA
100
AcDbScale
 70
     0
300
1-1/2" = 1'-0"
140
1.5
141
12.0
290
     0
  0
SCALE
  5
CD9
102
{ACAD_REACTORS
330
CCA
102
}
330
CCA
100
AcDbScale
 70
     0
300
3" = 1'-0"
140
3.0
141
12.0
290
     0
  0
SCALE
  5
CDA
102
{ACAD_REACTORS
330
CCA
102
}
330
CCA
100
AcDbScale
 70
     0
300
6" = 1'-0"
140
6.0
141
12.0
290
     0
  0
SCALE
  5
CDB
102
{ACAD_REACTORS
330
CCA
102
}
330
CCA
100
AcDbScale
 70
     0
300
1'-0" = 1'-0"
140
12.0
141
12.0
290
     0
  0
TABLESTYLE
  5
C3D
102
{ACAD_XDICTIONARY
360
CE9
102
}
102
{ACAD_REACTORS
330
C3C
102
}
330
C3C
100
AcDbTableStyle
280
     0
  3
Standard
 70
     0
 71
     0
 40
0.06
 41
0.06
280
     0
281
     0
  7
STANDARD
140
0.18
170
     2
 62
     0
 63
     7
283
     0
 90
        4
 91
        0
  1

274
    -2
284
     1
 64
     0
275
    -2
285
     1
 65
     0
276
    -2
286
     1
 66
     0
277
    -2
287
     1
 67
     0
278
    -2
288
     1
 68
     0
279
    -2
289
     1
 69
     0
  7
STANDARD
140
0.25
170
     5
 62
     0
 63
     7
283
     0
 90
        4
 91
        0
  1

274
    -2
284
     1
 64
     0
275
    -2
285
     1
 65
     0
276
    -2
286
     1
 66
     0
277
    -2
287
     1
 67
     0
278
    -2
288
     1
 68
     0
279
    -2
289
     1
 69
     0
  7
STANDARD
140
0.18
170
     5
 62
     0
 63
     7
283
     0
 90
        4
 91
        0
  1

274
    -2
284
     1
 64
     0
275
    -2
285
     1
 65
     0
276
    -2
286
     1
 66
     0
277
    -2
287
     1
 67
     0
278
    -2
288
     1
 68
     0
279
    -2
289
     1
 69
     0
  0
VISUALSTYLE
  5
CB7
102
{ACAD_REACTORS
330
CB1
102
}
330
CB1
100
AcDbVisualStyle
  2
2dWireframe
 70
     4
177
     2
291
     0
 71
     0
176
     1
 72
     2
176
     1
 73
     0
176
     1
 90
        0
176
     1
 40
0.6
176
     1
 41
30.0
176
     1
 63
     7
421
 16777215
176
     1
 74
     1
176
     1
 91
        4
176
     1
 64
     7
176
     1
 65
   257
176
     1
 75
     1
176
     1
175
     1
176
     1
 42
1.0
176
     1
 92
        0
176
     1
 66
   257
176
     1
 43
1.0
176
     1
 76
     1
176
     1
 77
     6
176
     1
 78
     2
176
     1
 67
     7
176
     1
 79
     5
176
     1
170
     0
176
     1
171
     0
176
     1
290
     0
176
     1
 93
        1
176
     1
 44
0.0
176
     1
173
     0
176
     1
  0
VISUALSTYLE
  5
CB6
102
{ACAD_REACTORS
330
CB1
102
}
330
CB1
100
AcDbVisualStyle
  2
Basic
 70
     7
177
     2
291
     1
 71
     1
176
     1
 72
     0
176
     1
 73
     1
176
     1
 90
        0
176
     1
 40
0.6
176
     1
 41
30.0
176
     1
 63
     7
421
 16777215
176
     1
 74
     0
176
     1
 91
        4
176
     1
 64
     7
176
     1
 65
   257
176
     1
 75
     1
176
     1
175
     1
176
     1
 42
1.0
176
     1
 92
        8
176
     1
 66
     7
176
     1
 43
1.0
176
     1
 76
     1
176
     1
 77
     6
176
     1
 78
     2
176
     1
 67
     7
176
     1
 79
     5
176
     1
170
     0
176
     1
171
     0
176
     1
290
     0
176
     1
 93
        1
176
     1
 44
0.0
176
     1
173
     0
176
     1
  0
VISUALSTYLE
  5
CBD
102
{ACAD_REACTORS
330
CB1
102
}
330
CB1
100
AcDbVisualStyle
  2
Brighten
 70
    12
177
     2
291
     1
 71
     2
176
     1
 72
     2
176
     1
 73
     0
176
     1
 90
        0
176
     1
 40
0.6
176
     1
 41
30.0
176
     1
 63
     7
421
 16777215
176
     1
 74
     1
176
     1
 91
        4
176
     1
 64
     7
176
     1
 65
   257
176
     1
 75
     1
176
     1
175
     1
176
     1
 42
1.0
176
     1
 92
        8
176
     1
 66
     7
176
     1
 43
1.0
176
     1
 76
     1
176
     1
 77
     6
176
     1
 78
     2
176
     1
 67
     7
176
     1
 79
     5
176
     1
170
     0
176
     1
171
     0
176
     1
290
     0
176
     1
 93
        1
176
     1
 44
50.0
176
     1
173
     0
176
     1
  0
VISUALSTYLE
  5
CC1
102
{ACAD_REACTORS
330
CB1
102
}
330
CB1
100
AcDbVisualStyle
  2
ColorChange
 70
    16
177
     2
291
     1
 71
     2
176
     1
 72
     2
176
     1
 73
     3
176
     1
 90
        0
176
     1
 40
0.6
176
     1
 41
30.0
176
     1
 63
     8
421
  8421504
176
     1
 74
     1
176
     1
 91
        4
176
     1
 64
     7
176
     1
 65
   257
176
     1
 75
     1
176
     1
175
     1
176
     1
 42
1.0
176
     1
 92
        8
176
     1
 66
     8
424
  8421504
176
     1
 43
1.0
176
     1
 76
     1
176
     1
 77
     6
176
     1
 78
     2
176
     1
 67
     7
176
     1
 79
     5
176
     1
170
     0
176
     1
171
     0
176
     1
290
     0
176
     1
 93
        1
176
     1
 44
0.0
176
     1
173
     0
176
     1
  0
VISUALSTYLE
  5
CBA
102
{ACAD_REACTORS
330
CB1
102
}
330
CB1
100
AcDbVisualStyle
  2
Conceptual
 70
     9
177
     2
291
     0
 71
     3
176
     1
 72
     2
176
     1
 73
     0
176
     1
 90
        0
176
     1
 40
0.6
176
     1
 41
30.0
176
     1
 63
     7
421
 16777215
176
     1
 74
     2
176
     1
 91
        2
176
     1
 64
     7
176
     1
 65
   257
176
     1
 75
     1
176
     1
175
     1
176
     1
 42
179.0
176
     1
 92
        8
176
     1
 66
     7
176
     1
 43
1.0
176
     1
 76
     1
176
     1
 77
     6
176
     1
 78
     2
176
     1
 67
     7
176
     1
 79
     3
176
     1
170
     0
176
     1
171
     0
176
     1
290
     0
176
     1
 93
        1
176
     1
 44
0.0
176
     1
173
     0
176
     1
  0
VISUALSTYLE
  5
CBC
102
{ACAD_REACTORS
330
CB1
102
}
330
CB1
100
AcDbVisualStyle
  2
Dim
 70
    11
177
     2
291
     1
 71
     2
176
     1
 72
     2
176
     1
 73
     0
176
     1
 90
        0
176
     1
 40
0.6
176
     1
 41
30.0
176
     1
 63
     7
421
 16777215
176
     1
 74
     1
176
     1
 91
        4
176
     1
 64
     7
176
     1
 65
   257
176
     1
 75
     1
176
     1
175
     1
176
     1
 42
1.0
176
     1
 92
        8
176
     1
 66
     7
176
     1
 43
1.0
176
     1
 76
     1
176
     1
 77
     6
176
     1
 78
     2
176
     1
 67
     7
176
     1
 79
     5
176
     1
170
     0
176
     1
171
     0
176
     1
290
     0
176
     1
 93
        1
176
     1
 44
-50.0
176
     1
173
     0
176
     1
  0
VISUALSTYLE
  5
CC9
102
{ACAD_REACTORS
330
CB1
102
}
330
CB1
100
AcDbVisualStyle
  2
EdgeColorOff
 70
    22
177
     2
291
     1
 71
     2
176
     0
 72
     2
176
     0
 73
     0
176
     0
 90
        0
176
     0
 40
0.6
176
     0
 41
30.0
176
     0
 63
     7
421
 16777215
176
     0
 74
     1
176
     0
 91
        4
176
     0
 64
     7
176
     0
 65
   257
176
     0
 75
     1
176
     0
175
     1
176
     0
 42
1.0
176
     0
 92
        8
176
     2
 66
     7
176
     0
 43
1.0
176
     0
 76
     1
176
     0
 77
     6
176
     0
 78
     2
176
     0
 67
     7
176
     0
 79
     5
176
     0
170
     0
176
     0
171
     0
176
     0
290
     0
176
     0
 93
        1
176
     0
 44
0.0
176
     0
173
     0
176
     0
  0
VISUALSTYLE
  5
CC0
102
{ACAD_REACTORS
330
CB1
102
}
330
CB1
100
AcDbVisualStyle
  2
Facepattern
 70
    15
177
     2
291
     1
 71
     2
176
     1
 72
     2
176
     1
 73
     0
176
     1
 90
        0
176
     1
 40
0.6
176
     1
 41
30.0
176
     1
 63
     7
421
 16777215
176
     1
 74
     1
176
     1
 91
        4
176
     1
 64
     7
176
     1
 65
   257
176
     1
 75
     1
176
     1
175
     1
176
     1
 42
1.0
176
     1
 92
        8
176
     1
 66
     7
176
     1
 43
1.0
176
     1
 76
     1
176
     1
 77
     6
176
     1
 78
     2
176
     1
 67
     7
176
     1
 79
     5
176
     1
170
     0
176
     1
171
     0
176
     1
290
     0
176
     1
 93
        1
176
     1
 44
0.0
176
     1
173
     0
176
     1
  0
VISUALSTYLE
  5
CB2
102
{ACAD_REACTORS
330
CB1
102
}
330
CB1
100
AcDbVisualStyle
  2
Flat
 70
     0
177
     2
291
     1
 71
     2
176
     1
 72
     1
176
     1
 73
     1
176
     1
 90
        2
176
     1
 40
0.6
176
     1
 41
30.0
176
     1
 63
     7
421
 16777215
176
     1
 74
     0
176
     1
 91
        0
176
     1
 64
     7
176
     1
 65
   257
176
     1
 75
     1
176
     1
175
     1
176
     1
 42
1.0
176
     1
 92
        8
176
     1
 66
     7
176
     1
 43
1.0
176
     1
 76
     1
176
     1
 77
     6
176
     1
 78
     2
176
     1
 67
     7
176
     1
 79
     5
176
     1
170
     0
176
     1
171
     0
176
     1
290
     0
176
     1
 93
       13
176
     1
 44
0.0
176
     1
173
     0
176
     1
  0
VISUALSTYLE
  5
CB3
102
{ACAD_REACTORS
330
CB1
102
}
330
CB1
100
AcDbVisualStyle
  2
FlatWithEdges
 70
     1
177
     2
291
     1
 71
     2
176
     1
 72
     1
176
     1
 73
     1
176
     1
 90
        2
176
     1
 40
0.6
176
     1
 41
30.0
176
     1
 63
     7
421
 16777215
176
     1
 74
     1
176
     1
 91
        0
176
     1
 64
     7
176
     1
 65
   257
176
     1
 75
     1
176
     1
175
     1
176
     1
 42
1.0
176
     1
 92
        0
176
     1
 66
   257
176
     1
 43
1.0
176
     1
 76
     1
176
     1
 77
     6
176
     1
 78
     2
176
     1
 67
     7
176
     1
 79
     5
176
     1
170
     0
176
     1
171
     0
176
     1
290
     0
176
     1
 93
       13
176
     1
 44
0.0
176
     1
173
     0
176
     1
  0
VISUALSTYLE
  5
CB4
102
{ACAD_REACTORS
330
CB1
102
}
330
CB1
100
AcDbVisualStyle
  2
Gouraud
 70
     2
177
     2
291
     1
 71
     2
176
     1
 72
     2
176
     1
 73
     1
176
     1
 90
        2
176
     1
 40
0.6
176
     1
 41
30.0
176
     1
 63
     7
421
 16777215
176
     1
 74
     0
176
     1
 91
        0
176
     1
 64
     7
176
     1
 65
   257
176
     1
 75
     1
176
     1
175
     1
176
     1
 42
1.0
176
     1
 92
        0
176
     1
 66
     7
176
     1
 43
1.0
176
     1
 76
     1
176
     1
 77
     6
176
     1
 78
     2
176
     1
 67
     7
176
     1
 79
     5
176
     1
170
     0
176
     1
171
     0
176
     1
290
     0
176
     1
 93
       13
176
     1
 44
0.0
176
     1
173
     0
176
     1
  0
VISUALSTYLE
  5
CB5
102
{ACAD_REACTORS
330
CB1
102
}
330
CB1
100
AcDbVisualStyle
  2
GouraudWithEdges
 70
     3
177
     2
291
     1
 71
     2
176
     1
 72
     2
176
     1
 73
     1
176
     1
 90
        2
176
     1
 40
0.6
176
     1
 41
30.0
176
     1
 63
     7
421
 16777215
176
     1
 74
     1
176
     1
 91
        0
176
     1
 64
     7
176
     1
 65
   257
176
     1
 75
     1
176
     1
175
     1
176
     1
 42
1.0
176
     1
 92
        0
176
     1
 66
   257
176
     1
 43
1.0
176
     1
 76
     1
176
     1
 77
     6
176
     1
 78
     2
176
     1
 67
     7
176
     1
 79
     5
176
     1
170
     0
176
     1
171
     0
176
     1
290
     0
176
     1
 93
       13
176
     1
 44
0.0
176
     1
173
     0
176
     1
  0
VISUALSTYLE
  5
CB9
102
{ACAD_REACTORS
330
CB1
102
}
330
CB1
100
AcDbVisualStyle
  2
Hidden
 70
     6
177
     2
291
     0
 71
     1
176
     1
 72
     2
176
     1
 73
     2
176
     1
 90
        0
176
     1
 40
0.6
176
     1
 41
30.0
176
     1
 63
     7
421
 16777215
176
     1
 74
     2
176
     1
 91
        2
176
     1
 64
     7
176
     1
 65
   257
176
     1
 75
     2
176
     1
175
     1
176
     1
 42
40.0
176
     1
 92
        0
176
     1
 66
   257
176
     1
 43
1.0
176
     1
 76
     1
176
     1
 77
     6
176
     1
 78
     2
176
     1
 67
     7
176
     1
 79
     3
176
     1
170
     0
176
     1
171
     0
176
     1
290
     0
176
     1
 93
        1
176
     1
 44
0.0
176
     1
173
     0
176
     1
  0
VISUALSTYLE
  5
CC7
102
{ACAD_REACTORS
330
CB1
102
}
330
CB1
100
AcDbVisualStyle
  2
JitterOff
 70
    20
177
     2
291
     1
 71
     2
176
     0
 72
     2
176
     0
 73
     0
176
     0
 90
        0
176
     0
 40
0.6
176
     0
 41
30.0
176
     0
 63
     7
421
 16777215
176
     0
 74
     1
176
     0
 91
        4
176
     0
 64
     7
176
     0
 65
   257
176
     0
 75
     1
176
     0
175
     1
176
     0
 42
1.0
176
     0
 92
       10
176
     2
 66
     7
176
     0
 43
1.0
176
     0
 76
     1
176
     0
 77
     6
176
     0
 78
     2
176
     0
 67
     7
176
     0
 79
     5
176
     0
170
     0
176
     0
171
     0
176
     0
290
     0
176
     0
 93
        1
176
     0
 44
0.0
176
     0
173
     0
176
     0
  0
VISUALSTYLE
  5
CBF
102
{ACAD_REACTORS
330
CB1
102
}
330
CB1
100
AcDbVisualStyle
  2
Linepattern
 70
    14
177
     2
291
     1
 71
     2
176
     1
 72
     2
176
     1
 73
     0
176
     1
 90
        0
176
     1
 40
0.6
176
     1
 41
30.0
176
     1
 63
     7
421
 16777215
176
     1
 74
     1
176
     1
 91
        4
176
     1
 64
     7
176
     1
 65
   257
176
     1
 75
     7
176
     1
175
     7
176
     1
 42
1.0
176
     1
 92
        8
176
     1
 66
     7
176
     1
 43
1.0
176
     1
 76
     1
176
     1
 77
     6
176
     1
 78
     2
176
     1
 67
     7
176
     1
 79
     5
176
     1
170
     0
176
     1
171
     0
176
     1
290
     0
176
     1
 93
        1
176
     1
 44
0.0
176
     1
173
     0
176
     1
  0
VISUALSTYLE
  5
CC8
102
{ACAD_REACTORS
330
CB1
102
}
330
CB1
100
AcDbVisualStyle
  2
OverhangOff
 70
    21
177
     2
291
     1
 71
     2
176
     0
 72
     2
176
     0
 73
     0
176
     0
 90
        0
176
     0
 40
0.6
176
     0
 41
30.0
176
     0
 63
     7
421
 16777215
176
     0
 74
     1
176
     0
 91
        4
176
     0
 64
     7
176
     0
 65
   257
176
     0
 75
     1
176
     0
175
     1
176
     0
 42
1.0
176
     0
 92
        9
176
     2
 66
     7
176
     0
 43
1.0
176
     0
 76
     1
176
     0
 77
     6
176
     0
 78
     2
176
     0
 67
     7
176
     0
 79
     5
176
     0
170
     0
176
     0
171
     0
176
     0
290
     0
176
     0
 93
        1
176
     0
 44
0.0
176
     0
173
     0
176
     0
  0
VISUALSTYLE
  5
CBB
102
{ACAD_REACTORS
330
CB1
102
}
330
CB1
100
AcDbVisualStyle
  2
Realistic
 70
     8
177
     2
291
     0
 71
     2
176
     1
 72
     3
176
     1
 73
     0
176
     1
 90
        2
176
     1
 40
0.6
176
     1
 41
30.0
176
     1
 63
     7
421
 16777215
176
     1
 74
     0
176
     1
 91
        0
176
     1
 64
     7
176
     1
 65
   257
176
     1
 75
     1
176
     1
175
     1
176
     1
 42
1.0
176
     1
 92
        8
176
     1
 66
   257
176
     1
 43
1.0
176
     1
 76
     1
176
     1
 77
     6
176
     1
 78
     2
176
     1
 67
     7
176
     1
 79
     3
176
     1
170
     0
176
     1
171
     0
176
     1
290
     0
176
     1
 93
       13
176
     1
 44
0.0
176
     1
173
     0
176
     1
  0
VISUALSTYLE
  5
CC6
102
{ACAD_REACTORS
330
CB1
102
}
330
CB1
100
AcDbVisualStyle
  2
Shaded
 70
    27
177
     2
291
     0
 71
     2
176
     1
 72
     2
176
     1
 73
     1
176
     1
 90
        2
176
     1
 40
0.6
176
     1
 41
30.0
176
     1
 63
     7
421
 16777215
176
     1
 74
     0
176
     1
 91
        4
176
     1
 64
     7
176
     1
 65
   257
176
     1
 75
     1
176
     1
175
     1
176
     1
 42
1.0
176
     1
 92
        8
176
     1
 66
   257
176
     1
 43
1.0
176
     1
 76
     1
176
     1
 77
     6
176
     1
 78
     2
176
     1
 67
     8
425
  7895160
176
     1
 79
     3
176
     1
170
     0
176
     1
171
     0
176
     1
290
     0
176
     1
 93
        5
176
     1
 44
0.0
176
     1
173
     0
176
     1
  0
VISUALSTYLE
  5
CC5
102
{ACAD_REACTORS
330
CB1
102
}
330
CB1
100
AcDbVisualStyle
  2
Shaded with edges
 70
    26
177
     2
291
     0
 71
     2
176
     1
 72
     2
176
     1
 73
     1
176
     1
 90
        2
176
     1
 40
0.6
176
     1
 41
30.0
176
     1
 63
     7
421
 16777215
176
     1
 74
     1
176
     1
 91
       10
176
     1
 64
     7
176
     1
 65
   257
176
     1
 75
     2
176
     1
175
     1
176
     1
 42
1.0
176
     1
 92
        8
176
     1
 66
   257
176
     1
 43
1.0
176
     1
 76
     1
176
     1
 77
     6
176
     1
 78
     2
176
     1
 67
     7
176
     1
 79
     3
176
     1
170
     0
176
     1
171
     0
176
     1
290
     0
176
     1
 93
        5
176
     1
 44
0.0
176
     1
173
     0
176
     1
  0
VISUALSTYLE
  5
CC2
102
{ACAD_REACTORS
330
CB1
102
}
330
CB1
100
AcDbVisualStyle
  2
Shades of Gray
 70
    23
177
     2
291
     0
 71
     2
176
     1
 72
     2
176
     1
 73
     3
176
     1
 90
        0
176
     1
 40
0.6
176
     1
 41
30.0
176
     1
 63
     7
421
 16777215
176
     1
 74
     2
176
     1
 91
        2
176
     1
 64
     7
176
     1
 65
     7
176
     1
 75
     1
176
     1
175
     1
176
     1
 42
40.0
176
     1
 92
        8
176
     1
 66
     7
176
     1
 43
1.0
176
     1
 76
     1
176
     1
 77
     6
176
     1
 78
     2
176
     1
 67
     7
176
     1
 79
     3
176
     1
170
     0
176
     1
171
     0
176
     1
290
     0
176
     1
 93
        1
176
     1
 44
0.0
176
     1
173
     0
176
     1
  0
VISUALSTYLE
  5
CC3
102
{ACAD_REACTORS
330
CB1
102
}
330
CB1
100
AcDbVisualStyle
  2
Sketchy
 70
    24
177
     2
291
     0
 71
     1
176
     1
 72
     2
176
     1
 73
     2
176
     1
 90
        0
176
     1
 40
0.6
176
     1
 41
30.0
176
     1
 63
     7
421
 16777215
176
     1
 74
     2
176
     1
 91
        2
176
     1
 64
     7
176
     1
 65
     7
176
     1
 75
     1
176
     1
175
     1
176
     1
 42
40.0
176
     1
 92
       11
176
     1
 66
     7
176
     1
 43
1.0
176
     1
 76
     1
176
     1
 77
     6
176
     1
 78
     2
176
     1
 67
     7
176
     1
 79
     6
176
     1
170
     0
176
     1
171
     0
176
     1
290
     0
176
     1
 93
        1
176
     1
 44
0.0
176
     1
173
     0
176
     1
  0
VISUALSTYLE
  5
CBE
102
{ACAD_REACTORS
330
CB1
102
}
330
CB1
100
AcDbVisualStyle
  2
Thicken
 70
    13
177
     2
291
     1
 71
     2
176
     1
 72
     2
176
     1
 73
     0
176
     1
 90
        0
176
     1
 40
0.6
176
     1
 41
30.0
176
     1
 63
     7
421
 16777215
176
     1
 74
     1
176
     1
 91
        4
176
     1
 64
     7
176
     1
 65
   257
176
     1
 75
     1
176
     1
175
     1
176
     1
 42
1.0
176
     1
 92
       12
176
     1
 66
     7
176
     1
 43
1.0
176
     1
 76
     1
176
     1
 77
     6
176
     1
 78
     2
176
     1
 67
     7
176
     1
 79
     5
176
     1
170
     0
176
     1
171
     0
176
     1
290
     0
176
     1
 93
        1
176
     1
 44
0.0
176
     1
173
     0
176
     1
  0
VISUALSTYLE
  5
CB8
102
{ACAD_REACTORS
330
CB1
102
}
330
CB1
100
AcDbVisualStyle
  2
Wireframe
 70
     5
177
     2
291
     0
 71
     0
176
     1
 72
     2
176
     1
 73
     0
176
     1
 90
        0
176
     1
 40
0.6
176
     1
 41
30.0
176
     1
 63
     7
421
 16777215
176
     1
 74
     1
176
     1
 91
        4
176
     1
 64
     7
176
     1
 65
   257
176
     1
 75
     1
176
     1
175
     1
176
     1
 42
1.0
176
     1
 92
        0
176
     1
 66
   257
176
     1
 43
1.0
176
     1
 76
     1
176
     1
 77
     6
176
     1
 78
     2
176
     1
 67
     7
176
     1
 79
     3
176
     1
170
     0
176
     1
171
     0
176
     1
290
     0
176
     1
 93
        1
176
     1
 44
0.0
176
     1
173
     0
176
     1
  0
VISUALSTYLE
  5
CC4
102
{ACAD_REACTORS
330
CB1
102
}
330
CB1
100
AcDbVisualStyle
  2
X-Ray
 70
    25
177
     2
291
     0
 71
     2
176
     1
 72
     2
176
     1
 73
     1
176
     1
 90
        1
176
     1
 40
0.5
176
     1
 41
30.0
176
     1
 63
     7
421
 16777215
176
     1
 74
     1
176
     1
 91
        0
176
     1
 64
     7
176
     1
 65
   257
176
     1
 75
     1
176
     1
175
     1
176
     1
 42
1.0
176
     1
 92
        8
176
     1
 66
     7
176
     1
 43
1.0
176
     1
 76
     1
176
     1
 77
     6
176
     1
 78
     2
176
     1
 67
     7
176
     1
 79
     3
176
     1
170
     0
176
     1
171
     0
176
     1
290
     0
176
     1
 93
       13
176
     1
 44
0.0
176
     1
173
     0
176
     1
  0
DICTIONARYVAR
  5
CE5
102
{ACAD_REACTORS
330
C49
102
}
330
C49
100
DictionaryVariables
280
     0
  1
1:1
  0
DICTIONARYVAR
  5
CE3
102
{ACAD_REACTORS
330
C49
102
}
330
C49
100
DictionaryVariables
280
     0
  1
STANDARD
  0
DICTIONARYVAR
  5
C4A
102
{ACAD_REACTORS
330
C49
102
}
330
C49
100
DictionaryVariables
280
     0
  1
STANDARD
  0
DICTIONARYVAR
  5
C4B
102
{ACAD_REACTORS
330
C49
102
}
330
C49
100
DictionaryVariables
280
     0
  1
1
  0
DICTIONARYVAR
  5
CE7
102
{ACAD_REACTORS
330
C49
102
}
330
C49
100
DictionaryVariables
280
     0
  1
1
  0
DICTIONARYVAR
  5
CE8
102
{ACAD_REACTORS
330
C49
102
}
330
C49
100
DictionaryVariables
280
     0
  1
15
  0
DICTIONARYVAR
  5
CE6
102
{ACAD_REACTORS
330
C49
102
}
330
C49
100
DictionaryVariables
280
     0
  1
0
  0
DICTIONARYVAR
  5
CE4
102
{ACAD_REACTORS
330
C49
102
}
330
C49
100
DictionaryVariables
280
     0
  1
0
  0
DICTIONARYVAR
  5
C4C
102
{ACAD_REACTORS
330
C49
102
}
330
C49
100
DictionaryVariables
280
     0
  1

  0
DICTIONARY
  5
CA2
330
CA1
100
AcDbDictionary
280
     1
281
     1
  3
BUMPTILE
360
CA4
  3
DIFFUSETILE
360
CA3
  3
OPACITYTILE
360
CA7
  3
REFLECTIONTILE
360
CA6
  3
REFRACTIONTILE
360
CA8
  3
SPECULARTILE
360
CA5
  0
DICTIONARY
  5
C9A
330
C99
100
AcDbDictionary
280
     1
281
     1
  3
BUMPTILE
360
C9C
  3
DIFFUSETILE
360
C9B
  3
OPACITYTILE
360
C9F
  3
REFLECTIONTILE
360
C9E
  3
REFRACTIONTILE
360
CA0
  3
SPECULARTILE
360
C9D
  0
DICTIONARY
  5
CAA
330
CA9
100
AcDbDictionary
280
     1
281
     1
  3
BUMPTILE
360
CAC
  3
DIFFUSETILE
360
CAB
  3
OPACITYTILE
360
CAF
  3
REFLECTIONTILE
360
CAE
  3
REFRACTIONTILE
360
CB0
  3
SPECULARTILE
360
CAD
  0
DICTIONARY
  5
CE9
330
C3D
100
AcDbDictionary
280
     1
281
     1
  3
ACAD_ROUNDTRIP_2008_TABLESTYLE_CELLSTYLEMAP
360
CEA
  0
XRECORD
  5
CA4
102
{ACAD_REACTORS
330
CA2
102
}
330
CA2
100
AcDbXrecord
280
     1
270
     1
271
     1
  0
XRECORD
  5
CA3
102
{ACAD_REACTORS
330
CA2
102
}
330
CA2
100
AcDbXrecord
280
     1
270
     1
271
     1
  0
XRECORD
  5
CA7
102
{ACAD_REACTORS
330
CA2
102
}
330
CA2
100
AcDbXrecord
280
     1
270
     1
271
     1
  0
XRECORD
  5
CA6
102
{ACAD_REACTORS
330
CA2
102
}
330
CA2
100
AcDbXrecord
280
     1
270
     1
271
     1
  0
XRECORD
  5
CA8
102
{ACAD_REACTORS
330
CA2
102
}
330
CA2
100
AcDbXrecord
280
     1
270
     1
271
     1
  0
XRECORD
  5
CA5
102
{ACAD_REACTORS
330
CA2
102
}
330
CA2
100
AcDbXrecord
280
     1
270
     1
271
     1
  0
XRECORD
  5
C9C
102
{ACAD_REACTORS
330
C9A
102
}
330
C9A
100
AcDbXrecord
280
     1
270
     1
271
     1
  0
XRECORD
  5
C9B
102
{ACAD_REACTORS
330
C9A
102
}
330
C9A
100
AcDbXrecord
280
     1
270
     1
271
     1
  0
XRECORD
  5
C9F
102
{ACAD_REACTORS
330
C9A
102
}
330
C9A
100
AcDbXrecord
280
     1
270
     1
271
     1
  0
XRECORD
  5
C9E
102
{ACAD_REACTORS
330
C9A
102
}
330
C9A
100
AcDbXrecord
280
     1
270
     1
271
     1
  0
XRECORD
  5
CA0
102
{ACAD_REACTORS
330
C9A
102
}
330
C9A
100
AcDbXrecord
280
     1
270
     1
271
     1
  0
XRECORD
  5
C9D
102
{ACAD_REACTORS
330
C9A
102
}
330
C9A
100
AcDbXrecord
280
     1
270
     1
271
     1
  0
XRECORD
  5
CAC
102
{ACAD_REACTORS
330
CAA
102
}
330
CAA
100
AcDbXrecord
280
     1
270
     1
271
     1
  0
XRECORD
  5
CAB
102
{ACAD_REACTORS
330
CAA
102
}
330
CAA
100
AcDbXrecord
280
     1
270
     1
271
     1
  0
XRECORD
  5
CAF
102
{ACAD_REACTORS
330
CAA
102
}
330
CAA
100
AcDbXrecord
280
     1
270
     1
271
     1
  0
XRECORD
  5
CAE
102
{ACAD_REACTORS
330
CAA
102
}
330
CAA
100
AcDbXrecord
280
     1
270
     1
271
     1
  0
XRECORD
  5
CB0
102
{ACAD_REACTORS
330
CAA
102
}
330
CAA
100
AcDbXrecord
280
     1
270
     1
271
     1
  0
XRECORD
  5
CAD
102
{ACAD_REACTORS
330
CAA
102
}
330
CAA
100
AcDbXrecord
280
     1
270
     1
271
     1
  0
CELLSTYLEMAP
  5
CEA
102
{ACAD_REACTORS
330
CE9
102
}
330
CE9
100
AcDbCellStyleMap
 90
        3
300
CELLSTYLE
  1
TABLEFORMAT_BEGIN
 90
        5
170
     1
 91
        0
 92
    32768
 62
   257
 93
        1
300
CONTENTFORMAT
  1
CONTENTFORMAT_BEGIN
 90
        0
 91
        0
 92
        4
 93
        0
300

 40
0.0
140
1.0
 94
        5
 62
     0
340
10
144
0.25
309
CONTENTFORMAT_END
171
     0
 94
        6
 95
        1
302
GRIDFORMAT
  1
GRIDFORMAT_BEGIN
 90
        0
 91
        1
 62
     0
 92
       -2
340
0
 93
        0
 40
0.045
309
GRIDFORMAT_END
 95
        2
302
GRIDFORMAT
  1
GRIDFORMAT_BEGIN
 90
        0
 91
        1
 62
     0
 92
       -2
340
0
 93
        0
 40
0.045
309
GRIDFORMAT_END
 95
        4
302
GRIDFORMAT
  1
GRIDFORMAT_BEGIN
 90
        0
 91
        1
 62
     0
 92
       -2
340
0
 93
        0
 40
0.045
309
GRIDFORMAT_END
 95
        8
302
GRIDFORMAT
  1
GRIDFORMAT_BEGIN
 90
        0
 91
        1
 62
     0
 92
       -2
340
0
 93
        0
 40
0.045
309
GRIDFORMAT_END
 95
       16
302
GRIDFORMAT
  1
GRIDFORMAT_BEGIN
 90
        0
 91
        1
 62
     0
 92
       -2
340
0
 93
        0
 40
0.045
309
GRIDFORMAT_END
 95
       32
302
GRIDFORMAT
  1
GRIDFORMAT_BEGIN
 90
        0
 91
        1
 62
     0
 92
       -2
340
0
 93
        0
 40
0.045
309
GRIDFORMAT_END
309
TABLEFORMAT_END
  1
CELLSTYLE_BEGIN
 90
        1
 91
        1
300
_TITLE
309
CELLSTYLE_END
300
CELLSTYLE
  1
TABLEFORMAT_BEGIN
 90
        5
170
     1
 91
        0
 92
        0
 62
   257
 93
        1
300
CONTENTFORMAT
  1
CONTENTFORMAT_BEGIN
 90
        0
 91
        0
 92
        4
 93
        0
300

 40
0.0
140
1.0
 94
        5
 62
     0
340
10
144
0.18
309
CONTENTFORMAT_END
171
     0
 94
        6
 95
        1
302
GRIDFORMAT
  1
GRIDFORMAT_BEGIN
 90
        0
 91
        1
 62
     0
 92
       -2
340
0
 93
        0
 40
0.045
309
GRIDFORMAT_END
 95
        2
302
GRIDFORMAT
  1
GRIDFORMAT_BEGIN
 90
        0
 91
        1
 62
     0
 92
       -2
340
0
 93
        0
 40
0.045
309
GRIDFORMAT_END
 95
        4
302
GRIDFORMAT
  1
GRIDFORMAT_BEGIN
 90
        0
 91
        1
 62
     0
 92
       -2
340
0
 93
        0
 40
0.045
309
GRIDFORMAT_END
 95
        8
302
GRIDFORMAT
  1
GRIDFORMAT_BEGIN
 90
        0
 91
        1
 62
     0
 92
       -2
340
0
 93
        0
 40
0.045
309
GRIDFORMAT_END
 95
       16
302
GRIDFORMAT
  1
GRIDFORMAT_BEGIN
 90
        0
 91
        1
 62
     0
 92
       -2
340
0
 93
        0
 40
0.045
309
GRIDFORMAT_END
 95
       32
302
GRIDFORMAT
  1
GRIDFORMAT_BEGIN
 90
        0
 91
        1
 62
     0
 92
       -2
340
0
 93
        0
 40
0.045
309
GRIDFORMAT_END
309
TABLEFORMAT_END
  1
CELLSTYLE_BEGIN
 90
        2
 91
        1
300
_HEADER
309
CELLSTYLE_END
300
CELLSTYLE
  1
TABLEFORMAT_BEGIN
 90
        5
170
     1
 91
        0
 92
        0
 62
   257
 93
        1
300
CONTENTFORMAT
  1
CONTENTFORMAT_BEGIN
 90
        0
 91
        0
 92
        4
 93
        0
300

 40
0.0
140
1.0
 94
        2
 62
     0
340
10
144
0.18
309
CONTENTFORMAT_END
171
     0
 94
        6
 95
        1
302
GRIDFORMAT
  1
GRIDFORMAT_BEGIN
 90
        0
 91
        1
 62
     0
 92
       -2
340
0
 93
        0
 40
0.045
309
GRIDFORMAT_END
 95
        2
302
GRIDFORMAT
  1
GRIDFORMAT_BEGIN
 90
        0
 91
        1
 62
     0
 92
       -2
340
0
 93
        0
 40
0.045
309
GRIDFORMAT_END
 95
        4
302
GRIDFORMAT
  1
GRIDFORMAT_BEGIN
 90
        0
 91
        1
 62
     0
 92
       -2
340
0
 93
        0
 40
0.045
309
GRIDFORMAT_END
 95
        8
302
GRIDFORMAT
  1
GRIDFORMAT_BEGIN
 90
        0
 91
        1
 62
     0
 92
       -2
340
0
 93
        0
 40
0.045
309
GRIDFORMAT_END
 95
       16
302
GRIDFORMAT
  1
GRIDFORMAT_BEGIN
 90
        0
 91
        1
 62
     0
 92
       -2
340
0
 93
        0
 40
0.045
309
GRIDFORMAT_END
 95
       32
302
GRIDFORMAT
  1
GRIDFORMAT_BEGIN
 90
        0
 91
        1
 62
     0
 92
       -2
340
0
 93
        0
 40
0.045
309
GRIDFORMAT_END
309
TABLEFORMAT_END
  1
CELLSTYLE_BEGIN
 90
        3
 91
        2
300
_DATA
309
CELLSTYLE_END
  0
ENDSEC
  0
EOF
