  0
SECTION
  2
HEADER
  9
$ACADVER
  1
AC1024
  9
$ACADMAINTVER
 70
    37
  9
$DWGCODEPAGE
  3
ANSI_1252
  9
$LASTSAVEDBY
  1
jtigges
  9
$INSBASE
 10
0.0
 20
0.0
 30
0.0
  9
$EXTMIN
 10
-0.001952975990676
 20
-0.001274011681403
 30
-0.0015258207003583
  9
$EXTMAX
 10
64.00195327401764
 20
41.75127420609778
 30
0.0000000349246037
  9
$LIMMIN
 10
0.0
 20
0.0
  9
$LIMMAX
 10
12.0
 20
9.0
  9
$ORTHOMODE
 70
     0
  9
$REGENMODE
 70
     1
  9
$FILLMODE
 70
     1
  9
$QTEXTMODE
 70
     0
  9
$MIRRTEXT
 70
     1
  9
$LTSCALE
 40
1.0
  9
$ATTMODE
 70
     1
  9
$TEXTSIZE
 40
0.2
  9
$TRACEWID
 40
0.05
  9
$TEXTSTYLE
  7
STANDARD
  9
$CLAYER
  8
0
  9
$CELTYPE
  6
BYLAYER
  9
$CECOLOR
 62
   256
  9
$CELTSCALE
 40
1.0
  9
$DISPSILH
 70
     0
  9
$DIMSCALE
 40
1.0
  9
$DIMASZ
 40
0.1875
  9
$DIMEXO
 40
0.1875
  9
$DIMDLI
 40
0.375
  9
$DIMRND
 40
0.0
  9
$DIMDLE
 40
0.0
  9
$DIMEXE
 40
0.09375
  9
$DIMTP
 40
0.0
  9
$DIMTM
 40
0.0
  9
$DIMTXT
 40
0.1875
  9
$DIMCEN
 40
0.09375
  9
$DIMTSZ
 40
0.0
  9
$DIMTOL
 70
     0
  9
$DIMLIM
 70
     0
  9
$DIMTIH
 70
     1
  9
$DIMTOH
 70
     1
  9
$DIMSE1
 70
     0
  9
$DIMSE2
 70
     0
  9
$DIMTAD
 70
     0
  9
$DIMZIN
 70
     0
  9
$DIMBLK
  1

  9
$DIMASO
 70
     1
  9
$DIMSHO
 70
     1
  9
$DIMPOST
  1

  9
$DIMAPOST
  1

  9
$DIMALT
 70
     0
  9
$DIMALTD
 70
     2
  9
$DIMALTF
 40
25.4
  9
$DIMLFAC
 40
1.0
  9
$DIMTOFL
 70
     0
  9
$DIMTVP
 40
0.0
  9
$DIMTIX
 70
     0
  9
$DIMSOXD
 70
     0
  9
$DIMSAH
 70
     0
  9
$DIMBLK1
  1

  9
$DIMBLK2
  1

  9
$DIMSTYLE
  2
STANDARD
  9
$DIMCLRD
 70
     0
  9
$DIMCLRE
 70
     0
  9
$DIMCLRT
 70
     0
  9
$DIMTFAC
 40
0.5
  9
$DIMGAP
 40
0.1875
  9
$DIMJUST
 70
     0
  9
$DIMSD1
 70
     0
  9
$DIMSD2
 70
     0
  9
$DIMTOLJ
 70
     1
  9
$DIMTZIN
 70
     0
  9
$DIMALTZ
 70
     0
  9
$DIMALTTZ
 70
     0
  9
$DIMUPT
 70
     0
  9
$DIMDEC
 70
     5
  9
$DIMTDEC
 70
     4
  9
$DIMALTU
 70
     2
  9
$DIMALTTD
 70
     2
  9
$DIMTXSTY
  7
STANDARD
  9
$DIMAUNIT
 70
     0
  9
$DIMADEC
 70
     0
  9
$DIMALTRND
 40
0.0
  9
$DIMAZIN
 70
     0
  9
$DIMDSEP
 70
    46
  9
$DIMATFIT
 70
     0
  9
$DIMFRAC
 70
     2
  9
$DIMLDRBLK
  1

  9
$DIMLUNIT
 70
     5
  9
$DIMLWD
 70
    -2
  9
$DIMLWE
 70
    -2
  9
$DIMTMOVE
 70
     0
  9
$DIMFXL
 40
1.0
  9
$DIMFXLON
 70
     0
  9
$DIMJOGANG
 40
0.7853981633974483
  9
$DIMTFILL
 70
     0
  9
$DIMTFILLCLR
 70
     0
  9
$DIMARCSYM
 70
     0
  9
$DIMLTYPE
  6

  9
$DIMLTEX1
  6

  9
$DIMLTEX2
  6

  9
$DIMTXTDIRECTION
 70
     0
  9
$LUNITS
 70
     5
  9
$LUPREC
 70
     5
  9
$SKETCHINC
 40
0.1
  9
$FILLETRAD
 40
0.0
  9
$AUNITS
 70
     0
  9
$AUPREC
 70
     1
  9
$MENU
  1
acad
  9
$ELEVATION
 40
0.0
  9
$PELEVATION
 40
0.0
  9
$THICKNESS
 40
0.0
  9
$LIMCHECK
 70
     0
  9
$CHAMFERA
 40
0.0
  9
$CHAMFERB
 40
0.0
  9
$CHAMFERC
 40
0.0
  9
$CHAMFERD
 40
0.0
  9
$SKPOLY
 70
     0
  9
$TDCREATE
 40
2450035.177149537
  9
$TDUCREATE
 40
2450035.427149537
  9
$TDUPDATE
 40
2456722.317875451
  9
$TDUUPDATE
 40
2456722.567875452
  9
$TDINDWG
 40
0.0301320833
  9
$TDUSRTIMER
 40
0.0301320833
  9
$USRTIMER
 70
     1
  9
$ANGBASE
 50
0.0
  9
$ANGDIR
 70
     0
  9
$PDMODE
 70
     0
  9
$PDSIZE
 40
0.0
  9
$PLINEWID
 40
0.0
  9
$SPLFRAME
 70
     0
  9
$SPLINETYPE
 70
     6
  9
$SPLINESEGS
 70
     8
  9
$HANDSEED
  5
1122
  9
$SURFTAB1
 70
     6
  9
$SURFTAB2
 70
     6
  9
$SURFTYPE
 70
     6
  9
$SURFU
 70
     6
  9
$SURFV
 70
     6
  9
$UCSBASE
  2

  9
$UCSNAME
  2

  9
$UCSORG
 10
0.0
 20
0.0
 30
0.0
  9
$UCSXDIR
 10
1.0
 20
0.0
 30
0.0
  9
$UCSYDIR
 10
0.0
 20
1.0
 30
0.0
  9
$UCSORTHOREF
  2

  9
$UCSORTHOVIEW
 70
     0
  9
$UCSORGTOP
 10
0.0
 20
0.0
 30
0.0
  9
$UCSORGBOTTOM
 10
0.0
 20
0.0
 30
0.0
  9
$UCSORGLEFT
 10
0.0
 20
0.0
 30
0.0
  9
$UCSORGRIGHT
 10
0.0
 20
0.0
 30
0.0
  9
$UCSORGFRONT
 10
0.0
 20
0.0
 30
0.0
  9
$UCSORGBACK
 10
0.0
 20
0.0
 30
0.0
  9
$PUCSBASE
  2

  9
$PUCSNAME
  2

  9
$PUCSORG
 10
0.0
 20
0.0
 30
0.0
  9
$PUCSXDIR
 10
1.0
 20
0.0
 30
0.0
  9
$PUCSYDIR
 10
0.0
 20
1.0
 30
0.0
  9
$PUCSORTHOREF
  2

  9
$PUCSORTHOVIEW
 70
     0
  9
$PUCSORGTOP
 10
0.0
 20
0.0
 30
0.0
  9
$PUCSORGBOTTOM
 10
0.0
 20
0.0
 30
0.0
  9
$PUCSORGLEFT
 10
0.0
 20
0.0
 30
0.0
  9
$PUCSORGRIGHT
 10
0.0
 20
0.0
 30
0.0
  9
$PUCSORGFRONT
 10
0.0
 20
0.0
 30
0.0
  9
$PUCSORGBACK
 10
0.0
 20
0.0
 30
0.0
  9
$USERI1
 70
     0
  9
$USERI2
 70
     0
  9
$USERI3
 70
     0
  9
$USERI4
 70
     0
  9
$USERI5
 70
     0
  9
$USERR1
 40
0.0
  9
$USERR2
 40
0.0
  9
$USERR3
 40
0.0
  9
$USERR4
 40
0.0
  9
$USERR5
 40
0.0
  9
$WORLDVIEW
 70
     1
  9
$SHADEDGE
 70
     3
  9
$SHADEDIF
 70
    70
  9
$TILEMODE
 70
     1
  9
$MAXACTVP
 70
    16
  9
$PINSBASE
 10
0.0
 20
0.0
 30
0.0
  9
$PLIMCHECK
 70
     0
  9
$PEXTMIN
 10
1.000000000000000E+20
 20
1.000000000000000E+20
 30
1.000000000000000E+20
  9
$PEXTMAX
 10
-1.000000000000000E+20
 20
-1.000000000000000E+20
 30
-1.000000000000000E+20
  9
$PLIMMIN
 10
0.0
 20
0.0
  9
$PLIMMAX
 10
12.0
 20
9.0
  9
$UNITMODE
 70
     0
  9
$VISRETAIN
 70
     0
  9
$PLINEGEN
 70
     0
  9
$PSLTSCALE
 70
     1
  9
$TREEDEPTH
 70
  3020
  9
$CMLSTYLE
  2
STANDARD
  9
$CMLJUST
 70
     0
  9
$CMLSCALE
 40
1.0
  9
$PROXYGRAPHICS
 70
     1
  9
$MEASUREMENT
 70
     0
  9
$CELWEIGHT
370
    -1
  9
$ENDCAPS
280
     0
  9
$JOINSTYLE
280
     0
  9
$LWDISPLAY
290
     0
  9
$INSUNITS
 70
     0
  9
$HYPERLINKBASE
  1

  9
$STYLESHEET
  1

  9
$XEDIT
290
     1
  9
$CEPSNTYPE
380
     0
  9
$PSTYLEMODE
290
     1
  9
$FINGERPRINTGUID
  2
{FAE641F8-93A2-4D04-8027-CB5674C8401A}
  9
$VERSIONGUID
  2
{24DE5676-6888-415B-839A-7DB4F9F01E02}
  9
$EXTNAMES
290
     1
  9
$PSVPSCALE
 40
0.0
  9
$OLESTARTUP
290
     0
  9
$SORTENTS
280
   127
  9
$INDEXCTL
280
     0
  9
$HIDETEXT
280
     0
  9
$XCLIPFRAME
280
     2
  9
$HALOGAP
280
     0
  9
$OBSCOLOR
 70
   257
  9
$OBSLTYPE
280
     0
  9
$INTERSECTIONDISPLAY
280
     0
  9
$INTERSECTIONCOLOR
 70
   257
  9
$DIMASSOC
280
     1
  9
$PROJECTNAME
  1

  9
$CAMERADISPLAY
290
     0
  9
$LENSLENGTH
 40
50.0
  9
$CAMERAHEIGHT
 40
0.0
  9
$STEPSPERSEC
 40
2.0
  9
$STEPSIZE
 40
6.0
  9
$3DDWFPREC
 40
2.0
  9
$PSOLWIDTH
 40
0.25
  9
$PSOLHEIGHT
 40
4.0
  9
$LOFTANG1
 40
1.570796326794896
  9
$LOFTANG2
 40
1.570796326794896
  9
$LOFTMAG1
 40
0.0
  9
$LOFTMAG2
 40
0.0
  9
$LOFTPARAM
 70
     7
  9
$LOFTNORMALS
280
     1
  9
$LATITUDE
 40
37.795
  9
$LONGITUDE
 40
-122.394
  9
$NORTHDIRECTION
 40
0.0
  9
$TIMEZONE
 70
 -8000
  9
$LIGHTGLYPHDISPLAY
280
     1
  9
$TILEMODELIGHTSYNCH
280
     1
  9
$CMATERIAL
347
10CF
  9
$SOLIDHIST
280
     1
  9
$SHOWHIST
280
     1
  9
$DWFFRAME
280
     2
  9
$DGNFRAME
280
     0
  9
$REALWORLDSCALE
290
     1
  9
$INTERFERECOLOR
 62
     1
  9
$INTERFEREOBJVS
345
10F1
  9
$INTERFEREVPVS
346
10EE
  9
$CSHADOW
280
     0
  9
$SHADOWPLANELOCATION
 40
0.0
  0
ENDSEC
  0
SECTION
  2
CLASSES
  0
CLASS
  1
ACDBDICTIONARYWDFLT
  2
AcDbDictionaryWithDefault
  3
ObjectDBX Classes
 90
        0
 91
        1
280
     0
281
     0
  0
CLASS
  1
TABLESTYLE
  2
AcDbTableStyle
  3
ObjectDBX Classes
 90
     4095
 91
        1
280
     0
281
     0
  0
CLASS
  1
ACME_DOCUMENT
  2
AcMeDbDoc
  3
AcMeServices
 90
        0
 91
        0
280
     0
281
     0
  0
CLASS
  1
AMGSETTINGSOBJ
  2
AmgSettingsObj
  3
"AcadM|Product Description: AutoCAD Mechanical 2000|Company: Autodesk"
 90
        0
 91
        0
280
     0
281
     0
  0
CLASS
  1
ACMESCOPE
  2
AcMeScope
  3
AcMeServices
 90
        0
 91
        0
280
     0
281
     0
  0
CLASS
  1
ACMECOMMANDHISTORY
  2
AcMeCommandHistory
  3
AcMeServices
 90
        0
 91
        0
280
     0
281
     0
  0
CLASS
  1
ACIMSYSVARMAN
  2
AcImSysVarManager
  3
AcMeServices
 90
        0
 91
        0
280
     0
281
     0
  0
CLASS
  1
ACIMINTSYSVAR
  2
AcImIntSysVar
  3
AcMeServices
 90
        0
 91
        0
280
     0
281
     0
  0
CLASS
  1
ACMEDRAWINGMAN
  2
AcMeDrawingMan
  3
AcMeServices
 90
        0
 91
        0
280
     0
281
     0
  0
CLASS
  1
ACMEVIEW
  2
AcMeView
  3
AcMeServices
 90
        0
 91
        0
280
     0
281
     0
  0
CLASS
  1
ACDBENTITYCACHE
  2
AcMeEntityCache
  3
AcMeServices
 90
        0
 91
        0
280
     0
281
     0
  0
CLASS
  1
GSMANAGER
  2
AcMeGSManager
  3
AcMeServices
 90
        0
 91
        0
280
     0
281
     0
  0
CLASS
  1
AMDTINTERNALREACTOR
  2
AmdtInternalReactor
  3
AcMeServices
 90
        0
 91
        0
280
     0
281
     0
  0
CLASS
  1
ACMESTATEMGR
  2
AcMeStateMgr
  3
AcMeServices
 90
        0
 91
        0
280
     0
281
     0
  0
CLASS
  1
ACGREFMASTER
  2
AcGrefMaster
  3
AcAttribServices
 90
        0
 91
        0
280
     0
281
     0
  0
CLASS
  1
AM_DRAWING_MGR
  2
AcDmDwgMgr
  3
AcMechDwgViewMgmt
 90
        0
 91
        0
280
     0
281
     0
  0
CLASS
  1
AM_DWG_DOCUMENT
  2
AcDmDwgDocument
  3
AcMechDwgViewMgmt
 90
        0
 91
        0
280
     0
281
     0
  0
CLASS
  1
AM_DWG_SHEET
  2
AcDmSheet
  3
AcMechDwgViewMgmt
 90
        0
 91
        0
280
     0
281
     0
  0
CLASS
  1
AM_VIEWDIMPARMAP
  2
AcDmViewDimParMap
  3
AcMechDwgViewMgmt
 90
        0
 91
        0
280
     0
281
     0
  0
CLASS
  1
ACIMREALSYSVAR
  2
AcImRealSysVar
  3
AcMeServices
 90
        0
 91
        0
280
     0
281
     0
  0
CLASS
  1
AM_DWGMGR_NAME
  2
AcDmDwgMgrName
  3
AcMechDwgViewMgmt
 90
        0
 91
        0
280
     0
281
     0
  0
CLASS
  1
ACME_DATABASE
  2
AcMeDbDatabase
  3
AcMeServices
 90
        0
 91
        0
280
     0
281
     0
  0
CLASS
  1
ACRFINSADJUSTERMGR
  2
AcRfInsAdjusterMgr
  3
AcMeServices
 90
        0
 91
        0
280
     0
281
     0
  0
CLASS
  1
ACGREFACADMASTER
  2
AcGrefacadMaster
  3
AcGrefServices
 90
        0
 91
        0
280
     0
281
     0
  0
CLASS
  1
AMDTMENUSTATEMGR
  2
AmdtMenuStateMgr
  3
McadcomServices
 90
        0
 91
        0
280
     0
281
     0
  0
CLASS
  1
AMDTMCOMMENUSTATE
  2
AmdtMcomMenuState
  3
McadcomServices
 90
        0
 91
        0
280
     0
281
     0
  0
CLASS
  1
AMIMASTER
  2
AmiMaster
  3
AmiServices
 90
        0
 91
        0
280
     0
281
     0
  0
CLASS
  1
MAPIAMMOUDLE
  2
MApiAmModule
  3
MApiAmServices
 90
        0
 91
        0
280
     0
281
     0
  0
CLASS
  1
AMDTADMENUSTATE
  2
AmdtAdMenuState
  3
DesignerServices
 90
        0
 91
        0
280
     0
281
     0
  0
CLASS
  1
ADAPPL
  2
AcAdAppl
  3
DesignerServices
 90
        0
 91
        0
280
     0
281
     0
  0
CLASS
  1
DEPMGR
  2
AcAdDepMgr
  3
DesignerServices
 90
        0
 91
        0
280
     0
281
     0
  0
CLASS
  1
PARAMMGR
  2
AcAdParamMgr
  3
DesignerServices
 90
        0
 91
        0
280
     0
281
     0
  0
CLASS
  1
PARAMSCOPE
  2
AcAdParamScope
  3
DesignerServices
 90
        0
 91
        0
280
     0
281
     0
  0
CLASS
  1
NAMEDAPPL
  2
AcAdNamedAppl
  3
DesignerServices
 90
        0
 91
        0
280
     0
281
     0
  0
CLASS
  1
AMDTDMMENUSTATE
  2
AmdtDmMenuState
  3
AcMechDwgViewMgmt
 90
        0
 91
        0
280
     0
281
     0
  0
CLASS
  1
AMDTAMMENUSTATE
  2
AmdtAmMenuState
  3
DesignerAssemblies
 90
        0
 91
        0
280
     0
281
     0
  0
CLASS
  1
ACIMSTRSYSVAR
  2
AcImStrSysVar
  3
AcMeServices
 90
        0
 91
        0
280
     0
281
     0
  0
CLASS
  1
ACAMPROJECT
  2
AcAmProject
  3
DesignerAssemblies
 90
        0
 91
        0
280
     0
281
     0
  0
CLASS
  1
ACAMGRCOMPDEF
  2
AcAmGrCompDef
  3
DesignerAssemblies
 90
        0
 91
        0
280
     0
281
     0
  0
CLASS
  1
ACCMCONTEXT
  2
AcCmContext
  3
DesignerAssemblies
 90
        0
 91
        0
280
     0
281
     0
  0
CLASS
  1
ACAMCOMPDEF
  2
AcAmCompDef
  3
DesignerAssemblies
 90
        0
 91
        0
280
     0
281
     0
  0
CLASS
  1
ACAMCOMPDEFMGR
  2
AcAmCompDefMgr
  3
DesignerAssemblies
 90
        0
 91
        0
280
     0
281
     0
  0
CLASS
  1
AMCONTEXTMGR
  2
AcAmContextMgr
  3
DesignerAssemblies
 90
        0
 91
        0
280
     0
281
     0
  0
CLASS
  1
ACAMCONTEXTMODELER
  2
AcAmContextModeler
  3
DesignerAssemblies
 90
        0
 91
        0
280
     0
281
     0
  0
CLASS
  1
ACMDATADICTIONARY
  2
AcmDataDictionary
  3
"AcmSymBB|Product Description: AutoCAD Mechanical 2004 DX|Company: Autodesk"
 90
        0
 91
        0
280
     0
281
     0
  0
CLASS
  1
CATALOGSTATE
  2
AcAmCatalogState
  3
DesignerAssemblies
 90
        0
 91
        0
280
     0
281
     0
  0
CLASS
  1
ACAMGRCOMPDEFSET
  2
AcAmGrCompDefSet
  3
DesignerAssemblies
 90
        0
 91
        0
280
     0
281
     0
  0
CLASS
  1
AMDTBROWSERDBTAB
  2
AmdtBrowserDbTab
  3
McadcomServices
 90
        0
 91
        0
280
     0
281
     0
  0
CLASS
  1
CBROWSERAPPOBJECT
  2
CBrowserAppObject
  3
McadcomServices
 90
        0
 91
        0
280
     0
281
     0
  0
CLASS
  1
DM_PLACEHOLDER
  2
AcDmSelsetPlaceholder
  3
AcMechDwgViewMgmt
 90
        0
 91
        0
280
     0
281
     0
  0
CLASS
  1
ACMSTANDARDANSI
  2
AcmStandardANSI
  3
"Amdt_StdImp|Product Description: AutoCAD Mechanical 2004 DX|Company: Autodesk"
 90
        0
 91
        0
280
     0
281
     0
  0
CLASS
  1
AMGOBJPROPCFG
  2
AmgObjPropCfg
  3
"AmgLay|Product Description: AutoCAD Mechanical 2000|Company: Autodesk"
 90
        1
 91
        0
280
     0
281
     0
  0
CLASS
  1
ACMSURFSTANDARDANSI
  2
AcmSurfTextStdANSI
  3
"Amdt_StdImp|Product Description: AutoCAD Mechanical 2004 DX|Company: Autodesk"
 90
        0
 91
        0
280
     0
281
     0
  0
CLASS
  1
ACMFCFSTANDARDANSI
  2
AcmFCFStdANSI
  3
"Amdt_StdImp|Product Description: AutoCAD Mechanical 2004 DX|Company: Autodesk"
 90
        0
 91
        0
280
     0
281
     0
  0
CLASS
  1
ACMWELDSTANDARDANSI
  2
AcmWeldingStdANSI
  3
"Amdt_StdImp|Product Description: AutoCAD Mechanical 2004 DX|Company: Autodesk"
 90
        0
 91
        0
280
     0
281
     0
  0
CLASS
  1
ACMIDSTANDARDANSI
  2
AcmIdStdANSI
  3
"Amdt_StdImp|Product Description: AutoCAD Mechanical 2004 DX|Company: Autodesk"
 90
        0
 91
        0
280
     0
281
     0
  0
CLASS
  1
ACMDATUMSTANDARDANSI
  2
AcmDatumStdANSI
  3
"Amdt_StdImp|Product Description: AutoCAD Mechanical 2004 DX|Company: Autodesk"
 90
        0
 91
        0
280
     0
281
     0
  0
CLASS
  1
ACMBOMSTANDARDANSI
  2
AcmBOMStdANSI
  3
"Amdt_StdImp|Product Description: AutoCAD Mechanical 2004 DX|Company: Autodesk"
 90
        0
 91
        0
280
     0
281
     0
  0
CLASS
  1
ACMDETAILSTANDARDANSI
  2
AmdtDetailSymStdANSI
  3
"Amdt_StdImp|Product Description: AutoCAD Mechanical 2004 DX|Company: Autodesk"
 90
        0
 91
        0
280
     0
281
     0
  0
CLASS
  1
ACMSECTIONSTANDARDANSI
  2
AmdtSectionSymStdANSI
  3
"Amdt_StdImp|Product Description: AutoCAD Mechanical 2004 DX|Company: Autodesk"
 90
        0
 91
        0
280
     0
281
     0
  0
CLASS
  1
ACMCENTERLINESTANDARDANSI
  2
AmdtCenterLineStdANSI
  3
"Amdt_StdImp|Product Description: AutoCAD Mechanical 2004 DX|Company: Autodesk"
 90
        0
 91
        0
280
     0
281
     0
  0
CLASS
  1
ACMTHREADLINESTANDARDANSI
  2
AmdtThreadLineStdANSI
  3
"Amdt_StdImp|Product Description: AutoCAD Mechanical 2004 DX|Company: Autodesk"
 90
        0
 91
        0
280
     0
281
     0
  0
CLASS
  1
ACMNOTESTANDARDANSI
  2
AmdtNoteStdANSI
  3
"Amdt_StdImp|Product Description: AutoCAD Mechanical 2004 DX|Company: Autodesk"
 90
        0
 91
        0
280
     0
281
     0
  0
CLASS
  1
AMDTNOTETEMPLATEDB
  2
AmdtNoteTemplateDB
  3
AMDT_STDIMP_MODULE_NAME
 90
        0
 91
        0
280
     0
281
     0
  0
CLASS
  1
ACAMGLAYSTD
  2
AcAmgLayStd
  3
"AcAmgLayStd|Product Description: AutoCAD Mechanical 2000|Company: Autodesk"
 90
        0
 91
        0
280
     0
281
     0
  0
CLASS
  1
ACAMGDIMSTD
  2
AcAmgDimStd
  3
"AcAmgDimStd|Product Description: AutoCAD Mechanical 2000|Company: Autodesk"
 90
        0
 91
        0
280
     0
281
     0
  0
CLASS
  1
ACAMGHOLECHARTSTDANSI
  2
AcAmgHoleChartStdANSI
  3
ACMSYMBB_MODULE_NAME
 90
        0
 91
        0
280
     0
281
     0
  0
CLASS
  1
ACAMGTITLESTD
  2
AcAmgTitleStd
  3
"TITLEAPP"
 90
        0
 91
        0
280
     0
281
     0
  0
CLASS
  1
ACAMGFILTERDAT
  2
AcAmgFilterDat
  3
"AcadM|Product Description: AutoCAD Mechanical 2000|Company: Autodesk"
 90
        0
 91
        0
280
     0
281
     0
  0
CLASS
  1
DICTIONARYVAR
  2
AcDbDictionaryVar
  3
ObjectDBX Classes
 90
        0
 91
        9
280
     0
281
     0
  0
CLASS
  1
SORTENTSTABLE
  2
AcDbSortentsTable
  3
ObjectDBX Classes
 90
        0
 91
        1
280
     0
281
     0
  0
CLASS
  1
MATERIAL
  2
AcDbMaterial
  3
ObjectDBX Classes
 90
     1153
 91
        3
280
     0
281
     0
  0
CLASS
  1
VISUALSTYLE
  2
AcDbVisualStyle
  3
ObjectDBX Classes
 90
     4095
 91
       24
280
     0
281
     0
  0
CLASS
  1
SCALE
  2
AcDbScale
  3
ObjectDBX Classes
 90
     1153
 91
       17
280
     0
281
     0
  0
CLASS
  1
MLEADERSTYLE
  2
AcDbMLeaderStyle
  3
ACDB_MLEADERSTYLE_CLASS
 90
     4095
 91
        1
280
     0
281
     0
  0
CLASS
  1
CELLSTYLEMAP
  2
AcDbCellStyleMap
  3
ObjectDBX Classes
 90
     1152
 91
        1
280
     0
281
     0
  0
ENDSEC
  0
SECTION
  2
TABLES
  0
TABLE
  2
VPORT
  5
8
330
0
100
AcDbSymbolTable
 70
     1
  0
VPORT
  5
10C8
330
8
100
AcDbSymbolTableRecord
100
AcDbViewportTableRecord
  2
*Active
 70
     0
 10
0.0
 20
0.0
 11
1.0
 21
1.0
 12
32.00000014901348
 22
20.87500009720819
 13
0.0
 23
0.0
 14
1.0
 24
1.0
 15
0.0
 25
0.0
 16
0.0
 26
0.0
 36
1.0
 17
0.0
 27
0.0
 37
0.0
 40
42.03561634128955
 41
2.16628959276018
 42
50.0
 43
0.0
 44
0.0
 50
0.0
 51
0.0
 71
     0
 72
   100
 73
     1
 74
     0
 75
     0
 76
     0
 77
     0
 78
     0
281
     0
 65
     1
110
0.0
120
0.0
130
0.0
111
1.0
121
0.0
131
0.0
112
0.0
122
1.0
132
0.0
 79
     0
146
0.0
348
10ED
 60
     3
 61
     5
292
     1
282
     1
141
0.0
142
0.0
 63
   250
421
  3355443
  0
ENDTAB
  0
TABLE
  2
LTYPE
  5
5
330
0
100
AcDbSymbolTable
 70
     3
  0
LTYPE
  5
12
330
5
100
AcDbSymbolTableRecord
100
AcDbLinetypeTableRecord
  2
BYBLOCK
 70
     0
  3

 72
    65
 73
     0
 40
0.0
  0
LTYPE
  5
13
330
5
100
AcDbSymbolTableRecord
100
AcDbLinetypeTableRecord
  2
BYLAYER
 70
     0
  3

 72
    65
 73
     0
 40
0.0
  0
LTYPE
  5
14
330
5
100
AcDbSymbolTableRecord
100
AcDbLinetypeTableRecord
  2
CONTINUOUS
 70
     0
  3
Solid line
 72
    65
 73
     0
 40
0.0
  0
LTYPE
  5
AF
330
5
100
AcDbSymbolTableRecord
100
AcDbLinetypeTableRecord
  2
HIDDEN
 70
     0
  3
_ _ _ _ _ _ _ _ _ _ _ _ _ _ _ _ _ _ _ _ _ _ _
 72
    65
 73
     2
 40
0.375
 49
0.25
 74
     0
 49
-0.125
 74
     0
  0
LTYPE
  5
B0
330
5
100
AcDbSymbolTableRecord
100
AcDbLinetypeTableRecord
  2
CENTER
 70
     0
  3
____ _ ____ _ ____ _ ____ _ ____ _ ____ _ ____
 72
    65
 73
     4
 40
2.0
 49
1.25
 74
     0
 49
-0.25
 74
     0
 49
0.25
 74
     0
 49
-0.25
 74
     0
  0
ENDTAB
  0
TABLE
  2
LAYER
  5
2
330
0
100
AcDbSymbolTable
 70
     7
  0
LAYER
  5
F
330
2
100
AcDbSymbolTableRecord
100
AcDbLayerTableRecord
  2
0
 70
     0
 62
     7
  6
CONTINUOUS
370
    -3
390
F61
347
10DF
  0
LAYER
  5
B3
330
2
100
AcDbSymbolTableRecord
100
AcDbLayerTableRecord
  2
DIM
 70
     0
 62
     3
  6
CONTINUOUS
370
    -3
390
F61
347
10DF
  0
LAYER
  5
B4
330
2
100
AcDbSymbolTableRecord
100
AcDbLayerTableRecord
  2
HATCH
 70
     0
 62
     4
  6
CONTINUOUS
370
    -3
390
F61
347
10DF
  0
LAYER
  5
B6
330
2
100
AcDbSymbolTableRecord
100
AcDbLayerTableRecord
  2
HIDE
 70
     0
 62
     5
  6
HIDDEN
370
    -3
390
F61
347
10DF
  0
LAYER
  5
B7
330
2
100
AcDbSymbolTableRecord
100
AcDbLayerTableRecord
  2
CENTER
 70
     0
 62
     2
  6
CENTER
370
    -3
390
F61
347
10DF
  0
LAYER
  5
B8
330
2
100
AcDbSymbolTableRecord
100
AcDbLayerTableRecord
  2
TITLE
 70
     0
 62
     1
  6
CONTINUOUS
370
    -3
390
F61
347
10DF
  0
LAYER
  5
B9
330
2
100
AcDbSymbolTableRecord
100
AcDbLayerTableRecord
  2
DEFPOINTS
 70
     0
 62
    -7
  6
CONTINUOUS
290
     0
370
    -3
390
F61
347
10DF
  0
ENDTAB
  0
TABLE
  2
STYLE
  5
3
330
0
100
AcDbSymbolTable
 70
     4
  0
STYLE
  5
10
330
3
100
AcDbSymbolTableRecord
100
AcDbTextStyleTableRecord
  2
STANDARD
 70
     0
 40
0.0
 41
1.0
 50
0.0
 71
     0
 42
0.2
  3
txt
  4

  0
STYLE
  5
AD
330
3
100
AcDbSymbolTableRecord
100
AcDbTextStyleTableRecord
  2
ITALIC
 70
     0
 40
0.0
 41
1.0
 50
0.0
 71
     0
 42
0.2
  3
txt
  4

  0
STYLE
  5
AE
330
3
100
AcDbSymbolTableRecord
100
AcDbTextStyleTableRecord
  2
COMPLEX
 70
     0
 40
0.0
 41
1.0
 50
0.0
 71
     0
 42
0.156
  3
ROMANC
  4

  0
STYLE
  5
DBB
330
3
100
AcDbSymbolTableRecord
100
AcDbTextStyleTableRecord
  2
STYLE1
 70
     0
 40
0.0
 41
1.0
 50
0.0
 71
     0
 42
0.25
  3
swiss.ttf
  4

1001
ACAD
1000
Swis721 BT
1071
       34
  0
ENDTAB
  0
TABLE
  2
VIEW
  5
6
330
0
100
AcDbSymbolTable
 70
     0
  0
ENDTAB
  0
TABLE
  2
UCS
  5
7
330
0
100
AcDbSymbolTable
 70
     0
  0
ENDTAB
  0
TABLE
  2
APPID
  5
9
330
0
100
AcDbSymbolTable
 70
     9
  0
APPID
  5
11
330
9
100
AcDbSymbolTableRecord
100
AcDbRegAppTableRecord
  2
ACAD
 70
     0
  0
APPID
  5
F74
330
9
100
AcDbSymbolTableRecord
100
AcDbRegAppTableRecord
  2
MCAD_NO_VIS
 70
     0
  0
APPID
  5
F75
330
9
100
AcDbSymbolTableRecord
100
AcDbRegAppTableRecord
  2
ACAD_TEMP_GRAPHIC
 70
     0
  0
APPID
  5
FA3
330
9
100
AcDbSymbolTableRecord
100
AcDbRegAppTableRecord
  2
AD_DRAW
 70
     0
  0
APPID
  5
FA6
330
9
100
AcDbSymbolTableRecord
100
AcDbRegAppTableRecord
  2
ACATTRIBSERVICES
 70
     0
  0
APPID
  5
FC4
330
9
100
AcDbSymbolTableRecord
100
AcDbRegAppTableRecord
  2
DESIGNERASSEMBLIES
 70
     0
  0
APPID
  5
FCA
330
9
100
AcDbSymbolTableRecord
100
AcDbRegAppTableRecord
  2
ACADM_DIM_EDIT
 70
     0
  0
APPID
  5
FCB
330
9
100
AcDbSymbolTableRecord
100
AcDbRegAppTableRecord
  2
AMDT_DM_ADJ
 70
     0
  0
APPID
  5
100D
330
9
100
AcDbSymbolTableRecord
100
AcDbRegAppTableRecord
  2
ACAD_PSEXT
 70
     0
  0
ENDTAB
  0
TABLE
  2
DIMSTYLE
  5
A
330
0
100
AcDbSymbolTable
 70
     1
100
AcDbDimStyleTable
 71
     1
340
A44
  0
DIMSTYLE
105
A44
330
A
100
AcDbSymbolTableRecord
100
AcDbDimStyleTableRecord
  2
STANDARD
 70
     0
340
10
  0
ENDTAB
  0
TABLE
  2
BLOCK_RECORD
  5
1
330
0
100
AcDbSymbolTable
 70
    42
  0
BLOCK_RECORD
  5
18
102
{ACAD_XDICTIONARY
360
10B1
102
}
330
1
100
AcDbSymbolTableRecord
100
AcDbBlockTableRecord
  2
*MODEL_SPACE
340
F68
 70
     0
280
     1
281
     0
  0
BLOCK_RECORD
  5
15
330
1
100
AcDbSymbolTableRecord
100
AcDbBlockTableRecord
  2
*PAPER_SPACE
340
F69
 70
     0
280
     1
281
     0
  0
BLOCK_RECORD
  5
28
330
1
100
AcDbSymbolTableRecord
100
AcDbBlockTableRecord
  2
SAATX
340
0
102
{BLKREFS
331
90B
102
}
 70
     0
280
     1
281
     0
  0
BLOCK_RECORD
  5
29
330
1
100
AcDbSymbolTableRecord
100
AcDbBlockTableRecord
  2
SBBTX
340
0
102
{BLKREFS
331
985
102
}
 70
     0
280
     1
281
     0
  0
BLOCK_RECORD
  5
2A
330
1
100
AcDbSymbolTableRecord
100
AcDbBlockTableRecord
  2
SAAR
340
0
102
{BLKREFS
331
8C0
102
}
 70
     0
280
     1
281
     0
  0
BLOCK_RECORD
  5
2B
330
1
100
AcDbSymbolTableRecord
100
AcDbBlockTableRecord
  2
*X3
340
0
102
{BLKREFS
331
561
102
}
 70
     0
280
     1
281
     0
  0
BLOCK_RECORD
  5
2C
330
1
100
AcDbSymbolTableRecord
100
AcDbBlockTableRecord
  2
SBBT
340
0
102
{BLKREFS
331
891
102
}
 70
     0
280
     1
281
     0
  0
BLOCK_RECORD
  5
2D
330
1
100
AcDbSymbolTableRecord
100
AcDbBlockTableRecord
  2
*X5
340
0
102
{BLKREFS
331
596
102
}
 70
     0
280
     1
281
     0
  0
BLOCK_RECORD
  5
2E
330
1
100
AcDbSymbolTableRecord
100
AcDbBlockTableRecord
  2
SBBB
340
0
102
{BLKREFS
331
895
102
}
 70
     0
280
     1
281
     0
  0
BLOCK_RECORD
  5
2F
330
1
100
AcDbSymbolTableRecord
100
AcDbBlockTableRecord
  2
*X7
340
0
102
{BLKREFS
331
5E5
102
}
 70
     0
280
     1
281
     0
  0
BLOCK_RECORD
  5
30
330
1
100
AcDbSymbolTableRecord
100
AcDbBlockTableRecord
  2
*X8
340
0
102
{BLKREFS
331
8EF
102
}
 70
     0
280
     1
281
     0
  0
BLOCK_RECORD
  5
31
330
1
100
AcDbSymbolTableRecord
100
AcDbBlockTableRecord
  2
*X9
340
0
102
{BLKREFS
331
913
102
}
 70
     0
280
     1
281
     0
  0
BLOCK_RECORD
  5
32
330
1
100
AcDbSymbolTableRecord
100
AcDbBlockTableRecord
  2
SAAL
340
0
102
{BLKREFS
331
8B0
102
}
 70
     0
280
     1
281
     0
  0
BLOCK_RECORD
  5
33
330
1
100
AcDbSymbolTableRecord
100
AcDbBlockTableRecord
  2
*X11
340
0
102
{BLKREFS
331
65E
102
}
 70
     0
280
     1
281
     0
  0
BLOCK_RECORD
  5
4B
330
1
100
AcDbSymbolTableRecord
100
AcDbBlockTableRecord
  2
*X12
340
0
102
{BLKREFS
331
952
102
}
 70
     0
280
     1
281
     0
  0
BLOCK_RECORD
  5
4C
330
1
100
AcDbSymbolTableRecord
100
AcDbBlockTableRecord
  2
*X13
340
0
102
{BLKREFS
331
951
102
}
 70
     0
280
     1
281
     0
  0
BLOCK_RECORD
  5
4D
330
1
100
AcDbSymbolTableRecord
100
AcDbBlockTableRecord
  2
*D14
340
0
 70
     0
280
     1
281
     0
  0
BLOCK_RECORD
  5
4E
330
1
100
AcDbSymbolTableRecord
100
AcDbBlockTableRecord
  2
*D15
340
0
 70
     0
280
     1
281
     0
  0
BLOCK_RECORD
  5
4F
330
1
100
AcDbSymbolTableRecord
100
AcDbBlockTableRecord
  2
*D16
340
0
 70
     0
280
     1
281
     0
  0
BLOCK_RECORD
  5
50
330
1
100
AcDbSymbolTableRecord
100
AcDbBlockTableRecord
  2
*D17
340
0
 70
     0
280
     1
281
     0
  0
BLOCK_RECORD
  5
51
330
1
100
AcDbSymbolTableRecord
100
AcDbBlockTableRecord
  2
*D18
340
0
 70
     0
280
     1
281
     0
  0
BLOCK_RECORD
  5
52
330
1
100
AcDbSymbolTableRecord
100
AcDbBlockTableRecord
  2
*D19
340
0
 70
     0
280
     1
281
     0
  0
BLOCK_RECORD
  5
53
330
1
100
AcDbSymbolTableRecord
100
AcDbBlockTableRecord
  2
*D20
340
0
 70
     0
280
     1
281
     0
  0
BLOCK_RECORD
  5
54
330
1
100
AcDbSymbolTableRecord
100
AcDbBlockTableRecord
  2
*D21
340
0
 70
     0
280
     1
281
     0
  0
BLOCK_RECORD
  5
55
330
1
100
AcDbSymbolTableRecord
100
AcDbBlockTableRecord
  2
*D22
340
0
 70
     0
280
     1
281
     0
  0
BLOCK_RECORD
  5
56
330
1
100
AcDbSymbolTableRecord
100
AcDbBlockTableRecord
  2
*D23
340
0
 70
     0
280
     1
281
     0
  0
BLOCK_RECORD
  5
57
330
1
100
AcDbSymbolTableRecord
100
AcDbBlockTableRecord
  2
*D24
340
0
 70
     0
280
     1
281
     0
  0
BLOCK_RECORD
  5
58
330
1
100
AcDbSymbolTableRecord
100
AcDbBlockTableRecord
  2
*D25
340
0
 70
     0
280
     1
281
     0
  0
BLOCK_RECORD
  5
59
330
1
100
AcDbSymbolTableRecord
100
AcDbBlockTableRecord
  2
*D26
340
0
 70
     0
280
     1
281
     0
  0
BLOCK_RECORD
  5
5A
330
1
100
AcDbSymbolTableRecord
100
AcDbBlockTableRecord
  2
*D27
340
0
 70
     0
280
     1
281
     0
  0
BLOCK_RECORD
  5
5B
330
1
100
AcDbSymbolTableRecord
100
AcDbBlockTableRecord
  2
*D28
340
0
 70
     0
280
     1
281
     0
  0
BLOCK_RECORD
  5
5C
330
1
100
AcDbSymbolTableRecord
100
AcDbBlockTableRecord
  2
*D29
340
0
 70
     0
280
     1
281
     0
  0
BLOCK_RECORD
  5
84
330
1
100
AcDbSymbolTableRecord
100
AcDbBlockTableRecord
  2
*D30
340
0
 70
     0
280
     1
281
     0
  0
BLOCK_RECORD
  5
85
330
1
100
AcDbSymbolTableRecord
100
AcDbBlockTableRecord
  2
*D31
340
0
 70
     0
280
     1
281
     0
  0
BLOCK_RECORD
  5
A3
330
1
100
AcDbSymbolTableRecord
100
AcDbBlockTableRecord
  2
*D32
340
0
 70
     0
280
     1
281
     0
  0
BLOCK_RECORD
  5
A4
330
1
100
AcDbSymbolTableRecord
100
AcDbBlockTableRecord
  2
*D33
340
0
 70
     0
280
     1
281
     0
  0
BLOCK_RECORD
  5
A5
330
1
100
AcDbSymbolTableRecord
100
AcDbBlockTableRecord
  2
*D34
340
0
 70
     0
280
     1
281
     0
  0
BLOCK_RECORD
  5
A6
330
1
100
AcDbSymbolTableRecord
100
AcDbBlockTableRecord
  2
*D35
340
0
 70
     0
280
     1
281
     0
  0
BLOCK_RECORD
  5
A7
330
1
100
AcDbSymbolTableRecord
100
AcDbBlockTableRecord
  2
*D36
340
0
 70
     0
280
     1
281
     0
  0
BLOCK_RECORD
  5
A8
330
1
100
AcDbSymbolTableRecord
100
AcDbBlockTableRecord
  2
*D37
340
0
 70
     0
280
     1
281
     0
  0
BLOCK_RECORD
  5
A9
330
1
100
AcDbSymbolTableRecord
100
AcDbBlockTableRecord
  2
*D38
340
0
 70
     0
280
     1
281
     0
  0
BLOCK_RECORD
  5
AA
330
1
100
AcDbSymbolTableRecord
100
AcDbBlockTableRecord
  2
*D39
340
0
 70
     0
280
     1
281
     0
  0
BLOCK_RECORD
  5
AB
330
1
100
AcDbSymbolTableRecord
100
AcDbBlockTableRecord
  2
*D40
340
0
 70
     0
280
     1
281
     0
  0
BLOCK_RECORD
  5
AC
330
1
100
AcDbSymbolTableRecord
100
AcDbBlockTableRecord
  2
*D41
340
0
 70
     0
280
     1
281
     0
  0
ENDTAB
  0
ENDSEC
  0
SECTION
  2
BLOCKS
  0
BLOCK
  5
BC
330
18
100
AcDbEntity
  8
0
100
AcDbBlockBegin
  2
*MODEL_SPACE
 70
     0
 10
0.0
 20
0.0
 30
0.0
  3
*MODEL_SPACE
  1

  0
ENDBLK
  5
BD
330
18
100
AcDbEntity
  8
0
100
AcDbBlockEnd
  0
BLOCK
  5
BA
330
15
100
AcDbEntity
 67
     1
  8
0
100
AcDbBlockBegin
  2
*PAPER_SPACE
 70
     0
 10
0.0
 20
0.0
 30
0.0
  3
*PAPER_SPACE
  1

  0
ENDBLK
  5
BB
330
15
100
AcDbEntity
 67
     1
  8
0
100
AcDbBlockEnd
  0
BLOCK
  5
548
330
28
100
AcDbEntity
  8
0
100
AcDbBlockBegin
  2
SAATX
 70
     0
 10
0.0
 20
0.0
 30
0.0
  3
SAATX
  1

  0
LINE
  5
549
330
28
100
AcDbEntity
  8
0
100
AcDbLine
 10
-0.8421662700371435
 20
0.0
 30
0.0
 11
0.8421662700371435
 21
0.0
 31
0.0
  0
LINE
  5
54A
330
28
100
AcDbEntity
  8
0
100
AcDbLine
 10
-0.8421662700371435
 20
0.0199999999999996
 30
0.0
 11
0.8421662700371435
 21
0.0199999999999996
 31
0.0
  0
TEXT
  5
54B
330
28
100
AcDbEntity
  8
0
100
AcDbText
 10
-0.8455144018028244
 20
0.0551412039750448
 30
0.0
 40
0.156
  1
SECTION A-A
  7
COMPLEX
100
AcDbText
  0
ENDBLK
  5
54C
330
28
100
AcDbEntity
  8
0
100
AcDbBlockEnd
  0
BLOCK
  5
54D
330
29
100
AcDbEntity
  8
0
100
AcDbBlockBegin
  2
SBBTX
 70
     0
 10
0.0
 20
0.0
 30
0.0
  3
SBBTX
  1

  0
LINE
  5
54E
330
29
100
AcDbEntity
  8
0
100
AcDbLine
 10
-0.8421662700371435
 20
0.0199999999999996
 30
0.0
 11
0.8421662700371435
 21
0.0199999999999996
 31
0.0
  0
LINE
  5
54F
330
29
100
AcDbEntity
  8
0
100
AcDbLine
 10
-0.8421662700371435
 20
0.0
 30
0.0
 11
0.8421662700371435
 21
0.0
 31
0.0
  0
TEXT
  5
550
330
29
100
AcDbEntity
  8
0
100
AcDbText
 10
-0.8455144018028244
 20
0.0554512145058732
 30
0.0
 40
0.156
  1
SECTION B-B
  7
COMPLEX
100
AcDbText
  0
ENDBLK
  5
551
330
29
100
AcDbEntity
  8
0
100
AcDbBlockEnd
  0
BLOCK
  5
552
330
2A
100
AcDbEntity
  8
0
100
AcDbBlockBegin
  2
SAAR
 70
     0
 10
0.0
 20
0.0
 30
0.0
  3
SAAR
  1

  0
TEXT
  5
553
330
2A
100
AcDbEntity
  8
0
100
AcDbText
 10
0.3487392072179478
 20
0.5116372546807444
 30
0.0
 40
0.156
  1
A
  7
COMPLEX
 72
     1
 11
0.4230249215036617
 21
0.5116372546807444
 31
0.0
100
AcDbText
  0
LINE
  5
554
330
2A
100
AcDbEntity
  8
0
100
AcDbLine
 10
0.4374999999999983
 20
0.2292366486465216
 30
0.0
 11
0.451024804847763
 21
0.2292366486465225
 31
0.0
  0
LINE
  5
555
330
2A
100
AcDbEntity
  8
0
100
AcDbLine
 10
0.4074999999999998
 20
0.2292366486465216
 30
0.0
 11
0.4074999999999989
 21
0.0149999999999988
 31
0.0
  0
LINE
  5
556
330
2A
100
AcDbEntity
  8
0
100
AcDbLine
 10
0.4374999999999992
 20
0.2292366486465216
 30
0.0
 11
0.4374999999999992
 21
-0.017923002649547
 31
0.0
  0
LINE
  5
557
330
2A
100
AcDbEntity
  8
0
100
AcDbLine
 10
0.4224999999999995
 20
0.0299999999999994
 30
0.0
 11
-0.0000000000000009
 21
0.0299999999999994
 31
0.0
  0
LINE
  5
558
330
2A
100
AcDbEntity
  8
0
100
AcDbLine
 10
0.4571321552628529
 20
0.0
 30
0.0
 11
0.0
 21
0.0
 31
0.0
  0
ARC
  5
559
330
2A
100
AcDbEntity
  8
0
100
AcDbCircle
 10
-0.0774898749921995
 20
0.4486009293161688
 30
0.0
 40
0.5
100
AcDbArc
 50
333.9772135427694
 51
0.3646288638273987
  0
LINE
  5
55A
330
2A
100
AcDbEntity
  8
0
100
AcDbLine
 10
0.4374999999999992
 20
0.2292366486465216
 30
0.0
 11
0.4374999999999992
 21
0.2292366486465216
 31
0.0
  0
ARC
  5
55B
330
2A
100
AcDbEntity
  8
0
100
AcDbCircle
 10
0.9224898749921965
 20
0.4486009293161688
 30
0.0
 40
0.5
100
AcDbArc
 50
179.6353711361726
 51
206.0227864572306
  0
ARC
  5
55C
330
2A
100
AcDbEntity
  8
0
100
AcDbCircle
 10
-0.0774898749921995
 20
0.4486009293161688
 30
0.0
 40
0.5200000000000001
100
AcDbArc
 50
335.0482819082217
 51
344.0535702443027
  0
ARC
  5
55D
330
2A
100
AcDbEntity
  8
0
100
AcDbCircle
 10
0.9224898749921965
 20
0.4486009293161688
 30
0.0
 40
0.5200000000000001
100
AcDbArc
 50
195.9464297556973
 51
204.951718091778
  0
LINE
  5
55E
330
2A
100
AcDbEntity
  8
0
100
AcDbLine
 10
0.3939751951522217
 20
0.2292366486465216
 30
0.0
 11
0.4074999999999998
 21
0.2292366486465216
 31
0.0
  0
LINE
  5
55F
330
2A
100
AcDbEntity
  8
0
100
AcDbLine
 10
0.3939751951522217
 20
0.2292366486465216
 30
0.0
 11
0.371819942802035
 21
0.2292366486465216
 31
0.0
  0
LINE
  5
560
330
2A
100
AcDbEntity
  8
0
100
AcDbLine
 10
0.451024804847763
 20
0.2292366486465225
 30
0.0
 11
0.4731800571979621
 21
0.2292366486465216
 31
0.0
  0
INSERT
  5
561
330
2A
100
AcDbEntity
  8
0
100
AcDbBlockReference
  2
*X3
 10
-3.748701991468968
 20
-6.921648479033177
 30
0.0
  0
ENDBLK
  5
562
330
2A
100
AcDbEntity
  8
0
100
AcDbBlockEnd
  0
BLOCK
  5
563
330
2B
100
AcDbEntity
  8
0
100
AcDbBlockBegin
  2
*X3
 70
     1
 10
0.0
 20
0.0
 30
0.0
  3
*X3
  1

  0
LINE
  5
564
330
2B
100
AcDbEntity
  8
0
 62
     0
100
AcDbLine
 10
4.158042821030212
 20
7.25625
 30
0.0
 11
4.184361161907728
 21
7.25625
 31
0.0
  0
LINE
  5
565
330
2B
100
AcDbEntity
  8
0
 62
     0
100
AcDbLine
 10
4.159464167164085
 20
7.2625
 30
0.0
 11
4.182939815773856
 21
7.2625
 31
0.0
  0
LINE
  5
566
330
2B
100
AcDbEntity
  8
0
 62
     0
100
AcDbLine
 10
4.160801607892522
 20
7.26875
 30
0.0
 11
4.181602375045417
 21
7.26875
 31
0.0
  0
LINE
  5
567
330
2B
100
AcDbEntity
  8
0
 62
     0
100
AcDbLine
 10
4.162055829087108
 20
7.275
 30
0.0
 11
4.180348153850832
 21
7.275
 31
0.0
  0
LINE
  5
568
330
2B
100
AcDbEntity
  8
0
 62
     0
100
AcDbLine
 10
4.163227467165616
 20
7.28125
 30
0.0
 11
4.179176515772323
 21
7.28125
 31
0.0
  0
LINE
  5
569
330
2B
100
AcDbEntity
  8
0
 62
     0
100
AcDbLine
 10
4.1643171107912
 20
7.2875
 30
0.0
 11
4.178086872146739
 21
7.2875
 31
0.0
  0
LINE
  5
56A
330
2B
100
AcDbEntity
  8
0
 62
     0
100
AcDbLine
 10
4.165325302419223
 20
7.29375
 30
0.0
 11
4.177078680518715
 21
7.29375
 31
0.0
  0
LINE
  5
56B
330
2B
100
AcDbEntity
  8
0
 62
     0
100
AcDbLine
 10
4.16625253970155
 20
7.3
 30
0.0
 11
4.17615144323639
 21
7.3
 31
0.0
  0
LINE
  5
56C
330
2B
100
AcDbEntity
  8
0
 62
     0
100
AcDbLine
 10
4.167099276757146
 20
7.30625
 30
0.0
 11
4.175304706180795
 21
7.30625
 31
0.0
  0
LINE
  5
56D
330
2B
100
AcDbEntity
  8
0
 62
     0
100
AcDbLine
 10
4.167865925316793
 20
7.3125
 30
0.0
 11
4.174538057621145
 21
7.3125
 31
0.0
  0
LINE
  5
56E
330
2B
100
AcDbEntity
  8
0
 62
     0
100
AcDbLine
 10
4.16855285574882
 20
7.31875
 30
0.0
 11
4.17385112718912
 21
7.31875
 31
0.0
  0
LINE
  5
56F
330
2B
100
AcDbEntity
  8
0
 62
     0
100
AcDbLine
 10
4.169160397971983
 20
7.325
 30
0.0
 11
4.173243584965957
 21
7.325
 31
0.0
  0
LINE
  5
570
330
2B
100
AcDbEntity
  8
0
 62
     0
100
AcDbLine
 10
4.169688842260835
 20
7.33125
 30
0.0
 11
4.172715140677103
 21
7.33125
 31
0.0
  0
LINE
  5
571
330
2B
100
AcDbEntity
  8
0
 62
     0
100
AcDbLine
 10
4.170138439948251
 20
7.3375
 30
0.0
 11
4.172265542989687
 21
7.3375
 31
0.0
  0
LINE
  5
572
330
2B
100
AcDbEntity
  8
0
 62
     0
100
AcDbLine
 10
4.170509404029122
 20
7.34375
 30
0.0
 11
4.171894578908817
 21
7.34375
 31
0.0
  0
LINE
  5
573
330
2B
100
AcDbEntity
  8
0
 62
     0
100
AcDbLine
 10
4.170801909668647
 20
7.35
 30
0.0
 11
4.171602073269292
 21
7.35
 31
0.0
  0
LINE
  5
574
330
2B
100
AcDbEntity
  8
0
 62
     0
100
AcDbLine
 10
4.171016094618071
 20
7.35625
 30
0.0
 11
4.171387888319867
 21
7.35625
 31
0.0
  0
LINE
  5
575
330
2B
100
AcDbEntity
  8
0
 62
     0
100
AcDbLine
 10
4.171152059540171
 20
7.3625
 30
0.0
 11
4.171251923397766
 21
7.3625
 31
0.0
  0
LINE
  5
576
330
2B
100
AcDbEntity
  8
0
 62
     0
100
AcDbLine
 10
4.17119411469162
 20
7.36875
 30
0.0
 11
4.171209868246319
 21
7.36875
 31
0.0
  0
LINE
  5
577
330
2B
100
AcDbEntity
  8
0
 62
     0
100
AcDbLine
 10
4.156536832302816
 20
7.25
 30
0.0
 11
4.185867150635123
 21
7.25
 31
0.0
  0
LINE
  5
578
330
2B
100
AcDbEntity
  8
0
 62
     0
100
AcDbLine
 10
4.154945410438709
 20
7.24375
 30
0.0
 11
4.187458572499231
 21
7.24375
 31
0.0
  0
LINE
  5
579
330
2B
100
AcDbEntity
  8
0
 62
     0
100
AcDbLine
 10
4.153267709311144
 20
7.2375
 30
0.0
 11
4.189136273626795
 21
7.2375
 31
0.0
  0
LINE
  5
57A
330
2B
100
AcDbEntity
  8
0
 62
     0
100
AcDbLine
 10
4.151502824775956
 20
7.23125
 30
0.0
 11
4.190901158161984
 21
7.23125
 31
0.0
  0
LINE
  5
57B
330
2B
100
AcDbEntity
  8
0
 62
     0
100
AcDbLine
 10
4.149649792014731
 20
7.225
 30
0.0
 11
4.170514238817704
 21
7.225
 31
0.0
  0
LINE
  5
57C
330
2B
100
AcDbEntity
  8
0
 62
     0
100
AcDbLine
 10
4.17188974412022
 20
7.225
 30
0.0
 11
4.192754190923209
 21
7.225
 31
0.0
  0
LINE
  5
57D
330
2B
100
AcDbEntity
  8
0
 62
     0
100
AcDbLine
 10
4.147707582635473
 20
7.21875
 30
0.0
 11
4.16865349922432
 21
7.21875
 31
0.0
  0
LINE
  5
57E
330
2B
100
AcDbEntity
  8
0
 62
     0
100
AcDbLine
 10
4.173750483713604
 20
7.21875
 30
0.0
 11
4.194696400302465
 21
7.21875
 31
0.0
  0
LINE
  5
57F
330
2B
100
AcDbEntity
  8
0
 62
     0
100
AcDbLine
 10
4.145675101508724
 20
7.2125
 30
0.0
 11
4.166706944063726
 21
7.2125
 31
0.0
  0
LINE
  5
580
330
2B
100
AcDbEntity
  8
0
 62
     0
100
AcDbLine
 10
4.175697038874197
 20
7.2125
 30
0.0
 11
4.196728881429214
 21
7.2125
 31
0.0
  0
LINE
  5
581
330
2B
100
AcDbEntity
  8
0
 62
     0
100
AcDbLine
 10
4.143551183314425
 20
7.20625
 30
0.0
 11
4.164673557788107
 21
7.20625
 31
0.0
  0
LINE
  5
582
330
2B
100
AcDbEntity
  8
0
 62
     0
100
AcDbLine
 10
4.17773042514982
 20
7.20625
 30
0.0
 11
4.198852799623516
 21
7.20625
 31
0.0
  0
LINE
  5
583
330
2B
100
AcDbEntity
  8
0
 62
     0
100
AcDbLine
 10
4.141334588771703
 20
7.2
 30
0.0
 11
4.162552262360144
 21
7.2
 31
0.0
  0
LINE
  5
584
330
2B
100
AcDbEntity
  8
0
 62
     0
100
AcDbLine
 10
4.179851720577784
 20
7.2
 30
0.0
 11
4.201069394166239
 21
7.2
 31
0.0
  0
LINE
  5
585
330
2B
100
AcDbEntity
  8
0
 62
     0
100
AcDbLine
 10
4.139024000520274
 20
7.19375
 30
0.0
 11
4.160341914027816
 21
7.19375
 31
0.0
  0
LINE
  5
586
330
2B
100
AcDbEntity
  8
0
 62
     0
100
AcDbLine
 10
4.182062068910108
 20
7.19375
 30
0.0
 11
4.203379982417666
 21
7.19375
 31
0.0
  0
LINE
  5
587
330
2B
100
AcDbEntity
  8
0
 62
     0
100
AcDbLine
 10
4.136618018618079
 20
7.1875
 30
0.0
 11
4.158041299813144
 21
7.1875
 31
0.0
  0
LINE
  5
588
330
2B
100
AcDbEntity
  8
0
 62
     0
100
AcDbLine
 10
4.18436268312478
 20
7.1875
 30
0.0
 11
4.20578596431986
 21
7.1875
 31
0.0
  0
LINE
  5
589
330
2B
100
AcDbEntity
  8
0
 62
     0
100
AcDbLine
 10
4.134115155615204
 20
7.18125
 30
0.0
 11
4.155649133687051
 21
7.18125
 31
0.0
  0
LINE
  5
58A
330
2B
100
AcDbEntity
  8
0
 62
     0
100
AcDbLine
 10
4.186754849250876
 20
7.18125
 30
0.0
 11
4.208288827322737
 21
7.18125
 31
0.0
  0
LINE
  5
58B
330
2B
100
AcDbEntity
  8
0
 62
     0
100
AcDbLine
 10
4.131513831158817
 20
7.175
 30
0.0
 11
4.153164052399043
 21
7.175
 31
0.0
  0
LINE
  5
58C
330
2B
100
AcDbEntity
  8
0
 62
     0
100
AcDbLine
 10
4.189239930538879
 20
7.175
 30
0.0
 11
4.210890151779121
 21
7.175
 31
0.0
  0
LINE
  5
58D
330
2B
100
AcDbEntity
  8
0
 62
     0
100
AcDbLine
 10
4.128812366077735
 20
7.16875
 30
0.0
 11
4.1505846109264
 21
7.16875
 31
0.0
  0
LINE
  5
58E
330
2B
100
AcDbEntity
  8
0
 62
     0
100
AcDbLine
 10
4.191819372011525
 20
7.16875
 30
0.0
 11
4.213591616860204
 21
7.16875
 31
0.0
  0
LINE
  5
58F
330
2B
100
AcDbEntity
  8
0
 62
     0
100
AcDbLine
 10
4.126008975888199
 20
7.1625
 30
0.0
 11
4.147909277503027
 21
7.1625
 31
0.0
  0
LINE
  5
590
330
2B
100
AcDbEntity
  8
0
 62
     0
100
AcDbLine
 10
4.194494705434896
 20
7.1625
 30
0.0
 11
4.216395007049741
 21
7.1625
 31
0.0
  0
LINE
  5
591
330
2B
100
AcDbEntity
  8
0
 62
     0
100
AcDbLine
 10
4.123101763654189
 20
7.15625
 30
0.0
 11
4.145136428182898
 21
7.15625
 31
0.0
  0
LINE
  5
592
330
2B
100
AcDbEntity
  8
0
 62
     0
100
AcDbLine
 10
4.197267554755029
 20
7.15625
 30
0.0
 11
4.219302219283752
 21
7.15625
 31
0.0
  0
ENDBLK
  5
593
330
2B
100
AcDbEntity
  8
0
100
AcDbBlockEnd
  0
BLOCK
  5
594
330
2C
100
AcDbEntity
  8
0
100
AcDbBlockBegin
  2
SBBT
 70
     0
 10
0.0
 20
0.0
 30
0.0
  3
SBBT
  1

  0
TEXT
  5
595
330
2C
100
AcDbEntity
  8
0
100
AcDbText
 10
-0.6618640508256033
 20
0.338139455665849
 30
0.0
 40
0.156
  1
B
  7
COMPLEX
 72
     1
 11
-0.5838640508256035
 21
0.338139455665849
 31
0.0
100
AcDbText
  0
INSERT
  5
596
330
2C
100
AcDbEntity
  8
0
100
AcDbBlockReference
  2
*X5
 10
6.921648479033177
 20
-3.748701991468968
 30
0.0
 50
90.0
  0
LINE
  5
597
330
2C
100
AcDbEntity
  8
0
100
AcDbLine
 10
-0.2292366486465225
 20
0.451024804847763
 30
0.0
 11
-0.2292366486465216
 21
0.4731800571979621
 31
0.0
  0
LINE
  5
598
330
2C
100
AcDbEntity
  8
0
100
AcDbLine
 10
-0.2292366486465216
 20
0.3939751951522217
 30
0.0
 11
-0.2292366486465216
 21
0.371819942802035
 31
0.0
  0
LINE
  5
599
330
2C
100
AcDbEntity
  8
0
100
AcDbLine
 10
-0.2292366486465216
 20
0.3939751951522217
 30
0.0
 11
-0.2292366486465216
 21
0.4074999999999998
 31
0.0
  0
ARC
  5
59A
330
2C
100
AcDbEntity
  8
0
100
AcDbCircle
 10
-0.4486009293161688
 20
0.9224898749921965
 30
0.0
 40
0.5200000000000001
100
AcDbArc
 50
285.9464297556974
 51
294.951718091778
  0
ARC
  5
59B
330
2C
100
AcDbEntity
  8
0
100
AcDbCircle
 10
-0.4486009293161688
 20
-0.0774898749921995
 30
0.0
 40
0.5200000000000001
100
AcDbArc
 50
65.04828190822165
 51
74.0535702443027
  0
ARC
  5
59C
330
2C
100
AcDbEntity
  8
0
100
AcDbCircle
 10
-0.4486009293161688
 20
0.9224898749921965
 30
0.0
 40
0.5
100
AcDbArc
 50
269.6353711361726
 51
296.0227864572306
  0
LINE
  5
59D
330
2C
100
AcDbEntity
  8
0
100
AcDbLine
 10
-0.2292366486465216
 20
0.4374999999999992
 30
0.0
 11
-0.2292366486465216
 21
0.4374999999999992
 31
0.0
  0
ARC
  5
59E
330
2C
100
AcDbEntity
  8
0
100
AcDbCircle
 10
-0.4486009293161688
 20
-0.0774898749921995
 30
0.0
 40
0.5
100
AcDbArc
 50
63.97721354276936
 51
90.36462886382741
  0
LINE
  5
59F
330
2C
100
AcDbEntity
  8
0
100
AcDbLine
 10
0.0
 20
0.4571321552628529
 30
0.0
 11
0.0
 21
0.0
 31
0.0
  0
LINE
  5
5A0
330
2C
100
AcDbEntity
  8
0
100
AcDbLine
 10
-0.0299999999999994
 20
0.4224999999999995
 30
0.0
 11
-0.0299999999999994
 21
-0.0000000000000009
 31
0.0
  0
LINE
  5
5A1
330
2C
100
AcDbEntity
  8
0
100
AcDbLine
 10
-0.2292366486465216
 20
0.4374999999999992
 30
0.0
 11
0.017923002649547
 21
0.4374999999999992
 31
0.0
  0
LINE
  5
5A2
330
2C
100
AcDbEntity
  8
0
100
AcDbLine
 10
-0.2292366486465216
 20
0.4074999999999998
 30
0.0
 11
-0.0149999999999988
 21
0.4074999999999989
 31
0.0
  0
LINE
  5
5A3
330
2C
100
AcDbEntity
  8
0
100
AcDbLine
 10
-0.2292366486465216
 20
0.4374999999999983
 30
0.0
 11
-0.2292366486465225
 21
0.451024804847763
 31
0.0
  0
ENDBLK
  5
5A4
330
2C
100
AcDbEntity
  8
0
100
AcDbBlockEnd
  0
BLOCK
  5
5A5
330
2D
100
AcDbEntity
  8
0
100
AcDbBlockBegin
  2
*X5
 70
     1
 10
0.0
 20
0.0
 30
0.0
  3
*X5
  1

  0
LINE
  5
5A6
330
2D
100
AcDbEntity
  8
0
 62
     0
100
AcDbLine
 10
4.158042821030212
 20
7.25625
 30
0.0
 11
4.184361161907728
 21
7.25625
 31
0.0
  0
LINE
  5
5A7
330
2D
100
AcDbEntity
  8
0
 62
     0
100
AcDbLine
 10
4.159464167164085
 20
7.2625
 30
0.0
 11
4.182939815773856
 21
7.2625
 31
0.0
  0
LINE
  5
5A8
330
2D
100
AcDbEntity
  8
0
 62
     0
100
AcDbLine
 10
4.160801607892522
 20
7.26875
 30
0.0
 11
4.181602375045417
 21
7.26875
 31
0.0
  0
LINE
  5
5A9
330
2D
100
AcDbEntity
  8
0
 62
     0
100
AcDbLine
 10
4.162055829087108
 20
7.275
 30
0.0
 11
4.180348153850832
 21
7.275
 31
0.0
  0
LINE
  5
5AA
330
2D
100
AcDbEntity
  8
0
 62
     0
100
AcDbLine
 10
4.163227467165616
 20
7.28125
 30
0.0
 11
4.179176515772323
 21
7.28125
 31
0.0
  0
LINE
  5
5AB
330
2D
100
AcDbEntity
  8
0
 62
     0
100
AcDbLine
 10
4.1643171107912
 20
7.2875
 30
0.0
 11
4.178086872146739
 21
7.2875
 31
0.0
  0
LINE
  5
5AC
330
2D
100
AcDbEntity
  8
0
 62
     0
100
AcDbLine
 10
4.165325302419223
 20
7.29375
 30
0.0
 11
4.177078680518715
 21
7.29375
 31
0.0
  0
LINE
  5
5AD
330
2D
100
AcDbEntity
  8
0
 62
     0
100
AcDbLine
 10
4.16625253970155
 20
7.3
 30
0.0
 11
4.17615144323639
 21
7.3
 31
0.0
  0
LINE
  5
5AE
330
2D
100
AcDbEntity
  8
0
 62
     0
100
AcDbLine
 10
4.167099276757146
 20
7.30625
 30
0.0
 11
4.175304706180795
 21
7.30625
 31
0.0
  0
LINE
  5
5AF
330
2D
100
AcDbEntity
  8
0
 62
     0
100
AcDbLine
 10
4.167865925316793
 20
7.3125
 30
0.0
 11
4.174538057621145
 21
7.3125
 31
0.0
  0
LINE
  5
5B0
330
2D
100
AcDbEntity
  8
0
 62
     0
100
AcDbLine
 10
4.16855285574882
 20
7.31875
 30
0.0
 11
4.17385112718912
 21
7.31875
 31
0.0
  0
LINE
  5
5B1
330
2D
100
AcDbEntity
  8
0
 62
     0
100
AcDbLine
 10
4.169160397971983
 20
7.325
 30
0.0
 11
4.173243584965957
 21
7.325
 31
0.0
  0
LINE
  5
5B2
330
2D
100
AcDbEntity
  8
0
 62
     0
100
AcDbLine
 10
4.169688842260835
 20
7.33125
 30
0.0
 11
4.172715140677103
 21
7.33125
 31
0.0
  0
LINE
  5
5B3
330
2D
100
AcDbEntity
  8
0
 62
     0
100
AcDbLine
 10
4.170138439948251
 20
7.3375
 30
0.0
 11
4.172265542989687
 21
7.3375
 31
0.0
  0
LINE
  5
5B4
330
2D
100
AcDbEntity
  8
0
 62
     0
100
AcDbLine
 10
4.170509404029122
 20
7.34375
 30
0.0
 11
4.171894578908817
 21
7.34375
 31
0.0
  0
LINE
  5
5B5
330
2D
100
AcDbEntity
  8
0
 62
     0
100
AcDbLine
 10
4.170801909668647
 20
7.35
 30
0.0
 11
4.171602073269292
 21
7.35
 31
0.0
  0
LINE
  5
5B6
330
2D
100
AcDbEntity
  8
0
 62
     0
100
AcDbLine
 10
4.171016094618071
 20
7.35625
 30
0.0
 11
4.171387888319867
 21
7.35625
 31
0.0
  0
LINE
  5
5B7
330
2D
100
AcDbEntity
  8
0
 62
     0
100
AcDbLine
 10
4.171152059540171
 20
7.3625
 30
0.0
 11
4.171251923397766
 21
7.3625
 31
0.0
  0
LINE
  5
5B8
330
2D
100
AcDbEntity
  8
0
 62
     0
100
AcDbLine
 10
4.17119411469162
 20
7.36875
 30
0.0
 11
4.171209868246319
 21
7.36875
 31
0.0
  0
LINE
  5
5B9
330
2D
100
AcDbEntity
  8
0
 62
     0
100
AcDbLine
 10
4.156536832302816
 20
7.25
 30
0.0
 11
4.185867150635123
 21
7.25
 31
0.0
  0
LINE
  5
5BA
330
2D
100
AcDbEntity
  8
0
 62
     0
100
AcDbLine
 10
4.154945410438709
 20
7.24375
 30
0.0
 11
4.187458572499231
 21
7.24375
 31
0.0
  0
LINE
  5
5BB
330
2D
100
AcDbEntity
  8
0
 62
     0
100
AcDbLine
 10
4.153267709311144
 20
7.2375
 30
0.0
 11
4.189136273626795
 21
7.2375
 31
0.0
  0
LINE
  5
5BC
330
2D
100
AcDbEntity
  8
0
 62
     0
100
AcDbLine
 10
4.151502824775956
 20
7.23125
 30
0.0
 11
4.190901158161984
 21
7.23125
 31
0.0
  0
LINE
  5
5BD
330
2D
100
AcDbEntity
  8
0
 62
     0
100
AcDbLine
 10
4.149649792014731
 20
7.225
 30
0.0
 11
4.170514238817704
 21
7.225
 31
0.0
  0
LINE
  5
5BE
330
2D
100
AcDbEntity
  8
0
 62
     0
100
AcDbLine
 10
4.17188974412022
 20
7.225
 30
0.0
 11
4.192754190923209
 21
7.225
 31
0.0
  0
LINE
  5
5BF
330
2D
100
AcDbEntity
  8
0
 62
     0
100
AcDbLine
 10
4.147707582635473
 20
7.21875
 30
0.0
 11
4.16865349922432
 21
7.21875
 31
0.0
  0
LINE
  5
5C0
330
2D
100
AcDbEntity
  8
0
 62
     0
100
AcDbLine
 10
4.173750483713604
 20
7.21875
 30
0.0
 11
4.194696400302465
 21
7.21875
 31
0.0
  0
LINE
  5
5C1
330
2D
100
AcDbEntity
  8
0
 62
     0
100
AcDbLine
 10
4.145675101508724
 20
7.2125
 30
0.0
 11
4.166706944063726
 21
7.2125
 31
0.0
  0
LINE
  5
5C2
330
2D
100
AcDbEntity
  8
0
 62
     0
100
AcDbLine
 10
4.175697038874197
 20
7.2125
 30
0.0
 11
4.196728881429214
 21
7.2125
 31
0.0
  0
LINE
  5
5C3
330
2D
100
AcDbEntity
  8
0
 62
     0
100
AcDbLine
 10
4.143551183314425
 20
7.20625
 30
0.0
 11
4.164673557788107
 21
7.20625
 31
0.0
  0
LINE
  5
5C4
330
2D
100
AcDbEntity
  8
0
 62
     0
100
AcDbLine
 10
4.17773042514982
 20
7.20625
 30
0.0
 11
4.198852799623516
 21
7.20625
 31
0.0
  0
LINE
  5
5C5
330
2D
100
AcDbEntity
  8
0
 62
     0
100
AcDbLine
 10
4.141334588771703
 20
7.2
 30
0.0
 11
4.162552262360144
 21
7.2
 31
0.0
  0
LINE
  5
5C6
330
2D
100
AcDbEntity
  8
0
 62
     0
100
AcDbLine
 10
4.179851720577784
 20
7.2
 30
0.0
 11
4.201069394166239
 21
7.2
 31
0.0
  0
LINE
  5
5C7
330
2D
100
AcDbEntity
  8
0
 62
     0
100
AcDbLine
 10
4.139024000520274
 20
7.19375
 30
0.0
 11
4.160341914027816
 21
7.19375
 31
0.0
  0
LINE
  5
5C8
330
2D
100
AcDbEntity
  8
0
 62
     0
100
AcDbLine
 10
4.182062068910108
 20
7.19375
 30
0.0
 11
4.203379982417666
 21
7.19375
 31
0.0
  0
LINE
  5
5C9
330
2D
100
AcDbEntity
  8
0
 62
     0
100
AcDbLine
 10
4.136618018618079
 20
7.1875
 30
0.0
 11
4.158041299813144
 21
7.1875
 31
0.0
  0
LINE
  5
5CA
330
2D
100
AcDbEntity
  8
0
 62
     0
100
AcDbLine
 10
4.18436268312478
 20
7.1875
 30
0.0
 11
4.20578596431986
 21
7.1875
 31
0.0
  0
LINE
  5
5CB
330
2D
100
AcDbEntity
  8
0
 62
     0
100
AcDbLine
 10
4.134115155615204
 20
7.18125
 30
0.0
 11
4.155649133687051
 21
7.18125
 31
0.0
  0
LINE
  5
5CC
330
2D
100
AcDbEntity
  8
0
 62
     0
100
AcDbLine
 10
4.186754849250876
 20
7.18125
 30
0.0
 11
4.208288827322737
 21
7.18125
 31
0.0
  0
LINE
  5
5CD
330
2D
100
AcDbEntity
  8
0
 62
     0
100
AcDbLine
 10
4.131513831158817
 20
7.175
 30
0.0
 11
4.153164052399043
 21
7.175
 31
0.0
  0
LINE
  5
5CE
330
2D
100
AcDbEntity
  8
0
 62
     0
100
AcDbLine
 10
4.189239930538879
 20
7.175
 30
0.0
 11
4.210890151779121
 21
7.175
 31
0.0
  0
LINE
  5
5CF
330
2D
100
AcDbEntity
  8
0
 62
     0
100
AcDbLine
 10
4.128812366077735
 20
7.16875
 30
0.0
 11
4.1505846109264
 21
7.16875
 31
0.0
  0
LINE
  5
5D0
330
2D
100
AcDbEntity
  8
0
 62
     0
100
AcDbLine
 10
4.191819372011525
 20
7.16875
 30
0.0
 11
4.213591616860204
 21
7.16875
 31
0.0
  0
LINE
  5
5D1
330
2D
100
AcDbEntity
  8
0
 62
     0
100
AcDbLine
 10
4.126008975888199
 20
7.1625
 30
0.0
 11
4.147909277503027
 21
7.1625
 31
0.0
  0
LINE
  5
5D2
330
2D
100
AcDbEntity
  8
0
 62
     0
100
AcDbLine
 10
4.194494705434896
 20
7.1625
 30
0.0
 11
4.216395007049741
 21
7.1625
 31
0.0
  0
LINE
  5
5D3
330
2D
100
AcDbEntity
  8
0
 62
     0
100
AcDbLine
 10
4.123101763654189
 20
7.15625
 30
0.0
 11
4.145136428182898
 21
7.15625
 31
0.0
  0
LINE
  5
5D4
330
2D
100
AcDbEntity
  8
0
 62
     0
100
AcDbLine
 10
4.197267554755029
 20
7.15625
 30
0.0
 11
4.219302219283752
 21
7.15625
 31
0.0
  0
ENDBLK
  5
5D5
330
2D
100
AcDbEntity
  8
0
100
AcDbBlockEnd
  0
BLOCK
  5
5D6
330
2E
100
AcDbEntity
  8
0
100
AcDbBlockBegin
  2
SBBB
 70
     0
 10
0.0
 20
0.0
 30
0.0
  3
SBBB
  1

  0
TEXT
  5
5D7
330
2E
100
AcDbEntity
  8
0
100
AcDbText
 10
-0.6558782172982847
 20
-0.50536529293236
 30
0.0
 40
0.156
  1
B
  7
COMPLEX
 72
     1
 11
-0.5778782172982849
 21
-0.50536529293236
 31
0.0
100
AcDbText
  0
LINE
  5
5D8
330
2E
100
AcDbEntity
  8
0
100
AcDbLine
 10
-0.2292366486465216
 20
-0.4374999999999983
 30
0.0
 11
-0.2292366486465225
 21
-0.451024804847763
 31
0.0
  0
LINE
  5
5D9
330
2E
100
AcDbEntity
  8
0
100
AcDbLine
 10
-0.2292366486465216
 20
-0.4074999999999998
 30
0.0
 11
-0.0149999999999988
 21
-0.4074999999999989
 31
0.0
  0
LINE
  5
5DA
330
2E
100
AcDbEntity
  8
0
100
AcDbLine
 10
-0.2292366486465216
 20
-0.4374999999999992
 30
0.0
 11
0.017923002649547
 21
-0.4374999999999992
 31
0.0
  0
LINE
  5
5DB
330
2E
100
AcDbEntity
  8
0
100
AcDbLine
 10
-0.0299999999999994
 20
-0.4224999999999995
 30
0.0
 11
-0.0299999999999994
 21
0.0000000000000009
 31
0.0
  0
LINE
  5
5DC
330
2E
100
AcDbEntity
  8
0
100
AcDbLine
 10
0.0
 20
-0.4571321552628529
 30
0.0
 11
0.0
 21
0.0
 31
0.0
  0
ARC
  5
5DD
330
2E
100
AcDbEntity
  8
0
100
AcDbCircle
 10
-0.4486009293161688
 20
0.0774898749921995
 30
0.0
 40
0.5
100
AcDbArc
 50
269.6353711361726
 51
296.0227864572306
  0
LINE
  5
5DE
330
2E
100
AcDbEntity
  8
0
100
AcDbLine
 10
-0.2292366486465216
 20
-0.4374999999999992
 30
0.0
 11
-0.2292366486465216
 21
-0.4374999999999992
 31
0.0
  0
ARC
  5
5DF
330
2E
100
AcDbEntity
  8
0
100
AcDbCircle
 10
-0.4486009293161688
 20
-0.9224898749921965
 30
0.0
 40
0.5
100
AcDbArc
 50
63.97721354276936
 51
90.36462886382739
  0
ARC
  5
5E0
330
2E
100
AcDbEntity
  8
0
100
AcDbCircle
 10
-0.4486009293161688
 20
0.0774898749921995
 30
0.0
 40
0.5200000000000001
100
AcDbArc
 50
285.9464297556974
 51
294.9517180917784
  0
ARC
  5
5E1
330
2E
100
AcDbEntity
  8
0
100
AcDbCircle
 10
-0.4486009293161688
 20
-0.9224898749921965
 30
0.0
 40
0.5200000000000001
100
AcDbArc
 50
65.04828190822201
 51
74.0535702443027
  0
LINE
  5
5E2
330
2E
100
AcDbEntity
  8
0
100
AcDbLine
 10
-0.2292366486465216
 20
-0.3939751951522217
 30
0.0
 11
-0.2292366486465216
 21
-0.4074999999999998
 31
0.0
  0
LINE
  5
5E3
330
2E
100
AcDbEntity
  8
0
100
AcDbLine
 10
-0.2292366486465216
 20
-0.3939751951522217
 30
0.0
 11
-0.2292366486465216
 21
-0.371819942802035
 31
0.0
  0
LINE
  5
5E4
330
2E
100
AcDbEntity
  8
0
100
AcDbLine
 10
-0.2292366486465225
 20
-0.451024804847763
 30
0.0
 11
-0.2292366486465216
 21
-0.4731800571979621
 31
0.0
  0
INSERT
  5
5E5
330
2E
100
AcDbEntity
  8
0
100
AcDbBlockReference
  2
*X7
 10
6.921648479033177
 20
3.748701991468968
 30
0.0
 41
-1.0
 50
90.0
  0
ENDBLK
  5
5E6
330
2E
100
AcDbEntity
  8
0
100
AcDbBlockEnd
  0
BLOCK
  5
5E7
330
2F
100
AcDbEntity
  8
0
100
AcDbBlockBegin
  2
*X7
 70
     1
 10
0.0
 20
0.0
 30
0.0
  3
*X7
  1

  0
LINE
  5
5E8
330
2F
100
AcDbEntity
  8
0
 62
     0
100
AcDbLine
 10
4.158042821030212
 20
7.25625
 30
0.0
 11
4.184361161907728
 21
7.25625
 31
0.0
  0
LINE
  5
5E9
330
2F
100
AcDbEntity
  8
0
 62
     0
100
AcDbLine
 10
4.159464167164085
 20
7.2625
 30
0.0
 11
4.182939815773856
 21
7.2625
 31
0.0
  0
LINE
  5
5EA
330
2F
100
AcDbEntity
  8
0
 62
     0
100
AcDbLine
 10
4.160801607892522
 20
7.26875
 30
0.0
 11
4.181602375045417
 21
7.26875
 31
0.0
  0
LINE
  5
5EB
330
2F
100
AcDbEntity
  8
0
 62
     0
100
AcDbLine
 10
4.162055829087108
 20
7.275
 30
0.0
 11
4.180348153850832
 21
7.275
 31
0.0
  0
LINE
  5
5EC
330
2F
100
AcDbEntity
  8
0
 62
     0
100
AcDbLine
 10
4.163227467165616
 20
7.28125
 30
0.0
 11
4.179176515772323
 21
7.28125
 31
0.0
  0
LINE
  5
5ED
330
2F
100
AcDbEntity
  8
0
 62
     0
100
AcDbLine
 10
4.1643171107912
 20
7.2875
 30
0.0
 11
4.178086872146739
 21
7.2875
 31
0.0
  0
LINE
  5
5EE
330
2F
100
AcDbEntity
  8
0
 62
     0
100
AcDbLine
 10
4.165325302419223
 20
7.29375
 30
0.0
 11
4.177078680518715
 21
7.29375
 31
0.0
  0
LINE
  5
5EF
330
2F
100
AcDbEntity
  8
0
 62
     0
100
AcDbLine
 10
4.16625253970155
 20
7.3
 30
0.0
 11
4.17615144323639
 21
7.3
 31
0.0
  0
LINE
  5
5F0
330
2F
100
AcDbEntity
  8
0
 62
     0
100
AcDbLine
 10
4.167099276757146
 20
7.30625
 30
0.0
 11
4.175304706180795
 21
7.30625
 31
0.0
  0
LINE
  5
5F1
330
2F
100
AcDbEntity
  8
0
 62
     0
100
AcDbLine
 10
4.167865925316793
 20
7.3125
 30
0.0
 11
4.174538057621145
 21
7.3125
 31
0.0
  0
LINE
  5
5F2
330
2F
100
AcDbEntity
  8
0
 62
     0
100
AcDbLine
 10
4.16855285574882
 20
7.31875
 30
0.0
 11
4.17385112718912
 21
7.31875
 31
0.0
  0
LINE
  5
5F3
330
2F
100
AcDbEntity
  8
0
 62
     0
100
AcDbLine
 10
4.169160397971983
 20
7.325
 30
0.0
 11
4.173243584965957
 21
7.325
 31
0.0
  0
LINE
  5
5F4
330
2F
100
AcDbEntity
  8
0
 62
     0
100
AcDbLine
 10
4.169688842260835
 20
7.33125
 30
0.0
 11
4.172715140677103
 21
7.33125
 31
0.0
  0
LINE
  5
5F5
330
2F
100
AcDbEntity
  8
0
 62
     0
100
AcDbLine
 10
4.170138439948251
 20
7.3375
 30
0.0
 11
4.172265542989687
 21
7.3375
 31
0.0
  0
LINE
  5
5F6
330
2F
100
AcDbEntity
  8
0
 62
     0
100
AcDbLine
 10
4.170509404029122
 20
7.34375
 30
0.0
 11
4.171894578908817
 21
7.34375
 31
0.0
  0
LINE
  5
5F7
330
2F
100
AcDbEntity
  8
0
 62
     0
100
AcDbLine
 10
4.170801909668647
 20
7.35
 30
0.0
 11
4.171602073269292
 21
7.35
 31
0.0
  0
LINE
  5
5F8
330
2F
100
AcDbEntity
  8
0
 62
     0
100
AcDbLine
 10
4.171016094618071
 20
7.35625
 30
0.0
 11
4.171387888319867
 21
7.35625
 31
0.0
  0
LINE
  5
5F9
330
2F
100
AcDbEntity
  8
0
 62
     0
100
AcDbLine
 10
4.171152059540171
 20
7.3625
 30
0.0
 11
4.171251923397766
 21
7.3625
 31
0.0
  0
LINE
  5
5FA
330
2F
100
AcDbEntity
  8
0
 62
     0
100
AcDbLine
 10
4.17119411469162
 20
7.36875
 30
0.0
 11
4.171209868246319
 21
7.36875
 31
0.0
  0
LINE
  5
5FB
330
2F
100
AcDbEntity
  8
0
 62
     0
100
AcDbLine
 10
4.156536832302816
 20
7.25
 30
0.0
 11
4.185867150635123
 21
7.25
 31
0.0
  0
LINE
  5
5FC
330
2F
100
AcDbEntity
  8
0
 62
     0
100
AcDbLine
 10
4.154945410438709
 20
7.24375
 30
0.0
 11
4.187458572499231
 21
7.24375
 31
0.0
  0
LINE
  5
5FD
330
2F
100
AcDbEntity
  8
0
 62
     0
100
AcDbLine
 10
4.153267709311144
 20
7.2375
 30
0.0
 11
4.189136273626795
 21
7.2375
 31
0.0
  0
LINE
  5
5FE
330
2F
100
AcDbEntity
  8
0
 62
     0
100
AcDbLine
 10
4.151502824775956
 20
7.23125
 30
0.0
 11
4.190901158161984
 21
7.23125
 31
0.0
  0
LINE
  5
5FF
330
2F
100
AcDbEntity
  8
0
 62
     0
100
AcDbLine
 10
4.149649792014731
 20
7.225
 30
0.0
 11
4.170514238817704
 21
7.225
 31
0.0
  0
LINE
  5
600
330
2F
100
AcDbEntity
  8
0
 62
     0
100
AcDbLine
 10
4.17188974412022
 20
7.225
 30
0.0
 11
4.192754190923209
 21
7.225
 31
0.0
  0
LINE
  5
601
330
2F
100
AcDbEntity
  8
0
 62
     0
100
AcDbLine
 10
4.147707582635473
 20
7.21875
 30
0.0
 11
4.16865349922432
 21
7.21875
 31
0.0
  0
LINE
  5
602
330
2F
100
AcDbEntity
  8
0
 62
     0
100
AcDbLine
 10
4.173750483713604
 20
7.21875
 30
0.0
 11
4.194696400302465
 21
7.21875
 31
0.0
  0
LINE
  5
603
330
2F
100
AcDbEntity
  8
0
 62
     0
100
AcDbLine
 10
4.145675101508724
 20
7.2125
 30
0.0
 11
4.166706944063726
 21
7.2125
 31
0.0
  0
LINE
  5
604
330
2F
100
AcDbEntity
  8
0
 62
     0
100
AcDbLine
 10
4.175697038874197
 20
7.2125
 30
0.0
 11
4.196728881429214
 21
7.2125
 31
0.0
  0
LINE
  5
605
330
2F
100
AcDbEntity
  8
0
 62
     0
100
AcDbLine
 10
4.143551183314425
 20
7.20625
 30
0.0
 11
4.164673557788107
 21
7.20625
 31
0.0
  0
LINE
  5
606
330
2F
100
AcDbEntity
  8
0
 62
     0
100
AcDbLine
 10
4.17773042514982
 20
7.20625
 30
0.0
 11
4.198852799623516
 21
7.20625
 31
0.0
  0
LINE
  5
607
330
2F
100
AcDbEntity
  8
0
 62
     0
100
AcDbLine
 10
4.141334588771703
 20
7.2
 30
0.0
 11
4.162552262360144
 21
7.2
 31
0.0
  0
LINE
  5
608
330
2F
100
AcDbEntity
  8
0
 62
     0
100
AcDbLine
 10
4.179851720577784
 20
7.2
 30
0.0
 11
4.201069394166239
 21
7.2
 31
0.0
  0
LINE
  5
609
330
2F
100
AcDbEntity
  8
0
 62
     0
100
AcDbLine
 10
4.139024000520274
 20
7.19375
 30
0.0
 11
4.160341914027816
 21
7.19375
 31
0.0
  0
LINE
  5
60A
330
2F
100
AcDbEntity
  8
0
 62
     0
100
AcDbLine
 10
4.182062068910108
 20
7.19375
 30
0.0
 11
4.203379982417666
 21
7.19375
 31
0.0
  0
LINE
  5
60B
330
2F
100
AcDbEntity
  8
0
 62
     0
100
AcDbLine
 10
4.136618018618079
 20
7.1875
 30
0.0
 11
4.158041299813144
 21
7.1875
 31
0.0
  0
LINE
  5
60C
330
2F
100
AcDbEntity
  8
0
 62
     0
100
AcDbLine
 10
4.18436268312478
 20
7.1875
 30
0.0
 11
4.20578596431986
 21
7.1875
 31
0.0
  0
LINE
  5
60D
330
2F
100
AcDbEntity
  8
0
 62
     0
100
AcDbLine
 10
4.134115155615204
 20
7.18125
 30
0.0
 11
4.155649133687051
 21
7.18125
 31
0.0
  0
LINE
  5
60E
330
2F
100
AcDbEntity
  8
0
 62
     0
100
AcDbLine
 10
4.186754849250876
 20
7.18125
 30
0.0
 11
4.208288827322737
 21
7.18125
 31
0.0
  0
LINE
  5
60F
330
2F
100
AcDbEntity
  8
0
 62
     0
100
AcDbLine
 10
4.131513831158817
 20
7.175
 30
0.0
 11
4.153164052399043
 21
7.175
 31
0.0
  0
LINE
  5
610
330
2F
100
AcDbEntity
  8
0
 62
     0
100
AcDbLine
 10
4.189239930538879
 20
7.175
 30
0.0
 11
4.210890151779121
 21
7.175
 31
0.0
  0
LINE
  5
611
330
2F
100
AcDbEntity
  8
0
 62
     0
100
AcDbLine
 10
4.128812366077735
 20
7.16875
 30
0.0
 11
4.1505846109264
 21
7.16875
 31
0.0
  0
LINE
  5
612
330
2F
100
AcDbEntity
  8
0
 62
     0
100
AcDbLine
 10
4.191819372011525
 20
7.16875
 30
0.0
 11
4.213591616860204
 21
7.16875
 31
0.0
  0
LINE
  5
613
330
2F
100
AcDbEntity
  8
0
 62
     0
100
AcDbLine
 10
4.126008975888199
 20
7.1625
 30
0.0
 11
4.147909277503027
 21
7.1625
 31
0.0
  0
LINE
  5
614
330
2F
100
AcDbEntity
  8
0
 62
     0
100
AcDbLine
 10
4.194494705434896
 20
7.1625
 30
0.0
 11
4.216395007049741
 21
7.1625
 31
0.0
  0
LINE
  5
615
330
2F
100
AcDbEntity
  8
0
 62
     0
100
AcDbLine
 10
4.123101763654189
 20
7.15625
 30
0.0
 11
4.145136428182898
 21
7.15625
 31
0.0
  0
LINE
  5
616
330
2F
100
AcDbEntity
  8
0
 62
     0
100
AcDbLine
 10
4.197267554755029
 20
7.15625
 30
0.0
 11
4.219302219283752
 21
7.15625
 31
0.0
  0
ENDBLK
  5
617
330
2F
100
AcDbEntity
  8
0
100
AcDbBlockEnd
  0
BLOCK
  5
618
330
30
100
AcDbEntity
  8
0
100
AcDbBlockBegin
  2
*X8
 70
     1
 10
0.0
 20
0.0
 30
0.0
  3
*X8
  1

  0
LINE
  5
619
330
30
100
AcDbEntity
  8
0
 62
     0
100
AcDbLine
 10
38.91208393030641
 20
25.52302150531773
 30
0.0
 11
38.78708393030641
 21
25.64802150531774
 31
0.0
  0
LINE
  5
61A
330
30
100
AcDbEntity
  8
0
 62
     0
100
AcDbLine
 10
36.65807125150623
 20
27.77703418411791
 30
0.0
 11
36.4170839303064
 21
28.01802150531774
 31
0.0
  0
LINE
  5
61B
330
30
100
AcDbEntity
  8
0
 62
     0
100
AcDbLine
 10
38.11658880147155
 20
25.52302150531773
 30
0.0
 11
37.99158880147154
 21
25.64802150531773
 31
0.0
  0
LINE
  5
61C
330
30
100
AcDbEntity
  8
0
 62
     0
100
AcDbLine
 10
36.67220334727941
 20
26.96740695950987
 30
0.0
 11
36.54496332339556
 21
27.09464698339372
 31
0.0
  0
LINE
  5
61D
330
30
100
AcDbEntity
  8
0
 62
     0
100
AcDbLine
 10
37.32109367263668
 20
25.52302150531773
 30
0.0
 11
37.19609367263668
 21
25.64802150531773
 31
0.0
  0
LINE
  5
61E
330
30
100
AcDbEntity
  8
0
 62
     0
100
AcDbLine
 10
36.68633544305259
 20
26.15777973490182
 30
0.0
 11
36.55909541916873
 21
26.28501975878567
 31
0.0
  0
LINE
  5
61F
330
30
100
AcDbEntity
  8
0
 62
     0
100
AcDbLine
 10
39.70348911475632
 20
25.52711144970269
 30
0.0
 11
39.58257905914127
 21
25.64802150531774
 31
0.0
  0
LINE
  5
620
330
30
100
AcDbEntity
  8
0
 62
     0
100
AcDbLine
 10
39.8600206887397
 20
26.16607500455419
 30
0.0
 11
39.73714642596887
 21
26.288949267325
 31
0.0
  0
LINE
  5
621
330
30
100
AcDbEntity
  8
0
 62
     0
100
AcDbLine
 10
39.87366789499235
 20
26.9479229271364
 30
0.0
 11
39.75079363222153
 21
27.07079718990721
 31
0.0
  0
LINE
  5
622
330
30
100
AcDbEntity
  8
0
 62
     0
100
AcDbLine
 10
39.89734100989164
 20
27.71974494107198
 30
0.0
 11
39.76444083847419
 21
27.85264511248942
 31
0.0
  0
LINE
  5
623
330
30
100
AcDbEntity
  8
0
 62
     0
100
AcDbLine
 10
39.04466645155641
 20
25.52302150531773
 30
0.0
 11
38.91966645155641
 21
25.64802150531774
 31
0.0
  0
LINE
  5
624
330
30
100
AcDbEntity
  8
0
 62
     0
100
AcDbLine
 10
36.65571590221465
 20
27.91197205465949
 30
0.0
 11
36.53020653134349
 21
28.03748142553065
 31
0.0
  0
LINE
  5
625
330
30
100
AcDbEntity
  8
0
 62
     0
100
AcDbLine
 10
38.24917132272155
 20
25.52302150531773
 30
0.0
 11
38.12417132272154
 21
25.64802150531773
 31
0.0
  0
LINE
  5
626
330
30
100
AcDbEntity
  8
0
 62
     0
100
AcDbLine
 10
36.66984799798783
 20
27.10234483005145
 30
0.0
 11
36.54260797410398
 21
27.2295848539353
 31
0.0
  0
LINE
  5
627
330
30
100
AcDbEntity
  8
0
 62
     0
100
AcDbLine
 10
37.45367619388668
 20
25.52302150531773
 30
0.0
 11
37.32867619388668
 21
25.64802150531773
 31
0.0
  0
LINE
  5
628
330
30
100
AcDbEntity
  8
0
 62
     0
100
AcDbLine
 10
36.68398009376101
 20
26.2927176054434
 30
0.0
 11
36.55674006987716
 21
26.41995762932725
 31
0.0
  0
LINE
  5
629
330
30
100
AcDbEntity
  8
0
 62
     0
100
AcDbLine
 10
39.79105041391608
 20
25.57213267179293
 30
0.0
 11
39.68479219116599
 21
25.67839089454302
 31
0.0
  0
LINE
  5
62A
330
30
100
AcDbEntity
  8
0
 62
     0
100
AcDbLine
 10
39.86229522311132
 20
26.29638299143256
 30
0.0
 11
39.7394209603405
 21
26.41925725420338
 31
0.0
  0
LINE
  5
62B
330
30
100
AcDbEntity
  8
0
 62
     0
100
AcDbLine
 10
39.87594242936398
 20
27.07823091401477
 30
0.0
 11
39.75306816659315
 21
27.20110517678559
 31
0.0
  0
LINE
  5
62C
330
30
100
AcDbEntity
  8
0
 62
     0
100
AcDbLine
 10
39.96363227051663
 20
27.78603620169698
 30
0.0
 11
39.76671537284581
 21
27.9829530993678
 31
0.0
  0
LINE
  5
62D
330
30
100
AcDbEntity
  8
0
 62
     0
100
AcDbLine
 10
39.17724897355641
 20
25.52302150531773
 30
0.0
 11
39.05224897355641
 21
25.64802150531774
 31
0.0
  0
LINE
  5
62E
330
30
100
AcDbEntity
  8
0
 62
     0
100
AcDbLine
 10
36.65336055290975
 20
28.04690992596439
 30
0.0
 11
36.53887167832308
 21
28.16139880055107
 31
0.0
  0
LINE
  5
62F
330
30
100
AcDbEntity
  8
0
 62
     0
100
AcDbLine
 10
38.38175384472155
 20
25.52302150531773
 30
0.0
 11
38.25675384472154
 21
25.64802150531773
 31
0.0
  0
LINE
  5
630
330
30
100
AcDbEntity
  8
0
 62
     0
100
AcDbLine
 10
36.66749264868293
 20
27.23728270135635
 30
0.0
 11
36.54025262479908
 21
27.3645227252402
 31
0.0
  0
LINE
  5
631
330
30
100
AcDbEntity
  8
0
 62
     0
100
AcDbLine
 10
37.58625871588668
 20
25.52302150531773
 30
0.0
 11
37.46125871588668
 21
25.64802150531773
 31
0.0
  0
LINE
  5
632
330
30
100
AcDbEntity
  8
0
 62
     0
100
AcDbLine
 10
36.68162474445611
 20
26.4276554767483
 30
0.0
 11
36.55438472057226
 21
26.55489550063215
 31
0.0
  0
LINE
  5
633
330
30
100
AcDbEntity
  8
0
 62
     0
100
AcDbLine
 10
36.79076358705181
 20
25.52302150531773
 30
0.0
 11
36.56851681634544
 21
25.7452682760241
 31
0.0
  0
LINE
  5
634
330
30
100
AcDbEntity
  8
0
 62
     0
100
AcDbLine
 10
39.8429421604606
 20
25.6528234472484
 30
0.0
 11
39.72801082943764
 21
25.76775477827137
 31
0.0
  0
LINE
  5
635
330
30
100
AcDbEntity
  8
0
 62
     0
100
AcDbLine
 10
39.86456975749582
 20
26.42669097904807
 30
0.0
 11
39.74169549472499
 21
26.54956524181889
 31
0.0
  0
LINE
  5
636
330
30
100
AcDbEntity
  8
0
 62
     0
100
AcDbLine
 10
39.87821696374847
 20
27.20853890163028
 30
0.0
 11
39.75534270097765
 21
27.33141316440109
 31
0.0
  0
LINE
  5
637
330
30
100
AcDbEntity
  8
0
 62
     0
100
AcDbLine
 10
40.02311757413738
 20
27.85913342007622
 30
0.0
 11
39.76898990723031
 21
28.11326108698331
 31
0.0
  0
LINE
  5
638
330
30
100
AcDbEntity
  8
0
 62
     0
100
AcDbLine
 10
39.30983149480641
 20
25.52302150531773
 30
0.0
 11
39.18483149480641
 21
25.64802150531774
 31
0.0
  0
LINE
  5
639
330
30
100
AcDbEntity
  8
0
 62
     0
100
AcDbLine
 10
36.65100520361817
 20
28.18184779650597
 30
0.0
 11
36.56483149480642
 21
28.26802150531774
 31
0.0
  0
LINE
  5
63A
330
30
100
AcDbEntity
  8
0
 62
     0
100
AcDbLine
 10
38.51433636597155
 20
25.52302150531773
 30
0.0
 11
38.38933636597154
 21
25.64802150531773
 31
0.0
  0
LINE
  5
63B
330
30
100
AcDbEntity
  8
0
 62
     0
100
AcDbLine
 10
36.66513729939135
 20
27.37222057189793
 30
0.0
 11
36.5378972755075
 21
27.49946059578177
 31
0.0
  0
LINE
  5
63C
330
30
100
AcDbEntity
  8
0
 62
     0
100
AcDbLine
 10
37.71884123713668
 20
25.52302150531773
 30
0.0
 11
37.59384123713668
 21
25.64802150531773
 31
0.0
  0
LINE
  5
63D
330
30
100
AcDbEntity
  8
0
 62
     0
100
AcDbLine
 10
36.67926939516453
 20
26.56259334728988
 30
0.0
 11
36.55202937128068
 21
26.68983337117373
 31
0.0
  0
LINE
  5
63E
330
30
100
AcDbEntity
  8
0
 62
     0
100
AcDbLine
 10
36.92334610830182
 20
25.52302150531773
 30
0.0
 11
36.79646471646723
 21
25.64990289715231
 31
0.0
  0
LINE
  5
63F
330
30
100
AcDbEntity
  8
0
 62
     0
100
AcDbLine
 10
36.69495185577172
 20
25.75141575784783
 30
0.0
 11
36.56616146705386
 21
25.88020614656568
 31
0.0
  0
LINE
  5
640
330
30
100
AcDbEntity
  8
0
 62
     0
100
AcDbLine
 10
39.85319708561478
 20
25.77515104334424
 30
0.0
 11
39.73032282284396
 21
25.89802530611506
 31
0.0
  0
LINE
  5
641
330
30
100
AcDbEntity
  8
0
 62
     0
100
AcDbLine
 10
39.86684429186744
 20
26.55699896592644
 30
0.0
 11
39.74397002909661
 21
26.67987322869726
 31
0.0
  0
LINE
  5
642
330
30
100
AcDbEntity
  8
0
 62
     0
100
AcDbLine
 10
39.8804914981201
 20
27.33884688850865
 30
0.0
 11
39.75761723534927
 21
27.46172115127947
 31
0.0
  0
LINE
  5
643
330
30
100
AcDbEntity
  8
0
 62
     0
100
AcDbLine
 10
40.02311757413738
 20
27.99171594132622
 30
0.0
 11
39.99681201014587
 21
28.01802150531774
 31
0.0
  0
LINE
  5
644
330
30
100
AcDbEntity
  8
0
 62
     0
100
AcDbLine
 10
39.88449238161204
 20
28.13034113385157
 30
0.0
 11
39.77126444160193
 21
28.24356907386168
 31
0.0
  0
ENDBLK
  5
645
330
30
100
AcDbEntity
  8
0
100
AcDbBlockEnd
  0
BLOCK
  5
646
330
31
100
AcDbEntity
  8
0
100
AcDbBlockBegin
  2
*X9
 70
     1
 10
0.0
 20
0.0
 30
0.0
  3
*X9
  1

  0
LINE
  5
647
330
31
100
AcDbEntity
  8
0
 62
     0
100
AcDbLine
 10
10.19704891602013
 20
24.51596123504772
 30
0.0
 11
10.32204891602014
 21
24.64096123504772
 31
0.0
  0
LINE
  5
648
330
31
100
AcDbEntity
  8
0
 62
     0
100
AcDbLine
 10
9.401553787185269
 20
24.51596123504772
 30
0.0
 11
9.526553787185273
 21
24.64096123504772
 31
0.0
  0
LINE
  5
649
330
31
100
AcDbEntity
  8
0
 62
     0
100
AcDbLine
 10
8.606058658350404
 20
24.51596123504772
 30
0.0
 11
8.731058658350406
 21
24.64096123504772
 31
0.0
  0
LINE
  5
64A
330
31
100
AcDbEntity
  8
0
 62
     0
100
AcDbLine
 10
10.90979886175489
 20
24.43321605194761
 30
0.0
 11
10.99818720940321
 21
24.52160439959593
 31
0.0
  0
LINE
  5
64B
330
31
100
AcDbEntity
  8
0
 62
     0
100
AcDbLine
 10
11.37878037395141
 20
24.10670243530927
 30
0.0
 11
11.49650073579331
 21
24.22442279715116
 31
0.0
  0
LINE
  5
64C
330
31
100
AcDbEntity
  8
0
 62
     0
100
AcDbLine
 10
10.32963143727013
 20
24.51596123504772
 30
0.0
 11
10.45463143727014
 21
24.64096123504772
 31
0.0
  0
LINE
  5
64D
330
31
100
AcDbEntity
  8
0
 62
     0
100
AcDbLine
 10
9.53413630843527
 20
24.51596123504772
 30
0.0
 11
9.659136308435272
 21
24.64096123504772
 31
0.0
  0
LINE
  5
64E
330
31
100
AcDbEntity
  8
0
 62
     0
100
AcDbLine
 10
8.738641179600403
 20
24.51596123504772
 30
0.0
 11
8.863641179600405
 21
24.64096123504772
 31
0.0
  0
LINE
  5
64F
330
31
100
AcDbEntity
  8
0
 62
     0
100
AcDbLine
 10
10.9760901223799
 20
24.36692479132262
 30
0.0
 11
11.06447847002821
 21
24.45531313897093
 31
0.0
  0
LINE
  5
650
330
31
100
AcDbEntity
  8
0
 62
     0
100
AcDbLine
 10
11.42062169493987
 20
24.01596123504773
 30
0.0
 11
11.50097439580641
 21
24.09631393591427
 31
0.0
  0
LINE
  5
651
330
31
100
AcDbEntity
  8
0
 62
     0
100
AcDbLine
 10
10.46221395927013
 20
24.51596123504772
 30
0.0
 11
10.58721395927014
 21
24.64096123504772
 31
0.0
  0
LINE
  5
652
330
31
100
AcDbEntity
  8
0
 62
     0
100
AcDbLine
 10
9.66671883043527
 20
24.51596123504772
 30
0.0
 11
9.791718830435273
 21
24.64096123504772
 31
0.0
  0
LINE
  5
653
330
31
100
AcDbEntity
  8
0
 62
     0
100
AcDbLine
 10
8.871223701600404
 20
24.51596123504772
 30
0.0
 11
8.996223701600406
 21
24.64096123504772
 31
0.0
  0
LINE
  5
654
330
31
100
AcDbEntity
  8
0
 62
     0
100
AcDbLine
 10
7.889701705383815
 20
24.329934367666
 30
0.0
 11
8.013228572765541
 21
24.45346123504772
 31
0.0
  0
LINE
  5
655
330
31
100
AcDbEntity
  8
0
 62
     0
100
AcDbLine
 10
11.07020908810501
 20
24.32846123504774
 30
0.0
 11
11.19520908810501
 21
24.45346123504773
 31
0.0
  0
LINE
  5
656
330
31
100
AcDbEntity
  8
0
 62
     0
100
AcDbLine
 10
10.59479648052013
 20
24.51596123504772
 30
0.0
 11
10.71979648052014
 21
24.64096123504772
 31
0.0
  0
LINE
  5
657
330
31
100
AcDbEntity
  8
0
 62
     0
100
AcDbLine
 10
9.799301351685269
 20
24.51596123504772
 30
0.0
 11
9.924301351685272
 21
24.64096123504772
 31
0.0
  0
LINE
  5
658
330
31
100
AcDbEntity
  8
0
 62
     0
100
AcDbLine
 10
9.003806222850403
 20
24.51596123504772
 30
0.0
 11
9.128806222850405
 21
24.64096123504772
 31
0.0
  0
LINE
  5
659
330
31
100
AcDbEntity
  8
0
 62
     0
100
AcDbLine
 10
7.884904292366474
 20
24.19255443339866
 30
0.0
 11
8.14581109401554
 21
24.45346123504772
 31
0.0
  0
LINE
  5
65A
330
31
100
AcDbEntity
  8
0
 62
     0
100
AcDbLine
 10
11.20279160935501
 20
24.32846123504774
 30
0.0
 11
11.32779160935501
 21
24.45346123504773
 31
0.0
  0
ENDBLK
  5
65B
330
31
100
AcDbEntity
  8
0
100
AcDbBlockEnd
  0
BLOCK
  5
65C
330
32
100
AcDbEntity
  8
0
100
AcDbBlockBegin
  2
SAAL
 70
     0
 10
0.0
 20
0.0
 30
0.0
  3
SAAL
  1

  0
TEXT
  5
65D
330
32
100
AcDbEntity
  8
0
100
AcDbText
 10
-0.5040834610697376
 20
0.5122863324383254
 30
0.0
 40
0.156
  1
A
  7
COMPLEX
 72
     1
 11
-0.4297977467840233
 21
0.5122863324383254
 31
0.0
100
AcDbText
  0
INSERT
  5
65E
330
32
100
AcDbEntity
  8
0
100
AcDbBlockReference
  2
*X11
 10
3.748701991468969
 20
-6.921648479033177
 30
0.0
 41
-1.0
  0
LINE
  5
65F
330
32
100
AcDbEntity
  8
0
100
AcDbLine
 10
-0.4510248048477635
 20
0.2292366486465225
 30
0.0
 11
-0.4731800571979626
 21
0.2292366486465216
 31
0.0
  0
LINE
  5
660
330
32
100
AcDbEntity
  8
0
100
AcDbLine
 10
-0.3939751951522221
 20
0.2292366486465216
 30
0.0
 11
-0.3718199428020354
 21
0.2292366486465216
 31
0.0
  0
LINE
  5
661
330
32
100
AcDbEntity
  8
0
100
AcDbLine
 10
-0.3939751951522221
 20
0.2292366486465216
 30
0.0
 11
-0.4075000000000002
 21
0.2292366486465216
 31
0.0
  0
ARC
  5
662
330
32
100
AcDbEntity
  8
0
100
AcDbCircle
 10
-0.9224898749921969
 20
0.4486009293161688
 30
0.0
 40
0.5200000000000001
100
AcDbArc
 50
335.048281908222
 51
344.0535702443027
  0
ARC
  5
663
330
32
100
AcDbEntity
  8
0
100
AcDbCircle
 10
0.0774898749921995
 20
0.4486009293161688
 30
0.0
 40
0.5200000000000001
100
AcDbArc
 50
195.9464297556973
 51
204.9517180917784
  0
ARC
  5
664
330
32
100
AcDbEntity
  8
0
100
AcDbCircle
 10
-0.9224898749921969
 20
0.4486009293161688
 30
0.0
 40
0.5
100
AcDbArc
 50
333.9772135427694
 51
0.3646288638273872
  0
LINE
  5
665
330
32
100
AcDbEntity
  8
0
100
AcDbLine
 10
-0.4374999999999996
 20
0.2292366486465216
 30
0.0
 11
-0.4374999999999996
 21
0.2292366486465216
 31
0.0
  0
ARC
  5
666
330
32
100
AcDbEntity
  8
0
100
AcDbCircle
 10
0.0774898749921995
 20
0.4486009293161688
 30
0.0
 40
0.5
100
AcDbArc
 50
179.6353711361726
 51
206.0227864572306
  0
LINE
  5
667
330
32
100
AcDbEntity
  8
0
100
AcDbLine
 10
-0.4571321552628534
 20
0.0
 30
0.0
 11
0.0
 21
0.0
 31
0.0
  0
LINE
  5
668
330
32
100
AcDbEntity
  8
0
100
AcDbLine
 10
-0.4224999999999999
 20
0.0299999999999994
 30
0.0
 11
0.0000000000000009
 21
0.0299999999999994
 31
0.0
  0
LINE
  5
669
330
32
100
AcDbEntity
  8
0
100
AcDbLine
 10
-0.4374999999999996
 20
0.2292366486465216
 30
0.0
 11
-0.4374999999999996
 21
-0.017923002649547
 31
0.0
  0
LINE
  5
66A
330
32
100
AcDbEntity
  8
0
100
AcDbLine
 10
-0.4075000000000002
 20
0.2292366486465216
 30
0.0
 11
-0.4074999999999993
 21
0.0149999999999988
 31
0.0
  0
LINE
  5
66B
330
32
100
AcDbEntity
  8
0
100
AcDbLine
 10
-0.4374999999999987
 20
0.2292366486465216
 30
0.0
 11
-0.4510248048477635
 21
0.2292366486465225
 31
0.0
  0
ENDBLK
  5
66C
330
32
100
AcDbEntity
  8
0
100
AcDbBlockEnd
  0
BLOCK
  5
66D
330
33
100
AcDbEntity
  8
0
100
AcDbBlockBegin
  2
*X11
 70
     1
 10
0.0
 20
0.0
 30
0.0
  3
*X11
  1

  0
LINE
  5
66E
330
33
100
AcDbEntity
  8
0
 62
     0
100
AcDbLine
 10
4.158042821030212
 20
7.25625
 30
0.0
 11
4.184361161907728
 21
7.25625
 31
0.0
  0
LINE
  5
66F
330
33
100
AcDbEntity
  8
0
 62
     0
100
AcDbLine
 10
4.159464167164085
 20
7.2625
 30
0.0
 11
4.182939815773856
 21
7.2625
 31
0.0
  0
LINE
  5
670
330
33
100
AcDbEntity
  8
0
 62
     0
100
AcDbLine
 10
4.160801607892522
 20
7.26875
 30
0.0
 11
4.181602375045417
 21
7.26875
 31
0.0
  0
LINE
  5
671
330
33
100
AcDbEntity
  8
0
 62
     0
100
AcDbLine
 10
4.162055829087108
 20
7.275
 30
0.0
 11
4.180348153850832
 21
7.275
 31
0.0
  0
LINE
  5
672
330
33
100
AcDbEntity
  8
0
 62
     0
100
AcDbLine
 10
4.163227467165616
 20
7.28125
 30
0.0
 11
4.179176515772323
 21
7.28125
 31
0.0
  0
LINE
  5
673
330
33
100
AcDbEntity
  8
0
 62
     0
100
AcDbLine
 10
4.1643171107912
 20
7.2875
 30
0.0
 11
4.178086872146739
 21
7.2875
 31
0.0
  0
LINE
  5
674
330
33
100
AcDbEntity
  8
0
 62
     0
100
AcDbLine
 10
4.165325302419223
 20
7.29375
 30
0.0
 11
4.177078680518715
 21
7.29375
 31
0.0
  0
LINE
  5
675
330
33
100
AcDbEntity
  8
0
 62
     0
100
AcDbLine
 10
4.16625253970155
 20
7.3
 30
0.0
 11
4.17615144323639
 21
7.3
 31
0.0
  0
LINE
  5
676
330
33
100
AcDbEntity
  8
0
 62
     0
100
AcDbLine
 10
4.167099276757146
 20
7.30625
 30
0.0
 11
4.175304706180795
 21
7.30625
 31
0.0
  0
LINE
  5
677
330
33
100
AcDbEntity
  8
0
 62
     0
100
AcDbLine
 10
4.167865925316793
 20
7.3125
 30
0.0
 11
4.174538057621145
 21
7.3125
 31
0.0
  0
LINE
  5
678
330
33
100
AcDbEntity
  8
0
 62
     0
100
AcDbLine
 10
4.16855285574882
 20
7.31875
 30
0.0
 11
4.17385112718912
 21
7.31875
 31
0.0
  0
LINE
  5
679
330
33
100
AcDbEntity
  8
0
 62
     0
100
AcDbLine
 10
4.169160397971983
 20
7.325
 30
0.0
 11
4.173243584965957
 21
7.325
 31
0.0
  0
LINE
  5
67A
330
33
100
AcDbEntity
  8
0
 62
     0
100
AcDbLine
 10
4.169688842260835
 20
7.33125
 30
0.0
 11
4.172715140677103
 21
7.33125
 31
0.0
  0
LINE
  5
67B
330
33
100
AcDbEntity
  8
0
 62
     0
100
AcDbLine
 10
4.170138439948251
 20
7.3375
 30
0.0
 11
4.172265542989687
 21
7.3375
 31
0.0
  0
LINE
  5
67C
330
33
100
AcDbEntity
  8
0
 62
     0
100
AcDbLine
 10
4.170509404029122
 20
7.34375
 30
0.0
 11
4.171894578908817
 21
7.34375
 31
0.0
  0
LINE
  5
67D
330
33
100
AcDbEntity
  8
0
 62
     0
100
AcDbLine
 10
4.170801909668647
 20
7.35
 30
0.0
 11
4.171602073269292
 21
7.35
 31
0.0
  0
LINE
  5
67E
330
33
100
AcDbEntity
  8
0
 62
     0
100
AcDbLine
 10
4.171016094618071
 20
7.35625
 30
0.0
 11
4.171387888319867
 21
7.35625
 31
0.0
  0
LINE
  5
67F
330
33
100
AcDbEntity
  8
0
 62
     0
100
AcDbLine
 10
4.171152059540171
 20
7.3625
 30
0.0
 11
4.171251923397766
 21
7.3625
 31
0.0
  0
LINE
  5
680
330
33
100
AcDbEntity
  8
0
 62
     0
100
AcDbLine
 10
4.17119411469162
 20
7.36875
 30
0.0
 11
4.171209868246319
 21
7.36875
 31
0.0
  0
LINE
  5
681
330
33
100
AcDbEntity
  8
0
 62
     0
100
AcDbLine
 10
4.156536832302816
 20
7.25
 30
0.0
 11
4.185867150635123
 21
7.25
 31
0.0
  0
LINE
  5
682
330
33
100
AcDbEntity
  8
0
 62
     0
100
AcDbLine
 10
4.154945410438709
 20
7.24375
 30
0.0
 11
4.187458572499231
 21
7.24375
 31
0.0
  0
LINE
  5
683
330
33
100
AcDbEntity
  8
0
 62
     0
100
AcDbLine
 10
4.153267709311144
 20
7.2375
 30
0.0
 11
4.189136273626795
 21
7.2375
 31
0.0
  0
LINE
  5
684
330
33
100
AcDbEntity
  8
0
 62
     0
100
AcDbLine
 10
4.151502824775956
 20
7.23125
 30
0.0
 11
4.190901158161984
 21
7.23125
 31
0.0
  0
LINE
  5
685
330
33
100
AcDbEntity
  8
0
 62
     0
100
AcDbLine
 10
4.149649792014731
 20
7.225
 30
0.0
 11
4.170514238817704
 21
7.225
 31
0.0
  0
LINE
  5
686
330
33
100
AcDbEntity
  8
0
 62
     0
100
AcDbLine
 10
4.17188974412022
 20
7.225
 30
0.0
 11
4.192754190923209
 21
7.225
 31
0.0
  0
LINE
  5
687
330
33
100
AcDbEntity
  8
0
 62
     0
100
AcDbLine
 10
4.147707582635473
 20
7.21875
 30
0.0
 11
4.16865349922432
 21
7.21875
 31
0.0
  0
LINE
  5
688
330
33
100
AcDbEntity
  8
0
 62
     0
100
AcDbLine
 10
4.173750483713604
 20
7.21875
 30
0.0
 11
4.194696400302465
 21
7.21875
 31
0.0
  0
LINE
  5
689
330
33
100
AcDbEntity
  8
0
 62
     0
100
AcDbLine
 10
4.145675101508724
 20
7.2125
 30
0.0
 11
4.166706944063726
 21
7.2125
 31
0.0
  0
LINE
  5
68A
330
33
100
AcDbEntity
  8
0
 62
     0
100
AcDbLine
 10
4.175697038874197
 20
7.2125
 30
0.0
 11
4.196728881429214
 21
7.2125
 31
0.0
  0
LINE
  5
68B
330
33
100
AcDbEntity
  8
0
 62
     0
100
AcDbLine
 10
4.143551183314425
 20
7.20625
 30
0.0
 11
4.164673557788107
 21
7.20625
 31
0.0
  0
LINE
  5
68C
330
33
100
AcDbEntity
  8
0
 62
     0
100
AcDbLine
 10
4.17773042514982
 20
7.20625
 30
0.0
 11
4.198852799623516
 21
7.20625
 31
0.0
  0
LINE
  5
68D
330
33
100
AcDbEntity
  8
0
 62
     0
100
AcDbLine
 10
4.141334588771703
 20
7.2
 30
0.0
 11
4.162552262360144
 21
7.2
 31
0.0
  0
LINE
  5
68E
330
33
100
AcDbEntity
  8
0
 62
     0
100
AcDbLine
 10
4.179851720577784
 20
7.2
 30
0.0
 11
4.201069394166239
 21
7.2
 31
0.0
  0
LINE
  5
68F
330
33
100
AcDbEntity
  8
0
 62
     0
100
AcDbLine
 10
4.139024000520274
 20
7.19375
 30
0.0
 11
4.160341914027816
 21
7.19375
 31
0.0
  0
LINE
  5
690
330
33
100
AcDbEntity
  8
0
 62
     0
100
AcDbLine
 10
4.182062068910108
 20
7.19375
 30
0.0
 11
4.203379982417666
 21
7.19375
 31
0.0
  0
LINE
  5
691
330
33
100
AcDbEntity
  8
0
 62
     0
100
AcDbLine
 10
4.136618018618079
 20
7.1875
 30
0.0
 11
4.158041299813144
 21
7.1875
 31
0.0
  0
LINE
  5
692
330
33
100
AcDbEntity
  8
0
 62
     0
100
AcDbLine
 10
4.18436268312478
 20
7.1875
 30
0.0
 11
4.20578596431986
 21
7.1875
 31
0.0
  0
LINE
  5
693
330
33
100
AcDbEntity
  8
0
 62
     0
100
AcDbLine
 10
4.134115155615204
 20
7.18125
 30
0.0
 11
4.155649133687051
 21
7.18125
 31
0.0
  0
LINE
  5
694
330
33
100
AcDbEntity
  8
0
 62
     0
100
AcDbLine
 10
4.186754849250876
 20
7.18125
 30
0.0
 11
4.208288827322737
 21
7.18125
 31
0.0
  0
LINE
  5
695
330
33
100
AcDbEntity
  8
0
 62
     0
100
AcDbLine
 10
4.131513831158817
 20
7.175
 30
0.0
 11
4.153164052399043
 21
7.175
 31
0.0
  0
LINE
  5
696
330
33
100
AcDbEntity
  8
0
 62
     0
100
AcDbLine
 10
4.189239930538879
 20
7.175
 30
0.0
 11
4.210890151779121
 21
7.175
 31
0.0
  0
LINE
  5
697
330
33
100
AcDbEntity
  8
0
 62
     0
100
AcDbLine
 10
4.128812366077735
 20
7.16875
 30
0.0
 11
4.1505846109264
 21
7.16875
 31
0.0
  0
LINE
  5
698
330
33
100
AcDbEntity
  8
0
 62
     0
100
AcDbLine
 10
4.191819372011525
 20
7.16875
 30
0.0
 11
4.213591616860204
 21
7.16875
 31
0.0
  0
LINE
  5
699
330
33
100
AcDbEntity
  8
0
 62
     0
100
AcDbLine
 10
4.126008975888199
 20
7.1625
 30
0.0
 11
4.147909277503027
 21
7.1625
 31
0.0
  0
LINE
  5
69A
330
33
100
AcDbEntity
  8
0
 62
     0
100
AcDbLine
 10
4.194494705434896
 20
7.1625
 30
0.0
 11
4.216395007049741
 21
7.1625
 31
0.0
  0
LINE
  5
69B
330
33
100
AcDbEntity
  8
0
 62
     0
100
AcDbLine
 10
4.123101763654189
 20
7.15625
 30
0.0
 11
4.145136428182898
 21
7.15625
 31
0.0
  0
LINE
  5
69C
330
33
100
AcDbEntity
  8
0
 62
     0
100
AcDbLine
 10
4.197267554755029
 20
7.15625
 30
0.0
 11
4.219302219283752
 21
7.15625
 31
0.0
  0
ENDBLK
  5
69D
330
33
100
AcDbEntity
  8
0
100
AcDbBlockEnd
  0
BLOCK
  5
69E
330
4B
100
AcDbEntity
  8
0
100
AcDbBlockBegin
  2
*X12
 70
     1
 10
0.0
 20
0.0
 30
0.0
  3
*X12
  1

  0
LINE
  5
69F
330
4B
100
AcDbEntity
  8
0
 62
     0
100
AcDbLine
 10
47.04609963283669
 20
21.89681153285169
 30
0.0
 11
46.92109963283667
 21
22.02181153285171
 31
0.0
  0
LINE
  5
6A0
330
4B
100
AcDbEntity
  8
0
 62
     0
100
AcDbLine
 10
47.04609963283669
 20
21.36648144696179
 30
0.0
 11
46.92109963283667
 21
21.4914814469618
 31
0.0
  0
LINE
  5
6A1
330
4B
100
AcDbEntity
  8
0
 62
     0
100
AcDbLine
 10
46.98388857021115
 20
20.89836242369741
 30
0.0
 11
46.87768156743739
 21
21.00456942647117
 31
0.0
  0
LINE
  5
6A2
330
4B
100
AcDbEntity
  8
0
 62
     0
100
AcDbLine
 10
46.50771645790879
 20
20.84420445010986
 30
0.0
 11
46.38484219513798
 21
20.96707871288067
 31
0.0
  0
LINE
  5
6A3
330
4B
100
AcDbEntity
  8
0
 62
     0
100
AcDbLine
 10
45.98648450952065
 20
20.83510631260808
 30
0.0
 11
45.86361024674984
 21
20.95798057537889
 31
0.0
  0
LINE
  5
6A4
330
4B
100
AcDbEntity
  8
0
 62
     0
100
AcDbLine
 10
45.46525256113252
 20
20.8260081751063
 30
0.0
 11
45.34237829836171
 21
20.94888243787712
 31
0.0
  0
LINE
  5
6A5
330
4B
100
AcDbEntity
  8
0
 62
     0
100
AcDbLine
 10
44.94402061274438
 20
20.81691003760453
 30
0.0
 11
44.82114634997357
 21
20.93978430037534
 31
0.0
  0
LINE
  5
6A6
330
4B
100
AcDbEntity
  8
0
 62
     0
100
AcDbLine
 10
44.55132002705371
 20
20.67928053740529
 30
0.0
 11
44.55109963283667
 21
20.67950093162233
 31
0.0
  0
LINE
  5
6A7
330
4B
100
AcDbEntity
  8
0
 62
     0
100
AcDbLine
 10
44.41073364181284
 20
20.81986692264616
 30
0.0
 11
44.30109963283668
 21
20.92950093162233
 31
0.0
  0
LINE
  5
6A8
330
4B
100
AcDbEntity
  8
0
 62
     0
100
AcDbLine
 10
47.04609963283669
 20
22.42714161874161
 30
0.0
 11
46.92109963283668
 21
22.55214161874162
 31
0.0
  0
LINE
  5
6A9
330
4B
100
AcDbEntity
  8
0
 62
     0
100
AcDbLine
 10
47.04609963283669
 20
22.95747170463152
 30
0.0
 11
46.92109963283668
 21
23.08247170463153
 31
0.0
  0
LINE
  5
6AA
330
4B
100
AcDbEntity
  8
0
 62
     0
100
AcDbLine
 10
47.04609963283669
 20
23.48780179052143
 30
0.0
 11
46.92109963283668
 21
23.61280179052144
 31
0.0
  0
LINE
  5
6AB
330
4B
100
AcDbEntity
  8
0
 62
     0
100
AcDbLine
 10
47.04609963283669
 20
24.01813187641134
 30
0.0
 11
46.92109963283668
 21
24.14313187641135
 31
0.0
  0
LINE
  5
6AC
330
4B
100
AcDbEntity
  8
0
 62
     0
100
AcDbLine
 10
44.67149979247701
 20
26.39273171677102
 30
0.0
 11
44.54481838640558
 21
26.51941312284244
 31
0.0
  0
LINE
  5
6AD
330
4B
100
AcDbEntity
  8
0
 62
     0
100
AcDbLine
 10
47.04609963283669
 20
24.54846196230125
 30
0.0
 11
46.92109963283669
 21
24.67346196230125
 31
0.0
  0
LINE
  5
6AE
330
4B
100
AcDbEntity
  8
0
 62
     0
100
AcDbLine
 10
45.21125127554905
 20
26.38331031958889
 30
0.0
 11
45.0840112516652
 21
26.51055034347273
 31
0.0
  0
LINE
  5
6AF
330
4B
100
AcDbEntity
  8
0
 62
     0
100
AcDbLine
 10
47.04609963283669
 20
25.07879204819116
 30
0.0
 11
46.92109963283669
 21
25.20379204819116
 31
0.0
  0
LINE
  5
6B0
330
4B
100
AcDbEntity
  8
0
 62
     0
100
AcDbLine
 10
45.75100275862109
 20
26.37388892240676
 30
0.0
 11
45.62376273473724
 21
26.50112894629061
 31
0.0
  0
LINE
  5
6B1
330
4B
100
AcDbEntity
  8
0
 62
     0
100
AcDbLine
 10
47.04609963283669
 20
25.60912213408107
 30
0.0
 11
46.92109963283669
 21
25.73412213408107
 31
0.0
  0
LINE
  5
6B2
330
4B
100
AcDbEntity
  8
0
 62
     0
100
AcDbLine
 10
46.29075424169312
 20
26.36446752522464
 30
0.0
 11
46.16351421780927
 21
26.49170754910849
 31
0.0
  0
LINE
  5
6B3
330
4B
100
AcDbEntity
  8
0
 62
     0
100
AcDbLine
 10
47.04609963283669
 20
26.13945221997098
 30
0.0
 11
46.91432156734776
 21
26.2712302854599
 31
0.0
  0
LINE
  5
6B4
330
4B
100
AcDbEntity
  8
0
 62
     0
100
AcDbLine
 10
46.83670227069103
 20
26.34884958211664
 30
0.0
 11
46.7032657008813
 21
26.48228615192637
 31
0.0
  0
LINE
  5
6B5
330
4B
100
AcDbEntity
  8
0
 62
     0
100
AcDbLine
 10
47.04609963283669
 20
21.9851998803517
 30
0.0
 11
46.92109963283668
 21
22.11019988035171
 31
0.0
  0
LINE
  5
6B6
330
4B
100
AcDbEntity
  8
0
 62
     0
100
AcDbLine
 10
47.04609963283669
 20
21.45486979446179
 30
0.0
 11
46.92109963283667
 21
21.5798697944618
 31
0.0
  0
LINE
  5
6B7
330
4B
100
AcDbEntity
  8
0
 62
     0
100
AcDbLine
 10
47.02297921627088
 20
20.94766012513769
 30
0.0
 11
46.91370855709815
 21
21.05693078431041
 31
0.0
  0
LINE
  5
6B8
330
4B
100
AcDbEntity
  8
0
 62
     0
100
AcDbLine
 10
46.59458844916104
 20
20.84572080635761
 30
0.0
 11
46.47171418639023
 21
20.96859506912842
 31
0.0
  0
LINE
  5
6B9
330
4B
100
AcDbEntity
  8
0
 62
     0
100
AcDbLine
 10
46.07335650077291
 20
20.83662266885584
 30
0.0
 11
45.95048223800209
 21
20.95949693162665
 31
0.0
  0
LINE
  5
6BA
330
4B
100
AcDbEntity
  8
0
 62
     0
100
AcDbLine
 10
45.55212455238478
 20
20.82752453135405
 30
0.0
 11
45.42925028961396
 21
20.95039879412487
 31
0.0
  0
LINE
  5
6BB
330
4B
100
AcDbEntity
  8
0
 62
     0
100
AcDbLine
 10
45.03089260399664
 20
20.81842639385228
 30
0.0
 11
44.90801834122581
 21
20.9413006566231
 31
0.0
  0
LINE
  5
6BC
330
4B
100
AcDbEntity
  8
0
 62
     0
100
AcDbLine
 10
44.63970837455372
 20
20.67928053740529
 30
0.0
 11
44.55109963283667
 21
20.76788927912233
 31
0.0
  0
LINE
  5
6BD
330
4B
100
AcDbEntity
  8
0
 62
     0
100
AcDbLine
 10
44.50576739682808
 20
20.81322151513093
 30
0.0
 11
44.38678639283768
 21
20.93220251912132
 31
0.0
  0
LINE
  5
6BE
330
4B
100
AcDbEntity
  8
0
 62
     0
100
AcDbLine
 10
47.04609963283669
 20
22.51552996624161
 30
0.0
 11
46.92109963283668
 21
22.64052996624162
 31
0.0
  0
LINE
  5
6BF
330
4B
100
AcDbEntity
  8
0
 62
     0
100
AcDbLine
 10
47.04609963283669
 20
23.04586005213152
 30
0.0
 11
46.92109963283668
 21
23.17086005213153
 31
0.0
  0
LINE
  5
6C0
330
4B
100
AcDbEntity
  8
0
 62
     0
100
AcDbLine
 10
47.04609963283669
 20
23.57619013802143
 30
0.0
 11
46.92109963283668
 21
23.70119013802144
 31
0.0
  0
LINE
  5
6C1
330
4B
100
AcDbEntity
  8
0
 62
     0
100
AcDbLine
 10
47.04609963283669
 20
24.10652022391134
 30
0.0
 11
46.92109963283668
 21
24.23152022391134
 31
0.0
  0
LINE
  5
6C2
330
4B
100
AcDbEntity
  8
0
 62
     0
100
AcDbLine
 10
44.76145837283806
 20
26.39116148390996
 30
0.0
 11
44.55109963283667
 21
26.60152022391135
 31
0.0
  0
LINE
  5
6C3
330
4B
100
AcDbEntity
  8
0
 62
     0
100
AcDbLine
 10
47.04609963283669
 20
24.63685030980125
 30
0.0
 11
46.92109963283669
 21
24.76185030980126
 31
0.0
  0
LINE
  5
6C4
330
4B
100
AcDbEntity
  8
0
 62
     0
100
AcDbLine
 10
45.3012098559101
 20
26.38174008672784
 30
0.0
 11
45.17396983202625
 21
26.50898011061168
 31
0.0
  0
LINE
  5
6C5
330
4B
100
AcDbEntity
  8
0
 62
     0
100
AcDbLine
 10
47.04609963283669
 20
25.16718039569116
 30
0.0
 11
46.92109963283669
 21
25.29218039569116
 31
0.0
  0
LINE
  5
6C6
330
4B
100
AcDbEntity
  8
0
 62
     0
100
AcDbLine
 10
45.84096133898214
 20
26.37231868954571
 30
0.0
 11
45.71372131509829
 21
26.49955871342956
 31
0.0
  0
LINE
  5
6C7
330
4B
100
AcDbEntity
  8
0
 62
     0
100
AcDbLine
 10
47.04609963283669
 20
25.69751048158107
 30
0.0
 11
46.92109963283669
 21
25.82251048158108
 31
0.0
  0
LINE
  5
6C8
330
4B
100
AcDbEntity
  8
0
 62
     0
100
AcDbLine
 10
46.38071282205418
 20
26.36289729236358
 30
0.0
 11
46.25347279817032
 21
26.49013731624744
 31
0.0
  0
LINE
  5
6C9
330
4B
100
AcDbEntity
  8
0
 62
     0
100
AcDbLine
 10
47.04609963283669
 20
26.22784056747098
 30
0.0
 11
46.79322428124236
 21
26.48071591906532
 31
0.0
  0
LINE
  5
6CA
330
4B
100
AcDbEntity
  8
0
 62
     0
100
AcDbLine
 10
47.04609963283669
 20
22.07358822835169
 30
0.0
 11
46.92109963283668
 21
22.1985882283517
 31
0.0
  0
LINE
  5
6CB
330
4B
100
AcDbEntity
  8
0
 62
     0
100
AcDbLine
 10
47.04609963283669
 20
21.54325814246178
 30
0.0
 11
46.92109963283667
 21
21.6682581424618
 31
0.0
  0
LINE
  5
6CC
330
4B
100
AcDbEntity
  8
0
 62
     0
100
AcDbLine
 10
47.04462661168962
 20
21.01440107771894
 30
0.0
 11
46.92109963283667
 21
21.13792805657189
 31
0.0
  0
LINE
  5
6CD
330
4B
100
AcDbEntity
  8
0
 62
     0
100
AcDbLine
 10
46.6814604409047
 20
20.84723716261394
 30
0.0
 11
46.55858617813389
 21
20.97011142538475
 31
0.0
  0
LINE
  5
6CE
330
4B
100
AcDbEntity
  8
0
 62
     0
100
AcDbLine
 10
46.16022849251658
 20
20.83813902511217
 30
0.0
 11
46.03735422974575
 21
20.96101328788297
 31
0.0
  0
LINE
  5
6CF
330
4B
100
AcDbEntity
  8
0
 62
     0
100
AcDbLine
 10
45.63899654412844
 20
20.82904088761039
 30
0.0
 11
45.51612228135762
 21
20.9519151503812
 31
0.0
  0
LINE
  5
6D0
330
4B
100
AcDbEntity
  8
0
 62
     0
100
AcDbLine
 10
45.11776459574031
 20
20.81994275010861
 30
0.0
 11
44.99489033296948
 21
20.94281701287942
 31
0.0
  0
LINE
  5
6D1
330
4B
100
AcDbEntity
  8
0
 62
     0
100
AcDbLine
 10
44.72584817769519
 20
20.68152908226381
 30
0.0
 11
44.47365838458135
 21
20.93371887537765
 31
0.0
  0
LINE
  5
6D2
330
4B
100
AcDbEntity
  8
0
 62
     0
100
AcDbLine
 10
47.04609963283669
 20
22.60391831424161
 30
0.0
 11
46.92109963283668
 21
22.72891831424161
 31
0.0
  0
LINE
  5
6D3
330
4B
100
AcDbEntity
  8
0
 62
     0
100
AcDbLine
 10
47.04609963283669
 20
23.13424840013151
 30
0.0
 11
46.92109963283668
 21
23.25924840013152
 31
0.0
  0
LINE
  5
6D4
330
4B
100
AcDbEntity
  8
0
 62
     0
100
AcDbLine
 10
47.04609963283669
 20
23.66457848602143
 30
0.0
 11
46.92109963283668
 21
23.78957848602143
 31
0.0
  0
LINE
  5
6D5
330
4B
100
AcDbEntity
  8
0
 62
     0
100
AcDbLine
 10
44.31166547063596
 20
26.39901264822216
 30
0.0
 11
44.30109963283667
 21
26.40957848602143
 31
0.0
  0
LINE
  5
6D6
330
4B
100
AcDbEntity
  8
0
 62
     0
100
AcDbLine
 10
47.04609963283669
 20
24.19490857191134
 30
0.0
 11
46.92109963283668
 21
24.31990857191134
 31
0.0
  0
LINE
  5
6D7
330
4B
100
AcDbEntity
  8
0
 62
     0
100
AcDbLine
 10
44.851416953708
 20
26.38959125104003
 30
0.0
 11
44.59038481538434
 21
26.65062338936369
 31
0.0
  0
LINE
  5
6D8
330
4B
100
AcDbEntity
  8
0
 62
     0
100
AcDbLine
 10
47.04609963283669
 20
24.72523865780125
 30
0.0
 11
46.92109963283669
 21
24.85023865780125
 31
0.0
  0
LINE
  5
6D9
330
4B
100
AcDbEntity
  8
0
 62
     0
100
AcDbLine
 10
45.39116843678004
 20
26.3801698538579
 30
0.0
 11
45.26392841289619
 21
26.50740987774175
 31
0.0
  0
LINE
  5
6DA
330
4B
100
AcDbEntity
  8
0
 62
     0
100
AcDbLine
 10
47.04609963283669
 20
25.25556874369116
 30
0.0
 11
46.92109963283669
 21
25.38056874369116
 31
0.0
  0
LINE
  5
6DB
330
4B
100
AcDbEntity
  8
0
 62
     0
100
AcDbLine
 10
45.93091991985207
 20
26.37074845667577
 30
0.0
 11
45.80367989596822
 21
26.49798848055962
 31
0.0
  0
LINE
  5
6DC
330
4B
100
AcDbEntity
  8
0
 62
     0
100
AcDbLine
 10
47.04609963283669
 20
25.78589882958107
 30
0.0
 11
46.92109963283669
 21
25.91089882958107
 31
0.0
  0
LINE
  5
6DD
330
4B
100
AcDbEntity
  8
0
 62
     0
100
AcDbLine
 10
46.47067140292411
 20
26.36132705949365
 30
0.0
 11
46.34343137904026
 21
26.4885670833775
 31
0.0
  0
LINE
  5
6DE
330
4B
100
AcDbEntity
  8
0
 62
     0
100
AcDbLine
 10
47.04428917579236
 20
26.31803937251531
 30
0.0
 11
46.8845927788017
 21
26.47773576950597
 31
0.0
  0
LINE
  5
6DF
330
4B
100
AcDbEntity
  8
0
 62
     0
100
AcDbLine
 10
47.04609963283669
 20
22.1619765758517
 30
0.0
 11
46.92109963283668
 21
22.28697657585171
 31
0.0
  0
LINE
  5
6E0
330
4B
100
AcDbEntity
  8
0
 62
     0
100
AcDbLine
 10
47.04609963283669
 20
21.63164648996179
 30
0.0
 11
46.92109963283667
 21
21.7566464899618
 31
0.0
  0
LINE
  5
6E1
330
4B
100
AcDbEntity
  8
0
 62
     0
100
AcDbLine
 10
47.04609963283669
 20
21.10131640407187
 30
0.0
 11
46.92109963283667
 21
21.22631640407189
 31
0.0
  0
LINE
  5
6E2
330
4B
100
AcDbEntity
  8
0
 62
     0
100
AcDbLine
 10
46.76833243215695
 20
20.84875351886169
 30
0.0
 11
46.64545816938614
 21
20.9716277816325
 31
0.0
  0
LINE
  5
6E3
330
4B
100
AcDbEntity
  8
0
 62
     0
100
AcDbLine
 10
46.24710048376882
 20
20.83965538135991
 30
0.0
 11
46.12422622099801
 21
20.96252964413073
 31
0.0
  0
LINE
  5
6E4
330
4B
100
AcDbEntity
  8
0
 62
     0
100
AcDbLine
 10
45.72586853538068
 20
20.83055724385814
 30
0.0
 11
45.60299427260988
 21
20.95343150662895
 31
0.0
  0
LINE
  5
6E5
330
4B
100
AcDbEntity
  8
0
 62
     0
100
AcDbLine
 10
45.20463658699256
 20
20.82145910635636
 30
0.0
 11
45.08176232422174
 21
20.94433336912718
 31
0.0
  0
LINE
  5
6E6
330
4B
100
AcDbEntity
  8
0
 62
     0
100
AcDbLine
 10
44.77004235144519
 20
20.72572325601381
 30
0.0
 11
44.56053037583361
 21
20.9352352316254
 31
0.0
  0
LINE
  5
6E7
330
4B
100
AcDbEntity
  8
0
 62
     0
100
AcDbLine
 10
47.04609963283669
 20
22.69230666174161
 30
0.0
 11
46.92109963283668
 21
22.81730666174162
 31
0.0
  0
LINE
  5
6E8
330
4B
100
AcDbEntity
  8
0
 62
     0
100
AcDbLine
 10
47.04609963283669
 20
23.22263674763152
 30
0.0
 11
46.92109963283668
 21
23.34763674763153
 31
0.0
  0
LINE
  5
6E9
330
4B
100
AcDbEntity
  8
0
 62
     0
100
AcDbLine
 10
47.04609963283669
 20
23.75296683352143
 30
0.0
 11
46.92109963283668
 21
23.87796683352144
 31
0.0
  0
LINE
  5
6EA
330
4B
100
AcDbEntity
  8
0
 62
     0
100
AcDbLine
 10
44.40162405099702
 20
26.3974424153611
 30
0.0
 11
44.30109963283667
 21
26.49796683352144
 31
0.0
  0
LINE
  5
6EB
330
4B
100
AcDbEntity
  8
0
 62
     0
100
AcDbLine
 10
47.04609963283669
 20
24.28329691941134
 30
0.0
 11
46.92109963283668
 21
24.40829691941134
 31
0.0
  0
LINE
  5
6EC
330
4B
100
AcDbEntity
  8
0
 62
     0
100
AcDbLine
 10
44.94137553406905
 20
26.38802101817898
 30
0.0
 11
44.67877316288434
 21
26.65062338936369
 31
0.0
  0
LINE
  5
6ED
330
4B
100
AcDbEntity
  8
0
 62
     0
100
AcDbLine
 10
47.04609963283669
 20
24.81362700530125
 30
0.0
 11
46.92109963283669
 21
24.93862700530125
 31
0.0
  0
LINE
  5
6EE
330
4B
100
AcDbEntity
  8
0
 62
     0
100
AcDbLine
 10
45.48112701714109
 20
26.37859962099685
 30
0.0
 11
45.35388699325724
 21
26.50583964488069
 31
0.0
  0
LINE
  5
6EF
330
4B
100
AcDbEntity
  8
0
 62
     0
100
AcDbLine
 10
47.04609963283669
 20
25.34395709119116
 30
0.0
 11
46.92109963283669
 21
25.46895709119116
 31
0.0
  0
LINE
  5
6F0
330
4B
100
AcDbEntity
  8
0
 62
     0
100
AcDbLine
 10
46.02087850021312
 20
26.36917822381472
 30
0.0
 11
45.89363847632927
 21
26.49641824769857
 31
0.0
  0
LINE
  5
6F1
330
4B
100
AcDbEntity
  8
0
 62
     0
100
AcDbLine
 10
47.04609963283669
 20
25.87428717708107
 30
0.0
 11
46.92109963283669
 21
25.99928717708107
 31
0.0
  0
LINE
  5
6F2
330
4B
100
AcDbEntity
  8
0
 62
     0
100
AcDbLine
 10
46.56062998328517
 20
26.35975682663259
 30
0.0
 11
46.43338995940131
 21
26.48699685051645
 31
0.0
  0
ENDBLK
  5
6F3
330
4B
100
AcDbEntity
  8
0
100
AcDbBlockEnd
  0
BLOCK
  5
6F4
330
4C
100
AcDbEntity
  8
0
100
AcDbBlockBegin
  2
*X13
 70
     1
 10
0.0
 20
0.0
 30
0.0
  3
*X13
  1

  0
LINE
  5
6F5
330
4C
100
AcDbEntity
  8
0
 62
     0
100
AcDbLine
 10
43.91109963283668
 20
23.75855636902008
 30
0.0
 11
44.03609963283668
 21
23.88355636902007
 31
0.0
  0
LINE
  5
6F6
330
4C
100
AcDbEntity
  8
0
 62
     0
100
AcDbLine
 10
43.91109963283668
 20
24.28888645490999
 30
0.0
 11
44.03609963283668
 21
24.41388645490998
 31
0.0
  0
LINE
  5
6F7
330
4C
100
AcDbEntity
  8
0
 62
     0
100
AcDbLine
 10
43.91109963283668
 20
24.8192165407999
 30
0.0
 11
44.03609963283668
 21
24.94421654079989
 31
0.0
  0
LINE
  5
6F8
330
4C
100
AcDbEntity
  8
0
 62
     0
100
AcDbLine
 10
43.91109963283668
 20
25.34954662668981
 30
0.0
 11
44.03609963283668
 21
25.4745466266898
 31
0.0
  0
LINE
  5
6F9
330
4C
100
AcDbEntity
  8
0
 62
     0
100
AcDbLine
 10
43.91109963283668
 20
25.87987671257972
 30
0.0
 11
44.22359963283668
 21
26.19237671257971
 31
0.0
  0
LINE
  5
6FA
330
4C
100
AcDbEntity
  8
0
 62
     0
100
AcDbLine
 10
44.10675882350419
 20
26.60586598913714
 30
0.0
 11
44.13022364798513
 21
26.62933081361809
 31
0.0
  0
LINE
  5
6FB
330
4C
100
AcDbEntity
  8
0
 62
     0
100
AcDbLine
 10
43.91109963283668
 20
23.22822628313016
 30
0.0
 11
44.03609963283668
 21
23.35322628313016
 31
0.0
  0
LINE
  5
6FC
330
4C
100
AcDbEntity
  8
0
 62
     0
100
AcDbLine
 10
43.91109963283668
 20
22.69789619724026
 30
0.0
 11
44.03609963283668
 21
22.82289619724025
 31
0.0
  0
LINE
  5
6FD
330
4C
100
AcDbEntity
  8
0
 62
     0
100
AcDbLine
 10
43.91109963283668
 20
22.16756611135034
 30
0.0
 11
44.03609963283668
 21
22.29256611135034
 31
0.0
  0
LINE
  5
6FE
330
4C
100
AcDbEntity
  8
0
 62
     0
100
AcDbLine
 10
43.91109963283668
 20
21.63723602546043
 30
0.0
 11
44.03609963283668
 21
21.76223602546043
 31
0.0
  0
LINE
  5
6FF
330
4C
100
AcDbEntity
  8
0
 62
     0
100
AcDbLine
 10
44.00981193175407
 20
21.2056182384879
 30
0.0
 11
44.09820027940238
 21
21.29400658613622
 31
0.0
  0
LINE
  5
700
330
4C
100
AcDbEntity
  8
0
 62
     0
100
AcDbLine
 10
44.09859963283667
 20
20.76407585368061
 30
0.0
 11
44.22359963283668
 21
20.8890758536806
 31
0.0
  0
LINE
  5
701
330
4C
100
AcDbEntity
  8
0
 62
     0
100
AcDbLine
 10
43.91109963283668
 20
23.67016802152007
 30
0.0
 11
44.03609963283668
 21
23.79516802152007
 31
0.0
  0
LINE
  5
702
330
4C
100
AcDbEntity
  8
0
 62
     0
100
AcDbLine
 10
43.91109963283668
 20
24.20049810740998
 30
0.0
 11
44.03609963283668
 21
24.32549810740998
 31
0.0
  0
LINE
  5
703
330
4C
100
AcDbEntity
  8
0
 62
     0
100
AcDbLine
 10
43.91109963283668
 20
24.7308281932999
 30
0.0
 11
44.03609963283668
 21
24.85582819329989
 31
0.0
  0
LINE
  5
704
330
4C
100
AcDbEntity
  8
0
 62
     0
100
AcDbLine
 10
43.91109963283668
 20
25.2611582791898
 30
0.0
 11
44.03609963283668
 21
25.3861582791898
 31
0.0
  0
LINE
  5
705
330
4C
100
AcDbEntity
  8
0
 62
     0
100
AcDbLine
 10
43.91109963283668
 20
25.79148836507972
 30
0.0
 11
44.03609963283668
 21
25.91648836507971
 31
0.0
  0
LINE
  5
706
330
4C
100
AcDbEntity
  8
0
 62
     0
100
AcDbLine
 10
44.09859963283667
 20
26.50931845096962
 30
0.0
 11
44.22918694396869
 21
26.63990576210163
 31
0.0
  0
LINE
  5
707
330
4C
100
AcDbEntity
  8
0
 62
     0
100
AcDbLine
 10
43.91109963283668
 20
23.13983793563016
 30
0.0
 11
44.03609963283668
 21
23.26483793563016
 31
0.0
  0
LINE
  5
708
330
4C
100
AcDbEntity
  8
0
 62
     0
100
AcDbLine
 10
43.91109963283668
 20
22.60950784974025
 30
0.0
 11
44.03609963283668
 21
22.73450784974025
 31
0.0
  0
LINE
  5
709
330
4C
100
AcDbEntity
  8
0
 62
     0
100
AcDbLine
 10
43.91109963283668
 20
22.07917776385034
 30
0.0
 11
44.03609963283668
 21
22.20417776385034
 31
0.0
  0
LINE
  5
70A
330
4C
100
AcDbEntity
  8
0
 62
     0
100
AcDbLine
 10
43.91109963283668
 20
21.54884767796043
 30
0.0
 11
44.03609963283668
 21
21.67384767796043
 31
0.0
  0
LINE
  5
70B
330
4C
100
AcDbEntity
  8
0
 62
     0
100
AcDbLine
 10
44.05400610550406
 20
21.1614240647379
 30
0.0
 11
44.14239445315238
 21
21.24981241238622
 31
0.0
  0
LINE
  5
70C
330
4C
100
AcDbEntity
  8
0
 62
     0
100
AcDbLine
 10
44.12606719892989
 20
20.70315507227381
 30
0.0
 11
44.23462221188425
 21
20.81171008522818
 31
0.0
  0
LINE
  5
70D
330
4C
100
AcDbEntity
  8
0
 62
     0
100
AcDbLine
 10
43.91109963283668
 20
23.58177967352007
 30
0.0
 11
44.03609963283668
 21
23.70677967352007
 31
0.0
  0
LINE
  5
70E
330
4C
100
AcDbEntity
  8
0
 62
     0
100
AcDbLine
 10
43.91109963283668
 20
24.11210975940999
 30
0.0
 11
44.03609963283668
 21
24.23710975940998
 31
0.0
  0
LINE
  5
70F
330
4C
100
AcDbEntity
  8
0
 62
     0
100
AcDbLine
 10
43.91109963283668
 20
24.6424398452999
 30
0.0
 11
44.03609963283668
 21
24.76743984529989
 31
0.0
  0
LINE
  5
710
330
4C
100
AcDbEntity
  8
0
 62
     0
100
AcDbLine
 10
43.91109963283668
 20
25.17276993118981
 30
0.0
 11
44.03609963283668
 21
25.2977699311898
 31
0.0
  0
LINE
  5
711
330
4C
100
AcDbEntity
  8
0
 62
     0
100
AcDbLine
 10
43.91109963283668
 20
25.70310001707972
 30
0.0
 11
44.03609963283668
 21
25.82810001707971
 31
0.0
  0
LINE
  5
712
330
4C
100
AcDbEntity
  8
0
 62
     0
100
AcDbLine
 10
44.09859963283667
 20
26.42093010296962
 30
0.0
 11
44.32077356733167
 21
26.64310403746462
 31
0.0
  0
LINE
  5
713
330
4C
100
AcDbEntity
  8
0
 62
     0
100
AcDbLine
 10
43.91109963283668
 20
23.05144958763016
 30
0.0
 11
44.03609963283668
 21
23.17644958763016
 31
0.0
  0
LINE
  5
714
330
4C
100
AcDbEntity
  8
0
 62
     0
100
AcDbLine
 10
43.91109963283668
 20
22.52111950174025
 30
0.0
 11
44.03609963283668
 21
22.64611950174025
 31
0.0
  0
LINE
  5
715
330
4C
100
AcDbEntity
  8
0
 62
     0
100
AcDbLine
 10
43.91109963283668
 20
21.99078941585034
 30
0.0
 11
44.03609963283668
 21
22.11578941585034
 31
0.0
  0
LINE
  5
716
330
4C
100
AcDbEntity
  8
0
 62
     0
100
AcDbLine
 10
43.91109963283668
 20
21.46045932996043
 30
0.0
 11
44.03609963283668
 21
21.58545932996043
 31
0.0
  0
LINE
  5
717
330
4C
100
AcDbEntity
  8
0
 62
     0
100
AcDbLine
 10
44.09820027950406
 20
21.1172298907379
 30
0.0
 11
44.18658862715239
 21
21.20561823838622
 31
0.0
  0
LINE
  5
718
330
4C
100
AcDbEntity
  8
0
 62
     0
100
AcDbLine
 10
44.20223965924178
 20
20.69093918458571
 30
0.0
 11
44.31558101206136
 21
20.80428053740529
 31
0.0
  0
LINE
  5
719
330
4C
100
AcDbEntity
  8
0
 62
     0
100
AcDbLine
 10
43.91109963283668
 20
23.49339132602008
 30
0.0
 11
44.03609963283668
 21
23.61839132602007
 31
0.0
  0
LINE
  5
71A
330
4C
100
AcDbEntity
  8
0
 62
     0
100
AcDbLine
 10
43.91109963283668
 20
24.02372141190999
 30
0.0
 11
44.03609963283668
 21
24.14872141190998
 31
0.0
  0
LINE
  5
71B
330
4C
100
AcDbEntity
  8
0
 62
     0
100
AcDbLine
 10
43.91109963283668
 20
24.5540514977999
 30
0.0
 11
44.03609963283668
 21
24.67905149779989
 31
0.0
  0
LINE
  5
71C
330
4C
100
AcDbEntity
  8
0
 62
     0
100
AcDbLine
 10
43.91109963283668
 20
25.08438158368981
 30
0.0
 11
44.03609963283668
 21
25.20938158368981
 31
0.0
  0
LINE
  5
71D
330
4C
100
AcDbEntity
  8
0
 62
     0
100
AcDbLine
 10
43.91109963283668
 20
25.61471166957972
 30
0.0
 11
44.03609963283668
 21
25.73971166957971
 31
0.0
  0
LINE
  5
71E
330
4C
100
AcDbEntity
  8
0
 62
     0
100
AcDbLine
 10
44.09859963283667
 20
26.33254175546963
 30
0.0
 11
44.22359963283668
 21
26.45754175546962
 31
0.0
  0
LINE
  5
71F
330
4C
100
AcDbEntity
  8
0
 62
     0
100
AcDbLine
 10
44.29168126673073
 20
26.52562338936368
 30
0.0
 11
44.41236019017657
 21
26.64630231280951
 31
0.0
  0
LINE
  5
720
330
4C
100
AcDbEntity
  8
0
 62
     0
100
AcDbLine
 10
43.91109963283668
 20
22.96306124013017
 30
0.0
 11
44.03609963283668
 21
23.08806124013016
 31
0.0
  0
LINE
  5
721
330
4C
100
AcDbEntity
  8
0
 62
     0
100
AcDbLine
 10
43.91109963283668
 20
22.43273115424026
 30
0.0
 11
44.03609963283668
 21
22.55773115424025
 31
0.0
  0
LINE
  5
722
330
4C
100
AcDbEntity
  8
0
 62
     0
100
AcDbLine
 10
43.91109963283668
 20
21.90240106835034
 30
0.0
 11
44.03609963283668
 21
22.02740106835034
 31
0.0
  0
LINE
  5
723
330
4C
100
AcDbEntity
  8
0
 62
     0
100
AcDbLine
 10
43.91109963283668
 20
21.37207098246043
 30
0.0
 11
44.03609963283668
 21
21.49707098246043
 31
0.0
  0
LINE
  5
724
330
4C
100
AcDbEntity
  8
0
 62
     0
100
AcDbLine
 10
44.09859963283667
 20
21.02924089657052
 30
0.0
 11
44.22359963283668
 21
21.15424089657051
 31
0.0
  0
LINE
  5
725
330
4C
100
AcDbEntity
  8
0
 62
     0
100
AcDbLine
 10
44.28764556673305
 20
20.68795674457698
 30
0.0
 11
44.40396935956136
 21
20.80428053740529
 31
0.0
  0
ENDBLK
  5
726
330
4C
100
AcDbEntity
  8
0
100
AcDbBlockEnd
  0
BLOCK
  5
727
330
4D
100
AcDbEntity
  8
0
100
AcDbBlockBegin
  2
*D14
 70
     1
 10
0.0
 20
0.0
 30
0.0
  3
*D14
  1

  0
LINE
  5
728
330
4D
100
AcDbEntity
  8
0
  6
ByBlock
 62
     0
440
 16777216
100
AcDbLine
 10
33.19010144003063
 20
65.90173669205018
 30
0.0
 11
30.57302414088721
 21
65.90173669205018
 31
0.0
  0
LINE
  5
729
330
4D
100
AcDbEntity
  8
0
  6
ByBlock
 62
     0
440
 16777216
100
AcDbLine
 10
33.19010144003063
 20
70.62303954400857
 30
0.0
 11
30.57302414088721
 21
70.62303954400857
 31
0.0
  0
LINE
  5
72A
330
4D
100
AcDbEntity
  8
0
  6
ByBlock
 62
     0
440
 16777216
100
AcDbLine
 10
30.66677414088721
 20
66.08873669205017
 30
0.0
 11
30.66677414088721
 21
68.02638811802937
 31
0.0
  0
LINE
  5
72B
330
4D
100
AcDbEntity
  8
0
  6
ByBlock
 62
     0
440
 16777216
100
AcDbLine
 10
30.66677414088721
 20
70.43603954400857
 30
0.0
 11
30.66677414088721
 21
68.58888811802938
 31
0.0
  0
SOLID
  5
72C
330
4D
100
AcDbEntity
  8
0
  6
ByBlock
 62
     0
440
 16777216
100
AcDbTrace
 10
30.63560747422054
 20
66.08873669205017
 30
0.0
 11
30.69794080755388
 21
66.08873669205017
 31
0.0
 12
30.66677414088721
 22
65.90173669205018
 32
0.0
 13
30.66677414088721
 23
65.90173669205018
 33
0.0
  0
SOLID
  5
72D
330
4D
100
AcDbEntity
  8
0
  6
ByBlock
 62
     0
440
 16777216
100
AcDbTrace
 10
30.63560747422054
 20
70.43603954400857
 30
0.0
 11
30.69794080755388
 21
70.43603954400857
 31
0.0
 12
30.66677414088721
 22
70.62303954400857
 32
0.0
 13
30.66677414088721
 23
70.62303954400857
 33
0.0
  0
TEXT
  5
72E
330
4D
100
AcDbEntity
  8
0
  6
ByBlock
 62
     0
440
 16777216
100
AcDbText
 10
30.04177414088721
 20
68.21388811802937
 30
0.0
 40
0.1875
  1
4 23/32
 72
     1
 11
30.66677414088721
 21
68.30763811802937
 31
0.0
100
AcDbText
 73
     2
  0
POINT
  5
72F
330
4D
100
AcDbEntity
  8
DEFPOINTS
  6
ByBlock
 62
     0
440
 16777216
100
AcDbPoint
 10
33.37760144003063
 20
65.90173669205018
 30
0.0
  0
POINT
  5
730
330
4D
100
AcDbEntity
  8
DEFPOINTS
  6
ByBlock
 62
     0
440
 16777216
100
AcDbPoint
 10
33.37760144003063
 20
70.62303954400857
 30
0.0
  0
POINT
  5
731
330
4D
100
AcDbEntity
  8
DEFPOINTS
  6
ByBlock
 62
     0
440
 16777216
100
AcDbPoint
 10
30.66677414088721
 20
70.62303954400857
 30
0.0
  0
ENDBLK
  5
732
330
4D
100
AcDbEntity
  8
0
100
AcDbBlockEnd
  0
BLOCK
  5
733
330
4E
100
AcDbEntity
  8
0
100
AcDbBlockBegin
  2
*D15
 70
     1
 10
0.0
 20
0.0
 30
0.0
  3
*D15
  1

  0
LINE
  5
734
330
4E
100
AcDbEntity
  8
0
  6
ByBlock
 62
     0
440
 16777216
100
AcDbLine
 10
65.4173297361083
 20
55.68643779136912
 30
0.0
 11
65.4173297361083
 21
51.84377856677144
 31
0.0
  0
LINE
  5
735
330
4E
100
AcDbEntity
  8
0
  6
ByBlock
 62
     0
440
 16777216
100
AcDbLine
 10
62.38446024788213
 20
55.68643779136912
 30
0.0
 11
62.38446024788213
 21
51.84377856677144
 31
0.0
  0
LINE
  5
736
330
4E
100
AcDbEntity
  8
0
  6
ByBlock
 62
     0
440
 16777216
100
AcDbLine
 10
65.2303297361083
 20
51.93752856677145
 30
0.0
 11
64.57263513728884
 21
51.93752856677145
 31
0.0
  0
LINE
  5
737
330
4E
100
AcDbEntity
  8
0
  6
ByBlock
 62
     0
440
 16777216
100
AcDbLine
 10
62.57146024788213
 20
51.93752856677145
 30
0.0
 11
63.19763513728883
 21
51.93752856677145
 31
0.0
  0
SOLID
  5
738
330
4E
100
AcDbEntity
  8
0
  6
ByBlock
 62
     0
440
 16777216
100
AcDbTrace
 10
65.2303297361083
 20
51.96869523343811
 30
0.0
 11
65.2303297361083
 21
51.90636190010478
 31
0.0
 12
65.4173297361083
 22
51.93752856677145
 32
0.0
 13
65.4173297361083
 23
51.93752856677145
 33
0.0
  0
SOLID
  5
739
330
4E
100
AcDbEntity
  8
0
  6
ByBlock
 62
     0
440
 16777216
100
AcDbTrace
 10
62.57146024788213
 20
51.96869523343811
 30
0.0
 11
62.57146024788213
 21
51.90636190010478
 31
0.0
 12
62.38446024788213
 22
51.93752856677145
 32
0.0
 13
62.38446024788213
 23
51.93752856677145
 33
0.0
  0
TEXT
  5
73A
330
4E
100
AcDbEntity
  8
0
  6
ByBlock
 62
     0
440
 16777216
100
AcDbText
 10
63.38513513728884
 20
51.84377856677144
 30
0.0
 40
0.1875
  1
3 1/32
 72
     1
 11
63.88513513728883
 21
51.93752856677145
 31
0.0
100
AcDbText
 73
     2
  0
POINT
  5
73B
330
4E
100
AcDbEntity
  8
DEFPOINTS
  6
ByBlock
 62
     0
440
 16777216
100
AcDbPoint
 10
65.4173297361083
 20
55.87393779136911
 30
0.0
  0
POINT
  5
73C
330
4E
100
AcDbEntity
  8
DEFPOINTS
  6
ByBlock
 62
     0
440
 16777216
100
AcDbPoint
 10
62.38446024788213
 20
55.87393779136911
 30
0.0
  0
POINT
  5
73D
330
4E
100
AcDbEntity
  8
DEFPOINTS
  6
ByBlock
 62
     0
440
 16777216
100
AcDbPoint
 10
62.38446024788213
 20
51.93752856677145
 30
0.0
  0
ENDBLK
  5
73E
330
4E
100
AcDbEntity
  8
0
100
AcDbBlockEnd
  0
BLOCK
  5
73F
330
4F
100
AcDbEntity
  8
0
100
AcDbBlockBegin
  2
*D16
 70
     1
 10
0.0
 20
0.0
 30
0.0
  3
*D16
  1

  0
LINE
  5
740
330
4F
100
AcDbEntity
  8
0
  6
ByBlock
 62
     0
440
 16777216
100
AcDbLine
 10
62.88560831390664
 20
55.62502856677145
 30
0.0
 11
62.88560831390664
 21
54.34377856677144
 31
0.0
  0
LINE
  5
741
330
4F
100
AcDbEntity
  8
0
  6
ByBlock
 62
     0
440
 16777216
100
AcDbLine
 10
64.9161816700838
 20
55.62502856677145
 30
0.0
 11
64.9161816700838
 21
54.34377856677144
 31
0.0
  0
LINE
  5
742
330
4F
100
AcDbEntity
  8
0
  6
ByBlock
 62
     0
440
 16777216
100
AcDbLine
 10
63.07260831390664
 20
54.43752856677145
 30
0.0
 11
63.19763513728883
 21
54.43752856677145
 31
0.0
  0
LINE
  5
743
330
4F
100
AcDbEntity
  8
0
  6
ByBlock
 62
     0
440
 16777216
100
AcDbLine
 10
64.7291816700838
 20
54.43752856677145
 30
0.0
 11
64.57263513728882
 21
54.43752856677145
 31
0.0
  0
SOLID
  5
744
330
4F
100
AcDbEntity
  8
0
  6
ByBlock
 62
     0
440
 16777216
100
AcDbTrace
 10
63.07260831390664
 20
54.46869523343811
 30
0.0
 11
63.07260831390664
 21
54.40636190010478
 31
0.0
 12
62.88560831390664
 22
54.43752856677145
 32
0.0
 13
62.88560831390664
 23
54.43752856677145
 33
0.0
  0
SOLID
  5
745
330
4F
100
AcDbEntity
  8
0
  6
ByBlock
 62
     0
440
 16777216
100
AcDbTrace
 10
64.7291816700838
 20
54.46869523343811
 30
0.0
 11
64.7291816700838
 21
54.40636190010478
 31
0.0
 12
64.9161816700838
 22
54.43752856677145
 32
0.0
 13
64.9161816700838
 23
54.43752856677145
 33
0.0
  0
TEXT
  5
746
330
4F
100
AcDbEntity
  8
0
  6
ByBlock
 62
     0
440
 16777216
100
AcDbText
 10
63.38513513728884
 20
54.34377856677144
 30
0.0
 40
0.1875
  1
2 1/32
 72
     1
 11
63.88513513728883
 21
54.43752856677145
 31
0.0
100
AcDbText
 73
     2
  0
POINT
  5
747
330
4F
100
AcDbEntity
  8
DEFPOINTS
  6
ByBlock
 62
     0
440
 16777216
100
AcDbPoint
 10
62.88560831390664
 20
55.81252856677145
 30
0.0
  0
POINT
  5
748
330
4F
100
AcDbEntity
  8
DEFPOINTS
  6
ByBlock
 62
     0
440
 16777216
100
AcDbPoint
 10
64.9161816700838
 20
55.81252856677145
 30
0.0
  0
POINT
  5
749
330
4F
100
AcDbEntity
  8
DEFPOINTS
  6
ByBlock
 62
     0
440
 16777216
100
AcDbPoint
 10
64.9161816700838
 20
54.43752856677145
 30
0.0
  0
ENDBLK
  5
74A
330
4F
100
AcDbEntity
  8
0
100
AcDbBlockEnd
  0
BLOCK
  5
74B
330
50
100
AcDbEntity
  8
0
100
AcDbBlockBegin
  2
*D17
 70
     1
 10
0.0
 20
0.0
 30
0.0
  3
*D17
  1

  0
LINE
  5
74C
330
50
100
AcDbEntity
  8
0
  6
ByBlock
 62
     0
440
 16777216
100
AcDbLine
 10
65.54233925516102
 20
55.81252856677145
 30
0.0
 11
67.5571664179744
 21
55.81252856677145
 31
0.0
  0
LINE
  5
74D
330
50
100
AcDbEntity
  8
0
  6
ByBlock
 62
     0
440
 16777216
100
AcDbLine
 10
65.75266367600523
 20
58.43252856677145
 30
0.0
 11
67.5571664179744
 21
58.43252856677145
 31
0.0
  0
LINE
  5
74E
330
50
100
AcDbEntity
  8
0
  6
ByBlock
 62
     0
440
 16777216
100
AcDbLine
 10
67.4634164179744
 20
55.99952856677145
 30
0.0
 11
67.4634164179744
 21
56.84127856677145
 31
0.0
  0
LINE
  5
74F
330
50
100
AcDbEntity
  8
0
  6
ByBlock
 62
     0
440
 16777216
100
AcDbLine
 10
67.4634164179744
 20
58.24552856677145
 30
0.0
 11
67.4634164179744
 21
57.40377856677145
 31
0.0
  0
SOLID
  5
750
330
50
100
AcDbEntity
  8
0
  6
ByBlock
 62
     0
440
 16777216
100
AcDbTrace
 10
67.43224975130774
 20
55.99952856677145
 30
0.0
 11
67.49458308464106
 21
55.99952856677145
 31
0.0
 12
67.4634164179744
 22
55.81252856677145
 32
0.0
 13
67.4634164179744
 23
55.81252856677145
 33
0.0
  0
SOLID
  5
751
330
50
100
AcDbEntity
  8
0
  6
ByBlock
 62
     0
440
 16777216
100
AcDbTrace
 10
67.43224975130774
 20
58.24552856677145
 30
0.0
 11
67.49458308464106
 21
58.24552856677145
 31
0.0
 12
67.4634164179744
 22
58.43252856677145
 32
0.0
 13
67.4634164179744
 23
58.43252856677145
 33
0.0
  0
TEXT
  5
752
330
50
100
AcDbEntity
  8
0
  6
ByBlock
 62
     0
440
 16777216
100
AcDbText
 10
67.0259164179744
 20
57.02877856677145
 30
0.0
 40
0.1875
  1
2 5/8
 72
     1
 11
67.4634164179744
 21
57.12252856677145
 31
0.0
100
AcDbText
 73
     2
  0
POINT
  5
753
330
50
100
AcDbEntity
  8
DEFPOINTS
  6
ByBlock
 62
     0
440
 16777216
100
AcDbPoint
 10
65.35483925516103
 20
55.81252856677145
 30
0.0
  0
POINT
  5
754
330
50
100
AcDbEntity
  8
DEFPOINTS
  6
ByBlock
 62
     0
440
 16777216
100
AcDbPoint
 10
65.56516367600522
 20
58.43252856677145
 30
0.0
  0
POINT
  5
755
330
50
100
AcDbEntity
  8
DEFPOINTS
  6
ByBlock
 62
     0
440
 16777216
100
AcDbPoint
 10
67.4634164179744
 20
58.43252856677145
 30
0.0
  0
ENDBLK
  5
756
330
50
100
AcDbEntity
  8
0
100
AcDbBlockEnd
  0
BLOCK
  5
757
330
51
100
AcDbEntity
  8
0
100
AcDbBlockBegin
  2
*D18
 70
     1
 10
0.0
 20
0.0
 30
0.0
  3
*D18
  1

  0
LINE
  5
758
330
51
100
AcDbEntity
  8
0
  6
ByBlock
 62
     0
440
 16777216
100
AcDbLine
 10
62.83987604379471
 20
58.62002856677143
 30
0.0
 11
62.83987604379471
 21
60.15127856677144
 31
0.0
  0
LINE
  5
759
330
51
100
AcDbEntity
  8
0
  6
ByBlock
 62
     0
440
 16777216
100
AcDbLine
 10
64.96191394019574
 20
58.62002856677144
 30
0.0
 11
64.96191394019574
 21
60.15127856677144
 31
0.0
  0
LINE
  5
75A
330
51
100
AcDbEntity
  8
0
  6
ByBlock
 62
     0
440
 16777216
100
AcDbLine
 10
63.02687604379471
 20
60.05752856677144
 30
0.0
 11
63.37469499199523
 21
60.05752856677144
 31
0.0
  0
LINE
  5
75B
330
51
100
AcDbEntity
  8
0
  6
ByBlock
 62
     0
440
 16777216
100
AcDbLine
 10
64.77491394019574
 20
60.05752856677144
 30
0.0
 11
64.56219499199523
 21
60.05752856677144
 31
0.0
  0
SOLID
  5
75C
330
51
100
AcDbEntity
  8
0
  6
ByBlock
 62
     0
440
 16777216
100
AcDbTrace
 10
63.02687604379471
 20
60.0886952334381
 30
0.0
 11
63.02687604379471
 21
60.02636190010477
 31
0.0
 12
62.83987604379471
 22
60.05752856677144
 32
0.0
 13
62.83987604379471
 23
60.05752856677144
 33
0.0
  0
SOLID
  5
75D
330
51
100
AcDbEntity
  8
0
  6
ByBlock
 62
     0
440
 16777216
100
AcDbTrace
 10
64.77491394019574
 20
60.0886952334381
 30
0.0
 11
64.77491394019574
 21
60.02636190010477
 31
0.0
 12
64.96191394019574
 22
60.05752856677144
 32
0.0
 13
64.96191394019574
 23
60.05752856677144
 33
0.0
  0
TEXT
  5
75E
330
51
100
AcDbEntity
  8
0
  6
ByBlock
 62
     0
440
 16777216
100
AcDbText
 10
63.56219499199522
 20
59.96377856677144
 30
0.0
 40
0.1875
  1
2 1/8
 72
     1
 11
63.96844499199523
 21
60.05752856677144
 31
0.0
100
AcDbText
 73
     2
  0
POINT
  5
75F
330
51
100
AcDbEntity
  8
DEFPOINTS
  6
ByBlock
 62
     0
440
 16777216
100
AcDbPoint
 10
62.83987604379471
 20
58.43252856677144
 30
0.0
  0
POINT
  5
760
330
51
100
AcDbEntity
  8
DEFPOINTS
  6
ByBlock
 62
     0
440
 16777216
100
AcDbPoint
 10
64.96191394019574
 20
58.43252856677144
 30
0.0
  0
POINT
  5
761
330
51
100
AcDbEntity
  8
DEFPOINTS
  6
ByBlock
 62
     0
440
 16777216
100
AcDbPoint
 10
64.96191394019574
 20
60.05752856677144
 30
0.0
  0
ENDBLK
  5
762
330
51
100
AcDbEntity
  8
0
100
AcDbBlockEnd
  0
BLOCK
  5
763
330
52
100
AcDbEntity
  8
0
100
AcDbBlockBegin
  2
*D19
 70
     1
 10
0.0
 20
0.0
 30
0.0
  3
*D19
  1

  0
LINE
  5
764
330
52
100
AcDbEntity
  8
0
  6
ByBlock
 62
     0
440
 16777216
100
AcDbLine
 10
62.33979987977277
 20
58.62002856677143
 30
0.0
 11
62.33979987977277
 21
61.1074590528188
 31
0.0
  0
LINE
  5
765
330
52
100
AcDbEntity
  8
0
  6
ByBlock
 62
     0
440
 16777216
100
AcDbLine
 10
65.46199010421766
 20
58.62002856677145
 30
0.0
 11
65.46199010421766
 21
61.1074590528188
 31
0.0
  0
LINE
  5
766
330
52
100
AcDbEntity
  8
0
  6
ByBlock
 62
     0
440
 16777216
100
AcDbLine
 10
62.52679987977277
 20
61.01370905281879
 30
0.0
 11
63.37469499199521
 21
61.01370905281879
 31
0.0
  0
LINE
  5
767
330
52
100
AcDbEntity
  8
0
  6
ByBlock
 62
     0
440
 16777216
100
AcDbLine
 10
65.27499010421767
 20
61.01370905281879
 30
0.0
 11
64.56219499199521
 21
61.01370905281879
 31
0.0
  0
SOLID
  5
768
330
52
100
AcDbEntity
  8
0
  6
ByBlock
 62
     0
440
 16777216
100
AcDbTrace
 10
62.52679987977277
 20
61.04487571948546
 30
0.0
 11
62.52679987977277
 21
60.98254238615213
 31
0.0
 12
62.33979987977277
 22
61.01370905281879
 32
0.0
 13
62.33979987977277
 23
61.01370905281879
 33
0.0
  0
SOLID
  5
769
330
52
100
AcDbEntity
  8
0
  6
ByBlock
 62
     0
440
 16777216
100
AcDbTrace
 10
65.27499010421767
 20
61.04487571948546
 30
0.0
 11
65.27499010421767
 21
60.98254238615213
 31
0.0
 12
65.46199010421766
 22
61.01370905281879
 32
0.0
 13
65.46199010421766
 23
61.01370905281879
 33
0.0
  0
TEXT
  5
76A
330
52
100
AcDbEntity
  8
0
  6
ByBlock
 62
     0
440
 16777216
100
AcDbText
 10
63.56219499199522
 20
60.9199590528188
 30
0.0
 40
0.1875
  1
3 1/8
 72
     1
 11
63.96844499199521
 21
61.01370905281879
 31
0.0
100
AcDbText
 73
     2
  0
POINT
  5
76B
330
52
100
AcDbEntity
  8
DEFPOINTS
  6
ByBlock
 62
     0
440
 16777216
100
AcDbPoint
 10
62.33979987977277
 20
58.43252856677144
 30
0.0
  0
POINT
  5
76C
330
52
100
AcDbEntity
  8
DEFPOINTS
  6
ByBlock
 62
     0
440
 16777216
100
AcDbPoint
 10
65.46199010421766
 20
58.43252856677145
 30
0.0
  0
POINT
  5
76D
330
52
100
AcDbEntity
  8
DEFPOINTS
  6
ByBlock
 62
     0
440
 16777216
100
AcDbPoint
 10
65.46199010421766
 20
61.01370905281879
 30
0.0
  0
ENDBLK
  5
76E
330
52
100
AcDbEntity
  8
0
100
AcDbBlockEnd
  0
BLOCK
  5
76F
330
53
100
AcDbEntity
  8
0
100
AcDbBlockBegin
  2
*D20
 70
     1
 10
0.0
 20
0.0
 30
0.0
  3
*D20
  1

  0
LINE
  5
770
330
53
100
AcDbEntity
  8
0
  6
ByBlock
 62
     0
440
 16777216
100
AcDbLine
 10
62.52589499199522
 20
55.50002856677144
 30
0.0
 11
62.52589499199522
 21
53.09377856677144
 31
0.0
  0
LINE
  5
771
330
53
100
AcDbEntity
  8
0
  6
ByBlock
 62
     0
440
 16777216
100
AcDbLine
 10
65.27589499199521
 20
55.50002856677144
 30
0.0
 11
65.27589499199521
 21
53.09377856677144
 31
0.0
  0
LINE
  5
772
330
53
100
AcDbEntity
  8
0
  6
ByBlock
 62
     0
440
 16777216
100
AcDbLine
 10
62.71289499199522
 20
53.18752856677145
 30
0.0
 11
63.46258513728883
 21
53.18752856677145
 31
0.0
  0
LINE
  5
773
330
53
100
AcDbEntity
  8
0
  6
ByBlock
 62
     0
440
 16777216
100
AcDbLine
 10
65.08889499199522
 20
53.18752856677145
 30
0.0
 11
64.71258513728883
 21
53.18752856677145
 31
0.0
  0
SOLID
  5
774
330
53
100
AcDbEntity
  8
0
  6
ByBlock
 62
     0
440
 16777216
100
AcDbTrace
 10
62.71289499199522
 20
53.21869523343811
 30
0.0
 11
62.71289499199522
 21
53.15636190010478
 31
0.0
 12
62.52589499199522
 22
53.18752856677145
 32
0.0
 13
62.52589499199522
 23
53.18752856677145
 33
0.0
  0
SOLID
  5
775
330
53
100
AcDbEntity
  8
0
  6
ByBlock
 62
     0
440
 16777216
100
AcDbTrace
 10
65.08889499199522
 20
53.21869523343811
 30
0.0
 11
65.08889499199522
 21
53.15636190010478
 31
0.0
 12
65.27589499199521
 22
53.18752856677145
 32
0.0
 13
65.27589499199521
 23
53.18752856677145
 33
0.0
  0
TEXT
  5
776
330
53
100
AcDbEntity
  8
0
  6
ByBlock
 62
     0
440
 16777216
100
AcDbText
 10
63.65008513728882
 20
53.09377856677144
 30
0.0
 40
0.1875
  1
2 3/4
 72
     1
 11
64.08758513728883
 21
53.18752856677145
 31
0.0
100
AcDbText
 73
     2
  0
POINT
  5
777
330
53
100
AcDbEntity
  8
DEFPOINTS
  6
ByBlock
 62
     0
440
 16777216
100
AcDbPoint
 10
62.52589499199522
 20
55.68752856677144
 30
0.0
  0
POINT
  5
778
330
53
100
AcDbEntity
  8
DEFPOINTS
  6
ByBlock
 62
     0
440
 16777216
100
AcDbPoint
 10
65.27589499199521
 20
55.68752856677144
 30
0.0
  0
POINT
  5
779
330
53
100
AcDbEntity
  8
DEFPOINTS
  6
ByBlock
 62
     0
440
 16777216
100
AcDbPoint
 10
65.27589499199521
 20
53.18752856677145
 30
0.0
  0
ENDBLK
  5
77A
330
53
100
AcDbEntity
  8
0
100
AcDbBlockEnd
  0
BLOCK
  5
77B
330
54
100
AcDbEntity
  8
0
100
AcDbBlockBegin
  2
*D21
 70
     1
 10
0.0
 20
0.0
 30
0.0
  3
*D21
  1

  0
LINE
  5
77C
330
54
100
AcDbEntity
  8
0
  6
ByBlock
 62
     0
440
 16777216
100
AcDbLine
 10
65.58229293034393
 20
70.95194286214244
 30
0.0
 11
70.92523323055193
 21
70.95194286214244
 31
0.0
  0
LINE
  5
77D
330
54
100
AcDbEntity
  8
0
  6
ByBlock
 62
     0
440
 16777216
100
AcDbLine
 10
65.5822929303439
 20
65.57277337391631
 30
0.0
 11
70.92523323055193
 21
65.57277337391631
 31
0.0
  0
LINE
  5
77E
330
54
100
AcDbEntity
  8
0
  6
ByBlock
 62
     0
440
 16777216
100
AcDbLine
 10
70.83148323055192
 20
70.76494286214245
 30
0.0
 11
70.83148323055192
 21
68.7050837678205
 31
0.0
  0
LINE
  5
77F
330
54
100
AcDbEntity
  8
0
  6
ByBlock
 62
     0
440
 16777216
100
AcDbLine
 10
70.83148323055192
 20
65.75977337391631
 30
0.0
 11
70.83148323055192
 21
68.14258376782049
 31
0.0
  0
SOLID
  5
780
330
54
100
AcDbEntity
  8
0
  6
ByBlock
 62
     0
440
 16777216
100
AcDbTrace
 10
70.80031656388526
 20
70.76494286214245
 30
0.0
 11
70.86264989721859
 21
70.76494286214245
 31
0.0
 12
70.83148323055192
 22
70.95194286214244
 32
0.0
 13
70.83148323055192
 23
70.95194286214244
 33
0.0
  0
SOLID
  5
781
330
54
100
AcDbEntity
  8
0
  6
ByBlock
 62
     0
440
 16777216
100
AcDbTrace
 10
70.80031656388526
 20
65.75977337391631
 30
0.0
 11
70.86264989721859
 21
65.75977337391631
 31
0.0
 12
70.83148323055192
 22
65.57277337391631
 32
0.0
 13
70.83148323055192
 23
65.57277337391631
 33
0.0
  0
TEXT
  5
782
330
54
100
AcDbEntity
  8
0
  6
ByBlock
 62
     0
440
 16777216
100
AcDbText
 10
70.39398323055192
 20
68.3300837678205
 30
0.0
 40
0.1875
  1
5 3/8
 72
     1
 11
70.83148323055192
 21
68.42383376782049
 31
0.0
100
AcDbText
 73
     2
  0
POINT
  5
783
330
54
100
AcDbEntity
  8
DEFPOINTS
  6
ByBlock
 62
     0
440
 16777216
100
AcDbPoint
 10
65.39479293034393
 20
70.95194286214244
 30
0.0
  0
POINT
  5
784
330
54
100
AcDbEntity
  8
DEFPOINTS
  6
ByBlock
 62
     0
440
 16777216
100
AcDbPoint
 10
65.39479293034389
 20
65.57277337391631
 30
0.0
  0
POINT
  5
785
330
54
100
AcDbEntity
  8
DEFPOINTS
  6
ByBlock
 62
     0
440
 16777216
100
AcDbPoint
 10
70.83148323055192
 20
65.57277337391631
 30
0.0
  0
ENDBLK
  5
786
330
54
100
AcDbEntity
  8
0
100
AcDbBlockEnd
  0
BLOCK
  5
787
330
55
100
AcDbEntity
  8
0
100
AcDbBlockBegin
  2
*D22
 70
     1
 10
0.0
 20
0.0
 30
0.0
  3
*D22
  1

  0
LINE
  5
788
330
55
100
AcDbEntity
  8
0
  6
ByBlock
 62
     0
440
 16777216
100
AcDbLine
 10
65.64370215494159
 20
66.340819911362
 30
0.0
 11
67.42523323055192
 21
66.340819911362
 31
0.0
  0
LINE
  5
789
330
55
100
AcDbEntity
  8
0
  6
ByBlock
 62
     0
440
 16777216
100
AcDbLine
 10
65.64370215494159
 20
70.18389632469673
 30
0.0
 11
67.42523323055192
 21
70.18389632469673
 31
0.0
  0
LINE
  5
78A
330
55
100
AcDbEntity
  8
0
  6
ByBlock
 62
     0
440
 16777216
100
AcDbLine
 10
67.33148323055193
 20
66.527819911362
 30
0.0
 11
67.33148323055193
 21
68.03905811802938
 31
0.0
  0
LINE
  5
78B
330
55
100
AcDbEntity
  8
0
  6
ByBlock
 62
     0
440
 16777216
100
AcDbLine
 10
67.33148323055193
 20
69.99689632469674
 30
0.0
 11
67.33148323055193
 21
68.60155811802937
 31
0.0
  0
SOLID
  5
78C
330
55
100
AcDbEntity
  8
0
  6
ByBlock
 62
     0
440
 16777216
100
AcDbTrace
 10
67.30031656388526
 20
66.527819911362
 30
0.0
 11
67.36264989721859
 21
66.527819911362
 31
0.0
 12
67.33148323055193
 22
66.340819911362
 32
0.0
 13
67.33148323055193
 23
66.340819911362
 33
0.0
  0
SOLID
  5
78D
330
55
100
AcDbEntity
  8
0
  6
ByBlock
 62
     0
440
 16777216
100
AcDbTrace
 10
67.30031656388526
 20
69.99689632469674
 30
0.0
 11
67.36264989721859
 21
69.99689632469674
 31
0.0
 12
67.33148323055193
 22
70.18389632469673
 32
0.0
 13
67.33148323055193
 23
70.18389632469673
 33
0.0
  0
TEXT
  5
78E
330
55
100
AcDbEntity
  8
0
  6
ByBlock
 62
     0
440
 16777216
100
AcDbText
 10
66.70648323055193
 20
68.22655811802937
 30
0.0
 40
0.1875
  1
3 27/32
 72
     1
 11
67.33148323055193
 21
68.32030811802937
 31
0.0
100
AcDbText
 73
     2
  0
POINT
  5
78F
330
55
100
AcDbEntity
  8
DEFPOINTS
  6
ByBlock
 62
     0
440
 16777216
100
AcDbPoint
 10
65.45620215494159
 20
66.340819911362
 30
0.0
  0
POINT
  5
790
330
55
100
AcDbEntity
  8
DEFPOINTS
  6
ByBlock
 62
     0
440
 16777216
100
AcDbPoint
 10
65.45620215494159
 20
70.18389632469673
 30
0.0
  0
POINT
  5
791
330
55
100
AcDbEntity
  8
DEFPOINTS
  6
ByBlock
 62
     0
440
 16777216
100
AcDbPoint
 10
67.33148323055193
 20
70.18389632469673
 30
0.0
  0
ENDBLK
  5
792
330
55
100
AcDbEntity
  8
0
100
AcDbBlockEnd
  0
BLOCK
  5
793
330
56
100
AcDbEntity
  8
0
100
AcDbBlockBegin
  2
*D23
 70
     1
 10
0.0
 20
0.0
 30
0.0
  3
*D23
  1

  0
LINE
  5
794
330
56
100
AcDbEntity
  8
0
  6
ByBlock
 62
     0
440
 16777216
100
AcDbLine
 10
62.64870215494159
 20
66.29508764125008
 30
0.0
 11
60.60245215494159
 21
66.29508764125008
 31
0.0
  0
LINE
  5
795
330
56
100
AcDbEntity
  8
0
  6
ByBlock
 62
     0
440
 16777216
100
AcDbLine
 10
62.64870215494159
 20
70.22962859480866
 30
0.0
 11
60.60245215494159
 21
70.22962859480866
 31
0.0
  0
LINE
  5
796
330
56
100
AcDbEntity
  8
0
  6
ByBlock
 62
     0
440
 16777216
100
AcDbLine
 10
60.69620215494158
 20
66.48208764125008
 30
0.0
 11
60.69620215494158
 21
68.03905811802938
 31
0.0
  0
LINE
  5
797
330
56
100
AcDbEntity
  8
0
  6
ByBlock
 62
     0
440
 16777216
100
AcDbLine
 10
60.69620215494158
 20
70.04262859480866
 30
0.0
 11
60.69620215494158
 21
68.60155811802937
 31
0.0
  0
SOLID
  5
798
330
56
100
AcDbEntity
  8
0
  6
ByBlock
 62
     0
440
 16777216
100
AcDbTrace
 10
60.66503548827492
 20
66.48208764125008
 30
0.0
 11
60.72736882160825
 21
66.48208764125008
 31
0.0
 12
60.69620215494158
 22
66.29508764125008
 32
0.0
 13
60.69620215494158
 23
66.29508764125008
 33
0.0
  0
SOLID
  5
799
330
56
100
AcDbEntity
  8
0
  6
ByBlock
 62
     0
440
 16777216
100
AcDbTrace
 10
60.66503548827492
 20
70.04262859480866
 30
0.0
 11
60.72736882160825
 21
70.04262859480866
 31
0.0
 12
60.69620215494158
 22
70.22962859480866
 32
0.0
 13
60.69620215494158
 23
70.22962859480866
 33
0.0
  0
TEXT
  5
79A
330
56
100
AcDbEntity
  8
0
  6
ByBlock
 62
     0
440
 16777216
100
AcDbText
 10
60.13370215494159
 20
68.22655811802937
 30
0.0
 40
0.1875
  1
3 15/16
 72
     1
 11
60.69620215494158
 21
68.32030811802937
 31
0.0
100
AcDbText
 73
     2
  0
POINT
  5
79B
330
56
100
AcDbEntity
  8
DEFPOINTS
  6
ByBlock
 62
     0
440
 16777216
100
AcDbPoint
 10
62.83620215494159
 20
66.29508764125008
 30
0.0
  0
POINT
  5
79C
330
56
100
AcDbEntity
  8
DEFPOINTS
  6
ByBlock
 62
     0
440
 16777216
100
AcDbPoint
 10
62.83620215494159
 20
70.22962859480866
 30
0.0
  0
POINT
  5
79D
330
56
100
AcDbEntity
  8
DEFPOINTS
  6
ByBlock
 62
     0
440
 16777216
100
AcDbPoint
 10
60.69620215494158
 20
70.22962859480866
 30
0.0
  0
ENDBLK
  5
79E
330
56
100
AcDbEntity
  8
0
100
AcDbBlockEnd
  0
BLOCK
  5
79F
330
57
100
AcDbEntity
  8
0
100
AcDbBlockBegin
  2
*D24
 70
     1
 10
0.0
 20
0.0
 30
0.0
  3
*D24
  1

  0
LINE
  5
7A0
330
57
100
AcDbEntity
  8
0
  6
ByBlock
 62
     0
440
 16777216
100
AcDbLine
 10
62.64870215494159
 20
65.52811300580692
 30
0.0
 11
58.85245215494158
 21
65.52811300580692
 31
0.0
  0
LINE
  5
7A1
330
57
100
AcDbEntity
  8
0
  6
ByBlock
 62
     0
440
 16777216
100
AcDbLine
 10
62.64870215494159
 20
70.99660323025183
 30
0.0
 11
58.85245215494158
 21
70.99660323025183
 31
0.0
  0
LINE
  5
7A2
330
57
100
AcDbEntity
  8
0
  6
ByBlock
 62
     0
440
 16777216
100
AcDbLine
 10
58.94620215494159
 20
65.71511300580691
 30
0.0
 11
58.94620215494159
 21
68.03905811802938
 31
0.0
  0
LINE
  5
7A3
330
57
100
AcDbEntity
  8
0
  6
ByBlock
 62
     0
440
 16777216
100
AcDbLine
 10
58.94620215494159
 20
70.80960323025184
 30
0.0
 11
58.94620215494159
 21
68.60155811802939
 31
0.0
  0
SOLID
  5
7A4
330
57
100
AcDbEntity
  8
0
  6
ByBlock
 62
     0
440
 16777216
100
AcDbTrace
 10
58.91503548827492
 20
65.71511300580691
 30
0.0
 11
58.97736882160825
 21
65.71511300580691
 31
0.0
 12
58.94620215494159
 22
65.52811300580692
 32
0.0
 13
58.94620215494159
 23
65.52811300580692
 33
0.0
  0
SOLID
  5
7A5
330
57
100
AcDbEntity
  8
0
  6
ByBlock
 62
     0
440
 16777216
100
AcDbTrace
 10
58.91503548827492
 20
70.80960323025184
 30
0.0
 11
58.97736882160825
 21
70.80960323025184
 31
0.0
 12
58.94620215494159
 22
70.99660323025183
 32
0.0
 13
58.94620215494159
 23
70.99660323025183
 33
0.0
  0
TEXT
  5
7A6
330
57
100
AcDbEntity
  8
0
  6
ByBlock
 62
     0
440
 16777216
100
AcDbText
 10
58.35245215494158
 20
68.22655811802938
 30
0.0
 40
0.1875
  1
5 15/32
 72
     1
 11
58.94620215494159
 21
68.32030811802939
 31
0.0
100
AcDbText
 73
     2
  0
POINT
  5
7A7
330
57
100
AcDbEntity
  8
DEFPOINTS
  6
ByBlock
 62
     0
440
 16777216
100
AcDbPoint
 10
62.83620215494159
 20
65.52811300580692
 30
0.0
  0
POINT
  5
7A8
330
57
100
AcDbEntity
  8
DEFPOINTS
  6
ByBlock
 62
     0
440
 16777216
100
AcDbPoint
 10
62.83620215494159
 20
70.99660323025183
 30
0.0
  0
POINT
  5
7A9
330
57
100
AcDbEntity
  8
DEFPOINTS
  6
ByBlock
 62
     0
440
 16777216
100
AcDbPoint
 10
58.94620215494159
 20
70.99660323025183
 30
0.0
  0
ENDBLK
  5
7AA
330
57
100
AcDbEntity
  8
0
100
AcDbBlockEnd
  0
BLOCK
  5
7AB
330
58
100
AcDbEntity
  8
0
100
AcDbBlockBegin
  2
*D25
 70
     1
 10
0.0
 20
0.0
 30
0.0
  3
*D25
  1

  0
LINE
  5
7AC
330
58
100
AcDbEntity
  8
0
  6
ByBlock
 62
     0
440
 16777216
100
AcDbLine
 10
65.76870215494159
 20
65.98110811802938
 30
0.0
 11
69.17523323055192
 21
65.98110811802938
 31
0.0
  0
LINE
  5
7AD
330
58
100
AcDbEntity
  8
0
  6
ByBlock
 62
     0
440
 16777216
100
AcDbLine
 10
65.76870215494159
 20
70.54360811802936
 30
0.0
 11
69.17523323055192
 21
70.54360811802936
 31
0.0
  0
LINE
  5
7AE
330
58
100
AcDbEntity
  8
0
  6
ByBlock
 62
     0
440
 16777216
100
AcDbLine
 10
69.08148323055192
 20
66.16810811802938
 30
0.0
 11
69.08148323055192
 21
68.03905811802938
 31
0.0
  0
LINE
  5
7AF
330
58
100
AcDbEntity
  8
0
  6
ByBlock
 62
     0
440
 16777216
100
AcDbLine
 10
69.08148323055192
 20
70.35660811802937
 30
0.0
 11
69.08148323055192
 21
68.60155811802939
 31
0.0
  0
SOLID
  5
7B0
330
58
100
AcDbEntity
  8
0
  6
ByBlock
 62
     0
440
 16777216
100
AcDbTrace
 10
69.05031656388526
 20
66.16810811802938
 30
0.0
 11
69.11264989721859
 21
66.16810811802938
 31
0.0
 12
69.08148323055192
 22
65.98110811802938
 32
0.0
 13
69.08148323055192
 23
65.98110811802938
 33
0.0
  0
SOLID
  5
7B1
330
58
100
AcDbEntity
  8
0
  6
ByBlock
 62
     0
440
 16777216
100
AcDbTrace
 10
69.05031656388526
 20
70.35660811802937
 30
0.0
 11
69.11264989721859
 21
70.35660811802937
 31
0.0
 12
69.08148323055192
 22
70.54360811802936
 32
0.0
 13
69.08148323055192
 23
70.54360811802936
 33
0.0
  0
TEXT
  5
7B2
330
58
100
AcDbEntity
  8
0
  6
ByBlock
 62
     0
440
 16777216
100
AcDbText
 10
68.58148323055193
 20
68.22655811802938
 30
0.0
 40
0.1875
  1
4 9/16
 72
     1
 11
69.08148323055192
 21
68.32030811802939
 31
0.0
100
AcDbText
 73
     2
  0
POINT
  5
7B3
330
58
100
AcDbEntity
  8
DEFPOINTS
  6
ByBlock
 62
     0
440
 16777216
100
AcDbPoint
 10
65.5812021549416
 20
65.98110811802938
 30
0.0
  0
POINT
  5
7B4
330
58
100
AcDbEntity
  8
DEFPOINTS
  6
ByBlock
 62
     0
440
 16777216
100
AcDbPoint
 10
65.5812021549416
 20
70.54360811802936
 30
0.0
  0
POINT
  5
7B5
330
58
100
AcDbEntity
  8
DEFPOINTS
  6
ByBlock
 62
     0
440
 16777216
100
AcDbPoint
 10
69.08148323055192
 20
70.54360811802936
 30
0.0
  0
ENDBLK
  5
7B6
330
58
100
AcDbEntity
  8
0
100
AcDbBlockEnd
  0
BLOCK
  5
7B7
330
59
100
AcDbEntity
  8
0
100
AcDbBlockBegin
  2
*D26
 70
     1
 10
0.0
 20
0.0
 30
0.0
  3
*D26
  1

  0
LINE
  5
7B8
330
59
100
AcDbEntity
  8
0
  6
ByBlock
 62
     0
440
 16777216
100
AcDbLine
 10
36.3003221291756
 20
55.68752856677145
 30
0.0
 11
39.97139929198899
 21
55.68752856677145
 31
0.0
  0
LINE
  5
7B9
330
59
100
AcDbEntity
  8
0
  6
ByBlock
 62
     0
440
 16777216
100
AcDbLine
 10
35.90889929198898
 20
58.82252856677144
 30
0.0
 11
39.97139929198899
 21
58.82252856677144
 31
0.0
  0
LINE
  5
7BA
330
59
100
AcDbEntity
  8
0
  6
ByBlock
 62
     0
440
 16777216
100
AcDbLine
 10
39.87764929198899
 20
55.87452856677145
 30
0.0
 11
39.87764929198899
 21
56.97377856677144
 31
0.0
  0
LINE
  5
7BB
330
59
100
AcDbEntity
  8
0
  6
ByBlock
 62
     0
440
 16777216
100
AcDbLine
 10
39.87764929198899
 20
58.63552856677144
 30
0.0
 11
39.87764929198899
 21
57.53627856677145
 31
0.0
  0
SOLID
  5
7BC
330
59
100
AcDbEntity
  8
0
  6
ByBlock
 62
     0
440
 16777216
100
AcDbTrace
 10
39.84648262532232
 20
55.87452856677145
 30
0.0
 11
39.90881595865565
 21
55.87452856677145
 31
0.0
 12
39.87764929198899
 22
55.68752856677145
 32
0.0
 13
39.87764929198899
 23
55.68752856677145
 33
0.0
  0
SOLID
  5
7BD
330
59
100
AcDbEntity
  8
0
  6
ByBlock
 62
     0
440
 16777216
100
AcDbTrace
 10
39.84648262532232
 20
58.63552856677144
 30
0.0
 11
39.90881595865565
 21
58.63552856677144
 31
0.0
 12
39.87764929198899
 22
58.82252856677144
 32
0.0
 13
39.87764929198899
 23
58.82252856677144
 33
0.0
  0
TEXT
  5
7BE
330
59
100
AcDbEntity
  8
0
  6
ByBlock
 62
     0
440
 16777216
100
AcDbText
 10
39.47139929198899
 20
57.16127856677144
 30
0.0
 40
0.1875
  1
3 1/8
 72
     1
 11
39.87764929198899
 21
57.25502856677144
 31
0.0
100
AcDbText
 73
     2
  0
POINT
  5
7BF
330
59
100
AcDbEntity
  8
DEFPOINTS
  6
ByBlock
 62
     0
440
 16777216
100
AcDbPoint
 10
36.1128221291756
 20
55.68752856677145
 30
0.0
  0
POINT
  5
7C0
330
59
100
AcDbEntity
  8
DEFPOINTS
  6
ByBlock
 62
     0
440
 16777216
100
AcDbPoint
 10
35.72139929198898
 20
58.82252856677144
 30
0.0
  0
POINT
  5
7C1
330
59
100
AcDbEntity
  8
DEFPOINTS
  6
ByBlock
 62
     0
440
 16777216
100
AcDbPoint
 10
39.87764929198899
 20
58.82252856677144
 30
0.0
  0
ENDBLK
  5
7C2
330
59
100
AcDbEntity
  8
0
100
AcDbBlockEnd
  0
BLOCK
  5
7C3
330
5A
100
AcDbEntity
  8
0
100
AcDbBlockBegin
  2
*D27
 70
     1
 10
0.0
 20
0.0
 30
0.0
  3
*D27
  1

  0
LINE
  5
7C4
330
5A
100
AcDbEntity
  8
0
  6
ByBlock
 62
     0
440
 16777216
100
AcDbLine
 10
36.2065721291756
 20
55.68752856677145
 30
0.0
 11
38.22139929198898
 21
55.68752856677145
 31
0.0
  0
LINE
  5
7C5
330
5A
100
AcDbEntity
  8
0
  6
ByBlock
 62
     0
440
 16777216
100
AcDbLine
 10
36.4895159069109
 20
58.63502856677144
 30
0.0
 11
38.22139929198898
 21
58.63502856677144
 31
0.0
  0
LINE
  5
7C6
330
5A
100
AcDbEntity
  8
0
  6
ByBlock
 62
     0
440
 16777216
100
AcDbLine
 10
38.12764929198898
 20
55.87452856677145
 30
0.0
 11
38.12764929198898
 21
56.88002856677144
 31
0.0
  0
LINE
  5
7C7
330
5A
100
AcDbEntity
  8
0
  6
ByBlock
 62
     0
440
 16777216
100
AcDbLine
 10
38.12764929198898
 20
58.44802856677144
 30
0.0
 11
38.12764929198898
 21
57.44252856677144
 31
0.0
  0
SOLID
  5
7C8
330
5A
100
AcDbEntity
  8
0
  6
ByBlock
 62
     0
440
 16777216
100
AcDbTrace
 10
38.09648262532232
 20
55.87452856677145
 30
0.0
 11
38.15881595865564
 21
55.87452856677145
 31
0.0
 12
38.12764929198898
 22
55.68752856677145
 32
0.0
 13
38.12764929198898
 23
55.68752856677145
 33
0.0
  0
SOLID
  5
7C9
330
5A
100
AcDbEntity
  8
0
  6
ByBlock
 62
     0
440
 16777216
100
AcDbTrace
 10
38.09648262532232
 20
58.44802856677144
 30
0.0
 11
38.15881595865564
 21
58.44802856677144
 31
0.0
 12
38.12764929198898
 22
58.63502856677144
 32
0.0
 13
38.12764929198898
 23
58.63502856677144
 33
0.0
  0
TEXT
  5
7CA
330
5A
100
AcDbEntity
  8
0
  6
ByBlock
 62
     0
440
 16777216
100
AcDbText
 10
37.56514929198898
 20
57.06752856677145
 30
0.0
 40
0.1875
  1
2 15/16
 72
     1
 11
38.12764929198898
 21
57.16127856677144
 31
0.0
100
AcDbText
 73
     2
  0
POINT
  5
7CB
330
5A
100
AcDbEntity
  8
DEFPOINTS
  6
ByBlock
 62
     0
440
 16777216
100
AcDbPoint
 10
36.0190721291756
 20
55.68752856677145
 30
0.0
  0
POINT
  5
7CC
330
5A
100
AcDbEntity
  8
DEFPOINTS
  6
ByBlock
 62
     0
440
 16777216
100
AcDbPoint
 10
36.3020159069109
 20
58.63502856677144
 30
0.0
  0
POINT
  5
7CD
330
5A
100
AcDbEntity
  8
DEFPOINTS
  6
ByBlock
 62
     0
440
 16777216
100
AcDbPoint
 10
38.12764929198898
 20
58.63502856677144
 30
0.0
  0
ENDBLK
  5
7CE
330
5A
100
AcDbEntity
  8
0
100
AcDbBlockEnd
  0
BLOCK
  5
7CF
330
5B
100
AcDbEntity
  8
0
100
AcDbBlockBegin
  2
*D28
 70
     1
 10
0.0
 20
0.0
 30
0.0
  3
*D28
  1

  0
LINE
  5
7D0
330
5B
100
AcDbEntity
  8
0
  6
ByBlock
 62
     0
440
 16777216
100
AcDbLine
 10
36.37764929198898
 20
71.12302954400856
 30
0.0
 11
36.37764929198898
 21
74.34177954400856
 31
0.0
  0
LINE
  5
7D1
330
5B
100
AcDbEntity
  8
0
  6
ByBlock
 62
     0
440
 16777216
100
AcDbLine
 10
32.75260644003062
 20
71.12302954400856
 30
0.0
 11
32.75260644003062
 21
74.34177954400856
 31
0.0
  0
LINE
  5
7D2
330
5B
100
AcDbEntity
  8
0
  6
ByBlock
 62
     0
440
 16777216
100
AcDbLine
 10
36.19064929198898
 20
74.24802954400856
 30
0.0
 11
35.2576778660098
 21
74.24802954400856
 31
0.0
  0
LINE
  5
7D3
330
5B
100
AcDbEntity
  8
0
  6
ByBlock
 62
     0
440
 16777216
100
AcDbLine
 10
32.93960644003062
 20
74.24802954400856
 30
0.0
 11
34.0076778660098
 21
74.24802954400856
 31
0.0
  0
SOLID
  5
7D4
330
5B
100
AcDbEntity
  8
0
  6
ByBlock
 62
     0
440
 16777216
100
AcDbTrace
 10
36.19064929198898
 20
74.27919621067522
 30
0.0
 11
36.19064929198898
 21
74.21686287734189
 31
0.0
 12
36.37764929198898
 22
74.24802954400856
 32
0.0
 13
36.37764929198898
 23
74.24802954400856
 33
0.0
  0
SOLID
  5
7D5
330
5B
100
AcDbEntity
  8
0
  6
ByBlock
 62
     0
440
 16777216
100
AcDbTrace
 10
32.93960644003062
 20
74.27919621067522
 30
0.0
 11
32.93960644003062
 21
74.21686287734189
 31
0.0
 12
32.75260644003062
 22
74.24802954400856
 32
0.0
 13
32.75260644003062
 23
74.24802954400856
 33
0.0
  0
TEXT
  5
7D6
330
5B
100
AcDbEntity
  8
0
  6
ByBlock
 62
     0
440
 16777216
100
AcDbText
 10
34.19517786600979
 20
74.15427954400856
 30
0.0
 40
0.1875
  1
3 5/8
 72
     1
 11
34.6326778660098
 21
74.24802954400856
 31
0.0
100
AcDbText
 73
     2
  0
POINT
  5
7D7
330
5B
100
AcDbEntity
  8
DEFPOINTS
  6
ByBlock
 62
     0
440
 16777216
100
AcDbPoint
 10
36.37764929198898
 20
70.93552954400855
 30
0.0
  0
POINT
  5
7D8
330
5B
100
AcDbEntity
  8
DEFPOINTS
  6
ByBlock
 62
     0
440
 16777216
100
AcDbPoint
 10
32.75260644003062
 20
70.93552954400855
 30
0.0
  0
POINT
  5
7D9
330
5B
100
AcDbEntity
  8
DEFPOINTS
  6
ByBlock
 62
     0
440
 16777216
100
AcDbPoint
 10
32.75260644003062
 20
74.24802954400856
 30
0.0
  0
ENDBLK
  5
7DA
330
5B
100
AcDbEntity
  8
0
100
AcDbBlockEnd
  0
BLOCK
  5
7DB
330
5C
100
AcDbEntity
  8
0
100
AcDbBlockBegin
  2
*D29
 70
     1
 10
0.0
 20
0.0
 30
0.0
  3
*D29
  1

  0
LINE
  5
7DC
330
5C
100
AcDbEntity
  8
0
  6
ByBlock
 62
     0
440
 16777216
100
AcDbLine
 10
32.87760644003063
 20
65.27668669205017
 30
0.0
 11
28.8230241408872
 21
65.27668669205017
 31
0.0
  0
LINE
  5
7DD
330
5C
100
AcDbEntity
  8
0
  6
ByBlock
 62
     0
440
 16777216
100
AcDbLine
 10
32.87760644003062
 20
71.24802954400855
 30
0.0
 11
28.8230241408872
 21
71.24802954400855
 31
0.0
  0
LINE
  5
7DE
330
5C
100
AcDbEntity
  8
0
  6
ByBlock
 62
     0
440
 16777216
100
AcDbLine
 10
28.9167741408872
 20
65.46368669205017
 30
0.0
 11
28.9167741408872
 21
68.03536758441406
 31
0.0
  0
LINE
  5
7DF
330
5C
100
AcDbEntity
  8
0
  6
ByBlock
 62
     0
440
 16777216
100
AcDbLine
 10
28.9167741408872
 20
71.06102954400856
 30
0.0
 11
28.9167741408872
 21
68.59786758441406
 31
0.0
  0
SOLID
  5
7E0
330
5C
100
AcDbEntity
  8
0
  6
ByBlock
 62
     0
440
 16777216
100
AcDbTrace
 10
28.88560747422054
 20
65.46368669205017
 30
0.0
 11
28.94794080755387
 21
65.46368669205017
 31
0.0
 12
28.9167741408872
 22
65.27668669205017
 32
0.0
 13
28.9167741408872
 23
65.27668669205017
 33
0.0
  0
SOLID
  5
7E1
330
5C
100
AcDbEntity
  8
0
  6
ByBlock
 62
     0
440
 16777216
100
AcDbTrace
 10
28.88560747422054
 20
71.06102954400856
 30
0.0
 11
28.94794080755387
 21
71.06102954400856
 31
0.0
 12
28.9167741408872
 22
71.24802954400855
 32
0.0
 13
28.9167741408872
 23
71.24802954400855
 33
0.0
  0
TEXT
  5
7E2
330
5C
100
AcDbEntity
  8
0
  6
ByBlock
 62
     0
440
 16777216
100
AcDbText
 10
28.32302414088722
 20
68.22286758441406
 30
0.0
 40
0.1875
  1
5 31/32
 72
     1
 11
28.91677414088722
 21
68.31661758441406
 31
0.0
100
AcDbText
 73
     2
  0
POINT
  5
7E3
330
5C
100
AcDbEntity
  8
DEFPOINTS
  6
ByBlock
 62
     0
440
 16777216
100
AcDbPoint
 10
33.06510644003063
 20
65.27668669205017
 30
0.0
  0
POINT
  5
7E4
330
5C
100
AcDbEntity
  8
DEFPOINTS
  6
ByBlock
 62
     0
440
 16777216
100
AcDbPoint
 10
33.06510644003062
 20
71.24802954400855
 30
0.0
  0
POINT
  5
7E5
330
5C
100
AcDbEntity
  8
DEFPOINTS
  6
ByBlock
 62
     0
440
 16777216
100
AcDbPoint
 10
28.9167741408872
 20
71.24802954400855
 30
0.0
  0
ENDBLK
  5
7E6
330
5C
100
AcDbEntity
  8
0
100
AcDbBlockEnd
  0
BLOCK
  5
7E7
330
84
100
AcDbEntity
  8
0
100
AcDbBlockBegin
  2
*D30
 70
     1
 10
0.0
 20
0.0
 30
0.0
  3
*D30
  1

  0
LINE
  5
7E8
330
84
100
AcDbEntity
  8
0
  6
ByBlock
 62
     0
440
 16777216
100
AcDbLine
 10
27.17580405203668
 20
70.74299454038473
 30
0.0
 11
27.17580405203668
 21
72.98089751810787
 31
0.0
  0
LINE
  5
7E9
330
84
100
AcDbEntity
  8
0
  6
ByBlock
 62
     0
440
 16777216
100
AcDbLine
 10
29.92580405203669
 20
70.74299454038473
 30
0.0
 11
29.92580405203669
 21
72.98089751810787
 31
0.0
  0
LINE
  5
7EA
330
84
100
AcDbEntity
  8
0
  6
ByBlock
 62
     0
440
 16777216
100
AcDbLine
 10
27.36280405203669
 20
72.88714751810786
 30
0.0
 11
27.92580405203669
 21
72.88714751810786
 31
0.0
  0
LINE
  5
7EB
330
84
100
AcDbEntity
  8
0
  6
ByBlock
 62
     0
440
 16777216
100
AcDbLine
 10
29.73880405203669
 20
72.88714751810786
 30
0.0
 11
29.17580405203669
 21
72.88714751810786
 31
0.0
  0
SOLID
  5
7EC
330
84
100
AcDbEntity
  8
0
  6
ByBlock
 62
     0
440
 16777216
100
AcDbTrace
 10
27.36280405203669
 20
72.91831418477453
 30
0.0
 11
27.36280405203669
 21
72.8559808514412
 31
0.0
 12
27.17580405203668
 22
72.88714751810786
 32
0.0
 13
27.17580405203668
 23
72.88714751810786
 33
0.0
  0
SOLID
  5
7ED
330
84
100
AcDbEntity
  8
0
  6
ByBlock
 62
     0
440
 16777216
100
AcDbTrace
 10
29.73880405203669
 20
72.91831418477453
 30
0.0
 11
29.73880405203669
 21
72.8559808514412
 31
0.0
 12
29.92580405203669
 22
72.88714751810786
 32
0.0
 13
29.92580405203669
 23
72.88714751810786
 33
0.0
  0
TEXT
  5
7EE
330
84
100
AcDbEntity
  8
0
  6
ByBlock
 62
     0
440
 16777216
100
AcDbText
 10
28.11330405203669
 20
72.79339751810787
 30
0.0
 40
0.1875
  1
2 3/4
 72
     1
 11
28.55080405203669
 21
72.88714751810786
 31
0.0
100
AcDbText
 73
     2
  0
POINT
  5
7EF
330
84
100
AcDbEntity
  8
DEFPOINTS
  6
ByBlock
 62
     0
440
 16777216
100
AcDbPoint
 10
27.17580405203668
 20
70.55549454038473
 30
0.0
  0
POINT
  5
7F0
330
84
100
AcDbEntity
  8
DEFPOINTS
  6
ByBlock
 62
     0
440
 16777216
100
AcDbPoint
 10
29.92580405203669
 20
70.55549454038473
 30
0.0
  0
POINT
  5
7F1
330
84
100
AcDbEntity
  8
DEFPOINTS
  6
ByBlock
 62
     0
440
 16777216
100
AcDbPoint
 10
29.92580405203669
 20
72.88714751810786
 30
0.0
  0
ENDBLK
  5
7F2
330
84
100
AcDbEntity
  8
0
100
AcDbBlockEnd
  0
BLOCK
  5
7F3
330
85
100
AcDbEntity
  8
0
100
AcDbBlockBegin
  2
*D31
 70
     1
 10
0.0
 20
0.0
 30
0.0
  3
*D31
  1

  0
LINE
  5
7F4
330
85
100
AcDbEntity
  8
0
  6
ByBlock
 62
     0
440
 16777216
100
AcDbLine
 10
26.89830405203668
 20
65.90299454038474
 30
0.0
 11
24.64453262605751
 21
65.90299454038474
 31
0.0
  0
LINE
  5
7F5
330
85
100
AcDbEntity
  8
0
  6
ByBlock
 62
     0
440
 16777216
100
AcDbLine
 10
26.89830405203668
 20
70.46549454038473
 30
0.0
 11
24.64453262605751
 21
70.46549454038473
 31
0.0
  0
LINE
  5
7F6
330
85
100
AcDbEntity
  8
0
  6
ByBlock
 62
     0
440
 16777216
100
AcDbLine
 10
24.73828262605751
 20
66.08999454038474
 30
0.0
 11
24.73828262605751
 21
67.90299454038472
 31
0.0
  0
LINE
  5
7F7
330
85
100
AcDbEntity
  8
0
  6
ByBlock
 62
     0
440
 16777216
100
AcDbLine
 10
24.73828262605751
 20
70.27849454038473
 30
0.0
 11
24.73828262605751
 21
68.46549454038473
 31
0.0
  0
SOLID
  5
7F8
330
85
100
AcDbEntity
  8
0
  6
ByBlock
 62
     0
440
 16777216
100
AcDbTrace
 10
24.70711595939084
 20
66.08999454038474
 30
0.0
 11
24.76944929272418
 21
66.08999454038474
 31
0.0
 12
24.73828262605751
 22
65.90299454038474
 32
0.0
 13
24.73828262605751
 23
65.90299454038474
 33
0.0
  0
SOLID
  5
7F9
330
85
100
AcDbEntity
  8
0
  6
ByBlock
 62
     0
440
 16777216
100
AcDbTrace
 10
24.70711595939084
 20
70.27849454038473
 30
0.0
 11
24.76944929272418
 21
70.27849454038473
 31
0.0
 12
24.73828262605751
 22
70.46549454038473
 32
0.0
 13
24.73828262605751
 23
70.46549454038473
 33
0.0
  0
TEXT
  5
7FA
330
85
100
AcDbEntity
  8
0
  6
ByBlock
 62
     0
440
 16777216
100
AcDbText
 10
24.23828262605751
 20
68.09049454038472
 30
0.0
 40
0.1875
  1
4 9/16
 72
     1
 11
24.73828262605751
 21
68.18424454038472
 31
0.0
100
AcDbText
 73
     2
  0
POINT
  5
7FB
330
85
100
AcDbEntity
  8
DEFPOINTS
  6
ByBlock
 62
     0
440
 16777216
100
AcDbPoint
 10
27.08580405203668
 20
65.90299454038474
 30
0.0
  0
POINT
  5
7FC
330
85
100
AcDbEntity
  8
DEFPOINTS
  6
ByBlock
 62
     0
440
 16777216
100
AcDbPoint
 10
27.08580405203668
 20
70.46549454038473
 30
0.0
  0
POINT
  5
7FD
330
85
100
AcDbEntity
  8
DEFPOINTS
  6
ByBlock
 62
     0
440
 16777216
100
AcDbPoint
 10
24.73828262605751
 20
70.46549454038473
 30
0.0
  0
ENDBLK
  5
7FE
330
85
100
AcDbEntity
  8
0
100
AcDbBlockEnd
  0
BLOCK
  5
7FF
330
A3
100
AcDbEntity
  8
0
100
AcDbBlockBegin
  2
*D32
 70
     1
 10
0.0
 20
0.0
 30
0.0
  3
*D32
  1

  0
LINE
  5
800
330
A3
100
AcDbEntity
  8
0
  6
ByBlock
 62
     0
440
 16777216
100
AcDbLine
 10
13.96457898783826
 20
26.85834461155577
 30
0.0
 11
13.96457898783826
 21
29.78437338936366
 31
0.0
  0
LINE
  5
801
330
A3
100
AcDbEntity
  8
0
  6
ByBlock
 62
     0
440
 16777216
100
AcDbLine
 10
10.96453613587986
 20
26.85834461155577
 30
0.0
 11
10.96453613587986
 21
29.78437338936366
 31
0.0
  0
LINE
  5
802
330
A3
100
AcDbEntity
  8
0
  6
ByBlock
 62
     0
440
 16777216
100
AcDbLine
 10
13.77757898783826
 20
29.69062338936367
 30
0.0
 11
12.71455756185906
 21
29.69062338936367
 31
0.0
  0
LINE
  5
803
330
A3
100
AcDbEntity
  8
0
  6
ByBlock
 62
     0
440
 16777216
100
AcDbLine
 10
11.15153613587986
 20
29.69062338936367
 30
0.0
 11
12.21455756185906
 21
29.69062338936367
 31
0.0
  0
SOLID
  5
804
330
A3
100
AcDbEntity
  8
0
  6
ByBlock
 62
     0
440
 16777216
100
AcDbTrace
 10
13.77757898783826
 20
29.72179005603033
 30
0.0
 11
13.77757898783826
 21
29.659456722697
 31
0.0
 12
13.96457898783826
 22
29.69062338936367
 32
0.0
 13
13.96457898783826
 23
29.69062338936367
 33
0.0
  0
SOLID
  5
805
330
A3
100
AcDbEntity
  8
0
  6
ByBlock
 62
     0
440
 16777216
100
AcDbTrace
 10
11.15153613587986
 20
29.72179005603033
 30
0.0
 11
11.15153613587986
 21
29.659456722697
 31
0.0
 12
10.96453613587986
 22
29.69062338936367
 32
0.0
 13
10.96453613587986
 23
29.69062338936367
 33
0.0
  0
TEXT
  5
806
330
A3
100
AcDbEntity
  8
0
  6
ByBlock
 62
     0
440
 16777216
100
AcDbText
 10
12.40205756185906
 20
29.59687338936367
 30
0.0
 40
0.1875
  1
3
 72
     1
 11
12.46455756185906
 21
29.69062338936367
 31
0.0
100
AcDbText
 73
     2
  0
POINT
  5
807
330
A3
100
AcDbEntity
  8
DEFPOINTS
  6
ByBlock
 62
     0
440
 16777216
100
AcDbPoint
 10
13.96457898783826
 20
26.67084461155577
 30
0.0
  0
POINT
  5
808
330
A3
100
AcDbEntity
  8
DEFPOINTS
  6
ByBlock
 62
     0
440
 16777216
100
AcDbPoint
 10
10.96453613587986
 20
26.67084461155577
 30
0.0
  0
POINT
  5
809
330
A3
100
AcDbEntity
  8
DEFPOINTS
  6
ByBlock
 62
     0
440
 16777216
100
AcDbPoint
 10
10.96453613587986
 20
29.69062338936367
 30
0.0
  0
ENDBLK
  5
80A
330
A3
100
AcDbEntity
  8
0
100
AcDbBlockEnd
  0
BLOCK
  5
80B
330
A4
100
AcDbEntity
  8
0
100
AcDbBlockBegin
  2
*D33
 70
     1
 10
0.0
 20
0.0
 30
0.0
  3
*D33
  1

  0
LINE
  5
80C
330
A4
100
AcDbEntity
  8
0
  6
ByBlock
 62
     0
440
 16777216
100
AcDbLine
 10
52.84977432116819
 20
26.34620196338445
 30
0.0
 11
52.84977432116819
 21
28.70547616329968
 31
0.0
  0
LINE
  5
80D
330
A4
100
AcDbEntity
  8
0
  6
ByBlock
 62
     0
440
 16777216
100
AcDbLine
 10
53.34977432116819
 20
26.51954622655028
 30
0.0
 11
53.34977432116819
 21
28.70547616329968
 31
0.0
  0
LINE
  5
80E
330
A4
100
AcDbEntity
  8
0
  6
ByBlock
 62
     0
440
 16777216
100
AcDbLine
 10
52.66277432116819
 20
28.61172616329968
 30
0.0
 11
52.47577432116819
 21
28.61172616329968
 31
0.0
  0
LINE
  5
80F
330
A4
100
AcDbEntity
  8
0
  6
ByBlock
 62
     0
440
 16777216
100
AcDbLine
 10
53.53677432116819
 20
28.61172616329968
 30
0.0
 11
53.72377432116819
 21
28.61172616329968
 31
0.0
  0
SOLID
  5
810
330
A4
100
AcDbEntity
  8
0
  6
ByBlock
 62
     0
440
 16777216
100
AcDbTrace
 10
52.66277432116819
 20
28.64289282996635
 30
0.0
 11
52.66277432116819
 21
28.58055949663301
 31
0.0
 12
52.84977432116819
 22
28.61172616329968
 32
0.0
 13
52.84977432116819
 23
28.61172616329968
 33
0.0
  0
SOLID
  5
811
330
A4
100
AcDbEntity
  8
0
  6
ByBlock
 62
     0
440
 16777216
100
AcDbTrace
 10
53.53677432116819
 20
28.64289282996635
 30
0.0
 11
53.53677432116819
 21
28.58055949663301
 31
0.0
 12
53.34977432116819
 22
28.61172616329968
 32
0.0
 13
53.34977432116819
 23
28.61172616329968
 33
0.0
  0
TEXT
  5
812
330
A4
100
AcDbEntity
  8
0
  6
ByBlock
 62
     0
440
 16777216
100
AcDbText
 10
53.91019098783486
 20
28.51797616329968
 30
0.0
 40
0.1875
  1
1/2
 72
     1
 11
54.12894098783485
 21
28.61172616329968
 31
0.0
100
AcDbText
 73
     2
  0
POINT
  5
813
330
A4
100
AcDbEntity
  8
DEFPOINTS
  6
ByBlock
 62
     0
440
 16777216
100
AcDbPoint
 10
52.84977432116819
 20
26.15870196338445
 30
0.0
  0
POINT
  5
814
330
A4
100
AcDbEntity
  8
DEFPOINTS
  6
ByBlock
 62
     0
440
 16777216
100
AcDbPoint
 10
53.34977432116819
 20
26.33204622655028
 30
0.0
  0
POINT
  5
815
330
A4
100
AcDbEntity
  8
DEFPOINTS
  6
ByBlock
 62
     0
440
 16777216
100
AcDbPoint
 10
53.34977432116819
 20
28.61172616329968
 30
0.0
  0
ENDBLK
  5
816
330
A4
100
AcDbEntity
  8
0
100
AcDbBlockEnd
  0
BLOCK
  5
817
330
A5
100
AcDbEntity
  8
0
100
AcDbBlockBegin
  2
*D34
 70
     1
 10
0.0
 20
0.0
 30
0.0
  3
*D34
  1

  0
LINE
  5
818
330
A5
100
AcDbEntity
  8
0
  6
ByBlock
 62
     0
440
 16777216
100
AcDbLine
 10
52.84977432116819
 20
26.47120196338445
 30
0.0
 11
52.84977432116819
 21
28.70547616329968
 31
0.0
  0
LINE
  5
819
330
A5
100
AcDbEntity
  8
0
  6
ByBlock
 62
     0
440
 16777216
100
AcDbLine
 10
50.60477432116819
 20
26.7298706473945
 30
0.0
 11
50.60477432116819
 21
28.70547616329968
 31
0.0
  0
LINE
  5
81A
330
A5
100
AcDbEntity
  8
0
  6
ByBlock
 62
     0
440
 16777216
100
AcDbLine
 10
52.66277432116819
 20
28.61172616329968
 30
0.0
 11
52.32102432116818
 21
28.61172616329968
 31
0.0
  0
LINE
  5
81B
330
A5
100
AcDbEntity
  8
0
  6
ByBlock
 62
     0
440
 16777216
100
AcDbLine
 10
50.79177432116818
 20
28.61172616329968
 30
0.0
 11
51.13352432116818
 21
28.61172616329968
 31
0.0
  0
SOLID
  5
81C
330
A5
100
AcDbEntity
  8
0
  6
ByBlock
 62
     0
440
 16777216
100
AcDbTrace
 10
52.66277432116819
 20
28.64289282996635
 30
0.0
 11
52.66277432116819
 21
28.58055949663301
 31
0.0
 12
52.84977432116819
 22
28.61172616329968
 32
0.0
 13
52.84977432116819
 23
28.61172616329968
 33
0.0
  0
SOLID
  5
81D
330
A5
100
AcDbEntity
  8
0
  6
ByBlock
 62
     0
440
 16777216
100
AcDbTrace
 10
50.79177432116818
 20
28.64289282996635
 30
0.0
 11
50.79177432116818
 21
28.58055949663301
 31
0.0
 12
50.60477432116819
 22
28.61172616329968
 32
0.0
 13
50.60477432116819
 23
28.61172616329968
 33
0.0
  0
TEXT
  5
81E
330
A5
100
AcDbEntity
  8
0
  6
ByBlock
 62
     0
440
 16777216
100
AcDbText
 10
51.32102432116818
 20
28.51797616329968
 30
0.0
 40
0.1875
  1
2 1/4
 72
     1
 11
51.72727432116818
 21
28.61172616329968
 31
0.0
100
AcDbText
 73
     2
  0
POINT
  5
81F
330
A5
100
AcDbEntity
  8
DEFPOINTS
  6
ByBlock
 62
     0
440
 16777216
100
AcDbPoint
 10
52.84977432116819
 20
26.28370196338445
 30
0.0
  0
POINT
  5
820
330
A5
100
AcDbEntity
  8
DEFPOINTS
  6
ByBlock
 62
     0
440
 16777216
100
AcDbPoint
 10
50.60477432116819
 20
26.5423706473945
 30
0.0
  0
POINT
  5
821
330
A5
100
AcDbEntity
  8
DEFPOINTS
  6
ByBlock
 62
     0
440
 16777216
100
AcDbPoint
 10
50.60477432116819
 20
28.61172616329968
 30
0.0
  0
ENDBLK
  5
822
330
A5
100
AcDbEntity
  8
0
100
AcDbBlockEnd
  0
BLOCK
  5
823
330
A6
100
AcDbEntity
  8
0
100
AcDbBlockBegin
  2
*D35
 70
     1
 10
0.0
 20
0.0
 30
0.0
  3
*D35
  1

  0
LINE
  5
824
330
A6
100
AcDbEntity
  8
0
  6
ByBlock
 62
     0
440
 16777216
100
AcDbLine
 10
36.71558455579047
 20
26.74196469279105
 30
0.0
 11
36.71558455579047
 21
28.70547616329968
 31
0.0
  0
LINE
  5
825
330
A6
100
AcDbEntity
  8
0
  6
ByBlock
 62
     0
440
 16777216
100
AcDbLine
 10
38.90192585921784
 20
26.51954622655028
 30
0.0
 11
38.90192585921784
 21
28.70547616329968
 31
0.0
  0
LINE
  5
826
330
A6
100
AcDbEntity
  8
0
  6
ByBlock
 62
     0
440
 16777216
100
AcDbLine
 10
36.90258455579047
 20
28.61172616329969
 30
0.0
 11
37.12125520750415
 21
28.61172616329969
 31
0.0
  0
LINE
  5
827
330
A6
100
AcDbEntity
  8
0
  6
ByBlock
 62
     0
440
 16777216
100
AcDbLine
 10
38.71492585921784
 20
28.61172616329969
 30
0.0
 11
38.49625520750415
 21
28.61172616329969
 31
0.0
  0
SOLID
  5
828
330
A6
100
AcDbEntity
  8
0
  6
ByBlock
 62
     0
440
 16777216
100
AcDbTrace
 10
36.90258455579047
 20
28.64289282996635
 30
0.0
 11
36.90258455579047
 21
28.58055949663302
 31
0.0
 12
36.71558455579047
 22
28.61172616329969
 32
0.0
 13
36.71558455579047
 23
28.61172616329969
 33
0.0
  0
SOLID
  5
829
330
A6
100
AcDbEntity
  8
0
  6
ByBlock
 62
     0
440
 16777216
100
AcDbTrace
 10
38.71492585921784
 20
28.64289282996635
 30
0.0
 11
38.71492585921784
 21
28.58055949663302
 31
0.0
 12
38.90192585921784
 22
28.61172616329969
 32
0.0
 13
38.90192585921784
 23
28.61172616329969
 33
0.0
  0
TEXT
  5
82A
330
A6
100
AcDbEntity
  8
0
  6
ByBlock
 62
     0
440
 16777216
100
AcDbText
 10
37.30875520750415
 20
28.51797616329969
 30
0.0
 40
0.1875
  1
2 3/16
 72
     1
 11
37.80875520750415
 21
28.61172616329969
 31
0.0
100
AcDbText
 73
     2
  0
POINT
  5
82B
330
A6
100
AcDbEntity
  8
DEFPOINTS
  6
ByBlock
 62
     0
440
 16777216
100
AcDbPoint
 10
36.71558455579047
 20
26.55446469279105
 30
0.0
  0
POINT
  5
82C
330
A6
100
AcDbEntity
  8
DEFPOINTS
  6
ByBlock
 62
     0
440
 16777216
100
AcDbPoint
 10
38.90192585921784
 20
26.33204622655028
 30
0.0
  0
POINT
  5
82D
330
A6
100
AcDbEntity
  8
DEFPOINTS
  6
ByBlock
 62
     0
440
 16777216
100
AcDbPoint
 10
38.90192585921784
 20
28.61172616329969
 30
0.0
  0
ENDBLK
  5
82E
330
A6
100
AcDbEntity
  8
0
100
AcDbBlockEnd
  0
BLOCK
  5
82F
330
A7
100
AcDbEntity
  8
0
100
AcDbBlockBegin
  2
*D36
 70
     1
 10
0.0
 20
0.0
 30
0.0
  3
*D36
  1

  0
LINE
  5
830
330
A7
100
AcDbEntity
  8
0
  6
ByBlock
 62
     0
440
 16777216
100
AcDbLine
 10
24.17666030065495
 20
26.25313338936366
 30
0.0
 11
24.17666030065495
 21
28.70547616329967
 31
0.0
  0
LINE
  5
831
330
A7
100
AcDbEntity
  8
0
  6
ByBlock
 62
     0
440
 16777216
100
AcDbLine
 10
26.5517131526133
 20
26.25313338936366
 30
0.0
 11
26.5517131526133
 21
28.70547616329967
 31
0.0
  0
LINE
  5
832
330
A7
100
AcDbEntity
  8
0
  6
ByBlock
 62
     0
440
 16777216
100
AcDbLine
 10
24.36366030065495
 20
28.61172616329967
 30
0.0
 11
24.73918672663411
 21
28.61172616329967
 31
0.0
  0
LINE
  5
833
330
A7
100
AcDbEntity
  8
0
  6
ByBlock
 62
     0
440
 16777216
100
AcDbLine
 10
26.3647131526133
 20
28.61172616329967
 30
0.0
 11
25.98918672663411
 21
28.61172616329967
 31
0.0
  0
SOLID
  5
834
330
A7
100
AcDbEntity
  8
0
  6
ByBlock
 62
     0
440
 16777216
100
AcDbTrace
 10
24.36366030065495
 20
28.64289282996634
 30
0.0
 11
24.36366030065495
 21
28.58055949663301
 31
0.0
 12
24.17666030065495
 22
28.61172616329967
 32
0.0
 13
24.17666030065495
 23
28.61172616329967
 33
0.0
  0
SOLID
  5
835
330
A7
100
AcDbEntity
  8
0
  6
ByBlock
 62
     0
440
 16777216
100
AcDbTrace
 10
26.3647131526133
 20
28.64289282996634
 30
0.0
 11
26.3647131526133
 21
28.58055949663301
 31
0.0
 12
26.5517131526133
 22
28.61172616329967
 32
0.0
 13
26.5517131526133
 23
28.61172616329967
 33
0.0
  0
TEXT
  5
836
330
A7
100
AcDbEntity
  8
0
  6
ByBlock
 62
     0
440
 16777216
100
AcDbText
 10
24.92668672663411
 20
28.51797616329967
 30
0.0
 40
0.1875
  1
2 3/8
 72
     1
 11
25.36418672663411
 21
28.61172616329967
 31
0.0
100
AcDbText
 73
     2
  0
POINT
  5
837
330
A7
100
AcDbEntity
  8
DEFPOINTS
  6
ByBlock
 62
     0
440
 16777216
100
AcDbPoint
 10
24.17666030065495
 20
26.06563338936366
 30
0.0
  0
POINT
  5
838
330
A7
100
AcDbEntity
  8
DEFPOINTS
  6
ByBlock
 62
     0
440
 16777216
100
AcDbPoint
 10
26.5517131526133
 20
26.06563338936366
 30
0.0
  0
POINT
  5
839
330
A7
100
AcDbEntity
  8
DEFPOINTS
  6
ByBlock
 62
     0
440
 16777216
100
AcDbPoint
 10
26.5517131526133
 20
28.61172616329967
 30
0.0
  0
ENDBLK
  5
83A
330
A7
100
AcDbEntity
  8
0
100
AcDbBlockEnd
  0
BLOCK
  5
83B
330
A8
100
AcDbEntity
  8
0
100
AcDbBlockBegin
  2
*D37
 70
     1
 10
0.0
 20
0.0
 30
0.0
  3
*D37
  1

  0
LINE
  5
83C
330
A8
100
AcDbEntity
  8
0
  6
ByBlock
 62
     0
440
 16777216
100
AcDbLine
 10
10.68703613587985
 20
24.39880396204907
 30
0.0
 11
7.028382309869818
 21
24.39880396204907
 31
0.0
  0
LINE
  5
83D
330
A8
100
AcDbEntity
  8
0
  6
ByBlock
 62
     0
440
 16777216
100
AcDbLine
 10
10.68703613587985
 20
29.74284681400746
 30
0.0
 11
7.028382309869818
 21
29.74284681400746
 31
0.0
  0
LINE
  5
83E
330
A8
100
AcDbEntity
  8
0
  6
ByBlock
 62
     0
440
 16777216
100
AcDbLine
 10
7.122132309869818
 20
24.58580396204907
 30
0.0
 11
7.122132309869818
 21
26.78957538802827
 31
0.0
  0
LINE
  5
83F
330
A8
100
AcDbEntity
  8
0
  6
ByBlock
 62
     0
440
 16777216
100
AcDbLine
 10
7.122132309869818
 20
29.55584681400746
 30
0.0
 11
7.122132309869818
 21
27.35207538802827
 31
0.0
  0
SOLID
  5
840
330
A8
100
AcDbEntity
  8
0
  6
ByBlock
 62
     0
440
 16777216
100
AcDbTrace
 10
7.090965643203151
 20
24.58580396204907
 30
0.0
 11
7.153298976536484
 21
24.58580396204907
 31
0.0
 12
7.122132309869818
 22
24.39880396204907
 32
0.0
 13
7.122132309869818
 23
24.39880396204907
 33
0.0
  0
SOLID
  5
841
330
A8
100
AcDbEntity
  8
0
  6
ByBlock
 62
     0
440
 16777216
100
AcDbTrace
 10
7.090965643203151
 20
29.55584681400746
 30
0.0
 11
7.153298976536484
 21
29.55584681400746
 31
0.0
 12
7.122132309869818
 22
29.74284681400746
 32
0.0
 13
7.122132309869818
 23
29.74284681400746
 33
0.0
  0
TEXT
  5
842
330
A8
100
AcDbEntity
  8
0
  6
ByBlock
 62
     0
440
 16777216
100
AcDbText
 10
6.559632309869818
 20
26.97707538802827
 30
0.0
 40
0.1875
  1
5 11/32
 72
     1
 11
7.122132309869818
 21
27.07082538802827
 31
0.0
100
AcDbText
 73
     2
  0
POINT
  5
843
330
A8
100
AcDbEntity
  8
DEFPOINTS
  6
ByBlock
 62
     0
440
 16777216
100
AcDbPoint
 10
10.87453613587985
 20
24.39880396204907
 30
0.0
  0
POINT
  5
844
330
A8
100
AcDbEntity
  8
DEFPOINTS
  6
ByBlock
 62
     0
440
 16777216
100
AcDbPoint
 10
10.87453613587985
 20
29.74284681400746
 30
0.0
  0
POINT
  5
845
330
A8
100
AcDbEntity
  8
DEFPOINTS
  6
ByBlock
 62
     0
440
 16777216
100
AcDbPoint
 10
7.122132309869818
 20
29.74284681400746
 30
0.0
  0
ENDBLK
  5
846
330
A8
100
AcDbEntity
  8
0
100
AcDbBlockEnd
  0
BLOCK
  5
847
330
A9
100
AcDbEntity
  8
0
100
AcDbBlockBegin
  2
*D38
 70
     1
 10
0.0
 20
0.0
 30
0.0
  3
*D38
  1

  0
LINE
  5
848
330
A9
100
AcDbEntity
  8
0
  6
ByBlock
 62
     0
440
 16777216
100
AcDbLine
 10
50.08944147400074
 20
14.41712461457824
 30
0.0
 11
49.27162047935624
 21
14.41712461457824
 31
0.0
  0
LINE
  5
849
330
A9
100
AcDbEntity
  8
0
  6
ByBlock
 62
     0
440
 16777216
100
AcDbLine
 10
50.02802289505599
 20
14.29212461457824
 30
0.0
 11
49.27162047935624
 21
14.29212461457824
 31
0.0
  0
LINE
  5
84A
330
A9
100
AcDbEntity
  8
0
  6
ByBlock
 62
     0
440
 16777216
100
AcDbLine
 10
49.36537047935623
 20
14.60412461457824
 30
0.0
 11
49.36537047935623
 21
14.79112461457824
 31
0.0
  0
LINE
  5
84B
330
A9
100
AcDbEntity
  8
0
  6
ByBlock
 62
     0
440
 16777216
100
AcDbLine
 10
49.36537047935623
 20
14.10512461457824
 30
0.0
 11
49.36537047935623
 21
13.91812461457824
 31
0.0
  0
LINE
  5
84C
330
A9
100
AcDbEntity
  8
0
  6
ByBlock
 62
     0
440
 16777216
100
AcDbLine
 10
49.36537047935623
 20
13.91812461457824
 30
0.0
 11
49.17837047935623
 21
13.91812461457824
 31
0.0
  0
SOLID
  5
84D
330
A9
100
AcDbEntity
  8
0
  6
ByBlock
 62
     0
440
 16777216
100
AcDbTrace
 10
49.33420381268957
 20
14.60412461457824
 30
0.0
 11
49.3965371460229
 21
14.60412461457824
 31
0.0
 12
49.36537047935623
 22
14.41712461457824
 32
0.0
 13
49.36537047935623
 23
14.41712461457824
 33
0.0
  0
SOLID
  5
84E
330
A9
100
AcDbEntity
  8
0
  6
ByBlock
 62
     0
440
 16777216
100
AcDbTrace
 10
49.33420381268957
 20
14.10512461457824
 30
0.0
 11
49.3965371460229
 21
14.10512461457824
 31
0.0
 12
49.36537047935623
 22
14.29212461457824
 32
0.0
 13
49.36537047935623
 23
14.29212461457824
 33
0.0
  0
TEXT
  5
84F
330
A9
100
AcDbEntity
  8
0
  6
ByBlock
 62
     0
440
 16777216
100
AcDbText
 10
48.33462047935624
 20
13.82437461457824
 30
0.0
 40
0.1875
  1
0.125
 72
     1
 11
48.66274547935624
 21
13.91812461457824
 31
0.0
100
AcDbText
 73
     2
  0
POINT
  5
850
330
A9
100
AcDbEntity
  8
DEFPOINTS
  6
ByBlock
 62
     0
440
 16777216
100
AcDbPoint
 10
50.27694147400074
 20
14.41712461457824
 30
0.0
  0
POINT
  5
851
330
A9
100
AcDbEntity
  8
DEFPOINTS
  6
ByBlock
 62
     0
440
 16777216
100
AcDbPoint
 10
50.21552289505599
 20
14.29212461457824
 30
0.0
  0
POINT
  5
852
330
A9
100
AcDbEntity
  8
DEFPOINTS
  6
ByBlock
 62
     0
440
 16777216
100
AcDbPoint
 10
49.36537047935623
 20
14.29212461457824
 30
0.0
  0
ENDBLK
  5
853
330
A9
100
AcDbEntity
  8
0
100
AcDbBlockEnd
  0
BLOCK
  5
854
330
AA
100
AcDbEntity
  8
0
100
AcDbBlockBegin
  2
*D39
 70
     1
 10
0.0
 20
0.0
 30
0.0
  3
*D39
  1

  0
LINE
  5
855
330
AA
100
AcDbEntity
  8
0
  6
ByBlock
 62
     0
440
 16777216
100
AcDbLine
 10
51.16951443309999
 20
17.29212461457824
 30
0.0
 11
51.10618005983198
 21
17.29212461457824
 31
0.0
  0
LINE
  5
856
330
AA
100
AcDbEntity
  8
0
  6
ByBlock
 62
     0
440
 16777216
100
AcDbLine
 10
51.19384246528557
 20
17.41712461457824
 30
0.0
 11
51.10618005983198
 21
17.41712461457824
 31
0.0
  0
LINE
  5
857
330
AA
100
AcDbEntity
  8
0
  6
ByBlock
 62
     0
440
 16777216
100
AcDbLine
 10
51.01243005983199
 20
17.10512461457823
 30
0.0
 11
51.01243005983199
 21
16.91812461457824
 31
0.0
  0
LINE
  5
858
330
AA
100
AcDbEntity
  8
0
  6
ByBlock
 62
     0
440
 16777216
100
AcDbLine
 10
51.01243005983199
 20
17.60412461457824
 30
0.0
 11
51.01243005983199
 21
17.79112461457823
 31
0.0
  0
LINE
  5
859
330
AA
100
AcDbEntity
  8
0
  6
ByBlock
 62
     0
440
 16777216
100
AcDbLine
 10
51.01243005983199
 20
17.79112461457823
 30
0.0
 11
51.19943005983198
 21
17.79112461457823
 31
0.0
  0
SOLID
  5
85A
330
AA
100
AcDbEntity
  8
0
  6
ByBlock
 62
     0
440
 16777216
100
AcDbTrace
 10
50.98126339316532
 20
17.10512461457823
 30
0.0
 11
51.04359672649865
 21
17.10512461457823
 31
0.0
 12
51.01243005983199
 22
17.29212461457824
 32
0.0
 13
51.01243005983199
 23
17.29212461457824
 33
0.0
  0
SOLID
  5
85B
330
AA
100
AcDbEntity
  8
0
  6
ByBlock
 62
     0
440
 16777216
100
AcDbTrace
 10
50.98126339316532
 20
17.60412461457824
 30
0.0
 11
51.04359672649865
 21
17.60412461457824
 31
0.0
 12
51.01243005983199
 22
17.41712461457824
 32
0.0
 13
51.01243005983199
 23
17.41712461457824
 33
0.0
  0
TEXT
  5
85C
330
AA
100
AcDbEntity
  8
0
  6
ByBlock
 62
     0
440
 16777216
100
AcDbText
 10
51.38693005983198
 20
17.69737461457824
 30
0.0
 40
0.1875
  1
0.125
 72
     1
 11
51.71505505983198
 21
17.79112461457823
 31
0.0
100
AcDbText
 73
     2
  0
POINT
  5
85D
330
AA
100
AcDbEntity
  8
DEFPOINTS
  6
ByBlock
 62
     0
440
 16777216
100
AcDbPoint
 10
50.98201443309999
 20
17.29212461457824
 30
0.0
  0
POINT
  5
85E
330
AA
100
AcDbEntity
  8
DEFPOINTS
  6
ByBlock
 62
     0
440
 16777216
100
AcDbPoint
 10
51.00634246528557
 20
17.41712461457824
 30
0.0
  0
POINT
  5
85F
330
AA
100
AcDbEntity
  8
DEFPOINTS
  6
ByBlock
 62
     0
440
 16777216
100
AcDbPoint
 10
51.01243005983199
 20
17.41712461457824
 30
0.0
  0
ENDBLK
  5
860
330
AA
100
AcDbEntity
  8
0
100
AcDbBlockEnd
  0
BLOCK
  5
861
330
AB
100
AcDbEntity
  8
0
100
AcDbBlockBegin
  2
*D40
 70
     1
 10
0.0
 20
0.0
 30
0.0
  3
*D40
  1

  0
LINE
  5
862
330
AB
100
AcDbEntity
  8
0
  6
ByBlock
 62
     0
440
 16777216
100
AcDbLine
 10
14.10658501202373
 20
24.91729516276405
 30
0.0
 11
14.56387610277919
 21
25.13601842534974
 31
0.0
  0
LINE
  5
863
330
AB
100
AcDbEntity
  8
0
  6
ByBlock
 62
     0
440
 16777216
100
AcDbLine
 10
14.56387610277919
 20
25.13601842534974
 30
0.0
 11
14.7508761027792
 21
25.13601842534972
 31
0.0
  0
SOLID
  5
864
330
AB
100
AcDbEntity
  8
0
  6
ByBlock
 62
     0
440
 16777216
100
AcDbTrace
 10
14.12003298380052
 20
24.88917909678387
 30
0.0
 11
14.09313704024693
 21
24.94541122874423
 31
0.0
 12
13.93788861614266
 22
24.83660733210329
 32
0.0
 13
13.93788861614266
 23
24.83660733210329
 33
0.0
  0
LINE
  5
865
330
AB
100
AcDbEntity
  8
0
  6
ByBlock
 62
     0
440
 16777216
100
AcDbLine
 10
13.74580756185905
 20
24.78957538802829
 30
0.0
 11
13.93330756185905
 21
24.78957538802829
 31
0.0
  0
LINE
  5
866
330
AB
100
AcDbEntity
  8
0
  6
ByBlock
 62
     0
440
 16777216
100
AcDbLine
 10
13.83955756185905
 20
24.69582538802829
 30
0.0
 11
13.83955756185905
 21
24.88332538802829
 31
0.0
  0
TEXT
  5
867
330
AB
100
AcDbEntity
  8
0
  6
ByBlock
 62
     0
440
 16777216
100
AcDbText
 10
14.93837610277919
 20
25.04226842534974
 30
0.0
 40
0.1875
  1
%%c0.218
 72
     1
 11
15.36025110277919
 21
25.13601842534974
 31
0.0
100
AcDbText
 73
     2
  0
POINT
  5
868
330
AB
100
AcDbEntity
  8
DEFPOINTS
  6
ByBlock
 62
     0
440
 16777216
100
AcDbPoint
 10
13.93788861614266
 20
24.83660733210329
 30
0.0
  0
POINT
  5
869
330
AB
100
AcDbEntity
  8
DEFPOINTS
  6
ByBlock
 62
     0
440
 16777216
100
AcDbPoint
 10
13.74122650757544
 20
24.74254344395329
 30
0.0
  0
ENDBLK
  5
86A
330
AB
100
AcDbEntity
  8
0
100
AcDbBlockEnd
  0
BLOCK
  5
86B
330
AC
100
AcDbEntity
  8
0
100
AcDbBlockBegin
  2
*D41
 70
     1
 10
0.0
 20
0.0
 30
0.0
  3
*D41
  1

  0
LINE
  5
86C
330
AC
100
AcDbEntity
  8
0
  6
ByBlock
 62
     0
440
 16777216
100
AcDbLine
 10
14.10699711889512
 20
24.54933314916851
 30
0.0
 11
14.58678433421141
 21
24.11833798876174
 31
0.0
  0
LINE
  5
86D
330
AC
100
AcDbEntity
  8
0
  6
ByBlock
 62
     0
440
 16777216
100
AcDbLine
 10
14.58678433421141
 20
24.11833798876174
 30
0.0
 11
14.77378433421141
 21
24.11833798876174
 31
0.0
  0
SOLID
  5
86E
330
AC
100
AcDbEntity
  8
0
  6
ByBlock
 62
     0
440
 16777216
100
AcDbTrace
 10
14.08616944218359
 20
24.52614761501657
 30
0.0
 11
14.12782479560666
 21
24.57251868332046
 31
0.0
 12
13.96788391398346
 22
24.67429920943771
 32
0.0
 13
13.96788391398346
 23
24.67429920943771
 33
0.0
  0
LINE
  5
86F
330
AC
100
AcDbEntity
  8
0
  6
ByBlock
 62
     0
440
 16777216
100
AcDbLine
 10
13.74580756185906
 20
24.78957538802828
 30
0.0
 11
13.93330756185905
 21
24.78957538802828
 31
0.0
  0
LINE
  5
870
330
AC
100
AcDbEntity
  8
0
  6
ByBlock
 62
     0
440
 16777216
100
AcDbLine
 10
13.83955756185905
 20
24.69582538802828
 30
0.0
 11
13.83955756185905
 21
24.88332538802828
 31
0.0
  0
TEXT
  5
871
330
AC
100
AcDbEntity
  8
0
  6
ByBlock
 62
     0
440
 16777216
100
AcDbText
 10
14.96128433421141
 20
24.02458798876174
 30
0.0
 40
0.1875
  1
%%c0.345
 72
     1
 11
15.41440933421141
 21
24.11833798876174
 31
0.0
100
AcDbText
 73
     2
  0
POINT
  5
872
330
AC
100
AcDbEntity
  8
DEFPOINTS
  6
ByBlock
 62
     0
440
 16777216
100
AcDbPoint
 10
13.96788391398346
 20
24.67429920943771
 30
0.0
  0
POINT
  5
873
330
AC
100
AcDbEntity
  8
DEFPOINTS
  6
ByBlock
 62
     0
440
 16777216
100
AcDbPoint
 10
13.71123120973466
 20
24.90485156661885
 30
0.0
  0
ENDBLK
  5
874
330
AC
100
AcDbEntity
  8
0
100
AcDbBlockEnd
  0
ENDSEC
  0
SECTION
  2
ENTITIES
  0
LINE
  5
879
330
18
100
AcDbEntity
  8
0
100
AcDbLine
 10
23.62729868573302
 20
17.23962461457823
 30
0.0
 11
27.10107476753522
 21
17.23962461457824
 31
0.0
  0
LINE
  5
87A
330
18
100
AcDbEntity
  8
0
100
AcDbLine
 10
23.55166530065494
 20
16.61462461457824
 30
0.0
 11
27.1767081526133
 21
16.61462461457824
 31
0.0
  0
LINE
  5
87B
330
18
100
AcDbEntity
  8
0
100
AcDbLine
 10
23.55166530065494
 20
16.78712461457824
 30
0.0
 11
27.1767081526133
 21
16.78712461457824
 31
0.0
  0
LINE
  5
87C
330
18
100
AcDbEntity
  8
0
100
AcDbLine
 10
23.55166530065494
 20
16.80212461457824
 30
0.0
 11
27.1767081526133
 21
16.80212461457824
 31
0.0
  0
LINE
  5
87D
330
18
100
AcDbEntity
  8
0
100
AcDbLine
 10
24.20791530065494
 20
17.42712461457823
 30
0.0
 11
26.5204581526133
 21
17.42712461457823
 31
0.0
  0
LINE
  5
87E
330
18
100
AcDbEntity
  8
0
100
AcDbLine
 10
23.68782399722757
 20
16.47846591800561
 30
0.0
 11
27.04054945604067
 21
16.47846591800563
 31
0.0
  0
LINE
  5
87F
330
18
100
AcDbEntity
  8
0
100
AcDbLine
 10
23.91024246346833
 20
14.29212461457824
 30
0.0
 11
26.81813098979991
 21
14.29212461457824
 31
0.0
  0
LINE
  5
880
330
18
100
AcDbEntity
  8
0
100
AcDbLine
 10
23.68782399722757
 20
16.47846591800561
 30
0.0
 11
23.7227710206265
 21
14.47635228837125
 31
0.0
  0
ARC
  5
881
330
18
100
AcDbEntity
  8
0
100
AcDbCircle
 10
23.91024246346832
 20
14.47962461457824
 30
0.0
 40
0.1875
100
AcDbArc
 50
181.0
 51
270.0
  0
LINE
  5
882
330
18
100
AcDbEntity
  8
0
100
AcDbLine
 10
23.55166530065494
 20
16.61462461457823
 30
0.0
 11
23.68782399722757
 21
16.47846591800561
 31
0.0
  0
LINE
  5
883
330
18
100
AcDbEntity
  8
0
100
AcDbLine
 10
24.20791530065494
 20
17.42712461457823
 30
0.0
 11
24.02041530065494
 21
17.23962461457823
 31
0.0
  0
LINE
  5
884
330
18
100
AcDbEntity
  8
0
100
AcDbLine
 10
23.55166530065494
 20
16.80212461457824
 30
0.0
 11
23.56483675904433
 21
17.17930583312214
 31
0.0
  0
ARC
  5
885
330
18
100
AcDbEntity
  8
0
100
AcDbCircle
 10
23.62729868573302
 20
17.17712461457823
 30
0.0
 40
0.0625
100
AcDbArc
 50
90.00000000000003
 51
178.0
  0
LINE
  5
886
330
18
100
AcDbEntity
  8
0
100
AcDbLine
 10
23.55166530065494
 20
16.78712461457824
 30
0.0
 11
23.55166530065494
 21
16.61462461457824
 31
0.0
  0
LINE
  5
887
330
18
100
AcDbEntity
  8
0
100
AcDbLine
 10
27.04054945604067
 20
16.47846591800563
 30
0.0
 11
27.00560243264174
 21
14.47635228837125
 31
0.0
  0
DIMENSION
  5
888
330
18
100
AcDbEntity
  8
DIM
100
AcDbDimension
280
     0
  2
*D27
 10
28.92670815261329
 20
17.23962461457824
 30
0.0
 11
28.92670815261329
 21
15.76587461457824
 31
0.0
 12
-9.200941139375693
 22
-41.39540395219319
 32
0.0
 70
   128
 71
     5
 42
-1.0
 73
     0
 74
     0
 75
     0
100
AcDbAlignedDimension
 13
26.81813098979991
 23
14.29212461457824
 33
0.0
 14
27.10107476753522
 24
17.23962461457824
 34
0.0
 50
90.0
100
AcDbRotatedDimension
  0
DIMENSION
  5
889
330
18
100
AcDbEntity
  8
DIM
100
AcDbDimension
280
     0
  2
*D26
 10
30.6767081526133
 20
17.42712461457823
 30
0.0
 11
30.6767081526133
 21
15.85962461457824
 31
0.0
 12
-9.200941139375693
 22
-41.39540395219319
 32
0.0
 70
   128
 71
     5
 42
-1.0
 73
     0
 74
     0
 75
     0
100
AcDbAlignedDimension
 13
26.91188098979991
 23
14.29212461457824
 33
0.0
 14
26.5204581526133
 24
17.42712461457823
 34
0.0
 50
90.0
100
AcDbRotatedDimension
  0
ARC
  5
88A
330
18
100
AcDbEntity
  8
0
100
AcDbCircle
 10
26.81813098979991
 20
14.47962461457824
 30
0.0
 40
0.1875
100
AcDbArc
 50
270.0
 51
359.0
  0
LINE
  5
88B
330
18
100
AcDbEntity
  8
0
100
AcDbLine
 10
26.5204581526133
 20
17.42712461457823
 30
0.0
 11
26.7079581526133
 21
17.23962461457824
 31
0.0
  0
LINE
  5
88C
330
18
100
AcDbEntity
  8
0
100
AcDbLine
 10
27.1767081526133
 20
16.61462461457824
 30
0.0
 11
27.04054945604067
 21
16.47846591800563
 31
0.0
  0
LINE
  5
88D
330
18
100
AcDbEntity
  8
0
100
AcDbLine
 10
27.1767081526133
 20
16.80212461457824
 30
0.0
 11
27.16353669422391
 21
17.17930583312214
 31
0.0
  0
ARC
  5
88E
330
18
100
AcDbEntity
  8
0
100
AcDbCircle
 10
27.10107476753522
 20
17.17712461457824
 30
0.0
 40
0.0625
100
AcDbArc
 50
2.000000000000015
 51
90.0
  0
LINE
  5
88F
330
18
100
AcDbEntity
  8
0
100
AcDbLine
 10
27.1767081526133
 20
16.78712461457824
 30
0.0
 11
27.1767081526133
 21
16.61462461457824
 31
0.0
  0
LINE
  5
890
330
18
100
AcDbEntity
  8
0
100
AcDbLine
 10
26.86420815261329
 20
29.85262559181539
 30
0.0
 11
23.86416530065493
 21
29.85262559181539
 31
0.0
  0
INSERT
  5
891
330
18
100
AcDbEntity
  8
DIM
100
AcDbBlockReference
  2
SBBT
 10
26.142442760687
 20
30.03565296665272
 30
0.0
 41
2.0
 42
2.0
 43
2.0
  0
DIMENSION
  5
892
330
18
100
AcDbEntity
  8
DIM
100
AcDbDimension
280
     0
  2
*D36
 10
26.5517131526133
 20
31.77372836575137
 30
0.0
 11
25.36418672663411
 21
31.77372836575137
 31
0.0
 12
0.0
 22
3.162002202451699
 32
0.0
 70
   128
 71
     5
 42
-1.0
 73
     0
 74
     0
 75
     0
100
AcDbAlignedDimension
 13
24.17666030065495
 23
29.22763559181536
 33
0.0
 14
26.5517131526133
 24
29.22763559181536
 34
0.0
100
AcDbRotatedDimension
  0
DIMENSION
  5
893
330
18
100
AcDbEntity
  8
DIM
100
AcDbDimension
280
     0
  2
*D28
 10
23.55166530065493
 20
32.85262559181536
 30
0.0
 11
25.43173672663411
 21
32.85262559181536
 31
0.0
 12
-9.200941139375693
 22
-41.39540395219319
 32
0.0
 70
   128
 71
     5
 42
-1.0
 73
     0
 74
     0
 75
     0
100
AcDbAlignedDimension
 13
27.17670815261329
 23
29.54012559181536
 33
0.0
 14
23.55166530065493
 24
29.54012559181536
 34
0.0
100
AcDbRotatedDimension
  0
LINE
  5
894
330
18
100
AcDbEntity
  8
0
100
AcDbLine
 10
23.86416530065494
 20
23.88128273985698
 30
0.0
 11
26.8642081526133
 21
23.88128273985698
 31
0.0
  0
INSERT
  5
895
330
18
100
AcDbEntity
  8
DIM
100
AcDbBlockReference
  2
SBBB
 10
26.14244276068701
 20
23.65445826374738
 30
0.0
 41
2.0
 42
2.0
 43
2.0
  0
POLYLINE
  5
896
330
18
100
AcDbEntity
  8
0
100
AcDb2dPolyline
 66
     1
 10
0.0
 20
0.0
 30
0.0
 70
     1
  0
VERTEX
  5
897
330
896
100
AcDbEntity
  8
0
100
AcDbVertex
100
AcDb2dVertex
 10
26.5517131526133
 20
24.50633273985698
 30
0.0
  0
VERTEX
  5
898
330
896
100
AcDbEntity
  8
0
100
AcDbVertex
100
AcDb2dVertex
 10
26.5517131526133
 20
29.22763559181539
 30
0.0
  0
VERTEX
  5
899
330
896
100
AcDbEntity
  8
0
100
AcDbVertex
100
AcDb2dVertex
 10
24.17666030065495
 20
29.22763559181539
 30
0.0
  0
VERTEX
  5
89A
330
896
100
AcDbEntity
  8
0
100
AcDbVertex
100
AcDb2dVertex
 10
24.17666030065495
 20
24.50633273985698
 30
0.0
  0
SEQEND
  5
89B
330
896
100
AcDbEntity
  8
0
  0
POLYLINE
  5
89C
330
18
100
AcDbEntity
  8
0
100
AcDb2dPolyline
 66
     1
 10
0.0
 20
0.0
 30
0.0
 70
     1
  0
VERTEX
  5
89D
330
89C
100
AcDbEntity
  8
0
100
AcDbVertex
100
AcDb2dVertex
 10
26.7392131526133
 20
24.50633273985698
 30
0.0
  0
VERTEX
  5
89E
330
89C
100
AcDbEntity
  8
0
100
AcDbVertex
100
AcDb2dVertex
 10
26.7392131526133
 20
29.22763559181539
 30
0.0
 42
0.4142135623730951
  0
VERTEX
  5
89F
330
89C
100
AcDbEntity
  8
0
100
AcDbVertex
100
AcDb2dVertex
 10
26.5517131526133
 20
29.41513559181539
 30
0.0
  0
VERTEX
  5
8A0
330
89C
100
AcDbEntity
  8
0
100
AcDbVertex
100
AcDb2dVertex
 10
24.17666030065495
 20
29.41513559181539
 30
0.0
 42
0.4142135623730951
  0
VERTEX
  5
8A1
330
89C
100
AcDbEntity
  8
0
100
AcDbVertex
100
AcDb2dVertex
 10
23.98916030065494
 20
29.22763559181539
 30
0.0
  0
VERTEX
  5
8A2
330
89C
100
AcDbEntity
  8
0
100
AcDbVertex
100
AcDb2dVertex
 10
23.98916030065494
 20
24.50633273985698
 30
0.0
 42
0.4142135623730946
  0
VERTEX
  5
8A3
330
89C
100
AcDbEntity
  8
0
100
AcDbVertex
100
AcDb2dVertex
 10
24.17666030065495
 20
24.31883273985698
 30
0.0
  0
VERTEX
  5
8A4
330
89C
100
AcDbEntity
  8
0
100
AcDbVertex
100
AcDb2dVertex
 10
26.5517131526133
 20
24.31883273985698
 30
0.0
 42
0.4142135623730951
  0
SEQEND
  5
8A5
330
89C
100
AcDbEntity
  8
0
  0
CIRCLE
  5
8A6
330
18
100
AcDbEntity
  8
0
 62
     4
100
AcDbCircle
 10
23.86416530065494
 20
29.54012559181539
 30
0.0
 40
0.1875
  0
ARC
  5
8A7
330
18
100
AcDbEntity
  8
0
100
AcDbCircle
 10
23.86416530065493
 20
29.54012559181539
 30
0.0
 40
0.3125
100
AcDbArc
 50
90.0
 51
180.0
  0
DIMENSION
  5
8A8
330
18
100
AcDbEntity
  8
DIM
100
AcDbDimension
280
     0
  2
*D29
 10
19.71583300151152
 20
29.85262559181536
 30
0.0
 11
19.71583300151153
 21
26.92121363222086
 31
0.0
 12
-9.200941139375693
 22
-41.39540395219319
 32
0.0
 70
   128
 71
     5
 42
-1.0
 73
     0
 74
     0
 75
     0
100
AcDbAlignedDimension
 13
23.86416530065494
 23
23.88128273985698
 33
0.0
 14
23.86416530065493
 24
29.85262559181536
 34
0.0
 50
90.0
100
AcDbRotatedDimension
  0
DIMENSION
  5
8A9
330
18
100
AcDbEntity
  8
DIM
100
AcDbDimension
280
     0
  2
*D14
 10
21.46583300151153
 20
29.22763559181536
 30
0.0
 11
21.46583300151153
 21
26.91223416583617
 31
0.0
 12
-9.200941139375693
 22
-41.39540395219319
 32
0.0
 70
   128
 71
     5
 42
-1.0
 73
     0
 74
     0
 75
     0
100
AcDbAlignedDimension
 13
24.17666030065495
 23
24.50633273985698
 33
0.0
 14
24.17666030065495
 24
29.22763559181536
 34
0.0
 50
90.0
100
AcDbRotatedDimension
  0
LINE
  5
8AA
330
18
100
AcDbEntity
  8
0
100
AcDbLine
 10
23.55166530065493
 20
29.54012559181539
 30
0.0
 11
23.55166530065494
 21
24.19378273985698
 31
0.0
  0
ARC
  5
8AB
330
18
100
AcDbEntity
  8
0
100
AcDbCircle
 10
23.86416530065494
 20
24.19378273985698
 30
0.0
 40
0.3125
100
AcDbArc
 50
180.0
 51
270.0
  0
CIRCLE
  5
8AC
330
18
100
AcDbEntity
  8
0
 62
     4
100
AcDbCircle
 10
23.86416530065494
 20
24.19378273985698
 30
0.0
 40
0.1875
  0
CIRCLE
  5
8AD
330
18
100
AcDbEntity
  8
0
100
AcDbCircle
 10
23.86416530065494
 20
24.19378273985698
 30
0.0
 40
0.171875
  0
LINE
  5
8AE
330
18
100
AcDbEntity
  8
0
100
AcDbLine
 10
23.96262042140123
 20
24.05290121223951
 30
0.0
 11
23.72328377303743
 21
24.29223786060328
 31
0.0
  0
LINE
  5
8AF
330
18
100
AcDbEntity
  8
0
100
AcDbLine
 10
24.00504682827242
 20
24.0953276191107
 30
0.0
 11
23.76571017990862
 21
24.33466426747449
 31
0.0
  0
INSERT
  5
8B0
330
18
100
AcDbEntity
  8
DIM
100
AcDbBlockReference
  2
SAAL
 10
23.38392775712371
 20
26.40497376753585
 30
0.0
 41
2.0
 42
2.0
 43
2.0
  0
CIRCLE
  5
8B1
330
18
100
AcDbEntity
  8
0
100
AcDbCircle
 10
23.86416530065494
 20
29.54012559181539
 30
0.0
 40
0.171875
  0
LINE
  5
8B2
330
18
100
AcDbEntity
  8
0
100
AcDbLine
 10
23.96262042140123
 20
29.39924406419791
 30
0.0
 11
23.72328377303743
 21
29.63858071256169
 31
0.0
  0
LINE
  5
8B3
330
18
100
AcDbEntity
  8
0
100
AcDbLine
 10
24.00504682827242
 20
29.44167047106909
 30
0.0
 11
23.76571017990862
 21
29.68100711943288
 31
0.0
  0
SOLID
  5
8B4
330
18
100
AcDbEntity
  8
DIM
100
AcDbTrace
 10
27.10644629094301
 20
29.7084713527667
 30
0.0
 11
27.06307396372998
 21
29.75324060199617
 31
0.0
 12
26.95045237964809
 22
29.60073899574235
 32
0.0
 13
26.95045237964809
 23
29.60073899574235
 33
0.0
  0
CIRCLE
  5
8B5
330
18
100
AcDbEntity
  8
0
 62
     4
100
AcDbCircle
 10
26.8642081526133
 20
29.54012559181539
 30
0.0
 40
0.1875
  0
ARC
  5
8B6
330
18
100
AcDbEntity
  8
0
100
AcDbCircle
 10
26.86420815261329
 20
29.54012559181539
 30
0.0
 40
0.3125
100
AcDbArc
 50
0.0
 51
90.0
  0
LINE
  5
8B7
330
18
100
AcDbEntity
  8
0
100
AcDbLine
 10
27.1767081526133
 20
24.19378273985698
 30
0.0
 11
27.17670815261329
 21
29.54012559181539
 31
0.0
  0
CIRCLE
  5
8B8
330
18
100
AcDbEntity
  8
0
 62
     4
100
AcDbCircle
 10
26.8642081526133
 20
24.19378273985698
 30
0.0
 40
0.1875
  0
CIRCLE
  5
8B9
330
18
100
AcDbEntity
  8
0
100
AcDbCircle
 10
26.8642081526133
 20
24.19378273985698
 30
0.0
 40
0.171875
  0
LINE
  5
8BA
330
18
100
AcDbEntity
  8
0
100
AcDbLine
 10
26.96266327335958
 20
24.05290121223951
 30
0.0
 11
26.72332662499579
 21
24.29223786060328
 31
0.0
  0
LINE
  5
8BB
330
18
100
AcDbEntity
  8
0
100
AcDbLine
 10
27.00508968023078
 20
24.0953276191107
 30
0.0
 11
26.76575303186698
 21
24.33466426747449
 31
0.0
  0
ARC
  5
8BC
330
18
100
AcDbEntity
  8
0
100
AcDbCircle
 10
26.8642081526133
 20
24.19378273985698
 30
0.0
 40
0.3125
100
AcDbArc
 50
270.0
 51
0.0
  0
CIRCLE
  5
8BD
330
18
100
AcDbEntity
  8
0
100
AcDbCircle
 10
26.8642081526133
 20
29.54012559181539
 30
0.0
 40
0.171875
  0
LINE
  5
8BE
330
18
100
AcDbEntity
  8
0
100
AcDbLine
 10
26.96266327335958
 20
29.39924406419791
 30
0.0
 11
26.72332662499579
 21
29.63858071256169
 31
0.0
  0
LINE
  5
8BF
330
18
100
AcDbEntity
  8
0
100
AcDbLine
 10
27.00508968023078
 20
29.44167047106909
 30
0.0
 11
26.76575303186698
 21
29.68100711943288
 31
0.0
  0
INSERT
  5
8C0
330
18
100
AcDbEntity
  8
DIM
100
AcDbBlockReference
  2
SAAR
 10
27.26970815261329
 20
26.38786205030225
 30
0.0
 41
2.0
 42
2.0
 43
2.0
  0
LINE
  5
8C1
330
18
100
AcDbEntity
  8
DIM
100
AcDbLine
 10
27.0847601273365
 20
29.73085597738143
 30
0.0
 11
28.06621442399109
 21
30.68168623770029
 31
0.0
  0
LINE
  5
8C2
330
18
100
AcDbEntity
  8
DIM
100
AcDbLine
 10
28.06621442399109
 20
30.68168623770029
 30
0.0
 11
28.25321442399108
 21
30.68168623770029
 31
0.0
  0
TEXT
  5
8C3
330
18
100
AcDbEntity
  8
DIM
100
AcDbText
 10
28.45265294609143
 20
30.27747039107929
 30
0.0
 40
0.187
  1
PAN HD. SCREW
100
AcDbText
  0
TEXT
  5
8C4
330
18
100
AcDbEntity
  8
DIM
100
AcDbText
 10
28.44021442399108
 20
30.58818623770029
 30
0.0
 40
0.187
  1
10-24 X 3/4 S.S. 
100
AcDbText
  0
TEXT
  5
8C5
330
18
100
AcDbEntity
  8
DIM
100
AcDbText
 10
28.45265294609143
 20
29.96580372441263
 30
0.0
 40
0.187
  1
4 REQ'D.
100
AcDbText
  0
TEXT
  5
8C6
330
18
100
AcDbEntity
  8
TITLE
100
AcDbText
 10
44.74101858325111
 20
2.421898353972657
 30
0.0
 40
0.187
  1
F.R. POLYESTER FIBERGLASS
100
AcDbText
  0
TEXT
  5
8C7
330
18
100
AcDbEntity
  8
TITLE
100
AcDbText
 10
44.71726211672854
 20
3.622225083533685
 30
0.0
 40
0.187
  1
NEMA 4X
100
AcDbText
  0
TEXT
  5
8CA
330
18
100
AcDbEntity
  8
TITLE
100
AcDbText
 10
53.17456419876062
 20
2.385744489080259
 30
0.0
 40
0.187
  1
7/23/93
 41
0.800351545947276
 72
     5
 11
54.17233579270821
 21
2.385744489080259
 31
0.0
100
AcDbText
  0
TEXT
  5
8CB
330
18
100
AcDbEntity
  8
TITLE
100
AcDbText
 10
52.3744284369846
 20
2.403143248823269
 30
0.0
 40
0.187
  1
GF
100
AcDbText
  0
TEXT
  5
8CC
330
18
100
AcDbEntity
  8
TITLE
100
AcDbText
 10
56.3104177797388
 20
0.1900408411951275
 30
0.0
 40
0.187
  1
ENCLOSURE
100
AcDbText
  0
TEXT
  5
8CD
330
18
100
AcDbEntity
  8
TITLE
100
AcDbText
 10
60.80038995250301
 20
3.296493546852524
 30
0.0
 40
0.187
  1
.010
100
AcDbText
  0
TEXT
  5
8CE
330
18
100
AcDbEntity
  8
TITLE
100
AcDbText
 10
61.97763528936859
 20
0.9252612291032704
 30
0.0
 40
0.187
  1
HW-N4X532
 72
     1
 11
62.81913528936859
 21
0.9252612291032704
 31
0.0
100
AcDbText
  0
TEXT
  5
8CF
330
18
100
AcDbEntity
  8
TITLE
100
AcDbText
 10
62.34456027646956
 20
3.277738441703135
 30
0.0
 40
0.187
  1
1/32
100
AcDbText
  0
DIMENSION
  5
8D0
330
18
100
AcDbEntity
  8
DIM
100
AcDbDimension
280
     0
  2
*D25
 10
56.85005539677852
 20
29.14820416583617
 30
0.0
 11
56.85005539677852
 21
26.92490416583618
 31
0.0
 12
-12.2314278337734
 22
-41.39540395219319
 32
0.0
 70
   128
 71
     5
 42
-1.0
 73
     0
 74
     0
 75
     0
100
AcDbAlignedDimension
 13
53.34977432116819
 23
24.58570416583618
 33
0.0
 14
53.34977432116819
 24
29.14820416583617
 34
0.0
 50
90.0
100
AcDbRotatedDimension
  0
DIMENSION
  5
8D1
330
18
100
AcDbEntity
  8
DIM
100
AcDbDimension
280
     0
  2
*D22
 10
55.10005539677852
 20
28.78849237250353
 30
0.0
 11
55.10005539677852
 21
26.92490416583617
 31
0.0
 12
-12.2314278337734
 22
-41.39540395219319
 32
0.0
 70
   128
 71
     5
 42
-1.0
 73
     0
 74
     0
 75
     0
100
AcDbAlignedDimension
 13
53.22477432116819
 23
24.9454159591688
 33
0.0
 14
53.22477432116819
 24
28.78849237250353
 34
0.0
 50
90.0
100
AcDbRotatedDimension
  0
DIMENSION
  5
8D2
330
18
100
AcDbEntity
  8
DIM
100
AcDbDimension
280
     0
  2
*D21
 10
58.60005539677852
 20
24.1773694217231
 30
0.0
 11
58.60005539677852
 21
27.0284298156273
 31
0.0
 12
-12.2314278337734
 22
-41.39540395219319
 32
0.0
 70
   128
 71
     5
 42
-1.0
 73
     0
 74
     0
 75
     0
100
AcDbAlignedDimension
 13
53.16336509657052
 23
29.55653890994924
 33
0.0
 14
53.16336509657049
 24
24.1773694217231
 34
0.0
 50
90.0
100
AcDbRotatedDimension
  0
DIMENSION
  5
8D3
330
18
100
AcDbEntity
  8
DIM
100
AcDbDimension
280
     0
  2
*D17
 10
55.231988584201
 20
17.03712461457825
 30
0.0
 11
55.231988584201
 21
15.72712461457825
 31
0.0
 12
-12.2314278337734
 22
-41.39540395219319
 32
0.0
 70
   128
 71
     5
 42
-1.0
 73
     0
 74
     0
 75
     0
100
AcDbAlignedDimension
 13
53.12341142138762
 23
14.41712461457824
 33
0.0
 14
53.33373584223182
 24
17.03712461457825
 34
0.0
 50
90.0
100
AcDbRotatedDimension
  0
LINE
  5
8D4
330
18
100
AcDbEntity
  8
0
100
AcDbLine
 10
35.76692585921785
 20
29.19637559181537
 30
0.0
 11
35.95442585921784
 21
29.38387559181537
 31
0.0
  0
LINE
  5
8D5
330
18
100
AcDbEntity
  8
0
100
AcDbLine
 10
35.76692585921785
 20
24.53753273985696
 30
0.0
 11
35.95442585921785
 21
24.35003273985696
 31
0.0
  0
LINE
  5
8D6
330
18
100
AcDbEntity
  8
0
100
AcDbLine
 10
35.76692585921785
 20
24.53753273985696
 30
0.0
 11
35.76692585921785
 21
29.19637559181537
 31
0.0
  0
ARC
  5
8D7
330
18
100
AcDbEntity
  8
0
100
AcDbCircle
 10
38.71442585921784
 20
29.49404842900198
 30
0.0
 40
0.1875
100
AcDbArc
 50
0.0
 51
89.0
  0
LINE
  5
8D8
330
18
100
AcDbEntity
  8
0
100
AcDbLine
 10
36.57942585921785
 20
29.85262559181537
 30
0.0
 11
36.71558455579047
 21
29.71646689524275
 31
0.0
  0
DIMENSION
  5
8D9
330
18
100
AcDbEntity
  8
DIM
100
AcDbDimension
280
     0
  2
*D35
 10
38.90192585921784
 20
31.77372836575139
 30
0.0
 11
37.80875520750415
 21
31.77372836575139
 31
0.0
 12
0.0
 22
3.162002202451699
 32
0.0
 70
   128
 71
     5
 42
-1.0
 73
     0
 74
     0
 75
     0
100
AcDbAlignedDimension
 13
36.71558455579047
 23
29.71646689524275
 33
0.0
 14
38.90192585921784
 24
29.49404842900198
 34
0.0
100
AcDbRotatedDimension
  0
LINE
  5
8DA
330
18
100
AcDbEntity
  8
0
100
AcDbLine
 10
36.39192585921785
 20
23.88128273985696
 30
0.0
 11
36.39192585921784
 21
29.85262559181537
 31
0.0
  0
LINE
  5
8DB
330
18
100
AcDbEntity
  8
0
100
AcDbLine
 10
36.40692585921785
 20
23.88128273985696
 30
0.0
 11
36.40692585921784
 21
29.85262559181537
 31
0.0
  0
LINE
  5
8DC
330
18
100
AcDbEntity
  8
0
100
AcDbLine
 10
36.57942585921785
 20
23.88128273985696
 30
0.0
 11
36.57942585921784
 21
29.85262559181537
 31
0.0
  0
LINE
  5
8DD
330
18
100
AcDbEntity
  8
0
100
AcDbLine
 10
35.95442585921785
 20
23.95691612493504
 30
0.0
 11
35.95442585921784
 21
29.77699220673729
 31
0.0
  0
LINE
  5
8DE
330
18
100
AcDbEntity
  8
0
100
AcDbLine
 10
38.90192585921784
 20
24.23985990267038
 30
0.0
 11
38.90192585921784
 21
29.49404842900198
 31
0.0
  0
LINE
  5
8DF
330
18
100
AcDbEntity
  8
0
100
AcDbLine
 10
36.71558455579047
 20
24.0174414364296
 30
0.0
 11
36.71558455579047
 21
29.71646689524275
 31
0.0
  0
LINE
  5
8E0
330
18
100
AcDbEntity
  8
0
100
AcDbLine
 10
36.71558455579047
 20
24.0174414364296
 30
0.0
 11
38.71769818542484
 21
24.05238845982855
 31
0.0
  0
LINE
  5
8E1
330
18
100
AcDbEntity
  8
0
100
AcDbLine
 10
36.57942585921784
 20
23.88128273985696
 30
0.0
 11
36.71558455579047
 21
24.0174414364296
 31
0.0
  0
ARC
  5
8E2
330
18
100
AcDbEntity
  8
0
100
AcDbCircle
 10
36.01692585921785
 20
23.95691612493504
 30
0.0
 40
0.0625
100
AcDbArc
 50
180.0
 51
267.9999999999999
  0
LINE
  5
8E3
330
18
100
AcDbEntity
  8
0
100
AcDbLine
 10
36.39192585921785
 20
23.88128273985696
 30
0.0
 11
36.01474464067394
 21
23.89445419824635
 31
0.0
  0
LINE
  5
8E4
330
18
100
AcDbEntity
  8
0
100
AcDbLine
 10
36.40692585921785
 20
23.88128273985696
 30
0.0
 11
36.57942585921785
 21
23.88128273985696
 31
0.0
  0
ARC
  5
8E5
330
18
100
AcDbEntity
  8
0
100
AcDbCircle
 10
38.71442585921784
 20
24.23985990267038
 30
0.0
 40
0.1875
100
AcDbArc
 50
271.0
 51
0.0
  0
LINE
  5
8E6
330
18
100
AcDbEntity
  8
0
100
AcDbLine
 10
36.71558455579047
 20
29.71646689524275
 30
0.0
 11
38.71769818542484
 21
29.68151987184381
 31
0.0
  0
ARC
  5
8E7
330
18
100
AcDbEntity
  8
0
100
AcDbCircle
 10
36.01692585921784
 20
29.77699220673728
 30
0.0
 40
0.0625
100
AcDbArc
 50
92.00000000000001
 51
180.0
  0
LINE
  5
8E8
330
18
100
AcDbEntity
  8
0
100
AcDbLine
 10
36.39192585921784
 20
29.85262559181537
 30
0.0
 11
36.01474464067394
 21
29.83945413342598
 31
0.0
  0
LINE
  5
8E9
330
18
100
AcDbEntity
  8
0
100
AcDbLine
 10
36.40692585921784
 20
29.85262559181537
 30
0.0
 11
36.57942585921784
 21
29.85262559181537
 31
0.0
  0
TEXT
  5
8EA
330
18
100
AcDbEntity
  8
DIM
100
AcDbText
 10
47.7611169660321
 20
18.0439289438134
 30
0.0
 40
0.187
  1
GASKET
100
AcDbText
  0
LINE
  5
8EB
330
18
100
AcDbEntity
  8
HIDE
100
AcDbLine
 10
52.93546715822181
 20
14.79212461457824
 30
0.0
 11
52.93546715822181
 21
14.29212461457824
 31
0.0
  0
LINE
  5
8EC
330
18
100
AcDbEntity
  8
HIDE
100
AcDbLine
 10
53.1534671582218
 20
14.79212461457824
 30
0.0
 11
53.1534671582218
 21
14.29212461457824
 31
0.0
  0
LINE
  5
8ED
330
18
100
AcDbEntity
  8
HIDE
100
AcDbLine
 10
50.18546715822181
 20
14.79212461457824
 30
0.0
 11
50.18546715822181
 21
14.29212461457824
 31
0.0
  0
LINE
  5
8EE
330
18
100
AcDbEntity
  8
HIDE
100
AcDbLine
 10
50.40346715822181
 20
14.79212461457824
 30
0.0
 11
50.40346715822181
 21
14.29212461457824
 31
0.0
  0
INSERT
  5
8EF
330
18
100
AcDbEntity
  8
HATCH
100
AcDbBlockReference
  2
*X8
 10
13.45887101006361
 20
-11.23089689073949
 30
0.0
  0
POLYLINE
  5
8F0
330
18
100
AcDbEntity
  8
0
 62
     7
100
AcDb2dPolyline
 66
     1
 10
0.0
 20
0.0
 30
0.0
 70
     1
  0
VERTEX
  5
8F1
330
8F0
100
AcDbEntity
  8
0
 62
     7
100
AcDbVertex
100
AcDb2dVertex
 10
50.15196051210619
 20
14.53994306377358
 30
0.0
  0
VERTEX
  5
8F2
330
8F0
100
AcDbEntity
  8
0
 62
     7
100
AcDbVertex
100
AcDb2dVertex
 10
50.10837204599937
 20
17.03712461457823
 30
0.0
  0
VERTEX
  5
8F3
330
8F0
100
AcDbEntity
  8
0
 62
     7
100
AcDbVertex
100
AcDb2dVertex
 10
50.00519847421181
 20
17.03712461457824
 30
0.0
  0
VERTEX
  5
8F4
330
8F0
100
AcDbEntity
  8
0
 62
     7
100
AcDbVertex
100
AcDb2dVertex
 10
49.98771677122594
 20
16.78712461457825
 30
0.0
  0
VERTEX
  5
8F5
330
8F0
100
AcDbEntity
  8
0
 62
     7
100
AcDbVertex
100
AcDb2dVertex
 10
49.85694573224264
 20
16.78712461457825
 30
0.0
  0
VERTEX
  5
8F6
330
8F0
100
AcDbEntity
  8
0
 62
     7
100
AcDbVertex
100
AcDb2dVertex
 10
49.85694573224264
 20
16.61462461457825
 30
0.0
  0
VERTEX
  5
8F7
330
8F0
100
AcDbEntity
  8
0
 62
     7
100
AcDbVertex
100
AcDb2dVertex
 10
49.99310442881526
 20
16.47846591800561
 30
0.0
  0
VERTEX
  5
8F8
330
8F0
100
AcDbEntity
  8
0
 62
     7
100
AcDbVertex
100
AcDb2dVertex
 10
50.02805145221419
 20
14.47635228837125
 30
0.0
 42
0.4091108014277117
  0
VERTEX
  5
8F9
330
8F0
100
AcDbEntity
  8
0
 62
     7
100
AcDbVertex
100
AcDb2dVertex
 10
50.21552289505599
 20
14.29212461457824
 30
0.0
  0
VERTEX
  5
8FA
330
8F0
100
AcDbEntity
  8
0
 62
     7
100
AcDbVertex
100
AcDb2dVertex
 10
53.12341142138762
 20
14.29212461457824
 30
0.0
 42
0.4091108014277065
  0
VERTEX
  5
8FB
330
8F0
100
AcDbEntity
  8
0
 62
     7
100
AcDbVertex
100
AcDb2dVertex
 10
53.31088286422945
 20
14.47635228837125
 30
0.0
  0
VERTEX
  5
8FC
330
8F0
100
AcDbEntity
  8
0
 62
     7
100
AcDbVertex
100
AcDb2dVertex
 10
53.34582988762836
 20
16.47846591800562
 30
0.0
  0
VERTEX
  5
8FD
330
8F0
100
AcDbEntity
  8
0
 62
     7
100
AcDbVertex
100
AcDb2dVertex
 10
53.481988584201
 20
16.61462461457825
 30
0.0
  0
VERTEX
  5
8FE
330
8F0
100
AcDbEntity
  8
0
 62
     7
100
AcDbVertex
100
AcDb2dVertex
 10
53.481988584201
 20
16.78712461457825
 30
0.0
  0
VERTEX
  5
8FF
330
8F0
100
AcDbEntity
  8
0
 62
     7
100
AcDbVertex
100
AcDb2dVertex
 10
53.3512175452177
 20
16.78712461457825
 30
0.0
  0
VERTEX
  5
900
330
8F0
100
AcDbEntity
  8
0
 62
     7
100
AcDbVertex
100
AcDb2dVertex
 10
53.33373584223182
 20
17.03712461457825
 30
0.0
  0
VERTEX
  5
901
330
8F0
100
AcDbEntity
  8
0
 62
     7
100
AcDbVertex
100
AcDb2dVertex
 10
53.23056227044426
 20
17.03712461457825
 30
0.0
  0
VERTEX
  5
902
330
8F0
100
AcDbEntity
  8
0
 62
     7
100
AcDbVertex
100
AcDb2dVertex
 10
53.18697380433745
 20
14.53994306377359
 30
0.0
 42
-0.4091108014277121
  0
VERTEX
  5
903
330
8F0
100
AcDbEntity
  8
0
 62
     7
100
AcDbVertex
100
AcDb2dVertex
 10
53.06199284244289
 20
14.41712461457824
 30
0.0
  0
VERTEX
  5
904
330
8F0
100
AcDbEntity
  8
0
 62
     7
100
AcDbVertex
100
AcDb2dVertex
 10
50.27694147400074
 20
14.41712461457824
 30
0.0
 42
-0.4091108014277121
  0
SEQEND
  5
905
330
8F0
100
AcDbEntity
  8
0
 62
     7
  0
LINE
  5
906
330
18
100
AcDbEntity
  8
0
100
AcDbLine
 10
50.60844821002131
 20
17.03712461457823
 30
0.0
 11
50.65418048013324
 21
14.41712461457824
 31
0.0
  0
LINE
  5
907
330
18
100
AcDbEntity
  8
0
100
AcDbLine
 10
52.73048610642234
 20
17.03712461457824
 30
0.0
 11
52.6847538363104
 21
14.41712461457824
 31
0.0
  0
DIMENSION
  5
908
330
18
100
AcDbEntity
  8
DIM
100
AcDbDimension
280
     0
  2
*D38
 10
49.36537047935623
 20
14.29212461457824
 30
0.0
 11
48.66274547935624
 21
13.91812461457824
 31
0.0
 71
     5
 42
-1.0
 73
     0
 74
     0
 75
     0
100
AcDbAlignedDimension
 13
50.27694147400074
 23
14.41712461457824
 33
0.0
 14
50.21552289505599
 24
14.29212461457824
 34
0.0
 50
90.0
100
AcDbRotatedDimension
  0
DIMENSION
  5
909
330
18
100
AcDbEntity
  8
DIM
100
AcDbDimension
280
     0
  2
*D20
 10
53.04446715822181
 20
11.79212461457824
 30
0.0
 11
51.85615730351543
 21
11.79212461457824
 31
0.0
 12
-12.2314278337734
 22
-41.39540395219319
 32
0.0
 70
   128
 71
     5
 42
-1.0
 73
     0
 74
     0
 75
     0
100
AcDbAlignedDimension
 13
50.29446715822182
 23
14.29212461457824
 33
0.0
 14
53.04446715822181
 24
14.29212461457824
 34
0.0
100
AcDbRotatedDimension
  0
DIMENSION
  5
90A
330
18
100
AcDbEntity
  8
DIM
100
AcDbDimension
280
     0
  2
*D16
 10
52.6847538363104
 20
13.04212461457824
 30
0.0
 11
51.65370730351543
 21
13.04212461457824
 31
0.0
 12
-12.2314278337734
 22
-41.39540395219319
 32
0.0
 70
   128
 71
     5
 42
-1.0
 73
     0
 74
     0
 75
     0
100
AcDbAlignedDimension
 13
50.65418048013324
 23
14.41712461457824
 33
0.0
 14
52.6847538363104
 24
14.41712461457824
 34
0.0
100
AcDbRotatedDimension
  0
INSERT
  5
90B
330
18
100
AcDbEntity
  8
DIM
100
AcDbBlockReference
  2
SAATX
 10
51.84924275849779
 20
8.566426138093252
 30
0.0
 41
2.0
 42
2.0
 43
2.0
  0
DIMENSION
  5
90C
330
18
100
AcDbEntity
  8
DIM
100
AcDbDimension
280
     0
  2
*D15
 10
50.15303241410873
 20
10.54212461457824
 30
0.0
 11
51.65370730351543
 21
10.54212461457824
 31
0.0
 12
-12.2314278337734
 22
-41.39540395219319
 32
0.0
 70
   128
 71
     5
 42
-1.0
 73
     0
 74
     0
 75
     0
100
AcDbAlignedDimension
 13
53.18590190233489
 23
14.47853383917591
 33
0.0
 14
50.15303241410873
 24
14.47853383917591
 34
0.0
100
AcDbRotatedDimension
  0
LINE
  5
90D
330
18
100
AcDbEntity
  8
HIDE
100
AcDbLine
 10
50.40346715822181
 20
14.29212461457824
 30
0.0
 11
50.18546715822181
 21
14.29212461457824
 31
0.0
  0
LINE
  5
90E
330
18
100
AcDbEntity
  8
HIDE
100
AcDbLine
 10
53.1534671582218
 20
14.29212461457824
 30
0.0
 11
52.93546715822181
 21
14.29212461457824
 31
0.0
  0
DIMENSION
  5
90F
330
18
100
AcDbEntity
  8
DIM
100
AcDbDimension
280
     0
  2
*D39
 10
51.01243005983199
 20
17.41712461457824
 30
0.0
 11
51.71505505983198
 21
17.79112461457823
 31
0.0
 71
     5
 42
-1.0
 73
     0
 74
     0
 75
     0
100
AcDbAlignedDimension
 13
50.98201443309999
 23
17.29212461457824
 33
0.0
 14
51.00634246528557
 24
17.41712461457824
 34
0.0
 50
90.0
100
AcDbRotatedDimension
  0
DIMENSION
  5
910
330
18
100
AcDbEntity
  8
DIM
100
AcDbDimension
280
     0
  2
*D19
 10
53.23056227044426
 20
19.61830510062559
 30
0.0
 11
51.73701715822181
 21
19.61830510062559
 31
0.0
 12
-12.2314278337734
 22
-41.39540395219319
 32
0.0
 70
   128
 71
     5
 42
-1.0
 73
     0
 74
     0
 75
     0
100
AcDbAlignedDimension
 13
50.10837204599937
 23
17.03712461457823
 33
0.0
 14
53.23056227044426
 24
17.03712461457825
 34
0.0
100
AcDbRotatedDimension
  0
DIMENSION
  5
911
330
18
100
AcDbEntity
  8
DIM
100
AcDbDimension
280
     0
  2
*D18
 10
52.73048610642234
 20
18.66212461457823
 30
0.0
 11
51.73701715822183
 21
18.66212461457823
 31
0.0
 12
-12.2314278337734
 22
-41.39540395219319
 32
0.0
 70
   128
 71
     5
 42
-1.0
 73
     0
 74
     0
 75
     0
100
AcDbAlignedDimension
 13
50.60844821002131
 23
17.03712461457823
 33
0.0
 14
52.73048610642234
 24
17.03712461457824
 34
0.0
100
AcDbRotatedDimension
  0
LINE
  5
912
330
18
100
AcDbEntity
  8
0
100
AcDbLine
 10
50.10837204599937
 20
17.03712461457823
 30
0.0
 11
53.23056227044426
 21
17.03712461457825
 31
0.0
  0
INSERT
  5
913
330
18
100
AcDbEntity
  8
HATCH
100
AcDbBlockReference
  2
*X9
 10
41.97820821024958
 20
-7.213836620469486
 30
0.0
  0
POLYLINE
  5
914
330
18
100
AcDbEntity
  8
0
100
AcDb2dPolyline
 66
     1
 10
0.0
 20
0.0
 30
0.0
 70
     1
  0
VERTEX
  5
915
330
914
100
AcDbEntity
  8
0
100
AcDbVertex
100
AcDb2dVertex
 10
53.40635519912292
 20
17.23962461457825
 30
0.0
  0
VERTEX
  5
916
330
914
100
AcDbEntity
  8
0
100
AcDbVertex
100
AcDb2dVertex
 10
53.04453858420099
 20
17.23962461457825
 30
0.0
  0
VERTEX
  5
917
330
914
100
AcDbEntity
  8
0
100
AcDbVertex
100
AcDb2dVertex
 10
52.85703858420099
 20
17.42712461457823
 30
0.0
  0
VERTEX
  5
918
330
914
100
AcDbEntity
  8
0
100
AcDbVertex
100
AcDb2dVertex
 10
50.48198573224263
 20
17.42712461457823
 30
0.0
  0
VERTEX
  5
919
330
914
100
AcDbEntity
  8
0
100
AcDbVertex
100
AcDb2dVertex
 10
50.29448573224263
 20
17.23962461457823
 30
0.0
  0
VERTEX
  5
91A
330
914
100
AcDbEntity
  8
0
100
AcDbVertex
100
AcDb2dVertex
 10
49.93257911732072
 20
17.23962461457823
 30
0.0
 42
0.4040262258351567
  0
VERTEX
  5
91B
330
914
100
AcDbEntity
  8
0
100
AcDbVertex
100
AcDb2dVertex
 10
49.87011719063202
 20
17.17930583312214
 30
0.0
  0
VERTEX
  5
91C
330
914
100
AcDbEntity
  8
0
100
AcDbVertex
100
AcDb2dVertex
 10
49.85694573224264
 20
16.80212461457825
 30
0.0
  0
VERTEX
  5
91D
330
914
100
AcDbEntity
  8
0
100
AcDbVertex
100
AcDb2dVertex
 10
49.98194573224264
 20
16.80212461457825
 30
0.0
  0
VERTEX
  5
91E
330
914
100
AcDbEntity
  8
0
100
AcDbVertex
100
AcDb2dVertex
 10
49.98194573224264
 20
17.08337461457824
 30
0.0
 42
-0.4142135623730951
  0
VERTEX
  5
91F
330
914
100
AcDbEntity
  8
0
100
AcDbVertex
100
AcDb2dVertex
 10
50.01319573224264
 20
17.11462461457824
 30
0.0
  0
VERTEX
  5
920
330
914
100
AcDbEntity
  8
0
100
AcDbVertex
100
AcDb2dVertex
 10
50.34626242753927
 20
17.11462461457823
 30
0.0
  0
VERTEX
  5
921
330
914
100
AcDbEntity
  8
0
100
AcDbVertex
100
AcDb2dVertex
 10
50.53376242753927
 20
17.30212461457823
 30
0.0
  0
VERTEX
  5
922
330
914
100
AcDbEntity
  8
0
100
AcDbVertex
100
AcDb2dVertex
 10
52.80526188890437
 20
17.30212461457823
 30
0.0
  0
VERTEX
  5
923
330
914
100
AcDbEntity
  8
0
100
AcDbVertex
100
AcDb2dVertex
 10
52.99276188890438
 20
17.11462461457825
 30
0.0
  0
VERTEX
  5
924
330
914
100
AcDbEntity
  8
0
100
AcDbVertex
100
AcDb2dVertex
 10
53.325738584201
 20
17.11462461457825
 30
0.0
 42
-0.4142135623730977
  0
VERTEX
  5
925
330
914
100
AcDbEntity
  8
0
100
AcDbVertex
100
AcDb2dVertex
 10
53.356988584201
 20
17.08337461457825
 30
0.0
  0
VERTEX
  5
926
330
914
100
AcDbEntity
  8
0
100
AcDbVertex
100
AcDb2dVertex
 10
53.356988584201
 20
16.80212461457825
 30
0.0
  0
VERTEX
  5
927
330
914
100
AcDbEntity
  8
0
100
AcDbVertex
100
AcDb2dVertex
 10
53.481988584201
 20
16.80212461457825
 30
0.0
  0
VERTEX
  5
928
330
914
100
AcDbEntity
  8
0
100
AcDbVertex
100
AcDb2dVertex
 10
53.4688171258116
 20
17.17930583312214
 30
0.0
 42
0.4040262258351567
  0
SEQEND
  5
929
330
914
100
AcDbEntity
  8
0
  0
LINE
  5
92A
330
18
100
AcDbEntity
  8
0
100
AcDbLine
 10
50.34626242753927
 20
17.11462461457823
 30
0.0
 11
52.99276188890438
 21
17.11462461457825
 31
0.0
  0
LINE
  5
92B
330
18
100
AcDbEntity
  8
DIM
100
AcDbLine
 10
49.89538518925023
 20
17.2221683862399
 30
0.0
 11
49.1411767453718
 21
18.13742894381341
 31
0.0
  0
LINE
  5
92C
330
18
100
AcDbEntity
  8
DIM
100
AcDbLine
 10
49.1411767453718
 20
18.13742894381341
 30
0.0
 11
48.9541767453718
 21
18.13742894381341
 31
0.0
  0
LINE
  5
92D
330
18
100
AcDbEntity
  8
HIDE
100
AcDbLine
 10
50.4669671582218
 20
14.79212461457824
 30
0.0
 11
50.4819671582218
 21
17.03712461457824
 31
0.0
  0
LINE
  5
92E
330
18
100
AcDbEntity
  8
HIDE
100
AcDbLine
 10
50.10696715822181
 20
17.03712461457823
 30
0.0
 11
50.12196715822181
 21
14.79212461457824
 31
0.0
  0
LINE
  5
92F
330
18
100
AcDbEntity
  8
HIDE
100
AcDbLine
 10
50.4669671582218
 20
14.79212461457824
 30
0.0
 11
50.40346715822181
 21
14.79212461457824
 31
0.0
  0
LINE
  5
930
330
18
100
AcDbEntity
  8
HIDE
100
AcDbLine
 10
50.18546715822181
 20
14.79212461457824
 30
0.0
 11
50.12196715822181
 21
14.79212461457824
 31
0.0
  0
SOLID
  5
931
330
18
100
AcDbEntity
  8
DIM
100
AcDbTrace
 10
49.91943769093818
 20
17.24198853441448
 30
0.0
 11
49.87133268756227
 21
17.20234823806532
 31
0.0
 12
50.01430607829769
 22
17.07785337611219
 32
0.0
 13
50.01430607829769
 23
17.07785337611219
 33
0.0
  0
POLYLINE
  5
932
330
18
100
AcDbEntity
  8
0
 62
     2
100
AcDb2dPolyline
 66
     1
 10
0.0
 20
0.0
 30
0.0
 70
     1
  0
VERTEX
  5
933
330
932
100
AcDbEntity
  8
0
 62
     2
100
AcDbVertex
100
AcDb2dVertex
 10
50.09290729610114
 20
17.04512461458251
 30
0.0
 42
0.9999834785717778
  0
VERTEX
  5
934
330
932
100
AcDbEntity
  8
0
 62
     2
100
AcDbVertex
100
AcDb2dVertex
 10
50.09290729610114
 20
17.10762461457398
 30
0.0
  0
VERTEX
  5
935
330
932
100
AcDbEntity
  8
0
 62
     2
100
AcDbVertex
100
AcDb2dVertex
 10
50.01686704923911
 20
17.10762461457551
 30
0.0
 42
1.000013231781622
  0
VERTEX
  5
936
330
932
100
AcDbEntity
  8
0
 62
     2
100
AcDbVertex
100
AcDb2dVertex
 10
50.01686704923911
 20
17.04512461458098
 30
0.0
  0
SEQEND
  5
937
330
932
100
AcDbEntity
  8
0
 62
     2
  0
LINE
  5
938
330
18
100
AcDbEntity
  8
0
100
AcDbLine
 10
49.98194573224264
 20
16.97462461457823
 30
0.0
 11
50.00082804846535
 21
16.97462461457823
 31
0.0
  0
LINE
  5
939
330
18
100
AcDbEntity
  8
0
100
AcDbLine
 10
50.7317482100213
 20
17.30212461457823
 30
0.0
 11
50.7317482100213
 21
17.11462461457823
 31
0.0
  0
LINE
  5
93A
330
18
100
AcDbEntity
  8
HIDE
100
AcDbLine
 10
52.87196715822181
 20
14.79212461457824
 30
0.0
 11
52.85696715822181
 21
17.03712461457824
 31
0.0
  0
LINE
  5
93B
330
18
100
AcDbEntity
  8
HIDE
100
AcDbLine
 10
52.87196715822181
 20
14.79212461457824
 30
0.0
 11
52.93546715822181
 21
14.79212461457824
 31
0.0
  0
LINE
  5
93C
330
18
100
AcDbEntity
  8
0
100
AcDbLine
 10
52.60718610642232
 20
17.30212461457823
 30
0.0
 11
52.60718610642232
 21
17.11462461457824
 31
0.0
  0
LINE
  5
93D
330
18
100
AcDbEntity
  8
HIDE
100
AcDbLine
 10
53.23196715822181
 20
17.03712461457823
 30
0.0
 11
53.21696715822181
 21
14.79212461457824
 31
0.0
  0
LINE
  5
93E
330
18
100
AcDbEntity
  8
HIDE
100
AcDbLine
 10
53.1534671582218
 20
14.79212461457824
 30
0.0
 11
53.21696715822181
 21
14.79212461457824
 31
0.0
  0
POLYLINE
  5
93F
330
18
100
AcDbEntity
  8
0
 62
     2
100
AcDb2dPolyline
 66
     1
 10
0.0
 20
0.0
 30
0.0
 70
     1
  0
VERTEX
  5
940
330
93F
100
AcDbEntity
  8
0
 62
     2
100
AcDbVertex
100
AcDb2dVertex
 10
53.24602702034249
 20
17.04512461458251
 30
0.0
 42
-0.9999834785717778
  0
VERTEX
  5
941
330
93F
100
AcDbEntity
  8
0
 62
     2
100
AcDbVertex
100
AcDb2dVertex
 10
53.24602702034249
 20
17.10762461457398
 30
0.0
  0
VERTEX
  5
942
330
93F
100
AcDbEntity
  8
0
 62
     2
100
AcDbVertex
100
AcDb2dVertex
 10
53.32206726720452
 20
17.10762461457551
 30
0.0
 42
-1.000013231781622
  0
VERTEX
  5
943
330
93F
100
AcDbEntity
  8
0
 62
     2
100
AcDbVertex
100
AcDb2dVertex
 10
53.32206726720452
 20
17.04512461458098
 30
0.0
  0
SEQEND
  5
944
330
93F
100
AcDbEntity
  8
0
 62
     2
  0
LINE
  5
945
330
18
100
AcDbEntity
  8
0
100
AcDbLine
 10
53.33810626797828
 20
16.97462461457825
 30
0.0
 11
53.356988584201
 21
16.97462461457825
 31
0.0
  0
DIMENSION
  5
946
330
18
100
AcDbEntity
  8
DIM
100
AcDbDimension
280
     0
  2
*D24
 10
46.71477432116819
 20
29.60119927805863
 30
0.0
 11
46.71477432116819
 21
26.92490416583618
 31
0.0
 12
-12.2314278337734
 22
-41.39540395219319
 32
0.0
 70
   128
 71
     5
 42
-1.0
 73
     0
 74
     0
 75
     0
100
AcDbAlignedDimension
 13
50.60477432116819
 23
24.13270905361371
 33
0.0
 14
50.60477432116819
 24
29.60119927805863
 34
0.0
 50
90.0
100
AcDbRotatedDimension
  0
DIMENSION
  5
947
330
18
100
AcDbEntity
  8
DIM
100
AcDbDimension
280
     0
  2
*D23
 10
48.46477432116818
 20
28.83422464261546
 30
0.0
 11
48.46477432116818
 21
26.92490416583617
 31
0.0
 12
-12.2314278337734
 22
-41.39540395219319
 32
0.0
 70
   128
 71
     5
 42
-1.0
 73
     0
 74
     0
 75
     0
100
AcDbAlignedDimension
 13
50.60477432116819
 23
24.89968368905687
 33
0.0
 14
50.60477432116819
 24
28.83422464261546
 34
0.0
 50
90.0
100
AcDbRotatedDimension
  0
DIMENSION
  5
948
330
18
100
AcDbEntity
  8
DIM
100
AcDbDimension
280
     0
  2
*D33
 10
53.34977432116819
 20
31.77372836575138
 30
0.0
 11
54.12894098783485
 21
31.77372836575138
 31
0.0
 12
0.0
 22
3.162002202451699
 32
0.0
 70
   128
 71
     5
 42
-1.0
 73
     0
 74
     0
 75
     0
100
AcDbAlignedDimension
 13
52.84977432116819
 23
29.32070416583615
 33
0.0
 14
53.34977432116819
 24
29.49404842900198
 34
0.0
100
AcDbRotatedDimension
  0
POLYLINE
  5
949
330
18
100
AcDbEntity
  8
0
 62
     2
100
AcDb2dPolyline
 66
     1
 10
0.0
 20
0.0
 30
0.0
 70
     1
  0
VERTEX
  5
94A
330
949
100
AcDbEntity
  8
0
 62
     2
100
AcDbVertex
100
AcDb2dVertex
 10
50.59677432116392
 20
29.61666402795686
 30
0.0
 42
-0.9999834785717778
  0
VERTEX
  5
94B
330
949
100
AcDbEntity
  8
0
 62
     2
100
AcDbVertex
100
AcDb2dVertex
 10
50.53427432117245
 20
29.61666402795686
 30
0.0
  0
VERTEX
  5
94C
330
949
100
AcDbEntity
  8
0
 62
     2
100
AcDbVertex
100
AcDb2dVertex
 10
50.53427432117092
 20
29.6927042748189
 30
0.0
 42
-1.000013231781622
  0
VERTEX
  5
94D
330
949
100
AcDbEntity
  8
0
 62
     2
100
AcDbVertex
100
AcDb2dVertex
 10
50.59677432116544
 20
29.6927042748189
 30
0.0
  0
SEQEND
  5
94E
330
949
100
AcDbEntity
  8
0
 62
     2
  0
LINE
  5
94F
330
18
100
AcDbEntity
  8
0
100
AcDbLine
 10
50.65227432116818
 20
29.70769437341354
 30
0.0
 11
50.65227432116818
 21
29.7276255918154
 31
0.0
  0
DIMENSION
  5
950
330
18
100
AcDbEntity
  8
DIM
100
AcDbDimension
280
     0
  2
*D34
 10
50.60477432116819
 20
31.77372836575138
 30
0.0
 11
51.72727432116818
 21
31.77372836575138
 31
0.0
 12
0.0
 22
3.162002202451699
 32
0.0
 70
   128
 71
     5
 42
-1.0
 73
     0
 74
     0
 75
     0
100
AcDbAlignedDimension
 13
52.84977432116819
 23
29.44570416583615
 33
0.0
 14
50.60477432116819
 24
29.7043728498462
 34
0.0
100
AcDbRotatedDimension
  0
INSERT
  5
951
330
18
100
AcDbEntity
  8
HATCH
100
AcDbBlockReference
  2
*X13
 10
6.303674688331497
 20
3.202002202451698
 30
0.0
  0
INSERT
  5
952
330
18
100
AcDbEntity
  8
HATCH
100
AcDbBlockReference
  2
*X12
 10
6.303674688331497
 20
3.202002202451698
 30
0.0
  0
POLYLINE
  5
953
330
18
100
AcDbEntity
  8
0
100
AcDb2dPolyline
 66
     1
 10
0.0
 20
0.0
 30
0.0
 70
     1
  0
VERTEX
  5
954
330
953
100
AcDbEntity
  8
0
100
AcDbVertex
100
AcDb2dVertex
 10
50.85477432116817
 20
24.01205377884027
 30
0.0
  0
VERTEX
  5
955
330
953
100
AcDbEntity
  8
0
100
AcDbVertex
100
AcDb2dVertex
 10
50.60477432116818
 20
24.02953548182615
 30
0.0
  0
VERTEX
  5
956
330
953
100
AcDbEntity
  8
0
100
AcDbVertex
100
AcDb2dVertex
 10
50.60477432116818
 20
24.13270905361371
 30
0.0
  0
VERTEX
  5
957
330
953
100
AcDbEntity
  8
0
100
AcDbVertex
100
AcDb2dVertex
 10
53.10195587197283
 20
24.17629751972055
 30
0.0
 42
0.4091108014277082
  0
VERTEX
  5
958
330
953
100
AcDbEntity
  8
0
100
AcDbVertex
100
AcDb2dVertex
 10
53.22477432116816
 20
24.3012784816151
 30
0.0
  0
VERTEX
  5
959
330
953
100
AcDbEntity
  8
0
100
AcDbVertex
100
AcDb2dVertex
 10
53.22477432116819
 20
29.43262985005726
 30
0.0
 42
0.4091108014277101
  0
VERTEX
  5
95A
330
953
100
AcDbEntity
  8
0
100
AcDbVertex
100
AcDb2dVertex
 10
53.10195587197283
 20
29.55761081195181
 30
0.0
  0
VERTEX
  5
95B
330
953
100
AcDbEntity
  8
0
100
AcDbVertex
100
AcDb2dVertex
 10
50.60477432116818
 20
29.60119927805866
 30
0.0
  0
VERTEX
  5
95C
330
953
100
AcDbEntity
  8
0
100
AcDbVertex
100
AcDb2dVertex
 10
50.60477432116818
 20
29.70437284984621
 30
0.0
  0
VERTEX
  5
95D
330
953
100
AcDbEntity
  8
0
100
AcDbVertex
100
AcDb2dVertex
 10
50.85477432116817
 20
29.7218545528321
 30
0.0
  0
VERTEX
  5
95E
330
953
100
AcDbEntity
  8
0
100
AcDbVertex
100
AcDb2dVertex
 10
50.85477432116817
 20
29.85262559181539
 30
0.0
  0
VERTEX
  5
95F
330
953
100
AcDbEntity
  8
0
100
AcDbVertex
100
AcDb2dVertex
 10
51.02727432116818
 20
29.85262559181539
 30
0.0
  0
VERTEX
  5
960
330
953
100
AcDbEntity
  8
0
100
AcDbVertex
100
AcDb2dVertex
 10
51.16343301774081
 20
29.71646689524275
 30
0.0
  0
VERTEX
  5
961
330
953
100
AcDbEntity
  8
0
100
AcDbVertex
100
AcDb2dVertex
 10
53.16554664737519
 20
29.68151987184382
 30
0.0
 42
-0.4091108014277117
  0
VERTEX
  5
962
330
953
100
AcDbEntity
  8
0
100
AcDbVertex
100
AcDb2dVertex
 10
53.34977432116819
 20
29.494048429002
 30
0.0
  0
VERTEX
  5
963
330
953
100
AcDbEntity
  8
0
100
AcDbVertex
100
AcDb2dVertex
 10
53.34977432116819
 20
24.23985990267036
 30
0.0
 42
-0.4091108014277119
  0
VERTEX
  5
964
330
953
100
AcDbEntity
  8
0
100
AcDbVertex
100
AcDb2dVertex
 10
53.16554664737516
 20
24.05238845982855
 30
0.0
  0
VERTEX
  5
965
330
953
100
AcDbEntity
  8
0
100
AcDbVertex
100
AcDb2dVertex
 10
51.1634330177408
 20
24.01744143642961
 30
0.0
  0
VERTEX
  5
966
330
953
100
AcDbEntity
  8
0
100
AcDbVertex
100
AcDb2dVertex
 10
51.02727432116818
 20
23.88128273985699
 30
0.0
  0
VERTEX
  5
967
330
953
100
AcDbEntity
  8
0
100
AcDbVertex
100
AcDb2dVertex
 10
50.85477432116817
 20
23.88128273985699
 30
0.0
  0
SEQEND
  5
968
330
953
100
AcDbEntity
  8
0
  0
POLYLINE
  5
969
330
18
100
AcDbEntity
  8
0
100
AcDb2dPolyline
 66
     1
 10
0.0
 20
0.0
 30
0.0
 70
     1
  0
VERTEX
  5
96A
330
969
100
AcDbEntity
  8
0
100
AcDbVertex
100
AcDb2dVertex
 10
50.40227432116818
 20
29.77699220673731
 30
0.0
  0
VERTEX
  5
96B
330
969
100
AcDbEntity
  8
0
100
AcDbVertex
100
AcDb2dVertex
 10
50.40227432116818
 20
29.41513559181539
 30
0.0
  0
VERTEX
  5
96C
330
969
100
AcDbEntity
  8
0
100
AcDbVertex
100
AcDb2dVertex
 10
50.21477432116817
 20
29.22763559181539
 30
0.0
  0
VERTEX
  5
96D
330
969
100
AcDbEntity
  8
0
100
AcDbVertex
100
AcDb2dVertex
 10
50.21477432116817
 20
24.50633273985698
 30
0.0
  0
VERTEX
  5
96E
330
969
100
AcDbEntity
  8
0
100
AcDbVertex
100
AcDb2dVertex
 10
50.40227432116818
 20
24.31883273985698
 30
0.0
  0
VERTEX
  5
96F
330
969
100
AcDbEntity
  8
0
100
AcDbVertex
100
AcDb2dVertex
 10
50.40227432116818
 20
23.95691612493507
 30
0.0
 42
0.4040262258351567
  0
VERTEX
  5
970
330
969
100
AcDbEntity
  8
0
100
AcDbVertex
100
AcDb2dVertex
 10
50.46259310262427
 20
23.89445419824637
 30
0.0
  0
VERTEX
  5
971
330
969
100
AcDbEntity
  8
0
100
AcDbVertex
100
AcDb2dVertex
 10
50.83977432116817
 20
23.88128273985699
 30
0.0
  0
VERTEX
  5
972
330
969
100
AcDbEntity
  8
0
100
AcDbVertex
100
AcDb2dVertex
 10
50.83977432116817
 20
24.00628273985699
 30
0.0
  0
VERTEX
  5
973
330
969
100
AcDbEntity
  8
0
100
AcDbVertex
100
AcDb2dVertex
 10
50.55852432116818
 20
24.00628273985699
 30
0.0
 42
-0.4142135623730946
  0
VERTEX
  5
974
330
969
100
AcDbEntity
  8
0
100
AcDbVertex
100
AcDb2dVertex
 10
50.52727432116817
 20
24.03753273985699
 30
0.0
  0
VERTEX
  5
975
330
969
100
AcDbEntity
  8
0
100
AcDbVertex
100
AcDb2dVertex
 10
50.52727432116817
 20
24.37060943515362
 30
0.0
  0
VERTEX
  5
976
330
969
100
AcDbEntity
  8
0
100
AcDbVertex
100
AcDb2dVertex
 10
50.33977432116818
 20
24.55810943515361
 30
0.0
  0
VERTEX
  5
977
330
969
100
AcDbEntity
  8
0
100
AcDbVertex
100
AcDb2dVertex
 10
50.33977432116818
 20
29.17585889651875
 30
0.0
  0
VERTEX
  5
978
330
969
100
AcDbEntity
  8
0
100
AcDbVertex
100
AcDb2dVertex
 10
50.52727432116817
 20
29.36335889651875
 30
0.0
  0
VERTEX
  5
979
330
969
100
AcDbEntity
  8
0
100
AcDbVertex
100
AcDb2dVertex
 10
50.52727432116817
 20
29.69637559181539
 30
0.0
 42
-0.4142135623730956
  0
VERTEX
  5
97A
330
969
100
AcDbEntity
  8
0
100
AcDbVertex
100
AcDb2dVertex
 10
50.55852432116818
 20
29.72762559181539
 30
0.0
  0
VERTEX
  5
97B
330
969
100
AcDbEntity
  8
0
100
AcDbVertex
100
AcDb2dVertex
 10
50.83977432116817
 20
29.72762559181539
 30
0.0
  0
VERTEX
  5
97C
330
969
100
AcDbEntity
  8
0
100
AcDbVertex
100
AcDb2dVertex
 10
50.83977432116817
 20
29.85262559181539
 30
0.0
  0
VERTEX
  5
97D
330
969
100
AcDbEntity
  8
0
100
AcDbVertex
100
AcDb2dVertex
 10
50.46259310262427
 20
29.83945413342599
 30
0.0
 42
0.4040262258351567
  0
SEQEND
  5
97E
330
969
100
AcDbEntity
  8
0
  0
LINE
  5
97F
330
18
100
AcDbEntity
  8
0
100
AcDbLine
 10
53.22477432116819
 20
28.78849237250355
 30
0.0
 11
50.60477432116818
 21
28.83422464261549
 31
0.0
  0
LINE
  5
980
330
18
100
AcDbEntity
  8
HIDE
100
AcDbLine
 10
52.84977432116819
 20
29.32070416583618
 30
0.0
 11
50.60477432116818
 21
29.33570416583618
 31
0.0
  0
LINE
  5
981
330
18
100
AcDbEntity
  8
HIDE
100
AcDbLine
 10
52.84977432116819
 20
28.97570416583618
 30
0.0
 11
50.60477432116816
 21
28.96070416583618
 31
0.0
  0
LINE
  5
982
330
18
100
AcDbEntity
  8
0
100
AcDbLine
 10
53.22477432116819
 20
24.9454159591688
 30
0.0
 11
50.60477432116818
 21
24.89968368905687
 31
0.0
  0
LINE
  5
983
330
18
100
AcDbEntity
  8
HIDE
100
AcDbLine
 10
52.84977432116819
 20
24.75820416583618
 30
0.0
 11
50.60477432116816
 21
24.77320416583618
 31
0.0
  0
LINE
  5
984
330
18
100
AcDbEntity
  8
HIDE
100
AcDbLine
 10
52.84977432116819
 20
24.41320416583618
 30
0.0
 11
50.60477432116818
 21
24.39820416583618
 31
0.0
  0
INSERT
  5
985
330
18
100
AcDbEntity
  8
DIM
100
AcDbBlockReference
  2
SBBTX
 10
51.98956428742437
 20
21.81414330728054
 30
0.0
 41
2.0
 42
2.0
 43
2.0
  0
LINE
  5
986
330
18
100
AcDbEntity
  8
0
100
AcDbLine
 10
50.60477432116818
 20
29.60119927805866
 30
0.0
 11
50.60477432116818
 21
24.13270905361371
 31
0.0
  0
LINE
  5
987
330
18
100
AcDbEntity
  8
0
100
AcDbLine
 10
50.52727432116817
 20
29.36335889651875
 30
0.0
 11
50.52727432116817
 21
24.37060943515362
 31
0.0
  0
POLYLINE
  5
988
330
18
100
AcDbEntity
  8
0
 62
     2
100
AcDb2dPolyline
 66
     1
 10
0.0
 20
0.0
 30
0.0
 70
     1
  0
VERTEX
  5
989
330
988
100
AcDbEntity
  8
0
 62
     2
100
AcDbVertex
100
AcDb2dVertex
 10
50.59677432116392
 20
24.11724430371549
 30
0.0
 42
0.9999834785717778
 50
90.0
  0
VERTEX
  5
98A
330
988
100
AcDbEntity
  8
0
 62
     2
100
AcDbVertex
100
AcDb2dVertex
 10
50.53427432117245
 20
24.11724430371549
 30
0.0
 50
90.0
  0
VERTEX
  5
98B
330
988
100
AcDbEntity
  8
0
 62
     2
100
AcDbVertex
100
AcDb2dVertex
 10
50.53427432117092
 20
24.04120405685346
 30
0.0
 42
1.000013231781622
 50
90.0
  0
VERTEX
  5
98C
330
988
100
AcDbEntity
  8
0
 62
     2
100
AcDbVertex
100
AcDb2dVertex
 10
50.59677432116544
 20
24.04120405685346
 30
0.0
 50
90.0
  0
SEQEND
  5
98D
330
988
100
AcDbEntity
  8
0
 62
     2
  0
LINE
  5
98E
330
18
100
AcDbEntity
  8
0
100
AcDbLine
 10
50.65227432116818
 20
24.02621395825884
 30
0.0
 11
50.65227432116818
 21
24.00628273985697
 31
0.0
  0
LINE
  5
98F
330
18
100
AcDbEntity
  8
0
100
AcDbLine
 10
50.33977432116818
 20
25.02200676814393
 30
0.0
 11
50.52727432116817
 21
25.02200676814393
 31
0.0
  0
LINE
  5
990
330
18
100
AcDbEntity
  8
0
100
AcDbLine
 10
50.33977432116818
 20
28.71190156352845
 30
0.0
 11
50.52727432116817
 21
28.71190156352845
 31
0.0
  0
LINE
  5
991
330
18
100
AcDbEntity
  8
HIDE
100
AcDbLine
 10
52.84977432116819
 20
24.47670416583619
 30
0.0
 11
53.34977432116819
 21
24.47670416583619
 31
0.0
  0
LINE
  5
992
330
18
100
AcDbEntity
  8
HIDE
100
AcDbLine
 10
52.84977432116819
 20
24.69470416583619
 30
0.0
 11
53.34977432116819
 21
24.69470416583619
 31
0.0
  0
LINE
  5
993
330
18
100
AcDbEntity
  8
HIDE
100
AcDbLine
 10
52.84977432116819
 20
24.47670416583619
 30
0.0
 11
52.84977432116819
 21
24.41320416583618
 31
0.0
  0
LINE
  5
994
330
18
100
AcDbEntity
  8
HIDE
100
AcDbLine
 10
52.84977432116819
 20
24.75820416583618
 30
0.0
 11
52.84977432116819
 21
24.69470416583619
 31
0.0
  0
LINE
  5
995
330
18
100
AcDbEntity
  8
HIDE
100
AcDbLine
 10
53.34977432116819
 20
24.47670416583619
 30
0.0
 11
53.34977432116819
 21
24.69470416583619
 31
0.0
  0
LINE
  5
996
330
18
100
AcDbEntity
  8
HIDE
100
AcDbLine
 10
52.84977432116819
 20
29.03920416583618
 30
0.0
 11
53.34977432116819
 21
29.03920416583618
 31
0.0
  0
LINE
  5
997
330
18
100
AcDbEntity
  8
HIDE
100
AcDbLine
 10
52.84977432116819
 20
29.25720416583619
 30
0.0
 11
53.34977432116819
 21
29.25720416583619
 31
0.0
  0
LINE
  5
998
330
18
100
AcDbEntity
  8
HIDE
100
AcDbLine
 10
52.84977432116819
 20
28.97570416583618
 30
0.0
 11
52.84977432116819
 21
29.03920416583618
 31
0.0
  0
LINE
  5
999
330
18
100
AcDbEntity
  8
HIDE
100
AcDbLine
 10
52.84977432116819
 20
29.25720416583619
 30
0.0
 11
52.84977432116819
 21
29.32070416583618
 31
0.0
  0
LINE
  5
99A
330
18
100
AcDbEntity
  8
HIDE
100
AcDbLine
 10
53.34977432116819
 20
29.03920416583618
 30
0.0
 11
53.34977432116819
 21
29.25720416583619
 31
0.0
  0
POLYLINE
  5
99B
330
18
100
AcDbEntity
  8
0
100
AcDb2dPolyline
 66
     1
 10
0.0
 20
0.0
 30
0.0
 70
     1
  0
VERTEX
  5
99C
330
99B
100
AcDbEntity
  8
0
100
AcDbVertex
100
AcDb2dVertex
 10
10.99728887784907
 20
25.14815491124896
 30
0.0
  0
VERTEX
  5
99D
330
99B
100
AcDbEntity
  8
0
100
AcDbVertex
100
AcDb2dVertex
 10
11.11283861365854
 20
25.14815491124896
 30
0.0
 42
-0.4142135623730958
  0
VERTEX
  5
99E
330
99B
100
AcDbEntity
  8
0
100
AcDbVertex
100
AcDb2dVertex
 10
11.44813861365855
 20
24.81285491124896
 30
0.0
  0
VERTEX
  5
99F
330
99B
100
AcDbEntity
  8
0
100
AcDbVertex
100
AcDb2dVertex
 10
11.44813861365855
 20
24.43040670401822
 30
0.0
 42
0.4142135623730903
  0
VERTEX
  5
9A0
330
99B
100
AcDbEntity
  8
0
100
AcDbVertex
100
AcDb2dVertex
 10
11.49733861365855
 20
24.38120670401823
 30
0.0
  0
VERTEX
  5
9A1
330
99B
100
AcDbEntity
  8
0
100
AcDbVertex
100
AcDb2dVertex
 10
13.43177651005958
 20
24.38120670401824
 30
0.0
 42
0.4142135623730903
  0
VERTEX
  5
9A2
330
99B
100
AcDbEntity
  8
0
100
AcDbVertex
100
AcDb2dVertex
 10
13.48097651005957
 20
24.43040670401824
 30
0.0
  0
VERTEX
  5
9A3
330
99B
100
AcDbEntity
  8
0
100
AcDbVertex
100
AcDb2dVertex
 10
13.48097651005958
 20
24.81285491124896
 30
0.0
 42
-0.4142135623730958
  0
VERTEX
  5
9A4
330
99B
100
AcDbEntity
  8
0
100
AcDbVertex
100
AcDb2dVertex
 10
13.81627651005959
 20
25.14815491124896
 30
0.0
  0
VERTEX
  5
9A5
330
99B
100
AcDbEntity
  8
0
100
AcDbVertex
100
AcDb2dVertex
 10
13.93182624586906
 20
25.14815491124895
 30
0.0
 42
0.4142135623730903
  0
VERTEX
  5
9A6
330
99B
100
AcDbEntity
  8
0
100
AcDbVertex
100
AcDb2dVertex
 10
13.98102624586906
 20
25.19735491124896
 30
0.0
  0
VERTEX
  5
9A7
330
99B
100
AcDbEntity
  8
0
100
AcDbVertex
100
AcDb2dVertex
 10
13.98102624586907
 20
28.94429586480757
 30
0.0
 42
0.4142135623730268
  0
VERTEX
  5
9A8
330
99B
100
AcDbEntity
  8
0
100
AcDbVertex
100
AcDb2dVertex
 10
13.93182624586907
 20
28.99349586480756
 30
0.0
  0
VERTEX
  5
9A9
330
99B
100
AcDbEntity
  8
0
100
AcDbVertex
100
AcDb2dVertex
 10
13.81627651005959
 20
28.99349586480756
 30
0.0
 42
-0.4142135623731051
  0
VERTEX
  5
9AA
330
99B
100
AcDbEntity
  8
0
100
AcDbVertex
100
AcDb2dVertex
 10
13.48097651005959
 20
29.32879586480756
 30
0.0
  0
VERTEX
  5
9AB
330
99B
100
AcDbEntity
  8
0
100
AcDbVertex
100
AcDb2dVertex
 10
13.48097651005958
 20
29.71124407203828
 30
0.0
 42
0.4142135623730691
  0
VERTEX
  5
9AC
330
99B
100
AcDbEntity
  8
0
100
AcDbVertex
100
AcDb2dVertex
 10
13.43177651005958
 20
29.7604440720383
 30
0.0
  0
VERTEX
  5
9AD
330
99B
100
AcDbEntity
  8
0
100
AcDbVertex
100
AcDb2dVertex
 10
11.49733861365855
 20
29.76044407203828
 30
0.0
 42
0.4142135623730691
  0
VERTEX
  5
9AE
330
99B
100
AcDbEntity
  8
0
100
AcDbVertex
100
AcDb2dVertex
 10
11.44813861365855
 20
29.71124407203828
 30
0.0
  0
VERTEX
  5
9AF
330
99B
100
AcDbEntity
  8
0
100
AcDbVertex
100
AcDb2dVertex
 10
11.44813861365854
 20
29.32879586480754
 30
0.0
 42
-0.4142135623730989
  0
VERTEX
  5
9B0
330
99B
100
AcDbEntity
  8
0
100
AcDbVertex
100
AcDb2dVertex
 10
11.11283861365854
 20
28.99349586480756
 30
0.0
  0
VERTEX
  5
9B1
330
99B
100
AcDbEntity
  8
0
100
AcDbVertex
100
AcDb2dVertex
 10
10.99728887784906
 20
28.99349586480756
 30
0.0
 42
0.4142135623730691
  0
VERTEX
  5
9B2
330
99B
100
AcDbEntity
  8
0
100
AcDbVertex
100
AcDb2dVertex
 10
10.94808887784906
 20
28.94429586480754
 30
0.0
  0
VERTEX
  5
9B3
330
99B
100
AcDbEntity
  8
0
100
AcDbVertex
100
AcDb2dVertex
 10
10.94808887784907
 20
25.19735491124896
 30
0.0
 42
0.4142135623730903
  0
SEQEND
  5
9B4
330
99B
100
AcDbEntity
  8
0
  0
DIMENSION
  5
9B5
330
18
100
AcDbEntity
  8
DIM
100
AcDbDimension
280
     0
  2
*D30
 10
13.83955756185906
 20
31.77372836575139
 30
0.0
 11
12.46455756185906
 21
31.77372836575139
 31
0.0
 12
-16.08624649017762
 22
-41.11341915235648
 32
0.0
 70
   128
 71
     5
 42
-1.0
 73
     0
 74
     0
 75
     0
100
AcDbAlignedDimension
 13
11.08955756185905
 23
29.44207538802825
 33
0.0
 14
13.83955756185906
 24
29.44207538802825
 34
0.0
100
AcDbRotatedDimension
  0
DIMENSION
  5
9B6
330
18
100
AcDbEntity
  8
DIM
100
AcDbDimension
280
     0
  2
*D32
 10
10.96453613587986
 20
32.85262559181537
 30
0.0
 11
12.46455756185906
 21
32.85262559181537
 31
0.0
 12
0.0
 22
3.162002202451699
 32
0.0
 70
   128
 71
     5
 42
-1.0
 73
     0
 74
     0
 75
     0
100
AcDbAlignedDimension
 13
13.96457898783826
 23
29.83284681400747
 33
0.0
 14
10.96453613587986
 24
29.83284681400747
 34
0.0
100
AcDbRotatedDimension
  0
DIMENSION
  5
9B7
330
18
100
AcDbEntity
  8
DIM
100
AcDbDimension
280
     0
  2
*D37
 10
7.122132309869818
 20
29.74284681400746
 30
0.0
 11
7.122132309869818
 21
27.07082538802827
 31
0.0
 71
     5
 42
-1.0
 73
     0
 74
     0
 75
     0
100
AcDbAlignedDimension
 13
10.87453613587985
 23
24.39880396204907
 33
0.0
 14
10.87453613587985
 24
29.74284681400746
 34
0.0
 50
90.0
100
AcDbRotatedDimension
  0
DIMENSION
  5
9B8
330
18
100
AcDbEntity
  8
DIM
100
AcDbDimension
280
     0
  2
*D31
 10
8.652036135879882
 20
29.35207538802825
 30
0.0
 11
8.652036135879882
 21
27.07082538802825
 31
0.0
 12
-16.08624649017762
 22
-41.11341915235648
 32
0.0
 71
     5
 42
-1.0
 73
     0
 74
     0
 75
     0
100
AcDbAlignedDimension
 13
10.99955756185905
 23
24.78957538802827
 33
0.0
 14
10.99955756185905
 24
29.35207538802825
 34
0.0
 50
90.0
100
AcDbRotatedDimension
  0
POLYLINE
  5
9B9
330
18
100
AcDbEntity
  8
0
100
AcDb2dPolyline
 66
     1
 10
0.0
 20
0.0
 30
0.0
 70
     1
  0
VERTEX
  5
9BA
330
9B9
100
AcDbEntity
  8
0
100
AcDbVertex
100
AcDb2dVertex
 10
10.99728887784907
 20
25.10335491124897
 30
0.0
  0
VERTEX
  5
9BB
330
9B9
100
AcDbEntity
  8
0
100
AcDbVertex
100
AcDb2dVertex
 10
11.11283861365854
 20
25.10335491124897
 30
0.0
 42
-0.4142135623730982
  0
VERTEX
  5
9BC
330
9B9
100
AcDbEntity
  8
0
100
AcDbVertex
100
AcDb2dVertex
 10
11.40333861365855
 20
24.81285491124896
 30
0.0
  0
VERTEX
  5
9BD
330
9B9
100
AcDbEntity
  8
0
100
AcDbVertex
100
AcDb2dVertex
 10
11.40333861365855
 20
24.43040670401822
 30
0.0
 42
0.4142135623730956
  0
VERTEX
  5
9BE
330
9B9
100
AcDbEntity
  8
0
100
AcDbVertex
100
AcDb2dVertex
 10
11.49733861365855
 20
24.33640670401823
 30
0.0
  0
VERTEX
  5
9BF
330
9B9
100
AcDbEntity
  8
0
100
AcDbVertex
100
AcDb2dVertex
 10
13.43177651005958
 20
24.33640670401823
 30
0.0
 42
0.4142135623730888
  0
VERTEX
  5
9C0
330
9B9
100
AcDbEntity
  8
0
100
AcDbVertex
100
AcDb2dVertex
 10
13.52577651005958
 20
24.43040670401824
 30
0.0
  0
VERTEX
  5
9C1
330
9B9
100
AcDbEntity
  8
0
100
AcDbVertex
100
AcDb2dVertex
 10
13.52577651005958
 20
24.81285491124896
 30
0.0
 42
-0.4142135623730982
  0
VERTEX
  5
9C2
330
9B9
100
AcDbEntity
  8
0
100
AcDbVertex
100
AcDb2dVertex
 10
13.81627651005959
 20
25.10335491124897
 30
0.0
  0
VERTEX
  5
9C3
330
9B9
100
AcDbEntity
  8
0
100
AcDbVertex
100
AcDb2dVertex
 10
13.93182624586906
 20
25.10335491124895
 30
0.0
 42
0.4142135623731029
  0
VERTEX
  5
9C4
330
9B9
100
AcDbEntity
  8
0
100
AcDbVertex
100
AcDb2dVertex
 10
14.02582624586906
 20
25.19735491124896
 30
0.0
  0
VERTEX
  5
9C5
330
9B9
100
AcDbEntity
  8
0
100
AcDbVertex
100
AcDb2dVertex
 10
14.02582624586907
 20
28.94429586480757
 30
0.0
 42
0.4142135623730789
  0
VERTEX
  5
9C6
330
9B9
100
AcDbEntity
  8
0
100
AcDbVertex
100
AcDb2dVertex
 10
13.93182624586907
 20
29.03829586480756
 30
0.0
  0
VERTEX
  5
9C7
330
9B9
100
AcDbEntity
  8
0
100
AcDbVertex
100
AcDb2dVertex
 10
13.81627651005959
 20
29.03829586480756
 30
0.0
 42
-0.4142135623730982
  0
VERTEX
  5
9C8
330
9B9
100
AcDbEntity
  8
0
100
AcDbVertex
100
AcDb2dVertex
 10
13.52577651005959
 20
29.32879586480756
 30
0.0
  0
VERTEX
  5
9C9
330
9B9
100
AcDbEntity
  8
0
100
AcDbVertex
100
AcDb2dVertex
 10
13.52577651005958
 20
29.71124407203828
 30
0.0
 42
0.4142135623730855
  0
VERTEX
  5
9CA
330
9B9
100
AcDbEntity
  8
0
100
AcDbVertex
100
AcDb2dVertex
 10
13.43177651005958
 20
29.80524407203829
 30
0.0
  0
VERTEX
  5
9CB
330
9B9
100
AcDbEntity
  8
0
100
AcDbVertex
100
AcDb2dVertex
 10
11.49733861365855
 20
29.80524407203827
 30
0.0
 42
0.4142135623730888
  0
VERTEX
  5
9CC
330
9B9
100
AcDbEntity
  8
0
100
AcDbVertex
100
AcDb2dVertex
 10
11.40333861365855
 20
29.71124407203828
 30
0.0
  0
VERTEX
  5
9CD
330
9B9
100
AcDbEntity
  8
0
100
AcDbVertex
100
AcDb2dVertex
 10
11.40333861365854
 20
29.32879586480754
 30
0.0
 42
-0.4142135623730982
  0
VERTEX
  5
9CE
330
9B9
100
AcDbEntity
  8
0
100
AcDbVertex
100
AcDb2dVertex
 10
11.11283861365854
 20
29.03829586480755
 30
0.0
  0
VERTEX
  5
9CF
330
9B9
100
AcDbEntity
  8
0
100
AcDbVertex
100
AcDb2dVertex
 10
10.99728887784906
 20
29.03829586480755
 30
0.0
 42
0.4142135623730961
  0
VERTEX
  5
9D0
330
9B9
100
AcDbEntity
  8
0
100
AcDbVertex
100
AcDb2dVertex
 10
10.90328887784905
 20
28.94429586480754
 30
0.0
  0
VERTEX
  5
9D1
330
9B9
100
AcDbEntity
  8
0
100
AcDbVertex
100
AcDb2dVertex
 10
10.90328887784907
 20
25.19735491124896
 30
0.0
 42
0.4142135623731023
  0
SEQEND
  5
9D2
330
9B9
100
AcDbEntity
  8
0
  0
LINE
  5
9D3
330
18
100
AcDbEntity
  8
CENTER
100
AcDbLine
 10
13.96457898783826
 20
24.30880396204907
 30
0.0
 11
13.96457898783826
 21
24.48880396204906
 31
0.0
  0
LINE
  5
9D4
330
18
100
AcDbEntity
  8
CENTER
100
AcDbLine
 10
13.87457898783826
 20
24.39880396204907
 30
0.0
 11
14.05457898783827
 21
24.39880396204907
 31
0.0
  0
LINE
  5
9D5
330
18
100
AcDbEntity
  8
CENTER
100
AcDbLine
 10
13.83955756185906
 20
24.69957538802826
 30
0.0
 11
13.83955756185906
 21
24.87957538802826
 31
0.0
  0
LINE
  5
9D6
330
18
100
AcDbEntity
  8
CENTER
100
AcDbLine
 10
13.74955756185906
 20
24.78957538802827
 30
0.0
 11
13.92955756185906
 21
24.78957538802827
 31
0.0
  0
LINE
  5
9D7
330
18
100
AcDbEntity
  8
CENTER
100
AcDbLine
 10
13.83955756185906
 20
29.26207538802825
 30
0.0
 11
13.83955756185906
 21
29.44207538802825
 31
0.0
  0
LINE
  5
9D8
330
18
100
AcDbEntity
  8
CENTER
100
AcDbLine
 10
13.74955756185906
 20
29.35207538802825
 30
0.0
 11
13.92955756185906
 21
29.35207538802825
 31
0.0
  0
LINE
  5
9D9
330
18
100
AcDbEntity
  8
CENTER
100
AcDbLine
 10
13.96457898783826
 20
29.65284681400746
 30
0.0
 11
13.96457898783826
 21
29.83284681400747
 31
0.0
  0
LINE
  5
9DA
330
18
100
AcDbEntity
  8
CENTER
100
AcDbLine
 10
13.87457898783826
 20
29.74284681400746
 30
0.0
 11
14.05457898783827
 21
29.74284681400746
 31
0.0
  0
LINE
  5
9DB
330
18
100
AcDbEntity
  8
CENTER
100
AcDbLine
 10
10.96453613587986
 20
29.65284681400746
 30
0.0
 11
10.96453613587986
 21
29.83284681400747
 31
0.0
  0
LINE
  5
9DC
330
18
100
AcDbEntity
  8
CENTER
100
AcDbLine
 10
10.87453613587985
 20
29.74284681400746
 30
0.0
 11
11.05453613587986
 21
29.74284681400746
 31
0.0
  0
LINE
  5
9DD
330
18
100
AcDbEntity
  8
CENTER
100
AcDbLine
 10
11.08955756185905
 20
29.26207538802825
 30
0.0
 11
11.08955756185905
 21
29.44207538802825
 31
0.0
  0
LINE
  5
9DE
330
18
100
AcDbEntity
  8
CENTER
100
AcDbLine
 10
10.99955756185905
 20
29.35207538802825
 30
0.0
 11
11.17955756185905
 21
29.35207538802825
 31
0.0
  0
LINE
  5
9DF
330
18
100
AcDbEntity
  8
CENTER
100
AcDbLine
 10
11.08955756185905
 20
24.69957538802826
 30
0.0
 11
11.08955756185905
 21
24.87957538802826
 31
0.0
  0
LINE
  5
9E0
330
18
100
AcDbEntity
  8
CENTER
100
AcDbLine
 10
10.99955756185905
 20
24.78957538802827
 30
0.0
 11
11.17955756185905
 21
24.78957538802827
 31
0.0
  0
LINE
  5
9E1
330
18
100
AcDbEntity
  8
CENTER
100
AcDbLine
 10
10.96453613587986
 20
24.30880396204907
 30
0.0
 11
10.96453613587986
 21
24.48880396204906
 31
0.0
  0
LINE
  5
9E2
330
18
100
AcDbEntity
  8
CENTER
100
AcDbLine
 10
10.87453613587985
 20
24.39880396204907
 30
0.0
 11
11.05453613587986
 21
24.39880396204907
 31
0.0
  0
CIRCLE
  5
9E3
330
18
100
AcDbEntity
  8
0
 62
     4
100
AcDbCircle
 10
13.96457898783826
 20
29.74284681400746
 30
0.0
 40
0.109
  0
CIRCLE
  5
9E4
330
18
100
AcDbEntity
  8
0
 62
     4
100
AcDbCircle
 10
13.96457898783826
 20
29.74284681400746
 30
0.0
 40
0.076
  0
CIRCLE
  5
9E5
330
18
100
AcDbEntity
  8
0
 62
     4
100
AcDbCircle
 10
13.96457898783826
 20
24.39880396204907
 30
0.0
 40
0.109
  0
CIRCLE
  5
9E6
330
18
100
AcDbEntity
  8
0
 62
     4
100
AcDbCircle
 10
13.96457898783826
 20
24.39880396204907
 30
0.0
 40
0.076
  0
CIRCLE
  5
9E7
330
18
100
AcDbEntity
  8
0
 62
     4
100
AcDbCircle
 10
10.96453613587986
 20
29.74284681400746
 30
0.0
 40
0.109
  0
CIRCLE
  5
9E8
330
18
100
AcDbEntity
  8
0
 62
     4
100
AcDbCircle
 10
10.96453613587986
 20
29.74284681400746
 30
0.0
 40
0.076
  0
LINE
  5
9E9
330
18
100
AcDbEntity
  8
0
100
AcDbLine
 10
10.65203613587988
 20
24.39765396204906
 30
0.0
 11
10.65203613587988
 21
29.74399681400745
 31
0.0
  0
LINE
  5
9EA
330
18
100
AcDbEntity
  8
0
100
AcDbLine
 10
14.27707898783824
 20
24.39765396204907
 30
0.0
 11
14.27707898783824
 21
29.74399681400745
 31
0.0
  0
LINE
  5
9EB
330
18
100
AcDbEntity
  8
0
100
AcDbLine
 10
13.96457898783824
 20
30.05649681400746
 30
0.0
 11
10.96453613587988
 21
30.05649681400746
 31
0.0
  0
LINE
  5
9EC
330
18
100
AcDbEntity
  8
0
100
AcDbLine
 10
13.96457898783824
 20
24.08515396204907
 30
0.0
 11
10.96453613587988
 21
24.08515396204906
 31
0.0
  0
ARC
  5
9ED
330
18
100
AcDbEntity
  8
0
100
AcDbCircle
 10
10.96453613587988
 20
29.74399681400745
 30
0.0
 40
0.3125
100
AcDbArc
 50
90.0
 51
180.0
  0
ARC
  5
9EE
330
18
100
AcDbEntity
  8
0
100
AcDbCircle
 10
13.96457898783824
 20
29.74399681400745
 30
0.0
 40
0.3125
100
AcDbArc
 50
0.0
 51
90.0
  0
ARC
  5
9EF
330
18
100
AcDbEntity
  8
0
100
AcDbCircle
 10
13.96457898783824
 20
24.39765396204907
 30
0.0
 40
0.3125
100
AcDbArc
 50
270.0
 51
0.0
  0
ARC
  5
9F0
330
18
100
AcDbEntity
  8
0
100
AcDbCircle
 10
10.96453613587988
 20
24.39765396204906
 30
0.0
 40
0.3125
100
AcDbArc
 50
180.0
 51
270.0
  0
CIRCLE
  5
9F1
330
18
100
AcDbEntity
  8
0
 62
     4
100
AcDbCircle
 10
10.96453613587986
 20
24.39880396204907
 30
0.0
 40
0.076
  0
CIRCLE
  5
9F2
330
18
100
AcDbEntity
  8
0
 62
     4
100
AcDbCircle
 10
10.96453613587986
 20
24.39880396204907
 30
0.0
 40
0.109
  0
POLYLINE
  5
9F3
330
18
100
AcDbEntity
  8
0
100
AcDb2dPolyline
 66
     1
 10
0.0
 20
0.0
 30
0.0
 70
     1
  0
VERTEX
  5
9F4
330
9F3
100
AcDbEntity
  8
0
100
AcDbVertex
100
AcDb2dVertex
 10
10.98778887784907
 20
25.00035491124896
 30
0.0
  0
VERTEX
  5
9F5
330
9F3
100
AcDbEntity
  8
0
100
AcDbVertex
100
AcDb2dVertex
 10
11.11283861365854
 20
25.00035491124896
 30
0.0
 42
-0.4142135623731
  0
VERTEX
  5
9F6
330
9F3
100
AcDbEntity
  8
0
100
AcDbVertex
100
AcDb2dVertex
 10
11.30033861365854
 20
24.81285491124896
 30
0.0
  0
VERTEX
  5
9F7
330
9F3
100
AcDbEntity
  8
0
100
AcDbVertex
100
AcDb2dVertex
 10
11.30033861365854
 20
24.42090670401823
 30
0.0
 42
0.414213562373097
  0
VERTEX
  5
9F8
330
9F3
100
AcDbEntity
  8
0
100
AcDbVertex
100
AcDb2dVertex
 10
11.48783861365854
 20
24.23340670401823
 30
0.0
  0
VERTEX
  5
9F9
330
9F3
100
AcDbEntity
  8
0
100
AcDbVertex
100
AcDb2dVertex
 10
13.44127651005958
 20
24.23340670401823
 30
0.0
 42
0.4142135623730946
  0
VERTEX
  5
9FA
330
9F3
100
AcDbEntity
  8
0
100
AcDbVertex
100
AcDb2dVertex
 10
13.62877651005958
 20
24.42090670401823
 30
0.0
  0
VERTEX
  5
9FB
330
9F3
100
AcDbEntity
  8
0
100
AcDbVertex
100
AcDb2dVertex
 10
13.62877651005959
 20
24.81285491124896
 30
0.0
 42
-0.4142135623730975
  0
VERTEX
  5
9FC
330
9F3
100
AcDbEntity
  8
0
100
AcDbVertex
100
AcDb2dVertex
 10
13.81627651005959
 20
25.00035491124896
 30
0.0
  0
VERTEX
  5
9FD
330
9F3
100
AcDbEntity
  8
0
100
AcDbVertex
100
AcDb2dVertex
 10
13.94132624586906
 20
25.00035491124896
 30
0.0
 42
0.4142135623730961
  0
VERTEX
  5
9FE
330
9F3
100
AcDbEntity
  8
0
100
AcDbVertex
100
AcDb2dVertex
 10
14.12882624586906
 20
25.18785491124896
 30
0.0
  0
VERTEX
  5
9FF
330
9F3
100
AcDbEntity
  8
0
100
AcDbVertex
100
AcDb2dVertex
 10
14.12882624586907
 20
28.95379586480756
 30
0.0
 42
0.4142135623730956
  0
VERTEX
  5
A00
330
9F3
100
AcDbEntity
  8
0
100
AcDbVertex
100
AcDb2dVertex
 10
13.94132624586907
 20
29.14129586480756
 30
0.0
  0
VERTEX
  5
A01
330
9F3
100
AcDbEntity
  8
0
100
AcDbVertex
100
AcDb2dVertex
 10
13.81627651005959
 20
29.14129586480757
 30
0.0
 42
-0.4142135623730927
  0
VERTEX
  5
A02
330
9F3
100
AcDbEntity
  8
0
100
AcDbVertex
100
AcDb2dVertex
 10
13.62877651005959
 20
29.32879586480757
 30
0.0
  0
VERTEX
  5
A03
330
9F3
100
AcDbEntity
  8
0
100
AcDbVertex
100
AcDb2dVertex
 10
13.62877651005958
 20
29.72074407203828
 30
0.0
 42
0.4142135623730961
  0
VERTEX
  5
A04
330
9F3
100
AcDbEntity
  8
0
100
AcDbVertex
100
AcDb2dVertex
 10
13.44127651005958
 20
29.90824407203828
 30
0.0
  0
VERTEX
  5
A05
330
9F3
100
AcDbEntity
  8
0
100
AcDbVertex
100
AcDb2dVertex
 10
11.48783861365854
 20
29.90824407203828
 30
0.0
 42
0.4142135623730923
  0
VERTEX
  5
A06
330
9F3
100
AcDbEntity
  8
0
100
AcDbVertex
100
AcDb2dVertex
 10
11.30033861365854
 20
29.72074407203828
 30
0.0
  0
VERTEX
  5
A07
330
9F3
100
AcDbEntity
  8
0
100
AcDbVertex
100
AcDb2dVertex
 10
11.30033861365854
 20
29.32879586480754
 30
0.0
 42
-0.4142135623730951
  0
VERTEX
  5
A08
330
9F3
100
AcDbEntity
  8
0
100
AcDbVertex
100
AcDb2dVertex
 10
11.11283861365854
 20
29.14129586480754
 30
0.0
  0
VERTEX
  5
A09
330
9F3
100
AcDbEntity
  8
0
100
AcDbVertex
100
AcDb2dVertex
 10
10.98778887784905
 20
29.14129586480754
 30
0.0
 42
0.4142135623730961
  0
VERTEX
  5
A0A
330
9F3
100
AcDbEntity
  8
0
100
AcDbVertex
100
AcDb2dVertex
 10
10.80028887784905
 20
28.95379586480754
 30
0.0
  0
VERTEX
  5
A0B
330
9F3
100
AcDbEntity
  8
0
100
AcDbVertex
100
AcDb2dVertex
 10
10.80028887784907
 20
25.18785491124896
 30
0.0
 42
0.4142135623730975
  0
SEQEND
  5
A0C
330
9F3
100
AcDbEntity
  8
0
  0
POLYLINE
  5
A0D
330
18
100
AcDbEntity
  8
0
100
AcDb2dPolyline
 66
     1
 10
0.0
 20
0.0
 30
0.0
 70
     1
  0
VERTEX
  5
A0E
330
A0D
100
AcDbEntity
  8
0
100
AcDbVertex
100
AcDb2dVertex
 10
10.98778887784907
 20
24.98285491124896
 30
0.0
  0
VERTEX
  5
A0F
330
A0D
100
AcDbEntity
  8
0
100
AcDbVertex
100
AcDb2dVertex
 10
11.11283861365854
 20
24.98285491124898
 30
0.0
 42
-0.414213562373101
  0
VERTEX
  5
A10
330
A0D
100
AcDbEntity
  8
0
100
AcDbVertex
100
AcDb2dVertex
 10
11.28283861365855
 20
24.81285491124896
 30
0.0
  0
VERTEX
  5
A11
330
A0D
100
AcDbEntity
  8
0
100
AcDbVertex
100
AcDb2dVertex
 10
11.28283861365855
 20
24.42090670401823
 30
0.0
 42
0.4142135623730902
  0
VERTEX
  5
A12
330
A0D
100
AcDbEntity
  8
0
100
AcDbVertex
100
AcDb2dVertex
 10
11.48783861365854
 20
24.21590670401823
 30
0.0
  0
VERTEX
  5
A13
330
A0D
100
AcDbEntity
  8
0
100
AcDbVertex
100
AcDb2dVertex
 10
13.44127651005958
 20
24.21590670401823
 30
0.0
 42
0.4142135623730902
  0
VERTEX
  5
A14
330
A0D
100
AcDbEntity
  8
0
100
AcDbVertex
100
AcDb2dVertex
 10
13.64627651005958
 20
24.42090670401823
 30
0.0
  0
VERTEX
  5
A15
330
A0D
100
AcDbEntity
  8
0
100
AcDbVertex
100
AcDb2dVertex
 10
13.64627651005958
 20
24.81285491124896
 30
0.0
 42
-0.414213562373101
  0
VERTEX
  5
A16
330
A0D
100
AcDbEntity
  8
0
100
AcDbVertex
100
AcDb2dVertex
 10
13.81627651005959
 20
24.98285491124896
 30
0.0
  0
VERTEX
  5
A17
330
A0D
100
AcDbEntity
  8
0
100
AcDbVertex
100
AcDb2dVertex
 10
13.94132624586906
 20
24.98285491124896
 30
0.0
 42
0.4142135623730902
  0
VERTEX
  5
A18
330
A0D
100
AcDbEntity
  8
0
100
AcDbVertex
100
AcDb2dVertex
 10
14.14632624586906
 20
25.18785491124896
 30
0.0
  0
VERTEX
  5
A19
330
A0D
100
AcDbEntity
  8
0
100
AcDbVertex
100
AcDb2dVertex
 10
14.14632624586907
 20
28.95379586480756
 30
0.0
 42
0.4142135623730902
  0
VERTEX
  5
A1A
330
A0D
100
AcDbEntity
  8
0
100
AcDbVertex
100
AcDb2dVertex
 10
13.94132624586907
 20
29.15879586480756
 30
0.0
  0
VERTEX
  5
A1B
330
A0D
100
AcDbEntity
  8
0
100
AcDbVertex
100
AcDb2dVertex
 10
13.81627651005959
 20
29.15879586480756
 30
0.0
 42
-0.414213562373101
  0
VERTEX
  5
A1C
330
A0D
100
AcDbEntity
  8
0
100
AcDbVertex
100
AcDb2dVertex
 10
13.64627651005959
 20
29.32879586480757
 30
0.0
  0
VERTEX
  5
A1D
330
A0D
100
AcDbEntity
  8
0
100
AcDbVertex
100
AcDb2dVertex
 10
13.64627651005958
 20
29.72074407203828
 30
0.0
 42
0.4142135623730902
  0
VERTEX
  5
A1E
330
A0D
100
AcDbEntity
  8
0
100
AcDbVertex
100
AcDb2dVertex
 10
13.44127651005958
 20
29.9257440720383
 30
0.0
  0
VERTEX
  5
A1F
330
A0D
100
AcDbEntity
  8
0
100
AcDbVertex
100
AcDb2dVertex
 10
11.48783861365854
 20
29.92574407203828
 30
0.0
 42
0.4142135623730902
  0
VERTEX
  5
A20
330
A0D
100
AcDbEntity
  8
0
100
AcDbVertex
100
AcDb2dVertex
 10
11.28283861365855
 20
29.72074407203828
 30
0.0
  0
VERTEX
  5
A21
330
A0D
100
AcDbEntity
  8
0
100
AcDbVertex
100
AcDb2dVertex
 10
11.28283861365854
 20
29.32879586480754
 30
0.0
 42
-0.414213562373101
  0
VERTEX
  5
A22
330
A0D
100
AcDbEntity
  8
0
100
AcDbVertex
100
AcDb2dVertex
 10
11.11283861365854
 20
29.15879586480756
 30
0.0
  0
VERTEX
  5
A23
330
A0D
100
AcDbEntity
  8
0
100
AcDbVertex
100
AcDb2dVertex
 10
10.98778887784905
 20
29.15879586480756
 30
0.0
 42
0.4142135623730902
  0
VERTEX
  5
A24
330
A0D
100
AcDbEntity
  8
0
100
AcDbVertex
100
AcDb2dVertex
 10
10.78278887784906
 20
28.95379586480754
 30
0.0
  0
VERTEX
  5
A25
330
A0D
100
AcDbEntity
  8
0
100
AcDbVertex
100
AcDb2dVertex
 10
10.78278887784907
 20
25.18785491124896
 30
0.0
 42
0.4142135623730902
  0
SEQEND
  5
A26
330
A0D
100
AcDbEntity
  8
0
  0
CIRCLE
  5
A27
330
18
100
AcDbEntity
  8
0
100
AcDbCircle
 10
11.08955756185905
 20
24.78957538802827
 30
0.0
 40
0.1875
  0
CIRCLE
  5
A28
330
18
100
AcDbEntity
  8
0
100
AcDbCircle
 10
11.08955756185905
 20
24.78957538802827
 30
0.0
 40
0.1725
  0
CIRCLE
  5
A29
330
18
100
AcDbEntity
  8
0
100
AcDbCircle
 10
11.08955756185905
 20
24.78957538802827
 30
0.0
 40
0.109
  0
CIRCLE
  5
A2A
330
18
100
AcDbEntity
  8
0
100
AcDbCircle
 10
13.83955756185906
 20
24.78957538802827
 30
0.0
 40
0.109
  0
CIRCLE
  5
A2B
330
18
100
AcDbEntity
  8
0
100
AcDbCircle
 10
13.83955756185906
 20
24.78957538802827
 30
0.0
 40
0.1725
  0
CIRCLE
  5
A2C
330
18
100
AcDbEntity
  8
0
100
AcDbCircle
 10
13.83955756185906
 20
24.78957538802827
 30
0.0
 40
0.1875
  0
CIRCLE
  5
A2D
330
18
100
AcDbEntity
  8
0
100
AcDbCircle
 10
13.83955756185906
 20
29.35207538802825
 30
0.0
 40
0.109
  0
CIRCLE
  5
A2E
330
18
100
AcDbEntity
  8
0
100
AcDbCircle
 10
13.83955756185906
 20
29.35207538802825
 30
0.0
 40
0.1725
  0
CIRCLE
  5
A2F
330
18
100
AcDbEntity
  8
0
100
AcDbCircle
 10
13.83955756185906
 20
29.35207538802825
 30
0.0
 40
0.1875
  0
CIRCLE
  5
A30
330
18
100
AcDbEntity
  8
0
100
AcDbCircle
 10
11.08955756185905
 20
29.35207538802825
 30
0.0
 40
0.109
  0
CIRCLE
  5
A31
330
18
100
AcDbEntity
  8
0
100
AcDbCircle
 10
11.08955756185905
 20
29.35207538802825
 30
0.0
 40
0.1725
  0
CIRCLE
  5
A32
330
18
100
AcDbEntity
  8
0
100
AcDbCircle
 10
11.08955756185905
 20
29.35207538802825
 30
0.0
 40
0.1875
  0
TEXT
  5
A33
330
18
100
AcDbEntity
  8
DIM
100
AcDbText
 10
15.30747077505543
 20
30.58963602042239
 30
0.0
 40
0.187
  1
10-24 BRASS INSERT
 11
15.30747077505543
 21
30.68313602042239
 31
0.0
100
AcDbText
 73
     2
  0
TEXT
  5
A34
330
18
100
AcDbEntity
  8
DIM
100
AcDbText
 10
15.29445142899575
 20
30.2656091423733
 30
0.0
 40
0.187
  1
4 PLC'S.
100
AcDbText
  0
LINE
  5
A35
330
18
100
AcDbEntity
  8
DIM
100
AcDbLine
 10
14.93347077505542
 20
30.68313602042239
 30
0.0
 11
15.12047077505543
 21
30.68313602042239
 31
0.0
  0
LINE
  5
A36
330
18
100
AcDbEntity
  8
DIM
100
AcDbLine
 10
14.17693250154816
 20
29.91599002301717
 30
0.0
 11
14.93347077505542
 21
30.68313602042239
 31
0.0
  0
DIMENSION
  5
A37
330
18
100
AcDbEntity
  8
DIM
100
AcDbDimension
280
     0
  2
*D40
 10
13.74122650757544
 20
24.74254344395329
 30
0.0
 11
15.36025110277919
 21
25.13601842534974
 31
0.0
 70
     3
 71
     5
 42
-1.0
 73
     0
 74
     0
 75
     0
100
AcDbDiametricDimension
 15
13.93788861614266
 25
24.83660733210329
 35
0.0
 40
0.6939072965350307
  0
TEXT
  5
A38
330
18
100
AcDbEntity
  8
DIM
100
AcDbText
 10
14.8942436891467
 20
24.69680105521949
 30
0.0
 40
0.187
  1
4 PLC'S.
100
AcDbText
  0
DIMENSION
  5
A39
330
18
100
AcDbEntity
  8
DIM
100
AcDbDimension
280
     0
  2
*D41
 10
13.71123120973466
 20
24.90485156661885
 30
0.0
 11
15.41440933421141
 21
24.11833798876174
 31
0.0
 70
     3
 71
     5
 42
-1.0
 73
     0
 74
     0
 75
     0
100
AcDbDiametricDimension
 15
13.96788391398346
 25
24.67429920943771
 35
0.0
 40
0.8319438737402043
  0
TEXT
  5
A3A
330
18
100
AcDbEntity
  8
DIM
100
AcDbText
 10
14.8942436891467
 20
23.70960797397786
 30
0.0
 40
0.187
  1
4 PLC'S.
100
AcDbText
  0
SOLID
  5
A3B
330
18
100
AcDbEntity
  8
DIM
100
AcDbTrace
 10
14.19912355240291
 20
29.89410581928313
 30
0.0
 11
14.15474145069341
 21
29.93787422675121
 31
0.0
 12
14.04562727914393
 22
29.78284371788865
 32
0.0
 13
14.04562727914393
 23
29.78284371788865
 33
0.0
  0
TEXT
  5
A3C
330
18
100
AcDbEntity
  8
DIM
100
AcDbText
 10
11.25073533065704
 20
21.48529831772412
 30
0.0
 40
0.187
  1
WITHOUT COVER
100
AcDbText
  0
TEXT
  5
A3D
330
18
100
AcDbEntity
  8
DIM
100
AcDbText
 10
11.25739506142519
 20
21.92504573629228
 30
0.0
 40
0.312
  1
TOP VIEW
  7
COMPLEX
100
AcDbText
  0
LINE
  5
A3E
330
18
100
AcDbEntity
  8
DIM
100
AcDbLine
 10
11.26409132495656
 20
21.81414330728054
 30
0.0
 11
13.66502379876156
 21
21.81414330728054
 31
0.0
  0
LINE
  5
A3F
330
18
100
AcDbEntity
  8
DIM
100
AcDbLine
 10
11.26409132495656
 20
21.85414330728054
 30
0.0
 11
13.66502379876156
 21
21.85414330728054
 31
0.0
  0
LINE
  5
A40
330
18
100
AcDbEntity
  8
HIDE
100
AcDbLine
 10
52.84977432116819
 20
24.47670416583619
 30
0.0
 11
52.84977432116819
 21
24.69470416583619
 31
0.0
  0
LINE
  5
A41
330
18
100
AcDbEntity
  8
HIDE
100
AcDbLine
 10
52.84977432116819
 20
29.03920416583618
 30
0.0
 11
52.84977432116819
 21
29.25720416583619
 31
0.0
  0
LINE
  5
A42
330
18
100
AcDbEntity
  8
HIDE
100
AcDbLine
 10
50.18546715822181
 20
14.79212461457824
 30
0.0
 11
50.40346715822181
 21
14.79212461457824
 31
0.0
  0
LINE
  5
A43
330
18
100
AcDbEntity
  8
HIDE
100
AcDbLine
 10
52.93546715822181
 20
14.79212461457824
 30
0.0
 11
53.1534671582218
 21
14.79212461457824
 31
0.0
  0
TEXT
  5
A47
330
18
100
AcDbEntity
  8
TITLE
100
AcDbText
 10
44.71726211672854
 20
3.158861322627167
 30
0.0
 40
0.187
  1
COLOR: GRAY 
100
AcDbText
  0
TEXT
  5
DED
330
18
100
AcDbEntity
  8
TITLE
100
AcDbText
 10
51.96638083203399
 20
1.316742979900486
 30
0.0
 40
0.154
  1
APD. BY
  7
ITALIC
 72
     1
 11
52.42838083203399
 21
1.316742979900486
 31
0.0
100
AcDbText
  0
TEXT
  5
DEE
330
18
100
AcDbEntity
  8
TITLE
 62
     1
100
AcDbText
 10
53.47434386396953
 20
1.322440723290178
 30
0.0
 40
0.154
  1
DATE
  7
ITALIC
 72
     1
 11
53.75667719730286
 21
1.322440723290178
 31
0.0
100
AcDbText
  0
TEXT
  5
DF4
330
18
100
AcDbEntity
  8
TITLE
100
AcDbText
 10
51.96638083203399
 20
2.072056300604384
 30
0.0
 40
0.154
  1
CHK. BY
  7
ITALIC
 72
     1
 11
52.42838083203399
 21
2.072056300604384
 31
0.0
100
AcDbText
  0
TEXT
  5
DF6
330
18
100
AcDbEntity
  8
TITLE
 62
     1
100
AcDbText
 10
53.46190663208497
 20
2.072056300604384
 30
0.0
 40
0.154
  1
DATE
  7
ITALIC
 72
     1
 11
53.7442399654183
 21
2.072056300604384
 31
0.0
100
AcDbText
  0
TEXT
  5
DFC
330
18
100
AcDbEntity
  8
TITLE
 62
     1
100
AcDbText
 10
60.47755802933359
 20
3.356364944423901
 30
0.0
 40
0.15525
  1
+
  7
ITALIC
100
AcDbText
  0
TEXT
  5
DFD
330
18
100
AcDbEntity
  8
TITLE
 62
     1
100
AcDbText
 10
60.47755802933359
 20
3.198840704743548
 30
0.0
 40
0.15525
  1
-
  7
ITALIC
100
AcDbText
  0
TEXT
  5
DFF
330
18
100
AcDbEntity
  8
TITLE
 62
     1
100
AcDbText
 10
62.01705691683141
 20
3.349780357914581
 30
0.0
 40
0.15525
  1
+
  7
ITALIC
100
AcDbText
  0
TEXT
  5
E00
330
18
100
AcDbEntity
  8
TITLE
 62
     1
100
AcDbText
 10
62.01705691683141
 20
3.19799197822055
 30
0.0
 40
0.15525
  1
-
  7
ITALIC
100
AcDbText
  0
TEXT
  5
F4C
330
18
100
AcDbEntity
  8
TITLE
100
AcDbText
 10
52.20267205253438
 20
0.2172647121122048
 30
0.0
 40
0.15125
  1
DO NOT SCALE
 72
     1
 11
53.08496371920104
 21
0.2172647121122048
 31
0.0
100
AcDbText
  0
POLYLINE
  5
103E
330
18
100
AcDbEntity
  8
TITLE
100
AcDb2dPolyline
 66
     1
 10
0.0
 20
0.0
 30
0.0
 70
     1
  0
VERTEX
  5
103F
330
103E
100
AcDbEntity
  8
TITLE
100
AcDbVertex
100
AcDb2dVertex
 10
63.96000000000377
 20
41.71000000000276
 30
0.0
  0
VERTEX
  5
1040
330
103E
100
AcDbEntity
  8
TITLE
100
AcDbVertex
100
AcDb2dVertex
 10
0.0399999999999943
 20
41.71000000000276
 30
0.0
  0
VERTEX
  5
1041
330
103E
100
AcDbEntity
  8
TITLE
100
AcDbVertex
100
AcDb2dVertex
 10
0.0399999999999996
 20
0.0400000000000014
 30
0.0
  0
VERTEX
  5
1042
330
103E
100
AcDbEntity
  8
TITLE
100
AcDbVertex
100
AcDb2dVertex
 10
63.96000000000374
 20
0.0400000000000014
 30
0.0
  0
SEQEND
  5
1043
330
103E
100
AcDbEntity
  8
TITLE
  0
POLYLINE
  5
1044
330
18
100
AcDbEntity
  8
TITLE
100
AcDb2dPolyline
 66
     1
 10
0.0
 20
0.0
 30
0.0
 70
     1
  0
VERTEX
  5
1045
330
1044
100
AcDbEntity
  8
TITLE
100
AcDbVertex
100
AcDb2dVertex
 10
64.00000000000376
 20
41.75000000000276
 30
0.0
  0
VERTEX
  5
1046
330
1044
100
AcDbEntity
  8
TITLE
100
AcDbVertex
100
AcDb2dVertex
 10
-0.0000000000000071
 20
41.75000000000276
 30
0.0
  0
VERTEX
  5
1047
330
1044
100
AcDbEntity
  8
TITLE
100
AcDbVertex
100
AcDb2dVertex
 10
0.0
 20
0.0000000000000018
 30
0.0
  0
VERTEX
  5
1048
330
1044
100
AcDbEntity
  8
TITLE
100
AcDbVertex
100
AcDb2dVertex
 10
64.00000000000374
 20
0.0000000000000018
 30
0.0
  0
SEQEND
  5
1049
330
1044
100
AcDbEntity
  8
TITLE
  0
POLYLINE
  5
104A
330
18
100
AcDbEntity
  8
TITLE
100
AcDb2dPolyline
 66
     1
 10
0.0
 20
0.0
 30
0.0
 70
     1
  0
VERTEX
  5
104B
330
104A
100
AcDbEntity
  8
TITLE
100
AcDbVertex
100
AcDb2dVertex
 10
63.98000000000377
 20
41.73000000000278
 30
0.0
  0
VERTEX
  5
104C
330
104A
100
AcDbEntity
  8
TITLE
100
AcDbVertex
100
AcDb2dVertex
 10
0.0199999999999943
 20
41.73000000000278
 30
0.0
  0
VERTEX
  5
104D
330
104A
100
AcDbEntity
  8
TITLE
100
AcDbVertex
100
AcDb2dVertex
 10
0.0199999999999996
 20
0.0200000000000014
 30
0.0
  0
VERTEX
  5
104E
330
104A
100
AcDbEntity
  8
TITLE
100
AcDbVertex
100
AcDb2dVertex
 10
63.98000000000374
 20
0.0200000000000014
 30
0.0
  0
SEQEND
  5
104F
330
104A
100
AcDbEntity
  8
TITLE
  0
TEXT
  5
1082
330
18
100
AcDbEntity
  8
TITLE
 62
     1
100
AcDbText
 10
62.01705691683141
 20
3.19799197822055
 30
0.0
 40
0.15525
  1
-
  7
ITALIC
100
AcDbText
  0
TEXT
  5
1083
330
18
100
AcDbEntity
  8
TITLE
 62
     1
100
AcDbText
 10
62.01705691683141
 20
3.349780357914581
 30
0.0
 40
0.15525
  1
+
  7
ITALIC
100
AcDbText
  0
TEXT
  5
1084
330
18
100
AcDbEntity
  8
TITLE
 62
     1
100
AcDbText
 10
62.01705691683141
 20
3.64320306308844
 30
0.0
 40
0.15525
  1
FRACTIONAL
  7
ITALIC
100
AcDbText
  0
TEXT
  5
1085
330
18
100
AcDbEntity
  8
TITLE
 62
     1
100
AcDbText
 10
60.47755802933359
 20
3.198840704743548
 30
0.0
 40
0.15525
  1
-
  7
ITALIC
100
AcDbText
  0
TEXT
  5
1086
330
18
100
AcDbEntity
  8
TITLE
 62
     1
100
AcDbText
 10
60.47755802933359
 20
3.356364944423901
 30
0.0
 40
0.15525
  1
+
  7
ITALIC
100
AcDbText
  0
TEXT
  5
1087
330
18
100
AcDbEntity
  8
TITLE
 62
     1
100
AcDbText
 10
60.47755802933359
 20
3.649787649597743
 30
0.0
 40
0.15525
  1
DECIMAL
  7
ITALIC
100
AcDbText
  0
TEXT
  5
1088
330
18
100
AcDbEntity
  8
TITLE
 62
     1
100
AcDbText
 10
57.92743410179541
 20
3.643086326406458
 30
0.0
 40
0.15525
  1
TOLERANCES
  7
ITALIC
 72
     1
 11
58.67780910179541
 21
3.643086326406458
 31
0.0
100
AcDbText
  0
LINE
  5
1089
330
18
100
AcDbEntity
  8
TITLE
 62
     1
100
AcDbLine
 10
57.33500000000375
 20
4.04
 30
0.0
 11
57.33500000000375
 21
3.040000000000001
 31
0.0
  0
TEXT
  5
108A
330
18
100
AcDbEntity
  8
TITLE
 62
     1
100
AcDbText
 10
57.51343410179541
 20
3.27666845244556
 30
0.0
 40
0.15525
  1
UNLESS SPECIFIED
  7
ITALIC
 72
     1
 11
58.67780910179541
 21
3.27666845244556
 31
0.0
100
AcDbText
  0
TEXT
  5
108B
330
18
100
AcDbEntity
  8
TITLE
 62
     1
100
AcDbText
 10
53.44713965836721
 20
2.822727796946285
 30
0.0
 40
0.14
  1
DATE
  7
ITALIC
 72
     1
 11
53.70380632503388
 21
2.822727796946285
 31
0.0
100
AcDbText
  0
TEXT
  5
108C
330
18
100
AcDbEntity
  8
TITLE
 62
     1
100
AcDbText
 10
53.46190663208497
 20
2.072056300604384
 30
0.0
 40
0.154
  1
DATE
  7
ITALIC
 72
     1
 11
53.7442399654183
 21
2.072056300604384
 31
0.0
100
AcDbText
  0
TEXT
  5
108D
330
18
100
AcDbEntity
  8
TITLE
100
AcDbText
 10
52.13269628546089
 20
2.82618097475822
 30
0.0
 40
0.14
  1
DR. BY
  7
ITALIC
 72
     1
 11
52.48269628546089
 21
2.82618097475822
 31
0.0
100
AcDbText
  0
TEXT
  5
108E
330
18
100
AcDbEntity
  8
TITLE
100
AcDbText
 10
51.96638083203399
 20
2.072056300604384
 30
0.0
 40
0.154
  1
CHK. BY
  7
ITALIC
 72
     1
 11
52.42838083203399
 21
2.072056300604384
 31
0.0
100
AcDbText
  0
LINE
  5
108F
330
18
100
AcDbEntity
  8
TITLE
 62
     1
100
AcDbLine
 10
61.74479396240641
 20
0.7900000000000014
 30
0.0
 11
61.74479396240641
 21
1.540000000000001
 31
0.0
  0
TEXT
  5
1090
330
18
100
AcDbEntity
  8
TITLE
 62
     1
100
AcDbText
 10
59.46791140966684
 20
0.5206953542067927
 30
0.0
 40
0.1694
  1
PART NO.
  7
ITALIC
100
AcDbText
  0
LINE
  5
1091
330
18
100
AcDbEntity
  8
TITLE
 62
     1
100
AcDbLine
 10
59.21000000000375
 20
0.7900000000000014
 30
0.0
 11
59.21000000000375
 21
0.0399999999999978
 31
0.0
  0
TEXT
  5
1092
330
18
100
AcDbEntity
  8
TITLE
 62
     1
100
AcDbText
 10
54.56633048452305
 20
0.5102494913256912
 30
0.0
 40
0.1694
  1
PART NAME
  7
ITALIC
100
AcDbText
  0
TEXT
  5
1093
330
18
100
AcDbEntity
  8
TITLE
 62
     1
100
AcDbText
 10
54.54266216399277
 20
1.252558201771084
 30
0.0
 40
0.1694
  1
CUSTOMER
  7
ITALIC
 72
     2
 11
55.8413954973261
 21
1.252558201771084
 31
0.0
100
AcDbText
  0
TEXT
  5
1094
330
18
100
AcDbEntity
  8
TITLE
 62
     1
100
AcDbText
 10
53.47434386396953
 20
1.322440723290178
 30
0.0
 40
0.154
  1
DATE
  7
ITALIC
 72
     1
 11
53.75667719730286
 21
1.322440723290178
 31
0.0
100
AcDbText
  0
TEXT
  5
1095
330
18
100
AcDbEntity
  8
TITLE
100
AcDbText
 10
51.96638083203399
 20
1.316742979900486
 30
0.0
 40
0.154
  1
APD. BY
  7
ITALIC
 72
     1
 11
52.42838083203399
 21
1.316742979900486
 31
0.0
100
AcDbText
  0
TEXT
  5
1096
330
18
100
AcDbEntity
  8
TITLE
100
AcDbText
 10
52.73472273397718
 20
0.5212952711989276
 30
0.0
 40
0.154
  1
SCALE
  7
ITALIC
 72
     1
 11
53.09405606731051
 21
0.5212952711989276
 31
0.0
100
AcDbText
  0
LINE
  5
1097
330
18
100
AcDbEntity
  8
TITLE
 62
     1
100
AcDbLine
 10
53.08500000000375
 20
3.040000000000004
 30
0.0
 11
53.08500000000375
 21
0.7900000000000032
 31
0.0
  0
LINE
  5
1098
330
18
100
AcDbEntity
  8
TITLE
 62
     1
100
AcDbLine
 10
54.33500000000375
 20
3.039999999999997
 30
0.0
 11
54.33500000000375
 21
0.0399999999999996
 31
0.0
  0
LINE
  5
1099
330
18
100
AcDbEntity
  8
TITLE
 62
     1
100
AcDbLine
 10
63.96000000000374
 20
1.540000000000001
 30
0.0
 11
54.33500000000375
 21
1.540000000000001
 31
0.0
  0
TEXT
  5
109A
330
18
100
AcDbEntity
  8
TITLE
 62
     1
100
AcDbText
 10
61.83818339703766
 20
1.326747107986976
 30
0.0
 40
0.125
  1
AutoCAD DWG. FILE
100
AcDbText
  0
TEXT
  5
109B
330
18
100
AcDbEntity
  8
TITLE
100
AcDbText
 10
51.14538256127479
 20
2.036268066777214
 30
0.0
 40
0.154
  1
CHD.
  7
ITALIC
 72
     1
 11
51.3763825612748
 21
2.036268066777214
 31
0.0
100
AcDbText
  0
TEXT
  5
109C
330
18
100
AcDbEntity
  8
TITLE
100
AcDbText
 10
50.38257751100488
 20
2.055260544742853
 30
0.0
 40
0.154
  1
BY
  7
ITALIC
 72
     1
 11
50.51091084433821
 21
2.055260544742853
 31
0.0
100
AcDbText
  0
TEXT
  5
109D
330
18
100
AcDbEntity
  8
TITLE
100
AcDbText
 10
49.21118533914498
 20
2.045764305760033
 30
0.0
 40
0.154
  1
DATE
  7
ITALIC
 72
     1
 11
49.4935186724783
 21
2.045764305760033
 31
0.0
100
AcDbText
  0
TEXT
  5
109E
330
18
100
AcDbEntity
  8
TITLE
100
AcDbText
 10
43.43743673306819
 20
4.138388543293784
 30
0.0
 40
0.14
  1
NOTES:
  7
ITALIC
100
AcDbText
  0
TEXT
  5
109F
330
18
100
AcDbEntity
  8
TITLE
100
AcDbText
 10
43.26186688171646
 20
2.055260544742853
 30
0.0
 40
0.154
  1
LET.
  7
ITALIC
 72
     1
 11
43.49286688171646
 21
2.055260544742853
 31
0.0
100
AcDbText
  0
TEXT
  5
10A0
330
18
100
AcDbEntity
  8
TITLE
100
AcDbText
 10
43.41367829470571
 20
2.762795715722289
 30
0.0
 40
0.154
  1
MATERIAL
  7
ITALIC
100
AcDbText
  0
LINE
  5
10A1
330
18
100
AcDbEntity
  8
TITLE
100
AcDbLine
 10
51.83500000000375
 20
1.915000000000001
 30
0.0
 11
42.96000000000375
 21
1.915000000000004
 31
0.0
  0
TEXT
  5
10A2
330
18
100
AcDbEntity
  8
TITLE
100
AcDbText
 10
45.20274150067381
 20
2.036268066777214
 30
0.0
 40
0.154
  1
REVISION RECORD
  7
ITALIC
 72
     1
 11
46.30640816734048
 21
2.036268066777214
 31
0.0
100
AcDbText
  0
LINE
  5
10A3
330
18
100
AcDbEntity
  8
TITLE
100
AcDbLine
 10
51.83500000000375
 20
0.4149999999999996
 30
0.0
 11
42.96000000000375
 21
0.415000000000005
 31
0.0
  0
LINE
  5
10A4
330
18
100
AcDbEntity
  8
TITLE
100
AcDbLine
 10
51.83500000000375
 20
1.165000000000001
 30
0.0
 11
42.96000000000375
 21
1.165000000000004
 31
0.0
  0
LINE
  5
10A5
330
18
100
AcDbEntity
  8
TITLE
100
AcDbLine
 10
42.96000000000375
 20
4.040000000000004
 30
0.0
 11
42.96000000000375
 21
0.0400000000000014
 31
0.0
  0
LINE
  5
10A6
330
18
100
AcDbEntity
  8
TITLE
100
AcDbLine
 10
43.96000000000374
 20
2.290000000000001
 30
0.0
 11
43.96000000000374
 21
0.0400000000000014
 31
0.0
  0
LINE
  5
10A7
330
18
100
AcDbEntity
  8
TITLE
100
AcDbLine
 10
48.96000000000374
 20
2.290000000000004
 30
0.0
 11
48.96000000000374
 21
0.0400000000000049
 31
0.0
  0
LINE
  5
10A8
330
18
100
AcDbEntity
  8
TITLE
100
AcDbLine
 10
50.08500000000374
 20
2.290000000000004
 30
0.0
 11
50.08500000000374
 21
0.0400000000000067
 31
0.0
  0
LINE
  5
10A9
330
18
100
AcDbEntity
  8
TITLE
100
AcDbLine
 10
50.96000000000374
 20
2.290000000000004
 30
0.0
 11
50.96000000000374
 21
0.0400000000000085
 31
0.0
  0
LINE
  5
10AA
330
18
100
AcDbEntity
  8
TITLE
100
AcDbLine
 10
51.83500000000375
 20
3.040000000000001
 30
0.0
 11
51.83500000000375
 21
0.0399999999999996
 31
0.0
  0
LINE
  5
10AB
330
18
100
AcDbEntity
  8
TITLE
100
AcDbLine
 10
63.96000000000374
 20
4.04
 30
0.0
 11
42.96000000000375
 21
4.040000000000004
 31
0.0
  0
LINE
  5
10AC
330
18
100
AcDbEntity
  8
TITLE
100
AcDbLine
 10
57.33500000000375
 20
3.540000000000002
 30
0.0
 11
42.96000000000375
 21
3.540000000000004
 31
0.0
  0
LINE
  5
10AD
330
18
100
AcDbEntity
  8
TITLE
100
AcDbLine
 10
63.96000000000374
 20
3.040000000000001
 30
0.0
 11
42.96000000000375
 21
3.040000000000004
 31
0.0
  0
LINE
  5
10AE
330
18
100
AcDbEntity
  8
TITLE
100
AcDbLine
 10
54.33500000000375
 20
2.290000000000001
 30
0.0
 11
42.96000000000375
 21
2.290000000000004
 31
0.0
  0
LINE
  5
10AF
330
18
100
AcDbEntity
  8
TITLE
100
AcDbLine
 10
54.33500000000375
 20
1.540000000000001
 30
0.0
 11
42.96000000000375
 21
1.540000000000004
 31
0.0
  0
LINE
  5
10B0
330
18
100
AcDbEntity
  8
TITLE
100
AcDbLine
 10
63.96000000000374
 20
0.7900000000000014
 30
0.0
 11
42.96000000000375
 21
0.790000000000005
 31
0.0
  0
TEXT
  5
10C0
330
18
100
AcDbEntity
  8
TITLE
100
AcDbText
 10
56.06935516508698
 20
2.074724672111827
 30
0.0
 40
0.4401508407560161
  1
HUBBELL WIEGMANN
  7
STYLE1
100
AcDbText
  0
TEXT
  5
10C1
330
18
100
AcDbEntity
  8
TITLE
100
AcDbText
 10
61.02766488677365
 20
0.1705245254469929
 30
0.0
 40
0.187
  1
HW-N4X532
 72
     1
 11
61.86916488677365
 21
0.1705245254469929
 31
0.0
100
AcDbText
  0
ENDSEC
  0
SECTION
  2
OBJECTS
  0
DICTIONARY
  5
C
330
0
100
AcDbDictionary
281
     1
  3
ACAD_COLOR
350
F63
  3
ACAD_GROUP
350
D
  3
ACAD_LAYOUT
350
F66
  3
ACAD_MATERIAL
350
F62
  3
ACAD_MLEADERSTYLE
350
1112
  3
ACAD_MLINESTYLE
350
E
  3
ACAD_PLOTSETTINGS
350
F67
  3
ACAD_PLOTSTYLENAME
350
F60
  3
ACAD_SCALELIST
350
1100
  3
ACAD_TABLESTYLE
350
F64
  3
ACAD_VISUALSTYLE
350
10E7
  3
ACDB_RECOMPOSE_DATA
350
1121
  3
AcDbVariableDictionary
350
101C
  3
AcmDictionary
350
FC5
  3
AMG
350
F6F
  3
AMGSNAPSETTINGS
350
1006
  0
DICTIONARY
  5
10B1
330
18
100
AcDbDictionary
280
     1
281
     1
  3
ACAD_SORTENTS
360
10B2
  0
DICTIONARY
  5
F63
102
{ACAD_REACTORS
330
C
102
}
330
C
100
AcDbDictionary
281
     1
  0
DICTIONARY
  5
D
102
{ACAD_REACTORS
330
C
102
}
330
C
100
AcDbDictionary
281
     1
  0
DICTIONARY
  5
F66
102
{ACAD_REACTORS
330
C
102
}
330
C
100
AcDbDictionary
281
     1
  3
Layout1
350
F69
  3
Model
350
F68
  0
DICTIONARY
  5
F62
102
{ACAD_REACTORS
330
C
102
}
330
C
100
AcDbDictionary
281
     1
  3
ByBlock
350
10D7
  3
ByLayer
350
10CF
  3
Global
350
10DF
  0
DICTIONARY
  5
1112
102
{ACAD_REACTORS
330
C
102
}
330
C
100
AcDbDictionary
281
     1
  3
Standard
350
1113
  0
DICTIONARY
  5
E
102
{ACAD_REACTORS
330
C
102
}
330
C
100
AcDbDictionary
281
     1
  3
STANDARD
350
1B
  0
DICTIONARY
  5
F67
102
{ACAD_REACTORS
330
C
102
}
330
C
100
AcDbDictionary
281
     1
  0
ACDBDICTIONARYWDFLT
  5
F60
102
{ACAD_REACTORS
330
C
102
}
330
C
100
AcDbDictionary
281
     1
  3
Normal
350
F61
100
AcDbDictionaryWithDefault
340
F61
  0
DICTIONARY
  5
1100
102
{ACAD_REACTORS
330
C
102
}
330
C
100
AcDbDictionary
281
     1
  3
A0
350
1101
  3
A1
350
1102
  3
A2
350
1103
  3
A3
350
1104
  3
A4
350
1105
  3
A5
350
1106
  3
A6
350
1107
  3
A7
350
1108
  3
A8
350
1109
  3
A9
350
110A
  3
B0
350
110B
  3
B1
350
110C
  3
B2
350
110D
  3
B3
350
110E
  3
B4
350
110F
  3
B5
350
1110
  3
B6
350
1111
  0
DICTIONARY
  5
F64
102
{ACAD_REACTORS
330
C
102
}
330
C
100
AcDbDictionary
281
     1
  3
Standard
350
F65
  0
DICTIONARY
  5
10E7
102
{ACAD_REACTORS
330
C
102
}
330
C
100
AcDbDictionary
281
     1
  3
2dWireframe
350
10ED
  3
Basic
350
10EC
  3
Brighten
350
10F3
  3
ColorChange
350
10F7
  3
Conceptual
350
10F0
  3
Dim
350
10F2
  3
EdgeColorOff
350
10FF
  3
Facepattern
350
10F6
  3
Flat
350
10E8
  3
FlatWithEdges
350
10E9
  3
Gouraud
350
10EA
  3
GouraudWithEdges
350
10EB
  3
Hidden
350
10EF
  3
JitterOff
350
10FD
  3
Linepattern
350
10F5
  3
OverhangOff
350
10FE
  3
Realistic
350
10F1
  3
Shaded
350
10FC
  3
Shaded with edges
350
10FB
  3
Shades of Gray
350
10F8
  3
Sketchy
350
10F9
  3
Thicken
350
10F4
  3
Wireframe
350
10EE
  3
X-Ray
350
10FA
  0
XRECORD
  5
1121
102
{ACAD_REACTORS
330
C
102
}
330
C
100
AcDbXrecord
280
     1
 90
        1
330
F65
  0
DICTIONARY
  5
101C
102
{ACAD_REACTORS
330
C
102
}
330
C
100
AcDbDictionary
281
     1
  3
CANNOSCALE
350
111B
  3
CMLEADERSTYLE
350
1119
  3
CTABLESTYLE
350
101D
  3
DIMASSOC
350
101E
  3
LAYEREVAL
350
111D
  3
LAYERNOTIFY
350
111E
  3
LIGHTINGUNITS
350
111C
  3
MSLTSCALE
350
111A
  3
PROJECTNAME
350
101F
  0
DICTIONARY
  5
FC5
102
{ACAD_REACTORS
330
C
102
}
330
C
100
AcDbDictionary
281
     1
  3
AcmStdDictionary
350
FD2
  3
AMDTSECTSYM_ARROWCOLOR
350
FF1
  0
DICTIONARY
  5
F6F
102
{ACAD_REACTORS
330
C
102
}
330
C
100
AcDbDictionary
281
     1
  0
DICTIONARY
  5
1006
102
{ACAD_REACTORS
330
C
102
}
330
C
100
AcDbDictionary
281
     1
  0
SORTENTSTABLE
  5
10B2
102
{ACAD_REACTORS
330
10B1
102
}
330
10B1
100
AcDbSortentsTable
330
18
331
987
  5
987
331
948
  5
948
331
983
  5
983
331
8D4
  5
8D4
331
A3F
  5
A3F
331
90F
  5
90F
331
895
  5
895
331
8D0
  5
8D0
331
A3B
  5
A3B
331
891
  5
891
331
8CC
  5
8CC
331
A37
  5
A37
331
90B
  5
90B
331
1084
  5
1084
331
A33
  5
A33
331
97F
  5
97F
331
9B6
  5
9B6
331
93C
  5
93C
331
938
  5
938
331
9F1
  5
9F1
331
9ED
  5
9ED
331
9E9
  5
9E9
331
930
  5
930
331
10AD
  5
10AD
331
907
  5
907
331
88D
  5
88D
331
8C4
  5
8C4
331
A2F
  5
A2F
331
889
  5
889
331
10A9
  5
10A9
331
8C0
  5
8C0
331
A2B
  5
A2B
331
885
  5
885
331
8BC
  5
8BC
331
A27
  5
A27
331
881
  5
881
331
1044
  5
1044
331
8B8
  5
8B8
331
9E5
  5
9E5
331
92C
  5
92C
331
9E1
  5
9E1
331
9DD
  5
9DD
331
99A
  5
99A
331
9D9
  5
9D9
331
10A5
  5
10A5
331
10A1
  5
10A1
331
87D
  5
87D
331
109D
  5
109D
331
879
  5
879
331
1099
  5
1099
331
DF6
  5
DF6
331
8B4
  5
8B4
331
8EF
  5
8EF
331
8B0
  5
8B0
331
DEE
  5
DEE
331
8AC
  5
8AC
331
8EB
  5
8EB
331
8A8
  5
8A8
331
996
  5
996
331
9D5
  5
9D5
331
992
  5
992
331
914
  5
914
331
953
  5
953
331
98E
  5
98E
331
910
  5
910
331
1095
  5
1095
331
1091
  5
1091
331
8E7
  5
8E7
331
108D
  5
108D
331
8E3
  5
8E3
331
1089
  5
1089
331
8DF
  5
8DF
331
89C
  5
89C
331
8DB
  5
8DB
331
A42
  5
A42
331
94F
  5
94F
331
947
  5
947
331
986
  5
986
331
982
  5
982
331
9B9
  5
9B9
331
8D7
  5
8D7
331
8D3
  5
8D3
331
A3E
  5
A3E
331
8CF
  5
8CF
331
A3A
  5
A3A
331
90E
  5
90E
331
894
  5
894
331
8CB
  5
8CB
331
A36
  5
A36
331
90A
  5
90A
331
890
  5
890
331
1087
  5
1087
331
A32
  5
A32
331
1083
  5
1083
331
93F
  5
93F
331
9B5
  5
9B5
331
93B
  5
93B
331
9F0
  5
9F0
331
9EC
  5
9EC
331
9E8
  5
9E8
331
10B0
  5
10B0
331
906
  5
906
331
88C
  5
88C
331
10AC
  5
10AC
331
8C7
  5
8C7
331
888
  5
888
331
10A8
  5
10A8
331
8C3
  5
8C3
331
A2E
  5
A2E
331
884
  5
884
331
8BF
  5
8BF
331
A2A
  5
A2A
331
880
  5
880
331
DFD
  5
DFD
331
8BB
  5
8BB
331
92F
  5
92F
331
92B
  5
92B
331
9E4
  5
9E4
331
9E0
  5
9E0
331
9DC
  5
9DC
331
9D8
  5
9D8
331
999
  5
999
331
10A4
  5
10A4
331
10A0
  5
10A0
331
109C
  5
109C
331
8B7
  5
8B7
331
87C
  5
87C
331
8B3
  5
8B3
331
1098
  5
1098
331
8AF
  5
8AF
331
8EE
  5
8EE
331
8AB
  5
8AB
331
8EA
  5
8EA
331
DED
  5
DED
331
9D4
  5
9D4
331
995
  5
995
331
991
  5
991
331
913
  5
913
331
952
  5
952
331
1094
  5
1094
331
1090
  5
1090
331
8E6
  5
8E6
331
108C
  5
108C
331
8A7
  5
8A7
331
8E2
  5
8E2
331
1088
  5
1088
331
8DE
  5
8DE
331
8DA
  5
8DA
331
A41
  5
A41
331
946
  5
946
331
985
  5
985
331
981
  5
981
331
9B8
  5
9B8
331
8D6
  5
8D6
331
8D2
  5
8D2
331
A3D
  5
A3D
331
893
  5
893
331
8CE
  5
8CE
331
A39
  5
A39
331
90D
  5
90D
331
8CA
  5
8CA
331
1086
  5
1086
331
A35
  5
A35
331
F4C
  5
F4C
331
909
  5
909
331
1082
  5
1082
331
A31
  5
A31
331
93E
  5
93E
331
93A
  5
93A
331
9F3
  5
9F3
331
9EF
  5
9EF
331
932
  5
932
331
9EB
  5
9EB
331
88F
  5
88F
331
10AF
  5
10AF
331
8C6
  5
8C6
331
88B
  5
88B
331
10AB
  5
10AB
331
8C2
  5
8C2
331
A2D
  5
A2D
331
887
  5
887
331
8BE
  5
8BE
331
A29
  5
A29
331
104A
  5
104A
331
E00
  5
E00
331
883
  5
883
331
8BA
  5
8BA
331
DFC
  5
DFC
331
9E7
  5
9E7
331
92E
  5
92E
331
969
  5
969
331
92A
  5
92A
331
9E3
  5
9E3
331
9DF
  5
9DF
331
9DB
  5
9DB
331
998
  5
998
331
10A7
  5
10A7
331
10A3
  5
10A3
331
87F
  5
87F
331
109F
  5
109F
331
87B
  5
87B
331
109B
  5
109B
331
8B6
  5
8B6
331
103E
  5
103E
331
DF4
  5
DF4
331
8B2
  5
8B2
331
8ED
  5
8ED
331
8AE
  5
8AE
331
8AA
  5
8AA
331
8E9
  5
8E9
331
9D7
  5
9D7
331
994
  5
994
331
9D3
  5
9D3
331
990
  5
990
331
912
  5
912
331
951
  5
951
331
988
  5
988
331
1097
  5
1097
331
1093
  5
1093
331
108F
  5
108F
331
8A6
  5
8A6
331
8E5
  5
8E5
331
108B
  5
108B
331
A0D
  5
A0D
331
8E1
  5
8E1
331
8DD
  5
8DD
331
8D9
  5
8D9
331
A40
  5
A40
331
949
  5
949
331
945
  5
945
331
984
  5
984
331
980
  5
980
331
8D5
  5
8D5
331
8D1
  5
8D1
331
A3C
  5
A3C
331
896
  5
896
331
8CD
  5
8CD
331
A38
  5
A38
331
90C
  5
90C
331
892
  5
892
331
A34
  5
A34
331
908
  5
908
331
1085
  5
1085
331
A30
  5
A30
331
9B7
  5
9B7
331
93D
  5
93D
331
939
  5
939
331
9F2
  5
9F2
331
9EE
  5
9EE
331
931
  5
931
331
9EA
  5
9EA
331
88E
  5
88E
331
10AE
  5
10AE
331
88A
  5
88A
331
10AA
  5
10AA
331
8C5
  5
8C5
331
886
  5
886
331
8C1
  5
8C1
331
A2C
  5
A2C
331
882
  5
882
331
DFF
  5
DFF
331
8BD
  5
8BD
331
A28
  5
A28
331
8B9
  5
8B9
331
92D
  5
92D
331
9E6
  5
9E6
331
9E2
  5
9E2
331
9DE
  5
9DE
331
9DA
  5
9DA
331
99B
  5
99B
331
10A6
  5
10A6
331
10A2
  5
10A2
331
87E
  5
87E
331
109E
  5
109E
331
8B5
  5
8B5
331
87A
  5
87A
331
109A
  5
109A
331
8B1
  5
8B1
331
8F0
  5
8F0
331
8AD
  5
8AD
331
8EC
  5
8EC
331
8A9
  5
8A9
331
8E8
  5
8E8
331
9D6
  5
9D6
331
997
  5
997
331
993
  5
993
331
98F
  5
98F
331
911
  5
911
331
950
  5
950
331
1096
  5
1096
331
1092
  5
1092
331
108E
  5
108E
331
8E4
  5
8E4
331
108A
  5
108A
331
8E0
  5
8E0
331
8DC
  5
8DC
331
A47
  5
A47
331
A43
  5
A43
331
8D8
  5
8D8
  0
LAYOUT
  5
F69
102
{ACAD_REACTORS
330
F66
102
}
330
F66
100
AcDbPlotSettings
  1

  2
\\BELDINGDC\IBM 4039 LaserPrinter PS
  4

  6

 40
0.0
 41
0.0
 42
0.0
 43
0.0
 44
0.0
 45
0.0
 46
0.0
 47
0.0
 48
0.0
 49
0.0
140
0.0
141
0.0
142
1.0
143
1.0
 70
   688
 72
     0
 73
     0
 74
     5
  7

 75
    16
147
1.0
 76
     0
 77
     2
 78
   300
148
0.0
149
0.0
100
AcDbLayout
  1
Layout1
 70
     1
 71
     1
 10
0.0
 20
0.0
 11
12.0
 21
9.0
 12
0.0
 22
0.0
 32
0.0
 14
1.000000000000000E+20
 24
1.000000000000000E+20
 34
1.000000000000000E+20
 15
-1.000000000000000E+20
 25
-1.000000000000000E+20
 35
-1.000000000000000E+20
146
0.0
 13
0.0
 23
0.0
 33
0.0
 16
1.0
 26
0.0
 36
0.0
 17
0.0
 27
1.0
 37
0.0
 76
     0
330
15
  0
LAYOUT
  5
F68
102
{ACAD_REACTORS
330
F66
102
}
330
F66
100
AcDbPlotSettings
  1

  2
HP DesignJet 500 24 by HP
  4
User265
  6

 40
4.995333194732666
 41
16.97568893432617
 42
4.99530029296875
 43
16.97564697265625
 44
558.7576293945312
 45
863.5153198242187
 46
3.776419897700728
 47
0.0
 48
0.0
 49
0.0
140
0.0
141
0.0
142
1.0
143
1.959656748343369
 70
 11956
 72
     0
 73
     1
 74
     1
  7

 75
     0
147
0.5102934485059018
 76
     0
 77
     2
 78
   300
148
0.0104419782283003
149
0.0422767812652353
100
AcDbLayout
  1
Model
 70
     1
 71
     0
 10
0.0
 20
0.0
 11
12.0
 21
9.0
 12
0.0
 22
0.0
 32
0.0
 14
0.0
 24
0.0
 34
0.0
 15
0.0
 25
0.0
 35
0.0
146
0.0
 13
0.0
 23
0.0
 33
0.0
 16
1.0
 26
0.0
 36
0.0
 17
0.0
 27
1.0
 37
0.0
 76
     0
330
18
331
10C8
1001
ACAD_PSEXT
1000
HP DesignJet 500 24 by HP
1000
HP DesignJet 500 24 by HP
1000
USB001
1000

1070
     0
  0
MATERIAL
  5
10D7
102
{ACAD_XDICTIONARY
360
10D8
102
}
102
{ACAD_REACTORS
330
F62
102
}
330
F62
100
AcDbMaterial
  1
ByBlock
 72
     0
 43
0.0208333333333333
 43
0.0
 43
0.0
 43
0.0
 43
0.0
 43
0.0208333333333333
 43
0.0
 43
0.0
 43
0.0
 43
0.0
 43
1.0
 43
0.0
 43
0.0
 43
0.0
 43
0.0
 43
1.0
 77
     0
 47
0.0208333333333333
 47
0.0
 47
0.0
 47
0.0
 47
0.0
 47
0.0208333333333333
 47
0.0
 47
0.0
 47
0.0
 47
0.0
 47
1.0
 47
0.0
 47
0.0
 47
0.0
 47
0.0
 47
1.0
171
     0
 49
0.0208333333333333
 49
0.0
 49
0.0
 49
0.0
 49
0.0
 49
0.0208333333333333
 49
0.0
 49
0.0
 49
0.0
 49
0.0
 49
1.0
 49
0.0
 49
0.0
 49
0.0
 49
0.0
 49
1.0
175
     0
142
0.0208333333333333
142
0.0
142
0.0
142
0.0
142
0.0
142
0.0208333333333333
142
0.0
142
0.0
142
0.0
142
0.0
142
1.0
142
0.0
142
0.0
142
0.0
142
0.0
142
1.0
179
     0
144
0.0208333333333333
144
0.0
144
0.0
144
0.0
144
0.0
144
0.0208333333333333
144
0.0
144
0.0
144
0.0
144
0.0
144
1.0
144
0.0
144
0.0
144
0.0
144
0.0
144
1.0
147
0.0208333333333333
147
0.0
147
0.0
147
0.0
147
0.0
147
0.0208333333333333
147
0.0
147
0.0
147
0.0
147
0.0
147
1.0
147
0.0
147
0.0
147
0.0
147
0.0
147
1.0
  0
MATERIAL
  5
10CF
102
{ACAD_XDICTIONARY
360
10D0
102
}
102
{ACAD_REACTORS
330
F62
102
}
330
F62
100
AcDbMaterial
  1
ByLayer
 72
     0
 43
0.0208333333333333
 43
0.0
 43
0.0
 43
0.0
 43
0.0
 43
0.0208333333333333
 43
0.0
 43
0.0
 43
0.0
 43
0.0
 43
1.0
 43
0.0
 43
0.0
 43
0.0
 43
0.0
 43
1.0
 77
     0
 47
0.0208333333333333
 47
0.0
 47
0.0
 47
0.0
 47
0.0
 47
0.0208333333333333
 47
0.0
 47
0.0
 47
0.0
 47
0.0
 47
1.0
 47
0.0
 47
0.0
 47
0.0
 47
0.0
 47
1.0
171
     0
 49
0.0208333333333333
 49
0.0
 49
0.0
 49
0.0
 49
0.0
 49
0.0208333333333333
 49
0.0
 49
0.0
 49
0.0
 49
0.0
 49
1.0
 49
0.0
 49
0.0
 49
0.0
 49
0.0
 49
1.0
175
     0
142
0.0208333333333333
142
0.0
142
0.0
142
0.0
142
0.0
142
0.0208333333333333
142
0.0
142
0.0
142
0.0
142
0.0
142
1.0
142
0.0
142
0.0
142
0.0
142
0.0
142
1.0
179
     0
144
0.0208333333333333
144
0.0
144
0.0
144
0.0
144
0.0
144
0.0208333333333333
144
0.0
144
0.0
144
0.0
144
0.0
144
1.0
144
0.0
144
0.0
144
0.0
144
0.0
144
1.0
147
0.0208333333333333
147
0.0
147
0.0
147
0.0
147
0.0
147
0.0208333333333333
147
0.0
147
0.0
147
0.0
147
0.0
147
1.0
147
0.0
147
0.0
147
0.0
147
0.0
147
1.0
  0
MATERIAL
  5
10DF
102
{ACAD_XDICTIONARY
360
10E0
102
}
102
{ACAD_REACTORS
330
F62
102
}
330
F62
100
AcDbMaterial
  1
Global
 72
     0
 43
0.0208333333333333
 43
0.0
 43
0.0
 43
0.0
 43
0.0
 43
0.0208333333333333
 43
0.0
 43
0.0
 43
0.0
 43
0.0
 43
1.0
 43
0.0
 43
0.0
 43
0.0
 43
0.0
 43
1.0
 77
     0
 47
0.0208333333333333
 47
0.0
 47
0.0
 47
0.0
 47
0.0
 47
0.0208333333333333
 47
0.0
 47
0.0
 47
0.0
 47
0.0
 47
1.0
 47
0.0
 47
0.0
 47
0.0
 47
0.0
 47
1.0
171
     0
 49
0.0208333333333333
 49
0.0
 49
0.0
 49
0.0
 49
0.0
 49
0.0208333333333333
 49
0.0
 49
0.0
 49
0.0
 49
0.0
 49
1.0
 49
0.0
 49
0.0
 49
0.0
 49
0.0
 49
1.0
175
     0
142
0.0208333333333333
142
0.0
142
0.0
142
0.0
142
0.0
142
0.0208333333333333
142
0.0
142
0.0
142
0.0
142
0.0
142
1.0
142
0.0
142
0.0
142
0.0
142
0.0
142
1.0
179
     0
144
0.0208333333333333
144
0.0
144
0.0
144
0.0
144
0.0
144
0.0208333333333333
144
0.0
144
0.0
144
0.0
144
0.0
144
1.0
144
0.0
144
0.0
144
0.0
144
0.0
144
1.0
147
0.0208333333333333
147
0.0
147
0.0
147
0.0
147
0.0
147
0.0208333333333333
147
0.0
147
0.0
147
0.0
147
0.0
147
1.0
147
0.0
147
0.0
147
0.0
147
0.0
147
1.0
  0
MLEADERSTYLE
  5
1113
102
{ACAD_REACTORS
330
1112
102
}
330
1112
100
AcDbMLeaderStyle
179
     2
170
     2
171
     1
172
     0
 90
        2
 40
0.0
 41
0.0
173
     1
 91
-1056964608
340
12
 92
       -2
290
     1
 42
0.09
291
     1
 43
0.36
  3
Standard
 44
0.18
300

342
10
174
     1
178
     6
175
     1
176
     0
 93
-1056964608
 45
0.18
292
     0
297
     0
 46
0.18
 94
-1056964608
 47
1.0
 49
1.0
140
1.0
293
     1
141
0.0
294
     1
177
     0
142
1.0
295
     1
296
     0
143
0.125
271
     0
272
     9
273
     9
  0
MLINESTYLE
  5
1B
102
{ACAD_REACTORS
330
E
102
}
330
E
100
AcDbMlineStyle
  2
STANDARD
 70
     0
  3

 62
     0
 51
90.0
 52
90.0
 71
     2
 49
0.5
 62
   256
  6
BYLAYER
 49
-0.5
 62
   256
  6
BYLAYER
  0
ACDBPLACEHOLDER
  5
F61
102
{ACAD_REACTORS
330
F60
102
}
330
F60
  0
SCALE
  5
1101
102
{ACAD_REACTORS
330
1100
102
}
330
1100
100
AcDbScale
 70
     0
300
1:1
140
1.0
141
1.0
290
     1
  0
SCALE
  5
1102
102
{ACAD_REACTORS
330
1100
102
}
330
1100
100
AcDbScale
 70
     0
300
1/128" = 1'-0"
140
0.0078125
141
12.0
290
     0
  0
SCALE
  5
1103
102
{ACAD_REACTORS
330
1100
102
}
330
1100
100
AcDbScale
 70
     0
300
1/64" = 1'-0"
140
0.015625
141
12.0
290
     0
  0
SCALE
  5
1104
102
{ACAD_REACTORS
330
1100
102
}
330
1100
100
AcDbScale
 70
     0
300
1/32" = 1'-0"
140
0.03125
141
12.0
290
     0
  0
SCALE
  5
1105
102
{ACAD_REACTORS
330
1100
102
}
330
1100
100
AcDbScale
 70
     0
300
1/16" = 1'-0"
140
0.0625
141
12.0
290
     0
  0
SCALE
  5
1106
102
{ACAD_REACTORS
330
1100
102
}
330
1100
100
AcDbScale
 70
     0
300
3/32" = 1'-0"
140
0.09375
141
12.0
290
     0
  0
SCALE
  5
1107
102
{ACAD_REACTORS
330
1100
102
}
330
1100
100
AcDbScale
 70
     0
300
1/8" = 1'-0"
140
0.125
141
12.0
290
     0
  0
SCALE
  5
1108
102
{ACAD_REACTORS
330
1100
102
}
330
1100
100
AcDbScale
 70
     0
300
3/16" = 1'-0"
140
0.1875
141
12.0
290
     0
  0
SCALE
  5
1109
102
{ACAD_REACTORS
330
1100
102
}
330
1100
100
AcDbScale
 70
     0
300
1/4" = 1'-0"
140
0.25
141
12.0
290
     0
  0
SCALE
  5
110A
102
{ACAD_REACTORS
330
1100
102
}
330
1100
100
AcDbScale
 70
     0
300
3/8" = 1'-0"
140
0.375
141
12.0
290
     0
  0
SCALE
  5
110B
102
{ACAD_REACTORS
330
1100
102
}
330
1100
100
AcDbScale
 70
     0
300
1/2" = 1'-0"
140
0.5
141
12.0
290
     0
  0
SCALE
  5
110C
102
{ACAD_REACTORS
330
1100
102
}
330
1100
100
AcDbScale
 70
     0
300
3/4" = 1'-0"
140
0.75
141
12.0
290
     0
  0
SCALE
  5
110D
102
{ACAD_REACTORS
330
1100
102
}
330
1100
100
AcDbScale
 70
     0
300
1" = 1'-0"
140
1.0
141
12.0
290
     0
  0
SCALE
  5
110E
102
{ACAD_REACTORS
330
1100
102
}
330
1100
100
AcDbScale
 70
     0
300
1-1/2" = 1'-0"
140
1.5
141
12.0
290
     0
  0
SCALE
  5
110F
102
{ACAD_REACTORS
330
1100
102
}
330
1100
100
AcDbScale
 70
     0
300
3" = 1'-0"
140
3.0
141
12.0
290
     0
  0
SCALE
  5
1110
102
{ACAD_REACTORS
330
1100
102
}
330
1100
100
AcDbScale
 70
     0
300
6" = 1'-0"
140
6.0
141
12.0
290
     0
  0
SCALE
  5
1111
102
{ACAD_REACTORS
330
1100
102
}
330
1100
100
AcDbScale
 70
     0
300
1'-0" = 1'-0"
140
12.0
141
12.0
290
     0
  0
TABLESTYLE
  5
F65
102
{ACAD_XDICTIONARY
360
111F
102
}
102
{ACAD_REACTORS
330
F64
102
}
330
F64
100
AcDbTableStyle
280
     0
  3
Standard
 70
     0
 71
     0
 40
0.06
 41
0.06
280
     0
281
     0
  7
STANDARD
140
0.18
170
     2
 62
     0
 63
     7
283
     0
 90
        4
 91
        0
  1

274
    -2
284
     1
 64
     0
275
    -2
285
     1
 65
     0
276
    -2
286
     1
 66
     0
277
    -2
287
     1
 67
     0
278
    -2
288
     1
 68
     0
279
    -2
289
     1
 69
     0
  7
STANDARD
140
0.25
170
     5
 62
     0
 63
     7
283
     0
 90
        4
 91
        0
  1

274
    -2
284
     1
 64
     0
275
    -2
285
     1
 65
     0
276
    -2
286
     1
 66
     0
277
    -2
287
     1
 67
     0
278
    -2
288
     1
 68
     0
279
    -2
289
     1
 69
     0
  7
STANDARD
140
0.18
170
     5
 62
     0
 63
     7
283
     0
 90
        4
 91
        0
  1

274
    -2
284
     1
 64
     0
275
    -2
285
     1
 65
     0
276
    -2
286
     1
 66
     0
277
    -2
287
     1
 67
     0
278
    -2
288
     1
 68
     0
279
    -2
289
     1
 69
     0
  0
VISUALSTYLE
  5
10ED
102
{ACAD_REACTORS
330
10E7
102
}
330
10E7
100
AcDbVisualStyle
  2
2dWireframe
 70
     4
177
     2
291
     0
 71
     0
176
     1
 72
     2
176
     1
 73
     0
176
     1
 90
        0
176
     1
 40
0.6
176
     1
 41
30.0
176
     1
 63
     7
421
 16777215
176
     1
 74
     1
176
     1
 91
        4
176
     1
 64
     7
176
     1
 65
   257
176
     1
 75
     1
176
     1
175
     1
176
     1
 42
1.0
176
     1
 92
        0
176
     1
 66
   257
176
     1
 43
1.0
176
     1
 76
     1
176
     1
 77
     6
176
     1
 78
     2
176
     1
 67
     7
176
     1
 79
     5
176
     1
170
     0
176
     1
171
     0
176
     1
290
     0
176
     1
 93
        1
176
     1
 44
0.0
176
     1
173
     0
176
     1
  0
VISUALSTYLE
  5
10EC
102
{ACAD_REACTORS
330
10E7
102
}
330
10E7
100
AcDbVisualStyle
  2
Basic
 70
     7
177
     2
291
     1
 71
     1
176
     1
 72
     0
176
     1
 73
     1
176
     1
 90
        0
176
     1
 40
0.6
176
     1
 41
30.0
176
     1
 63
     7
421
 16777215
176
     1
 74
     0
176
     1
 91
        4
176
     1
 64
     7
176
     1
 65
   257
176
     1
 75
     1
176
     1
175
     1
176
     1
 42
1.0
176
     1
 92
        8
176
     1
 66
     7
176
     1
 43
1.0
176
     1
 76
     1
176
     1
 77
     6
176
     1
 78
     2
176
     1
 67
     7
176
     1
 79
     5
176
     1
170
     0
176
     1
171
     0
176
     1
290
     0
176
     1
 93
        1
176
     1
 44
0.0
176
     1
173
     0
176
     1
  0
VISUALSTYLE
  5
10F3
102
{ACAD_REACTORS
330
10E7
102
}
330
10E7
100
AcDbVisualStyle
  2
Brighten
 70
    12
177
     2
291
     1
 71
     2
176
     1
 72
     2
176
     1
 73
     0
176
     1
 90
        0
176
     1
 40
0.6
176
     1
 41
30.0
176
     1
 63
     7
421
 16777215
176
     1
 74
     1
176
     1
 91
        4
176
     1
 64
     7
176
     1
 65
   257
176
     1
 75
     1
176
     1
175
     1
176
     1
 42
1.0
176
     1
 92
        8
176
     1
 66
     7
176
     1
 43
1.0
176
     1
 76
     1
176
     1
 77
     6
176
     1
 78
     2
176
     1
 67
     7
176
     1
 79
     5
176
     1
170
     0
176
     1
171
     0
176
     1
290
     0
176
     1
 93
        1
176
     1
 44
50.0
176
     1
173
     0
176
     1
  0
VISUALSTYLE
  5
10F7
102
{ACAD_REACTORS
330
10E7
102
}
330
10E7
100
AcDbVisualStyle
  2
ColorChange
 70
    16
177
     2
291
     1
 71
     2
176
     1
 72
     2
176
     1
 73
     3
176
     1
 90
        0
176
     1
 40
0.6
176
     1
 41
30.0
176
     1
 63
     8
421
  8421504
176
     1
 74
     1
176
     1
 91
        4
176
     1
 64
     7
176
     1
 65
   257
176
     1
 75
     1
176
     1
175
     1
176
     1
 42
1.0
176
     1
 92
        8
176
     1
 66
     8
424
  8421504
176
     1
 43
1.0
176
     1
 76
     1
176
     1
 77
     6
176
     1
 78
     2
176
     1
 67
     7
176
     1
 79
     5
176
     1
170
     0
176
     1
171
     0
176
     1
290
     0
176
     1
 93
        1
176
     1
 44
0.0
176
     1
173
     0
176
     1
  0
VISUALSTYLE
  5
10F0
102
{ACAD_REACTORS
330
10E7
102
}
330
10E7
100
AcDbVisualStyle
  2
Conceptual
 70
     9
177
     2
291
     0
 71
     3
176
     1
 72
     2
176
     1
 73
     0
176
     1
 90
        0
176
     1
 40
0.6
176
     1
 41
30.0
176
     1
 63
     7
421
 16777215
176
     1
 74
     2
176
     1
 91
        2
176
     1
 64
     7
176
     1
 65
   257
176
     1
 75
     1
176
     1
175
     1
176
     1
 42
179.0
176
     1
 92
        8
176
     1
 66
     7
176
     1
 43
1.0
176
     1
 76
     1
176
     1
 77
     6
176
     1
 78
     2
176
     1
 67
     7
176
     1
 79
     3
176
     1
170
     0
176
     1
171
     0
176
     1
290
     0
176
     1
 93
        1
176
     1
 44
0.0
176
     1
173
     0
176
     1
  0
VISUALSTYLE
  5
10F2
102
{ACAD_REACTORS
330
10E7
102
}
330
10E7
100
AcDbVisualStyle
  2
Dim
 70
    11
177
     2
291
     1
 71
     2
176
     1
 72
     2
176
     1
 73
     0
176
     1
 90
        0
176
     1
 40
0.6
176
     1
 41
30.0
176
     1
 63
     7
421
 16777215
176
     1
 74
     1
176
     1
 91
        4
176
     1
 64
     7
176
     1
 65
   257
176
     1
 75
     1
176
     1
175
     1
176
     1
 42
1.0
176
     1
 92
        8
176
     1
 66
     7
176
     1
 43
1.0
176
     1
 76
     1
176
     1
 77
     6
176
     1
 78
     2
176
     1
 67
     7
176
     1
 79
     5
176
     1
170
     0
176
     1
171
     0
176
     1
290
     0
176
     1
 93
        1
176
     1
 44
-50.0
176
     1
173
     0
176
     1
  0
VISUALSTYLE
  5
10FF
102
{ACAD_REACTORS
330
10E7
102
}
330
10E7
100
AcDbVisualStyle
  2
EdgeColorOff
 70
    22
177
     2
291
     1
 71
     2
176
     0
 72
     2
176
     0
 73
     0
176
     0
 90
        0
176
     0
 40
0.6
176
     0
 41
30.0
176
     0
 63
     7
421
 16777215
176
     0
 74
     1
176
     0
 91
        4
176
     0
 64
     7
176
     0
 65
   257
176
     0
 75
     1
176
     0
175
     1
176
     0
 42
1.0
176
     0
 92
        8
176
     2
 66
     7
176
     0
 43
1.0
176
     0
 76
     1
176
     0
 77
     6
176
     0
 78
     2
176
     0
 67
     7
176
     0
 79
     5
176
     0
170
     0
176
     0
171
     0
176
     0
290
     0
176
     0
 93
        1
176
     0
 44
0.0
176
     0
173
     0
176
     0
  0
VISUALSTYLE
  5
10F6
102
{ACAD_REACTORS
330
10E7
102
}
330
10E7
100
AcDbVisualStyle
  2
Facepattern
 70
    15
177
     2
291
     1
 71
     2
176
     1
 72
     2
176
     1
 73
     0
176
     1
 90
        0
176
     1
 40
0.6
176
     1
 41
30.0
176
     1
 63
     7
421
 16777215
176
     1
 74
     1
176
     1
 91
        4
176
     1
 64
     7
176
     1
 65
   257
176
     1
 75
     1
176
     1
175
     1
176
     1
 42
1.0
176
     1
 92
        8
176
     1
 66
     7
176
     1
 43
1.0
176
     1
 76
     1
176
     1
 77
     6
176
     1
 78
     2
176
     1
 67
     7
176
     1
 79
     5
176
     1
170
     0
176
     1
171
     0
176
     1
290
     0
176
     1
 93
        1
176
     1
 44
0.0
176
     1
173
     0
176
     1
  0
VISUALSTYLE
  5
10E8
102
{ACAD_REACTORS
330
10E7
102
}
330
10E7
100
AcDbVisualStyle
  2
Flat
 70
     0
177
     2
291
     1
 71
     2
176
     1
 72
     1
176
     1
 73
     1
176
     1
 90
        2
176
     1
 40
0.6
176
     1
 41
30.0
176
     1
 63
     7
421
 16777215
176
     1
 74
     0
176
     1
 91
        0
176
     1
 64
     7
176
     1
 65
   257
176
     1
 75
     1
176
     1
175
     1
176
     1
 42
1.0
176
     1
 92
        8
176
     1
 66
     7
176
     1
 43
1.0
176
     1
 76
     1
176
     1
 77
     6
176
     1
 78
     2
176
     1
 67
     7
176
     1
 79
     5
176
     1
170
     0
176
     1
171
     0
176
     1
290
     0
176
     1
 93
       13
176
     1
 44
0.0
176
     1
173
     0
176
     1
  0
VISUALSTYLE
  5
10E9
102
{ACAD_REACTORS
330
10E7
102
}
330
10E7
100
AcDbVisualStyle
  2
FlatWithEdges
 70
     1
177
     2
291
     1
 71
     2
176
     1
 72
     1
176
     1
 73
     1
176
     1
 90
        2
176
     1
 40
0.6
176
     1
 41
30.0
176
     1
 63
     7
421
 16777215
176
     1
 74
     1
176
     1
 91
        0
176
     1
 64
     7
176
     1
 65
   257
176
     1
 75
     1
176
     1
175
     1
176
     1
 42
1.0
176
     1
 92
        0
176
     1
 66
   257
176
     1
 43
1.0
176
     1
 76
     1
176
     1
 77
     6
176
     1
 78
     2
176
     1
 67
     7
176
     1
 79
     5
176
     1
170
     0
176
     1
171
     0
176
     1
290
     0
176
     1
 93
       13
176
     1
 44
0.0
176
     1
173
     0
176
     1
  0
VISUALSTYLE
  5
10EA
102
{ACAD_REACTORS
330
10E7
102
}
330
10E7
100
AcDbVisualStyle
  2
Gouraud
 70
     2
177
     2
291
     1
 71
     2
176
     1
 72
     2
176
     1
 73
     1
176
     1
 90
        2
176
     1
 40
0.6
176
     1
 41
30.0
176
     1
 63
     7
421
 16777215
176
     1
 74
     0
176
     1
 91
        0
176
     1
 64
     7
176
     1
 65
   257
176
     1
 75
     1
176
     1
175
     1
176
     1
 42
1.0
176
     1
 92
        0
176
     1
 66
     7
176
     1
 43
1.0
176
     1
 76
     1
176
     1
 77
     6
176
     1
 78
     2
176
     1
 67
     7
176
     1
 79
     5
176
     1
170
     0
176
     1
171
     0
176
     1
290
     0
176
     1
 93
       13
176
     1
 44
0.0
176
     1
173
     0
176
     1
  0
VISUALSTYLE
  5
10EB
102
{ACAD_REACTORS
330
10E7
102
}
330
10E7
100
AcDbVisualStyle
  2
GouraudWithEdges
 70
     3
177
     2
291
     1
 71
     2
176
     1
 72
     2
176
     1
 73
     1
176
     1
 90
        2
176
     1
 40
0.6
176
     1
 41
30.0
176
     1
 63
     7
421
 16777215
176
     1
 74
     1
176
     1
 91
        0
176
     1
 64
     7
176
     1
 65
   257
176
     1
 75
     1
176
     1
175
     1
176
     1
 42
1.0
176
     1
 92
        0
176
     1
 66
   257
176
     1
 43
1.0
176
     1
 76
     1
176
     1
 77
     6
176
     1
 78
     2
176
     1
 67
     7
176
     1
 79
     5
176
     1
170
     0
176
     1
171
     0
176
     1
290
     0
176
     1
 93
       13
176
     1
 44
0.0
176
     1
173
     0
176
     1
  0
VISUALSTYLE
  5
10EF
102
{ACAD_REACTORS
330
10E7
102
}
330
10E7
100
AcDbVisualStyle
  2
Hidden
 70
     6
177
     2
291
     0
 71
     1
176
     1
 72
     2
176
     1
 73
     2
176
     1
 90
        0
176
     1
 40
0.6
176
     1
 41
30.0
176
     1
 63
     7
421
 16777215
176
     1
 74
     2
176
     1
 91
        2
176
     1
 64
     7
176
     1
 65
   257
176
     1
 75
     2
176
     1
175
     1
176
     1
 42
40.0
176
     1
 92
        0
176
     1
 66
   257
176
     1
 43
1.0
176
     1
 76
     1
176
     1
 77
     6
176
     1
 78
     2
176
     1
 67
     7
176
     1
 79
     3
176
     1
170
     0
176
     1
171
     0
176
     1
290
     0
176
     1
 93
        1
176
     1
 44
0.0
176
     1
173
     0
176
     1
  0
VISUALSTYLE
  5
10FD
102
{ACAD_REACTORS
330
10E7
102
}
330
10E7
100
AcDbVisualStyle
  2
JitterOff
 70
    20
177
     2
291
     1
 71
     2
176
     0
 72
     2
176
     0
 73
     0
176
     0
 90
        0
176
     0
 40
0.6
176
     0
 41
30.0
176
     0
 63
     7
421
 16777215
176
     0
 74
     1
176
     0
 91
        4
176
     0
 64
     7
176
     0
 65
   257
176
     0
 75
     1
176
     0
175
     1
176
     0
 42
1.0
176
     0
 92
       10
176
     2
 66
     7
176
     0
 43
1.0
176
     0
 76
     1
176
     0
 77
     6
176
     0
 78
     2
176
     0
 67
     7
176
     0
 79
     5
176
     0
170
     0
176
     0
171
     0
176
     0
290
     0
176
     0
 93
        1
176
     0
 44
0.0
176
     0
173
     0
176
     0
  0
VISUALSTYLE
  5
10F5
102
{ACAD_REACTORS
330
10E7
102
}
330
10E7
100
AcDbVisualStyle
  2
Linepattern
 70
    14
177
     2
291
     1
 71
     2
176
     1
 72
     2
176
     1
 73
     0
176
     1
 90
        0
176
     1
 40
0.6
176
     1
 41
30.0
176
     1
 63
     7
421
 16777215
176
     1
 74
     1
176
     1
 91
        4
176
     1
 64
     7
176
     1
 65
   257
176
     1
 75
     7
176
     1
175
     7
176
     1
 42
1.0
176
     1
 92
        8
176
     1
 66
     7
176
     1
 43
1.0
176
     1
 76
     1
176
     1
 77
     6
176
     1
 78
     2
176
     1
 67
     7
176
     1
 79
     5
176
     1
170
     0
176
     1
171
     0
176
     1
290
     0
176
     1
 93
        1
176
     1
 44
0.0
176
     1
173
     0
176
     1
  0
VISUALSTYLE
  5
10FE
102
{ACAD_REACTORS
330
10E7
102
}
330
10E7
100
AcDbVisualStyle
  2
OverhangOff
 70
    21
177
     2
291
     1
 71
     2
176
     0
 72
     2
176
     0
 73
     0
176
     0
 90
        0
176
     0
 40
0.6
176
     0
 41
30.0
176
     0
 63
     7
421
 16777215
176
     0
 74
     1
176
     0
 91
        4
176
     0
 64
     7
176
     0
 65
   257
176
     0
 75
     1
176
     0
175
     1
176
     0
 42
1.0
176
     0
 92
        9
176
     2
 66
     7
176
     0
 43
1.0
176
     0
 76
     1
176
     0
 77
     6
176
     0
 78
     2
176
     0
 67
     7
176
     0
 79
     5
176
     0
170
     0
176
     0
171
     0
176
     0
290
     0
176
     0
 93
        1
176
     0
 44
0.0
176
     0
173
     0
176
     0
  0
VISUALSTYLE
  5
10F1
102
{ACAD_REACTORS
330
10E7
102
}
330
10E7
100
AcDbVisualStyle
  2
Realistic
 70
     8
177
     2
291
     0
 71
     2
176
     1
 72
     3
176
     1
 73
     0
176
     1
 90
        2
176
     1
 40
0.6
176
     1
 41
30.0
176
     1
 63
     7
421
 16777215
176
     1
 74
     0
176
     1
 91
        0
176
     1
 64
     7
176
     1
 65
   257
176
     1
 75
     1
176
     1
175
     1
176
     1
 42
1.0
176
     1
 92
        8
176
     1
 66
   257
176
     1
 43
1.0
176
     1
 76
     1
176
     1
 77
     6
176
     1
 78
     2
176
     1
 67
     7
176
     1
 79
     3
176
     1
170
     0
176
     1
171
     0
176
     1
290
     0
176
     1
 93
       13
176
     1
 44
0.0
176
     1
173
     0
176
     1
  0
VISUALSTYLE
  5
10FC
102
{ACAD_REACTORS
330
10E7
102
}
330
10E7
100
AcDbVisualStyle
  2
Shaded
 70
    27
177
     2
291
     0
 71
     2
176
     1
 72
     2
176
     1
 73
     1
176
     1
 90
        2
176
     1
 40
0.6
176
     1
 41
30.0
176
     1
 63
     7
421
 16777215
176
     1
 74
     0
176
     1
 91
        4
176
     1
 64
     7
176
     1
 65
   257
176
     1
 75
     1
176
     1
175
     1
176
     1
 42
1.0
176
     1
 92
        8
176
     1
 66
   257
176
     1
 43
1.0
176
     1
 76
     1
176
     1
 77
     6
176
     1
 78
     2
176
     1
 67
     8
425
  7895160
176
     1
 79
     3
176
     1
170
     0
176
     1
171
     0
176
     1
290
     0
176
     1
 93
        5
176
     1
 44
0.0
176
     1
173
     0
176
     1
  0
VISUALSTYLE
  5
10FB
102
{ACAD_REACTORS
330
10E7
102
}
330
10E7
100
AcDbVisualStyle
  2
Shaded with edges
 70
    26
177
     2
291
     0
 71
     2
176
     1
 72
     2
176
     1
 73
     1
176
     1
 90
        2
176
     1
 40
0.6
176
     1
 41
30.0
176
     1
 63
     7
421
 16777215
176
     1
 74
     1
176
     1
 91
       10
176
     1
 64
     7
176
     1
 65
   257
176
     1
 75
     2
176
     1
175
     1
176
     1
 42
1.0
176
     1
 92
        8
176
     1
 66
   257
176
     1
 43
1.0
176
     1
 76
     1
176
     1
 77
     6
176
     1
 78
     2
176
     1
 67
     7
176
     1
 79
     3
176
     1
170
     0
176
     1
171
     0
176
     1
290
     0
176
     1
 93
        5
176
     1
 44
0.0
176
     1
173
     0
176
     1
  0
VISUALSTYLE
  5
10F8
102
{ACAD_REACTORS
330
10E7
102
}
330
10E7
100
AcDbVisualStyle
  2
Shades of Gray
 70
    23
177
     2
291
     0
 71
     2
176
     1
 72
     2
176
     1
 73
     3
176
     1
 90
        0
176
     1
 40
0.6
176
     1
 41
30.0
176
     1
 63
     7
421
 16777215
176
     1
 74
     2
176
     1
 91
        2
176
     1
 64
     7
176
     1
 65
     7
176
     1
 75
     1
176
     1
175
     1
176
     1
 42
40.0
176
     1
 92
        8
176
     1
 66
     7
176
     1
 43
1.0
176
     1
 76
     1
176
     1
 77
     6
176
     1
 78
     2
176
     1
 67
     7
176
     1
 79
     3
176
     1
170
     0
176
     1
171
     0
176
     1
290
     0
176
     1
 93
        1
176
     1
 44
0.0
176
     1
173
     0
176
     1
  0
VISUALSTYLE
  5
10F9
102
{ACAD_REACTORS
330
10E7
102
}
330
10E7
100
AcDbVisualStyle
  2
Sketchy
 70
    24
177
     2
291
     0
 71
     1
176
     1
 72
     2
176
     1
 73
     2
176
     1
 90
        0
176
     1
 40
0.6
176
     1
 41
30.0
176
     1
 63
     7
421
 16777215
176
     1
 74
     2
176
     1
 91
        2
176
     1
 64
     7
176
     1
 65
     7
176
     1
 75
     1
176
     1
175
     1
176
     1
 42
40.0
176
     1
 92
       11
176
     1
 66
     7
176
     1
 43
1.0
176
     1
 76
     1
176
     1
 77
     6
176
     1
 78
     2
176
     1
 67
     7
176
     1
 79
     6
176
     1
170
     0
176
     1
171
     0
176
     1
290
     0
176
     1
 93
        1
176
     1
 44
0.0
176
     1
173
     0
176
     1
  0
VISUALSTYLE
  5
10F4
102
{ACAD_REACTORS
330
10E7
102
}
330
10E7
100
AcDbVisualStyle
  2
Thicken
 70
    13
177
     2
291
     1
 71
     2
176
     1
 72
     2
176
     1
 73
     0
176
     1
 90
        0
176
     1
 40
0.6
176
     1
 41
30.0
176
     1
 63
     7
421
 16777215
176
     1
 74
     1
176
     1
 91
        4
176
     1
 64
     7
176
     1
 65
   257
176
     1
 75
     1
176
     1
175
     1
176
     1
 42
1.0
176
     1
 92
       12
176
     1
 66
     7
176
     1
 43
1.0
176
     1
 76
     1
176
     1
 77
     6
176
     1
 78
     2
176
     1
 67
     7
176
     1
 79
     5
176
     1
170
     0
176
     1
171
     0
176
     1
290
     0
176
     1
 93
        1
176
     1
 44
0.0
176
     1
173
     0
176
     1
  0
VISUALSTYLE
  5
10EE
102
{ACAD_REACTORS
330
10E7
102
}
330
10E7
100
AcDbVisualStyle
  2
Wireframe
 70
     5
177
     2
291
     0
 71
     0
176
     1
 72
     2
176
     1
 73
     0
176
     1
 90
        0
176
     1
 40
0.6
176
     1
 41
30.0
176
     1
 63
     7
421
 16777215
176
     1
 74
     1
176
     1
 91
        4
176
     1
 64
     7
176
     1
 65
   257
176
     1
 75
     1
176
     1
175
     1
176
     1
 42
1.0
176
     1
 92
        0
176
     1
 66
   257
176
     1
 43
1.0
176
     1
 76
     1
176
     1
 77
     6
176
     1
 78
     2
176
     1
 67
     7
176
     1
 79
     3
176
     1
170
     0
176
     1
171
     0
176
     1
290
     0
176
     1
 93
        1
176
     1
 44
0.0
176
     1
173
     0
176
     1
  0
VISUALSTYLE
  5
10FA
102
{ACAD_REACTORS
330
10E7
102
}
330
10E7
100
AcDbVisualStyle
  2
X-Ray
 70
    25
177
     2
291
     0
 71
     2
176
     1
 72
     2
176
     1
 73
     1
176
     1
 90
        1
176
     1
 40
0.5
176
     1
 41
30.0
176
     1
 63
     7
421
 16777215
176
     1
 74
     1
176
     1
 91
        0
176
     1
 64
     7
176
     1
 65
   257
176
     1
 75
     1
176
     1
175
     1
176
     1
 42
1.0
176
     1
 92
        8
176
     1
 66
     7
176
     1
 43
1.0
176
     1
 76
     1
176
     1
 77
     6
176
     1
 78
     2
176
     1
 67
     7
176
     1
 79
     3
176
     1
170
     0
176
     1
171
     0
176
     1
290
     0
176
     1
 93
       13
176
     1
 44
0.0
176
     1
173
     0
176
     1
  0
DICTIONARYVAR
  5
111B
102
{ACAD_REACTORS
330
101C
102
}
330
101C
100
DictionaryVariables
280
     0
  1
1:1
  0
DICTIONARYVAR
  5
1119
102
{ACAD_REACTORS
330
101C
102
}
330
101C
100
DictionaryVariables
280
     0
  1
STANDARD
  0
DICTIONARYVAR
  5
101D
102
{ACAD_REACTORS
330
101C
102
}
330
101C
100
DictionaryVariables
280
     0
  1
STANDARD
  0
DICTIONARYVAR
  5
101E
102
{ACAD_REACTORS
330
101C
102
}
330
101C
100
DictionaryVariables
280
     0
  1
1
  0
DICTIONARYVAR
  5
111D
102
{ACAD_REACTORS
330
101C
102
}
330
101C
100
DictionaryVariables
280
     0
  1
1
  0
DICTIONARYVAR
  5
111E
102
{ACAD_REACTORS
330
101C
102
}
330
101C
100
DictionaryVariables
280
     0
  1
15
  0
DICTIONARYVAR
  5
111C
102
{ACAD_REACTORS
330
101C
102
}
330
101C
100
DictionaryVariables
280
     0
  1
0
  0
DICTIONARYVAR
  5
111A
102
{ACAD_REACTORS
330
101C
102
}
330
101C
100
DictionaryVariables
280
     0
  1
0
  0
DICTIONARYVAR
  5
101F
102
{ACAD_REACTORS
330
101C
102
}
330
101C
100
DictionaryVariables
280
     0
  1

  0
DICTIONARY
  5
FD2
102
{ACAD_REACTORS
330
FC5
102
}
330
FC5
100
AcDbDictionary
281
     1
  0
XRECORD
  5
FF1
102
{ACAD_REACTORS
330
FC5
102
}
330
FC5
100
AcDbXrecord
280
     1
 90
-1023410169
  0
DICTIONARY
  5
10D8
330
10D7
100
AcDbDictionary
280
     1
281
     1
  3
BUMPTILE
360
10DA
  3
DIFFUSETILE
360
10D9
  3
OPACITYTILE
360
10DD
  3
REFLECTIONTILE
360
10DC
  3
REFRACTIONTILE
360
10DE
  3
SPECULARTILE
360
10DB
  0
DICTIONARY
  5
10D0
330
10CF
100
AcDbDictionary
280
     1
281
     1
  3
BUMPTILE
360
10D2
  3
DIFFUSETILE
360
10D1
  3
OPACITYTILE
360
10D5
  3
REFLECTIONTILE
360
10D4
  3
REFRACTIONTILE
360
10D6
  3
SPECULARTILE
360
10D3
  0
DICTIONARY
  5
10E0
330
10DF
100
AcDbDictionary
280
     1
281
     1
  3
BUMPTILE
360
10E2
  3
DIFFUSETILE
360
10E1
  3
OPACITYTILE
360
10E5
  3
REFLECTIONTILE
360
10E4
  3
REFRACTIONTILE
360
10E6
  3
SPECULARTILE
360
10E3
  0
DICTIONARY
  5
111F
330
F65
100
AcDbDictionary
280
     1
281
     1
  3
ACAD_ROUNDTRIP_2008_TABLESTYLE_CELLSTYLEMAP
360
1120
  0
XRECORD
  5
10DA
102
{ACAD_REACTORS
330
10D8
102
}
330
10D8
100
AcDbXrecord
280
     1
270
     1
271
     1
  0
XRECORD
  5
10D9
102
{ACAD_REACTORS
330
10D8
102
}
330
10D8
100
AcDbXrecord
280
     1
270
     1
271
     1
  0
XRECORD
  5
10DD
102
{ACAD_REACTORS
330
10D8
102
}
330
10D8
100
AcDbXrecord
280
     1
270
     1
271
     1
  0
XRECORD
  5
10DC
102
{ACAD_REACTORS
330
10D8
102
}
330
10D8
100
AcDbXrecord
280
     1
270
     1
271
     1
  0
XRECORD
  5
10DE
102
{ACAD_REACTORS
330
10D8
102
}
330
10D8
100
AcDbXrecord
280
     1
270
     1
271
     1
  0
XRECORD
  5
10DB
102
{ACAD_REACTORS
330
10D8
102
}
330
10D8
100
AcDbXrecord
280
     1
270
     1
271
     1
  0
XRECORD
  5
10D2
102
{ACAD_REACTORS
330
10D0
102
}
330
10D0
100
AcDbXrecord
280
     1
270
     1
271
     1
  0
XRECORD
  5
10D1
102
{ACAD_REACTORS
330
10D0
102
}
330
10D0
100
AcDbXrecord
280
     1
270
     1
271
     1
  0
XRECORD
  5
10D5
102
{ACAD_REACTORS
330
10D0
102
}
330
10D0
100
AcDbXrecord
280
     1
270
     1
271
     1
  0
XRECORD
  5
10D4
102
{ACAD_REACTORS
330
10D0
102
}
330
10D0
100
AcDbXrecord
280
     1
270
     1
271
     1
  0
XRECORD
  5
10D6
102
{ACAD_REACTORS
330
10D0
102
}
330
10D0
100
AcDbXrecord
280
     1
270
     1
271
     1
  0
XRECORD
  5
10D3
102
{ACAD_REACTORS
330
10D0
102
}
330
10D0
100
AcDbXrecord
280
     1
270
     1
271
     1
  0
XRECORD
  5
10E2
102
{ACAD_REACTORS
330
10E0
102
}
330
10E0
100
AcDbXrecord
280
     1
270
     1
271
     1
  0
XRECORD
  5
10E1
102
{ACAD_REACTORS
330
10E0
102
}
330
10E0
100
AcDbXrecord
280
     1
270
     1
271
     1
  0
XRECORD
  5
10E5
102
{ACAD_REACTORS
330
10E0
102
}
330
10E0
100
AcDbXrecord
280
     1
270
     1
271
     1
  0
XRECORD
  5
10E4
102
{ACAD_REACTORS
330
10E0
102
}
330
10E0
100
AcDbXrecord
280
     1
270
     1
271
     1
  0
XRECORD
  5
10E6
102
{ACAD_REACTORS
330
10E0
102
}
330
10E0
100
AcDbXrecord
280
     1
270
     1
271
     1
  0
XRECORD
  5
10E3
102
{ACAD_REACTORS
330
10E0
102
}
330
10E0
100
AcDbXrecord
280
     1
270
     1
271
     1
  0
CELLSTYLEMAP
  5
1120
102
{ACAD_REACTORS
330
111F
102
}
330
111F
100
AcDbCellStyleMap
 90
        3
300
CELLSTYLE
  1
TABLEFORMAT_BEGIN
 90
        5
170
     1
 91
        0
 92
    32768
 62
   257
 93
        1
300
CONTENTFORMAT
  1
CONTENTFORMAT_BEGIN
 90
        0
 91
        0
 92
        4
 93
        0
300

 40
0.0
140
1.0
 94
        5
 62
     0
340
10
144
0.25
309
CONTENTFORMAT_END
171
     0
 94
        6
 95
        1
302
GRIDFORMAT
  1
GRIDFORMAT_BEGIN
 90
        0
 91
        1
 62
     0
 92
       -2
340
0
 93
        0
 40
0.045
309
GRIDFORMAT_END
 95
        2
302
GRIDFORMAT
  1
GRIDFORMAT_BEGIN
 90
        0
 91
        1
 62
     0
 92
       -2
340
0
 93
        0
 40
0.045
309
GRIDFORMAT_END
 95
        4
302
GRIDFORMAT
  1
GRIDFORMAT_BEGIN
 90
        0
 91
        1
 62
     0
 92
       -2
340
0
 93
        0
 40
0.045
309
GRIDFORMAT_END
 95
        8
302
GRIDFORMAT
  1
GRIDFORMAT_BEGIN
 90
        0
 91
        1
 62
     0
 92
       -2
340
0
 93
        0
 40
0.045
309
GRIDFORMAT_END
 95
       16
302
GRIDFORMAT
  1
GRIDFORMAT_BEGIN
 90
        0
 91
        1
 62
     0
 92
       -2
340
0
 93
        0
 40
0.045
309
GRIDFORMAT_END
 95
       32
302
GRIDFORMAT
  1
GRIDFORMAT_BEGIN
 90
        0
 91
        1
 62
     0
 92
       -2
340
0
 93
        0
 40
0.045
309
GRIDFORMAT_END
309
TABLEFORMAT_END
  1
CELLSTYLE_BEGIN
 90
        1
 91
        1
300
_TITLE
309
CELLSTYLE_END
300
CELLSTYLE
  1
TABLEFORMAT_BEGIN
 90
        5
170
     1
 91
        0
 92
        0
 62
   257
 93
        1
300
CONTENTFORMAT
  1
CONTENTFORMAT_BEGIN
 90
        0
 91
        0
 92
        4
 93
        0
300

 40
0.0
140
1.0
 94
        5
 62
     0
340
10
144
0.18
309
CONTENTFORMAT_END
171
     0
 94
        6
 95
        1
302
GRIDFORMAT
  1
GRIDFORMAT_BEGIN
 90
        0
 91
        1
 62
     0
 92
       -2
340
0
 93
        0
 40
0.045
309
GRIDFORMAT_END
 95
        2
302
GRIDFORMAT
  1
GRIDFORMAT_BEGIN
 90
        0
 91
        1
 62
     0
 92
       -2
340
0
 93
        0
 40
0.045
309
GRIDFORMAT_END
 95
        4
302
GRIDFORMAT
  1
GRIDFORMAT_BEGIN
 90
        0
 91
        1
 62
     0
 92
       -2
340
0
 93
        0
 40
0.045
309
GRIDFORMAT_END
 95
        8
302
GRIDFORMAT
  1
GRIDFORMAT_BEGIN
 90
        0
 91
        1
 62
     0
 92
       -2
340
0
 93
        0
 40
0.045
309
GRIDFORMAT_END
 95
       16
302
GRIDFORMAT
  1
GRIDFORMAT_BEGIN
 90
        0
 91
        1
 62
     0
 92
       -2
340
0
 93
        0
 40
0.045
309
GRIDFORMAT_END
 95
       32
302
GRIDFORMAT
  1
GRIDFORMAT_BEGIN
 90
        0
 91
        1
 62
     0
 92
       -2
340
0
 93
        0
 40
0.045
309
GRIDFORMAT_END
309
TABLEFORMAT_END
  1
CELLSTYLE_BEGIN
 90
        2
 91
        1
300
_HEADER
309
CELLSTYLE_END
300
CELLSTYLE
  1
TABLEFORMAT_BEGIN
 90
        5
170
     1
 91
        0
 92
        0
 62
   257
 93
        1
300
CONTENTFORMAT
  1
CONTENTFORMAT_BEGIN
 90
        0
 91
        0
 92
        4
 93
        0
300

 40
0.0
140
1.0
 94
        2
 62
     0
340
10
144
0.18
309
CONTENTFORMAT_END
171
     0
 94
        6
 95
        1
302
GRIDFORMAT
  1
GRIDFORMAT_BEGIN
 90
        0
 91
        1
 62
     0
 92
       -2
340
0
 93
        0
 40
0.045
309
GRIDFORMAT_END
 95
        2
302
GRIDFORMAT
  1
GRIDFORMAT_BEGIN
 90
        0
 91
        1
 62
     0
 92
       -2
340
0
 93
        0
 40
0.045
309
GRIDFORMAT_END
 95
        4
302
GRIDFORMAT
  1
GRIDFORMAT_BEGIN
 90
        0
 91
        1
 62
     0
 92
       -2
340
0
 93
        0
 40
0.045
309
GRIDFORMAT_END
 95
        8
302
GRIDFORMAT
  1
GRIDFORMAT_BEGIN
 90
        0
 91
        1
 62
     0
 92
       -2
340
0
 93
        0
 40
0.045
309
GRIDFORMAT_END
 95
       16
302
GRIDFORMAT
  1
GRIDFORMAT_BEGIN
 90
        0
 91
        1
 62
     0
 92
       -2
340
0
 93
        0
 40
0.045
309
GRIDFORMAT_END
 95
       32
302
GRIDFORMAT
  1
GRIDFORMAT_BEGIN
 90
        0
 91
        1
 62
     0
 92
       -2
340
0
 93
        0
 40
0.045
309
GRIDFORMAT_END
309
TABLEFORMAT_END
  1
CELLSTYLE_BEGIN
 90
        3
 91
        2
300
_DATA
309
CELLSTYLE_END
  0
ENDSEC
  0
EOF
