  0
SECTION
  2
HEADER
  9
$ACADVER
  1
AC1024
  9
$ACADMAINTVER
 70
    37
  9
$DWGCODEPAGE
  3
ANSI_1252
  9
$LASTSAVEDBY
  1
jtigges
  9
$INSBASE
 10
0.0
 20
0.0
 30
0.0
  9
$EXTMIN
 10
-0.0013872384801914
 20
-0.0023011825535662
 30
-0.0000000000000058
  9
$EXTMAX
 10
64.00295401517144
 20
41.75145542181428
 30
0.0000000000000104
  9
$LIMMIN
 10
0.0
 20
0.0
  9
$LIMMAX
 10
12.0
 20
9.0
  9
$ORTHOMODE
 70
     0
  9
$REGENMODE
 70
     1
  9
$FILLMODE
 70
     1
  9
$QTEXTMODE
 70
     0
  9
$MIRRTEXT
 70
     1
  9
$LTSCALE
 40
1.0
  9
$ATTMODE
 70
     1
  9
$TEXTSIZE
 40
0.187
  9
$TRACEWID
 40
0.05
  9
$TEXTSTYLE
  7
STANDARD
  9
$CLAYER
  8
0
  9
$CELTYPE
  6
BYLAYER
  9
$CECOLOR
 62
   256
  9
$CELTSCALE
 40
1.0
  9
$DISPSILH
 70
     0
  9
$DIMSCALE
 40
1.0
  9
$DIMASZ
 40
0.18
  9
$DIMEXO
 40
0.09375
  9
$DIMDLI
 40
0.38
  9
$DIMRND
 40
0.0
  9
$DIMDLE
 40
0.0
  9
$DIMEXE
 40
0.18
  9
$DIMTP
 40
0.0
  9
$DIMTM
 40
0.0
  9
$DIMTXT
 40
0.18
  9
$DIMCEN
 40
0.09
  9
$DIMTSZ
 40
0.0
  9
$DIMTOL
 70
     0
  9
$DIMLIM
 70
     0
  9
$DIMTIH
 70
     1
  9
$DIMTOH
 70
     1
  9
$DIMSE1
 70
     0
  9
$DIMSE2
 70
     0
  9
$DIMTAD
 70
     0
  9
$DIMZIN
 70
     0
  9
$DIMBLK
  1

  9
$DIMASO
 70
     1
  9
$DIMSHO
 70
     0
  9
$DIMPOST
  1

  9
$DIMAPOST
  1

  9
$DIMALT
 70
     0
  9
$DIMALTD
 70
     2
  9
$DIMALTF
 40
25.4
  9
$DIMLFAC
 40
1.0
  9
$DIMTOFL
 70
     0
  9
$DIMTVP
 40
0.0
  9
$DIMTIX
 70
     0
  9
$DIMSOXD
 70
     0
  9
$DIMSAH
 70
     0
  9
$DIMBLK1
  1

  9
$DIMBLK2
  1

  9
$DIMSTYLE
  2
STANDARD
  9
$DIMCLRD
 70
     0
  9
$DIMCLRE
 70
     0
  9
$DIMCLRT
 70
     0
  9
$DIMTFAC
 40
1.0
  9
$DIMGAP
 40
0.09
  9
$DIMJUST
 70
     0
  9
$DIMSD1
 70
     0
  9
$DIMSD2
 70
     0
  9
$DIMTOLJ
 70
     1
  9
$DIMTZIN
 70
     0
  9
$DIMALTZ
 70
     0
  9
$DIMALTTZ
 70
     0
  9
$DIMUPT
 70
     0
  9
$DIMDEC
 70
     4
  9
$DIMTDEC
 70
     4
  9
$DIMALTU
 70
     2
  9
$DIMALTTD
 70
     2
  9
$DIMTXSTY
  7
STANDARD
  9
$DIMAUNIT
 70
     0
  9
$DIMADEC
 70
     0
  9
$DIMALTRND
 40
0.0
  9
$DIMAZIN
 70
     0
  9
$DIMDSEP
 70
    46
  9
$DIMATFIT
 70
     3
  9
$DIMFRAC
 70
     0
  9
$DIMLDRBLK
  1

  9
$DIMLUNIT
 70
     2
  9
$DIMLWD
 70
    -2
  9
$DIMLWE
 70
    -2
  9
$DIMTMOVE
 70
     0
  9
$DIMFXL
 40
1.0
  9
$DIMFXLON
 70
     0
  9
$DIMJOGANG
 40
0.7853981633974483
  9
$DIMTFILL
 70
     0
  9
$DIMTFILLCLR
 70
     0
  9
$DIMARCSYM
 70
     0
  9
$DIMLTYPE
  6

  9
$DIMLTEX1
  6

  9
$DIMLTEX2
  6

  9
$DIMTXTDIRECTION
 70
     0
  9
$LUNITS
 70
     5
  9
$LUPREC
 70
     5
  9
$SKETCHINC
 40
0.1
  9
$FILLETRAD
 40
0.0
  9
$AUNITS
 70
     0
  9
$AUPREC
 70
     0
  9
$MENU
  1
acad
  9
$ELEVATION
 40
0.0
  9
$PELEVATION
 40
0.0
  9
$THICKNESS
 40
0.0
  9
$LIMCHECK
 70
     0
  9
$CHAMFERA
 40
0.0
  9
$CHAMFERB
 40
0.0
  9
$CHAMFERC
 40
0.0
  9
$CHAMFERD
 40
0.0
  9
$SKPOLY
 70
     0
  9
$TDCREATE
 40
2447260.585591319
  9
$TDUCREATE
 40
2447260.835591320
  9
$TDUPDATE
 40
2456722.318491447
  9
$TDUUPDATE
 40
2456722.568491447
  9
$TDINDWG
 40
0.1682636458
  9
$TDUSRTIMER
 40
0.1682636458
  9
$USRTIMER
 70
     1
  9
$ANGBASE
 50
0.0
  9
$ANGDIR
 70
     0
  9
$PDMODE
 70
     0
  9
$PDSIZE
 40
0.0
  9
$PLINEWID
 40
0.0
  9
$SPLFRAME
 70
     0
  9
$SPLINETYPE
 70
     6
  9
$SPLINESEGS
 70
     8
  9
$HANDSEED
  5
B86
  9
$SURFTAB1
 70
     6
  9
$SURFTAB2
 70
     6
  9
$SURFTYPE
 70
     6
  9
$SURFU
 70
     6
  9
$SURFV
 70
     6
  9
$UCSBASE
  2

  9
$UCSNAME
  2

  9
$UCSORG
 10
0.0
 20
0.0
 30
0.0
  9
$UCSXDIR
 10
1.0
 20
0.0
 30
0.0
  9
$UCSYDIR
 10
0.0
 20
1.0
 30
0.0
  9
$UCSORTHOREF
  2

  9
$UCSORTHOVIEW
 70
     0
  9
$UCSORGTOP
 10
0.0
 20
0.0
 30
0.0
  9
$UCSORGBOTTOM
 10
0.0
 20
0.0
 30
0.0
  9
$UCSORGLEFT
 10
0.0
 20
0.0
 30
0.0
  9
$UCSORGRIGHT
 10
0.0
 20
0.0
 30
0.0
  9
$UCSORGFRONT
 10
0.0
 20
0.0
 30
0.0
  9
$UCSORGBACK
 10
0.0
 20
0.0
 30
0.0
  9
$PUCSBASE
  2

  9
$PUCSNAME
  2

  9
$PUCSORG
 10
0.0
 20
0.0
 30
0.0
  9
$PUCSXDIR
 10
1.0
 20
0.0
 30
0.0
  9
$PUCSYDIR
 10
0.0
 20
1.0
 30
0.0
  9
$PUCSORTHOREF
  2

  9
$PUCSORTHOVIEW
 70
     0
  9
$PUCSORGTOP
 10
0.0
 20
0.0
 30
0.0
  9
$PUCSORGBOTTOM
 10
0.0
 20
0.0
 30
0.0
  9
$PUCSORGLEFT
 10
0.0
 20
0.0
 30
0.0
  9
$PUCSORGRIGHT
 10
0.0
 20
0.0
 30
0.0
  9
$PUCSORGFRONT
 10
0.0
 20
0.0
 30
0.0
  9
$PUCSORGBACK
 10
0.0
 20
0.0
 30
0.0
  9
$USERI1
 70
     0
  9
$USERI2
 70
     0
  9
$USERI3
 70
     0
  9
$USERI4
 70
     0
  9
$USERI5
 70
     0
  9
$USERR1
 40
0.0
  9
$USERR2
 40
0.0
  9
$USERR3
 40
0.0
  9
$USERR4
 40
0.0
  9
$USERR5
 40
0.0
  9
$WORLDVIEW
 70
     1
  9
$SHADEDGE
 70
     3
  9
$SHADEDIF
 70
    70
  9
$TILEMODE
 70
     1
  9
$MAXACTVP
 70
    16
  9
$PINSBASE
 10
0.0
 20
0.0
 30
0.0
  9
$PLIMCHECK
 70
     0
  9
$PEXTMIN
 10
1.000000000000000E+20
 20
1.000000000000000E+20
 30
1.000000000000000E+20
  9
$PEXTMAX
 10
-1.000000000000000E+20
 20
-1.000000000000000E+20
 30
-1.000000000000000E+20
  9
$PLIMMIN
 10
0.0
 20
0.0
  9
$PLIMMAX
 10
12.0
 20
9.0
  9
$UNITMODE
 70
     0
  9
$VISRETAIN
 70
     0
  9
$PLINEGEN
 70
     0
  9
$PSLTSCALE
 70
     0
  9
$TREEDEPTH
 70
  3020
  9
$CMLSTYLE
  2
STANDARD
  9
$CMLJUST
 70
     0
  9
$CMLSCALE
 40
1.0
  9
$PROXYGRAPHICS
 70
     1
  9
$MEASUREMENT
 70
     0
  9
$CELWEIGHT
370
    -1
  9
$ENDCAPS
280
     0
  9
$JOINSTYLE
280
     0
  9
$LWDISPLAY
290
     0
  9
$INSUNITS
 70
     0
  9
$HYPERLINKBASE
  1

  9
$STYLESHEET
  1

  9
$XEDIT
290
     1
  9
$CEPSNTYPE
380
     0
  9
$PSTYLEMODE
290
     1
  9
$FINGERPRINTGUID
  2
{24CCFF72-8BAA-4CFF-9819-933C25382BE6}
  9
$VERSIONGUID
  2
{30870E43-F628-4544-8C46-19C093BB6124}
  9
$EXTNAMES
290
     1
  9
$PSVPSCALE
 40
0.0
  9
$OLESTARTUP
290
     0
  9
$SORTENTS
280
   127
  9
$INDEXCTL
280
     0
  9
$HIDETEXT
280
     0
  9
$XCLIPFRAME
280
     0
  9
$HALOGAP
280
     0
  9
$OBSCOLOR
 70
   257
  9
$OBSLTYPE
280
     0
  9
$INTERSECTIONDISPLAY
280
     0
  9
$INTERSECTIONCOLOR
 70
   257
  9
$DIMASSOC
280
     1
  9
$PROJECTNAME
  1

  9
$CAMERADISPLAY
290
     0
  9
$LENSLENGTH
 40
50.0
  9
$CAMERAHEIGHT
 40
0.0
  9
$STEPSPERSEC
 40
2.0
  9
$STEPSIZE
 40
6.0
  9
$3DDWFPREC
 40
2.0
  9
$PSOLWIDTH
 40
0.25
  9
$PSOLHEIGHT
 40
4.0
  9
$LOFTANG1
 40
1.570796326794896
  9
$LOFTANG2
 40
1.570796326794896
  9
$LOFTMAG1
 40
0.0
  9
$LOFTMAG2
 40
0.0
  9
$LOFTPARAM
 70
     7
  9
$LOFTNORMALS
280
     1
  9
$LATITUDE
 40
37.795
  9
$LONGITUDE
 40
-122.394
  9
$NORTHDIRECTION
 40
0.0
  9
$TIMEZONE
 70
 -8000
  9
$LIGHTGLYPHDISPLAY
280
     1
  9
$TILEMODELIGHTSYNCH
280
     1
  9
$CMATERIAL
347
A4C
  9
$SOLIDHIST
280
     1
  9
$SHOWHIST
280
     1
  9
$DWFFRAME
280
     2
  9
$DGNFRAME
280
     0
  9
$REALWORLDSCALE
290
     1
  9
$INTERFERECOLOR
 62
     1
  9
$INTERFEREOBJVS
345
A59
  9
$INTERFEREVPVS
346
B56
  9
$CSHADOW
280
     0
  9
$SHADOWPLANELOCATION
 40
0.0
  0
ENDSEC
  0
SECTION
  2
CLASSES
  0
CLASS
  1
ACDBDICTIONARYWDFLT
  2
AcDbDictionaryWithDefault
  3
ObjectDBX Classes
 90
        0
 91
        1
280
     0
281
     0
  0
CLASS
  1
ACDBPLACEHOLDER
  2
AcDbPlaceHolder
  3
ObjectDBX Classes
 90
        0
 91
        1
280
     0
281
     0
  0
CLASS
  1
LAYOUT
  2
AcDbLayout
  3
ObjectDBX Classes
 90
        0
 91
        2
280
     0
281
     0
  0
CLASS
  1
TABLESTYLE
  2
AcDbTableStyle
  3
ObjectDBX Classes
 90
     4095
 91
        1
280
     0
281
     0
  0
CLASS
  1
DICTIONARYVAR
  2
AcDbDictionaryVar
  3
ObjectDBX Classes
 90
        0
 91
        9
280
     0
281
     0
  0
CLASS
  1
MATERIAL
  2
AcDbMaterial
  3
ObjectDBX Classes
 90
     1153
 91
        3
280
     0
281
     0
  0
CLASS
  1
VISUALSTYLE
  2
AcDbVisualStyle
  3
ObjectDBX Classes
 90
     4095
 91
       26
280
     0
281
     0
  0
CLASS
  1
ACME_DOCUMENT
  2
AcMeDbDoc
  3
AcMeServices
 90
        0
 91
        0
280
     0
281
     0
  0
CLASS
  1
AMGSETTINGSOBJ
  2
AmgSettingsObj
  3
"AcadM|Product Description: AutoCAD Mechanical|Company: Autodesk"
 90
        0
 91
        2
280
     0
281
     0
  0
CLASS
  1
ACMESCOPE
  2
AcMeScope
  3
AcMeServices
 90
        0
 91
        1
280
     0
281
     0
  0
CLASS
  1
ACMECOMMANDHISTORY
  2
AcMeCommandHistory
  3
AcMeServices
 90
        0
 91
        1
280
     0
281
     0
  0
CLASS
  1
ACIMSYSVARMAN
  2
AcImSysVarManager
  3
AcMeServices
 90
        0
 91
        5
280
     0
281
     0
  0
CLASS
  1
ACIMINTSYSVAR
  2
AcImIntSysVar
  3
AcMeServices
 90
        0
 91
       27
280
     0
281
     0
  0
CLASS
  1
ACMEDRAWINGMAN
  2
AcMeDrawingMan
  3
AcMeServices
 90
        0
 91
        1
280
     0
281
     0
  0
CLASS
  1
ACMEVIEW
  2
AcMeView
  3
AcMeServices
 90
        0
 91
        1
280
     0
281
     0
  0
CLASS
  1
ACDBENTITYCACHE
  2
AcMeEntityCache
  3
AcMeServices
 90
        0
 91
        0
280
     0
281
     0
  0
CLASS
  1
GSMANAGER
  2
AcMeGSManager
  3
AcMeServices
 90
        0
 91
        0
280
     0
281
     0
  0
CLASS
  1
AMDTINTERNALREACTOR
  2
AmdtInternalReactor
  3
AcMeServices
 90
        0
 91
        0
280
     0
281
     0
  0
CLASS
  1
ACMESTATEMGR
  2
AcMeStateMgr
  3
AcMeServices
 90
        0
 91
        1
280
     0
281
     0
  0
CLASS
  1
ACGREFMASTER
  2
AcGrefMaster
  3
AcAttribServices
 90
        0
 91
        1
280
     0
281
     0
  0
CLASS
  1
AM_DRAWING_MGR
  2
AcDmDwgMgr
  3
AcMechDwgViewMgmt
 90
        0
 91
        1
280
     0
281
     0
  0
CLASS
  1
AM_DWG_DOCUMENT
  2
AcDmDwgDocument
  3
AcMechDwgViewMgmt
 90
        0
 91
        1
280
     0
281
     0
  0
CLASS
  1
AM_DWG_SHEET
  2
AcDmSheet
  3
AcMechDwgViewMgmt
 90
        0
 91
        1
280
     0
281
     0
  0
CLASS
  1
AM_VIEWDIMPARMAP
  2
AcDmViewDimParMap
  3
AcMechDwgViewMgmt
 90
        0
 91
        1
280
     0
281
     0
  0
CLASS
  1
ACIMREALSYSVAR
  2
AcImRealSysVar
  3
AcMeServices
 90
        0
 91
        1
280
     0
281
     0
  0
CLASS
  1
AM_DWGMGR_NAME
  2
AcDmDwgMgrName
  3
AcMechDwgViewMgmt
 90
        0
 91
        1
280
     0
281
     0
  0
CLASS
  1
ACME_DATABASE
  2
AcMeDbDatabase
  3
AcMeServices
 90
        0
 91
        0
280
     0
281
     0
  0
CLASS
  1
ACRFINSADJUSTERMGR
  2
AcRfInsAdjusterMgr
  3
AcMeServices
 90
        0
 91
        0
280
     0
281
     0
  0
CLASS
  1
ACGREFACADMASTER
  2
AcGrefacadMaster
  3
AcGrefServices
 90
        0
 91
        1
280
     0
281
     0
  0
CLASS
  1
AMDTMENUSTATEMGR
  2
AmdtMenuStateMgr
  3
McadcomServices
 90
        0
 91
        0
280
     0
281
     0
  0
CLASS
  1
AMDTMCOMMENUSTATE
  2
AmdtMcomMenuState
  3
McadcomServices
 90
        0
 91
        0
280
     0
281
     0
  0
CLASS
  1
AMIMASTER
  2
AmiMaster
  3
AmiServices
 90
        0
 91
        1
280
     0
281
     0
  0
CLASS
  1
MAPIAMMOUDLE
  2
MApiAmModule
  3
MApiAmServices
 90
        0
 91
        1
280
     0
281
     0
  0
CLASS
  1
ACIMSTRSYSVAR
  2
AcImStrSysVar
  3
AcMeServices
 90
        0
 91
        5
280
     0
281
     0
  0
CLASS
  1
AMDTADMENUSTATE
  2
AmdtAdMenuState
  3
DesignerServices
 90
        0
 91
        0
280
     0
281
     0
  0
CLASS
  1
ADAPPL
  2
AcAdAppl
  3
DesignerServices
 90
        0
 91
        1
280
     0
281
     0
  0
CLASS
  1
DEPMGR
  2
AcAdDepMgr
  3
DesignerServices
 90
        0
 91
        1
280
     0
281
     0
  0
CLASS
  1
PARAMMGR
  2
AcAdParamMgr
  3
DesignerServices
 90
        0
 91
        1
280
     0
281
     0
  0
CLASS
  1
PARAMSCOPE
  2
AcAdParamScope
  3
DesignerServices
 90
        0
 91
        1
280
     0
281
     0
  0
CLASS
  1
NAMEDAPPL
  2
AcAdNamedAppl
  3
DesignerServices
 90
        0
 91
        1
280
     0
281
     0
  0
CLASS
  1
AMDTDMMENUSTATE
  2
AmdtDmMenuState
  3
AcMechDwgViewMgmt
 90
        0
 91
        0
280
     0
281
     0
  0
CLASS
  1
AMDTAMMENUSTATE
  2
AmdtAmMenuState
  3
DesignerAssemblies
 90
        0
 91
        0
280
     0
281
     0
  0
CLASS
  1
ACAMPROJECT
  2
AcAmProject
  3
DesignerAssemblies
 90
        0
 91
        1
280
     0
281
     0
  0
CLASS
  1
ACAMGRCOMPDEF
  2
AcAmGrCompDef
  3
DesignerAssemblies
 90
        0
 91
        1
280
     0
281
     0
  0
CLASS
  1
ACCMCONTEXT
  2
AcCmContext
  3
DesignerAssemblies
 90
        0
 91
        1
280
     0
281
     0
  0
CLASS
  1
ACAMCOMPDEF
  2
AcAmCompDef
  3
DesignerAssemblies
 90
        0
 91
        1
280
     0
281
     0
  0
CLASS
  1
ACAMCOMPDEFMGR
  2
AcAmCompDefMgr
  3
DesignerAssemblies
 90
        0
 91
        1
280
     0
281
     0
  0
CLASS
  1
AMCONTEXTMGR
  2
AcAmContextMgr
  3
DesignerAssemblies
 90
        0
 91
        1
280
     0
281
     0
  0
CLASS
  1
ACAMCONTEXTMODELER
  2
AcAmContextModeler
  3
DesignerAssemblies
 90
        0
 91
        1
280
     0
281
     0
  0
CLASS
  1
ACMDATADICTIONARY
  2
AcmDataDictionary
  3
"AcmSymBB|Product Description: AutoCAD Mechanical|Company: Autodesk"
 90
        0
 91
        1
280
     0
281
     0
  0
CLASS
  1
CATALOGSTATE
  2
AcAmCatalogState
  3
DesignerAssemblies
 90
        0
 91
        1
280
     0
281
     0
  0
CLASS
  1
ACAMGRCOMPDEFSET
  2
AcAmGrCompDefSet
  3
DesignerAssemblies
 90
        0
 91
        0
280
     0
281
     0
  0
CLASS
  1
AMDTBROWSERDBTAB
  2
AmdtBrowserDbTab
  3
McadcomServices
 90
        0
 91
        0
280
     0
281
     0
  0
CLASS
  1
CBROWSERAPPOBJECT
  2
CBrowserAppObject
  3
McadcomServices
 90
        0
 91
        0
280
     0
281
     0
  0
CLASS
  1
DM_PLACEHOLDER
  2
AcDmSelsetPlaceholder
  3
AcMechDwgViewMgmt
 90
        0
 91
        0
280
     0
281
     0
  0
CLASS
  1
ACMSTANDARDANSI
  2
AcmStandardANSI
  3
"Amdt_StdImp|Product Description: AutoCAD Mechanical|Company: Autodesk"
 90
        0
 91
        1
280
     0
281
     0
  0
CLASS
  1
AMGOBJPROPCFG
  2
AmgObjPropCfg
  3
"AmgLay|Product Description: AutoCAD Mechanical|Company: Autodesk"
 90
        1
 91
        1
280
     0
281
     0
  0
CLASS
  1
ACMSURFSTANDARDANSI
  2
AcmSurfTextStdANSI
  3
"Amdt_StdImp|Product Description: AutoCAD Mechanical|Company: Autodesk"
 90
        0
 91
        1
280
     0
281
     0
  0
CLASS
  1
ACMFCFSTANDARDANSI
  2
AcmFCFStdANSI
  3
"Amdt_StdImp|Product Description: AutoCAD Mechanical|Company: Autodesk"
 90
        0
 91
        1
280
     0
281
     0
  0
CLASS
  1
ACMWELDSTANDARDANSI
  2
AcmWeldingStdANSI
  3
"Amdt_StdImp|Product Description: AutoCAD Mechanical|Company: Autodesk"
 90
        0
 91
        1
280
     0
281
     0
  0
CLASS
  1
ACMIDSTANDARDANSI
  2
AcmIdStdANSI
  3
"Amdt_StdImp|Product Description: AutoCAD Mechanical|Company: Autodesk"
 90
        0
 91
        1
280
     0
281
     0
  0
CLASS
  1
ACMDATUMSTANDARDANSI
  2
AcmDatumStdANSI
  3
"Amdt_StdImp|Product Description: AutoCAD Mechanical|Company: Autodesk"
 90
        0
 91
        1
280
     0
281
     0
  0
CLASS
  1
ACMBOMSTANDARDANSI
  2
AcmBOMStdANSI
  3
"Amdt_StdImp|Product Description: AutoCAD Mechanical|Company: Autodesk"
 90
        0
 91
        1
280
     0
281
     0
  0
CLASS
  1
ACMDETAILSTANDARDANSI
  2
AmdtDetailSymStdANSI
  3
"Amdt_StdImp|Product Description: AutoCAD Mechanical|Company: Autodesk"
 90
        0
 91
        1
280
     0
281
     0
  0
CLASS
  1
ACMSECTIONSTANDARDANSI
  2
AmdtSectionSymStdANSI
  3
"Amdt_StdImp|Product Description: AutoCAD Mechanical|Company: Autodesk"
 90
        0
 91
        1
280
     0
281
     0
  0
CLASS
  1
ACMCENTERLINESTANDARDANSI
  2
AmdtCenterLineStdANSI
  3
"Amdt_StdImp|Product Description: AutoCAD Mechanical|Company: Autodesk"
 90
        0
 91
        1
280
     0
281
     0
  0
CLASS
  1
ACMTHREADLINESTANDARDANSI
  2
AmdtThreadLineStdANSI
  3
"Amdt_StdImp|Product Description: AutoCAD Mechanical|Company: Autodesk"
 90
        0
 91
        1
280
     0
281
     0
  0
CLASS
  1
ACMNOTESTANDARDANSI
  2
AmdtNoteStdANSI
  3
"Amdt_StdImp|Product Description: AutoCAD Mechanical|Company: Autodesk"
 90
        0
 91
        1
280
     0
281
     0
  0
CLASS
  1
ACMTAPERSTANDARDANSI
  2
AcmTaperStdANSI
  3
"Amdt_StdImp|Product Description: AutoCAD Mechanical|Company: Autodesk"
 90
        0
 91
        1
280
     0
281
     0
  0
CLASS
  1
AMDTNOTETEMPLATEDB
  2
AmdtNoteTemplateDB
  3
AMDT_STDIMP_MODULE_NAME
 90
        0
 91
        6
280
     0
281
     0
  0
CLASS
  1
ACAMGLAYSTD
  2
AcAmgLayStd
  3
"AmgLay|Product Description: AutoCAD Mechanical|Company: Autodesk"
 90
        0
 91
        1
280
     0
281
     0
  0
CLASS
  1
ACAMGDIMSTD
  2
AcAmgDimStd
  3
"AmgDim|Product Description: AutoCAD Mechanical|Company: Autodesk"
 90
        0
 91
        1
280
     0
281
     0
  0
CLASS
  1
ACAMGHOLECHARTSTDANSI
  2
AcAmgHoleChartStdANSI
  3
ACMSYMBB_MODULE_NAME
 90
        0
 91
        1
280
     0
281
     0
  0
CLASS
  1
ACAMGTITLESTD
  2
AcAmgTitleStd
  3
"AmgTitle|Product Description: AutoCAD Mechanical|Company: Autodesk"
 90
        0
 91
        1
280
     0
281
     0
  0
CLASS
  1
ACAMGFILTERDAT
  2
AcAmgFilterDat
  3
"AcadM|Product Description: AutoCAD Mechanical|Company: Autodesk"
 90
        0
 91
        6
280
     0
281
     0
  0
CLASS
  1
SORTENTSTABLE
  2
AcDbSortentsTable
  3
ObjectDBX Classes
 90
        0
 91
        1
280
     0
281
     0
  0
CLASS
  1
CAMSSTRUCTBTNSTATE
  2
StructBtnState
  3
L"DesignerAssemblies"
 90
        0
 91
        1
280
     0
281
     0
  0
CLASS
  1
SCALE
  2
AcDbScale
  3
ObjectDBX Classes
 90
     1153
 91
       17
280
     0
281
     0
  0
CLASS
  1
MLEADERSTYLE
  2
AcDbMLeaderStyle
  3
ACDB_MLEADERSTYLE_CLASS
 90
     4095
 91
        1
280
     0
281
     0
  0
CLASS
  1
CELLSTYLEMAP
  2
AcDbCellStyleMap
  3
ObjectDBX Classes
 90
     1152
 91
        1
280
     0
281
     0
  0
ENDSEC
  0
SECTION
  2
TABLES
  0
TABLE
  2
VPORT
  5
8
330
0
100
AcDbSymbolTable
 70
     1
  0
VPORT
  5
A41
330
8
100
AcDbSymbolTableRecord
100
AcDbViewportTableRecord
  2
*Active
 70
     0
 10
0.0
 20
0.0
 11
1.0
 21
1.0
 12
32.00078338834563
 22
20.87457711963036
 13
0.0
 23
0.0
 14
1.0
 24
1.0
 15
0.0
 25
0.0
 16
0.0
 26
0.0
 36
1.0
 17
0.0
 27
0.0
 37
0.0
 40
42.03683292032967
 41
2.16628959276018
 42
50.0
 43
0.0
 44
0.0
 50
0.0
 51
0.0
 71
     0
 72
   100
 73
     1
 74
     0
 75
     0
 76
     0
 77
     0
 78
     0
281
     0
 65
     1
110
0.0
120
0.0
130
0.0
111
1.0
121
0.0
131
0.0
112
0.0
122
1.0
132
0.0
 79
     0
146
0.0
348
A55
 60
     3
 61
     5
292
     1
282
     1
141
0.0
142
0.0
 63
   250
421
  3355443
  0
ENDTAB
  0
TABLE
  2
LTYPE
  5
5
330
0
100
AcDbSymbolTable
 70
    16
  0
LTYPE
  5
12
330
5
100
AcDbSymbolTableRecord
100
AcDbLinetypeTableRecord
  2
BYBLOCK
 70
     0
  3

 72
    65
 73
     0
 40
0.0
  0
LTYPE
  5
13
330
5
100
AcDbSymbolTableRecord
100
AcDbLinetypeTableRecord
  2
BYLAYER
 70
     0
  3

 72
    65
 73
     0
 40
0.0
  0
LTYPE
  5
14
330
5
100
AcDbSymbolTableRecord
100
AcDbLinetypeTableRecord
  2
CONTINUOUS
 70
     0
  3
Solid line
 72
    65
 73
     0
 40
0.0
  0
LTYPE
  5
45
330
5
100
AcDbSymbolTableRecord
100
AcDbLinetypeTableRecord
  2
CENTER
 70
     0
  3
____ _ ____ _ ____ _ ____ _ ____ _ ____ _ ____
 72
    65
 73
     4
 40
2.0
 49
1.25
 74
     0
 49
-0.25
 74
     0
 49
0.25
 74
     0
 49
-0.25
 74
     0
  0
LTYPE
  5
46
330
5
100
AcDbSymbolTableRecord
100
AcDbLinetypeTableRecord
  2
HIDDEN
 70
     0
  3
_ _ _ _ _ _ _ _ _ _ _ _ _ _ _ _ _ _ _ _ _ _ _
 72
    65
 73
     2
 40
0.375
 49
0.25
 74
     0
 49
-0.125
 74
     0
  0
LTYPE
  5
A97
330
5
100
AcDbSymbolTableRecord
100
AcDbLinetypeTableRecord
  2
PHANTOM2
 70
     0
  3
Phantom (.5x) ___ _ _ ___ _ _ ___ _ _ ___ _ _
 72
    65
 73
     6
 40
1.25
 49
0.625
 74
     0
 49
-0.125
 74
     0
 49
0.125
 74
     0
 49
-0.125
 74
     0
 49
0.125
 74
     0
 49
-0.125
 74
     0
  0
LTYPE
  5
ACC
330
5
100
AcDbSymbolTableRecord
100
AcDbLinetypeTableRecord
  2
AM_ISO02W050
 70
     0
  3
__ __ __ __ __ __ __ __ __ __ __ __ __ __ __
 72
    65
 73
     2
 40
7.5
 49
6.0
 74
     0
 49
-1.5
 74
     0
  0
LTYPE
  5
ACD
330
5
100
AcDbSymbolTableRecord
100
AcDbLinetypeTableRecord
  2
AM_ISO08W050
 70
     0
  3
____ . ____ . ____ . ____ . ____ . ____ . ____
 72
    65
 73
     4
 40
18.0
 49
12.0
 74
     0
 49
-1.5
 74
     0
 49
3.0
 74
     0
 49
-1.5
 74
     0
  0
LTYPE
  5
ACE
330
5
100
AcDbSymbolTableRecord
100
AcDbLinetypeTableRecord
  2
AM_ISO09W050
 70
     0
  3
_____ . . _____ . . _____ . . ____ .. ____
 72
    65
 73
     6
 40
22.5
 49
12.0
 74
     0
 49
-1.5
 74
     0
 49
3.0
 74
     0
 49
-1.5
 74
     0
 49
3.0
 74
     0
 49
-1.5
 74
     0
  0
LTYPE
  5
ACF
330
5
100
AcDbSymbolTableRecord
100
AcDbLinetypeTableRecord
  2
Amconstr
 70
     0
  3
_______________________
 72
    65
 73
     2
 40
9999.0
 49
9999.0
 74
     0
 49
0.0
 74
     0
  0
LTYPE
  5
AD0
330
5
100
AcDbSymbolTableRecord
100
AcDbLinetypeTableRecord
  2
AM_ISO08W050x2
 70
     0
  3
__ . __ . __ . __ . __ . __
 72
    65
 73
     4
 40
9.0
 49
6.0
 74
     0
 49
-0.75
 74
     0
 49
1.5
 74
     0
 49
-0.75
 74
     0
  0
LTYPE
  5
AD1
330
5
100
AcDbSymbolTableRecord
100
AcDbLinetypeTableRecord
  2
AM_ISO02W050x2
 70
     0
  3
 _ _ _ _ _ _ _ _ _ _ _ _
 72
    65
 73
     2
 40
3.75
 49
3.0
 74
     0
 49
-0.75
 74
     0
  0
LTYPE
  5
AD4
330
5
100
AcDbSymbolTableRecord
100
AcDbLinetypeTableRecord
  2
Amzigzag
 70
     0
  3
/\/-/\/-/\/-/\/-/\/-/\/
 72
    65
 73
     2
 40
11.0001
 49
0.0001
 74
     4
 75
   136
340
AD3
 46
0.04
 50
0.0
 44
0.0
 45
0.0
 49
-11.0
 74
     0
  0
LTYPE
  5
AD5
330
5
100
AcDbSymbolTableRecord
100
AcDbLinetypeTableRecord
  2
CENTER2
 70
     0
  3
Center (.5x) ___ _ ___ _ ___ _ ___ _ ___ _ ___
 72
    65
 73
     4
 40
1.125
 49
0.75
 74
     0
 49
-0.125
 74
     0
 49
0.125
 74
     0
 49
-0.125
 74
     0
  0
LTYPE
  5
AD6
330
5
100
AcDbSymbolTableRecord
100
AcDbLinetypeTableRecord
  2
HIDDEN2
 70
     0
  3
Hidden (.5x) _ _ _ _ _ _ _ _ _ _ _ _ _ _ _ _ _
 72
    65
 73
     2
 40
0.1875
 49
0.125
 74
     0
 49
-0.0625
 74
     0
  0
LTYPE
  5
AD7
330
5
100
AcDbSymbolTableRecord
100
AcDbLinetypeTableRecord
  2
Amzigzag2
 70
     0
  3
/\/-/\/-/\/-/\/-/\/-/\/
 72
    65
 73
     2
 40
0.4401
 49
0.0001
 74
     4
 75
   136
340
AD3
 46
0.0016
 50
0.0
 44
0.0
 45
0.0
 49
-0.4400000000000001
 74
     0
  0
LTYPE
  5
AE6
330
5
100
AcDbSymbolTableRecord
100
AcDbLinetypeTableRecord
  2
ACANSTGB
 70
     0
  3
__ . . __ . .
 72
    65
 73
     6
 40
0.35433070866
 49
0.15748031496
 74
     0
 49
-0.03937007874
 74
     0
 49
0.03937007874
 74
     0
 49
-0.03937007874
 74
     0
 49
0.03937007874
 74
     0
 49
-0.03937007874
 74
     0
  0
LTYPE
  5
AE7
330
5
100
AcDbSymbolTableRecord
100
AcDbLinetypeTableRecord
  2
ACANSTGL
 70
     0
  3
_ _ _ _ _
 72
    65
 73
     2
 40
0.11811023622
 49
0.07874015748
 74
     0
 49
-0.03937007874
 74
     0
  0
ENDTAB
  0
TABLE
  2
LAYER
  5
2
102
{ACAD_XDICTIONARY
360
B47
102
}
330
0
100
AcDbSymbolTable
 70
     8
  0
LAYER
  5
F
330
2
100
AcDbSymbolTableRecord
100
AcDbLayerTableRecord
  2
0
 70
     0
 62
     7
  6
CONTINUOUS
370
    -3
390
A01
347
A4E
  0
LAYER
  5
49
330
2
100
AcDbSymbolTableRecord
100
AcDbLayerTableRecord
  2
DIM
 70
     0
 62
     3
  6
CONTINUOUS
370
    -3
390
A01
347
A4E
  0
LAYER
  5
4A
330
2
100
AcDbSymbolTableRecord
100
AcDbLayerTableRecord
  2
HATCH
 70
     0
 62
     4
  6
CONTINUOUS
370
    -3
390
A01
347
A4E
  0
LAYER
  5
4B
330
2
100
AcDbSymbolTableRecord
100
AcDbLayerTableRecord
  2
PN
 70
     0
 62
     6
  6
CONTINUOUS
370
    -3
390
A01
347
A4E
  0
LAYER
  5
4C
330
2
100
AcDbSymbolTableRecord
100
AcDbLayerTableRecord
  2
TITLE
 70
     0
 62
     1
  6
CONTINUOUS
370
    -3
390
A01
347
A4E
  0
LAYER
  5
4D
330
2
100
AcDbSymbolTableRecord
100
AcDbLayerTableRecord
  2
CENTER
 70
     0
 62
     2
  6
CENTER
370
    -3
390
A01
347
A4E
  0
LAYER
  5
4E
330
2
100
AcDbSymbolTableRecord
100
AcDbLayerTableRecord
  2
DEFPOINTS
 70
     0
 62
    -7
  6
CONTINUOUS
290
     0
370
    -3
390
A01
347
A4E
  0
LAYER
  5
4F
330
2
100
AcDbSymbolTableRecord
100
AcDbLayerTableRecord
  2
HIDE
 70
     0
 62
     5
  6
HIDDEN
370
    -3
390
A01
347
A4E
  0
ENDTAB
  0
TABLE
  2
STYLE
  5
3
330
0
100
AcDbSymbolTable
 70
     8
  0
STYLE
  5
10
330
3
100
AcDbSymbolTableRecord
100
AcDbTextStyleTableRecord
  2
STANDARD
 70
     0
 40
0.0
 41
1.0
 50
0.0
 71
     0
 42
0.187
  3
txt
  4

  0
STYLE
  5
43
330
3
100
AcDbSymbolTableRecord
100
AcDbTextStyleTableRecord
  2
ITALIC
 70
     0
 40
0.0
 41
1.0
 50
0.0
 71
     0
 42
0.2
  3
txt
  4

  0
STYLE
  5
44
330
3
100
AcDbSymbolTableRecord
100
AcDbTextStyleTableRecord
  2
COMPLEX
 70
     0
 40
0.0
 41
1.0
 50
0.0
 71
     0
 42
0.156
  3
ROMANC
  4

  0
STYLE
  5
86C
330
3
100
AcDbSymbolTableRecord
100
AcDbTextStyleTableRecord
  2
STYLE1
 70
     0
 40
0.0
 41
1.0
 50
0.0
 71
     0
 42
0.25
  3
swiss.ttf
  4

1001
ACAD
1000
Swis721 BT
1071
       34
  0
STYLE
  5
AD3
330
3
100
AcDbSymbolTableRecord
100
AcDbTextStyleTableRecord
  2

 70
     1
 40
0.0
 41
1.0
 50
0.0
 71
     0
 42
0.187
  3
genltshp.shx
  4

  0
STYLE
  5
AD8
330
3
100
AcDbSymbolTableRecord
100
AcDbTextStyleTableRecord
  2
ACANSTS
 70
     0
 40
1.0
 41
1.0
 50
0.0
 71
     0
 42
0.187
  3
romans.shx
  4

  0
STYLE
  5
AE5
330
3
100
AcDbSymbolTableRecord
100
AcDbTextStyleTableRecord
  2
ACANSGDT
 70
     0
 40
0.0
 41
1.0
 50
0.0
 71
     0
 42
0.187
  3
amgdt.shx
  4

  0
STYLE
  5
B46
330
3
100
AcDbSymbolTableRecord
100
AcDbTextStyleTableRecord
  2

 70
     1
 40
0.0
 41
1.0
 50
0.0
 71
     0
 42
0.2
  3
ltypeshp.shx
  4

  0
ENDTAB
  0
TABLE
  2
VIEW
  5
6
330
0
100
AcDbSymbolTable
 70
     0
  0
ENDTAB
  0
TABLE
  2
UCS
  5
7
330
0
100
AcDbSymbolTable
 70
     0
  0
ENDTAB
  0
TABLE
  2
APPID
  5
9
330
0
100
AcDbSymbolTable
 70
     9
  0
APPID
  5
11
330
9
100
AcDbSymbolTableRecord
100
AcDbRegAppTableRecord
  2
ACAD
 70
     0
  0
APPID
  5
A14
330
9
100
AcDbSymbolTableRecord
100
AcDbRegAppTableRecord
  2
ACAD_PSEXT
 70
     0
  0
APPID
  5
A6A
330
9
100
AcDbSymbolTableRecord
100
AcDbRegAppTableRecord
  2
MCAD_NO_VIS
 70
     0
  0
APPID
  5
A6B
330
9
100
AcDbSymbolTableRecord
100
AcDbRegAppTableRecord
  2
ACAD_TEMP_GRAPHIC
 70
     0
  0
APPID
  5
A99
330
9
100
AcDbSymbolTableRecord
100
AcDbRegAppTableRecord
  2
AD_DRAW
 70
     0
  0
APPID
  5
A9C
330
9
100
AcDbSymbolTableRecord
100
AcDbRegAppTableRecord
  2
ACATTRIBSERVICES
 70
     0
  0
APPID
  5
ABD
330
9
100
AcDbSymbolTableRecord
100
AcDbRegAppTableRecord
  2
DESIGNERASSEMBLIES
 70
     0
  0
APPID
  5
AC3
330
9
100
AcDbSymbolTableRecord
100
AcDbRegAppTableRecord
  2
ACADM_DIM_EDIT
 70
     0
  0
APPID
  5
AC4
330
9
100
AcDbSymbolTableRecord
100
AcDbRegAppTableRecord
  2
AMDT_DM_ADJ
 70
     0
  0
ENDTAB
  0
TABLE
  2
DIMSTYLE
  5
A
330
0
100
AcDbSymbolTable
 70
     7
100
AcDbDimStyleTable
 71
     1
340
6A0
  0
DIMSTYLE
105
6A0
330
A
100
AcDbSymbolTableRecord
100
AcDbDimStyleTableRecord
  2
STANDARD
 70
     0
340
10
  0
DIMSTYLE
105
AF2
330
A
100
AcDbSymbolTableRecord
100
AcDbDimStyleTableRecord
  2
AM_ANSI
 70
     0
  4
mm
 41
0.1
 42
0.05
 43
0.5
 44
0.1
 47
0.1
 48
0.1
 78
     7
 79
     2
 90
     1
140
0.12
141
0.0
146
0.71
147
0.06
176
   256
177
   256
178
     2
274
     4
284
     7
340
10
371
    -1
372
    -1
  0
DIMSTYLE
105
AF3
330
A
100
AcDbSymbolTableRecord
100
AcDbDimStyleTableRecord
  2
AM_ANSI$3
 70
     0
  4
mm
 41
0.1
 42
0.05
 43
0.5
 44
0.1
 47
0.1
 48
0.1
 78
     7
 79
     2
 90
     1
140
0.12
141
0.0
146
0.71
147
0.06
176
   256
177
   256
178
     2
274
     4
284
     7
288
     1
289
     0
340
10
371
    -1
372
    -1
  0
DIMSTYLE
105
AF4
330
A
100
AcDbSymbolTableRecord
100
AcDbDimStyleTableRecord
  2
AM_ANSI$4
 70
     0
  4
mm
 41
0.1
 42
0.05
 43
0.5
 44
0.1
 47
0.1
 48
0.1
 78
     7
 79
     2
 90
     1
140
0.12
141
0.0
146
0.71
147
0.06
176
   256
177
   256
178
     2
274
     4
284
     7
288
     1
289
     0
340
10
371
    -1
372
    -1
  0
DIMSTYLE
105
AF5
330
A
100
AcDbSymbolTableRecord
100
AcDbDimStyleTableRecord
  2
AM_ANSI$7
 70
     0
  4
mm
 41
0.1
 42
0.05
 43
0.5
 44
0.1
 47
0.1
 48
0.1
 78
     7
 79
     2
 90
     1
140
0.24
141
0.0
146
0.71
147
0.06
176
   256
177
   256
178
     2
274
     4
284
     7
340
10
371
    -1
372
    -1
  0
DIMSTYLE
105
AF6
330
A
100
AcDbSymbolTableRecord
100
AcDbDimStyleTableRecord
  2
AM_ANSI$SF
 70
     0
  4
mm
 41
0.1
 42
0.05
 43
0.5
 44
0.1
 47
0.1
 48
0.1
 75
     1
 76
     1
 78
     7
 79
     2
 90
     1
140
0.12
141
0.0
146
0.71
147
0.06
176
   256
177
   256
178
     2
274
     4
284
     7
340
10
371
    -1
372
    -1
  0
DIMSTYLE
105
AFB
330
A
100
AcDbSymbolTableRecord
100
AcDbDimStyleTableRecord
  2
AM_ANSI$SH
 70
     0
  4
mm
 41
0.1
 42
0.05
 43
0.5
 44
0.1
 47
0.1
 48
0.1
 75
     1
 76
     1
 78
     7
 79
     2
 90
     1
140
0.12
141
0.0
146
0.71
147
0.06
173
     1
176
   256
177
   256
178
     2
274
     4
284
     7
340
10
343
AF7
371
    -1
372
    -1
  0
ENDTAB
  0
TABLE
  2
BLOCK_RECORD
  5
1
330
0
100
AcDbSymbolTable
 70
    35
  0
BLOCK_RECORD
  5
18
102
{ACAD_XDICTIONARY
360
B43
102
}
330
1
100
AcDbSymbolTableRecord
100
AcDbBlockTableRecord
  2
*MODEL_SPACE
340
A04
 70
     0
280
     1
281
     0
  0
BLOCK_RECORD
  5
15
330
1
100
AcDbSymbolTableRecord
100
AcDbBlockTableRecord
  2
*PAPER_SPACE
340
A05
 70
     0
280
     1
281
     0
  0
BLOCK_RECORD
  5
1C
330
1
100
AcDbSymbolTableRecord
100
AcDbBlockTableRecord
  2
*X0
340
0
102
{BLKREFS
331
61F
102
}
 70
     0
280
     1
281
     0
  0
BLOCK_RECORD
  5
1D
330
1
100
AcDbSymbolTableRecord
100
AcDbBlockTableRecord
  2
*X1
340
0
102
{BLKREFS
331
620
102
}
 70
     0
280
     1
281
     0
  0
BLOCK_RECORD
  5
1E
330
1
100
AcDbSymbolTableRecord
100
AcDbBlockTableRecord
  2
*X2
340
0
102
{BLKREFS
331
621
102
}
 70
     0
280
     1
281
     0
  0
BLOCK_RECORD
  5
1F
330
1
100
AcDbSymbolTableRecord
100
AcDbBlockTableRecord
  2
*X3
340
0
102
{BLKREFS
331
622
102
}
 70
     0
280
     1
281
     0
  0
BLOCK_RECORD
  5
20
330
1
100
AcDbSymbolTableRecord
100
AcDbBlockTableRecord
  2
*X4
340
0
102
{BLKREFS
331
636
102
}
 70
     0
280
     1
281
     0
  0
BLOCK_RECORD
  5
21
330
1
100
AcDbSymbolTableRecord
100
AcDbBlockTableRecord
  2
*X5
340
0
102
{BLKREFS
331
637
102
}
 70
     0
280
     1
281
     0
  0
BLOCK_RECORD
  5
22
330
1
100
AcDbSymbolTableRecord
100
AcDbBlockTableRecord
  2
*D6
340
0
 70
     0
280
     1
281
     0
  0
BLOCK_RECORD
  5
2A
330
1
100
AcDbSymbolTableRecord
100
AcDbBlockTableRecord
  2
SAAR
340
0
102
{BLKREFS
331
63B
102
}
 70
     0
280
     1
281
     0
  0
BLOCK_RECORD
  5
2B
330
1
100
AcDbSymbolTableRecord
100
AcDbBlockTableRecord
  2
*X8
340
0
102
{BLKREFS
331
3F5
102
}
 70
     0
280
     1
281
     0
  0
BLOCK_RECORD
  5
2C
330
1
100
AcDbSymbolTableRecord
100
AcDbBlockTableRecord
  2
SBBT
340
0
102
{BLKREFS
331
63C
102
}
 70
     0
280
     1
281
     0
  0
BLOCK_RECORD
  5
2D
330
1
100
AcDbSymbolTableRecord
100
AcDbBlockTableRecord
  2
*X10
340
0
102
{BLKREFS
331
42A
102
}
 70
     0
280
     1
281
     0
  0
BLOCK_RECORD
  5
2E
330
1
100
AcDbSymbolTableRecord
100
AcDbBlockTableRecord
  2
SAAL
340
0
102
{BLKREFS
331
63D
102
}
 70
     0
280
     1
281
     0
  0
BLOCK_RECORD
  5
2F
330
1
100
AcDbSymbolTableRecord
100
AcDbBlockTableRecord
  2
*X12
340
0
102
{BLKREFS
331
46C
102
}
 70
     0
280
     1
281
     0
  0
BLOCK_RECORD
  5
30
330
1
100
AcDbSymbolTableRecord
100
AcDbBlockTableRecord
  2
SBBB
340
0
102
{BLKREFS
331
63E
102
}
 70
     0
280
     1
281
     0
  0
BLOCK_RECORD
  5
31
330
1
100
AcDbSymbolTableRecord
100
AcDbBlockTableRecord
  2
*X14
340
0
102
{BLKREFS
331
4BB
102
}
 70
     0
280
     1
281
     0
  0
BLOCK_RECORD
  5
32
330
1
100
AcDbSymbolTableRecord
100
AcDbBlockTableRecord
  2
*D15
340
0
 70
     0
280
     1
281
     0
  0
BLOCK_RECORD
  5
33
330
1
100
AcDbSymbolTableRecord
100
AcDbBlockTableRecord
  2
SBBTX
340
0
102
{BLKREFS
331
642
102
}
 70
     0
280
     1
281
     0
  0
BLOCK_RECORD
  5
34
330
1
100
AcDbSymbolTableRecord
100
AcDbBlockTableRecord
  2
SAATX
340
0
102
{BLKREFS
331
643
102
}
 70
     0
280
     1
281
     0
  0
BLOCK_RECORD
  5
35
330
1
100
AcDbSymbolTableRecord
100
AcDbBlockTableRecord
  2
*D18
340
0
 70
     0
280
     1
281
     0
  0
BLOCK_RECORD
  5
36
330
1
100
AcDbSymbolTableRecord
100
AcDbBlockTableRecord
  2
*D19
340
0
 70
     0
280
     1
281
     0
  0
BLOCK_RECORD
  5
37
330
1
100
AcDbSymbolTableRecord
100
AcDbBlockTableRecord
  2
*D20
340
0
 70
     0
280
     1
281
     0
  0
BLOCK_RECORD
  5
38
330
1
100
AcDbSymbolTableRecord
100
AcDbBlockTableRecord
  2
*D21
340
0
 70
     0
280
     1
281
     0
  0
BLOCK_RECORD
  5
39
330
1
100
AcDbSymbolTableRecord
100
AcDbBlockTableRecord
  2
*D22
340
0
 70
     0
280
     1
281
     0
  0
BLOCK_RECORD
  5
3A
330
1
100
AcDbSymbolTableRecord
100
AcDbBlockTableRecord
  2
*D23
340
0
 70
     0
280
     1
281
     0
  0
BLOCK_RECORD
  5
3B
330
1
100
AcDbSymbolTableRecord
100
AcDbBlockTableRecord
  2
*D24
340
0
 70
     0
280
     1
281
     0
  0
BLOCK_RECORD
  5
3C
330
1
100
AcDbSymbolTableRecord
100
AcDbBlockTableRecord
  2
*D25
340
0
 70
     0
280
     1
281
     0
  0
BLOCK_RECORD
  5
3D
330
1
100
AcDbSymbolTableRecord
100
AcDbBlockTableRecord
  2
*D26
340
0
 70
     0
280
     1
281
     0
  0
BLOCK_RECORD
  5
3E
330
1
100
AcDbSymbolTableRecord
100
AcDbBlockTableRecord
  2
*D27
340
0
 70
     0
280
     1
281
     0
  0
BLOCK_RECORD
  5
3F
330
1
100
AcDbSymbolTableRecord
100
AcDbBlockTableRecord
  2
*D28
340
0
 70
     0
280
     1
281
     0
  0
BLOCK_RECORD
  5
40
330
1
100
AcDbSymbolTableRecord
100
AcDbBlockTableRecord
  2
*D29
340
0
 70
     0
280
     1
281
     0
  0
BLOCK_RECORD
  5
41
330
1
100
AcDbSymbolTableRecord
100
AcDbBlockTableRecord
  2
*D30
340
0
 70
     0
280
     1
281
     0
  0
BLOCK_RECORD
  5
8EB
330
1
100
AcDbSymbolTableRecord
100
AcDbBlockTableRecord
  2
*X31
340
0
102
{BLKREFS
331
986
102
}
 70
     0
280
     1
281
     0
  0
BLOCK_RECORD
  5
972
330
1
100
AcDbSymbolTableRecord
100
AcDbBlockTableRecord
  2
T2
340
0
 70
     0
280
     1
281
     0
  0
BLOCK_RECORD
  5
AB4
330
1
100
AcDbSymbolTableRecord
100
AcDbBlockTableRecord
  2
*U33
340
0
 70
     0
280
     1
281
     0
  0
BLOCK_RECORD
  5
AF7
330
1
100
AcDbSymbolTableRecord
100
AcDbBlockTableRecord
  2
GENAXEH
340
0
 70
     0
280
     1
281
     0
  0
ENDTAB
  0
ENDSEC
  0
SECTION
  2
BLOCKS
  0
BLOCK
  5
52
330
18
100
AcDbEntity
  8
0
100
AcDbBlockBegin
  2
*MODEL_SPACE
 70
     0
 10
0.0
 20
0.0
 30
0.0
  3
*MODEL_SPACE
  1

  0
ENDBLK
  5
53
330
18
100
AcDbEntity
  8
0
100
AcDbBlockEnd
  0
BLOCK
  5
50
330
15
100
AcDbEntity
 67
     1
  8
0
100
AcDbBlockBegin
  2
*PAPER_SPACE
 70
     0
 10
0.0
 20
0.0
 30
0.0
  3
*PAPER_SPACE
  1

  0
ENDBLK
  5
51
330
15
100
AcDbEntity
 67
     1
  8
0
100
AcDbBlockEnd
  0
BLOCK
  5
54
330
1C
100
AcDbEntity
  8
0
100
AcDbBlockBegin
  2
*X0
 70
     1
 10
0.0
 20
0.0
 30
0.0
  3
*X0
  1

  0
LINE
  5
55
330
1C
100
AcDbEntity
  8
0
 62
     0
100
AcDbLine
 10
30.6638548183199
 20
7.329331039163823
 30
0.0
 11
30.78532931239786
 21
7.450805533241787
 31
0.0
  0
LINE
  5
56
330
1C
100
AcDbEntity
  8
0
 62
     0
100
AcDbLine
 10
30.64429752539616
 20
8.370433918019909
 30
0.0
 11
30.76671492228638
 21
8.492851314910124
 31
0.0
  0
LINE
  5
57
330
1C
100
AcDbEntity
  8
0
 62
     0
100
AcDbLine
 10
30.6261012503926
 20
9.412897814796176
 30
0.0
 11
30.74810053217489
 21
9.534897096578459
 31
0.0
  0
LINE
  5
58
330
1C
100
AcDbEntity
  8
0
 62
     0
100
AcDbLine
 10
30.47778923215232
 20
10.32524596833571
 30
0.0
 11
30.57036310721181
 21
10.4178198433952
 31
0.0
  0
LINE
  5
59
330
1C
100
AcDbEntity
  8
0
 62
     0
100
AcDbLine
 10
30.61137597649084
 20
10.45883271267423
 30
0.0
 11
30.72948614206341
 21
10.5769428782468
 31
0.0
  0
LINE
  5
5A
330
1C
100
AcDbEntity
  8
0
 62
     0
100
AcDbLine
 10
31.5630037943311
 20
7.167819843395203
 30
0.0
 11
31.6880037943311
 21
7.292819843395203
 31
0.0
  0
LINE
  5
5B
330
1C
100
AcDbEntity
  8
0
 62
     0
100
AcDbLine
 10
34.02161299598829
 20
9.626429045052399
 30
0.0
 11
34.14790891893557
 21
9.752724967999677
 31
0.0
  0
LINE
  5
5C
330
1C
100
AcDbEntity
  8
0
 62
     0
100
AcDbLine
 10
32.62366396611092
 20
7.167819843395203
 30
0.0
 11
32.74866396611092
 21
7.292819843395203
 31
0.0
  0
LINE
  5
5D
330
1C
100
AcDbEntity
  8
0
 62
     0
100
AcDbLine
 10
34.00232148082068
 20
8.546477358104972
 30
0.0
 11
34.12906612457133
 21
8.673222001855611
 31
0.0
  0
LINE
  5
5E
330
1C
100
AcDbEntity
  8
0
 62
     0
100
AcDbLine
 10
33.68432413789074
 20
7.167819843395203
 30
0.0
 11
33.80932413789074
 21
7.292819843395203
 31
0.0
  0
LINE
  5
5F
330
1C
100
AcDbEntity
  8
0
 62
     0
100
AcDbLine
 10
33.98302996565308
 20
7.466525671157546
 30
0.0
 11
34.11022333020709
 21
7.593719035711545
 31
0.0
  0
LINE
  5
60
330
1C
100
AcDbEntity
  8
0
 62
     0
100
AcDbLine
 10
30.64733023789167
 20
8.196689935515411
 30
0.0
 11
30.76981732063308
 21
8.319177018256832
 31
0.0
  0
LINE
  5
61
330
1C
100
AcDbEntity
  8
0
 62
     0
100
AcDbLine
 10
30.62913396288811
 20
9.239153832291679
 30
0.0
 11
30.7512029305216
 21
9.361222799925169
 31
0.0
  0
LINE
  5
62
330
1C
100
AcDbEntity
  8
0
 62
     0
100
AcDbLine
 10
30.52824901677162
 20
10.19892905795501
 30
0.0
 11
30.73258854041011
 21
10.4032685815935
 31
0.0
  0
LINE
  5
63
330
1C
100
AcDbEntity
  8
0
 62
     0
100
AcDbLine
 10
30.72577529986804
 20
7.214474825711959
 30
0.0
 11
30.81472098834438
 21
7.303420514188306
 31
0.0
  0
LINE
  5
64
330
1C
100
AcDbEntity
  8
0
 62
     0
100
AcDbLine
 10
34.03768925863336
 20
10.52638878447728
 30
0.0
 11
34.14471660453366
 21
10.63341613037759
 31
0.0
  0
LINE
  5
65
330
1C
100
AcDbEntity
  8
0
 62
     0
100
AcDbLine
 10
31.7397804893311
 20
7.167819843395203
 30
0.0
 11
31.8647804893311
 21
7.292819843395203
 31
0.0
  0
LINE
  5
66
330
1C
100
AcDbEntity
  8
0
 62
     0
100
AcDbLine
 10
34.01839774346576
 20
9.446437097529859
 30
0.0
 11
34.14476845321347
 21
9.57280780727757
 31
0.0
  0
LINE
  5
67
330
1C
100
AcDbEntity
  8
0
 62
     0
100
AcDbLine
 10
32.80044066111092
 20
7.167819843395203
 30
0.0
 11
32.92544066111092
 21
7.292819843395203
 31
0.0
  0
LINE
  5
68
330
1C
100
AcDbEntity
  8
0
 62
     0
100
AcDbLine
 10
33.99910622829815
 20
8.366485410582431
 30
0.0
 11
34.12592565884922
 21
8.493304841133504
 31
0.0
  0
LINE
  5
69
330
1C
100
AcDbEntity
  8
0
 62
     0
100
AcDbLine
 10
33.86110083289074
 20
7.167819843395203
 30
0.0
 11
34.10708286448498
 21
7.413801874989439
 31
0.0
  0
LINE
  5
6A
330
1C
100
AcDbEntity
  8
0
 62
     0
100
AcDbLine
 10
30.65036295040432
 20
8.02294595202807
 30
0.0
 11
30.77291971899734
 21
8.14550272062109
 31
0.0
  0
LINE
  5
6B
330
1C
100
AcDbEntity
  8
0
 62
     0
100
AcDbLine
 10
30.63216667540077
 20
9.065409848804337
 30
0.0
 11
30.75430532888586
 21
9.187548502289425
 31
0.0
  0
LINE
  5
6C
330
1C
100
AcDbEntity
  8
0
 62
     0
100
AcDbLine
 10
30.61397040039722
 20
10.1078737455806
 30
0.0
 11
30.73569093877437
 21
10.22959428395776
 31
0.0
  0
LINE
  5
6D
330
1C
100
AcDbEntity
  8
0
 62
     0
100
AcDbLine
 10
30.85589701355127
 20
7.167819843395203
 30
0.0
 11
30.98089701355128
 21
7.292819843395203
 31
0.0
  0
LINE
  5
6E
330
1C
100
AcDbEntity
  8
0
 62
     0
100
AcDbLine
 10
34.03447400609263
 20
10.34639683593656
 30
0.0
 11
34.15607337563016
 21
10.46799620547408
 31
0.0
  0
LINE
  5
6F
330
1C
100
AcDbEntity
  8
0
 62
     0
100
AcDbLine
 10
31.9165571853311
 20
7.167819843395203
 30
0.0
 11
32.04155718533109
 21
7.292819843395203
 31
0.0
  0
LINE
  5
70
330
1C
100
AcDbEntity
  8
0
 62
     0
100
AcDbLine
 10
34.01518249092503
 20
9.266445148989133
 30
0.0
 11
34.1416279874736
 21
9.392890645537702
 31
0.0
  0
LINE
  5
71
330
1C
100
AcDbEntity
  8
0
 62
     0
100
AcDbLine
 10
32.97721735711092
 20
7.167819843395203
 30
0.0
 11
33.10221735711092
 21
7.292819843395203
 31
0.0
  0
LINE
  5
72
330
1C
100
AcDbEntity
  8
0
 62
     0
100
AcDbLine
 10
33.99589097575742
 20
8.186493462041706
 30
0.0
 11
34.12278519310935
 21
8.313387679393636
 31
0.0
  0
LINE
  5
73
330
1C
100
AcDbEntity
  8
0
 62
     0
100
AcDbLine
 10
30.65339566289983
 20
7.849201969523575
 30
0.0
 11
30.77602211734405
 21
7.9718284239678
 31
0.0
  0
LINE
  5
74
330
1C
100
AcDbEntity
  8
0
 62
     0
100
AcDbLine
 10
30.63519938789627
 20
8.89166586629984
 30
0.0
 11
30.75740772723257
 21
9.013874205636135
 31
0.0
  0
LINE
  5
75
330
1C
100
AcDbEntity
  8
0
 62
     0
100
AcDbLine
 10
30.61700311289272
 20
9.934129763076109
 30
0.0
 11
30.73879333712108
 21
10.05591998730447
 31
0.0
  0
LINE
  5
76
330
1C
100
AcDbEntity
  8
0
 62
     0
100
AcDbLine
 10
31.03267370855127
 20
7.167819843395203
 30
0.0
 11
31.15767370855127
 21
7.292819843395203
 31
0.0
  0
LINE
  5
77
330
1C
100
AcDbEntity
  8
0
 62
     0
100
AcDbLine
 10
34.03125875357009
 20
10.16640488841402
 30
0.0
 11
34.28267370855127
 21
10.4178198433952
 31
0.0
  0
LINE
  5
78
330
1C
100
AcDbEntity
  8
0
 62
     0
100
AcDbLine
 10
32.0933338803311
 20
7.167819843395203
 30
0.0
 11
32.2183338803311
 21
7.292819843395203
 31
0.0
  0
LINE
  5
79
330
1C
100
AcDbEntity
  8
0
 62
     0
100
AcDbLine
 10
34.01196723840249
 20
9.086453201466596
 30
0.0
 11
34.13848752175149
 21
9.2129734848156
 31
0.0
  0
LINE
  5
7A
330
1C
100
AcDbEntity
  8
0
 62
     0
100
AcDbLine
 10
33.15399405211092
 20
7.167819843395203
 30
0.0
 11
33.27899405211092
 21
7.292819843395203
 31
0.0
  0
LINE
  5
7B
330
1C
100
AcDbEntity
  8
0
 62
     0
100
AcDbLine
 10
33.99267572323488
 20
8.00650151451917
 30
0.0
 11
34.11964472738725
 21
8.133470518671535
 31
0.0
  0
ENDBLK
  5
7C
330
1C
100
AcDbEntity
  8
0
100
AcDbBlockEnd
  0
BLOCK
  5
7D
330
1D
100
AcDbEntity
  8
0
100
AcDbBlockBegin
  2
*X1
 70
     1
 10
0.0
 20
0.0
 30
0.0
  3
*X1
  1

  0
LINE
  5
7E
330
1D
100
AcDbEntity
  8
0
 62
     0
100
AcDbLine
 10
31.49358702779765
 20
10.9328198433952
 30
0.0
 11
31.36858702779765
 21
11.0578198433952
 31
0.0
  0
LINE
  5
7F
330
1D
100
AcDbEntity
  8
0
 62
     0
100
AcDbLine
 10
30.62042685601783
 20
10.7453198433952
 30
0.0
 11
30.51153798370435
 21
10.85420871570868
 31
0.0
  0
LINE
  5
80
330
1D
100
AcDbEntity
  8
0
 62
     0
100
AcDbLine
 10
32.55424719957747
 20
10.9328198433952
 30
0.0
 11
32.42924719957747
 21
11.0578198433952
 31
0.0
  0
LINE
  5
81
330
1D
100
AcDbEntity
  8
0
 62
     0
100
AcDbLine
 10
33.80240737135729
 20
10.7453198433952
 30
0.0
 11
33.48990737135729
 21
11.0578198433952
 31
0.0
  0
LINE
  5
82
330
1D
100
AcDbEntity
  8
0
 62
     0
100
AcDbLine
 10
31.67036372279766
 20
10.9328198433952
 30
0.0
 11
31.54536372279765
 21
11.0578198433952
 31
0.0
  0
LINE
  5
83
330
1D
100
AcDbEntity
  8
0
 62
     0
100
AcDbLine
 10
30.79720355101783
 20
10.7453198433952
 30
0.0
 11
30.67220355101783
 21
10.8703198433952
 31
0.0
  0
LINE
  5
84
330
1D
100
AcDbEntity
  8
0
 62
     0
100
AcDbLine
 10
32.73102389457748
 20
10.9328198433952
 30
0.0
 11
32.60602389457747
 21
11.0578198433952
 31
0.0
  0
LINE
  5
85
330
1D
100
AcDbEntity
  8
0
 62
     0
100
AcDbLine
 10
34.29023876097627
 20
10.43426514877623
 30
0.0
 11
34.16063676656646
 21
10.56386714318604
 31
0.0
  0
LINE
  5
86
330
1D
100
AcDbEntity
  8
0
 62
     0
100
AcDbLine
 10
33.9791840663573
 20
10.7453198433952
 30
0.0
 11
33.8541840663573
 21
10.8703198433952
 31
0.0
  0
LINE
  5
87
330
1D
100
AcDbEntity
  8
0
 62
     0
100
AcDbLine
 10
31.84714041879765
 20
10.9328198433952
 30
0.0
 11
31.72214041879765
 21
11.0578198433952
 31
0.0
  0
LINE
  5
88
330
1D
100
AcDbEntity
  8
0
 62
     0
100
AcDbLine
 10
30.97398024701783
 20
10.7453198433952
 30
0.0
 11
30.84898024701783
 21
10.8703198433952
 31
0.0
  0
LINE
  5
89
330
1D
100
AcDbEntity
  8
0
 62
     0
100
AcDbLine
 10
32.90780059057747
 20
10.9328198433952
 30
0.0
 11
32.78280059057747
 21
11.0578198433952
 31
0.0
  0
LINE
  5
8A
330
1D
100
AcDbEntity
  8
0
 62
     0
100
AcDbLine
 10
34.28384221025029
 20
10.61743839550221
 30
0.0
 11
34.0309607623573
 21
10.8703198433952
 31
0.0
  0
LINE
  5
8B
330
1D
100
AcDbEntity
  8
0
 62
     0
100
AcDbLine
 10
32.02391711379764
 20
10.9328198433952
 30
0.0
 11
31.89891711379765
 21
11.0578198433952
 31
0.0
  0
LINE
  5
8C
330
1D
100
AcDbEntity
  8
0
 62
     0
100
AcDbLine
 10
31.07453643473339
 20
10.82154035067963
 30
0.0
 11
30.98614808708508
 21
10.90992869832795
 31
0.0
  0
LINE
  5
8D
330
1D
100
AcDbEntity
  8
0
 62
     0
100
AcDbLine
 10
33.08457728557747
 20
10.9328198433952
 30
0.0
 11
32.95957728557747
 21
11.0578198433952
 31
0.0
  0
LINE
  5
8E
330
1D
100
AcDbEntity
  8
0
 62
     0
100
AcDbLine
 10
34.2774456595605
 20
10.80061164119199
 30
0.0
 11
34.20773745735729
 21
10.8703198433952
 31
0.0
  0
ENDBLK
  5
8F
330
1D
100
AcDbEntity
  8
0
100
AcDbBlockEnd
  0
BLOCK
  5
90
330
1E
100
AcDbEntity
  8
0
100
AcDbBlockBegin
  2
*X2
 70
     1
 10
0.0
 20
0.0
 30
0.0
  3
*X2
  1

  0
LINE
  5
91
330
1E
100
AcDbEntity
  8
0
 62
     0
100
AcDbLine
 10
30.613379993703
 20
10.703125
 30
0.0
 11
30.75170860639417
 21
10.703125
 31
0.0
  0
LINE
  5
92
330
1E
100
AcDbEntity
  8
0
 62
     0
100
AcDbLine
 10
34.01374750115298
 20
10.703125
 30
0.0
 11
34.15411012282264
 21
10.703125
 31
0.0
  0
LINE
  5
93
330
1E
100
AcDbEntity
  8
0
 62
     0
100
AcDbLine
 10
30.61392563072631
 20
10.71875
 30
0.0
 11
30.75021142690554
 21
10.71875
 31
0.0
  0
LINE
  5
94
330
1E
100
AcDbEntity
  8
0
 62
     0
100
AcDbLine
 10
34.01515066774618
 20
10.71875
 30
0.0
 11
34.15379381904747
 21
10.71875
 31
0.0
  0
LINE
  5
95
330
1E
100
AcDbEntity
  8
0
 62
     0
100
AcDbLine
 10
30.61447126774962
 20
10.734375
 30
0.0
 11
30.74359474852303
 21
10.734375
 31
0.0
  0
LINE
  5
96
330
1E
100
AcDbEntity
  8
0
 62
     0
100
AcDbLine
 10
34.02164824122045
 20
10.734375
 30
0.0
 11
34.1534775152723
 21
10.734375
 31
0.0
  0
LINE
  5
97
330
1E
100
AcDbEntity
  8
0
 62
     0
100
AcDbLine
 10
30.6128343566797
 20
10.6875
 30
0.0
 11
30.74854355399683
 21
10.6875
 31
0.0
  0
LINE
  5
98
330
1E
100
AcDbEntity
  8
0
 62
     0
100
AcDbLine
 10
34.01701143035953
 20
10.6875
 30
0.0
 11
34.15442642659781
 21
10.6875
 31
0.0
  0
LINE
  5
99
330
1E
100
AcDbEntity
  8
0
 62
     0
100
AcDbLine
 10
30.61228871965639
 20
10.671875
 30
0.0
 11
30.7396663303601
 21
10.671875
 31
0.0
  0
LINE
  5
9A
330
1E
100
AcDbEntity
  8
0
 62
     0
100
AcDbLine
 10
34.02603252262253
 20
10.671875
 30
0.0
 11
34.15474273037297
 21
10.671875
 31
0.0
  0
ENDBLK
  5
9B
330
1E
100
AcDbEntity
  8
0
100
AcDbBlockEnd
  0
BLOCK
  5
9C
330
1F
100
AcDbEntity
  8
0
100
AcDbBlockBegin
  2
*X3
 70
     1
 10
0.0
 20
0.0
 30
0.0
  3
*X3
  1

  0
LINE
  5
9D
330
1F
100
AcDbEntity
  8
0
 62
     0
100
AcDbLine
 10
30.8125
 20
17.19999667524134
 30
0.0
 11
30.8125
 21
17.33764636558614
 31
0.0
  0
LINE
  5
9E
330
1F
100
AcDbEntity
  8
0
 62
     0
100
AcDbLine
 10
30.8125
 20
23.41317167918358
 30
0.0
 11
30.8125
 21
23.55061548092306
 31
0.0
  0
LINE
  5
9F
330
1F
100
AcDbEntity
  8
0
 62
     0
100
AcDbLine
 10
30.796875
 20
17.20054231226464
 30
0.0
 11
30.796875
 21
17.33321005368787
 31
0.0
  0
LINE
  5
A0
330
1F
100
AcDbEntity
  8
0
 62
     0
100
AcDbLine
 10
30.796875
 20
23.41800843342755
 30
0.0
 11
30.796875
 21
23.55006984389975
 31
0.0
  0
LINE
  5
A1
330
1F
100
AcDbEntity
  8
0
 62
     0
100
AcDbLine
 10
30.828125
 20
17.19945103821803
 30
0.0
 11
30.828125
 21
17.3373193284087
 31
0.0
  0
LINE
  5
A2
330
1F
100
AcDbEntity
  8
0
 62
     0
100
AcDbLine
 10
30.828125
 20
23.41314689586345
 30
0.0
 11
30.828125
 21
23.55116111794637
 31
0.0
  0
LINE
  5
A3
330
1F
100
AcDbEntity
  8
0
 62
     0
100
AcDbLine
 10
30.84375
 20
17.19890540119472
 30
0.0
 11
30.84375
 21
17.33213130520063
 31
0.0
  0
LINE
  5
A4
330
1F
100
AcDbEntity
  8
0
 62
     0
100
AcDbLine
 10
30.84375
 20
23.4179266927909
 30
0.0
 11
30.84375
 21
23.55170675496968
 31
0.0
  0
ENDBLK
  5
A5
330
1F
100
AcDbEntity
  8
0
100
AcDbBlockEnd
  0
BLOCK
  5
A6
330
20
100
AcDbEntity
  8
0
100
AcDbBlockBegin
  2
*X4
 70
     1
 10
0.0
 20
0.0
 30
0.0
  3
*X4
  1

  0
LINE
  5
A7
330
20
100
AcDbEntity
  8
0
 62
     0
100
AcDbLine
 10
30.46906404842052
 20
21.98378267418194
 30
0.0
 11
30.59406404842052
 21
22.10878267418194
 31
0.0
  0
LINE
  5
A8
330
20
100
AcDbEntity
  8
0
 62
     0
100
AcDbLine
 10
30.46906404842052
 20
23.04444284596176
 30
0.0
 11
30.59406404842052
 21
23.16944284596177
 31
0.0
  0
LINE
  5
A9
330
20
100
AcDbEntity
  8
0
 62
     0
100
AcDbLine
 10
30.46906404842052
 20
24.10510301774158
 30
0.0
 11
30.78156404842052
 21
24.41760301774159
 31
0.0
  0
LINE
  5
AA
330
20
100
AcDbEntity
  8
0
 62
     0
100
AcDbLine
 10
30.46906404842052
 20
20.92312250240212
 30
0.0
 11
30.59406404842052
 21
21.04812250240212
 31
0.0
  0
LINE
  5
AB
330
20
100
AcDbEntity
  8
0
 62
     0
100
AcDbLine
 10
30.46906404842052
 20
19.8624623306223
 30
0.0
 11
30.59406404842052
 21
19.9874623306223
 31
0.0
  0
LINE
  5
AC
330
20
100
AcDbEntity
  8
0
 62
     0
100
AcDbLine
 10
30.5144596847193
 20
18.84719779514126
 30
0.0
 11
30.60284803236762
 21
18.93558614278958
 31
0.0
  0
LINE
  5
AD
330
20
100
AcDbEntity
  8
0
 62
     0
100
AcDbLine
 10
30.96864521497073
 20
18.24072315361286
 30
0.0
 11
31.0895010299514
 21
18.36157896859354
 31
0.0
  0
LINE
  5
AE
330
20
100
AcDbEntity
  8
0
 62
     0
100
AcDbLine
 10
30.46906404842052
 20
21.80700597918194
 30
0.0
 11
30.59406404842052
 21
21.93200597918194
 31
0.0
  0
LINE
  5
AF
330
20
100
AcDbEntity
  8
0
 62
     0
100
AcDbLine
 10
30.46906404842052
 20
22.86766615096176
 30
0.0
 11
30.59406404842052
 21
22.99266615096176
 31
0.0
  0
LINE
  5
B0
330
20
100
AcDbEntity
  8
0
 62
     0
100
AcDbLine
 10
30.46906404842052
 20
23.92832632274158
 30
0.0
 11
30.59406404842052
 21
24.05332632274159
 31
0.0
  0
LINE
  5
B1
330
20
100
AcDbEntity
  8
0
 62
     0
100
AcDbLine
 10
30.46906404842052
 20
20.74634580740212
 30
0.0
 11
30.59406404842052
 21
20.87134580740212
 31
0.0
  0
LINE
  5
B2
330
20
100
AcDbEntity
  8
0
 62
     0
100
AcDbLine
 10
30.46906404842052
 20
19.6856856356223
 30
0.0
 11
30.59406404842052
 21
19.8106856356223
 31
0.0
  0
LINE
  5
B3
330
20
100
AcDbEntity
  8
0
 62
     0
100
AcDbLine
 10
30.6028480322193
 20
18.75880944764126
 30
0.0
 11
30.69123637986762
 21
18.84719779528958
 31
0.0
  0
LINE
  5
B4
330
20
100
AcDbEntity
  8
0
 62
     0
100
AcDbLine
 10
30.46906404842052
 20
21.63022928318194
 30
0.0
 11
30.59406404842052
 21
21.75522928318194
 31
0.0
  0
LINE
  5
B5
330
20
100
AcDbEntity
  8
0
 62
     0
100
AcDbLine
 10
30.46906404842052
 20
22.69088945496176
 30
0.0
 11
30.59406404842052
 21
22.81588945496176
 31
0.0
  0
LINE
  5
B6
330
20
100
AcDbEntity
  8
0
 62
     0
100
AcDbLine
 10
30.46906404842052
 20
23.75154962674158
 30
0.0
 11
30.59406404842052
 21
23.87654962674158
 31
0.0
  0
LINE
  5
B7
330
20
100
AcDbEntity
  8
0
 62
     0
100
AcDbLine
 10
30.46906404842052
 20
20.56956911140212
 30
0.0
 11
30.59406404842052
 21
20.69456911140212
 31
0.0
  0
LINE
  5
B8
330
20
100
AcDbEntity
  8
0
 62
     0
100
AcDbLine
 10
30.46906404842052
 20
19.50890893962229
 30
0.0
 11
30.59406404842052
 21
19.6339089396223
 31
0.0
  0
LINE
  5
B9
330
20
100
AcDbEntity
  8
0
 62
     0
100
AcDbLine
 10
30.65656404842052
 20
18.63574876784248
 30
0.0
 11
30.77962472786762
 21
18.75880944728958
 31
0.0
  0
LINE
  5
BA
330
20
100
AcDbEntity
  8
0
 62
     0
100
AcDbLine
 10
30.46906404842052
 20
21.45345258818194
 30
0.0
 11
30.59406404842052
 21
21.57845258818194
 31
0.0
  0
LINE
  5
BB
330
20
100
AcDbEntity
  8
0
 62
     0
100
AcDbLine
 10
30.46906404842052
 20
22.51411275996176
 30
0.0
 11
30.59406404842052
 21
22.63911275996176
 31
0.0
  0
LINE
  5
BC
330
20
100
AcDbEntity
  8
0
 62
     0
100
AcDbLine
 10
30.46906404842052
 20
23.57477293174158
 30
0.0
 11
30.59406404842052
 21
23.69977293174159
 31
0.0
  0
LINE
  5
BD
330
20
100
AcDbEntity
  8
0
 62
     0
100
AcDbLine
 10
30.46906404842052
 20
20.39279241640212
 30
0.0
 11
30.59406404842052
 21
20.51779241640212
 31
0.0
  0
LINE
  5
BE
330
20
100
AcDbEntity
  8
0
 62
     0
100
AcDbLine
 10
30.46906404842052
 20
19.3321322446223
 30
0.0
 11
30.59406404842052
 21
19.4571322446223
 31
0.0
  0
LINE
  5
BF
330
20
100
AcDbEntity
  8
0
 62
     0
100
AcDbLine
 10
30.65656404842052
 20
18.45897207284248
 30
0.0
 11
30.78156404842051
 21
18.58397207284247
 31
0.0
  0
ENDBLK
  5
C0
330
20
100
AcDbEntity
  8
0
100
AcDbBlockEnd
  0
BLOCK
  5
C1
330
21
100
AcDbEntity
  8
0
100
AcDbBlockBegin
  2
*X5
 70
     1
 10
0.0
 20
0.0
 30
0.0
  3
*X5
  1

  0
LINE
  5
C2
330
21
100
AcDbEntity
  8
0
 62
     0
100
AcDbLine
 10
34.35906404842052
 20
19.73460471235036
 30
0.0
 11
34.23406404842052
 21
19.85960471235036
 31
0.0
  0
LINE
  5
C3
330
21
100
AcDbEntity
  8
0
 62
     0
100
AcDbLine
 10
34.35906404842052
 20
18.67394454057054
 30
0.0
 11
34.23406404842052
 21
18.79894454057054
 31
0.0
  0
LINE
  5
C4
330
21
100
AcDbEntity
  8
0
 62
     0
100
AcDbLine
 10
33.56241062303657
 20
18.40993779417468
 30
0.0
 11
33.43983040201287
 21
18.53251801519837
 31
0.0
  0
LINE
  5
C5
330
21
100
AcDbEntity
  8
0
 62
     0
100
AcDbLine
 10
32.5199467262603
 20
18.39174151917112
 30
0.0
 11
32.39778462034453
 21
18.51390362508688
 31
0.0
  0
LINE
  5
C6
330
21
100
AcDbEntity
  8
0
 62
     0
100
AcDbLine
 10
31.47748282948403
 20
18.37354524416756
 30
0.0
 11
31.3557388386762
 21
18.4952892349754
 31
0.0
  0
LINE
  5
C7
330
21
100
AcDbEntity
  8
0
 62
     0
100
AcDbLine
 10
34.35906404842052
 20
20.79526488413018
 30
0.0
 11
34.23406404842052
 21
20.92026488413019
 31
0.0
  0
LINE
  5
C8
330
21
100
AcDbEntity
  8
0
 62
     0
100
AcDbLine
 10
34.35906404842052
 20
21.85592505591001
 30
0.0
 11
34.23406404842052
 21
21.98092505591001
 31
0.0
  0
LINE
  5
C9
330
21
100
AcDbEntity
  8
0
 62
     0
100
AcDbLine
 10
31.61726316740551
 20
24.59772593692502
 30
0.0
 11
31.49108491083109
 21
24.72390419349944
 31
0.0
  0
LINE
  5
CA
330
21
100
AcDbEntity
  8
0
 62
     0
100
AcDbLine
 10
34.35906404842052
 20
22.91658522768983
 30
0.0
 11
34.23406404842052
 21
23.04158522768982
 31
0.0
  0
LINE
  5
CB
330
21
100
AcDbEntity
  8
0
 62
     0
100
AcDbLine
 10
32.69721485435294
 20
24.57843442175742
 30
0.0
 11
32.57058787697515
 21
24.7050613991352
 31
0.0
  0
LINE
  5
CC
330
21
100
AcDbEntity
  8
0
 62
     0
100
AcDbLine
 10
34.35906404842052
 20
23.97724539946965
 30
0.0
 11
34.23406404842052
 21
24.10224539946965
 31
0.0
  0
LINE
  5
CD
330
21
100
AcDbEntity
  8
0
 62
     0
100
AcDbLine
 10
33.77716654130037
 20
24.55914290658981
 30
0.0
 11
33.65009084311922
 21
24.68621860477095
 31
0.0
  0
LINE
  5
CE
330
21
100
AcDbEntity
  8
0
 62
     0
100
AcDbLine
 10
34.35906404842052
 20
18.85072123557054
 30
0.0
 11
34.23406404842052
 21
18.97572123557054
 31
0.0
  0
LINE
  5
CF
330
21
100
AcDbEntity
  8
0
 62
     0
100
AcDbLine
 10
33.73615460554107
 20
18.41297050667018
 30
0.0
 11
33.61350469866617
 21
18.53562041354508
 31
0.0
  0
LINE
  5
D0
330
21
100
AcDbEntity
  8
0
 62
     0
100
AcDbLine
 10
32.6936907087648
 20
18.39477423166663
 30
0.0
 11
32.57145891699783
 21
18.51700602343359
 31
0.0
  0
LINE
  5
D1
330
21
100
AcDbEntity
  8
0
 62
     0
100
AcDbLine
 10
31.65122681198853
 20
18.37657795666307
 30
0.0
 11
31.52941313532949
 21
18.49839163332211
 31
0.0
  0
LINE
  5
D2
330
21
100
AcDbEntity
  8
0
 62
     0
100
AcDbLine
 10
34.35906404842052
 20
19.91138140735036
 30
0.0
 11
34.23406404842052
 21
20.03638140735036
 31
0.0
  0
LINE
  5
D3
330
21
100
AcDbEntity
  8
0
 62
     0
100
AcDbLine
 10
34.35906404842052
 20
20.97204157913019
 30
0.0
 11
34.23406404842052
 21
21.09704157913018
 31
0.0
  0
LINE
  5
D4
330
21
100
AcDbEntity
  8
0
 62
     0
100
AcDbLine
 10
34.35906404842052
 20
22.03270175091001
 30
0.0
 11
34.23406404842052
 21
22.15770175091001
 31
0.0
  0
LINE
  5
D5
330
21
100
AcDbEntity
  8
0
 62
     0
100
AcDbLine
 10
31.79725511492805
 20
24.59451068440249
 30
0.0
 11
31.6710020715532
 21
24.72076372777734
 31
0.0
  0
LINE
  5
D6
330
21
100
AcDbEntity
  8
0
 62
     0
100
AcDbLine
 10
34.35906404842052
 20
23.09336192268983
 30
0.0
 11
34.23406404842052
 21
23.21836192268983
 31
0.0
  0
LINE
  5
D7
330
21
100
AcDbEntity
  8
0
 62
     0
100
AcDbLine
 10
32.87720680187548
 20
24.57521916923488
 30
0.0
 11
32.75050503769727
 21
24.70192093341309
 31
0.0
  0
LINE
  5
D8
330
21
100
AcDbEntity
  8
0
 62
     0
100
AcDbLine
 10
34.35906404842052
 20
24.15402209446965
 30
0.0
 11
34.23406404842052
 21
24.27902209446965
 31
0.0
  0
LINE
  5
D9
330
21
100
AcDbEntity
  8
0
 62
     0
100
AcDbLine
 10
33.95715848882291
 20
24.55592765406727
 30
0.0
 11
33.83000800384134
 21
24.68307813904884
 31
0.0
  0
LINE
  5
DA
330
21
100
AcDbEntity
  8
0
 62
     0
100
AcDbLine
 10
34.35906404842052
 20
19.02749793157054
 30
0.0
 11
34.23406404842052
 21
19.15249793157054
 31
0.0
  0
LINE
  5
DB
330
21
100
AcDbEntity
  8
0
 62
     0
100
AcDbLine
 10
33.9098985890284
 20
18.41600321918284
 30
0.0
 11
33.78717899630191
 21
18.53872281190933
 31
0.0
  0
LINE
  5
DC
330
21
100
AcDbEntity
  8
0
 62
     0
100
AcDbLine
 10
32.86743469225214
 20
18.39780694417928
 30
0.0
 11
32.74513321463357
 21
18.52010842179785
 31
0.0
  0
LINE
  5
DD
330
21
100
AcDbEntity
  8
0
 62
     0
100
AcDbLine
 10
31.82497079547587
 20
18.37961066917573
 30
0.0
 11
31.70308743296523
 21
18.50149403168637
 31
0.0
  0
LINE
  5
DE
330
21
100
AcDbEntity
  8
0
 62
     0
100
AcDbLine
 10
34.35906404842052
 20
20.08815810335036
 30
0.0
 11
34.23406404842052
 21
20.21315810335036
 31
0.0
  0
LINE
  5
DF
330
21
100
AcDbEntity
  8
0
 62
     0
100
AcDbLine
 10
34.35906404842052
 20
21.14881827513019
 30
0.0
 11
34.23406404842052
 21
21.27381827513019
 31
0.0
  0
LINE
  5
E0
330
21
100
AcDbEntity
  8
0
 62
     0
100
AcDbLine
 10
30.89729537652135
 20
24.61058694702936
 30
0.0
 11
30.85819119262898
 21
24.64969113092173
 31
0.0
  0
LINE
  5
E1
330
21
100
AcDbEntity
  8
0
 62
     0
100
AcDbLine
 10
34.35906404842052
 20
22.20947844691
 30
0.0
 11
34.23406404842052
 21
22.33447844691001
 31
0.0
  0
LINE
  5
E2
330
21
100
AcDbEntity
  8
0
 62
     0
100
AcDbLine
 10
31.97724706346878
 20
24.59129543186176
 30
0.0
 11
31.85091923329306
 21
24.71762326203747
 31
0.0
  0
LINE
  5
E3
330
21
100
AcDbEntity
  8
0
 62
     0
100
AcDbLine
 10
34.35906404842052
 20
23.27013861868983
 30
0.0
 11
34.23406404842052
 21
23.39513861868983
 31
0.0
  0
LINE
  5
E4
330
21
100
AcDbEntity
  8
0
 62
     0
100
AcDbLine
 10
33.05719875041621
 20
24.57200391669415
 30
0.0
 11
32.93042219943713
 21
24.69878046767322
 31
0.0
  0
LINE
  5
E5
330
21
100
AcDbEntity
  8
0
 62
     0
100
AcDbLine
 10
34.35906404842052
 20
24.33079879046965
 30
0.0
 11
34.23406404842052
 21
24.45579879046965
 31
0.0
  0
LINE
  5
E6
330
21
100
AcDbEntity
  8
0
 62
     0
100
AcDbLine
 10
34.13715043736363
 20
24.55271240152655
 30
0.0
 11
34.0099251655812
 21
24.67993767330897
 31
0.0
  0
LINE
  5
E7
330
21
100
AcDbEntity
  8
0
 62
     0
100
AcDbLine
 10
34.35906404842052
 20
19.20427462657054
 30
0.0
 11
34.23406404842052
 21
19.32927462657054
 31
0.0
  0
LINE
  5
E8
330
21
100
AcDbEntity
  8
0
 62
     0
100
AcDbLine
 10
34.08364257153291
 20
18.41903593167834
 30
0.0
 11
33.9608532929552
 21
18.54182521025604
 31
0.0
  0
LINE
  5
E9
330
21
100
AcDbEntity
  8
0
 62
     0
100
AcDbLine
 10
33.04117867475664
 20
18.40083965667479
 30
0.0
 11
32.91880751128686
 21
18.52321082014456
 31
0.0
  0
LINE
  5
EA
330
21
100
AcDbEntity
  8
0
 62
     0
100
AcDbLine
 10
31.99871477798037
 20
18.38264338167123
 30
0.0
 11
31.87676172961853
 21
18.50459643003307
 31
0.0
  0
LINE
  5
EB
330
21
100
AcDbEntity
  8
0
 62
     0
100
AcDbLine
 10
30.94212226434166
 20
18.37857572353012
 30
0.0
 11
30.8569940259235
 21
18.46370396194828
 31
0.0
  0
LINE
  5
EC
330
21
100
AcDbEntity
  8
0
 62
     0
100
AcDbLine
 10
34.35906404842052
 20
20.26493479835036
 30
0.0
 11
34.23406404842052
 21
20.38993479835037
 31
0.0
  0
LINE
  5
ED
330
21
100
AcDbEntity
  8
0
 62
     0
100
AcDbLine
 10
34.35906404842052
 20
21.32559497013019
 30
0.0
 11
34.23406404842052
 21
21.45059497013019
 31
0.0
  0
LINE
  5
EE
330
21
100
AcDbEntity
  8
0
 62
     0
100
AcDbLine
 10
31.07728732404389
 20
24.60737169450682
 30
0.0
 11
30.9640429334032
 21
24.72061608514751
 31
0.0
  0
LINE
  5
EF
330
21
100
AcDbEntity
  8
0
 62
     0
100
AcDbLine
 10
34.35906404842052
 20
22.38625514191001
 30
0.0
 11
34.23406404842052
 21
22.51125514191001
 31
0.0
  0
LINE
  5
F0
330
21
100
AcDbEntity
  8
0
 62
     0
100
AcDbLine
 10
32.15723901099132
 20
24.58808017933922
 30
0.0
 11
32.03083639401517
 21
24.71448279631536
 31
0.0
  0
LINE
  5
F1
330
21
100
AcDbEntity
  8
0
 62
     0
100
AcDbLine
 10
34.35906404842052
 20
23.44691531368983
 30
0.0
 11
34.23406404842052
 21
23.57191531368983
 31
0.0
  0
LINE
  5
F2
330
21
100
AcDbEntity
  8
0
 62
     0
100
AcDbLine
 10
33.23719069793874
 20
24.56878866417161
 30
0.0
 11
33.11033936015924
 21
24.69564000195112
 31
0.0
  0
LINE
  5
F3
330
21
100
AcDbEntity
  8
0
 62
     0
100
AcDbLine
 10
34.35810422629695
 20
24.50853530759323
 30
0.0
 11
34.1905116614079
 21
24.67612787248227
 31
0.0
  0
ENDBLK
  5
F4
330
21
100
AcDbEntity
  8
0
100
AcDbBlockEnd
  0
BLOCK
  5
F5
330
22
100
AcDbEntity
  8
0
100
AcDbBlockBegin
  2
*D6
 70
     1
 10
0.0
 20
0.0
 30
0.0
  3
*D6
  1

  0
LINE
  5
F6
330
22
100
AcDbEntity
  8
0
  6
ByBlock
 62
     0
440
 16777216
100
AcDbLine
 10
31.27956592744896
 20
12.10682547472034
 30
0.0
 11
31.44313059093658
 21
12.10682547472034
 31
0.0
  0
LINE
  5
F7
330
22
100
AcDbEntity
  8
0
  6
ByBlock
 62
     0
440
 16777216
100
AcDbLine
 10
31.22778923215232
 20
12.23182547472034
 30
0.0
 11
31.44313059093658
 21
12.23182547472034
 31
0.0
  0
LINE
  5
F8
330
22
100
AcDbEntity
  8
0
  6
ByBlock
 62
     0
440
 16777216
100
AcDbLine
 10
31.26313059093658
 20
12.41182547472034
 30
0.0
 11
31.26313059093658
 21
12.59182547472034
 31
0.0
  0
LINE
  5
F9
330
22
100
AcDbEntity
  8
0
  6
ByBlock
 62
     0
440
 16777216
100
AcDbLine
 10
31.26313059093658
 20
11.92682547472034
 30
0.0
 11
31.26313059093658
 21
11.74682547472034
 31
0.0
  0
LINE
  5
FA
330
22
100
AcDbEntity
  8
0
  6
ByBlock
 62
     0
440
 16777216
100
AcDbLine
 10
31.26313059093658
 20
12.59182547472034
 30
0.0
 11
31.44313059093658
 21
12.59182547472034
 31
0.0
  0
SOLID
  5
FB
330
22
100
AcDbEntity
  8
0
  6
ByBlock
 62
     0
440
 16777216
100
AcDbTrace
 10
31.29313059093658
 20
12.41182547472034
 30
0.0
 11
31.23313059093657
 21
12.41182547472034
 31
0.0
 12
31.26313059093658
 22
12.23182547472034
 32
0.0
 13
31.26313059093658
 23
12.23182547472034
 33
0.0
  0
SOLID
  5
FC
330
22
100
AcDbEntity
  8
0
  6
ByBlock
 62
     0
440
 16777216
100
AcDbTrace
 10
31.29313059093658
 20
11.92682547472034
 30
0.0
 11
31.23313059093657
 21
11.92682547472034
 31
0.0
 12
31.26313059093658
 22
12.10682547472034
 32
0.0
 13
31.26313059093658
 23
12.10682547472034
 33
0.0
  0
TEXT
  5
FD
330
22
100
AcDbEntity
  8
0
  6
ByBlock
 62
     0
440
 16777216
100
AcDbText
 10
31.62313059093658
 20
12.50182547472034
 30
0.0
 40
0.18
  1
0.125
100
AcDbText
  0
POINT
  5
FE
330
22
100
AcDbEntity
  8
DEFPOINTS
  6
ByBlock
 62
     0
440
 16777216
100
AcDbPoint
 10
31.18581592744896
 20
12.10682547472034
 30
0.0
  0
POINT
  5
FF
330
22
100
AcDbEntity
  8
DEFPOINTS
  6
ByBlock
 62
     0
440
 16777216
100
AcDbPoint
 10
31.13403923215232
 20
12.23182547472034
 30
0.0
  0
POINT
  5
100
330
22
100
AcDbEntity
  8
DEFPOINTS
  6
ByBlock
 62
     0
440
 16777216
100
AcDbPoint
 10
31.26313059093658
 20
12.23182547472034
 30
0.0
  0
ENDBLK
  5
101
330
22
100
AcDbEntity
  8
0
100
AcDbBlockEnd
  0
BLOCK
  5
3E6
330
2A
100
AcDbEntity
  8
0
100
AcDbBlockBegin
  2
SAAR
 70
     0
 10
0.0
 20
0.0
 30
0.0
  3
SAAR
  1

  0
TEXT
  5
3E7
330
2A
100
AcDbEntity
  8
0
100
AcDbText
 10
0.3487392072179478
 20
0.5116372546807444
 30
0.0
 40
0.156
  1
A
  7
COMPLEX
 72
     1
 11
0.4230249215036617
 21
0.5116372546807444
 31
0.0
100
AcDbText
  0
LINE
  5
3E8
330
2A
100
AcDbEntity
  8
0
100
AcDbLine
 10
0.4374999999999983
 20
0.2292366486465216
 30
0.0
 11
0.451024804847763
 21
0.2292366486465225
 31
0.0
  0
LINE
  5
3E9
330
2A
100
AcDbEntity
  8
0
100
AcDbLine
 10
0.4074999999999998
 20
0.2292366486465216
 30
0.0
 11
0.4074999999999989
 21
0.0149999999999988
 31
0.0
  0
LINE
  5
3EA
330
2A
100
AcDbEntity
  8
0
100
AcDbLine
 10
0.4374999999999992
 20
0.2292366486465216
 30
0.0
 11
0.4374999999999992
 21
-0.017923002649547
 31
0.0
  0
LINE
  5
3EB
330
2A
100
AcDbEntity
  8
0
100
AcDbLine
 10
0.4224999999999995
 20
0.0299999999999994
 30
0.0
 11
-0.0000000000000009
 21
0.0299999999999994
 31
0.0
  0
LINE
  5
3EC
330
2A
100
AcDbEntity
  8
0
100
AcDbLine
 10
0.4571321552628529
 20
0.0
 30
0.0
 11
0.0
 21
0.0
 31
0.0
  0
ARC
  5
3ED
330
2A
100
AcDbEntity
  8
0
100
AcDbCircle
 10
-0.0774898749921995
 20
0.4486009293161688
 30
0.0
 40
0.5
100
AcDbArc
 50
333.9772135427694
 51
0.3646288638273987
  0
LINE
  5
3EE
330
2A
100
AcDbEntity
  8
0
100
AcDbLine
 10
0.4374999999999992
 20
0.2292366486465216
 30
0.0
 11
0.4374999999999992
 21
0.2292366486465216
 31
0.0
  0
ARC
  5
3EF
330
2A
100
AcDbEntity
  8
0
100
AcDbCircle
 10
0.9224898749921965
 20
0.4486009293161688
 30
0.0
 40
0.5
100
AcDbArc
 50
179.6353711361726
 51
206.0227864572306
  0
ARC
  5
3F0
330
2A
100
AcDbEntity
  8
0
100
AcDbCircle
 10
-0.0774898749921995
 20
0.4486009293161688
 30
0.0
 40
0.5200000000000001
100
AcDbArc
 50
335.0482819082217
 51
344.0535702443027
  0
ARC
  5
3F1
330
2A
100
AcDbEntity
  8
0
100
AcDbCircle
 10
0.9224898749921965
 20
0.4486009293161688
 30
0.0
 40
0.5200000000000001
100
AcDbArc
 50
195.9464297556973
 51
204.951718091778
  0
LINE
  5
3F2
330
2A
100
AcDbEntity
  8
0
100
AcDbLine
 10
0.3939751951522217
 20
0.2292366486465216
 30
0.0
 11
0.4074999999999998
 21
0.2292366486465216
 31
0.0
  0
LINE
  5
3F3
330
2A
100
AcDbEntity
  8
0
100
AcDbLine
 10
0.3939751951522217
 20
0.2292366486465216
 30
0.0
 11
0.371819942802035
 21
0.2292366486465216
 31
0.0
  0
LINE
  5
3F4
330
2A
100
AcDbEntity
  8
0
100
AcDbLine
 10
0.451024804847763
 20
0.2292366486465225
 30
0.0
 11
0.4731800571979621
 21
0.2292366486465216
 31
0.0
  0
INSERT
  5
3F5
330
2A
100
AcDbEntity
  8
0
100
AcDbBlockReference
  2
*X8
 10
-3.748701991468968
 20
-6.921648479033177
 30
0.0
  0
ENDBLK
  5
3F6
330
2A
100
AcDbEntity
  8
0
100
AcDbBlockEnd
  0
BLOCK
  5
3F7
330
2B
100
AcDbEntity
  8
0
100
AcDbBlockBegin
  2
*X8
 70
     1
 10
0.0
 20
0.0
 30
0.0
  3
*X8
  1

  0
LINE
  5
3F8
330
2B
100
AcDbEntity
  8
0
 62
     0
100
AcDbLine
 10
4.158042821030212
 20
7.25625
 30
0.0
 11
4.184361161907728
 21
7.25625
 31
0.0
  0
LINE
  5
3F9
330
2B
100
AcDbEntity
  8
0
 62
     0
100
AcDbLine
 10
4.159464167164085
 20
7.2625
 30
0.0
 11
4.182939815773856
 21
7.2625
 31
0.0
  0
LINE
  5
3FA
330
2B
100
AcDbEntity
  8
0
 62
     0
100
AcDbLine
 10
4.160801607892522
 20
7.26875
 30
0.0
 11
4.181602375045417
 21
7.26875
 31
0.0
  0
LINE
  5
3FB
330
2B
100
AcDbEntity
  8
0
 62
     0
100
AcDbLine
 10
4.162055829087108
 20
7.275
 30
0.0
 11
4.180348153850832
 21
7.275
 31
0.0
  0
LINE
  5
3FC
330
2B
100
AcDbEntity
  8
0
 62
     0
100
AcDbLine
 10
4.163227467165616
 20
7.28125
 30
0.0
 11
4.179176515772323
 21
7.28125
 31
0.0
  0
LINE
  5
3FD
330
2B
100
AcDbEntity
  8
0
 62
     0
100
AcDbLine
 10
4.1643171107912
 20
7.2875
 30
0.0
 11
4.178086872146739
 21
7.2875
 31
0.0
  0
LINE
  5
3FE
330
2B
100
AcDbEntity
  8
0
 62
     0
100
AcDbLine
 10
4.165325302419223
 20
7.29375
 30
0.0
 11
4.177078680518715
 21
7.29375
 31
0.0
  0
LINE
  5
3FF
330
2B
100
AcDbEntity
  8
0
 62
     0
100
AcDbLine
 10
4.16625253970155
 20
7.3
 30
0.0
 11
4.17615144323639
 21
7.3
 31
0.0
  0
LINE
  5
400
330
2B
100
AcDbEntity
  8
0
 62
     0
100
AcDbLine
 10
4.167099276757146
 20
7.30625
 30
0.0
 11
4.175304706180795
 21
7.30625
 31
0.0
  0
LINE
  5
401
330
2B
100
AcDbEntity
  8
0
 62
     0
100
AcDbLine
 10
4.167865925316793
 20
7.3125
 30
0.0
 11
4.174538057621145
 21
7.3125
 31
0.0
  0
LINE
  5
402
330
2B
100
AcDbEntity
  8
0
 62
     0
100
AcDbLine
 10
4.16855285574882
 20
7.31875
 30
0.0
 11
4.17385112718912
 21
7.31875
 31
0.0
  0
LINE
  5
403
330
2B
100
AcDbEntity
  8
0
 62
     0
100
AcDbLine
 10
4.169160397971983
 20
7.325
 30
0.0
 11
4.173243584965957
 21
7.325
 31
0.0
  0
LINE
  5
404
330
2B
100
AcDbEntity
  8
0
 62
     0
100
AcDbLine
 10
4.169688842260835
 20
7.33125
 30
0.0
 11
4.172715140677103
 21
7.33125
 31
0.0
  0
LINE
  5
405
330
2B
100
AcDbEntity
  8
0
 62
     0
100
AcDbLine
 10
4.170138439948251
 20
7.3375
 30
0.0
 11
4.172265542989687
 21
7.3375
 31
0.0
  0
LINE
  5
406
330
2B
100
AcDbEntity
  8
0
 62
     0
100
AcDbLine
 10
4.170509404029122
 20
7.34375
 30
0.0
 11
4.171894578908817
 21
7.34375
 31
0.0
  0
LINE
  5
407
330
2B
100
AcDbEntity
  8
0
 62
     0
100
AcDbLine
 10
4.170801909668647
 20
7.35
 30
0.0
 11
4.171602073269292
 21
7.35
 31
0.0
  0
LINE
  5
408
330
2B
100
AcDbEntity
  8
0
 62
     0
100
AcDbLine
 10
4.171016094618071
 20
7.35625
 30
0.0
 11
4.171387888319867
 21
7.35625
 31
0.0
  0
LINE
  5
409
330
2B
100
AcDbEntity
  8
0
 62
     0
100
AcDbLine
 10
4.171152059540171
 20
7.3625
 30
0.0
 11
4.171251923397766
 21
7.3625
 31
0.0
  0
LINE
  5
40A
330
2B
100
AcDbEntity
  8
0
 62
     0
100
AcDbLine
 10
4.17119411469162
 20
7.36875
 30
0.0
 11
4.171209868246319
 21
7.36875
 31
0.0
  0
LINE
  5
40B
330
2B
100
AcDbEntity
  8
0
 62
     0
100
AcDbLine
 10
4.156536832302816
 20
7.25
 30
0.0
 11
4.185867150635123
 21
7.25
 31
0.0
  0
LINE
  5
40C
330
2B
100
AcDbEntity
  8
0
 62
     0
100
AcDbLine
 10
4.154945410438709
 20
7.24375
 30
0.0
 11
4.187458572499231
 21
7.24375
 31
0.0
  0
LINE
  5
40D
330
2B
100
AcDbEntity
  8
0
 62
     0
100
AcDbLine
 10
4.153267709311144
 20
7.2375
 30
0.0
 11
4.189136273626795
 21
7.2375
 31
0.0
  0
LINE
  5
40E
330
2B
100
AcDbEntity
  8
0
 62
     0
100
AcDbLine
 10
4.151502824775956
 20
7.23125
 30
0.0
 11
4.190901158161984
 21
7.23125
 31
0.0
  0
LINE
  5
40F
330
2B
100
AcDbEntity
  8
0
 62
     0
100
AcDbLine
 10
4.149649792014731
 20
7.225
 30
0.0
 11
4.170514238817704
 21
7.225
 31
0.0
  0
LINE
  5
410
330
2B
100
AcDbEntity
  8
0
 62
     0
100
AcDbLine
 10
4.17188974412022
 20
7.225
 30
0.0
 11
4.192754190923209
 21
7.225
 31
0.0
  0
LINE
  5
411
330
2B
100
AcDbEntity
  8
0
 62
     0
100
AcDbLine
 10
4.147707582635473
 20
7.21875
 30
0.0
 11
4.16865349922432
 21
7.21875
 31
0.0
  0
LINE
  5
412
330
2B
100
AcDbEntity
  8
0
 62
     0
100
AcDbLine
 10
4.173750483713604
 20
7.21875
 30
0.0
 11
4.194696400302465
 21
7.21875
 31
0.0
  0
LINE
  5
413
330
2B
100
AcDbEntity
  8
0
 62
     0
100
AcDbLine
 10
4.145675101508724
 20
7.2125
 30
0.0
 11
4.166706944063726
 21
7.2125
 31
0.0
  0
LINE
  5
414
330
2B
100
AcDbEntity
  8
0
 62
     0
100
AcDbLine
 10
4.175697038874197
 20
7.2125
 30
0.0
 11
4.196728881429214
 21
7.2125
 31
0.0
  0
LINE
  5
415
330
2B
100
AcDbEntity
  8
0
 62
     0
100
AcDbLine
 10
4.143551183314425
 20
7.20625
 30
0.0
 11
4.164673557788107
 21
7.20625
 31
0.0
  0
LINE
  5
416
330
2B
100
AcDbEntity
  8
0
 62
     0
100
AcDbLine
 10
4.17773042514982
 20
7.20625
 30
0.0
 11
4.198852799623516
 21
7.20625
 31
0.0
  0
LINE
  5
417
330
2B
100
AcDbEntity
  8
0
 62
     0
100
AcDbLine
 10
4.141334588771703
 20
7.2
 30
0.0
 11
4.162552262360144
 21
7.2
 31
0.0
  0
LINE
  5
418
330
2B
100
AcDbEntity
  8
0
 62
     0
100
AcDbLine
 10
4.179851720577784
 20
7.2
 30
0.0
 11
4.201069394166239
 21
7.2
 31
0.0
  0
LINE
  5
419
330
2B
100
AcDbEntity
  8
0
 62
     0
100
AcDbLine
 10
4.139024000520274
 20
7.19375
 30
0.0
 11
4.160341914027816
 21
7.19375
 31
0.0
  0
LINE
  5
41A
330
2B
100
AcDbEntity
  8
0
 62
     0
100
AcDbLine
 10
4.182062068910108
 20
7.19375
 30
0.0
 11
4.203379982417666
 21
7.19375
 31
0.0
  0
LINE
  5
41B
330
2B
100
AcDbEntity
  8
0
 62
     0
100
AcDbLine
 10
4.136618018618079
 20
7.1875
 30
0.0
 11
4.158041299813144
 21
7.1875
 31
0.0
  0
LINE
  5
41C
330
2B
100
AcDbEntity
  8
0
 62
     0
100
AcDbLine
 10
4.18436268312478
 20
7.1875
 30
0.0
 11
4.20578596431986
 21
7.1875
 31
0.0
  0
LINE
  5
41D
330
2B
100
AcDbEntity
  8
0
 62
     0
100
AcDbLine
 10
4.134115155615204
 20
7.18125
 30
0.0
 11
4.155649133687051
 21
7.18125
 31
0.0
  0
LINE
  5
41E
330
2B
100
AcDbEntity
  8
0
 62
     0
100
AcDbLine
 10
4.186754849250876
 20
7.18125
 30
0.0
 11
4.208288827322737
 21
7.18125
 31
0.0
  0
LINE
  5
41F
330
2B
100
AcDbEntity
  8
0
 62
     0
100
AcDbLine
 10
4.131513831158817
 20
7.175
 30
0.0
 11
4.153164052399043
 21
7.175
 31
0.0
  0
LINE
  5
420
330
2B
100
AcDbEntity
  8
0
 62
     0
100
AcDbLine
 10
4.189239930538879
 20
7.175
 30
0.0
 11
4.210890151779121
 21
7.175
 31
0.0
  0
LINE
  5
421
330
2B
100
AcDbEntity
  8
0
 62
     0
100
AcDbLine
 10
4.128812366077735
 20
7.16875
 30
0.0
 11
4.1505846109264
 21
7.16875
 31
0.0
  0
LINE
  5
422
330
2B
100
AcDbEntity
  8
0
 62
     0
100
AcDbLine
 10
4.191819372011525
 20
7.16875
 30
0.0
 11
4.213591616860204
 21
7.16875
 31
0.0
  0
LINE
  5
423
330
2B
100
AcDbEntity
  8
0
 62
     0
100
AcDbLine
 10
4.126008975888199
 20
7.1625
 30
0.0
 11
4.147909277503027
 21
7.1625
 31
0.0
  0
LINE
  5
424
330
2B
100
AcDbEntity
  8
0
 62
     0
100
AcDbLine
 10
4.194494705434896
 20
7.1625
 30
0.0
 11
4.216395007049741
 21
7.1625
 31
0.0
  0
LINE
  5
425
330
2B
100
AcDbEntity
  8
0
 62
     0
100
AcDbLine
 10
4.123101763654189
 20
7.15625
 30
0.0
 11
4.145136428182898
 21
7.15625
 31
0.0
  0
LINE
  5
426
330
2B
100
AcDbEntity
  8
0
 62
     0
100
AcDbLine
 10
4.197267554755029
 20
7.15625
 30
0.0
 11
4.219302219283752
 21
7.15625
 31
0.0
  0
ENDBLK
  5
427
330
2B
100
AcDbEntity
  8
0
100
AcDbBlockEnd
  0
BLOCK
  5
428
330
2C
100
AcDbEntity
  8
0
100
AcDbBlockBegin
  2
SBBT
 70
     0
 10
0.0
 20
0.0
 30
0.0
  3
SBBT
  1

  0
TEXT
  5
429
330
2C
100
AcDbEntity
  8
0
100
AcDbText
 10
-0.6618640508256033
 20
0.338139455665849
 30
0.0
 40
0.156
  1
B
  7
COMPLEX
 72
     1
 11
-0.5838640508256035
 21
0.338139455665849
 31
0.0
100
AcDbText
  0
INSERT
  5
42A
330
2C
100
AcDbEntity
  8
0
100
AcDbBlockReference
  2
*X10
 10
6.921648479033177
 20
-3.748701991468968
 30
0.0
 50
90.0
  0
LINE
  5
42B
330
2C
100
AcDbEntity
  8
0
100
AcDbLine
 10
-0.2292366486465225
 20
0.451024804847763
 30
0.0
 11
-0.2292366486465216
 21
0.4731800571979621
 31
0.0
  0
LINE
  5
42C
330
2C
100
AcDbEntity
  8
0
100
AcDbLine
 10
-0.2292366486465216
 20
0.3939751951522217
 30
0.0
 11
-0.2292366486465216
 21
0.371819942802035
 31
0.0
  0
LINE
  5
42D
330
2C
100
AcDbEntity
  8
0
100
AcDbLine
 10
-0.2292366486465216
 20
0.3939751951522217
 30
0.0
 11
-0.2292366486465216
 21
0.4074999999999998
 31
0.0
  0
ARC
  5
42E
330
2C
100
AcDbEntity
  8
0
100
AcDbCircle
 10
-0.4486009293161688
 20
0.9224898749921965
 30
0.0
 40
0.5200000000000001
100
AcDbArc
 50
285.9464297556974
 51
294.951718091778
  0
ARC
  5
42F
330
2C
100
AcDbEntity
  8
0
100
AcDbCircle
 10
-0.4486009293161688
 20
-0.0774898749921995
 30
0.0
 40
0.5200000000000001
100
AcDbArc
 50
65.04828190822165
 51
74.0535702443027
  0
ARC
  5
430
330
2C
100
AcDbEntity
  8
0
100
AcDbCircle
 10
-0.4486009293161688
 20
0.9224898749921965
 30
0.0
 40
0.5
100
AcDbArc
 50
269.6353711361726
 51
296.0227864572306
  0
LINE
  5
431
330
2C
100
AcDbEntity
  8
0
100
AcDbLine
 10
-0.2292366486465216
 20
0.4374999999999992
 30
0.0
 11
-0.2292366486465216
 21
0.4374999999999992
 31
0.0
  0
ARC
  5
432
330
2C
100
AcDbEntity
  8
0
100
AcDbCircle
 10
-0.4486009293161688
 20
-0.0774898749921995
 30
0.0
 40
0.5
100
AcDbArc
 50
63.97721354276936
 51
90.36462886382741
  0
LINE
  5
433
330
2C
100
AcDbEntity
  8
0
100
AcDbLine
 10
0.0
 20
0.4571321552628529
 30
0.0
 11
0.0
 21
0.0
 31
0.0
  0
LINE
  5
434
330
2C
100
AcDbEntity
  8
0
100
AcDbLine
 10
-0.0299999999999994
 20
0.4224999999999995
 30
0.0
 11
-0.0299999999999994
 21
-0.0000000000000009
 31
0.0
  0
LINE
  5
435
330
2C
100
AcDbEntity
  8
0
100
AcDbLine
 10
-0.2292366486465216
 20
0.4374999999999992
 30
0.0
 11
0.017923002649547
 21
0.4374999999999992
 31
0.0
  0
LINE
  5
436
330
2C
100
AcDbEntity
  8
0
100
AcDbLine
 10
-0.2292366486465216
 20
0.4074999999999998
 30
0.0
 11
-0.0149999999999988
 21
0.4074999999999989
 31
0.0
  0
LINE
  5
437
330
2C
100
AcDbEntity
  8
0
100
AcDbLine
 10
-0.2292366486465216
 20
0.4374999999999983
 30
0.0
 11
-0.2292366486465225
 21
0.451024804847763
 31
0.0
  0
ENDBLK
  5
438
330
2C
100
AcDbEntity
  8
0
100
AcDbBlockEnd
  0
BLOCK
  5
439
330
2D
100
AcDbEntity
  8
0
100
AcDbBlockBegin
  2
*X10
 70
     1
 10
0.0
 20
0.0
 30
0.0
  3
*X10
  1

  0
LINE
  5
43A
330
2D
100
AcDbEntity
  8
0
 62
     0
100
AcDbLine
 10
4.158042821030212
 20
7.25625
 30
0.0
 11
4.184361161907728
 21
7.25625
 31
0.0
  0
LINE
  5
43B
330
2D
100
AcDbEntity
  8
0
 62
     0
100
AcDbLine
 10
4.159464167164085
 20
7.2625
 30
0.0
 11
4.182939815773856
 21
7.2625
 31
0.0
  0
LINE
  5
43C
330
2D
100
AcDbEntity
  8
0
 62
     0
100
AcDbLine
 10
4.160801607892522
 20
7.26875
 30
0.0
 11
4.181602375045417
 21
7.26875
 31
0.0
  0
LINE
  5
43D
330
2D
100
AcDbEntity
  8
0
 62
     0
100
AcDbLine
 10
4.162055829087108
 20
7.275
 30
0.0
 11
4.180348153850832
 21
7.275
 31
0.0
  0
LINE
  5
43E
330
2D
100
AcDbEntity
  8
0
 62
     0
100
AcDbLine
 10
4.163227467165616
 20
7.28125
 30
0.0
 11
4.179176515772323
 21
7.28125
 31
0.0
  0
LINE
  5
43F
330
2D
100
AcDbEntity
  8
0
 62
     0
100
AcDbLine
 10
4.1643171107912
 20
7.2875
 30
0.0
 11
4.178086872146739
 21
7.2875
 31
0.0
  0
LINE
  5
440
330
2D
100
AcDbEntity
  8
0
 62
     0
100
AcDbLine
 10
4.165325302419223
 20
7.29375
 30
0.0
 11
4.177078680518715
 21
7.29375
 31
0.0
  0
LINE
  5
441
330
2D
100
AcDbEntity
  8
0
 62
     0
100
AcDbLine
 10
4.16625253970155
 20
7.3
 30
0.0
 11
4.17615144323639
 21
7.3
 31
0.0
  0
LINE
  5
442
330
2D
100
AcDbEntity
  8
0
 62
     0
100
AcDbLine
 10
4.167099276757146
 20
7.30625
 30
0.0
 11
4.175304706180795
 21
7.30625
 31
0.0
  0
LINE
  5
443
330
2D
100
AcDbEntity
  8
0
 62
     0
100
AcDbLine
 10
4.167865925316793
 20
7.3125
 30
0.0
 11
4.174538057621145
 21
7.3125
 31
0.0
  0
LINE
  5
444
330
2D
100
AcDbEntity
  8
0
 62
     0
100
AcDbLine
 10
4.16855285574882
 20
7.31875
 30
0.0
 11
4.17385112718912
 21
7.31875
 31
0.0
  0
LINE
  5
445
330
2D
100
AcDbEntity
  8
0
 62
     0
100
AcDbLine
 10
4.169160397971983
 20
7.325
 30
0.0
 11
4.173243584965957
 21
7.325
 31
0.0
  0
LINE
  5
446
330
2D
100
AcDbEntity
  8
0
 62
     0
100
AcDbLine
 10
4.169688842260835
 20
7.33125
 30
0.0
 11
4.172715140677103
 21
7.33125
 31
0.0
  0
LINE
  5
447
330
2D
100
AcDbEntity
  8
0
 62
     0
100
AcDbLine
 10
4.170138439948251
 20
7.3375
 30
0.0
 11
4.172265542989687
 21
7.3375
 31
0.0
  0
LINE
  5
448
330
2D
100
AcDbEntity
  8
0
 62
     0
100
AcDbLine
 10
4.170509404029122
 20
7.34375
 30
0.0
 11
4.171894578908817
 21
7.34375
 31
0.0
  0
LINE
  5
449
330
2D
100
AcDbEntity
  8
0
 62
     0
100
AcDbLine
 10
4.170801909668647
 20
7.35
 30
0.0
 11
4.171602073269292
 21
7.35
 31
0.0
  0
LINE
  5
44A
330
2D
100
AcDbEntity
  8
0
 62
     0
100
AcDbLine
 10
4.171016094618071
 20
7.35625
 30
0.0
 11
4.171387888319867
 21
7.35625
 31
0.0
  0
LINE
  5
44B
330
2D
100
AcDbEntity
  8
0
 62
     0
100
AcDbLine
 10
4.171152059540171
 20
7.3625
 30
0.0
 11
4.171251923397766
 21
7.3625
 31
0.0
  0
LINE
  5
44C
330
2D
100
AcDbEntity
  8
0
 62
     0
100
AcDbLine
 10
4.17119411469162
 20
7.36875
 30
0.0
 11
4.171209868246319
 21
7.36875
 31
0.0
  0
LINE
  5
44D
330
2D
100
AcDbEntity
  8
0
 62
     0
100
AcDbLine
 10
4.156536832302816
 20
7.25
 30
0.0
 11
4.185867150635123
 21
7.25
 31
0.0
  0
LINE
  5
44E
330
2D
100
AcDbEntity
  8
0
 62
     0
100
AcDbLine
 10
4.154945410438709
 20
7.24375
 30
0.0
 11
4.187458572499231
 21
7.24375
 31
0.0
  0
LINE
  5
44F
330
2D
100
AcDbEntity
  8
0
 62
     0
100
AcDbLine
 10
4.153267709311144
 20
7.2375
 30
0.0
 11
4.189136273626795
 21
7.2375
 31
0.0
  0
LINE
  5
450
330
2D
100
AcDbEntity
  8
0
 62
     0
100
AcDbLine
 10
4.151502824775956
 20
7.23125
 30
0.0
 11
4.190901158161984
 21
7.23125
 31
0.0
  0
LINE
  5
451
330
2D
100
AcDbEntity
  8
0
 62
     0
100
AcDbLine
 10
4.149649792014731
 20
7.225
 30
0.0
 11
4.170514238817704
 21
7.225
 31
0.0
  0
LINE
  5
452
330
2D
100
AcDbEntity
  8
0
 62
     0
100
AcDbLine
 10
4.17188974412022
 20
7.225
 30
0.0
 11
4.192754190923209
 21
7.225
 31
0.0
  0
LINE
  5
453
330
2D
100
AcDbEntity
  8
0
 62
     0
100
AcDbLine
 10
4.147707582635473
 20
7.21875
 30
0.0
 11
4.16865349922432
 21
7.21875
 31
0.0
  0
LINE
  5
454
330
2D
100
AcDbEntity
  8
0
 62
     0
100
AcDbLine
 10
4.173750483713604
 20
7.21875
 30
0.0
 11
4.194696400302465
 21
7.21875
 31
0.0
  0
LINE
  5
455
330
2D
100
AcDbEntity
  8
0
 62
     0
100
AcDbLine
 10
4.145675101508724
 20
7.2125
 30
0.0
 11
4.166706944063726
 21
7.2125
 31
0.0
  0
LINE
  5
456
330
2D
100
AcDbEntity
  8
0
 62
     0
100
AcDbLine
 10
4.175697038874197
 20
7.2125
 30
0.0
 11
4.196728881429214
 21
7.2125
 31
0.0
  0
LINE
  5
457
330
2D
100
AcDbEntity
  8
0
 62
     0
100
AcDbLine
 10
4.143551183314425
 20
7.20625
 30
0.0
 11
4.164673557788107
 21
7.20625
 31
0.0
  0
LINE
  5
458
330
2D
100
AcDbEntity
  8
0
 62
     0
100
AcDbLine
 10
4.17773042514982
 20
7.20625
 30
0.0
 11
4.198852799623516
 21
7.20625
 31
0.0
  0
LINE
  5
459
330
2D
100
AcDbEntity
  8
0
 62
     0
100
AcDbLine
 10
4.141334588771703
 20
7.2
 30
0.0
 11
4.162552262360144
 21
7.2
 31
0.0
  0
LINE
  5
45A
330
2D
100
AcDbEntity
  8
0
 62
     0
100
AcDbLine
 10
4.179851720577784
 20
7.2
 30
0.0
 11
4.201069394166239
 21
7.2
 31
0.0
  0
LINE
  5
45B
330
2D
100
AcDbEntity
  8
0
 62
     0
100
AcDbLine
 10
4.139024000520274
 20
7.19375
 30
0.0
 11
4.160341914027816
 21
7.19375
 31
0.0
  0
LINE
  5
45C
330
2D
100
AcDbEntity
  8
0
 62
     0
100
AcDbLine
 10
4.182062068910108
 20
7.19375
 30
0.0
 11
4.203379982417666
 21
7.19375
 31
0.0
  0
LINE
  5
45D
330
2D
100
AcDbEntity
  8
0
 62
     0
100
AcDbLine
 10
4.136618018618079
 20
7.1875
 30
0.0
 11
4.158041299813144
 21
7.1875
 31
0.0
  0
LINE
  5
45E
330
2D
100
AcDbEntity
  8
0
 62
     0
100
AcDbLine
 10
4.18436268312478
 20
7.1875
 30
0.0
 11
4.20578596431986
 21
7.1875
 31
0.0
  0
LINE
  5
45F
330
2D
100
AcDbEntity
  8
0
 62
     0
100
AcDbLine
 10
4.134115155615204
 20
7.18125
 30
0.0
 11
4.155649133687051
 21
7.18125
 31
0.0
  0
LINE
  5
460
330
2D
100
AcDbEntity
  8
0
 62
     0
100
AcDbLine
 10
4.186754849250876
 20
7.18125
 30
0.0
 11
4.208288827322737
 21
7.18125
 31
0.0
  0
LINE
  5
461
330
2D
100
AcDbEntity
  8
0
 62
     0
100
AcDbLine
 10
4.131513831158817
 20
7.175
 30
0.0
 11
4.153164052399043
 21
7.175
 31
0.0
  0
LINE
  5
462
330
2D
100
AcDbEntity
  8
0
 62
     0
100
AcDbLine
 10
4.189239930538879
 20
7.175
 30
0.0
 11
4.210890151779121
 21
7.175
 31
0.0
  0
LINE
  5
463
330
2D
100
AcDbEntity
  8
0
 62
     0
100
AcDbLine
 10
4.128812366077735
 20
7.16875
 30
0.0
 11
4.1505846109264
 21
7.16875
 31
0.0
  0
LINE
  5
464
330
2D
100
AcDbEntity
  8
0
 62
     0
100
AcDbLine
 10
4.191819372011525
 20
7.16875
 30
0.0
 11
4.213591616860204
 21
7.16875
 31
0.0
  0
LINE
  5
465
330
2D
100
AcDbEntity
  8
0
 62
     0
100
AcDbLine
 10
4.126008975888199
 20
7.1625
 30
0.0
 11
4.147909277503027
 21
7.1625
 31
0.0
  0
LINE
  5
466
330
2D
100
AcDbEntity
  8
0
 62
     0
100
AcDbLine
 10
4.194494705434896
 20
7.1625
 30
0.0
 11
4.216395007049741
 21
7.1625
 31
0.0
  0
LINE
  5
467
330
2D
100
AcDbEntity
  8
0
 62
     0
100
AcDbLine
 10
4.123101763654189
 20
7.15625
 30
0.0
 11
4.145136428182898
 21
7.15625
 31
0.0
  0
LINE
  5
468
330
2D
100
AcDbEntity
  8
0
 62
     0
100
AcDbLine
 10
4.197267554755029
 20
7.15625
 30
0.0
 11
4.219302219283752
 21
7.15625
 31
0.0
  0
ENDBLK
  5
469
330
2D
100
AcDbEntity
  8
0
100
AcDbBlockEnd
  0
BLOCK
  5
46A
330
2E
100
AcDbEntity
  8
0
100
AcDbBlockBegin
  2
SAAL
 70
     0
 10
0.0
 20
0.0
 30
0.0
  3
SAAL
  1

  0
TEXT
  5
46B
330
2E
100
AcDbEntity
  8
0
100
AcDbText
 10
-0.5040834610697376
 20
0.5122863324383254
 30
0.0
 40
0.156
  1
A
  7
COMPLEX
 72
     1
 11
-0.4297977467840233
 21
0.5122863324383254
 31
0.0
100
AcDbText
  0
INSERT
  5
46C
330
2E
100
AcDbEntity
  8
0
100
AcDbBlockReference
  2
*X12
 10
3.748701991468969
 20
-6.921648479033177
 30
0.0
 41
-1.0
  0
LINE
  5
46D
330
2E
100
AcDbEntity
  8
0
100
AcDbLine
 10
-0.4510248048477635
 20
0.2292366486465225
 30
0.0
 11
-0.4731800571979626
 21
0.2292366486465216
 31
0.0
  0
LINE
  5
46E
330
2E
100
AcDbEntity
  8
0
100
AcDbLine
 10
-0.3939751951522221
 20
0.2292366486465216
 30
0.0
 11
-0.3718199428020354
 21
0.2292366486465216
 31
0.0
  0
LINE
  5
46F
330
2E
100
AcDbEntity
  8
0
100
AcDbLine
 10
-0.3939751951522221
 20
0.2292366486465216
 30
0.0
 11
-0.4075000000000002
 21
0.2292366486465216
 31
0.0
  0
ARC
  5
470
330
2E
100
AcDbEntity
  8
0
100
AcDbCircle
 10
-0.9224898749921969
 20
0.4486009293161688
 30
0.0
 40
0.5200000000000001
100
AcDbArc
 50
335.048281908222
 51
344.0535702443027
  0
ARC
  5
471
330
2E
100
AcDbEntity
  8
0
100
AcDbCircle
 10
0.0774898749921995
 20
0.4486009293161688
 30
0.0
 40
0.5200000000000001
100
AcDbArc
 50
195.9464297556973
 51
204.9517180917784
  0
ARC
  5
472
330
2E
100
AcDbEntity
  8
0
100
AcDbCircle
 10
-0.9224898749921969
 20
0.4486009293161688
 30
0.0
 40
0.5
100
AcDbArc
 50
333.9772135427694
 51
0.3646288638273872
  0
LINE
  5
473
330
2E
100
AcDbEntity
  8
0
100
AcDbLine
 10
-0.4374999999999996
 20
0.2292366486465216
 30
0.0
 11
-0.4374999999999996
 21
0.2292366486465216
 31
0.0
  0
ARC
  5
474
330
2E
100
AcDbEntity
  8
0
100
AcDbCircle
 10
0.0774898749921995
 20
0.4486009293161688
 30
0.0
 40
0.5
100
AcDbArc
 50
179.6353711361726
 51
206.0227864572306
  0
LINE
  5
475
330
2E
100
AcDbEntity
  8
0
100
AcDbLine
 10
-0.4571321552628534
 20
0.0
 30
0.0
 11
0.0
 21
0.0
 31
0.0
  0
LINE
  5
476
330
2E
100
AcDbEntity
  8
0
100
AcDbLine
 10
-0.4224999999999999
 20
0.0299999999999994
 30
0.0
 11
0.0000000000000009
 21
0.0299999999999994
 31
0.0
  0
LINE
  5
477
330
2E
100
AcDbEntity
  8
0
100
AcDbLine
 10
-0.4374999999999996
 20
0.2292366486465216
 30
0.0
 11
-0.4374999999999996
 21
-0.017923002649547
 31
0.0
  0
LINE
  5
478
330
2E
100
AcDbEntity
  8
0
100
AcDbLine
 10
-0.4075000000000002
 20
0.2292366486465216
 30
0.0
 11
-0.4074999999999993
 21
0.0149999999999988
 31
0.0
  0
LINE
  5
479
330
2E
100
AcDbEntity
  8
0
100
AcDbLine
 10
-0.4374999999999987
 20
0.2292366486465216
 30
0.0
 11
-0.4510248048477635
 21
0.2292366486465225
 31
0.0
  0
ENDBLK
  5
47A
330
2E
100
AcDbEntity
  8
0
100
AcDbBlockEnd
  0
BLOCK
  5
47B
330
2F
100
AcDbEntity
  8
0
100
AcDbBlockBegin
  2
*X12
 70
     1
 10
0.0
 20
0.0
 30
0.0
  3
*X12
  1

  0
LINE
  5
47C
330
2F
100
AcDbEntity
  8
0
 62
     0
100
AcDbLine
 10
4.158042821030212
 20
7.25625
 30
0.0
 11
4.184361161907728
 21
7.25625
 31
0.0
  0
LINE
  5
47D
330
2F
100
AcDbEntity
  8
0
 62
     0
100
AcDbLine
 10
4.159464167164085
 20
7.2625
 30
0.0
 11
4.182939815773856
 21
7.2625
 31
0.0
  0
LINE
  5
47E
330
2F
100
AcDbEntity
  8
0
 62
     0
100
AcDbLine
 10
4.160801607892522
 20
7.26875
 30
0.0
 11
4.181602375045417
 21
7.26875
 31
0.0
  0
LINE
  5
47F
330
2F
100
AcDbEntity
  8
0
 62
     0
100
AcDbLine
 10
4.162055829087108
 20
7.275
 30
0.0
 11
4.180348153850832
 21
7.275
 31
0.0
  0
LINE
  5
480
330
2F
100
AcDbEntity
  8
0
 62
     0
100
AcDbLine
 10
4.163227467165616
 20
7.28125
 30
0.0
 11
4.179176515772323
 21
7.28125
 31
0.0
  0
LINE
  5
481
330
2F
100
AcDbEntity
  8
0
 62
     0
100
AcDbLine
 10
4.1643171107912
 20
7.2875
 30
0.0
 11
4.178086872146739
 21
7.2875
 31
0.0
  0
LINE
  5
482
330
2F
100
AcDbEntity
  8
0
 62
     0
100
AcDbLine
 10
4.165325302419223
 20
7.29375
 30
0.0
 11
4.177078680518715
 21
7.29375
 31
0.0
  0
LINE
  5
483
330
2F
100
AcDbEntity
  8
0
 62
     0
100
AcDbLine
 10
4.16625253970155
 20
7.3
 30
0.0
 11
4.17615144323639
 21
7.3
 31
0.0
  0
LINE
  5
484
330
2F
100
AcDbEntity
  8
0
 62
     0
100
AcDbLine
 10
4.167099276757146
 20
7.30625
 30
0.0
 11
4.175304706180795
 21
7.30625
 31
0.0
  0
LINE
  5
485
330
2F
100
AcDbEntity
  8
0
 62
     0
100
AcDbLine
 10
4.167865925316793
 20
7.3125
 30
0.0
 11
4.174538057621145
 21
7.3125
 31
0.0
  0
LINE
  5
486
330
2F
100
AcDbEntity
  8
0
 62
     0
100
AcDbLine
 10
4.16855285574882
 20
7.31875
 30
0.0
 11
4.17385112718912
 21
7.31875
 31
0.0
  0
LINE
  5
487
330
2F
100
AcDbEntity
  8
0
 62
     0
100
AcDbLine
 10
4.169160397971983
 20
7.325
 30
0.0
 11
4.173243584965957
 21
7.325
 31
0.0
  0
LINE
  5
488
330
2F
100
AcDbEntity
  8
0
 62
     0
100
AcDbLine
 10
4.169688842260835
 20
7.33125
 30
0.0
 11
4.172715140677103
 21
7.33125
 31
0.0
  0
LINE
  5
489
330
2F
100
AcDbEntity
  8
0
 62
     0
100
AcDbLine
 10
4.170138439948251
 20
7.3375
 30
0.0
 11
4.172265542989687
 21
7.3375
 31
0.0
  0
LINE
  5
48A
330
2F
100
AcDbEntity
  8
0
 62
     0
100
AcDbLine
 10
4.170509404029122
 20
7.34375
 30
0.0
 11
4.171894578908817
 21
7.34375
 31
0.0
  0
LINE
  5
48B
330
2F
100
AcDbEntity
  8
0
 62
     0
100
AcDbLine
 10
4.170801909668647
 20
7.35
 30
0.0
 11
4.171602073269292
 21
7.35
 31
0.0
  0
LINE
  5
48C
330
2F
100
AcDbEntity
  8
0
 62
     0
100
AcDbLine
 10
4.171016094618071
 20
7.35625
 30
0.0
 11
4.171387888319867
 21
7.35625
 31
0.0
  0
LINE
  5
48D
330
2F
100
AcDbEntity
  8
0
 62
     0
100
AcDbLine
 10
4.171152059540171
 20
7.3625
 30
0.0
 11
4.171251923397766
 21
7.3625
 31
0.0
  0
LINE
  5
48E
330
2F
100
AcDbEntity
  8
0
 62
     0
100
AcDbLine
 10
4.17119411469162
 20
7.36875
 30
0.0
 11
4.171209868246319
 21
7.36875
 31
0.0
  0
LINE
  5
48F
330
2F
100
AcDbEntity
  8
0
 62
     0
100
AcDbLine
 10
4.156536832302816
 20
7.25
 30
0.0
 11
4.185867150635123
 21
7.25
 31
0.0
  0
LINE
  5
490
330
2F
100
AcDbEntity
  8
0
 62
     0
100
AcDbLine
 10
4.154945410438709
 20
7.24375
 30
0.0
 11
4.187458572499231
 21
7.24375
 31
0.0
  0
LINE
  5
491
330
2F
100
AcDbEntity
  8
0
 62
     0
100
AcDbLine
 10
4.153267709311144
 20
7.2375
 30
0.0
 11
4.189136273626795
 21
7.2375
 31
0.0
  0
LINE
  5
492
330
2F
100
AcDbEntity
  8
0
 62
     0
100
AcDbLine
 10
4.151502824775956
 20
7.23125
 30
0.0
 11
4.190901158161984
 21
7.23125
 31
0.0
  0
LINE
  5
493
330
2F
100
AcDbEntity
  8
0
 62
     0
100
AcDbLine
 10
4.149649792014731
 20
7.225
 30
0.0
 11
4.170514238817704
 21
7.225
 31
0.0
  0
LINE
  5
494
330
2F
100
AcDbEntity
  8
0
 62
     0
100
AcDbLine
 10
4.17188974412022
 20
7.225
 30
0.0
 11
4.192754190923209
 21
7.225
 31
0.0
  0
LINE
  5
495
330
2F
100
AcDbEntity
  8
0
 62
     0
100
AcDbLine
 10
4.147707582635473
 20
7.21875
 30
0.0
 11
4.16865349922432
 21
7.21875
 31
0.0
  0
LINE
  5
496
330
2F
100
AcDbEntity
  8
0
 62
     0
100
AcDbLine
 10
4.173750483713604
 20
7.21875
 30
0.0
 11
4.194696400302465
 21
7.21875
 31
0.0
  0
LINE
  5
497
330
2F
100
AcDbEntity
  8
0
 62
     0
100
AcDbLine
 10
4.145675101508724
 20
7.2125
 30
0.0
 11
4.166706944063726
 21
7.2125
 31
0.0
  0
LINE
  5
498
330
2F
100
AcDbEntity
  8
0
 62
     0
100
AcDbLine
 10
4.175697038874197
 20
7.2125
 30
0.0
 11
4.196728881429214
 21
7.2125
 31
0.0
  0
LINE
  5
499
330
2F
100
AcDbEntity
  8
0
 62
     0
100
AcDbLine
 10
4.143551183314425
 20
7.20625
 30
0.0
 11
4.164673557788107
 21
7.20625
 31
0.0
  0
LINE
  5
49A
330
2F
100
AcDbEntity
  8
0
 62
     0
100
AcDbLine
 10
4.17773042514982
 20
7.20625
 30
0.0
 11
4.198852799623516
 21
7.20625
 31
0.0
  0
LINE
  5
49B
330
2F
100
AcDbEntity
  8
0
 62
     0
100
AcDbLine
 10
4.141334588771703
 20
7.2
 30
0.0
 11
4.162552262360144
 21
7.2
 31
0.0
  0
LINE
  5
49C
330
2F
100
AcDbEntity
  8
0
 62
     0
100
AcDbLine
 10
4.179851720577784
 20
7.2
 30
0.0
 11
4.201069394166239
 21
7.2
 31
0.0
  0
LINE
  5
49D
330
2F
100
AcDbEntity
  8
0
 62
     0
100
AcDbLine
 10
4.139024000520274
 20
7.19375
 30
0.0
 11
4.160341914027816
 21
7.19375
 31
0.0
  0
LINE
  5
49E
330
2F
100
AcDbEntity
  8
0
 62
     0
100
AcDbLine
 10
4.182062068910108
 20
7.19375
 30
0.0
 11
4.203379982417666
 21
7.19375
 31
0.0
  0
LINE
  5
49F
330
2F
100
AcDbEntity
  8
0
 62
     0
100
AcDbLine
 10
4.136618018618079
 20
7.1875
 30
0.0
 11
4.158041299813144
 21
7.1875
 31
0.0
  0
LINE
  5
4A0
330
2F
100
AcDbEntity
  8
0
 62
     0
100
AcDbLine
 10
4.18436268312478
 20
7.1875
 30
0.0
 11
4.20578596431986
 21
7.1875
 31
0.0
  0
LINE
  5
4A1
330
2F
100
AcDbEntity
  8
0
 62
     0
100
AcDbLine
 10
4.134115155615204
 20
7.18125
 30
0.0
 11
4.155649133687051
 21
7.18125
 31
0.0
  0
LINE
  5
4A2
330
2F
100
AcDbEntity
  8
0
 62
     0
100
AcDbLine
 10
4.186754849250876
 20
7.18125
 30
0.0
 11
4.208288827322737
 21
7.18125
 31
0.0
  0
LINE
  5
4A3
330
2F
100
AcDbEntity
  8
0
 62
     0
100
AcDbLine
 10
4.131513831158817
 20
7.175
 30
0.0
 11
4.153164052399043
 21
7.175
 31
0.0
  0
LINE
  5
4A4
330
2F
100
AcDbEntity
  8
0
 62
     0
100
AcDbLine
 10
4.189239930538879
 20
7.175
 30
0.0
 11
4.210890151779121
 21
7.175
 31
0.0
  0
LINE
  5
4A5
330
2F
100
AcDbEntity
  8
0
 62
     0
100
AcDbLine
 10
4.128812366077735
 20
7.16875
 30
0.0
 11
4.1505846109264
 21
7.16875
 31
0.0
  0
LINE
  5
4A6
330
2F
100
AcDbEntity
  8
0
 62
     0
100
AcDbLine
 10
4.191819372011525
 20
7.16875
 30
0.0
 11
4.213591616860204
 21
7.16875
 31
0.0
  0
LINE
  5
4A7
330
2F
100
AcDbEntity
  8
0
 62
     0
100
AcDbLine
 10
4.126008975888199
 20
7.1625
 30
0.0
 11
4.147909277503027
 21
7.1625
 31
0.0
  0
LINE
  5
4A8
330
2F
100
AcDbEntity
  8
0
 62
     0
100
AcDbLine
 10
4.194494705434896
 20
7.1625
 30
0.0
 11
4.216395007049741
 21
7.1625
 31
0.0
  0
LINE
  5
4A9
330
2F
100
AcDbEntity
  8
0
 62
     0
100
AcDbLine
 10
4.123101763654189
 20
7.15625
 30
0.0
 11
4.145136428182898
 21
7.15625
 31
0.0
  0
LINE
  5
4AA
330
2F
100
AcDbEntity
  8
0
 62
     0
100
AcDbLine
 10
4.197267554755029
 20
7.15625
 30
0.0
 11
4.219302219283752
 21
7.15625
 31
0.0
  0
ENDBLK
  5
4AB
330
2F
100
AcDbEntity
  8
0
100
AcDbBlockEnd
  0
BLOCK
  5
4AC
330
30
100
AcDbEntity
  8
0
100
AcDbBlockBegin
  2
SBBB
 70
     0
 10
0.0
 20
0.0
 30
0.0
  3
SBBB
  1

  0
TEXT
  5
4AD
330
30
100
AcDbEntity
  8
0
100
AcDbText
 10
-0.6558782172982847
 20
-0.50536529293236
 30
0.0
 40
0.156
  1
B
  7
COMPLEX
 72
     1
 11
-0.5778782172982849
 21
-0.50536529293236
 31
0.0
100
AcDbText
  0
LINE
  5
4AE
330
30
100
AcDbEntity
  8
0
100
AcDbLine
 10
-0.2292366486465216
 20
-0.4374999999999983
 30
0.0
 11
-0.2292366486465225
 21
-0.451024804847763
 31
0.0
  0
LINE
  5
4AF
330
30
100
AcDbEntity
  8
0
100
AcDbLine
 10
-0.2292366486465216
 20
-0.4074999999999998
 30
0.0
 11
-0.0149999999999988
 21
-0.4074999999999989
 31
0.0
  0
LINE
  5
4B0
330
30
100
AcDbEntity
  8
0
100
AcDbLine
 10
-0.2292366486465216
 20
-0.4374999999999992
 30
0.0
 11
0.017923002649547
 21
-0.4374999999999992
 31
0.0
  0
LINE
  5
4B1
330
30
100
AcDbEntity
  8
0
100
AcDbLine
 10
-0.0299999999999994
 20
-0.4224999999999995
 30
0.0
 11
-0.0299999999999994
 21
0.0000000000000009
 31
0.0
  0
LINE
  5
4B2
330
30
100
AcDbEntity
  8
0
100
AcDbLine
 10
0.0
 20
-0.4571321552628529
 30
0.0
 11
0.0
 21
0.0
 31
0.0
  0
ARC
  5
4B3
330
30
100
AcDbEntity
  8
0
100
AcDbCircle
 10
-0.4486009293161688
 20
0.0774898749921995
 30
0.0
 40
0.5
100
AcDbArc
 50
269.6353711361726
 51
296.0227864572306
  0
LINE
  5
4B4
330
30
100
AcDbEntity
  8
0
100
AcDbLine
 10
-0.2292366486465216
 20
-0.4374999999999992
 30
0.0
 11
-0.2292366486465216
 21
-0.4374999999999992
 31
0.0
  0
ARC
  5
4B5
330
30
100
AcDbEntity
  8
0
100
AcDbCircle
 10
-0.4486009293161688
 20
-0.9224898749921965
 30
0.0
 40
0.5
100
AcDbArc
 50
63.97721354276936
 51
90.36462886382739
  0
ARC
  5
4B6
330
30
100
AcDbEntity
  8
0
100
AcDbCircle
 10
-0.4486009293161688
 20
0.0774898749921995
 30
0.0
 40
0.5200000000000001
100
AcDbArc
 50
285.9464297556974
 51
294.9517180917784
  0
ARC
  5
4B7
330
30
100
AcDbEntity
  8
0
100
AcDbCircle
 10
-0.4486009293161688
 20
-0.9224898749921965
 30
0.0
 40
0.5200000000000001
100
AcDbArc
 50
65.04828190822201
 51
74.0535702443027
  0
LINE
  5
4B8
330
30
100
AcDbEntity
  8
0
100
AcDbLine
 10
-0.2292366486465216
 20
-0.3939751951522217
 30
0.0
 11
-0.2292366486465216
 21
-0.4074999999999998
 31
0.0
  0
LINE
  5
4B9
330
30
100
AcDbEntity
  8
0
100
AcDbLine
 10
-0.2292366486465216
 20
-0.3939751951522217
 30
0.0
 11
-0.2292366486465216
 21
-0.371819942802035
 31
0.0
  0
LINE
  5
4BA
330
30
100
AcDbEntity
  8
0
100
AcDbLine
 10
-0.2292366486465225
 20
-0.451024804847763
 30
0.0
 11
-0.2292366486465216
 21
-0.4731800571979621
 31
0.0
  0
INSERT
  5
4BB
330
30
100
AcDbEntity
  8
0
100
AcDbBlockReference
  2
*X14
 10
6.921648479033177
 20
3.748701991468968
 30
0.0
 41
-1.0
 50
90.0
  0
ENDBLK
  5
4BC
330
30
100
AcDbEntity
  8
0
100
AcDbBlockEnd
  0
BLOCK
  5
4BD
330
31
100
AcDbEntity
  8
0
100
AcDbBlockBegin
  2
*X14
 70
     1
 10
0.0
 20
0.0
 30
0.0
  3
*X14
  1

  0
LINE
  5
4BE
330
31
100
AcDbEntity
  8
0
 62
     0
100
AcDbLine
 10
4.158042821030212
 20
7.25625
 30
0.0
 11
4.184361161907728
 21
7.25625
 31
0.0
  0
LINE
  5
4BF
330
31
100
AcDbEntity
  8
0
 62
     0
100
AcDbLine
 10
4.159464167164085
 20
7.2625
 30
0.0
 11
4.182939815773856
 21
7.2625
 31
0.0
  0
LINE
  5
4C0
330
31
100
AcDbEntity
  8
0
 62
     0
100
AcDbLine
 10
4.160801607892522
 20
7.26875
 30
0.0
 11
4.181602375045417
 21
7.26875
 31
0.0
  0
LINE
  5
4C1
330
31
100
AcDbEntity
  8
0
 62
     0
100
AcDbLine
 10
4.162055829087108
 20
7.275
 30
0.0
 11
4.180348153850832
 21
7.275
 31
0.0
  0
LINE
  5
4C2
330
31
100
AcDbEntity
  8
0
 62
     0
100
AcDbLine
 10
4.163227467165616
 20
7.28125
 30
0.0
 11
4.179176515772323
 21
7.28125
 31
0.0
  0
LINE
  5
4C3
330
31
100
AcDbEntity
  8
0
 62
     0
100
AcDbLine
 10
4.1643171107912
 20
7.2875
 30
0.0
 11
4.178086872146739
 21
7.2875
 31
0.0
  0
LINE
  5
4C4
330
31
100
AcDbEntity
  8
0
 62
     0
100
AcDbLine
 10
4.165325302419223
 20
7.29375
 30
0.0
 11
4.177078680518715
 21
7.29375
 31
0.0
  0
LINE
  5
4C5
330
31
100
AcDbEntity
  8
0
 62
     0
100
AcDbLine
 10
4.16625253970155
 20
7.3
 30
0.0
 11
4.17615144323639
 21
7.3
 31
0.0
  0
LINE
  5
4C6
330
31
100
AcDbEntity
  8
0
 62
     0
100
AcDbLine
 10
4.167099276757146
 20
7.30625
 30
0.0
 11
4.175304706180795
 21
7.30625
 31
0.0
  0
LINE
  5
4C7
330
31
100
AcDbEntity
  8
0
 62
     0
100
AcDbLine
 10
4.167865925316793
 20
7.3125
 30
0.0
 11
4.174538057621145
 21
7.3125
 31
0.0
  0
LINE
  5
4C8
330
31
100
AcDbEntity
  8
0
 62
     0
100
AcDbLine
 10
4.16855285574882
 20
7.31875
 30
0.0
 11
4.17385112718912
 21
7.31875
 31
0.0
  0
LINE
  5
4C9
330
31
100
AcDbEntity
  8
0
 62
     0
100
AcDbLine
 10
4.169160397971983
 20
7.325
 30
0.0
 11
4.173243584965957
 21
7.325
 31
0.0
  0
LINE
  5
4CA
330
31
100
AcDbEntity
  8
0
 62
     0
100
AcDbLine
 10
4.169688842260835
 20
7.33125
 30
0.0
 11
4.172715140677103
 21
7.33125
 31
0.0
  0
LINE
  5
4CB
330
31
100
AcDbEntity
  8
0
 62
     0
100
AcDbLine
 10
4.170138439948251
 20
7.3375
 30
0.0
 11
4.172265542989687
 21
7.3375
 31
0.0
  0
LINE
  5
4CC
330
31
100
AcDbEntity
  8
0
 62
     0
100
AcDbLine
 10
4.170509404029122
 20
7.34375
 30
0.0
 11
4.171894578908817
 21
7.34375
 31
0.0
  0
LINE
  5
4CD
330
31
100
AcDbEntity
  8
0
 62
     0
100
AcDbLine
 10
4.170801909668647
 20
7.35
 30
0.0
 11
4.171602073269292
 21
7.35
 31
0.0
  0
LINE
  5
4CE
330
31
100
AcDbEntity
  8
0
 62
     0
100
AcDbLine
 10
4.171016094618071
 20
7.35625
 30
0.0
 11
4.171387888319867
 21
7.35625
 31
0.0
  0
LINE
  5
4CF
330
31
100
AcDbEntity
  8
0
 62
     0
100
AcDbLine
 10
4.171152059540171
 20
7.3625
 30
0.0
 11
4.171251923397766
 21
7.3625
 31
0.0
  0
LINE
  5
4D0
330
31
100
AcDbEntity
  8
0
 62
     0
100
AcDbLine
 10
4.17119411469162
 20
7.36875
 30
0.0
 11
4.171209868246319
 21
7.36875
 31
0.0
  0
LINE
  5
4D1
330
31
100
AcDbEntity
  8
0
 62
     0
100
AcDbLine
 10
4.156536832302816
 20
7.25
 30
0.0
 11
4.185867150635123
 21
7.25
 31
0.0
  0
LINE
  5
4D2
330
31
100
AcDbEntity
  8
0
 62
     0
100
AcDbLine
 10
4.154945410438709
 20
7.24375
 30
0.0
 11
4.187458572499231
 21
7.24375
 31
0.0
  0
LINE
  5
4D3
330
31
100
AcDbEntity
  8
0
 62
     0
100
AcDbLine
 10
4.153267709311144
 20
7.2375
 30
0.0
 11
4.189136273626795
 21
7.2375
 31
0.0
  0
LINE
  5
4D4
330
31
100
AcDbEntity
  8
0
 62
     0
100
AcDbLine
 10
4.151502824775956
 20
7.23125
 30
0.0
 11
4.190901158161984
 21
7.23125
 31
0.0
  0
LINE
  5
4D5
330
31
100
AcDbEntity
  8
0
 62
     0
100
AcDbLine
 10
4.149649792014731
 20
7.225
 30
0.0
 11
4.170514238817704
 21
7.225
 31
0.0
  0
LINE
  5
4D6
330
31
100
AcDbEntity
  8
0
 62
     0
100
AcDbLine
 10
4.17188974412022
 20
7.225
 30
0.0
 11
4.192754190923209
 21
7.225
 31
0.0
  0
LINE
  5
4D7
330
31
100
AcDbEntity
  8
0
 62
     0
100
AcDbLine
 10
4.147707582635473
 20
7.21875
 30
0.0
 11
4.16865349922432
 21
7.21875
 31
0.0
  0
LINE
  5
4D8
330
31
100
AcDbEntity
  8
0
 62
     0
100
AcDbLine
 10
4.173750483713604
 20
7.21875
 30
0.0
 11
4.194696400302465
 21
7.21875
 31
0.0
  0
LINE
  5
4D9
330
31
100
AcDbEntity
  8
0
 62
     0
100
AcDbLine
 10
4.145675101508724
 20
7.2125
 30
0.0
 11
4.166706944063726
 21
7.2125
 31
0.0
  0
LINE
  5
4DA
330
31
100
AcDbEntity
  8
0
 62
     0
100
AcDbLine
 10
4.175697038874197
 20
7.2125
 30
0.0
 11
4.196728881429214
 21
7.2125
 31
0.0
  0
LINE
  5
4DB
330
31
100
AcDbEntity
  8
0
 62
     0
100
AcDbLine
 10
4.143551183314425
 20
7.20625
 30
0.0
 11
4.164673557788107
 21
7.20625
 31
0.0
  0
LINE
  5
4DC
330
31
100
AcDbEntity
  8
0
 62
     0
100
AcDbLine
 10
4.17773042514982
 20
7.20625
 30
0.0
 11
4.198852799623516
 21
7.20625
 31
0.0
  0
LINE
  5
4DD
330
31
100
AcDbEntity
  8
0
 62
     0
100
AcDbLine
 10
4.141334588771703
 20
7.2
 30
0.0
 11
4.162552262360144
 21
7.2
 31
0.0
  0
LINE
  5
4DE
330
31
100
AcDbEntity
  8
0
 62
     0
100
AcDbLine
 10
4.179851720577784
 20
7.2
 30
0.0
 11
4.201069394166239
 21
7.2
 31
0.0
  0
LINE
  5
4DF
330
31
100
AcDbEntity
  8
0
 62
     0
100
AcDbLine
 10
4.139024000520274
 20
7.19375
 30
0.0
 11
4.160341914027816
 21
7.19375
 31
0.0
  0
LINE
  5
4E0
330
31
100
AcDbEntity
  8
0
 62
     0
100
AcDbLine
 10
4.182062068910108
 20
7.19375
 30
0.0
 11
4.203379982417666
 21
7.19375
 31
0.0
  0
LINE
  5
4E1
330
31
100
AcDbEntity
  8
0
 62
     0
100
AcDbLine
 10
4.136618018618079
 20
7.1875
 30
0.0
 11
4.158041299813144
 21
7.1875
 31
0.0
  0
LINE
  5
4E2
330
31
100
AcDbEntity
  8
0
 62
     0
100
AcDbLine
 10
4.18436268312478
 20
7.1875
 30
0.0
 11
4.20578596431986
 21
7.1875
 31
0.0
  0
LINE
  5
4E3
330
31
100
AcDbEntity
  8
0
 62
     0
100
AcDbLine
 10
4.134115155615204
 20
7.18125
 30
0.0
 11
4.155649133687051
 21
7.18125
 31
0.0
  0
LINE
  5
4E4
330
31
100
AcDbEntity
  8
0
 62
     0
100
AcDbLine
 10
4.186754849250876
 20
7.18125
 30
0.0
 11
4.208288827322737
 21
7.18125
 31
0.0
  0
LINE
  5
4E5
330
31
100
AcDbEntity
  8
0
 62
     0
100
AcDbLine
 10
4.131513831158817
 20
7.175
 30
0.0
 11
4.153164052399043
 21
7.175
 31
0.0
  0
LINE
  5
4E6
330
31
100
AcDbEntity
  8
0
 62
     0
100
AcDbLine
 10
4.189239930538879
 20
7.175
 30
0.0
 11
4.210890151779121
 21
7.175
 31
0.0
  0
LINE
  5
4E7
330
31
100
AcDbEntity
  8
0
 62
     0
100
AcDbLine
 10
4.128812366077735
 20
7.16875
 30
0.0
 11
4.1505846109264
 21
7.16875
 31
0.0
  0
LINE
  5
4E8
330
31
100
AcDbEntity
  8
0
 62
     0
100
AcDbLine
 10
4.191819372011525
 20
7.16875
 30
0.0
 11
4.213591616860204
 21
7.16875
 31
0.0
  0
LINE
  5
4E9
330
31
100
AcDbEntity
  8
0
 62
     0
100
AcDbLine
 10
4.126008975888199
 20
7.1625
 30
0.0
 11
4.147909277503027
 21
7.1625
 31
0.0
  0
LINE
  5
4EA
330
31
100
AcDbEntity
  8
0
 62
     0
100
AcDbLine
 10
4.194494705434896
 20
7.1625
 30
0.0
 11
4.216395007049741
 21
7.1625
 31
0.0
  0
LINE
  5
4EB
330
31
100
AcDbEntity
  8
0
 62
     0
100
AcDbLine
 10
4.123101763654189
 20
7.15625
 30
0.0
 11
4.145136428182898
 21
7.15625
 31
0.0
  0
LINE
  5
4EC
330
31
100
AcDbEntity
  8
0
 62
     0
100
AcDbLine
 10
4.197267554755029
 20
7.15625
 30
0.0
 11
4.219302219283752
 21
7.15625
 31
0.0
  0
ENDBLK
  5
4ED
330
31
100
AcDbEntity
  8
0
100
AcDbBlockEnd
  0
BLOCK
  5
4EE
330
32
100
AcDbEntity
  8
0
100
AcDbBlockBegin
  2
*D15
 70
     1
 10
0.0
 20
0.0
 30
0.0
  3
*D15
  1

  0
LINE
  5
4EF
330
32
100
AcDbEntity
  8
0
  6
ByBlock
 62
     0
440
 16777216
100
AcDbLine
 10
46.20407083105638
 20
9.703287040202527
 30
0.0
 11
45.45645182324962
 21
9.703287040202527
 31
0.0
  0
LINE
  5
4F0
330
32
100
AcDbEntity
  8
0
  6
ByBlock
 62
     0
440
 16777216
100
AcDbLine
 10
46.20407083105638
 20
9.578287040202527
 30
0.0
 11
45.45645182324962
 21
9.578287040202527
 31
0.0
  0
LINE
  5
4F1
330
32
100
AcDbEntity
  8
0
  6
ByBlock
 62
     0
440
 16777216
100
AcDbLine
 10
45.63645182324962
 20
9.398287040202527
 30
0.0
 11
45.63645182324962
 21
9.218287040202527
 31
0.0
  0
LINE
  5
4F2
330
32
100
AcDbEntity
  8
0
  6
ByBlock
 62
     0
440
 16777216
100
AcDbLine
 10
45.63645182324962
 20
9.883287040202526
 30
0.0
 11
45.63645182324962
 21
10.06328704020252
 31
0.0
  0
LINE
  5
4F3
330
32
100
AcDbEntity
  8
0
  6
ByBlock
 62
     0
440
 16777216
100
AcDbLine
 10
45.63645182324962
 20
9.218287040202527
 30
0.0
 11
45.45645182324962
 21
9.218287040202527
 31
0.0
  0
SOLID
  5
4F4
330
32
100
AcDbEntity
  8
0
  6
ByBlock
 62
     0
440
 16777216
100
AcDbTrace
 10
45.66645182324962
 20
9.398287040202527
 30
0.0
 11
45.60645182324962
 21
9.398287040202527
 31
0.0
 12
45.63645182324962
 22
9.578287040202527
 32
0.0
 13
45.63645182324962
 23
9.578287040202527
 33
0.0
  0
SOLID
  5
4F5
330
32
100
AcDbEntity
  8
0
  6
ByBlock
 62
     0
440
 16777216
100
AcDbTrace
 10
45.66645182324962
 20
9.883287040202526
 30
0.0
 11
45.60645182324962
 21
9.883287040202526
 31
0.0
 12
45.63645182324962
 22
9.703287040202527
 32
0.0
 13
45.63645182324962
 23
9.703287040202527
 33
0.0
  0
TEXT
  5
4F6
330
32
100
AcDbEntity
  8
0
  6
ByBlock
 62
     0
440
 16777216
100
AcDbText
 10
44.64645182324962
 20
9.128287040202527
 30
0.0
 40
0.18
  1
0.125
100
AcDbText
  0
POINT
  5
4F7
330
32
100
AcDbEntity
  8
DEFPOINTS
  6
ByBlock
 62
     0
440
 16777216
100
AcDbPoint
 10
46.29782083105638
 20
9.703287040202527
 30
0.0
  0
POINT
  5
4F8
330
32
100
AcDbEntity
  8
DEFPOINTS
  6
ByBlock
 62
     0
440
 16777216
100
AcDbPoint
 10
46.29782083105638
 20
9.578287040202527
 30
0.0
  0
POINT
  5
4F9
330
32
100
AcDbEntity
  8
DEFPOINTS
  6
ByBlock
 62
     0
440
 16777216
100
AcDbPoint
 10
45.63645182324962
 20
9.578287040202527
 30
0.0
  0
ENDBLK
  5
4FA
330
32
100
AcDbEntity
  8
0
100
AcDbBlockEnd
  0
BLOCK
  5
4FB
330
33
100
AcDbEntity
  8
0
100
AcDbBlockBegin
  2
SBBTX
 70
     0
 10
0.0
 20
0.0
 30
0.0
  3
SBBTX
  1

  0
LINE
  5
4FC
330
33
100
AcDbEntity
  8
0
100
AcDbLine
 10
-0.8421662700371435
 20
0.0199999999999996
 30
0.0
 11
0.8421662700371435
 21
0.0199999999999996
 31
0.0
  0
LINE
  5
4FD
330
33
100
AcDbEntity
  8
0
100
AcDbLine
 10
-0.8421662700371435
 20
0.0
 30
0.0
 11
0.8421662700371435
 21
0.0
 31
0.0
  0
TEXT
  5
4FE
330
33
100
AcDbEntity
  8
0
100
AcDbText
 10
-0.8455144018028244
 20
0.0554512145058732
 30
0.0
 40
0.156
  1
SECTION B-B
  7
COMPLEX
100
AcDbText
  0
ENDBLK
  5
4FF
330
33
100
AcDbEntity
  8
0
100
AcDbBlockEnd
  0
BLOCK
  5
500
330
34
100
AcDbEntity
  8
0
100
AcDbBlockBegin
  2
SAATX
 70
     0
 10
0.0
 20
0.0
 30
0.0
  3
SAATX
  1

  0
LINE
  5
501
330
34
100
AcDbEntity
  8
0
100
AcDbLine
 10
-0.8421662700371435
 20
0.0
 30
0.0
 11
0.8421662700371435
 21
0.0
 31
0.0
  0
LINE
  5
502
330
34
100
AcDbEntity
  8
0
100
AcDbLine
 10
-0.8421662700371435
 20
0.0199999999999996
 30
0.0
 11
0.8421662700371435
 21
0.0199999999999996
 31
0.0
  0
TEXT
  5
503
330
34
100
AcDbEntity
  8
0
100
AcDbText
 10
-0.8455144018028244
 20
0.0551412039750448
 30
0.0
 40
0.156
  1
SECTION A-A
  7
COMPLEX
100
AcDbText
  0
ENDBLK
  5
504
330
34
100
AcDbEntity
  8
0
100
AcDbBlockEnd
  0
BLOCK
  5
505
330
35
100
AcDbEntity
  8
0
100
AcDbBlockBegin
  2
*D18
 70
     1
 10
0.0
 20
0.0
 30
0.0
  3
*D18
  1

  0
LINE
  5
506
330
35
100
AcDbEntity
  8
0
  6
ByBlock
 62
     0
440
 16777216
100
AcDbLine
 10
10.97233138198502
 20
9.578287040202527
 30
0.0
 11
13.06287053972339
 21
9.578287040202527
 31
0.0
  0
LINE
  5
507
330
35
100
AcDbEntity
  8
0
  6
ByBlock
 62
     0
440
 16777216
100
AcDbLine
 10
11.26845373374113
 20
13.28078704020253
 30
0.0
 11
13.06287053972339
 21
13.28078704020253
 31
0.0
  0
LINE
  5
508
330
35
100
AcDbEntity
  8
0
  6
ByBlock
 62
     0
440
 16777216
100
AcDbLine
 10
12.88287053972339
 20
9.758287040202526
 30
0.0
 11
12.88287053972339
 21
11.15953704020252
 31
0.0
  0
LINE
  5
509
330
35
100
AcDbEntity
  8
0
  6
ByBlock
 62
     0
440
 16777216
100
AcDbLine
 10
12.88287053972339
 20
13.10078704020253
 30
0.0
 11
12.88287053972339
 21
11.69953704020253
 31
0.0
  0
SOLID
  5
50A
330
35
100
AcDbEntity
  8
0
  6
ByBlock
 62
     0
440
 16777216
100
AcDbTrace
 10
12.91287053972339
 20
9.758287040202526
 30
0.0
 11
12.85287053972339
 21
9.758287040202526
 31
0.0
 12
12.88287053972339
 22
9.578287040202527
 32
0.0
 13
12.88287053972339
 23
9.578287040202527
 33
0.0
  0
SOLID
  5
50B
330
35
100
AcDbEntity
  8
0
  6
ByBlock
 62
     0
440
 16777216
100
AcDbTrace
 10
12.91287053972339
 20
13.10078704020253
 30
0.0
 11
12.85287053972339
 21
13.10078704020253
 31
0.0
 12
12.88287053972339
 22
13.28078704020253
 32
0.0
 13
12.88287053972339
 23
13.28078704020253
 33
0.0
  0
TEXT
  5
50C
330
35
100
AcDbEntity
  8
0
  6
ByBlock
 62
     0
440
 16777216
100
AcDbText
 10
12.37287053972339
 20
11.33953704020252
 30
0.0
 40
0.18
  1
3 11/16
100
AcDbText
  0
POINT
  5
50D
330
35
100
AcDbEntity
  8
DEFPOINTS
  6
ByBlock
 62
     0
440
 16777216
100
AcDbPoint
 10
10.87858138198502
 20
9.578287040202527
 30
0.0
  0
POINT
  5
50E
330
35
100
AcDbEntity
  8
DEFPOINTS
  6
ByBlock
 62
     0
440
 16777216
100
AcDbPoint
 10
11.17470373374113
 20
13.28078704020253
 30
0.0
  0
POINT
  5
50F
330
35
100
AcDbEntity
  8
DEFPOINTS
  6
ByBlock
 62
     0
440
 16777216
100
AcDbPoint
 10
12.88287053972339
 20
13.28078704020253
 30
0.0
  0
ENDBLK
  5
510
330
35
100
AcDbEntity
  8
0
100
AcDbBlockEnd
  0
BLOCK
  5
511
330
36
100
AcDbEntity
  8
0
100
AcDbBlockBegin
  2
*D19
 70
     1
 10
0.0
 20
0.0
 30
0.0
  3
*D19
  1

  0
LINE
  5
512
330
36
100
AcDbEntity
  8
0
  6
ByBlock
 62
     0
440
 16777216
100
AcDbLine
 10
11.06608138198502
 20
9.578287040202527
 30
0.0
 11
14.65973130258471
 21
9.578287040202525
 31
0.0
  0
LINE
  5
513
330
36
100
AcDbEntity
  8
0
  6
ByBlock
 62
     0
440
 16777216
100
AcDbLine
 10
10.68783711881922
 20
13.46828704020252
 30
0.0
 11
14.65973130258471
 21
13.46828704020252
 31
0.0
  0
LINE
  5
514
330
36
100
AcDbEntity
  8
0
  6
ByBlock
 62
     0
440
 16777216
100
AcDbLine
 10
14.47973130258471
 20
9.758287040202526
 30
0.0
 11
14.47973130258471
 21
11.25328704020252
 31
0.0
  0
LINE
  5
515
330
36
100
AcDbEntity
  8
0
  6
ByBlock
 62
     0
440
 16777216
100
AcDbLine
 10
14.47973130258471
 20
13.28828704020252
 30
0.0
 11
14.47973130258471
 21
11.79328704020252
 31
0.0
  0
SOLID
  5
516
330
36
100
AcDbEntity
  8
0
  6
ByBlock
 62
     0
440
 16777216
100
AcDbTrace
 10
14.50973130258471
 20
9.758287040202526
 30
0.0
 11
14.44973130258471
 21
9.758287040202526
 31
0.0
 12
14.47973130258471
 22
9.578287040202527
 32
0.0
 13
14.47973130258471
 23
9.578287040202527
 33
0.0
  0
SOLID
  5
517
330
36
100
AcDbEntity
  8
0
  6
ByBlock
 62
     0
440
 16777216
100
AcDbTrace
 10
14.50973130258471
 20
13.28828704020252
 30
0.0
 11
14.44973130258471
 21
13.28828704020252
 31
0.0
 12
14.47973130258471
 22
13.46828704020252
 32
0.0
 13
14.47973130258471
 23
13.46828704020252
 33
0.0
  0
TEXT
  5
518
330
36
100
AcDbEntity
  8
0
  6
ByBlock
 62
     0
440
 16777216
100
AcDbText
 10
14.05973130258471
 20
11.43328704020252
 30
0.0
 40
0.18
  1
3 7/8
100
AcDbText
  0
POINT
  5
519
330
36
100
AcDbEntity
  8
DEFPOINTS
  6
ByBlock
 62
     0
440
 16777216
100
AcDbPoint
 10
10.97233138198502
 20
9.578287040202527
 30
0.0
  0
POINT
  5
51A
330
36
100
AcDbEntity
  8
DEFPOINTS
  6
ByBlock
 62
     0
440
 16777216
100
AcDbPoint
 10
10.59408711881921
 20
13.46828704020252
 30
0.0
  0
POINT
  5
51B
330
36
100
AcDbEntity
  8
DEFPOINTS
  6
ByBlock
 62
     0
440
 16777216
100
AcDbPoint
 10
14.47973130258471
 20
13.46828704020252
 30
0.0
  0
ENDBLK
  5
51C
330
36
100
AcDbEntity
  8
0
100
AcDbBlockEnd
  0
BLOCK
  5
51D
330
37
100
AcDbEntity
  8
0
100
AcDbBlockBegin
  2
*D20
 70
     1
 10
0.0
 20
0.0
 30
0.0
  3
*D20
  1

  0
LINE
  5
51E
330
37
100
AcDbEntity
  8
0
  6
ByBlock
 62
     0
440
 16777216
100
AcDbLine
 10
8.000337118819217
 20
32.80412159138434
 30
0.0
 11
5.590622859233473
 21
32.80412159138434
 31
0.0
  0
LINE
  5
51F
330
37
100
AcDbEntity
  8
0
  6
ByBlock
 62
     0
440
 16777216
100
AcDbLine
 10
8.000337118819217
 20
27.49162159138434
 30
0.0
 11
5.590622859233473
 21
27.49162159138434
 31
0.0
  0
LINE
  5
520
330
37
100
AcDbEntity
  8
0
  6
ByBlock
 62
     0
440
 16777216
100
AcDbLine
 10
5.770622859233473
 20
32.62412159138435
 30
0.0
 11
5.770622859233473
 21
30.37529107625856
 31
0.0
  0
LINE
  5
521
330
37
100
AcDbEntity
  8
0
  6
ByBlock
 62
     0
440
 16777216
100
AcDbLine
 10
5.770622859233473
 20
27.67162159138435
 30
0.0
 11
5.770622859233473
 21
29.83529107625856
 31
0.0
  0
SOLID
  5
522
330
37
100
AcDbEntity
  8
0
  6
ByBlock
 62
     0
440
 16777216
100
AcDbTrace
 10
5.800622859233473
 20
32.62412159138435
 30
0.0
 11
5.740622859233472
 21
32.62412159138435
 31
0.0
 12
5.770622859233473
 22
32.80412159138434
 32
0.0
 13
5.770622859233473
 23
32.80412159138434
 33
0.0
  0
SOLID
  5
523
330
37
100
AcDbEntity
  8
0
  6
ByBlock
 62
     0
440
 16777216
100
AcDbTrace
 10
5.800622859233473
 20
27.67162159138435
 30
0.0
 11
5.740622859233472
 21
27.67162159138435
 31
0.0
 12
5.770622859233473
 22
27.49162159138434
 32
0.0
 13
5.770622859233473
 23
27.49162159138434
 33
0.0
  0
TEXT
  5
524
330
37
100
AcDbEntity
  8
0
  6
ByBlock
 62
     0
440
 16777216
100
AcDbText
 10
5.290622859233475
 20
30.01529107625856
 30
0.0
 40
0.18
  1
5 5/16
100
AcDbText
  0
POINT
  5
525
330
37
100
AcDbEntity
  8
DEFPOINTS
  6
ByBlock
 62
     0
440
 16777216
100
AcDbPoint
 10
8.094087118819217
 20
32.80412159138434
 30
0.0
  0
POINT
  5
526
330
37
100
AcDbEntity
  8
DEFPOINTS
  6
ByBlock
 62
     0
440
 16777216
100
AcDbPoint
 10
8.094087118819217
 20
27.49162159138434
 30
0.0
  0
POINT
  5
527
330
37
100
AcDbEntity
  8
DEFPOINTS
  6
ByBlock
 62
     0
440
 16777216
100
AcDbPoint
 10
5.770622859233473
 20
27.49162159138434
 30
0.0
  0
ENDBLK
  5
528
330
37
100
AcDbEntity
  8
0
100
AcDbBlockEnd
  0
BLOCK
  5
529
330
38
100
AcDbEntity
  8
0
100
AcDbBlockBegin
  2
*D21
 70
     1
 10
0.0
 20
0.0
 30
0.0
  3
*D21
  1

  0
LINE
  5
52A
330
38
100
AcDbEntity
  8
0
  6
ByBlock
 62
     0
440
 16777216
100
AcDbLine
 10
7.656587118819217
 20
26.83537159138435
 30
0.0
 11
4.124652322836197
 21
26.83537159138435
 31
0.0
  0
LINE
  5
52B
330
38
100
AcDbEntity
  8
0
  6
ByBlock
 62
     0
440
 16777216
100
AcDbLine
 10
7.656587118819217
 20
33.46037159138435
 30
0.0
 11
4.124652322836197
 21
33.46037159138435
 31
0.0
  0
LINE
  5
52C
330
38
100
AcDbEntity
  8
0
  6
ByBlock
 62
     0
440
 16777216
100
AcDbLine
 10
4.304652322836197
 20
27.01537159138434
 30
0.0
 11
4.304652322836197
 21
29.87787159138434
 31
0.0
  0
LINE
  5
52D
330
38
100
AcDbEntity
  8
0
  6
ByBlock
 62
     0
440
 16777216
100
AcDbLine
 10
4.304652322836197
 20
33.28037159138435
 30
0.0
 11
4.304652322836197
 21
30.41787159138434
 31
0.0
  0
SOLID
  5
52E
330
38
100
AcDbEntity
  8
0
  6
ByBlock
 62
     0
440
 16777216
100
AcDbTrace
 10
4.334652322836197
 20
27.01537159138434
 30
0.0
 11
4.274652322836197
 21
27.01537159138434
 31
0.0
 12
4.304652322836197
 22
26.83537159138435
 32
0.0
 13
4.304652322836197
 23
26.83537159138435
 33
0.0
  0
SOLID
  5
52F
330
38
100
AcDbEntity
  8
0
  6
ByBlock
 62
     0
440
 16777216
100
AcDbTrace
 10
4.334652322836197
 20
33.28037159138435
 30
0.0
 11
4.274652322836197
 21
33.28037159138435
 31
0.0
 12
4.304652322836197
 22
33.46037159138435
 32
0.0
 13
4.304652322836197
 23
33.46037159138435
 33
0.0
  0
TEXT
  5
530
330
38
100
AcDbEntity
  8
0
  6
ByBlock
 62
     0
440
 16777216
100
AcDbText
 10
3.884652322836198
 20
30.05787159138435
 30
0.0
 40
0.18
  1
6 5/8
100
AcDbText
  0
POINT
  5
531
330
38
100
AcDbEntity
  8
DEFPOINTS
  6
ByBlock
 62
     0
440
 16777216
100
AcDbPoint
 10
7.750337118819217
 20
26.83537159138435
 30
0.0
  0
POINT
  5
532
330
38
100
AcDbEntity
  8
DEFPOINTS
  6
ByBlock
 62
     0
440
 16777216
100
AcDbPoint
 10
7.750337118819217
 20
33.46037159138435
 30
0.0
  0
POINT
  5
533
330
38
100
AcDbEntity
  8
DEFPOINTS
  6
ByBlock
 62
     0
440
 16777216
100
AcDbPoint
 10
4.304652322836197
 20
33.46037159138435
 30
0.0
  0
ENDBLK
  5
534
330
38
100
AcDbEntity
  8
0
100
AcDbBlockEnd
  0
BLOCK
  5
535
330
39
100
AcDbEntity
  8
0
100
AcDbBlockBegin
  2
*D22
 70
     1
 10
0.0
 20
0.0
 30
0.0
  3
*D22
  1

  0
LINE
  5
536
330
39
100
AcDbEntity
  8
0
  6
ByBlock
 62
     0
440
 16777216
100
AcDbLine
 10
8.094087118819217
 20
32.89787159138434
 30
0.0
 11
8.094087118819217
 21
35.16802489153098
 31
0.0
  0
LINE
  5
537
330
39
100
AcDbEntity
  8
0
  6
ByBlock
 62
     0
440
 16777216
100
AcDbLine
 10
10.59408711881921
 20
32.89787159138434
 30
0.0
 11
10.59408711881921
 21
35.16802489153098
 31
0.0
  0
LINE
  5
538
330
39
100
AcDbEntity
  8
0
  6
ByBlock
 62
     0
440
 16777216
100
AcDbLine
 10
8.274087118819217
 20
34.98802489153098
 30
0.0
 11
8.774087118819217
 21
34.98802489153098
 31
0.0
  0
LINE
  5
539
330
39
100
AcDbEntity
  8
0
  6
ByBlock
 62
     0
440
 16777216
100
AcDbLine
 10
10.41408711881921
 20
34.98802489153098
 30
0.0
 11
9.914087118819217
 21
34.98802489153098
 31
0.0
  0
SOLID
  5
53A
330
39
100
AcDbEntity
  8
0
  6
ByBlock
 62
     0
440
 16777216
100
AcDbTrace
 10
8.274087118819217
 20
34.95802489153098
 30
0.0
 11
8.274087118819217
 21
35.01802489153098
 31
0.0
 12
8.094087118819217
 22
34.98802489153098
 32
0.0
 13
8.094087118819217
 23
34.98802489153098
 33
0.0
  0
SOLID
  5
53B
330
39
100
AcDbEntity
  8
0
  6
ByBlock
 62
     0
440
 16777216
100
AcDbTrace
 10
10.41408711881921
 20
34.95802489153098
 30
0.0
 11
10.41408711881921
 21
35.01802489153098
 31
0.0
 12
10.59408711881921
 22
34.98802489153098
 32
0.0
 13
10.59408711881921
 23
34.98802489153098
 33
0.0
  0
TEXT
  5
53C
330
39
100
AcDbEntity
  8
0
  6
ByBlock
 62
     0
440
 16777216
100
AcDbText
 10
8.954087118819217
 20
34.89802489153098
 30
0.0
 40
0.18
  1
2 1/2
100
AcDbText
  0
POINT
  5
53D
330
39
100
AcDbEntity
  8
DEFPOINTS
  6
ByBlock
 62
     0
440
 16777216
100
AcDbPoint
 10
8.094087118819217
 20
32.80412159138434
 30
0.0
  0
POINT
  5
53E
330
39
100
AcDbEntity
  8
DEFPOINTS
  6
ByBlock
 62
     0
440
 16777216
100
AcDbPoint
 10
10.59408711881921
 20
32.80412159138434
 30
0.0
  0
POINT
  5
53F
330
39
100
AcDbEntity
  8
DEFPOINTS
  6
ByBlock
 62
     0
440
 16777216
100
AcDbPoint
 10
10.59408711881921
 20
34.98802489153098
 30
0.0
  0
ENDBLK
  5
540
330
39
100
AcDbEntity
  8
0
100
AcDbBlockEnd
  0
BLOCK
  5
541
330
3A
100
AcDbEntity
  8
0
100
AcDbBlockBegin
  2
*D23
 70
     1
 10
0.0
 20
0.0
 30
0.0
  3
*D23
  1

  0
LINE
  5
542
330
3A
100
AcDbEntity
  8
0
  6
ByBlock
 62
     0
440
 16777216
100
AcDbLine
 10
11.25033711881922
 20
33.24162159138435
 30
0.0
 11
11.25033711881922
 21
35.98554415302624
 31
0.0
  0
LINE
  5
543
330
3A
100
AcDbEntity
  8
0
  6
ByBlock
 62
     0
440
 16777216
100
AcDbLine
 10
7.437837118819217
 20
33.24162159138435
 30
0.0
 11
7.437837118819217
 21
35.98554415302624
 31
0.0
  0
LINE
  5
544
330
3A
100
AcDbEntity
  8
0
  6
ByBlock
 62
     0
440
 16777216
100
AcDbLine
 10
11.07033711881922
 20
35.80554415302624
 30
0.0
 11
10.06408711881921
 21
35.80554415302624
 31
0.0
  0
LINE
  5
545
330
3A
100
AcDbEntity
  8
0
  6
ByBlock
 62
     0
440
 16777216
100
AcDbLine
 10
7.617837118819217
 20
35.80554415302624
 30
0.0
 11
8.624087118819218
 21
35.80554415302624
 31
0.0
  0
SOLID
  5
546
330
3A
100
AcDbEntity
  8
0
  6
ByBlock
 62
     0
440
 16777216
100
AcDbTrace
 10
11.07033711881922
 20
35.77554415302624
 30
0.0
 11
11.07033711881922
 21
35.83554415302624
 31
0.0
 12
11.25033711881922
 22
35.80554415302624
 32
0.0
 13
11.25033711881922
 23
35.80554415302624
 33
0.0
  0
SOLID
  5
547
330
3A
100
AcDbEntity
  8
0
  6
ByBlock
 62
     0
440
 16777216
100
AcDbTrace
 10
7.617837118819217
 20
35.77554415302624
 30
0.0
 11
7.617837118819217
 21
35.83554415302624
 31
0.0
 12
7.437837118819217
 22
35.80554415302624
 32
0.0
 13
7.437837118819217
 23
35.80554415302624
 33
0.0
  0
TEXT
  5
548
330
3A
100
AcDbEntity
  8
0
  6
ByBlock
 62
     0
440
 16777216
100
AcDbText
 10
8.804087118819218
 20
35.71554415302624
 30
0.0
 40
0.18
  1
3 13/16
100
AcDbText
  0
POINT
  5
549
330
3A
100
AcDbEntity
  8
DEFPOINTS
  6
ByBlock
 62
     0
440
 16777216
100
AcDbPoint
 10
11.25033711881922
 20
33.14787159138435
 30
0.0
  0
POINT
  5
54A
330
3A
100
AcDbEntity
  8
DEFPOINTS
  6
ByBlock
 62
     0
440
 16777216
100
AcDbPoint
 10
7.437837118819217
 20
33.14787159138435
 30
0.0
  0
POINT
  5
54B
330
3A
100
AcDbEntity
  8
DEFPOINTS
  6
ByBlock
 62
     0
440
 16777216
100
AcDbPoint
 10
7.437837118819217
 20
35.80554415302624
 30
0.0
  0
ENDBLK
  5
54C
330
3A
100
AcDbEntity
  8
0
100
AcDbBlockEnd
  0
BLOCK
  5
54D
330
3B
100
AcDbEntity
  8
0
100
AcDbBlockBegin
  2
*D24
 70
     1
 10
0.0
 20
0.0
 30
0.0
  3
*D24
  1

  0
LINE
  5
54E
330
3B
100
AcDbEntity
  8
0
  6
ByBlock
 62
     0
440
 16777216
100
AcDbLine
 10
49.77608991049039
 20
32.21235979805171
 30
0.0
 11
51.17151685838065
 21
32.21235979805171
 31
0.0
  0
LINE
  5
54F
330
3B
100
AcDbEntity
  8
0
  6
ByBlock
 62
     0
440
 16777216
100
AcDbLine
 10
49.77608991049039
 20
28.08338338471698
 30
0.0
 11
51.17151685838065
 21
28.08338338471698
 31
0.0
  0
LINE
  5
550
330
3B
100
AcDbEntity
  8
0
  6
ByBlock
 62
     0
440
 16777216
100
AcDbLine
 10
50.99151685838065
 20
32.03235979805171
 30
0.0
 11
50.99151685838065
 21
30.41787159138434
 31
0.0
  0
LINE
  5
551
330
3B
100
AcDbEntity
  8
0
  6
ByBlock
 62
     0
440
 16777216
100
AcDbLine
 10
50.99151685838065
 20
28.26338338471698
 30
0.0
 11
50.99151685838065
 21
29.87787159138434
 31
0.0
  0
SOLID
  5
552
330
3B
100
AcDbEntity
  8
0
  6
ByBlock
 62
     0
440
 16777216
100
AcDbTrace
 10
51.02151685838065
 20
32.03235979805171
 30
0.0
 11
50.96151685838065
 21
32.03235979805171
 31
0.0
 12
50.99151685838065
 22
32.21235979805171
 32
0.0
 13
50.99151685838065
 23
32.21235979805171
 33
0.0
  0
SOLID
  5
553
330
3B
100
AcDbEntity
  8
0
  6
ByBlock
 62
     0
440
 16777216
100
AcDbTrace
 10
51.02151685838065
 20
28.26338338471698
 30
0.0
 11
50.96151685838065
 21
28.26338338471698
 31
0.0
 12
50.99151685838065
 22
28.08338338471698
 32
0.0
 13
50.99151685838065
 23
28.08338338471698
 33
0.0
  0
TEXT
  5
554
330
3B
100
AcDbEntity
  8
0
  6
ByBlock
 62
     0
440
 16777216
100
AcDbText
 10
50.60151685838064
 20
30.05787159138434
 30
0.0
 40
0.18
  1
4 1/8
100
AcDbText
  0
POINT
  5
555
330
3B
100
AcDbEntity
  8
DEFPOINTS
  6
ByBlock
 62
     0
440
 16777216
100
AcDbPoint
 10
49.68233991049039
 20
32.21235979805171
 30
0.0
  0
POINT
  5
556
330
3B
100
AcDbEntity
  8
DEFPOINTS
  6
ByBlock
 62
     0
440
 16777216
100
AcDbPoint
 10
49.68233991049039
 20
28.08338338471698
 30
0.0
  0
POINT
  5
557
330
3B
100
AcDbEntity
  8
DEFPOINTS
  6
ByBlock
 62
     0
440
 16777216
100
AcDbPoint
 10
50.99151685838065
 20
28.08338338471698
 30
0.0
  0
ENDBLK
  5
558
330
3B
100
AcDbEntity
  8
0
100
AcDbBlockEnd
  0
BLOCK
  5
559
330
3C
100
AcDbEntity
  8
0
100
AcDbBlockBegin
  2
*D25
 70
     1
 10
0.0
 20
0.0
 30
0.0
  3
*D25
  1

  0
LINE
  5
55A
330
3C
100
AcDbEntity
  8
0
  6
ByBlock
 62
     0
440
 16777216
100
AcDbLine
 10
49.9010899104904
 20
32.58537159138434
 30
0.0
 11
52.31026182861782
 21
32.58537159138434
 31
0.0
  0
LINE
  5
55B
330
3C
100
AcDbEntity
  8
0
  6
ByBlock
 62
     0
440
 16777216
100
AcDbLine
 10
49.9010899104904
 20
27.71037159138435
 30
0.0
 11
52.31026182861782
 21
27.71037159138435
 31
0.0
  0
LINE
  5
55C
330
3C
100
AcDbEntity
  8
0
  6
ByBlock
 62
     0
440
 16777216
100
AcDbLine
 10
52.13026182861781
 20
32.40537159138435
 30
0.0
 11
52.13026182861781
 21
30.41787159138434
 31
0.0
  0
LINE
  5
55D
330
3C
100
AcDbEntity
  8
0
  6
ByBlock
 62
     0
440
 16777216
100
AcDbLine
 10
52.13026182861781
 20
27.89037159138434
 30
0.0
 11
52.13026182861781
 21
29.87787159138434
 31
0.0
  0
SOLID
  5
55E
330
3C
100
AcDbEntity
  8
0
  6
ByBlock
 62
     0
440
 16777216
100
AcDbTrace
 10
52.16026182861781
 20
32.40537159138435
 30
0.0
 11
52.10026182861781
 21
32.40537159138435
 31
0.0
 12
52.13026182861781
 22
32.58537159138434
 32
0.0
 13
52.13026182861781
 23
32.58537159138434
 33
0.0
  0
SOLID
  5
55F
330
3C
100
AcDbEntity
  8
0
  6
ByBlock
 62
     0
440
 16777216
100
AcDbTrace
 10
52.16026182861781
 20
27.89037159138434
 30
0.0
 11
52.10026182861781
 21
27.89037159138434
 31
0.0
 12
52.13026182861781
 22
27.71037159138435
 32
0.0
 13
52.13026182861781
 23
27.71037159138435
 33
0.0
  0
TEXT
  5
560
330
3C
100
AcDbEntity
  8
0
  6
ByBlock
 62
     0
440
 16777216
100
AcDbText
 10
51.71026182861782
 20
30.05787159138435
 30
0.0
 40
0.18
  1
4 7/8
100
AcDbText
  0
POINT
  5
561
330
3C
100
AcDbEntity
  8
DEFPOINTS
  6
ByBlock
 62
     0
440
 16777216
100
AcDbPoint
 10
49.8073399104904
 20
32.58537159138434
 30
0.0
  0
POINT
  5
562
330
3C
100
AcDbEntity
  8
DEFPOINTS
  6
ByBlock
 62
     0
440
 16777216
100
AcDbPoint
 10
49.8073399104904
 20
27.71037159138435
 30
0.0
  0
POINT
  5
563
330
3C
100
AcDbEntity
  8
DEFPOINTS
  6
ByBlock
 62
     0
440
 16777216
100
AcDbPoint
 10
52.13026182861781
 20
27.71037159138435
 30
0.0
  0
ENDBLK
  5
564
330
3C
100
AcDbEntity
  8
0
100
AcDbBlockEnd
  0
BLOCK
  5
565
330
3D
100
AcDbEntity
  8
0
100
AcDbBlockBegin
  2
*D26
 70
     1
 10
0.0
 20
0.0
 30
0.0
  3
*D26
  1

  0
LINE
  5
566
330
3D
100
AcDbEntity
  8
0
  6
ByBlock
 62
     0
440
 16777216
100
AcDbLine
 10
49.71468068589272
 20
27.14463684727126
 30
0.0
 11
53.40155909176178
 21
27.14463684727126
 31
0.0
  0
LINE
  5
567
330
3D
100
AcDbEntity
  8
0
  6
ByBlock
 62
     0
440
 16777216
100
AcDbLine
 10
49.71468068589272
 20
33.15110633549743
 30
0.0
 11
53.40155909176178
 21
33.15110633549743
 31
0.0
  0
LINE
  5
568
330
3D
100
AcDbEntity
  8
0
  6
ByBlock
 62
     0
440
 16777216
100
AcDbLine
 10
53.22155909176178
 20
27.32463684727126
 30
0.0
 11
53.22155909176178
 21
29.89003745284886
 31
0.0
  0
LINE
  5
569
330
3D
100
AcDbEntity
  8
0
  6
ByBlock
 62
     0
440
 16777216
100
AcDbLine
 10
53.22155909176178
 20
32.97110633549743
 30
0.0
 11
53.22155909176178
 21
30.43003745284886
 31
0.0
  0
SOLID
  5
56A
330
3D
100
AcDbEntity
  8
0
  6
ByBlock
 62
     0
440
 16777216
100
AcDbTrace
 10
53.25155909176178
 20
27.32463684727126
 30
0.0
 11
53.19155909176178
 21
27.32463684727126
 31
0.0
 12
53.22155909176178
 22
27.14463684727126
 32
0.0
 13
53.22155909176178
 23
27.14463684727126
 33
0.0
  0
SOLID
  5
56B
330
3D
100
AcDbEntity
  8
0
  6
ByBlock
 62
     0
440
 16777216
100
AcDbTrace
 10
53.25155909176178
 20
32.97110633549743
 30
0.0
 11
53.19155909176178
 21
32.97110633549743
 31
0.0
 12
53.22155909176178
 22
33.15110633549743
 32
0.0
 13
53.22155909176178
 23
33.15110633549743
 33
0.0
  0
TEXT
  5
56C
330
3D
100
AcDbEntity
  8
0
  6
ByBlock
 62
     0
440
 16777216
100
AcDbText
 10
53.16155909176178
 20
30.07003745284885
 30
0.0
 40
0.18
  1
6
100
AcDbText
  0
POINT
  5
56D
330
3D
100
AcDbEntity
  8
DEFPOINTS
  6
ByBlock
 62
     0
440
 16777216
100
AcDbPoint
 10
49.62093068589272
 20
27.14463684727126
 30
0.0
  0
POINT
  5
56E
330
3D
100
AcDbEntity
  8
DEFPOINTS
  6
ByBlock
 62
     0
440
 16777216
100
AcDbPoint
 10
49.62093068589272
 20
33.15110633549743
 30
0.0
  0
POINT
  5
56F
330
3D
100
AcDbEntity
  8
DEFPOINTS
  6
ByBlock
 62
     0
440
 16777216
100
AcDbPoint
 10
53.22155909176178
 20
33.15110633549743
 30
0.0
  0
ENDBLK
  5
570
330
3D
100
AcDbEntity
  8
0
100
AcDbBlockEnd
  0
BLOCK
  5
571
330
3E
100
AcDbEntity
  8
0
100
AcDbBlockBegin
  2
*D27
 70
     1
 10
0.0
 20
0.0
 30
0.0
  3
*D27
  1

  0
LINE
  5
572
330
3E
100
AcDbEntity
  8
0
  6
ByBlock
 62
     0
440
 16777216
100
AcDbLine
 10
49.46055935738801
 20
9.703287040202527
 30
0.0
 11
51.25659550558228
 21
9.703287040202527
 31
0.0
  0
LINE
  5
573
330
3E
100
AcDbEntity
  8
0
  6
ByBlock
 62
     0
440
 16777216
100
AcDbLine
 10
49.5822415479974
 20
13.07828704020252
 30
0.0
 11
51.25659550558228
 21
13.07828704020252
 31
0.0
  0
LINE
  5
574
330
3E
100
AcDbEntity
  8
0
  6
ByBlock
 62
     0
440
 16777216
100
AcDbLine
 10
51.07659550558228
 20
9.883287040202526
 30
0.0
 11
51.07659550558228
 21
11.12078704020253
 31
0.0
  0
LINE
  5
575
330
3E
100
AcDbEntity
  8
0
  6
ByBlock
 62
     0
440
 16777216
100
AcDbLine
 10
51.07659550558228
 20
12.89828704020252
 30
0.0
 11
51.07659550558228
 21
11.66078704020253
 31
0.0
  0
SOLID
  5
576
330
3E
100
AcDbEntity
  8
0
  6
ByBlock
 62
     0
440
 16777216
100
AcDbTrace
 10
51.10659550558228
 20
9.883287040202526
 30
0.0
 11
51.04659550558228
 21
9.883287040202526
 31
0.0
 12
51.07659550558228
 22
9.703287040202527
 32
0.0
 13
51.07659550558228
 23
9.703287040202527
 33
0.0
  0
SOLID
  5
577
330
3E
100
AcDbEntity
  8
0
  6
ByBlock
 62
     0
440
 16777216
100
AcDbTrace
 10
51.10659550558228
 20
12.89828704020252
 30
0.0
 11
51.04659550558228
 21
12.89828704020252
 31
0.0
 12
51.07659550558228
 22
13.07828704020252
 32
0.0
 13
51.07659550558228
 23
13.07828704020252
 33
0.0
  0
TEXT
  5
578
330
3E
100
AcDbEntity
  8
0
  6
ByBlock
 62
     0
440
 16777216
100
AcDbText
 10
50.65659550558228
 20
11.30078704020252
 30
0.0
 40
0.18
  1
3 3/8
100
AcDbText
  0
POINT
  5
579
330
3E
100
AcDbEntity
  8
DEFPOINTS
  6
ByBlock
 62
     0
440
 16777216
100
AcDbPoint
 10
49.36680935738801
 20
9.703287040202527
 30
0.0
  0
POINT
  5
57A
330
3E
100
AcDbEntity
  8
DEFPOINTS
  6
ByBlock
 62
     0
440
 16777216
100
AcDbPoint
 10
49.48849154799741
 20
13.07828704020252
 30
0.0
  0
POINT
  5
57B
330
3E
100
AcDbEntity
  8
DEFPOINTS
  6
ByBlock
 62
     0
440
 16777216
100
AcDbPoint
 10
51.07659550558228
 20
13.07828704020252
 30
0.0
  0
ENDBLK
  5
57C
330
3E
100
AcDbEntity
  8
0
100
AcDbBlockEnd
  0
BLOCK
  5
57D
330
3F
100
AcDbEntity
  8
0
100
AcDbBlockBegin
  2
*D28
 70
     1
 10
0.0
 20
0.0
 30
0.0
  3
*D28
  1

  0
LINE
  5
57E
330
3F
100
AcDbEntity
  8
0
  6
ByBlock
 62
     0
440
 16777216
100
AcDbLine
 10
48.92815177231078
 20
9.609537040202527
 30
0.0
 11
48.92815177231078
 21
8.612678121088853
 31
0.0
  0
LINE
  5
57F
330
3F
100
AcDbEntity
  8
0
  6
ByBlock
 62
     0
440
 16777216
100
AcDbLine
 10
46.73647841613361
 20
9.609537040202527
 30
0.0
 11
46.73647841613361
 21
8.612678121088853
 31
0.0
  0
LINE
  5
580
330
3F
100
AcDbEntity
  8
0
  6
ByBlock
 62
     0
440
 16777216
100
AcDbLine
 10
48.74815177231078
 20
8.792678121088853
 30
0.0
 11
48.49231509422219
 21
8.792678121088853
 31
0.0
  0
LINE
  5
581
330
3F
100
AcDbEntity
  8
0
  6
ByBlock
 62
     0
440
 16777216
100
AcDbLine
 10
46.91647841613361
 20
8.792678121088853
 30
0.0
 11
47.17231509422219
 21
8.792678121088853
 31
0.0
  0
SOLID
  5
582
330
3F
100
AcDbEntity
  8
0
  6
ByBlock
 62
     0
440
 16777216
100
AcDbTrace
 10
48.74815177231078
 20
8.762678121088853
 30
0.0
 11
48.74815177231078
 21
8.822678121088852
 31
0.0
 12
48.92815177231078
 22
8.792678121088853
 32
0.0
 13
48.92815177231078
 23
8.792678121088853
 33
0.0
  0
SOLID
  5
583
330
3F
100
AcDbEntity
  8
0
  6
ByBlock
 62
     0
440
 16777216
100
AcDbTrace
 10
46.91647841613361
 20
8.762678121088853
 30
0.0
 11
46.91647841613361
 21
8.822678121088852
 31
0.0
 12
46.73647841613361
 22
8.792678121088853
 32
0.0
 13
46.73647841613361
 23
8.792678121088853
 33
0.0
  0
TEXT
  5
584
330
3F
100
AcDbEntity
  8
0
  6
ByBlock
 62
     0
440
 16777216
100
AcDbText
 10
47.35231509422219
 20
8.702678121088853
 30
0.0
 40
0.18
  1
2 3/16
100
AcDbText
  0
POINT
  5
585
330
3F
100
AcDbEntity
  8
DEFPOINTS
  6
ByBlock
 62
     0
440
 16777216
100
AcDbPoint
 10
48.92815177231078
 20
9.703287040202527
 30
0.0
  0
POINT
  5
586
330
3F
100
AcDbEntity
  8
DEFPOINTS
  6
ByBlock
 62
     0
440
 16777216
100
AcDbPoint
 10
46.73647841613361
 20
9.703287040202527
 30
0.0
  0
POINT
  5
587
330
3F
100
AcDbEntity
  8
DEFPOINTS
  6
ByBlock
 62
     0
440
 16777216
100
AcDbPoint
 10
46.73647841613361
 20
8.792678121088853
 30
0.0
  0
ENDBLK
  5
588
330
3F
100
AcDbEntity
  8
0
100
AcDbBlockEnd
  0
BLOCK
  5
589
330
40
100
AcDbEntity
  8
0
100
AcDbBlockBegin
  2
*D29
 70
     1
 10
0.0
 20
0.0
 30
0.0
  3
*D29
  1

  0
LINE
  5
58A
330
40
100
AcDbEntity
  8
0
  6
ByBlock
 62
     0
440
 16777216
100
AcDbLine
 10
46.3635650942222
 20
9.484537040202519
 30
0.0
 11
46.3635650942222
 21
7.91922401761183
 31
0.0
  0
LINE
  5
58B
330
40
100
AcDbEntity
  8
0
  6
ByBlock
 62
     0
440
 16777216
100
AcDbLine
 10
49.3010650942222
 20
9.484537040202523
 30
0.0
 11
49.3010650942222
 21
7.91922401761183
 31
0.0
  0
LINE
  5
58C
330
40
100
AcDbEntity
  8
0
  6
ByBlock
 62
     0
440
 16777216
100
AcDbLine
 10
46.54356509422219
 20
8.099224017611829
 30
0.0
 11
47.11231509422219
 21
8.099224017611829
 31
0.0
  0
LINE
  5
58D
330
40
100
AcDbEntity
  8
0
  6
ByBlock
 62
     0
440
 16777216
100
AcDbLine
 10
49.12106509422219
 20
8.099224017611829
 30
0.0
 11
48.55231509422219
 21
8.099224017611829
 31
0.0
  0
SOLID
  5
58E
330
40
100
AcDbEntity
  8
0
  6
ByBlock
 62
     0
440
 16777216
100
AcDbTrace
 10
46.54356509422219
 20
8.06922401761183
 30
0.0
 11
46.54356509422219
 21
8.129224017611829
 31
0.0
 12
46.3635650942222
 22
8.099224017611829
 32
0.0
 13
46.3635650942222
 23
8.099224017611829
 33
0.0
  0
SOLID
  5
58F
330
40
100
AcDbEntity
  8
0
  6
ByBlock
 62
     0
440
 16777216
100
AcDbTrace
 10
49.12106509422219
 20
8.06922401761183
 30
0.0
 11
49.12106509422219
 21
8.129224017611829
 31
0.0
 12
49.3010650942222
 22
8.099224017611829
 32
0.0
 13
49.3010650942222
 23
8.099224017611829
 33
0.0
  0
TEXT
  5
590
330
40
100
AcDbEntity
  8
0
  6
ByBlock
 62
     0
440
 16777216
100
AcDbText
 10
47.29231509422219
 20
8.009224017611829
 30
0.0
 40
0.18
  1
2 15/16
100
AcDbText
  0
POINT
  5
591
330
40
100
AcDbEntity
  8
DEFPOINTS
  6
ByBlock
 62
     0
440
 16777216
100
AcDbPoint
 10
46.3635650942222
 20
9.578287040202519
 30
0.0
  0
POINT
  5
592
330
40
100
AcDbEntity
  8
DEFPOINTS
  6
ByBlock
 62
     0
440
 16777216
100
AcDbPoint
 10
49.3010650942222
 20
9.578287040202523
 30
0.0
  0
POINT
  5
593
330
40
100
AcDbEntity
  8
DEFPOINTS
  6
ByBlock
 62
     0
440
 16777216
100
AcDbPoint
 10
49.3010650942222
 20
8.099224017611829
 30
0.0
  0
ENDBLK
  5
594
330
40
100
AcDbEntity
  8
0
100
AcDbBlockEnd
  0
BLOCK
  5
595
330
41
100
AcDbEntity
  8
0
100
AcDbBlockBegin
  2
*D30
 70
     1
 10
0.0
 20
0.0
 30
0.0
  3
*D30
  1

  0
LINE
  5
596
330
41
100
AcDbEntity
  8
0
  6
ByBlock
 62
     0
440
 16777216
100
AcDbLine
 10
46.2353303501091
 20
9.670946264800198
 30
0.0
 11
46.2353303501091
 21
7.151558159201298
 31
0.0
  0
LINE
  5
597
330
41
100
AcDbEntity
  8
0
  6
ByBlock
 62
     0
440
 16777216
100
AcDbLine
 10
49.42929983833528
 20
9.670946264800198
 30
0.0
 11
49.42929983833528
 21
7.151558159201298
 31
0.0
  0
LINE
  5
598
330
41
100
AcDbEntity
  8
0
  6
ByBlock
 62
     0
440
 16777216
100
AcDbLine
 10
46.41533035010911
 20
7.331558159201298
 30
0.0
 11
47.17231509422219
 21
7.331558159201298
 31
0.0
  0
LINE
  5
599
330
41
100
AcDbEntity
  8
0
  6
ByBlock
 62
     0
440
 16777216
100
AcDbLine
 10
49.24929983833528
 20
7.331558159201298
 30
0.0
 11
48.49231509422219
 21
7.331558159201298
 31
0.0
  0
SOLID
  5
59A
330
41
100
AcDbEntity
  8
0
  6
ByBlock
 62
     0
440
 16777216
100
AcDbTrace
 10
46.41533035010911
 20
7.301558159201298
 30
0.0
 11
46.41533035010911
 21
7.361558159201298
 31
0.0
 12
46.2353303501091
 22
7.331558159201298
 32
0.0
 13
46.2353303501091
 23
7.331558159201298
 33
0.0
  0
SOLID
  5
59B
330
41
100
AcDbEntity
  8
0
  6
ByBlock
 62
     0
440
 16777216
100
AcDbTrace
 10
49.24929983833528
 20
7.301558159201298
 30
0.0
 11
49.24929983833528
 21
7.361558159201298
 31
0.0
 12
49.42929983833528
 22
7.331558159201298
 32
0.0
 13
49.42929983833528
 23
7.331558159201298
 33
0.0
  0
TEXT
  5
59C
330
41
100
AcDbEntity
  8
0
  6
ByBlock
 62
     0
440
 16777216
100
AcDbText
 10
47.35231509422219
 20
7.241558159201298
 30
0.0
 40
0.18
  1
3 3/16
100
AcDbText
  0
POINT
  5
59D
330
41
100
AcDbEntity
  8
DEFPOINTS
  6
ByBlock
 62
     0
440
 16777216
100
AcDbPoint
 10
46.2353303501091
 20
9.764696264800198
 30
0.0
  0
POINT
  5
59E
330
41
100
AcDbEntity
  8
DEFPOINTS
  6
ByBlock
 62
     0
440
 16777216
100
AcDbPoint
 10
49.42929983833528
 20
9.764696264800198
 30
0.0
  0
POINT
  5
59F
330
41
100
AcDbEntity
  8
DEFPOINTS
  6
ByBlock
 62
     0
440
 16777216
100
AcDbPoint
 10
49.42929983833528
 20
7.331558159201298
 30
0.0
  0
ENDBLK
  5
5A0
330
41
100
AcDbEntity
  8
0
100
AcDbBlockEnd
  0
BLOCK
  5
970
330
8EB
100
AcDbEntity
  8
0
100
AcDbBlockBegin
  2
*X31
 70
     1
 10
0.0
 20
0.0
 30
0.0
  3
*X31
  1

  0
LINE
  5
8EC
330
8EB
100
AcDbEntity
  8
0
 62
     0
100
AcDbLine
 10
27.3100072306796
 20
0.8708427403763453
 30
0.0
 11
27.48262201737051
 21
1.043457527067252
 31
0.0
  0
LINE
  5
8ED
330
8EB
100
AcDbEntity
  8
0
 62
     0
100
AcDbLine
 10
27.7520009141747
 20
1.312836423871451
 30
0.0
 11
27.85832174992691
 21
1.419157259623653
 31
0.0
  0
LINE
  5
8EE
330
8EB
100
AcDbEntity
  8
0
 62
     0
100
AcDbLine
 10
27.29895868722355
 20
0.8708427403763453
 30
0.0
 11
27.46965962331391
 21
1.0415436764667
 31
0.0
  0
LINE
  5
8EF
330
8EB
100
AcDbEntity
  8
0
 62
     0
100
AcDbLine
 10
27.74304416629002
 20
1.31492821944281
 30
0.0
 11
27.84727320647087
 21
1.419157259623653
 31
0.0
  0
LINE
  5
8F0
330
8EB
100
AcDbEntity
  8
0
 62
     0
100
AcDbLine
 10
27.28865529704658
 20
0.8715878936554052
 30
0.0
 11
27.45801642065249
 21
1.040949017261312
 31
0.0
  0
LINE
  5
8F1
330
8EB
100
AcDbEntity
  8
0
 62
     0
100
AcDbLine
 10
27.7335028142953
 20
1.316435410904124
 30
0.0
 11
27.83622466301482
 21
1.419157259623653
 31
0.0
  0
LINE
  5
8F2
330
8EB
100
AcDbEntity
  8
0
 62
     0
100
AcDbLine
 10
27.28248300637859
 20
0.876464146443461
 30
0.0
 11
27.44734340985173
 21
1.041324549916596
 31
0.0
  0
LINE
  5
8F3
330
8EB
100
AcDbEntity
  8
0
 62
     0
100
AcDbLine
 10
27.72327234467449
 20
1.317253484739355
 30
0.0
 11
27.82517611955878
 21
1.419157259623653
 31
0.0
  0
LINE
  5
8F4
330
8EB
100
AcDbEntity
  8
0
 62
     0
100
AcDbLine
 10
27.2804374266431
 20
0.8854671101640105
 30
0.0
 11
27.43743764627249
 21
1.042467329793391
 31
0.0
  0
LINE
  5
8F5
330
8EB
100
AcDbEntity
  8
0
 62
     0
100
AcDbLine
 10
27.71219553621447
 20
1.317225219735374
 30
0.0
 11
27.81412757610274
 21
1.419157259623653
 31
0.0
  0
LINE
  5
8F6
330
8EB
100
AcDbEntity
  8
0
 62
     0
100
AcDbLine
 10
27.2804374266431
 20
0.8965156536200536
 30
0.0
 11
27.42816920538106
 21
1.044247432358002
 31
0.0
  0
LINE
  5
8F7
330
8EB
100
AcDbEntity
  8
0
 62
     0
100
AcDbLine
 10
27.70001735255056
 20
1.316095579527502
 30
0.0
 11
27.80307903264671
 21
1.419157259623653
 31
0.0
  0
LINE
  5
8F8
330
8EB
100
AcDbEntity
  8
0
 62
     0
100
AcDbLine
 10
27.2804374266431
 20
0.9075641970760919
 30
0.0
 11
27.41944953126117
 21
1.046576301694151
 31
0.0
  0
LINE
  5
8F9
330
8EB
100
AcDbEntity
  8
0
 62
     0
100
AcDbLine
 10
27.68627163114664
 20
1.313398401579628
 30
0.0
 11
27.79203048919067
 21
1.419157259623653
 31
0.0
  0
LINE
  5
8FA
330
8EB
100
AcDbEntity
  8
0
 62
     0
100
AcDbLine
 10
27.2804374266431
 20
0.9186127405321304
 30
0.0
 11
27.41121566875828
 21
1.0493909826473
 31
0.0
  0
LINE
  5
8FB
330
8EB
100
AcDbEntity
  8
0
 62
     0
100
AcDbLine
 10
27.66990238203785
 20
1.308077695926883
 30
0.0
 11
27.78098194573463
 21
1.419157259623653
 31
0.0
  0
LINE
  5
8FC
330
8EB
100
AcDbEntity
  8
0
 62
     0
100
AcDbLine
 10
27.2804374266431
 20
0.9296612839881687
 30
0.0
 11
27.40342161264395
 21
1.052645469989015
 31
0.0
  0
LINE
  5
8FD
330
8EB
100
AcDbEntity
  8
0
 62
     0
100
AcDbLine
 10
27.64675355657322
 20
1.295977413918288
 30
0.0
 11
27.76993340227858
 21
1.419157259623653
 31
0.0
  0
LINE
  5
8FE
330
8EB
100
AcDbEntity
  8
0
 62
     0
100
AcDbLine
 10
27.2804374266431
 20
0.9407098274442118
 30
0.0
 11
27.39603321832221
 21
1.056305619123314
 31
0.0
  0
LINE
  5
8FF
330
8EB
100
AcDbEntity
  8
0
 62
     0
100
AcDbLine
 10
27.49299672140779
 20
1.153269122208899
 30
0.0
 11
27.75888485882255
 21
1.419157259623653
 31
0.0
  0
LINE
  5
900
330
8EB
100
AcDbEntity
  8
0
 62
     0
100
AcDbLine
 10
27.2804374266431
 20
0.9517583709002501
 30
0.0
 11
27.38902505223432
 21
1.060345996491459
 31
0.0
  0
LINE
  5
901
330
8EB
100
AcDbEntity
  8
0
 62
     0
100
AcDbLine
 10
27.48191526669059
 20
1.153236210947735
 30
0.0
 11
27.74783631536651
 21
1.419157259623653
 31
0.0
  0
LINE
  5
902
330
8EB
100
AcDbEntity
  8
0
 62
     0
100
AcDbLine
 10
27.2804374266431
 20
0.9628069143562886
 30
0.0
 11
27.38237837440491
 21
1.064747862118093
 31
0.0
  0
LINE
  5
903
330
8EB
100
AcDbEntity
  8
0
 62
     0
100
AcDbLine
 10
27.47368104530164
 20
1.15605053301483
 30
0.0
 11
27.73678777191046
 21
1.419157259623653
 31
0.0
  0
LINE
  5
904
330
8EB
100
AcDbEntity
  8
0
 62
     0
100
AcDbLine
 10
27.2804374266431
 20
0.9738554578123316
 30
0.0
 11
27.37607982361687
 21
1.069497854786095
 31
0.0
  0
LINE
  5
905
330
8EB
100
AcDbEntity
  8
0
 62
     0
100
AcDbLine
 10
27.46716856317628
 20
1.160586594345498
 30
0.0
 11
27.72573922845442
 21
1.419157259623653
 31
0.0
  0
LINE
  5
906
330
8EB
100
AcDbEntity
  8
0
 62
     0
100
AcDbLine
 10
27.2804374266431
 20
0.9849040012683699
 30
0.0
 11
27.37010985226545
 21
1.074576426890717
 31
0.0
  0
LINE
  5
907
330
8EB
100
AcDbEntity
  8
0
 62
     0
100
AcDbLine
 10
27.46190303298581
 20
1.166369607611078
 30
0.0
 11
27.71469068499838
 21
1.419157259623653
 31
0.0
  0
LINE
  5
908
330
8EB
100
AcDbEntity
  8
0
 62
     0
100
AcDbLine
 10
27.2804374266431
 20
0.9959525447244082
 30
0.0
 11
27.36441212060541
 21
1.079927238686711
 31
0.0
  0
LINE
  5
909
330
8EB
100
AcDbEntity
  8
0
 62
     0
100
AcDbLine
 10
27.4580862915343
 20
1.173601409615603
 30
0.0
 11
27.70364214154235
 21
1.419157259623653
 31
0.0
  0
LINE
  5
90A
330
8EB
100
AcDbEntity
  8
0
 62
     0
100
AcDbLine
 10
27.2804374266431
 20
1.007001088180451
 30
0.0
 11
27.3590476760544
 21
1.085611337591737
 31
0.0
  0
LINE
  5
90B
330
8EB
100
AcDbEntity
  8
0
 62
     0
100
AcDbLine
 10
27.45630337199827
 20
1.182867033535613
 30
0.0
 11
27.69259359808631
 21
1.419157259623653
 31
0.0
  0
LINE
  5
90C
330
8EB
100
AcDbEntity
  8
0
 62
     0
100
AcDbLine
 10
27.2804374266431
 20
1.018049631636489
 30
0.0
 11
27.35401827480653
 21
1.091630479799915
 31
0.0
  0
LINE
  5
90D
330
8EB
100
AcDbEntity
  8
0
 62
     0
100
AcDbLine
 10
27.45931602865035
 20
1.196928233643737
 30
0.0
 11
27.68154505463026
 21
1.419157259623653
 31
0.0
  0
LINE
  5
90E
330
8EB
100
AcDbEntity
  8
0
 62
     0
100
AcDbLine
 10
27.2804374266431
 20
1.029098175092528
 30
0.0
 11
27.34932943372869
 21
1.097990182178115
 31
0.0
  0
LINE
  5
90F
330
8EB
100
AcDbEntity
  8
0
 62
     0
100
AcDbLine
 10
27.2804374266431
 20
1.040146718548566
 30
0.0
 11
27.3449907455677
 21
1.104700037473157
 31
0.0
  0
LINE
  5
910
330
8EB
100
AcDbEntity
  8
0
 62
     0
100
AcDbLine
 10
27.2804374266431
 20
1.051195262004609
 30
0.0
 11
27.34101645488534
 21
1.111774290246836
 31
0.0
  0
LINE
  5
911
330
8EB
100
AcDbEntity
  8
0
 62
     0
100
AcDbLine
 10
27.2804374266431
 20
1.062243805460647
 30
0.0
 11
27.33742637979978
 21
1.119232758617317
 31
0.0
  0
LINE
  5
912
330
8EB
100
AcDbEntity
  8
0
 62
     0
100
AcDbLine
 10
27.2804374266431
 20
1.073292348916686
 30
0.0
 11
27.33424733032767
 21
1.127102252601252
 31
0.0
  0
LINE
  5
913
330
8EB
100
AcDbEntity
  8
0
 62
     0
100
AcDbLine
 10
27.2804374266431
 20
1.084340892372729
 30
0.0
 11
27.33151528824961
 21
1.135418753979235
 31
0.0
  0
LINE
  5
914
330
8EB
100
AcDbEntity
  8
0
 62
     0
100
AcDbLine
 10
27.2804374266431
 20
1.095389435828767
 30
0.0
 11
27.3292788271509
 21
1.144230836336558
 31
0.0
  0
LINE
  5
915
330
8EB
100
AcDbEntity
  8
0
 62
     0
100
AcDbLine
 10
27.2804374266431
 20
1.106437979284806
 30
0.0
 11
27.32760468192076
 21
1.153605234562463
 31
0.0
  0
LINE
  5
916
330
8EB
100
AcDbEntity
  8
0
 62
     0
100
AcDbLine
 10
27.2804374266431
 20
1.117486522740844
 30
0.0
 11
27.32658731931682
 21
1.163636415414562
 31
0.0
  0
LINE
  5
917
330
8EB
100
AcDbEntity
  8
0
 62
     0
100
AcDbLine
 10
27.2804374266431
 20
1.128535066196887
 30
0.0
 11
27.32636664402678
 21
1.174464283580557
 31
0.0
  0
LINE
  5
918
330
8EB
100
AcDbEntity
  8
0
 62
     0
100
AcDbLine
 10
27.2804374266431
 20
1.139583609652925
 30
0.0
 11
27.32716429408758
 21
1.186310477097401
 31
0.0
  0
LINE
  5
919
330
8EB
100
AcDbEntity
  8
0
 62
     0
100
AcDbLine
 10
27.2804374266431
 20
1.150632153108964
 30
0.0
 11
27.32937007503573
 21
1.199564801501592
 31
0.0
  0
LINE
  5
91A
330
8EB
100
AcDbEntity
  8
0
 62
     0
100
AcDbLine
 10
27.2804374266431
 20
1.161680696565007
 30
0.0
 11
27.33380440212454
 21
1.21504767204644
 31
0.0
  0
LINE
  5
91B
330
8EB
100
AcDbEntity
  8
0
 62
     0
100
AcDbLine
 10
27.2804374266431
 20
1.172729240021045
 30
0.0
 11
27.34303582165507
 21
1.235327635033016
 31
0.0
  0
LINE
  5
91C
330
8EB
100
AcDbEntity
  8
0
 62
     0
100
AcDbLine
 10
27.2804374266431
 20
1.183777783477083
 30
0.0
 11
27.51581690278967
 21
1.419157259623653
 31
0.0
  0
LINE
  5
91D
330
8EB
100
AcDbEntity
  8
0
 62
     0
100
AcDbLine
 10
27.2804374266431
 20
1.194826326933126
 30
0.0
 11
27.50476835933364
 21
1.419157259623653
 31
0.0
  0
LINE
  5
91E
330
8EB
100
AcDbEntity
  8
0
 62
     0
100
AcDbLine
 10
27.2804374266431
 20
1.205874870389165
 30
0.0
 11
27.49371981587759
 21
1.419157259623653
 31
0.0
  0
LINE
  5
91F
330
8EB
100
AcDbEntity
  8
0
 62
     0
100
AcDbLine
 10
27.2804374266431
 20
1.216923413845203
 30
0.0
 11
27.48267127242155
 21
1.419157259623653
 31
0.0
  0
LINE
  5
920
330
8EB
100
AcDbEntity
  8
0
 62
     0
100
AcDbLine
 10
27.2804374266431
 20
1.227971957301241
 30
0.0
 11
27.47162272896551
 21
1.419157259623653
 31
0.0
  0
LINE
  5
921
330
8EB
100
AcDbEntity
  8
0
 62
     0
100
AcDbLine
 10
27.2804374266431
 20
1.239020500757285
 30
0.0
 11
27.46057418550947
 21
1.419157259623653
 31
0.0
  0
LINE
  5
922
330
8EB
100
AcDbEntity
  8
0
 62
     0
100
AcDbLine
 10
27.2804374266431
 20
1.250069044213323
 30
0.0
 11
27.44952564205343
 21
1.419157259623653
 31
0.0
  0
LINE
  5
923
330
8EB
100
AcDbEntity
  8
0
 62
     0
100
AcDbLine
 10
27.2804374266431
 20
1.261117587669361
 30
0.0
 11
27.4384770985974
 21
1.419157259623653
 31
0.0
  0
LINE
  5
924
330
8EB
100
AcDbEntity
  8
0
 62
     0
100
AcDbLine
 10
27.2804374266431
 20
1.272166131125404
 30
0.0
 11
27.42742855514135
 21
1.419157259623653
 31
0.0
  0
LINE
  5
925
330
8EB
100
AcDbEntity
  8
0
 62
     0
100
AcDbLine
 10
27.2804374266431
 20
1.283214674581443
 30
0.0
 11
27.41638001168531
 21
1.419157259623653
 31
0.0
  0
LINE
  5
926
330
8EB
100
AcDbEntity
  8
0
 62
     0
100
AcDbLine
 10
27.2804374266431
 20
1.294263218037481
 30
0.0
 11
27.40533146822928
 21
1.419157259623653
 31
0.0
  0
LINE
  5
927
330
8EB
100
AcDbEntity
  8
0
 62
     0
100
AcDbLine
 10
27.2804374266431
 20
1.305311761493519
 30
0.0
 11
27.39428292477324
 21
1.419157259623653
 31
0.0
  0
LINE
  5
928
330
8EB
100
AcDbEntity
  8
0
 62
     0
100
AcDbLine
 10
27.2804374266431
 20
1.316360304949562
 30
0.0
 11
27.3832343813172
 21
1.419157259623653
 31
0.0
  0
LINE
  5
929
330
8EB
100
AcDbEntity
  8
0
 62
     0
100
AcDbLine
 10
27.2804374266431
 20
1.327408848405601
 30
0.0
 11
27.37218583786115
 21
1.419157259623653
 31
0.0
  0
LINE
  5
92A
330
8EB
100
AcDbEntity
  8
0
 62
     0
100
AcDbLine
 10
27.2804374266431
 20
1.338457391861639
 30
0.0
 11
27.36113729440511
 21
1.419157259623653
 31
0.0
  0
LINE
  5
92B
330
8EB
100
AcDbEntity
  8
0
 62
     0
100
AcDbLine
 10
27.2804374266431
 20
1.349505935317682
 30
0.0
 11
27.35008875094908
 21
1.419157259623653
 31
0.0
  0
LINE
  5
92C
330
8EB
100
AcDbEntity
  8
0
 62
     0
100
AcDbLine
 10
27.2804374266431
 20
1.360554478773721
 30
0.0
 11
27.33904020749303
 21
1.419157259623653
 31
0.0
  0
LINE
  5
92D
330
8EB
100
AcDbEntity
  8
0
 62
     0
100
AcDbLine
 10
27.2804374266431
 20
1.371603022229759
 30
0.0
 11
27.327991664037
 21
1.419157259623653
 31
0.0
  0
LINE
  5
92E
330
8EB
100
AcDbEntity
  8
0
 62
     0
100
AcDbLine
 10
27.2804374266431
 20
1.382651565685797
 30
0.0
 11
27.31694312058095
 21
1.419157259623653
 31
0.0
  0
LINE
  5
92F
330
8EB
100
AcDbEntity
  8
0
 62
     0
100
AcDbLine
 10
27.2804374266431
 20
1.39370010914184
 30
0.0
 11
27.30589457712492
 21
1.419157259623653
 31
0.0
  0
LINE
  5
930
330
8EB
100
AcDbEntity
  8
0
 62
     0
100
AcDbLine
 10
27.2804374266431
 20
1.404748652597879
 30
0.0
 11
27.29484603366888
 21
1.419157259623653
 31
0.0
  0
LINE
  5
931
330
8EB
100
AcDbEntity
  8
0
 62
     0
100
AcDbLine
 10
27.32105577413563
 20
0.8708427403763453
 30
0.0
 11
27.49760874485362
 21
1.047395711094327
 31
0.0
  0
LINE
  5
932
330
8EB
100
AcDbEntity
  8
0
 62
     0
100
AcDbLine
 10
27.7604461175158
 20
1.31023308375651
 30
0.0
 11
27.86937029338294
 21
1.419157259623653
 31
0.0
  0
LINE
  5
933
330
8EB
100
AcDbEntity
  8
0
 62
     0
100
AcDbLine
 10
27.33210431759168
 20
0.8708427403763453
 30
0.0
 11
27.51660733993784
 21
1.055345762722502
 31
0.0
  0
LINE
  5
934
330
8EB
100
AcDbEntity
  8
0
 62
     0
100
AcDbLine
 10
27.76843259325569
 20
1.307171016040359
 30
0.0
 11
27.88041883683898
 21
1.419157259623653
 31
0.0
  0
LINE
  5
935
330
8EB
100
AcDbEntity
  8
0
 62
     0
100
AcDbLine
 10
27.34315286104771
 20
0.8708427403763453
 30
0.0
 11
27.67488654716862
 21
1.202576426497251
 31
0.0
  0
LINE
  5
936
330
8EB
100
AcDbEntity
  8
0
 62
     0
100
AcDbLine
 10
27.77599932525835
 20
1.303689204586975
 30
0.0
 11
27.89146227554938
 21
1.419152154878009
 31
0.0
  0
LINE
  5
937
330
8EB
100
AcDbEntity
  8
0
 62
     0
100
AcDbLine
 10
27.35420140450376
 20
0.8708427403763453
 30
0.0
 11
27.68891245734026
 21
1.205553793212853
 31
0.0
  0
LINE
  5
938
330
8EB
100
AcDbEntity
  8
0
 62
     0
100
AcDbLine
 10
27.78317534999442
 20
1.299816685867007
 30
0.0
 11
27.89937613760983
 21
1.416017473482417
 31
0.0
  0
LINE
  5
939
330
8EB
100
AcDbEntity
  8
0
 62
     0
100
AcDbLine
 10
27.36524994795979
 20
0.8708427403763453
 30
0.0
 11
27.69816957920642
 21
1.203762371622968
 31
0.0
  0
LINE
  5
93A
330
8EB
100
AcDbEntity
  8
0
 62
     0
100
AcDbLine
 10
27.78998221218746
 20
1.295575004604006
 30
0.0
 11
27.90336163516511
 21
1.408954427581657
 31
0.0
  0
LINE
  5
93B
330
8EB
100
AcDbEntity
  8
0
 62
     0
100
AcDbLine
 10
27.37629849141583
 20
0.8708427403763453
 30
0.0
 11
27.70539591570496
 21
1.199940164665469
 31
0.0
  0
LINE
  5
93C
330
8EB
100
AcDbEntity
  8
0
 62
     0
100
AcDbLine
 10
27.79643555659359
 20
1.290979805554101
 30
0.0
 11
27.90356822513043
 21
1.398112474090929
 31
0.0
  0
LINE
  5
93D
330
8EB
100
AcDbEntity
  8
0
 62
     0
100
AcDbLine
 10
27.38734703487188
 20
0.8708427403763453
 30
0.0
 11
27.71117517259411
 21
1.194670878098575
 31
0.0
  0
LINE
  5
93E
330
8EB
100
AcDbEntity
  8
0
 62
     0
100
AcDbLine
 10
27.8025461656507
 20
1.286041871155172
 30
0.0
 11
27.90356822513043
 21
1.387063930634891
 31
0.0
  0
LINE
  5
93F
330
8EB
100
AcDbEntity
  8
0
 62
     0
100
AcDbLine
 10
27.39839557832791
 20
0.8708427403763453
 30
0.0
 11
27.7157062426026
 21
1.188153404651031
 31
0.0
  0
LINE
  5
940
330
8EB
100
AcDbEntity
  8
0
 62
     0
100
AcDbLine
 10
27.80837159340093
 20
1.280818755449355
 30
0.0
 11
27.90356822513042
 21
1.376015387178852
 31
0.0
  0
LINE
  5
941
330
8EB
100
AcDbEntity
  8
0
 62
     0
100
AcDbLine
 10
27.40944412178396
 20
0.8708427403763453
 30
0.0
 11
27.71851393969749
 21
1.179912558289886
 31
0.0
  0
LINE
  5
942
330
8EB
100
AcDbEntity
  8
0
 62
     0
100
AcDbLine
 10
27.81388552162722
 20
1.275284140219612
 30
0.0
 11
27.90356822513042
 21
1.364966843722814
 31
0.0
  0
LINE
  5
943
330
8EB
100
AcDbEntity
  8
0
 62
     0
100
AcDbLine
 10
27.42049266523999
 20
0.8708427403763453
 30
0.0
 11
27.71846679491825
 21
1.168816870054604
 31
0.0
  0
LINE
  5
944
330
8EB
100
AcDbEntity
  8
0
 62
     0
100
AcDbLine
 10
27.81906564873466
 20
1.26941572387101
 30
0.0
 11
27.90356822513042
 21
1.353918300266771
 31
0.0
  0
LINE
  5
945
330
8EB
100
AcDbEntity
  8
0
 62
     0
100
AcDbLine
 10
27.82390816996316
 20
1.263209701643469
 30
0.0
 11
27.90356822513042
 21
1.342869756810732
 31
0.0
  0
LINE
  5
946
330
8EB
100
AcDbEntity
  8
0
 62
     0
100
AcDbLine
 10
27.82840537490917
 20
1.25665836313344
 30
0.0
 11
27.90356822513042
 21
1.331821213354694
 31
0.0
  0
LINE
  5
947
330
8EB
100
AcDbEntity
  8
0
 62
     0
100
AcDbLine
 10
27.83254519618949
 20
1.249749640957723
 30
0.0
 11
27.90356822513042
 21
1.32077266989865
 31
0.0
  0
LINE
  5
948
330
8EB
100
AcDbEntity
  8
0
 62
     0
100
AcDbLine
 10
27.83631045675955
 20
1.242466358071741
 30
0.0
 11
27.90356822513042
 21
1.309724126442612
 31
0.0
  0
LINE
  5
949
330
8EB
100
AcDbEntity
  8
0
 62
     0
100
AcDbLine
 10
27.83967769871537
 20
1.234785056571515
 30
0.0
 11
27.90356822513042
 21
1.298675582986573
 31
0.0
  0
LINE
  5
94A
330
8EB
100
AcDbEntity
  8
0
 62
     0
100
AcDbLine
 10
27.84261538819789
 20
1.226674202597994
 30
0.0
 11
27.90356822513042
 21
1.28762703953053
 31
0.0
  0
LINE
  5
94B
330
8EB
100
AcDbEntity
  8
0
 62
     0
100
AcDbLine
 10
27.84508113113317
 20
1.218091402077239
 30
0.0
 11
27.90356822513042
 21
1.276578496074492
 31
0.0
  0
LINE
  5
94C
330
8EB
100
AcDbEntity
  8
0
 62
     0
100
AcDbLine
 10
27.84701722297193
 20
1.208978950459959
 30
0.0
 11
27.90356822513042
 21
1.265529952618453
 31
0.0
  0
LINE
  5
94D
330
8EB
100
AcDbEntity
  8
0
 62
     0
100
AcDbLine
 10
27.84834319975303
 20
1.199256383785016
 30
0.0
 11
27.90356822513042
 21
1.254481409162415
 31
0.0
  0
LINE
  5
94E
330
8EB
100
AcDbEntity
  8
0
 62
     0
100
AcDbLine
 10
27.84894254449275
 20
1.188807185068705
 30
0.0
 11
27.90356822513042
 21
1.243432865706372
 31
0.0
  0
LINE
  5
94F
330
8EB
100
AcDbEntity
  8
0
 62
     0
100
AcDbLine
 10
27.84863677657107
 20
1.177452873690979
 30
0.0
 11
27.90356822513042
 21
1.232384322250333
 31
0.0
  0
LINE
  5
950
330
8EB
100
AcDbEntity
  8
0
 62
     0
100
AcDbLine
 10
27.8471282065377
 20
1.164895760201571
 30
0.0
 11
27.90356822513042
 21
1.221335778794294
 31
0.0
  0
LINE
  5
951
330
8EB
100
AcDbEntity
  8
0
 62
     0
100
AcDbLine
 10
27.84384666475196
 20
1.150565674959785
 30
0.0
 11
27.90356822513042
 21
1.210287235338251
 31
0.0
  0
LINE
  5
952
330
8EB
100
AcDbEntity
  8
0
 62
     0
100
AcDbLine
 10
27.83736996918043
 20
1.133040435932225
 30
0.0
 11
27.90356822513042
 21
1.199238691882213
 31
0.0
  0
LINE
  5
953
330
8EB
100
AcDbEntity
  8
0
 62
     0
100
AcDbLine
 10
27.81840643788305
 20
1.103028361178801
 30
0.0
 11
27.90356822513042
 21
1.188190148426174
 31
0.0
  0
LINE
  5
954
330
8EB
100
AcDbEntity
  8
0
 62
     0
100
AcDbLine
 10
27.59726936053663
 20
0.8708427403763453
 30
0.0
 11
27.90356822513042
 21
1.177141604970136
 31
0.0
  0
LINE
  5
955
330
8EB
100
AcDbEntity
  8
0
 62
     0
100
AcDbLine
 10
27.60831790399267
 20
0.8708427403763453
 30
0.0
 11
27.90356822513042
 21
1.166093061514092
 31
0.0
  0
LINE
  5
956
330
8EB
100
AcDbEntity
  8
0
 62
     0
100
AcDbLine
 10
27.61936644744871
 20
0.8708427403763453
 30
0.0
 11
27.90356822513042
 21
1.155044518058054
 31
0.0
  0
LINE
  5
957
330
8EB
100
AcDbEntity
  8
0
 62
     0
100
AcDbLine
 10
27.63041499090475
 20
0.8708427403763453
 30
0.0
 11
27.90356822513042
 21
1.143995974602016
 31
0.0
  0
LINE
  5
958
330
8EB
100
AcDbEntity
  8
0
 62
     0
100
AcDbLine
 10
27.64146353436079
 20
0.8708427403763453
 30
0.0
 11
27.90356822513042
 21
1.132947431145972
 31
0.0
  0
LINE
  5
959
330
8EB
100
AcDbEntity
  8
0
 62
     0
100
AcDbLine
 10
27.65251207781683
 20
0.8708427403763453
 30
0.0
 11
27.90356822513042
 21
1.121898887689934
 31
0.0
  0
LINE
  5
95A
330
8EB
100
AcDbEntity
  8
0
 62
     0
100
AcDbLine
 10
27.66356062127287
 20
0.8708427403763453
 30
0.0
 11
27.90356822513042
 21
1.110850344233895
 31
0.0
  0
LINE
  5
95B
330
8EB
100
AcDbEntity
  8
0
 62
     0
100
AcDbLine
 10
27.67460916472891
 20
0.8708427403763453
 30
0.0
 11
27.90356822513042
 21
1.099801800777852
 31
0.0
  0
LINE
  5
95C
330
8EB
100
AcDbEntity
  8
0
 62
     0
100
AcDbLine
 10
27.68565770818495
 20
0.8708427403763453
 30
0.0
 11
27.90356822513042
 21
1.088753257321813
 31
0.0
  0
LINE
  5
95D
330
8EB
100
AcDbEntity
  8
0
 62
     0
100
AcDbLine
 10
27.69670625164099
 20
0.8708427403763453
 30
0.0
 11
27.90356822513042
 21
1.077704713865775
 31
0.0
  0
LINE
  5
95E
330
8EB
100
AcDbEntity
  8
0
 62
     0
100
AcDbLine
 10
27.70775479509703
 20
0.8708427403763453
 30
0.0
 11
27.90356822513042
 21
1.066656170409737
 31
0.0
  0
LINE
  5
95F
330
8EB
100
AcDbEntity
  8
0
 62
     0
100
AcDbLine
 10
27.71880333855307
 20
0.8708427403763453
 30
0.0
 11
27.90356822513042
 21
1.055607626953693
 31
0.0
  0
LINE
  5
960
330
8EB
100
AcDbEntity
  8
0
 62
     0
100
AcDbLine
 10
27.72985188200911
 20
0.8708427403763453
 30
0.0
 11
27.90356822513042
 21
1.044559083497655
 31
0.0
  0
LINE
  5
961
330
8EB
100
AcDbEntity
  8
0
 62
     0
100
AcDbLine
 10
27.74090042546515
 20
0.8708427403763453
 30
0.0
 11
27.90356822513042
 21
1.033510540041616
 31
0.0
  0
LINE
  5
962
330
8EB
100
AcDbEntity
  8
0
 62
     0
100
AcDbLine
 10
27.75194896892119
 20
0.8708427403763453
 30
0.0
 11
27.90356822513042
 21
1.022461996585573
 31
0.0
  0
LINE
  5
963
330
8EB
100
AcDbEntity
  8
0
 62
     0
100
AcDbLine
 10
27.76299751237722
 20
0.8708427403763453
 30
0.0
 11
27.90356822513042
 21
1.011413453129535
 31
0.0
  0
LINE
  5
964
330
8EB
100
AcDbEntity
  8
0
 62
     0
100
AcDbLine
 10
27.77404605583327
 20
0.8708427403763453
 30
0.0
 11
27.90356822513042
 21
1.000364909673496
 31
0.0
  0
LINE
  5
965
330
8EB
100
AcDbEntity
  8
0
 62
     0
100
AcDbLine
 10
27.78509459928931
 20
0.8708427403763453
 30
0.0
 11
27.90356822513042
 21
0.9893163662174581
 31
0.0
  0
LINE
  5
966
330
8EB
100
AcDbEntity
  8
0
 62
     0
100
AcDbLine
 10
27.79614314274535
 20
0.8708427403763453
 30
0.0
 11
27.90356822513042
 21
0.9782678227614148
 31
0.0
  0
LINE
  5
967
330
8EB
100
AcDbEntity
  8
0
 62
     0
100
AcDbLine
 10
27.80719168620139
 20
0.8708427403763453
 30
0.0
 11
27.90356822513042
 21
0.9672192793053763
 31
0.0
  0
LINE
  5
968
330
8EB
100
AcDbEntity
  8
0
 62
     0
100
AcDbLine
 10
27.81824022965742
 20
0.8708427403763453
 30
0.0
 11
27.90356822513042
 21
0.9561707358493379
 31
0.0
  0
LINE
  5
969
330
8EB
100
AcDbEntity
  8
0
 62
     0
100
AcDbLine
 10
27.82928877311347
 20
0.8708427403763453
 30
0.0
 11
27.90356822513042
 21
0.9451221923932946
 31
0.0
  0
LINE
  5
96A
330
8EB
100
AcDbEntity
  8
0
 62
     0
100
AcDbLine
 10
27.84033731656951
 20
0.8708427403763453
 30
0.0
 11
27.90356822513042
 21
0.9340736489372561
 31
0.0
  0
LINE
  5
96B
330
8EB
100
AcDbEntity
  8
0
 62
     0
100
AcDbLine
 10
27.85138586002555
 20
0.8708427403763453
 30
0.0
 11
27.90356822513042
 21
0.9230251054812177
 31
0.0
  0
LINE
  5
96C
330
8EB
100
AcDbEntity
  8
0
 62
     0
100
AcDbLine
 10
27.86243440348159
 20
0.8708427403763453
 30
0.0
 11
27.90356822513042
 21
0.9119765620251792
 31
0.0
  0
LINE
  5
96D
330
8EB
100
AcDbEntity
  8
0
 62
     0
100
AcDbLine
 10
27.87348294693763
 20
0.8708427403763453
 30
0.0
 11
27.90356822513042
 21
0.9009280185691359
 31
0.0
  0
LINE
  5
96E
330
8EB
100
AcDbEntity
  8
0
 62
     0
100
AcDbLine
 10
27.88453149039366
 20
0.8708427403763453
 30
0.0
 11
27.90356822513042
 21
0.8898794751130974
 31
0.0
  0
LINE
  5
96F
330
8EB
100
AcDbEntity
  8
0
 62
     0
100
AcDbLine
 10
27.89713639245572
 20
0.8723990989823603
 30
0.0
 11
27.90201186652441
 21
0.877274573051044
 31
0.0
  0
ENDBLK
  5
971
330
8EB
100
AcDbEntity
  8
0
100
AcDbBlockEnd
  0
BLOCK
  5
9E6
330
972
100
AcDbEntity
  8
0
100
AcDbBlockBegin
  2
T2
 70
     0
 10
0.0
 20
0.0
 30
0.0
  3
T2
  1

  0
LWPOLYLINE
  5
973
330
972
100
AcDbEntity
  8
TITLE
100
AcDbPolyline
 90
        4
 70
     1
 43
0.0
 10
63.96000000000377
 20
41.71000000000276
 10
0.0399999999999943
 20
41.71000000000276
 10
0.0399999999999996
 20
0.0400000000000014
 10
63.96000000000374
 20
0.0400000000000014
  0
LWPOLYLINE
  5
979
330
972
100
AcDbEntity
  8
TITLE
100
AcDbPolyline
 90
        4
 70
     1
 43
0.0
 10
64.00000000000376
 20
41.75000000000276
 10
-0.0000000000000071
 20
41.75000000000276
 10
0.0
 20
0.0000000000000018
 10
64.00000000000374
 20
0.0000000000000018
  0
LWPOLYLINE
  5
97F
330
972
100
AcDbEntity
  8
TITLE
100
AcDbPolyline
 90
        4
 70
     1
 43
0.0
 10
63.98000000000377
 20
41.73000000000278
 10
0.0199999999999943
 20
41.73000000000278
 10
0.0199999999999996
 20
0.0200000000000014
 10
63.98000000000374
 20
0.0200000000000014
  0
TEXT
  5
985
330
972
100
AcDbEntity
  8
TITLE
100
AcDbText
 10
56.04836633950596
 20
2.380319658112426
 30
0.0
 40
0.4560000000000001
  1
STAHLIN
 41
1.066187799418365
  7
STYLE1
 72
     5
 11
58.7761607440142
 21
2.380319658112426
 31
0.0
100
AcDbText
  0
INSERT
  5
986
330
972
100
AcDbEntity
  8
0
 62
     1
100
AcDbBlockReference
  2
*X31
 10
0.0000000000000142
 20
0.0
 30
0.0
 41
2.0
 42
2.0
 43
2.0
1001
ACAD
1000
HATCH
1002
{
1070
    19
1000
ANSI31
1040
0.125
1040
6.283185307179586
1000
ASC_BOUNDS
1070
     1
1070
     2
1070
     2
1005
988
1005
999
1000
ASC_SEEDPOINT
1011
0.0
1021
0.0
1031
0.0
1002
}
  0
TEXT
  5
987
330
972
100
AcDbEntity
  8
TITLE
100
AcDbText
 10
56.08179444942404
 20
1.741965761805758
 30
0.0
 40
0.124
  1
DIVISION OF ROBROY INDUSTRIES
 41
0.8060929261227059
  7
ITALIC
 72
     5
 11
58.81391207369593
 21
1.741965761805758
 31
0.0
100
AcDbText
  0
LWPOLYLINE
  5
988
330
972
100
AcDbEntity
  8
0
 62
     1
100
AcDbPolyline
 90
       15
 70
     0
 43
0.0
 10
55.4204982849593
 20
2.306679667514295
 10
54.8555040981977
 20
1.741685480752693
 10
54.58580008521981
 20
1.741685480752693
 42
-0.4142135623730939
 10
54.56087485328622
 20
1.766610712686286
 10
54.5608748532862
 20
2.813389287313711
 42
-0.4142135623730959
 10
54.58580008521979
 20
2.838314519247305
 10
55.04023691383308
 20
2.838314519247305
 10
54.72859834299488
 20
2.526675948409092
 42
0.4330201013744681
 10
54.74065385509597
 20
2.148769968630162
 10
54.74322484545986
 20
2.146507664554079
 42
0.3956538349195001
 10
55.09776518423489
 20
2.157817793456857
 10
55.33355907689763
 20
2.393618876429485
 42
-0.4142135623730808
 10
55.41815811940752
 20
2.393618876429492
 10
55.42049828502847
 20
2.391278709954995
 42
-0.4142135623731028
 10
55.4204982850285
 20
2.306679667445109
1001
ACAD
1000
ASC_BOUNDS
1002
{
1070
    19
1005
986
1002
}
  0
LWPOLYLINE
  5
999
330
972
100
AcDbEntity
  8
0
 62
     1
100
AcDbPolyline
 90
       15
 70
     0
 43
0.0
 10
54.93009771352707
 20
2.409929957613172
 10
55.35848227516122
 20
2.838314519247305
 10
55.78221121832725
 20
2.838314519247305
 42
-0.4142135623730959
 10
55.80713645026084
 20
2.813389287313711
 10
55.80713645026084
 20
1.766610712686286
 42
-0.4142135623730951
 10
55.78221121832725
 20
1.741685480752693
 10
55.17374945952584
 20
1.741685480752693
 10
55.62199765549151
 20
2.189933676718368
 42
0.433020101374468
 10
55.60994214339039
 20
2.567839656497305
 10
55.60737115302654
 20
2.570101960573389
 42
0.3956538349195001
 10
55.25283081425148
 20
2.558791831670603
 10
55.01703692158874
 20
2.322990748697975
 42
-0.4142135623730808
 10
54.93243787907887
 20
2.322990748697975
 10
54.93009771345789
 20
2.325330915172472
 42
-0.414213562373103
 10
54.93009771345789
 20
2.409929957682351
1001
ACAD
1000
ASC_BOUNDS
1002
{
1070
    19
1005
986
1002
}
  0
LWPOLYLINE
  5
9AA
330
972
100
AcDbEntity
  8
TITLE
 62
     1
100
AcDbPolyline
 90
        2
 70
     0
 43
0.06
 10
60.33200636550343
 20
2.740967948476402
 10
60.33200636550343
 20
1.839032051523602
  0
TEXT
  5
9AE
330
972
100
AcDbEntity
  8
TITLE
100
AcDbText
 10
56.08092442727688
 20
2.011651761684468
 30
0.0
 40
0.25
  1
ENCLOSURES
 41
1.132998946758617
  7
ITALIC
 72
     5
 11
58.81900521527687
 21
2.011651761684468
 31
0.0
100
AcDbText
  0
TEXT
  5
9AF
330
972
100
AcDbEntity
  8
TITLE
 62
     1
100
AcDbText
 10
60.50228587067294
 20
2.35076622306493
 30
0.0
 40
0.18
  1
BELDING,MICHIGAN
  7
ITALIC
 72
     1
 11
61.77728587067294
 21
2.35076622306493
 31
0.0
100
AcDbText
  0
TEXT
  5
9B0
330
972
100
AcDbEntity
  8
TITLE
 62
     1
100
AcDbText
 10
61.37228587067294
 20
2.050766223064925
 30
0.0
 40
0.18
  1
48809
  7
ITALIC
 72
     1
 11
61.77728587067294
 21
2.050766223064925
 31
0.0
100
AcDbText
  0
TEXT
  5
9B1
330
972
100
AcDbEntity
  8
TITLE
 62
     1
100
AcDbText
 10
61.37228587067292
 20
2.050766223064933
 30
0.0
 40
0.18
  1
48809
  7
ITALIC
 72
     1
 11
61.77728587067292
 21
2.050766223064933
 31
0.0
100
AcDbText
  0
TEXT
  5
9B2
330
972
100
AcDbEntity
  8
TITLE
 62
     1
100
AcDbText
 10
60.50228587067293
 20
2.350766223064944
 30
0.0
 40
0.18
  1
BELDING,MICHIGAN
  7
ITALIC
 72
     1
 11
61.77728587067292
 21
2.350766223064944
 31
0.0
100
AcDbText
  0
LWPOLYLINE
  5
9B3
330
972
100
AcDbEntity
  8
TITLE
 62
     1
100
AcDbPolyline
 90
        2
 70
     0
 43
0.06
 10
60.33200636550342
 20
2.740967948476402
 10
60.33200636550342
 20
1.839032051523609
  0
TEXT
  5
9B7
330
972
100
AcDbEntity
  8
TITLE
 62
     1
100
AcDbText
 10
62.01705691683141
 20
3.19799197822055
 30
0.0
 40
0.15525
  1
-
  7
ITALIC
100
AcDbText
  0
TEXT
  5
9B8
330
972
100
AcDbEntity
  8
TITLE
 62
     1
100
AcDbText
 10
62.01705691683141
 20
3.349780357914581
 30
0.0
 40
0.15525
  1
+
  7
ITALIC
100
AcDbText
  0
TEXT
  5
9B9
330
972
100
AcDbEntity
  8
TITLE
 62
     1
100
AcDbText
 10
62.01705691683141
 20
3.64320306308844
 30
0.0
 40
0.15525
  1
FRACTIONAL
  7
ITALIC
100
AcDbText
  0
TEXT
  5
9BA
330
972
100
AcDbEntity
  8
TITLE
 62
     1
100
AcDbText
 10
60.47755802933359
 20
3.198840704743548
 30
0.0
 40
0.15525
  1
-
  7
ITALIC
100
AcDbText
  0
TEXT
  5
9BB
330
972
100
AcDbEntity
  8
TITLE
 62
     1
100
AcDbText
 10
60.47755802933359
 20
3.356364944423901
 30
0.0
 40
0.15525
  1
+
  7
ITALIC
100
AcDbText
  0
TEXT
  5
9BC
330
972
100
AcDbEntity
  8
TITLE
 62
     1
100
AcDbText
 10
60.47755802933359
 20
3.649787649597743
 30
0.0
 40
0.15525
  1
DECIMAL
  7
ITALIC
100
AcDbText
  0
TEXT
  5
9BD
330
972
100
AcDbEntity
  8
TITLE
 62
     1
100
AcDbText
 10
57.92743410179541
 20
3.643086326406458
 30
0.0
 40
0.15525
  1
TOLERANCES
  7
ITALIC
 72
     1
 11
58.67780910179541
 21
3.643086326406458
 31
0.0
100
AcDbText
  0
LINE
  5
9BE
330
972
100
AcDbEntity
  8
TITLE
 62
     1
100
AcDbLine
 10
57.33500000000375
 20
4.04
 30
0.0
 11
57.33500000000375
 21
3.040000000000001
 31
0.0
  0
TEXT
  5
9BF
330
972
100
AcDbEntity
  8
TITLE
 62
     1
100
AcDbText
 10
57.51343410179541
 20
3.27666845244556
 30
0.0
 40
0.15525
  1
UNLESS SPECIFIED
  7
ITALIC
 72
     1
 11
58.67780910179541
 21
3.27666845244556
 31
0.0
100
AcDbText
  0
TEXT
  5
9C0
330
972
100
AcDbEntity
  8
TITLE
 62
     1
100
AcDbText
 10
53.44713965836721
 20
2.822727796946285
 30
0.0
 40
0.14
  1
DATE
  7
ITALIC
 72
     1
 11
53.70380632503388
 21
2.822727796946285
 31
0.0
100
AcDbText
  0
TEXT
  5
9C1
330
972
100
AcDbEntity
  8
TITLE
 62
     1
100
AcDbText
 10
53.46190663208497
 20
2.072056300604384
 30
0.0
 40
0.154
  1
DATE
  7
ITALIC
 72
     1
 11
53.7442399654183
 21
2.072056300604384
 31
0.0
100
AcDbText
  0
TEXT
  5
9C2
330
972
100
AcDbEntity
  8
TITLE
100
AcDbText
 10
52.13269628546089
 20
2.82618097475822
 30
0.0
 40
0.14
  1
DR. BY
  7
ITALIC
 72
     1
 11
52.48269628546089
 21
2.82618097475822
 31
0.0
100
AcDbText
  0
TEXT
  5
9C3
330
972
100
AcDbEntity
  8
TITLE
100
AcDbText
 10
51.96638083203399
 20
2.072056300604384
 30
0.0
 40
0.154
  1
CHK. BY
  7
ITALIC
 72
     1
 11
52.42838083203399
 21
2.072056300604384
 31
0.0
100
AcDbText
  0
LINE
  5
9C4
330
972
100
AcDbEntity
  8
TITLE
 62
     1
100
AcDbLine
 10
61.74479396240641
 20
0.7900000000000014
 30
0.0
 11
61.74479396240641
 21
1.540000000000001
 31
0.0
  0
TEXT
  5
9C5
330
972
100
AcDbEntity
  8
TITLE
 62
     1
100
AcDbText
 10
59.46791140966684
 20
0.5206953542067927
 30
0.0
 40
0.1694
  1
PART NO.
  7
ITALIC
100
AcDbText
  0
LINE
  5
9C6
330
972
100
AcDbEntity
  8
TITLE
 62
     1
100
AcDbLine
 10
59.21000000000375
 20
0.7900000000000014
 30
0.0
 11
59.21000000000375
 21
0.0399999999999978
 31
0.0
  0
TEXT
  5
9C7
330
972
100
AcDbEntity
  8
TITLE
 62
     1
100
AcDbText
 10
54.56633048452305
 20
0.5102494913256912
 30
0.0
 40
0.1694
  1
PART NAME
  7
ITALIC
100
AcDbText
  0
TEXT
  5
9C8
330
972
100
AcDbEntity
  8
TITLE
 62
     1
100
AcDbText
 10
54.54266216399277
 20
1.252558201771084
 30
0.0
 40
0.1694
  1
CUSTOMER
  7
ITALIC
 72
     2
 11
55.8413954973261
 21
1.252558201771084
 31
0.0
100
AcDbText
  0
TEXT
  5
9C9
330
972
100
AcDbEntity
  8
TITLE
 62
     1
100
AcDbText
 10
53.47434386396953
 20
1.322440723290178
 30
0.0
 40
0.154
  1
DATE
  7
ITALIC
 72
     1
 11
53.75667719730286
 21
1.322440723290178
 31
0.0
100
AcDbText
  0
TEXT
  5
9CA
330
972
100
AcDbEntity
  8
TITLE
100
AcDbText
 10
51.96638083203399
 20
1.316742979900486
 30
0.0
 40
0.154
  1
APD. BY
  7
ITALIC
 72
     1
 11
52.42838083203399
 21
1.316742979900486
 31
0.0
100
AcDbText
  0
TEXT
  5
9CB
330
972
100
AcDbEntity
  8
TITLE
100
AcDbText
 10
52.73472273397718
 20
0.5212952711989276
 30
0.0
 40
0.154
  1
SCALE
  7
ITALIC
 72
     1
 11
53.09405606731051
 21
0.5212952711989276
 31
0.0
100
AcDbText
  0
LINE
  5
9CC
330
972
100
AcDbEntity
  8
TITLE
 62
     1
100
AcDbLine
 10
53.08500000000375
 20
3.040000000000004
 30
0.0
 11
53.08500000000375
 21
0.7900000000000032
 31
0.0
  0
LINE
  5
9CD
330
972
100
AcDbEntity
  8
TITLE
 62
     1
100
AcDbLine
 10
54.33500000000375
 20
3.039999999999997
 30
0.0
 11
54.33500000000375
 21
0.0399999999999996
 31
0.0
  0
LINE
  5
9CE
330
972
100
AcDbEntity
  8
TITLE
 62
     1
100
AcDbLine
 10
63.96000000000374
 20
1.540000000000001
 30
0.0
 11
54.33500000000375
 21
1.540000000000001
 31
0.0
  0
TEXT
  5
9CF
330
972
100
AcDbEntity
  8
TITLE
 62
     1
100
AcDbText
 10
61.83818339703766
 20
1.326747107986976
 30
0.0
 40
0.125
  1
AutoCAD DWG. FILE
100
AcDbText
  0
TEXT
  5
9D0
330
972
100
AcDbEntity
  8
TITLE
100
AcDbText
 10
51.14538256127479
 20
2.036268066777214
 30
0.0
 40
0.154
  1
CHD.
  7
ITALIC
 72
     1
 11
51.3763825612748
 21
2.036268066777214
 31
0.0
100
AcDbText
  0
TEXT
  5
9D1
330
972
100
AcDbEntity
  8
TITLE
100
AcDbText
 10
50.38257751100488
 20
2.055260544742853
 30
0.0
 40
0.154
  1
BY
  7
ITALIC
 72
     1
 11
50.51091084433821
 21
2.055260544742853
 31
0.0
100
AcDbText
  0
TEXT
  5
9D2
330
972
100
AcDbEntity
  8
TITLE
100
AcDbText
 10
49.21118533914498
 20
2.045764305760033
 30
0.0
 40
0.154
  1
DATE
  7
ITALIC
 72
     1
 11
49.4935186724783
 21
2.045764305760033
 31
0.0
100
AcDbText
  0
TEXT
  5
9D3
330
972
100
AcDbEntity
  8
TITLE
100
AcDbText
 10
43.43743673306819
 20
4.138388543293784
 30
0.0
 40
0.14
  1
NOTES:
  7
ITALIC
100
AcDbText
  0
TEXT
  5
9D4
330
972
100
AcDbEntity
  8
TITLE
100
AcDbText
 10
43.26186688171646
 20
2.055260544742853
 30
0.0
 40
0.154
  1
LET.
  7
ITALIC
 72
     1
 11
43.49286688171646
 21
2.055260544742853
 31
0.0
100
AcDbText
  0
TEXT
  5
9D5
330
972
100
AcDbEntity
  8
TITLE
100
AcDbText
 10
43.41367829470571
 20
2.762795715722289
 30
0.0
 40
0.154
  1
MATERIAL
  7
ITALIC
100
AcDbText
  0
LINE
  5
9D6
330
972
100
AcDbEntity
  8
TITLE
100
AcDbLine
 10
51.83500000000375
 20
1.915000000000001
 30
0.0
 11
42.96000000000375
 21
1.915000000000004
 31
0.0
  0
TEXT
  5
9D7
330
972
100
AcDbEntity
  8
TITLE
100
AcDbText
 10
45.20274150067381
 20
2.036268066777214
 30
0.0
 40
0.154
  1
REVISION RECORD
  7
ITALIC
 72
     1
 11
46.30640816734048
 21
2.036268066777214
 31
0.0
100
AcDbText
  0
LINE
  5
9D8
330
972
100
AcDbEntity
  8
TITLE
100
AcDbLine
 10
51.83500000000375
 20
0.4149999999999996
 30
0.0
 11
42.96000000000375
 21
0.415000000000005
 31
0.0
  0
LINE
  5
9D9
330
972
100
AcDbEntity
  8
TITLE
100
AcDbLine
 10
51.83500000000375
 20
1.165000000000001
 30
0.0
 11
42.96000000000375
 21
1.165000000000004
 31
0.0
  0
LINE
  5
9DA
330
972
100
AcDbEntity
  8
TITLE
100
AcDbLine
 10
42.96000000000375
 20
4.040000000000004
 30
0.0
 11
42.96000000000375
 21
0.0400000000000014
 31
0.0
  0
LINE
  5
9DB
330
972
100
AcDbEntity
  8
TITLE
100
AcDbLine
 10
43.96000000000374
 20
2.290000000000001
 30
0.0
 11
43.96000000000374
 21
0.0400000000000014
 31
0.0
  0
LINE
  5
9DC
330
972
100
AcDbEntity
  8
TITLE
100
AcDbLine
 10
48.96000000000374
 20
2.290000000000004
 30
0.0
 11
48.96000000000374
 21
0.0400000000000049
 31
0.0
  0
LINE
  5
9DD
330
972
100
AcDbEntity
  8
TITLE
100
AcDbLine
 10
50.08500000000374
 20
2.290000000000004
 30
0.0
 11
50.08500000000374
 21
0.0400000000000067
 31
0.0
  0
LINE
  5
9DE
330
972
100
AcDbEntity
  8
TITLE
100
AcDbLine
 10
50.96000000000374
 20
2.290000000000004
 30
0.0
 11
50.96000000000374
 21
0.0400000000000085
 31
0.0
  0
LINE
  5
9DF
330
972
100
AcDbEntity
  8
TITLE
100
AcDbLine
 10
51.83500000000375
 20
3.040000000000001
 30
0.0
 11
51.83500000000375
 21
0.0399999999999996
 31
0.0
  0
LINE
  5
9E0
330
972
100
AcDbEntity
  8
TITLE
100
AcDbLine
 10
63.96000000000374
 20
4.04
 30
0.0
 11
42.96000000000375
 21
4.040000000000004
 31
0.0
  0
LINE
  5
9E1
330
972
100
AcDbEntity
  8
TITLE
100
AcDbLine
 10
57.33500000000375
 20
3.540000000000002
 30
0.0
 11
42.96000000000375
 21
3.540000000000004
 31
0.0
  0
LINE
  5
9E2
330
972
100
AcDbEntity
  8
TITLE
100
AcDbLine
 10
63.96000000000374
 20
3.040000000000001
 30
0.0
 11
42.96000000000375
 21
3.040000000000004
 31
0.0
  0
LINE
  5
9E3
330
972
100
AcDbEntity
  8
TITLE
100
AcDbLine
 10
54.33500000000375
 20
2.290000000000001
 30
0.0
 11
42.96000000000375
 21
2.290000000000004
 31
0.0
  0
LINE
  5
9E4
330
972
100
AcDbEntity
  8
TITLE
100
AcDbLine
 10
54.33500000000375
 20
1.540000000000001
 30
0.0
 11
42.96000000000375
 21
1.540000000000004
 31
0.0
  0
LINE
  5
9E5
330
972
100
AcDbEntity
  8
TITLE
100
AcDbLine
 10
63.96000000000374
 20
0.7900000000000014
 30
0.0
 11
42.96000000000375
 21
0.790000000000005
 31
0.0
  0
ENDBLK
  5
9E7
330
972
100
AcDbEntity
  8
0
100
AcDbBlockEnd
  0
BLOCK
  5
AB5
330
AB4
100
AcDbEntity
  8
0
100
AcDbBlockBegin
  2
*U33
 70
     1
 10
0.0
 20
0.0
 30
0.0
  3
*U33
  1

  0
ENDBLK
  5
AB6
330
AB4
100
AcDbEntity
  8
0
100
AcDbBlockEnd
  0
BLOCK
  5
AF9
330
AF7
100
AcDbEntity
  8
0
100
AcDbBlockBegin
  2
GENAXEH
 70
     0
 10
0.0
 20
0.0
 30
0.0
  3
GENAXEH
  1

  0
LINE
  5
AF8
330
AF7
100
AcDbEntity
  8
0
100
AcDbLine
 10
-1.0
 20
0.0
 30
0.0
 11
1.0
 21
0.0
 31
0.0
  0
ENDBLK
  5
AFA
330
AF7
100
AcDbEntity
  8
0
100
AcDbBlockEnd
  0
ENDSEC
  0
SECTION
  2
ENTITIES
  0
LINE
  5
5A1
330
18
100
AcDbEntity
  8
0
100
AcDbLine
 10
10.73509033901324
 20
33.14787159138435
 30
0.0
 11
10.73509033901324
 21
27.14787159138435
 31
0.0
  0
LINE
  5
5A2
330
18
100
AcDbEntity
  8
0
100
AcDbLine
 10
11.04759033901324
 20
26.83537159138435
 30
0.0
 11
14.23509033901323
 21
26.83537159138435
 31
0.0
  0
LINE
  5
5A3
330
18
100
AcDbEntity
  8
0
100
AcDbLine
 10
14.54759033901323
 20
27.14787159138435
 30
0.0
 11
14.54759033901324
 21
33.14787159138435
 31
0.0
  0
LINE
  5
5A4
330
18
100
AcDbEntity
  8
0
100
AcDbLine
 10
14.23509033901324
 20
33.46037159138435
 30
0.0
 11
11.04759033901324
 21
33.46037159138435
 31
0.0
  0
LINE
  5
5A5
330
18
100
AcDbEntity
  8
0
100
AcDbLine
 10
10.81072372409132
 20
15.71453282641839
 30
0.0
 11
14.47195695393516
 21
15.71453282641839
 31
0.0
  0
LINE
  5
5A6
330
18
100
AcDbEntity
  8
0
100
AcDbLine
 10
10.73509033901324
 20
15.27703282641839
 30
0.0
 11
10.74826179740262
 21
15.6542140449623
 31
0.0
  0
LINE
  5
5A7
330
18
100
AcDbEntity
  8
0
100
AcDbLine
 10
14.54759033901324
 20
15.27703282641839
 30
0.0
 11
14.53441888062385
 21
15.6542140449623
 31
0.0
  0
ARC
  5
5A8
330
18
100
AcDbEntity
  8
0
100
AcDbCircle
 10
10.81072372409132
 20
15.65203282641839
 30
0.0
 40
0.0625
100
AcDbArc
 50
90.00000000000003
 51
178.0
  0
ARC
  5
5A9
330
18
100
AcDbEntity
  8
0
100
AcDbCircle
 10
14.47195695393516
 20
15.65203282641839
 30
0.0
 40
0.0625
100
AcDbArc
 50
2.000000000000015
 51
90.0
  0
LINE
  5
5AA
330
18
100
AcDbEntity
  8
0
100
AcDbLine
 10
10.73509033901324
 20
15.08953282641839
 30
0.0
 11
14.54759033901324
 21
15.08953282641839
 31
0.0
  0
LINE
  5
5AB
330
18
100
AcDbEntity
  8
0
100
AcDbLine
 10
10.87105425981268
 20
14.96453282641839
 30
0.0
 11
14.41162641821381
 21
14.96453282641839
 31
0.0
  0
LINE
  5
5AC
330
18
100
AcDbEntity
  8
0
100
AcDbLine
 10
10.73509033901324
 20
15.26203282641839
 30
0.0
 11
10.73509033901324
 21
15.08953282641839
 31
0.0
  0
LINE
  5
5AD
330
18
100
AcDbEntity
  8
0
100
AcDbLine
 10
14.54759033901324
 20
15.26203282641839
 30
0.0
 11
14.54759033901324
 21
15.08953282641839
 31
0.0
  0
LINE
  5
5AE
330
18
100
AcDbEntity
  8
0
100
AcDbLine
 10
11.10684607584743
 20
12.01203282641839
 30
0.0
 11
14.17583460217905
 21
12.01203282641839
 31
0.0
  0
ARC
  5
5AF
330
18
100
AcDbEntity
  8
0
100
AcDbCircle
 10
11.10684607584743
 20
12.19953282641839
 30
0.0
 40
0.1875
100
AcDbArc
 50
181.0
 51
270.0
  0
ARC
  5
5B0
330
18
100
AcDbEntity
  8
0
100
AcDbCircle
 10
14.17583460217905
 20
12.19953282641839
 30
0.0
 40
0.1875
100
AcDbArc
 50
270.0
 51
359.0
  0
LINE
  5
5B1
330
18
100
AcDbEntity
  8
0
100
AcDbLine
 10
10.87105425981268
 20
14.96453282641839
 30
0.0
 11
10.91937463300561
 21
12.1962605002114
 31
0.0
  0
LINE
  5
5B2
330
18
100
AcDbEntity
  8
0
100
AcDbLine
 10
10.73509033901324
 20
15.08953282641839
 30
0.0
 11
10.87105425981268
 21
14.96453282641839
 31
0.0
  0
LINE
  5
5B3
330
18
100
AcDbEntity
  8
0
100
AcDbLine
 10
14.4116264182138
 20
14.96453282641839
 30
0.0
 11
14.36330604502087
 21
12.1962605002114
 31
0.0
  0
LINE
  5
5B4
330
18
100
AcDbEntity
  8
0
100
AcDbLine
 10
14.54759033901324
 20
15.08953282641839
 30
0.0
 11
14.4116264182138
 21
14.96453282641839
 31
0.0
  0
LINE
  5
5B5
330
18
100
AcDbEntity
  8
0
100
AcDbLine
 10
10.73509033901324
 20
15.26203282641839
 30
0.0
 11
14.54759033901324
 21
15.26203282641839
 31
0.0
  0
LINE
  5
5B6
330
18
100
AcDbEntity
  8
0
100
AcDbLine
 10
10.73509033901324
 20
15.27703282641839
 30
0.0
 11
14.54759033901324
 21
15.27703282641839
 31
0.0
  0
ARC
  5
5B7
330
18
100
AcDbEntity
  8
0
100
AcDbCircle
 10
11.04759033901324
 20
33.14787159138435
 30
0.0
 40
0.3125
100
AcDbArc
 50
90.0
 51
180.0
  0
ARC
  5
5B8
330
18
100
AcDbEntity
  8
0
100
AcDbCircle
 10
14.23509033901324
 20
33.14787159138435
 30
0.0
 40
0.3125
100
AcDbArc
 50
0.0
 51
90.0
  0
ARC
  5
5B9
330
18
100
AcDbEntity
  8
0
100
AcDbCircle
 10
14.23509033901324
 20
27.14787159138435
 30
0.0
 40
0.3125
100
AcDbArc
 50
270.0
 51
0.0
  0
ARC
  5
5BA
330
18
100
AcDbEntity
  8
0
100
AcDbCircle
 10
11.04759033901324
 20
27.14787159138435
 30
0.0
 40
0.3125
100
AcDbArc
 50
180.0
 51
270.0
  0
CIRCLE
  5
5BB
330
18
100
AcDbEntity
  8
0
100
AcDbCircle
 10
11.01634033901324
 20
33.17912159138435
 30
0.0
 40
0.1875
  0
CIRCLE
  5
5BC
330
18
100
AcDbEntity
  8
0
100
AcDbCircle
 10
11.01634033901324
 20
33.17912159138435
 30
0.0
 40
0.171875
  0
LINE
  5
5BD
330
18
100
AcDbEntity
  8
0
100
AcDbLine
 10
11.15826190095186
 20
33.07962643631692
 30
0.0
 11
10.91788521826693
 21
33.32000311900185
 31
0.0
  0
LINE
  5
5BE
330
18
100
AcDbEntity
  8
0
100
AcDbLine
 10
11.11479545975952
 20
33.03824006376687
 30
0.0
 11
10.87545881139573
 21
33.27757671213066
 31
0.0
  0
LINE
  5
5BF
330
18
100
AcDbEntity
  8
0
100
AcDbLine
 10
11.11479545975952
 20
26.97574006376687
 30
0.0
 11
10.87545881139573
 21
27.21507671213065
 31
0.0
  0
LINE
  5
5C0
330
18
100
AcDbEntity
  8
0
100
AcDbLine
 10
11.15826190095186
 20
27.01712643631692
 30
0.0
 11
10.91788521826693
 21
27.25750311900185
 31
0.0
  0
CIRCLE
  5
5C1
330
18
100
AcDbEntity
  8
0
100
AcDbCircle
 10
11.01634033901324
 20
27.11662159138434
 30
0.0
 40
0.171875
  0
CIRCLE
  5
5C2
330
18
100
AcDbEntity
  8
0
100
AcDbCircle
 10
11.01634033901324
 20
27.11662159138434
 30
0.0
 40
0.1875
  0
LINE
  5
5C3
330
18
100
AcDbEntity
  8
0
100
AcDbLine
 10
14.36479545975952
 20
33.03824006376687
 30
0.0
 11
14.12545881139573
 21
33.27757671213066
 31
0.0
  0
LINE
  5
5C4
330
18
100
AcDbEntity
  8
0
100
AcDbLine
 10
14.40826190095186
 20
33.07962643631692
 30
0.0
 11
14.16788521826693
 21
33.32000311900185
 31
0.0
  0
CIRCLE
  5
5C5
330
18
100
AcDbEntity
  8
0
100
AcDbCircle
 10
14.26634033901324
 20
33.17912159138435
 30
0.0
 40
0.171875
  0
CIRCLE
  5
5C6
330
18
100
AcDbEntity
  8
0
100
AcDbCircle
 10
14.26634033901324
 20
33.17912159138435
 30
0.0
 40
0.1875
  0
LINE
  5
5C7
330
18
100
AcDbEntity
  8
0
100
AcDbLine
 10
14.36479545975952
 20
26.97574006376687
 30
0.0
 11
14.12545881139573
 21
27.21507671213065
 31
0.0
  0
LINE
  5
5C8
330
18
100
AcDbEntity
  8
0
100
AcDbLine
 10
14.40826190095186
 20
27.01712643631692
 30
0.0
 11
14.16788521826693
 21
27.25750311900185
 31
0.0
  0
CIRCLE
  5
5C9
330
18
100
AcDbEntity
  8
0
100
AcDbCircle
 10
14.26634033901324
 20
27.11662159138434
 30
0.0
 40
0.171875
  0
CIRCLE
  5
5CA
330
18
100
AcDbEntity
  8
0
100
AcDbCircle
 10
14.26634033901324
 20
27.11662159138434
 30
0.0
 40
0.1875
  0
LINE
  5
5CB
330
18
100
AcDbEntity
  8
0
100
AcDbLine
 10
11.39134033901324
 20
32.80412159138434
 30
0.0
 11
11.39134033901324
 21
27.49162159138434
 31
0.0
  0
LINE
  5
5CC
330
18
100
AcDbEntity
  8
0
100
AcDbLine
 10
13.89134033901324
 20
32.80412159138434
 30
0.0
 11
13.89134033901324
 21
27.49162159138434
 31
0.0
  0
LINE
  5
5CD
330
18
100
AcDbEntity
  8
0
100
AcDbLine
 10
11.39134033901324
 20
32.80412159138434
 30
0.0
 11
13.89134033901324
 21
32.80412159138434
 31
0.0
  0
LINE
  5
5CE
330
18
100
AcDbEntity
  8
0
100
AcDbLine
 10
11.39134033901324
 20
27.49162159138434
 30
0.0
 11
13.89134033901324
 21
27.49162159138434
 31
0.0
  0
LINE
  5
5CF
330
18
100
AcDbEntity
  8
0
100
AcDbLine
 10
11.39134033901324
 20
32.99162159138435
 30
0.0
 11
13.89134033901324
 21
32.99162159138435
 31
0.0
  0
LINE
  5
5D0
330
18
100
AcDbEntity
  8
0
100
AcDbLine
 10
11.20384033901324
 20
32.80412159138434
 30
0.0
 11
11.20384033901324
 21
27.49162159138434
 31
0.0
  0
LINE
  5
5D1
330
18
100
AcDbEntity
  8
0
100
AcDbLine
 10
11.39134033901324
 20
27.30412159138435
 30
0.0
 11
13.89134033901324
 21
27.30412159138435
 31
0.0
  0
LINE
  5
5D2
330
18
100
AcDbEntity
  8
0
100
AcDbLine
 10
14.07884033901324
 20
32.80412159138434
 30
0.0
 11
14.07884033901324
 21
27.49162159138434
 31
0.0
  0
ARC
  5
5D3
330
18
100
AcDbEntity
  8
0
100
AcDbCircle
 10
11.39134033901324
 20
32.80412159138434
 30
0.0
 40
0.1875
100
AcDbArc
 50
90.0
 51
180.0
  0
ARC
  5
5D4
330
18
100
AcDbEntity
  8
0
100
AcDbCircle
 10
13.89134033901324
 20
32.80412159138434
 30
0.0
 40
0.1875
100
AcDbArc
 50
0.0
 51
90.0
  0
ARC
  5
5D5
330
18
100
AcDbEntity
  8
0
100
AcDbCircle
 10
13.89134033901324
 20
27.49162159138434
 30
0.0
 40
0.1875
100
AcDbArc
 50
270.0
 51
0.0
  0
ARC
  5
5D6
330
18
100
AcDbEntity
  8
0
100
AcDbCircle
 10
11.39134033901324
 20
27.49162159138434
 30
0.0
 40
0.1875
100
AcDbArc
 50
180.0
 51
270.0
  0
LINE
  5
5D7
330
18
100
AcDbEntity
  8
0
100
AcDbLine
 10
11.39134033901324
 20
15.90203282641839
 30
0.0
 11
13.89134033901324
 21
15.90203282641839
 31
0.0
  0
LINE
  5
5D8
330
18
100
AcDbEntity
  8
0
100
AcDbLine
 10
11.39134033901324
 20
15.90203282641839
 30
0.0
 11
11.20384033901324
 21
15.71453282641839
 31
0.0
  0
LINE
  5
5D9
330
18
100
AcDbEntity
  8
0
100
AcDbLine
 10
13.89134033901324
 20
15.90203282641839
 30
0.0
 11
14.07884033901324
 21
15.71453282641839
 31
0.0
  0
LINE
  5
5DA
330
18
100
AcDbEntity
  8
0
100
AcDbLine
 10
46.44659178951883
 20
15.58953282641839
 30
0.0
 11
49.21803839892556
 21
15.58953282641839
 31
0.0
  0
LINE
  5
5DB
330
18
100
AcDbEntity
  8
0
100
AcDbLine
 10
46.17613864044698
 20
15.51203282641839
 30
0.0
 11
49.48849154799741
 21
15.51203282641839
 31
0.0
  0
LINE
  5
5DC
330
18
100
AcDbEntity
  8
0
100
AcDbLine
 10
46.3073399104904
 20
27.08544513760914
 30
0.0
 11
46.3073399104904
 21
33.21029804515955
 31
0.0
  0
LINE
  5
5DD
330
18
100
AcDbEntity
  8
0
100
AcDbLine
 10
46.22983991049039
 20
27.35589828668098
 30
0.0
 11
46.22983991049039
 21
32.93984489608771
 31
0.0
  0
LINE
  5
5DE
330
18
100
AcDbEntity
  8
0
100
AcDbLine
 10
29.58004022162257
 20
32.80412159138434
 30
0.0
 11
29.76754022162257
 21
32.99162159138435
 31
0.0
  0
LINE
  5
5DF
330
18
100
AcDbEntity
  8
0
100
AcDbLine
 10
29.58004022162257
 20
27.49162159138434
 30
0.0
 11
29.76754022162257
 21
27.30412159138435
 31
0.0
  0
LINE
  5
5E0
330
18
100
AcDbEntity
  8
0
100
AcDbLine
 10
29.58004022162257
 20
27.49162159138434
 30
0.0
 11
29.58004022162257
 21
32.80412159138434
 31
0.0
  0
LINE
  5
5E1
330
18
100
AcDbEntity
  8
0
100
AcDbLine
 10
30.20504022162257
 20
26.83537159138435
 30
0.0
 11
30.20504022162257
 21
33.46037159138435
 31
0.0
  0
LINE
  5
5E2
330
18
100
AcDbEntity
  8
0
100
AcDbLine
 10
30.22004022162257
 20
26.83537159138435
 30
0.0
 11
30.22004022162257
 21
33.46037159138435
 31
0.0
  0
LINE
  5
5E3
330
18
100
AcDbEntity
  8
0
100
AcDbLine
 10
30.39254022162257
 20
33.46037159138435
 30
0.0
 11
30.51754022162257
 21
33.32440767058491
 31
0.0
  0
LINE
  5
5E4
330
18
100
AcDbEntity
  8
0
100
AcDbLine
 10
30.51754022162257
 20
33.32440767058491
 30
0.0
 11
33.28581254782956
 21
33.27608729739198
 31
0.0
  0
LINE
  5
5E5
330
18
100
AcDbEntity
  8
0
100
AcDbLine
 10
30.39254022162257
 20
26.83537159138435
 30
0.0
 11
30.51754022162257
 21
26.97133551218378
 31
0.0
  0
LINE
  5
5E6
330
18
100
AcDbEntity
  8
0
100
AcDbLine
 10
30.51754022162257
 20
26.97133551218378
 30
0.0
 11
33.28581254782956
 21
27.01965588537671
 31
0.0
  0
ARC
  5
5E7
330
18
100
AcDbEntity
  8
0
100
AcDbCircle
 10
33.28254022162256
 20
33.08861585455015
 30
0.0
 40
0.1875
100
AcDbArc
 50
0.0
 51
89.0
  0
ARC
  5
5E8
330
18
100
AcDbEntity
  8
0
100
AcDbCircle
 10
33.28254022162256
 20
27.20712732821854
 30
0.0
 40
0.1875
100
AcDbArc
 50
271.0
 51
0.0
  0
LINE
  5
5E9
330
18
100
AcDbEntity
  8
0
100
AcDbLine
 10
33.47004022162256
 20
27.20712732821854
 30
0.0
 11
33.47004022162256
 21
33.08861585455015
 31
0.0
  0
LINE
  5
5EA
330
18
100
AcDbEntity
  8
0
100
AcDbLine
 10
30.22004022162257
 20
33.46037159138435
 30
0.0
 11
30.39254022162257
 21
33.46037159138435
 31
0.0
  0
LINE
  5
5EB
330
18
100
AcDbEntity
  8
0
100
AcDbLine
 10
30.22004022162257
 20
26.83537159138435
 30
0.0
 11
30.39254022162257
 21
26.83537159138435
 31
0.0
  0
LINE
  5
5EC
330
18
100
AcDbEntity
  8
0
100
AcDbLine
 10
30.51754022162257
 20
26.97133551218378
 30
0.0
 11
30.51754022162256
 21
33.32440767058491
 31
0.0
  0
LINE
  5
5ED
330
18
100
AcDbEntity
  8
0
100
AcDbLine
 10
30.39254022162257
 20
26.83537159138435
 30
0.0
 11
30.39254022162257
 21
33.46037159138435
 31
0.0
  0
ARC
  5
5EE
330
18
100
AcDbEntity
  8
0
100
AcDbCircle
 10
29.83004022162257
 20
33.38473820630626
 30
0.0
 40
0.0625
100
AcDbArc
 50
92.00000000000001
 51
180.0
  0
ARC
  5
5EF
330
18
100
AcDbEntity
  8
0
100
AcDbCircle
 10
29.83004022162257
 20
26.91100497646242
 30
0.0
 40
0.0625
100
AcDbArc
 50
180.0
 51
267.9999999999999
  0
LINE
  5
5F0
330
18
100
AcDbEntity
  8
0
100
AcDbLine
 10
30.20504022162257
 20
33.46037159138435
 30
0.0
 11
29.82785900307866
 21
33.44720013299496
 31
0.0
  0
LINE
  5
5F1
330
18
100
AcDbEntity
  8
0
100
AcDbLine
 10
30.20504022162257
 20
26.83537159138435
 30
0.0
 11
29.82785900307866
 21
26.84854304977373
 31
0.0
  0
LINE
  5
5F2
330
18
100
AcDbEntity
  8
0
100
AcDbLine
 10
29.76754022162257
 20
26.91100497646242
 30
0.0
 11
29.76754022162257
 21
33.38473820630627
 31
0.0
  0
LINE
  5
5F3
330
18
100
AcDbEntity
  8
0
100
AcDbLine
 10
49.60307728341287
 20
15.51318872453001
 30
0.0
 11
49.47689452600902
 21
15.51318872453001
 31
0.0
  0
LINE
  5
5F4
330
18
100
AcDbEntity
  8
0
100
AcDbLine
 10
49.60155902529206
 20
15.58818872453001
 30
0.0
 11
49.47746784026799
 21
15.58818872453001
 31
0.0
  0
ARC
  5
5F5
330
18
100
AcDbEntity
  8
0
100
AcDbCircle
 10
49.51568664568428
 20
15.55039438145365
 30
0.0
 40
0.0537502507526586
100
AcDbArc
 50
135.3199400149533
 51
223.8041173829552
  0
LINE
  5
5F6
330
18
100
AcDbEntity
  8
0
100
AcDbLine
 10
49.60155902529206
 20
15.58818872453001
 30
0.0
 11
49.60307728341287
 21
15.51318872453001
 31
0.0
  0
LINE
  5
5F7
330
18
100
AcDbEntity
  8
0
100
AcDbLine
 10
46.06043175234124
 20
15.51228424711039
 30
0.0
 11
46.06305081005312
 21
15.58728424711039
 31
0.0
  0
ARC
  5
5F8
330
18
100
AcDbEntity
  8
0
100
AcDbCircle
 10
46.14630413194903
 20
15.55007859018675
 30
0.0
 40
0.0537502507526586
100
AcDbArc
 50
315.3199400149533
 51
43.80411738295514
  0
LINE
  5
5F9
330
18
100
AcDbEntity
  8
0
100
AcDbLine
 10
46.06043175234124
 20
15.51228424711039
 30
0.0
 11
46.18452293736531
 21
15.51228424711039
 31
0.0
  0
LINE
  5
5FA
330
18
100
AcDbEntity
  8
0
100
AcDbLine
 10
46.06305081005312
 20
15.58728424711039
 30
0.0
 11
46.18509625162429
 21
15.58728424711039
 31
0.0
  0
LINE
  5
5FB
330
18
100
AcDbEntity
  8
0
100
AcDbLine
 10
46.30646705469885
 20
33.3252448437981
 30
0.0
 11
46.23146705469885
 21
33.32262578608622
 31
0.0
  0
ARC
  5
5FC
330
18
100
AcDbEntity
  8
0
100
AcDbCircle
 10
46.26867271162249
 20
33.23937246419032
 30
0.0
 40
0.0537502507526586
100
AcDbArc
 50
226.1958826170449
 51
314.6800599850467
  0
LINE
  5
5FD
330
18
100
AcDbEntity
  8
0
100
AcDbLine
 10
46.30646705469885
 20
33.3252448437981
 30
0.0
 11
46.30646705469885
 21
33.20115365877403
 31
0.0
  0
LINE
  5
5FE
330
18
100
AcDbEntity
  8
0
100
AcDbLine
 10
46.23146705469885
 20
33.32262578608622
 30
0.0
 11
46.23146705469885
 21
33.20058034451506
 31
0.0
  0
LINE
  5
5FF
330
18
100
AcDbEntity
  8
0
100
AcDbLine
 10
46.23026988799337
 20
26.97409575859963
 30
0.0
 11
46.23026988799337
 21
27.09614120017079
 31
0.0
  0
LINE
  5
600
330
18
100
AcDbEntity
  8
0
100
AcDbLine
 10
46.30526988799338
 20
26.97147670088774
 30
0.0
 11
46.30526988799338
 21
27.09556788591181
 31
0.0
  0
ARC
  5
601
330
18
100
AcDbEntity
  8
0
100
AcDbCircle
 10
46.26747554491702
 20
27.05734908049553
 30
0.0
 40
0.0537502507526586
100
AcDbArc
 50
45.31994001495332
 51
133.8041173829551
  0
LINE
  5
602
330
18
100
AcDbEntity
  8
0
100
AcDbLine
 10
46.30526988799338
 20
26.97147670088774
 30
0.0
 11
46.23026988799337
 21
26.97409575859963
 31
0.0
  0
LINE
  5
603
330
18
100
AcDbEntity
  8
0
100
AcDbLine
 10
46.67756757200087
 20
15.51203282641839
 30
0.0
 11
46.73647841613361
 21
12.13703282641839
 31
0.0
  0
LINE
  5
604
330
18
100
AcDbEntity
  8
0
100
AcDbLine
 10
48.98706261644352
 20
15.51203282641839
 30
0.0
 11
48.92815177231078
 21
12.13703282641839
 31
0.0
  0
LINE
  5
605
330
18
100
AcDbEntity
  8
0
100
AcDbLine
 10
46.3073399104904
 20
32.27264847992294
 30
0.0
 11
49.68233991049039
 21
32.21235979805171
 31
0.0
  0
LINE
  5
606
330
18
100
AcDbEntity
  8
0
100
AcDbLine
 10
46.3073399104904
 20
28.02309470284575
 30
0.0
 11
49.68233991049039
 21
28.08338338471698
 31
0.0
  0
LINE
  5
607
330
18
100
AcDbEntity
  8
HIDE
100
AcDbLine
 10
46.3073399104904
 20
27.89787159138435
 30
0.0
 11
49.3073399104904
 21
27.88287159138434
 31
0.0
  0
LINE
  5
608
330
18
100
AcDbEntity
  8
HIDE
100
AcDbLine
 10
46.30733991049039
 20
27.52287159138435
 30
0.0
 11
49.3073399104904
 21
27.53787159138435
 31
0.0
  0
LINE
  5
609
330
18
100
AcDbEntity
  8
HIDE
100
AcDbLine
 10
49.3073399104904
 20
27.88287159138434
 30
0.0
 11
49.3073399104904
 21
27.81937159138435
 31
0.0
  0
LINE
  5
60A
330
18
100
AcDbEntity
  8
HIDE
100
AcDbLine
 10
49.3073399104904
 20
27.81937159138435
 30
0.0
 11
49.8073399104904
 21
27.81937159138435
 31
0.0
  0
LINE
  5
60B
330
18
100
AcDbEntity
  8
HIDE
100
AcDbLine
 10
49.3073399104904
 20
27.60137159138434
 30
0.0
 11
49.8073399104904
 21
27.60137159138434
 31
0.0
  0
LINE
  5
60C
330
18
100
AcDbEntity
  8
HIDE
100
AcDbLine
 10
49.3073399104904
 20
27.60137159138434
 30
0.0
 11
49.3073399104904
 21
27.53787159138435
 31
0.0
  0
LINE
  5
60D
330
18
100
AcDbEntity
  8
HIDE
100
AcDbLine
 10
49.3073399104904
 20
32.47637159138434
 30
0.0
 11
49.3073399104904
 21
32.41287159138435
 31
0.0
  0
LINE
  5
60E
330
18
100
AcDbEntity
  8
HIDE
100
AcDbLine
 10
49.3073399104904
 20
32.47637159138434
 30
0.0
 11
49.8073399104904
 21
32.47637159138434
 31
0.0
  0
LINE
  5
60F
330
18
100
AcDbEntity
  8
HIDE
100
AcDbLine
 10
49.3073399104904
 20
32.69437159138435
 30
0.0
 11
49.8073399104904
 21
32.69437159138435
 31
0.0
  0
LINE
  5
610
330
18
100
AcDbEntity
  8
HIDE
100
AcDbLine
 10
49.3073399104904
 20
32.75787159138435
 30
0.0
 11
49.3073399104904
 21
32.69437159138435
 31
0.0
  0
LINE
  5
611
330
18
100
AcDbEntity
  8
HIDE
100
AcDbLine
 10
46.3073399104904
 20
32.77287159138435
 30
0.0
 11
49.3073399104904
 21
32.75787159138435
 31
0.0
  0
LINE
  5
612
330
18
100
AcDbEntity
  8
HIDE
100
AcDbLine
 10
46.30733991049039
 20
32.39787159138435
 30
0.0
 11
49.3073399104904
 21
32.41287159138435
 31
0.0
  0
LINE
  5
613
330
18
100
AcDbEntity
  8
HIDE
100
AcDbLine
 10
46.17606509422219
 20
15.51203282641839
 30
0.0
 11
46.19106509422219
 21
12.51203282641838
 31
0.0
  0
LINE
  5
614
330
18
100
AcDbEntity
  8
HIDE
100
AcDbLine
 10
46.55106509422219
 20
15.51203282641839
 30
0.0
 11
46.53606509422219
 21
12.51203282641838
 31
0.0
  0
LINE
  5
615
330
18
100
AcDbEntity
  8
HIDE
100
AcDbLine
 10
46.53606509422219
 20
12.51203282641838
 30
0.0
 11
46.4725650942222
 21
12.51203282641838
 31
0.0
  0
LINE
  5
616
330
18
100
AcDbEntity
  8
HIDE
100
AcDbLine
 10
46.4725650942222
 20
12.51203282641838
 30
0.0
 11
46.4725650942222
 21
12.01203282641838
 31
0.0
  0
LINE
  5
617
330
18
100
AcDbEntity
  8
HIDE
100
AcDbLine
 10
46.2545650942222
 20
12.51203282641838
 30
0.0
 11
46.2545650942222
 21
12.01203282641838
 31
0.0
  0
LINE
  5
618
330
18
100
AcDbEntity
  8
HIDE
100
AcDbLine
 10
46.2545650942222
 20
12.51203282641838
 30
0.0
 11
46.19106509422219
 21
12.51203282641838
 31
0.0
  0
LINE
  5
619
330
18
100
AcDbEntity
  8
HIDE
100
AcDbLine
 10
49.11356509422219
 20
15.51203282641839
 30
0.0
 11
49.12856509422219
 21
12.51203282641839
 31
0.0
  0
LINE
  5
61A
330
18
100
AcDbEntity
  8
HIDE
100
AcDbLine
 10
49.4885650942222
 20
15.51203282641839
 30
0.0
 11
49.4735650942222
 21
12.51203282641839
 31
0.0
  0
LINE
  5
61B
330
18
100
AcDbEntity
  8
HIDE
100
AcDbLine
 10
49.4735650942222
 20
12.51203282641839
 30
0.0
 11
49.41006509422219
 21
12.51203282641839
 31
0.0
  0
LINE
  5
61C
330
18
100
AcDbEntity
  8
HIDE
100
AcDbLine
 10
49.41006509422219
 20
12.51203282641839
 30
0.0
 11
49.41006509422219
 21
12.01203282641839
 31
0.0
  0
LINE
  5
61D
330
18
100
AcDbEntity
  8
HIDE
100
AcDbLine
 10
49.19206509422219
 20
12.51203282641839
 30
0.0
 11
49.19206509422219
 21
12.01203282641839
 31
0.0
  0
LINE
  5
61E
330
18
100
AcDbEntity
  8
HIDE
100
AcDbLine
 10
49.19206509422219
 20
12.51203282641839
 30
0.0
 11
49.12856509422219
 21
12.51203282641839
 31
0.0
  0
INSERT
  5
61F
330
18
100
AcDbEntity
  8
HATCH
100
AcDbBlockReference
  2
*X0
 10
15.44827586206988
 20
4.84421298302319
 30
0.0
  0
INSERT
  5
620
330
18
100
AcDbEntity
  8
HATCH
100
AcDbBlockReference
  2
*X1
 10
15.44827586206988
 20
4.84421298302319
 30
0.0
  0
INSERT
  5
621
330
18
100
AcDbEntity
  8
HATCH
100
AcDbBlockReference
  2
*X2
 10
15.44827586206988
 20
4.84421298302319
 30
0.0
  0
INSERT
  5
622
330
18
100
AcDbEntity
  8
HATCH
100
AcDbBlockReference
  2
*X3
 10
15.44827586206988
 20
9.77303379126944
 30
0.0
  0
SOLID
  5
623
330
18
100
AcDbEntity
  8
DIM
100
AcDbTrace
 10
46.19833378506308
 20
33.47483325825954
 30
0.0
 11
46.14593705726554
 21
33.44560000807914
 31
0.0
 12
46.25983517170551
 22
33.3030264497767
 32
0.0
 13
46.25983517170551
 23
33.3030264497767
 33
0.0
  0
LINE
  5
624
330
18
100
AcDbEntity
  8
DIM
100
AcDbLine
 10
46.17213542116431
 20
33.46021663316934
 30
0.0
 11
45.66592076912491
 21
34.36753932792125
 31
0.0
  0
LINE
  5
625
330
18
100
AcDbEntity
  8
DIM
100
AcDbLine
 10
45.66592076912491
 20
34.36753932792125
 30
0.0
 11
45.48592076912491
 21
34.36753932792125
 31
0.0
  0
TEXT
  5
626
330
18
100
AcDbEntity
  8
DIM
100
AcDbText
 10
44.27594971057533
 20
34.27753932792125
 30
0.0
 40
0.18
  1
GASKET
100
AcDbText
  0
DIMENSION
  5
627
330
18
100
AcDbEntity
  8
DIM
100
AcDbDimension
280
     0
  2
*D24
 10
50.99151685838065
 20
28.08338338471698
 30
0.0
 11
50.99151685838065
 21
30.14787159138434
 31
0.0
 71
     5
 42
-1.0
 73
     0
 74
     0
 75
     0
100
AcDbAlignedDimension
 13
49.68233991049039
 23
32.21235979805171
 33
0.0
 14
49.68233991049039
 24
28.08338338471698
 34
0.0
 50
90.0
100
AcDbRotatedDimension
  0
DIMENSION
  5
628
330
18
100
AcDbEntity
  8
DIM
100
AcDbDimension
280
     0
  2
*D26
 10
53.22155909176178
 20
33.15110633549743
 30
0.0
 11
53.22155909176178
 21
30.16003745284886
 31
0.0
 70
   128
 71
     5
 42
-1.0
 73
     0
 74
     0
 75
     0
100
AcDbAlignedDimension
 13
49.62093068589272
 23
27.14463684727126
 33
0.0
 14
49.62093068589272
 24
33.15110633549743
 34
0.0
 50
90.0
100
AcDbRotatedDimension
  0
DIMENSION
  5
629
330
18
100
AcDbEntity
  8
DIM
100
AcDbDimension
280
     0
  2
*D28
 10
46.73647841613361
 20
11.22642390730472
 30
0.0
 11
47.83231509422219
 21
11.22642390730472
 31
0.0
 12
0.0
 22
2.433745786215865
 32
0.0
 71
     5
 42
-1.0
 73
     0
 74
     0
 75
     0
100
AcDbAlignedDimension
 13
48.92815177231078
 23
12.13703282641839
 33
0.0
 14
46.73647841613361
 24
12.13703282641839
 34
0.0
100
AcDbRotatedDimension
  0
DIMENSION
  5
62A
330
18
100
AcDbEntity
  8
DIM
100
AcDbDimension
280
     0
  2
*D29
 10
49.3010650942222
 20
10.53296980382769
 30
0.0
 11
47.83231509422219
 21
10.53296980382769
 31
0.0
 12
0.0
 22
2.433745786215865
 32
0.0
 71
     5
 42
-1.0
 73
     0
 74
     0
 75
     0
100
AcDbAlignedDimension
 13
46.3635650942222
 23
12.01203282641838
 33
0.0
 14
49.3010650942222
 24
12.01203282641839
 34
0.0
100
AcDbRotatedDimension
  0
DIMENSION
  5
62B
330
18
100
AcDbEntity
  8
DIM
100
AcDbDimension
280
     0
  2
*D25
 10
52.13026182861781
 20
27.71037159138435
 30
0.0
 11
52.13026182861781
 21
30.14787159138434
 31
0.0
 70
   128
 71
     5
 42
-1.0
 73
     0
 74
     0
 75
     0
100
AcDbAlignedDimension
 13
49.8073399104904
 23
32.58537159138434
 33
0.0
 14
49.8073399104904
 24
27.71037159138435
 34
0.0
 50
90.0
100
AcDbRotatedDimension
  0
DIMENSION
  5
62C
330
18
100
AcDbEntity
  8
DIM
100
AcDbDimension
280
     0
  2
*D30
 10
49.42929983833528
 20
9.765303945417164
 30
0.0
 11
47.83231509422219
 21
9.765303945417164
 31
0.0
 12
0.0
 22
2.433745786215865
 32
0.0
 71
     5
 42
-1.0
 73
     0
 74
     0
 75
     0
100
AcDbAlignedDimension
 13
46.2353303501091
 23
12.19844205101606
 33
0.0
 14
49.42929983833528
 24
12.19844205101606
 34
0.0
100
AcDbRotatedDimension
  0
DIMENSION
  5
62D
330
18
100
AcDbEntity
  8
DIM
100
AcDbDimension
280
     0
  2
*D21
 10
7.60190554303022
 20
33.46037159138435
 30
0.0
 11
7.60190554303022
 21
30.14787159138434
 31
0.0
 12
3.297253220194022
 22
0.0
 32
0.0
 70
   128
 71
     5
 42
-1.0
 73
     0
 74
     0
 75
     0
100
AcDbAlignedDimension
 13
11.04759033901324
 23
26.83537159138435
 33
0.0
 14
11.04759033901324
 24
33.46037159138435
 34
0.0
 50
90.0
100
AcDbRotatedDimension
  0
DIMENSION
  5
62E
330
18
100
AcDbEntity
  8
DIM
100
AcDbDimension
280
     0
  2
*D23
 10
10.73509033901324
 20
35.80554415302624
 30
0.0
 11
12.64134033901324
 21
35.80554415302624
 31
0.0
 12
3.297253220194022
 22
0.0
 32
0.0
 71
     5
 42
-1.0
 73
     0
 74
     0
 75
     0
100
AcDbAlignedDimension
 13
14.54759033901324
 23
33.14787159138435
 33
0.0
 14
10.73509033901324
 24
33.14787159138435
 34
0.0
100
AcDbRotatedDimension
  0
DIMENSION
  5
62F
330
18
100
AcDbEntity
  8
DIM
100
AcDbDimension
280
     0
  2
*D20
 10
9.067876079427495
 20
27.49162159138434
 30
0.0
 11
9.067876079427499
 21
30.10529107625856
 31
0.0
 12
3.297253220194022
 22
0.0
 32
0.0
 70
   128
 71
     5
 42
-1.0
 73
     0
 74
     0
 75
     0
100
AcDbAlignedDimension
 13
11.39134033901324
 23
32.80412159138434
 33
0.0
 14
11.39134033901324
 24
27.49162159138434
 34
0.0
 50
90.0
100
AcDbRotatedDimension
  0
DIMENSION
  5
630
330
18
100
AcDbEntity
  8
DIM
100
AcDbDimension
280
     0
  2
*D18
 10
16.18012375991741
 20
15.71453282641839
 30
0.0
 11
16.18012375991741
 21
13.86328282641839
 31
0.0
 12
3.297253220194022
 22
2.433745786215865
 32
0.0
 71
     5
 42
-1.0
 73
     0
 74
     0
 75
     0
100
AcDbAlignedDimension
 13
14.17583460217905
 23
12.01203282641839
 33
0.0
 14
14.47195695393516
 24
15.71453282641839
 34
0.0
 50
90.0
100
AcDbRotatedDimension
  0
DIMENSION
  5
631
330
18
100
AcDbEntity
  8
DIM
100
AcDbDimension
280
     0
  2
*D27
 10
51.07659550558228
 20
15.51203282641839
 30
0.0
 11
51.07659550558228
 21
13.82453282641839
 31
0.0
 12
0.0
 22
2.433745786215865
 32
0.0
 70
   128
 71
     5
 42
-1.0
 73
     0
 74
     0
 75
     0
100
AcDbAlignedDimension
 13
49.36680935738801
 23
12.13703282641839
 33
0.0
 14
49.48849154799741
 24
15.51203282641839
 34
0.0
 50
90.0
100
AcDbRotatedDimension
  0
SOLID
  5
632
330
18
100
AcDbEntity
  8
DIM
100
AcDbTrace
 10
14.55716071562742
 20
26.8528459190495
 30
0.0
 11
14.59852776375625
 21
26.89630586991356
 31
0.0
 12
14.44746438709965
 22
26.99867703886803
 32
0.0
 13
14.44746438709965
 23
26.99867703886803
 33
0.0
  0
LINE
  5
633
330
18
100
AcDbEntity
  8
DIM
100
AcDbLine
 10
14.57784423969184
 20
26.87457589448153
 30
0.0
 11
15.19517480577549
 21
26.28697414319424
 31
0.0
  0
LINE
  5
634
330
18
100
AcDbEntity
  8
DIM
100
AcDbLine
 10
15.19517480577549
 20
26.28697414319424
 30
0.0
 11
15.37517480577549
 21
26.28697414319424
 31
0.0
  0
TEXT
  5
635
330
18
100
AcDbEntity
  8
DIM
100
AcDbText
 10
15.55517480577549
 20
26.19697414319424
 30
0.0
 40
0.18
  1
10-24 S.S. PAN HD. SCREW
100
AcDbText
  0
INSERT
  5
636
330
18
100
AcDbEntity
  8
HATCH
100
AcDbBlockReference
  2
*X4
 10
15.44827586206988
 20
8.599028159944303
 30
0.0
  0
INSERT
  5
637
330
18
100
AcDbEntity
  8
HATCH
100
AcDbBlockReference
  2
*X5
 10
15.44827586206988
 20
8.599028159944303
 30
0.0
  0
DIMENSION
  5
638
330
18
100
AcDbEntity
  8
DIM
100
AcDbDimension
280
     0
  2
*D6
 10
46.71140645300645
 20
15.90203282641839
 30
0.0
 11
47.38640645300645
 21
16.26203282641839
 31
0.0
 12
15.44827586206988
 22
3.670207351698052
 32
0.0
 71
     5
 42
-1.0
 73
     0
 74
     0
 75
     0
100
AcDbAlignedDimension
 13
46.63409178951883
 23
15.77703282641839
 33
0.0
 14
46.58231509422219
 24
15.90203282641839
 34
0.0
 50
90.0
100
AcDbRotatedDimension
  0
DIMENSION
  5
639
330
18
100
AcDbEntity
  8
DIM
100
AcDbDimension
280
     0
  2
*D19
 10
17.77698452277873
 20
15.90203282641839
 30
0.0
 11
17.77698452277873
 21
13.95703282641839
 31
0.0
 12
3.297253220194022
 22
2.433745786215865
 32
0.0
 71
     5
 42
-1.0
 73
     0
 74
     0
 75
     0
100
AcDbAlignedDimension
 13
14.26958460217905
 23
12.01203282641839
 33
0.0
 14
13.89134033901324
 24
15.90203282641839
 34
0.0
 50
90.0
100
AcDbRotatedDimension
  0
INSERT
  5
63B
330
18
100
AcDbEntity
  8
DIM
100
AcDbBlockReference
  2
SAAR
 10
14.64059033901324
 20
31.22520804987123
 30
0.0
 41
2.0
 42
2.0
 43
2.0
  0
INSERT
  5
63C
330
18
100
AcDbEntity
  8
DIM
100
AcDbBlockReference
  2
SBBT
 10
13.50014637306614
 20
33.64339896622171
 30
0.0
 41
2.0
 42
2.0
 43
2.0
  0
INSERT
  5
63D
330
18
100
AcDbEntity
  8
DIM
100
AcDbBlockReference
  2
SAAL
 10
10.64209033901324
 20
31.22520804987124
 30
0.0
 41
2.0
 42
2.0
 43
2.0
  0
INSERT
  5
63E
330
18
100
AcDbEntity
  8
DIM
100
AcDbBlockReference
  2
SBBB
 10
13.50014637306614
 20
26.60854711527475
 30
0.0
 41
2.0
 42
2.0
 43
2.0
  0
DIMENSION
  5
63F
330
18
100
AcDbEntity
  8
DIM
100
AcDbDimension
280
     0
  2
*D22
 10
13.89134033901324
 20
34.98802489153098
 30
0.0
 11
12.64134033901324
 21
34.98802489153098
 31
0.0
 12
3.297253220194022
 22
0.0
 32
0.0
 71
     5
 42
-1.0
 73
     0
 74
     0
 75
     0
100
AcDbAlignedDimension
 13
11.39134033901324
 23
32.80412159138434
 33
0.0
 14
13.89134033901324
 24
32.80412159138434
 34
0.0
100
AcDbRotatedDimension
  0
DIMENSION
  5
640
330
18
100
AcDbEntity
  8
DIM
100
AcDbDimension
280
     0
  2
*D15
 10
45.63645182324962
 20
12.01203282641839
 30
0.0
 11
44.96145182324961
 21
11.65203282641839
 31
0.0
 12
0.0
 22
2.433745786215865
 32
0.0
 71
     5
 42
-1.0
 73
     0
 74
     0
 75
     0
100
AcDbAlignedDimension
 13
46.29782083105638
 23
12.13703282641839
 33
0.0
 14
46.29782083105638
 24
12.01203282641839
 34
0.0
 50
90.0
100
AcDbRotatedDimension
  0
TEXT
  5
641
330
18
100
AcDbEntity
  8
DIM
100
AcDbText
 10
44.6378141081267
 20
11.31010900387612
 30
0.0
 40
0.1875
  1
TYP.
100
AcDbText
  0
INSERT
  5
642
330
18
100
AcDbEntity
  8
DIM
100
AcDbBlockReference
  2
SBBTX
 10
48.19776752555387
 20
25.38129459736503
 30
0.0
 41
2.0
 42
2.0
 43
2.0
  0
INSERT
  5
643
330
18
100
AcDbEntity
  8
DIM
100
AcDbBlockReference
  2
SAATX
 10
48.19776752555387
 20
8.222534225090255
 30
0.0
 41
2.0
 42
2.0
 43
2.0
  0
LWPOLYLINE
  5
644
330
18
100
AcDbEntity
  8
0
100
AcDbPolyline
 90
       18
 70
     1
 43
0.0
 10
49.61348890118483
 20
15.27703282641839
 10
49.73856509422219
 20
15.27703282641839
 10
49.72539363583281
 20
15.6542140449623
 42
0.4040262258351567
 10
49.66293170914411
 20
15.71453282641839
 10
49.26981509422219
 20
15.71453282641839
 10
49.08231509422219
 20
15.90203282641839
 10
46.58231509422219
 20
15.90203282641839
 10
46.39481509422219
 20
15.71453282641839
 10
46.00169847930027
 20
15.71453282641839
 42
0.4040262258351567
 10
45.93923655261158
 20
15.6542140449623
 10
45.92606509422219
 20
15.27703282641839
 10
46.05114128725955
 20
15.27703282641839
 10
46.06205402772572
 20
15.58953282641839
 10
46.44659178951882
 20
15.58953282641839
 10
46.63409178951883
 20
15.77703282641839
 10
49.03053839892556
 20
15.77703282641839
 10
49.21803839892556
 20
15.58953282641839
 10
49.60257616071867
 20
15.58953282641839
  0
LWPOLYLINE
  5
658
330
18
100
AcDbEntity
  8
0
100
AcDbPolyline
 90
       20
 70
     1
 43
0.0
 10
49.59063050752371
 20
15.51203282641839
 10
49.6077940552389
 20
15.26203282641839
 10
49.73856509422219
 20
15.26203282641839
 10
49.73856509422219
 20
15.08953282641839
 10
49.60260117342276
 20
14.96453282641839
 10
49.55428080022983
 20
12.1962605002114
 42
-0.4091108014277098
 10
49.36680935738801
 20
12.01203282641839
 10
46.29782083105638
 20
12.01203282641839
 42
-0.4091108014277098
 10
46.11034938821457
 20
12.1962605002114
 10
46.06202901502164
 20
14.96453282641839
 10
45.92606509422219
 20
15.08953282641839
 10
45.92606509422219
 20
15.26203282641839
 10
46.05683613320549
 20
15.26203282641839
 10
46.07399968092068
 20
15.51203282641839
 10
46.17613864044698
 20
15.51203282641839
 10
46.2353303501091
 20
12.19844205101606
 42
0.4091108014277098
 10
46.29782083105638
 20
12.13703282641839
 10
49.36680935738801
 20
12.13703282641839
 42
0.4091108014277098
 10
49.42929983833528
 20
12.19844205101606
 10
49.48849154799741
 20
15.51203282641839
  0
LWPOLYLINE
  5
66E
330
18
100
AcDbEntity
  8
0
100
AcDbPolyline
 90
       18
 70
     1
 43
0.0
 10
46.54233991049039
 20
26.9604477844217
 10
46.54233991049039
 20
26.83537159138435
 10
46.16515869194649
 20
26.84854304977373
 42
-0.4040262258351567
 10
46.10483991049039
 20
26.91100497646242
 10
46.10483991049039
 20
27.30412159138434
 10
45.91733991049039
 20
27.49162159138434
 10
45.91733991049039
 20
32.80412159138434
 10
46.10483991049039
 20
32.99162159138435
 10
46.10483991049039
 20
33.38473820630627
 42
-0.4040262258351567
 10
46.16515869194649
 20
33.44720013299496
 10
46.54233991049039
 20
33.46037159138435
 10
46.54233991049039
 20
33.335295398347
 10
46.22983991049039
 20
33.32438265788083
 10
46.22983991049039
 20
32.93984489608771
 10
46.04233991049039
 20
32.75234489608771
 10
46.04233991049039
 20
27.54339828668098
 10
46.22983991049039
 20
27.35589828668098
 10
46.22983991049039
 20
26.97136052488787
  0
LWPOLYLINE
  5
682
330
18
100
AcDbEntity
  8
0
100
AcDbPolyline
 90
       20
 70
     1
 43
0.0
 10
46.3073399104904
 20
33.31243700468586
 10
46.55733991049039
 20
33.32960055240106
 10
46.55733991049039
 20
33.46037159138435
 10
46.72983991049039
 20
33.46037159138435
 10
46.85483991049039
 20
33.32440767058491
 10
49.62311223669739
 20
33.27608729739198
 42
-0.4091108014277097
 10
49.8073399104904
 20
33.08861585455016
 10
49.8073399104904
 20
27.20712732821854
 42
-0.4091108014277098
 10
49.62311223669738
 20
27.01965588537671
 10
46.85483991049039
 20
26.97133551218378
 10
46.72983991049039
 20
26.83537159138435
 10
46.55733991049039
 20
26.83537159138435
 10
46.55733991049039
 20
26.96614263036764
 10
46.3073399104904
 20
26.98330617808283
 10
46.3073399104904
 20
27.08544513760914
 10
49.62093068589272
 20
27.14463684727126
 42
0.4091108014277098
 10
49.68233991049039
 20
27.20712732821854
 10
49.68233991049039
 20
33.08861585455016
 42
0.4091108014277097
 10
49.62093068589273
 20
33.15110633549743
 10
46.3073399104904
 20
33.21029804515955
  0
TEXT
  5
698
330
18
100
AcDbEntity
  8
TITLE
100
AcDbText
 10
44.77888050126408
 20
3.627356839484232
 30
0.0
 40
0.1875
  1
NEMA 4X  
100
AcDbText
  0
TEXT
  5
699
330
18
100
AcDbEntity
  8
TITLE
100
AcDbText
 10
44.75456971718932
 20
2.360660800299261
 30
0.0
 40
0.1875
  1
F.R. POLYESTER FIBERGLASS
100
AcDbText
  0
TEXT
  5
69A
330
18
100
AcDbEntity
  8
TITLE
100
AcDbText
 10
56.39943528899701
 20
0.1727312780706744
 30
0.0
 40
0.1875
  1
ENCLOSURE
100
AcDbText
  0
TEXT
  5
69B
330
18
100
AcDbEntity
  8
TITLE
100
AcDbText
 10
62.05993948723696
 20
0.8833369293407502
 30
0.0
 40
0.1875
  1
HW-N4X644
100
AcDbText
  0
TEXT
  5
69C
330
18
100
AcDbEntity
  8
TITLE
100
AcDbText
 10
60.71873829564013
 20
3.273141591298506
 30
0.0
 40
0.1875
  1
.010      1/32
100
AcDbText
  0
TEXT
  5
69D
330
18
100
AcDbEntity
  8
TITLE
100
AcDbText
 10
52.30936363602926
 20
2.354185521942768
 30
0.0
 40
0.1875
  1
SH
100
AcDbText
  0
TEXT
  5
69E
330
18
100
AcDbEntity
  8
TITLE
100
AcDbText
 10
53.21052559945179
 20
2.349965359648697
 30
0.0
 40
0.187
  1
7/17/91
100
AcDbText
  0
TEXT
  5
892
330
18
100
AcDbEntity
  8
TITLE
100
AcDbText
 10
43.41367829470571
 20
2.762795715722289
 30
0.0
 40
0.154
  1
MATERIAL
  7
ITALIC
100
AcDbText
  0
TEXT
  5
894
330
18
100
AcDbEntity
  8
TITLE
100
AcDbText
 10
43.43743673306819
 20
4.138388543293784
 30
0.0
 40
0.14
  1
NOTES:
  7
ITALIC
100
AcDbText
  0
TEXT
  5
8AD
330
18
100
AcDbEntity
  8
TITLE
 62
     1
100
AcDbText
 10
60.47755802933359
 20
3.356364944423901
 30
0.0
 40
0.15525
  1
+
  7
ITALIC
100
AcDbText
  0
TEXT
  5
8AE
330
18
100
AcDbEntity
  8
TITLE
 62
     1
100
AcDbText
 10
60.47755802933359
 20
3.198840704743548
 30
0.0
 40
0.15525
  1
-
  7
ITALIC
100
AcDbText
  0
TEXT
  5
8B0
330
18
100
AcDbEntity
  8
TITLE
 62
     1
100
AcDbText
 10
62.01705691683141
 20
3.349780357914581
 30
0.0
 40
0.15525
  1
+
  7
ITALIC
100
AcDbText
  0
TEXT
  5
8B1
330
18
100
AcDbEntity
  8
TITLE
 62
     1
100
AcDbText
 10
62.01705691683141
 20
3.19799197822055
 30
0.0
 40
0.15525
  1
-
  7
ITALIC
100
AcDbText
  0
TEXT
  5
8EA
330
18
100
AcDbEntity
  8
TITLE
100
AcDbText
 10
61.48167992738271
 20
0.1630555160093864
 30
0.0
 40
0.1875
  1
HW-N4X644
100
AcDbText
  0
TEXT
  5
9EB
330
18
100
AcDbEntity
  8
TITLE
100
AcDbText
 10
52.20267205253438
 20
0.2172647121122048
 30
0.0
 40
0.15125
  1
DO NOT SCALE
 72
     1
 11
53.08496371920104
 21
0.2172647121122048
 31
0.0
100
AcDbText
  0
TEXT
  5
9F8
330
18
100
AcDbEntity
  8
TITLE
100
AcDbText
 10
44.77537598299329
 20
3.110868319678791
 30
0.0
 40
0.187
  1
COLOR GLACIER GRAY RR1013
 11
44.77537598299329
 21
3.048534986345458
 31
0.0
100
AcDbText
 73
     1
  0
LWPOLYLINE
  5
B05
330
18
100
AcDbEntity
  8
TITLE
100
AcDbPolyline
 90
        4
 70
     1
 43
0.0
 10
63.96000000000377
 20
41.71000000000276
 10
0.0399999999999943
 20
41.71000000000276
 10
0.0399999999999996
 20
0.0400000000000014
 10
63.96000000000374
 20
0.0400000000000014
  0
LWPOLYLINE
  5
B06
330
18
100
AcDbEntity
  8
TITLE
100
AcDbPolyline
 90
        4
 70
     1
 43
0.0
 10
64.00000000000376
 20
41.75000000000276
 10
-0.0000000000000071
 20
41.75000000000276
 10
0.0
 20
0.0000000000000018
 10
64.00000000000374
 20
0.0000000000000018
  0
LWPOLYLINE
  5
B07
330
18
100
AcDbEntity
  8
TITLE
100
AcDbPolyline
 90
        4
 70
     1
 43
0.0
 10
63.98000000000377
 20
41.73000000000278
 10
0.0199999999999943
 20
41.73000000000278
 10
0.0199999999999996
 20
0.0200000000000014
 10
63.98000000000374
 20
0.0200000000000014
  0
TEXT
  5
B14
330
18
100
AcDbEntity
  8
TITLE
 62
     1
100
AcDbText
 10
62.01705691683141
 20
3.19799197822055
 30
0.0
 40
0.15525
  1
-
  7
ITALIC
100
AcDbText
  0
TEXT
  5
B15
330
18
100
AcDbEntity
  8
TITLE
 62
     1
100
AcDbText
 10
62.01705691683141
 20
3.349780357914581
 30
0.0
 40
0.15525
  1
+
  7
ITALIC
100
AcDbText
  0
TEXT
  5
B16
330
18
100
AcDbEntity
  8
TITLE
 62
     1
100
AcDbText
 10
62.01705691683141
 20
3.64320306308844
 30
0.0
 40
0.15525
  1
FRACTIONAL
  7
ITALIC
100
AcDbText
  0
TEXT
  5
B17
330
18
100
AcDbEntity
  8
TITLE
 62
     1
100
AcDbText
 10
60.47755802933359
 20
3.198840704743548
 30
0.0
 40
0.15525
  1
-
  7
ITALIC
100
AcDbText
  0
TEXT
  5
B18
330
18
100
AcDbEntity
  8
TITLE
 62
     1
100
AcDbText
 10
60.47755802933359
 20
3.356364944423901
 30
0.0
 40
0.15525
  1
+
  7
ITALIC
100
AcDbText
  0
TEXT
  5
B19
330
18
100
AcDbEntity
  8
TITLE
 62
     1
100
AcDbText
 10
60.47755802933359
 20
3.649787649597743
 30
0.0
 40
0.15525
  1
DECIMAL
  7
ITALIC
100
AcDbText
  0
TEXT
  5
B1A
330
18
100
AcDbEntity
  8
TITLE
 62
     1
100
AcDbText
 10
57.92743410179541
 20
3.643086326406458
 30
0.0
 40
0.15525
  1
TOLERANCES
  7
ITALIC
 72
     1
 11
58.67780910179541
 21
3.643086326406458
 31
0.0
100
AcDbText
  0
LINE
  5
B1B
330
18
100
AcDbEntity
  8
TITLE
 62
     1
100
AcDbLine
 10
57.33500000000375
 20
4.04
 30
0.0
 11
57.33500000000375
 21
3.040000000000001
 31
0.0
  0
TEXT
  5
B1C
330
18
100
AcDbEntity
  8
TITLE
 62
     1
100
AcDbText
 10
57.51343410179541
 20
3.27666845244556
 30
0.0
 40
0.15525
  1
UNLESS SPECIFIED
  7
ITALIC
 72
     1
 11
58.67780910179541
 21
3.27666845244556
 31
0.0
100
AcDbText
  0
TEXT
  5
B1D
330
18
100
AcDbEntity
  8
TITLE
 62
     1
100
AcDbText
 10
53.44713965836721
 20
2.822727796946285
 30
0.0
 40
0.14
  1
DATE
  7
ITALIC
 72
     1
 11
53.70380632503388
 21
2.822727796946285
 31
0.0
100
AcDbText
  0
TEXT
  5
B1E
330
18
100
AcDbEntity
  8
TITLE
 62
     1
100
AcDbText
 10
53.46190663208497
 20
2.072056300604384
 30
0.0
 40
0.154
  1
DATE
  7
ITALIC
 72
     1
 11
53.7442399654183
 21
2.072056300604384
 31
0.0
100
AcDbText
  0
TEXT
  5
B1F
330
18
100
AcDbEntity
  8
TITLE
100
AcDbText
 10
52.13269628546089
 20
2.82618097475822
 30
0.0
 40
0.14
  1
DR. BY
  7
ITALIC
 72
     1
 11
52.48269628546089
 21
2.82618097475822
 31
0.0
100
AcDbText
  0
TEXT
  5
B20
330
18
100
AcDbEntity
  8
TITLE
100
AcDbText
 10
51.96638083203399
 20
2.072056300604384
 30
0.0
 40
0.154
  1
CHK. BY
  7
ITALIC
 72
     1
 11
52.42838083203399
 21
2.072056300604384
 31
0.0
100
AcDbText
  0
LINE
  5
B21
330
18
100
AcDbEntity
  8
TITLE
 62
     1
100
AcDbLine
 10
61.74479396240641
 20
0.7900000000000014
 30
0.0
 11
61.74479396240641
 21
1.540000000000001
 31
0.0
  0
TEXT
  5
B22
330
18
100
AcDbEntity
  8
TITLE
 62
     1
100
AcDbText
 10
59.46791140966684
 20
0.5206953542067927
 30
0.0
 40
0.1694
  1
PART NO.
  7
ITALIC
100
AcDbText
  0
LINE
  5
B23
330
18
100
AcDbEntity
  8
TITLE
 62
     1
100
AcDbLine
 10
59.21000000000375
 20
0.7900000000000014
 30
0.0
 11
59.21000000000375
 21
0.0399999999999978
 31
0.0
  0
TEXT
  5
B24
330
18
100
AcDbEntity
  8
TITLE
 62
     1
100
AcDbText
 10
54.56633048452305
 20
0.5102494913256912
 30
0.0
 40
0.1694
  1
PART NAME
  7
ITALIC
100
AcDbText
  0
TEXT
  5
B25
330
18
100
AcDbEntity
  8
TITLE
 62
     1
100
AcDbText
 10
54.54266216399277
 20
1.252558201771084
 30
0.0
 40
0.1694
  1
CUSTOMER
  7
ITALIC
 72
     2
 11
55.8413954973261
 21
1.252558201771084
 31
0.0
100
AcDbText
  0
TEXT
  5
B26
330
18
100
AcDbEntity
  8
TITLE
 62
     1
100
AcDbText
 10
53.47434386396953
 20
1.322440723290178
 30
0.0
 40
0.154
  1
DATE
  7
ITALIC
 72
     1
 11
53.75667719730286
 21
1.322440723290178
 31
0.0
100
AcDbText
  0
TEXT
  5
B27
330
18
100
AcDbEntity
  8
TITLE
100
AcDbText
 10
51.96638083203399
 20
1.316742979900486
 30
0.0
 40
0.154
  1
APD. BY
  7
ITALIC
 72
     1
 11
52.42838083203399
 21
1.316742979900486
 31
0.0
100
AcDbText
  0
TEXT
  5
B28
330
18
100
AcDbEntity
  8
TITLE
100
AcDbText
 10
52.73472273397718
 20
0.5212952711989276
 30
0.0
 40
0.154
  1
SCALE
  7
ITALIC
 72
     1
 11
53.09405606731051
 21
0.5212952711989276
 31
0.0
100
AcDbText
  0
LINE
  5
B29
330
18
100
AcDbEntity
  8
TITLE
 62
     1
100
AcDbLine
 10
53.08500000000375
 20
3.040000000000004
 30
0.0
 11
53.08500000000375
 21
0.7900000000000032
 31
0.0
  0
LINE
  5
B2A
330
18
100
AcDbEntity
  8
TITLE
 62
     1
100
AcDbLine
 10
54.33500000000375
 20
3.039999999999997
 30
0.0
 11
54.33500000000375
 21
0.0399999999999996
 31
0.0
  0
LINE
  5
B2B
330
18
100
AcDbEntity
  8
TITLE
 62
     1
100
AcDbLine
 10
63.96000000000374
 20
1.540000000000001
 30
0.0
 11
54.33500000000375
 21
1.540000000000001
 31
0.0
  0
TEXT
  5
B2C
330
18
100
AcDbEntity
  8
TITLE
 62
     1
100
AcDbText
 10
61.83818339703766
 20
1.326747107986976
 30
0.0
 40
0.125
  1
AutoCAD DWG. FILE
100
AcDbText
  0
TEXT
  5
B2D
330
18
100
AcDbEntity
  8
TITLE
100
AcDbText
 10
51.14538256127479
 20
2.036268066777214
 30
0.0
 40
0.154
  1
CHD.
  7
ITALIC
 72
     1
 11
51.3763825612748
 21
2.036268066777214
 31
0.0
100
AcDbText
  0
TEXT
  5
B2E
330
18
100
AcDbEntity
  8
TITLE
100
AcDbText
 10
50.38257751100488
 20
2.055260544742853
 30
0.0
 40
0.154
  1
BY
  7
ITALIC
 72
     1
 11
50.51091084433821
 21
2.055260544742853
 31
0.0
100
AcDbText
  0
TEXT
  5
B2F
330
18
100
AcDbEntity
  8
TITLE
100
AcDbText
 10
49.21118533914498
 20
2.045764305760033
 30
0.0
 40
0.154
  1
DATE
  7
ITALIC
 72
     1
 11
49.4935186724783
 21
2.045764305760033
 31
0.0
100
AcDbText
  0
TEXT
  5
B30
330
18
100
AcDbEntity
  8
TITLE
100
AcDbText
 10
43.43743673306819
 20
4.138388543293784
 30
0.0
 40
0.14
  1
NOTES:
  7
ITALIC
100
AcDbText
  0
TEXT
  5
B31
330
18
100
AcDbEntity
  8
TITLE
100
AcDbText
 10
43.26186688171646
 20
2.055260544742853
 30
0.0
 40
0.154
  1
LET.
  7
ITALIC
 72
     1
 11
43.49286688171646
 21
2.055260544742853
 31
0.0
100
AcDbText
  0
TEXT
  5
B32
330
18
100
AcDbEntity
  8
TITLE
100
AcDbText
 10
43.41367829470571
 20
2.762795715722289
 30
0.0
 40
0.154
  1
MATERIAL
  7
ITALIC
100
AcDbText
  0
LINE
  5
B33
330
18
100
AcDbEntity
  8
TITLE
100
AcDbLine
 10
51.83500000000375
 20
1.915000000000001
 30
0.0
 11
42.96000000000375
 21
1.915000000000004
 31
0.0
  0
TEXT
  5
B34
330
18
100
AcDbEntity
  8
TITLE
100
AcDbText
 10
45.20274150067381
 20
2.036268066777214
 30
0.0
 40
0.154
  1
REVISION RECORD
  7
ITALIC
 72
     1
 11
46.30640816734048
 21
2.036268066777214
 31
0.0
100
AcDbText
  0
LINE
  5
B35
330
18
100
AcDbEntity
  8
TITLE
100
AcDbLine
 10
51.83500000000375
 20
0.4149999999999996
 30
0.0
 11
42.96000000000375
 21
0.415000000000005
 31
0.0
  0
LINE
  5
B36
330
18
100
AcDbEntity
  8
TITLE
100
AcDbLine
 10
51.83500000000375
 20
1.165000000000001
 30
0.0
 11
42.96000000000375
 21
1.165000000000004
 31
0.0
  0
LINE
  5
B37
330
18
100
AcDbEntity
  8
TITLE
100
AcDbLine
 10
42.96000000000375
 20
4.040000000000004
 30
0.0
 11
42.96000000000375
 21
0.0400000000000014
 31
0.0
  0
LINE
  5
B38
330
18
100
AcDbEntity
  8
TITLE
100
AcDbLine
 10
43.96000000000374
 20
2.290000000000001
 30
0.0
 11
43.96000000000374
 21
0.0400000000000014
 31
0.0
  0
LINE
  5
B39
330
18
100
AcDbEntity
  8
TITLE
100
AcDbLine
 10
48.96000000000374
 20
2.290000000000004
 30
0.0
 11
48.96000000000374
 21
0.0400000000000049
 31
0.0
  0
LINE
  5
B3A
330
18
100
AcDbEntity
  8
TITLE
100
AcDbLine
 10
50.08500000000374
 20
2.290000000000004
 30
0.0
 11
50.08500000000374
 21
0.0400000000000067
 31
0.0
  0
LINE
  5
B3B
330
18
100
AcDbEntity
  8
TITLE
100
AcDbLine
 10
50.96000000000374
 20
2.290000000000004
 30
0.0
 11
50.96000000000374
 21
0.0400000000000085
 31
0.0
  0
LINE
  5
B3C
330
18
100
AcDbEntity
  8
TITLE
100
AcDbLine
 10
51.83500000000375
 20
3.040000000000001
 30
0.0
 11
51.83500000000375
 21
0.0399999999999996
 31
0.0
  0
LINE
  5
B3D
330
18
100
AcDbEntity
  8
TITLE
100
AcDbLine
 10
63.96000000000374
 20
4.04
 30
0.0
 11
42.96000000000375
 21
4.040000000000004
 31
0.0
  0
LINE
  5
B3E
330
18
100
AcDbEntity
  8
TITLE
100
AcDbLine
 10
57.33500000000375
 20
3.540000000000002
 30
0.0
 11
42.96000000000375
 21
3.540000000000004
 31
0.0
  0
LINE
  5
B3F
330
18
100
AcDbEntity
  8
TITLE
100
AcDbLine
 10
63.96000000000374
 20
3.040000000000001
 30
0.0
 11
42.96000000000375
 21
3.040000000000004
 31
0.0
  0
LINE
  5
B40
330
18
100
AcDbEntity
  8
TITLE
100
AcDbLine
 10
54.33500000000375
 20
2.290000000000001
 30
0.0
 11
42.96000000000375
 21
2.290000000000004
 31
0.0
  0
LINE
  5
B41
330
18
100
AcDbEntity
  8
TITLE
100
AcDbLine
 10
54.33500000000375
 20
1.540000000000001
 30
0.0
 11
42.96000000000375
 21
1.540000000000004
 31
0.0
  0
LINE
  5
B42
330
18
100
AcDbEntity
  8
TITLE
100
AcDbLine
 10
63.96000000000374
 20
0.7900000000000014
 30
0.0
 11
42.96000000000375
 21
0.790000000000005
 31
0.0
  0
TEXT
  5
B52
330
18
100
AcDbEntity
  8
TITLE
100
AcDbText
 10
55.07001030618539
 20
1.966307236846574
 30
0.0
 40
0.5931705105166513
  1
HUBBELL WIEGMANN
  7
STYLE1
100
AcDbText
  0
ENDSEC
  0
SECTION
  2
OBJECTS
  0
DICTIONARY
  5
C
330
0
100
AcDbDictionary
281
     1
  3
ACAD_COLOR
350
A0D
  3
ACAD_GROUP
350
D
  3
ACAD_LAYOUT
350
A02
  3
ACAD_MATERIAL
350
A0C
  3
ACAD_MLEADERSTYLE
350
B72
  3
ACAD_MLINESTYLE
350
E
  3
ACAD_PLOTSETTINGS
350
A03
  3
ACAD_PLOTSTYLENAME
350
A00
  3
ACAD_SCALELIST
350
B60
  3
ACAD_TABLESTYLE
350
A0E
  3
ACAD_VISUALSTYLE
350
A4F
  3
AcAmCatalogState
350
AC0
  3
ACDB_RECOMPOSE_DATA
350
B85
  3
AcDbVariableDictionary
350
A47
  3
ACDMSYSVARMGR
350
A7C
  3
ACGREF_MASTER
350
A76
  3
ACGREFACAD_MASTER
350
A9D
  3
AcmDictionary
350
ABE
  3
ACME_BOM_MANAGER_NAME
350
A70
  3
ACME_COMMAND_HISTORY
350
A6D
  3
ACME_SCOPE_NAME
350
A6C
  3
ACMESTATEMGR
350
A75
  3
AcmeSysVarManager
350
A6E
  3
AcmSystemVariableManager
350
AA2
  3
AD_APPL
350
AAA
  3
ADSYSVARMGR
350
AA9
  3
AmdtNamedDwgMgr
350
A98
  3
AMG
350
A65
  3
AMGSNAPSETTINGS
350
AFE
  3
AMI_MASTER
350
AA0
  3
AUTOCAD_ASSEMBLIES_PROJECT
350
AB3
  3
Designer_Assemblies_SysVars
350
AAD
  3
GREFAM_MODULE
350
AA1
  3
StructToggleButtonState
350
B54
  0
DICTIONARY
  5
B47
330
2
100
AcDbDictionary
280
     1
281
     1
  3
ACAD_LAYERSTATES
360
B48
  0
DICTIONARY
  5
B43
330
18
100
AcDbDictionary
280
     1
281
     1
  3
ACAD_SORTENTS
360
B44
  0
DICTIONARY
  5
A0D
102
{ACAD_REACTORS
330
C
102
}
330
C
100
AcDbDictionary
281
     1
  0
DICTIONARY
  5
D
102
{ACAD_REACTORS
330
C
102
}
330
C
100
AcDbDictionary
281
     1
  0
DICTIONARY
  5
A02
102
{ACAD_REACTORS
330
C
102
}
330
C
100
AcDbDictionary
281
     1
  3
Layout1
350
A05
  3
Model
350
A04
  0
DICTIONARY
  5
A0C
102
{ACAD_REACTORS
330
C
102
}
330
C
100
AcDbDictionary
281
     1
  3
ByBlock
350
A4D
  3
ByLayer
350
A4C
  3
Global
350
A4E
  0
DICTIONARY
  5
B72
102
{ACAD_REACTORS
330
C
102
}
330
C
100
AcDbDictionary
281
     1
  3
Standard
350
B73
  0
DICTIONARY
  5
E
102
{ACAD_REACTORS
330
C
102
}
330
C
100
AcDbDictionary
281
     1
  3
STANDARD
350
1B
  0
DICTIONARY
  5
A03
102
{ACAD_REACTORS
330
C
102
}
330
C
100
AcDbDictionary
281
     1
  0
ACDBDICTIONARYWDFLT
  5
A00
102
{ACAD_REACTORS
330
C
102
}
330
C
100
AcDbDictionary
281
     1
  3
Normal
350
A01
100
AcDbDictionaryWithDefault
340
A01
  0
DICTIONARY
  5
B60
102
{ACAD_REACTORS
330
C
102
}
330
C
100
AcDbDictionary
281
     1
  3
A0
350
B61
  3
A1
350
B62
  3
A2
350
B63
  3
A3
350
B64
  3
A4
350
B65
  3
A5
350
B66
  3
A6
350
B67
  3
A7
350
B68
  3
A8
350
B69
  3
A9
350
B6A
  3
B0
350
B6B
  3
B1
350
B6C
  3
B2
350
B6D
  3
B3
350
B6E
  3
B4
350
B6F
  3
B5
350
B70
  3
B6
350
B71
  0
DICTIONARY
  5
A0E
102
{ACAD_REACTORS
330
C
102
}
330
C
100
AcDbDictionary
281
     1
  3
Standard
350
A0F
  0
DICTIONARY
  5
A4F
102
{ACAD_REACTORS
330
C
102
}
330
C
100
AcDbDictionary
281
     1
  3
2dWireframe
350
A55
  3
3D Hidden
350
A57
  3
3dWireframe
350
A56
  3
Basic
350
A54
  3
Brighten
350
A5B
  3
ColorChange
350
A5F
  3
Conceptual
350
A58
  3
Dim
350
A5A
  3
EdgeColorOff
350
B5F
  3
Facepattern
350
A5E
  3
Flat
350
A50
  3
FlatWithEdges
350
A51
  3
Gouraud
350
A52
  3
GouraudWithEdges
350
A53
  3
Hidden
350
B57
  3
JitterOff
350
B5D
  3
Linepattern
350
A5D
  3
OverhangOff
350
B5E
  3
Realistic
350
A59
  3
Shaded
350
B5C
  3
Shaded with edges
350
B5B
  3
Shades of Gray
350
B58
  3
Sketchy
350
B59
  3
Thicken
350
A5C
  3
Wireframe
350
B56
  3
X-Ray
350
B5A
  0
ACAD_PROXY_OBJECT
  5
AC0
102
{ACAD_REACTORS
330
C
102
}
330
C
100
AcDbProxyObject
 90
      499
 91
      550
 95
    65563
 70
     0
162
              1018
311
4FD1C00E80170011401B8019C01A401B80194019401C801A401B8019C0170010C010401100080011801A401B0019401CC0170010C011800B0008001180080014C019401C801A4019401CC00B000800140010800B001400108015C0170010C011800980118008000C800B401100080019001C8018401DC01A401B8019C01CC0
311
0C
161
                94
310
3FFFFFFFE00A0284403002A8
 94
        0
  0
XRECORD
  5
B85
102
{ACAD_REACTORS
330
C
102
}
330
C
100
AcDbXrecord
280
     1
 90
        1
330
A0F
  0
DICTIONARY
  5
A47
102
{ACAD_REACTORS
330
C
102
}
330
C
100
AcDbDictionary
281
     1
  3
CANNOSCALE
350
B7F
  3
CMLEADERSTYLE
350
B7D
  3
CTABLESTYLE
350
A48
  3
DIMASSOC
350
A49
  3
LAYEREVAL
350
B81
  3
LAYERNOTIFY
350
B82
  3
LIGHTINGUNITS
350
B80
  3
MSLTSCALE
350
B7E
  3
PROJECTNAME
350
A4A
  0
ACAD_PROXY_OBJECT
  5
A7C
102
{ACAD_REACTORS
330
C
102
}
330
C
100
AcDbProxyObject
 90
      499
 91
      511
 95
    65563
 70
     0
162
                 0
161
               240
310
4C51A482000000000000000000000000000000000000000000000000000000
330
A7D
330
A7E
330
A7F
330
A80
330
A81
330
A82
330
A83
330
A84
330
A85
330
A86
330
A87
330
A88
330
A89
330
A8A
330
A8B
330
A8C
330
A8D
330
A8E
330
A8F
330
A90
330
A91
330
A92
330
A93
330
A94
330
A95
330
A96
 94
        0
  0
ACAD_PROXY_OBJECT
  5
A76
102
{ACAD_REACTORS
330
C
102
}
330
C
100
AcDbProxyObject
 90
      499
 91
      519
 95
    65563
 70
     0
162
                 0
161
                34
310
040000428C
 94
        0
  0
ACAD_PROXY_OBJECT
  5
A9D
102
{ACAD_REACTORS
330
C
102
}
330
C
100
AcDbProxyObject
 90
      499
 91
      528
 95
    65563
 70
     0
162
                 0
161
               114
310
04000041C08000000000000000000C
 94
        0
  0
DICTIONARY
  5
ABE
102
{ACAD_REACTORS
330
C
102
}
330
C
100
AcDbDictionary
281
     1
  3
AcmBOMDATA
350
ABF
  3
AcmStdDictionary
350
AC9
  3
AMDTSECTSYM_ARROWCOLOR
350
AE9
  0
ACAD_PROXY_OBJECT
  5
A70
102
{ACAD_REACTORS
330
C
102
}
330
C
100
AcDbProxyObject
 90
      499
 91
      513
 95
    65563
 70
     0
162
                 0
161
                50
310
0000004040000C
330
0
330
0
330
A71
 94
        0
  0
ACAD_PROXY_OBJECT
  5
A6D
102
{ACAD_REACTORS
330
C
102
}
330
C
100
AcDbProxyObject
 90
      499
 91
      510
 95
    65563
 70
     0
162
              2932
311
4390401340110015001480114014C01140150011001080134013C011001084E0020002D00200055004E0044004F0042138008000B40080015401380110013C010455004E0044004F004115401380110013C01074500580050004C004F00440045004151401480104014C011401095000410053005400450043004C00490050
311
00419100110011401100124015001184D005300470020002D00200043006F006D006D0061006E0064002000430041004E00430045004C004C00450044002E004154C010C01040130011401044D004F00560045004191001100114011001240150010644004400450044004900540041134013C0158011401045A004F004F00
311
4D004194C0104015801140104014C01304D005300470020002D0020005000500041003A002000200020006400650073006B0074006F0070002E006100720078002000460069006C006500560065007200730069006F006E003A002000310031002E0030002E00360032002E0032003000C
161
               206
310
4380502010101806018060180501010180601806018060140404
 94
        0
  0
ACAD_PROXY_OBJECT
  5
A6C
102
{ACAD_REACTORS
330
C
102
}
330
C
100
AcDbProxyObject
 90
      499
 91
      509
 95
    65563
 70
     0
162
                 0
161
               546
310
0B00004980800000000000000000130502000000000000000000000000000000000000000000000000000000000000000000000000000000000000000000000000AAAAAA8C
360
A6F
360
A71
360
A77
360
A78
360
A79
360
A7A
360
A7D
360
A7E
360
A7F
360
A80
360
A81
360
A82
360
A83
360
A84
360
A85
360
A86
360
A87
360
A88
360
A89
360
A8A
360
A8B
360
A8C
360
A8D
360
A8E
360
A8F
360
A90
360
A91
360
A92
360
A93
360
A94
360
A95
360
A96
360
AA3
360
AA5
360
AA6
360
AA7
360
AA8
360
AAE
360
AAF
360
AB0
360
AB1
360
AB2
360
AB7
360
AB8
360
AB9
360
ABA
360
ABB
360
ABC
 94
        0
  0
ACAD_PROXY_OBJECT
  5
A75
102
{ACAD_REACTORS
330
C
102
}
330
C
100
AcDbProxyObject
 90
      499
 91
      518
 95
    65563
 70
     0
162
                 0
161
                50
310
0B000042E4128C
 94
        0
  0
ACAD_PROXY_OBJECT
  5
A6E
102
{ACAD_REACTORS
330
C
102
}
330
C
100
AcDbProxyObject
 90
      499
 91
      511
 95
    65563
 70
     0
162
                 0
161
                32
310
9014220000
330
A6F
 94
        0
  0
ACAD_PROXY_OBJECT
  5
AA2
102
{ACAD_REACTORS
330
C
102
}
330
C
100
AcDbProxyObject
 90
      499
 91
      511
 95
    65563
 70
     0
162
                 0
161
                32
310
9014220000
330
AA3
 94
        0
  0
ACAD_PROXY_OBJECT
  5
AAA
102
{ACAD_REACTORS
330
C
102
}
330
C
100
AcDbProxyObject
 90
      499
 91
      539
 95
    65563
 70
     0
162
                 0
161
                34
310
000B00008C
330
AA5
 94
        0
  0
ACAD_PROXY_OBJECT
  5
AA9
102
{ACAD_REACTORS
330
C
102
}
330
C
100
AcDbProxyObject
 90
      499
 91
      511
 95
    65563
 70
     0
162
                 0
161
                 8
310
AA39
 94
        0
  0
ACAD_PROXY_OBJECT
  5
A98
102
{ACAD_REACTORS
330
C
102
}
330
C
100
AcDbProxyObject
 90
      499
 91
      525
 95
    65563
 70
     0
162
                 0
161
                42
310
000100005E8C
330
A77
 94
        0
  0
DICTIONARY
  5
A65
102
{ACAD_REACTORS
330
C
102
}
330
C
100
AcDbDictionary
281
     1
  3
AcMgSettings
350
A66
  3
AMGLAYCFG
350
ACB
  0
DICTIONARY
  5
AFE
102
{ACAD_REACTORS
330
C
102
}
330
C
100
AcDbDictionary
281
     1
  3
DIMENSION
350
B03
  3
FEA
350
B02
  3
HATCH (1)
350
AFF
  3
HATCH (2)
350
B00
  3
SIMPLE WELD
350
B04
  3
SYMBOLS
350
B01
  0
ACAD_PROXY_OBJECT
  5
AA0
102
{ACAD_REACTORS
330
C
102
}
330
C
100
AcDbProxyObject
 90
      499
 91
      531
 95
    65563
 70
     0
162
                 0
161
                34
310
050000428C
 94
        0
  0
ACAD_PROXY_OBJECT
  5
AB3
102
{ACAD_REACTORS
330
C
102
}
330
C
100
AcDbProxyObject
 90
      499
 91
      542
 95
    65563
 70
     0
162
                 0
161
                98
310
0B00005000000000000000000C
330
ABA
330
0
330
ABB
330
0
330
0
330
0
330
0
330
0
 94
        0
  0
ACAD_PROXY_OBJECT
  5
AAD
102
{ACAD_REACTORS
330
C
102
}
330
C
100
AcDbProxyObject
 90
      499
 91
      511
 95
    65563
 70
     0
162
                 0
161
                64
310
9054220000000000CD
330
AAE
330
AAF
330
AB0
330
AB1
330
AB2
 94
        0
  0
ACAD_PROXY_OBJECT
  5
AA1
102
{ACAD_REACTORS
330
C
102
}
330
C
100
AcDbProxyObject
 90
      499
 91
      532
 95
    65563
 70
     0
162
                 0
161
                 8
310
050E
 94
        0
  0
ACAD_PROXY_OBJECT
  5
B54
102
{ACAD_REACTORS
330
C
102
}
330
C
100
AcDbProxyObject
 90
      499
 91
      576
 95
    65563
 70
     0
162
                 0
161
                 1
310
4C
 94
        0
  0
DICTIONARY
  5
B48
102
{ACAD_REACTORS
330
B47
102
}
330
B47
100
AcDbDictionary
281
     1
  0
SORTENTSTABLE
  5
B44
102
{ACAD_REACTORS
330
B43
102
}
330
B43
100
AcDbSortentsTable
330
18
331
682
  5
682
331
66E
  5
66E
331
B16
  5
B15
331
5E4
  5
5E4
331
5E0
  5
5E0
331
61F
  5
61F
331
5A5
  5
5A5
331
5DC
  5
5DC
331
61B
  5
61B
331
5A1
  5
5A1
331
5D8
  5
5D8
331
B06
  5
B05
331
8B1
  5
8B1
331
B41
  5
B40
331
8AD
  5
8AD
331
B3D
  5
B3C
331
642
  5
642
331
B39
  5
B38
331
617
  5
617
331
613
  5
613
331
5D4
  5
5D4
331
60F
  5
60F
331
5D0
  5
5D0
331
60B
  5
60B
331
5CC
  5
5CC
331
5C8
  5
5C8
331
63E
  5
63E
331
B35
  5
B34
331
636
  5
636
331
B31
  5
B30
331
B2D
  5
B2C
331
632
  5
632
331
B29
  5
B28
331
607
  5
607
331
5C4
  5
5C4
331
603
  5
603
331
5C0
  5
5C0
331
5FF
  5
5FF
331
5BC
  5
5BC
331
5FB
  5
5FB
331
5B8
  5
5B8
331
62E
  5
62E
331
B25
  5
B24
331
62A
  5
62A
331
B21
  5
B20
331
626
  5
626
331
69D
  5
69D
331
B1D
  5
B1C
331
622
  5
622
331
699
  5
699
331
B19
  5
B18
331
5F7
  5
5F7
331
5B4
  5
5B4
331
5F3
  5
5F3
331
5EF
  5
5EF
331
5B0
  5
5B0
331
5EB
  5
5EB
331
5AC
  5
5AC
331
5A8
  5
5A8
331
B15
  5
B14
331
9EB
  5
9EB
331
5E7
  5
5E7
331
5E3
  5
5E3
331
61E
  5
61E
331
5A4
  5
5A4
331
5DF
  5
5DF
331
61A
  5
61A
331
5DB
  5
5DB
331
B05
  5
9F8
331
8B0
  5
8B0
331
B40
  5
B3F
331
B3C
  5
B3B
331
641
  5
641
331
B38
  5
B37
331
5D7
  5
5D7
331
616
  5
616
331
5D3
  5
5D3
331
612
  5
612
331
5CF
  5
5CF
331
60E
  5
60E
331
5CB
  5
5CB
331
60A
  5
60A
331
894
  5
894
331
63D
  5
63D
331
639
  5
639
331
B34
  5
B33
331
635
  5
635
331
B30
  5
B2F
331
B2C
  5
B2B
331
631
  5
631
331
B28
  5
B27
331
5C7
  5
5C7
331
606
  5
606
331
602
  5
602
331
5C3
  5
5C3
331
5FE
  5
5FE
331
5BF
  5
5BF
331
5FA
  5
5FA
331
5BB
  5
5BB
331
62D
  5
62D
331
B24
  5
B23
331
629
  5
629
331
B20
  5
B1F
331
625
  5
625
331
69C
  5
69C
331
698
  5
698
331
B1C
  5
B1B
331
621
  5
621
331
B18
  5
B17
331
5B7
  5
5B7
331
5F6
  5
5F6
331
5B3
  5
5B3
331
5F2
  5
5F2
331
5AF
  5
5AF
331
5EE
  5
5EE
331
5AB
  5
5AB
331
5EA
  5
5EA
331
B14
  5
B13
331
5E6
  5
5E6
331
5E2
  5
5E2
331
5A7
  5
5A7
331
5DE
  5
5DE
331
61D
  5
61D
331
5A3
  5
5A3
331
5DA
  5
5DA
331
619
  5
619
331
658
  5
658
331
B3F
  5
B3E
331
644
  5
644
331
B3B
  5
B3A
331
640
  5
640
331
5D6
  5
5D6
331
615
  5
615
331
611
  5
611
331
5D2
  5
5D2
331
60D
  5
60D
331
5CE
  5
5CE
331
609
  5
609
331
5CA
  5
5CA
331
63C
  5
63C
331
B37
  5
B36
331
638
  5
638
331
B33
  5
B32
331
B2F
  5
B2E
331
634
  5
634
331
B2B
  5
B2A
331
630
  5
630
331
5C6
  5
5C6
331
605
  5
605
331
5C2
  5
5C2
331
601
  5
601
331
5BE
  5
5BE
331
5FD
  5
5FD
331
5BA
  5
5BA
331
5F9
  5
5F9
331
B27
  5
B26
331
62C
  5
62C
331
B23
  5
B22
331
628
  5
628
331
B1F
  5
B1E
331
624
  5
624
331
69B
  5
69B
331
B1B
  5
B1A
331
620
  5
620
331
5B6
  5
5B6
331
5F5
  5
5F5
331
5F1
  5
5F1
331
5B2
  5
5B2
331
5ED
  5
5ED
331
5AE
  5
5AE
331
5E9
  5
5E9
331
5AA
  5
5AA
331
B17
  5
B16
331
8EA
  5
8EA
331
5E5
  5
5E5
331
5A6
  5
5A6
331
5E1
  5
5E1
331
61C
  5
61C
331
5A2
  5
5A2
331
5DD
  5
5DD
331
5D9
  5
5D9
331
618
  5
618
331
B07
  5
B06
331
B42
  5
B41
331
8AE
  5
8AE
331
B3E
  5
B3D
331
643
  5
643
331
B3A
  5
B39
331
5D5
  5
5D5
331
614
  5
614
331
5D1
  5
5D1
331
610
  5
610
331
5CD
  5
5CD
331
60C
  5
60C
331
5C9
  5
5C9
331
608
  5
608
331
63F
  5
63F
331
892
  5
892
331
63B
  5
63B
331
B36
  5
B35
331
637
  5
637
331
B32
  5
B31
331
B2E
  5
B2D
331
633
  5
633
331
B2A
  5
B29
331
5C5
  5
5C5
331
604
  5
604
331
600
  5
600
331
5C1
  5
5C1
331
5FC
  5
5FC
331
5BD
  5
5BD
331
5F8
  5
5F8
331
5B9
  5
5B9
331
62F
  5
62F
331
B26
  5
B25
331
62B
  5
62B
331
B22
  5
B21
331
627
  5
627
331
69E
  5
69E
331
B1E
  5
B1D
331
623
  5
623
331
69A
  5
69A
331
B1A
  5
B19
331
9F8
  5
B42
331
5B5
  5
5B5
331
5F4
  5
5F4
331
5B1
  5
5B1
331
5F0
  5
5F0
331
5AD
  5
5AD
331
5EC
  5
5EC
331
5A9
  5
5A9
331
5E8
  5
5E8
  0
LAYOUT
  5
A05
102
{ACAD_REACTORS
330
A02
102
}
330
A02
100
AcDbPlotSettings
  1

  2
\\BELDING_BDC_1\IBM 4039 LaserPrinter Plus
  4

  6

 40
0.0
 41
0.0
 42
0.0
 43
0.0
 44
0.0
 45
0.0
 46
0.0
 47
0.0
 48
0.0
 49
0.0
140
0.0
141
0.0
142
1.0
143
1.0
 70
   688
 72
     0
 73
     0
 74
     5
  7

 75
    16
147
1.0
 76
     0
 77
     2
 78
   300
148
0.0
149
0.0
100
AcDbLayout
  1
Layout1
 70
     0
 71
     1
 10
0.0
 20
0.0
 11
12.0
 21
9.0
 12
0.0
 22
0.0
 32
0.0
 14
1.000000000000000E+20
 24
1.000000000000000E+20
 34
1.000000000000000E+20
 15
-1.000000000000000E+20
 25
-1.000000000000000E+20
 35
-1.000000000000000E+20
146
0.0
 13
0.0
 23
0.0
 33
0.0
 16
1.0
 26
0.0
 36
0.0
 17
0.0
 27
1.0
 37
0.0
 76
     0
330
15
  0
LAYOUT
  5
A04
102
{ACAD_REACTORS
330
A02
102
}
330
A02
100
AcDbPlotSettings
  1

  2
HP DesignJet 500 24 by HP
  4
User265
  6

 40
4.995333194732666
 41
16.97568893432617
 42
4.99530029296875
 43
16.97564697265625
 44
558.7576293945312
 45
863.5153198242187
 46
3.797064319303595
 47
0.0
 48
0.0
 49
0.0
140
0.0
141
0.0
142
1.0
143
1.959776356299339
 70
 11956
 72
     0
 73
     1
 74
     1
  7

 75
     0
147
0.5102623045663779
 76
     0
 77
     2
 78
   300
148
0.0600494194239673
149
0.0746410713550375
100
AcDbLayout
  1
Model
 70
     1
 71
     0
 10
0.0
 20
0.0
 11
12.0
 21
9.0
 12
0.0
 22
0.0
 32
0.0
 14
0.0
 24
0.0
 34
0.0
 15
0.0
 25
0.0
 35
0.0
146
0.0
 13
0.0
 23
0.0
 33
0.0
 16
1.0
 26
0.0
 36
0.0
 17
0.0
 27
1.0
 37
0.0
 76
     0
330
18
331
A41
1001
ACAD_PSEXT
1000
HP DesignJet 500 24 by HP
1000
HP DesignJet 500 24 by HP
1000
USB001
1000

1070
     0
  0
MATERIAL
  5
A4D
102
{ACAD_REACTORS
330
A0C
102
}
330
A0C
100
AcDbMaterial
  1
ByBlock
 73
     1
 78
     1
172
     1
176
     1
270
     1
274
     1
 94
       63
  0
MATERIAL
  5
A4C
102
{ACAD_REACTORS
330
A0C
102
}
330
A0C
100
AcDbMaterial
  1
ByLayer
 73
     1
 78
     1
172
     1
176
     1
270
     1
274
     1
 94
       63
  0
MATERIAL
  5
A4E
102
{ACAD_REACTORS
330
A0C
102
}
330
A0C
100
AcDbMaterial
  1
Global
 73
     1
 78
     1
172
     1
176
     1
270
     1
274
     1
 94
       63
  0
MLEADERSTYLE
  5
B73
102
{ACAD_REACTORS
330
B72
102
}
330
B72
100
AcDbMLeaderStyle
179
     2
170
     2
171
     1
172
     0
 90
        2
 40
0.0
 41
0.0
173
     1
 91
-1056964608
340
12
 92
       -2
290
     1
 42
0.09
291
     1
 43
0.36
  3
Standard
 44
0.18
300

342
10
174
     1
178
     6
175
     1
176
     0
 93
-1056964608
 45
0.18
292
     0
297
     0
 46
0.18
 94
-1056964608
 47
1.0
 49
1.0
140
1.0
293
     1
141
0.0
294
     1
177
     0
142
1.0
295
     1
296
     0
143
0.125
271
     0
272
     9
273
     9
  0
MLINESTYLE
  5
1B
102
{ACAD_REACTORS
330
E
102
}
330
E
100
AcDbMlineStyle
  2
STANDARD
 70
     0
  3

 62
     0
 51
90.0
 52
90.0
 71
     2
 49
0.5
 62
   256
  6
BYLAYER
 49
-0.5
 62
   256
  6
BYLAYER
  0
ACDBPLACEHOLDER
  5
A01
102
{ACAD_REACTORS
330
A00
102
}
330
A00
  0
SCALE
  5
B61
102
{ACAD_REACTORS
330
B60
102
}
330
B60
100
AcDbScale
 70
     0
300
1:1
140
1.0
141
1.0
290
     1
  0
SCALE
  5
B62
102
{ACAD_REACTORS
330
B60
102
}
330
B60
100
AcDbScale
 70
     0
300
1/128" = 1'-0"
140
0.0078125
141
12.0
290
     0
  0
SCALE
  5
B63
102
{ACAD_REACTORS
330
B60
102
}
330
B60
100
AcDbScale
 70
     0
300
1/64" = 1'-0"
140
0.015625
141
12.0
290
     0
  0
SCALE
  5
B64
102
{ACAD_REACTORS
330
B60
102
}
330
B60
100
AcDbScale
 70
     0
300
1/32" = 1'-0"
140
0.03125
141
12.0
290
     0
  0
SCALE
  5
B65
102
{ACAD_REACTORS
330
B60
102
}
330
B60
100
AcDbScale
 70
     0
300
1/16" = 1'-0"
140
0.0625
141
12.0
290
     0
  0
SCALE
  5
B66
102
{ACAD_REACTORS
330
B60
102
}
330
B60
100
AcDbScale
 70
     0
300
3/32" = 1'-0"
140
0.09375
141
12.0
290
     0
  0
SCALE
  5
B67
102
{ACAD_REACTORS
330
B60
102
}
330
B60
100
AcDbScale
 70
     0
300
1/8" = 1'-0"
140
0.125
141
12.0
290
     0
  0
SCALE
  5
B68
102
{ACAD_REACTORS
330
B60
102
}
330
B60
100
AcDbScale
 70
     0
300
3/16" = 1'-0"
140
0.1875
141
12.0
290
     0
  0
SCALE
  5
B69
102
{ACAD_REACTORS
330
B60
102
}
330
B60
100
AcDbScale
 70
     0
300
1/4" = 1'-0"
140
0.25
141
12.0
290
     0
  0
SCALE
  5
B6A
102
{ACAD_REACTORS
330
B60
102
}
330
B60
100
AcDbScale
 70
     0
300
3/8" = 1'-0"
140
0.375
141
12.0
290
     0
  0
SCALE
  5
B6B
102
{ACAD_REACTORS
330
B60
102
}
330
B60
100
AcDbScale
 70
     0
300
1/2" = 1'-0"
140
0.5
141
12.0
290
     0
  0
SCALE
  5
B6C
102
{ACAD_REACTORS
330
B60
102
}
330
B60
100
AcDbScale
 70
     0
300
3/4" = 1'-0"
140
0.75
141
12.0
290
     0
  0
SCALE
  5
B6D
102
{ACAD_REACTORS
330
B60
102
}
330
B60
100
AcDbScale
 70
     0
300
1" = 1'-0"
140
1.0
141
12.0
290
     0
  0
SCALE
  5
B6E
102
{ACAD_REACTORS
330
B60
102
}
330
B60
100
AcDbScale
 70
     0
300
1-1/2" = 1'-0"
140
1.5
141
12.0
290
     0
  0
SCALE
  5
B6F
102
{ACAD_REACTORS
330
B60
102
}
330
B60
100
AcDbScale
 70
     0
300
3" = 1'-0"
140
3.0
141
12.0
290
     0
  0
SCALE
  5
B70
102
{ACAD_REACTORS
330
B60
102
}
330
B60
100
AcDbScale
 70
     0
300
6" = 1'-0"
140
6.0
141
12.0
290
     0
  0
SCALE
  5
B71
102
{ACAD_REACTORS
330
B60
102
}
330
B60
100
AcDbScale
 70
     0
300
1'-0" = 1'-0"
140
12.0
141
12.0
290
     0
  0
TABLESTYLE
  5
A0F
102
{ACAD_XDICTIONARY
360
B83
102
}
102
{ACAD_REACTORS
330
A0E
102
}
330
A0E
100
AcDbTableStyle
280
     0
  3
Standard
 70
     0
 71
     0
 40
0.06
 41
0.06
280
     0
281
     0
  7
STANDARD
140
0.18
170
     2
 62
     0
 63
     7
283
     0
 90
        4
 91
        0
  1

274
    -2
284
     1
 64
     0
275
    -2
285
     1
 65
     0
276
    -2
286
     1
 66
     0
277
    -2
287
     1
 67
     0
278
    -2
288
     1
 68
     0
279
    -2
289
     1
 69
     0
  7
STANDARD
140
0.25
170
     5
 62
     0
 63
     7
283
     0
 90
        4
 91
        0
  1

274
    -2
284
     1
 64
     0
275
    -2
285
     1
 65
     0
276
    -2
286
     1
 66
     0
277
    -2
287
     1
 67
     0
278
    -2
288
     1
 68
     0
279
    -2
289
     1
 69
     0
  7
STANDARD
140
0.18
170
     5
 62
     0
 63
     7
283
     0
 90
        4
 91
        0
  1

274
    -2
284
     1
 64
     0
275
    -2
285
     1
 65
     0
276
    -2
286
     1
 66
     0
277
    -2
287
     1
 67
     0
278
    -2
288
     1
 68
     0
279
    -2
289
     1
 69
     0
  0
VISUALSTYLE
  5
A55
102
{ACAD_REACTORS
330
A4F
102
}
330
A4F
100
AcDbVisualStyle
  2
2dWireframe
 70
     4
177
     2
291
     0
 71
     0
176
     1
 72
     2
176
     1
 73
     0
176
     1
 90
        0
176
     1
 40
0.6
176
     1
 41
30.0
176
     1
 63
     7
421
 16777215
176
     1
 74
     1
176
     1
 91
        4
176
     1
 64
     7
176
     1
 65
   257
176
     1
 75
     1
176
     1
175
     1
176
     1
 42
1.0
176
     1
 92
        0
176
     1
 66
   257
176
     1
 43
1.0
176
     1
 76
     1
176
     1
 77
     6
176
     1
 78
     2
176
     1
 67
     7
176
     1
 79
     5
176
     1
170
     0
176
     1
171
     0
176
     1
290
     0
176
     1
 93
        1
176
     1
 44
0.0
176
     1
173
     0
176
     1
  0
VISUALSTYLE
  5
A57
102
{ACAD_REACTORS
330
A4F
102
}
330
A4F
100
AcDbVisualStyle
  2
3D Hidden
 70
     6
177
     2
291
     0
 71
     1
176
     1
 72
     2
176
     1
 73
     2
176
     1
 90
        0
176
     1
 40
0.6
176
     1
 41
30.0
176
     1
 63
     7
421
 16777215
176
     1
 74
     2
176
     1
 91
        2
176
     1
 64
     7
176
     1
 65
   257
176
     1
 75
     2
176
     1
175
     1
176
     1
 42
40.0
176
     1
 92
        0
176
     1
 66
   257
176
     1
 43
1.0
176
     1
 76
     1
176
     1
 77
     6
176
     1
 78
     2
176
     1
 67
     7
176
     1
 79
     3
176
     1
170
     0
176
     1
171
     0
176
     1
290
     0
176
     1
 93
        1
176
     1
 44
0.0
176
     1
173
     0
176
     1
  0
VISUALSTYLE
  5
A56
102
{ACAD_REACTORS
330
A4F
102
}
330
A4F
100
AcDbVisualStyle
  2
3dWireframe
 70
     5
177
     2
291
     0
 71
     0
176
     1
 72
     2
176
     1
 73
     0
176
     1
 90
        0
176
     1
 40
0.6
176
     1
 41
30.0
176
     1
 63
     7
421
 16777215
176
     1
 74
     1
176
     1
 91
        4
176
     1
 64
     7
176
     1
 65
   257
176
     1
 75
     1
176
     1
175
     1
176
     1
 42
1.0
176
     1
 92
        0
176
     1
 66
   257
176
     1
 43
1.0
176
     1
 76
     1
176
     1
 77
     6
176
     1
 78
     2
176
     1
 67
     7
176
     1
 79
     5
176
     1
170
     0
176
     1
171
     0
176
     1
290
     0
176
     1
 93
        1
176
     1
 44
0.0
176
     1
173
     0
176
     1
  0
VISUALSTYLE
  5
A54
102
{ACAD_REACTORS
330
A4F
102
}
330
A4F
100
AcDbVisualStyle
  2
Basic
 70
     7
177
     2
291
     1
 71
     1
176
     1
 72
     0
176
     1
 73
     1
176
     1
 90
        0
176
     1
 40
0.6
176
     1
 41
30.0
176
     1
 63
     7
421
 16777215
176
     1
 74
     0
176
     1
 91
        4
176
     1
 64
     7
176
     1
 65
   257
176
     1
 75
     1
176
     1
175
     1
176
     1
 42
1.0
176
     1
 92
        8
176
     1
 66
     7
176
     1
 43
1.0
176
     1
 76
     1
176
     1
 77
     6
176
     1
 78
     2
176
     1
 67
     7
176
     1
 79
     5
176
     1
170
     0
176
     1
171
     0
176
     1
290
     0
176
     1
 93
        1
176
     1
 44
0.0
176
     1
173
     0
176
     1
  0
VISUALSTYLE
  5
A5B
102
{ACAD_REACTORS
330
A4F
102
}
330
A4F
100
AcDbVisualStyle
  2
Brighten
 70
    12
177
     2
291
     1
 71
     2
176
     1
 72
     2
176
     1
 73
     0
176
     1
 90
        0
176
     1
 40
0.6
176
     1
 41
30.0
176
     1
 63
     7
421
 16777215
176
     1
 74
     1
176
     1
 91
        4
176
     1
 64
     7
176
     1
 65
   257
176
     1
 75
     1
176
     1
175
     1
176
     1
 42
1.0
176
     1
 92
        8
176
     1
 66
     7
176
     1
 43
1.0
176
     1
 76
     1
176
     1
 77
     6
176
     1
 78
     2
176
     1
 67
     7
176
     1
 79
     5
176
     1
170
     0
176
     1
171
     0
176
     1
290
     0
176
     1
 93
        1
176
     1
 44
50.0
176
     1
173
     0
176
     1
  0
VISUALSTYLE
  5
A5F
102
{ACAD_REACTORS
330
A4F
102
}
330
A4F
100
AcDbVisualStyle
  2
ColorChange
 70
    16
177
     2
291
     1
 71
     2
176
     1
 72
     2
176
     1
 73
     3
176
     1
 90
        0
176
     1
 40
0.6
176
     1
 41
30.0
176
     1
 63
     8
421
  8421504
176
     1
 74
     1
176
     1
 91
        4
176
     1
 64
     7
176
     1
 65
   257
176
     1
 75
     1
176
     1
175
     1
176
     1
 42
1.0
176
     1
 92
        8
176
     1
 66
     8
424
  8421504
176
     1
 43
1.0
176
     1
 76
     1
176
     1
 77
     6
176
     1
 78
     2
176
     1
 67
     7
176
     1
 79
     5
176
     1
170
     0
176
     1
171
     0
176
     1
290
     0
176
     1
 93
        1
176
     1
 44
0.0
176
     1
173
     0
176
     1
  0
VISUALSTYLE
  5
A58
102
{ACAD_REACTORS
330
A4F
102
}
330
A4F
100
AcDbVisualStyle
  2
Conceptual
 70
     9
177
     2
291
     0
 71
     3
176
     1
 72
     2
176
     1
 73
     0
176
     1
 90
        0
176
     1
 40
0.6
176
     1
 41
30.0
176
     1
 63
     7
421
 16777215
176
     1
 74
     2
176
     1
 91
        2
176
     1
 64
     7
176
     1
 65
   257
176
     1
 75
     1
176
     1
175
     1
176
     1
 42
40.0
176
     1
 92
        8
176
     1
 66
     7
176
     1
 43
1.0
176
     1
 76
     1
176
     1
 77
     6
176
     1
 78
     2
176
     1
 67
     7
176
     1
 79
     3
176
     1
170
     0
176
     1
171
     0
176
     1
290
     0
176
     1
 93
        1
176
     1
 44
0.0
176
     1
173
     0
176
     1
  0
VISUALSTYLE
  5
A5A
102
{ACAD_REACTORS
330
A4F
102
}
330
A4F
100
AcDbVisualStyle
  2
Dim
 70
    11
177
     2
291
     1
 71
     2
176
     1
 72
     2
176
     1
 73
     0
176
     1
 90
        0
176
     1
 40
0.6
176
     1
 41
30.0
176
     1
 63
     7
421
 16777215
176
     1
 74
     1
176
     1
 91
        4
176
     1
 64
     7
176
     1
 65
   257
176
     1
 75
     1
176
     1
175
     1
176
     1
 42
1.0
176
     1
 92
        8
176
     1
 66
     7
176
     1
 43
1.0
176
     1
 76
     1
176
     1
 77
     6
176
     1
 78
     2
176
     1
 67
     7
176
     1
 79
     5
176
     1
170
     0
176
     1
171
     0
176
     1
290
     0
176
     1
 93
        1
176
     1
 44
-50.0
176
     1
173
     0
176
     1
  0
VISUALSTYLE
  5
B5F
102
{ACAD_REACTORS
330
A4F
102
}
330
A4F
100
AcDbVisualStyle
  2
EdgeColorOff
 70
    22
177
     2
291
     1
 71
     2
176
     0
 72
     2
176
     0
 73
     0
176
     0
 90
        0
176
     0
 40
0.6
176
     0
 41
30.0
176
     0
 63
     7
421
 16777215
176
     0
 74
     1
176
     0
 91
        4
176
     0
 64
     7
176
     0
 65
   257
176
     0
 75
     1
176
     0
175
     1
176
     0
 42
1.0
176
     0
 92
        8
176
     2
 66
     7
176
     0
 43
1.0
176
     0
 76
     1
176
     0
 77
     6
176
     0
 78
     2
176
     0
 67
     7
176
     0
 79
     5
176
     0
170
     0
176
     0
171
     0
176
     0
290
     0
176
     0
 93
        1
176
     0
 44
0.0
176
     0
173
     0
176
     0
  0
VISUALSTYLE
  5
A5E
102
{ACAD_REACTORS
330
A4F
102
}
330
A4F
100
AcDbVisualStyle
  2
Facepattern
 70
    15
177
     2
291
     1
 71
     2
176
     1
 72
     2
176
     1
 73
     0
176
     1
 90
        0
176
     1
 40
0.6
176
     1
 41
30.0
176
     1
 63
     7
421
 16777215
176
     1
 74
     1
176
     1
 91
        4
176
     1
 64
     7
176
     1
 65
   257
176
     1
 75
     1
176
     1
175
     1
176
     1
 42
1.0
176
     1
 92
        8
176
     1
 66
     7
176
     1
 43
1.0
176
     1
 76
     1
176
     1
 77
     6
176
     1
 78
     2
176
     1
 67
     7
176
     1
 79
     5
176
     1
170
     0
176
     1
171
     0
176
     1
290
     0
176
     1
 93
        1
176
     1
 44
0.0
176
     1
173
     0
176
     1
  0
VISUALSTYLE
  5
A50
102
{ACAD_REACTORS
330
A4F
102
}
330
A4F
100
AcDbVisualStyle
  2
Flat
 70
     0
177
     2
291
     1
 71
     2
176
     1
 72
     1
176
     1
 73
     1
176
     1
 90
        2
176
     1
 40
0.6
176
     1
 41
30.0
176
     1
 63
     7
421
 16777215
176
     1
 74
     0
176
     1
 91
        4
176
     1
 64
     7
176
     1
 65
   257
176
     1
 75
     1
176
     1
175
     1
176
     1
 42
1.0
176
     1
 92
        8
176
     1
 66
     7
176
     1
 43
1.0
176
     1
 76
     1
176
     1
 77
     6
176
     1
 78
     2
176
     1
 67
     7
176
     1
 79
     5
176
     1
170
     0
176
     1
171
     0
176
     1
290
     0
176
     1
 93
       13
176
     1
 44
0.0
176
     1
173
     0
176
     1
  0
VISUALSTYLE
  5
A51
102
{ACAD_REACTORS
330
A4F
102
}
330
A4F
100
AcDbVisualStyle
  2
FlatWithEdges
 70
     1
177
     2
291
     1
 71
     2
176
     1
 72
     1
176
     1
 73
     1
176
     1
 90
        2
176
     1
 40
0.6
176
     1
 41
30.0
176
     1
 63
     7
421
 16777215
176
     1
 74
     1
176
     1
 91
        4
176
     1
 64
     7
176
     1
 65
   257
176
     1
 75
     1
176
     1
175
     1
176
     1
 42
1.0
176
     1
 92
        0
176
     1
 66
   257
176
     1
 43
1.0
176
     1
 76
     1
176
     1
 77
     6
176
     1
 78
     2
176
     1
 67
     7
176
     1
 79
     5
176
     1
170
     0
176
     1
171
     0
176
     1
290
     0
176
     1
 93
       13
176
     1
 44
0.0
176
     1
173
     0
176
     1
  0
VISUALSTYLE
  5
A52
102
{ACAD_REACTORS
330
A4F
102
}
330
A4F
100
AcDbVisualStyle
  2
Gouraud
 70
     2
177
     2
291
     1
 71
     2
176
     1
 72
     2
176
     1
 73
     1
176
     1
 90
        2
176
     1
 40
0.6
176
     1
 41
30.0
176
     1
 63
     7
421
 16777215
176
     1
 74
     0
176
     1
 91
        4
176
     1
 64
     7
176
     1
 65
   257
176
     1
 75
     1
176
     1
175
     1
176
     1
 42
1.0
176
     1
 92
        0
176
     1
 66
     7
176
     1
 43
1.0
176
     1
 76
     1
176
     1
 77
     6
176
     1
 78
     2
176
     1
 67
     7
176
     1
 79
     5
176
     1
170
     0
176
     1
171
     0
176
     1
290
     0
176
     1
 93
       13
176
     1
 44
0.0
176
     1
173
     0
176
     1
  0
VISUALSTYLE
  5
A53
102
{ACAD_REACTORS
330
A4F
102
}
330
A4F
100
AcDbVisualStyle
  2
GouraudWithEdges
 70
     3
177
     2
291
     1
 71
     2
176
     1
 72
     2
176
     1
 73
     1
176
     1
 90
        2
176
     1
 40
0.6
176
     1
 41
30.0
176
     1
 63
     7
421
 16777215
176
     1
 74
     1
176
     1
 91
        4
176
     1
 64
     7
176
     1
 65
   257
176
     1
 75
     1
176
     1
175
     1
176
     1
 42
1.0
176
     1
 92
        0
176
     1
 66
   257
176
     1
 43
1.0
176
     1
 76
     1
176
     1
 77
     6
176
     1
 78
     2
176
     1
 67
     7
176
     1
 79
     5
176
     1
170
     0
176
     1
171
     0
176
     1
290
     0
176
     1
 93
       13
176
     1
 44
0.0
176
     1
173
     0
176
     1
  0
VISUALSTYLE
  5
B57
102
{ACAD_REACTORS
330
A4F
102
}
330
A4F
100
AcDbVisualStyle
  2
Hidden
 70
     6
177
     2
291
     0
 71
     1
176
     1
 72
     2
176
     1
 73
     2
176
     1
 90
        0
176
     1
 40
0.6
176
     1
 41
30.0
176
     1
 63
     7
421
 16777215
176
     1
 74
     2
176
     1
 91
        2
176
     1
 64
     7
176
     1
 65
   257
176
     1
 75
     2
176
     1
175
     1
176
     1
 42
40.0
176
     1
 92
        0
176
     1
 66
   257
176
     1
 43
1.0
176
     1
 76
     1
176
     1
 77
     6
176
     1
 78
     2
176
     1
 67
     7
176
     1
 79
     3
176
     1
170
     0
176
     1
171
     0
176
     1
290
     0
176
     1
 93
        1
176
     1
 44
0.0
176
     1
173
     0
176
     1
  0
VISUALSTYLE
  5
B5D
102
{ACAD_REACTORS
330
A4F
102
}
330
A4F
100
AcDbVisualStyle
  2
JitterOff
 70
    20
177
     2
291
     1
 71
     2
176
     0
 72
     2
176
     0
 73
     0
176
     0
 90
        0
176
     0
 40
0.6
176
     0
 41
30.0
176
     0
 63
     7
421
 16777215
176
     0
 74
     1
176
     0
 91
        4
176
     0
 64
     7
176
     0
 65
   257
176
     0
 75
     1
176
     0
175
     1
176
     0
 42
1.0
176
     0
 92
       10
176
     2
 66
     7
176
     0
 43
1.0
176
     0
 76
     1
176
     0
 77
     6
176
     0
 78
     2
176
     0
 67
     7
176
     0
 79
     5
176
     0
170
     0
176
     0
171
     0
176
     0
290
     0
176
     0
 93
        1
176
     0
 44
0.0
176
     0
173
     0
176
     0
  0
VISUALSTYLE
  5
A5D
102
{ACAD_REACTORS
330
A4F
102
}
330
A4F
100
AcDbVisualStyle
  2
Linepattern
 70
    14
177
     2
291
     1
 71
     2
176
     1
 72
     2
176
     1
 73
     0
176
     1
 90
        0
176
     1
 40
0.6
176
     1
 41
30.0
176
     1
 63
     7
421
 16777215
176
     1
 74
     1
176
     1
 91
        4
176
     1
 64
     7
176
     1
 65
   257
176
     1
 75
     7
176
     1
175
     7
176
     1
 42
1.0
176
     1
 92
        8
176
     1
 66
     7
176
     1
 43
1.0
176
     1
 76
     1
176
     1
 77
     6
176
     1
 78
     2
176
     1
 67
     7
176
     1
 79
     5
176
     1
170
     0
176
     1
171
     0
176
     1
290
     0
176
     1
 93
        1
176
     1
 44
0.0
176
     1
173
     0
176
     1
  0
VISUALSTYLE
  5
B5E
102
{ACAD_REACTORS
330
A4F
102
}
330
A4F
100
AcDbVisualStyle
  2
OverhangOff
 70
    21
177
     2
291
     1
 71
     2
176
     0
 72
     2
176
     0
 73
     0
176
     0
 90
        0
176
     0
 40
0.6
176
     0
 41
30.0
176
     0
 63
     7
421
 16777215
176
     0
 74
     1
176
     0
 91
        4
176
     0
 64
     7
176
     0
 65
   257
176
     0
 75
     1
176
     0
175
     1
176
     0
 42
1.0
176
     0
 92
        9
176
     2
 66
     7
176
     0
 43
1.0
176
     0
 76
     1
176
     0
 77
     6
176
     0
 78
     2
176
     0
 67
     7
176
     0
 79
     5
176
     0
170
     0
176
     0
171
     0
176
     0
290
     0
176
     0
 93
        1
176
     0
 44
0.0
176
     0
173
     0
176
     0
  0
VISUALSTYLE
  5
A59
102
{ACAD_REACTORS
330
A4F
102
}
330
A4F
100
AcDbVisualStyle
  2
Realistic
 70
     8
177
     2
291
     0
 71
     2
176
     1
 72
     2
176
     1
 73
     0
176
     1
 90
        0
176
     1
 40
0.6
176
     1
 41
30.0
176
     1
 63
     7
421
 16777215
176
     1
 74
     1
176
     1
 91
        0
176
     1
 64
     7
176
     1
 65
   257
176
     1
 75
     1
176
     1
175
     1
176
     1
 42
1.0
176
     1
 92
        8
176
     1
 66
     8
424
  7895160
176
     1
 43
1.0
176
     1
 76
     1
176
     1
 77
     6
176
     1
 78
     2
176
     1
 67
     7
176
     1
 79
     5
176
     1
170
     0
176
     1
171
     0
176
     1
290
     0
176
     1
 93
       13
176
     1
 44
0.0
176
     1
173
     0
176
     1
  0
VISUALSTYLE
  5
B5C
102
{ACAD_REACTORS
330
A4F
102
}
330
A4F
100
AcDbVisualStyle
  2
Shaded
 70
    27
177
     2
291
     0
 71
     2
176
     1
 72
     2
176
     1
 73
     1
176
     1
 90
        2
176
     1
 40
0.6
176
     1
 41
30.0
176
     1
 63
     7
421
 16777215
176
     1
 74
     0
176
     1
 91
        4
176
     1
 64
     7
176
     1
 65
   257
176
     1
 75
     1
176
     1
175
     1
176
     1
 42
1.0
176
     1
 92
        8
176
     1
 66
   257
176
     1
 43
1.0
176
     1
 76
     1
176
     1
 77
     6
176
     1
 78
     2
176
     1
 67
     8
425
  7895160
176
     1
 79
     3
176
     1
170
     0
176
     1
171
     0
176
     1
290
     0
176
     1
 93
        5
176
     1
 44
0.0
176
     1
173
     0
176
     1
  0
VISUALSTYLE
  5
B5B
102
{ACAD_REACTORS
330
A4F
102
}
330
A4F
100
AcDbVisualStyle
  2
Shaded with edges
 70
    26
177
     2
291
     0
 71
     2
176
     1
 72
     2
176
     1
 73
     1
176
     1
 90
        2
176
     1
 40
0.6
176
     1
 41
30.0
176
     1
 63
     7
421
 16777215
176
     1
 74
     1
176
     1
 91
       10
176
     1
 64
     7
176
     1
 65
   257
176
     1
 75
     2
176
     1
175
     1
176
     1
 42
1.0
176
     1
 92
        8
176
     1
 66
   257
176
     1
 43
1.0
176
     1
 76
     1
176
     1
 77
     6
176
     1
 78
     2
176
     1
 67
     7
176
     1
 79
     3
176
     1
170
     0
176
     1
171
     0
176
     1
290
     0
176
     1
 93
        5
176
     1
 44
0.0
176
     1
173
     0
176
     1
  0
VISUALSTYLE
  5
B58
102
{ACAD_REACTORS
330
A4F
102
}
330
A4F
100
AcDbVisualStyle
  2
Shades of Gray
 70
    23
177
     2
291
     0
 71
     2
176
     1
 72
     2
176
     1
 73
     3
176
     1
 90
        0
176
     1
 40
0.6
176
     1
 41
30.0
176
     1
 63
     7
421
 16777215
176
     1
 74
     2
176
     1
 91
        2
176
     1
 64
     7
176
     1
 65
     7
176
     1
 75
     1
176
     1
175
     1
176
     1
 42
40.0
176
     1
 92
        8
176
     1
 66
     7
176
     1
 43
1.0
176
     1
 76
     1
176
     1
 77
     6
176
     1
 78
     2
176
     1
 67
     7
176
     1
 79
     3
176
     1
170
     0
176
     1
171
     0
176
     1
290
     0
176
     1
 93
        1
176
     1
 44
0.0
176
     1
173
     0
176
     1
  0
VISUALSTYLE
  5
B59
102
{ACAD_REACTORS
330
A4F
102
}
330
A4F
100
AcDbVisualStyle
  2
Sketchy
 70
    24
177
     2
291
     0
 71
     1
176
     1
 72
     2
176
     1
 73
     2
176
     1
 90
        0
176
     1
 40
0.6
176
     1
 41
30.0
176
     1
 63
     7
421
 16777215
176
     1
 74
     2
176
     1
 91
        2
176
     1
 64
     7
176
     1
 65
     7
176
     1
 75
     1
176
     1
175
     1
176
     1
 42
40.0
176
     1
 92
       11
176
     1
 66
     7
176
     1
 43
1.0
176
     1
 76
     1
176
     1
 77
     6
176
     1
 78
     2
176
     1
 67
     7
176
     1
 79
     6
176
     1
170
     0
176
     1
171
     0
176
     1
290
     0
176
     1
 93
        1
176
     1
 44
0.0
176
     1
173
     0
176
     1
  0
VISUALSTYLE
  5
A5C
102
{ACAD_REACTORS
330
A4F
102
}
330
A4F
100
AcDbVisualStyle
  2
Thicken
 70
    13
177
     2
291
     1
 71
     2
176
     1
 72
     2
176
     1
 73
     0
176
     1
 90
        0
176
     1
 40
0.6
176
     1
 41
30.0
176
     1
 63
     7
421
 16777215
176
     1
 74
     1
176
     1
 91
        4
176
     1
 64
     7
176
     1
 65
   257
176
     1
 75
     1
176
     1
175
     1
176
     1
 42
1.0
176
     1
 92
       12
176
     1
 66
     7
176
     1
 43
1.0
176
     1
 76
     1
176
     1
 77
     6
176
     1
 78
     2
176
     1
 67
     7
176
     1
 79
     5
176
     1
170
     0
176
     1
171
     0
176
     1
290
     0
176
     1
 93
        1
176
     1
 44
0.0
176
     1
173
     0
176
     1
  0
VISUALSTYLE
  5
B56
102
{ACAD_REACTORS
330
A4F
102
}
330
A4F
100
AcDbVisualStyle
  2
Wireframe
 70
     5
177
     2
291
     0
 71
     0
176
     1
 72
     2
176
     1
 73
     0
176
     1
 90
        0
176
     1
 40
0.6
176
     1
 41
30.0
176
     1
 63
     7
421
 16777215
176
     1
 74
     1
176
     1
 91
        4
176
     1
 64
     7
176
     1
 65
   257
176
     1
 75
     1
176
     1
175
     1
176
     1
 42
1.0
176
     1
 92
        0
176
     1
 66
   257
176
     1
 43
1.0
176
     1
 76
     1
176
     1
 77
     6
176
     1
 78
     2
176
     1
 67
     7
176
     1
 79
     3
176
     1
170
     0
176
     1
171
     0
176
     1
290
     0
176
     1
 93
        1
176
     1
 44
0.0
176
     1
173
     0
176
     1
  0
VISUALSTYLE
  5
B5A
102
{ACAD_REACTORS
330
A4F
102
}
330
A4F
100
AcDbVisualStyle
  2
X-Ray
 70
    25
177
     2
291
     0
 71
     2
176
     1
 72
     2
176
     1
 73
     1
176
     1
 90
        1
176
     1
 40
0.5
176
     1
 41
30.0
176
     1
 63
     7
421
 16777215
176
     1
 74
     1
176
     1
 91
        0
176
     1
 64
     7
176
     1
 65
   257
176
     1
 75
     1
176
     1
175
     1
176
     1
 42
1.0
176
     1
 92
        8
176
     1
 66
     7
176
     1
 43
1.0
176
     1
 76
     1
176
     1
 77
     6
176
     1
 78
     2
176
     1
 67
     7
176
     1
 79
     3
176
     1
170
     0
176
     1
171
     0
176
     1
290
     0
176
     1
 93
       13
176
     1
 44
0.0
176
     1
173
     0
176
     1
  0
DICTIONARYVAR
  5
B7F
102
{ACAD_REACTORS
330
A47
102
}
330
A47
100
DictionaryVariables
280
     0
  1
1:1
  0
DICTIONARYVAR
  5
B7D
102
{ACAD_REACTORS
330
A47
102
}
330
A47
100
DictionaryVariables
280
     0
  1
STANDARD
  0
DICTIONARYVAR
  5
A48
102
{ACAD_REACTORS
330
A47
102
}
330
A47
100
DictionaryVariables
280
     0
  1
STANDARD
  0
DICTIONARYVAR
  5
A49
102
{ACAD_REACTORS
330
A47
102
}
330
A47
100
DictionaryVariables
280
     0
  1
1
  0
DICTIONARYVAR
  5
B81
102
{ACAD_REACTORS
330
A47
102
}
330
A47
100
DictionaryVariables
280
     0
  1
1
  0
DICTIONARYVAR
  5
B82
102
{ACAD_REACTORS
330
A47
102
}
330
A47
100
DictionaryVariables
280
     0
  1
15
  0
DICTIONARYVAR
  5
B80
102
{ACAD_REACTORS
330
A47
102
}
330
A47
100
DictionaryVariables
280
     0
  1
0
  0
DICTIONARYVAR
  5
B7E
102
{ACAD_REACTORS
330
A47
102
}
330
A47
100
DictionaryVariables
280
     0
  1
0
  0
DICTIONARYVAR
  5
A4A
102
{ACAD_REACTORS
330
A47
102
}
330
A47
100
DictionaryVariables
280
     0
  1

  0
ACAD_PROXY_OBJECT
  5
ABF
102
{ACAD_REACTORS
330
ABE
102
}
330
ABE
100
AcDbProxyObject
 90
      499
 91
      549
 95
    65563
 70
     0
162
                 0
161
                84
310
90100057356C1D8C406AAC
 94
        0
  0
DICTIONARY
  5
AC9
102
{ACAD_REACTORS
330
ABE
102
}
330
ABE
100
AcDbDictionary
281
     1
  3
ANSI
350
ACA
  0
XRECORD
  5
AE9
102
{ACAD_REACTORS
330
ABE
102
}
330
ABE
100
AcDbXrecord
280
     1
 90
-1023410169
  0
ACAD_PROXY_OBJECT
  5
A6F
330
0
100
AcDbProxyObject
 90
      499
 91
      512
 95
    65563
 70
     0
162
               234
311
43904010C01340114014C016401340108013C0130014C01240168011400C
161
                34
310
000101420C
330
A6C
 94
        0
  0
ACAD_PROXY_OBJECT
  5
A71
330
0
100
AcDbProxyObject
 90
      499
 91
      514
 95
    65563
 70
     0
162
                74
311
41108013C013400C400C
161
                46
310
00010100AC00
330
A6C
330
0
330
0
 94
        0
  0
ACAD_PROXY_OBJECT
  5
A77
330
0
100
AcDbProxyObject
 90
      499
 91
      520
 95
    65563
 70
     0
162
               562
311
41190018401D001940109310031002E0030002E00360032002E00300041190018401D001940109310031002E0030002E00360032002E003000419040138014C012400CC00C400C
161
                92
310
00010101010140501000096C
330
A6C
330
A78
330
A7C
 94
        0
  0
ACAD_PROXY_OBJECT
  5
A78
330
0
100
AcDbProxyObject
 90
      499
 91
      521
 95
    65563
 70
     0
162
                 0
161
                48
310
0001901422005B
330
A6C
330
A79
 94
        0
  0
ACAD_PROXY_OBJECT
  5
A79
330
0
100
AcDbProxyObject
 90
      499
 91
      522
 95
    65563
 70
     0
162
                 0
161
                48
310
0001AA00000069
330
A6C
330
A05
330
A7A
330
0
 94
        0
  0
ACAD_PROXY_OBJECT
  5
A7A
330
0
100
AcDbProxyObject
 90
      499
 91
      523
 95
    65563
 70
     0
162
                 0
161
                28
310
0001AAAC
330
A6C
 94
        0
  0
ACAD_PROXY_OBJECT
  5
A7D
330
0
100
AcDbProxyObject
 90
      499
 91
      512
 95
    65563
 70
     0
162
               138
311
42104013401200130010C01040130010C00C
161
                34
310
000101404C
330
A6C
 94
        0
  0
ACAD_PROXY_OBJECT
  5
A7E
330
0
100
AcDbProxyObject
 90
      499
 91
      512
 95
    65563
 70
     0
162
               170
311
429040134014801140154014C011401100124013400C
161
                34
310
000101404C
330
A6C
 94
        0
  0
ACAD_PROXY_OBJECT
  5
A7F
330
0
100
AcDbProxyObject
 90
      499
 91
      512
 95
    65563
 70
     0
162
               202
311
431040134014C0114010C01500124013C013801100124013400C
161
                26
310
0001018C
330
A6C
 94
        0
  0
ACAD_PROXY_OBJECT
  5
A80
330
0
100
AcDbProxyObject
 90
      499
 91
      512
 95
    65563
 70
     0
162
               170
311
429040134015801400108013C014801100114014800C
161
                34
310
000101404C
330
A6C
 94
        0
  0
ACAD_PROXY_OBJECT
  5
A81
330
0
100
AcDbProxyObject
 90
      499
 91
      512
 95
    65563
 70
     0
162
               170
311
4290401340110015C011C010C013C0130013C014800C
161
                26
310
0001018C
330
A6C
 94
        0
  0
ACAD_PROXY_OBJECT
  5
A82
330
0
100
AcDbProxyObject
 90
      499
 91
      512
 95
    65563
 70
     0
162
               218
311
435040134015801240114015C01480114011801480114014C012000C
161
                34
310
000101404C
330
A6C
 94
        0
  0
ACAD_PROXY_OBJECT
  5
A83
330
0
100
AcDbProxyObject
 90
      499
 91
      512
 95
    65563
 70
     0
162
               266
311
441040134010401380138013C01500114014001480114014C011401480158011400C
161
                34
310
000101404C
330
A6C
 94
        0
  0
ACAD_PROXY_OBJECT
  5
A84
330
0
100
AcDbProxyObject
 90
      499
 91
      512
 95
    65563
 70
     0
162
               266
311
441040134010401540150013C01100124013401040148014801040138011C011400C
161
                34
310
000101404C
330
A6C
 94
        0
  0
ACAD_PROXY_OBJECT
  5
A85
330
0
100
AcDbProxyObject
 90
      499
 91
      512
 95
    65563
 70
     0
162
               186
311
42D04013401140160015001480114011801100124013400C
161
                26
310
0001018C
330
A6C
 94
        0
  0
ACAD_PROXY_OBJECT
  5
A86
330
0
100
AcDbProxyObject
 90
      499
 91
      512
 95
    65563
 70
     0
162
               186
311
42D040134015001040140010401380138013C0150011400C
161
                34
310
000101404C
330
A6C
 94
        0
  0
ACAD_PROXY_OBJECT
  5
A87
330
0
100
AcDbProxyObject
 90
      499
 91
      512
 95
    65563
 70
     0
162
               138
311
421040134010401540150013C010C013000C
161
                34
310
000101404C
330
A6C
 94
        0
  0
ACAD_PROXY_OBJECT
  5
A88
330
0
100
AcDbProxyObject
 90
      499
 91
      512
 95
    65563
 70
     0
162
               138
311
421040134010C0130011801140104015000C
161
                34
310
000101414C
330
A6C
 94
        0
  0
ACAD_PROXY_OBJECT
  5
A89
330
0
100
AcDbProxyObject
 90
      499
 91
      512
 95
    65563
 70
     0
162
               138
311
421040134010C0130015801240114015C00C
161
                34
310
0001014FCC
330
A6C
 94
        0
  0
ACAD_PROXY_OBJECT
  5
A8A
330
0
100
AcDbProxyObject
 90
      499
 91
      512
 95
    65563
 70
     0
162
               218
311
4350401340120012401100114016801140148013C01100124013400C
161
                34
310
000101404C
330
A6C
 94
        0
  0
ACAD_PROXY_OBJECT
  5
A8B
330
0
100
AcDbProxyObject
 90
      499
 91
      512
 95
    65563
 70
     0
162
               170
311
429040134012001040150010C01200124014C013C00C
161
                34
310
000101404C
330
A6C
 94
        0
  0
ACAD_PROXY_OBJECT
  5
A8C
330
0
100
AcDbProxyObject
 90
      499
 91
      512
 95
    65563
 70
     0
162
               234
311
439040134014C01240138011C0130011401200104015001300104016400C
161
                26
310
0001018C
330
A6C
 94
        0
  0
ACAD_PROXY_OBJECT
  5
A8D
330
0
100
AcDbProxyObject
 90
      499
 91
      512
 95
    65563
 70
     0
162
               186
311
42D0401340110015C011C0118013001100124014C014000C
161
                26
310
0001018C
330
A6C
 94
        0
  0
ACAD_PROXY_OBJECT
  5
A8E
330
0
100
AcDbProxyObject
 90
      499
 91
      512
 95
    65563
 70
     0
162
               138
311
421040134010401540150013C0120013800C
161
                26
310
0001018C
330
A6C
 94
        0
  0
ACAD_PROXY_OBJECT
  5
A8F
330
0
100
AcDbProxyObject
 90
      499
 91
      512
 95
    65563
 70
     0
162
               154
311
42504013401200138010C013C01540138015000C
161
                34
310
000101404C
330
A6C
 94
        0
  0
ACAD_PROXY_OBJECT
  5
A90
330
0
100
AcDbProxyObject
 90
      499
 91
      512
 95
    65563
 70
     0
162
               138
311
4210401340120013801400148013C012800C
161
                34
310
000101404C
330
A6C
 94
        0
  0
ACAD_PROXY_OBJECT
  5
A91
330
0
100
AcDbProxyObject
 90
      499
 91
      512
 95
    65563
 70
     0
162
               138
311
42104013401200138015001640140011400C
161
                34
310
00010141CC
330
A6C
 94
        0
  0
ACAD_PROXY_OBJECT
  5
A92
330
0
100
AcDbProxyObject
 90
      499
 91
      512
 95
    65563
 70
     0
162
               138
311
42104013401200138015801240114015C00C
161
                34
310
00010143CC
330
A6C
 94
        0
  0
ACAD_PROXY_OBJECT
  5
A93
330
0
100
AcDbProxyObject
 90
      499
 91
      512
 95
    65563
 70
     0
162
               218
311
435040134014C0114010C01500124013C0138010C013C0140016400C
161
                26
310
0001018C
330
A6C
 94
        0
  0
ACAD_PROXY_OBJECT
  5
A94
330
0
100
AcDbProxyObject
 90
      499
 91
      512
 95
    65563
 70
     0
162
               138
311
421040134010C013001400148013C012800C
161
                34
310
00010140CC
330
A6C
 94
        0
  0
ACAD_PROXY_OBJECT
  5
A95
330
0
100
AcDbProxyObject
 90
      499
 91
      524
 95
    65563
 70
     0
162
               234
311
439040134010401540150013C012001040150010C01200148013C015000C
161
                90
310
0001010000000000000B900C
330
A6C
 94
        0
  0
ACAD_PROXY_OBJECT
  5
A96
330
0
100
AcDbProxyObject
 90
      499
 91
      512
 95
    65563
 70
     0
162
               234
311
439040134010401540150013C012001040150010C012001100114015000C
161
                34
310
000101404C
330
A6C
 94
        0
  0
ACAD_PROXY_OBJECT
  5
AA3
330
0
100
AcDbProxyObject
 90
      499
 91
      533
 95
    65563
 70
     0
162
               212
311
421040134010C01540148014C01500110010441004E0053004900C
161
                32
310
0001010100
330
A6C
 94
        0
  0
ACAD_PROXY_OBJECT
  5
AA5
330
0
100
AcDbProxyObject
 90
      499
 91
      535
 95
    65563
 70
     0
162
              1192
311
4795C0194019000800128018401B8008000C800CC008000C800C400E800C000D400E800C400D0008000C800C000C000E0008000A001540150010C00A40109310031002E0030002E00360032002E0030004615C0194019000800128018401B8008000C800CC008000C400D800E800C000E000E800D400E0008000C800C000C0
311
00E00109310031002E0030002E00360032002E00300000
161
               114
310
0001000000009AA6A9AA404040404C
330
A6C
330
AA6
330
AA7
330
AA9
330
0
 94
        0
  0
ACAD_PROXY_OBJECT
  5
AA6
330
0
100
AcDbProxyObject
 90
      499
 91
      536
 95
    65563
 70
     0
162
                 0
161
                70
310
0001AAA80820000000
330
A6C
330
AA6
330
AA6
 94
        0
  0
ACAD_PROXY_OBJECT
  5
AA7
330
0
100
AcDbProxyObject
 90
      499
 91
      537
 95
    65563
 70
     0
162
                 0
161
                48
310
0001000000007E
330
A6C
330
0
330
AA8
330
0
330
0
 94
        0
  0
ACAD_PROXY_OBJECT
  5
AA8
330
0
100
AcDbProxyObject
 90
      499
 91
      538
 95
    65563
 70
     0
162
                 0
161
                40
310
000100AAAA00
330
A6C
330
0
 94
        0
  0
ACAD_PROXY_OBJECT
  5
AAE
330
0
100
AcDbProxyObject
 90
      499
 91
      533
 95
    65563
 70
     0
162
               276
311
431040104010C013C01340140011001180138010401340114010443004F004D005000C
161
                32
310
0001010100
330
A6C
 94
        0
  0
ACAD_PROXY_OBJECT
  5
AAF
330
0
100
AcDbProxyObject
 90
      499
 91
      533
 95
    65563
 70
     0
162
               340
311
4390401040118013C0130011001140148011001180138010401340114010646006F006C00640065007200C
161
                32
310
0001010100
330
A6C
 94
        0
  0
ACAD_PROXY_OBJECT
  5
AB0
330
0
100
AcDbProxyObject
 90
      499
 91
      533
 95
    65563
 70
     0
162
               276
311
431040104010401380138013C01100118013801040134011401042800410056002900C
161
                32
310
0001010100
330
A6C
 94
        0
  0
ACAD_PROXY_OBJECT
  5
AB1
330
0
100
AcDbProxyObject
 90
      499
 91
      533
 95
    65563
 70
     0
162
               756
311
439040104010C013C01340140015801240114015C01300124014C0150012054006F0070000A00460072006F006E0074000A00520069006700680074000A004C006500660074000A0042006F00740074006F006D000A004100750078003100C
161
                32
310
0001010100
330
A6C
 94
        0
  0
ACAD_PROXY_OBJECT
  5
AB2
330
0
100
AcDbProxyObject
 90
      499
 91
      512
 95
    65563
 70
     0
162
               234
311
439040134014C014C0150014801040130015C01040164014C013C013800C
161
                26
310
0001018C
330
A6C
 94
        0
  0
ACAD_PROXY_OBJECT
  5
AB7
330
0
100
AcDbProxyObject
 90
      499
 91
      543
 95
    65563
 70
     0
162
                 0
161
                32
310
0001000000
330
A6C
340
AB4
330
AB9
330
AB4
 94
        0
  0
ACAD_PROXY_OBJECT
  5
AB8
330
0
100
AcDbProxyObject
 90
      499
 91
      544
 95
    65563
 70
     0
162
                 0
161
                18
310
00018C
330
A6C
 94
        0
  0
ACAD_PROXY_OBJECT
  5
AB9
330
0
100
AcDbProxyObject
 90
      499
 91
      545
 95
    65563
 70
     0
162
                90
311
4150C011800D800D000D000C
161
                80
310
0001014140155005540000
330
A6C
330
AB7
330
AB8
 94
        0
  0
ACAD_PROXY_OBJECT
  5
ABA
330
0
100
AcDbProxyObject
 90
      499
 91
      546
 95
    65563
 70
     0
162
                 0
161
               178
310
000100AAAAAA8BB51D16B7D78DD2A86C2B29EA599C404C
330
A6C
330
AB9
 94
        0
  0
ACAD_PROXY_OBJECT
  5
ABB
330
0
100
AcDbProxyObject
 90
      499
 91
      547
 95
    65563
 70
     0
162
                 0
161
               108
310
0001901422000000000000AAAAAC
330
A6C
330
ABC
330
ABC
330
ABC
330
ABC
330
ABC
330
0
 94
        0
  0
ACAD_PROXY_OBJECT
  5
ABC
330
0
100
AcDbProxyObject
 90
      499
 91
      548
 95
    65563
 70
     0
162
                 0
161
                51
310
00010000AAAA8C
330
A6C
330
ABB
330
AB9
 94
        0
  0
DICTIONARY
  5
A66
102
{ACAD_REACTORS
330
A65
102
}
330
A65
100
AcDbDictionary
281
     1
  3
DWGSETTINGS
350
A67
  3
TRANSSETTINGS
350
A68
  0
ACAD_PROXY_OBJECT
  5
ACB
102
{ACAD_REACTORS
330
A65
102
}
330
A65
100
AcDbProxyObject
 90
      499
 91
      556
 95
    65563
 70
     0
162
             15824
311
404C0010441004D005F0030009013100411040134017C00C402404C8010441004D005F0032009013300411040134017C00CC02404D0010441004D005F0034009013500411040134017C00D402404D8010441004D005F0036009013700411040134017C00DC02404E0010441004D005F0038009013900411040134017C00E40
311
2408C80104010541004D005F003100300090234004100415040134017C00C400C402409240140010541004D005F003100320090230004E00415040134017C00C0013802408C40138010541004D005F0031004E0090232004E00415040134017C00C8013802408CC0138010541004D005F0033004E0090234004E0041504013
311
4017C00D0013802408D40138010541004D005F0035004E0090236004E00415040134017C00D8013802408DC0138010541004D005F0037004E0090238004E00415040134017C00E0013802408E40138010541004D005F0039004E00903320041004E00419040134017C00C400C001380240CD001040138010641004D005F003
311
10031004E00903490050004E00419040134017C00C400C80138024112C013001240138010541004D005F0043004C0090449004E0046004F00421040134017C01400104014801140118024154801040120013400D4010641004D005F0042004F0052009045600490045005700421040134017C015801240114015C014C02419
311
0801140120012401380110010641004D005F0049004E00560090554005200410049004C00415040134017C015001480240D2001240110010641004D005F00480049004400903560049005300419040134017C01580124014C024194001040148011001240134010941004D005F00500041005200440049004D009065200450
311
04600440049004D00425040134017C01480114011801100124013402411080120013801580101390041508012001380158014C010642004500480049004E00440041108013C014800C801055200410048004D00350041108013C014800CC01055200410048004D00350041108013C014800D401055200410048004D0035004
311
110C0104013000C8010134004110C0104013000CC010134004110C0104013000D4010134004110C0104013000DC010134004110C011401380138010137004110C01140138015C010137004110C01300124013801044B004C0049004E004110C013C013800C4010130004110C013C013800C8010131004110C013C013800CC0
311
10132004110C013C013800D00101320041110011401500104010134004111001240104011C010135004111001240130012401013500411100124013401400106500041005200440049004D00411100124013401480106520045004600440049004D00411180114013401380101380041518011401340140013801013800415
311
1801140134014C01400102340041004151801140134014C015001023400410041518011401340158013801013200415180114013401580150010132004112001040150010C0101380041120012401100138010133004112001240110015C01013300411200130012401380101340041120013C010C01380101370041120013
311
C010C015C010137004112401380118013C010449004E0046004F00411300114010401100101350041938017C0108012001380158010239004E0041938017C010C013C013800C4010230004E0041938017C010C013C013800C8010231004E0041938017C010C013C013800CC010232004E0041938017C010C013C013800D001
311
0232004E0041938017C010C011401380138010237004E0041938017C010C01140138015C010237004E0041938017C0110012401300124010235004E0041938017C012001040150010C010238004E0041938017C0120012401100138010233004E0041938017C012001240110015C010233004E0041938017C0130011401040
311
110010235004E0041938017C0138011C012401400103490050004E0041938017C01400120010401380103340041004E0041938017C0150010C013C0138010230004E0041938017C0150012001300124010234004E0041938017C0150013001140138010230004E0041938017C01580140013001240103320041004E0041138
311
011C01240140010249005000411400104013000C801055200410048004D003500411400104013000CC01055200410048004D003500411400104013000D401055200410048004D0035004114001200104013801023400410041140013C014C01380101350041148010C011C01380101370041148010C011C015C01013700411
311
4C01080148012C010134004114C0114010C0150010134004114C0164010800CC0101350041134014C016401340101350041150010C013C0138010130004115001200130012401013400411500124015000C801055200410048004D003500411500124015000CC01055200410048004D003500411500124015000D401055200
311
410048004D0035004115001300114013801013000415500148010401240130010554005200410049004C004115001480130012401013400411500160015000C401013600411500160015000C801013600411500160015000CC01013600411500160015000D401013600411500160015000DC010136004115801240114015C0
311
1045600490045005700411580114011001200103480049004400411580114011001580103560049005300411580140013001240102320041004116801240168010401013400404FC0200
161
              8848
310
4190349201C00030C011E44203800030C011E44201400030C011E44201800030C010FA00C00030C010FA00C00030C010FA00800030C011EA01000030C010FA00400030C010FA3F400030C0241201C00030C011EA00C00030C010FA01C00030C011E40A01C00030C011EA03800030C011EA01400030C011EA01800030C010FA
310
00C00030C010FA00C00030C010FA00800030C011EA01000030C010FA00400030C010FA3F400030C0241201C00030C011EA00C00030C010FA01C00030C011E40A00400030C010F42601000030C010F42E01C00030C011E42600400030C010F42E3F400030C0243600C00030C010F42601C00030C010F42601C00030C011E426
310
00C00030C010F42601000030C010F425538000000C0003FFFFFFFE8000000C0003FFFFFFFE8010000C30043E8020000C30047A8000000C0003FFFFFFFE8000000C0003FFFFFFFE8020000C30047A8070000C30047A81E0000C3004F28000000C0003FFFFFFFE8000000C0003FFFFFFFE8000000C0003FFFFFFFE8000000C00
310
03FFFFFFFD038000000C0003FFFFFFFD038000000C0003FFFFFFFD038000000C0003FFFFFFFD038000000C0003FFFFFFFE8000000C0003FFFFFFFE8000000C0003FFFFFFFE8000000C0003FFFFFFFE8000000C0003FFFFFFFE8000000C0003FFFFFFFE8030000C3003FFFFFFFE8000000C0003FFFFFFFE8030000C30043E80
310
00000C0003FFFFFFFE8030000C30043E8000000C0003FFFFFFFD018000000C0003FFFFFFFD038000000C0003FFFFFFFD038000000C0003FFFFFFFD018000000C0003FFFFFFFE8000000C0003FFFFFFFE8000000C0003FFFFFFFE8000000C0003FFFFFFFE8000000C0003FFFFFFFE8000000C0003FFFFFFFD038000000C0003
310
FFFFFFFD038000000C0003FFFFFFFD038000000C0003FFFFFFFD038000000C0003FFFFFFFE8000000C0003FFFFFFFE8000000C0003FFFFFFFE8000000C0003FFFFFFFD018000000C0003FFFFFFFD038000000C0003FFFFFFFD038000000C0003FFFFFFFE8000000C0003FFFFFFFE8000000C0003FFFFFFFE8000000C0003FF
310
FFFFFD038000000C0003FFFFFFFD018000000C0003FFFFFFFD038000000C0003FFFFFFFE8000000C0003FFFFFFFE8010000C30043E8020000C30047A8000000C0003FFFFFFFE8000000C0003FFFFFFFE8000000C0003FFFFFFFE8000000C0003FFFFFFFE8000000C0003FFFFFFFE8070000C300479018000000C0003FFFFFF
310
FD018020000C30047A8020000C30047A8000000C0003FFFFFFFD038000000C0003FFFFFFFD018010000C30043E8020000C30047A8000000C0003FFFFFFFE8000000C0003FFFFFFFD038000000C0003FFFFFFFE8000000C0003FFFFFFFD018030000C30043E8030000C30043E8000000C0003FFFFFFFE8070000C30047A81E0
310
000C3004F28000000C0003FFFFFFFE8000000C0003FFFFFFFD028000000C0003FFFFFFFD028000000C0003FFFFFFFE8000000C0003FFFFFFFD01AAA3F400030C010A4391E41D1E4190F4151E4110F40D0F4091E4050F4793C7F600
340
14
340
14
340
14
340
46
340
14
340
14
340
14
340
45
340
14
340
14
340
45
340
A97
340
14
340
14
340
14
340
14
340
46
340
14
340
14
340
14
340
45
340
14
340
14
340
45
340
A97
340
14
340
ACF
340
14
340
14
340
14
340
14
340
14
340
46
340
14
340
14
340
14
340
13
340
13
340
13
340
13
340
13
340
13
340
13
340
13
340
13
340
AD5
340
13
340
13
340
13
340
13
340
13
340
13
340
13
340
13
340
13
340
13
340
13
340
13
340
13
340
14
340
13
340
13
340
13
340
13
340
AD6
340
13
340
13
340
AD5
340
13
340
13
340
13
340
13
340
13
340
13
340
13
340
13
340
AD5
340
13
340
13
340
13
340
AD6
340
13
340
13
340
13
340
13
340
13
340
AD6
340
13
340
A97
340
13
340
13
340
13
340
13
340
13
340
13
340
AD5
340
13
340
13
340
13
340
13
340
13
340
13
340
AD6
340
13
340
13
340
13
340
13
340
13
340
13
340
13
340
13
340
13
340
13
340
13
340
13
340
13
340
13
340
A97
340
AD7
 94
        0
  0
ACAD_PROXY_OBJECT
  5
B03
102
{ACAD_REACTORS
330
AFE
102
}
330
AFE
100
AcDbProxyObject
 90
      499
 91
      574
 95
    65563
 70
     0
162
               434
311
451100124013401140138014C0124013C013800B00104013401100150017C00A8017C01100124013401012A00404A801012A00404A800C
161
                11
310
43EC
 94
        0
  0
ACAD_PROXY_OBJECT
  5
B02
102
{ACAD_REACTORS
330
AFE
102
}
330
AFE
100
AcDbProxyObject
 90
      499
 91
      574
 95
    65563
 70
     0
162
               290
311
404A8010B41004D005F004600450041002D0041004D005F002A00404A801012A00404A800C
161
                11
310
43EC
 94
        0
  0
ACAD_PROXY_OBJECT
  5
AFF
102
{ACAD_REACTORS
330
AFE
102
}
330
AFE
100
AcDbProxyObject
 90
      499
 91
      574
 95
    65563
 70
     0
162
               194
311
4152001040150010C012001012A00404A801012A00404A800C
161
                11
310
43EC
 94
        0
  0
ACAD_PROXY_OBJECT
  5
B00
102
{ACAD_REACTORS
330
AFE
102
}
330
AFE
100
AcDbProxyObject
 90
      499
 91
      574
 95
    65563
 70
     0
162
              1026
311
41130012401380114012738002C0038004E002C002A002D0038002C002A002D0038004E002C0041004D005F0038002C0041004D005F0038004E002C002A002D0041004D005F0038002C002A002D0041004D005F0038004E00404A801012A00441240138014C01140148015000B0014C01500110014001040148015000C8011
311
000C
161
                11
310
43EC
 94
        0
  0
ACAD_PROXY_OBJECT
  5
B04
102
{ACAD_REACTORS
330
AFE
102
}
330
AFE
100
AcDbProxyObject
 90
      499
 91
      574
 95
    65563
 70
     0
162
               290
311
40D040148010C010441004D005F003500404A801013200419240138014C01140148015000C
161
                11
310
43CC
 94
        0
  0
ACAD_PROXY_OBJECT
  5
B01
102
{ACAD_REACTORS
330
AFE
102
}
330
AFE
100
AcDbProxyObject
 90
      499
 91
      574
 95
    65563
 70
     0
162
              2034
311
5E104010C01340118010C0118014801040134011400B00104010C013401100104015001540134015001040148011C0114015000B00104010C0134011001040150015401340124011000B00104010C0134015C011401300110014C0164013400B00104010C0134014C015401480118014C0164013400B00104010C013401180
311
114010401500124011000B00104010C0134014001040148015001480114011800B00104010C01340108010401300130013C013C013800B0010401340110015001140110011C0114014C0164013400B001040134011C014C010C01480114015C010C01040130010C0150010401080130011401012A00404A801012A00404A80
311
0C
161
                11
310
43EC
 94
        0
  0
DICTIONARY
  5
B83
330
A0F
100
AcDbDictionary
280
     1
281
     1
  3
ACAD_ROUNDTRIP_2008_TABLESTYLE_CELLSTYLEMAP
360
B84
  0
ACAD_PROXY_OBJECT
  5
ACA
102
{ACAD_REACTORS
330
AC9
102
}
330
AC9
100
AcDbProxyObject
 90
      499
 91
      555
 95
    65563
 70
     0
162
              3516
311
411040138014C01240243904018C01B4014C01D401C801980150019401E001D0014C01D001900109410063006D0046004300460053007400640043504018C01B4015C019401B0019001A401B8019C014C01D001900108410063006D004900640053007400640042D04018C01B40110018401D001D401B4014C01D001900109
311
410063006D0042004F004D005300740064004410401B4019001D00110019401D0018401A401B0014C01E401B4014C01D00190011141006D0064007400530065006300740069006F006E00530079006D005300740064004450401B4019001D0010C019401B801D0019401C8013001A401B80194014C01D00190011141006D00
311
640074005400680072006500610064004C0069006E00650053007400640042D0401B4019001D0013801BC01D00194014C01D00190010B410063006D005400610070006500720053007400640042D04018C010401B4019C0130018401E4014C01D00190010B4100630041006D006700440069006D0053007400640044504018
311
C010401B4019C012001BC01B00194010C01A0018401C801D0014C01D00190010D4100630041006D0067005400690074006C006500530074006400C
161
               705
310
630B81E85EB51B8BE3F8030000C30040540600800030C0200800030C00B81E85EB51B8BE3F4882208120281202812028120281202812028120281202812028120281202812028120281202812028120280A04809FFFE7FFFCC
340
AD8
360
AD9
360
ADA
360
ADB
360
ADC
360
ADD
360
ADE
360
ADF
360
AE0
360
AE1
360
AE2
360
AE3
360
AE4
360
AF0
360
AF1
360
AFC
360
AFD
340
0
340
0
340
0
340
0
 94
        0
  0
ACAD_PROXY_OBJECT
  5
A67
102
{ACAD_REACTORS
330
A66
102
}
330
A66
100
AcDbProxyObject
 90
      499
 91
      508
 95
    65563
 70
     0
162
              3560
311
42D10015C011C014C01140150015001240138011C014C0109430041004E00470041005200520041005900420CC00C001F000D000D401F000D800C00106430045004E0041004E004700424D000D401F000E400C001F000C400CC00D40106430045004E0044004900410041D0C01140138011001240104014C010B30002E0035
311
007C0031002E0030007C0031002E00350041D0C0114013801100124014C01500106430045004E004C0045004E004190C01140138013C01180118010943004C0049004E0041005200520041005900438C000B800C400C800D401F000C000B800C800D401F000C000B800D4010843004C0049004E00450054005900500041560
311
0130012401380114010944005700470055005300430041004C00450041D300104014C0150013C0108012801013000421340104012C0114015801240114015C010650005300430041004C00450041948011401580124014C0124010130004154C010C010401300114010331003A00310042550012401340114014C015001040
311
13401400107560045005200530049004F004E00414C400D400B800C000C001107B00440057004700530045005400540049004E004700530045004E0044007D0041
161
               548
310
40682A0A940000000000001C07E82A50000000000000601FA50000000000000701FA50000000000000701FA0A82A50A0A9FA040C00800010541528071E246C97C99CD0505C
 94
        0
  0
ACAD_PROXY_OBJECT
  5
A68
102
{ACAD_REACTORS
330
A66
102
}
330
A66
100
AcDbProxyObject
 90
      499
 91
      508
 95
    65563
 70
     0
162
              1382
311
43550014801040138014C014C01140150015001240138011C014C0112440052004100570049004E0047005400520041004E0053004C004100540049004F004E004353C01480124011C012401380104013001300164017C013C0138010A53004F0055005200430045004C0041004E00470040D1401380154010955005000520
311
0450053004500520056004500441EC0110015C011C014C01140150015001240138011C014C01140138011001F400
161
               126
310
4060C00800041801000020A0C0080000
 94
        0
  0
CELLSTYLEMAP
  5
B84
102
{ACAD_REACTORS
330
B83
102
}
330
B83
100
AcDbCellStyleMap
 90
        3
300
CELLSTYLE
  1
TABLEFORMAT_BEGIN
 90
        5
170
     1
 91
        0
 92
    32768
 62
   257
 93
        1
300
CONTENTFORMAT
  1
CONTENTFORMAT_BEGIN
 90
        0
 91
        0
 92
        4
 93
        0
300

 40
0.0
140
1.0
 94
        5
 62
     0
340
10
144
0.25
309
CONTENTFORMAT_END
171
     0
 94
        6
 95
        1
302
GRIDFORMAT
  1
GRIDFORMAT_BEGIN
 90
        0
 91
        1
 62
     0
 92
       -2
340
0
 93
        0
 40
0.045
309
GRIDFORMAT_END
 95
        2
302
GRIDFORMAT
  1
GRIDFORMAT_BEGIN
 90
        0
 91
        1
 62
     0
 92
       -2
340
0
 93
        0
 40
0.045
309
GRIDFORMAT_END
 95
        4
302
GRIDFORMAT
  1
GRIDFORMAT_BEGIN
 90
        0
 91
        1
 62
     0
 92
       -2
340
0
 93
        0
 40
0.045
309
GRIDFORMAT_END
 95
        8
302
GRIDFORMAT
  1
GRIDFORMAT_BEGIN
 90
        0
 91
        1
 62
     0
 92
       -2
340
0
 93
        0
 40
0.045
309
GRIDFORMAT_END
 95
       16
302
GRIDFORMAT
  1
GRIDFORMAT_BEGIN
 90
        0
 91
        1
 62
     0
 92
       -2
340
0
 93
        0
 40
0.045
309
GRIDFORMAT_END
 95
       32
302
GRIDFORMAT
  1
GRIDFORMAT_BEGIN
 90
        0
 91
        1
 62
     0
 92
       -2
340
0
 93
        0
 40
0.045
309
GRIDFORMAT_END
309
TABLEFORMAT_END
  1
CELLSTYLE_BEGIN
 90
        1
 91
        1
300
_TITLE
309
CELLSTYLE_END
300
CELLSTYLE
  1
TABLEFORMAT_BEGIN
 90
        5
170
     1
 91
        0
 92
        0
 62
   257
 93
        1
300
CONTENTFORMAT
  1
CONTENTFORMAT_BEGIN
 90
        0
 91
        0
 92
        4
 93
        0
300

 40
0.0
140
1.0
 94
        5
 62
     0
340
10
144
0.18
309
CONTENTFORMAT_END
171
     0
 94
        6
 95
        1
302
GRIDFORMAT
  1
GRIDFORMAT_BEGIN
 90
        0
 91
        1
 62
     0
 92
       -2
340
0
 93
        0
 40
0.045
309
GRIDFORMAT_END
 95
        2
302
GRIDFORMAT
  1
GRIDFORMAT_BEGIN
 90
        0
 91
        1
 62
     0
 92
       -2
340
0
 93
        0
 40
0.045
309
GRIDFORMAT_END
 95
        4
302
GRIDFORMAT
  1
GRIDFORMAT_BEGIN
 90
        0
 91
        1
 62
     0
 92
       -2
340
0
 93
        0
 40
0.045
309
GRIDFORMAT_END
 95
        8
302
GRIDFORMAT
  1
GRIDFORMAT_BEGIN
 90
        0
 91
        1
 62
     0
 92
       -2
340
0
 93
        0
 40
0.045
309
GRIDFORMAT_END
 95
       16
302
GRIDFORMAT
  1
GRIDFORMAT_BEGIN
 90
        0
 91
        1
 62
     0
 92
       -2
340
0
 93
        0
 40
0.045
309
GRIDFORMAT_END
 95
       32
302
GRIDFORMAT
  1
GRIDFORMAT_BEGIN
 90
        0
 91
        1
 62
     0
 92
       -2
340
0
 93
        0
 40
0.045
309
GRIDFORMAT_END
309
TABLEFORMAT_END
  1
CELLSTYLE_BEGIN
 90
        2
 91
        1
300
_HEADER
309
CELLSTYLE_END
300
CELLSTYLE
  1
TABLEFORMAT_BEGIN
 90
        5
170
     1
 91
        0
 92
        0
 62
   257
 93
        1
300
CONTENTFORMAT
  1
CONTENTFORMAT_BEGIN
 90
        0
 91
        0
 92
        4
 93
        0
300

 40
0.0
140
1.0
 94
        2
 62
     0
340
10
144
0.18
309
CONTENTFORMAT_END
171
     0
 94
        6
 95
        1
302
GRIDFORMAT
  1
GRIDFORMAT_BEGIN
 90
        0
 91
        1
 62
     0
 92
       -2
340
0
 93
        0
 40
0.045
309
GRIDFORMAT_END
 95
        2
302
GRIDFORMAT
  1
GRIDFORMAT_BEGIN
 90
        0
 91
        1
 62
     0
 92
       -2
340
0
 93
        0
 40
0.045
309
GRIDFORMAT_END
 95
        4
302
GRIDFORMAT
  1
GRIDFORMAT_BEGIN
 90
        0
 91
        1
 62
     0
 92
       -2
340
0
 93
        0
 40
0.045
309
GRIDFORMAT_END
 95
        8
302
GRIDFORMAT
  1
GRIDFORMAT_BEGIN
 90
        0
 91
        1
 62
     0
 92
       -2
340
0
 93
        0
 40
0.045
309
GRIDFORMAT_END
 95
       16
302
GRIDFORMAT
  1
GRIDFORMAT_BEGIN
 90
        0
 91
        1
 62
     0
 92
       -2
340
0
 93
        0
 40
0.045
309
GRIDFORMAT_END
 95
       32
302
GRIDFORMAT
  1
GRIDFORMAT_BEGIN
 90
        0
 91
        1
 62
     0
 92
       -2
340
0
 93
        0
 40
0.045
309
GRIDFORMAT_END
309
TABLEFORMAT_END
  1
CELLSTYLE_BEGIN
 90
        3
 91
        2
300
_DATA
309
CELLSTYLE_END
  0
ACAD_PROXY_OBJECT
  5
AD9
330
ACA
100
AcDbProxyObject
 90
      499
 91
      557
 95
    65563
 70
     0
162
                 0
161
                96
310
63020E80A0280A0280A0280800
 94
        0
  0
ACAD_PROXY_OBJECT
  5
ADA
330
ACA
100
AcDbProxyObject
 90
      499
 91
      558
 95
    65563
 70
     0
162
                 0
161
               332
310
6310E405014050140501405014050140501405014250140501405014050140501200000000000000040C
340
AE5
 94
        0
  0
ACAD_PROXY_OBJECT
  5
ADB
330
ACA
100
AcDbProxyObject
 90
      499
 91
      559
 95
    65563
 70
     0
162
                 0
161
               403
310
630C199999999999E99F91F405014050140501405014050140501405014050140501405014050140501405014050140501404C
340
0
 94
        0
  0
ACAD_PROXY_OBJECT
  5
ADC
330
ACA
100
AcDbProxyObject
 90
      499
 91
      560
 95
    65563
 70
     0
162
                 0
161
                10
310
630C
 94
        0
  0
ACAD_PROXY_OBJECT
  5
ADD
330
ACA
100
AcDbProxyObject
 90
      499
 91
      561
 95
    65563
 70
     0
162
                 0
161
               257
310
632290EA22A7D90F49F9353333333333727F44D4CCCCCCCCCDC9FC01000061804C
340
AE6
340
AE7
 94
        0
  0
ACAD_PROXY_OBJECT
  5
ADE
330
ACA
100
AcDbProxyObject
 90
      499
 91
      562
 95
    65563
 70
     0
162
             22604
311
4112401500114013401044900540045004D004CD1C01140138015001480104010C013C00B001140138015400B000C000B0012401500114013400B0011C011401380150014801040150016000B0009401CC00B000A0011C011401380134014C011C0080019C019401B8019001DC019C008000C800C800C800A40240D4401500
311
16401035100540059004C91C01140138015001480104010C013C00B001140138015400B000C000B001440150016400B0011C011401380150014801040150016000B0009401CC00B000A0011C011401380134014C011C0080019C019401B8019001DC019C008000C800C800CC00A4024113801040134011401044E0041004D0
311
045004CD1C01140138015001480104010C013C00B001140138015400B000C000B0013801040134011400B0011C011401380150014801040150016000B0009401CC00B000A0011C011401380134014C011C0080019C019401B8019001DC019C008000C800C800D800A4012C3D004900460028004900530042004C0041004E00
311
4B00280050004100520054003A004E0041004D00450029002C0042004C004F0043004B003A004E0041004D0045002C0050004100520054003A004E0041004D0045002900415100114014C010C0148010B4400450053004300520049005000540049004F004E004E91C01140138015001480104010C013C00B0011401380154
311
00B000C000B001100114014C010C01480124014001500124013C013800B0011C011401380150014801040150016000B0009401CC00B000A0011C011401380134014C011C0080019C019401B8019001DC019C008000C800C400DC00A4024214C015001040138011001040148011001085300540041004E00440041005200440
311
04DD1C01140138015001480104010C013C00B001140138015400B000C000B0014C015001040138011001040148011000B0011C011401380150014801040150016000B0009401CC00B000A0011C011401380134014C011C0080019C019401B8019001DC019C008000C800C400E000A402421340104015001140148012401040
311
13001084D004100540045005200490041004C004DD1C01140138015001480104010C013C00B001140138015400B000C000B00134010401500114014801240104013000B0011C011401380150014801040150016000B0009401CC00B000A0011C011401380134014C011C0080019C019401B8019001DC019C008000C800C800
311
C400A40241138013C0150011401044E004F00540045004CD1C01140138015001480104010C013C00B001140138015400B000C000B00138013C0150011400B0011C011401380150014801040150016000B0009401CC00B000A0011C011401380134014C011C0080019C019401B8019001DC019C008000C800C800D400A40241
311
958011401380110013C01480106560045004E0044004F0052004D51C01140138015001480104010C013C00B001140138015400B000C000B00158011401380110013C014800B0011C011401380150014801040150016000B0009401CC00B000A0011C011401380134014C011C0080019C019401B8019001DC019C008000C800
311
C800D000A402419100114014C010C014800C8010D4400450053004300520049005000540049004F004E00200032004ED1C01140138015001480104010C013C00B001140138015400B000C000B001100114014C010C01480124014001500124013C0138008000C800B0011C011401380150014801040150016000B0009401CC
311
00B000A0011C011401380134014C011C0080019C019401B8019001DC019C008000CC00D800A4024254C015001040138011001040148011000C8010A5300540041004E004400410052004400200032004E51C01140138015001480104010C013C00B001140138015400B000C000B0014C015001040138011001040148011000
311
8000C800B0011C011401380150014801040150016000B0009401CC00B000A0011C011401380134014C011C0080019C019401B8019001DC019C008000C800C800C000A40242534010401500114014801240104013000C8010A4D004100540045005200490041004C00200032004E11C01140138015001480104010C013C00B0
311
01140138015400B000C000B001340104015001140148012401040130008000C800B0011C011401380150014801040150016000B0009401CC00B000A0011C011401380134014C011C0080019C019401B8019001DC019C008000D000C000A402411340104014C014C01044D004100530053004C91C0114013801500148010401
311
0C013C00B001140138015400B000C000B001340104014C014C00B0011C011401380150014801040150016000B0009401CC00B000A0011C011401380134014C011C0080019C019401B8019001DC019C008000D000C800A4024154001480124010C01140105500052004900430045004CD1C01140138015001480104010C013C
311
00B001140138015400B000C000B0014001480124010C011400B0011C011401380150014801040150016000B0009401CC00B000A0011C011401380134014C011C0080019C019401B8019001DC019C008000D000CC00A40240D1001240134010B4D004500410053005500520045004D0045004E0054004E51C01140138015001
311
480104010C013C00B001140138015400B000C000B0013401140104014C015401480114013401140138015000B0011C011401380150014801040150016000B0009401CC00B000A0011C011401380134014C011C0080019C019401B8019001DC019C008000D000D000A40242508013C0134017C0154013801240150014C01055
311
5004E00490054005300A41CF400F0012401500114013400F801073D003C004900540045004D003E0041CF400F0012401500114013400F801073D003C004900540045004D003E0041CF400F0012401500114013400F801063D003C005100540059003E0041CF400F0012401500114013400F801073D003C004900540045004D
311
003E00AAA901310090B65006100090065006100090045006100630068000A00455CC01C401B4002401CC01C401B40024014C01C401D4018401C8019400800134019401D0019401C80028011C7300710063006D0009007300710063006D0009005300710075006100720065002000430065006E00740069006D006500740065
311
0072000A00459CC01C4019801D0002401CC01C4019801D00024014C01C401D4018401C801940080011801BC01BC01D0002801147300710069006E0009007300710069006E000900530071007500610072006500200049006E000A0043D9C018401B00024019C018401B00024011C018401B001B001BC01B80028010C710074
311
000900710074000900510075006100720074000A0046DB001C40190017C01BC01E8002401B001C40190017C01BC01E80024013001A401C401D401A401900080013C01D401B8018C01940028010A6C0009006C0009004C0069007400650072000A00441B401B0002401B401B00024013401A401B001A401B001A401D0019401
311
C80028010B79006400090079006400090059006100720064000A0042D9801D00024019801D00024011801BC01BC01D00028010B69006E00090069006E00090049006E00630068000A00429B4002401B400240134019401D0019401C80028011163006D00090063006D000900430065006E00740069006D0065007400650072
311
000A00441B401B4002401B401B40024013401A401B001A401B4019401D0019401C80028010C6C00620009006C006200090050006F0075006E0064000A00431BC01E8002401BC01E80024013C01D401B8018C01940028010967000900670009004700720061006D000A0043DB4019C002401B4019C0024013401A401B001A40
311
19C01C8018401B40028010A62007800090062007800090042006F0078000A00C
161
              5144
310
6310F40501405014069011349A4F2590CB64FD0190120280A028120280A03202269349E4B2196C9FA03202405014051C40640A8BA5C2E97CBE5024040640480A0280A3A80C81D10782C06030180C80808809014050147501904A383BFDFEFF5FBFCFD0110120280A028EA0320B41416D838E9017D9FA03202405014051D406
310
41A8BA5C2E97CBE5F23F40640480A0280A3A80C83D174B85D2F97CBE47E80C809014050147501908A20F0580C0603019010110120280A028EA0321347077FBFDFEBF7F9FA02202405014051D40642A8282DB071D202FB3F40440480A0280A3A80A0485A0681174B85D2F97CBE47E8088090140501475014090C409022E970B
310
A5F2F97C8FD0110120280A028EA028121A81A040043110F05877A1FA03202405014051E40643A8BA5C2E97CBE5F23F40640480A1E882045C0F42F5A8DC671FC0F0000618000203159AAD56AB55BEC7E566AB55AAD56FB1FA0280C566AB55AAD56FB1F959AAD56AB55BEC7E80A031218FC7E2F079DC7E4863F1F8BC1E771FA0
310
280C4863F1F8BC1E771F9218FC7E2F079DC7E80A05202566AB55AAD56FB1F959AAD56AB55BEC7E80A0280C566AB55AAD56FB1F959AAD56AB55BEC7E80A0309A4D2792C865D27E269349E4B219749FA028080159AAD56AB55BEC7E566AB55AAD56FB1FD100000000000000410200C00030C024110340D024090140510429084
310
410190A4064229014290A4290A40A000000000000785F8000000000001E17E80C010000618040380006180077BE9F1B2EDD447E1DEFA7C6CBB7511F9703D0BD6A3717C7F40683480A0482A0E832034B81E85EB51B8BE3F8020000C3008020000C3008010000C30010140501455014050140501405014050140501405014050
310
140501405014050100
340
0
340
0
 94
        0
  0
ACAD_PROXY_OBJECT
  5
ADF
330
ACA
100
AcDbProxyObject
 90
      499
 91
      563
 95
    65563
 70
     0
162
               762
311
4BCF4011001140150010401240130008000F0011001140150010401240130017C0130010401080114013000F801700140014C010C010401300114008000F0011001140150010401240130017C01040108014C014C010C01040130011400F800C
161
               608
310
6300B81E85EB51B8CE3F48D0726A6666666666E4FC9A9999999999C93F000000000000380FD0000000000000010000000000000014400000000000000910207800030C00B81E85EB51B8CE3F00
340
A97
340
AD8
 94
        0
  0
ACAD_PROXY_OBJECT
  5
AE0
330
ACA
100
AcDbProxyObject
 90
      499
 91
      564
 95
    65563
 70
     0
162
               826
311
4CCF4014C0114010C01500124013C0138008000F0014C0114010C01500124013C0138017C01300104010801140130017C011801240148014C015000F800B400F0014C0114010C01500124013C0138017C01300104010801140130017C01300104014C015000F800C
161
               405
310
630031703D0BD6A3719C7E4D4CCCCCCCCCEC9F8FFFF8070000C30022103C000186004D4CCCCCCCCCEC9FC5C0F42F5A8DC671FC
340
A97
340
AD8
 94
        0
  0
ACAD_PROXY_OBJECT
  5
AE1
330
ACA
100
AcDbProxyObject
 90
      499
 91
      565
 95
    65563
 70
     0
162
                 0
161
               280
310
6302B8716D9CEF7C33F0A5723F0BD4A2F0FC295C8FC2F528BC3FA199999999999F99FC00
 94
        0
  0
ACAD_PROXY_OBJECT
  5
AE2
330
ACA
100
AcDbProxyObject
 90
      499
 91
      566
 95
    65563
 70
     0
162
                 0
161
                14
310
6324
340
0
 94
        0
  0
ACAD_PROXY_OBJECT
  5
AE3
330
ACA
100
AcDbProxyObject
 90
      499
 91
      567
 95
    65563
 70
     0
162
             13376
311
42950019401B401C001B0018401D00194008000C40005013D003C0069006600280065007100750061006C00280048006F006C0065003A007400610070007000650064002C0022003000220029002C00220025002500630022002C0048006F006C0065003A006E006F006D0069006E0061006C0020002200200022002000690
311
06600280065007100750061006C00280048006F006C0065003A0075006E006900740073002C0022003100220029002C002200780022002C0022002D0022002900200022002000220029003E003C0069006600280065007100750061006C00280048006F006C0065003A007400610070007000650064002C002200300022002
311
9002C0048006F006C0065003A006400690061002C0048006F006C0065003A0070006900740063006800640065007300630029003E0020007B005C00460041004D004700440054003B0078007D0020003C0069006600280065007100750061006C00280048006F006C0065003A007400650072006D0069006E0061007400690
311
06F006E002C0022003000220029002C0048006F006C0065003A00640065007000740068002C0022005400480052005500220029003E005C0050007B005C00460041004D004700440054003B0076007D002500250063003C0048006F006C0065003A00630074006400690061003E0020007B005C00460041004D00470044005
311
4003B0078007D0020003C0048006F006C0065003A0063007400640065007000740068003E0042950019401B401C001B0018401D00194008000C401FE3D003C0069006600280065007100750061006C00280048006F006C0065003A007400610070007000650064002C0022003000220029002C00220025002500630022002C
311
0048006F006C0065003A006E006F006D0069006E0061006C002000220020002200200069006600280065007100750061006C00280048006F006C0065003A0075006E006900740073002C0022003100220029002C002200780022002C0022002D0022002900200022002000220029003E003C00690066002800650071007500
311
61006C00280048006F006C0065003A007400610070007000650064002C0022003000220029002C0048006F006C0065003A006400690061002C0048006F006C0065003A0070006900740063006800640065007300630029003E0020007B005C00460041004D004700440054003B0078007D0020003C00690066002800650071
311
00750061006C00280048006F006C0065003A007400650072006D0069006E006100740069006F006E002C0022003000220029002C0048006F006C0065003A00640065007000740068002C0022005400480052005500220029003E005C0050007B005C00460041004D004700440054003B0077007D002500250063003C004800
311
6F006C0065003A00630074006400690061003E002000580020003C0048006F006C0065003A006300740061006E0067006C0065003E0025002500640042950019401B401C001B0018401D00194008000C401CF3D003C0069006600280065007100750061006C00280048006F006C0065003A007400610070007000650064002
311
C0022003000220029002C00220025002500630022002C0048006F006C0065003A006E006F006D0069006E0061006C002000220020002200200069006600280065007100750061006C00280048006F006C0065003A0075006E006900740073002C0022003100220029002C002200780022002C0022002D00220029002000220
311
02000220029003E003C0069006600280065007100750061006C00280048006F006C0065003A007400610070007000650064002C0022003000220029002C0048006F006C0065003A006400690061002C0048006F006C0065003A0070006900740063006800640065007300630029003E005C0050007B005C00460041004D004
311
700440054003B0078007D0020003C0069006600280065007100750061006C00280048006F006C0065003A007400650072006D0069006E006100740069006F006E002C0022003000220029002C0048006F006C0065003A00640065007000740068002C0022005400480052005500220029003E0042950019401B401C001B001
311
8401D00194008000C801173D003C0053005400440050003A0044004500530043003E0020003C0053005400440050003A005300540044003E0042950019401B401C001B0018401D00194008000C4010C3D003C0053005400440050003A0044004500530043003E0042950019401B401C001B0018401D00194008000CC010B3D
311
003C0053005400440050003A005300540044003E0044
161
               656
310
631084050BA4050AA4050240501406901405034050140690140501405014069014051E40D0140690140690140690340515AAAC645C0F42F5A8DC5F1F9703D0BD6A3717C7F8020000C3008030000C30044103FF
360
AEE
330
AEE
360
AEF
330
AEF
360
AED
330
AED
360
AEB
360
AEA
360
AEC
330
AEB
330
AEA
330
AEC
 94
        0
  0
ACAD_PROXY_OBJECT
  5
AE4
330
ACA
100
AcDbProxyObject
 90
      499
 91
      568
 95
    65563
 70
     0
162
                 0
161
                66
310
6310B40501406AAA8C
 94
        0
  0
ACAD_PROXY_OBJECT
  5
AF0
330
ACA
100
AcDbProxyObject
 90
      499
 91
      570
 95
    65563
 70
     0
162
                 0
161
                26
310
63102A8C
340
ACB
 94
        0
  0
ACAD_PROXY_OBJECT
  5
AF1
330
ACA
100
AcDbProxyObject
 90
      499
 91
      571
 95
    65563
 70
     0
162
               142
311
408F000F801023C003E0040DB0018C00CC00
161
               172
310
63103000000000000380FC000000000000E03F3FFFEC
340
AF2
340
0
340
0
340
AF3
340
AF4
340
0
340
AF5
340
AF6
340
AFB
340
0
340
AF4
340
0
 94
        0
  0
ACAD_PROXY_OBJECT
  5
AFC
330
ACA
100
AcDbProxyObject
 90
      499
 91
      572
 95
    65563
 70
     0
162
             20912
311
44D300124014C01500080013C01180080010C013C013C0148011001240138010401500114014C0142470045004E0054005200410043004F002C0045004E0055002C0030002C004C0049005300540020004F004600200043004F004F005200440049004E0041005400450053002C00470045004E00540052004100540058002
311
C00250073002C002800470045004E004D00530047002000670065006E00640069006D007A00200033003000290043CF400F0011001940198018401D401B001D0015001A401D001B0019400F8010A48004F004C00450020005400410042004C0045004E51C01140138015001480104010C013C00B001140138015400B000C00
311
0B00120013C0130011400800150010401080130011400B0011C011401380150014801040150016000B0009401CC00B000A0011C011401380134014C011C0080019C019401B8019001A401B401E8008000CC00C400A4010F3D003C00440065006600610075006C0074005400690074006C0065003E004193C01480124011C01
311
2401380134470045004E0054005200410043004F002C0045004E0055002C0030002C004F0052004900470049004E002C00470045004E00540052004100540058002C00250073002C002800470045004E004D00530047002000670065006E00640069006D007A002000310029004193C01480124011C0124013801344700450
311
04E0054005200410043004F002C0045004E0055002C0030002C004F0052004900470049004E002C00470045004E00540052004100540058002C00250073002C002800470045004E004D00530047002000670065006E00640069006D007A0020003100290041120013C013001140132470045004E0054005200410043004F00
311
2C0045004E0055002C0030002C0048004F004C0045002C00470045004E00540052004100540058002C00250073002C002800470045004E004D00530047002000670065006E00640069006D007A00200032002900538F400F00124011800A00124014C0108013001040138012C00A0012001BC01B00194012401D0019401B40
311
0A400B0013C01C801A4019C01A401B800B00080012001BC01B00194012401D0019401B400A400F800F00124011800A00124014C0108013001040138012C00A0012001BC01B00194012401D0019401B400A400B00088008800B00080012001BC01B00194012401B80190019401E000A400F8010158004BD1C01140138015001
311
480104010C013C00B001140138015400B000C000B0016000B0011C011401380150014801040150016000B0009401CC00B000A0011C011401380134014C011C0080019C019401B8019001A401B401E8008000CC00A4010159004BD1C01140138015001480104010C013C00B001140138015400B000C000B0016400B0011C011
311
401380150014801040150016000B0009401CC00B000A0011C011401380134014C011C0080019C019401B8019001A401B401E8008000D000A4010152004BD1C01140138015001480104010C013C00B001140138015400B000C000B0014800B0011C011401380150014801040150016000B0009401CC00B000A0011C01140138
311
0134014C011C0080019C019401B8019001A401B401E8008000D800A401187B005C004600530059004D0042004F004C007C00420030007C00490030007C00430032007C00500030003B004A007D005191C01140138015001480104010C013C00B001140138015400B000C000B001EC01700118014C016401340108013C01300
311
1F0010800C001F0012400C001F0010C00C801F0014000C000EC012801F400B0011C011401380150014801040150016000B0009401CC00B000A0011C011401380134014C011C0080019C019401B8019001A401B401E8008000DC00A401032500250043004C51C01140138015001480104010C013C00B001140138015400B000
311
C000B000940094010C00B0011C011401380150014801040150016000B0009401CC00B000A0011C011401380134014C011C0080019C019401B8019001A401B401E8008000E000A4010B4400450053004300520049005000540049004F004E004E91C01140138015001480104010C013C00B001140138015400B000C000B0011
311
00114014C010C01480124014001500124013C013800B0011C011401380150014801040150016000B0009401CC00B000A0011C011401380134014C011C0080019C019401B8019001A401B401E8008000C800C000A401044900540045004D004CD1C01140138015001480104010C013C00B001140138015400B000C000B00124
311
01500114013400B0011C011401380150014801040150016000B0009401CC00B000A0011C011401380134014C011C0080019C019401B8019001A401B401E8008000C400D000A4010549004E004400450058004D11C01140138015001480104010C013C00B001140138015400B000C000B00124013801100114016000B0011C0
311
11401380150014801040150016000B0009401CC00B000A0011C011401380134014C011C0080019C019401B8019001A401B401E8008000C400D400A4010448004F004C0045004CD1C01140138015001480104010C013C00B001140138015400B000C000B00120013C0130011400B0011C011401380150014801040150016000
311
B0009401CC00B000A0011C011401380134014C011C0080019C019401B8019001A401B401E8008000C400D800A4010A48004F004C004500200049004E004400450058004E51C01140138015001480104010C013C00B001140138015400B000C000B00120013C0130011400800124013801100114016000B0011C01140138015
311
0014801040150016000B0009401CC00B000A0011C011401380134014C011C0080019C019401B8019001A401B401E8008000C400DC00A40109550053004500520020004900540045004D004E11C01140138015001480104010C013C00B001140138015400B000C000B00154014C011401480080012401500114013400B0011C
311
011401380150014801040150016000B0009401CC00B000A0011C011401380134014C011C0080019C019401B8019001A401B401E8008000C800C800A401035100540059004C91C01140138015001480104010C013C00B001140138015400B000C000B001440150016400B0011C011401380150014801040150016000B000940
311
1CC00B000A0011C011401380134014C011C0080019C019401B8019001A401B401E8008000C400E400A401085300540041004E0044004100520044004DD1C01140138015001480104010C013C00B001140138015400B000C000B0014C015001040138011001040148011000B0011C011401380150014801040150016000B000
311
9401CC00B000A0011C011401380134014C011C0080019C019401B8019001A401B401E8008000C800C400A4014E3D003C004900460028004900530042004C0041004E004B00280048006F006C0065004900740065006D0029002C004F0072006900670069006E002C00200048006F006C0065004900740065006D0029003E00
311
3C004900460028004900530042004C0041004E004B00280048006F006C0065004900740065006D0029002C00220022002C00200048006F006C00650049006E0064006500780029003E00CC
161
              6822
310
631211A9010300002E07A17AD46E2F8FE00800030C01010300002E07A17AD46E2F8FE00800030C0004078000C000000000000000000000000000000007B14AE47E17AA43F2E07A17AD46E2F8FE00800030C007B14AE47E17AA43F2E07A17AD46E2F8FE00800030C02010101E0003000000000000000000000000000000001E
310
C52B91F85EA90FCB81E85EB51B8BE3F8020000C3001EC52B91F85EA90FCB81E85EB51B8BE3F8020000C3008050E4410F4450240D0441507431014391244D154151241D144310D4400004040004041000885000080800080820010FA00010101010104002234000202000202000040A8000404000404000081D000080800080
310
8000104A000101000101030020B4000202000202020041E800040400040010008650000808000808280501A0001010001010500A1D4000202000202080044A8000404000404140089D0000808000808280115A0001010001010600229400020200020008004369100067FFFFFFF801353333333333D27F3FFFFFFFC0C9A999
310
9999999E93F9FFFFFFFE024D4CCCCCCCCCF49FCFFFFFFFF0126A6666666667A4FE7FFFFFFF811353333333333D27F3FFFFFFFC089A9999999999E93F9FFFFFFFE06CFFFFFFFF03000000000000001027FFFFFFF801353333333333B27F3FFFFFFFC009A9999999999E93F9FFFFFFFE004D4CCCCCCCCCF49FCFFFFFFFF0026A
310
6666666667A4FE7FFFFFFF801353333333333D27F3FFFFFFFC0CB81E85EB51B8DE3F9FFFFFFFE0633B33333333303204FFFFFFFF440019FFFFFFFE004D4CCCCCCCCCF49FCFFFFFFFF0326A6666666667A4FE7FFFFFFF819353333333333D27F3FFFFFFFC0C9A9999999999E93F9FFFFFFFE064D4CCCCCCCCCF49FCFFFFFFFF
310
0326A6666666667A4FE7FFFFFFF81B3FFFFFFFC0C00000000000000409FFFFFFFE004D4CCCCCCCCCEC9FCFFFFFFFF0026A6666666667A4FE7FFFFFFF819353333333333D27F3FFFFFFFC009A9999999999E93F9FFFFFFFE004D4CCCCCCCCCF49FCFFFFFFFF032E07A17AD46E378FE7FFFFFFF818CECCCCCCCCCC0C813FFFFF
310
FFD044400000010F000000448000001130000004110700010044800000103000100408000400FFFFFFFF4090100014111000000043C0000011200000044C0000010300004111000000043C00000112000000454000000FFFFFFFF8
340
0
340
0
340
0
340
0
340
AD8
340
AD8
 94
        0
  0
ACAD_PROXY_OBJECT
  5
AFD
330
ACA
100
AcDbProxyObject
 90
      499
 91
      573
 95
    65563
 70
     0
162
             10564
311
411040138014C0124010641004E00530049005F004300429040138014C0124017C0150012401500154014C011541004E00530049005F00540052005F005200650076006900730069006F006E006C0069007300740061004450C008000A000C400DC00B800C001E000C800C800B800C001A401B8018C01A000A4010641004E0
311
0530049005F00430044518008000A000C800E000B800C001E000D000C000B800C001A401B8018C01A000A4010641004E00530049005F00460044508008000A000C400C400B800C001E000C400DC00B800C001A401B8018C01A000A4010641004E00530049005F00420044510008000A000C800C800B800C001E000CC00D000
311
B800C001A401B8018C01A000A4010641004E00530049005F00440044514008000A000CC00D000B800C001E000D000D000B800C001A401B8018C01A000A4010641004E00530049005F00450044104008000A000E000B800D401E000C400C400B800C001A401B8018C01A000A4010641004E00530049005F00410043954014C0
311
080015001A401D001B001940080010801B001BC018C01AC010A41004E00530049005F005400490054005500530044D0401B801CC01A40080015001A401D001B001940080010801B001BC018C01AC00800110010C010C41004E00530049005F005400490054004C0045004400430044D0401B801CC01A40080015001A401D00
311
1B001940080010801B001BC018C01AC00800104010C010C41004E00530049005F005400490054004C004500410043004490401B801CC01A40080015001A401D001B001940080010801B001BC018C01AC00800104010B41004E00530049005F005400490054004C00450041004490401B801CC01A40080015001A401D001B00
311
1940080010801B001BC018C01AC00800110010B41004E00530049005F005400490054004C004500440044948019401D801A401CC01A401BC01B801B001A401CC01D000800104017C01080148017C011541004E00530049005F00420052005F005200650076006900730069006F006E006C0069007300740061004494801940
311
1D801A401CC01A401BC01B801B001A401CC01D000800104017C01500148017C011541004E00530049005F00540052005F005200650076006900730069006F006E006C00690073007400610044948019401D801A401CC01A401BC01B801B001A401CC01D000800110017C01080148017C011541004E00530049005F00420052
311
005F005200650076006900730069006F006E006C00690073007400640044948019401D801A401CC01A401BC01B801B001A401CC01D000800110017C01500148017C011541004E00530049005F00540052005F005200650076006900730069006F006E006C00690073007400640044948019401D801A401CC01A401BC01B801
311
B001A401CC01D000800104017C01080130017C011541004E00530049005F0042004C005F005200650076006900730069006F006E006C00690073007400610044948019401D801A401CC01A401BC01B801B001A401CC01D000800104017C01500130017C011541004E00530049005F0054004C005F005200650076006900730
311
069006F006E006C00690073007400610044948019401D801A401CC01A401BC01B801B001A401CC01D000800110017C01080130017C011541004E00530049005F0042004C005F005200650076006900730069006F006E006C00690073007400640044948019401D801A401CC01A401BC01B801B001A401CC01D000800110017
311
C01500130017C011541004E00530049005F0054004C005F005200650076006900730069006F006E006C006900730074006400C
161
                50
310
6319741905420C
 94
        0
  0
ACAD_PROXY_OBJECT
  5
AEE
330
0
100
AcDbProxyObject
 90
      499
 91
      569
 95
    65563
 70
     0
162
              4364
311
42950019401B401C001B0018401D00194008000C40005013D003C0069006600280065007100750061006C00280048006F006C0065003A007400610070007000650064002C0022003000220029002C00220025002500630022002C0048006F006C0065003A006E006F006D0069006E0061006C0020002200200022002000690
311
06600280065007100750061006C00280048006F006C0065003A0075006E006900740073002C0022003100220029002C002200780022002C0022002D0022002900200022002000220029003E003C0069006600280065007100750061006C00280048006F006C0065003A007400610070007000650064002C002200300022002
311
9002C0048006F006C0065003A006400690061002C0048006F006C0065003A0070006900740063006800640065007300630029003E0020007B005C00460041004D004700440054003B0078007D0020003C0069006600280065007100750061006C00280048006F006C0065003A007400650072006D0069006E0061007400690
311
06F006E002C0022003000220029002C0048006F006C0065003A00640065007000740068002C0022005400480052005500220029003E005C0050007B005C00460041004D004700440054003B0076007D002500250063003C0048006F006C0065003A00630074006400690061003E0020007B005C00460041004D00470044005
311
4003B0078007D0020003C0048006F006C0065003A0063007400640065007000740068003E00C
161
                28
310
6320101C
 94
        0
  0
ACAD_PROXY_OBJECT
  5
AEF
330
0
100
AcDbProxyObject
 90
      499
 91
      569
 95
    65563
 70
     0
162
              4244
311
42950019401B401C001B0018401D00194008000C401FE3D003C0069006600280065007100750061006C00280048006F006C0065003A007400610070007000650064002C0022003000220029002C00220025002500630022002C0048006F006C0065003A006E006F006D0069006E0061006C002000220020002200200069006
311
600280065007100750061006C00280048006F006C0065003A0075006E006900740073002C0022003100220029002C002200780022002C0022002D0022002900200022002000220029003E003C0069006600280065007100750061006C00280048006F006C0065003A007400610070007000650064002C00220030002200290
311
02C0048006F006C0065003A006400690061002C0048006F006C0065003A0070006900740063006800640065007300630029003E0020007B005C00460041004D004700440054003B0078007D0020003C0069006600280065007100750061006C00280048006F006C0065003A007400650072006D0069006E006100740069006
311
F006E002C0022003000220029002C0048006F006C0065003A00640065007000740068002C0022005400480052005500220029003E005C0050007B005C00460041004D004700440054003B0077007D002500250063003C0048006F006C0065003A00630074006400690061003E002000580020003C0048006F006C0065003A0
311
06300740061006E0067006C0065003E00250025006400C
161
                28
310
6320101C
 94
        0
  0
ACAD_PROXY_OBJECT
  5
AED
330
0
100
AcDbProxyObject
 90
      499
 91
      569
 95
    65563
 70
     0
162
              3492
311
42950019401B401C001B0018401D00194008000C401CF3D003C0069006600280065007100750061006C00280048006F006C0065003A007400610070007000650064002C0022003000220029002C00220025002500630022002C0048006F006C0065003A006E006F006D0069006E0061006C002000220020002200200069006
311
600280065007100750061006C00280048006F006C0065003A0075006E006900740073002C0022003100220029002C002200780022002C0022002D0022002900200022002000220029003E003C0069006600280065007100750061006C00280048006F006C0065003A007400610070007000650064002C00220030002200290
311
02C0048006F006C0065003A006400690061002C0048006F006C0065003A0070006900740063006800640065007300630029003E005C0050007B005C00460041004D004700440054003B0078007D0020003C0069006600280065007100750061006C00280048006F006C0065003A007400650072006D0069006E00610074006
311
9006F006E002C0022003000220029002C0048006F006C0065003A00640065007000740068002C0022005400480052005500220029003E00C
161
                28
310
6320101C
 94
        0
  0
ACAD_PROXY_OBJECT
  5
AEB
330
0
100
AcDbProxyObject
 90
      499
 91
      569
 95
    65563
 70
     0
162
               548
311
42950019401B401C001B0018401D00194008000C801173D003C0053005400440050003A0044004500530043003E0020003C0053005400440050003A005300540044003E00C
161
                28
310
6320101C
 94
        0
  0
ACAD_PROXY_OBJECT
  5
AEA
330
0
100
AcDbProxyObject
 90
      499
 91
      569
 95
    65563
 70
     0
162
               372
311
42950019401B401C001B0018401D00194008000C4010C3D003C0053005400440050003A0044004500530043003E00C
161
                28
310
6320101C
 94
        0
  0
ACAD_PROXY_OBJECT
  5
AEC
330
0
100
AcDbProxyObject
 90
      499
 91
      569
 95
    65563
 70
     0
162
               356
311
42950019401B401C001B0018401D00194008000CC010B3D003C0053005400440050003A005300540044003E00C
161
                28
310
6320101C
 94
        0
  0
ENDSEC
  0
EOF
