  0
SECTION
  2
HEADER
  9
$ACADVER
  1
AC1024
  9
$ACADMAINTVER
 70
    37
  9
$DWGCODEPAGE
  3
ANSI_1252
  9
$LASTSAVEDBY
  1
jtigges
  9
$INSBASE
 10
0.0
 20
0.0
 30
0.0
  9
$EXTMIN
 10
-0.0013872384801914
 20
-0.0023011825535662
 30
-0.0000000000000058
  9
$EXTMAX
 10
64.00295401517144
 20
41.75145542181428
 30
0.0000000000000104
  9
$LIMMIN
 10
0.0
 20
0.0
  9
$LIMMAX
 10
12.0
 20
9.0
  9
$ORTHOMODE
 70
     0
  9
$REGENMODE
 70
     1
  9
$FILLMODE
 70
     1
  9
$QTEXTMODE
 70
     0
  9
$MIRRTEXT
 70
     1
  9
$LTSCALE
 40
1.0
  9
$ATTMODE
 70
     1
  9
$TEXTSIZE
 40
0.2
  9
$TRACEWID
 40
0.05
  9
$TEXTSTYLE
  7
STANDARD
  9
$CLAYER
  8
0
  9
$CELTYPE
  6
BYLAYER
  9
$CECOLOR
 62
   256
  9
$CELTSCALE
 40
1.0
  9
$DISPSILH
 70
     0
  9
$DIMSCALE
 40
1.0
  9
$DIMASZ
 40
0.1875
  9
$DIMEXO
 40
0.1875
  9
$DIMDLI
 40
0.375
  9
$DIMRND
 40
0.0
  9
$DIMDLE
 40
0.0
  9
$DIMEXE
 40
0.09375
  9
$DIMTP
 40
0.0
  9
$DIMTM
 40
0.0
  9
$DIMTXT
 40
0.1875
  9
$DIMCEN
 40
0.09375
  9
$DIMTSZ
 40
0.0
  9
$DIMTOL
 70
     0
  9
$DIMLIM
 70
     0
  9
$DIMTIH
 70
     1
  9
$DIMTOH
 70
     1
  9
$DIMSE1
 70
     0
  9
$DIMSE2
 70
     0
  9
$DIMTAD
 70
     0
  9
$DIMZIN
 70
     0
  9
$DIMBLK
  1

  9
$DIMASO
 70
     1
  9
$DIMSHO
 70
     1
  9
$DIMPOST
  1

  9
$DIMAPOST
  1

  9
$DIMALT
 70
     0
  9
$DIMALTD
 70
     2
  9
$DIMALTF
 40
25.4
  9
$DIMLFAC
 40
1.0
  9
$DIMTOFL
 70
     0
  9
$DIMTVP
 40
0.0
  9
$DIMTIX
 70
     0
  9
$DIMSOXD
 70
     0
  9
$DIMSAH
 70
     0
  9
$DIMBLK1
  1

  9
$DIMBLK2
  1

  9
$DIMSTYLE
  2
STANDARD
  9
$DIMCLRD
 70
     0
  9
$DIMCLRE
 70
     0
  9
$DIMCLRT
 70
     0
  9
$DIMTFAC
 40
0.5
  9
$DIMGAP
 40
0.1875
  9
$DIMJUST
 70
     0
  9
$DIMSD1
 70
     0
  9
$DIMSD2
 70
     0
  9
$DIMTOLJ
 70
     1
  9
$DIMTZIN
 70
     0
  9
$DIMALTZ
 70
     0
  9
$DIMALTTZ
 70
     0
  9
$DIMUPT
 70
     0
  9
$DIMDEC
 70
     5
  9
$DIMTDEC
 70
     4
  9
$DIMALTU
 70
     2
  9
$DIMALTTD
 70
     2
  9
$DIMTXSTY
  7
STANDARD
  9
$DIMAUNIT
 70
     0
  9
$DIMADEC
 70
     0
  9
$DIMALTRND
 40
0.0
  9
$DIMAZIN
 70
     0
  9
$DIMDSEP
 70
    46
  9
$DIMATFIT
 70
     0
  9
$DIMFRAC
 70
     2
  9
$DIMLDRBLK
  1

  9
$DIMLUNIT
 70
     5
  9
$DIMLWD
 70
    -2
  9
$DIMLWE
 70
    -2
  9
$DIMTMOVE
 70
     0
  9
$DIMFXL
 40
1.0
  9
$DIMFXLON
 70
     0
  9
$DIMJOGANG
 40
0.7853981633974483
  9
$DIMTFILL
 70
     0
  9
$DIMTFILLCLR
 70
     0
  9
$DIMARCSYM
 70
     0
  9
$DIMLTYPE
  6

  9
$DIMLTEX1
  6

  9
$DIMLTEX2
  6

  9
$DIMTXTDIRECTION
 70
     0
  9
$LUNITS
 70
     5
  9
$LUPREC
 70
     5
  9
$SKETCHINC
 40
0.1
  9
$FILLETRAD
 40
0.0
  9
$AUNITS
 70
     0
  9
$AUPREC
 70
     1
  9
$MENU
  1
acad
  9
$ELEVATION
 40
0.0
  9
$PELEVATION
 40
0.0
  9
$THICKNESS
 40
0.0
  9
$LIMCHECK
 70
     0
  9
$CHAMFERA
 40
0.0
  9
$CHAMFERB
 40
0.0
  9
$CHAMFERC
 40
0.0
  9
$CHAMFERD
 40
0.0
  9
$SKPOLY
 70
     0
  9
$TDCREATE
 40
2450035.177149537
  9
$TDUCREATE
 40
2450035.427149537
  9
$TDUPDATE
 40
2456722.319494838
  9
$TDUUPDATE
 40
2456722.569494838
  9
$TDINDWG
 40
0.0205113079
  9
$TDUSRTIMER
 40
0.0205113079
  9
$USRTIMER
 70
     1
  9
$ANGBASE
 50
0.0
  9
$ANGDIR
 70
     0
  9
$PDMODE
 70
     0
  9
$PDSIZE
 40
0.0
  9
$PLINEWID
 40
0.0
  9
$SPLFRAME
 70
     0
  9
$SPLINETYPE
 70
     6
  9
$SPLINESEGS
 70
     8
  9
$HANDSEED
  5
D51
  9
$SURFTAB1
 70
     6
  9
$SURFTAB2
 70
     6
  9
$SURFTYPE
 70
     6
  9
$SURFU
 70
     6
  9
$SURFV
 70
     6
  9
$UCSBASE
  2

  9
$UCSNAME
  2

  9
$UCSORG
 10
0.0
 20
0.0
 30
0.0
  9
$UCSXDIR
 10
1.0
 20
0.0
 30
0.0
  9
$UCSYDIR
 10
0.0
 20
1.0
 30
0.0
  9
$UCSORTHOREF
  2

  9
$UCSORTHOVIEW
 70
     0
  9
$UCSORGTOP
 10
0.0
 20
0.0
 30
0.0
  9
$UCSORGBOTTOM
 10
0.0
 20
0.0
 30
0.0
  9
$UCSORGLEFT
 10
0.0
 20
0.0
 30
0.0
  9
$UCSORGRIGHT
 10
0.0
 20
0.0
 30
0.0
  9
$UCSORGFRONT
 10
0.0
 20
0.0
 30
0.0
  9
$UCSORGBACK
 10
0.0
 20
0.0
 30
0.0
  9
$PUCSBASE
  2

  9
$PUCSNAME
  2

  9
$PUCSORG
 10
0.0
 20
0.0
 30
0.0
  9
$PUCSXDIR
 10
1.0
 20
0.0
 30
0.0
  9
$PUCSYDIR
 10
0.0
 20
1.0
 30
0.0
  9
$PUCSORTHOREF
  2

  9
$PUCSORTHOVIEW
 70
     0
  9
$PUCSORGTOP
 10
0.0
 20
0.0
 30
0.0
  9
$PUCSORGBOTTOM
 10
0.0
 20
0.0
 30
0.0
  9
$PUCSORGLEFT
 10
0.0
 20
0.0
 30
0.0
  9
$PUCSORGRIGHT
 10
0.0
 20
0.0
 30
0.0
  9
$PUCSORGFRONT
 10
0.0
 20
0.0
 30
0.0
  9
$PUCSORGBACK
 10
0.0
 20
0.0
 30
0.0
  9
$USERI1
 70
     0
  9
$USERI2
 70
     0
  9
$USERI3
 70
     0
  9
$USERI4
 70
     0
  9
$USERI5
 70
     0
  9
$USERR1
 40
0.0
  9
$USERR2
 40
0.0
  9
$USERR3
 40
0.0
  9
$USERR4
 40
0.0
  9
$USERR5
 40
0.0
  9
$WORLDVIEW
 70
     1
  9
$SHADEDGE
 70
     3
  9
$SHADEDIF
 70
    70
  9
$TILEMODE
 70
     1
  9
$MAXACTVP
 70
    16
  9
$PINSBASE
 10
0.0
 20
0.0
 30
0.0
  9
$PLIMCHECK
 70
     0
  9
$PEXTMIN
 10
1.000000000000000E+20
 20
1.000000000000000E+20
 30
1.000000000000000E+20
  9
$PEXTMAX
 10
-1.000000000000000E+20
 20
-1.000000000000000E+20
 30
-1.000000000000000E+20
  9
$PLIMMIN
 10
0.0
 20
0.0
  9
$PLIMMAX
 10
12.0
 20
9.0
  9
$UNITMODE
 70
     0
  9
$VISRETAIN
 70
     0
  9
$PLINEGEN
 70
     0
  9
$PSLTSCALE
 70
     1
  9
$TREEDEPTH
 70
  3020
  9
$CMLSTYLE
  2
STANDARD
  9
$CMLJUST
 70
     0
  9
$CMLSCALE
 40
1.0
  9
$PROXYGRAPHICS
 70
     1
  9
$MEASUREMENT
 70
     0
  9
$CELWEIGHT
370
    -1
  9
$ENDCAPS
280
     0
  9
$JOINSTYLE
280
     0
  9
$LWDISPLAY
290
     0
  9
$INSUNITS
 70
     0
  9
$HYPERLINKBASE
  1

  9
$STYLESHEET
  1

  9
$XEDIT
290
     1
  9
$CEPSNTYPE
380
     0
  9
$PSTYLEMODE
290
     1
  9
$FINGERPRINTGUID
  2
{6144EAEA-2429-43AC-A6E7-4FCBB31F256D}
  9
$VERSIONGUID
  2
{192DE29E-5F56-4B4D-A5FA-91CC9D5282B0}
  9
$EXTNAMES
290
     1
  9
$PSVPSCALE
 40
0.0
  9
$OLESTARTUP
290
     0
  9
$SORTENTS
280
   127
  9
$INDEXCTL
280
     0
  9
$HIDETEXT
280
     0
  9
$XCLIPFRAME
280
     0
  9
$HALOGAP
280
     0
  9
$OBSCOLOR
 70
   257
  9
$OBSLTYPE
280
     0
  9
$INTERSECTIONDISPLAY
280
     0
  9
$INTERSECTIONCOLOR
 70
   257
  9
$DIMASSOC
280
     1
  9
$PROJECTNAME
  1

  9
$CAMERADISPLAY
290
     0
  9
$LENSLENGTH
 40
50.0
  9
$CAMERAHEIGHT
 40
0.0
  9
$STEPSPERSEC
 40
2.0
  9
$STEPSIZE
 40
6.0
  9
$3DDWFPREC
 40
2.0
  9
$PSOLWIDTH
 40
0.25
  9
$PSOLHEIGHT
 40
4.0
  9
$LOFTANG1
 40
1.570796326794896
  9
$LOFTANG2
 40
1.570796326794896
  9
$LOFTMAG1
 40
0.0
  9
$LOFTMAG2
 40
0.0
  9
$LOFTPARAM
 70
     7
  9
$LOFTNORMALS
280
     1
  9
$LATITUDE
 40
37.795
  9
$LONGITUDE
 40
-122.394
  9
$NORTHDIRECTION
 40
0.0
  9
$TIMEZONE
 70
 -8000
  9
$LIGHTGLYPHDISPLAY
280
     1
  9
$TILEMODELIGHTSYNCH
280
     1
  9
$CMATERIAL
347
C52
  9
$SOLIDHIST
280
     1
  9
$SHOWHIST
280
     1
  9
$DWFFRAME
280
     2
  9
$DGNFRAME
280
     0
  9
$REALWORLDSCALE
290
     1
  9
$INTERFERECOLOR
 62
     1
  9
$INTERFEREOBJVS
345
C5F
  9
$INTERFEREVPVS
346
D21
  9
$CSHADOW
280
     0
  9
$SHADOWPLANELOCATION
 40
0.0
  0
ENDSEC
  0
SECTION
  2
CLASSES
  0
CLASS
  1
ACDBDICTIONARYWDFLT
  2
AcDbDictionaryWithDefault
  3
ObjectDBX Classes
 90
        0
 91
        1
280
     0
281
     0
  0
CLASS
  1
TABLESTYLE
  2
AcDbTableStyle
  3
ObjectDBX Classes
 90
     4095
 91
        1
280
     0
281
     0
  0
CLASS
  1
DICTIONARYVAR
  2
AcDbDictionaryVar
  3
ObjectDBX Classes
 90
        0
 91
        9
280
     0
281
     0
  0
CLASS
  1
ACDBPLACEHOLDER
  2
AcDbPlaceHolder
  3
ObjectDBX Classes
 90
        0
 91
        1
280
     0
281
     0
  0
CLASS
  1
LAYOUT
  2
AcDbLayout
  3
ObjectDBX Classes
 90
        0
 91
        2
280
     0
281
     0
  0
CLASS
  1
MATERIAL
  2
AcDbMaterial
  3
ObjectDBX Classes
 90
     1153
 91
        3
280
     0
281
     0
  0
CLASS
  1
VISUALSTYLE
  2
AcDbVisualStyle
  3
ObjectDBX Classes
 90
     4095
 91
       26
280
     0
281
     0
  0
CLASS
  1
ACME_DOCUMENT
  2
AcMeDbDoc
  3
AcMeServices
 90
        0
 91
        0
280
     0
281
     0
  0
CLASS
  1
AMGSETTINGSOBJ
  2
AmgSettingsObj
  3
"AcadM|Product Description: AutoCAD Mechanical|Company: Autodesk"
 90
        0
 91
        2
280
     0
281
     0
  0
CLASS
  1
ACMESCOPE
  2
AcMeScope
  3
AcMeServices
 90
        0
 91
        1
280
     0
281
     0
  0
CLASS
  1
ACMECOMMANDHISTORY
  2
AcMeCommandHistory
  3
AcMeServices
 90
        0
 91
        1
280
     0
281
     0
  0
CLASS
  1
ACIMSYSVARMAN
  2
AcImSysVarManager
  3
AcMeServices
 90
        0
 91
        5
280
     0
281
     0
  0
CLASS
  1
ACIMINTSYSVAR
  2
AcImIntSysVar
  3
AcMeServices
 90
        0
 91
       27
280
     0
281
     0
  0
CLASS
  1
ACMEDRAWINGMAN
  2
AcMeDrawingMan
  3
AcMeServices
 90
        0
 91
        1
280
     0
281
     0
  0
CLASS
  1
ACMEVIEW
  2
AcMeView
  3
AcMeServices
 90
        0
 91
        1
280
     0
281
     0
  0
CLASS
  1
ACDBENTITYCACHE
  2
AcMeEntityCache
  3
AcMeServices
 90
        0
 91
        0
280
     0
281
     0
  0
CLASS
  1
GSMANAGER
  2
AcMeGSManager
  3
AcMeServices
 90
        0
 91
        0
280
     0
281
     0
  0
CLASS
  1
AMDTINTERNALREACTOR
  2
AmdtInternalReactor
  3
AcMeServices
 90
        0
 91
        0
280
     0
281
     0
  0
CLASS
  1
ACMESTATEMGR
  2
AcMeStateMgr
  3
AcMeServices
 90
        0
 91
        1
280
     0
281
     0
  0
CLASS
  1
ACGREFMASTER
  2
AcGrefMaster
  3
AcAttribServices
 90
        0
 91
        1
280
     0
281
     0
  0
CLASS
  1
AM_DRAWING_MGR
  2
AcDmDwgMgr
  3
AcMechDwgViewMgmt
 90
        0
 91
        1
280
     0
281
     0
  0
CLASS
  1
AM_DWG_DOCUMENT
  2
AcDmDwgDocument
  3
AcMechDwgViewMgmt
 90
        0
 91
        1
280
     0
281
     0
  0
CLASS
  1
AM_DWG_SHEET
  2
AcDmSheet
  3
AcMechDwgViewMgmt
 90
        0
 91
        1
280
     0
281
     0
  0
CLASS
  1
AM_VIEWDIMPARMAP
  2
AcDmViewDimParMap
  3
AcMechDwgViewMgmt
 90
        0
 91
        1
280
     0
281
     0
  0
CLASS
  1
ACIMREALSYSVAR
  2
AcImRealSysVar
  3
AcMeServices
 90
        0
 91
        1
280
     0
281
     0
  0
CLASS
  1
AM_DWGMGR_NAME
  2
AcDmDwgMgrName
  3
AcMechDwgViewMgmt
 90
        0
 91
        1
280
     0
281
     0
  0
CLASS
  1
ACME_DATABASE
  2
AcMeDbDatabase
  3
AcMeServices
 90
        0
 91
        0
280
     0
281
     0
  0
CLASS
  1
ACRFINSADJUSTERMGR
  2
AcRfInsAdjusterMgr
  3
AcMeServices
 90
        0
 91
        0
280
     0
281
     0
  0
CLASS
  1
ACGREFACADMASTER
  2
AcGrefacadMaster
  3
AcGrefServices
 90
        0
 91
        1
280
     0
281
     0
  0
CLASS
  1
AMDTMENUSTATEMGR
  2
AmdtMenuStateMgr
  3
McadcomServices
 90
        0
 91
        0
280
     0
281
     0
  0
CLASS
  1
AMDTMCOMMENUSTATE
  2
AmdtMcomMenuState
  3
McadcomServices
 90
        0
 91
        0
280
     0
281
     0
  0
CLASS
  1
AMIMASTER
  2
AmiMaster
  3
AmiServices
 90
        0
 91
        1
280
     0
281
     0
  0
CLASS
  1
MAPIAMMOUDLE
  2
MApiAmModule
  3
MApiAmServices
 90
        0
 91
        1
280
     0
281
     0
  0
CLASS
  1
ACIMSTRSYSVAR
  2
AcImStrSysVar
  3
AcMeServices
 90
        0
 91
        5
280
     0
281
     0
  0
CLASS
  1
AMDTADMENUSTATE
  2
AmdtAdMenuState
  3
DesignerServices
 90
        0
 91
        0
280
     0
281
     0
  0
CLASS
  1
ADAPPL
  2
AcAdAppl
  3
DesignerServices
 90
        0
 91
        1
280
     0
281
     0
  0
CLASS
  1
DEPMGR
  2
AcAdDepMgr
  3
DesignerServices
 90
        0
 91
        1
280
     0
281
     0
  0
CLASS
  1
PARAMMGR
  2
AcAdParamMgr
  3
DesignerServices
 90
        0
 91
        1
280
     0
281
     0
  0
CLASS
  1
PARAMSCOPE
  2
AcAdParamScope
  3
DesignerServices
 90
        0
 91
        1
280
     0
281
     0
  0
CLASS
  1
NAMEDAPPL
  2
AcAdNamedAppl
  3
DesignerServices
 90
        0
 91
        1
280
     0
281
     0
  0
CLASS
  1
AMDTDMMENUSTATE
  2
AmdtDmMenuState
  3
AcMechDwgViewMgmt
 90
        0
 91
        0
280
     0
281
     0
  0
CLASS
  1
AMDTAMMENUSTATE
  2
AmdtAmMenuState
  3
DesignerAssemblies
 90
        0
 91
        0
280
     0
281
     0
  0
CLASS
  1
ACAMPROJECT
  2
AcAmProject
  3
DesignerAssemblies
 90
        0
 91
        1
280
     0
281
     0
  0
CLASS
  1
ACAMGRCOMPDEF
  2
AcAmGrCompDef
  3
DesignerAssemblies
 90
        0
 91
        1
280
     0
281
     0
  0
CLASS
  1
ACCMCONTEXT
  2
AcCmContext
  3
DesignerAssemblies
 90
        0
 91
        1
280
     0
281
     0
  0
CLASS
  1
ACAMCOMPDEF
  2
AcAmCompDef
  3
DesignerAssemblies
 90
        0
 91
        1
280
     0
281
     0
  0
CLASS
  1
ACAMCOMPDEFMGR
  2
AcAmCompDefMgr
  3
DesignerAssemblies
 90
        0
 91
        1
280
     0
281
     0
  0
CLASS
  1
AMCONTEXTMGR
  2
AcAmContextMgr
  3
DesignerAssemblies
 90
        0
 91
        1
280
     0
281
     0
  0
CLASS
  1
ACAMCONTEXTMODELER
  2
AcAmContextModeler
  3
DesignerAssemblies
 90
        0
 91
        1
280
     0
281
     0
  0
CLASS
  1
ACMDATADICTIONARY
  2
AcmDataDictionary
  3
"AcmSymBB|Product Description: AutoCAD Mechanical|Company: Autodesk"
 90
        0
 91
        1
280
     0
281
     0
  0
CLASS
  1
CATALOGSTATE
  2
AcAmCatalogState
  3
DesignerAssemblies
 90
        0
 91
        1
280
     0
281
     0
  0
CLASS
  1
ACAMGRCOMPDEFSET
  2
AcAmGrCompDefSet
  3
DesignerAssemblies
 90
        0
 91
        0
280
     0
281
     0
  0
CLASS
  1
AMDTBROWSERDBTAB
  2
AmdtBrowserDbTab
  3
McadcomServices
 90
        0
 91
        0
280
     0
281
     0
  0
CLASS
  1
CBROWSERAPPOBJECT
  2
CBrowserAppObject
  3
McadcomServices
 90
        0
 91
        0
280
     0
281
     0
  0
CLASS
  1
DM_PLACEHOLDER
  2
AcDmSelsetPlaceholder
  3
AcMechDwgViewMgmt
 90
        0
 91
        0
280
     0
281
     0
  0
CLASS
  1
ACMSTANDARDANSI
  2
AcmStandardANSI
  3
"Amdt_StdImp|Product Description: AutoCAD Mechanical|Company: Autodesk"
 90
        0
 91
        1
280
     0
281
     0
  0
CLASS
  1
AMGOBJPROPCFG
  2
AmgObjPropCfg
  3
"AmgLay|Product Description: AutoCAD Mechanical|Company: Autodesk"
 90
        1
 91
        1
280
     0
281
     0
  0
CLASS
  1
ACMSURFSTANDARDANSI
  2
AcmSurfTextStdANSI
  3
"Amdt_StdImp|Product Description: AutoCAD Mechanical|Company: Autodesk"
 90
        0
 91
        1
280
     0
281
     0
  0
CLASS
  1
ACMFCFSTANDARDANSI
  2
AcmFCFStdANSI
  3
"Amdt_StdImp|Product Description: AutoCAD Mechanical|Company: Autodesk"
 90
        0
 91
        1
280
     0
281
     0
  0
CLASS
  1
ACMWELDSTANDARDANSI
  2
AcmWeldingStdANSI
  3
"Amdt_StdImp|Product Description: AutoCAD Mechanical|Company: Autodesk"
 90
        0
 91
        1
280
     0
281
     0
  0
CLASS
  1
ACMIDSTANDARDANSI
  2
AcmIdStdANSI
  3
"Amdt_StdImp|Product Description: AutoCAD Mechanical|Company: Autodesk"
 90
        0
 91
        1
280
     0
281
     0
  0
CLASS
  1
ACMDATUMSTANDARDANSI
  2
AcmDatumStdANSI
  3
"Amdt_StdImp|Product Description: AutoCAD Mechanical|Company: Autodesk"
 90
        0
 91
        1
280
     0
281
     0
  0
CLASS
  1
ACMBOMSTANDARDANSI
  2
AcmBOMStdANSI
  3
"Amdt_StdImp|Product Description: AutoCAD Mechanical|Company: Autodesk"
 90
        0
 91
        1
280
     0
281
     0
  0
CLASS
  1
ACMDETAILSTANDARDANSI
  2
AmdtDetailSymStdANSI
  3
"Amdt_StdImp|Product Description: AutoCAD Mechanical|Company: Autodesk"
 90
        0
 91
        1
280
     0
281
     0
  0
CLASS
  1
ACMSECTIONSTANDARDANSI
  2
AmdtSectionSymStdANSI
  3
"Amdt_StdImp|Product Description: AutoCAD Mechanical|Company: Autodesk"
 90
        0
 91
        1
280
     0
281
     0
  0
CLASS
  1
ACMCENTERLINESTANDARDANSI
  2
AmdtCenterLineStdANSI
  3
"Amdt_StdImp|Product Description: AutoCAD Mechanical|Company: Autodesk"
 90
        0
 91
        1
280
     0
281
     0
  0
CLASS
  1
ACMTHREADLINESTANDARDANSI
  2
AmdtThreadLineStdANSI
  3
"Amdt_StdImp|Product Description: AutoCAD Mechanical|Company: Autodesk"
 90
        0
 91
        1
280
     0
281
     0
  0
CLASS
  1
ACMNOTESTANDARDANSI
  2
AmdtNoteStdANSI
  3
"Amdt_StdImp|Product Description: AutoCAD Mechanical|Company: Autodesk"
 90
        0
 91
        1
280
     0
281
     0
  0
CLASS
  1
ACMTAPERSTANDARDANSI
  2
AcmTaperStdANSI
  3
"Amdt_StdImp|Product Description: AutoCAD Mechanical|Company: Autodesk"
 90
        0
 91
        1
280
     0
281
     0
  0
CLASS
  1
AMDTNOTETEMPLATEDB
  2
AmdtNoteTemplateDB
  3
AMDT_STDIMP_MODULE_NAME
 90
        0
 91
        6
280
     0
281
     0
  0
CLASS
  1
ACAMGLAYSTD
  2
AcAmgLayStd
  3
"AmgLay|Product Description: AutoCAD Mechanical|Company: Autodesk"
 90
        0
 91
        1
280
     0
281
     0
  0
CLASS
  1
ACAMGDIMSTD
  2
AcAmgDimStd
  3
"AmgDim|Product Description: AutoCAD Mechanical|Company: Autodesk"
 90
        0
 91
        1
280
     0
281
     0
  0
CLASS
  1
ACAMGHOLECHARTSTDANSI
  2
AcAmgHoleChartStdANSI
  3
ACMSYMBB_MODULE_NAME
 90
        0
 91
        1
280
     0
281
     0
  0
CLASS
  1
ACAMGTITLESTD
  2
AcAmgTitleStd
  3
"AmgTitle|Product Description: AutoCAD Mechanical|Company: Autodesk"
 90
        0
 91
        1
280
     0
281
     0
  0
CLASS
  1
ACAMGFILTERDAT
  2
AcAmgFilterDat
  3
"AcadM|Product Description: AutoCAD Mechanical|Company: Autodesk"
 90
        0
 91
        6
280
     0
281
     0
  0
CLASS
  1
SORTENTSTABLE
  2
AcDbSortentsTable
  3
ObjectDBX Classes
 90
        0
 91
        0
280
     0
281
     0
  0
CLASS
  1
CAMSSTRUCTBTNSTATE
  2
StructBtnState
  3
L"DesignerAssemblies"
 90
        0
 91
        1
280
     0
281
     0
  0
CLASS
  1
SCALE
  2
AcDbScale
  3
ObjectDBX Classes
 90
     1153
 91
       17
280
     0
281
     0
  0
CLASS
  1
MLEADERSTYLE
  2
AcDbMLeaderStyle
  3
ACDB_MLEADERSTYLE_CLASS
 90
     4095
 91
        1
280
     0
281
     0
  0
CLASS
  1
CELLSTYLEMAP
  2
AcDbCellStyleMap
  3
ObjectDBX Classes
 90
     1152
 91
        1
280
     0
281
     0
  0
ENDSEC
  0
SECTION
  2
TABLES
  0
TABLE
  2
VPORT
  5
8
330
0
100
AcDbSymbolTable
 70
     1
  0
VPORT
  5
C49
330
8
100
AcDbSymbolTableRecord
100
AcDbViewportTableRecord
  2
*Active
 70
     0
 10
0.0
 20
0.0
 11
1.0
 21
1.0
 12
32.00078338834563
 22
20.87457711963036
 13
0.0
 23
0.0
 14
1.0
 24
1.0
 15
0.0
 25
0.0
 16
0.0
 26
0.0
 36
1.0
 17
0.0
 27
0.0
 37
0.0
 40
42.03683292032967
 41
2.16628959276018
 42
50.0
 43
0.0
 44
0.0
 50
0.0
 51
0.0
 71
     0
 72
   100
 73
     1
 74
     0
 75
     0
 76
     0
 77
     0
 78
     0
281
     0
 65
     1
110
0.0
120
0.0
130
0.0
111
1.0
121
0.0
131
0.0
112
0.0
122
1.0
132
0.0
 79
     0
146
0.0
348
C5B
 60
     3
 61
     5
292
     1
282
     1
141
0.0
142
0.0
 63
   250
421
  3355443
  0
ENDTAB
  0
TABLE
  2
LTYPE
  5
5
330
0
100
AcDbSymbolTable
 70
    16
  0
LTYPE
  5
12
330
5
100
AcDbSymbolTableRecord
100
AcDbLinetypeTableRecord
  2
BYBLOCK
 70
     0
  3

 72
    65
 73
     0
 40
0.0
  0
LTYPE
  5
13
330
5
100
AcDbSymbolTableRecord
100
AcDbLinetypeTableRecord
  2
BYLAYER
 70
     0
  3

 72
    65
 73
     0
 40
0.0
  0
LTYPE
  5
14
330
5
100
AcDbSymbolTableRecord
100
AcDbLinetypeTableRecord
  2
CONTINUOUS
 70
     0
  3
Solid line
 72
    65
 73
     0
 40
0.0
  0
LTYPE
  5
56
330
5
100
AcDbSymbolTableRecord
100
AcDbLinetypeTableRecord
  2
HIDDEN
 70
     0
  3
_ _ _ _ _ _ _ _ _ _ _ _ _ _ _ _ _ _ _ _ _ _ _
 72
    65
 73
     2
 40
0.375
 49
0.25
 74
     0
 49
-0.125
 74
     0
  0
LTYPE
  5
57
330
5
100
AcDbSymbolTableRecord
100
AcDbLinetypeTableRecord
  2
CENTER
 70
     0
  3
____ _ ____ _ ____ _ ____ _ ____ _ ____ _ ____
 72
    65
 73
     4
 40
2.0
 49
1.25
 74
     0
 49
-0.25
 74
     0
 49
0.25
 74
     0
 49
-0.25
 74
     0
  0
LTYPE
  5
C9D
330
5
100
AcDbSymbolTableRecord
100
AcDbLinetypeTableRecord
  2
PHANTOM2
 70
     0
  3
Phantom (.5x) ___ _ _ ___ _ _ ___ _ _ ___ _ _
 72
    65
 73
     6
 40
1.25
 49
0.625
 74
     0
 49
-0.125
 74
     0
 49
0.125
 74
     0
 49
-0.125
 74
     0
 49
0.125
 74
     0
 49
-0.125
 74
     0
  0
LTYPE
  5
CD2
330
5
100
AcDbSymbolTableRecord
100
AcDbLinetypeTableRecord
  2
AM_ISO02W050
 70
     0
  3
__ __ __ __ __ __ __ __ __ __ __ __ __ __ __
 72
    65
 73
     2
 40
7.5
 49
6.0
 74
     0
 49
-1.5
 74
     0
  0
LTYPE
  5
CD3
330
5
100
AcDbSymbolTableRecord
100
AcDbLinetypeTableRecord
  2
AM_ISO08W050
 70
     0
  3
____ . ____ . ____ . ____ . ____ . ____ . ____
 72
    65
 73
     4
 40
18.0
 49
12.0
 74
     0
 49
-1.5
 74
     0
 49
3.0
 74
     0
 49
-1.5
 74
     0
  0
LTYPE
  5
CD4
330
5
100
AcDbSymbolTableRecord
100
AcDbLinetypeTableRecord
  2
AM_ISO09W050
 70
     0
  3
_____ . . _____ . . _____ . . ____ .. ____
 72
    65
 73
     6
 40
22.5
 49
12.0
 74
     0
 49
-1.5
 74
     0
 49
3.0
 74
     0
 49
-1.5
 74
     0
 49
3.0
 74
     0
 49
-1.5
 74
     0
  0
LTYPE
  5
CD5
330
5
100
AcDbSymbolTableRecord
100
AcDbLinetypeTableRecord
  2
Amconstr
 70
     0
  3
_______________________
 72
    65
 73
     2
 40
9999.0
 49
9999.0
 74
     0
 49
0.0
 74
     0
  0
LTYPE
  5
CD6
330
5
100
AcDbSymbolTableRecord
100
AcDbLinetypeTableRecord
  2
AM_ISO08W050x2
 70
     0
  3
__ . __ . __ . __ . __ . __
 72
    65
 73
     4
 40
9.0
 49
6.0
 74
     0
 49
-0.75
 74
     0
 49
1.5
 74
     0
 49
-0.75
 74
     0
  0
LTYPE
  5
CD7
330
5
100
AcDbSymbolTableRecord
100
AcDbLinetypeTableRecord
  2
AM_ISO02W050x2
 70
     0
  3
 _ _ _ _ _ _ _ _ _ _ _ _
 72
    65
 73
     2
 40
3.75
 49
3.0
 74
     0
 49
-0.75
 74
     0
  0
LTYPE
  5
CDA
330
5
100
AcDbSymbolTableRecord
100
AcDbLinetypeTableRecord
  2
Amzigzag
 70
     0
  3
/\/-/\/-/\/-/\/-/\/-/\/
 72
    65
 73
     2
 40
11.0001
 49
0.0001
 74
     4
 75
   136
340
CD9
 46
0.04
 50
0.0
 44
0.0
 45
0.0
 49
-11.0
 74
     0
  0
LTYPE
  5
CDB
330
5
100
AcDbSymbolTableRecord
100
AcDbLinetypeTableRecord
  2
CENTER2
 70
     0
  3
Center (.5x) ___ _ ___ _ ___ _ ___ _ ___ _ ___
 72
    65
 73
     4
 40
1.125
 49
0.75
 74
     0
 49
-0.125
 74
     0
 49
0.125
 74
     0
 49
-0.125
 74
     0
  0
LTYPE
  5
CDC
330
5
100
AcDbSymbolTableRecord
100
AcDbLinetypeTableRecord
  2
HIDDEN2
 70
     0
  3
Hidden (.5x) _ _ _ _ _ _ _ _ _ _ _ _ _ _ _ _ _
 72
    65
 73
     2
 40
0.1875
 49
0.125
 74
     0
 49
-0.0625
 74
     0
  0
LTYPE
  5
CDD
330
5
100
AcDbSymbolTableRecord
100
AcDbLinetypeTableRecord
  2
Amzigzag2
 70
     0
  3
/\/-/\/-/\/-/\/-/\/-/\/
 72
    65
 73
     2
 40
0.4401
 49
0.0001
 74
     4
 75
   136
340
CD9
 46
0.0016
 50
0.0
 44
0.0
 45
0.0
 49
-0.4400000000000001
 74
     0
  0
LTYPE
  5
CEC
330
5
100
AcDbSymbolTableRecord
100
AcDbLinetypeTableRecord
  2
ACANSTGB
 70
     0
  3
__ . . __ . .
 72
    65
 73
     6
 40
0.35433070866
 49
0.15748031496
 74
     0
 49
-0.03937007874
 74
     0
 49
0.03937007874
 74
     0
 49
-0.03937007874
 74
     0
 49
0.03937007874
 74
     0
 49
-0.03937007874
 74
     0
  0
LTYPE
  5
CED
330
5
100
AcDbSymbolTableRecord
100
AcDbLinetypeTableRecord
  2
ACANSTGL
 70
     0
  3
_ _ _ _ _
 72
    65
 73
     2
 40
0.11811023622
 49
0.07874015748
 74
     0
 49
-0.03937007874
 74
     0
  0
ENDTAB
  0
TABLE
  2
LAYER
  5
2
102
{ACAD_XDICTIONARY
360
D13
102
}
330
0
100
AcDbSymbolTable
 70
     8
  0
LAYER
  5
F
330
2
100
AcDbSymbolTableRecord
100
AcDbLayerTableRecord
  2
0
 70
     0
 62
     7
  6
CONTINUOUS
370
    -3
390
C19
347
C54
  0
LAYER
  5
5A
330
2
100
AcDbSymbolTableRecord
100
AcDbLayerTableRecord
  2
DIM
 70
     0
 62
     3
  6
CONTINUOUS
370
    -3
390
C19
347
C54
  0
LAYER
  5
5B
330
2
100
AcDbSymbolTableRecord
100
AcDbLayerTableRecord
  2
HATCH
 70
     0
 62
     4
  6
CONTINUOUS
370
    -3
390
C19
347
C54
  0
LAYER
  5
5C
330
2
100
AcDbSymbolTableRecord
100
AcDbLayerTableRecord
  2
PN
 70
     0
 62
     6
  6
CONTINUOUS
370
    -3
390
C19
347
C54
  0
LAYER
  5
5D
330
2
100
AcDbSymbolTableRecord
100
AcDbLayerTableRecord
  2
HIDE
 70
     0
 62
     5
  6
HIDDEN
370
    -3
390
C19
347
C54
  0
LAYER
  5
5E
330
2
100
AcDbSymbolTableRecord
100
AcDbLayerTableRecord
  2
CENTER
 70
     0
 62
     2
  6
CENTER
370
    -3
390
C19
347
C54
  0
LAYER
  5
5F
330
2
100
AcDbSymbolTableRecord
100
AcDbLayerTableRecord
  2
TITLE
 70
     0
 62
     1
  6
CONTINUOUS
370
    -3
390
C19
347
C54
  0
LAYER
  5
60
330
2
100
AcDbSymbolTableRecord
100
AcDbLayerTableRecord
  2
DEFPOINTS
 70
     0
 62
    -7
  6
CONTINUOUS
290
     0
370
    -3
390
C19
347
C54
  0
ENDTAB
  0
TABLE
  2
STYLE
  5
3
330
0
100
AcDbSymbolTable
 70
     8
  0
STYLE
  5
10
330
3
100
AcDbSymbolTableRecord
100
AcDbTextStyleTableRecord
  2
STANDARD
 70
     0
 40
0.0
 41
1.0
 50
0.0
 71
     0
 42
0.2
  3
txt
  4

  0
STYLE
  5
54
330
3
100
AcDbSymbolTableRecord
100
AcDbTextStyleTableRecord
  2
ITALIC
 70
     0
 40
0.0
 41
1.0
 50
0.0
 71
     0
 42
0.2
  3
txt
  4

  0
STYLE
  5
55
330
3
100
AcDbSymbolTableRecord
100
AcDbTextStyleTableRecord
  2
COMPLEX
 70
     0
 40
0.0
 41
1.0
 50
0.0
 71
     0
 42
0.156
  3
ROMANC
  4

  0
STYLE
  5
B88
330
3
100
AcDbSymbolTableRecord
100
AcDbTextStyleTableRecord
  2
STYLE1
 70
     0
 40
0.0
 41
1.0
 50
0.0
 71
     0
 42
0.25
  3
swiss.ttf
  4

1001
ACAD
1000
Swis721 BT
1071
       34
  0
STYLE
  5
CD9
330
3
100
AcDbSymbolTableRecord
100
AcDbTextStyleTableRecord
  2

 70
     1
 40
0.0
 41
1.0
 50
0.0
 71
     0
 42
0.2
  3
genltshp.shx
  4

  0
STYLE
  5
CDE
330
3
100
AcDbSymbolTableRecord
100
AcDbTextStyleTableRecord
  2
ACANSTS
 70
     0
 40
1.0
 41
1.0
 50
0.0
 71
     0
 42
0.2
  3
romans.shx
  4

  0
STYLE
  5
CEB
330
3
100
AcDbSymbolTableRecord
100
AcDbTextStyleTableRecord
  2
ACANSGDT
 70
     0
 40
0.0
 41
1.0
 50
0.0
 71
     0
 42
0.2
  3
amgdt.shx
  4

  0
STYLE
  5
D12
330
3
100
AcDbSymbolTableRecord
100
AcDbTextStyleTableRecord
  2

 70
     1
 40
0.0
 41
1.0
 50
0.0
 71
     0
 42
0.2
  3
ltypeshp.shx
  4

  0
ENDTAB
  0
TABLE
  2
VIEW
  5
6
330
0
100
AcDbSymbolTable
 70
     0
  0
ENDTAB
  0
TABLE
  2
UCS
  5
7
330
0
100
AcDbSymbolTable
 70
     0
  0
ENDTAB
  0
TABLE
  2
APPID
  5
9
330
0
100
AcDbSymbolTable
 70
     9
  0
APPID
  5
11
330
9
100
AcDbSymbolTableRecord
100
AcDbRegAppTableRecord
  2
ACAD
 70
     0
  0
APPID
  5
C26
330
9
100
AcDbSymbolTableRecord
100
AcDbRegAppTableRecord
  2
ACAD_PSEXT
 70
     0
  0
APPID
  5
C70
330
9
100
AcDbSymbolTableRecord
100
AcDbRegAppTableRecord
  2
MCAD_NO_VIS
 70
     0
  0
APPID
  5
C71
330
9
100
AcDbSymbolTableRecord
100
AcDbRegAppTableRecord
  2
ACAD_TEMP_GRAPHIC
 70
     0
  0
APPID
  5
C9F
330
9
100
AcDbSymbolTableRecord
100
AcDbRegAppTableRecord
  2
AD_DRAW
 70
     0
  0
APPID
  5
CA2
330
9
100
AcDbSymbolTableRecord
100
AcDbRegAppTableRecord
  2
ACATTRIBSERVICES
 70
     0
  0
APPID
  5
CC3
330
9
100
AcDbSymbolTableRecord
100
AcDbRegAppTableRecord
  2
DESIGNERASSEMBLIES
 70
     0
  0
APPID
  5
CC9
330
9
100
AcDbSymbolTableRecord
100
AcDbRegAppTableRecord
  2
ACADM_DIM_EDIT
 70
     0
  0
APPID
  5
CCA
330
9
100
AcDbSymbolTableRecord
100
AcDbRegAppTableRecord
  2
AMDT_DM_ADJ
 70
     0
  0
ENDTAB
  0
TABLE
  2
DIMSTYLE
  5
A
330
0
100
AcDbSymbolTable
 70
     7
100
AcDbDimStyleTable
 71
     1
340
815
  0
DIMSTYLE
105
815
330
A
100
AcDbSymbolTableRecord
100
AcDbDimStyleTableRecord
  2
STANDARD
 70
     0
340
10
  0
DIMSTYLE
105
CF8
330
A
100
AcDbSymbolTableRecord
100
AcDbDimStyleTableRecord
  2
AM_ANSI
 70
     0
  4
mm
 41
0.1
 42
0.05
 43
0.5
 44
0.1
 47
0.1
 48
0.1
 78
     7
 79
     2
 90
     1
140
0.12
141
0.0
146
0.71
147
0.06
176
   256
177
   256
178
     2
274
     4
284
     7
340
10
371
    -1
372
    -1
  0
DIMSTYLE
105
CF9
330
A
100
AcDbSymbolTableRecord
100
AcDbDimStyleTableRecord
  2
AM_ANSI$3
 70
     0
  4
mm
 41
0.1
 42
0.05
 43
0.5
 44
0.1
 47
0.1
 48
0.1
 78
     7
 79
     2
 90
     1
140
0.12
141
0.0
146
0.71
147
0.06
176
   256
177
   256
178
     2
274
     4
284
     7
288
     1
289
     0
340
10
371
    -1
372
    -1
  0
DIMSTYLE
105
CFA
330
A
100
AcDbSymbolTableRecord
100
AcDbDimStyleTableRecord
  2
AM_ANSI$4
 70
     0
  4
mm
 41
0.1
 42
0.05
 43
0.5
 44
0.1
 47
0.1
 48
0.1
 78
     7
 79
     2
 90
     1
140
0.12
141
0.0
146
0.71
147
0.06
176
   256
177
   256
178
     2
274
     4
284
     7
288
     1
289
     0
340
10
371
    -1
372
    -1
  0
DIMSTYLE
105
CFB
330
A
100
AcDbSymbolTableRecord
100
AcDbDimStyleTableRecord
  2
AM_ANSI$7
 70
     0
  4
mm
 41
0.1
 42
0.05
 43
0.5
 44
0.1
 47
0.1
 48
0.1
 78
     7
 79
     2
 90
     1
140
0.24
141
0.0
146
0.71
147
0.06
176
   256
177
   256
178
     2
274
     4
284
     7
340
10
371
    -1
372
    -1
  0
DIMSTYLE
105
CFC
330
A
100
AcDbSymbolTableRecord
100
AcDbDimStyleTableRecord
  2
AM_ANSI$SF
 70
     0
  4
mm
 41
0.1
 42
0.05
 43
0.5
 44
0.1
 47
0.1
 48
0.1
 75
     1
 76
     1
 78
     7
 79
     2
 90
     1
140
0.12
141
0.0
146
0.71
147
0.06
176
   256
177
   256
178
     2
274
     4
284
     7
340
10
371
    -1
372
    -1
  0
DIMSTYLE
105
D01
330
A
100
AcDbSymbolTableRecord
100
AcDbDimStyleTableRecord
  2
AM_ANSI$SH
 70
     0
  4
mm
 41
0.1
 42
0.05
 43
0.5
 44
0.1
 47
0.1
 48
0.1
 75
     1
 76
     1
 78
     7
 79
     2
 90
     1
140
0.12
141
0.0
146
0.71
147
0.06
173
     1
176
   256
177
   256
178
     2
274
     4
284
     7
340
10
343
CFD
371
    -1
372
    -1
  0
ENDTAB
  0
TABLE
  2
BLOCK_RECORD
  5
1
330
0
100
AcDbSymbolTable
 70
    45
  0
BLOCK_RECORD
  5
18
330
1
100
AcDbSymbolTableRecord
100
AcDbBlockTableRecord
  2
*MODEL_SPACE
340
C20
 70
     0
280
     1
281
     0
  0
BLOCK_RECORD
  5
15
330
1
100
AcDbSymbolTableRecord
100
AcDbBlockTableRecord
  2
*PAPER_SPACE
340
C21
 70
     0
280
     1
281
     0
  0
BLOCK_RECORD
  5
27
330
1
100
AcDbSymbolTableRecord
100
AcDbBlockTableRecord
  2
SAATX
340
0
102
{BLKREFS
331
6DC
102
}
 70
     0
280
     1
281
     0
  0
BLOCK_RECORD
  5
28
330
1
100
AcDbSymbolTableRecord
100
AcDbBlockTableRecord
  2
SBBTX
340
0
102
{BLKREFS
331
754
102
}
 70
     0
280
     1
281
     0
  0
BLOCK_RECORD
  5
29
330
1
100
AcDbSymbolTableRecord
100
AcDbBlockTableRecord
  2
SAAR
340
0
102
{BLKREFS
331
69B
102
}
 70
     0
280
     1
281
     0
  0
BLOCK_RECORD
  5
2A
330
1
100
AcDbSymbolTableRecord
100
AcDbBlockTableRecord
  2
*X3
340
0
102
{BLKREFS
331
361
102
}
 70
     0
280
     1
281
     0
  0
BLOCK_RECORD
  5
2B
330
1
100
AcDbSymbolTableRecord
100
AcDbBlockTableRecord
  2
SBBT
340
0
102
{BLKREFS
331
66C
102
}
 70
     0
280
     1
281
     0
  0
BLOCK_RECORD
  5
2C
330
1
100
AcDbSymbolTableRecord
100
AcDbBlockTableRecord
  2
*X5
340
0
102
{BLKREFS
331
396
102
}
 70
     0
280
     1
281
     0
  0
BLOCK_RECORD
  5
2D
330
1
100
AcDbSymbolTableRecord
100
AcDbBlockTableRecord
  2
SBBB
340
0
102
{BLKREFS
331
670
102
}
 70
     0
280
     1
281
     0
  0
BLOCK_RECORD
  5
2E
330
1
100
AcDbSymbolTableRecord
100
AcDbBlockTableRecord
  2
*X7
340
0
102
{BLKREFS
331
3E5
102
}
 70
     0
280
     1
281
     0
  0
BLOCK_RECORD
  5
2F
330
1
100
AcDbSymbolTableRecord
100
AcDbBlockTableRecord
  2
SAAL
340
0
102
{BLKREFS
331
68B
102
}
 70
     0
280
     1
281
     0
  0
BLOCK_RECORD
  5
30
330
1
100
AcDbSymbolTableRecord
100
AcDbBlockTableRecord
  2
*X9
340
0
102
{BLKREFS
331
41A
102
}
 70
     0
280
     1
281
     0
  0
BLOCK_RECORD
  5
31
330
1
100
AcDbSymbolTableRecord
100
AcDbBlockTableRecord
  2
*X10
340
0
102
{BLKREFS
331
6C0
102
}
 70
     0
280
     1
281
     0
  0
BLOCK_RECORD
  5
32
330
1
100
AcDbSymbolTableRecord
100
AcDbBlockTableRecord
  2
*X11
340
0
102
{BLKREFS
331
6E4
102
}
 70
     0
280
     1
281
     0
  0
BLOCK_RECORD
  5
33
330
1
100
AcDbSymbolTableRecord
100
AcDbBlockTableRecord
  2
*D12
340
0
 70
     0
280
     1
281
     0
  0
BLOCK_RECORD
  5
34
330
1
100
AcDbSymbolTableRecord
100
AcDbBlockTableRecord
  2
*D13
340
0
 70
     0
280
     1
281
     0
  0
BLOCK_RECORD
  5
35
330
1
100
AcDbSymbolTableRecord
100
AcDbBlockTableRecord
  2
*D14
340
0
 70
     0
280
     1
281
     0
  0
BLOCK_RECORD
  5
36
330
1
100
AcDbSymbolTableRecord
100
AcDbBlockTableRecord
  2
*D15
340
0
 70
     0
280
     1
281
     0
  0
BLOCK_RECORD
  5
37
330
1
100
AcDbSymbolTableRecord
100
AcDbBlockTableRecord
  2
*D16
340
0
 70
     0
280
     1
281
     0
  0
BLOCK_RECORD
  5
38
330
1
100
AcDbSymbolTableRecord
100
AcDbBlockTableRecord
  2
*D17
340
0
 70
     0
280
     1
281
     0
  0
BLOCK_RECORD
  5
3A
330
1
100
AcDbSymbolTableRecord
100
AcDbBlockTableRecord
  2
*D18
340
0
 70
     0
280
     1
281
     0
  0
BLOCK_RECORD
  5
3C
330
1
100
AcDbSymbolTableRecord
100
AcDbBlockTableRecord
  2
*D19
340
0
 70
     0
280
     1
281
     0
  0
BLOCK_RECORD
  5
3D
330
1
100
AcDbSymbolTableRecord
100
AcDbBlockTableRecord
  2
*D20
340
0
 70
     0
280
     1
281
     0
  0
BLOCK_RECORD
  5
3E
330
1
100
AcDbSymbolTableRecord
100
AcDbBlockTableRecord
  2
*D21
340
0
 70
     0
280
     1
281
     0
  0
BLOCK_RECORD
  5
3F
330
1
100
AcDbSymbolTableRecord
100
AcDbBlockTableRecord
  2
*D22
340
0
 70
     0
280
     1
281
     0
  0
BLOCK_RECORD
  5
40
330
1
100
AcDbSymbolTableRecord
100
AcDbBlockTableRecord
  2
*D23
340
0
 70
     0
280
     1
281
     0
  0
BLOCK_RECORD
  5
41
330
1
100
AcDbSymbolTableRecord
100
AcDbBlockTableRecord
  2
*D24
340
0
 70
     0
280
     1
281
     0
  0
BLOCK_RECORD
  5
42
330
1
100
AcDbSymbolTableRecord
100
AcDbBlockTableRecord
  2
*D25
340
0
 70
     0
280
     1
281
     0
  0
BLOCK_RECORD
  5
43
330
1
100
AcDbSymbolTableRecord
100
AcDbBlockTableRecord
  2
*D26
340
0
 70
     0
280
     1
281
     0
  0
BLOCK_RECORD
  5
44
330
1
100
AcDbSymbolTableRecord
100
AcDbBlockTableRecord
  2
*D27
340
0
 70
     0
280
     1
281
     0
  0
BLOCK_RECORD
  5
45
330
1
100
AcDbSymbolTableRecord
100
AcDbBlockTableRecord
  2
*D28
340
0
 70
     0
280
     1
281
     0
  0
BLOCK_RECORD
  5
46
330
1
100
AcDbSymbolTableRecord
100
AcDbBlockTableRecord
  2
*D29
340
0
 70
     0
280
     1
281
     0
  0
BLOCK_RECORD
  5
47
330
1
100
AcDbSymbolTableRecord
100
AcDbBlockTableRecord
  2
*D30
340
0
 70
     0
280
     1
281
     0
  0
BLOCK_RECORD
  5
48
330
1
100
AcDbSymbolTableRecord
100
AcDbBlockTableRecord
  2
*D31
340
0
 70
     0
280
     1
281
     0
  0
BLOCK_RECORD
  5
49
330
1
100
AcDbSymbolTableRecord
100
AcDbBlockTableRecord
  2
*D32
340
0
 70
     0
280
     1
281
     0
  0
BLOCK_RECORD
  5
4A
330
1
100
AcDbSymbolTableRecord
100
AcDbBlockTableRecord
  2
*D33
340
0
 70
     0
280
     1
281
     0
  0
BLOCK_RECORD
  5
4B
330
1
100
AcDbSymbolTableRecord
100
AcDbBlockTableRecord
  2
*D34
340
0
 70
     0
280
     1
281
     0
  0
BLOCK_RECORD
  5
4C
330
1
100
AcDbSymbolTableRecord
100
AcDbBlockTableRecord
  2
*D35
340
0
 70
     0
280
     1
281
     0
  0
BLOCK_RECORD
  5
4D
330
1
100
AcDbSymbolTableRecord
100
AcDbBlockTableRecord
  2
*D36
340
0
 70
     0
280
     1
281
     0
  0
BLOCK_RECORD
  5
4E
330
1
100
AcDbSymbolTableRecord
100
AcDbBlockTableRecord
  2
*D37
340
0
 70
     0
280
     1
281
     0
  0
BLOCK_RECORD
  5
50
330
1
100
AcDbSymbolTableRecord
100
AcDbBlockTableRecord
  2
*D38
340
0
 70
     0
280
     1
281
     0
  0
BLOCK_RECORD
  5
51
330
1
100
AcDbSymbolTableRecord
100
AcDbBlockTableRecord
  2
*D39
340
0
 70
     0
280
     1
281
     0
  0
BLOCK_RECORD
  5
52
330
1
100
AcDbSymbolTableRecord
100
AcDbBlockTableRecord
  2
*X40
340
0
102
{BLKREFS
331
813
102
}
 70
     0
280
     1
281
     0
  0
BLOCK_RECORD
  5
53
330
1
100
AcDbSymbolTableRecord
100
AcDbBlockTableRecord
  2
*X41
340
0
102
{BLKREFS
331
814
102
}
 70
     0
280
     1
281
     0
  0
BLOCK_RECORD
  5
CBA
330
1
100
AcDbSymbolTableRecord
100
AcDbBlockTableRecord
  2
*U43
340
0
 70
     0
280
     1
281
     0
  0
BLOCK_RECORD
  5
CFD
330
1
100
AcDbSymbolTableRecord
100
AcDbBlockTableRecord
  2
GENAXEH
340
0
 70
     0
280
     1
281
     0
  0
ENDTAB
  0
ENDSEC
  0
SECTION
  2
BLOCKS
  0
BLOCK
  5
63
330
18
100
AcDbEntity
  8
0
100
AcDbBlockBegin
  2
*MODEL_SPACE
 70
     0
 10
0.0
 20
0.0
 30
0.0
  3
*MODEL_SPACE
  1

  0
ENDBLK
  5
64
330
18
100
AcDbEntity
  8
0
100
AcDbBlockEnd
  0
BLOCK
  5
61
330
15
100
AcDbEntity
 67
     1
  8
0
100
AcDbBlockBegin
  2
*PAPER_SPACE
 70
     0
 10
0.0
 20
0.0
 30
0.0
  3
*PAPER_SPACE
  1

  0
ENDBLK
  5
62
330
15
100
AcDbEntity
 67
     1
  8
0
100
AcDbBlockEnd
  0
BLOCK
  5
348
330
27
100
AcDbEntity
  8
0
100
AcDbBlockBegin
  2
SAATX
 70
     0
 10
0.0
 20
0.0
 30
0.0
  3
SAATX
  1

  0
LINE
  5
349
330
27
100
AcDbEntity
  8
0
100
AcDbLine
 10
-0.8421662700371435
 20
0.0
 30
0.0
 11
0.8421662700371435
 21
0.0
 31
0.0
  0
LINE
  5
34A
330
27
100
AcDbEntity
  8
0
100
AcDbLine
 10
-0.8421662700371435
 20
0.0199999999999996
 30
0.0
 11
0.8421662700371435
 21
0.0199999999999996
 31
0.0
  0
TEXT
  5
34B
330
27
100
AcDbEntity
  8
0
100
AcDbText
 10
-0.8455144018028244
 20
0.0551412039750448
 30
0.0
 40
0.156
  1
SECTION A-A
  7
COMPLEX
100
AcDbText
  0
ENDBLK
  5
34C
330
27
100
AcDbEntity
  8
0
100
AcDbBlockEnd
  0
BLOCK
  5
34D
330
28
100
AcDbEntity
  8
0
100
AcDbBlockBegin
  2
SBBTX
 70
     0
 10
0.0
 20
0.0
 30
0.0
  3
SBBTX
  1

  0
LINE
  5
34E
330
28
100
AcDbEntity
  8
0
100
AcDbLine
 10
-0.8421662700371435
 20
0.0199999999999996
 30
0.0
 11
0.8421662700371435
 21
0.0199999999999996
 31
0.0
  0
LINE
  5
34F
330
28
100
AcDbEntity
  8
0
100
AcDbLine
 10
-0.8421662700371435
 20
0.0
 30
0.0
 11
0.8421662700371435
 21
0.0
 31
0.0
  0
TEXT
  5
350
330
28
100
AcDbEntity
  8
0
100
AcDbText
 10
-0.8455144018028244
 20
0.0554512145058732
 30
0.0
 40
0.156
  1
SECTION B-B
  7
COMPLEX
100
AcDbText
  0
ENDBLK
  5
351
330
28
100
AcDbEntity
  8
0
100
AcDbBlockEnd
  0
BLOCK
  5
352
330
29
100
AcDbEntity
  8
0
100
AcDbBlockBegin
  2
SAAR
 70
     0
 10
0.0
 20
0.0
 30
0.0
  3
SAAR
  1

  0
TEXT
  5
353
330
29
100
AcDbEntity
  8
0
100
AcDbText
 10
0.3487392072179478
 20
0.5116372546807444
 30
0.0
 40
0.156
  1
A
  7
COMPLEX
 72
     1
 11
0.4230249215036617
 21
0.5116372546807444
 31
0.0
100
AcDbText
  0
LINE
  5
354
330
29
100
AcDbEntity
  8
0
100
AcDbLine
 10
0.4374999999999983
 20
0.2292366486465216
 30
0.0
 11
0.451024804847763
 21
0.2292366486465225
 31
0.0
  0
LINE
  5
355
330
29
100
AcDbEntity
  8
0
100
AcDbLine
 10
0.4074999999999998
 20
0.2292366486465216
 30
0.0
 11
0.4074999999999989
 21
0.0149999999999988
 31
0.0
  0
LINE
  5
356
330
29
100
AcDbEntity
  8
0
100
AcDbLine
 10
0.4374999999999992
 20
0.2292366486465216
 30
0.0
 11
0.4374999999999992
 21
-0.017923002649547
 31
0.0
  0
LINE
  5
357
330
29
100
AcDbEntity
  8
0
100
AcDbLine
 10
0.4224999999999995
 20
0.0299999999999994
 30
0.0
 11
-0.0000000000000009
 21
0.0299999999999994
 31
0.0
  0
LINE
  5
358
330
29
100
AcDbEntity
  8
0
100
AcDbLine
 10
0.4571321552628529
 20
0.0
 30
0.0
 11
0.0
 21
0.0
 31
0.0
  0
ARC
  5
359
330
29
100
AcDbEntity
  8
0
100
AcDbCircle
 10
-0.0774898749921995
 20
0.4486009293161688
 30
0.0
 40
0.5
100
AcDbArc
 50
333.9772135427694
 51
0.3646288638273987
  0
LINE
  5
35A
330
29
100
AcDbEntity
  8
0
100
AcDbLine
 10
0.4374999999999992
 20
0.2292366486465216
 30
0.0
 11
0.4374999999999992
 21
0.2292366486465216
 31
0.0
  0
ARC
  5
35B
330
29
100
AcDbEntity
  8
0
100
AcDbCircle
 10
0.9224898749921965
 20
0.4486009293161688
 30
0.0
 40
0.5
100
AcDbArc
 50
179.6353711361726
 51
206.0227864572306
  0
ARC
  5
35C
330
29
100
AcDbEntity
  8
0
100
AcDbCircle
 10
-0.0774898749921995
 20
0.4486009293161688
 30
0.0
 40
0.5200000000000001
100
AcDbArc
 50
335.0482819082217
 51
344.0535702443027
  0
ARC
  5
35D
330
29
100
AcDbEntity
  8
0
100
AcDbCircle
 10
0.9224898749921965
 20
0.4486009293161688
 30
0.0
 40
0.5200000000000001
100
AcDbArc
 50
195.9464297556973
 51
204.951718091778
  0
LINE
  5
35E
330
29
100
AcDbEntity
  8
0
100
AcDbLine
 10
0.3939751951522217
 20
0.2292366486465216
 30
0.0
 11
0.4074999999999998
 21
0.2292366486465216
 31
0.0
  0
LINE
  5
35F
330
29
100
AcDbEntity
  8
0
100
AcDbLine
 10
0.3939751951522217
 20
0.2292366486465216
 30
0.0
 11
0.371819942802035
 21
0.2292366486465216
 31
0.0
  0
LINE
  5
360
330
29
100
AcDbEntity
  8
0
100
AcDbLine
 10
0.451024804847763
 20
0.2292366486465225
 30
0.0
 11
0.4731800571979621
 21
0.2292366486465216
 31
0.0
  0
INSERT
  5
361
330
29
100
AcDbEntity
  8
0
100
AcDbBlockReference
  2
*X3
 10
-3.748701991468968
 20
-6.921648479033177
 30
0.0
  0
ENDBLK
  5
362
330
29
100
AcDbEntity
  8
0
100
AcDbBlockEnd
  0
BLOCK
  5
363
330
2A
100
AcDbEntity
  8
0
100
AcDbBlockBegin
  2
*X3
 70
     1
 10
0.0
 20
0.0
 30
0.0
  3
*X3
  1

  0
LINE
  5
364
330
2A
100
AcDbEntity
  8
0
 62
     0
100
AcDbLine
 10
4.158042821030212
 20
7.25625
 30
0.0
 11
4.184361161907728
 21
7.25625
 31
0.0
  0
LINE
  5
365
330
2A
100
AcDbEntity
  8
0
 62
     0
100
AcDbLine
 10
4.159464167164085
 20
7.2625
 30
0.0
 11
4.182939815773856
 21
7.2625
 31
0.0
  0
LINE
  5
366
330
2A
100
AcDbEntity
  8
0
 62
     0
100
AcDbLine
 10
4.160801607892522
 20
7.26875
 30
0.0
 11
4.181602375045417
 21
7.26875
 31
0.0
  0
LINE
  5
367
330
2A
100
AcDbEntity
  8
0
 62
     0
100
AcDbLine
 10
4.162055829087108
 20
7.275
 30
0.0
 11
4.180348153850832
 21
7.275
 31
0.0
  0
LINE
  5
368
330
2A
100
AcDbEntity
  8
0
 62
     0
100
AcDbLine
 10
4.163227467165616
 20
7.28125
 30
0.0
 11
4.179176515772323
 21
7.28125
 31
0.0
  0
LINE
  5
369
330
2A
100
AcDbEntity
  8
0
 62
     0
100
AcDbLine
 10
4.1643171107912
 20
7.2875
 30
0.0
 11
4.178086872146739
 21
7.2875
 31
0.0
  0
LINE
  5
36A
330
2A
100
AcDbEntity
  8
0
 62
     0
100
AcDbLine
 10
4.165325302419223
 20
7.29375
 30
0.0
 11
4.177078680518715
 21
7.29375
 31
0.0
  0
LINE
  5
36B
330
2A
100
AcDbEntity
  8
0
 62
     0
100
AcDbLine
 10
4.16625253970155
 20
7.3
 30
0.0
 11
4.17615144323639
 21
7.3
 31
0.0
  0
LINE
  5
36C
330
2A
100
AcDbEntity
  8
0
 62
     0
100
AcDbLine
 10
4.167099276757146
 20
7.30625
 30
0.0
 11
4.175304706180795
 21
7.30625
 31
0.0
  0
LINE
  5
36D
330
2A
100
AcDbEntity
  8
0
 62
     0
100
AcDbLine
 10
4.167865925316793
 20
7.3125
 30
0.0
 11
4.174538057621145
 21
7.3125
 31
0.0
  0
LINE
  5
36E
330
2A
100
AcDbEntity
  8
0
 62
     0
100
AcDbLine
 10
4.16855285574882
 20
7.31875
 30
0.0
 11
4.17385112718912
 21
7.31875
 31
0.0
  0
LINE
  5
36F
330
2A
100
AcDbEntity
  8
0
 62
     0
100
AcDbLine
 10
4.169160397971983
 20
7.325
 30
0.0
 11
4.173243584965957
 21
7.325
 31
0.0
  0
LINE
  5
370
330
2A
100
AcDbEntity
  8
0
 62
     0
100
AcDbLine
 10
4.169688842260835
 20
7.33125
 30
0.0
 11
4.172715140677103
 21
7.33125
 31
0.0
  0
LINE
  5
371
330
2A
100
AcDbEntity
  8
0
 62
     0
100
AcDbLine
 10
4.170138439948251
 20
7.3375
 30
0.0
 11
4.172265542989687
 21
7.3375
 31
0.0
  0
LINE
  5
372
330
2A
100
AcDbEntity
  8
0
 62
     0
100
AcDbLine
 10
4.170509404029122
 20
7.34375
 30
0.0
 11
4.171894578908817
 21
7.34375
 31
0.0
  0
LINE
  5
373
330
2A
100
AcDbEntity
  8
0
 62
     0
100
AcDbLine
 10
4.170801909668647
 20
7.35
 30
0.0
 11
4.171602073269292
 21
7.35
 31
0.0
  0
LINE
  5
374
330
2A
100
AcDbEntity
  8
0
 62
     0
100
AcDbLine
 10
4.171016094618071
 20
7.35625
 30
0.0
 11
4.171387888319867
 21
7.35625
 31
0.0
  0
LINE
  5
375
330
2A
100
AcDbEntity
  8
0
 62
     0
100
AcDbLine
 10
4.171152059540171
 20
7.3625
 30
0.0
 11
4.171251923397766
 21
7.3625
 31
0.0
  0
LINE
  5
376
330
2A
100
AcDbEntity
  8
0
 62
     0
100
AcDbLine
 10
4.17119411469162
 20
7.36875
 30
0.0
 11
4.171209868246319
 21
7.36875
 31
0.0
  0
LINE
  5
377
330
2A
100
AcDbEntity
  8
0
 62
     0
100
AcDbLine
 10
4.156536832302816
 20
7.25
 30
0.0
 11
4.185867150635123
 21
7.25
 31
0.0
  0
LINE
  5
378
330
2A
100
AcDbEntity
  8
0
 62
     0
100
AcDbLine
 10
4.154945410438709
 20
7.24375
 30
0.0
 11
4.187458572499231
 21
7.24375
 31
0.0
  0
LINE
  5
379
330
2A
100
AcDbEntity
  8
0
 62
     0
100
AcDbLine
 10
4.153267709311144
 20
7.2375
 30
0.0
 11
4.189136273626795
 21
7.2375
 31
0.0
  0
LINE
  5
37A
330
2A
100
AcDbEntity
  8
0
 62
     0
100
AcDbLine
 10
4.151502824775956
 20
7.23125
 30
0.0
 11
4.190901158161984
 21
7.23125
 31
0.0
  0
LINE
  5
37B
330
2A
100
AcDbEntity
  8
0
 62
     0
100
AcDbLine
 10
4.149649792014731
 20
7.225
 30
0.0
 11
4.170514238817704
 21
7.225
 31
0.0
  0
LINE
  5
37C
330
2A
100
AcDbEntity
  8
0
 62
     0
100
AcDbLine
 10
4.17188974412022
 20
7.225
 30
0.0
 11
4.192754190923209
 21
7.225
 31
0.0
  0
LINE
  5
37D
330
2A
100
AcDbEntity
  8
0
 62
     0
100
AcDbLine
 10
4.147707582635473
 20
7.21875
 30
0.0
 11
4.16865349922432
 21
7.21875
 31
0.0
  0
LINE
  5
37E
330
2A
100
AcDbEntity
  8
0
 62
     0
100
AcDbLine
 10
4.173750483713604
 20
7.21875
 30
0.0
 11
4.194696400302465
 21
7.21875
 31
0.0
  0
LINE
  5
37F
330
2A
100
AcDbEntity
  8
0
 62
     0
100
AcDbLine
 10
4.145675101508724
 20
7.2125
 30
0.0
 11
4.166706944063726
 21
7.2125
 31
0.0
  0
LINE
  5
380
330
2A
100
AcDbEntity
  8
0
 62
     0
100
AcDbLine
 10
4.175697038874197
 20
7.2125
 30
0.0
 11
4.196728881429214
 21
7.2125
 31
0.0
  0
LINE
  5
381
330
2A
100
AcDbEntity
  8
0
 62
     0
100
AcDbLine
 10
4.143551183314425
 20
7.20625
 30
0.0
 11
4.164673557788107
 21
7.20625
 31
0.0
  0
LINE
  5
382
330
2A
100
AcDbEntity
  8
0
 62
     0
100
AcDbLine
 10
4.17773042514982
 20
7.20625
 30
0.0
 11
4.198852799623516
 21
7.20625
 31
0.0
  0
LINE
  5
383
330
2A
100
AcDbEntity
  8
0
 62
     0
100
AcDbLine
 10
4.141334588771703
 20
7.2
 30
0.0
 11
4.162552262360144
 21
7.2
 31
0.0
  0
LINE
  5
384
330
2A
100
AcDbEntity
  8
0
 62
     0
100
AcDbLine
 10
4.179851720577784
 20
7.2
 30
0.0
 11
4.201069394166239
 21
7.2
 31
0.0
  0
LINE
  5
385
330
2A
100
AcDbEntity
  8
0
 62
     0
100
AcDbLine
 10
4.139024000520274
 20
7.19375
 30
0.0
 11
4.160341914027816
 21
7.19375
 31
0.0
  0
LINE
  5
386
330
2A
100
AcDbEntity
  8
0
 62
     0
100
AcDbLine
 10
4.182062068910108
 20
7.19375
 30
0.0
 11
4.203379982417666
 21
7.19375
 31
0.0
  0
LINE
  5
387
330
2A
100
AcDbEntity
  8
0
 62
     0
100
AcDbLine
 10
4.136618018618079
 20
7.1875
 30
0.0
 11
4.158041299813144
 21
7.1875
 31
0.0
  0
LINE
  5
388
330
2A
100
AcDbEntity
  8
0
 62
     0
100
AcDbLine
 10
4.18436268312478
 20
7.1875
 30
0.0
 11
4.20578596431986
 21
7.1875
 31
0.0
  0
LINE
  5
389
330
2A
100
AcDbEntity
  8
0
 62
     0
100
AcDbLine
 10
4.134115155615204
 20
7.18125
 30
0.0
 11
4.155649133687051
 21
7.18125
 31
0.0
  0
LINE
  5
38A
330
2A
100
AcDbEntity
  8
0
 62
     0
100
AcDbLine
 10
4.186754849250876
 20
7.18125
 30
0.0
 11
4.208288827322737
 21
7.18125
 31
0.0
  0
LINE
  5
38B
330
2A
100
AcDbEntity
  8
0
 62
     0
100
AcDbLine
 10
4.131513831158817
 20
7.175
 30
0.0
 11
4.153164052399043
 21
7.175
 31
0.0
  0
LINE
  5
38C
330
2A
100
AcDbEntity
  8
0
 62
     0
100
AcDbLine
 10
4.189239930538879
 20
7.175
 30
0.0
 11
4.210890151779121
 21
7.175
 31
0.0
  0
LINE
  5
38D
330
2A
100
AcDbEntity
  8
0
 62
     0
100
AcDbLine
 10
4.128812366077735
 20
7.16875
 30
0.0
 11
4.1505846109264
 21
7.16875
 31
0.0
  0
LINE
  5
38E
330
2A
100
AcDbEntity
  8
0
 62
     0
100
AcDbLine
 10
4.191819372011525
 20
7.16875
 30
0.0
 11
4.213591616860204
 21
7.16875
 31
0.0
  0
LINE
  5
38F
330
2A
100
AcDbEntity
  8
0
 62
     0
100
AcDbLine
 10
4.126008975888199
 20
7.1625
 30
0.0
 11
4.147909277503027
 21
7.1625
 31
0.0
  0
LINE
  5
390
330
2A
100
AcDbEntity
  8
0
 62
     0
100
AcDbLine
 10
4.194494705434896
 20
7.1625
 30
0.0
 11
4.216395007049741
 21
7.1625
 31
0.0
  0
LINE
  5
391
330
2A
100
AcDbEntity
  8
0
 62
     0
100
AcDbLine
 10
4.123101763654189
 20
7.15625
 30
0.0
 11
4.145136428182898
 21
7.15625
 31
0.0
  0
LINE
  5
392
330
2A
100
AcDbEntity
  8
0
 62
     0
100
AcDbLine
 10
4.197267554755029
 20
7.15625
 30
0.0
 11
4.219302219283752
 21
7.15625
 31
0.0
  0
ENDBLK
  5
393
330
2A
100
AcDbEntity
  8
0
100
AcDbBlockEnd
  0
BLOCK
  5
394
330
2B
100
AcDbEntity
  8
0
100
AcDbBlockBegin
  2
SBBT
 70
     0
 10
0.0
 20
0.0
 30
0.0
  3
SBBT
  1

  0
TEXT
  5
395
330
2B
100
AcDbEntity
  8
0
100
AcDbText
 10
-0.6618640508256033
 20
0.338139455665849
 30
0.0
 40
0.156
  1
B
  7
COMPLEX
 72
     1
 11
-0.5838640508256035
 21
0.338139455665849
 31
0.0
100
AcDbText
  0
INSERT
  5
396
330
2B
100
AcDbEntity
  8
0
100
AcDbBlockReference
  2
*X5
 10
6.921648479033177
 20
-3.748701991468968
 30
0.0
 50
90.0
  0
LINE
  5
397
330
2B
100
AcDbEntity
  8
0
100
AcDbLine
 10
-0.2292366486465225
 20
0.451024804847763
 30
0.0
 11
-0.2292366486465216
 21
0.4731800571979621
 31
0.0
  0
LINE
  5
398
330
2B
100
AcDbEntity
  8
0
100
AcDbLine
 10
-0.2292366486465216
 20
0.3939751951522217
 30
0.0
 11
-0.2292366486465216
 21
0.371819942802035
 31
0.0
  0
LINE
  5
399
330
2B
100
AcDbEntity
  8
0
100
AcDbLine
 10
-0.2292366486465216
 20
0.3939751951522217
 30
0.0
 11
-0.2292366486465216
 21
0.4074999999999998
 31
0.0
  0
ARC
  5
39A
330
2B
100
AcDbEntity
  8
0
100
AcDbCircle
 10
-0.4486009293161688
 20
0.9224898749921965
 30
0.0
 40
0.5200000000000001
100
AcDbArc
 50
285.9464297556974
 51
294.951718091778
  0
ARC
  5
39B
330
2B
100
AcDbEntity
  8
0
100
AcDbCircle
 10
-0.4486009293161688
 20
-0.0774898749921995
 30
0.0
 40
0.5200000000000001
100
AcDbArc
 50
65.04828190822165
 51
74.0535702443027
  0
ARC
  5
39C
330
2B
100
AcDbEntity
  8
0
100
AcDbCircle
 10
-0.4486009293161688
 20
0.9224898749921965
 30
0.0
 40
0.5
100
AcDbArc
 50
269.6353711361726
 51
296.0227864572306
  0
LINE
  5
39D
330
2B
100
AcDbEntity
  8
0
100
AcDbLine
 10
-0.2292366486465216
 20
0.4374999999999992
 30
0.0
 11
-0.2292366486465216
 21
0.4374999999999992
 31
0.0
  0
ARC
  5
39E
330
2B
100
AcDbEntity
  8
0
100
AcDbCircle
 10
-0.4486009293161688
 20
-0.0774898749921995
 30
0.0
 40
0.5
100
AcDbArc
 50
63.97721354276936
 51
90.36462886382741
  0
LINE
  5
39F
330
2B
100
AcDbEntity
  8
0
100
AcDbLine
 10
0.0
 20
0.4571321552628529
 30
0.0
 11
0.0
 21
0.0
 31
0.0
  0
LINE
  5
3A0
330
2B
100
AcDbEntity
  8
0
100
AcDbLine
 10
-0.0299999999999994
 20
0.4224999999999995
 30
0.0
 11
-0.0299999999999994
 21
-0.0000000000000009
 31
0.0
  0
LINE
  5
3A1
330
2B
100
AcDbEntity
  8
0
100
AcDbLine
 10
-0.2292366486465216
 20
0.4374999999999992
 30
0.0
 11
0.017923002649547
 21
0.4374999999999992
 31
0.0
  0
LINE
  5
3A2
330
2B
100
AcDbEntity
  8
0
100
AcDbLine
 10
-0.2292366486465216
 20
0.4074999999999998
 30
0.0
 11
-0.0149999999999988
 21
0.4074999999999989
 31
0.0
  0
LINE
  5
3A3
330
2B
100
AcDbEntity
  8
0
100
AcDbLine
 10
-0.2292366486465216
 20
0.4374999999999983
 30
0.0
 11
-0.2292366486465225
 21
0.451024804847763
 31
0.0
  0
ENDBLK
  5
3A4
330
2B
100
AcDbEntity
  8
0
100
AcDbBlockEnd
  0
BLOCK
  5
3A5
330
2C
100
AcDbEntity
  8
0
100
AcDbBlockBegin
  2
*X5
 70
     1
 10
0.0
 20
0.0
 30
0.0
  3
*X5
  1

  0
LINE
  5
3A6
330
2C
100
AcDbEntity
  8
0
 62
     0
100
AcDbLine
 10
4.158042821030212
 20
7.25625
 30
0.0
 11
4.184361161907728
 21
7.25625
 31
0.0
  0
LINE
  5
3A7
330
2C
100
AcDbEntity
  8
0
 62
     0
100
AcDbLine
 10
4.159464167164085
 20
7.2625
 30
0.0
 11
4.182939815773856
 21
7.2625
 31
0.0
  0
LINE
  5
3A8
330
2C
100
AcDbEntity
  8
0
 62
     0
100
AcDbLine
 10
4.160801607892522
 20
7.26875
 30
0.0
 11
4.181602375045417
 21
7.26875
 31
0.0
  0
LINE
  5
3A9
330
2C
100
AcDbEntity
  8
0
 62
     0
100
AcDbLine
 10
4.162055829087108
 20
7.275
 30
0.0
 11
4.180348153850832
 21
7.275
 31
0.0
  0
LINE
  5
3AA
330
2C
100
AcDbEntity
  8
0
 62
     0
100
AcDbLine
 10
4.163227467165616
 20
7.28125
 30
0.0
 11
4.179176515772323
 21
7.28125
 31
0.0
  0
LINE
  5
3AB
330
2C
100
AcDbEntity
  8
0
 62
     0
100
AcDbLine
 10
4.1643171107912
 20
7.2875
 30
0.0
 11
4.178086872146739
 21
7.2875
 31
0.0
  0
LINE
  5
3AC
330
2C
100
AcDbEntity
  8
0
 62
     0
100
AcDbLine
 10
4.165325302419223
 20
7.29375
 30
0.0
 11
4.177078680518715
 21
7.29375
 31
0.0
  0
LINE
  5
3AD
330
2C
100
AcDbEntity
  8
0
 62
     0
100
AcDbLine
 10
4.16625253970155
 20
7.3
 30
0.0
 11
4.17615144323639
 21
7.3
 31
0.0
  0
LINE
  5
3AE
330
2C
100
AcDbEntity
  8
0
 62
     0
100
AcDbLine
 10
4.167099276757146
 20
7.30625
 30
0.0
 11
4.175304706180795
 21
7.30625
 31
0.0
  0
LINE
  5
3AF
330
2C
100
AcDbEntity
  8
0
 62
     0
100
AcDbLine
 10
4.167865925316793
 20
7.3125
 30
0.0
 11
4.174538057621145
 21
7.3125
 31
0.0
  0
LINE
  5
3B0
330
2C
100
AcDbEntity
  8
0
 62
     0
100
AcDbLine
 10
4.16855285574882
 20
7.31875
 30
0.0
 11
4.17385112718912
 21
7.31875
 31
0.0
  0
LINE
  5
3B1
330
2C
100
AcDbEntity
  8
0
 62
     0
100
AcDbLine
 10
4.169160397971983
 20
7.325
 30
0.0
 11
4.173243584965957
 21
7.325
 31
0.0
  0
LINE
  5
3B2
330
2C
100
AcDbEntity
  8
0
 62
     0
100
AcDbLine
 10
4.169688842260835
 20
7.33125
 30
0.0
 11
4.172715140677103
 21
7.33125
 31
0.0
  0
LINE
  5
3B3
330
2C
100
AcDbEntity
  8
0
 62
     0
100
AcDbLine
 10
4.170138439948251
 20
7.3375
 30
0.0
 11
4.172265542989687
 21
7.3375
 31
0.0
  0
LINE
  5
3B4
330
2C
100
AcDbEntity
  8
0
 62
     0
100
AcDbLine
 10
4.170509404029122
 20
7.34375
 30
0.0
 11
4.171894578908817
 21
7.34375
 31
0.0
  0
LINE
  5
3B5
330
2C
100
AcDbEntity
  8
0
 62
     0
100
AcDbLine
 10
4.170801909668647
 20
7.35
 30
0.0
 11
4.171602073269292
 21
7.35
 31
0.0
  0
LINE
  5
3B6
330
2C
100
AcDbEntity
  8
0
 62
     0
100
AcDbLine
 10
4.171016094618071
 20
7.35625
 30
0.0
 11
4.171387888319867
 21
7.35625
 31
0.0
  0
LINE
  5
3B7
330
2C
100
AcDbEntity
  8
0
 62
     0
100
AcDbLine
 10
4.171152059540171
 20
7.3625
 30
0.0
 11
4.171251923397766
 21
7.3625
 31
0.0
  0
LINE
  5
3B8
330
2C
100
AcDbEntity
  8
0
 62
     0
100
AcDbLine
 10
4.17119411469162
 20
7.36875
 30
0.0
 11
4.171209868246319
 21
7.36875
 31
0.0
  0
LINE
  5
3B9
330
2C
100
AcDbEntity
  8
0
 62
     0
100
AcDbLine
 10
4.156536832302816
 20
7.25
 30
0.0
 11
4.185867150635123
 21
7.25
 31
0.0
  0
LINE
  5
3BA
330
2C
100
AcDbEntity
  8
0
 62
     0
100
AcDbLine
 10
4.154945410438709
 20
7.24375
 30
0.0
 11
4.187458572499231
 21
7.24375
 31
0.0
  0
LINE
  5
3BB
330
2C
100
AcDbEntity
  8
0
 62
     0
100
AcDbLine
 10
4.153267709311144
 20
7.2375
 30
0.0
 11
4.189136273626795
 21
7.2375
 31
0.0
  0
LINE
  5
3BC
330
2C
100
AcDbEntity
  8
0
 62
     0
100
AcDbLine
 10
4.151502824775956
 20
7.23125
 30
0.0
 11
4.190901158161984
 21
7.23125
 31
0.0
  0
LINE
  5
3BD
330
2C
100
AcDbEntity
  8
0
 62
     0
100
AcDbLine
 10
4.149649792014731
 20
7.225
 30
0.0
 11
4.170514238817704
 21
7.225
 31
0.0
  0
LINE
  5
3BE
330
2C
100
AcDbEntity
  8
0
 62
     0
100
AcDbLine
 10
4.17188974412022
 20
7.225
 30
0.0
 11
4.192754190923209
 21
7.225
 31
0.0
  0
LINE
  5
3BF
330
2C
100
AcDbEntity
  8
0
 62
     0
100
AcDbLine
 10
4.147707582635473
 20
7.21875
 30
0.0
 11
4.16865349922432
 21
7.21875
 31
0.0
  0
LINE
  5
3C0
330
2C
100
AcDbEntity
  8
0
 62
     0
100
AcDbLine
 10
4.173750483713604
 20
7.21875
 30
0.0
 11
4.194696400302465
 21
7.21875
 31
0.0
  0
LINE
  5
3C1
330
2C
100
AcDbEntity
  8
0
 62
     0
100
AcDbLine
 10
4.145675101508724
 20
7.2125
 30
0.0
 11
4.166706944063726
 21
7.2125
 31
0.0
  0
LINE
  5
3C2
330
2C
100
AcDbEntity
  8
0
 62
     0
100
AcDbLine
 10
4.175697038874197
 20
7.2125
 30
0.0
 11
4.196728881429214
 21
7.2125
 31
0.0
  0
LINE
  5
3C3
330
2C
100
AcDbEntity
  8
0
 62
     0
100
AcDbLine
 10
4.143551183314425
 20
7.20625
 30
0.0
 11
4.164673557788107
 21
7.20625
 31
0.0
  0
LINE
  5
3C4
330
2C
100
AcDbEntity
  8
0
 62
     0
100
AcDbLine
 10
4.17773042514982
 20
7.20625
 30
0.0
 11
4.198852799623516
 21
7.20625
 31
0.0
  0
LINE
  5
3C5
330
2C
100
AcDbEntity
  8
0
 62
     0
100
AcDbLine
 10
4.141334588771703
 20
7.2
 30
0.0
 11
4.162552262360144
 21
7.2
 31
0.0
  0
LINE
  5
3C6
330
2C
100
AcDbEntity
  8
0
 62
     0
100
AcDbLine
 10
4.179851720577784
 20
7.2
 30
0.0
 11
4.201069394166239
 21
7.2
 31
0.0
  0
LINE
  5
3C7
330
2C
100
AcDbEntity
  8
0
 62
     0
100
AcDbLine
 10
4.139024000520274
 20
7.19375
 30
0.0
 11
4.160341914027816
 21
7.19375
 31
0.0
  0
LINE
  5
3C8
330
2C
100
AcDbEntity
  8
0
 62
     0
100
AcDbLine
 10
4.182062068910108
 20
7.19375
 30
0.0
 11
4.203379982417666
 21
7.19375
 31
0.0
  0
LINE
  5
3C9
330
2C
100
AcDbEntity
  8
0
 62
     0
100
AcDbLine
 10
4.136618018618079
 20
7.1875
 30
0.0
 11
4.158041299813144
 21
7.1875
 31
0.0
  0
LINE
  5
3CA
330
2C
100
AcDbEntity
  8
0
 62
     0
100
AcDbLine
 10
4.18436268312478
 20
7.1875
 30
0.0
 11
4.20578596431986
 21
7.1875
 31
0.0
  0
LINE
  5
3CB
330
2C
100
AcDbEntity
  8
0
 62
     0
100
AcDbLine
 10
4.134115155615204
 20
7.18125
 30
0.0
 11
4.155649133687051
 21
7.18125
 31
0.0
  0
LINE
  5
3CC
330
2C
100
AcDbEntity
  8
0
 62
     0
100
AcDbLine
 10
4.186754849250876
 20
7.18125
 30
0.0
 11
4.208288827322737
 21
7.18125
 31
0.0
  0
LINE
  5
3CD
330
2C
100
AcDbEntity
  8
0
 62
     0
100
AcDbLine
 10
4.131513831158817
 20
7.175
 30
0.0
 11
4.153164052399043
 21
7.175
 31
0.0
  0
LINE
  5
3CE
330
2C
100
AcDbEntity
  8
0
 62
     0
100
AcDbLine
 10
4.189239930538879
 20
7.175
 30
0.0
 11
4.210890151779121
 21
7.175
 31
0.0
  0
LINE
  5
3CF
330
2C
100
AcDbEntity
  8
0
 62
     0
100
AcDbLine
 10
4.128812366077735
 20
7.16875
 30
0.0
 11
4.1505846109264
 21
7.16875
 31
0.0
  0
LINE
  5
3D0
330
2C
100
AcDbEntity
  8
0
 62
     0
100
AcDbLine
 10
4.191819372011525
 20
7.16875
 30
0.0
 11
4.213591616860204
 21
7.16875
 31
0.0
  0
LINE
  5
3D1
330
2C
100
AcDbEntity
  8
0
 62
     0
100
AcDbLine
 10
4.126008975888199
 20
7.1625
 30
0.0
 11
4.147909277503027
 21
7.1625
 31
0.0
  0
LINE
  5
3D2
330
2C
100
AcDbEntity
  8
0
 62
     0
100
AcDbLine
 10
4.194494705434896
 20
7.1625
 30
0.0
 11
4.216395007049741
 21
7.1625
 31
0.0
  0
LINE
  5
3D3
330
2C
100
AcDbEntity
  8
0
 62
     0
100
AcDbLine
 10
4.123101763654189
 20
7.15625
 30
0.0
 11
4.145136428182898
 21
7.15625
 31
0.0
  0
LINE
  5
3D4
330
2C
100
AcDbEntity
  8
0
 62
     0
100
AcDbLine
 10
4.197267554755029
 20
7.15625
 30
0.0
 11
4.219302219283752
 21
7.15625
 31
0.0
  0
ENDBLK
  5
3D5
330
2C
100
AcDbEntity
  8
0
100
AcDbBlockEnd
  0
BLOCK
  5
3D6
330
2D
100
AcDbEntity
  8
0
100
AcDbBlockBegin
  2
SBBB
 70
     0
 10
0.0
 20
0.0
 30
0.0
  3
SBBB
  1

  0
TEXT
  5
3D7
330
2D
100
AcDbEntity
  8
0
100
AcDbText
 10
-0.6558782172982847
 20
-0.50536529293236
 30
0.0
 40
0.156
  1
B
  7
COMPLEX
 72
     1
 11
-0.5778782172982849
 21
-0.50536529293236
 31
0.0
100
AcDbText
  0
LINE
  5
3D8
330
2D
100
AcDbEntity
  8
0
100
AcDbLine
 10
-0.2292366486465216
 20
-0.4374999999999983
 30
0.0
 11
-0.2292366486465225
 21
-0.451024804847763
 31
0.0
  0
LINE
  5
3D9
330
2D
100
AcDbEntity
  8
0
100
AcDbLine
 10
-0.2292366486465216
 20
-0.4074999999999998
 30
0.0
 11
-0.0149999999999988
 21
-0.4074999999999989
 31
0.0
  0
LINE
  5
3DA
330
2D
100
AcDbEntity
  8
0
100
AcDbLine
 10
-0.2292366486465216
 20
-0.4374999999999992
 30
0.0
 11
0.017923002649547
 21
-0.4374999999999992
 31
0.0
  0
LINE
  5
3DB
330
2D
100
AcDbEntity
  8
0
100
AcDbLine
 10
-0.0299999999999994
 20
-0.4224999999999995
 30
0.0
 11
-0.0299999999999994
 21
0.0000000000000009
 31
0.0
  0
LINE
  5
3DC
330
2D
100
AcDbEntity
  8
0
100
AcDbLine
 10
0.0
 20
-0.4571321552628529
 30
0.0
 11
0.0
 21
0.0
 31
0.0
  0
ARC
  5
3DD
330
2D
100
AcDbEntity
  8
0
100
AcDbCircle
 10
-0.4486009293161688
 20
0.0774898749921995
 30
0.0
 40
0.5
100
AcDbArc
 50
269.6353711361726
 51
296.0227864572306
  0
LINE
  5
3DE
330
2D
100
AcDbEntity
  8
0
100
AcDbLine
 10
-0.2292366486465216
 20
-0.4374999999999992
 30
0.0
 11
-0.2292366486465216
 21
-0.4374999999999992
 31
0.0
  0
ARC
  5
3DF
330
2D
100
AcDbEntity
  8
0
100
AcDbCircle
 10
-0.4486009293161688
 20
-0.9224898749921965
 30
0.0
 40
0.5
100
AcDbArc
 50
63.97721354276936
 51
90.36462886382739
  0
ARC
  5
3E0
330
2D
100
AcDbEntity
  8
0
100
AcDbCircle
 10
-0.4486009293161688
 20
0.0774898749921995
 30
0.0
 40
0.5200000000000001
100
AcDbArc
 50
285.9464297556974
 51
294.9517180917784
  0
ARC
  5
3E1
330
2D
100
AcDbEntity
  8
0
100
AcDbCircle
 10
-0.4486009293161688
 20
-0.9224898749921965
 30
0.0
 40
0.5200000000000001
100
AcDbArc
 50
65.04828190822201
 51
74.0535702443027
  0
LINE
  5
3E2
330
2D
100
AcDbEntity
  8
0
100
AcDbLine
 10
-0.2292366486465216
 20
-0.3939751951522217
 30
0.0
 11
-0.2292366486465216
 21
-0.4074999999999998
 31
0.0
  0
LINE
  5
3E3
330
2D
100
AcDbEntity
  8
0
100
AcDbLine
 10
-0.2292366486465216
 20
-0.3939751951522217
 30
0.0
 11
-0.2292366486465216
 21
-0.371819942802035
 31
0.0
  0
LINE
  5
3E4
330
2D
100
AcDbEntity
  8
0
100
AcDbLine
 10
-0.2292366486465225
 20
-0.451024804847763
 30
0.0
 11
-0.2292366486465216
 21
-0.4731800571979621
 31
0.0
  0
INSERT
  5
3E5
330
2D
100
AcDbEntity
  8
0
100
AcDbBlockReference
  2
*X7
 10
6.921648479033177
 20
3.748701991468968
 30
0.0
 41
-1.0
 50
90.0
  0
ENDBLK
  5
3E6
330
2D
100
AcDbEntity
  8
0
100
AcDbBlockEnd
  0
BLOCK
  5
3E7
330
2E
100
AcDbEntity
  8
0
100
AcDbBlockBegin
  2
*X7
 70
     1
 10
0.0
 20
0.0
 30
0.0
  3
*X7
  1

  0
LINE
  5
3E8
330
2E
100
AcDbEntity
  8
0
 62
     0
100
AcDbLine
 10
4.158042821030212
 20
7.25625
 30
0.0
 11
4.184361161907728
 21
7.25625
 31
0.0
  0
LINE
  5
3E9
330
2E
100
AcDbEntity
  8
0
 62
     0
100
AcDbLine
 10
4.159464167164085
 20
7.2625
 30
0.0
 11
4.182939815773856
 21
7.2625
 31
0.0
  0
LINE
  5
3EA
330
2E
100
AcDbEntity
  8
0
 62
     0
100
AcDbLine
 10
4.160801607892522
 20
7.26875
 30
0.0
 11
4.181602375045417
 21
7.26875
 31
0.0
  0
LINE
  5
3EB
330
2E
100
AcDbEntity
  8
0
 62
     0
100
AcDbLine
 10
4.162055829087108
 20
7.275
 30
0.0
 11
4.180348153850832
 21
7.275
 31
0.0
  0
LINE
  5
3EC
330
2E
100
AcDbEntity
  8
0
 62
     0
100
AcDbLine
 10
4.163227467165616
 20
7.28125
 30
0.0
 11
4.179176515772323
 21
7.28125
 31
0.0
  0
LINE
  5
3ED
330
2E
100
AcDbEntity
  8
0
 62
     0
100
AcDbLine
 10
4.1643171107912
 20
7.2875
 30
0.0
 11
4.178086872146739
 21
7.2875
 31
0.0
  0
LINE
  5
3EE
330
2E
100
AcDbEntity
  8
0
 62
     0
100
AcDbLine
 10
4.165325302419223
 20
7.29375
 30
0.0
 11
4.177078680518715
 21
7.29375
 31
0.0
  0
LINE
  5
3EF
330
2E
100
AcDbEntity
  8
0
 62
     0
100
AcDbLine
 10
4.16625253970155
 20
7.3
 30
0.0
 11
4.17615144323639
 21
7.3
 31
0.0
  0
LINE
  5
3F0
330
2E
100
AcDbEntity
  8
0
 62
     0
100
AcDbLine
 10
4.167099276757146
 20
7.30625
 30
0.0
 11
4.175304706180795
 21
7.30625
 31
0.0
  0
LINE
  5
3F1
330
2E
100
AcDbEntity
  8
0
 62
     0
100
AcDbLine
 10
4.167865925316793
 20
7.3125
 30
0.0
 11
4.174538057621145
 21
7.3125
 31
0.0
  0
LINE
  5
3F2
330
2E
100
AcDbEntity
  8
0
 62
     0
100
AcDbLine
 10
4.16855285574882
 20
7.31875
 30
0.0
 11
4.17385112718912
 21
7.31875
 31
0.0
  0
LINE
  5
3F3
330
2E
100
AcDbEntity
  8
0
 62
     0
100
AcDbLine
 10
4.169160397971983
 20
7.325
 30
0.0
 11
4.173243584965957
 21
7.325
 31
0.0
  0
LINE
  5
3F4
330
2E
100
AcDbEntity
  8
0
 62
     0
100
AcDbLine
 10
4.169688842260835
 20
7.33125
 30
0.0
 11
4.172715140677103
 21
7.33125
 31
0.0
  0
LINE
  5
3F5
330
2E
100
AcDbEntity
  8
0
 62
     0
100
AcDbLine
 10
4.170138439948251
 20
7.3375
 30
0.0
 11
4.172265542989687
 21
7.3375
 31
0.0
  0
LINE
  5
3F6
330
2E
100
AcDbEntity
  8
0
 62
     0
100
AcDbLine
 10
4.170509404029122
 20
7.34375
 30
0.0
 11
4.171894578908817
 21
7.34375
 31
0.0
  0
LINE
  5
3F7
330
2E
100
AcDbEntity
  8
0
 62
     0
100
AcDbLine
 10
4.170801909668647
 20
7.35
 30
0.0
 11
4.171602073269292
 21
7.35
 31
0.0
  0
LINE
  5
3F8
330
2E
100
AcDbEntity
  8
0
 62
     0
100
AcDbLine
 10
4.171016094618071
 20
7.35625
 30
0.0
 11
4.171387888319867
 21
7.35625
 31
0.0
  0
LINE
  5
3F9
330
2E
100
AcDbEntity
  8
0
 62
     0
100
AcDbLine
 10
4.171152059540171
 20
7.3625
 30
0.0
 11
4.171251923397766
 21
7.3625
 31
0.0
  0
LINE
  5
3FA
330
2E
100
AcDbEntity
  8
0
 62
     0
100
AcDbLine
 10
4.17119411469162
 20
7.36875
 30
0.0
 11
4.171209868246319
 21
7.36875
 31
0.0
  0
LINE
  5
3FB
330
2E
100
AcDbEntity
  8
0
 62
     0
100
AcDbLine
 10
4.156536832302816
 20
7.25
 30
0.0
 11
4.185867150635123
 21
7.25
 31
0.0
  0
LINE
  5
3FC
330
2E
100
AcDbEntity
  8
0
 62
     0
100
AcDbLine
 10
4.154945410438709
 20
7.24375
 30
0.0
 11
4.187458572499231
 21
7.24375
 31
0.0
  0
LINE
  5
3FD
330
2E
100
AcDbEntity
  8
0
 62
     0
100
AcDbLine
 10
4.153267709311144
 20
7.2375
 30
0.0
 11
4.189136273626795
 21
7.2375
 31
0.0
  0
LINE
  5
3FE
330
2E
100
AcDbEntity
  8
0
 62
     0
100
AcDbLine
 10
4.151502824775956
 20
7.23125
 30
0.0
 11
4.190901158161984
 21
7.23125
 31
0.0
  0
LINE
  5
3FF
330
2E
100
AcDbEntity
  8
0
 62
     0
100
AcDbLine
 10
4.149649792014731
 20
7.225
 30
0.0
 11
4.170514238817704
 21
7.225
 31
0.0
  0
LINE
  5
400
330
2E
100
AcDbEntity
  8
0
 62
     0
100
AcDbLine
 10
4.17188974412022
 20
7.225
 30
0.0
 11
4.192754190923209
 21
7.225
 31
0.0
  0
LINE
  5
401
330
2E
100
AcDbEntity
  8
0
 62
     0
100
AcDbLine
 10
4.147707582635473
 20
7.21875
 30
0.0
 11
4.16865349922432
 21
7.21875
 31
0.0
  0
LINE
  5
402
330
2E
100
AcDbEntity
  8
0
 62
     0
100
AcDbLine
 10
4.173750483713604
 20
7.21875
 30
0.0
 11
4.194696400302465
 21
7.21875
 31
0.0
  0
LINE
  5
403
330
2E
100
AcDbEntity
  8
0
 62
     0
100
AcDbLine
 10
4.145675101508724
 20
7.2125
 30
0.0
 11
4.166706944063726
 21
7.2125
 31
0.0
  0
LINE
  5
404
330
2E
100
AcDbEntity
  8
0
 62
     0
100
AcDbLine
 10
4.175697038874197
 20
7.2125
 30
0.0
 11
4.196728881429214
 21
7.2125
 31
0.0
  0
LINE
  5
405
330
2E
100
AcDbEntity
  8
0
 62
     0
100
AcDbLine
 10
4.143551183314425
 20
7.20625
 30
0.0
 11
4.164673557788107
 21
7.20625
 31
0.0
  0
LINE
  5
406
330
2E
100
AcDbEntity
  8
0
 62
     0
100
AcDbLine
 10
4.17773042514982
 20
7.20625
 30
0.0
 11
4.198852799623516
 21
7.20625
 31
0.0
  0
LINE
  5
407
330
2E
100
AcDbEntity
  8
0
 62
     0
100
AcDbLine
 10
4.141334588771703
 20
7.2
 30
0.0
 11
4.162552262360144
 21
7.2
 31
0.0
  0
LINE
  5
408
330
2E
100
AcDbEntity
  8
0
 62
     0
100
AcDbLine
 10
4.179851720577784
 20
7.2
 30
0.0
 11
4.201069394166239
 21
7.2
 31
0.0
  0
LINE
  5
409
330
2E
100
AcDbEntity
  8
0
 62
     0
100
AcDbLine
 10
4.139024000520274
 20
7.19375
 30
0.0
 11
4.160341914027816
 21
7.19375
 31
0.0
  0
LINE
  5
40A
330
2E
100
AcDbEntity
  8
0
 62
     0
100
AcDbLine
 10
4.182062068910108
 20
7.19375
 30
0.0
 11
4.203379982417666
 21
7.19375
 31
0.0
  0
LINE
  5
40B
330
2E
100
AcDbEntity
  8
0
 62
     0
100
AcDbLine
 10
4.136618018618079
 20
7.1875
 30
0.0
 11
4.158041299813144
 21
7.1875
 31
0.0
  0
LINE
  5
40C
330
2E
100
AcDbEntity
  8
0
 62
     0
100
AcDbLine
 10
4.18436268312478
 20
7.1875
 30
0.0
 11
4.20578596431986
 21
7.1875
 31
0.0
  0
LINE
  5
40D
330
2E
100
AcDbEntity
  8
0
 62
     0
100
AcDbLine
 10
4.134115155615204
 20
7.18125
 30
0.0
 11
4.155649133687051
 21
7.18125
 31
0.0
  0
LINE
  5
40E
330
2E
100
AcDbEntity
  8
0
 62
     0
100
AcDbLine
 10
4.186754849250876
 20
7.18125
 30
0.0
 11
4.208288827322737
 21
7.18125
 31
0.0
  0
LINE
  5
40F
330
2E
100
AcDbEntity
  8
0
 62
     0
100
AcDbLine
 10
4.131513831158817
 20
7.175
 30
0.0
 11
4.153164052399043
 21
7.175
 31
0.0
  0
LINE
  5
410
330
2E
100
AcDbEntity
  8
0
 62
     0
100
AcDbLine
 10
4.189239930538879
 20
7.175
 30
0.0
 11
4.210890151779121
 21
7.175
 31
0.0
  0
LINE
  5
411
330
2E
100
AcDbEntity
  8
0
 62
     0
100
AcDbLine
 10
4.128812366077735
 20
7.16875
 30
0.0
 11
4.1505846109264
 21
7.16875
 31
0.0
  0
LINE
  5
412
330
2E
100
AcDbEntity
  8
0
 62
     0
100
AcDbLine
 10
4.191819372011525
 20
7.16875
 30
0.0
 11
4.213591616860204
 21
7.16875
 31
0.0
  0
LINE
  5
413
330
2E
100
AcDbEntity
  8
0
 62
     0
100
AcDbLine
 10
4.126008975888199
 20
7.1625
 30
0.0
 11
4.147909277503027
 21
7.1625
 31
0.0
  0
LINE
  5
414
330
2E
100
AcDbEntity
  8
0
 62
     0
100
AcDbLine
 10
4.194494705434896
 20
7.1625
 30
0.0
 11
4.216395007049741
 21
7.1625
 31
0.0
  0
LINE
  5
415
330
2E
100
AcDbEntity
  8
0
 62
     0
100
AcDbLine
 10
4.123101763654189
 20
7.15625
 30
0.0
 11
4.145136428182898
 21
7.15625
 31
0.0
  0
LINE
  5
416
330
2E
100
AcDbEntity
  8
0
 62
     0
100
AcDbLine
 10
4.197267554755029
 20
7.15625
 30
0.0
 11
4.219302219283752
 21
7.15625
 31
0.0
  0
ENDBLK
  5
417
330
2E
100
AcDbEntity
  8
0
100
AcDbBlockEnd
  0
BLOCK
  5
418
330
2F
100
AcDbEntity
  8
0
100
AcDbBlockBegin
  2
SAAL
 70
     0
 10
0.0
 20
0.0
 30
0.0
  3
SAAL
  1

  0
TEXT
  5
419
330
2F
100
AcDbEntity
  8
0
100
AcDbText
 10
-0.5040834610697376
 20
0.5122863324383254
 30
0.0
 40
0.156
  1
A
  7
COMPLEX
 72
     1
 11
-0.4297977467840233
 21
0.5122863324383254
 31
0.0
100
AcDbText
  0
INSERT
  5
41A
330
2F
100
AcDbEntity
  8
0
100
AcDbBlockReference
  2
*X9
 10
3.748701991468969
 20
-6.921648479033177
 30
0.0
 41
-1.0
  0
LINE
  5
41B
330
2F
100
AcDbEntity
  8
0
100
AcDbLine
 10
-0.4510248048477635
 20
0.2292366486465225
 30
0.0
 11
-0.4731800571979626
 21
0.2292366486465216
 31
0.0
  0
LINE
  5
41C
330
2F
100
AcDbEntity
  8
0
100
AcDbLine
 10
-0.3939751951522221
 20
0.2292366486465216
 30
0.0
 11
-0.3718199428020354
 21
0.2292366486465216
 31
0.0
  0
LINE
  5
41D
330
2F
100
AcDbEntity
  8
0
100
AcDbLine
 10
-0.3939751951522221
 20
0.2292366486465216
 30
0.0
 11
-0.4075000000000002
 21
0.2292366486465216
 31
0.0
  0
ARC
  5
41E
330
2F
100
AcDbEntity
  8
0
100
AcDbCircle
 10
-0.9224898749921969
 20
0.4486009293161688
 30
0.0
 40
0.5200000000000001
100
AcDbArc
 50
335.048281908222
 51
344.0535702443027
  0
ARC
  5
41F
330
2F
100
AcDbEntity
  8
0
100
AcDbCircle
 10
0.0774898749921995
 20
0.4486009293161688
 30
0.0
 40
0.5200000000000001
100
AcDbArc
 50
195.9464297556973
 51
204.9517180917784
  0
ARC
  5
420
330
2F
100
AcDbEntity
  8
0
100
AcDbCircle
 10
-0.9224898749921969
 20
0.4486009293161688
 30
0.0
 40
0.5
100
AcDbArc
 50
333.9772135427694
 51
0.3646288638273872
  0
LINE
  5
421
330
2F
100
AcDbEntity
  8
0
100
AcDbLine
 10
-0.4374999999999996
 20
0.2292366486465216
 30
0.0
 11
-0.4374999999999996
 21
0.2292366486465216
 31
0.0
  0
ARC
  5
422
330
2F
100
AcDbEntity
  8
0
100
AcDbCircle
 10
0.0774898749921995
 20
0.4486009293161688
 30
0.0
 40
0.5
100
AcDbArc
 50
179.6353711361726
 51
206.0227864572306
  0
LINE
  5
423
330
2F
100
AcDbEntity
  8
0
100
AcDbLine
 10
-0.4571321552628534
 20
0.0
 30
0.0
 11
0.0
 21
0.0
 31
0.0
  0
LINE
  5
424
330
2F
100
AcDbEntity
  8
0
100
AcDbLine
 10
-0.4224999999999999
 20
0.0299999999999994
 30
0.0
 11
0.0000000000000009
 21
0.0299999999999994
 31
0.0
  0
LINE
  5
425
330
2F
100
AcDbEntity
  8
0
100
AcDbLine
 10
-0.4374999999999996
 20
0.2292366486465216
 30
0.0
 11
-0.4374999999999996
 21
-0.017923002649547
 31
0.0
  0
LINE
  5
426
330
2F
100
AcDbEntity
  8
0
100
AcDbLine
 10
-0.4075000000000002
 20
0.2292366486465216
 30
0.0
 11
-0.4074999999999993
 21
0.0149999999999988
 31
0.0
  0
LINE
  5
427
330
2F
100
AcDbEntity
  8
0
100
AcDbLine
 10
-0.4374999999999987
 20
0.2292366486465216
 30
0.0
 11
-0.4510248048477635
 21
0.2292366486465225
 31
0.0
  0
ENDBLK
  5
428
330
2F
100
AcDbEntity
  8
0
100
AcDbBlockEnd
  0
BLOCK
  5
429
330
30
100
AcDbEntity
  8
0
100
AcDbBlockBegin
  2
*X9
 70
     1
 10
0.0
 20
0.0
 30
0.0
  3
*X9
  1

  0
LINE
  5
42A
330
30
100
AcDbEntity
  8
0
 62
     0
100
AcDbLine
 10
4.158042821030212
 20
7.25625
 30
0.0
 11
4.184361161907728
 21
7.25625
 31
0.0
  0
LINE
  5
42B
330
30
100
AcDbEntity
  8
0
 62
     0
100
AcDbLine
 10
4.159464167164085
 20
7.2625
 30
0.0
 11
4.182939815773856
 21
7.2625
 31
0.0
  0
LINE
  5
42C
330
30
100
AcDbEntity
  8
0
 62
     0
100
AcDbLine
 10
4.160801607892522
 20
7.26875
 30
0.0
 11
4.181602375045417
 21
7.26875
 31
0.0
  0
LINE
  5
42D
330
30
100
AcDbEntity
  8
0
 62
     0
100
AcDbLine
 10
4.162055829087108
 20
7.275
 30
0.0
 11
4.180348153850832
 21
7.275
 31
0.0
  0
LINE
  5
42E
330
30
100
AcDbEntity
  8
0
 62
     0
100
AcDbLine
 10
4.163227467165616
 20
7.28125
 30
0.0
 11
4.179176515772323
 21
7.28125
 31
0.0
  0
LINE
  5
42F
330
30
100
AcDbEntity
  8
0
 62
     0
100
AcDbLine
 10
4.1643171107912
 20
7.2875
 30
0.0
 11
4.178086872146739
 21
7.2875
 31
0.0
  0
LINE
  5
430
330
30
100
AcDbEntity
  8
0
 62
     0
100
AcDbLine
 10
4.165325302419223
 20
7.29375
 30
0.0
 11
4.177078680518715
 21
7.29375
 31
0.0
  0
LINE
  5
431
330
30
100
AcDbEntity
  8
0
 62
     0
100
AcDbLine
 10
4.16625253970155
 20
7.3
 30
0.0
 11
4.17615144323639
 21
7.3
 31
0.0
  0
LINE
  5
432
330
30
100
AcDbEntity
  8
0
 62
     0
100
AcDbLine
 10
4.167099276757146
 20
7.30625
 30
0.0
 11
4.175304706180795
 21
7.30625
 31
0.0
  0
LINE
  5
433
330
30
100
AcDbEntity
  8
0
 62
     0
100
AcDbLine
 10
4.167865925316793
 20
7.3125
 30
0.0
 11
4.174538057621145
 21
7.3125
 31
0.0
  0
LINE
  5
434
330
30
100
AcDbEntity
  8
0
 62
     0
100
AcDbLine
 10
4.16855285574882
 20
7.31875
 30
0.0
 11
4.17385112718912
 21
7.31875
 31
0.0
  0
LINE
  5
435
330
30
100
AcDbEntity
  8
0
 62
     0
100
AcDbLine
 10
4.169160397971983
 20
7.325
 30
0.0
 11
4.173243584965957
 21
7.325
 31
0.0
  0
LINE
  5
436
330
30
100
AcDbEntity
  8
0
 62
     0
100
AcDbLine
 10
4.169688842260835
 20
7.33125
 30
0.0
 11
4.172715140677103
 21
7.33125
 31
0.0
  0
LINE
  5
437
330
30
100
AcDbEntity
  8
0
 62
     0
100
AcDbLine
 10
4.170138439948251
 20
7.3375
 30
0.0
 11
4.172265542989687
 21
7.3375
 31
0.0
  0
LINE
  5
438
330
30
100
AcDbEntity
  8
0
 62
     0
100
AcDbLine
 10
4.170509404029122
 20
7.34375
 30
0.0
 11
4.171894578908817
 21
7.34375
 31
0.0
  0
LINE
  5
439
330
30
100
AcDbEntity
  8
0
 62
     0
100
AcDbLine
 10
4.170801909668647
 20
7.35
 30
0.0
 11
4.171602073269292
 21
7.35
 31
0.0
  0
LINE
  5
43A
330
30
100
AcDbEntity
  8
0
 62
     0
100
AcDbLine
 10
4.171016094618071
 20
7.35625
 30
0.0
 11
4.171387888319867
 21
7.35625
 31
0.0
  0
LINE
  5
43B
330
30
100
AcDbEntity
  8
0
 62
     0
100
AcDbLine
 10
4.171152059540171
 20
7.3625
 30
0.0
 11
4.171251923397766
 21
7.3625
 31
0.0
  0
LINE
  5
43C
330
30
100
AcDbEntity
  8
0
 62
     0
100
AcDbLine
 10
4.17119411469162
 20
7.36875
 30
0.0
 11
4.171209868246319
 21
7.36875
 31
0.0
  0
LINE
  5
43D
330
30
100
AcDbEntity
  8
0
 62
     0
100
AcDbLine
 10
4.156536832302816
 20
7.25
 30
0.0
 11
4.185867150635123
 21
7.25
 31
0.0
  0
LINE
  5
43E
330
30
100
AcDbEntity
  8
0
 62
     0
100
AcDbLine
 10
4.154945410438709
 20
7.24375
 30
0.0
 11
4.187458572499231
 21
7.24375
 31
0.0
  0
LINE
  5
43F
330
30
100
AcDbEntity
  8
0
 62
     0
100
AcDbLine
 10
4.153267709311144
 20
7.2375
 30
0.0
 11
4.189136273626795
 21
7.2375
 31
0.0
  0
LINE
  5
440
330
30
100
AcDbEntity
  8
0
 62
     0
100
AcDbLine
 10
4.151502824775956
 20
7.23125
 30
0.0
 11
4.190901158161984
 21
7.23125
 31
0.0
  0
LINE
  5
441
330
30
100
AcDbEntity
  8
0
 62
     0
100
AcDbLine
 10
4.149649792014731
 20
7.225
 30
0.0
 11
4.170514238817704
 21
7.225
 31
0.0
  0
LINE
  5
442
330
30
100
AcDbEntity
  8
0
 62
     0
100
AcDbLine
 10
4.17188974412022
 20
7.225
 30
0.0
 11
4.192754190923209
 21
7.225
 31
0.0
  0
LINE
  5
443
330
30
100
AcDbEntity
  8
0
 62
     0
100
AcDbLine
 10
4.147707582635473
 20
7.21875
 30
0.0
 11
4.16865349922432
 21
7.21875
 31
0.0
  0
LINE
  5
444
330
30
100
AcDbEntity
  8
0
 62
     0
100
AcDbLine
 10
4.173750483713604
 20
7.21875
 30
0.0
 11
4.194696400302465
 21
7.21875
 31
0.0
  0
LINE
  5
445
330
30
100
AcDbEntity
  8
0
 62
     0
100
AcDbLine
 10
4.145675101508724
 20
7.2125
 30
0.0
 11
4.166706944063726
 21
7.2125
 31
0.0
  0
LINE
  5
446
330
30
100
AcDbEntity
  8
0
 62
     0
100
AcDbLine
 10
4.175697038874197
 20
7.2125
 30
0.0
 11
4.196728881429214
 21
7.2125
 31
0.0
  0
LINE
  5
447
330
30
100
AcDbEntity
  8
0
 62
     0
100
AcDbLine
 10
4.143551183314425
 20
7.20625
 30
0.0
 11
4.164673557788107
 21
7.20625
 31
0.0
  0
LINE
  5
448
330
30
100
AcDbEntity
  8
0
 62
     0
100
AcDbLine
 10
4.17773042514982
 20
7.20625
 30
0.0
 11
4.198852799623516
 21
7.20625
 31
0.0
  0
LINE
  5
449
330
30
100
AcDbEntity
  8
0
 62
     0
100
AcDbLine
 10
4.141334588771703
 20
7.2
 30
0.0
 11
4.162552262360144
 21
7.2
 31
0.0
  0
LINE
  5
44A
330
30
100
AcDbEntity
  8
0
 62
     0
100
AcDbLine
 10
4.179851720577784
 20
7.2
 30
0.0
 11
4.201069394166239
 21
7.2
 31
0.0
  0
LINE
  5
44B
330
30
100
AcDbEntity
  8
0
 62
     0
100
AcDbLine
 10
4.139024000520274
 20
7.19375
 30
0.0
 11
4.160341914027816
 21
7.19375
 31
0.0
  0
LINE
  5
44C
330
30
100
AcDbEntity
  8
0
 62
     0
100
AcDbLine
 10
4.182062068910108
 20
7.19375
 30
0.0
 11
4.203379982417666
 21
7.19375
 31
0.0
  0
LINE
  5
44D
330
30
100
AcDbEntity
  8
0
 62
     0
100
AcDbLine
 10
4.136618018618079
 20
7.1875
 30
0.0
 11
4.158041299813144
 21
7.1875
 31
0.0
  0
LINE
  5
44E
330
30
100
AcDbEntity
  8
0
 62
     0
100
AcDbLine
 10
4.18436268312478
 20
7.1875
 30
0.0
 11
4.20578596431986
 21
7.1875
 31
0.0
  0
LINE
  5
44F
330
30
100
AcDbEntity
  8
0
 62
     0
100
AcDbLine
 10
4.134115155615204
 20
7.18125
 30
0.0
 11
4.155649133687051
 21
7.18125
 31
0.0
  0
LINE
  5
450
330
30
100
AcDbEntity
  8
0
 62
     0
100
AcDbLine
 10
4.186754849250876
 20
7.18125
 30
0.0
 11
4.208288827322737
 21
7.18125
 31
0.0
  0
LINE
  5
451
330
30
100
AcDbEntity
  8
0
 62
     0
100
AcDbLine
 10
4.131513831158817
 20
7.175
 30
0.0
 11
4.153164052399043
 21
7.175
 31
0.0
  0
LINE
  5
452
330
30
100
AcDbEntity
  8
0
 62
     0
100
AcDbLine
 10
4.189239930538879
 20
7.175
 30
0.0
 11
4.210890151779121
 21
7.175
 31
0.0
  0
LINE
  5
453
330
30
100
AcDbEntity
  8
0
 62
     0
100
AcDbLine
 10
4.128812366077735
 20
7.16875
 30
0.0
 11
4.1505846109264
 21
7.16875
 31
0.0
  0
LINE
  5
454
330
30
100
AcDbEntity
  8
0
 62
     0
100
AcDbLine
 10
4.191819372011525
 20
7.16875
 30
0.0
 11
4.213591616860204
 21
7.16875
 31
0.0
  0
LINE
  5
455
330
30
100
AcDbEntity
  8
0
 62
     0
100
AcDbLine
 10
4.126008975888199
 20
7.1625
 30
0.0
 11
4.147909277503027
 21
7.1625
 31
0.0
  0
LINE
  5
456
330
30
100
AcDbEntity
  8
0
 62
     0
100
AcDbLine
 10
4.194494705434896
 20
7.1625
 30
0.0
 11
4.216395007049741
 21
7.1625
 31
0.0
  0
LINE
  5
457
330
30
100
AcDbEntity
  8
0
 62
     0
100
AcDbLine
 10
4.123101763654189
 20
7.15625
 30
0.0
 11
4.145136428182898
 21
7.15625
 31
0.0
  0
LINE
  5
458
330
30
100
AcDbEntity
  8
0
 62
     0
100
AcDbLine
 10
4.197267554755029
 20
7.15625
 30
0.0
 11
4.219302219283752
 21
7.15625
 31
0.0
  0
ENDBLK
  5
459
330
30
100
AcDbEntity
  8
0
100
AcDbBlockEnd
  0
BLOCK
  5
45A
330
31
100
AcDbEntity
  8
0
100
AcDbBlockBegin
  2
*X10
 70
     1
 10
0.0
 20
0.0
 30
0.0
  3
*X10
  1

  0
LINE
  5
45B
330
31
100
AcDbEntity
  8
0
 62
     0
100
AcDbLine
 10
38.91208393030641
 20
25.52302150531773
 30
0.0
 11
38.78708393030641
 21
25.64802150531774
 31
0.0
  0
LINE
  5
45C
330
31
100
AcDbEntity
  8
0
 62
     0
100
AcDbLine
 10
36.65807125150623
 20
27.77703418411791
 30
0.0
 11
36.4170839303064
 21
28.01802150531774
 31
0.0
  0
LINE
  5
45D
330
31
100
AcDbEntity
  8
0
 62
     0
100
AcDbLine
 10
38.11658880147155
 20
25.52302150531773
 30
0.0
 11
37.99158880147154
 21
25.64802150531773
 31
0.0
  0
LINE
  5
45E
330
31
100
AcDbEntity
  8
0
 62
     0
100
AcDbLine
 10
36.67220334727941
 20
26.96740695950987
 30
0.0
 11
36.54496332339556
 21
27.09464698339372
 31
0.0
  0
LINE
  5
45F
330
31
100
AcDbEntity
  8
0
 62
     0
100
AcDbLine
 10
37.32109367263668
 20
25.52302150531773
 30
0.0
 11
37.19609367263668
 21
25.64802150531773
 31
0.0
  0
LINE
  5
460
330
31
100
AcDbEntity
  8
0
 62
     0
100
AcDbLine
 10
36.68633544305259
 20
26.15777973490182
 30
0.0
 11
36.55909541916873
 21
26.28501975878567
 31
0.0
  0
LINE
  5
461
330
31
100
AcDbEntity
  8
0
 62
     0
100
AcDbLine
 10
39.70348911475632
 20
25.52711144970269
 30
0.0
 11
39.58257905914127
 21
25.64802150531774
 31
0.0
  0
LINE
  5
462
330
31
100
AcDbEntity
  8
0
 62
     0
100
AcDbLine
 10
39.8600206887397
 20
26.16607500455419
 30
0.0
 11
39.73714642596887
 21
26.288949267325
 31
0.0
  0
LINE
  5
463
330
31
100
AcDbEntity
  8
0
 62
     0
100
AcDbLine
 10
39.87366789499235
 20
26.9479229271364
 30
0.0
 11
39.75079363222153
 21
27.07079718990721
 31
0.0
  0
LINE
  5
464
330
31
100
AcDbEntity
  8
0
 62
     0
100
AcDbLine
 10
39.89734100989164
 20
27.71974494107198
 30
0.0
 11
39.76444083847419
 21
27.85264511248942
 31
0.0
  0
LINE
  5
465
330
31
100
AcDbEntity
  8
0
 62
     0
100
AcDbLine
 10
39.04466645155641
 20
25.52302150531773
 30
0.0
 11
38.91966645155641
 21
25.64802150531774
 31
0.0
  0
LINE
  5
466
330
31
100
AcDbEntity
  8
0
 62
     0
100
AcDbLine
 10
36.65571590221465
 20
27.91197205465949
 30
0.0
 11
36.53020653134349
 21
28.03748142553065
 31
0.0
  0
LINE
  5
467
330
31
100
AcDbEntity
  8
0
 62
     0
100
AcDbLine
 10
38.24917132272155
 20
25.52302150531773
 30
0.0
 11
38.12417132272154
 21
25.64802150531773
 31
0.0
  0
LINE
  5
468
330
31
100
AcDbEntity
  8
0
 62
     0
100
AcDbLine
 10
36.66984799798783
 20
27.10234483005145
 30
0.0
 11
36.54260797410398
 21
27.2295848539353
 31
0.0
  0
LINE
  5
469
330
31
100
AcDbEntity
  8
0
 62
     0
100
AcDbLine
 10
37.45367619388668
 20
25.52302150531773
 30
0.0
 11
37.32867619388668
 21
25.64802150531773
 31
0.0
  0
LINE
  5
46A
330
31
100
AcDbEntity
  8
0
 62
     0
100
AcDbLine
 10
36.68398009376101
 20
26.2927176054434
 30
0.0
 11
36.55674006987716
 21
26.41995762932725
 31
0.0
  0
LINE
  5
46B
330
31
100
AcDbEntity
  8
0
 62
     0
100
AcDbLine
 10
39.79105041391608
 20
25.57213267179293
 30
0.0
 11
39.68479219116599
 21
25.67839089454302
 31
0.0
  0
LINE
  5
46C
330
31
100
AcDbEntity
  8
0
 62
     0
100
AcDbLine
 10
39.86229522311132
 20
26.29638299143256
 30
0.0
 11
39.7394209603405
 21
26.41925725420338
 31
0.0
  0
LINE
  5
46D
330
31
100
AcDbEntity
  8
0
 62
     0
100
AcDbLine
 10
39.87594242936398
 20
27.07823091401477
 30
0.0
 11
39.75306816659315
 21
27.20110517678559
 31
0.0
  0
LINE
  5
46E
330
31
100
AcDbEntity
  8
0
 62
     0
100
AcDbLine
 10
39.96363227051663
 20
27.78603620169698
 30
0.0
 11
39.76671537284581
 21
27.9829530993678
 31
0.0
  0
LINE
  5
46F
330
31
100
AcDbEntity
  8
0
 62
     0
100
AcDbLine
 10
39.17724897355641
 20
25.52302150531773
 30
0.0
 11
39.05224897355641
 21
25.64802150531774
 31
0.0
  0
LINE
  5
470
330
31
100
AcDbEntity
  8
0
 62
     0
100
AcDbLine
 10
36.65336055290975
 20
28.04690992596439
 30
0.0
 11
36.53887167832308
 21
28.16139880055107
 31
0.0
  0
LINE
  5
471
330
31
100
AcDbEntity
  8
0
 62
     0
100
AcDbLine
 10
38.38175384472155
 20
25.52302150531773
 30
0.0
 11
38.25675384472154
 21
25.64802150531773
 31
0.0
  0
LINE
  5
472
330
31
100
AcDbEntity
  8
0
 62
     0
100
AcDbLine
 10
36.66749264868293
 20
27.23728270135635
 30
0.0
 11
36.54025262479908
 21
27.3645227252402
 31
0.0
  0
LINE
  5
473
330
31
100
AcDbEntity
  8
0
 62
     0
100
AcDbLine
 10
37.58625871588668
 20
25.52302150531773
 30
0.0
 11
37.46125871588668
 21
25.64802150531773
 31
0.0
  0
LINE
  5
474
330
31
100
AcDbEntity
  8
0
 62
     0
100
AcDbLine
 10
36.68162474445611
 20
26.4276554767483
 30
0.0
 11
36.55438472057226
 21
26.55489550063215
 31
0.0
  0
LINE
  5
475
330
31
100
AcDbEntity
  8
0
 62
     0
100
AcDbLine
 10
36.79076358705181
 20
25.52302150531773
 30
0.0
 11
36.56851681634544
 21
25.7452682760241
 31
0.0
  0
LINE
  5
476
330
31
100
AcDbEntity
  8
0
 62
     0
100
AcDbLine
 10
39.8429421604606
 20
25.6528234472484
 30
0.0
 11
39.72801082943764
 21
25.76775477827137
 31
0.0
  0
LINE
  5
477
330
31
100
AcDbEntity
  8
0
 62
     0
100
AcDbLine
 10
39.86456975749582
 20
26.42669097904807
 30
0.0
 11
39.74169549472499
 21
26.54956524181889
 31
0.0
  0
LINE
  5
478
330
31
100
AcDbEntity
  8
0
 62
     0
100
AcDbLine
 10
39.87821696374847
 20
27.20853890163028
 30
0.0
 11
39.75534270097765
 21
27.33141316440109
 31
0.0
  0
LINE
  5
479
330
31
100
AcDbEntity
  8
0
 62
     0
100
AcDbLine
 10
40.02311757413738
 20
27.85913342007622
 30
0.0
 11
39.76898990723031
 21
28.11326108698331
 31
0.0
  0
LINE
  5
47A
330
31
100
AcDbEntity
  8
0
 62
     0
100
AcDbLine
 10
39.30983149480641
 20
25.52302150531773
 30
0.0
 11
39.18483149480641
 21
25.64802150531774
 31
0.0
  0
LINE
  5
47B
330
31
100
AcDbEntity
  8
0
 62
     0
100
AcDbLine
 10
36.65100520361817
 20
28.18184779650597
 30
0.0
 11
36.56483149480642
 21
28.26802150531774
 31
0.0
  0
LINE
  5
47C
330
31
100
AcDbEntity
  8
0
 62
     0
100
AcDbLine
 10
38.51433636597155
 20
25.52302150531773
 30
0.0
 11
38.38933636597154
 21
25.64802150531773
 31
0.0
  0
LINE
  5
47D
330
31
100
AcDbEntity
  8
0
 62
     0
100
AcDbLine
 10
36.66513729939135
 20
27.37222057189793
 30
0.0
 11
36.5378972755075
 21
27.49946059578177
 31
0.0
  0
LINE
  5
47E
330
31
100
AcDbEntity
  8
0
 62
     0
100
AcDbLine
 10
37.71884123713668
 20
25.52302150531773
 30
0.0
 11
37.59384123713668
 21
25.64802150531773
 31
0.0
  0
LINE
  5
47F
330
31
100
AcDbEntity
  8
0
 62
     0
100
AcDbLine
 10
36.67926939516453
 20
26.56259334728988
 30
0.0
 11
36.55202937128068
 21
26.68983337117373
 31
0.0
  0
LINE
  5
480
330
31
100
AcDbEntity
  8
0
 62
     0
100
AcDbLine
 10
36.92334610830182
 20
25.52302150531773
 30
0.0
 11
36.79646471646723
 21
25.64990289715231
 31
0.0
  0
LINE
  5
481
330
31
100
AcDbEntity
  8
0
 62
     0
100
AcDbLine
 10
36.69495185577172
 20
25.75141575784783
 30
0.0
 11
36.56616146705386
 21
25.88020614656568
 31
0.0
  0
LINE
  5
482
330
31
100
AcDbEntity
  8
0
 62
     0
100
AcDbLine
 10
39.85319708561478
 20
25.77515104334424
 30
0.0
 11
39.73032282284396
 21
25.89802530611506
 31
0.0
  0
LINE
  5
483
330
31
100
AcDbEntity
  8
0
 62
     0
100
AcDbLine
 10
39.86684429186744
 20
26.55699896592644
 30
0.0
 11
39.74397002909661
 21
26.67987322869726
 31
0.0
  0
LINE
  5
484
330
31
100
AcDbEntity
  8
0
 62
     0
100
AcDbLine
 10
39.8804914981201
 20
27.33884688850865
 30
0.0
 11
39.75761723534927
 21
27.46172115127947
 31
0.0
  0
LINE
  5
485
330
31
100
AcDbEntity
  8
0
 62
     0
100
AcDbLine
 10
40.02311757413738
 20
27.99171594132622
 30
0.0
 11
39.99681201014587
 21
28.01802150531774
 31
0.0
  0
LINE
  5
486
330
31
100
AcDbEntity
  8
0
 62
     0
100
AcDbLine
 10
39.88449238161204
 20
28.13034113385157
 30
0.0
 11
39.77126444160193
 21
28.24356907386168
 31
0.0
  0
ENDBLK
  5
487
330
31
100
AcDbEntity
  8
0
100
AcDbBlockEnd
  0
BLOCK
  5
488
330
32
100
AcDbEntity
  8
0
100
AcDbBlockBegin
  2
*X11
 70
     1
 10
0.0
 20
0.0
 30
0.0
  3
*X11
  1

  0
LINE
  5
489
330
32
100
AcDbEntity
  8
0
 62
     0
100
AcDbLine
 10
10.19704891602013
 20
24.51596123504772
 30
0.0
 11
10.32204891602014
 21
24.64096123504772
 31
0.0
  0
LINE
  5
48A
330
32
100
AcDbEntity
  8
0
 62
     0
100
AcDbLine
 10
9.401553787185269
 20
24.51596123504772
 30
0.0
 11
9.526553787185273
 21
24.64096123504772
 31
0.0
  0
LINE
  5
48B
330
32
100
AcDbEntity
  8
0
 62
     0
100
AcDbLine
 10
8.606058658350404
 20
24.51596123504772
 30
0.0
 11
8.731058658350406
 21
24.64096123504772
 31
0.0
  0
LINE
  5
48C
330
32
100
AcDbEntity
  8
0
 62
     0
100
AcDbLine
 10
10.90979886175489
 20
24.43321605194761
 30
0.0
 11
10.99818720940321
 21
24.52160439959593
 31
0.0
  0
LINE
  5
48D
330
32
100
AcDbEntity
  8
0
 62
     0
100
AcDbLine
 10
11.37878037395141
 20
24.10670243530927
 30
0.0
 11
11.49650073579331
 21
24.22442279715116
 31
0.0
  0
LINE
  5
48E
330
32
100
AcDbEntity
  8
0
 62
     0
100
AcDbLine
 10
10.32963143727013
 20
24.51596123504772
 30
0.0
 11
10.45463143727014
 21
24.64096123504772
 31
0.0
  0
LINE
  5
48F
330
32
100
AcDbEntity
  8
0
 62
     0
100
AcDbLine
 10
9.53413630843527
 20
24.51596123504772
 30
0.0
 11
9.659136308435272
 21
24.64096123504772
 31
0.0
  0
LINE
  5
490
330
32
100
AcDbEntity
  8
0
 62
     0
100
AcDbLine
 10
8.738641179600403
 20
24.51596123504772
 30
0.0
 11
8.863641179600405
 21
24.64096123504772
 31
0.0
  0
LINE
  5
491
330
32
100
AcDbEntity
  8
0
 62
     0
100
AcDbLine
 10
10.9760901223799
 20
24.36692479132262
 30
0.0
 11
11.06447847002821
 21
24.45531313897093
 31
0.0
  0
LINE
  5
492
330
32
100
AcDbEntity
  8
0
 62
     0
100
AcDbLine
 10
11.42062169493987
 20
24.01596123504773
 30
0.0
 11
11.50097439580641
 21
24.09631393591427
 31
0.0
  0
LINE
  5
493
330
32
100
AcDbEntity
  8
0
 62
     0
100
AcDbLine
 10
10.46221395927013
 20
24.51596123504772
 30
0.0
 11
10.58721395927014
 21
24.64096123504772
 31
0.0
  0
LINE
  5
494
330
32
100
AcDbEntity
  8
0
 62
     0
100
AcDbLine
 10
9.66671883043527
 20
24.51596123504772
 30
0.0
 11
9.791718830435273
 21
24.64096123504772
 31
0.0
  0
LINE
  5
495
330
32
100
AcDbEntity
  8
0
 62
     0
100
AcDbLine
 10
8.871223701600404
 20
24.51596123504772
 30
0.0
 11
8.996223701600406
 21
24.64096123504772
 31
0.0
  0
LINE
  5
496
330
32
100
AcDbEntity
  8
0
 62
     0
100
AcDbLine
 10
7.889701705383815
 20
24.329934367666
 30
0.0
 11
8.013228572765541
 21
24.45346123504772
 31
0.0
  0
LINE
  5
497
330
32
100
AcDbEntity
  8
0
 62
     0
100
AcDbLine
 10
11.07020908810501
 20
24.32846123504774
 30
0.0
 11
11.19520908810501
 21
24.45346123504773
 31
0.0
  0
LINE
  5
498
330
32
100
AcDbEntity
  8
0
 62
     0
100
AcDbLine
 10
10.59479648052013
 20
24.51596123504772
 30
0.0
 11
10.71979648052014
 21
24.64096123504772
 31
0.0
  0
LINE
  5
499
330
32
100
AcDbEntity
  8
0
 62
     0
100
AcDbLine
 10
9.799301351685269
 20
24.51596123504772
 30
0.0
 11
9.924301351685272
 21
24.64096123504772
 31
0.0
  0
LINE
  5
49A
330
32
100
AcDbEntity
  8
0
 62
     0
100
AcDbLine
 10
9.003806222850403
 20
24.51596123504772
 30
0.0
 11
9.128806222850405
 21
24.64096123504772
 31
0.0
  0
LINE
  5
49B
330
32
100
AcDbEntity
  8
0
 62
     0
100
AcDbLine
 10
7.884904292366474
 20
24.19255443339866
 30
0.0
 11
8.14581109401554
 21
24.45346123504772
 31
0.0
  0
LINE
  5
49C
330
32
100
AcDbEntity
  8
0
 62
     0
100
AcDbLine
 10
11.20279160935501
 20
24.32846123504774
 30
0.0
 11
11.32779160935501
 21
24.45346123504773
 31
0.0
  0
ENDBLK
  5
49D
330
32
100
AcDbEntity
  8
0
100
AcDbBlockEnd
  0
BLOCK
  5
49E
330
33
100
AcDbEntity
  8
0
100
AcDbBlockBegin
  2
*D12
 70
     1
 10
0.0
 20
0.0
 30
0.0
  3
*D12
  1

  0
LINE
  5
49F
330
33
100
AcDbEntity
  8
0
  6
ByBlock
 62
     0
440
 16777216
100
AcDbLine
 10
27.00563098979991
 20
57.04502949472573
 30
0.0
 11
29.02045815261329
 21
57.04502949472573
 31
0.0
  0
LINE
  5
4A0
330
33
100
AcDbEntity
  8
0
  6
ByBlock
 62
     0
440
 16777216
100
AcDbLine
 10
27.28857476753521
 20
59.99252949472573
 30
0.0
 11
29.02045815261329
 21
59.99252949472573
 31
0.0
  0
LINE
  5
4A1
330
33
100
AcDbEntity
  8
0
  6
ByBlock
 62
     0
440
 16777216
100
AcDbLine
 10
28.92670815261329
 20
57.23202949472572
 30
0.0
 11
28.92670815261329
 21
58.23752949472572
 31
0.0
  0
LINE
  5
4A2
330
33
100
AcDbEntity
  8
0
  6
ByBlock
 62
     0
440
 16777216
100
AcDbLine
 10
28.92670815261329
 20
59.80552949472573
 30
0.0
 11
28.92670815261329
 21
58.80002949472572
 31
0.0
  0
SOLID
  5
4A3
330
33
100
AcDbEntity
  8
0
  6
ByBlock
 62
     0
440
 16777216
100
AcDbTrace
 10
28.89554148594662
 20
57.23202949472572
 30
0.0
 11
28.95787481927996
 21
57.23202949472572
 31
0.0
 12
28.92670815261329
 22
57.04502949472573
 32
0.0
 13
28.92670815261329
 23
57.04502949472573
 33
0.0
  0
SOLID
  5
4A4
330
33
100
AcDbEntity
  8
0
  6
ByBlock
 62
     0
440
 16777216
100
AcDbTrace
 10
28.89554148594662
 20
59.80552949472573
 30
0.0
 11
28.95787481927996
 21
59.80552949472573
 31
0.0
 12
28.92670815261329
 22
59.99252949472573
 32
0.0
 13
28.92670815261329
 23
59.99252949472573
 33
0.0
  0
TEXT
  5
4A5
330
33
100
AcDbEntity
  8
0
  6
ByBlock
 62
     0
440
 16777216
100
AcDbText
 10
28.36420815261329
 20
58.42502949472572
 30
0.0
 40
0.1875
  1
2 15/16
 72
     1
 11
28.92670815261329
 21
58.51877949472572
 31
0.0
100
AcDbText
 73
     2
  0
POINT
  5
4A6
330
33
100
AcDbEntity
  8
DEFPOINTS
  6
ByBlock
 62
     0
440
 16777216
100
AcDbPoint
 10
26.8181309897999
 20
57.04502949472573
 30
0.0
  0
POINT
  5
4A7
330
33
100
AcDbEntity
  8
DEFPOINTS
  6
ByBlock
 62
     0
440
 16777216
100
AcDbPoint
 10
27.10107476753521
 20
59.99252949472573
 30
0.0
  0
POINT
  5
4A8
330
33
100
AcDbEntity
  8
DEFPOINTS
  6
ByBlock
 62
     0
440
 16777216
100
AcDbPoint
 10
28.92670815261329
 20
59.99252949472573
 30
0.0
  0
ENDBLK
  5
4A9
330
33
100
AcDbEntity
  8
0
100
AcDbBlockEnd
  0
BLOCK
  5
4AA
330
34
100
AcDbEntity
  8
0
100
AcDbBlockBegin
  2
*D13
 70
     1
 10
0.0
 20
0.0
 30
0.0
  3
*D13
  1

  0
LINE
  5
4AB
330
34
100
AcDbEntity
  8
0
  6
ByBlock
 62
     0
440
 16777216
100
AcDbLine
 10
27.09938098979991
 20
57.04502949472573
 30
0.0
 11
30.7704581526133
 21
57.04502949472573
 31
0.0
  0
LINE
  5
4AC
330
34
100
AcDbEntity
  8
0
  6
ByBlock
 62
     0
440
 16777216
100
AcDbLine
 10
26.70795815261329
 20
60.18002949472571
 30
0.0
 11
30.7704581526133
 21
60.18002949472571
 31
0.0
  0
LINE
  5
4AD
330
34
100
AcDbEntity
  8
0
  6
ByBlock
 62
     0
440
 16777216
100
AcDbLine
 10
30.6767081526133
 20
57.23202949472572
 30
0.0
 11
30.6767081526133
 21
58.33127949472572
 31
0.0
  0
LINE
  5
4AE
330
34
100
AcDbEntity
  8
0
  6
ByBlock
 62
     0
440
 16777216
100
AcDbLine
 10
30.6767081526133
 20
59.99302949472571
 30
0.0
 11
30.6767081526133
 21
58.89377949472572
 31
0.0
  0
SOLID
  5
4AF
330
34
100
AcDbEntity
  8
0
  6
ByBlock
 62
     0
440
 16777216
100
AcDbTrace
 10
30.64554148594663
 20
57.23202949472572
 30
0.0
 11
30.70787481927996
 21
57.23202949472572
 31
0.0
 12
30.6767081526133
 22
57.04502949472573
 32
0.0
 13
30.6767081526133
 23
57.04502949472573
 33
0.0
  0
SOLID
  5
4B0
330
34
100
AcDbEntity
  8
0
  6
ByBlock
 62
     0
440
 16777216
100
AcDbTrace
 10
30.64554148594663
 20
59.99302949472571
 30
0.0
 11
30.70787481927996
 21
59.99302949472571
 31
0.0
 12
30.6767081526133
 22
60.18002949472571
 32
0.0
 13
30.6767081526133
 23
60.18002949472571
 33
0.0
  0
TEXT
  5
4B1
330
34
100
AcDbEntity
  8
0
  6
ByBlock
 62
     0
440
 16777216
100
AcDbText
 10
30.2704581526133
 20
58.51877949472572
 30
0.0
 40
0.1875
  1
3 1/8
 72
     1
 11
30.6767081526133
 21
58.61252949472572
 31
0.0
100
AcDbText
 73
     2
  0
POINT
  5
4B2
330
34
100
AcDbEntity
  8
DEFPOINTS
  6
ByBlock
 62
     0
440
 16777216
100
AcDbPoint
 10
26.91188098979991
 20
57.04502949472573
 30
0.0
  0
POINT
  5
4B3
330
34
100
AcDbEntity
  8
DEFPOINTS
  6
ByBlock
 62
     0
440
 16777216
100
AcDbPoint
 10
26.52045815261329
 20
60.18002949472571
 30
0.0
  0
POINT
  5
4B4
330
34
100
AcDbEntity
  8
DEFPOINTS
  6
ByBlock
 62
     0
440
 16777216
100
AcDbPoint
 10
30.6767081526133
 20
60.18002949472571
 30
0.0
  0
ENDBLK
  5
4B5
330
34
100
AcDbEntity
  8
0
100
AcDbBlockEnd
  0
BLOCK
  5
4B6
330
35
100
AcDbEntity
  8
0
100
AcDbBlockBegin
  2
*D14
 70
     1
 10
0.0
 20
0.0
 30
0.0
  3
*D14
  1

  0
LINE
  5
4B7
330
35
100
AcDbEntity
  8
0
  6
ByBlock
 62
     0
440
 16777216
100
AcDbLine
 10
24.17666030065494
 20
72.16804047196283
 30
0.0
 11
24.17666030065494
 21
74.62038324589885
 31
0.0
  0
LINE
  5
4B8
330
35
100
AcDbEntity
  8
0
  6
ByBlock
 62
     0
440
 16777216
100
AcDbLine
 10
26.55171315261329
 20
72.16804047196283
 30
0.0
 11
26.55171315261329
 21
74.62038324589885
 31
0.0
  0
LINE
  5
4B9
330
35
100
AcDbEntity
  8
0
  6
ByBlock
 62
     0
440
 16777216
100
AcDbLine
 10
24.36366030065494
 20
74.52663324589885
 30
0.0
 11
24.73918672663411
 21
74.52663324589885
 31
0.0
  0
LINE
  5
4BA
330
35
100
AcDbEntity
  8
0
  6
ByBlock
 62
     0
440
 16777216
100
AcDbLine
 10
26.36471315261329
 20
74.52663324589885
 30
0.0
 11
25.98918672663411
 21
74.52663324589885
 31
0.0
  0
SOLID
  5
4BB
330
35
100
AcDbEntity
  8
0
  6
ByBlock
 62
     0
440
 16777216
100
AcDbTrace
 10
24.36366030065494
 20
74.55779991256552
 30
0.0
 11
24.36366030065494
 21
74.49546657923218
 31
0.0
 12
24.17666030065494
 22
74.52663324589885
 32
0.0
 13
24.17666030065494
 23
74.52663324589885
 33
0.0
  0
SOLID
  5
4BC
330
35
100
AcDbEntity
  8
0
  6
ByBlock
 62
     0
440
 16777216
100
AcDbTrace
 10
26.36471315261329
 20
74.55779991256552
 30
0.0
 11
26.36471315261329
 21
74.49546657923218
 31
0.0
 12
26.55171315261329
 22
74.52663324589885
 32
0.0
 13
26.55171315261329
 23
74.52663324589885
 33
0.0
  0
TEXT
  5
4BD
330
35
100
AcDbEntity
  8
0
  6
ByBlock
 62
     0
440
 16777216
100
AcDbText
 10
24.9266867266341
 20
74.43288324589885
 30
0.0
 40
0.1875
  1
2 3/8
 72
     1
 11
25.36418672663411
 21
74.52663324589885
 31
0.0
100
AcDbText
 73
     2
  0
POINT
  5
4BE
330
35
100
AcDbEntity
  8
DEFPOINTS
  6
ByBlock
 62
     0
440
 16777216
100
AcDbPoint
 10
24.17666030065494
 20
71.98054047196284
 30
0.0
  0
POINT
  5
4BF
330
35
100
AcDbEntity
  8
DEFPOINTS
  6
ByBlock
 62
     0
440
 16777216
100
AcDbPoint
 10
26.55171315261329
 20
71.98054047196284
 30
0.0
  0
POINT
  5
4C0
330
35
100
AcDbEntity
  8
DEFPOINTS
  6
ByBlock
 62
     0
440
 16777216
100
AcDbPoint
 10
26.55171315261329
 20
74.52663324589885
 30
0.0
  0
ENDBLK
  5
4C1
330
35
100
AcDbEntity
  8
0
100
AcDbBlockEnd
  0
BLOCK
  5
4C2
330
36
100
AcDbEntity
  8
0
100
AcDbBlockBegin
  2
*D15
 70
     1
 10
0.0
 20
0.0
 30
0.0
  3
*D15
  1

  0
LINE
  5
4C3
330
36
100
AcDbEntity
  8
0
  6
ByBlock
 62
     0
440
 16777216
100
AcDbLine
 10
27.17670815261328
 20
72.48053047196283
 30
0.0
 11
27.17670815261328
 21
75.69928047196284
 31
0.0
  0
LINE
  5
4C4
330
36
100
AcDbEntity
  8
0
  6
ByBlock
 62
     0
440
 16777216
100
AcDbLine
 10
23.55166530065492
 20
72.48053047196283
 30
0.0
 11
23.55166530065492
 21
75.69928047196284
 31
0.0
  0
LINE
  5
4C5
330
36
100
AcDbEntity
  8
0
  6
ByBlock
 62
     0
440
 16777216
100
AcDbLine
 10
26.98970815261328
 20
75.60553047196283
 30
0.0
 11
26.0567367266341
 21
75.60553047196283
 31
0.0
  0
LINE
  5
4C6
330
36
100
AcDbEntity
  8
0
  6
ByBlock
 62
     0
440
 16777216
100
AcDbLine
 10
23.73866530065493
 20
75.60553047196283
 30
0.0
 11
24.8067367266341
 21
75.60553047196283
 31
0.0
  0
SOLID
  5
4C7
330
36
100
AcDbEntity
  8
0
  6
ByBlock
 62
     0
440
 16777216
100
AcDbTrace
 10
26.98970815261328
 20
75.6366971386295
 30
0.0
 11
26.98970815261328
 21
75.57436380529617
 31
0.0
 12
27.17670815261328
 22
75.60553047196283
 32
0.0
 13
27.17670815261328
 23
75.60553047196283
 33
0.0
  0
SOLID
  5
4C8
330
36
100
AcDbEntity
  8
0
  6
ByBlock
 62
     0
440
 16777216
100
AcDbTrace
 10
23.73866530065493
 20
75.6366971386295
 30
0.0
 11
23.73866530065493
 21
75.57436380529617
 31
0.0
 12
23.55166530065492
 22
75.60553047196283
 32
0.0
 13
23.55166530065492
 23
75.60553047196283
 33
0.0
  0
TEXT
  5
4C9
330
36
100
AcDbEntity
  8
0
  6
ByBlock
 62
     0
440
 16777216
100
AcDbText
 10
24.9942367266341
 20
75.51178047196284
 30
0.0
 40
0.1875
  1
3 5/8
 72
     1
 11
25.4317367266341
 21
75.60553047196283
 31
0.0
100
AcDbText
 73
     2
  0
POINT
  5
4CA
330
36
100
AcDbEntity
  8
DEFPOINTS
  6
ByBlock
 62
     0
440
 16777216
100
AcDbPoint
 10
27.17670815261328
 20
72.29303047196284
 30
0.0
  0
POINT
  5
4CB
330
36
100
AcDbEntity
  8
DEFPOINTS
  6
ByBlock
 62
     0
440
 16777216
100
AcDbPoint
 10
23.55166530065492
 20
72.29303047196284
 30
0.0
  0
POINT
  5
4CC
330
36
100
AcDbEntity
  8
DEFPOINTS
  6
ByBlock
 62
     0
440
 16777216
100
AcDbPoint
 10
23.55166530065492
 20
75.60553047196283
 30
0.0
  0
ENDBLK
  5
4CD
330
36
100
AcDbEntity
  8
0
100
AcDbBlockEnd
  0
BLOCK
  5
4CE
330
37
100
AcDbEntity
  8
0
100
AcDbBlockBegin
  2
*D16
 70
     1
 10
0.0
 20
0.0
 30
0.0
  3
*D16
  1

  0
LINE
  5
4CF
330
37
100
AcDbEntity
  8
0
  6
ByBlock
 62
     0
440
 16777216
100
AcDbLine
 10
53.31091142138761
 20
57.17002949472572
 30
0.0
 11
55.32573858420099
 21
57.17002949472572
 31
0.0
  0
LINE
  5
4D0
330
37
100
AcDbEntity
  8
0
  6
ByBlock
 62
     0
440
 16777216
100
AcDbLine
 10
53.52123584223182
 20
59.79002949472572
 30
0.0
 11
55.32573858420099
 21
59.79002949472572
 31
0.0
  0
LINE
  5
4D1
330
37
100
AcDbEntity
  8
0
  6
ByBlock
 62
     0
440
 16777216
100
AcDbLine
 10
55.23198858420099
 20
57.35702949472572
 30
0.0
 11
55.23198858420099
 21
58.19877949472573
 31
0.0
  0
LINE
  5
4D2
330
37
100
AcDbEntity
  8
0
  6
ByBlock
 62
     0
440
 16777216
100
AcDbLine
 10
55.23198858420099
 20
59.60302949472573
 30
0.0
 11
55.23198858420099
 21
58.76127949472572
 31
0.0
  0
SOLID
  5
4D3
330
37
100
AcDbEntity
  8
0
  6
ByBlock
 62
     0
440
 16777216
100
AcDbTrace
 10
55.20082191753433
 20
57.35702949472572
 30
0.0
 11
55.26315525086765
 21
57.35702949472572
 31
0.0
 12
55.23198858420099
 22
57.17002949472572
 32
0.0
 13
55.23198858420099
 23
57.17002949472572
 33
0.0
  0
SOLID
  5
4D4
330
37
100
AcDbEntity
  8
0
  6
ByBlock
 62
     0
440
 16777216
100
AcDbTrace
 10
55.20082191753433
 20
59.60302949472573
 30
0.0
 11
55.26315525086765
 21
59.60302949472573
 31
0.0
 12
55.23198858420099
 22
59.79002949472572
 32
0.0
 13
55.23198858420099
 23
59.79002949472572
 33
0.0
  0
TEXT
  5
4D5
330
37
100
AcDbEntity
  8
0
  6
ByBlock
 62
     0
440
 16777216
100
AcDbText
 10
54.79448858420099
 20
58.38627949472573
 30
0.0
 40
0.1875
  1
2 5/8
 72
     1
 11
55.23198858420099
 21
58.48002949472572
 31
0.0
100
AcDbText
 73
     2
  0
POINT
  5
4D6
330
37
100
AcDbEntity
  8
DEFPOINTS
  6
ByBlock
 62
     0
440
 16777216
100
AcDbPoint
 10
53.12341142138762
 20
57.17002949472572
 30
0.0
  0
POINT
  5
4D7
330
37
100
AcDbEntity
  8
DEFPOINTS
  6
ByBlock
 62
     0
440
 16777216
100
AcDbPoint
 10
53.33373584223181
 20
59.79002949472572
 30
0.0
  0
POINT
  5
4D8
330
37
100
AcDbEntity
  8
DEFPOINTS
  6
ByBlock
 62
     0
440
 16777216
100
AcDbPoint
 10
55.23198858420099
 20
59.79002949472572
 30
0.0
  0
ENDBLK
  5
4D9
330
37
100
AcDbEntity
  8
0
100
AcDbBlockEnd
  0
BLOCK
  5
4DA
330
38
100
AcDbEntity
  8
0
100
AcDbBlockBegin
  2
*D17
 70
     1
 10
0.0
 20
0.0
 30
0.0
  3
*D17
  1

  0
LINE
  5
4DB
330
38
100
AcDbEntity
  8
0
  6
ByBlock
 62
     0
440
 16777216
100
AcDbLine
 10
36.71558455579047
 20
72.65687177539023
 30
0.0
 11
36.71558455579047
 21
74.62038324589887
 31
0.0
  0
LINE
  5
4DC
330
38
100
AcDbEntity
  8
0
  6
ByBlock
 62
     0
440
 16777216
100
AcDbLine
 10
38.90192585921783
 20
72.43445330914946
 30
0.0
 11
38.90192585921783
 21
74.62038324589887
 31
0.0
  0
LINE
  5
4DD
330
38
100
AcDbEntity
  8
0
  6
ByBlock
 62
     0
440
 16777216
100
AcDbLine
 10
36.90258455579046
 20
74.52663324589886
 30
0.0
 11
37.12125520750414
 21
74.52663324589886
 31
0.0
  0
LINE
  5
4DE
330
38
100
AcDbEntity
  8
0
  6
ByBlock
 62
     0
440
 16777216
100
AcDbLine
 10
38.71492585921784
 20
74.52663324589886
 30
0.0
 11
38.49625520750414
 21
74.52663324589886
 31
0.0
  0
SOLID
  5
4DF
330
38
100
AcDbEntity
  8
0
  6
ByBlock
 62
     0
440
 16777216
100
AcDbTrace
 10
36.90258455579046
 20
74.55779991256552
 30
0.0
 11
36.90258455579046
 21
74.4954665792322
 31
0.0
 12
36.71558455579047
 22
74.52663324589886
 32
0.0
 13
36.71558455579047
 23
74.52663324589886
 33
0.0
  0
SOLID
  5
4E0
330
38
100
AcDbEntity
  8
0
  6
ByBlock
 62
     0
440
 16777216
100
AcDbTrace
 10
38.71492585921784
 20
74.55779991256552
 30
0.0
 11
38.71492585921784
 21
74.4954665792322
 31
0.0
 12
38.90192585921783
 22
74.52663324589886
 32
0.0
 13
38.90192585921783
 23
74.52663324589886
 33
0.0
  0
TEXT
  5
4E1
330
38
100
AcDbEntity
  8
0
  6
ByBlock
 62
     0
440
 16777216
100
AcDbText
 10
37.30875520750414
 20
74.43288324589886
 30
0.0
 40
0.1875
  1
2 3/16
 72
     1
 11
37.80875520750414
 21
74.52663324589886
 31
0.0
100
AcDbText
 73
     2
  0
POINT
  5
4E2
330
38
100
AcDbEntity
  8
DEFPOINTS
  6
ByBlock
 62
     0
440
 16777216
100
AcDbPoint
 10
36.71558455579047
 20
72.46937177539023
 30
0.0
  0
POINT
  5
4E3
330
38
100
AcDbEntity
  8
DEFPOINTS
  6
ByBlock
 62
     0
440
 16777216
100
AcDbPoint
 10
38.90192585921783
 20
72.24695330914946
 30
0.0
  0
POINT
  5
4E4
330
38
100
AcDbEntity
  8
DEFPOINTS
  6
ByBlock
 62
     0
440
 16777216
100
AcDbPoint
 10
38.90192585921783
 20
74.52663324589886
 30
0.0
  0
ENDBLK
  5
4E5
330
38
100
AcDbEntity
  8
0
100
AcDbBlockEnd
  0
BLOCK
  5
4E6
330
3A
100
AcDbEntity
  8
0
100
AcDbBlockBegin
  2
*D18
 70
     1
 10
0.0
 20
0.0
 30
0.0
  3
*D18
  1

  0
LINE
  5
4E7
330
3A
100
AcDbEntity
  8
0
  6
ByBlock
 62
     0
440
 16777216
100
AcDbLine
 10
50.65418048013323
 20
56.98252949472572
 30
0.0
 11
50.65418048013323
 21
55.70127949472572
 31
0.0
  0
LINE
  5
4E8
330
3A
100
AcDbEntity
  8
0
  6
ByBlock
 62
     0
440
 16777216
100
AcDbLine
 10
52.68475383631039
 20
56.98252949472572
 30
0.0
 11
52.68475383631039
 21
55.70127949472572
 31
0.0
  0
LINE
  5
4E9
330
3A
100
AcDbEntity
  8
0
  6
ByBlock
 62
     0
440
 16777216
100
AcDbLine
 10
50.84118048013323
 20
55.79502949472573
 30
0.0
 11
50.96620730351542
 21
55.79502949472573
 31
0.0
  0
LINE
  5
4EA
330
3A
100
AcDbEntity
  8
0
  6
ByBlock
 62
     0
440
 16777216
100
AcDbLine
 10
52.49775383631039
 20
55.79502949472573
 30
0.0
 11
52.34120730351542
 21
55.79502949472573
 31
0.0
  0
SOLID
  5
4EB
330
3A
100
AcDbEntity
  8
0
  6
ByBlock
 62
     0
440
 16777216
100
AcDbTrace
 10
50.84118048013323
 20
55.82619616139239
 30
0.0
 11
50.84118048013323
 21
55.76386282805906
 31
0.0
 12
50.65418048013323
 22
55.79502949472573
 32
0.0
 13
50.65418048013323
 23
55.79502949472573
 33
0.0
  0
SOLID
  5
4EC
330
3A
100
AcDbEntity
  8
0
  6
ByBlock
 62
     0
440
 16777216
100
AcDbTrace
 10
52.49775383631039
 20
55.82619616139239
 30
0.0
 11
52.49775383631039
 21
55.76386282805906
 31
0.0
 12
52.68475383631039
 22
55.79502949472573
 32
0.0
 13
52.68475383631039
 23
55.79502949472573
 33
0.0
  0
TEXT
  5
4ED
330
3A
100
AcDbEntity
  8
0
  6
ByBlock
 62
     0
440
 16777216
100
AcDbText
 10
51.15370730351543
 20
55.70127949472572
 30
0.0
 40
0.1875
  1
2 1/32
 72
     1
 11
51.65370730351543
 21
55.79502949472573
 31
0.0
100
AcDbText
 73
     2
  0
POINT
  5
4EE
330
3A
100
AcDbEntity
  8
DEFPOINTS
  6
ByBlock
 62
     0
440
 16777216
100
AcDbPoint
 10
50.65418048013323
 20
57.17002949472572
 30
0.0
  0
POINT
  5
4EF
330
3A
100
AcDbEntity
  8
DEFPOINTS
  6
ByBlock
 62
     0
440
 16777216
100
AcDbPoint
 10
52.68475383631039
 20
57.17002949472572
 30
0.0
  0
POINT
  5
4F0
330
3A
100
AcDbEntity
  8
DEFPOINTS
  6
ByBlock
 62
     0
440
 16777216
100
AcDbPoint
 10
52.68475383631039
 20
55.79502949472573
 30
0.0
  0
ENDBLK
  5
4F1
330
3A
100
AcDbEntity
  8
0
100
AcDbBlockEnd
  0
BLOCK
  5
4F2
330
3C
100
AcDbEntity
  8
0
100
AcDbBlockBegin
  2
*D19
 70
     1
 10
0.0
 20
0.0
 30
0.0
  3
*D19
  1

  0
LINE
  5
4F3
330
3C
100
AcDbEntity
  8
0
  6
ByBlock
 62
     0
440
 16777216
100
AcDbLine
 10
50.10837204599936
 20
59.97752949472571
 30
0.0
 11
50.10837204599936
 21
62.46495998077307
 31
0.0
  0
LINE
  5
4F4
330
3C
100
AcDbEntity
  8
0
  6
ByBlock
 62
     0
440
 16777216
100
AcDbLine
 10
53.23056227044425
 20
59.97752949472573
 30
0.0
 11
53.23056227044425
 21
62.46495998077307
 31
0.0
  0
LINE
  5
4F5
330
3C
100
AcDbEntity
  8
0
  6
ByBlock
 62
     0
440
 16777216
100
AcDbLine
 10
50.29537204599936
 20
62.37120998077307
 30
0.0
 11
51.1432671582218
 21
62.37120998077307
 31
0.0
  0
LINE
  5
4F6
330
3C
100
AcDbEntity
  8
0
  6
ByBlock
 62
     0
440
 16777216
100
AcDbLine
 10
53.04356227044426
 20
62.37120998077307
 30
0.0
 11
52.3307671582218
 21
62.37120998077307
 31
0.0
  0
SOLID
  5
4F7
330
3C
100
AcDbEntity
  8
0
  6
ByBlock
 62
     0
440
 16777216
100
AcDbTrace
 10
50.29537204599936
 20
62.40237664743974
 30
0.0
 11
50.29537204599936
 21
62.34004331410641
 31
0.0
 12
50.10837204599936
 22
62.37120998077307
 32
0.0
 13
50.10837204599936
 23
62.37120998077307
 33
0.0
  0
SOLID
  5
4F8
330
3C
100
AcDbEntity
  8
0
  6
ByBlock
 62
     0
440
 16777216
100
AcDbTrace
 10
53.04356227044426
 20
62.40237664743974
 30
0.0
 11
53.04356227044426
 21
62.34004331410641
 31
0.0
 12
53.23056227044425
 22
62.37120998077307
 32
0.0
 13
53.23056227044425
 23
62.37120998077307
 33
0.0
  0
TEXT
  5
4F9
330
3C
100
AcDbEntity
  8
0
  6
ByBlock
 62
     0
440
 16777216
100
AcDbText
 10
51.33076715822181
 20
62.27745998077307
 30
0.0
 40
0.1875
  1
3 1/8
 72
     1
 11
51.7370171582218
 21
62.37120998077307
 31
0.0
100
AcDbText
 73
     2
  0
POINT
  5
4FA
330
3C
100
AcDbEntity
  8
DEFPOINTS
  6
ByBlock
 62
     0
440
 16777216
100
AcDbPoint
 10
50.10837204599936
 20
59.79002949472572
 30
0.0
  0
POINT
  5
4FB
330
3C
100
AcDbEntity
  8
DEFPOINTS
  6
ByBlock
 62
     0
440
 16777216
100
AcDbPoint
 10
53.23056227044425
 20
59.79002949472572
 30
0.0
  0
POINT
  5
4FC
330
3C
100
AcDbEntity
  8
DEFPOINTS
  6
ByBlock
 62
     0
440
 16777216
100
AcDbPoint
 10
53.23056227044425
 20
62.37120998077307
 30
0.0
  0
ENDBLK
  5
4FD
330
3C
100
AcDbEntity
  8
0
100
AcDbBlockEnd
  0
BLOCK
  5
4FE
330
3D
100
AcDbEntity
  8
0
100
AcDbBlockBegin
  2
*D20
 70
     1
 10
0.0
 20
0.0
 30
0.0
  3
*D20
  1

  0
LINE
  5
4FF
330
3D
100
AcDbEntity
  8
0
  6
ByBlock
 62
     0
440
 16777216
100
AcDbLine
 10
50.6084482100213
 20
59.97752949472571
 30
0.0
 11
50.6084482100213
 21
61.50877949472572
 31
0.0
  0
LINE
  5
500
330
3D
100
AcDbEntity
  8
0
  6
ByBlock
 62
     0
440
 16777216
100
AcDbLine
 10
52.73048610642233
 20
59.97752949472573
 30
0.0
 11
52.73048610642233
 21
61.50877949472572
 31
0.0
  0
LINE
  5
501
330
3D
100
AcDbEntity
  8
0
  6
ByBlock
 62
     0
440
 16777216
100
AcDbLine
 10
50.7954482100213
 20
61.41502949472571
 30
0.0
 11
51.14326715822182
 21
61.41502949472571
 31
0.0
  0
LINE
  5
502
330
3D
100
AcDbEntity
  8
0
  6
ByBlock
 62
     0
440
 16777216
100
AcDbLine
 10
52.54348610642233
 20
61.41502949472571
 30
0.0
 11
52.33076715822182
 21
61.41502949472571
 31
0.0
  0
SOLID
  5
503
330
3D
100
AcDbEntity
  8
0
  6
ByBlock
 62
     0
440
 16777216
100
AcDbTrace
 10
50.7954482100213
 20
61.44619616139237
 30
0.0
 11
50.7954482100213
 21
61.38386282805905
 31
0.0
 12
50.6084482100213
 22
61.41502949472571
 32
0.0
 13
50.6084482100213
 23
61.41502949472571
 33
0.0
  0
SOLID
  5
504
330
3D
100
AcDbEntity
  8
0
  6
ByBlock
 62
     0
440
 16777216
100
AcDbTrace
 10
52.54348610642233
 20
61.44619616139237
 30
0.0
 11
52.54348610642233
 21
61.38386282805905
 31
0.0
 12
52.73048610642233
 22
61.41502949472571
 32
0.0
 13
52.73048610642233
 23
61.41502949472571
 33
0.0
  0
TEXT
  5
505
330
3D
100
AcDbEntity
  8
0
  6
ByBlock
 62
     0
440
 16777216
100
AcDbText
 10
51.33076715822181
 20
61.32127949472572
 30
0.0
 40
0.1875
  1
2 1/8
 72
     1
 11
51.73701715822182
 21
61.41502949472571
 31
0.0
100
AcDbText
 73
     2
  0
POINT
  5
506
330
3D
100
AcDbEntity
  8
DEFPOINTS
  6
ByBlock
 62
     0
440
 16777216
100
AcDbPoint
 10
50.6084482100213
 20
59.79002949472572
 30
0.0
  0
POINT
  5
507
330
3D
100
AcDbEntity
  8
DEFPOINTS
  6
ByBlock
 62
     0
440
 16777216
100
AcDbPoint
 10
52.73048610642233
 20
59.79002949472572
 30
0.0
  0
POINT
  5
508
330
3D
100
AcDbEntity
  8
DEFPOINTS
  6
ByBlock
 62
     0
440
 16777216
100
AcDbPoint
 10
52.73048610642233
 20
61.41502949472571
 30
0.0
  0
ENDBLK
  5
509
330
3D
100
AcDbEntity
  8
0
100
AcDbBlockEnd
  0
BLOCK
  5
50A
330
3E
100
AcDbEntity
  8
0
100
AcDbBlockBegin
  2
*D21
 70
     1
 10
0.0
 20
0.0
 30
0.0
  3
*D21
  1

  0
LINE
  5
50B
330
3E
100
AcDbEntity
  8
0
  6
ByBlock
 62
     0
440
 16777216
100
AcDbLine
 10
52.84977432116818
 20
72.26110904598363
 30
0.0
 11
52.84977432116818
 21
74.62038324589887
 31
0.0
  0
LINE
  5
50C
330
3E
100
AcDbEntity
  8
0
  6
ByBlock
 62
     0
440
 16777216
100
AcDbLine
 10
53.34977432116819
 20
72.43445330914946
 30
0.0
 11
53.34977432116819
 21
74.62038324589887
 31
0.0
  0
LINE
  5
50D
330
3E
100
AcDbEntity
  8
0
  6
ByBlock
 62
     0
440
 16777216
100
AcDbLine
 10
52.66277432116819
 20
74.52663324589886
 30
0.0
 11
52.47577432116818
 21
74.52663324589886
 31
0.0
  0
LINE
  5
50E
330
3E
100
AcDbEntity
  8
0
  6
ByBlock
 62
     0
440
 16777216
100
AcDbLine
 10
53.53677432116818
 20
74.52663324589886
 30
0.0
 11
53.72377432116818
 21
74.52663324589886
 31
0.0
  0
SOLID
  5
50F
330
3E
100
AcDbEntity
  8
0
  6
ByBlock
 62
     0
440
 16777216
100
AcDbTrace
 10
52.66277432116819
 20
74.55779991256552
 30
0.0
 11
52.66277432116819
 21
74.4954665792322
 31
0.0
 12
52.84977432116818
 22
74.52663324589886
 32
0.0
 13
52.84977432116818
 23
74.52663324589886
 33
0.0
  0
SOLID
  5
510
330
3E
100
AcDbEntity
  8
0
  6
ByBlock
 62
     0
440
 16777216
100
AcDbTrace
 10
53.53677432116818
 20
74.55779991256552
 30
0.0
 11
53.53677432116818
 21
74.4954665792322
 31
0.0
 12
53.34977432116819
 22
74.52663324589886
 32
0.0
 13
53.34977432116819
 23
74.52663324589886
 33
0.0
  0
TEXT
  5
511
330
3E
100
AcDbEntity
  8
0
  6
ByBlock
 62
     0
440
 16777216
100
AcDbText
 10
53.91019098783485
 20
74.43288324589886
 30
0.0
 40
0.1875
  1
1/2
 72
     1
 11
54.12894098783485
 21
74.52663324589886
 31
0.0
100
AcDbText
 73
     2
  0
POINT
  5
512
330
3E
100
AcDbEntity
  8
DEFPOINTS
  6
ByBlock
 62
     0
440
 16777216
100
AcDbPoint
 10
52.84977432116818
 20
72.07360904598363
 30
0.0
  0
POINT
  5
513
330
3E
100
AcDbEntity
  8
DEFPOINTS
  6
ByBlock
 62
     0
440
 16777216
100
AcDbPoint
 10
53.34977432116819
 20
72.24695330914946
 30
0.0
  0
POINT
  5
514
330
3E
100
AcDbEntity
  8
DEFPOINTS
  6
ByBlock
 62
     0
440
 16777216
100
AcDbPoint
 10
53.34977432116819
 20
74.52663324589886
 30
0.0
  0
ENDBLK
  5
515
330
3E
100
AcDbEntity
  8
0
100
AcDbBlockEnd
  0
BLOCK
  5
516
330
3F
100
AcDbEntity
  8
0
100
AcDbBlockBegin
  2
*D22
 70
     1
 10
0.0
 20
0.0
 30
0.0
  3
*D22
  1

  0
LINE
  5
517
330
3F
100
AcDbEntity
  8
0
  6
ByBlock
 62
     0
440
 16777216
100
AcDbLine
 10
52.84977432116818
 20
72.38610904598363
 30
0.0
 11
52.84977432116818
 21
74.62038324589887
 31
0.0
  0
LINE
  5
518
330
3F
100
AcDbEntity
  8
0
  6
ByBlock
 62
     0
440
 16777216
100
AcDbLine
 10
50.60477432116818
 20
72.64477772999367
 30
0.0
 11
50.60477432116818
 21
74.62038324589887
 31
0.0
  0
LINE
  5
519
330
3F
100
AcDbEntity
  8
0
  6
ByBlock
 62
     0
440
 16777216
100
AcDbLine
 10
52.66277432116819
 20
74.52663324589886
 30
0.0
 11
52.32102432116818
 21
74.52663324589886
 31
0.0
  0
LINE
  5
51A
330
3F
100
AcDbEntity
  8
0
  6
ByBlock
 62
     0
440
 16777216
100
AcDbLine
 10
50.79177432116818
 20
74.52663324589886
 30
0.0
 11
51.13352432116817
 21
74.52663324589886
 31
0.0
  0
SOLID
  5
51B
330
3F
100
AcDbEntity
  8
0
  6
ByBlock
 62
     0
440
 16777216
100
AcDbTrace
 10
52.66277432116819
 20
74.55779991256552
 30
0.0
 11
52.66277432116819
 21
74.4954665792322
 31
0.0
 12
52.84977432116818
 22
74.52663324589886
 32
0.0
 13
52.84977432116818
 23
74.52663324589886
 33
0.0
  0
SOLID
  5
51C
330
3F
100
AcDbEntity
  8
0
  6
ByBlock
 62
     0
440
 16777216
100
AcDbTrace
 10
50.79177432116818
 20
74.55779991256552
 30
0.0
 11
50.79177432116818
 21
74.4954665792322
 31
0.0
 12
50.60477432116818
 22
74.52663324589886
 32
0.0
 13
50.60477432116818
 23
74.52663324589886
 33
0.0
  0
TEXT
  5
51D
330
3F
100
AcDbEntity
  8
0
  6
ByBlock
 62
     0
440
 16777216
100
AcDbText
 10
51.32102432116817
 20
74.43288324589886
 30
0.0
 40
0.1875
  1
2 1/4
 72
     1
 11
51.72727432116817
 21
74.52663324589886
 31
0.0
100
AcDbText
 73
     2
  0
POINT
  5
51E
330
3F
100
AcDbEntity
  8
DEFPOINTS
  6
ByBlock
 62
     0
440
 16777216
100
AcDbPoint
 10
52.84977432116818
 20
72.19860904598363
 30
0.0
  0
POINT
  5
51F
330
3F
100
AcDbEntity
  8
DEFPOINTS
  6
ByBlock
 62
     0
440
 16777216
100
AcDbPoint
 10
50.60477432116818
 20
72.45727772999368
 30
0.0
  0
POINT
  5
520
330
3F
100
AcDbEntity
  8
DEFPOINTS
  6
ByBlock
 62
     0
440
 16777216
100
AcDbPoint
 10
50.60477432116818
 20
74.52663324589886
 30
0.0
  0
ENDBLK
  5
521
330
3F
100
AcDbEntity
  8
0
100
AcDbBlockEnd
  0
BLOCK
  5
522
330
40
100
AcDbEntity
  8
0
100
AcDbBlockBegin
  2
*D23
 70
     1
 10
0.0
 20
0.0
 30
0.0
  3
*D23
  1

  0
LINE
  5
523
330
40
100
AcDbEntity
  8
0
  6
ByBlock
 62
     0
440
 16777216
100
AcDbLine
 10
11.08955756185904
 20
72.38248026817574
 30
0.0
 11
11.08955756185904
 21
74.62038324589888
 31
0.0
  0
LINE
  5
524
330
40
100
AcDbEntity
  8
0
  6
ByBlock
 62
     0
440
 16777216
100
AcDbLine
 10
13.83955756185905
 20
72.38248026817574
 30
0.0
 11
13.83955756185905
 21
74.62038324589888
 31
0.0
  0
LINE
  5
525
330
40
100
AcDbEntity
  8
0
  6
ByBlock
 62
     0
440
 16777216
100
AcDbLine
 10
11.27655756185904
 20
74.52663324589888
 30
0.0
 11
11.83955756185905
 21
74.52663324589888
 31
0.0
  0
LINE
  5
526
330
40
100
AcDbEntity
  8
0
  6
ByBlock
 62
     0
440
 16777216
100
AcDbLine
 10
13.65255756185905
 20
74.52663324589888
 30
0.0
 11
13.08955756185905
 21
74.52663324589888
 31
0.0
  0
SOLID
  5
527
330
40
100
AcDbEntity
  8
0
  6
ByBlock
 62
     0
440
 16777216
100
AcDbTrace
 10
11.27655756185904
 20
74.55779991256554
 30
0.0
 11
11.27655756185904
 21
74.49546657923221
 31
0.0
 12
11.08955756185904
 22
74.52663324589888
 32
0.0
 13
11.08955756185904
 23
74.52663324589888
 33
0.0
  0
SOLID
  5
528
330
40
100
AcDbEntity
  8
0
  6
ByBlock
 62
     0
440
 16777216
100
AcDbTrace
 10
13.65255756185905
 20
74.55779991256554
 30
0.0
 11
13.65255756185905
 21
74.49546657923221
 31
0.0
 12
13.83955756185905
 22
74.52663324589888
 32
0.0
 13
13.83955756185905
 23
74.52663324589888
 33
0.0
  0
TEXT
  5
529
330
40
100
AcDbEntity
  8
0
  6
ByBlock
 62
     0
440
 16777216
100
AcDbText
 10
12.02705756185905
 20
74.43288324589888
 30
0.0
 40
0.1875
  1
2 3/4
 72
     1
 11
12.46455756185905
 21
74.52663324589888
 31
0.0
100
AcDbText
 73
     2
  0
POINT
  5
52A
330
40
100
AcDbEntity
  8
DEFPOINTS
  6
ByBlock
 62
     0
440
 16777216
100
AcDbPoint
 10
11.08955756185904
 20
72.19498026817574
 30
0.0
  0
POINT
  5
52B
330
40
100
AcDbEntity
  8
DEFPOINTS
  6
ByBlock
 62
     0
440
 16777216
100
AcDbPoint
 10
13.83955756185905
 20
72.19498026817574
 30
0.0
  0
POINT
  5
52C
330
40
100
AcDbEntity
  8
DEFPOINTS
  6
ByBlock
 62
     0
440
 16777216
100
AcDbPoint
 10
13.83955756185905
 20
74.52663324589888
 30
0.0
  0
ENDBLK
  5
52D
330
40
100
AcDbEntity
  8
0
100
AcDbBlockEnd
  0
BLOCK
  5
52E
330
41
100
AcDbEntity
  8
0
100
AcDbBlockBegin
  2
*D24
 70
     1
 10
0.0
 20
0.0
 30
0.0
  3
*D24
  1

  0
LINE
  5
52F
330
41
100
AcDbEntity
  8
0
  6
ByBlock
 62
     0
440
 16777216
100
AcDbLine
 10
13.96457898783826
 20
72.77325169415495
 30
0.0
 11
13.96457898783826
 21
75.69928047196285
 31
0.0
  0
LINE
  5
530
330
41
100
AcDbEntity
  8
0
  6
ByBlock
 62
     0
440
 16777216
100
AcDbLine
 10
10.96453613587985
 20
72.77325169415495
 30
0.0
 11
10.96453613587985
 21
75.69928047196285
 31
0.0
  0
LINE
  5
531
330
41
100
AcDbEntity
  8
0
  6
ByBlock
 62
     0
440
 16777216
100
AcDbLine
 10
13.77757898783826
 20
75.60553047196285
 30
0.0
 11
12.71455756185905
 21
75.60553047196285
 31
0.0
  0
LINE
  5
532
330
41
100
AcDbEntity
  8
0
  6
ByBlock
 62
     0
440
 16777216
100
AcDbLine
 10
11.15153613587985
 20
75.60553047196285
 30
0.0
 11
12.21455756185905
 21
75.60553047196285
 31
0.0
  0
SOLID
  5
533
330
41
100
AcDbEntity
  8
0
  6
ByBlock
 62
     0
440
 16777216
100
AcDbTrace
 10
13.77757898783826
 20
75.63669713862951
 30
0.0
 11
13.77757898783826
 21
75.57436380529619
 31
0.0
 12
13.96457898783826
 22
75.60553047196285
 32
0.0
 13
13.96457898783826
 23
75.60553047196285
 33
0.0
  0
SOLID
  5
534
330
41
100
AcDbEntity
  8
0
  6
ByBlock
 62
     0
440
 16777216
100
AcDbTrace
 10
11.15153613587985
 20
75.63669713862951
 30
0.0
 11
11.15153613587985
 21
75.57436380529619
 31
0.0
 12
10.96453613587985
 22
75.60553047196285
 32
0.0
 13
10.96453613587985
 23
75.60553047196285
 33
0.0
  0
TEXT
  5
535
330
41
100
AcDbEntity
  8
0
  6
ByBlock
 62
     0
440
 16777216
100
AcDbText
 10
12.40205756185905
 20
75.51178047196285
 30
0.0
 40
0.1875
  1
3
 72
     1
 11
12.46455756185905
 21
75.60553047196285
 31
0.0
100
AcDbText
 73
     2
  0
POINT
  5
536
330
41
100
AcDbEntity
  8
DEFPOINTS
  6
ByBlock
 62
     0
440
 16777216
100
AcDbPoint
 10
13.96457898783826
 20
72.58575169415495
 30
0.0
  0
POINT
  5
537
330
41
100
AcDbEntity
  8
DEFPOINTS
  6
ByBlock
 62
     0
440
 16777216
100
AcDbPoint
 10
10.96453613587985
 20
72.58575169415495
 30
0.0
  0
POINT
  5
538
330
41
100
AcDbEntity
  8
DEFPOINTS
  6
ByBlock
 62
     0
440
 16777216
100
AcDbPoint
 10
10.96453613587985
 20
75.60553047196285
 30
0.0
  0
ENDBLK
  5
539
330
41
100
AcDbEntity
  8
0
100
AcDbBlockEnd
  0
BLOCK
  5
53A
330
42
100
AcDbEntity
  8
0
100
AcDbBlockBegin
  2
*D25
 70
     1
 10
0.0
 20
0.0
 30
0.0
  3
*D25
  1

  0
LINE
  5
53B
330
42
100
AcDbEntity
  8
0
  6
ByBlock
 62
     0
440
 16777216
100
AcDbLine
 10
10.68703613587985
 20
24.37843677073625
 30
0.0
 11
7.028382309869812
 21
24.37843677073625
 31
0.0
  0
LINE
  5
53C
330
42
100
AcDbEntity
  8
0
  6
ByBlock
 62
     0
440
 16777216
100
AcDbLine
 10
10.68703613587985
 20
32.16047962269464
 30
0.0
 11
7.028382309869812
 21
32.16047962269464
 31
0.0
  0
LINE
  5
53D
330
42
100
AcDbEntity
  8
0
  6
ByBlock
 62
     0
440
 16777216
100
AcDbLine
 10
7.122132309869812
 20
24.56543677073625
 30
0.0
 11
7.122132309869812
 21
27.98820819671544
 31
0.0
  0
LINE
  5
53E
330
42
100
AcDbEntity
  8
0
  6
ByBlock
 62
     0
440
 16777216
100
AcDbLine
 10
7.122132309869812
 20
31.97347962269464
 30
0.0
 11
7.122132309869812
 21
28.55070819671544
 31
0.0
  0
SOLID
  5
53F
330
42
100
AcDbEntity
  8
0
  6
ByBlock
 62
     0
440
 16777216
100
AcDbTrace
 10
7.090965643203145
 20
24.56543677073625
 30
0.0
 11
7.153298976536478
 21
24.56543677073625
 31
0.0
 12
7.122132309869812
 22
24.37843677073625
 32
0.0
 13
7.122132309869812
 23
24.37843677073625
 33
0.0
  0
SOLID
  5
540
330
42
100
AcDbEntity
  8
0
  6
ByBlock
 62
     0
440
 16777216
100
AcDbTrace
 10
7.090965643203145
 20
31.97347962269464
 30
0.0
 11
7.153298976536478
 21
31.97347962269464
 31
0.0
 12
7.122132309869812
 22
32.16047962269464
 32
0.0
 13
7.122132309869812
 23
32.16047962269464
 33
0.0
  0
TEXT
  5
541
330
42
100
AcDbEntity
  8
0
  6
ByBlock
 62
     0
440
 16777216
100
AcDbText
 10
6.497132309869812
 20
28.17570819671544
 30
0.0
 40
0.1875
  1
7 25/32
 72
     1
 11
7.122132309869812
 21
28.26945819671544
 31
0.0
100
AcDbText
 73
     2
  0
POINT
  5
542
330
42
100
AcDbEntity
  8
DEFPOINTS
  6
ByBlock
 62
     0
440
 16777216
100
AcDbPoint
 10
10.87453613587985
 20
24.37843677073625
 30
0.0
  0
POINT
  5
543
330
42
100
AcDbEntity
  8
DEFPOINTS
  6
ByBlock
 62
     0
440
 16777216
100
AcDbPoint
 10
10.87453613587985
 20
32.16047962269464
 30
0.0
  0
POINT
  5
544
330
42
100
AcDbEntity
  8
DEFPOINTS
  6
ByBlock
 62
     0
440
 16777216
100
AcDbPoint
 10
7.122132309869812
 20
32.16047962269464
 30
0.0
  0
ENDBLK
  5
545
330
42
100
AcDbEntity
  8
0
100
AcDbBlockEnd
  0
BLOCK
  5
546
330
43
100
AcDbEntity
  8
0
100
AcDbBlockBegin
  2
*D26
 70
     1
 10
0.0
 20
0.0
 30
0.0
  3
*D26
  1

  0
LINE
  5
547
330
43
100
AcDbEntity
  8
0
  6
ByBlock
 62
     0
440
 16777216
100
AcDbLine
 10
10.81205756185904
 20
24.76920819671544
 30
0.0
 11
8.558286135879875
 21
24.76920819671544
 31
0.0
  0
LINE
  5
548
330
43
100
AcDbEntity
  8
0
  6
ByBlock
 62
     0
440
 16777216
100
AcDbLine
 10
10.81205756185904
 20
31.76970819671543
 30
0.0
 11
8.558286135879875
 21
31.76970819671543
 31
0.0
  0
LINE
  5
549
330
43
100
AcDbEntity
  8
0
  6
ByBlock
 62
     0
440
 16777216
100
AcDbLine
 10
8.652036135879875
 20
24.95620819671544
 30
0.0
 11
8.652036135879875
 21
27.98820819671544
 31
0.0
  0
LINE
  5
54A
330
43
100
AcDbEntity
  8
0
  6
ByBlock
 62
     0
440
 16777216
100
AcDbLine
 10
8.652036135879875
 20
31.58270819671543
 30
0.0
 11
8.652036135879875
 21
28.55070819671544
 31
0.0
  0
SOLID
  5
54B
330
43
100
AcDbEntity
  8
0
  6
ByBlock
 62
     0
440
 16777216
100
AcDbTrace
 10
8.620869469213207
 20
24.95620819671544
 30
0.0
 11
8.683202802546542
 21
24.95620819671544
 31
0.0
 12
8.652036135879875
 22
24.76920819671544
 32
0.0
 13
8.652036135879875
 23
24.76920819671544
 33
0.0
  0
SOLID
  5
54C
330
43
100
AcDbEntity
  8
0
  6
ByBlock
 62
     0
440
 16777216
100
AcDbTrace
 10
8.620869469213207
 20
31.58270819671543
 30
0.0
 11
8.683202802546542
 21
31.58270819671543
 31
0.0
 12
8.652036135879875
 22
31.76970819671543
 32
0.0
 13
8.652036135879875
 23
31.76970819671543
 33
0.0
  0
TEXT
  5
54D
330
43
100
AcDbEntity
  8
0
  6
ByBlock
 62
     0
440
 16777216
100
AcDbText
 10
8.589536135879875
 20
28.17570819671543
 30
0.0
 40
0.1875
  1
7
 72
     1
 11
8.652036135879875
 21
28.26945819671543
 31
0.0
100
AcDbText
 73
     2
  0
POINT
  5
54E
330
43
100
AcDbEntity
  8
DEFPOINTS
  6
ByBlock
 62
     0
440
 16777216
100
AcDbPoint
 10
10.99955756185904
 20
24.76920819671544
 30
0.0
  0
POINT
  5
54F
330
43
100
AcDbEntity
  8
DEFPOINTS
  6
ByBlock
 62
     0
440
 16777216
100
AcDbPoint
 10
10.99955756185904
 20
31.76970819671543
 30
0.0
  0
POINT
  5
550
330
43
100
AcDbEntity
  8
DEFPOINTS
  6
ByBlock
 62
     0
440
 16777216
100
AcDbPoint
 10
8.652036135879875
 20
31.76970819671543
 30
0.0
  0
ENDBLK
  5
551
330
43
100
AcDbEntity
  8
0
100
AcDbBlockEnd
  0
BLOCK
  5
552
330
44
100
AcDbEntity
  8
0
100
AcDbBlockBegin
  2
*D27
 70
     1
 10
0.0
 20
0.0
 30
0.0
  3
*D27
  1

  0
LINE
  5
553
330
44
100
AcDbEntity
  8
0
  6
ByBlock
 62
     0
440
 16777216
100
AcDbLine
 10
23.67666530065493
 20
23.86091554854414
 30
0.0
 11
19.62208300151151
 21
23.86091554854414
 31
0.0
  0
LINE
  5
554
330
44
100
AcDbEntity
  8
0
  6
ByBlock
 62
     0
440
 16777216
100
AcDbLine
 10
23.67666530065493
 20
32.27025840050253
 30
0.0
 11
19.62208300151151
 21
32.27025840050253
 31
0.0
  0
LINE
  5
555
330
44
100
AcDbEntity
  8
0
  6
ByBlock
 62
     0
440
 16777216
100
AcDbLine
 10
19.71583300151151
 20
24.04791554854414
 30
0.0
 11
19.71583300151151
 21
27.99432385709121
 31
0.0
  0
LINE
  5
556
330
44
100
AcDbEntity
  8
0
  6
ByBlock
 62
     0
440
 16777216
100
AcDbLine
 10
19.71583300151151
 20
32.08325840050253
 30
0.0
 11
19.71583300151151
 21
28.55682385709121
 31
0.0
  0
SOLID
  5
557
330
44
100
AcDbEntity
  8
0
  6
ByBlock
 62
     0
440
 16777216
100
AcDbTrace
 10
19.68466633484484
 20
24.04791554854414
 30
0.0
 11
19.74699966817818
 21
24.04791554854414
 31
0.0
 12
19.71583300151151
 22
23.86091554854414
 32
0.0
 13
19.71583300151151
 23
23.86091554854414
 33
0.0
  0
SOLID
  5
558
330
44
100
AcDbEntity
  8
0
  6
ByBlock
 62
     0
440
 16777216
100
AcDbTrace
 10
19.68466633484484
 20
32.08325840050253
 30
0.0
 11
19.74699966817818
 21
32.08325840050253
 31
0.0
 12
19.71583300151151
 22
32.27025840050253
 32
0.0
 13
19.71583300151151
 23
32.27025840050253
 33
0.0
  0
TEXT
  5
559
330
44
100
AcDbEntity
  8
0
  6
ByBlock
 62
     0
440
 16777216
100
AcDbText
 10
19.12208300151153
 20
28.18182385709121
 30
0.0
 40
0.1875
  1
8 13/32
 72
     1
 11
19.71583300151152
 21
28.27557385709121
 31
0.0
100
AcDbText
 73
     2
  0
POINT
  5
55A
330
44
100
AcDbEntity
  8
DEFPOINTS
  6
ByBlock
 62
     0
440
 16777216
100
AcDbPoint
 10
23.86416530065493
 20
23.86091554854414
 30
0.0
  0
POINT
  5
55B
330
44
100
AcDbEntity
  8
DEFPOINTS
  6
ByBlock
 62
     0
440
 16777216
100
AcDbPoint
 10
23.86416530065492
 20
32.27025840050253
 30
0.0
  0
POINT
  5
55C
330
44
100
AcDbEntity
  8
DEFPOINTS
  6
ByBlock
 62
     0
440
 16777216
100
AcDbPoint
 10
19.71583300151151
 20
32.27025840050253
 30
0.0
  0
ENDBLK
  5
55D
330
44
100
AcDbEntity
  8
0
100
AcDbBlockEnd
  0
BLOCK
  5
55E
330
45
100
AcDbEntity
  8
0
100
AcDbBlockBegin
  2
*D28
 70
     1
 10
0.0
 20
0.0
 30
0.0
  3
*D28
  1

  0
LINE
  5
55F
330
45
100
AcDbEntity
  8
0
  6
ByBlock
 62
     0
440
 16777216
100
AcDbLine
 10
23.98916030065494
 20
24.48596554854415
 30
0.0
 11
21.37208300151152
 21
24.48596554854415
 31
0.0
  0
LINE
  5
560
330
45
100
AcDbEntity
  8
0
  6
ByBlock
 62
     0
440
 16777216
100
AcDbLine
 10
23.98916030065494
 20
31.64526840050253
 30
0.0
 11
21.37208300151152
 21
31.64526840050253
 31
0.0
  0
LINE
  5
561
330
45
100
AcDbEntity
  8
0
  6
ByBlock
 62
     0
440
 16777216
100
AcDbLine
 10
21.46583300151152
 20
24.67296554854415
 30
0.0
 11
21.46583300151152
 21
27.98534439070652
 31
0.0
  0
LINE
  5
562
330
45
100
AcDbEntity
  8
0
  6
ByBlock
 62
     0
440
 16777216
100
AcDbLine
 10
21.46583300151152
 20
31.45826840050253
 30
0.0
 11
21.46583300151152
 21
28.54784439070652
 31
0.0
  0
SOLID
  5
563
330
45
100
AcDbEntity
  8
0
  6
ByBlock
 62
     0
440
 16777216
100
AcDbTrace
 10
21.43466633484485
 20
24.67296554854415
 30
0.0
 11
21.49699966817819
 21
24.67296554854415
 31
0.0
 12
21.46583300151152
 22
24.48596554854415
 32
0.0
 13
21.46583300151152
 23
24.48596554854415
 33
0.0
  0
SOLID
  5
564
330
45
100
AcDbEntity
  8
0
  6
ByBlock
 62
     0
440
 16777216
100
AcDbTrace
 10
21.43466633484485
 20
31.45826840050253
 30
0.0
 11
21.49699966817819
 21
31.45826840050253
 31
0.0
 12
21.46583300151152
 22
31.64526840050253
 32
0.0
 13
21.46583300151152
 23
31.64526840050253
 33
0.0
  0
TEXT
  5
565
330
45
100
AcDbEntity
  8
0
  6
ByBlock
 62
     0
440
 16777216
100
AcDbText
 10
20.93458300151152
 20
28.17284439070652
 30
0.0
 40
0.1875
  1
7 5/32
 72
     1
 11
21.46583300151152
 21
28.26659439070652
 31
0.0
100
AcDbText
 73
     2
  0
POINT
  5
566
330
45
100
AcDbEntity
  8
DEFPOINTS
  6
ByBlock
 62
     0
440
 16777216
100
AcDbPoint
 10
24.17666030065494
 20
24.48596554854415
 30
0.0
  0
POINT
  5
567
330
45
100
AcDbEntity
  8
DEFPOINTS
  6
ByBlock
 62
     0
440
 16777216
100
AcDbPoint
 10
24.17666030065494
 20
31.64526840050253
 30
0.0
  0
POINT
  5
568
330
45
100
AcDbEntity
  8
DEFPOINTS
  6
ByBlock
 62
     0
440
 16777216
100
AcDbPoint
 10
21.46583300151152
 20
31.64526840050253
 30
0.0
  0
ENDBLK
  5
569
330
45
100
AcDbEntity
  8
0
100
AcDbBlockEnd
  0
BLOCK
  5
56A
330
46
100
AcDbEntity
  8
0
100
AcDbBlockBegin
  2
*D29
 70
     1
 10
0.0
 20
0.0
 30
0.0
  3
*D29
  1

  0
LINE
  5
56B
330
46
100
AcDbEntity
  8
0
  6
ByBlock
 62
     0
440
 16777216
100
AcDbLine
 10
50.41727432116818
 20
24.87931649774405
 30
0.0
 11
48.37102432116818
 21
24.87931649774405
 31
0.0
  0
LINE
  5
56C
330
46
100
AcDbEntity
  8
0
  6
ByBlock
 62
     0
440
 16777216
100
AcDbLine
 10
50.41727432116818
 20
31.25185745130263
 30
0.0
 11
48.37102432116818
 21
31.25185745130263
 31
0.0
  0
LINE
  5
56D
330
46
100
AcDbEntity
  8
0
  6
ByBlock
 62
     0
440
 16777216
100
AcDbLine
 10
48.46477432116818
 20
25.06631649774405
 30
0.0
 11
48.46477432116818
 21
27.97909731306443
 31
0.0
  0
LINE
  5
56E
330
46
100
AcDbEntity
  8
0
  6
ByBlock
 62
     0
440
 16777216
100
AcDbLine
 10
48.46477432116818
 20
31.06485745130262
 30
0.0
 11
48.46477432116818
 21
28.54159731306443
 31
0.0
  0
SOLID
  5
56F
330
46
100
AcDbEntity
  8
0
  6
ByBlock
 62
     0
440
 16777216
100
AcDbTrace
 10
48.43360765450151
 20
25.06631649774405
 30
0.0
 11
48.49594098783484
 21
25.06631649774405
 31
0.0
 12
48.46477432116818
 22
24.87931649774405
 32
0.0
 13
48.46477432116818
 23
24.87931649774405
 33
0.0
  0
SOLID
  5
570
330
46
100
AcDbEntity
  8
0
  6
ByBlock
 62
     0
440
 16777216
100
AcDbTrace
 10
48.43360765450151
 20
31.06485745130262
 30
0.0
 11
48.49594098783484
 21
31.06485745130262
 31
0.0
 12
48.46477432116818
 22
31.25185745130263
 32
0.0
 13
48.46477432116818
 23
31.25185745130263
 33
0.0
  0
TEXT
  5
571
330
46
100
AcDbEntity
  8
0
  6
ByBlock
 62
     0
440
 16777216
100
AcDbText
 10
48.02727432116817
 20
28.16659731306442
 30
0.0
 40
0.1875
  1
6 3/8
 72
     1
 11
48.46477432116818
 21
28.26034731306443
 31
0.0
100
AcDbText
 73
     2
  0
POINT
  5
572
330
46
100
AcDbEntity
  8
DEFPOINTS
  6
ByBlock
 62
     0
440
 16777216
100
AcDbPoint
 10
50.60477432116818
 20
24.87931649774405
 30
0.0
  0
POINT
  5
573
330
46
100
AcDbEntity
  8
DEFPOINTS
  6
ByBlock
 62
     0
440
 16777216
100
AcDbPoint
 10
50.60477432116818
 20
31.25185745130263
 30
0.0
  0
POINT
  5
574
330
46
100
AcDbEntity
  8
DEFPOINTS
  6
ByBlock
 62
     0
440
 16777216
100
AcDbPoint
 10
48.46477432116818
 20
31.25185745130263
 30
0.0
  0
ENDBLK
  5
575
330
46
100
AcDbEntity
  8
0
100
AcDbBlockEnd
  0
BLOCK
  5
576
330
47
100
AcDbEntity
  8
0
100
AcDbBlockBegin
  2
*D30
 70
     1
 10
0.0
 20
0.0
 30
0.0
  3
*D30
  1

  0
LINE
  5
577
330
47
100
AcDbEntity
  8
0
  6
ByBlock
 62
     0
440
 16777216
100
AcDbLine
 10
50.41727432116818
 20
24.11234186230088
 30
0.0
 11
46.62102432116817
 21
24.11234186230088
 31
0.0
  0
LINE
  5
578
330
47
100
AcDbEntity
  8
0
  6
ByBlock
 62
     0
440
 16777216
100
AcDbLine
 10
50.41727432116818
 20
32.0188320867458
 30
0.0
 11
46.62102432116817
 21
32.0188320867458
 31
0.0
  0
LINE
  5
579
330
47
100
AcDbEntity
  8
0
  6
ByBlock
 62
     0
440
 16777216
100
AcDbLine
 10
46.71477432116818
 20
24.29934186230088
 30
0.0
 11
46.71477432116818
 21
27.97909731306444
 31
0.0
  0
LINE
  5
57A
330
47
100
AcDbEntity
  8
0
  6
ByBlock
 62
     0
440
 16777216
100
AcDbLine
 10
46.71477432116818
 20
31.8318320867458
 30
0.0
 11
46.71477432116818
 21
28.54159731306444
 31
0.0
  0
SOLID
  5
57B
330
47
100
AcDbEntity
  8
0
  6
ByBlock
 62
     0
440
 16777216
100
AcDbTrace
 10
46.68360765450151
 20
24.29934186230088
 30
0.0
 11
46.74594098783484
 21
24.29934186230088
 31
0.0
 12
46.71477432116818
 22
24.11234186230088
 32
0.0
 13
46.71477432116818
 23
24.11234186230088
 33
0.0
  0
SOLID
  5
57C
330
47
100
AcDbEntity
  8
0
  6
ByBlock
 62
     0
440
 16777216
100
AcDbTrace
 10
46.68360765450151
 20
31.8318320867458
 30
0.0
 11
46.74594098783484
 21
31.8318320867458
 31
0.0
 12
46.71477432116818
 22
32.0188320867458
 32
0.0
 13
46.71477432116818
 23
32.0188320867458
 33
0.0
  0
TEXT
  5
57D
330
47
100
AcDbEntity
  8
0
  6
ByBlock
 62
     0
440
 16777216
100
AcDbText
 10
46.08977432116818
 20
28.16659731306444
 30
0.0
 40
0.1875
  1
7 29/32
 72
     1
 11
46.71477432116818
 21
28.26034731306444
 31
0.0
100
AcDbText
 73
     2
  0
POINT
  5
57E
330
47
100
AcDbEntity
  8
DEFPOINTS
  6
ByBlock
 62
     0
440
 16777216
100
AcDbPoint
 10
50.60477432116818
 20
24.11234186230088
 30
0.0
  0
POINT
  5
57F
330
47
100
AcDbEntity
  8
DEFPOINTS
  6
ByBlock
 62
     0
440
 16777216
100
AcDbPoint
 10
50.60477432116818
 20
32.0188320867458
 30
0.0
  0
POINT
  5
580
330
47
100
AcDbEntity
  8
DEFPOINTS
  6
ByBlock
 62
     0
440
 16777216
100
AcDbPoint
 10
46.71477432116818
 20
32.0188320867458
 30
0.0
  0
ENDBLK
  5
581
330
47
100
AcDbEntity
  8
0
100
AcDbBlockEnd
  0
BLOCK
  5
582
330
48
100
AcDbEntity
  8
0
100
AcDbBlockBegin
  2
*D31
 70
     1
 10
0.0
 20
0.0
 30
0.0
  3
*D31
  1

  0
LINE
  5
583
330
48
100
AcDbEntity
  8
0
  6
ByBlock
 62
     0
440
 16777216
100
AcDbLine
 10
53.53727432116818
 20
24.56533697452335
 30
0.0
 11
56.94380539677851
 21
24.56533697452335
 31
0.0
  0
LINE
  5
584
330
48
100
AcDbEntity
  8
0
  6
ByBlock
 62
     0
440
 16777216
100
AcDbLine
 10
53.53727432116818
 20
31.56583697452334
 30
0.0
 11
56.94380539677851
 21
31.56583697452334
 31
0.0
  0
LINE
  5
585
330
48
100
AcDbEntity
  8
0
  6
ByBlock
 62
     0
440
 16777216
100
AcDbLine
 10
56.85005539677852
 20
24.75233697452335
 30
0.0
 11
56.85005539677852
 21
27.97909731306444
 31
0.0
  0
LINE
  5
586
330
48
100
AcDbEntity
  8
0
  6
ByBlock
 62
     0
440
 16777216
100
AcDbLine
 10
56.85005539677852
 20
31.37883697452334
 30
0.0
 11
56.85005539677852
 21
28.54159731306444
 31
0.0
  0
SOLID
  5
587
330
48
100
AcDbEntity
  8
0
  6
ByBlock
 62
     0
440
 16777216
100
AcDbTrace
 10
56.81888873011185
 20
24.75233697452335
 30
0.0
 11
56.88122206344518
 21
24.75233697452335
 31
0.0
 12
56.85005539677852
 22
24.56533697452335
 32
0.0
 13
56.85005539677852
 23
24.56533697452335
 33
0.0
  0
SOLID
  5
588
330
48
100
AcDbEntity
  8
0
  6
ByBlock
 62
     0
440
 16777216
100
AcDbTrace
 10
56.81888873011185
 20
31.37883697452334
 30
0.0
 11
56.88122206344518
 21
31.37883697452334
 31
0.0
 12
56.85005539677852
 22
31.56583697452334
 32
0.0
 13
56.85005539677852
 23
31.56583697452334
 33
0.0
  0
TEXT
  5
589
330
48
100
AcDbEntity
  8
0
  6
ByBlock
 62
     0
440
 16777216
100
AcDbText
 10
56.78755539677851
 20
28.16659731306444
 30
0.0
 40
0.1875
  1
7
 72
     1
 11
56.85005539677852
 21
28.26034731306444
 31
0.0
100
AcDbText
 73
     2
  0
POINT
  5
58A
330
48
100
AcDbEntity
  8
DEFPOINTS
  6
ByBlock
 62
     0
440
 16777216
100
AcDbPoint
 10
53.34977432116819
 20
24.56533697452335
 30
0.0
  0
POINT
  5
58B
330
48
100
AcDbEntity
  8
DEFPOINTS
  6
ByBlock
 62
     0
440
 16777216
100
AcDbPoint
 10
53.34977432116819
 20
31.56583697452334
 30
0.0
  0
POINT
  5
58C
330
48
100
AcDbEntity
  8
DEFPOINTS
  6
ByBlock
 62
     0
440
 16777216
100
AcDbPoint
 10
56.85005539677852
 20
31.56583697452334
 30
0.0
  0
ENDBLK
  5
58D
330
48
100
AcDbEntity
  8
0
100
AcDbBlockEnd
  0
BLOCK
  5
58E
330
49
100
AcDbEntity
  8
0
100
AcDbBlockBegin
  2
*D32
 70
     1
 10
0.0
 20
0.0
 30
0.0
  3
*D32
  1

  0
LINE
  5
58F
330
49
100
AcDbEntity
  8
0
  6
ByBlock
 62
     0
440
 16777216
100
AcDbLine
 10
53.35086509657052
 20
31.97417171863641
 30
0.0
 11
58.69380539677852
 21
31.97417171863641
 31
0.0
  0
LINE
  5
590
330
49
100
AcDbEntity
  8
0
  6
ByBlock
 62
     0
440
 16777216
100
AcDbLine
 10
53.35086509657049
 20
24.15700223041027
 30
0.0
 11
58.69380539677852
 21
24.15700223041027
 31
0.0
  0
LINE
  5
591
330
49
100
AcDbEntity
  8
0
  6
ByBlock
 62
     0
440
 16777216
100
AcDbLine
 10
58.60005539677851
 20
31.78717171863641
 30
0.0
 11
58.60005539677851
 21
28.64512296285555
 31
0.0
  0
LINE
  5
592
330
49
100
AcDbEntity
  8
0
  6
ByBlock
 62
     0
440
 16777216
100
AcDbLine
 10
58.60005539677851
 20
24.34400223041027
 30
0.0
 11
58.60005539677851
 21
28.08262296285555
 31
0.0
  0
SOLID
  5
593
330
49
100
AcDbEntity
  8
0
  6
ByBlock
 62
     0
440
 16777216
100
AcDbTrace
 10
58.56888873011185
 20
31.78717171863641
 30
0.0
 11
58.63122206344518
 21
31.78717171863641
 31
0.0
 12
58.60005539677851
 22
31.97417171863641
 32
0.0
 13
58.60005539677851
 23
31.97417171863641
 33
0.0
  0
SOLID
  5
594
330
49
100
AcDbEntity
  8
0
  6
ByBlock
 62
     0
440
 16777216
100
AcDbTrace
 10
58.56888873011185
 20
24.34400223041027
 30
0.0
 11
58.63122206344518
 21
24.34400223041027
 31
0.0
 12
58.60005539677851
 22
24.15700223041027
 32
0.0
 13
58.60005539677851
 23
24.15700223041027
 33
0.0
  0
TEXT
  5
595
330
49
100
AcDbEntity
  8
0
  6
ByBlock
 62
     0
440
 16777216
100
AcDbText
 10
58.03755539677851
 20
28.27012296285555
 30
0.0
 40
0.1875
  1
7 13/16
 72
     1
 11
58.60005539677851
 21
28.36387296285555
 31
0.0
100
AcDbText
 73
     2
  0
POINT
  5
596
330
49
100
AcDbEntity
  8
DEFPOINTS
  6
ByBlock
 62
     0
440
 16777216
100
AcDbPoint
 10
53.16336509657052
 20
31.97417171863641
 30
0.0
  0
POINT
  5
597
330
49
100
AcDbEntity
  8
DEFPOINTS
  6
ByBlock
 62
     0
440
 16777216
100
AcDbPoint
 10
53.16336509657048
 20
24.15700223041027
 30
0.0
  0
POINT
  5
598
330
49
100
AcDbEntity
  8
DEFPOINTS
  6
ByBlock
 62
     0
440
 16777216
100
AcDbPoint
 10
58.60005539677851
 20
24.15700223041027
 30
0.0
  0
ENDBLK
  5
599
330
49
100
AcDbEntity
  8
0
100
AcDbBlockEnd
  0
BLOCK
  5
59A
330
4A
100
AcDbEntity
  8
0
100
AcDbBlockBegin
  2
*D33
 70
     1
 10
0.0
 20
0.0
 30
0.0
  3
*D33
  1

  0
LINE
  5
59B
330
4A
100
AcDbEntity
  8
0
  6
ByBlock
 62
     0
440
 16777216
100
AcDbLine
 10
53.41227432116818
 20
24.92504876785597
 30
0.0
 11
55.19380539677851
 21
24.92504876785597
 31
0.0
  0
LINE
  5
59C
330
4A
100
AcDbEntity
  8
0
  6
ByBlock
 62
     0
440
 16777216
100
AcDbLine
 10
53.41227432116818
 20
31.2061251811907
 30
0.0
 11
55.19380539677851
 21
31.2061251811907
 31
0.0
  0
LINE
  5
59D
330
4A
100
AcDbEntity
  8
0
  6
ByBlock
 62
     0
440
 16777216
100
AcDbLine
 10
55.10005539677852
 20
25.11204876785597
 30
0.0
 11
55.10005539677852
 21
27.97909731306443
 31
0.0
  0
LINE
  5
59E
330
4A
100
AcDbEntity
  8
0
  6
ByBlock
 62
     0
440
 16777216
100
AcDbLine
 10
55.10005539677852
 20
31.0191251811907
 30
0.0
 11
55.10005539677852
 21
28.54159731306443
 31
0.0
  0
SOLID
  5
59F
330
4A
100
AcDbEntity
  8
0
  6
ByBlock
 62
     0
440
 16777216
100
AcDbTrace
 10
55.06888873011185
 20
25.11204876785597
 30
0.0
 11
55.13122206344518
 21
25.11204876785597
 31
0.0
 12
55.10005539677852
 22
24.92504876785597
 32
0.0
 13
55.10005539677852
 23
24.92504876785597
 33
0.0
  0
SOLID
  5
5A0
330
4A
100
AcDbEntity
  8
0
  6
ByBlock
 62
     0
440
 16777216
100
AcDbTrace
 10
55.06888873011185
 20
31.0191251811907
 30
0.0
 11
55.13122206344518
 21
31.0191251811907
 31
0.0
 12
55.10005539677852
 22
31.2061251811907
 32
0.0
 13
55.10005539677852
 23
31.2061251811907
 33
0.0
  0
TEXT
  5
5A1
330
4A
100
AcDbEntity
  8
0
  6
ByBlock
 62
     0
440
 16777216
100
AcDbText
 10
54.56880539677851
 20
28.16659731306442
 30
0.0
 40
0.1875
  1
6 9/32
 72
     1
 11
55.10005539677852
 21
28.26034731306443
 31
0.0
100
AcDbText
 73
     2
  0
POINT
  5
5A2
330
4A
100
AcDbEntity
  8
DEFPOINTS
  6
ByBlock
 62
     0
440
 16777216
100
AcDbPoint
 10
53.22477432116818
 20
24.92504876785597
 30
0.0
  0
POINT
  5
5A3
330
4A
100
AcDbEntity
  8
DEFPOINTS
  6
ByBlock
 62
     0
440
 16777216
100
AcDbPoint
 10
53.22477432116818
 20
31.2061251811907
 30
0.0
  0
POINT
  5
5A4
330
4A
100
AcDbEntity
  8
DEFPOINTS
  6
ByBlock
 62
     0
440
 16777216
100
AcDbPoint
 10
55.10005539677852
 20
31.2061251811907
 30
0.0
  0
ENDBLK
  5
5A5
330
4A
100
AcDbEntity
  8
0
100
AcDbBlockEnd
  0
BLOCK
  5
5A6
330
4B
100
AcDbEntity
  8
0
100
AcDbBlockBegin
  2
*D34
 70
     1
 10
0.0
 20
0.0
 30
0.0
  3
*D34
  1

  0
LINE
  5
5A7
330
4B
100
AcDbEntity
  8
0
  6
ByBlock
 62
     0
440
 16777216
100
AcDbLine
 10
14.10658501202372
 20
24.89692797145121
 30
0.0
 11
14.5638761027792
 21
25.11565123403687
 31
0.0
  0
LINE
  5
5A8
330
4B
100
AcDbEntity
  8
0
  6
ByBlock
 62
     0
440
 16777216
100
AcDbLine
 10
14.5638761027792
 20
25.11565123403687
 30
0.0
 11
14.75087610277921
 21
25.11565123403686
 31
0.0
  0
SOLID
  5
5A9
330
4B
100
AcDbEntity
  8
0
  6
ByBlock
 62
     0
440
 16777216
100
AcDbTrace
 10
14.12003298380051
 20
24.86881190547103
 30
0.0
 11
14.09313704024693
 21
24.92504403743138
 31
0.0
 12
13.93788861614265
 22
24.81624014079045
 32
0.0
 13
13.93788861614265
 23
24.81624014079045
 33
0.0
  0
LINE
  5
5AA
330
4B
100
AcDbEntity
  8
0
  6
ByBlock
 62
     0
440
 16777216
100
AcDbLine
 10
13.74580756185904
 20
24.76920819671546
 30
0.0
 11
13.93330756185904
 21
24.76920819671546
 31
0.0
  0
LINE
  5
5AB
330
4B
100
AcDbEntity
  8
0
  6
ByBlock
 62
     0
440
 16777216
100
AcDbLine
 10
13.83955756185904
 20
24.67545819671546
 30
0.0
 11
13.83955756185904
 21
24.86295819671546
 31
0.0
  0
TEXT
  5
5AC
330
4B
100
AcDbEntity
  8
0
  6
ByBlock
 62
     0
440
 16777216
100
AcDbText
 10
14.9383761027792
 20
25.02190123403687
 30
0.0
 40
0.1875
  1
%%c0.218
 72
     1
 11
15.3602511027792
 21
25.11565123403687
 31
0.0
100
AcDbText
 73
     2
  0
POINT
  5
5AD
330
4B
100
AcDbEntity
  8
DEFPOINTS
  6
ByBlock
 62
     0
440
 16777216
100
AcDbPoint
 10
13.93788861614265
 20
24.81624014079045
 30
0.0
  0
POINT
  5
5AE
330
4B
100
AcDbEntity
  8
DEFPOINTS
  6
ByBlock
 62
     0
440
 16777216
100
AcDbPoint
 10
13.74122650757543
 20
24.72217625264046
 30
0.0
  0
ENDBLK
  5
5AF
330
4B
100
AcDbEntity
  8
0
100
AcDbBlockEnd
  0
BLOCK
  5
5B0
330
4C
100
AcDbEntity
  8
0
100
AcDbBlockBegin
  2
*D35
 70
     1
 10
0.0
 20
0.0
 30
0.0
  3
*D35
  1

  0
LINE
  5
5B1
330
4C
100
AcDbEntity
  8
0
  6
ByBlock
 62
     0
440
 16777216
100
AcDbLine
 10
14.10699711889512
 20
24.52896595785568
 30
0.0
 11
14.5867843342114
 21
24.09797079744891
 31
0.0
  0
LINE
  5
5B2
330
4C
100
AcDbEntity
  8
0
  6
ByBlock
 62
     0
440
 16777216
100
AcDbLine
 10
14.5867843342114
 20
24.09797079744891
 30
0.0
 11
14.7737843342114
 21
24.0979707974489
 31
0.0
  0
SOLID
  5
5B3
330
4C
100
AcDbEntity
  8
0
  6
ByBlock
 62
     0
440
 16777216
100
AcDbTrace
 10
14.08616944218358
 20
24.50578042370374
 30
0.0
 11
14.12782479560665
 21
24.55215149200763
 31
0.0
 12
13.96788391398345
 22
24.65393201812488
 32
0.0
 13
13.96788391398345
 23
24.65393201812488
 33
0.0
  0
LINE
  5
5B4
330
4C
100
AcDbEntity
  8
0
  6
ByBlock
 62
     0
440
 16777216
100
AcDbLine
 10
13.74580756185905
 20
24.76920819671545
 30
0.0
 11
13.93330756185905
 21
24.76920819671545
 31
0.0
  0
LINE
  5
5B5
330
4C
100
AcDbEntity
  8
0
  6
ByBlock
 62
     0
440
 16777216
100
AcDbLine
 10
13.83955756185905
 20
24.67545819671545
 30
0.0
 11
13.83955756185905
 21
24.86295819671545
 31
0.0
  0
TEXT
  5
5B6
330
4C
100
AcDbEntity
  8
0
  6
ByBlock
 62
     0
440
 16777216
100
AcDbText
 10
14.9612843342114
 20
24.0042207974489
 30
0.0
 40
0.1875
  1
%%c0.345
 72
     1
 11
15.4144093342114
 21
24.0979707974489
 31
0.0
100
AcDbText
 73
     2
  0
POINT
  5
5B7
330
4C
100
AcDbEntity
  8
DEFPOINTS
  6
ByBlock
 62
     0
440
 16777216
100
AcDbPoint
 10
13.96788391398345
 20
24.65393201812488
 30
0.0
  0
POINT
  5
5B8
330
4C
100
AcDbEntity
  8
DEFPOINTS
  6
ByBlock
 62
     0
440
 16777216
100
AcDbPoint
 10
13.71123120973465
 20
24.88448437530602
 30
0.0
  0
ENDBLK
  5
5B9
330
4C
100
AcDbEntity
  8
0
100
AcDbBlockEnd
  0
BLOCK
  5
5BA
330
4D
100
AcDbEntity
  8
0
100
AcDbBlockBegin
  2
*D36
 70
     1
 10
0.0
 20
0.0
 30
0.0
  3
*D36
  1

  0
LINE
  5
5BB
330
4D
100
AcDbEntity
  8
0
  6
ByBlock
 62
     0
440
 16777216
100
AcDbLine
 10
50.08944147400073
 20
14.39675742326541
 30
0.0
 11
49.27162047935623
 21
14.39675742326541
 31
0.0
  0
LINE
  5
5BC
330
4D
100
AcDbEntity
  8
0
  6
ByBlock
 62
     0
440
 16777216
100
AcDbLine
 10
50.02802289505599
 20
14.27175742326541
 30
0.0
 11
49.27162047935623
 21
14.27175742326541
 31
0.0
  0
LINE
  5
5BD
330
4D
100
AcDbEntity
  8
0
  6
ByBlock
 62
     0
440
 16777216
100
AcDbLine
 10
49.36537047935622
 20
14.58375742326541
 30
0.0
 11
49.36537047935622
 21
14.77075742326541
 31
0.0
  0
LINE
  5
5BE
330
4D
100
AcDbEntity
  8
0
  6
ByBlock
 62
     0
440
 16777216
100
AcDbLine
 10
49.36537047935622
 20
14.08475742326541
 30
0.0
 11
49.36537047935622
 21
13.89775742326541
 31
0.0
  0
LINE
  5
5BF
330
4D
100
AcDbEntity
  8
0
  6
ByBlock
 62
     0
440
 16777216
100
AcDbLine
 10
49.36537047935622
 20
13.89775742326541
 30
0.0
 11
49.17837047935623
 21
13.89775742326541
 31
0.0
  0
SOLID
  5
5C0
330
4D
100
AcDbEntity
  8
0
  6
ByBlock
 62
     0
440
 16777216
100
AcDbTrace
 10
49.33420381268956
 20
14.58375742326541
 30
0.0
 11
49.3965371460229
 21
14.58375742326541
 31
0.0
 12
49.36537047935622
 22
14.39675742326541
 32
0.0
 13
49.36537047935622
 23
14.39675742326541
 33
0.0
  0
SOLID
  5
5C1
330
4D
100
AcDbEntity
  8
0
  6
ByBlock
 62
     0
440
 16777216
100
AcDbTrace
 10
49.33420381268956
 20
14.08475742326541
 30
0.0
 11
49.3965371460229
 21
14.08475742326541
 31
0.0
 12
49.36537047935622
 22
14.27175742326541
 32
0.0
 13
49.36537047935622
 23
14.27175742326541
 33
0.0
  0
TEXT
  5
5C2
330
4D
100
AcDbEntity
  8
0
  6
ByBlock
 62
     0
440
 16777216
100
AcDbText
 10
48.33462047935623
 20
13.80400742326541
 30
0.0
 40
0.1875
  1
0.125
 72
     1
 11
48.66274547935623
 21
13.89775742326541
 31
0.0
100
AcDbText
 73
     2
  0
POINT
  5
5C3
330
4D
100
AcDbEntity
  8
DEFPOINTS
  6
ByBlock
 62
     0
440
 16777216
100
AcDbPoint
 10
50.27694147400073
 20
14.39675742326541
 30
0.0
  0
POINT
  5
5C4
330
4D
100
AcDbEntity
  8
DEFPOINTS
  6
ByBlock
 62
     0
440
 16777216
100
AcDbPoint
 10
50.21552289505599
 20
14.27175742326541
 30
0.0
  0
POINT
  5
5C5
330
4D
100
AcDbEntity
  8
DEFPOINTS
  6
ByBlock
 62
     0
440
 16777216
100
AcDbPoint
 10
49.36537047935622
 20
14.27175742326541
 30
0.0
  0
ENDBLK
  5
5C6
330
4D
100
AcDbEntity
  8
0
100
AcDbBlockEnd
  0
BLOCK
  5
5C7
330
4E
100
AcDbEntity
  8
0
100
AcDbBlockBegin
  2
*D37
 70
     1
 10
0.0
 20
0.0
 30
0.0
  3
*D37
  1

  0
LINE
  5
5C8
330
4E
100
AcDbEntity
  8
0
  6
ByBlock
 62
     0
440
 16777216
100
AcDbLine
 10
51.16951443309998
 20
17.27175742326541
 30
0.0
 11
51.10618005983198
 21
17.27175742326541
 31
0.0
  0
LINE
  5
5C9
330
4E
100
AcDbEntity
  8
0
  6
ByBlock
 62
     0
440
 16777216
100
AcDbLine
 10
51.19384246528557
 20
17.39675742326541
 30
0.0
 11
51.10618005983198
 21
17.39675742326541
 31
0.0
  0
LINE
  5
5CA
330
4E
100
AcDbEntity
  8
0
  6
ByBlock
 62
     0
440
 16777216
100
AcDbLine
 10
51.01243005983198
 20
17.08475742326541
 30
0.0
 11
51.01243005983198
 21
16.89775742326541
 31
0.0
  0
LINE
  5
5CB
330
4E
100
AcDbEntity
  8
0
  6
ByBlock
 62
     0
440
 16777216
100
AcDbLine
 10
51.01243005983198
 20
17.58375742326541
 30
0.0
 11
51.01243005983198
 21
17.77075742326541
 31
0.0
  0
LINE
  5
5CC
330
4E
100
AcDbEntity
  8
0
  6
ByBlock
 62
     0
440
 16777216
100
AcDbLine
 10
51.01243005983198
 20
17.77075742326541
 30
0.0
 11
51.19943005983198
 21
17.77075742326541
 31
0.0
  0
SOLID
  5
5CD
330
4E
100
AcDbEntity
  8
0
  6
ByBlock
 62
     0
440
 16777216
100
AcDbTrace
 10
50.98126339316531
 20
17.08475742326541
 30
0.0
 11
51.04359672649864
 21
17.08475742326541
 31
0.0
 12
51.01243005983198
 22
17.27175742326541
 32
0.0
 13
51.01243005983198
 23
17.27175742326541
 33
0.0
  0
SOLID
  5
5CE
330
4E
100
AcDbEntity
  8
0
  6
ByBlock
 62
     0
440
 16777216
100
AcDbTrace
 10
50.98126339316531
 20
17.58375742326541
 30
0.0
 11
51.04359672649864
 21
17.58375742326541
 31
0.0
 12
51.01243005983198
 22
17.39675742326541
 32
0.0
 13
51.01243005983198
 23
17.39675742326541
 33
0.0
  0
TEXT
  5
5CF
330
4E
100
AcDbEntity
  8
0
  6
ByBlock
 62
     0
440
 16777216
100
AcDbText
 10
51.38693005983197
 20
17.67700742326541
 30
0.0
 40
0.1875
  1
0.125
 72
     1
 11
51.71505505983198
 21
17.77075742326541
 31
0.0
100
AcDbText
 73
     2
  0
POINT
  5
5D0
330
4E
100
AcDbEntity
  8
DEFPOINTS
  6
ByBlock
 62
     0
440
 16777216
100
AcDbPoint
 10
50.98201443309998
 20
17.27175742326541
 30
0.0
  0
POINT
  5
5D1
330
4E
100
AcDbEntity
  8
DEFPOINTS
  6
ByBlock
 62
     0
440
 16777216
100
AcDbPoint
 10
51.00634246528557
 20
17.39675742326541
 30
0.0
  0
POINT
  5
5D2
330
4E
100
AcDbEntity
  8
DEFPOINTS
  6
ByBlock
 62
     0
440
 16777216
100
AcDbPoint
 10
51.01243005983198
 20
17.39675742326541
 30
0.0
  0
ENDBLK
  5
5D3
330
4E
100
AcDbEntity
  8
0
100
AcDbBlockEnd
  0
BLOCK
  5
5D4
330
50
100
AcDbEntity
  8
0
100
AcDbBlockBegin
  2
*D38
 70
     1
 10
0.0
 20
0.0
 30
0.0
  3
*D38
  1

  0
LINE
  5
5D5
330
50
100
AcDbEntity
  8
0
  6
ByBlock
 62
     0
440
 16777216
100
AcDbLine
 10
50.29446715822181
 20
14.08425742326541
 30
0.0
 11
50.29446715822181
 21
11.80657514889013
 31
0.0
  0
LINE
  5
5D6
330
50
100
AcDbEntity
  8
0
  6
ByBlock
 62
     0
440
 16777216
100
AcDbLine
 10
53.0444671582218
 20
14.08425742326541
 30
0.0
 11
53.0444671582218
 21
11.80657514889013
 31
0.0
  0
LINE
  5
5D7
330
50
100
AcDbEntity
  8
0
  6
ByBlock
 62
     0
440
 16777216
100
AcDbLine
 10
50.48146715822181
 20
11.90032514889013
 30
0.0
 11
51.23115730351542
 21
11.90032514889013
 31
0.0
  0
LINE
  5
5D8
330
50
100
AcDbEntity
  8
0
  6
ByBlock
 62
     0
440
 16777216
100
AcDbLine
 10
52.85746715822181
 20
11.90032514889013
 30
0.0
 11
52.48115730351542
 21
11.90032514889013
 31
0.0
  0
SOLID
  5
5D9
330
50
100
AcDbEntity
  8
0
  6
ByBlock
 62
     0
440
 16777216
100
AcDbTrace
 10
50.48146715822181
 20
11.9314918155568
 30
0.0
 11
50.48146715822181
 21
11.86915848222346
 31
0.0
 12
50.29446715822181
 22
11.90032514889013
 32
0.0
 13
50.29446715822181
 23
11.90032514889013
 33
0.0
  0
SOLID
  5
5DA
330
50
100
AcDbEntity
  8
0
  6
ByBlock
 62
     0
440
 16777216
100
AcDbTrace
 10
52.85746715822181
 20
11.9314918155568
 30
0.0
 11
52.85746715822181
 21
11.86915848222346
 31
0.0
 12
53.0444671582218
 22
11.90032514889013
 32
0.0
 13
53.0444671582218
 23
11.90032514889013
 33
0.0
  0
TEXT
  5
5DB
330
50
100
AcDbEntity
  8
0
  6
ByBlock
 62
     0
440
 16777216
100
AcDbText
 10
51.41865730351542
 20
11.80657514889013
 30
0.0
 40
0.1875
  1
2 3/4
 72
     1
 11
51.85615730351542
 21
11.90032514889013
 31
0.0
100
AcDbText
 73
     2
  0
POINT
  5
5DC
330
50
100
AcDbEntity
  8
DEFPOINTS
  6
ByBlock
 62
     0
440
 16777216
100
AcDbPoint
 10
50.29446715822181
 20
14.27175742326541
 30
0.0
  0
POINT
  5
5DD
330
50
100
AcDbEntity
  8
DEFPOINTS
  6
ByBlock
 62
     0
440
 16777216
100
AcDbPoint
 10
53.0444671582218
 20
14.27175742326541
 30
0.0
  0
POINT
  5
5DE
330
50
100
AcDbEntity
  8
DEFPOINTS
  6
ByBlock
 62
     0
440
 16777216
100
AcDbPoint
 10
53.0444671582218
 20
11.90032514889013
 30
0.0
  0
ENDBLK
  5
5DF
330
50
100
AcDbEntity
  8
0
100
AcDbBlockEnd
  0
BLOCK
  5
5E0
330
51
100
AcDbEntity
  8
0
100
AcDbBlockBegin
  2
*D39
 70
     1
 10
0.0
 20
0.0
 30
0.0
  3
*D39
  1

  0
LINE
  5
5E1
330
51
100
AcDbEntity
  8
0
  6
ByBlock
 62
     0
440
 16777216
100
AcDbLine
 10
53.18590190233489
 20
14.27066664786308
 30
0.0
 11
53.18590190233489
 21
10.62085907520069
 31
0.0
  0
LINE
  5
5E2
330
51
100
AcDbEntity
  8
0
  6
ByBlock
 62
     0
440
 16777216
100
AcDbLine
 10
50.15303241410872
 20
14.27066664786308
 30
0.0
 11
50.15303241410872
 21
10.62085907520069
 31
0.0
  0
LINE
  5
5E3
330
51
100
AcDbEntity
  8
0
  6
ByBlock
 62
     0
440
 16777216
100
AcDbLine
 10
52.99890190233489
 20
10.71460907520069
 30
0.0
 11
52.34120730351542
 21
10.71460907520069
 31
0.0
  0
LINE
  5
5E4
330
51
100
AcDbEntity
  8
0
  6
ByBlock
 62
     0
440
 16777216
100
AcDbLine
 10
50.34003241410872
 20
10.71460907520069
 30
0.0
 11
50.96620730351542
 21
10.71460907520069
 31
0.0
  0
SOLID
  5
5E5
330
51
100
AcDbEntity
  8
0
  6
ByBlock
 62
     0
440
 16777216
100
AcDbTrace
 10
52.99890190233489
 20
10.74577574186736
 30
0.0
 11
52.99890190233489
 21
10.68344240853403
 31
0.0
 12
53.18590190233489
 22
10.71460907520069
 32
0.0
 13
53.18590190233489
 23
10.71460907520069
 33
0.0
  0
SOLID
  5
5E6
330
51
100
AcDbEntity
  8
0
  6
ByBlock
 62
     0
440
 16777216
100
AcDbTrace
 10
50.34003241410872
 20
10.74577574186736
 30
0.0
 11
50.34003241410872
 21
10.68344240853403
 31
0.0
 12
50.15303241410872
 22
10.71460907520069
 32
0.0
 13
50.15303241410872
 23
10.71460907520069
 33
0.0
  0
TEXT
  5
5E7
330
51
100
AcDbEntity
  8
0
  6
ByBlock
 62
     0
440
 16777216
100
AcDbText
 10
51.15370730351543
 20
10.62085907520069
 30
0.0
 40
0.1875
  1
3 1/32
 72
     1
 11
51.65370730351543
 21
10.71460907520069
 31
0.0
100
AcDbText
 73
     2
  0
POINT
  5
5E8
330
51
100
AcDbEntity
  8
DEFPOINTS
  6
ByBlock
 62
     0
440
 16777216
100
AcDbPoint
 10
53.18590190233489
 20
14.45816664786308
 30
0.0
  0
POINT
  5
5E9
330
51
100
AcDbEntity
  8
DEFPOINTS
  6
ByBlock
 62
     0
440
 16777216
100
AcDbPoint
 10
50.15303241410872
 20
14.45816664786308
 30
0.0
  0
POINT
  5
5EA
330
51
100
AcDbEntity
  8
DEFPOINTS
  6
ByBlock
 62
     0
440
 16777216
100
AcDbPoint
 10
50.15303241410872
 20
10.71460907520069
 30
0.0
  0
ENDBLK
  5
5EB
330
51
100
AcDbEntity
  8
0
100
AcDbBlockEnd
  0
BLOCK
  5
5EC
330
52
100
AcDbEntity
  8
0
100
AcDbBlockBegin
  2
*X40
 70
     1
 10
0.0
 20
0.0
 30
0.0
  3
*X40
  1

  0
LINE
  5
5ED
330
52
100
AcDbEntity
  8
0
 62
     0
100
AcDbLine
 10
50.21477432116817
 20
27.94091071379193
 30
0.0
 11
50.33977432116817
 21
28.06591071379193
 31
0.0
  0
LINE
  5
5EE
330
52
100
AcDbEntity
  8
0
 62
     0
100
AcDbLine
 10
50.21477432116817
 20
29.00157088557175
 30
0.0
 11
50.33977432116817
 21
29.12657088557175
 31
0.0
  0
LINE
  5
5EF
330
52
100
AcDbEntity
  8
0
 62
     0
100
AcDbLine
 10
50.21477432116817
 20
30.06223105735157
 30
0.0
 11
50.33977432116817
 21
30.18723105735157
 31
0.0
  0
LINE
  5
5F0
330
52
100
AcDbEntity
  8
0
 62
     0
100
AcDbLine
 10
50.21477432116817
 20
31.1228912291314
 30
0.0
 11
50.33977432116817
 21
31.24789122913139
 31
0.0
  0
LINE
  5
5F1
330
52
100
AcDbEntity
  8
0
 62
     0
100
AcDbLine
 10
50.21477432116817
 20
26.88025054201211
 30
0.0
 11
50.33977432116817
 21
27.00525054201211
 31
0.0
  0
LINE
  5
5F2
330
52
100
AcDbEntity
  8
0
 62
     0
100
AcDbLine
 10
50.21477432116817
 20
25.81959037023229
 30
0.0
 11
50.33977432116817
 21
25.94459037023229
 31
0.0
  0
LINE
  5
5F3
330
52
100
AcDbEntity
  8
0
 62
     0
100
AcDbLine
 10
50.21477432116817
 20
24.75893019845247
 30
0.0
 11
50.33977432116817
 21
24.88393019845247
 31
0.0
  0
LINE
  5
5F4
330
52
100
AcDbEntity
  8
0
 62
     0
100
AcDbLine
 10
50.41510990501524
 20
23.89860561051972
 30
0.0
 11
50.5278256568947
 21
24.01132136239918
 31
0.0
  0
LINE
  5
5F5
330
52
100
AcDbEntity
  8
0
 62
     0
100
AcDbLine
 10
50.21477432116817
 20
27.76413401879193
 30
0.0
 11
50.33977432116817
 21
27.88913401879193
 31
0.0
  0
LINE
  5
5F6
330
52
100
AcDbEntity
  8
0
 62
     0
100
AcDbLine
 10
50.21477432116817
 20
28.82479419057175
 30
0.0
 11
50.33977432116817
 21
28.94979419057175
 31
0.0
  0
LINE
  5
5F7
330
52
100
AcDbEntity
  8
0
 62
     0
100
AcDbLine
 10
50.21477432116817
 20
29.88545436235157
 30
0.0
 11
50.33977432116817
 21
30.01045436235157
 31
0.0
  0
LINE
  5
5F8
330
52
100
AcDbEntity
  8
0
 62
     0
100
AcDbLine
 10
50.21477432116817
 20
30.94611453413139
 30
0.0
 11
50.33977432116817
 21
31.07111453413139
 31
0.0
  0
LINE
  5
5F9
330
52
100
AcDbEntity
  8
0
 62
     0
100
AcDbLine
 10
50.40227432116817
 20
32.19427470591121
 30
0.0
 11
50.46517678142186
 21
32.2571771661649
 31
0.0
  0
LINE
  5
5FA
330
52
100
AcDbEntity
  8
0
 62
     0
100
AcDbLine
 10
50.21477432116817
 20
26.70347384701211
 30
0.0
 11
50.33977432116817
 21
26.82847384701211
 31
0.0
  0
LINE
  5
5FB
330
52
100
AcDbEntity
  8
0
 62
     0
100
AcDbLine
 10
50.21477432116817
 20
25.64281367523229
 30
0.0
 11
50.33977432116817
 21
25.76781367523228
 31
0.0
  0
LINE
  5
5FC
330
52
100
AcDbEntity
  8
0
 62
     0
100
AcDbLine
 10
50.21477432116817
 20
24.58215350345247
 30
0.0
 11
50.33977432116817
 21
24.70715350345246
 31
0.0
  0
LINE
  5
5FD
330
52
100
AcDbEntity
  8
0
 62
     0
100
AcDbLine
 10
50.56383263408739
 20
23.87055164459186
 30
0.0
 11
50.67919653803969
 21
23.98591554854415
 31
0.0
  0
LINE
  5
5FE
330
52
100
AcDbEntity
  8
0
 62
     0
100
AcDbLine
 10
50.21477432116817
 20
28.64801749457175
 30
0.0
 11
50.33977432116817
 21
28.77301749457175
 31
0.0
  0
LINE
  5
5FF
330
52
100
AcDbEntity
  8
0
 62
     0
100
AcDbLine
 10
50.21477432116817
 20
29.70867766635157
 30
0.0
 11
50.33977432116817
 21
29.83367766635157
 31
0.0
  0
LINE
  5
600
330
52
100
AcDbEntity
  8
0
 62
     0
100
AcDbLine
 10
50.21477432116817
 20
30.7693378381314
 30
0.0
 11
50.33977432116817
 21
30.89433783813139
 31
0.0
  0
LINE
  5
601
330
52
100
AcDbEntity
  8
0
 62
     0
100
AcDbLine
 10
50.40227432116817
 20
32.01749800991121
 30
0.0
 11
50.64835002814783
 21
32.26357371689088
 31
0.0
  0
LINE
  5
602
330
52
100
AcDbEntity
  8
0
 62
     0
100
AcDbLine
 10
50.21477432116817
 20
27.58735732279193
 30
0.0
 11
50.33977432116817
 21
27.71235732279193
 31
0.0
  0
LINE
  5
603
330
52
100
AcDbEntity
  8
0
 62
     0
100
AcDbLine
 10
50.21477432116817
 20
26.52669715101211
 30
0.0
 11
50.33977432116817
 21
26.65169715101211
 31
0.0
  0
LINE
  5
604
330
52
100
AcDbEntity
  8
0
 62
     0
100
AcDbLine
 10
50.21477432116817
 20
25.46603697923229
 30
0.0
 11
50.33977432116817
 21
25.59103697923229
 31
0.0
  0
LINE
  5
605
330
52
100
AcDbEntity
  8
0
 62
     0
100
AcDbLine
 10
50.25506869171401
 20
24.4456711779983
 30
0.0
 11
50.34345703936232
 21
24.53405952564662
 31
0.0
  0
LINE
  5
606
330
52
100
AcDbEntity
  8
0
 62
     0
100
AcDbLine
 10
50.73464445003618
 20
23.86458676454065
 30
0.0
 11
50.83977432116817
 21
23.96971663567264
 31
0.0
  0
LINE
  5
607
330
52
100
AcDbEntity
  8
0
 62
     0
100
AcDbLine
 10
50.21477432116817
 20
28.47124079957175
 30
0.0
 11
50.33977432116817
 21
28.59624079957175
 31
0.0
  0
LINE
  5
608
330
52
100
AcDbEntity
  8
0
 62
     0
100
AcDbLine
 10
50.21477432116817
 20
29.53190097135158
 30
0.0
 11
50.33977432116817
 21
29.65690097135157
 31
0.0
  0
LINE
  5
609
330
52
100
AcDbEntity
  8
0
 62
     0
100
AcDbLine
 10
50.21477432116817
 20
30.5925611431314
 30
0.0
 11
50.33977432116817
 21
30.71756114313139
 31
0.0
  0
LINE
  5
60A
330
52
100
AcDbEntity
  8
0
 62
     0
100
AcDbLine
 10
50.40227432116817
 20
31.84072131491121
 30
0.0
 11
50.52727432116816
 21
31.96572131491121
 31
0.0
  0
LINE
  5
60B
330
52
100
AcDbEntity
  8
0
 62
     0
100
AcDbLine
 10
50.70681140675951
 20
32.14525840050255
 30
0.0
 11
50.83152327383762
 21
32.26997026758067
 31
0.0
  0
LINE
  5
60C
330
52
100
AcDbEntity
  8
0
 62
     0
100
AcDbLine
 10
50.21477432116817
 20
27.41058062779193
 30
0.0
 11
50.33977432116817
 21
27.53558062779193
 31
0.0
  0
LINE
  5
60D
330
52
100
AcDbEntity
  8
0
 62
     0
100
AcDbLine
 10
50.21477432116817
 20
26.34992045601211
 30
0.0
 11
50.33977432116817
 21
26.4749204560121
 31
0.0
  0
LINE
  5
60E
330
52
100
AcDbEntity
  8
0
 62
     0
100
AcDbLine
 10
50.21477432116817
 20
25.28926028423228
 30
0.0
 11
50.33977432116817
 21
25.41426028423229
 31
0.0
  0
LINE
  5
60F
330
52
100
AcDbEntity
  8
0
 62
     0
100
AcDbLine
 10
50.34345703921401
 20
24.3572828304983
 30
0.0
 11
50.43184538686233
 21
24.44567117814662
 31
0.0
  0
ENDBLK
  5
610
330
52
100
AcDbEntity
  8
0
100
AcDbBlockEnd
  0
BLOCK
  5
611
330
53
100
AcDbEntity
  8
0
100
AcDbBlockBegin
  2
*X41
 70
     1
 10
0.0
 20
0.0
 30
0.0
  3
*X41
  1

  0
LINE
  5
612
330
53
100
AcDbEntity
  8
0
 62
     0
100
AcDbLine
 10
53.34977432116819
 20
26.19973856231841
 30
0.0
 11
53.22477432116816
 21
26.32473856231843
 31
0.0
  0
LINE
  5
613
330
53
100
AcDbEntity
  8
0
 62
     0
100
AcDbLine
 10
53.34977432116819
 20
25.13907839053859
 30
0.0
 11
53.22477432116816
 21
25.26407839053861
 31
0.0
  0
LINE
  5
614
330
53
100
AcDbEntity
  8
0
 62
     0
100
AcDbLine
 10
53.31602171803129
 20
24.11217082189566
 30
0.0
 11
53.20866457496013
 21
24.21952796496682
 31
0.0
  0
LINE
  5
615
330
53
100
AcDbEntity
  8
0
 62
     0
100
AcDbLine
 10
52.3497508679298
 20
24.01778150021734
 30
0.0
 11
52.22687660515898
 21
24.14065576298815
 31
0.0
  0
LINE
  5
616
330
53
100
AcDbEntity
  8
0
 62
     0
100
AcDbLine
 10
51.30728697115353
 20
23.99958522521378
 30
0.0
 11
51.18441270838271
 21
24.1224594879846
 31
0.0
  0
LINE
  5
617
330
53
100
AcDbEntity
  8
0
 62
     0
100
AcDbLine
 10
53.34977432116819
 20
27.26039873409823
 30
0.0
 11
53.22477432116817
 21
27.38539873409825
 31
0.0
  0
LINE
  5
618
330
53
100
AcDbEntity
  8
0
 62
     0
100
AcDbLine
 10
53.34977432116819
 20
28.32105890587805
 30
0.0
 11
53.22477432116817
 21
28.44605890587807
 31
0.0
  0
LINE
  5
619
330
53
100
AcDbEntity
  8
0
 62
     0
100
AcDbLine
 10
53.34977432116819
 20
29.38171907765788
 30
0.0
 11
53.22477432116818
 21
29.50671907765788
 31
0.0
  0
LINE
  5
61A
330
53
100
AcDbEntity
  8
0
 62
     0
100
AcDbLine
 10
50.71457794140074
 20
32.01691545742532
 30
0.0
 11
50.60917968709777
 21
32.12231371172828
 31
0.0
  0
LINE
  5
61B
330
53
100
AcDbEntity
  8
0
 62
     0
100
AcDbLine
 10
53.34977432116819
 20
30.44237924943769
 30
0.0
 11
53.22477432116818
 21
30.5673792494377
 31
0.0
  0
LINE
  5
61C
330
53
100
AcDbEntity
  8
0
 62
     0
100
AcDbLine
 10
51.79408090754481
 20
31.99807266306107
 30
0.0
 11
51.66684088366096
 21
32.12531268694491
 31
0.0
  0
LINE
  5
61D
330
53
100
AcDbEntity
  8
0
 62
     0
100
AcDbLine
 10
53.34977432116819
 20
31.50303942121752
 30
0.0
 11
53.22477432116818
 21
31.62803942121751
 31
0.0
  0
LINE
  5
61E
330
53
100
AcDbEntity
  8
0
 62
     0
100
AcDbLine
 10
52.8735838736889
 20
31.97922986869682
 30
0.0
 11
52.74634384980503
 21
32.10646989258067
 31
0.0
  0
LINE
  5
61F
330
53
100
AcDbEntity
  8
0
 62
     0
100
AcDbLine
 10
53.34977432116819
 20
26.3765152573184
 30
0.0
 11
53.22477432116816
 21
26.50151525731842
 31
0.0
  0
LINE
  5
620
330
53
100
AcDbEntity
  8
0
 62
     0
100
AcDbLine
 10
53.34977432116819
 20
25.31585508553858
 30
0.0
 11
53.22477432116816
 21
25.44085508553861
 31
0.0
  0
LINE
  5
621
330
53
100
AcDbEntity
  8
0
 62
     0
100
AcDbLine
 10
53.34977432116819
 20
24.25519491375876
 30
0.0
 11
53.22477432116816
 21
24.38019491375879
 31
0.0
  0
LINE
  5
622
330
53
100
AcDbEntity
  8
0
 62
     0
100
AcDbLine
 10
52.52349485043429
 20
24.02081421271284
 30
0.0
 11
52.40062058766347
 21
24.14368847548365
 31
0.0
  0
LINE
  5
623
330
53
100
AcDbEntity
  8
0
 62
     0
100
AcDbLine
 10
51.48103095365802
 20
24.00261793770928
 30
0.0
 11
51.3581566908872
 21
24.1254922004801
 31
0.0
  0
LINE
  5
624
330
53
100
AcDbEntity
  8
0
 62
     0
100
AcDbLine
 10
53.34977432116819
 20
27.43717542909822
 30
0.0
 11
53.22477432116817
 21
27.56217542909824
 31
0.0
  0
LINE
  5
625
330
53
100
AcDbEntity
  8
0
 62
     0
100
AcDbLine
 10
53.34977432116819
 20
28.49783560087804
 30
0.0
 11
53.22477432116817
 21
28.62283560087806
 31
0.0
  0
LINE
  5
626
330
53
100
AcDbEntity
  8
0
 62
     0
100
AcDbLine
 10
53.34977432116819
 20
29.55849577265786
 30
0.0
 11
53.22477432116818
 21
29.68349577265787
 31
0.0
  0
LINE
  5
627
330
53
100
AcDbEntity
  8
0
 62
     0
100
AcDbLine
 10
50.89449510212284
 20
32.01377499170322
 30
0.0
 11
50.774402852857
 21
32.13386724096905
 31
0.0
  0
LINE
  5
628
330
53
100
AcDbEntity
  8
0
 62
     0
100
AcDbLine
 10
53.34977432116819
 20
30.61915594443769
 30
0.0
 11
53.22477432116818
 21
30.74415594443769
 31
0.0
  0
LINE
  5
629
330
53
100
AcDbEntity
  8
0
 62
     0
100
AcDbLine
 10
51.97399806826691
 20
31.99493219733896
 30
0.0
 11
51.84675804438306
 21
32.1221722212228
 31
0.0
  0
LINE
  5
62A
330
53
100
AcDbEntity
  8
0
 62
     0
100
AcDbLine
 10
53.34977432116819
 20
31.67981611621751
 30
0.0
 11
53.22477432116818
 21
31.80481611621751
 31
0.0
  0
LINE
  5
62B
330
53
100
AcDbEntity
  8
0
 62
     0
100
AcDbLine
 10
53.05350103441099
 20
31.97608940297471
 30
0.0
 11
52.92626101052713
 21
32.10332942685857
 31
0.0
  0
LINE
  5
62C
330
53
100
AcDbEntity
  8
0
 62
     0
100
AcDbLine
 10
53.34977432116819
 20
26.55329195331841
 30
0.0
 11
53.22477432116816
 21
26.67829195331843
 31
0.0
  0
LINE
  5
62D
330
53
100
AcDbEntity
  8
0
 62
     0
100
AcDbLine
 10
53.34977432116819
 20
25.49263178153859
 30
0.0
 11
53.22477432116816
 21
25.61763178153861
 31
0.0
  0
LINE
  5
62E
330
53
100
AcDbEntity
  8
0
 62
     0
100
AcDbLine
 10
53.34977432116819
 20
24.43197160975877
 30
0.0
 11
53.22477432116816
 21
24.55697160975879
 31
0.0
  0
LINE
  5
62F
330
53
100
AcDbEntity
  8
0
 62
     0
100
AcDbLine
 10
52.69723883392163
 20
24.0238469252255
 30
0.0
 11
52.57436457115082
 21
24.14672118799631
 31
0.0
  0
LINE
  5
630
330
53
100
AcDbEntity
  8
0
 62
     0
100
AcDbLine
 10
51.65477493714536
 20
24.00565065022195
 30
0.0
 11
51.53190067437455
 21
24.12852491299276
 31
0.0
  0
LINE
  5
631
330
53
100
AcDbEntity
  8
0
 62
     0
100
AcDbLine
 10
53.34977432116819
 20
27.61395212509823
 30
0.0
 11
53.22477432116817
 21
27.73895212509825
 31
0.0
  0
LINE
  5
632
330
53
100
AcDbEntity
  8
0
 62
     0
100
AcDbLine
 10
53.34977432116819
 20
28.67461229687804
 30
0.0
 11
53.22477432116818
 21
28.79961229687805
 31
0.0
  0
LINE
  5
633
330
53
100
AcDbEntity
  8
0
 62
     0
100
AcDbLine
 10
53.34977432116819
 20
29.73527246865786
 30
0.0
 11
53.22477432116818
 21
29.86027246865787
 31
0.0
  0
LINE
  5
634
330
53
100
AcDbEntity
  8
0
 62
     0
100
AcDbLine
 10
51.07441226386271
 20
32.01063452596335
 30
0.0
 11
50.85477432116817
 21
32.23027246865787
 31
0.0
  0
LINE
  5
635
330
53
100
AcDbEntity
  8
0
 62
     0
100
AcDbLine
 10
53.34977432116819
 20
30.79593264043769
 30
0.0
 11
53.22477432116818
 21
30.92093264043769
 31
0.0
  0
LINE
  5
636
330
53
100
AcDbEntity
  8
0
 62
     0
100
AcDbLine
 10
52.15391523000678
 20
31.99179173159909
 30
0.0
 11
52.02667520612293
 21
32.11903175548294
 31
0.0
  0
LINE
  5
637
330
53
100
AcDbEntity
  8
0
 62
     0
100
AcDbLine
 10
53.34977432116819
 20
31.85659281221751
 30
0.0
 11
53.10617817226699
 21
32.1001889611187
 31
0.0
  0
LINE
  5
638
330
53
100
AcDbEntity
  8
0
 62
     0
100
AcDbLine
 10
53.34977432116819
 20
25.66940847653858
 30
0.0
 11
53.22477432116816
 21
25.7944084765386
 31
0.0
  0
LINE
  5
639
330
53
100
AcDbEntity
  8
0
 62
     0
100
AcDbLine
 10
53.34977432116819
 20
24.60874830475876
 30
0.0
 11
53.22477432116816
 21
24.73374830475879
 31
0.0
  0
LINE
  5
63A
330
53
100
AcDbEntity
  8
0
 62
     0
100
AcDbLine
 10
52.87098281642613
 20
24.02687963772101
 30
0.0
 11
52.7481085536553
 21
24.14975390049181
 31
0.0
  0
LINE
  5
63B
330
53
100
AcDbEntity
  8
0
 62
     0
100
AcDbLine
 10
51.82851891964986
 20
24.00868336271745
 30
0.0
 11
51.70564465687903
 21
24.13155762548826
 31
0.0
  0
LINE
  5
63C
330
53
100
AcDbEntity
  8
0
 62
     0
100
AcDbLine
 10
50.91562656204333
 20
23.86091554854416
 30
0.0
 11
50.85477432116817
 21
23.9217677894193
 31
0.0
  0
LINE
  5
63D
330
53
100
AcDbEntity
  8
0
 62
     0
100
AcDbLine
 10
50.77959873390688
 20
23.9969433766806
 30
0.0
 11
50.66318076010277
 21
24.11336135048471
 31
0.0
  0
LINE
  5
63E
330
53
100
AcDbEntity
  8
0
 62
     0
100
AcDbLine
 10
53.34977432116819
 20
26.7300686483184
 30
0.0
 11
53.22477432116817
 21
26.85506864831842
 31
0.0
  0
LINE
  5
63F
330
53
100
AcDbEntity
  8
0
 62
     0
100
AcDbLine
 10
53.34977432116819
 20
27.79072882009823
 30
0.0
 11
53.22477432116817
 21
27.91572882009824
 31
0.0
  0
LINE
  5
640
330
53
100
AcDbEntity
  8
0
 62
     0
100
AcDbLine
 10
53.34977432116819
 20
28.85138899187804
 30
0.0
 11
53.22477432116818
 21
28.97638899187806
 31
0.0
  0
LINE
  5
641
330
53
100
AcDbEntity
  8
0
 62
     0
100
AcDbLine
 10
53.34977432116819
 20
29.91204916365786
 30
0.0
 11
53.22477432116818
 21
30.03704916365788
 31
0.0
  0
LINE
  5
642
330
53
100
AcDbEntity
  8
0
 62
     0
100
AcDbLine
 10
51.25432942458481
 20
32.00749406024124
 30
0.0
 11
50.9915650843235
 21
32.27025840050256
 31
0.0
  0
LINE
  5
643
330
53
100
AcDbEntity
  8
0
 62
     0
100
AcDbLine
 10
53.34977432116819
 20
30.97270933543768
 30
0.0
 11
53.22477432116818
 21
31.09770933543769
 31
0.0
  0
LINE
  5
644
330
53
100
AcDbEntity
  8
0
 62
     0
100
AcDbLine
 10
52.33383239072889
 20
31.98865126587699
 30
0.0
 11
52.20659236684504
 21
32.11589128976083
 31
0.0
  0
ENDBLK
  5
645
330
53
100
AcDbEntity
  8
0
100
AcDbBlockEnd
  0
BLOCK
  5
CBB
330
CBA
100
AcDbEntity
  8
0
100
AcDbBlockBegin
  2
*U43
 70
     1
 10
0.0
 20
0.0
 30
0.0
  3
*U43
  1

  0
ENDBLK
  5
CBC
330
CBA
100
AcDbEntity
  8
0
100
AcDbBlockEnd
  0
BLOCK
  5
CFF
330
CFD
100
AcDbEntity
  8
0
100
AcDbBlockBegin
  2
GENAXEH
 70
     0
 10
0.0
 20
0.0
 30
0.0
  3
GENAXEH
  1

  0
LINE
  5
CFE
330
CFD
100
AcDbEntity
  8
0
100
AcDbLine
 10
-1.0
 20
0.0
 30
0.0
 11
1.0
 21
0.0
 31
0.0
  0
ENDBLK
  5
D00
330
CFD
100
AcDbEntity
  8
0
100
AcDbBlockEnd
  0
ENDSEC
  0
SECTION
  2
ENTITIES
  0
TEXT
  5
64B
330
18
100
AcDbEntity
  8
TITLE
100
AcDbText
 10
44.74101858325112
 20
2.421898353972657
 30
0.0
 40
0.187
  1
F.R. POLYESTER FIBERGLASS
100
AcDbText
  0
TEXT
  5
64C
330
18
100
AcDbEntity
  8
TITLE
100
AcDbText
 10
44.71726211672854
 20
3.622225083533685
 30
0.0
 40
0.187
  1
NEMA 4X
100
AcDbText
  0
TEXT
  5
64D
330
18
100
AcDbEntity
  8
TITLE
100
AcDbText
 10
61.06171108425122
 20
0.1830737823713733
 30
0.0
 40
0.187
  1
HW-N4X832
100
AcDbText
  0
TEXT
  5
64E
330
18
100
AcDbEntity
  8
TITLE
100
AcDbText
 10
52.37442843698459
 20
2.403143248823269
 30
0.0
 40
0.187
  1
GF
100
AcDbText
  0
TEXT
  5
64F
330
18
100
AcDbEntity
  8
TITLE
100
AcDbText
 10
53.17456419876062
 20
2.385744489080259
 30
0.0
 40
0.187
  1
7/23/93
 41
0.800351545947276
 72
     5
 11
54.17233579270822
 21
2.385744489080259
 31
0.0
100
AcDbText
  0
TEXT
  5
650
330
18
100
AcDbEntity
  8
TITLE
100
AcDbText
 10
56.31041777973881
 20
0.1900408411951275
 30
0.0
 40
0.187
  1
ENCLOSURE
100
AcDbText
  0
TEXT
  5
651
330
18
100
AcDbEntity
  8
TITLE
100
AcDbText
 10
60.80038995250302
 20
3.291027494835525
 30
0.0
 40
0.187
  1
.010
100
AcDbText
  0
TEXT
  5
652
330
18
100
AcDbEntity
  8
TITLE
100
AcDbText
 10
61.9776352893686
 20
0.9547882729012826
 30
0.0
 40
0.187
  1
HW-N4X832
 72
     1
 11
62.8191352893686
 21
0.9547882729012826
 31
0.0
100
AcDbText
  0
TEXT
  5
653
330
18
100
AcDbEntity
  8
TITLE
100
AcDbText
 10
62.34456027646955
 20
3.272272389686136
 30
0.0
 40
0.187
  1
1/32
100
AcDbText
  0
LINE
  5
654
330
18
100
AcDbEntity
  8
0
100
AcDbLine
 10
23.62729868573301
 20
17.2192574232654
 30
0.0
 11
27.10107476753521
 21
17.21925742326542
 31
0.0
  0
LINE
  5
655
330
18
100
AcDbEntity
  8
0
100
AcDbLine
 10
23.55166530065493
 20
16.59425742326542
 30
0.0
 11
27.17670815261329
 21
16.59425742326542
 31
0.0
  0
LINE
  5
656
330
18
100
AcDbEntity
  8
0
100
AcDbLine
 10
23.55166530065493
 20
16.76675742326542
 30
0.0
 11
27.17670815261329
 21
16.76675742326542
 31
0.0
  0
LINE
  5
657
330
18
100
AcDbEntity
  8
0
100
AcDbLine
 10
23.55166530065493
 20
16.78175742326542
 30
0.0
 11
27.17670815261329
 21
16.78175742326542
 31
0.0
  0
LINE
  5
658
330
18
100
AcDbEntity
  8
0
100
AcDbLine
 10
24.20791530065493
 20
17.4067574232654
 30
0.0
 11
26.52045815261329
 21
17.4067574232654
 31
0.0
  0
LINE
  5
659
330
18
100
AcDbEntity
  8
0
100
AcDbLine
 10
23.68782399722756
 20
16.45809872669278
 30
0.0
 11
27.04054945604067
 21
16.45809872669279
 31
0.0
  0
LINE
  5
65A
330
18
100
AcDbEntity
  8
0
100
AcDbLine
 10
23.91024246346832
 20
14.27175742326541
 30
0.0
 11
26.8181309897999
 21
14.27175742326541
 31
0.0
  0
LINE
  5
65B
330
18
100
AcDbEntity
  8
0
100
AcDbLine
 10
23.68782399722756
 20
16.45809872669278
 30
0.0
 11
23.7227710206265
 21
14.45598509705843
 31
0.0
  0
ARC
  5
65C
330
18
100
AcDbEntity
  8
0
100
AcDbCircle
 10
23.91024246346832
 20
14.45925742326541
 30
0.0
 40
0.1875
100
AcDbArc
 50
181.0
 51
270.0
  0
LINE
  5
65D
330
18
100
AcDbEntity
  8
0
100
AcDbLine
 10
23.55166530065493
 20
16.5942574232654
 30
0.0
 11
23.68782399722756
 21
16.45809872669278
 31
0.0
  0
LINE
  5
65E
330
18
100
AcDbEntity
  8
0
100
AcDbLine
 10
24.20791530065493
 20
17.4067574232654
 30
0.0
 11
24.02041530065493
 21
17.2192574232654
 31
0.0
  0
LINE
  5
65F
330
18
100
AcDbEntity
  8
0
100
AcDbLine
 10
23.55166530065493
 20
16.78175742326542
 30
0.0
 11
23.56483675904432
 21
17.15893864180931
 31
0.0
  0
ARC
  5
660
330
18
100
AcDbEntity
  8
0
100
AcDbCircle
 10
23.62729868573302
 20
17.1567574232654
 30
0.0
 40
0.0625
100
AcDbArc
 50
90.00000000000003
 51
178.0
  0
LINE
  5
661
330
18
100
AcDbEntity
  8
0
100
AcDbLine
 10
23.55166530065493
 20
16.76675742326542
 30
0.0
 11
23.55166530065493
 21
16.59425742326542
 31
0.0
  0
LINE
  5
662
330
18
100
AcDbEntity
  8
0
100
AcDbLine
 10
27.04054945604067
 20
16.45809872669279
 30
0.0
 11
27.00560243264173
 21
14.45598509705843
 31
0.0
  0
DIMENSION
  5
663
330
18
100
AcDbEntity
  8
DIM
100
AcDbDimension
280
     0
  2
*D12
 10
28.92670815261329
 20
17.21925742326542
 30
0.0
 11
28.92670815261329
 21
15.74550742326541
 31
0.0
 12
0.0
 22
-42.77327207146031
 32
0.0
 70
   128
 71
     5
 42
-1.0
 73
     0
 74
     0
 75
     0
100
AcDbAlignedDimension
 13
26.8181309897999
 23
14.27175742326541
 33
0.0
 14
27.10107476753521
 24
17.21925742326542
 34
0.0
 50
90.0
100
AcDbRotatedDimension
  0
DIMENSION
  5
664
330
18
100
AcDbEntity
  8
DIM
100
AcDbDimension
280
     0
  2
*D13
 10
30.6767081526133
 20
17.4067574232654
 30
0.0
 11
30.6767081526133
 21
15.83925742326541
 31
0.0
 12
0.0
 22
-42.77327207146031
 32
0.0
 70
   128
 71
     5
 42
-1.0
 73
     0
 74
     0
 75
     0
100
AcDbAlignedDimension
 13
26.91188098979991
 23
14.27175742326541
 33
0.0
 14
26.52045815261329
 24
17.4067574232654
 34
0.0
 50
90.0
100
AcDbRotatedDimension
  0
ARC
  5
665
330
18
100
AcDbEntity
  8
0
100
AcDbCircle
 10
26.8181309897999
 20
14.45925742326541
 30
0.0
 40
0.1875
100
AcDbArc
 50
270.0
 51
359.0
  0
LINE
  5
666
330
18
100
AcDbEntity
  8
0
100
AcDbLine
 10
26.52045815261329
 20
17.4067574232654
 30
0.0
 11
26.70795815261329
 21
17.21925742326542
 31
0.0
  0
LINE
  5
667
330
18
100
AcDbEntity
  8
0
100
AcDbLine
 10
27.17670815261329
 20
16.59425742326542
 30
0.0
 11
27.04054945604067
 21
16.45809872669279
 31
0.0
  0
LINE
  5
668
330
18
100
AcDbEntity
  8
0
100
AcDbLine
 10
27.17670815261329
 20
16.78175742326542
 30
0.0
 11
27.1635366942239
 21
17.15893864180931
 31
0.0
  0
ARC
  5
669
330
18
100
AcDbEntity
  8
0
100
AcDbCircle
 10
27.10107476753521
 20
17.15675742326542
 30
0.0
 40
0.0625
100
AcDbArc
 50
2.000000000000015
 51
90.0
  0
LINE
  5
66A
330
18
100
AcDbEntity
  8
0
100
AcDbLine
 10
27.17670815261329
 20
16.76675742326542
 30
0.0
 11
27.17670815261329
 21
16.59425742326542
 31
0.0
  0
LINE
  5
66B
330
18
100
AcDbEntity
  8
0
100
AcDbLine
 10
26.86420815261328
 20
32.27025840050256
 30
0.0
 11
23.86416530065492
 21
32.27025840050256
 31
0.0
  0
INSERT
  5
66C
330
18
100
AcDbEntity
  8
DIM
100
AcDbBlockReference
  2
SBBT
 10
26.14244276068699
 20
32.45328577533989
 30
0.0
 41
2.0
 42
2.0
 43
2.0
  0
DIMENSION
  5
66D
330
18
100
AcDbEntity
  8
DIM
100
AcDbDimension
280
     0
  2
*D14
 10
26.55171315261329
 20
34.19136117443854
 30
0.0
 11
25.36418672663411
 21
34.19136117443854
 31
0.0
 12
0.0
 22
-40.33527207146031
 32
0.0
 70
   128
 71
     5
 42
-1.0
 73
     0
 74
     0
 75
     0
100
AcDbAlignedDimension
 13
24.17666030065494
 23
31.64526840050253
 33
0.0
 14
26.55171315261329
 24
31.64526840050253
 34
0.0
100
AcDbRotatedDimension
  0
DIMENSION
  5
66E
330
18
100
AcDbEntity
  8
DIM
100
AcDbDimension
280
     0
  2
*D15
 10
23.55166530065492
 20
35.27025840050253
 30
0.0
 11
25.4317367266341
 21
35.27025840050253
 31
0.0
 12
0.0
 22
-40.33527207146031
 32
0.0
 70
   128
 71
     5
 42
-1.0
 73
     0
 74
     0
 75
     0
100
AcDbAlignedDimension
 13
27.17670815261328
 23
31.95775840050253
 33
0.0
 14
23.55166530065492
 24
31.95775840050253
 34
0.0
100
AcDbRotatedDimension
  0
LINE
  5
66F
330
18
100
AcDbEntity
  8
0
100
AcDbLine
 10
23.86416530065493
 20
23.86091554854414
 30
0.0
 11
26.86420815261329
 21
23.86091554854414
 31
0.0
  0
INSERT
  5
670
330
18
100
AcDbEntity
  8
DIM
100
AcDbBlockReference
  2
SBBB
 10
26.142442760687
 20
23.63409107243454
 30
0.0
 41
2.0
 42
2.0
 43
2.0
  0
LWPOLYLINE
  5
671
330
18
100
AcDbEntity
  8
0
100
AcDbPolyline
 90
        4
 70
     1
 43
0.0
 10
26.55171315261329
 20
24.48596554854415
 10
26.55171315261329
 20
31.64526840050256
 10
24.17666030065494
 20
31.64526840050256
 10
24.17666030065494
 20
24.48596554854415
  0
LWPOLYLINE
  5
677
330
18
100
AcDbEntity
  8
0
100
AcDbPolyline
 90
        8
 70
     1
 43
0.0
 10
26.73921315261329
 20
24.48596554854415
 10
26.73921315261329
 20
31.64526840050256
 42
0.4142135623730951
 10
26.55171315261329
 20
31.83276840050256
 10
24.17666030065494
 20
31.83276840050256
 42
0.4142135623730951
 10
23.98916030065494
 20
31.64526840050256
 10
23.98916030065494
 20
24.48596554854415
 42
0.4142135623730946
 10
24.17666030065494
 20
24.29846554854414
 10
26.55171315261329
 20
24.29846554854414
 42
0.4142135623730951
  0
CIRCLE
  5
681
330
18
100
AcDbEntity
  8
0
 62
     4
100
AcDbCircle
 10
23.86416530065493
 20
31.95775840050256
 30
0.0
 40
0.1875
  0
ARC
  5
682
330
18
100
AcDbEntity
  8
0
100
AcDbCircle
 10
23.86416530065492
 20
31.95775840050256
 30
0.0
 40
0.3125
100
AcDbArc
 50
90.0
 51
180.0
  0
DIMENSION
  5
683
330
18
100
AcDbEntity
  8
DIM
100
AcDbDimension
280
     0
  2
*D27
 10
19.71583300151151
 20
32.27025840050253
 30
0.0
 11
19.71583300151152
 21
28.27557385709121
 31
0.0
 70
   128
 71
     5
 42
-1.0
 73
     0
 74
     0
 75
     0
100
AcDbAlignedDimension
 13
23.86416530065493
 23
23.86091554854414
 33
0.0
 14
23.86416530065492
 24
32.27025840050253
 34
0.0
 50
90.0
100
AcDbRotatedDimension
  0
DIMENSION
  5
684
330
18
100
AcDbEntity
  8
DIM
100
AcDbDimension
280
     0
  2
*D28
 10
21.46583300151152
 20
31.64526840050253
 30
0.0
 11
21.46583300151152
 21
28.26659439070652
 31
0.0
 70
   128
 71
     5
 42
-1.0
 73
     0
 74
     0
 75
     0
100
AcDbAlignedDimension
 13
24.17666030065494
 23
24.48596554854415
 33
0.0
 14
24.17666030065494
 24
31.64526840050253
 34
0.0
 50
90.0
100
AcDbRotatedDimension
  0
LINE
  5
685
330
18
100
AcDbEntity
  8
0
100
AcDbLine
 10
23.55166530065492
 20
31.95775840050256
 30
0.0
 11
23.55166530065493
 21
24.17341554854414
 31
0.0
  0
ARC
  5
686
330
18
100
AcDbEntity
  8
0
100
AcDbCircle
 10
23.86416530065493
 20
24.17341554854414
 30
0.0
 40
0.3125
100
AcDbArc
 50
180.0
 51
270.0
  0
CIRCLE
  5
687
330
18
100
AcDbEntity
  8
0
 62
     4
100
AcDbCircle
 10
23.86416530065493
 20
24.17341554854414
 30
0.0
 40
0.1875
  0
CIRCLE
  5
688
330
18
100
AcDbEntity
  8
0
100
AcDbCircle
 10
23.86416530065493
 20
24.17341554854414
 30
0.0
 40
0.171875
  0
LINE
  5
689
330
18
100
AcDbEntity
  8
0
100
AcDbLine
 10
23.96262042140122
 20
24.03253402092668
 30
0.0
 11
23.72328377303742
 21
24.27187066929045
 31
0.0
  0
LINE
  5
68A
330
18
100
AcDbEntity
  8
0
100
AcDbLine
 10
24.00504682827242
 20
24.07496042779786
 30
0.0
 11
23.76571017990862
 21
24.31429707616165
 31
0.0
  0
INSERT
  5
68B
330
18
100
AcDbEntity
  8
DIM
100
AcDbBlockReference
  2
SAAL
 10
23.38392775712371
 20
26.38460657622302
 30
0.0
 41
2.0
 42
2.0
 43
2.0
  0
CIRCLE
  5
68C
330
18
100
AcDbEntity
  8
0
100
AcDbCircle
 10
23.86416530065493
 20
31.95775840050256
 30
0.0
 40
0.171875
  0
LINE
  5
68D
330
18
100
AcDbEntity
  8
0
100
AcDbLine
 10
23.96262042140122
 20
31.81687687288508
 30
0.0
 11
23.72328377303742
 21
32.05621352124886
 31
0.0
  0
LINE
  5
68E
330
18
100
AcDbEntity
  8
0
100
AcDbLine
 10
24.00504682827242
 20
31.85930327975626
 30
0.0
 11
23.76571017990862
 21
32.09863992812005
 31
0.0
  0
SOLID
  5
68F
330
18
100
AcDbEntity
  8
DIM
100
AcDbTrace
 10
27.106446290943
 20
32.12610416145387
 30
0.0
 11
27.06307396372997
 21
32.17087341068334
 31
0.0
 12
26.95045237964808
 22
32.01837180442952
 32
0.0
 13
26.95045237964808
 23
32.01837180442952
 33
0.0
  0
CIRCLE
  5
690
330
18
100
AcDbEntity
  8
0
 62
     4
100
AcDbCircle
 10
26.86420815261329
 20
31.95775840050256
 30
0.0
 40
0.1875
  0
ARC
  5
691
330
18
100
AcDbEntity
  8
0
100
AcDbCircle
 10
26.86420815261328
 20
31.95775840050256
 30
0.0
 40
0.3125
100
AcDbArc
 50
0.0
 51
90.0
  0
LINE
  5
692
330
18
100
AcDbEntity
  8
0
100
AcDbLine
 10
27.17670815261329
 20
24.17341554854414
 30
0.0
 11
27.17670815261328
 21
31.95775840050256
 31
0.0
  0
CIRCLE
  5
693
330
18
100
AcDbEntity
  8
0
 62
     4
100
AcDbCircle
 10
26.86420815261329
 20
24.17341554854414
 30
0.0
 40
0.1875
  0
CIRCLE
  5
694
330
18
100
AcDbEntity
  8
0
100
AcDbCircle
 10
26.86420815261329
 20
24.17341554854414
 30
0.0
 40
0.171875
  0
LINE
  5
695
330
18
100
AcDbEntity
  8
0
100
AcDbLine
 10
26.96266327335957
 20
24.03253402092668
 30
0.0
 11
26.72332662499578
 21
24.27187066929045
 31
0.0
  0
LINE
  5
696
330
18
100
AcDbEntity
  8
0
100
AcDbLine
 10
27.00508968023077
 20
24.07496042779786
 30
0.0
 11
26.76575303186697
 21
24.31429707616165
 31
0.0
  0
ARC
  5
697
330
18
100
AcDbEntity
  8
0
100
AcDbCircle
 10
26.8642081526133
 20
24.17341554854414
 30
0.0
 40
0.3125
100
AcDbArc
 50
270.0
 51
0.0
  0
CIRCLE
  5
698
330
18
100
AcDbEntity
  8
0
100
AcDbCircle
 10
26.86420815261329
 20
31.95775840050256
 30
0.0
 40
0.171875
  0
LINE
  5
699
330
18
100
AcDbEntity
  8
0
100
AcDbLine
 10
26.96266327335957
 20
31.81687687288508
 30
0.0
 11
26.72332662499578
 21
32.05621352124886
 31
0.0
  0
LINE
  5
69A
330
18
100
AcDbEntity
  8
0
100
AcDbLine
 10
27.00508968023077
 20
31.85930327975626
 30
0.0
 11
26.76575303186697
 21
32.09863992812005
 31
0.0
  0
INSERT
  5
69B
330
18
100
AcDbEntity
  8
DIM
100
AcDbBlockReference
  2
SAAR
 10
27.26970815261328
 20
26.36749485898942
 30
0.0
 41
2.0
 42
2.0
 43
2.0
  0
LINE
  5
69C
330
18
100
AcDbEntity
  8
DIM
100
AcDbLine
 10
27.08476012733649
 20
32.1484887860686
 30
0.0
 11
28.06621442399108
 21
33.09931904638747
 31
0.0
  0
LINE
  5
69D
330
18
100
AcDbEntity
  8
DIM
100
AcDbLine
 10
28.06621442399108
 20
33.09931904638747
 30
0.0
 11
28.25321442399108
 21
33.09931904638747
 31
0.0
  0
TEXT
  5
69E
330
18
100
AcDbEntity
  8
DIM
100
AcDbText
 10
28.45265294609142
 20
32.69510319976646
 30
0.0
 40
0.187
  1
PAN HD. SCREW
100
AcDbText
  0
TEXT
  5
69F
330
18
100
AcDbEntity
  8
DIM
100
AcDbText
 10
28.44021442399107
 20
33.00581904638746
 30
0.0
 40
0.187
  1
10-24 X 3/4 S.S. 
100
AcDbText
  0
TEXT
  5
6A0
330
18
100
AcDbEntity
  8
DIM
100
AcDbText
 10
28.45265294609142
 20
32.3834365330998
 30
0.0
 40
0.187
  1
4 REQ'D.
100
AcDbText
  0
DIMENSION
  5
6A1
330
18
100
AcDbEntity
  8
DIM
100
AcDbDimension
280
     0
  2
*D31
 10
56.85005539677852
 20
31.56583697452334
 30
0.0
 11
56.85005539677852
 21
28.26034731306444
 31
0.0
 70
   128
 71
     5
 42
-1.0
 73
     0
 74
     0
 75
     0
100
AcDbAlignedDimension
 13
53.34977432116819
 23
24.56533697452335
 33
0.0
 14
53.34977432116819
 24
31.56583697452334
 34
0.0
 50
90.0
100
AcDbRotatedDimension
  0
DIMENSION
  5
6A2
330
18
100
AcDbEntity
  8
DIM
100
AcDbDimension
280
     0
  2
*D33
 10
55.10005539677852
 20
31.2061251811907
 30
0.0
 11
55.10005539677852
 21
28.26034731306443
 31
0.0
 70
   128
 71
     5
 42
-1.0
 73
     0
 74
     0
 75
     0
100
AcDbAlignedDimension
 13
53.22477432116818
 23
24.92504876785597
 33
0.0
 14
53.22477432116818
 24
31.2061251811907
 34
0.0
 50
90.0
100
AcDbRotatedDimension
  0
DIMENSION
  5
6A3
330
18
100
AcDbEntity
  8
DIM
100
AcDbDimension
280
     0
  2
*D32
 10
58.60005539677851
 20
24.15700223041027
 30
0.0
 11
58.60005539677851
 21
28.36387296285555
 31
0.0
 70
   128
 71
     5
 42
-1.0
 73
     0
 74
     0
 75
     0
100
AcDbAlignedDimension
 13
53.16336509657052
 23
31.97417171863641
 33
0.0
 14
53.16336509657048
 24
24.15700223041027
 34
0.0
 50
90.0
100
AcDbRotatedDimension
  0
DIMENSION
  5
6A4
330
18
100
AcDbEntity
  8
DIM
100
AcDbDimension
280
     0
  2
*D16
 10
55.23198858420099
 20
17.01675742326542
 30
0.0
 11
55.23198858420099
 21
15.70675742326541
 31
0.0
 12
0.0
 22
-42.77327207146031
 32
0.0
 70
   128
 71
     5
 42
-1.0
 73
     0
 74
     0
 75
     0
100
AcDbAlignedDimension
 13
53.12341142138762
 23
14.39675742326541
 33
0.0
 14
53.33373584223181
 24
17.01675742326542
 34
0.0
 50
90.0
100
AcDbRotatedDimension
  0
LINE
  5
6A5
330
18
100
AcDbEntity
  8
0
100
AcDbLine
 10
35.76692585921784
 20
31.61400840050254
 30
0.0
 11
35.95442585921784
 21
31.80150840050254
 31
0.0
  0
LINE
  5
6A6
330
18
100
AcDbEntity
  8
0
100
AcDbLine
 10
35.76692585921784
 20
24.51716554854413
 30
0.0
 11
35.95442585921784
 21
24.32966554854413
 31
0.0
  0
LINE
  5
6A7
330
18
100
AcDbEntity
  8
0
100
AcDbLine
 10
35.76692585921784
 20
24.51716554854413
 30
0.0
 11
35.76692585921784
 21
31.61400840050254
 31
0.0
  0
ARC
  5
6A8
330
18
100
AcDbEntity
  8
0
100
AcDbCircle
 10
38.71442585921784
 20
31.91168123768915
 30
0.0
 40
0.1875
100
AcDbArc
 50
0.0
 51
89.0
  0
LINE
  5
6A9
330
18
100
AcDbEntity
  8
0
100
AcDbLine
 10
36.57942585921784
 20
32.27025840050254
 30
0.0
 11
36.71558455579047
 21
32.13409970392992
 31
0.0
  0
DIMENSION
  5
6AA
330
18
100
AcDbEntity
  8
DIM
100
AcDbDimension
280
     0
  2
*D17
 10
38.90192585921783
 20
34.19136117443855
 30
0.0
 11
37.80875520750414
 21
34.19136117443855
 31
0.0
 12
0.0
 22
-40.33527207146031
 32
0.0
 70
   128
 71
     5
 42
-1.0
 73
     0
 74
     0
 75
     0
100
AcDbAlignedDimension
 13
36.71558455579047
 23
32.13409970392992
 33
0.0
 14
38.90192585921783
 24
31.91168123768915
 34
0.0
100
AcDbRotatedDimension
  0
LINE
  5
6AB
330
18
100
AcDbEntity
  8
0
100
AcDbLine
 10
36.39192585921784
 20
23.86091554854413
 30
0.0
 11
36.39192585921783
 21
32.27025840050254
 31
0.0
  0
LINE
  5
6AC
330
18
100
AcDbEntity
  8
0
100
AcDbLine
 10
36.40692585921784
 20
23.86091554854413
 30
0.0
 11
36.40692585921784
 21
32.27025840050254
 31
0.0
  0
LINE
  5
6AD
330
18
100
AcDbEntity
  8
0
100
AcDbLine
 10
36.57942585921784
 20
23.86091554854413
 30
0.0
 11
36.57942585921784
 21
32.27025840050254
 31
0.0
  0
LINE
  5
6AE
330
18
100
AcDbEntity
  8
0
100
AcDbLine
 10
35.95442585921784
 20
23.93654893362221
 30
0.0
 11
35.95442585921784
 21
32.19462501542447
 31
0.0
  0
LINE
  5
6AF
330
18
100
AcDbEntity
  8
0
100
AcDbLine
 10
38.90192585921783
 20
24.21949271135755
 30
0.0
 11
38.90192585921783
 21
31.91168123768915
 31
0.0
  0
LINE
  5
6B0
330
18
100
AcDbEntity
  8
0
100
AcDbLine
 10
36.71558455579047
 20
23.99707424511676
 30
0.0
 11
36.71558455579047
 21
32.13409970392992
 31
0.0
  0
LINE
  5
6B1
330
18
100
AcDbEntity
  8
0
100
AcDbLine
 10
36.71558455579047
 20
23.99707424511676
 30
0.0
 11
38.71769818542483
 21
24.03202126851572
 31
0.0
  0
LINE
  5
6B2
330
18
100
AcDbEntity
  8
0
100
AcDbLine
 10
36.57942585921784
 20
23.86091554854413
 30
0.0
 11
36.71558455579047
 21
23.99707424511676
 31
0.0
  0
ARC
  5
6B3
330
18
100
AcDbEntity
  8
0
100
AcDbCircle
 10
36.01692585921784
 20
23.93654893362221
 30
0.0
 40
0.0625
100
AcDbArc
 50
180.0
 51
267.9999999999999
  0
LINE
  5
6B4
330
18
100
AcDbEntity
  8
0
100
AcDbLine
 10
36.39192585921784
 20
23.86091554854413
 30
0.0
 11
36.01474464067393
 21
23.87408700693352
 31
0.0
  0
LINE
  5
6B5
330
18
100
AcDbEntity
  8
0
100
AcDbLine
 10
36.40692585921784
 20
23.86091554854413
 30
0.0
 11
36.57942585921784
 21
23.86091554854413
 31
0.0
  0
ARC
  5
6B6
330
18
100
AcDbEntity
  8
0
100
AcDbCircle
 10
38.71442585921784
 20
24.21949271135755
 30
0.0
 40
0.1875
100
AcDbArc
 50
271.0
 51
0.0
  0
LINE
  5
6B7
330
18
100
AcDbEntity
  8
0
100
AcDbLine
 10
36.71558455579047
 20
32.13409970392992
 30
0.0
 11
38.71769818542483
 21
32.09915268053098
 31
0.0
  0
ARC
  5
6B8
330
18
100
AcDbEntity
  8
0
100
AcDbCircle
 10
36.01692585921784
 20
32.19462501542445
 30
0.0
 40
0.0625
100
AcDbArc
 50
92.00000000000001
 51
180.0
  0
LINE
  5
6B9
330
18
100
AcDbEntity
  8
0
100
AcDbLine
 10
36.39192585921783
 20
32.27025840050254
 30
0.0
 11
36.01474464067393
 21
32.25708694211315
 31
0.0
  0
LINE
  5
6BA
330
18
100
AcDbEntity
  8
0
100
AcDbLine
 10
36.40692585921784
 20
32.27025840050254
 30
0.0
 11
36.57942585921784
 21
32.27025840050254
 31
0.0
  0
TEXT
  5
6BB
330
18
100
AcDbEntity
  8
DIM
100
AcDbText
 10
47.70994451492539
 20
18.02356175250057
 30
0.0
 40
0.187
  1
GASKET
100
AcDbText
  0
LINE
  5
6BC
330
18
100
AcDbEntity
  8
HIDE
100
AcDbLine
 10
52.9354671582218
 20
14.77175742326541
 30
0.0
 11
52.9354671582218
 21
14.27175742326541
 31
0.0
  0
LINE
  5
6BD
330
18
100
AcDbEntity
  8
HIDE
100
AcDbLine
 10
53.1534671582218
 20
14.77175742326541
 30
0.0
 11
53.1534671582218
 21
14.27175742326541
 31
0.0
  0
LINE
  5
6BE
330
18
100
AcDbEntity
  8
HIDE
100
AcDbLine
 10
50.1854671582218
 20
14.77175742326541
 30
0.0
 11
50.1854671582218
 21
14.27175742326541
 31
0.0
  0
LINE
  5
6BF
330
18
100
AcDbEntity
  8
HIDE
100
AcDbLine
 10
50.40346715822181
 20
14.77175742326541
 30
0.0
 11
50.40346715822181
 21
14.27175742326541
 31
0.0
  0
INSERT
  5
6C0
330
18
100
AcDbEntity
  8
HATCH
100
AcDbBlockReference
  2
*X10
 10
13.4588710100636
 20
-11.25126408205231
 30
0.0
  0
LWPOLYLINE
  5
6C1
330
18
100
AcDbEntity
  8
0
 62
     7
100
AcDbPolyline
 90
       20
 70
     1
 43
0.0
 10
50.15196051210619
 20
14.51957587246075
 10
50.10837204599936
 20
17.0167574232654
 10
50.0051984742118
 20
17.01675742326542
 10
49.98771677122593
 20
16.76675742326542
 10
49.85694573224263
 20
16.76675742326542
 10
49.85694573224263
 20
16.59425742326542
 10
49.99310442881526
 20
16.45809872669278
 10
50.02805145221418
 20
14.45598509705843
 42
0.4091108014277117
 10
50.21552289505599
 20
14.27175742326541
 10
53.12341142138762
 20
14.27175742326541
 42
0.4091108014277065
 10
53.31088286422944
 20
14.45598509705841
 10
53.34582988762836
 20
16.45809872669279
 10
53.48198858420099
 20
16.59425742326542
 10
53.48198858420099
 20
16.76675742326542
 10
53.35121754521769
 20
16.76675742326542
 10
53.33373584223181
 20
17.01675742326542
 10
53.23056227044425
 20
17.01675742326542
 10
53.18697380433744
 20
14.51957587246076
 42
-0.4091108014277121
 10
53.06199284244289
 20
14.39675742326541
 10
50.27694147400073
 20
14.39675742326541
 42
-0.4091108014277121
  0
LINE
  5
6D7
330
18
100
AcDbEntity
  8
0
100
AcDbLine
 10
50.6084482100213
 20
17.0167574232654
 30
0.0
 11
50.65418048013323
 21
14.39675742326541
 31
0.0
  0
LINE
  5
6D8
330
18
100
AcDbEntity
  8
0
100
AcDbLine
 10
52.73048610642233
 20
17.01675742326542
 30
0.0
 11
52.68475383631039
 21
14.39675742326541
 31
0.0
  0
DIMENSION
  5
6D9
330
18
100
AcDbEntity
  8
DIM
100
AcDbDimension
280
     0
  2
*D36
 10
49.36537047935622
 20
14.27175742326541
 30
0.0
 11
48.66274547935623
 21
13.89775742326541
 31
0.0
 71
     5
 42
-1.0
 73
     0
 74
     0
 75
     0
100
AcDbAlignedDimension
 13
50.27694147400073
 23
14.39675742326541
 33
0.0
 14
50.21552289505599
 24
14.27175742326541
 34
0.0
 50
90.0
100
AcDbRotatedDimension
  0
DIMENSION
  5
6DA
330
18
100
AcDbEntity
  8
DIM
100
AcDbDimension
280
     0
  2
*D38
 10
53.0444671582218
 20
11.90032514889013
 30
0.0
 11
51.85615730351542
 21
11.90032514889013
 31
0.0
 70
   128
 71
     5
 42
-1.0
 73
     0
 74
     0
 75
     0
100
AcDbAlignedDimension
 13
50.29446715822181
 23
14.27175742326541
 33
0.0
 14
53.0444671582218
 24
14.27175742326541
 34
0.0
100
AcDbRotatedDimension
  0
DIMENSION
  5
6DB
330
18
100
AcDbEntity
  8
DIM
100
AcDbDimension
280
     0
  2
*D18
 10
52.68475383631039
 20
13.02175742326541
 30
0.0
 11
51.65370730351543
 21
13.02175742326541
 31
0.0
 12
0.0
 22
-42.77327207146031
 32
0.0
 70
   128
 71
     5
 42
-1.0
 73
     0
 74
     0
 75
     0
100
AcDbAlignedDimension
 13
50.65418048013323
 23
14.39675742326541
 33
0.0
 14
52.68475383631039
 24
14.39675742326541
 34
0.0
100
AcDbRotatedDimension
  0
INSERT
  5
6DC
330
18
100
AcDbEntity
  8
DIM
100
AcDbBlockReference
  2
SAATX
 10
51.84924275849778
 20
8.777736762981191
 30
0.0
 41
2.0
 42
2.0
 43
2.0
  0
DIMENSION
  5
6DD
330
18
100
AcDbEntity
  8
DIM
100
AcDbDimension
280
     0
  2
*D39
 10
50.15303241410872
 20
10.71460907520069
 30
0.0
 11
51.65370730351543
 21
10.71460907520069
 31
0.0
 70
   128
 71
     5
 42
-1.0
 73
     0
 74
     0
 75
     0
100
AcDbAlignedDimension
 13
53.18590190233489
 23
14.45816664786308
 33
0.0
 14
50.15303241410872
 24
14.45816664786308
 34
0.0
100
AcDbRotatedDimension
  0
LINE
  5
6DE
330
18
100
AcDbEntity
  8
HIDE
100
AcDbLine
 10
50.40346715822181
 20
14.27175742326541
 30
0.0
 11
50.1854671582218
 21
14.27175742326541
 31
0.0
  0
LINE
  5
6DF
330
18
100
AcDbEntity
  8
HIDE
100
AcDbLine
 10
53.1534671582218
 20
14.27175742326541
 30
0.0
 11
52.9354671582218
 21
14.27175742326541
 31
0.0
  0
DIMENSION
  5
6E0
330
18
100
AcDbEntity
  8
DIM
100
AcDbDimension
280
     0
  2
*D37
 10
51.01243005983198
 20
17.39675742326541
 30
0.0
 11
51.71505505983198
 21
17.77075742326541
 31
0.0
 71
     5
 42
-1.0
 73
     0
 74
     0
 75
     0
100
AcDbAlignedDimension
 13
50.98201443309998
 23
17.27175742326541
 33
0.0
 14
51.00634246528557
 24
17.39675742326541
 34
0.0
 50
90.0
100
AcDbRotatedDimension
  0
DIMENSION
  5
6E1
330
18
100
AcDbEntity
  8
DIM
100
AcDbDimension
280
     0
  2
*D19
 10
53.23056227044425
 20
19.59793790931276
 30
0.0
 11
51.7370171582218
 21
19.59793790931276
 31
0.0
 12
0.0
 22
-42.77327207146031
 32
0.0
 70
   128
 71
     5
 42
-1.0
 73
     0
 74
     0
 75
     0
100
AcDbAlignedDimension
 13
50.10837204599936
 23
17.0167574232654
 33
0.0
 14
53.23056227044425
 24
17.01675742326542
 34
0.0
100
AcDbRotatedDimension
  0
DIMENSION
  5
6E2
330
18
100
AcDbEntity
  8
DIM
100
AcDbDimension
280
     0
  2
*D20
 10
52.73048610642233
 20
18.6417574232654
 30
0.0
 11
51.73701715822182
 21
18.6417574232654
 31
0.0
 12
0.0
 22
-42.77327207146031
 32
0.0
 70
   128
 71
     5
 42
-1.0
 73
     0
 74
     0
 75
     0
100
AcDbAlignedDimension
 13
50.6084482100213
 23
17.0167574232654
 33
0.0
 14
52.73048610642233
 24
17.01675742326542
 34
0.0
100
AcDbRotatedDimension
  0
LINE
  5
6E3
330
18
100
AcDbEntity
  8
0
100
AcDbLine
 10
50.10837204599936
 20
17.0167574232654
 30
0.0
 11
53.23056227044425
 21
17.01675742326542
 31
0.0
  0
INSERT
  5
6E4
330
18
100
AcDbEntity
  8
HATCH
100
AcDbBlockReference
  2
*X11
 10
41.97820821024957
 20
-7.234203811782315
 30
0.0
  0
LWPOLYLINE
  5
6E5
330
18
100
AcDbEntity
  8
0
100
AcDbPolyline
 90
       20
 70
     1
 43
0.0
 10
53.40635519912291
 20
17.21925742326542
 10
53.04453858420098
 20
17.21925742326542
 10
52.85703858420098
 20
17.4067574232654
 10
50.48198573224262
 20
17.4067574232654
 10
50.29448573224263
 20
17.2192574232654
 10
49.93257911732071
 20
17.2192574232654
 42
0.4040262258351567
 10
49.87011719063201
 20
17.15893864180931
 10
49.85694573224263
 20
16.78175742326542
 10
49.98194573224263
 20
16.78175742326542
 10
49.98194573224263
 20
17.06300742326542
 42
-0.4142135623730951
 10
50.01319573224263
 20
17.09425742326542
 10
50.34626242753926
 20
17.0942574232654
 10
50.53376242753927
 20
17.2817574232654
 10
52.80526188890437
 20
17.2817574232654
 10
52.99276188890437
 20
17.09425742326542
 10
53.32573858420099
 20
17.09425742326542
 42
-0.4142135623730977
 10
53.35698858420099
 20
17.06300742326542
 10
53.35698858420099
 20
16.78175742326542
 10
53.48198858420099
 20
16.78175742326542
 10
53.4688171258116
 20
17.15893864180931
 42
0.4040262258351567
  0
LINE
  5
6FB
330
18
100
AcDbEntity
  8
0
100
AcDbLine
 10
50.34626242753926
 20
17.0942574232654
 30
0.0
 11
52.99276188890437
 21
17.09425742326542
 31
0.0
  0
LINE
  5
6FC
330
18
100
AcDbEntity
  8
DIM
100
AcDbLine
 10
49.89538518925022
 20
17.20180119492707
 30
0.0
 11
49.14117674537179
 21
18.11706175250057
 31
0.0
  0
LINE
  5
6FD
330
18
100
AcDbEntity
  8
DIM
100
AcDbLine
 10
49.14117674537179
 20
18.11706175250057
 30
0.0
 11
48.9541767453718
 21
18.11706175250057
 31
0.0
  0
LINE
  5
6FE
330
18
100
AcDbEntity
  8
HIDE
100
AcDbLine
 10
50.4669671582218
 20
14.77175742326541
 30
0.0
 11
50.4819671582218
 21
17.01675742326542
 31
0.0
  0
LINE
  5
6FF
330
18
100
AcDbEntity
  8
HIDE
100
AcDbLine
 10
50.1069671582218
 20
17.0167574232654
 30
0.0
 11
50.1219671582218
 21
14.77175742326541
 31
0.0
  0
LINE
  5
700
330
18
100
AcDbEntity
  8
HIDE
100
AcDbLine
 10
50.4669671582218
 20
14.77175742326541
 30
0.0
 11
50.40346715822181
 21
14.77175742326541
 31
0.0
  0
LINE
  5
701
330
18
100
AcDbEntity
  8
HIDE
100
AcDbLine
 10
50.1854671582218
 20
14.77175742326541
 30
0.0
 11
50.1219671582218
 21
14.77175742326541
 31
0.0
  0
SOLID
  5
702
330
18
100
AcDbEntity
  8
DIM
100
AcDbTrace
 10
49.91943769093817
 20
17.22162134310164
 30
0.0
 11
49.87133268756227
 21
17.1819810467525
 31
0.0
 12
50.01430607829768
 22
17.05748618479936
 32
0.0
 13
50.01430607829768
 23
17.05748618479936
 33
0.0
  0
LWPOLYLINE
  5
703
330
18
100
AcDbEntity
  8
0
 62
     2
100
AcDbPolyline
 90
        4
 70
     1
 43
0.0
 10
50.09290729610113
 20
17.02475742326967
 42
0.9999834785717778
 10
50.09290729610113
 20
17.08725742326115
 10
50.0168670492391
 20
17.08725742326268
 42
1.000013231781622
 10
50.0168670492391
 20
17.02475742326815
  0
LINE
  5
709
330
18
100
AcDbEntity
  8
0
100
AcDbLine
 10
49.98194573224263
 20
16.9542574232654
 30
0.0
 11
50.00082804846534
 21
16.9542574232654
 31
0.0
  0
LINE
  5
70A
330
18
100
AcDbEntity
  8
0
100
AcDbLine
 10
50.73174821002129
 20
17.2817574232654
 30
0.0
 11
50.73174821002129
 21
17.0942574232654
 31
0.0
  0
LINE
  5
70B
330
18
100
AcDbEntity
  8
HIDE
100
AcDbLine
 10
52.8719671582218
 20
14.77175742326541
 30
0.0
 11
52.8569671582218
 21
17.01675742326542
 31
0.0
  0
LINE
  5
70C
330
18
100
AcDbEntity
  8
HIDE
100
AcDbLine
 10
52.8719671582218
 20
14.77175742326541
 30
0.0
 11
52.9354671582218
 21
14.77175742326541
 31
0.0
  0
LINE
  5
70D
330
18
100
AcDbEntity
  8
0
100
AcDbLine
 10
52.60718610642232
 20
17.2817574232654
 30
0.0
 11
52.60718610642232
 21
17.09425742326542
 31
0.0
  0
LINE
  5
70E
330
18
100
AcDbEntity
  8
HIDE
100
AcDbLine
 10
53.23196715822181
 20
17.0167574232654
 30
0.0
 11
53.21696715822181
 21
14.77175742326541
 31
0.0
  0
LINE
  5
70F
330
18
100
AcDbEntity
  8
HIDE
100
AcDbLine
 10
53.1534671582218
 20
14.77175742326541
 30
0.0
 11
53.21696715822181
 21
14.77175742326541
 31
0.0
  0
LWPOLYLINE
  5
710
330
18
100
AcDbEntity
  8
0
 62
     2
100
AcDbPolyline
 90
        4
 70
     1
 43
0.0
 10
53.24602702034248
 20
17.02475742326967
 42
-0.9999834785717778
 10
53.24602702034248
 20
17.08725742326115
 10
53.32206726720452
 20
17.08725742326268
 42
-1.000013231781622
 10
53.32206726720452
 20
17.02475742326815
  0
LINE
  5
716
330
18
100
AcDbEntity
  8
0
100
AcDbLine
 10
53.33810626797827
 20
16.95425742326541
 30
0.0
 11
53.35698858420099
 21
16.95425742326541
 31
0.0
  0
DIMENSION
  5
717
330
18
100
AcDbEntity
  8
DIM
100
AcDbDimension
280
     0
  2
*D30
 10
46.71477432116818
 20
32.0188320867458
 30
0.0
 11
46.71477432116818
 21
28.26034731306444
 31
0.0
 70
   128
 71
     5
 42
-1.0
 73
     0
 74
     0
 75
     0
100
AcDbAlignedDimension
 13
50.60477432116818
 23
24.11234186230088
 33
0.0
 14
50.60477432116818
 24
32.0188320867458
 34
0.0
 50
90.0
100
AcDbRotatedDimension
  0
DIMENSION
  5
718
330
18
100
AcDbEntity
  8
DIM
100
AcDbDimension
280
     0
  2
*D29
 10
48.46477432116818
 20
31.25185745130263
 30
0.0
 11
48.46477432116818
 21
28.26034731306443
 31
0.0
 70
   128
 71
     5
 42
-1.0
 73
     0
 74
     0
 75
     0
100
AcDbAlignedDimension
 13
50.60477432116818
 23
24.87931649774405
 33
0.0
 14
50.60477432116818
 24
31.25185745130263
 34
0.0
 50
90.0
100
AcDbRotatedDimension
  0
DIMENSION
  5
719
330
18
100
AcDbEntity
  8
DIM
100
AcDbDimension
280
     0
  2
*D21
 10
53.34977432116819
 20
34.19136117443855
 30
0.0
 11
54.12894098783485
 21
34.19136117443855
 31
0.0
 12
0.0
 22
-40.33527207146031
 32
0.0
 70
   128
 71
     5
 42
-1.0
 73
     0
 74
     0
 75
     0
100
AcDbAlignedDimension
 13
52.84977432116818
 23
31.73833697452332
 33
0.0
 14
53.34977432116819
 24
31.91168123768915
 34
0.0
100
AcDbRotatedDimension
  0
LWPOLYLINE
  5
71A
330
18
100
AcDbEntity
  8
0
 62
     2
100
AcDbPolyline
 90
        4
 70
     1
 43
0.0
 10
50.59677432116391
 20
32.03429683664403
 42
-0.9999834785717778
 10
50.53427432117244
 20
32.03429683664403
 10
50.53427432117091
 20
32.11033708350607
 42
-1.000013231781622
 10
50.59677432116544
 20
32.11033708350607
  0
LINE
  5
720
330
18
100
AcDbEntity
  8
0
100
AcDbLine
 10
50.65227432116817
 20
32.1253271821007
 30
0.0
 11
50.65227432116817
 21
32.14525840050257
 31
0.0
  0
DIMENSION
  5
721
330
18
100
AcDbEntity
  8
DIM
100
AcDbDimension
280
     0
  2
*D22
 10
50.60477432116818
 20
34.19136117443855
 30
0.0
 11
51.72727432116817
 21
34.19136117443855
 31
0.0
 12
0.0
 22
-40.33527207146031
 32
0.0
 70
   128
 71
     5
 42
-1.0
 73
     0
 74
     0
 75
     0
100
AcDbAlignedDimension
 13
52.84977432116818
 23
31.86333697452332
 33
0.0
 14
50.60477432116818
 24
32.12200565853337
 34
0.0
100
AcDbRotatedDimension
  0
LWPOLYLINE
  5
722
330
18
100
AcDbEntity
  8
0
100
AcDbPolyline
 90
       20
 70
     1
 43
0.0
 10
50.85477432116817
 20
23.99168658752744
 10
50.60477432116817
 20
24.00916829051332
 10
50.60477432116817
 20
24.11234186230088
 10
53.10195587197282
 20
24.15593032840772
 42
0.4091108014277082
 10
53.22477432116816
 20
24.28091129030227
 10
53.22477432116818
 20
31.85026265874443
 42
0.4091108014277101
 10
53.10195587197282
 20
31.97524362063898
 10
50.60477432116817
 20
32.01883208674583
 10
50.60477432116817
 20
32.12200565853339
 10
50.85477432116817
 20
32.13948736151927
 10
50.85477432116817
 20
32.27025840050256
 10
51.02727432116817
 20
32.27025840050256
 10
51.1634330177408
 20
32.13409970392992
 10
53.16554664737518
 20
32.09915268053099
 42
-0.4091108014277117
 10
53.34977432116819
 20
31.91168123768917
 10
53.34977432116819
 20
24.21949271135753
 42
-0.4091108014277119
 10
53.16554664737515
 20
24.03202126851572
 10
51.1634330177408
 20
23.99707424511678
 10
51.02727432116817
 20
23.86091554854416
 10
50.85477432116817
 20
23.86091554854416
  0
LWPOLYLINE
  5
738
330
18
100
AcDbEntity
  8
0
100
AcDbPolyline
 90
       20
 70
     1
 43
0.0
 10
50.40227432116817
 20
32.19462501542448
 10
50.40227432116817
 20
31.83276840050256
 10
50.21477432116817
 20
31.64526840050256
 10
50.21477432116817
 20
24.48596554854415
 10
50.40227432116817
 20
24.29846554854414
 10
50.40227432116817
 20
23.93654893362223
 42
0.4040262258351567
 10
50.46259310262426
 20
23.87408700693354
 10
50.83977432116817
 20
23.86091554854416
 10
50.83977432116817
 20
23.98591554854416
 10
50.55852432116817
 20
23.98591554854416
 42
-0.4142135623730946
 10
50.52727432116817
 20
24.01716554854416
 10
50.52727432116817
 20
24.35024224384078
 10
50.33977432116817
 20
24.53774224384078
 10
50.33977432116817
 20
31.59349170520592
 10
50.52727432116817
 20
31.78099170520592
 10
50.52727432116817
 20
32.11400840050256
 42
-0.4142135623730956
 10
50.55852432116817
 20
32.14525840050256
 10
50.83977432116817
 20
32.14525840050256
 10
50.83977432116817
 20
32.27025840050256
 10
50.46259310262426
 20
32.25708694211316
 42
0.4040262258351567
  0
LINE
  5
74E
330
18
100
AcDbEntity
  8
0
100
AcDbLine
 10
53.22477432116818
 20
31.20612518119072
 30
0.0
 11
50.60477432116817
 21
31.25185745130266
 31
0.0
  0
LINE
  5
74F
330
18
100
AcDbEntity
  8
HIDE
100
AcDbLine
 10
52.84977432116818
 20
31.73833697452335
 30
0.0
 11
50.60477432116817
 21
31.75333697452335
 31
0.0
  0
LINE
  5
750
330
18
100
AcDbEntity
  8
HIDE
100
AcDbLine
 10
52.84977432116818
 20
31.39333697452335
 30
0.0
 11
50.60477432116815
 21
31.37833697452335
 31
0.0
  0
LINE
  5
751
330
18
100
AcDbEntity
  8
0
100
AcDbLine
 10
53.22477432116818
 20
24.92504876785597
 30
0.0
 11
50.60477432116817
 21
24.87931649774405
 31
0.0
  0
LINE
  5
752
330
18
100
AcDbEntity
  8
HIDE
100
AcDbLine
 10
52.84977432116818
 20
24.73783697452335
 30
0.0
 11
50.60477432116815
 21
24.75283697452335
 31
0.0
  0
LINE
  5
753
330
18
100
AcDbEntity
  8
HIDE
100
AcDbLine
 10
52.84977432116818
 20
24.39283697452335
 30
0.0
 11
50.60477432116817
 21
24.37783697452335
 31
0.0
  0
INSERT
  5
754
330
18
100
AcDbEntity
  8
DIM
100
AcDbBlockReference
  2
SBBTX
 10
51.98956428742437
 20
22.02545393216848
 30
0.0
 41
2.0
 42
2.0
 43
2.0
  0
LINE
  5
755
330
18
100
AcDbEntity
  8
0
100
AcDbLine
 10
50.60477432116817
 20
32.01883208674583
 30
0.0
 11
50.60477432116817
 21
24.11234186230088
 31
0.0
  0
LINE
  5
756
330
18
100
AcDbEntity
  8
0
100
AcDbLine
 10
50.52727432116817
 20
31.78099170520592
 30
0.0
 11
50.52727432116817
 21
24.35024224384078
 31
0.0
  0
LWPOLYLINE
  5
757
330
18
100
AcDbEntity
  8
0
 62
     2
100
AcDbPolyline
 90
        4
 70
     1
 43
0.0
 10
50.59677432116391
 20
24.09687711240265
 42
0.9999834785717778
 10
50.53427432117244
 20
24.09687711240265
 10
50.53427432117091
 20
24.02083686554063
 42
1.000013231781622
 10
50.59677432116544
 20
24.02083686554063
  0
LINE
  5
75D
330
18
100
AcDbEntity
  8
0
100
AcDbLine
 10
50.65227432116817
 20
24.00584676694601
 30
0.0
 11
50.65227432116817
 21
23.98591554854414
 31
0.0
  0
LINE
  5
75E
330
18
100
AcDbEntity
  8
0
100
AcDbLine
 10
50.33977432116817
 20
25.0016395768311
 30
0.0
 11
50.52727432116817
 21
25.0016395768311
 31
0.0
  0
LINE
  5
75F
330
18
100
AcDbEntity
  8
0
100
AcDbLine
 10
50.33977432116817
 20
31.12953437221562
 30
0.0
 11
50.52727432116817
 21
31.12953437221562
 31
0.0
  0
LINE
  5
760
330
18
100
AcDbEntity
  8
HIDE
100
AcDbLine
 10
52.84977432116818
 20
24.45633697452335
 30
0.0
 11
53.34977432116819
 21
24.45633697452335
 31
0.0
  0
LINE
  5
761
330
18
100
AcDbEntity
  8
HIDE
100
AcDbLine
 10
52.84977432116818
 20
24.67433697452336
 30
0.0
 11
53.34977432116819
 21
24.67433697452336
 31
0.0
  0
LINE
  5
762
330
18
100
AcDbEntity
  8
HIDE
100
AcDbLine
 10
52.84977432116818
 20
24.45633697452335
 30
0.0
 11
52.84977432116818
 21
24.39283697452335
 31
0.0
  0
LINE
  5
763
330
18
100
AcDbEntity
  8
HIDE
100
AcDbLine
 10
52.84977432116818
 20
24.73783697452335
 30
0.0
 11
52.84977432116818
 21
24.67433697452336
 31
0.0
  0
LINE
  5
764
330
18
100
AcDbEntity
  8
HIDE
100
AcDbLine
 10
53.34977432116819
 20
24.45633697452335
 30
0.0
 11
53.34977432116819
 21
24.67433697452336
 31
0.0
  0
LINE
  5
765
330
18
100
AcDbEntity
  8
HIDE
100
AcDbLine
 10
52.84977432116818
 20
31.45683697452336
 30
0.0
 11
53.34977432116819
 21
31.45683697452336
 31
0.0
  0
LINE
  5
766
330
18
100
AcDbEntity
  8
HIDE
100
AcDbLine
 10
52.84977432116818
 20
31.67483697452336
 30
0.0
 11
53.34977432116819
 21
31.67483697452336
 31
0.0
  0
LINE
  5
767
330
18
100
AcDbEntity
  8
HIDE
100
AcDbLine
 10
52.84977432116818
 20
31.39333697452335
 30
0.0
 11
52.84977432116818
 21
31.45683697452336
 31
0.0
  0
LINE
  5
768
330
18
100
AcDbEntity
  8
HIDE
100
AcDbLine
 10
52.84977432116818
 20
31.67483697452336
 30
0.0
 11
52.84977432116818
 21
31.73833697452335
 31
0.0
  0
LINE
  5
769
330
18
100
AcDbEntity
  8
HIDE
100
AcDbLine
 10
53.34977432116819
 20
31.45683697452336
 30
0.0
 11
53.34977432116819
 21
31.67483697452336
 31
0.0
  0
LWPOLYLINE
  5
76A
330
18
100
AcDbEntity
  8
0
100
AcDbPolyline
 90
       24
 70
     1
 43
0.0
 10
10.33455960679681
 20
25.12778771993614
 10
10.45010934260628
 20
25.12778771993614
 42
-0.4142135623730958
 10
10.78540934260628
 20
24.79248771993614
 10
10.78540934260628
 20
24.4100395127054
 42
0.4142135623730903
 10
10.83460934260628
 20
24.3608395127054
 10
12.76904723900731
 20
24.36083951270541
 42
0.4142135623730903
 10
12.81824723900731
 20
24.41003951270541
 10
12.81824723900732
 20
24.79248771993614
 42
-0.4142135623730958
 10
13.15354723900732
 20
25.12778771993614
 10
13.2690969748168
 20
25.12778771993612
 42
0.4142135623730903
 10
13.31829697481679
 20
25.17698771993614
 10
13.3182969748168
 20
31.36192867349475
 42
0.4142135623730268
 10
13.26909697481681
 20
31.41112867349473
 10
13.15354723900733
 20
31.41112867349473
 42
-0.4142135623731051
 10
12.81824723900732
 20
31.74642867349473
 10
12.81824723900732
 20
32.12887688072546
 42
0.4142135623730691
 10
12.76904723900732
 20
32.17807688072547
 10
10.83460934260628
 20
32.17807688072546
 42
0.4142135623730691
 10
10.78540934260628
 20
32.12887688072546
 10
10.78540934260628
 20
31.74642867349472
 42
-0.4142135623730989
 10
10.45010934260627
 20
31.41112867349473
 10
10.33455960679679
 20
31.41112867349473
 42
0.4142135623730691
 10
10.28535960679679
 20
31.36192867349472
 10
10.28535960679681
 20
25.17698771993614
 42
0.4142135623730903
  0
DIMENSION
  5
784
330
18
100
AcDbEntity
  8
DIM
100
AcDbDimension
280
     0
  2
*D23
 10
13.17682829080679
 20
34.19136117443857
 30
0.0
 11
11.80182829080679
 21
34.19136117443857
 31
0.0
 12
-0.6627292710522568
 22
-40.33527207146031
 32
0.0
 70
   128
 71
     5
 42
-1.0
 73
     0
 74
     0
 75
     0
100
AcDbAlignedDimension
 13
10.42682829080679
 23
31.85970819671543
 33
0.0
 14
13.17682829080679
 24
31.85970819671543
 34
0.0
100
AcDbRotatedDimension
  0
DIMENSION
  5
785
330
18
100
AcDbEntity
  8
DIM
100
AcDbDimension
280
     0
  2
*D24
 10
10.3018068648276
 20
35.27025840050254
 30
0.0
 11
11.80182829080679
 21
35.27025840050254
 31
0.0
 12
-0.6627292710522568
 22
-40.33527207146031
 32
0.0
 70
   128
 71
     5
 42
-1.0
 73
     0
 74
     0
 75
     0
100
AcDbAlignedDimension
 13
13.301849716786
 23
32.25047962269464
 33
0.0
 14
10.3018068648276
 24
32.25047962269464
 34
0.0
100
AcDbRotatedDimension
  0
DIMENSION
  5
786
330
18
100
AcDbEntity
  8
DIM
100
AcDbDimension
280
     0
  2
*D25
 10
6.459403038817555
 20
32.16047962269464
 30
0.0
 11
6.459403038817555
 21
28.26945819671544
 31
0.0
 12
-0.6627292710522568
 22
0.0
 32
0.0
 71
     5
 42
-1.0
 73
     0
 74
     0
 75
     0
100
AcDbAlignedDimension
 13
10.21180686482759
 23
24.37843677073625
 33
0.0
 14
10.21180686482759
 24
32.16047962269464
 34
0.0
 50
90.0
100
AcDbRotatedDimension
  0
DIMENSION
  5
787
330
18
100
AcDbEntity
  8
DIM
100
AcDbDimension
280
     0
  2
*D26
 10
7.989306864827618
 20
31.76970819671543
 30
0.0
 11
7.989306864827618
 21
28.26945819671543
 31
0.0
 12
-0.6627292710522568
 22
0.0
 32
0.0
 71
     5
 42
-1.0
 73
     0
 74
     0
 75
     0
100
AcDbAlignedDimension
 13
10.33682829080678
 23
24.76920819671544
 33
0.0
 14
10.33682829080678
 24
31.76970819671543
 34
0.0
 50
90.0
100
AcDbRotatedDimension
  0
LWPOLYLINE
  5
788
330
18
100
AcDbEntity
  8
0
100
AcDbPolyline
 90
       24
 70
     1
 43
0.0
 10
10.33455960679681
 20
25.08298771993614
 10
10.45010934260628
 20
25.08298771993614
 42
-0.4142135623730982
 10
10.74060934260628
 20
24.79248771993614
 10
10.74060934260628
 20
24.4100395127054
 42
0.4142135623730956
 10
10.83460934260628
 20
24.3160395127054
 10
12.76904723900731
 20
24.3160395127054
 42
0.4142135623730888
 10
12.86304723900731
 20
24.41003951270541
 10
12.86304723900732
 20
24.79248771993614
 42
-0.4142135623730982
 10
13.15354723900732
 20
25.08298771993614
 10
13.2690969748168
 20
25.08298771993613
 42
0.4142135623731029
 10
13.3630969748168
 20
25.17698771993614
 10
13.3630969748168
 20
31.36192867349475
 42
0.4142135623730789
 10
13.26909697481681
 20
31.45592867349474
 10
13.15354723900733
 20
31.45592867349474
 42
-0.4142135623730982
 10
12.86304723900733
 20
31.74642867349473
 10
12.86304723900732
 20
32.12887688072546
 42
0.4142135623730855
 10
12.76904723900732
 20
32.22287688072547
 10
10.83460934260628
 20
32.22287688072545
 42
0.4142135623730888
 10
10.74060934260628
 20
32.12887688072546
 10
10.74060934260627
 20
31.74642867349472
 42
-0.4142135623730982
 10
10.45010934260627
 20
31.45592867349473
 10
10.33455960679679
 20
31.45592867349473
 42
0.4142135623730961
 10
10.24055960679679
 20
31.36192867349472
 10
10.24055960679681
 20
25.17698771993614
 42
0.4142135623731023
  0
LINE
  5
7A2
330
18
100
AcDbEntity
  8
CENTER
100
AcDbLine
 10
13.301849716786
 20
24.28843677073624
 30
0.0
 11
13.301849716786
 21
24.46843677073623
 31
0.0
  0
LINE
  5
7A3
330
18
100
AcDbEntity
  8
CENTER
100
AcDbLine
 10
13.211849716786
 20
24.37843677073625
 30
0.0
 11
13.391849716786
 21
24.37843677073625
 31
0.0
  0
LINE
  5
7A4
330
18
100
AcDbEntity
  8
CENTER
100
AcDbLine
 10
13.17682829080679
 20
24.67920819671544
 30
0.0
 11
13.17682829080679
 21
24.85920819671543
 31
0.0
  0
LINE
  5
7A5
330
18
100
AcDbEntity
  8
CENTER
100
AcDbLine
 10
13.08682829080679
 20
24.76920819671544
 30
0.0
 11
13.2668282908068
 21
24.76920819671544
 31
0.0
  0
LINE
  5
7A6
330
18
100
AcDbEntity
  8
CENTER
100
AcDbLine
 10
13.17682829080679
 20
31.67970819671543
 30
0.0
 11
13.17682829080679
 21
31.85970819671543
 31
0.0
  0
LINE
  5
7A7
330
18
100
AcDbEntity
  8
CENTER
100
AcDbLine
 10
13.08682829080679
 20
31.76970819671543
 30
0.0
 11
13.2668282908068
 21
31.76970819671543
 31
0.0
  0
LINE
  5
7A8
330
18
100
AcDbEntity
  8
CENTER
100
AcDbLine
 10
13.301849716786
 20
32.07047962269463
 30
0.0
 11
13.301849716786
 21
32.25047962269464
 31
0.0
  0
LINE
  5
7A9
330
18
100
AcDbEntity
  8
CENTER
100
AcDbLine
 10
13.211849716786
 20
32.16047962269464
 30
0.0
 11
13.391849716786
 21
32.16047962269464
 31
0.0
  0
LINE
  5
7AA
330
18
100
AcDbEntity
  8
CENTER
100
AcDbLine
 10
10.3018068648276
 20
32.07047962269463
 30
0.0
 11
10.3018068648276
 21
32.25047962269464
 31
0.0
  0
LINE
  5
7AB
330
18
100
AcDbEntity
  8
CENTER
100
AcDbLine
 10
10.21180686482759
 20
32.16047962269464
 30
0.0
 11
10.3918068648276
 21
32.16047962269464
 31
0.0
  0
LINE
  5
7AC
330
18
100
AcDbEntity
  8
CENTER
100
AcDbLine
 10
10.42682829080679
 20
31.67970819671543
 30
0.0
 11
10.42682829080679
 21
31.85970819671543
 31
0.0
  0
LINE
  5
7AD
330
18
100
AcDbEntity
  8
CENTER
100
AcDbLine
 10
10.33682829080678
 20
31.76970819671543
 30
0.0
 11
10.51682829080679
 21
31.76970819671543
 31
0.0
  0
LINE
  5
7AE
330
18
100
AcDbEntity
  8
CENTER
100
AcDbLine
 10
10.42682829080679
 20
24.67920819671544
 30
0.0
 11
10.42682829080679
 21
24.85920819671543
 31
0.0
  0
LINE
  5
7AF
330
18
100
AcDbEntity
  8
CENTER
100
AcDbLine
 10
10.33682829080678
 20
24.76920819671544
 30
0.0
 11
10.51682829080679
 21
24.76920819671544
 31
0.0
  0
LINE
  5
7B0
330
18
100
AcDbEntity
  8
CENTER
100
AcDbLine
 10
10.3018068648276
 20
24.28843677073624
 30
0.0
 11
10.3018068648276
 21
24.46843677073623
 31
0.0
  0
LINE
  5
7B1
330
18
100
AcDbEntity
  8
CENTER
100
AcDbLine
 10
10.21180686482759
 20
24.37843677073625
 30
0.0
 11
10.3918068648276
 21
24.37843677073625
 31
0.0
  0
CIRCLE
  5
7B2
330
18
100
AcDbEntity
  8
0
 62
     4
100
AcDbCircle
 10
13.301849716786
 20
32.16047962269464
 30
0.0
 40
0.109
  0
CIRCLE
  5
7B3
330
18
100
AcDbEntity
  8
0
 62
     4
100
AcDbCircle
 10
13.301849716786
 20
32.16047962269464
 30
0.0
 40
0.076
  0
CIRCLE
  5
7B4
330
18
100
AcDbEntity
  8
0
 62
     4
100
AcDbCircle
 10
13.301849716786
 20
24.37843677073625
 30
0.0
 40
0.109
  0
CIRCLE
  5
7B5
330
18
100
AcDbEntity
  8
0
 62
     4
100
AcDbCircle
 10
13.301849716786
 20
24.37843677073625
 30
0.0
 40
0.076
  0
CIRCLE
  5
7B6
330
18
100
AcDbEntity
  8
0
 62
     4
100
AcDbCircle
 10
10.3018068648276
 20
32.16047962269464
 30
0.0
 40
0.109
  0
CIRCLE
  5
7B7
330
18
100
AcDbEntity
  8
0
 62
     4
100
AcDbCircle
 10
10.3018068648276
 20
32.16047962269464
 30
0.0
 40
0.076
  0
LINE
  5
7B8
330
18
100
AcDbEntity
  8
0
100
AcDbLine
 10
9.989306864827618
 20
24.37728677073624
 30
0.0
 11
9.989306864827618
 21
32.16162962269463
 31
0.0
  0
LINE
  5
7B9
330
18
100
AcDbEntity
  8
0
100
AcDbLine
 10
13.61434971678598
 20
24.37728677073625
 30
0.0
 11
13.61434971678598
 21
32.16162962269463
 31
0.0
  0
LINE
  5
7BA
330
18
100
AcDbEntity
  8
0
100
AcDbLine
 10
13.30184971678598
 20
32.47412962269463
 30
0.0
 11
10.30180686482762
 21
32.47412962269463
 31
0.0
  0
LINE
  5
7BB
330
18
100
AcDbEntity
  8
0
100
AcDbLine
 10
13.30184971678598
 20
24.06478677073625
 30
0.0
 11
10.30180686482762
 21
24.06478677073624
 31
0.0
  0
ARC
  5
7BC
330
18
100
AcDbEntity
  8
0
100
AcDbCircle
 10
10.30180686482762
 20
32.16162962269463
 30
0.0
 40
0.3125
100
AcDbArc
 50
90.0
 51
180.0
  0
ARC
  5
7BD
330
18
100
AcDbEntity
  8
0
100
AcDbCircle
 10
13.30184971678598
 20
32.16162962269463
 30
0.0
 40
0.3125
100
AcDbArc
 50
0.0
 51
90.0
  0
ARC
  5
7BE
330
18
100
AcDbEntity
  8
0
100
AcDbCircle
 10
13.30184971678598
 20
24.37728677073625
 30
0.0
 40
0.3125
100
AcDbArc
 50
270.0
 51
0.0
  0
ARC
  5
7BF
330
18
100
AcDbEntity
  8
0
100
AcDbCircle
 10
10.30180686482762
 20
24.37728677073624
 30
0.0
 40
0.3125
100
AcDbArc
 50
180.0
 51
270.0
  0
CIRCLE
  5
7C0
330
18
100
AcDbEntity
  8
0
 62
     4
100
AcDbCircle
 10
10.3018068648276
 20
24.37843677073625
 30
0.0
 40
0.076
  0
CIRCLE
  5
7C1
330
18
100
AcDbEntity
  8
0
 62
     4
100
AcDbCircle
 10
10.3018068648276
 20
24.37843677073625
 30
0.0
 40
0.109
  0
LWPOLYLINE
  5
7C2
330
18
100
AcDbEntity
  8
0
100
AcDbPolyline
 90
       24
 70
     1
 43
0.0
 10
10.3250596067968
 20
24.97998771993613
 10
10.45010934260628
 20
24.97998771993613
 42
-0.4142135623731
 10
10.63760934260628
 20
24.79248771993614
 10
10.63760934260628
 20
24.40053951270541
 42
0.414213562373097
 10
10.82510934260628
 20
24.21303951270541
 10
12.77854723900732
 20
24.21303951270541
 42
0.4142135623730946
 10
12.96604723900731
 20
24.40053951270541
 10
12.96604723900732
 20
24.79248771993614
 42
-0.4142135623730975
 10
13.15354723900732
 20
24.97998771993613
 10
13.2785969748168
 20
24.97998771993613
 42
0.4142135623730961
 10
13.4660969748168
 20
25.16748771993614
 10
13.46609697481681
 20
31.37142867349473
 42
0.4142135623730956
 10
13.2785969748168
 20
31.55892867349474
 10
13.15354723900733
 20
31.55892867349475
 42
-0.4142135623730927
 10
12.96604723900733
 20
31.74642867349475
 10
12.96604723900731
 20
32.13837688072546
 42
0.4142135623730961
 10
12.77854723900732
 20
32.32587688072546
 10
10.82510934260628
 20
32.32587688072546
 42
0.4142135623730923
 10
10.63760934260628
 20
32.13837688072546
 10
10.63760934260627
 20
31.74642867349472
 42
-0.4142135623730951
 10
10.45010934260627
 20
31.55892867349472
 10
10.32505960679679
 20
31.55892867349472
 42
0.4142135623730961
 10
10.13755960679679
 20
31.37142867349472
 10
10.1375596067968
 20
25.16748771993614
 42
0.4142135623730975
  0
LWPOLYLINE
  5
7DC
330
18
100
AcDbEntity
  8
0
100
AcDbPolyline
 90
       24
 70
     1
 43
0.0
 10
10.3250596067968
 20
24.96248771993613
 10
10.45010934260628
 20
24.96248771993615
 42
-0.414213562373101
 10
10.62010934260628
 20
24.79248771993614
 10
10.62010934260628
 20
24.40053951270541
 42
0.4142135623730902
 10
10.82510934260628
 20
24.19553951270541
 10
12.77854723900732
 20
24.19553951270541
 42
0.4142135623730902
 10
12.98354723900731
 20
24.40053951270541
 10
12.98354723900732
 20
24.79248771993614
 42
-0.414213562373101
 10
13.15354723900732
 20
24.96248771993613
 10
13.2785969748168
 20
24.96248771993613
 42
0.4142135623730902
 10
13.4835969748168
 20
25.16748771993614
 10
13.4835969748168
 20
31.37142867349473
 42
0.4142135623730902
 10
13.2785969748168
 20
31.57642867349473
 10
13.15354723900733
 20
31.57642867349473
 42
-0.414213562373101
 10
12.98354723900733
 20
31.74642867349475
 10
12.98354723900731
 20
32.13837688072546
 42
0.4142135623730902
 10
12.77854723900732
 20
32.34337688072547
 10
10.82510934260628
 20
32.34337688072546
 42
0.4142135623730902
 10
10.62010934260628
 20
32.13837688072546
 10
10.62010934260627
 20
31.74642867349472
 42
-0.414213562373101
 10
10.45010934260627
 20
31.57642867349473
 10
10.32505960679679
 20
31.57642867349473
 42
0.4142135623730902
 10
10.12005960679679
 20
31.37142867349472
 10
10.1200596067968
 20
25.16748771993614
 42
0.4142135623730902
  0
CIRCLE
  5
7F6
330
18
100
AcDbEntity
  8
0
100
AcDbCircle
 10
10.42682829080679
 20
24.76920819671544
 30
0.0
 40
0.1875
  0
CIRCLE
  5
7F7
330
18
100
AcDbEntity
  8
0
100
AcDbCircle
 10
10.42682829080679
 20
24.76920819671544
 30
0.0
 40
0.1725
  0
CIRCLE
  5
7F8
330
18
100
AcDbEntity
  8
0
100
AcDbCircle
 10
10.42682829080679
 20
24.76920819671544
 30
0.0
 40
0.109
  0
CIRCLE
  5
7F9
330
18
100
AcDbEntity
  8
0
100
AcDbCircle
 10
13.17682829080679
 20
24.76920819671544
 30
0.0
 40
0.109
  0
CIRCLE
  5
7FA
330
18
100
AcDbEntity
  8
0
100
AcDbCircle
 10
13.17682829080679
 20
24.76920819671544
 30
0.0
 40
0.1725
  0
CIRCLE
  5
7FB
330
18
100
AcDbEntity
  8
0
100
AcDbCircle
 10
13.17682829080679
 20
24.76920819671544
 30
0.0
 40
0.1875
  0
CIRCLE
  5
7FC
330
18
100
AcDbEntity
  8
0
100
AcDbCircle
 10
13.17682829080679
 20
31.76970819671543
 30
0.0
 40
0.109
  0
CIRCLE
  5
7FD
330
18
100
AcDbEntity
  8
0
100
AcDbCircle
 10
13.17682829080679
 20
31.76970819671543
 30
0.0
 40
0.1725
  0
CIRCLE
  5
7FE
330
18
100
AcDbEntity
  8
0
100
AcDbCircle
 10
13.17682829080679
 20
31.76970819671543
 30
0.0
 40
0.1875
  0
CIRCLE
  5
7FF
330
18
100
AcDbEntity
  8
0
100
AcDbCircle
 10
10.42682829080679
 20
31.76970819671543
 30
0.0
 40
0.109
  0
CIRCLE
  5
800
330
18
100
AcDbEntity
  8
0
100
AcDbCircle
 10
10.42682829080679
 20
31.76970819671543
 30
0.0
 40
0.1725
  0
CIRCLE
  5
801
330
18
100
AcDbEntity
  8
0
100
AcDbCircle
 10
10.42682829080679
 20
31.76970819671543
 30
0.0
 40
0.1875
  0
TEXT
  5
802
330
18
100
AcDbEntity
  8
DIM
100
AcDbText
 10
14.64474150400316
 20
33.00726882910957
 30
0.0
 40
0.187
  1
10-24 BRASS INSERT
 11
14.64474150400316
 21
33.10076882910957
 31
0.0
100
AcDbText
 73
     2
  0
TEXT
  5
803
330
18
100
AcDbEntity
  8
DIM
100
AcDbText
 10
14.63172215794348
 20
32.68324195106047
 30
0.0
 40
0.187
  1
4 PLC'S.
100
AcDbText
  0
LINE
  5
804
330
18
100
AcDbEntity
  8
DIM
100
AcDbLine
 10
14.27074150400316
 20
33.10076882910957
 30
0.0
 11
14.45774150400317
 21
33.10076882910957
 31
0.0
  0
LINE
  5
805
330
18
100
AcDbEntity
  8
DIM
100
AcDbLine
 10
13.5142032304959
 20
32.33362283170433
 30
0.0
 11
14.27074150400316
 21
33.10076882910957
 31
0.0
  0
DIMENSION
  5
806
330
18
100
AcDbEntity
  8
DIM
100
AcDbDimension
280
     0
  2
*D34
 10
13.07849723652317
 20
24.72217625264046
 30
0.0
 11
14.69752183172694
 21
25.11565123403687
 31
0.0
 12
-0.6627292710522568
 22
0.0
 32
0.0
 70
     3
 71
     5
 42
-1.0
 73
     0
 74
     0
 75
     0
100
AcDbDiametricDimension
 15
13.2751593450904
 25
24.81624014079045
 35
0.0
 40
0.6939072965350307
  0
TEXT
  5
807
330
18
100
AcDbEntity
  8
DIM
100
AcDbText
 10
14.23151441809444
 20
24.67643386390665
 30
0.0
 40
0.187
  1
4 PLC'S.
100
AcDbText
  0
DIMENSION
  5
808
330
18
100
AcDbEntity
  8
DIM
100
AcDbDimension
280
     0
  2
*D35
 10
13.04850193868239
 20
24.88448437530602
 30
0.0
 11
14.75168006315915
 21
24.0979707974489
 31
0.0
 12
-0.6627292710522568
 22
0.0
 32
0.0
 70
     3
 71
     5
 42
-1.0
 73
     0
 74
     0
 75
     0
100
AcDbDiametricDimension
 15
13.30515464293119
 25
24.65393201812488
 35
0.0
 40
0.8319438737402043
  0
TEXT
  5
809
330
18
100
AcDbEntity
  8
DIM
100
AcDbText
 10
14.23151441809444
 20
23.68924078266502
 30
0.0
 40
0.187
  1
4 PLC'S.
100
AcDbText
  0
SOLID
  5
80A
330
18
100
AcDbEntity
  8
DIM
100
AcDbTrace
 10
13.53639428135065
 20
32.3117386279703
 30
0.0
 11
13.49201217964115
 21
32.3555070354384
 31
0.0
 12
13.38289800809167
 22
32.20047652657581
 32
0.0
 13
13.38289800809167
 23
32.20047652657581
 33
0.0
  0
TEXT
  5
80B
330
18
100
AcDbEntity
  8
DIM
100
AcDbText
 10
10.58800605960477
 20
21.90048016480414
 30
0.0
 40
0.187
  1
WITHOUT COVER
100
AcDbText
  0
TEXT
  5
80C
330
18
100
AcDbEntity
  8
DIM
100
AcDbText
 10
10.59466579037293
 20
22.3402275833723
 30
0.0
 40
0.312
  1
TOP VIEW
  7
COMPLEX
100
AcDbText
  0
LINE
  5
80D
330
18
100
AcDbEntity
  8
DIM
100
AcDbLine
 10
10.60136205390429
 20
22.22932515436055
 30
0.0
 11
13.00229452770929
 21
22.22932515436055
 31
0.0
  0
LINE
  5
80E
330
18
100
AcDbEntity
  8
DIM
100
AcDbLine
 10
10.60136205390429
 20
22.26932515436056
 30
0.0
 11
13.00229452770929
 21
22.26932515436056
 31
0.0
  0
LINE
  5
80F
330
18
100
AcDbEntity
  8
HIDE
100
AcDbLine
 10
52.84977432116818
 20
24.45633697452335
 30
0.0
 11
52.84977432116818
 21
24.67433697452336
 31
0.0
  0
LINE
  5
810
330
18
100
AcDbEntity
  8
HIDE
100
AcDbLine
 10
52.84977432116818
 20
31.45683697452336
 30
0.0
 11
52.84977432116818
 21
31.67483697452336
 31
0.0
  0
LINE
  5
811
330
18
100
AcDbEntity
  8
HIDE
100
AcDbLine
 10
50.1854671582218
 20
14.77175742326541
 30
0.0
 11
50.40346715822181
 21
14.77175742326541
 31
0.0
  0
LINE
  5
812
330
18
100
AcDbEntity
  8
HIDE
100
AcDbLine
 10
52.9354671582218
 20
14.77175742326541
 30
0.0
 11
53.1534671582218
 21
14.77175742326541
 31
0.0
  0
INSERT
  5
813
330
18
100
AcDbEntity
  8
HATCH
100
AcDbBlockReference
  2
*X40
 10
0.0
 20
0.0
 30
0.0
1001
ACAD
1000
HATCH
1002
{
1070
    16
1000
ANSI34
1040
1.0
1040
0.0
1002
}
  0
INSERT
  5
814
330
18
100
AcDbEntity
  8
HATCH
100
AcDbBlockReference
  2
*X41
 10
0.0
 20
0.0
 30
0.0
1001
ACAD
1000
HATCH
1002
{
1070
    16
1000
ANSI34
1040
1.0
1040
1.570796326794896
1002
}
  0
LWPOLYLINE
  5
B8C
330
18
100
AcDbEntity
  8
TITLE
100
AcDbPolyline
 90
        4
 70
     1
 43
0.0
 10
63.98000000000377
 20
41.73000000000278
 10
0.0199999999999943
 20
41.73000000000278
 10
0.0199999999999996
 20
0.0200000000000014
 10
63.98000000000374
 20
0.0200000000000014
  0
LWPOLYLINE
  5
B92
330
18
100
AcDbEntity
  8
TITLE
100
AcDbPolyline
 90
        4
 70
     1
 43
0.0
 10
64.00000000000376
 20
41.75000000000276
 10
-0.0000000000000071
 20
41.75000000000276
 10
0.0
 20
0.0000000000000018
 10
64.00000000000374
 20
0.0000000000000018
  0
LWPOLYLINE
  5
B98
330
18
100
AcDbEntity
  8
TITLE
100
AcDbPolyline
 90
        4
 70
     1
 43
0.0
 10
63.96000000000377
 20
41.71000000000276
 10
0.0399999999999943
 20
41.71000000000276
 10
0.0399999999999996
 20
0.0400000000000014
 10
63.96000000000374
 20
0.0400000000000014
  0
LINE
  5
B9E
330
18
100
AcDbEntity
  8
TITLE
100
AcDbLine
 10
63.96000000000374
 20
0.7900000000000014
 30
0.0
 11
42.96000000000375
 21
0.790000000000005
 31
0.0
  0
LINE
  5
B9F
330
18
100
AcDbEntity
  8
TITLE
100
AcDbLine
 10
54.33500000000375
 20
1.540000000000001
 30
0.0
 11
42.96000000000375
 21
1.540000000000004
 31
0.0
  0
LINE
  5
BA0
330
18
100
AcDbEntity
  8
TITLE
100
AcDbLine
 10
54.33500000000375
 20
2.290000000000001
 30
0.0
 11
42.96000000000375
 21
2.290000000000004
 31
0.0
  0
LINE
  5
BA1
330
18
100
AcDbEntity
  8
TITLE
100
AcDbLine
 10
63.96000000000374
 20
3.040000000000001
 30
0.0
 11
42.96000000000375
 21
3.040000000000004
 31
0.0
  0
LINE
  5
BA2
330
18
100
AcDbEntity
  8
TITLE
100
AcDbLine
 10
57.33500000000375
 20
3.540000000000002
 30
0.0
 11
42.96000000000375
 21
3.540000000000004
 31
0.0
  0
LINE
  5
BA3
330
18
100
AcDbEntity
  8
TITLE
100
AcDbLine
 10
63.96000000000374
 20
4.04
 30
0.0
 11
42.96000000000375
 21
4.040000000000004
 31
0.0
  0
LINE
  5
BA4
330
18
100
AcDbEntity
  8
TITLE
100
AcDbLine
 10
51.83500000000375
 20
3.040000000000001
 30
0.0
 11
51.83500000000375
 21
0.0399999999999996
 31
0.0
  0
LINE
  5
BA5
330
18
100
AcDbEntity
  8
TITLE
100
AcDbLine
 10
50.96000000000374
 20
2.290000000000004
 30
0.0
 11
50.96000000000374
 21
0.0400000000000085
 31
0.0
  0
LINE
  5
BA6
330
18
100
AcDbEntity
  8
TITLE
100
AcDbLine
 10
50.08500000000374
 20
2.290000000000004
 30
0.0
 11
50.08500000000374
 21
0.0400000000000067
 31
0.0
  0
LINE
  5
BA7
330
18
100
AcDbEntity
  8
TITLE
100
AcDbLine
 10
48.96000000000374
 20
2.290000000000004
 30
0.0
 11
48.96000000000374
 21
0.0400000000000049
 31
0.0
  0
LINE
  5
BA8
330
18
100
AcDbEntity
  8
TITLE
100
AcDbLine
 10
43.96000000000374
 20
2.290000000000001
 30
0.0
 11
43.96000000000374
 21
0.0400000000000014
 31
0.0
  0
LINE
  5
BA9
330
18
100
AcDbEntity
  8
TITLE
100
AcDbLine
 10
42.96000000000375
 20
4.040000000000004
 30
0.0
 11
42.96000000000375
 21
0.0400000000000014
 31
0.0
  0
LINE
  5
BAA
330
18
100
AcDbEntity
  8
TITLE
100
AcDbLine
 10
51.83500000000375
 20
1.165000000000001
 30
0.0
 11
42.96000000000375
 21
1.165000000000004
 31
0.0
  0
LINE
  5
BAB
330
18
100
AcDbEntity
  8
TITLE
100
AcDbLine
 10
51.83500000000375
 20
0.4149999999999996
 30
0.0
 11
42.96000000000375
 21
0.415000000000005
 31
0.0
  0
TEXT
  5
BAC
330
18
100
AcDbEntity
  8
TITLE
100
AcDbText
 10
45.20274150067381
 20
2.036268066777214
 30
0.0
 40
0.154
  1
REVISION RECORD
  7
ITALIC
 72
     1
 11
46.30640816734048
 21
2.036268066777214
 31
0.0
100
AcDbText
  0
LINE
  5
BAD
330
18
100
AcDbEntity
  8
TITLE
100
AcDbLine
 10
51.83500000000375
 20
1.915000000000001
 30
0.0
 11
42.96000000000375
 21
1.915000000000004
 31
0.0
  0
TEXT
  5
BAE
330
18
100
AcDbEntity
  8
TITLE
100
AcDbText
 10
43.41367829470571
 20
2.762795715722289
 30
0.0
 40
0.154
  1
MATERIAL
  7
ITALIC
100
AcDbText
  0
TEXT
  5
BAF
330
18
100
AcDbEntity
  8
TITLE
100
AcDbText
 10
43.26186688171646
 20
2.055260544742853
 30
0.0
 40
0.154
  1
LET.
  7
ITALIC
 72
     1
 11
43.49286688171646
 21
2.055260544742853
 31
0.0
100
AcDbText
  0
TEXT
  5
BB0
330
18
100
AcDbEntity
  8
TITLE
100
AcDbText
 10
43.43743673306819
 20
4.138388543293784
 30
0.0
 40
0.14
  1
NOTES:
  7
ITALIC
100
AcDbText
  0
TEXT
  5
BB1
330
18
100
AcDbEntity
  8
TITLE
100
AcDbText
 10
49.21118533914498
 20
2.045764305760033
 30
0.0
 40
0.154
  1
DATE
  7
ITALIC
 72
     1
 11
49.4935186724783
 21
2.045764305760033
 31
0.0
100
AcDbText
  0
TEXT
  5
BB2
330
18
100
AcDbEntity
  8
TITLE
100
AcDbText
 10
50.38257751100488
 20
2.055260544742853
 30
0.0
 40
0.154
  1
BY
  7
ITALIC
 72
     1
 11
50.51091084433821
 21
2.055260544742853
 31
0.0
100
AcDbText
  0
TEXT
  5
BB3
330
18
100
AcDbEntity
  8
TITLE
100
AcDbText
 10
51.14538256127479
 20
2.036268066777214
 30
0.0
 40
0.154
  1
CHD.
  7
ITALIC
 72
     1
 11
51.3763825612748
 21
2.036268066777214
 31
0.0
100
AcDbText
  0
TEXT
  5
BB4
330
18
100
AcDbEntity
  8
TITLE
 62
     1
100
AcDbText
 10
61.83818339703766
 20
1.326747107986976
 30
0.0
 40
0.125
  1
AutoCAD DWG. FILE
100
AcDbText
  0
LINE
  5
BB5
330
18
100
AcDbEntity
  8
TITLE
 62
     1
100
AcDbLine
 10
63.96000000000374
 20
1.540000000000001
 30
0.0
 11
54.33500000000375
 21
1.540000000000001
 31
0.0
  0
LINE
  5
BB6
330
18
100
AcDbEntity
  8
TITLE
 62
     1
100
AcDbLine
 10
54.33500000000375
 20
3.039999999999997
 30
0.0
 11
54.33500000000375
 21
0.0399999999999996
 31
0.0
  0
LINE
  5
BB7
330
18
100
AcDbEntity
  8
TITLE
 62
     1
100
AcDbLine
 10
53.08500000000375
 20
3.040000000000004
 30
0.0
 11
53.08500000000375
 21
0.7900000000000032
 31
0.0
  0
TEXT
  5
BB8
330
18
100
AcDbEntity
  8
TITLE
100
AcDbText
 10
52.73472273397718
 20
0.5212952711989276
 30
0.0
 40
0.154
  1
SCALE
  7
ITALIC
 72
     1
 11
53.09405606731051
 21
0.5212952711989276
 31
0.0
100
AcDbText
  0
TEXT
  5
BB9
330
18
100
AcDbEntity
  8
TITLE
100
AcDbText
 10
52.20267205253438
 20
0.2172647121122048
 30
0.0
 40
0.15125
  1
DO NOT SCALE
 72
     1
 11
53.08496371920104
 21
0.2172647121122048
 31
0.0
100
AcDbText
  0
TEXT
  5
BBA
330
18
100
AcDbEntity
  8
TITLE
100
AcDbText
 10
51.96638083203399
 20
1.316742979900486
 30
0.0
 40
0.154
  1
APD. BY
  7
ITALIC
 72
     1
 11
52.42838083203399
 21
1.316742979900486
 31
0.0
100
AcDbText
  0
TEXT
  5
BBB
330
18
100
AcDbEntity
  8
TITLE
 62
     1
100
AcDbText
 10
53.47434386396953
 20
1.322440723290178
 30
0.0
 40
0.154
  1
DATE
  7
ITALIC
 72
     1
 11
53.75667719730286
 21
1.322440723290178
 31
0.0
100
AcDbText
  0
TEXT
  5
BBC
330
18
100
AcDbEntity
  8
TITLE
 62
     1
100
AcDbText
 10
54.54266216399277
 20
1.252558201771084
 30
0.0
 40
0.1694
  1
CUSTOMER
  7
ITALIC
 72
     2
 11
55.8413954973261
 21
1.252558201771084
 31
0.0
100
AcDbText
  0
TEXT
  5
BBD
330
18
100
AcDbEntity
  8
TITLE
 62
     1
100
AcDbText
 10
54.56633048452305
 20
0.5102494913256912
 30
0.0
 40
0.1694
  1
PART NAME
  7
ITALIC
100
AcDbText
  0
LINE
  5
BBE
330
18
100
AcDbEntity
  8
TITLE
 62
     1
100
AcDbLine
 10
59.21000000000375
 20
0.7900000000000014
 30
0.0
 11
59.21000000000375
 21
0.0399999999999978
 31
0.0
  0
TEXT
  5
BBF
330
18
100
AcDbEntity
  8
TITLE
 62
     1
100
AcDbText
 10
59.46791140966684
 20
0.5206953542067927
 30
0.0
 40
0.1694
  1
PART NO.
  7
ITALIC
100
AcDbText
  0
LINE
  5
BC0
330
18
100
AcDbEntity
  8
TITLE
 62
     1
100
AcDbLine
 10
61.74479396240641
 20
0.7900000000000014
 30
0.0
 11
61.74479396240641
 21
1.540000000000001
 31
0.0
  0
TEXT
  5
BC1
330
18
100
AcDbEntity
  8
TITLE
100
AcDbText
 10
51.96638083203399
 20
2.072056300604384
 30
0.0
 40
0.154
  1
CHK. BY
  7
ITALIC
 72
     1
 11
52.42838083203399
 21
2.072056300604384
 31
0.0
100
AcDbText
  0
TEXT
  5
BC2
330
18
100
AcDbEntity
  8
TITLE
100
AcDbText
 10
52.13269628546089
 20
2.82618097475822
 30
0.0
 40
0.14
  1
DR. BY
  7
ITALIC
 72
     1
 11
52.48269628546089
 21
2.82618097475822
 31
0.0
100
AcDbText
  0
TEXT
  5
BC3
330
18
100
AcDbEntity
  8
TITLE
 62
     1
100
AcDbText
 10
53.46190663208497
 20
2.072056300604384
 30
0.0
 40
0.154
  1
DATE
  7
ITALIC
 72
     1
 11
53.7442399654183
 21
2.072056300604384
 31
0.0
100
AcDbText
  0
TEXT
  5
BC4
330
18
100
AcDbEntity
  8
TITLE
 62
     1
100
AcDbText
 10
53.44713965836721
 20
2.822727796946285
 30
0.0
 40
0.14
  1
DATE
  7
ITALIC
 72
     1
 11
53.70380632503388
 21
2.822727796946285
 31
0.0
100
AcDbText
  0
TEXT
  5
BC5
330
18
100
AcDbEntity
  8
TITLE
 62
     1
100
AcDbText
 10
57.51343410179541
 20
3.27666845244556
 30
0.0
 40
0.15525
  1
UNLESS SPECIFIED
  7
ITALIC
 72
     1
 11
58.67780910179541
 21
3.27666845244556
 31
0.0
100
AcDbText
  0
LINE
  5
BC6
330
18
100
AcDbEntity
  8
TITLE
 62
     1
100
AcDbLine
 10
57.33500000000375
 20
4.04
 30
0.0
 11
57.33500000000375
 21
3.040000000000001
 31
0.0
  0
TEXT
  5
BC7
330
18
100
AcDbEntity
  8
TITLE
 62
     1
100
AcDbText
 10
57.92743410179541
 20
3.643086326406458
 30
0.0
 40
0.15525
  1
TOLERANCES
  7
ITALIC
 72
     1
 11
58.67780910179541
 21
3.643086326406458
 31
0.0
100
AcDbText
  0
TEXT
  5
BC8
330
18
100
AcDbEntity
  8
TITLE
 62
     1
100
AcDbText
 10
60.47755802933359
 20
3.649787649597743
 30
0.0
 40
0.15525
  1
DECIMAL
  7
ITALIC
100
AcDbText
  0
TEXT
  5
BC9
330
18
100
AcDbEntity
  8
TITLE
 62
     1
100
AcDbText
 10
60.47755802933359
 20
3.356364944423901
 30
0.0
 40
0.15525
  1
+
  7
ITALIC
100
AcDbText
  0
TEXT
  5
BCA
330
18
100
AcDbEntity
  8
TITLE
 62
     1
100
AcDbText
 10
60.47755802933359
 20
3.198840704743548
 30
0.0
 40
0.15525
  1
-
  7
ITALIC
100
AcDbText
  0
TEXT
  5
BCB
330
18
100
AcDbEntity
  8
TITLE
 62
     1
100
AcDbText
 10
62.01705691683141
 20
3.64320306308844
 30
0.0
 40
0.15525
  1
FRACTIONAL
  7
ITALIC
100
AcDbText
  0
TEXT
  5
BCC
330
18
100
AcDbEntity
  8
TITLE
 62
     1
100
AcDbText
 10
62.01705691683141
 20
3.349780357914581
 30
0.0
 40
0.15525
  1
+
  7
ITALIC
100
AcDbText
  0
TEXT
  5
BCD
330
18
100
AcDbEntity
  8
TITLE
 62
     1
100
AcDbText
 10
62.01705691683141
 20
3.19799197822055
 30
0.0
 40
0.15525
  1
-
  7
ITALIC
100
AcDbText
  0
TEXT
  5
C01
330
18
100
AcDbEntity
  8
TITLE
100
AcDbText
 10
44.71726211672854
 20
3.133736989995846
 30
0.0
 40
0.187
  1
COLOR: GLACIER GRAY (RR1013)
100
AcDbText
  0
TEXT
  5
D1E
330
18
100
AcDbEntity
  8
TITLE
100
AcDbText
 10
54.93289383759898
 20
1.993115587447864
 30
0.0
 40
0.6054646411449599
  1
HUBBELL WIEGMANN
  7
STYLE1
100
AcDbText
  0
ENDSEC
  0
SECTION
  2
OBJECTS
  0
DICTIONARY
  5
C
330
0
100
AcDbDictionary
281
     1
  3
ACAD_COLOR
350
C1B
  3
ACAD_GROUP
350
D
  3
ACAD_LAYOUT
350
C1E
  3
ACAD_MATERIAL
350
C1A
  3
ACAD_MLEADERSTYLE
350
D3D
  3
ACAD_MLINESTYLE
350
E
  3
ACAD_PLOTSETTINGS
350
C1F
  3
ACAD_PLOTSTYLENAME
350
C18
  3
ACAD_SCALELIST
350
D2B
  3
ACAD_TABLESTYLE
350
C1C
  3
ACAD_VISUALSTYLE
350
C55
  3
AcAmCatalogState
350
CC6
  3
ACDB_RECOMPOSE_DATA
350
D50
  3
AcDbVariableDictionary
350
C30
  3
ACDMSYSVARMGR
350
C82
  3
ACGREF_MASTER
350
C7C
  3
ACGREFACAD_MASTER
350
CA3
  3
AcmDictionary
350
CC4
  3
ACME_BOM_MANAGER_NAME
350
C76
  3
ACME_COMMAND_HISTORY
350
C73
  3
ACME_SCOPE_NAME
350
C72
  3
ACMESTATEMGR
350
C7B
  3
AcmeSysVarManager
350
C74
  3
AcmSystemVariableManager
350
CA8
  3
AD_APPL
350
CB0
  3
ADSYSVARMGR
350
CAF
  3
AmdtNamedDwgMgr
350
C9E
  3
AMG
350
C6B
  3
AMGSNAPSETTINGS
350
D04
  3
AMI_MASTER
350
CA6
  3
AUTOCAD_ASSEMBLIES_PROJECT
350
CB9
  3
Designer_Assemblies_SysVars
350
CB3
  3
GREFAM_MODULE
350
CA7
  3
StructToggleButtonState
350
D1F
  0
DICTIONARY
  5
D13
330
2
100
AcDbDictionary
280
     1
281
     1
  3
ACAD_LAYERSTATES
360
D14
  0
DICTIONARY
  5
C1B
102
{ACAD_REACTORS
330
C
102
}
330
C
100
AcDbDictionary
281
     1
  0
DICTIONARY
  5
D
102
{ACAD_REACTORS
330
C
102
}
330
C
100
AcDbDictionary
281
     1
  0
DICTIONARY
  5
C1E
102
{ACAD_REACTORS
330
C
102
}
330
C
100
AcDbDictionary
281
     1
  3
Layout1
350
C21
  3
Model
350
C20
  0
DICTIONARY
  5
C1A
102
{ACAD_REACTORS
330
C
102
}
330
C
100
AcDbDictionary
281
     1
  3
ByBlock
350
C53
  3
ByLayer
350
C52
  3
Global
350
C54
  0
DICTIONARY
  5
D3D
102
{ACAD_REACTORS
330
C
102
}
330
C
100
AcDbDictionary
281
     1
  3
Standard
350
D3E
  0
DICTIONARY
  5
E
102
{ACAD_REACTORS
330
C
102
}
330
C
100
AcDbDictionary
281
     1
  3
STANDARD
350
1B
  0
DICTIONARY
  5
C1F
102
{ACAD_REACTORS
330
C
102
}
330
C
100
AcDbDictionary
281
     1
  0
ACDBDICTIONARYWDFLT
  5
C18
102
{ACAD_REACTORS
330
C
102
}
330
C
100
AcDbDictionary
281
     1
  3
Normal
350
C19
100
AcDbDictionaryWithDefault
340
C19
  0
DICTIONARY
  5
D2B
102
{ACAD_REACTORS
330
C
102
}
330
C
100
AcDbDictionary
281
     1
  3
A0
350
D2C
  3
A1
350
D2D
  3
A2
350
D2E
  3
A3
350
D2F
  3
A4
350
D30
  3
A5
350
D31
  3
A6
350
D32
  3
A7
350
D33
  3
A8
350
D34
  3
A9
350
D35
  3
B0
350
D36
  3
B1
350
D37
  3
B2
350
D38
  3
B3
350
D39
  3
B4
350
D3A
  3
B5
350
D3B
  3
B6
350
D3C
  0
DICTIONARY
  5
C1C
102
{ACAD_REACTORS
330
C
102
}
330
C
100
AcDbDictionary
281
     1
  3
Standard
350
C1D
  0
DICTIONARY
  5
C55
102
{ACAD_REACTORS
330
C
102
}
330
C
100
AcDbDictionary
281
     1
  3
2dWireframe
350
C5B
  3
3D Hidden
350
C5D
  3
3dWireframe
350
C5C
  3
Basic
350
C5A
  3
Brighten
350
C61
  3
ColorChange
350
C65
  3
Conceptual
350
C5E
  3
Dim
350
C60
  3
EdgeColorOff
350
D2A
  3
Facepattern
350
C64
  3
Flat
350
C56
  3
FlatWithEdges
350
C57
  3
Gouraud
350
C58
  3
GouraudWithEdges
350
C59
  3
Hidden
350
D22
  3
JitterOff
350
D28
  3
Linepattern
350
C63
  3
OverhangOff
350
D29
  3
Realistic
350
C5F
  3
Shaded
350
D27
  3
Shaded with edges
350
D26
  3
Shades of Gray
350
D23
  3
Sketchy
350
D24
  3
Thicken
350
C62
  3
Wireframe
350
D21
  3
X-Ray
350
D25
  0
ACAD_PROXY_OBJECT
  5
CC6
102
{ACAD_REACTORS
330
C
102
}
330
C
100
AcDbProxyObject
 90
      499
 91
      550
 95
    65563
 70
     0
162
              1018
311
4FD1C00E80170011401B8019C01A401B80194019401C801A401B8019C0170010C010401100080011801A401B0019401CC0170010C011800B0008001180080014C019401C801A4019401CC00B000800140010800B001400108015C0170010C011800980118008000C800B401100080019001C8018401DC01A401B8019C01CC0
311
0C
161
                94
310
3FFFFFFFE00A0284403002A8
 94
        0
  0
XRECORD
  5
D50
102
{ACAD_REACTORS
330
C
102
}
330
C
100
AcDbXrecord
280
     1
 90
        1
330
C1D
  0
DICTIONARY
  5
C30
102
{ACAD_REACTORS
330
C
102
}
330
C
100
AcDbDictionary
281
     1
  3
CANNOSCALE
350
D4A
  3
CMLEADERSTYLE
350
D48
  3
CTABLESTYLE
350
C31
  3
DIMASSOC
350
C4F
  3
LAYEREVAL
350
D4C
  3
LAYERNOTIFY
350
D4D
  3
LIGHTINGUNITS
350
D4B
  3
MSLTSCALE
350
D49
  3
PROJECTNAME
350
C50
  0
ACAD_PROXY_OBJECT
  5
C82
102
{ACAD_REACTORS
330
C
102
}
330
C
100
AcDbProxyObject
 90
      499
 91
      511
 95
    65563
 70
     0
162
                 0
161
               240
310
4C51A482000000000000000000000000000000000000000000000000000000
330
C83
330
C84
330
C85
330
C86
330
C87
330
C88
330
C89
330
C8A
330
C8B
330
C8C
330
C8D
330
C8E
330
C8F
330
C90
330
C91
330
C92
330
C93
330
C94
330
C95
330
C96
330
C97
330
C98
330
C99
330
C9A
330
C9B
330
C9C
 94
        0
  0
ACAD_PROXY_OBJECT
  5
C7C
102
{ACAD_REACTORS
330
C
102
}
330
C
100
AcDbProxyObject
 90
      499
 91
      519
 95
    65563
 70
     0
162
                 0
161
                34
310
040000428C
 94
        0
  0
ACAD_PROXY_OBJECT
  5
CA3
102
{ACAD_REACTORS
330
C
102
}
330
C
100
AcDbProxyObject
 90
      499
 91
      528
 95
    65563
 70
     0
162
                 0
161
               114
310
04000041C08000000000000000000C
 94
        0
  0
DICTIONARY
  5
CC4
102
{ACAD_REACTORS
330
C
102
}
330
C
100
AcDbDictionary
281
     1
  3
AcmBOMDATA
350
CC5
  3
AcmStdDictionary
350
CCF
  3
AMDTSECTSYM_ARROWCOLOR
350
CEF
  0
ACAD_PROXY_OBJECT
  5
C76
102
{ACAD_REACTORS
330
C
102
}
330
C
100
AcDbProxyObject
 90
      499
 91
      513
 95
    65563
 70
     0
162
                 0
161
                50
310
0000004040000C
330
0
330
0
330
C77
 94
        0
  0
ACAD_PROXY_OBJECT
  5
C73
102
{ACAD_REACTORS
330
C
102
}
330
C
100
AcDbProxyObject
 90
      499
 91
      510
 95
    65563
 70
     0
162
              2310
311
4390401340110015001480114014C01140150011001080134013C011001084E0020002D00200055004E0044004F0042138008000B40080015401380110013C010455004E0044004F004115401380110013C01045A004F004F004D004151401480104014C011401095000410053005400450043004C00490050004154C010C0
311
1040130011401044D004F00560045004191001100114011001240150010644004400450044004900540041168013C013C013401065300410056004500410053004C134014C011C008000B4008001400140010400E80080008000800190019401CC01AC01D001BC01C000B8018401C801E00080011801A401B0019401580194
311
01C801CC01A401BC01B800E8008000C400C400B800C000B800D800C800B800C800C000
161
               170
310
4300502010101806018060180601806018060140404C
 94
        0
  0
ACAD_PROXY_OBJECT
  5
C72
102
{ACAD_REACTORS
330
C
102
}
330
C
100
AcDbProxyObject
 90
      499
 91
      509
 95
    65563
 70
     0
162
                 0
161
               546
310
0B00004980800000000000000000130502000000000000000000000000000000000000000000000000000000000000000000000000000000000000000000000000AAAAAA8C
360
C75
360
C77
360
C7D
360
C7E
360
C7F
360
C80
360
C83
360
C84
360
C85
360
C86
360
C87
360
C88
360
C89
360
C8A
360
C8B
360
C8C
360
C8D
360
C8E
360
C8F
360
C90
360
C91
360
C92
360
C93
360
C94
360
C95
360
C96
360
C97
360
C98
360
C99
360
C9A
360
C9B
360
C9C
360
CA9
360
CAB
360
CAC
360
CAD
360
CAE
360
CB4
360
CB5
360
CB6
360
CB7
360
CB8
360
CBD
360
CBE
360
CBF
360
CC0
360
CC1
360
CC2
 94
        0
  0
ACAD_PROXY_OBJECT
  5
C7B
102
{ACAD_REACTORS
330
C
102
}
330
C
100
AcDbProxyObject
 90
      499
 91
      518
 95
    65563
 70
     0
162
                 0
161
                50
310
0B000042E4128C
 94
        0
  0
ACAD_PROXY_OBJECT
  5
C74
102
{ACAD_REACTORS
330
C
102
}
330
C
100
AcDbProxyObject
 90
      499
 91
      511
 95
    65563
 70
     0
162
                 0
161
                32
310
9014220000
330
C75
 94
        0
  0
ACAD_PROXY_OBJECT
  5
CA8
102
{ACAD_REACTORS
330
C
102
}
330
C
100
AcDbProxyObject
 90
      499
 91
      511
 95
    65563
 70
     0
162
                 0
161
                32
310
9014220000
330
CA9
 94
        0
  0
ACAD_PROXY_OBJECT
  5
CB0
102
{ACAD_REACTORS
330
C
102
}
330
C
100
AcDbProxyObject
 90
      499
 91
      539
 95
    65563
 70
     0
162
                 0
161
                34
310
000B00008C
330
CAB
 94
        0
  0
ACAD_PROXY_OBJECT
  5
CAF
102
{ACAD_REACTORS
330
C
102
}
330
C
100
AcDbProxyObject
 90
      499
 91
      511
 95
    65563
 70
     0
162
                 0
161
                 8
310
AA08
 94
        0
  0
ACAD_PROXY_OBJECT
  5
C9E
102
{ACAD_REACTORS
330
C
102
}
330
C
100
AcDbProxyObject
 90
      499
 91
      525
 95
    65563
 70
     0
162
                 0
161
                42
310
000100005E8C
330
C7D
 94
        0
  0
DICTIONARY
  5
C6B
102
{ACAD_REACTORS
330
C
102
}
330
C
100
AcDbDictionary
281
     1
  3
AcMgSettings
350
C6C
  3
AMGLAYCFG
350
CD1
  0
DICTIONARY
  5
D04
102
{ACAD_REACTORS
330
C
102
}
330
C
100
AcDbDictionary
281
     1
  3
DIMENSION
350
D09
  3
FEA
350
D08
  3
HATCH (1)
350
D05
  3
HATCH (2)
350
D06
  3
SIMPLE WELD
350
D0A
  3
SYMBOLS
350
D07
  0
ACAD_PROXY_OBJECT
  5
CA6
102
{ACAD_REACTORS
330
C
102
}
330
C
100
AcDbProxyObject
 90
      499
 91
      531
 95
    65563
 70
     0
162
                 0
161
                34
310
050000428C
 94
        0
  0
ACAD_PROXY_OBJECT
  5
CB9
102
{ACAD_REACTORS
330
C
102
}
330
C
100
AcDbProxyObject
 90
      499
 91
      542
 95
    65563
 70
     0
162
                 0
161
                98
310
0B00005000000000000000000C
330
CC0
330
0
330
CC1
330
0
330
0
330
0
330
0
330
0
 94
        0
  0
ACAD_PROXY_OBJECT
  5
CB3
102
{ACAD_REACTORS
330
C
102
}
330
C
100
AcDbProxyObject
 90
      499
 91
      511
 95
    65563
 70
     0
162
                 0
161
                64
310
9054220000000000CD
330
CB4
330
CB5
330
CB6
330
CB7
330
CB8
 94
        0
  0
ACAD_PROXY_OBJECT
  5
CA7
102
{ACAD_REACTORS
330
C
102
}
330
C
100
AcDbProxyObject
 90
      499
 91
      532
 95
    65563
 70
     0
162
                 0
161
                 8
310
0508
 94
        0
  0
ACAD_PROXY_OBJECT
  5
D1F
102
{ACAD_REACTORS
330
C
102
}
330
C
100
AcDbProxyObject
 90
      499
 91
      576
 95
    65563
 70
     0
162
                 0
161
                 1
310
4C
 94
        0
  0
DICTIONARY
  5
D14
102
{ACAD_REACTORS
330
D13
102
}
330
D13
100
AcDbDictionary
281
     1
  0
LAYOUT
  5
C21
102
{ACAD_REACTORS
330
C1E
102
}
330
C1E
100
AcDbPlotSettings
  1

  2
HP LaserJet 6L
  4

  6

 40
0.0
 41
0.0
 42
0.0
 43
0.0
 44
0.0
 45
0.0
 46
0.0
 47
0.0
 48
0.0
 49
0.0
140
0.0
141
0.0
142
1.0
143
1.0
 70
   688
 72
     0
 73
     0
 74
     5
  7

 75
    16
147
1.0
 76
     0
 77
     2
 78
   300
148
0.0
149
0.0
100
AcDbLayout
  1
Layout1
 70
     1
 71
     1
 10
0.0
 20
0.0
 11
12.0
 21
9.0
 12
0.0
 22
0.0
 32
0.0
 14
1.000000000000000E+20
 24
1.000000000000000E+20
 34
1.000000000000000E+20
 15
-1.000000000000000E+20
 25
-1.000000000000000E+20
 35
-1.000000000000000E+20
146
0.0
 13
0.0
 23
0.0
 33
0.0
 16
1.0
 26
0.0
 36
0.0
 17
0.0
 27
1.0
 37
0.0
 76
     0
330
15
  0
LAYOUT
  5
C20
102
{ACAD_REACTORS
330
C1E
102
}
330
C1E
100
AcDbPlotSettings
  1

  2
HP DesignJet 500 24 by HP
  4
User265
  6

 40
4.995333194732666
 41
16.97568893432617
 42
4.99530029296875
 43
16.97564697265625
 44
558.7576293945312
 45
863.5153198242187
 46
3.776419897700728
 47
0.0
 48
0.0
 49
0.0
140
0.0
141
0.0
142
1.0
143
1.959656748343369
 70
 11956
 72
     0
 73
     1
 74
     1
  7

 75
     0
147
0.5102934485059018
 76
     0
 77
     2
 78
   300
148
0.0104419782283003
149
0.0422767812652353
100
AcDbLayout
  1
Model
 70
     1
 71
     0
 10
0.0
 20
0.0
 11
12.0
 21
9.0
 12
0.0
 22
0.0
 32
0.0
 14
0.0
 24
0.0
 34
0.0
 15
0.0
 25
0.0
 35
0.0
146
0.0
 13
0.0
 23
0.0
 33
0.0
 16
1.0
 26
0.0
 36
0.0
 17
0.0
 27
1.0
 37
0.0
 76
     0
330
18
331
C49
1001
ACAD_PSEXT
1000
HP DesignJet 500 24 by HP
1000
HP DesignJet 500 24 by HP
1000
USB001
1000

1070
     0
  0
MATERIAL
  5
C53
102
{ACAD_REACTORS
330
C1A
102
}
330
C1A
100
AcDbMaterial
  1
ByBlock
 73
     1
 78
     1
172
     1
176
     1
270
     1
274
     1
 94
       63
  0
MATERIAL
  5
C52
102
{ACAD_REACTORS
330
C1A
102
}
330
C1A
100
AcDbMaterial
  1
ByLayer
 73
     1
 78
     1
172
     1
176
     1
270
     1
274
     1
 94
       63
  0
MATERIAL
  5
C54
102
{ACAD_REACTORS
330
C1A
102
}
330
C1A
100
AcDbMaterial
  1
Global
 73
     1
 78
     1
172
     1
176
     1
270
     1
274
     1
 94
       63
  0
MLEADERSTYLE
  5
D3E
102
{ACAD_REACTORS
330
D3D
102
}
330
D3D
100
AcDbMLeaderStyle
179
     2
170
     2
171
     1
172
     0
 90
        2
 40
0.0
 41
0.0
173
     1
 91
-1056964608
340
12
 92
       -2
290
     1
 42
0.09
291
     1
 43
0.36
  3
Standard
 44
0.18
300

342
10
174
     1
178
     6
175
     1
176
     0
 93
-1056964608
 45
0.18
292
     0
297
     0
 46
0.18
 94
-1056964608
 47
1.0
 49
1.0
140
1.0
293
     1
141
0.0
294
     1
177
     0
142
1.0
295
     1
296
     0
143
0.125
271
     0
272
     9
273
     9
  0
MLINESTYLE
  5
1B
102
{ACAD_REACTORS
330
E
102
}
330
E
100
AcDbMlineStyle
  2
STANDARD
 70
     0
  3

 62
     0
 51
90.0
 52
90.0
 71
     2
 49
0.5
 62
   256
  6
BYLAYER
 49
-0.5
 62
   256
  6
BYLAYER
  0
ACDBPLACEHOLDER
  5
C19
102
{ACAD_REACTORS
330
C18
102
}
330
C18
  0
SCALE
  5
D2C
102
{ACAD_REACTORS
330
D2B
102
}
330
D2B
100
AcDbScale
 70
     0
300
1:1
140
1.0
141
1.0
290
     1
  0
SCALE
  5
D2D
102
{ACAD_REACTORS
330
D2B
102
}
330
D2B
100
AcDbScale
 70
     0
300
1/128" = 1'-0"
140
0.0078125
141
12.0
290
     0
  0
SCALE
  5
D2E
102
{ACAD_REACTORS
330
D2B
102
}
330
D2B
100
AcDbScale
 70
     0
300
1/64" = 1'-0"
140
0.015625
141
12.0
290
     0
  0
SCALE
  5
D2F
102
{ACAD_REACTORS
330
D2B
102
}
330
D2B
100
AcDbScale
 70
     0
300
1/32" = 1'-0"
140
0.03125
141
12.0
290
     0
  0
SCALE
  5
D30
102
{ACAD_REACTORS
330
D2B
102
}
330
D2B
100
AcDbScale
 70
     0
300
1/16" = 1'-0"
140
0.0625
141
12.0
290
     0
  0
SCALE
  5
D31
102
{ACAD_REACTORS
330
D2B
102
}
330
D2B
100
AcDbScale
 70
     0
300
3/32" = 1'-0"
140
0.09375
141
12.0
290
     0
  0
SCALE
  5
D32
102
{ACAD_REACTORS
330
D2B
102
}
330
D2B
100
AcDbScale
 70
     0
300
1/8" = 1'-0"
140
0.125
141
12.0
290
     0
  0
SCALE
  5
D33
102
{ACAD_REACTORS
330
D2B
102
}
330
D2B
100
AcDbScale
 70
     0
300
3/16" = 1'-0"
140
0.1875
141
12.0
290
     0
  0
SCALE
  5
D34
102
{ACAD_REACTORS
330
D2B
102
}
330
D2B
100
AcDbScale
 70
     0
300
1/4" = 1'-0"
140
0.25
141
12.0
290
     0
  0
SCALE
  5
D35
102
{ACAD_REACTORS
330
D2B
102
}
330
D2B
100
AcDbScale
 70
     0
300
3/8" = 1'-0"
140
0.375
141
12.0
290
     0
  0
SCALE
  5
D36
102
{ACAD_REACTORS
330
D2B
102
}
330
D2B
100
AcDbScale
 70
     0
300
1/2" = 1'-0"
140
0.5
141
12.0
290
     0
  0
SCALE
  5
D37
102
{ACAD_REACTORS
330
D2B
102
}
330
D2B
100
AcDbScale
 70
     0
300
3/4" = 1'-0"
140
0.75
141
12.0
290
     0
  0
SCALE
  5
D38
102
{ACAD_REACTORS
330
D2B
102
}
330
D2B
100
AcDbScale
 70
     0
300
1" = 1'-0"
140
1.0
141
12.0
290
     0
  0
SCALE
  5
D39
102
{ACAD_REACTORS
330
D2B
102
}
330
D2B
100
AcDbScale
 70
     0
300
1-1/2" = 1'-0"
140
1.5
141
12.0
290
     0
  0
SCALE
  5
D3A
102
{ACAD_REACTORS
330
D2B
102
}
330
D2B
100
AcDbScale
 70
     0
300
3" = 1'-0"
140
3.0
141
12.0
290
     0
  0
SCALE
  5
D3B
102
{ACAD_REACTORS
330
D2B
102
}
330
D2B
100
AcDbScale
 70
     0
300
6" = 1'-0"
140
6.0
141
12.0
290
     0
  0
SCALE
  5
D3C
102
{ACAD_REACTORS
330
D2B
102
}
330
D2B
100
AcDbScale
 70
     0
300
1'-0" = 1'-0"
140
12.0
141
12.0
290
     0
  0
TABLESTYLE
  5
C1D
102
{ACAD_XDICTIONARY
360
D4E
102
}
102
{ACAD_REACTORS
330
C1C
102
}
330
C1C
100
AcDbTableStyle
280
     0
  3
Standard
 70
     0
 71
     0
 40
0.06
 41
0.06
280
     0
281
     0
  7
STANDARD
140
0.18
170
     2
 62
     0
 63
     7
283
     0
 90
        4
 91
        0
  1

274
    -2
284
     1
 64
     0
275
    -2
285
     1
 65
     0
276
    -2
286
     1
 66
     0
277
    -2
287
     1
 67
     0
278
    -2
288
     1
 68
     0
279
    -2
289
     1
 69
     0
  7
STANDARD
140
0.25
170
     5
 62
     0
 63
     7
283
     0
 90
        4
 91
        0
  1

274
    -2
284
     1
 64
     0
275
    -2
285
     1
 65
     0
276
    -2
286
     1
 66
     0
277
    -2
287
     1
 67
     0
278
    -2
288
     1
 68
     0
279
    -2
289
     1
 69
     0
  7
STANDARD
140
0.18
170
     5
 62
     0
 63
     7
283
     0
 90
        4
 91
        0
  1

274
    -2
284
     1
 64
     0
275
    -2
285
     1
 65
     0
276
    -2
286
     1
 66
     0
277
    -2
287
     1
 67
     0
278
    -2
288
     1
 68
     0
279
    -2
289
     1
 69
     0
  0
VISUALSTYLE
  5
C5B
102
{ACAD_REACTORS
330
C55
102
}
330
C55
100
AcDbVisualStyle
  2
2dWireframe
 70
     4
177
     2
291
     0
 71
     0
176
     1
 72
     2
176
     1
 73
     0
176
     1
 90
        0
176
     1
 40
0.6
176
     1
 41
30.0
176
     1
 63
     7
421
 16777215
176
     1
 74
     1
176
     1
 91
        4
176
     1
 64
     7
176
     1
 65
   257
176
     1
 75
     1
176
     1
175
     1
176
     1
 42
1.0
176
     1
 92
        0
176
     1
 66
   257
176
     1
 43
1.0
176
     1
 76
     1
176
     1
 77
     6
176
     1
 78
     2
176
     1
 67
     7
176
     1
 79
     5
176
     1
170
     0
176
     1
171
     0
176
     1
290
     0
176
     1
 93
        1
176
     1
 44
0.0
176
     1
173
     0
176
     1
  0
VISUALSTYLE
  5
C5D
102
{ACAD_REACTORS
330
C55
102
}
330
C55
100
AcDbVisualStyle
  2
3D Hidden
 70
     6
177
     2
291
     0
 71
     1
176
     1
 72
     2
176
     1
 73
     2
176
     1
 90
        0
176
     1
 40
0.6
176
     1
 41
30.0
176
     1
 63
     7
421
 16777215
176
     1
 74
     2
176
     1
 91
        2
176
     1
 64
     7
176
     1
 65
   257
176
     1
 75
     2
176
     1
175
     1
176
     1
 42
40.0
176
     1
 92
        0
176
     1
 66
   257
176
     1
 43
1.0
176
     1
 76
     1
176
     1
 77
     6
176
     1
 78
     2
176
     1
 67
     7
176
     1
 79
     3
176
     1
170
     0
176
     1
171
     0
176
     1
290
     0
176
     1
 93
        1
176
     1
 44
0.0
176
     1
173
     0
176
     1
  0
VISUALSTYLE
  5
C5C
102
{ACAD_REACTORS
330
C55
102
}
330
C55
100
AcDbVisualStyle
  2
3dWireframe
 70
     5
177
     2
291
     0
 71
     0
176
     1
 72
     2
176
     1
 73
     0
176
     1
 90
        0
176
     1
 40
0.6
176
     1
 41
30.0
176
     1
 63
     7
421
 16777215
176
     1
 74
     1
176
     1
 91
        4
176
     1
 64
     7
176
     1
 65
   257
176
     1
 75
     1
176
     1
175
     1
176
     1
 42
1.0
176
     1
 92
        0
176
     1
 66
   257
176
     1
 43
1.0
176
     1
 76
     1
176
     1
 77
     6
176
     1
 78
     2
176
     1
 67
     7
176
     1
 79
     5
176
     1
170
     0
176
     1
171
     0
176
     1
290
     0
176
     1
 93
        1
176
     1
 44
0.0
176
     1
173
     0
176
     1
  0
VISUALSTYLE
  5
C5A
102
{ACAD_REACTORS
330
C55
102
}
330
C55
100
AcDbVisualStyle
  2
Basic
 70
     7
177
     2
291
     1
 71
     1
176
     1
 72
     0
176
     1
 73
     1
176
     1
 90
        0
176
     1
 40
0.6
176
     1
 41
30.0
176
     1
 63
     7
421
 16777215
176
     1
 74
     0
176
     1
 91
        4
176
     1
 64
     7
176
     1
 65
   257
176
     1
 75
     1
176
     1
175
     1
176
     1
 42
1.0
176
     1
 92
        8
176
     1
 66
     7
176
     1
 43
1.0
176
     1
 76
     1
176
     1
 77
     6
176
     1
 78
     2
176
     1
 67
     7
176
     1
 79
     5
176
     1
170
     0
176
     1
171
     0
176
     1
290
     0
176
     1
 93
        1
176
     1
 44
0.0
176
     1
173
     0
176
     1
  0
VISUALSTYLE
  5
C61
102
{ACAD_REACTORS
330
C55
102
}
330
C55
100
AcDbVisualStyle
  2
Brighten
 70
    12
177
     2
291
     1
 71
     2
176
     1
 72
     2
176
     1
 73
     0
176
     1
 90
        0
176
     1
 40
0.6
176
     1
 41
30.0
176
     1
 63
     7
421
 16777215
176
     1
 74
     1
176
     1
 91
        4
176
     1
 64
     7
176
     1
 65
   257
176
     1
 75
     1
176
     1
175
     1
176
     1
 42
1.0
176
     1
 92
        8
176
     1
 66
     7
176
     1
 43
1.0
176
     1
 76
     1
176
     1
 77
     6
176
     1
 78
     2
176
     1
 67
     7
176
     1
 79
     5
176
     1
170
     0
176
     1
171
     0
176
     1
290
     0
176
     1
 93
        1
176
     1
 44
50.0
176
     1
173
     0
176
     1
  0
VISUALSTYLE
  5
C65
102
{ACAD_REACTORS
330
C55
102
}
330
C55
100
AcDbVisualStyle
  2
ColorChange
 70
    16
177
     2
291
     1
 71
     2
176
     1
 72
     2
176
     1
 73
     3
176
     1
 90
        0
176
     1
 40
0.6
176
     1
 41
30.0
176
     1
 63
     8
421
  8421504
176
     1
 74
     1
176
     1
 91
        4
176
     1
 64
     7
176
     1
 65
   257
176
     1
 75
     1
176
     1
175
     1
176
     1
 42
1.0
176
     1
 92
        8
176
     1
 66
     8
424
  8421504
176
     1
 43
1.0
176
     1
 76
     1
176
     1
 77
     6
176
     1
 78
     2
176
     1
 67
     7
176
     1
 79
     5
176
     1
170
     0
176
     1
171
     0
176
     1
290
     0
176
     1
 93
        1
176
     1
 44
0.0
176
     1
173
     0
176
     1
  0
VISUALSTYLE
  5
C5E
102
{ACAD_REACTORS
330
C55
102
}
330
C55
100
AcDbVisualStyle
  2
Conceptual
 70
     9
177
     2
291
     0
 71
     3
176
     1
 72
     2
176
     1
 73
     0
176
     1
 90
        0
176
     1
 40
0.6
176
     1
 41
30.0
176
     1
 63
     7
421
 16777215
176
     1
 74
     2
176
     1
 91
        2
176
     1
 64
     7
176
     1
 65
   257
176
     1
 75
     1
176
     1
175
     1
176
     1
 42
40.0
176
     1
 92
        8
176
     1
 66
     7
176
     1
 43
1.0
176
     1
 76
     1
176
     1
 77
     6
176
     1
 78
     2
176
     1
 67
     7
176
     1
 79
     3
176
     1
170
     0
176
     1
171
     0
176
     1
290
     0
176
     1
 93
        1
176
     1
 44
0.0
176
     1
173
     0
176
     1
  0
VISUALSTYLE
  5
C60
102
{ACAD_REACTORS
330
C55
102
}
330
C55
100
AcDbVisualStyle
  2
Dim
 70
    11
177
     2
291
     1
 71
     2
176
     1
 72
     2
176
     1
 73
     0
176
     1
 90
        0
176
     1
 40
0.6
176
     1
 41
30.0
176
     1
 63
     7
421
 16777215
176
     1
 74
     1
176
     1
 91
        4
176
     1
 64
     7
176
     1
 65
   257
176
     1
 75
     1
176
     1
175
     1
176
     1
 42
1.0
176
     1
 92
        8
176
     1
 66
     7
176
     1
 43
1.0
176
     1
 76
     1
176
     1
 77
     6
176
     1
 78
     2
176
     1
 67
     7
176
     1
 79
     5
176
     1
170
     0
176
     1
171
     0
176
     1
290
     0
176
     1
 93
        1
176
     1
 44
-50.0
176
     1
173
     0
176
     1
  0
VISUALSTYLE
  5
D2A
102
{ACAD_REACTORS
330
C55
102
}
330
C55
100
AcDbVisualStyle
  2
EdgeColorOff
 70
    22
177
     2
291
     1
 71
     2
176
     0
 72
     2
176
     0
 73
     0
176
     0
 90
        0
176
     0
 40
0.6
176
     0
 41
30.0
176
     0
 63
     7
421
 16777215
176
     0
 74
     1
176
     0
 91
        4
176
     0
 64
     7
176
     0
 65
   257
176
     0
 75
     1
176
     0
175
     1
176
     0
 42
1.0
176
     0
 92
        8
176
     2
 66
     7
176
     0
 43
1.0
176
     0
 76
     1
176
     0
 77
     6
176
     0
 78
     2
176
     0
 67
     7
176
     0
 79
     5
176
     0
170
     0
176
     0
171
     0
176
     0
290
     0
176
     0
 93
        1
176
     0
 44
0.0
176
     0
173
     0
176
     0
  0
VISUALSTYLE
  5
C64
102
{ACAD_REACTORS
330
C55
102
}
330
C55
100
AcDbVisualStyle
  2
Facepattern
 70
    15
177
     2
291
     1
 71
     2
176
     1
 72
     2
176
     1
 73
     0
176
     1
 90
        0
176
     1
 40
0.6
176
     1
 41
30.0
176
     1
 63
     7
421
 16777215
176
     1
 74
     1
176
     1
 91
        4
176
     1
 64
     7
176
     1
 65
   257
176
     1
 75
     1
176
     1
175
     1
176
     1
 42
1.0
176
     1
 92
        8
176
     1
 66
     7
176
     1
 43
1.0
176
     1
 76
     1
176
     1
 77
     6
176
     1
 78
     2
176
     1
 67
     7
176
     1
 79
     5
176
     1
170
     0
176
     1
171
     0
176
     1
290
     0
176
     1
 93
        1
176
     1
 44
0.0
176
     1
173
     0
176
     1
  0
VISUALSTYLE
  5
C56
102
{ACAD_REACTORS
330
C55
102
}
330
C55
100
AcDbVisualStyle
  2
Flat
 70
     0
177
     2
291
     1
 71
     2
176
     1
 72
     1
176
     1
 73
     1
176
     1
 90
        2
176
     1
 40
0.6
176
     1
 41
30.0
176
     1
 63
     7
421
 16777215
176
     1
 74
     0
176
     1
 91
        4
176
     1
 64
     7
176
     1
 65
   257
176
     1
 75
     1
176
     1
175
     1
176
     1
 42
1.0
176
     1
 92
        8
176
     1
 66
     7
176
     1
 43
1.0
176
     1
 76
     1
176
     1
 77
     6
176
     1
 78
     2
176
     1
 67
     7
176
     1
 79
     5
176
     1
170
     0
176
     1
171
     0
176
     1
290
     0
176
     1
 93
       13
176
     1
 44
0.0
176
     1
173
     0
176
     1
  0
VISUALSTYLE
  5
C57
102
{ACAD_REACTORS
330
C55
102
}
330
C55
100
AcDbVisualStyle
  2
FlatWithEdges
 70
     1
177
     2
291
     1
 71
     2
176
     1
 72
     1
176
     1
 73
     1
176
     1
 90
        2
176
     1
 40
0.6
176
     1
 41
30.0
176
     1
 63
     7
421
 16777215
176
     1
 74
     1
176
     1
 91
        4
176
     1
 64
     7
176
     1
 65
   257
176
     1
 75
     1
176
     1
175
     1
176
     1
 42
1.0
176
     1
 92
        0
176
     1
 66
   257
176
     1
 43
1.0
176
     1
 76
     1
176
     1
 77
     6
176
     1
 78
     2
176
     1
 67
     7
176
     1
 79
     5
176
     1
170
     0
176
     1
171
     0
176
     1
290
     0
176
     1
 93
       13
176
     1
 44
0.0
176
     1
173
     0
176
     1
  0
VISUALSTYLE
  5
C58
102
{ACAD_REACTORS
330
C55
102
}
330
C55
100
AcDbVisualStyle
  2
Gouraud
 70
     2
177
     2
291
     1
 71
     2
176
     1
 72
     2
176
     1
 73
     1
176
     1
 90
        2
176
     1
 40
0.6
176
     1
 41
30.0
176
     1
 63
     7
421
 16777215
176
     1
 74
     0
176
     1
 91
        4
176
     1
 64
     7
176
     1
 65
   257
176
     1
 75
     1
176
     1
175
     1
176
     1
 42
1.0
176
     1
 92
        0
176
     1
 66
     7
176
     1
 43
1.0
176
     1
 76
     1
176
     1
 77
     6
176
     1
 78
     2
176
     1
 67
     7
176
     1
 79
     5
176
     1
170
     0
176
     1
171
     0
176
     1
290
     0
176
     1
 93
       13
176
     1
 44
0.0
176
     1
173
     0
176
     1
  0
VISUALSTYLE
  5
C59
102
{ACAD_REACTORS
330
C55
102
}
330
C55
100
AcDbVisualStyle
  2
GouraudWithEdges
 70
     3
177
     2
291
     1
 71
     2
176
     1
 72
     2
176
     1
 73
     1
176
     1
 90
        2
176
     1
 40
0.6
176
     1
 41
30.0
176
     1
 63
     7
421
 16777215
176
     1
 74
     1
176
     1
 91
        4
176
     1
 64
     7
176
     1
 65
   257
176
     1
 75
     1
176
     1
175
     1
176
     1
 42
1.0
176
     1
 92
        0
176
     1
 66
   257
176
     1
 43
1.0
176
     1
 76
     1
176
     1
 77
     6
176
     1
 78
     2
176
     1
 67
     7
176
     1
 79
     5
176
     1
170
     0
176
     1
171
     0
176
     1
290
     0
176
     1
 93
       13
176
     1
 44
0.0
176
     1
173
     0
176
     1
  0
VISUALSTYLE
  5
D22
102
{ACAD_REACTORS
330
C55
102
}
330
C55
100
AcDbVisualStyle
  2
Hidden
 70
     6
177
     2
291
     0
 71
     1
176
     1
 72
     2
176
     1
 73
     2
176
     1
 90
        0
176
     1
 40
0.6
176
     1
 41
30.0
176
     1
 63
     7
421
 16777215
176
     1
 74
     2
176
     1
 91
        2
176
     1
 64
     7
176
     1
 65
   257
176
     1
 75
     2
176
     1
175
     1
176
     1
 42
40.0
176
     1
 92
        0
176
     1
 66
   257
176
     1
 43
1.0
176
     1
 76
     1
176
     1
 77
     6
176
     1
 78
     2
176
     1
 67
     7
176
     1
 79
     3
176
     1
170
     0
176
     1
171
     0
176
     1
290
     0
176
     1
 93
        1
176
     1
 44
0.0
176
     1
173
     0
176
     1
  0
VISUALSTYLE
  5
D28
102
{ACAD_REACTORS
330
C55
102
}
330
C55
100
AcDbVisualStyle
  2
JitterOff
 70
    20
177
     2
291
     1
 71
     2
176
     0
 72
     2
176
     0
 73
     0
176
     0
 90
        0
176
     0
 40
0.6
176
     0
 41
30.0
176
     0
 63
     7
421
 16777215
176
     0
 74
     1
176
     0
 91
        4
176
     0
 64
     7
176
     0
 65
   257
176
     0
 75
     1
176
     0
175
     1
176
     0
 42
1.0
176
     0
 92
       10
176
     2
 66
     7
176
     0
 43
1.0
176
     0
 76
     1
176
     0
 77
     6
176
     0
 78
     2
176
     0
 67
     7
176
     0
 79
     5
176
     0
170
     0
176
     0
171
     0
176
     0
290
     0
176
     0
 93
        1
176
     0
 44
0.0
176
     0
173
     0
176
     0
  0
VISUALSTYLE
  5
C63
102
{ACAD_REACTORS
330
C55
102
}
330
C55
100
AcDbVisualStyle
  2
Linepattern
 70
    14
177
     2
291
     1
 71
     2
176
     1
 72
     2
176
     1
 73
     0
176
     1
 90
        0
176
     1
 40
0.6
176
     1
 41
30.0
176
     1
 63
     7
421
 16777215
176
     1
 74
     1
176
     1
 91
        4
176
     1
 64
     7
176
     1
 65
   257
176
     1
 75
     7
176
     1
175
     7
176
     1
 42
1.0
176
     1
 92
        8
176
     1
 66
     7
176
     1
 43
1.0
176
     1
 76
     1
176
     1
 77
     6
176
     1
 78
     2
176
     1
 67
     7
176
     1
 79
     5
176
     1
170
     0
176
     1
171
     0
176
     1
290
     0
176
     1
 93
        1
176
     1
 44
0.0
176
     1
173
     0
176
     1
  0
VISUALSTYLE
  5
D29
102
{ACAD_REACTORS
330
C55
102
}
330
C55
100
AcDbVisualStyle
  2
OverhangOff
 70
    21
177
     2
291
     1
 71
     2
176
     0
 72
     2
176
     0
 73
     0
176
     0
 90
        0
176
     0
 40
0.6
176
     0
 41
30.0
176
     0
 63
     7
421
 16777215
176
     0
 74
     1
176
     0
 91
        4
176
     0
 64
     7
176
     0
 65
   257
176
     0
 75
     1
176
     0
175
     1
176
     0
 42
1.0
176
     0
 92
        9
176
     2
 66
     7
176
     0
 43
1.0
176
     0
 76
     1
176
     0
 77
     6
176
     0
 78
     2
176
     0
 67
     7
176
     0
 79
     5
176
     0
170
     0
176
     0
171
     0
176
     0
290
     0
176
     0
 93
        1
176
     0
 44
0.0
176
     0
173
     0
176
     0
  0
VISUALSTYLE
  5
C5F
102
{ACAD_REACTORS
330
C55
102
}
330
C55
100
AcDbVisualStyle
  2
Realistic
 70
     8
177
     2
291
     0
 71
     2
176
     1
 72
     2
176
     1
 73
     0
176
     1
 90
        0
176
     1
 40
0.6
176
     1
 41
30.0
176
     1
 63
     7
421
 16777215
176
     1
 74
     1
176
     1
 91
        0
176
     1
 64
     7
176
     1
 65
   257
176
     1
 75
     1
176
     1
175
     1
176
     1
 42
1.0
176
     1
 92
        8
176
     1
 66
     8
424
  7895160
176
     1
 43
1.0
176
     1
 76
     1
176
     1
 77
     6
176
     1
 78
     2
176
     1
 67
     7
176
     1
 79
     5
176
     1
170
     0
176
     1
171
     0
176
     1
290
     0
176
     1
 93
       13
176
     1
 44
0.0
176
     1
173
     0
176
     1
  0
VISUALSTYLE
  5
D27
102
{ACAD_REACTORS
330
C55
102
}
330
C55
100
AcDbVisualStyle
  2
Shaded
 70
    27
177
     2
291
     0
 71
     2
176
     1
 72
     2
176
     1
 73
     1
176
     1
 90
        2
176
     1
 40
0.6
176
     1
 41
30.0
176
     1
 63
     7
421
 16777215
176
     1
 74
     0
176
     1
 91
        4
176
     1
 64
     7
176
     1
 65
   257
176
     1
 75
     1
176
     1
175
     1
176
     1
 42
1.0
176
     1
 92
        8
176
     1
 66
   257
176
     1
 43
1.0
176
     1
 76
     1
176
     1
 77
     6
176
     1
 78
     2
176
     1
 67
     8
425
  7895160
176
     1
 79
     3
176
     1
170
     0
176
     1
171
     0
176
     1
290
     0
176
     1
 93
        5
176
     1
 44
0.0
176
     1
173
     0
176
     1
  0
VISUALSTYLE
  5
D26
102
{ACAD_REACTORS
330
C55
102
}
330
C55
100
AcDbVisualStyle
  2
Shaded with edges
 70
    26
177
     2
291
     0
 71
     2
176
     1
 72
     2
176
     1
 73
     1
176
     1
 90
        2
176
     1
 40
0.6
176
     1
 41
30.0
176
     1
 63
     7
421
 16777215
176
     1
 74
     1
176
     1
 91
       10
176
     1
 64
     7
176
     1
 65
   257
176
     1
 75
     2
176
     1
175
     1
176
     1
 42
1.0
176
     1
 92
        8
176
     1
 66
   257
176
     1
 43
1.0
176
     1
 76
     1
176
     1
 77
     6
176
     1
 78
     2
176
     1
 67
     7
176
     1
 79
     3
176
     1
170
     0
176
     1
171
     0
176
     1
290
     0
176
     1
 93
        5
176
     1
 44
0.0
176
     1
173
     0
176
     1
  0
VISUALSTYLE
  5
D23
102
{ACAD_REACTORS
330
C55
102
}
330
C55
100
AcDbVisualStyle
  2
Shades of Gray
 70
    23
177
     2
291
     0
 71
     2
176
     1
 72
     2
176
     1
 73
     3
176
     1
 90
        0
176
     1
 40
0.6
176
     1
 41
30.0
176
     1
 63
     7
421
 16777215
176
     1
 74
     2
176
     1
 91
        2
176
     1
 64
     7
176
     1
 65
     7
176
     1
 75
     1
176
     1
175
     1
176
     1
 42
40.0
176
     1
 92
        8
176
     1
 66
     7
176
     1
 43
1.0
176
     1
 76
     1
176
     1
 77
     6
176
     1
 78
     2
176
     1
 67
     7
176
     1
 79
     3
176
     1
170
     0
176
     1
171
     0
176
     1
290
     0
176
     1
 93
        1
176
     1
 44
0.0
176
     1
173
     0
176
     1
  0
VISUALSTYLE
  5
D24
102
{ACAD_REACTORS
330
C55
102
}
330
C55
100
AcDbVisualStyle
  2
Sketchy
 70
    24
177
     2
291
     0
 71
     1
176
     1
 72
     2
176
     1
 73
     2
176
     1
 90
        0
176
     1
 40
0.6
176
     1
 41
30.0
176
     1
 63
     7
421
 16777215
176
     1
 74
     2
176
     1
 91
        2
176
     1
 64
     7
176
     1
 65
     7
176
     1
 75
     1
176
     1
175
     1
176
     1
 42
40.0
176
     1
 92
       11
176
     1
 66
     7
176
     1
 43
1.0
176
     1
 76
     1
176
     1
 77
     6
176
     1
 78
     2
176
     1
 67
     7
176
     1
 79
     6
176
     1
170
     0
176
     1
171
     0
176
     1
290
     0
176
     1
 93
        1
176
     1
 44
0.0
176
     1
173
     0
176
     1
  0
VISUALSTYLE
  5
C62
102
{ACAD_REACTORS
330
C55
102
}
330
C55
100
AcDbVisualStyle
  2
Thicken
 70
    13
177
     2
291
     1
 71
     2
176
     1
 72
     2
176
     1
 73
     0
176
     1
 90
        0
176
     1
 40
0.6
176
     1
 41
30.0
176
     1
 63
     7
421
 16777215
176
     1
 74
     1
176
     1
 91
        4
176
     1
 64
     7
176
     1
 65
   257
176
     1
 75
     1
176
     1
175
     1
176
     1
 42
1.0
176
     1
 92
       12
176
     1
 66
     7
176
     1
 43
1.0
176
     1
 76
     1
176
     1
 77
     6
176
     1
 78
     2
176
     1
 67
     7
176
     1
 79
     5
176
     1
170
     0
176
     1
171
     0
176
     1
290
     0
176
     1
 93
        1
176
     1
 44
0.0
176
     1
173
     0
176
     1
  0
VISUALSTYLE
  5
D21
102
{ACAD_REACTORS
330
C55
102
}
330
C55
100
AcDbVisualStyle
  2
Wireframe
 70
     5
177
     2
291
     0
 71
     0
176
     1
 72
     2
176
     1
 73
     0
176
     1
 90
        0
176
     1
 40
0.6
176
     1
 41
30.0
176
     1
 63
     7
421
 16777215
176
     1
 74
     1
176
     1
 91
        4
176
     1
 64
     7
176
     1
 65
   257
176
     1
 75
     1
176
     1
175
     1
176
     1
 42
1.0
176
     1
 92
        0
176
     1
 66
   257
176
     1
 43
1.0
176
     1
 76
     1
176
     1
 77
     6
176
     1
 78
     2
176
     1
 67
     7
176
     1
 79
     3
176
     1
170
     0
176
     1
171
     0
176
     1
290
     0
176
     1
 93
        1
176
     1
 44
0.0
176
     1
173
     0
176
     1
  0
VISUALSTYLE
  5
D25
102
{ACAD_REACTORS
330
C55
102
}
330
C55
100
AcDbVisualStyle
  2
X-Ray
 70
    25
177
     2
291
     0
 71
     2
176
     1
 72
     2
176
     1
 73
     1
176
     1
 90
        1
176
     1
 40
0.5
176
     1
 41
30.0
176
     1
 63
     7
421
 16777215
176
     1
 74
     1
176
     1
 91
        0
176
     1
 64
     7
176
     1
 65
   257
176
     1
 75
     1
176
     1
175
     1
176
     1
 42
1.0
176
     1
 92
        8
176
     1
 66
     7
176
     1
 43
1.0
176
     1
 76
     1
176
     1
 77
     6
176
     1
 78
     2
176
     1
 67
     7
176
     1
 79
     3
176
     1
170
     0
176
     1
171
     0
176
     1
290
     0
176
     1
 93
       13
176
     1
 44
0.0
176
     1
173
     0
176
     1
  0
DICTIONARYVAR
  5
D4A
102
{ACAD_REACTORS
330
C30
102
}
330
C30
100
DictionaryVariables
280
     0
  1
1:1
  0
DICTIONARYVAR
  5
D48
102
{ACAD_REACTORS
330
C30
102
}
330
C30
100
DictionaryVariables
280
     0
  1
STANDARD
  0
DICTIONARYVAR
  5
C31
102
{ACAD_REACTORS
330
C30
102
}
330
C30
100
DictionaryVariables
280
     0
  1
STANDARD
  0
DICTIONARYVAR
  5
C4F
102
{ACAD_REACTORS
330
C30
102
}
330
C30
100
DictionaryVariables
280
     0
  1
1
  0
DICTIONARYVAR
  5
D4C
102
{ACAD_REACTORS
330
C30
102
}
330
C30
100
DictionaryVariables
280
     0
  1
1
  0
DICTIONARYVAR
  5
D4D
102
{ACAD_REACTORS
330
C30
102
}
330
C30
100
DictionaryVariables
280
     0
  1
15
  0
DICTIONARYVAR
  5
D4B
102
{ACAD_REACTORS
330
C30
102
}
330
C30
100
DictionaryVariables
280
     0
  1
0
  0
DICTIONARYVAR
  5
D49
102
{ACAD_REACTORS
330
C30
102
}
330
C30
100
DictionaryVariables
280
     0
  1
0
  0
DICTIONARYVAR
  5
C50
102
{ACAD_REACTORS
330
C30
102
}
330
C30
100
DictionaryVariables
280
     0
  1

  0
ACAD_PROXY_OBJECT
  5
CC5
102
{ACAD_REACTORS
330
CC4
102
}
330
CC4
100
AcDbProxyObject
 90
      499
 91
      549
 95
    65563
 70
     0
162
                 0
161
                84
310
90100057356C1D8C406AAC
 94
        0
  0
DICTIONARY
  5
CCF
102
{ACAD_REACTORS
330
CC4
102
}
330
CC4
100
AcDbDictionary
281
     1
  3
ANSI
350
CD0
  0
XRECORD
  5
CEF
102
{ACAD_REACTORS
330
CC4
102
}
330
CC4
100
AcDbXrecord
280
     1
 90
-1023410169
  0
ACAD_PROXY_OBJECT
  5
C75
330
0
100
AcDbProxyObject
 90
      499
 91
      512
 95
    65563
 70
     0
162
               234
311
43904010C01340114014C016401340108013C0130014C01240168011400C
161
                34
310
000101420C
330
C72
 94
        0
  0
ACAD_PROXY_OBJECT
  5
C77
330
0
100
AcDbProxyObject
 90
      499
 91
      514
 95
    65563
 70
     0
162
                74
311
41108013C013400C400C
161
                46
310
00010100AC00
330
C72
330
0
330
0
 94
        0
  0
ACAD_PROXY_OBJECT
  5
C7D
330
0
100
AcDbProxyObject
 90
      499
 91
      520
 95
    65563
 70
     0
162
               562
311
41190018401D001940109310031002E0030002E00360032002E00300041190018401D001940109310031002E0030002E00360032002E003000419040138014C012400CC00C400C
161
                92
310
00010101010140501000096C
330
C72
330
C7E
330
C82
 94
        0
  0
ACAD_PROXY_OBJECT
  5
C7E
330
0
100
AcDbProxyObject
 90
      499
 91
      521
 95
    65563
 70
     0
162
                 0
161
                48
310
0001901422009A
330
C72
330
C7F
 94
        0
  0
ACAD_PROXY_OBJECT
  5
C7F
330
0
100
AcDbProxyObject
 90
      499
 91
      522
 95
    65563
 70
     0
162
                 0
161
                48
310
0001AA000000D7
330
C72
330
C21
330
C80
330
0
 94
        0
  0
ACAD_PROXY_OBJECT
  5
C80
330
0
100
AcDbProxyObject
 90
      499
 91
      523
 95
    65563
 70
     0
162
                 0
161
                28
310
0001AAAC
330
C72
 94
        0
  0
ACAD_PROXY_OBJECT
  5
C83
330
0
100
AcDbProxyObject
 90
      499
 91
      512
 95
    65563
 70
     0
162
               138
311
42104013401200130010C01040130010C00C
161
                34
310
000101404C
330
C72
 94
        0
  0
ACAD_PROXY_OBJECT
  5
C84
330
0
100
AcDbProxyObject
 90
      499
 91
      512
 95
    65563
 70
     0
162
               170
311
429040134014801140154014C011401100124013400C
161
                34
310
000101404C
330
C72
 94
        0
  0
ACAD_PROXY_OBJECT
  5
C85
330
0
100
AcDbProxyObject
 90
      499
 91
      512
 95
    65563
 70
     0
162
               202
311
431040134014C0114010C01500124013C013801100124013400C
161
                26
310
0001018C
330
C72
 94
        0
  0
ACAD_PROXY_OBJECT
  5
C86
330
0
100
AcDbProxyObject
 90
      499
 91
      512
 95
    65563
 70
     0
162
               170
311
429040134015801400108013C014801100114014800C
161
                34
310
000101404C
330
C72
 94
        0
  0
ACAD_PROXY_OBJECT
  5
C87
330
0
100
AcDbProxyObject
 90
      499
 91
      512
 95
    65563
 70
     0
162
               170
311
4290401340110015C011C010C013C0130013C014800C
161
                26
310
0001018C
330
C72
 94
        0
  0
ACAD_PROXY_OBJECT
  5
C88
330
0
100
AcDbProxyObject
 90
      499
 91
      512
 95
    65563
 70
     0
162
               218
311
435040134015801240114015C01480114011801480114014C012000C
161
                34
310
000101404C
330
C72
 94
        0
  0
ACAD_PROXY_OBJECT
  5
C89
330
0
100
AcDbProxyObject
 90
      499
 91
      512
 95
    65563
 70
     0
162
               266
311
441040134010401380138013C01500114014001480114014C011401480158011400C
161
                34
310
000101404C
330
C72
 94
        0
  0
ACAD_PROXY_OBJECT
  5
C8A
330
0
100
AcDbProxyObject
 90
      499
 91
      512
 95
    65563
 70
     0
162
               266
311
441040134010401540150013C01100124013401040148014801040138011C011400C
161
                34
310
000101404C
330
C72
 94
        0
  0
ACAD_PROXY_OBJECT
  5
C8B
330
0
100
AcDbProxyObject
 90
      499
 91
      512
 95
    65563
 70
     0
162
               186
311
42D04013401140160015001480114011801100124013400C
161
                26
310
0001018C
330
C72
 94
        0
  0
ACAD_PROXY_OBJECT
  5
C8C
330
0
100
AcDbProxyObject
 90
      499
 91
      512
 95
    65563
 70
     0
162
               186
311
42D040134015001040140010401380138013C0150011400C
161
                34
310
000101404C
330
C72
 94
        0
  0
ACAD_PROXY_OBJECT
  5
C8D
330
0
100
AcDbProxyObject
 90
      499
 91
      512
 95
    65563
 70
     0
162
               138
311
421040134010401540150013C010C013000C
161
                34
310
000101404C
330
C72
 94
        0
  0
ACAD_PROXY_OBJECT
  5
C8E
330
0
100
AcDbProxyObject
 90
      499
 91
      512
 95
    65563
 70
     0
162
               138
311
421040134010C0130011801140104015000C
161
                34
310
000101414C
330
C72
 94
        0
  0
ACAD_PROXY_OBJECT
  5
C8F
330
0
100
AcDbProxyObject
 90
      499
 91
      512
 95
    65563
 70
     0
162
               138
311
421040134010C0130015801240114015C00C
161
                34
310
0001014FCC
330
C72
 94
        0
  0
ACAD_PROXY_OBJECT
  5
C90
330
0
100
AcDbProxyObject
 90
      499
 91
      512
 95
    65563
 70
     0
162
               218
311
4350401340120012401100114016801140148013C01100124013400C
161
                34
310
000101404C
330
C72
 94
        0
  0
ACAD_PROXY_OBJECT
  5
C91
330
0
100
AcDbProxyObject
 90
      499
 91
      512
 95
    65563
 70
     0
162
               170
311
429040134012001040150010C01200124014C013C00C
161
                34
310
000101404C
330
C72
 94
        0
  0
ACAD_PROXY_OBJECT
  5
C92
330
0
100
AcDbProxyObject
 90
      499
 91
      512
 95
    65563
 70
     0
162
               234
311
439040134014C01240138011C0130011401200104015001300104016400C
161
                26
310
0001018C
330
C72
 94
        0
  0
ACAD_PROXY_OBJECT
  5
C93
330
0
100
AcDbProxyObject
 90
      499
 91
      512
 95
    65563
 70
     0
162
               186
311
42D0401340110015C011C0118013001100124014C014000C
161
                26
310
0001018C
330
C72
 94
        0
  0
ACAD_PROXY_OBJECT
  5
C94
330
0
100
AcDbProxyObject
 90
      499
 91
      512
 95
    65563
 70
     0
162
               138
311
421040134010401540150013C0120013800C
161
                26
310
0001018C
330
C72
 94
        0
  0
ACAD_PROXY_OBJECT
  5
C95
330
0
100
AcDbProxyObject
 90
      499
 91
      512
 95
    65563
 70
     0
162
               154
311
42504013401200138010C013C01540138015000C
161
                34
310
000101404C
330
C72
 94
        0
  0
ACAD_PROXY_OBJECT
  5
C96
330
0
100
AcDbProxyObject
 90
      499
 91
      512
 95
    65563
 70
     0
162
               138
311
4210401340120013801400148013C012800C
161
                34
310
000101404C
330
C72
 94
        0
  0
ACAD_PROXY_OBJECT
  5
C97
330
0
100
AcDbProxyObject
 90
      499
 91
      512
 95
    65563
 70
     0
162
               138
311
42104013401200138015001640140011400C
161
                34
310
00010141CC
330
C72
 94
        0
  0
ACAD_PROXY_OBJECT
  5
C98
330
0
100
AcDbProxyObject
 90
      499
 91
      512
 95
    65563
 70
     0
162
               138
311
42104013401200138015801240114015C00C
161
                34
310
00010143CC
330
C72
 94
        0
  0
ACAD_PROXY_OBJECT
  5
C99
330
0
100
AcDbProxyObject
 90
      499
 91
      512
 95
    65563
 70
     0
162
               218
311
435040134014C0114010C01500124013C0138010C013C0140016400C
161
                26
310
0001018C
330
C72
 94
        0
  0
ACAD_PROXY_OBJECT
  5
C9A
330
0
100
AcDbProxyObject
 90
      499
 91
      512
 95
    65563
 70
     0
162
               138
311
421040134010C013001400148013C012800C
161
                34
310
00010140CC
330
C72
 94
        0
  0
ACAD_PROXY_OBJECT
  5
C9B
330
0
100
AcDbProxyObject
 90
      499
 91
      524
 95
    65563
 70
     0
162
               234
311
439040134010401540150013C012001040150010C01200148013C015000C
161
                90
310
0001010000000000000B900C
330
C72
 94
        0
  0
ACAD_PROXY_OBJECT
  5
C9C
330
0
100
AcDbProxyObject
 90
      499
 91
      512
 95
    65563
 70
     0
162
               234
311
439040134010401540150013C012001040150010C012001100114015000C
161
                34
310
000101404C
330
C72
 94
        0
  0
ACAD_PROXY_OBJECT
  5
CA9
330
0
100
AcDbProxyObject
 90
      499
 91
      533
 95
    65563
 70
     0
162
               212
311
421040134010C01540148014C01500110010441004E0053004900C
161
                32
310
0001010100
330
C72
 94
        0
  0
ACAD_PROXY_OBJECT
  5
CAB
330
0
100
AcDbProxyObject
 90
      499
 91
      535
 95
    65563
 70
     0
162
              1192
311
4795C0194019000800128018401B8008000C800CC008000C800C400E800C000D400E800C400D4008000C800C000C000E0008000A001540150010C00A40109310031002E0030002E00360032002E0030004615C0194019000800128018401B8008000C800CC008000C400D800E800C000DC00E800C000C4008000C800C000C0
311
00E00109310031002E0030002E00360032002E00300000
161
               114
310
0001000000009AA6A9AA404040404C
330
C72
330
CAC
330
CAD
330
CAF
330
0
 94
        0
  0
ACAD_PROXY_OBJECT
  5
CAC
330
0
100
AcDbProxyObject
 90
      499
 91
      536
 95
    65563
 70
     0
162
                 0
161
                70
310
0001AAA80820000000
330
C72
330
CAC
330
CAC
 94
        0
  0
ACAD_PROXY_OBJECT
  5
CAD
330
0
100
AcDbProxyObject
 90
      499
 91
      537
 95
    65563
 70
     0
162
                 0
161
                48
310
00010000000069
330
C72
330
0
330
CAE
330
0
330
0
 94
        0
  0
ACAD_PROXY_OBJECT
  5
CAE
330
0
100
AcDbProxyObject
 90
      499
 91
      538
 95
    65563
 70
     0
162
                 0
161
                40
310
000100AAAA00
330
C72
330
0
 94
        0
  0
ACAD_PROXY_OBJECT
  5
CB4
330
0
100
AcDbProxyObject
 90
      499
 91
      533
 95
    65563
 70
     0
162
               276
311
431040104010C013C01340140011001180138010401340114010443004F004D005000C
161
                32
310
0001010100
330
C72
 94
        0
  0
ACAD_PROXY_OBJECT
  5
CB5
330
0
100
AcDbProxyObject
 90
      499
 91
      533
 95
    65563
 70
     0
162
               340
311
4390401040118013C0130011001140148011001180138010401340114010646006F006C00640065007200C
161
                32
310
0001010100
330
C72
 94
        0
  0
ACAD_PROXY_OBJECT
  5
CB6
330
0
100
AcDbProxyObject
 90
      499
 91
      533
 95
    65563
 70
     0
162
               276
311
431040104010401380138013C01100118013801040134011401042800410056002900C
161
                32
310
0001010100
330
C72
 94
        0
  0
ACAD_PROXY_OBJECT
  5
CB7
330
0
100
AcDbProxyObject
 90
      499
 91
      533
 95
    65563
 70
     0
162
               756
311
439040104010C013C01340140015801240114015C01300124014C0150012054006F0070000A00460072006F006E0074000A00520069006700680074000A004C006500660074000A0042006F00740074006F006D000A004100750078003100C
161
                32
310
0001010100
330
C72
 94
        0
  0
ACAD_PROXY_OBJECT
  5
CB8
330
0
100
AcDbProxyObject
 90
      499
 91
      512
 95
    65563
 70
     0
162
               234
311
439040134014C014C0150014801040130015C01040164014C013C013800C
161
                26
310
0001018C
330
C72
 94
        0
  0
ACAD_PROXY_OBJECT
  5
CBD
330
0
100
AcDbProxyObject
 90
      499
 91
      543
 95
    65563
 70
     0
162
                 0
161
                32
310
0001000000
330
C72
340
CBA
330
CBF
330
CBA
 94
        0
  0
ACAD_PROXY_OBJECT
  5
CBE
330
0
100
AcDbProxyObject
 90
      499
 91
      544
 95
    65563
 70
     0
162
                 0
161
                18
310
00018C
330
C72
 94
        0
  0
ACAD_PROXY_OBJECT
  5
CBF
330
0
100
AcDbProxyObject
 90
      499
 91
      545
 95
    65563
 70
     0
162
                90
311
4150C011800E000CC00C800C
161
                80
310
0001014140155005540000
330
C72
330
CBD
330
CBE
 94
        0
  0
ACAD_PROXY_OBJECT
  5
CC0
330
0
100
AcDbProxyObject
 90
      499
 91
      546
 95
    65563
 70
     0
162
                 0
161
               178
310
000100AAAAAAA2C68601691BBD926D83C90195F0A788CC
330
C72
330
CBF
 94
        0
  0
ACAD_PROXY_OBJECT
  5
CC1
330
0
100
AcDbProxyObject
 90
      499
 91
      547
 95
    65563
 70
     0
162
                 0
161
               108
310
0001901422000000000000AAAAAC
330
C72
330
CC2
330
CC2
330
CC2
330
CC2
330
CC2
330
0
 94
        0
  0
ACAD_PROXY_OBJECT
  5
CC2
330
0
100
AcDbProxyObject
 90
      499
 91
      548
 95
    65563
 70
     0
162
                 0
161
                51
310
00010000AAAA8C
330
C72
330
CC1
330
CBF
 94
        0
  0
DICTIONARY
  5
C6C
102
{ACAD_REACTORS
330
C6B
102
}
330
C6B
100
AcDbDictionary
281
     1
  3
DWGSETTINGS
350
C6D
  3
TRANSSETTINGS
350
C6E
  0
ACAD_PROXY_OBJECT
  5
CD1
102
{ACAD_REACTORS
330
C6B
102
}
330
C6B
100
AcDbProxyObject
 90
      499
 91
      556
 95
    65563
 70
     0
162
             15824
311
404C0010441004D005F0030009013100411040134017C00C402404C8010441004D005F0032009013300411040134017C00CC02404D0010441004D005F0034009013500411040134017C00D402404D8010441004D005F0036009013700411040134017C00DC02404E0010441004D005F0038009013900411040134017C00E40
311
2408C80104010541004D005F003100300090234004100415040134017C00C400C402409240140010541004D005F003100320090230004E00415040134017C00C0013802408C40138010541004D005F0031004E0090232004E00415040134017C00C8013802408CC0138010541004D005F0033004E0090234004E0041504013
311
4017C00D0013802408D40138010541004D005F0035004E0090236004E00415040134017C00D8013802408DC0138010541004D005F0037004E0090238004E00415040134017C00E0013802408E40138010541004D005F0039004E00903320041004E00419040134017C00C400C001380240CD001040138010641004D005F003
311
10031004E00903490050004E00419040134017C00C400C80138024112C013001240138010541004D005F0043004C0090449004E0046004F00421040134017C01400104014801140118024154801040120013400D4010641004D005F0042004F0052009045600490045005700421040134017C015801240114015C014C02419
311
0801140120012401380110010641004D005F0049004E00560090554005200410049004C00415040134017C015001480240D2001240110010641004D005F00480049004400903560049005300419040134017C01580124014C024194001040148011001240134010941004D005F00500041005200440049004D009065200450
311
04600440049004D00425040134017C01480114011801100124013402411080120013801580101390041508012001380158014C010642004500480049004E00440041108013C014800C801055200410048004D00350041108013C014800CC01055200410048004D00350041108013C014800D401055200410048004D0035004
311
110C0104013000C8010134004110C0104013000CC010134004110C0104013000D4010134004110C0104013000DC010134004110C011401380138010137004110C01140138015C010137004110C01300124013801044B004C0049004E004110C013C013800C4010130004110C013C013800C8010131004110C013C013800CC0
311
10132004110C013C013800D00101320041110011401500104010134004111001240104011C010135004111001240130012401013500411100124013401400106500041005200440049004D00411100124013401480106520045004600440049004D00411180114013401380101380041518011401340140013801013800415
311
1801140134014C01400102340041004151801140134014C015001023400410041518011401340158013801013200415180114013401580150010132004112001040150010C0101380041120012401100138010133004112001240110015C01013300411200130012401380101340041120013C010C01380101370041120013
311
C010C015C010137004112401380118013C010449004E0046004F00411300114010401100101350041938017C0108012001380158010239004E0041938017C010C013C013800C4010230004E0041938017C010C013C013800C8010231004E0041938017C010C013C013800CC010232004E0041938017C010C013C013800D001
311
0232004E0041938017C010C011401380138010237004E0041938017C010C01140138015C010237004E0041938017C0110012401300124010235004E0041938017C012001040150010C010238004E0041938017C0120012401100138010233004E0041938017C012001240110015C010233004E0041938017C0130011401040
311
110010235004E0041938017C0138011C012401400103490050004E0041938017C01400120010401380103340041004E0041938017C0150010C013C0138010230004E0041938017C0150012001300124010234004E0041938017C0150013001140138010230004E0041938017C01580140013001240103320041004E0041138
311
011C01240140010249005000411400104013000C801055200410048004D003500411400104013000CC01055200410048004D003500411400104013000D401055200410048004D0035004114001200104013801023400410041140013C014C01380101350041148010C011C01380101370041148010C011C015C01013700411
311
4C01080148012C010134004114C0114010C0150010134004114C0164010800CC0101350041134014C016401340101350041150010C013C0138010130004115001200130012401013400411500124015000C801055200410048004D003500411500124015000CC01055200410048004D003500411500124015000D401055200
311
410048004D0035004115001300114013801013000415500148010401240130010554005200410049004C004115001480130012401013400411500160015000C401013600411500160015000C801013600411500160015000CC01013600411500160015000D401013600411500160015000DC010136004115801240114015C0
311
1045600490045005700411580114011001200103480049004400411580114011001580103560049005300411580140013001240102320041004116801240168010401013400404FC02FD
161
              8848
310
4190349201C00030C011E44203800030C011E44201400030C011E44201800030C010FA00C00030C010FA00C00030C010FA00800030C011EA01000030C010FA00400030C010FA3F400030C0241201C00030C011EA00C00030C010FA01C00030C011E40A01C00030C011EA03800030C011EA01400030C011EA01800030C010FA
310
00C00030C010FA00C00030C010FA00800030C011EA01000030C010FA00400030C010FA3F400030C0241201C00030C011EA00C00030C010FA01C00030C011E40A00400030C010F42601000030C010F42E01C00030C011E42600400030C010F42E3F400030C0243600C00030C010F42601C00030C010F42601C00030C011E426
310
00C00030C010F42601000030C010F425538000000C0003FFFFFFFE8000000C0003FFFFFFFE8010000C30043E8020000C30047A8000000C0003FFFFFFFE8000000C0003FFFFFFFE8020000C30047A8070000C30047A81E0000C3004F28000000C0003FFFFFFFE8000000C0003FFFFFFFE8000000C0003FFFFFFFE8000000C00
310
03FFFFFFFD038000000C0003FFFFFFFD038000000C0003FFFFFFFD038000000C0003FFFFFFFD038000000C0003FFFFFFFE8000000C0003FFFFFFFE8000000C0003FFFFFFFE8000000C0003FFFFFFFE8000000C0003FFFFFFFE8000000C0003FFFFFFFE8030000C3003FFFFFFFE8000000C0003FFFFFFFE8030000C30043E80
310
00000C0003FFFFFFFE8030000C30043E8000000C0003FFFFFFFD018000000C0003FFFFFFFD038000000C0003FFFFFFFD038000000C0003FFFFFFFD018000000C0003FFFFFFFE8000000C0003FFFFFFFE8000000C0003FFFFFFFE8000000C0003FFFFFFFE8000000C0003FFFFFFFE8000000C0003FFFFFFFD038000000C0003
310
FFFFFFFD038000000C0003FFFFFFFD038000000C0003FFFFFFFD038000000C0003FFFFFFFE8000000C0003FFFFFFFE8000000C0003FFFFFFFE8000000C0003FFFFFFFD018000000C0003FFFFFFFD038000000C0003FFFFFFFD038000000C0003FFFFFFFE8000000C0003FFFFFFFE8000000C0003FFFFFFFE8000000C0003FF
310
FFFFFD038000000C0003FFFFFFFD018000000C0003FFFFFFFD038000000C0003FFFFFFFE8000000C0003FFFFFFFE8010000C30043E8020000C30047A8000000C0003FFFFFFFE8000000C0003FFFFFFFE8000000C0003FFFFFFFE8000000C0003FFFFFFFE8000000C0003FFFFFFFE8070000C300479018000000C0003FFFFFF
310
FD018020000C30047A8020000C30047A8000000C0003FFFFFFFD038000000C0003FFFFFFFD018010000C30043E8020000C30047A8000000C0003FFFFFFFE8000000C0003FFFFFFFD038000000C0003FFFFFFFE8000000C0003FFFFFFFD018030000C30043E8030000C30043E8000000C0003FFFFFFFE8070000C30047A81E0
310
000C3004F28000000C0003FFFFFFFE8000000C0003FFFFFFFD028000000C0003FFFFFFFD028000000C0003FFFFFFFE8000000C0003FFFFFFFD01AAA3F400030C010A4391E41D1E4190F4151E4110F40D0F4091E4050F4793C7F600
340
14
340
14
340
14
340
56
340
14
340
14
340
14
340
57
340
14
340
14
340
57
340
C9D
340
14
340
14
340
14
340
14
340
56
340
14
340
14
340
14
340
57
340
14
340
14
340
57
340
C9D
340
14
340
CD5
340
14
340
14
340
14
340
14
340
14
340
56
340
14
340
14
340
14
340
13
340
13
340
13
340
13
340
13
340
13
340
13
340
13
340
13
340
CDB
340
13
340
13
340
13
340
13
340
13
340
13
340
13
340
13
340
13
340
13
340
13
340
13
340
13
340
14
340
13
340
13
340
13
340
13
340
CDC
340
13
340
13
340
CDB
340
13
340
13
340
13
340
13
340
13
340
13
340
13
340
13
340
CDB
340
13
340
13
340
13
340
CDC
340
13
340
13
340
13
340
13
340
13
340
CDC
340
13
340
C9D
340
13
340
13
340
13
340
13
340
13
340
13
340
CDB
340
13
340
13
340
13
340
13
340
13
340
13
340
CDC
340
13
340
13
340
13
340
13
340
13
340
13
340
13
340
13
340
13
340
13
340
13
340
13
340
13
340
13
340
C9D
340
CDD
 94
        0
  0
ACAD_PROXY_OBJECT
  5
D09
102
{ACAD_REACTORS
330
D04
102
}
330
D04
100
AcDbProxyObject
 90
      499
 91
      574
 95
    65563
 70
     0
162
               434
311
451100124013401140138014C0124013C013800B00104013401100150017C00A8017C01100124013401012A00404A801012A00404A800C
161
                11
310
43EC
 94
        0
  0
ACAD_PROXY_OBJECT
  5
D08
102
{ACAD_REACTORS
330
D04
102
}
330
D04
100
AcDbProxyObject
 90
      499
 91
      574
 95
    65563
 70
     0
162
               290
311
404A8010B41004D005F004600450041002D0041004D005F002A00404A801012A00404A800C
161
                11
310
43EC
 94
        0
  0
ACAD_PROXY_OBJECT
  5
D05
102
{ACAD_REACTORS
330
D04
102
}
330
D04
100
AcDbProxyObject
 90
      499
 91
      574
 95
    65563
 70
     0
162
               194
311
4152001040150010C012001012A00404A801012A00404A800C
161
                11
310
43EC
 94
        0
  0
ACAD_PROXY_OBJECT
  5
D06
102
{ACAD_REACTORS
330
D04
102
}
330
D04
100
AcDbProxyObject
 90
      499
 91
      574
 95
    65563
 70
     0
162
              1026
311
41130012401380114012738002C0038004E002C002A002D0038002C002A002D0038004E002C0041004D005F0038002C0041004D005F0038004E002C002A002D0041004D005F0038002C002A002D0041004D005F0038004E00404A801012A00441240138014C01140148015000B0014C01500110014001040148015000C8011
311
000C
161
                11
310
43EC
 94
        0
  0
ACAD_PROXY_OBJECT
  5
D0A
102
{ACAD_REACTORS
330
D04
102
}
330
D04
100
AcDbProxyObject
 90
      499
 91
      574
 95
    65563
 70
     0
162
               290
311
40D040148010C010441004D005F003500404A801013200419240138014C01140148015000C
161
                11
310
43CC
 94
        0
  0
ACAD_PROXY_OBJECT
  5
D07
102
{ACAD_REACTORS
330
D04
102
}
330
D04
100
AcDbProxyObject
 90
      499
 91
      574
 95
    65563
 70
     0
162
              2034
311
5E104010C01340118010C0118014801040134011400B00104010C013401100104015001540134015001040148011C0114015000B00104010C0134011001040150015401340124011000B00104010C0134015C011401300110014C0164013400B00104010C0134014C015401480118014C0164013400B00104010C013401180
311
114010401500124011000B00104010C0134014001040148015001480114011800B00104010C01340108010401300130013C013C013800B0010401340110015001140110011C0114014C0164013400B001040134011C014C010C01480114015C010C01040130010C0150010401080130011401012A00404A801012A00404A80
311
0C
161
                11
310
43EC
 94
        0
  0
DICTIONARY
  5
D4E
330
C1D
100
AcDbDictionary
280
     1
281
     1
  3
ACAD_ROUNDTRIP_2008_TABLESTYLE_CELLSTYLEMAP
360
D4F
  0
ACAD_PROXY_OBJECT
  5
CD0
102
{ACAD_REACTORS
330
CCF
102
}
330
CCF
100
AcDbProxyObject
 90
      499
 91
      555
 95
    65563
 70
     0
162
              3516
311
411040138014C01240243904018C01B4014C01D401C801980150019401E001D0014C01D001900109410063006D0046004300460053007400640043504018C01B4015C019401B0019001A401B8019C014C01D001900108410063006D004900640053007400640042D04018C01B40110018401D001D401B4014C01D001900109
311
410063006D0042004F004D005300740064004410401B4019001D00110019401D0018401A401B0014C01E401B4014C01D00190011141006D0064007400530065006300740069006F006E00530079006D005300740064004450401B4019001D0010C019401B801D0019401C8013001A401B80194014C01D00190011141006D00
311
640074005400680072006500610064004C0069006E00650053007400640042D0401B4019001D0013801BC01D00194014C01D00190010B410063006D005400610070006500720053007400640042D04018C010401B4019C0130018401E4014C01D00190010B4100630041006D006700440069006D0053007400640044504018
311
C010401B4019C012001BC01B00194010C01A0018401C801D0014C01D00190010D4100630041006D0067005400690074006C006500530074006400C
161
               705
310
630B81E85EB51B8BE3F8030000C30040540600800030C0200800030C00B81E85EB51B8BE3F4882208120281202812028120281202812028120281202812028120281202812028120281202812028120280A04809FFFE7FFFCC
340
CDE
360
CDF
360
CE0
360
CE1
360
CE2
360
CE3
360
CE4
360
CE5
360
CE6
360
CE7
360
CE8
360
CE9
360
CEA
360
CF6
360
CF7
360
D02
360
D03
340
0
340
0
340
0
340
0
 94
        0
  0
ACAD_PROXY_OBJECT
  5
C6D
102
{ACAD_REACTORS
330
C6C
102
}
330
C6C
100
AcDbProxyObject
 90
      499
 91
      508
 95
    65563
 70
     0
162
              3560
311
42D10015C011C014C01140150015001240138011C014C0109430041004E00470041005200520041005900420CC00C001F000D000D401F000D800C00106430045004E0041004E004700424D000D401F000E400C001F000C400CC00D40106430045004E0044004900410041D0C01140138011001240104014C010B30002E0035
311
007C0031002E0030007C0031002E00350041D0C0114013801100124014C01500106430045004E004C0045004E004190C01140138013C01180118010943004C0049004E0041005200520041005900438C000B800C400C800D401F000C000B800C800D401F000C000B800D4010843004C0049004E00450054005900500041560
311
0130012401380114010944005700470055005300430041004C00450041D300104014C0150013C0108012801013000421340104012C0114015801240114015C010650005300430041004C00450041948011401580124014C0124010130004154C010C010401300114010331003A00310042550012401340114014C015001040
311
13401400107560045005200530049004F004E00414C400D400B800C000C001107B00440057004700530045005400540049004E004700530045004E0044007D0000
161
               548
310
40682A0A940000000000001C07E82A50000000000000601FA50000000000000701FA50000000000000701FA0A82A50A0A9FA040C008000105415280B1E646C97C99CD0505C
 94
        0
  0
ACAD_PROXY_OBJECT
  5
C6E
102
{ACAD_REACTORS
330
C6C
102
}
330
C6C
100
AcDbProxyObject
 90
      499
 91
      508
 95
    65563
 70
     0
162
              1382
311
43550014801040138014C014C01140150015001240138011C014C0112440052004100570049004E0047005400520041004E0053004C004100540049004F004E004353C01480124011C012401380104013001300164017C013C0138010A53004F0055005200430045004C0041004E00470040D1401380154010955005000520
311
0450053004500520056004500441EC0110015C011C014C01140150015001240138011C014C01140138011001F400
161
               126
310
4060C00800041801000020A0C0080000
 94
        0
  0
CELLSTYLEMAP
  5
D4F
102
{ACAD_REACTORS
330
D4E
102
}
330
D4E
100
AcDbCellStyleMap
 90
        3
300
CELLSTYLE
  1
TABLEFORMAT_BEGIN
 90
        5
170
     1
 91
        0
 92
    32768
 62
   257
 93
        1
300
CONTENTFORMAT
  1
CONTENTFORMAT_BEGIN
 90
        0
 91
        0
 92
        4
 93
        0
300

 40
0.0
140
1.0
 94
        5
 62
     0
340
10
144
0.25
309
CONTENTFORMAT_END
171
     0
 94
        6
 95
        1
302
GRIDFORMAT
  1
GRIDFORMAT_BEGIN
 90
        0
 91
        1
 62
     0
 92
       -2
340
0
 93
        0
 40
0.045
309
GRIDFORMAT_END
 95
        2
302
GRIDFORMAT
  1
GRIDFORMAT_BEGIN
 90
        0
 91
        1
 62
     0
 92
       -2
340
0
 93
        0
 40
0.045
309
GRIDFORMAT_END
 95
        4
302
GRIDFORMAT
  1
GRIDFORMAT_BEGIN
 90
        0
 91
        1
 62
     0
 92
       -2
340
0
 93
        0
 40
0.045
309
GRIDFORMAT_END
 95
        8
302
GRIDFORMAT
  1
GRIDFORMAT_BEGIN
 90
        0
 91
        1
 62
     0
 92
       -2
340
0
 93
        0
 40
0.045
309
GRIDFORMAT_END
 95
       16
302
GRIDFORMAT
  1
GRIDFORMAT_BEGIN
 90
        0
 91
        1
 62
     0
 92
       -2
340
0
 93
        0
 40
0.045
309
GRIDFORMAT_END
 95
       32
302
GRIDFORMAT
  1
GRIDFORMAT_BEGIN
 90
        0
 91
        1
 62
     0
 92
       -2
340
0
 93
        0
 40
0.045
309
GRIDFORMAT_END
309
TABLEFORMAT_END
  1
CELLSTYLE_BEGIN
 90
        1
 91
        1
300
_TITLE
309
CELLSTYLE_END
300
CELLSTYLE
  1
TABLEFORMAT_BEGIN
 90
        5
170
     1
 91
        0
 92
        0
 62
   257
 93
        1
300
CONTENTFORMAT
  1
CONTENTFORMAT_BEGIN
 90
        0
 91
        0
 92
        4
 93
        0
300

 40
0.0
140
1.0
 94
        5
 62
     0
340
10
144
0.18
309
CONTENTFORMAT_END
171
     0
 94
        6
 95
        1
302
GRIDFORMAT
  1
GRIDFORMAT_BEGIN
 90
        0
 91
        1
 62
     0
 92
       -2
340
0
 93
        0
 40
0.045
309
GRIDFORMAT_END
 95
        2
302
GRIDFORMAT
  1
GRIDFORMAT_BEGIN
 90
        0
 91
        1
 62
     0
 92
       -2
340
0
 93
        0
 40
0.045
309
GRIDFORMAT_END
 95
        4
302
GRIDFORMAT
  1
GRIDFORMAT_BEGIN
 90
        0
 91
        1
 62
     0
 92
       -2
340
0
 93
        0
 40
0.045
309
GRIDFORMAT_END
 95
        8
302
GRIDFORMAT
  1
GRIDFORMAT_BEGIN
 90
        0
 91
        1
 62
     0
 92
       -2
340
0
 93
        0
 40
0.045
309
GRIDFORMAT_END
 95
       16
302
GRIDFORMAT
  1
GRIDFORMAT_BEGIN
 90
        0
 91
        1
 62
     0
 92
       -2
340
0
 93
        0
 40
0.045
309
GRIDFORMAT_END
 95
       32
302
GRIDFORMAT
  1
GRIDFORMAT_BEGIN
 90
        0
 91
        1
 62
     0
 92
       -2
340
0
 93
        0
 40
0.045
309
GRIDFORMAT_END
309
TABLEFORMAT_END
  1
CELLSTYLE_BEGIN
 90
        2
 91
        1
300
_HEADER
309
CELLSTYLE_END
300
CELLSTYLE
  1
TABLEFORMAT_BEGIN
 90
        5
170
     1
 91
        0
 92
        0
 62
   257
 93
        1
300
CONTENTFORMAT
  1
CONTENTFORMAT_BEGIN
 90
        0
 91
        0
 92
        4
 93
        0
300

 40
0.0
140
1.0
 94
        2
 62
     0
340
10
144
0.18
309
CONTENTFORMAT_END
171
     0
 94
        6
 95
        1
302
GRIDFORMAT
  1
GRIDFORMAT_BEGIN
 90
        0
 91
        1
 62
     0
 92
       -2
340
0
 93
        0
 40
0.045
309
GRIDFORMAT_END
 95
        2
302
GRIDFORMAT
  1
GRIDFORMAT_BEGIN
 90
        0
 91
        1
 62
     0
 92
       -2
340
0
 93
        0
 40
0.045
309
GRIDFORMAT_END
 95
        4
302
GRIDFORMAT
  1
GRIDFORMAT_BEGIN
 90
        0
 91
        1
 62
     0
 92
       -2
340
0
 93
        0
 40
0.045
309
GRIDFORMAT_END
 95
        8
302
GRIDFORMAT
  1
GRIDFORMAT_BEGIN
 90
        0
 91
        1
 62
     0
 92
       -2
340
0
 93
        0
 40
0.045
309
GRIDFORMAT_END
 95
       16
302
GRIDFORMAT
  1
GRIDFORMAT_BEGIN
 90
        0
 91
        1
 62
     0
 92
       -2
340
0
 93
        0
 40
0.045
309
GRIDFORMAT_END
 95
       32
302
GRIDFORMAT
  1
GRIDFORMAT_BEGIN
 90
        0
 91
        1
 62
     0
 92
       -2
340
0
 93
        0
 40
0.045
309
GRIDFORMAT_END
309
TABLEFORMAT_END
  1
CELLSTYLE_BEGIN
 90
        3
 91
        2
300
_DATA
309
CELLSTYLE_END
  0
ACAD_PROXY_OBJECT
  5
CDF
330
CD0
100
AcDbProxyObject
 90
      499
 91
      557
 95
    65563
 70
     0
162
                 0
161
                96
310
63020E80A0280A0280A0280800
 94
        0
  0
ACAD_PROXY_OBJECT
  5
CE0
330
CD0
100
AcDbProxyObject
 90
      499
 91
      558
 95
    65563
 70
     0
162
                 0
161
               332
310
6310E405014050140501405014050140501405014250140501405014050140501200000000000000040C
340
CEB
 94
        0
  0
ACAD_PROXY_OBJECT
  5
CE1
330
CD0
100
AcDbProxyObject
 90
      499
 91
      559
 95
    65563
 70
     0
162
                 0
161
               403
310
630C199999999999E99F91F405014050140501405014050140501405014050140501405014050140501405014050140501404C
340
0
 94
        0
  0
ACAD_PROXY_OBJECT
  5
CE2
330
CD0
100
AcDbProxyObject
 90
      499
 91
      560
 95
    65563
 70
     0
162
                 0
161
                10
310
630C
 94
        0
  0
ACAD_PROXY_OBJECT
  5
CE3
330
CD0
100
AcDbProxyObject
 90
      499
 91
      561
 95
    65563
 70
     0
162
                 0
161
               257
310
632290EA22A7D90F49F9353333333333727F44D4CCCCCCCCCDC9FC01000061804C
340
CEC
340
CED
 94
        0
  0
ACAD_PROXY_OBJECT
  5
CE4
330
CD0
100
AcDbProxyObject
 90
      499
 91
      562
 95
    65563
 70
     0
162
             22604
311
4112401500114013401044900540045004D004CD1C01140138015001480104010C013C00B001140138015400B000C000B0012401500114013400B0011C011401380150014801040150016000B0009401CC00B000A0011C011401380134014C011C0080019C019401B8019001DC019C008000C800C800C800A40240D4401500
311
16401035100540059004C91C01140138015001480104010C013C00B001140138015400B000C000B001440150016400B0011C011401380150014801040150016000B0009401CC00B000A0011C011401380134014C011C0080019C019401B8019001DC019C008000C800C800CC00A4024113801040134011401044E0041004D0
311
045004CD1C01140138015001480104010C013C00B001140138015400B000C000B0013801040134011400B0011C011401380150014801040150016000B0009401CC00B000A0011C011401380134014C011C0080019C019401B8019001DC019C008000C800C800D800A4012C3D004900460028004900530042004C0041004E00
311
4B00280050004100520054003A004E0041004D00450029002C0042004C004F0043004B003A004E0041004D0045002C0050004100520054003A004E0041004D0045002900415100114014C010C0148010B4400450053004300520049005000540049004F004E004E91C01140138015001480104010C013C00B0011401380154
311
00B000C000B001100114014C010C01480124014001500124013C013800B0011C011401380150014801040150016000B0009401CC00B000A0011C011401380134014C011C0080019C019401B8019001DC019C008000C800C400DC00A4024214C015001040138011001040148011001085300540041004E00440041005200440
311
04DD1C01140138015001480104010C013C00B001140138015400B000C000B0014C015001040138011001040148011000B0011C011401380150014801040150016000B0009401CC00B000A0011C011401380134014C011C0080019C019401B8019001DC019C008000C800C400E000A402421340104015001140148012401040
311
13001084D004100540045005200490041004C004DD1C01140138015001480104010C013C00B001140138015400B000C000B00134010401500114014801240104013000B0011C011401380150014801040150016000B0009401CC00B000A0011C011401380134014C011C0080019C019401B8019001DC019C008000C800C800
311
C400A40241138013C0150011401044E004F00540045004CD1C01140138015001480104010C013C00B001140138015400B000C000B00138013C0150011400B0011C011401380150014801040150016000B0009401CC00B000A0011C011401380134014C011C0080019C019401B8019001DC019C008000C800C800D400A40241
311
958011401380110013C01480106560045004E0044004F0052004D51C01140138015001480104010C013C00B001140138015400B000C000B00158011401380110013C014800B0011C011401380150014801040150016000B0009401CC00B000A0011C011401380134014C011C0080019C019401B8019001DC019C008000C800
311
C800D000A402419100114014C010C014800C8010D4400450053004300520049005000540049004F004E00200032004ED1C01140138015001480104010C013C00B001140138015400B000C000B001100114014C010C01480124014001500124013C0138008000C800B0011C011401380150014801040150016000B0009401CC
311
00B000A0011C011401380134014C011C0080019C019401B8019001DC019C008000CC00D800A4024254C015001040138011001040148011000C8010A5300540041004E004400410052004400200032004E51C01140138015001480104010C013C00B001140138015400B000C000B0014C015001040138011001040148011000
311
8000C800B0011C011401380150014801040150016000B0009401CC00B000A0011C011401380134014C011C0080019C019401B8019001DC019C008000C800C800C000A40242534010401500114014801240104013000C8010A4D004100540045005200490041004C00200032004E11C01140138015001480104010C013C00B0
311
01140138015400B000C000B001340104015001140148012401040130008000C800B0011C011401380150014801040150016000B0009401CC00B000A0011C011401380134014C011C0080019C019401B8019001DC019C008000D000C000A402411340104014C014C01044D004100530053004C91C0114013801500148010401
311
0C013C00B001140138015400B000C000B001340104014C014C00B0011C011401380150014801040150016000B0009401CC00B000A0011C011401380134014C011C0080019C019401B8019001DC019C008000D000C800A4024154001480124010C01140105500052004900430045004CD1C01140138015001480104010C013C
311
00B001140138015400B000C000B0014001480124010C011400B0011C011401380150014801040150016000B0009401CC00B000A0011C011401380134014C011C0080019C019401B8019001DC019C008000D000CC00A40240D1001240134010B4D004500410053005500520045004D0045004E0054004E51C01140138015001
311
480104010C013C00B001140138015400B000C000B0013401140104014C015401480114013401140138015000B0011C011401380150014801040150016000B0009401CC00B000A0011C011401380134014C011C0080019C019401B8019001DC019C008000D000D000A40242508013C0134017C0154013801240150014C01055
311
5004E00490054005300A41CF400F0012401500114013400F801073D003C004900540045004D003E0041CF400F0012401500114013400F801073D003C004900540045004D003E0041CF400F0012401500114013400F801063D003C005100540059003E0041CF400F0012401500114013400F801073D003C004900540045004D
311
003E00AAA901310090B65006100090065006100090045006100630068000A00455CC01C401B4002401CC01C401B40024014C01C401D4018401C8019400800134019401D0019401C80028011C7300710063006D0009007300710063006D0009005300710075006100720065002000430065006E00740069006D006500740065
311
0072000A00459CC01C4019801D0002401CC01C4019801D00024014C01C401D4018401C801940080011801BC01BC01D0002801147300710069006E0009007300710069006E000900530071007500610072006500200049006E000A0043D9C018401B00024019C018401B00024011C018401B001B001BC01B80028010C710074
311
000900710074000900510075006100720074000A0046DB001C40190017C01BC01E8002401B001C40190017C01BC01E80024013001A401C401D401A401900080013C01D401B8018C01940028010A6C0009006C0009004C0069007400650072000A00441B401B0002401B401B00024013401A401B001A401B001A401D0019401
311
C80028010B79006400090079006400090059006100720064000A0042D9801D00024019801D00024011801BC01BC01D00028010B69006E00090069006E00090049006E00630068000A00429B4002401B400240134019401D0019401C80028011163006D00090063006D000900430065006E00740069006D0065007400650072
311
000A00441B401B4002401B401B40024013401A401B001A401B4019401D0019401C80028010C6C00620009006C006200090050006F0075006E0064000A00431BC01E8002401BC01E80024013C01D401B8018C01940028010967000900670009004700720061006D000A0043DB4019C002401B4019C0024013401A401B001A40
311
19C01C8018401B40028010A62007800090062007800090042006F0078000A00C
161
              5144
310
6310F40501405014069011349A4F2590CB64FD0190120280A028120280A03202269349E4B2196C9FA03202405014051C40640A8BA5C2E97CBE5024040640480A0280A3A80C81D10782C06030180C80808809014050147501904A383BFDFEFF5FBFCFD0110120280A028EA0320B41416D838E9017D9FA03202405014051D406
310
41A8BA5C2E97CBE5F23F40640480A0280A3A80C83D174B85D2F97CBE47E80C809014050147501908A20F0580C0603019010110120280A028EA0321347077FBFDFEBF7F9FA02202405014051D40642A8282DB071D202FB3F40440480A0280A3A80A0485A0681174B85D2F97CBE47E8088090140501475014090C409022E970B
310
A5F2F97C8FD0110120280A028EA028121A81A040043110F05877A1FA03202405014051E40643A8BA5C2E97CBE5F23F40640480A1E882045C0F42F5A8DC671FC0F0000618000203159AAD56AB55BEC7E566AB55AAD56FB1FA0280C566AB55AAD56FB1F959AAD56AB55BEC7E80A031218FC7E2F079DC7E4863F1F8BC1E771FA0
310
280C4863F1F8BC1E771F9218FC7E2F079DC7E80A05202566AB55AAD56FB1F959AAD56AB55BEC7E80A0280C566AB55AAD56FB1F959AAD56AB55BEC7E80A0309A4D2792C865D27E269349E4B219749FA028080159AAD56AB55BEC7E566AB55AAD56FB1FD100000000000000410200C00030C024110340D024090140510429084
310
410190A4064229014290A4290A40A000000000000785F8000000000001E17E80C010000618040380006180077BE9F1B2EDD447E1DEFA7C6CBB7511F9703D0BD6A3717C7F40683480A0482A0E832034B81E85EB51B8BE3F8020000C3008020000C3008010000C30010140501455014050140501405014050140501405014050
310
140501405014050100
340
0
340
0
 94
        0
  0
ACAD_PROXY_OBJECT
  5
CE5
330
CD0
100
AcDbProxyObject
 90
      499
 91
      563
 95
    65563
 70
     0
162
               762
311
4BCF4011001140150010401240130008000F0011001140150010401240130017C0130010401080114013000F801700140014C010C010401300114008000F0011001140150010401240130017C01040108014C014C010C01040130011400F800C
161
               608
310
6300B81E85EB51B8CE3F48D0726A6666666666E4FC9A9999999999C93F000000000000380FD0000000000000010000000000000014400000000000000910207800030C00B81E85EB51B8CE3F00
340
C9D
340
CDE
 94
        0
  0
ACAD_PROXY_OBJECT
  5
CE6
330
CD0
100
AcDbProxyObject
 90
      499
 91
      564
 95
    65563
 70
     0
162
               826
311
4CCF4014C0114010C01500124013C0138008000F0014C0114010C01500124013C0138017C01300104010801140130017C011801240148014C015000F800B400F0014C0114010C01500124013C0138017C01300104010801140130017C01300104014C015000F800C
161
               405
310
630031703D0BD6A3719C7E4D4CCCCCCCCCEC9F8FFFF8070000C30022103C000186004D4CCCCCCCCCEC9FC5C0F42F5A8DC671FC
340
C9D
340
CDE
 94
        0
  0
ACAD_PROXY_OBJECT
  5
CE7
330
CD0
100
AcDbProxyObject
 90
      499
 91
      565
 95
    65563
 70
     0
162
                 0
161
               280
310
6302B8716D9CEF7C33F0A5723F0BD4A2F0FC295C8FC2F528BC3FA199999999999F99FC00
 94
        0
  0
ACAD_PROXY_OBJECT
  5
CE8
330
CD0
100
AcDbProxyObject
 90
      499
 91
      566
 95
    65563
 70
     0
162
                 0
161
                14
310
6324
340
0
 94
        0
  0
ACAD_PROXY_OBJECT
  5
CE9
330
CD0
100
AcDbProxyObject
 90
      499
 91
      567
 95
    65563
 70
     0
162
             13376
311
42950019401B401C001B0018401D00194008000C40005013D003C0069006600280065007100750061006C00280048006F006C0065003A007400610070007000650064002C0022003000220029002C00220025002500630022002C0048006F006C0065003A006E006F006D0069006E0061006C0020002200200022002000690
311
06600280065007100750061006C00280048006F006C0065003A0075006E006900740073002C0022003100220029002C002200780022002C0022002D0022002900200022002000220029003E003C0069006600280065007100750061006C00280048006F006C0065003A007400610070007000650064002C002200300022002
311
9002C0048006F006C0065003A006400690061002C0048006F006C0065003A0070006900740063006800640065007300630029003E0020007B005C00460041004D004700440054003B0078007D0020003C0069006600280065007100750061006C00280048006F006C0065003A007400650072006D0069006E0061007400690
311
06F006E002C0022003000220029002C0048006F006C0065003A00640065007000740068002C0022005400480052005500220029003E005C0050007B005C00460041004D004700440054003B0076007D002500250063003C0048006F006C0065003A00630074006400690061003E0020007B005C00460041004D00470044005
311
4003B0078007D0020003C0048006F006C0065003A0063007400640065007000740068003E0042950019401B401C001B0018401D00194008000C401FE3D003C0069006600280065007100750061006C00280048006F006C0065003A007400610070007000650064002C0022003000220029002C00220025002500630022002C
311
0048006F006C0065003A006E006F006D0069006E0061006C002000220020002200200069006600280065007100750061006C00280048006F006C0065003A0075006E006900740073002C0022003100220029002C002200780022002C0022002D0022002900200022002000220029003E003C00690066002800650071007500
311
61006C00280048006F006C0065003A007400610070007000650064002C0022003000220029002C0048006F006C0065003A006400690061002C0048006F006C0065003A0070006900740063006800640065007300630029003E0020007B005C00460041004D004700440054003B0078007D0020003C00690066002800650071
311
00750061006C00280048006F006C0065003A007400650072006D0069006E006100740069006F006E002C0022003000220029002C0048006F006C0065003A00640065007000740068002C0022005400480052005500220029003E005C0050007B005C00460041004D004700440054003B0077007D002500250063003C004800
311
6F006C0065003A00630074006400690061003E002000580020003C0048006F006C0065003A006300740061006E0067006C0065003E0025002500640042950019401B401C001B0018401D00194008000C401CF3D003C0069006600280065007100750061006C00280048006F006C0065003A007400610070007000650064002
311
C0022003000220029002C00220025002500630022002C0048006F006C0065003A006E006F006D0069006E0061006C002000220020002200200069006600280065007100750061006C00280048006F006C0065003A0075006E006900740073002C0022003100220029002C002200780022002C0022002D00220029002000220
311
02000220029003E003C0069006600280065007100750061006C00280048006F006C0065003A007400610070007000650064002C0022003000220029002C0048006F006C0065003A006400690061002C0048006F006C0065003A0070006900740063006800640065007300630029003E005C0050007B005C00460041004D004
311
700440054003B0078007D0020003C0069006600280065007100750061006C00280048006F006C0065003A007400650072006D0069006E006100740069006F006E002C0022003000220029002C0048006F006C0065003A00640065007000740068002C0022005400480052005500220029003E0042950019401B401C001B001
311
8401D00194008000C801173D003C0053005400440050003A0044004500530043003E0020003C0053005400440050003A005300540044003E0042950019401B401C001B0018401D00194008000C4010C3D003C0053005400440050003A0044004500530043003E0042950019401B401C001B0018401D00194008000CC010B3D
311
003C0053005400440050003A005300540044003E00A9
161
               656
310
631084050BA4050AA4050240501406901405034050140690140501405014069014051E40D0140690140690140690340515AAAC645C0F42F5A8DC5F1F9703D0BD6A3717C7F8020000C3008030000C3004410300
360
CF4
330
CF4
360
CF5
330
CF5
360
CF3
330
CF3
360
CF1
360
CF0
360
CF2
330
CF1
330
CF0
330
CF2
 94
        0
  0
ACAD_PROXY_OBJECT
  5
CEA
330
CD0
100
AcDbProxyObject
 90
      499
 91
      568
 95
    65563
 70
     0
162
                 0
161
                66
310
6310B40501406AAA8C
 94
        0
  0
ACAD_PROXY_OBJECT
  5
CF6
330
CD0
100
AcDbProxyObject
 90
      499
 91
      570
 95
    65563
 70
     0
162
                 0
161
                26
310
63102A8C
340
CD1
 94
        0
  0
ACAD_PROXY_OBJECT
  5
CF7
330
CD0
100
AcDbProxyObject
 90
      499
 91
      571
 95
    65563
 70
     0
162
               142
311
408F000F801023C003E0040DB0018C00CC00
161
               172
310
63103000000000000380FC000000000000E03F3FFFEC
340
CF8
340
0
340
0
340
CF9
340
CFA
340
0
340
CFB
340
CFC
340
D01
340
0
340
CFA
340
0
 94
        0
  0
ACAD_PROXY_OBJECT
  5
D02
330
CD0
100
AcDbProxyObject
 90
      499
 91
      572
 95
    65563
 70
     0
162
             20912
311
44D300124014C01500080013C01180080010C013C013C0148011001240138010401500114014C0142470045004E0054005200410043004F002C0045004E0055002C0030002C004C0049005300540020004F004600200043004F004F005200440049004E0041005400450053002C00470045004E00540052004100540058002
311
C00250073002C002800470045004E004D00530047002000670065006E00640069006D007A00200033003000290043CF400F0011001940198018401D401B001D0015001A401D001B0019400F8010A48004F004C00450020005400410042004C0045004E51C01140138015001480104010C013C00B001140138015400B000C00
311
0B00120013C0130011400800150010401080130011400B0011C011401380150014801040150016000B0009401CC00B000A0011C011401380134014C011C0080019C019401B8019001A401B401E8008000CC00C400A4010F3D003C00440065006600610075006C0074005400690074006C0065003E004193C01480124011C01
311
2401380134470045004E0054005200410043004F002C0045004E0055002C0030002C004F0052004900470049004E002C00470045004E00540052004100540058002C00250073002C002800470045004E004D00530047002000670065006E00640069006D007A002000310029004193C01480124011C0124013801344700450
311
04E0054005200410043004F002C0045004E0055002C0030002C004F0052004900470049004E002C00470045004E00540052004100540058002C00250073002C002800470045004E004D00530047002000670065006E00640069006D007A0020003100290041120013C013001140132470045004E0054005200410043004F00
311
2C0045004E0055002C0030002C0048004F004C0045002C00470045004E00540052004100540058002C00250073002C002800470045004E004D00530047002000670065006E00640069006D007A00200032002900538F400F00124011800A00124014C0108013001040138012C00A0012001BC01B00194012401D0019401B40
311
0A400B0013C01C801A4019C01A401B800B00080012001BC01B00194012401D0019401B400A400F800F00124011800A00124014C0108013001040138012C00A0012001BC01B00194012401D0019401B400A400B00088008800B00080012001BC01B00194012401B80190019401E000A400F8010158004BD1C01140138015001
311
480104010C013C00B001140138015400B000C000B0016000B0011C011401380150014801040150016000B0009401CC00B000A0011C011401380134014C011C0080019C019401B8019001A401B401E8008000CC00A4010159004BD1C01140138015001480104010C013C00B001140138015400B000C000B0016400B0011C011
311
401380150014801040150016000B0009401CC00B000A0011C011401380134014C011C0080019C019401B8019001A401B401E8008000D000A4010152004BD1C01140138015001480104010C013C00B001140138015400B000C000B0014800B0011C011401380150014801040150016000B0009401CC00B000A0011C01140138
311
0134014C011C0080019C019401B8019001A401B401E8008000D800A401187B005C004600530059004D0042004F004C007C00420030007C00490030007C00430032007C00500030003B004A007D005191C01140138015001480104010C013C00B001140138015400B000C000B001EC01700118014C016401340108013C01300
311
1F0010800C001F0012400C001F0010C00C801F0014000C000EC012801F400B0011C011401380150014801040150016000B0009401CC00B000A0011C011401380134014C011C0080019C019401B8019001A401B401E8008000DC00A401032500250043004C51C01140138015001480104010C013C00B001140138015400B000
311
C000B000940094010C00B0011C011401380150014801040150016000B0009401CC00B000A0011C011401380134014C011C0080019C019401B8019001A401B401E8008000E000A4010B4400450053004300520049005000540049004F004E004E91C01140138015001480104010C013C00B001140138015400B000C000B0011
311
00114014C010C01480124014001500124013C013800B0011C011401380150014801040150016000B0009401CC00B000A0011C011401380134014C011C0080019C019401B8019001A401B401E8008000C800C000A401044900540045004D004CD1C01140138015001480104010C013C00B001140138015400B000C000B00124
311
01500114013400B0011C011401380150014801040150016000B0009401CC00B000A0011C011401380134014C011C0080019C019401B8019001A401B401E8008000C400D000A4010549004E004400450058004D11C01140138015001480104010C013C00B001140138015400B000C000B00124013801100114016000B0011C0
311
11401380150014801040150016000B0009401CC00B000A0011C011401380134014C011C0080019C019401B8019001A401B401E8008000C400D400A4010448004F004C0045004CD1C01140138015001480104010C013C00B001140138015400B000C000B00120013C0130011400B0011C011401380150014801040150016000
311
B0009401CC00B000A0011C011401380134014C011C0080019C019401B8019001A401B401E8008000C400D800A4010A48004F004C004500200049004E004400450058004E51C01140138015001480104010C013C00B001140138015400B000C000B00120013C0130011400800124013801100114016000B0011C01140138015
311
0014801040150016000B0009401CC00B000A0011C011401380134014C011C0080019C019401B8019001A401B401E8008000C400DC00A40109550053004500520020004900540045004D004E11C01140138015001480104010C013C00B001140138015400B000C000B00154014C011401480080012401500114013400B0011C
311
011401380150014801040150016000B0009401CC00B000A0011C011401380134014C011C0080019C019401B8019001A401B401E8008000C800C800A401035100540059004C91C01140138015001480104010C013C00B001140138015400B000C000B001440150016400B0011C011401380150014801040150016000B000940
311
1CC00B000A0011C011401380134014C011C0080019C019401B8019001A401B401E8008000C400E400A401085300540041004E0044004100520044004DD1C01140138015001480104010C013C00B001140138015400B000C000B0014C015001040138011001040148011000B0011C011401380150014801040150016000B000
311
9401CC00B000A0011C011401380134014C011C0080019C019401B8019001A401B401E8008000C800C400A4014E3D003C004900460028004900530042004C0041004E004B00280048006F006C0065004900740065006D0029002C004F0072006900670069006E002C00200048006F006C0065004900740065006D0029003E00
311
3C004900460028004900530042004C0041004E004B00280048006F006C0065004900740065006D0029002C00220022002C00200048006F006C00650049006E0064006500780029003E00CC
161
              6822
310
631211A9010300002E07A17AD46E2F8FE00800030C01010300002E07A17AD46E2F8FE00800030C0004078000C000000000000000000000000000000007B14AE47E17AA43F2E07A17AD46E2F8FE00800030C007B14AE47E17AA43F2E07A17AD46E2F8FE00800030C02010101E0003000000000000000000000000000000001E
310
C52B91F85EA90FCB81E85EB51B8BE3F8020000C3001EC52B91F85EA90FCB81E85EB51B8BE3F8020000C3008050E4410F4450240D0441507431014391244D154151241D144310D4400004040004041000885000080800080820010FA00010101010104002234000202000202000040A8000404000404000081D000080800080
310
8000104A000101000101030020B4000202000202020041E800040400040010008650000808000808280501A0001010001010500A1D4000202000202080044A8000404000404140089D0000808000808280115A0001010001010600229400020200020008004369100067FFFFFFF801353333333333D27F3FFFFFFFC0C9A999
310
9999999E93F9FFFFFFFE024D4CCCCCCCCCF49FCFFFFFFFF0126A6666666667A4FE7FFFFFFF811353333333333D27F3FFFFFFFC089A9999999999E93F9FFFFFFFE06CFFFFFFFF03000000000000001027FFFFFFF801353333333333B27F3FFFFFFFC009A9999999999E93F9FFFFFFFE004D4CCCCCCCCCF49FCFFFFFFFF0026A
310
6666666667A4FE7FFFFFFF801353333333333D27F3FFFFFFFC0CB81E85EB51B8DE3F9FFFFFFFE0633B33333333303204FFFFFFFF440019FFFFFFFE004D4CCCCCCCCCF49FCFFFFFFFF0326A6666666667A4FE7FFFFFFF819353333333333D27F3FFFFFFFC0C9A9999999999E93F9FFFFFFFE064D4CCCCCCCCCF49FCFFFFFFFF
310
0326A6666666667A4FE7FFFFFFF81B3FFFFFFFC0C00000000000000409FFFFFFFE004D4CCCCCCCCCEC9FCFFFFFFFF0026A6666666667A4FE7FFFFFFF819353333333333D27F3FFFFFFFC009A9999999999E93F9FFFFFFFE004D4CCCCCCCCCF49FCFFFFFFFF032E07A17AD46E378FE7FFFFFFF818CECCCCCCCCCC0C813FFFFF
310
FFD044400000010F000000448000001130000004110700010044800000103000100408000400FFFFFFFF4090100014111000000043C0000011200000044C0000010300004111000000043C00000112000000454000000FFFFFFFF8
340
0
340
0
340
0
340
0
340
CDE
340
CDE
 94
        0
  0
ACAD_PROXY_OBJECT
  5
D03
330
CD0
100
AcDbProxyObject
 90
      499
 91
      573
 95
    65563
 70
     0
162
             10564
311
411040138014C0124010641004E00530049005F004300429040138014C0124017C0150012401500154014C011541004E00530049005F00540052005F005200650076006900730069006F006E006C0069007300740061004450C008000A000C400DC00B800C001E000C800C800B800C001A401B8018C01A000A4010641004E0
311
0530049005F00430044518008000A000C800E000B800C001E000D000C000B800C001A401B8018C01A000A4010641004E00530049005F00460044508008000A000C400C400B800C001E000C400DC00B800C001A401B8018C01A000A4010641004E00530049005F00420044510008000A000C800C800B800C001E000CC00D000
311
B800C001A401B8018C01A000A4010641004E00530049005F00440044514008000A000CC00D000B800C001E000D000D000B800C001A401B8018C01A000A4010641004E00530049005F00450044104008000A000E000B800D401E000C400C400B800C001A401B8018C01A000A4010641004E00530049005F00410043954014C0
311
080015001A401D001B001940080010801B001BC018C01AC010A41004E00530049005F005400490054005500530044D0401B801CC01A40080015001A401D001B001940080010801B001BC018C01AC00800110010C010C41004E00530049005F005400490054004C0045004400430044D0401B801CC01A40080015001A401D00
311
1B001940080010801B001BC018C01AC00800104010C010C41004E00530049005F005400490054004C004500410043004490401B801CC01A40080015001A401D001B001940080010801B001BC018C01AC00800104010B41004E00530049005F005400490054004C00450041004490401B801CC01A40080015001A401D001B00
311
1940080010801B001BC018C01AC00800110010B41004E00530049005F005400490054004C004500440044948019401D801A401CC01A401BC01B801B001A401CC01D000800104017C01080148017C011541004E00530049005F00420052005F005200650076006900730069006F006E006C0069007300740061004494801940
311
1D801A401CC01A401BC01B801B001A401CC01D000800104017C01500148017C011541004E00530049005F00540052005F005200650076006900730069006F006E006C00690073007400610044948019401D801A401CC01A401BC01B801B001A401CC01D000800110017C01080148017C011541004E00530049005F00420052
311
005F005200650076006900730069006F006E006C00690073007400640044948019401D801A401CC01A401BC01B801B001A401CC01D000800110017C01500148017C011541004E00530049005F00540052005F005200650076006900730069006F006E006C00690073007400640044948019401D801A401CC01A401BC01B801
311
B001A401CC01D000800104017C01080130017C011541004E00530049005F0042004C005F005200650076006900730069006F006E006C00690073007400610044948019401D801A401CC01A401BC01B801B001A401CC01D000800104017C01500130017C011541004E00530049005F0054004C005F005200650076006900730
311
069006F006E006C00690073007400610044948019401D801A401CC01A401BC01B801B001A401CC01D000800110017C01080130017C011541004E00530049005F0042004C005F005200650076006900730069006F006E006C00690073007400640044948019401D801A401CC01A401BC01B801B001A401CC01D000800110017
311
C01500130017C011541004E00530049005F0054004C005F005200650076006900730069006F006E006C006900730074006400C
161
                50
310
6319741905420C
 94
        0
  0
ACAD_PROXY_OBJECT
  5
CF4
330
0
100
AcDbProxyObject
 90
      499
 91
      569
 95
    65563
 70
     0
162
              4364
311
42950019401B401C001B0018401D00194008000C40005013D003C0069006600280065007100750061006C00280048006F006C0065003A007400610070007000650064002C0022003000220029002C00220025002500630022002C0048006F006C0065003A006E006F006D0069006E0061006C0020002200200022002000690
311
06600280065007100750061006C00280048006F006C0065003A0075006E006900740073002C0022003100220029002C002200780022002C0022002D0022002900200022002000220029003E003C0069006600280065007100750061006C00280048006F006C0065003A007400610070007000650064002C002200300022002
311
9002C0048006F006C0065003A006400690061002C0048006F006C0065003A0070006900740063006800640065007300630029003E0020007B005C00460041004D004700440054003B0078007D0020003C0069006600280065007100750061006C00280048006F006C0065003A007400650072006D0069006E0061007400690
311
06F006E002C0022003000220029002C0048006F006C0065003A00640065007000740068002C0022005400480052005500220029003E005C0050007B005C00460041004D004700440054003B0076007D002500250063003C0048006F006C0065003A00630074006400690061003E0020007B005C00460041004D00470044005
311
4003B0078007D0020003C0048006F006C0065003A0063007400640065007000740068003E00C
161
                28
310
6320101C
 94
        0
  0
ACAD_PROXY_OBJECT
  5
CF5
330
0
100
AcDbProxyObject
 90
      499
 91
      569
 95
    65563
 70
     0
162
              4244
311
42950019401B401C001B0018401D00194008000C401FE3D003C0069006600280065007100750061006C00280048006F006C0065003A007400610070007000650064002C0022003000220029002C00220025002500630022002C0048006F006C0065003A006E006F006D0069006E0061006C002000220020002200200069006
311
600280065007100750061006C00280048006F006C0065003A0075006E006900740073002C0022003100220029002C002200780022002C0022002D0022002900200022002000220029003E003C0069006600280065007100750061006C00280048006F006C0065003A007400610070007000650064002C00220030002200290
311
02C0048006F006C0065003A006400690061002C0048006F006C0065003A0070006900740063006800640065007300630029003E0020007B005C00460041004D004700440054003B0078007D0020003C0069006600280065007100750061006C00280048006F006C0065003A007400650072006D0069006E006100740069006
311
F006E002C0022003000220029002C0048006F006C0065003A00640065007000740068002C0022005400480052005500220029003E005C0050007B005C00460041004D004700440054003B0077007D002500250063003C0048006F006C0065003A00630074006400690061003E002000580020003C0048006F006C0065003A0
311
06300740061006E0067006C0065003E00250025006400C
161
                28
310
6320101C
 94
        0
  0
ACAD_PROXY_OBJECT
  5
CF3
330
0
100
AcDbProxyObject
 90
      499
 91
      569
 95
    65563
 70
     0
162
              3492
311
42950019401B401C001B0018401D00194008000C401CF3D003C0069006600280065007100750061006C00280048006F006C0065003A007400610070007000650064002C0022003000220029002C00220025002500630022002C0048006F006C0065003A006E006F006D0069006E0061006C002000220020002200200069006
311
600280065007100750061006C00280048006F006C0065003A0075006E006900740073002C0022003100220029002C002200780022002C0022002D0022002900200022002000220029003E003C0069006600280065007100750061006C00280048006F006C0065003A007400610070007000650064002C00220030002200290
311
02C0048006F006C0065003A006400690061002C0048006F006C0065003A0070006900740063006800640065007300630029003E005C0050007B005C00460041004D004700440054003B0078007D0020003C0069006600280065007100750061006C00280048006F006C0065003A007400650072006D0069006E00610074006
311
9006F006E002C0022003000220029002C0048006F006C0065003A00640065007000740068002C0022005400480052005500220029003E00C
161
                28
310
6320101C
 94
        0
  0
ACAD_PROXY_OBJECT
  5
CF1
330
0
100
AcDbProxyObject
 90
      499
 91
      569
 95
    65563
 70
     0
162
               548
311
42950019401B401C001B0018401D00194008000C801173D003C0053005400440050003A0044004500530043003E0020003C0053005400440050003A005300540044003E00C
161
                28
310
6320101C
 94
        0
  0
ACAD_PROXY_OBJECT
  5
CF0
330
0
100
AcDbProxyObject
 90
      499
 91
      569
 95
    65563
 70
     0
162
               372
311
42950019401B401C001B0018401D00194008000C4010C3D003C0053005400440050003A0044004500530043003E00C
161
                28
310
6320101C
 94
        0
  0
ACAD_PROXY_OBJECT
  5
CF2
330
0
100
AcDbProxyObject
 90
      499
 91
      569
 95
    65563
 70
     0
162
               356
311
42950019401B401C001B0018401D00194008000CC010B3D003C0053005400440050003A005300540044003E00C
161
                28
310
6320101C
 94
        0
  0
ENDSEC
  0
EOF
