  0
SECTION
  2
HEADER
  9
$ACADVER
  1
AC1024
  9
$ACADMAINTVER
 70
    37
  9
$DWGCODEPAGE
  3
ANSI_1252
  9
$LASTSAVEDBY
  1
jtigges
  9
$INSBASE
 10
0.0
 20
0.0
 30
0.0
  9
$EXTMIN
 10
-0.001952975990676
 20
-0.001274011681403
 30
-0.0015258207003583
  9
$EXTMAX
 10
64.00195327401764
 20
41.75127420609778
 30
0.0000000349246037
  9
$LIMMIN
 10
0.0
 20
0.0
  9
$LIMMAX
 10
12.0
 20
9.0
  9
$ORTHOMODE
 70
     0
  9
$REGENMODE
 70
     1
  9
$FILLMODE
 70
     1
  9
$QTEXTMODE
 70
     0
  9
$MIRRTEXT
 70
     1
  9
$LTSCALE
 40
1.0
  9
$ATTMODE
 70
     1
  9
$TEXTSIZE
 40
0.2
  9
$TRACEWID
 40
0.05
  9
$TEXTSTYLE
  7
STANDARD
  9
$CLAYER
  8
0
  9
$CELTYPE
  6
BYLAYER
  9
$CECOLOR
 62
   256
  9
$CELTSCALE
 40
1.0
  9
$DISPSILH
 70
     0
  9
$DIMSCALE
 40
1.0
  9
$DIMASZ
 40
0.1875
  9
$DIMEXO
 40
0.1875
  9
$DIMDLI
 40
0.375
  9
$DIMRND
 40
0.0
  9
$DIMDLE
 40
0.0
  9
$DIMEXE
 40
0.09375
  9
$DIMTP
 40
0.0
  9
$DIMTM
 40
0.0
  9
$DIMTXT
 40
0.1875
  9
$DIMCEN
 40
0.09375
  9
$DIMTSZ
 40
0.0
  9
$DIMTOL
 70
     0
  9
$DIMLIM
 70
     0
  9
$DIMTIH
 70
     1
  9
$DIMTOH
 70
     1
  9
$DIMSE1
 70
     0
  9
$DIMSE2
 70
     0
  9
$DIMTAD
 70
     0
  9
$DIMZIN
 70
     0
  9
$DIMBLK
  1

  9
$DIMASO
 70
     1
  9
$DIMSHO
 70
     1
  9
$DIMPOST
  1

  9
$DIMAPOST
  1

  9
$DIMALT
 70
     0
  9
$DIMALTD
 70
     2
  9
$DIMALTF
 40
25.4
  9
$DIMLFAC
 40
1.0
  9
$DIMTOFL
 70
     0
  9
$DIMTVP
 40
0.0
  9
$DIMTIX
 70
     0
  9
$DIMSOXD
 70
     0
  9
$DIMSAH
 70
     0
  9
$DIMBLK1
  1

  9
$DIMBLK2
  1

  9
$DIMSTYLE
  2
STANDARD
  9
$DIMCLRD
 70
     0
  9
$DIMCLRE
 70
     0
  9
$DIMCLRT
 70
     0
  9
$DIMTFAC
 40
0.5
  9
$DIMGAP
 40
0.1875
  9
$DIMJUST
 70
     0
  9
$DIMSD1
 70
     0
  9
$DIMSD2
 70
     0
  9
$DIMTOLJ
 70
     1
  9
$DIMTZIN
 70
     0
  9
$DIMALTZ
 70
     0
  9
$DIMALTTZ
 70
     0
  9
$DIMUPT
 70
     0
  9
$DIMDEC
 70
     5
  9
$DIMTDEC
 70
     4
  9
$DIMALTU
 70
     2
  9
$DIMALTTD
 70
     2
  9
$DIMTXSTY
  7
STANDARD
  9
$DIMAUNIT
 70
     0
  9
$DIMADEC
 70
     0
  9
$DIMALTRND
 40
0.0
  9
$DIMAZIN
 70
     0
  9
$DIMDSEP
 70
    46
  9
$DIMATFIT
 70
     0
  9
$DIMFRAC
 70
     2
  9
$DIMLDRBLK
  1

  9
$DIMLUNIT
 70
     5
  9
$DIMLWD
 70
    -2
  9
$DIMLWE
 70
    -2
  9
$DIMTMOVE
 70
     0
  9
$DIMFXL
 40
1.0
  9
$DIMFXLON
 70
     0
  9
$DIMJOGANG
 40
0.7853981633974483
  9
$DIMTFILL
 70
     0
  9
$DIMTFILLCLR
 70
     0
  9
$DIMARCSYM
 70
     1
  9
$DIMLTYPE
  6

  9
$DIMLTEX1
  6

  9
$DIMLTEX2
  6

  9
$DIMTXTDIRECTION
 70
     0
  9
$LUNITS
 70
     5
  9
$LUPREC
 70
     5
  9
$SKETCHINC
 40
0.1
  9
$FILLETRAD
 40
0.0
  9
$AUNITS
 70
     0
  9
$AUPREC
 70
     1
  9
$MENU
  1
acad
  9
$ELEVATION
 40
0.0
  9
$PELEVATION
 40
0.0
  9
$THICKNESS
 40
0.0
  9
$LIMCHECK
 70
     0
  9
$CHAMFERA
 40
0.0
  9
$CHAMFERB
 40
0.0
  9
$CHAMFERC
 40
0.0
  9
$CHAMFERD
 40
0.0
  9
$SKPOLY
 70
     0
  9
$TDCREATE
 40
2450035.177149537
  9
$TDUCREATE
 40
2450035.427149537
  9
$TDUPDATE
 40
2456722.319627720
  9
$TDUUPDATE
 40
2456722.569627720
  9
$TDINDWG
 40
0.0349682060
  9
$TDUSRTIMER
 40
0.0349682060
  9
$USRTIMER
 70
     1
  9
$ANGBASE
 50
0.0
  9
$ANGDIR
 70
     0
  9
$PDMODE
 70
     0
  9
$PDSIZE
 40
0.0
  9
$PLINEWID
 40
0.0
  9
$SPLFRAME
 70
     0
  9
$SPLINETYPE
 70
     6
  9
$SPLINESEGS
 70
     8
  9
$HANDSEED
  5
1838
  9
$SURFTAB1
 70
     6
  9
$SURFTAB2
 70
     6
  9
$SURFTYPE
 70
     6
  9
$SURFU
 70
     6
  9
$SURFV
 70
     6
  9
$UCSBASE
  2

  9
$UCSNAME
  2

  9
$UCSORG
 10
0.0
 20
0.0
 30
0.0
  9
$UCSXDIR
 10
1.0
 20
0.0
 30
0.0
  9
$UCSYDIR
 10
0.0
 20
1.0
 30
0.0
  9
$UCSORTHOREF
  2

  9
$UCSORTHOVIEW
 70
     0
  9
$UCSORGTOP
 10
0.0
 20
0.0
 30
0.0
  9
$UCSORGBOTTOM
 10
0.0
 20
0.0
 30
0.0
  9
$UCSORGLEFT
 10
0.0
 20
0.0
 30
0.0
  9
$UCSORGRIGHT
 10
0.0
 20
0.0
 30
0.0
  9
$UCSORGFRONT
 10
0.0
 20
0.0
 30
0.0
  9
$UCSORGBACK
 10
0.0
 20
0.0
 30
0.0
  9
$PUCSBASE
  2

  9
$PUCSNAME
  2

  9
$PUCSORG
 10
0.0
 20
0.0
 30
0.0
  9
$PUCSXDIR
 10
1.0
 20
0.0
 30
0.0
  9
$PUCSYDIR
 10
0.0
 20
1.0
 30
0.0
  9
$PUCSORTHOREF
  2

  9
$PUCSORTHOVIEW
 70
     0
  9
$PUCSORGTOP
 10
0.0
 20
0.0
 30
0.0
  9
$PUCSORGBOTTOM
 10
0.0
 20
0.0
 30
0.0
  9
$PUCSORGLEFT
 10
0.0
 20
0.0
 30
0.0
  9
$PUCSORGRIGHT
 10
0.0
 20
0.0
 30
0.0
  9
$PUCSORGFRONT
 10
0.0
 20
0.0
 30
0.0
  9
$PUCSORGBACK
 10
0.0
 20
0.0
 30
0.0
  9
$USERI1
 70
     0
  9
$USERI2
 70
     0
  9
$USERI3
 70
     0
  9
$USERI4
 70
     0
  9
$USERI5
 70
     0
  9
$USERR1
 40
0.0
  9
$USERR2
 40
0.0
  9
$USERR3
 40
0.0
  9
$USERR4
 40
0.0
  9
$USERR5
 40
0.0
  9
$WORLDVIEW
 70
     1
  9
$SHADEDGE
 70
     3
  9
$SHADEDIF
 70
    70
  9
$TILEMODE
 70
     1
  9
$MAXACTVP
 70
    16
  9
$PINSBASE
 10
0.0
 20
0.0
 30
0.0
  9
$PLIMCHECK
 70
     0
  9
$PEXTMIN
 10
1.000000000000000E+20
 20
1.000000000000000E+20
 30
1.000000000000000E+20
  9
$PEXTMAX
 10
-1.000000000000000E+20
 20
-1.000000000000000E+20
 30
-1.000000000000000E+20
  9
$PLIMMIN
 10
0.0
 20
0.0
  9
$PLIMMAX
 10
12.0
 20
9.0
  9
$UNITMODE
 70
     0
  9
$VISRETAIN
 70
     0
  9
$PLINEGEN
 70
     0
  9
$PSLTSCALE
 70
     1
  9
$TREEDEPTH
 70
  3020
  9
$CMLSTYLE
  2
STANDARD
  9
$CMLJUST
 70
     0
  9
$CMLSCALE
 40
1.0
  9
$PROXYGRAPHICS
 70
     1
  9
$MEASUREMENT
 70
     0
  9
$CELWEIGHT
370
    -1
  9
$ENDCAPS
280
     0
  9
$JOINSTYLE
280
     0
  9
$LWDISPLAY
290
     0
  9
$INSUNITS
 70
     0
  9
$HYPERLINKBASE
  1

  9
$STYLESHEET
  1

  9
$XEDIT
290
     1
  9
$CEPSNTYPE
380
     0
  9
$PSTYLEMODE
290
     1
  9
$FINGERPRINTGUID
  2
{FAE641F8-93A2-4D04-8027-CB5674C8401A}
  9
$VERSIONGUID
  2
{D5B50980-26C8-4C11-A528-341CCA0554BB}
  9
$EXTNAMES
290
     1
  9
$PSVPSCALE
 40
0.0
  9
$OLESTARTUP
290
     0
  9
$SORTENTS
280
   127
  9
$INDEXCTL
280
     0
  9
$HIDETEXT
280
     0
  9
$XCLIPFRAME
280
     2
  9
$HALOGAP
280
     0
  9
$OBSCOLOR
 70
   257
  9
$OBSLTYPE
280
     0
  9
$INTERSECTIONDISPLAY
280
     0
  9
$INTERSECTIONCOLOR
 70
   257
  9
$DIMASSOC
280
     1
  9
$PROJECTNAME
  1

  9
$CAMERADISPLAY
290
     0
  9
$LENSLENGTH
 40
50.0
  9
$CAMERAHEIGHT
 40
0.0
  9
$STEPSPERSEC
 40
2.0
  9
$STEPSIZE
 40
6.0
  9
$3DDWFPREC
 40
2.0
  9
$PSOLWIDTH
 40
0.25
  9
$PSOLHEIGHT
 40
4.0
  9
$LOFTANG1
 40
1.570796326794896
  9
$LOFTANG2
 40
1.570796326794896
  9
$LOFTMAG1
 40
0.0
  9
$LOFTMAG2
 40
0.0
  9
$LOFTPARAM
 70
     7
  9
$LOFTNORMALS
280
     1
  9
$LATITUDE
 40
37.795
  9
$LONGITUDE
 40
-122.394
  9
$NORTHDIRECTION
 40
0.0
  9
$TIMEZONE
 70
 -8000
  9
$LIGHTGLYPHDISPLAY
280
     1
  9
$TILEMODELIGHTSYNCH
280
     1
  9
$CMATERIAL
347
10CF
  9
$SOLIDHIST
280
     1
  9
$SHOWHIST
280
     1
  9
$DWFFRAME
280
     2
  9
$DGNFRAME
280
     0
  9
$REALWORLDSCALE
290
     1
  9
$INTERFERECOLOR
 62
     1
  9
$INTERFEREOBJVS
345
10DC
  9
$INTERFEREVPVS
346
1809
  9
$CSHADOW
280
     0
  9
$SHADOWPLANELOCATION
 40
0.0
  0
ENDSEC
  0
SECTION
  2
CLASSES
  0
CLASS
  1
ACDBDICTIONARYWDFLT
  2
AcDbDictionaryWithDefault
  3
ObjectDBX Classes
 90
        0
 91
        1
280
     0
281
     0
  0
CLASS
  1
TABLESTYLE
  2
AcDbTableStyle
  3
ObjectDBX Classes
 90
     4095
 91
        1
280
     0
281
     0
  0
CLASS
  1
ACME_DOCUMENT
  2
AcMeDbDoc
  3
AcMeServices
 90
        0
 91
        0
280
     0
281
     0
  0
CLASS
  1
AMGSETTINGSOBJ
  2
AmgSettingsObj
  3
"AcadM|Product Description: AutoCAD Mechanical|Company: Autodesk"
 90
        0
 91
        0
280
     0
281
     0
  0
CLASS
  1
ACMESCOPE
  2
AcMeScope
  3
AcMeServices
 90
        0
 91
        0
280
     0
281
     0
  0
CLASS
  1
ACMECOMMANDHISTORY
  2
AcMeCommandHistory
  3
AcMeServices
 90
        0
 91
        0
280
     0
281
     0
  0
CLASS
  1
ACIMSYSVARMAN
  2
AcImSysVarManager
  3
AcMeServices
 90
        0
 91
        0
280
     0
281
     0
  0
CLASS
  1
ACIMINTSYSVAR
  2
AcImIntSysVar
  3
AcMeServices
 90
        0
 91
        0
280
     0
281
     0
  0
CLASS
  1
ACMEDRAWINGMAN
  2
AcMeDrawingMan
  3
AcMeServices
 90
        0
 91
        0
280
     0
281
     0
  0
CLASS
  1
ACMEVIEW
  2
AcMeView
  3
AcMeServices
 90
        0
 91
        0
280
     0
281
     0
  0
CLASS
  1
ACDBENTITYCACHE
  2
AcMeEntityCache
  3
AcMeServices
 90
        0
 91
        0
280
     0
281
     0
  0
CLASS
  1
GSMANAGER
  2
AcMeGSManager
  3
AcMeServices
 90
        0
 91
        0
280
     0
281
     0
  0
CLASS
  1
AMDTINTERNALREACTOR
  2
AmdtInternalReactor
  3
AcMeServices
 90
        0
 91
        0
280
     0
281
     0
  0
CLASS
  1
ACMESTATEMGR
  2
AcMeStateMgr
  3
AcMeServices
 90
        0
 91
        0
280
     0
281
     0
  0
CLASS
  1
ACGREFMASTER
  2
AcGrefMaster
  3
AcAttribServices
 90
        0
 91
        0
280
     0
281
     0
  0
CLASS
  1
AM_DRAWING_MGR
  2
AcDmDwgMgr
  3
AcMechDwgViewMgmt
 90
        0
 91
        0
280
     0
281
     0
  0
CLASS
  1
AM_DWG_DOCUMENT
  2
AcDmDwgDocument
  3
AcMechDwgViewMgmt
 90
        0
 91
        0
280
     0
281
     0
  0
CLASS
  1
AM_DWG_SHEET
  2
AcDmSheet
  3
AcMechDwgViewMgmt
 90
        0
 91
        0
280
     0
281
     0
  0
CLASS
  1
AM_VIEWDIMPARMAP
  2
AcDmViewDimParMap
  3
AcMechDwgViewMgmt
 90
        0
 91
        0
280
     0
281
     0
  0
CLASS
  1
ACIMREALSYSVAR
  2
AcImRealSysVar
  3
AcMeServices
 90
        0
 91
        0
280
     0
281
     0
  0
CLASS
  1
AM_DWGMGR_NAME
  2
AcDmDwgMgrName
  3
AcMechDwgViewMgmt
 90
        0
 91
        0
280
     0
281
     0
  0
CLASS
  1
ACME_DATABASE
  2
AcMeDbDatabase
  3
AcMeServices
 90
        0
 91
        0
280
     0
281
     0
  0
CLASS
  1
ACRFINSADJUSTERMGR
  2
AcRfInsAdjusterMgr
  3
AcMeServices
 90
        0
 91
        0
280
     0
281
     0
  0
CLASS
  1
ACGREFACADMASTER
  2
AcGrefacadMaster
  3
AcGrefServices
 90
        0
 91
        0
280
     0
281
     0
  0
CLASS
  1
AMDTMENUSTATEMGR
  2
AmdtMenuStateMgr
  3
McadcomServices
 90
        0
 91
        0
280
     0
281
     0
  0
CLASS
  1
AMDTMCOMMENUSTATE
  2
AmdtMcomMenuState
  3
McadcomServices
 90
        0
 91
        0
280
     0
281
     0
  0
CLASS
  1
AMIMASTER
  2
AmiMaster
  3
AmiServices
 90
        0
 91
        0
280
     0
281
     0
  0
CLASS
  1
MAPIAMMOUDLE
  2
MApiAmModule
  3
MApiAmServices
 90
        0
 91
        0
280
     0
281
     0
  0
CLASS
  1
AMDTADMENUSTATE
  2
AmdtAdMenuState
  3
DesignerServices
 90
        0
 91
        0
280
     0
281
     0
  0
CLASS
  1
ADAPPL
  2
AcAdAppl
  3
DesignerServices
 90
        0
 91
        0
280
     0
281
     0
  0
CLASS
  1
DEPMGR
  2
AcAdDepMgr
  3
DesignerServices
 90
        0
 91
        0
280
     0
281
     0
  0
CLASS
  1
PARAMMGR
  2
AcAdParamMgr
  3
DesignerServices
 90
        0
 91
        0
280
     0
281
     0
  0
CLASS
  1
PARAMSCOPE
  2
AcAdParamScope
  3
DesignerServices
 90
        0
 91
        0
280
     0
281
     0
  0
CLASS
  1
NAMEDAPPL
  2
AcAdNamedAppl
  3
DesignerServices
 90
        0
 91
        0
280
     0
281
     0
  0
CLASS
  1
AMDTDMMENUSTATE
  2
AmdtDmMenuState
  3
AcMechDwgViewMgmt
 90
        0
 91
        0
280
     0
281
     0
  0
CLASS
  1
AMDTAMMENUSTATE
  2
AmdtAmMenuState
  3
DesignerAssemblies
 90
        0
 91
        0
280
     0
281
     0
  0
CLASS
  1
ACIMSTRSYSVAR
  2
AcImStrSysVar
  3
AcMeServices
 90
        0
 91
        0
280
     0
281
     0
  0
CLASS
  1
ACAMPROJECT
  2
AcAmProject
  3
DesignerAssemblies
 90
        0
 91
        0
280
     0
281
     0
  0
CLASS
  1
ACAMGRCOMPDEF
  2
AcAmGrCompDef
  3
DesignerAssemblies
 90
        0
 91
        0
280
     0
281
     0
  0
CLASS
  1
ACCMCONTEXT
  2
AcCmContext
  3
DesignerAssemblies
 90
        0
 91
        0
280
     0
281
     0
  0
CLASS
  1
ACAMCOMPDEF
  2
AcAmCompDef
  3
DesignerAssemblies
 90
        0
 91
        0
280
     0
281
     0
  0
CLASS
  1
ACAMCOMPDEFMGR
  2
AcAmCompDefMgr
  3
DesignerAssemblies
 90
        0
 91
        0
280
     0
281
     0
  0
CLASS
  1
AMCONTEXTMGR
  2
AcAmContextMgr
  3
DesignerAssemblies
 90
        0
 91
        0
280
     0
281
     0
  0
CLASS
  1
ACAMCONTEXTMODELER
  2
AcAmContextModeler
  3
DesignerAssemblies
 90
        0
 91
        0
280
     0
281
     0
  0
CLASS
  1
ACMDATADICTIONARY
  2
AcmDataDictionary
  3
"AcmSymBB|Product Description: AutoCAD Mechanical|Company: Autodesk"
 90
        0
 91
        0
280
     0
281
     0
  0
CLASS
  1
CATALOGSTATE
  2
AcAmCatalogState
  3
DesignerAssemblies
 90
        0
 91
        0
280
     0
281
     0
  0
CLASS
  1
ACAMGRCOMPDEFSET
  2
AcAmGrCompDefSet
  3
DesignerAssemblies
 90
        0
 91
        0
280
     0
281
     0
  0
CLASS
  1
AMDTBROWSERDBTAB
  2
AmdtBrowserDbTab
  3
McadcomServices
 90
        0
 91
        0
280
     0
281
     0
  0
CLASS
  1
CBROWSERAPPOBJECT
  2
CBrowserAppObject
  3
McadcomServices
 90
        0
 91
        0
280
     0
281
     0
  0
CLASS
  1
DM_PLACEHOLDER
  2
AcDmSelsetPlaceholder
  3
AcMechDwgViewMgmt
 90
        0
 91
        0
280
     0
281
     0
  0
CLASS
  1
ACMSTANDARDANSI
  2
AcmStandardANSI
  3
"Amdt_StdImp|Product Description: AutoCAD Mechanical|Company: Autodesk"
 90
        0
 91
        0
280
     0
281
     0
  0
CLASS
  1
AMGOBJPROPCFG
  2
AmgObjPropCfg
  3
"AmgLay|Product Description: AutoCAD Mechanical|Company: Autodesk"
 90
        1
 91
        0
280
     0
281
     0
  0
CLASS
  1
ACMSURFSTANDARDANSI
  2
AcmSurfTextStdANSI
  3
"Amdt_StdImp|Product Description: AutoCAD Mechanical|Company: Autodesk"
 90
        0
 91
        0
280
     0
281
     0
  0
CLASS
  1
ACMFCFSTANDARDANSI
  2
AcmFCFStdANSI
  3
"Amdt_StdImp|Product Description: AutoCAD Mechanical|Company: Autodesk"
 90
        0
 91
        0
280
     0
281
     0
  0
CLASS
  1
ACMWELDSTANDARDANSI
  2
AcmWeldingStdANSI
  3
"Amdt_StdImp|Product Description: AutoCAD Mechanical|Company: Autodesk"
 90
        0
 91
        0
280
     0
281
     0
  0
CLASS
  1
ACMIDSTANDARDANSI
  2
AcmIdStdANSI
  3
"Amdt_StdImp|Product Description: AutoCAD Mechanical|Company: Autodesk"
 90
        0
 91
        0
280
     0
281
     0
  0
CLASS
  1
ACMDATUMSTANDARDANSI
  2
AcmDatumStdANSI
  3
"Amdt_StdImp|Product Description: AutoCAD Mechanical|Company: Autodesk"
 90
        0
 91
        0
280
     0
281
     0
  0
CLASS
  1
ACMBOMSTANDARDANSI
  2
AcmBOMStdANSI
  3
"Amdt_StdImp|Product Description: AutoCAD Mechanical|Company: Autodesk"
 90
        0
 91
        0
280
     0
281
     0
  0
CLASS
  1
ACMDETAILSTANDARDANSI
  2
AmdtDetailSymStdANSI
  3
"Amdt_StdImp|Product Description: AutoCAD Mechanical|Company: Autodesk"
 90
        0
 91
        0
280
     0
281
     0
  0
CLASS
  1
ACMSECTIONSTANDARDANSI
  2
AmdtSectionSymStdANSI
  3
"Amdt_StdImp|Product Description: AutoCAD Mechanical|Company: Autodesk"
 90
        0
 91
        0
280
     0
281
     0
  0
CLASS
  1
ACMCENTERLINESTANDARDANSI
  2
AmdtCenterLineStdANSI
  3
"Amdt_StdImp|Product Description: AutoCAD Mechanical|Company: Autodesk"
 90
        0
 91
        0
280
     0
281
     0
  0
CLASS
  1
ACMTHREADLINESTANDARDANSI
  2
AmdtThreadLineStdANSI
  3
"Amdt_StdImp|Product Description: AutoCAD Mechanical|Company: Autodesk"
 90
        0
 91
        0
280
     0
281
     0
  0
CLASS
  1
ACMNOTESTANDARDANSI
  2
AmdtNoteStdANSI
  3
"Amdt_StdImp|Product Description: AutoCAD Mechanical|Company: Autodesk"
 90
        0
 91
        0
280
     0
281
     0
  0
CLASS
  1
AMDTNOTETEMPLATEDB
  2
AmdtNoteTemplateDB
  3
AMDT_STDIMP_MODULE_NAME
 90
        0
 91
        0
280
     0
281
     0
  0
CLASS
  1
ACAMGLAYSTD
  2
AcAmgLayStd
  3
"AmgLay|Product Description: AutoCAD Mechanical|Company: Autodesk"
 90
        0
 91
        0
280
     0
281
     0
  0
CLASS
  1
ACAMGDIMSTD
  2
AcAmgDimStd
  3
"AmgDim|Product Description: AutoCAD Mechanical|Company: Autodesk"
 90
        0
 91
        0
280
     0
281
     0
  0
CLASS
  1
ACAMGHOLECHARTSTDANSI
  2
AcAmgHoleChartStdANSI
  3
ACMSYMBB_MODULE_NAME
 90
        0
 91
        0
280
     0
281
     0
  0
CLASS
  1
ACAMGTITLESTD
  2
AcAmgTitleStd
  3
"AmgTitle|Product Description: AutoCAD Mechanical|Company: Autodesk"
 90
        0
 91
        0
280
     0
281
     0
  0
CLASS
  1
ACAMGFILTERDAT
  2
AcAmgFilterDat
  3
"AcadM|Product Description: AutoCAD Mechanical|Company: Autodesk"
 90
        0
 91
        0
280
     0
281
     0
  0
CLASS
  1
DICTIONARYVAR
  2
AcDbDictionaryVar
  3
ObjectDBX Classes
 90
        0
 91
       11
280
     0
281
     0
  0
CLASS
  1
SORTENTSTABLE
  2
AcDbSortentsTable
  3
ObjectDBX Classes
 90
        0
 91
        1
280
     0
281
     0
  0
CLASS
  1
MATERIAL
  2
AcDbMaterial
  3
ObjectDBX Classes
 90
     1153
 91
        3
280
     0
281
     0
  0
CLASS
  1
VISUALSTYLE
  2
AcDbVisualStyle
  3
ObjectDBX Classes
 90
     4095
 91
       26
280
     0
281
     0
  0
CLASS
  1
ACMTAPERSTANDARDANSI
  2
AcmTaperStdANSI
  3
"Amdt_StdImp|Product Description: AutoCAD Mechanical|Company: Autodesk"
 90
        0
 91
        0
280
     0
281
     0
  0
CLASS
  1
CAMSSTRUCTBTNSTATE
  2
StructBtnState
  3
L"DesignerAssemblies"
 90
        0
 91
        0
280
     0
281
     0
  0
CLASS
  1
SCALE
  2
AcDbScale
  3
ObjectDBX Classes
 90
     1153
 91
       17
280
     0
281
     0
  0
CLASS
  1
MLEADERSTYLE
  2
AcDbMLeaderStyle
  3
ACDB_MLEADERSTYLE_CLASS
 90
     4095
 91
        1
280
     0
281
     0
  0
CLASS
  1
CELLSTYLEMAP
  2
AcDbCellStyleMap
  3
ObjectDBX Classes
 90
     1152
 91
        1
280
     0
281
     0
  0
ENDSEC
  0
SECTION
  2
TABLES
  0
TABLE
  2
VPORT
  5
8
102
{ACAD_XDICTIONARY
360
17E9
102
}
330
0
100
AcDbSymbolTable
 70
     1
  0
VPORT
  5
10C8
330
8
100
AcDbSymbolTableRecord
100
AcDbViewportTableRecord
  2
*Active
 70
     0
 10
0.0
 20
0.0
 11
1.0
 21
1.0
 12
32.00000014901348
 22
20.87500009720819
 13
0.0
 23
0.0
 14
1.0
 24
1.0
 15
0.0
 25
0.0
 16
0.0
 26
0.0
 36
1.0
 17
0.0
 27
0.0
 37
0.0
 40
42.03561634128955
 41
2.16628959276018
 42
50.0
 43
0.0
 44
0.0
 50
0.0
 51
0.0
 71
     0
 72
   100
 73
     1
 74
     0
 75
     0
 76
     0
 77
     0
 78
     0
281
     0
 65
     1
110
0.0
120
0.0
130
0.0
111
1.0
121
0.0
131
0.0
112
0.0
122
1.0
132
0.0
 79
     0
146
0.0
348
10D8
 60
     3
 61
     5
292
     1
282
     1
141
0.0
142
0.0
 63
   250
421
  3355443
  0
ENDTAB
  0
TABLE
  2
LTYPE
  5
5
330
0
100
AcDbSymbolTable
 70
    16
  0
LTYPE
  5
12
330
5
100
AcDbSymbolTableRecord
100
AcDbLinetypeTableRecord
  2
BYBLOCK
 70
     0
  3

 72
    65
 73
     0
 40
0.0
  0
LTYPE
  5
13
330
5
100
AcDbSymbolTableRecord
100
AcDbLinetypeTableRecord
  2
BYLAYER
 70
     0
  3

 72
    65
 73
     0
 40
0.0
  0
LTYPE
  5
14
330
5
100
AcDbSymbolTableRecord
100
AcDbLinetypeTableRecord
  2
CONTINUOUS
 70
     0
  3
Solid line
 72
    65
 73
     0
 40
0.0
  0
LTYPE
  5
AF
330
5
100
AcDbSymbolTableRecord
100
AcDbLinetypeTableRecord
  2
HIDDEN
 70
     0
  3
_ _ _ _ _ _ _ _ _ _ _ _ _ _ _ _ _ _ _ _ _ _ _
 72
    65
 73
     2
 40
0.375
 49
0.25
 74
     0
 49
-0.125
 74
     0
  0
LTYPE
  5
B0
330
5
100
AcDbSymbolTableRecord
100
AcDbLinetypeTableRecord
  2
CENTER
 70
     0
  3
____ _ ____ _ ____ _ ____ _ ____ _ ____ _ ____
 72
    65
 73
     4
 40
2.0
 49
1.25
 74
     0
 49
-0.25
 74
     0
 49
0.25
 74
     0
 49
-0.25
 74
     0
  0
LTYPE
  5
1117
330
5
100
AcDbSymbolTableRecord
100
AcDbLinetypeTableRecord
  2
PHANTOM2
 70
     0
  3
Phantom (.5x) ___ _ _ ___ _ _ ___ _ _ ___ _ _
 72
    65
 73
     6
 40
1.25
 49
0.625
 74
     0
 49
-0.125
 74
     0
 49
0.125
 74
     0
 49
-0.125
 74
     0
 49
0.125
 74
     0
 49
-0.125
 74
     0
  0
LTYPE
  5
1145
330
5
100
AcDbSymbolTableRecord
100
AcDbLinetypeTableRecord
  2
AM_ISO02W050
 70
     0
  3
__ __ __ __ __ __ __ __ __ __ __ __ __ __ __
 72
    65
 73
     2
 40
7.5
 49
6.0
 74
     0
 49
-1.5
 74
     0
  0
LTYPE
  5
1146
330
5
100
AcDbSymbolTableRecord
100
AcDbLinetypeTableRecord
  2
AM_ISO08W050
 70
     0
  3
____ . ____ . ____ . ____ . ____ . ____ . ____
 72
    65
 73
     4
 40
18.0
 49
12.0
 74
     0
 49
-1.5
 74
     0
 49
3.0
 74
     0
 49
-1.5
 74
     0
  0
LTYPE
  5
1147
330
5
100
AcDbSymbolTableRecord
100
AcDbLinetypeTableRecord
  2
AM_ISO09W050
 70
     0
  3
_____ . . _____ . . _____ . . ____ .. ____
 72
    65
 73
     6
 40
22.5
 49
12.0
 74
     0
 49
-1.5
 74
     0
 49
3.0
 74
     0
 49
-1.5
 74
     0
 49
3.0
 74
     0
 49
-1.5
 74
     0
  0
LTYPE
  5
1148
330
5
100
AcDbSymbolTableRecord
100
AcDbLinetypeTableRecord
  2
Amconstr
 70
     0
  3
_______________________
 72
    65
 73
     2
 40
9999.0
 49
9999.0
 74
     0
 49
0.0
 74
     0
  0
LTYPE
  5
1149
330
5
100
AcDbSymbolTableRecord
100
AcDbLinetypeTableRecord
  2
AM_ISO08W050x2
 70
     0
  3
__ . __ . __ . __ . __ . __
 72
    65
 73
     4
 40
9.0
 49
6.0
 74
     0
 49
-0.75
 74
     0
 49
1.5
 74
     0
 49
-0.75
 74
     0
  0
LTYPE
  5
114A
330
5
100
AcDbSymbolTableRecord
100
AcDbLinetypeTableRecord
  2
AM_ISO02W050x2
 70
     0
  3
 _ _ _ _ _ _ _ _ _ _ _ _
 72
    65
 73
     2
 40
3.75
 49
3.0
 74
     0
 49
-0.75
 74
     0
  0
LTYPE
  5
114D
330
5
100
AcDbSymbolTableRecord
100
AcDbLinetypeTableRecord
  2
Amzigzag
 70
     0
  3
/\/-/\/-/\/-/\/-/\/-/\/
 72
    65
 73
     2
 40
11.0001
 49
0.0001
 74
     4
 75
   136
340
114C
 46
0.04
 50
0.0
 44
0.0
 45
0.0
 49
-11.0
 74
     0
  0
LTYPE
  5
114E
330
5
100
AcDbSymbolTableRecord
100
AcDbLinetypeTableRecord
  2
CENTER2
 70
     0
  3
Center (.5x) ___ _ ___ _ ___ _ ___ _ ___ _ ___
 72
    65
 73
     4
 40
1.125
 49
0.75
 74
     0
 49
-0.125
 74
     0
 49
0.125
 74
     0
 49
-0.125
 74
     0
  0
LTYPE
  5
114F
330
5
100
AcDbSymbolTableRecord
100
AcDbLinetypeTableRecord
  2
HIDDEN2
 70
     0
  3
Hidden (.5x) _ _ _ _ _ _ _ _ _ _ _ _ _ _ _ _ _
 72
    65
 73
     2
 40
0.1875
 49
0.125
 74
     0
 49
-0.0625
 74
     0
  0
LTYPE
  5
1150
330
5
100
AcDbSymbolTableRecord
100
AcDbLinetypeTableRecord
  2
Amzigzag2
 70
     0
  3
/\/-/\/-/\/-/\/-/\/-/\/
 72
    65
 73
     2
 40
0.4401
 49
0.0001
 74
     4
 75
   136
340
114C
 46
0.0016
 50
0.0
 44
0.0
 45
0.0
 49
-0.4400000000000001
 74
     0
  0
LTYPE
  5
115F
330
5
100
AcDbSymbolTableRecord
100
AcDbLinetypeTableRecord
  2
ACANSTGB
 70
     0
  3
__ . . __ . .
 72
    65
 73
     6
 40
0.35433070866
 49
0.15748031496
 74
     0
 49
-0.03937007874
 74
     0
 49
0.03937007874
 74
     0
 49
-0.03937007874
 74
     0
 49
0.03937007874
 74
     0
 49
-0.03937007874
 74
     0
  0
LTYPE
  5
1160
330
5
100
AcDbSymbolTableRecord
100
AcDbLinetypeTableRecord
  2
ACANSTGL
 70
     0
  3
_ _ _ _ _
 72
    65
 73
     2
 40
0.11811023622
 49
0.07874015748
 74
     0
 49
-0.03937007874
 74
     0
  0
ENDTAB
  0
TABLE
  2
LAYER
  5
2
330
0
100
AcDbSymbolTable
 70
     7
  0
LAYER
  5
F
330
2
100
AcDbSymbolTableRecord
100
AcDbLayerTableRecord
  2
0
 70
     0
 62
     7
  6
CONTINUOUS
370
    -3
390
F61
347
10D1
  0
LAYER
  5
B3
330
2
100
AcDbSymbolTableRecord
100
AcDbLayerTableRecord
  2
DIM
 70
     0
 62
     3
  6
CONTINUOUS
370
    -3
390
F61
347
10D1
  0
LAYER
  5
B4
330
2
100
AcDbSymbolTableRecord
100
AcDbLayerTableRecord
  2
HATCH
 70
     0
 62
     4
  6
CONTINUOUS
370
    -3
390
F61
347
10D1
  0
LAYER
  5
B6
330
2
100
AcDbSymbolTableRecord
100
AcDbLayerTableRecord
  2
HIDE
 70
     0
 62
     5
  6
HIDDEN
370
    -3
390
F61
347
10D1
  0
LAYER
  5
B7
330
2
100
AcDbSymbolTableRecord
100
AcDbLayerTableRecord
  2
CENTER
 70
     0
 62
     2
  6
CENTER
370
    -3
390
F61
347
10D1
  0
LAYER
  5
B8
330
2
100
AcDbSymbolTableRecord
100
AcDbLayerTableRecord
  2
TITLE
 70
     0
 62
     1
  6
CONTINUOUS
370
    -3
390
F61
347
10D1
  0
LAYER
  5
B9
330
2
100
AcDbSymbolTableRecord
100
AcDbLayerTableRecord
  2
DEFPOINTS
 70
     0
 62
    -7
  6
CONTINUOUS
290
     0
370
    -3
390
F61
347
10D1
  0
ENDTAB
  0
TABLE
  2
STYLE
  5
3
330
0
100
AcDbSymbolTable
 70
     7
  0
STYLE
  5
10
330
3
100
AcDbSymbolTableRecord
100
AcDbTextStyleTableRecord
  2
STANDARD
 70
     0
 40
0.0
 41
1.0
 50
0.0
 71
     0
 42
0.2
  3
txt
  4

  0
STYLE
  5
AD
330
3
100
AcDbSymbolTableRecord
100
AcDbTextStyleTableRecord
  2
ITALIC
 70
     0
 40
0.0
 41
1.0
 50
0.0
 71
     0
 42
0.2
  3
txt
  4

  0
STYLE
  5
AE
330
3
100
AcDbSymbolTableRecord
100
AcDbTextStyleTableRecord
  2
COMPLEX
 70
     0
 40
0.0
 41
1.0
 50
0.0
 71
     0
 42
0.156
  3
ROMANC
  4

  0
STYLE
  5
DBB
330
3
100
AcDbSymbolTableRecord
100
AcDbTextStyleTableRecord
  2
STYLE1
 70
     0
 40
0.0
 41
1.0
 50
0.0
 71
     0
 42
0.25
  3
swiss.ttf
  4

1001
ACAD
1000
Swis721 BT
1071
       34
  0
STYLE
  5
114C
330
3
100
AcDbSymbolTableRecord
100
AcDbTextStyleTableRecord
  2

 70
     1
 40
0.0
 41
1.0
 50
0.0
 71
     0
 42
0.2
  3
genltshp.shx
  4

  0
STYLE
  5
1151
330
3
100
AcDbSymbolTableRecord
100
AcDbTextStyleTableRecord
  2
ACANSTS
 70
     0
 40
1.0
 41
1.0
 50
0.0
 71
     0
 42
0.2
  3
romans.shx
  4

  0
STYLE
  5
115E
330
3
100
AcDbSymbolTableRecord
100
AcDbTextStyleTableRecord
  2
ACANSGDT
 70
     0
 40
0.0
 41
1.0
 50
0.0
 71
     0
 42
0.2
  3
amgdt.shx
  4

  0
ENDTAB
  0
TABLE
  2
VIEW
  5
6
330
0
100
AcDbSymbolTable
 70
     0
  0
ENDTAB
  0
TABLE
  2
UCS
  5
7
330
0
100
AcDbSymbolTable
 70
     0
  0
ENDTAB
  0
TABLE
  2
APPID
  5
9
330
0
100
AcDbSymbolTable
 70
    10
  0
APPID
  5
11
330
9
100
AcDbSymbolTableRecord
100
AcDbRegAppTableRecord
  2
ACAD
 70
     0
  0
APPID
  5
F74
330
9
100
AcDbSymbolTableRecord
100
AcDbRegAppTableRecord
  2
MCAD_NO_VIS
 70
     0
  0
APPID
  5
F75
330
9
100
AcDbSymbolTableRecord
100
AcDbRegAppTableRecord
  2
ACAD_TEMP_GRAPHIC
 70
     0
  0
APPID
  5
FA3
330
9
100
AcDbSymbolTableRecord
100
AcDbRegAppTableRecord
  2
AD_DRAW
 70
     0
  0
APPID
  5
FA6
330
9
100
AcDbSymbolTableRecord
100
AcDbRegAppTableRecord
  2
ACATTRIBSERVICES
 70
     0
  0
APPID
  5
FC4
330
9
100
AcDbSymbolTableRecord
100
AcDbRegAppTableRecord
  2
DESIGNERASSEMBLIES
 70
     0
  0
APPID
  5
FCA
330
9
100
AcDbSymbolTableRecord
100
AcDbRegAppTableRecord
  2
ACADM_DIM_EDIT
 70
     0
  0
APPID
  5
FCB
330
9
100
AcDbSymbolTableRecord
100
AcDbRegAppTableRecord
  2
AMDT_DM_ADJ
 70
     0
  0
APPID
  5
100D
330
9
100
AcDbSymbolTableRecord
100
AcDbRegAppTableRecord
  2
ACAD_PSEXT
 70
     0
  0
APPID
  5
1805
330
9
100
AcDbSymbolTableRecord
100
AcDbRegAppTableRecord
  2
ACAD_DSTYLE_DIMARC_LENGTH_SYMBOL
 70
     0
  0
ENDTAB
  0
TABLE
  2
DIMSTYLE
  5
A
330
0
100
AcDbSymbolTable
 70
     7
100
AcDbDimStyleTable
 71
     1
340
A44
  0
DIMSTYLE
105
A44
102
{ACAD_REACTORS
330
157C
330
157D
330
157E
330
157F
330
1580
330
1581
330
1582
330
1583
330
1584
330
1585
330
1586
330
158B
330
1590
330
1593
330
15AB
330
15E2
330
15E3
330
15E7
330
15E8
330
15EF
330
15F0
102
}
330
A
100
AcDbSymbolTableRecord
100
AcDbDimStyleTableRecord
  2
STANDARD
 70
     0
340
10
  0
DIMSTYLE
105
116A
330
A
100
AcDbSymbolTableRecord
100
AcDbDimStyleTableRecord
  2
AM_ANSI
 70
     0
  4
mm
 41
0.1
 42
0.05
 43
0.5
 44
0.1
 47
0.1
 48
0.1
 78
     7
 79
     2
 90
     1
140
0.12
141
0.0
146
0.71
147
0.06
176
   256
177
   256
178
     2
274
     4
284
     7
340
10
371
    -1
372
    -1
  0
DIMSTYLE
105
116B
330
A
100
AcDbSymbolTableRecord
100
AcDbDimStyleTableRecord
  2
AM_ANSI$3
 70
     0
  4
mm
 41
0.1
 42
0.05
 43
0.5
 44
0.1
 47
0.1
 48
0.1
 78
     7
 79
     2
 90
     1
140
0.12
141
0.0
146
0.71
147
0.06
176
   256
177
   256
178
     2
274
     4
284
     7
288
     1
289
     0
340
10
371
    -1
372
    -1
  0
DIMSTYLE
105
116C
330
A
100
AcDbSymbolTableRecord
100
AcDbDimStyleTableRecord
  2
AM_ANSI$4
 70
     0
  4
mm
 41
0.1
 42
0.05
 43
0.5
 44
0.1
 47
0.1
 48
0.1
 78
     7
 79
     2
 90
     1
140
0.12
141
0.0
146
0.71
147
0.06
176
   256
177
   256
178
     2
274
     4
284
     7
288
     1
289
     0
340
10
371
    -1
372
    -1
  0
DIMSTYLE
105
116D
330
A
100
AcDbSymbolTableRecord
100
AcDbDimStyleTableRecord
  2
AM_ANSI$7
 70
     0
  4
mm
 41
0.1
 42
0.05
 43
0.5
 44
0.1
 47
0.1
 48
0.1
 78
     7
 79
     2
 90
     1
140
0.24
141
0.0
146
0.71
147
0.06
176
   256
177
   256
178
     2
274
     4
284
     7
340
10
371
    -1
372
    -1
  0
DIMSTYLE
105
116E
330
A
100
AcDbSymbolTableRecord
100
AcDbDimStyleTableRecord
  2
AM_ANSI$SF
 70
     0
  4
mm
 41
0.1
 42
0.05
 43
0.5
 44
0.1
 47
0.1
 48
0.1
 75
     1
 76
     1
 78
     7
 79
     2
 90
     1
140
0.12
141
0.0
146
0.71
147
0.06
176
   256
177
   256
178
     2
274
     4
284
     7
340
10
371
    -1
372
    -1
  0
DIMSTYLE
105
1173
330
A
100
AcDbSymbolTableRecord
100
AcDbDimStyleTableRecord
  2
AM_ANSI$SH
 70
     0
  4
mm
 41
0.1
 42
0.05
 43
0.5
 44
0.1
 47
0.1
 48
0.1
 75
     1
 76
     1
 78
     7
 79
     2
 90
     1
140
0.12
141
0.0
146
0.71
147
0.06
173
     1
176
   256
177
   256
178
     2
274
     4
284
     7
340
10
343
116F
371
    -1
372
    -1
  0
ENDTAB
  0
TABLE
  2
BLOCK_RECORD
  5
1
330
0
100
AcDbSymbolTable
 70
    37
  0
BLOCK_RECORD
  5
18
102
{ACAD_XDICTIONARY
360
10B1
102
}
330
1
100
AcDbSymbolTableRecord
100
AcDbBlockTableRecord
  2
*MODEL_SPACE
340
F68
 70
     0
280
     1
281
     0
  0
BLOCK_RECORD
  5
15
330
1
100
AcDbSymbolTableRecord
100
AcDbBlockTableRecord
  2
*PAPER_SPACE
340
F69
 70
     0
280
     1
281
     0
  0
BLOCK_RECORD
  5
28
330
1
100
AcDbSymbolTableRecord
100
AcDbBlockTableRecord
  2
SAATX
340
0
102
{BLKREFS
331
1592
102
}
 70
     0
280
     1
281
     0
  0
BLOCK_RECORD
  5
29
330
1
100
AcDbSymbolTableRecord
100
AcDbBlockTableRecord
  2
SBBTX
340
0
102
{BLKREFS
331
1591
102
}
 70
     0
280
     1
281
     0
  0
BLOCK_RECORD
  5
2A
330
1
100
AcDbSymbolTableRecord
100
AcDbBlockTableRecord
  2
SAAR
340
0
102
{BLKREFS
331
158C
102
}
 70
     0
280
     1
281
     0
  0
BLOCK_RECORD
  5
2B
330
1
100
AcDbSymbolTableRecord
100
AcDbBlockTableRecord
  2
*X3
340
0
102
{BLKREFS
331
561
102
}
 70
     0
280
     1
281
     0
  0
BLOCK_RECORD
  5
2C
330
1
100
AcDbSymbolTableRecord
100
AcDbBlockTableRecord
  2
SBBT
340
0
102
{BLKREFS
331
158D
102
}
 70
     0
280
     1
281
     0
  0
BLOCK_RECORD
  5
2D
330
1
100
AcDbSymbolTableRecord
100
AcDbBlockTableRecord
  2
*X5
340
0
102
{BLKREFS
331
596
102
}
 70
     0
280
     1
281
     0
  0
BLOCK_RECORD
  5
2E
330
1
100
AcDbSymbolTableRecord
100
AcDbBlockTableRecord
  2
SBBB
340
0
102
{BLKREFS
331
158F
102
}
 70
     0
280
     1
281
     0
  0
BLOCK_RECORD
  5
2F
330
1
100
AcDbSymbolTableRecord
100
AcDbBlockTableRecord
  2
*X7
340
0
102
{BLKREFS
331
5E5
102
}
 70
     0
280
     1
281
     0
  0
BLOCK_RECORD
  5
32
330
1
100
AcDbSymbolTableRecord
100
AcDbBlockTableRecord
  2
SAAL
340
0
102
{BLKREFS
331
158E
102
}
 70
     0
280
     1
281
     0
  0
BLOCK_RECORD
  5
33
330
1
100
AcDbSymbolTableRecord
100
AcDbBlockTableRecord
  2
*X9
340
0
102
{BLKREFS
331
65E
102
}
 70
     0
280
     1
281
     0
  0
BLOCK_RECORD
  5
116F
330
1
100
AcDbSymbolTableRecord
100
AcDbBlockTableRecord
  2
GENAXEH
340
0
 70
     0
280
     1
281
     0
  0
BLOCK_RECORD
  5
1178
330
1
100
AcDbSymbolTableRecord
100
AcDbBlockTableRecord
  2
*X11
340
0
102
{BLKREFS
331
1575
102
}
 70
     0
280
     1
281
     0
  0
BLOCK_RECORD
  5
11A2
330
1
100
AcDbSymbolTableRecord
100
AcDbBlockTableRecord
  2
*X12
340
0
102
{BLKREFS
331
1576
102
}
 70
     0
280
     1
281
     0
  0
BLOCK_RECORD
  5
11B6
330
1
100
AcDbSymbolTableRecord
100
AcDbBlockTableRecord
  2
*X13
340
0
102
{BLKREFS
331
1577
102
}
 70
     0
280
     1
281
     0
  0
BLOCK_RECORD
  5
12A7
330
1
100
AcDbSymbolTableRecord
100
AcDbBlockTableRecord
  2
*X14
340
0
102
{BLKREFS
331
1599
102
}
 70
     0
280
     1
281
     0
  0
BLOCK_RECORD
  5
12CF
330
1
100
AcDbSymbolTableRecord
100
AcDbBlockTableRecord
  2
*X15
340
0
102
{BLKREFS
331
159A
102
}
 70
     0
280
     1
281
     0
  0
BLOCK_RECORD
  5
15F1
330
1
100
AcDbSymbolTableRecord
100
AcDbBlockTableRecord
  2
*D16
340
0
 70
     0
280
     1
281
     0
  0
BLOCK_RECORD
  5
15FE
330
1
100
AcDbSymbolTableRecord
100
AcDbBlockTableRecord
  2
*D17
340
0
 70
     0
280
     1
281
     0
  0
BLOCK_RECORD
  5
160B
330
1
100
AcDbSymbolTableRecord
100
AcDbBlockTableRecord
  2
*D18
340
0
 70
     0
280
     1
281
     0
  0
BLOCK_RECORD
  5
1618
330
1
100
AcDbSymbolTableRecord
100
AcDbBlockTableRecord
  2
*D19
340
0
 70
     0
280
     1
281
     0
  0
BLOCK_RECORD
  5
1625
330
1
100
AcDbSymbolTableRecord
100
AcDbBlockTableRecord
  2
*D20
340
0
 70
     0
280
     1
281
     0
  0
BLOCK_RECORD
  5
1632
330
1
100
AcDbSymbolTableRecord
100
AcDbBlockTableRecord
  2
*D21
340
0
 70
     0
280
     1
281
     0
  0
BLOCK_RECORD
  5
163F
330
1
100
AcDbSymbolTableRecord
100
AcDbBlockTableRecord
  2
*D22
340
0
 70
     0
280
     1
281
     0
  0
BLOCK_RECORD
  5
164C
330
1
100
AcDbSymbolTableRecord
100
AcDbBlockTableRecord
  2
*D23
340
0
 70
     0
280
     1
281
     0
  0
BLOCK_RECORD
  5
1659
330
1
100
AcDbSymbolTableRecord
100
AcDbBlockTableRecord
  2
*D24
340
0
 70
     0
280
     1
281
     0
  0
BLOCK_RECORD
  5
1666
330
1
100
AcDbSymbolTableRecord
100
AcDbBlockTableRecord
  2
*D25
340
0
 70
     0
280
     1
281
     0
  0
BLOCK_RECORD
  5
1673
330
1
100
AcDbSymbolTableRecord
100
AcDbBlockTableRecord
  2
*D26
340
0
 70
     0
280
     1
281
     0
  0
BLOCK_RECORD
  5
1680
330
1
100
AcDbSymbolTableRecord
100
AcDbBlockTableRecord
  2
*D27
340
0
 70
     0
280
     1
281
     0
  0
BLOCK_RECORD
  5
168E
330
1
100
AcDbSymbolTableRecord
100
AcDbBlockTableRecord
  2
*D28
340
0
 70
     0
280
     1
281
     0
  0
BLOCK_RECORD
  5
169B
330
1
100
AcDbSymbolTableRecord
100
AcDbBlockTableRecord
  2
*D29
340
0
 70
     0
280
     1
281
     0
  0
BLOCK_RECORD
  5
16A9
330
1
100
AcDbSymbolTableRecord
100
AcDbBlockTableRecord
  2
*D30
340
0
 70
     0
280
     1
281
     0
  0
BLOCK_RECORD
  5
16B4
330
1
100
AcDbSymbolTableRecord
100
AcDbBlockTableRecord
  2
*D31
340
0
 70
     0
280
     1
281
     0
  0
BLOCK_RECORD
  5
16C1
330
1
100
AcDbSymbolTableRecord
100
AcDbBlockTableRecord
  2
*D32
340
0
 70
     0
280
     1
281
     0
  0
BLOCK_RECORD
  5
16CE
330
1
100
AcDbSymbolTableRecord
100
AcDbBlockTableRecord
  2
*D33
340
0
 70
     0
280
     1
281
     0
  0
BLOCK_RECORD
  5
16D9
330
1
100
AcDbSymbolTableRecord
100
AcDbBlockTableRecord
  2
*D34
340
0
 70
     0
280
     1
281
     0
  0
BLOCK_RECORD
  5
16E4
330
1
100
AcDbSymbolTableRecord
100
AcDbBlockTableRecord
  2
*D35
340
0
 70
     0
280
     1
281
     0
  0
BLOCK_RECORD
  5
16F1
330
1
100
AcDbSymbolTableRecord
100
AcDbBlockTableRecord
  2
*D36
340
0
 70
     0
280
     1
281
     0
  0
ENDTAB
  0
ENDSEC
  0
SECTION
  2
BLOCKS
  0
BLOCK
  5
BC
330
18
100
AcDbEntity
  8
0
100
AcDbBlockBegin
  2
*MODEL_SPACE
 70
     0
 10
0.0
 20
0.0
 30
0.0
  3
*MODEL_SPACE
  1

  0
ENDBLK
  5
BD
330
18
100
AcDbEntity
  8
0
100
AcDbBlockEnd
  0
BLOCK
  5
BA
330
15
100
AcDbEntity
 67
     1
  8
0
100
AcDbBlockBegin
  2
*PAPER_SPACE
 70
     0
 10
0.0
 20
0.0
 30
0.0
  3
*PAPER_SPACE
  1

  0
ENDBLK
  5
BB
330
15
100
AcDbEntity
 67
     1
  8
0
100
AcDbBlockEnd
  0
BLOCK
  5
548
330
28
100
AcDbEntity
  8
0
100
AcDbBlockBegin
  2
SAATX
 70
     0
 10
0.0
 20
0.0
 30
0.0
  3
SAATX
  1

  0
LINE
  5
549
330
28
100
AcDbEntity
  8
0
100
AcDbLine
 10
-0.8421662700371435
 20
0.0
 30
0.0
 11
0.8421662700371435
 21
0.0
 31
0.0
  0
LINE
  5
54A
330
28
100
AcDbEntity
  8
0
100
AcDbLine
 10
-0.8421662700371435
 20
0.0199999999999996
 30
0.0
 11
0.8421662700371435
 21
0.0199999999999996
 31
0.0
  0
TEXT
  5
54B
330
28
100
AcDbEntity
  8
0
100
AcDbText
 10
-0.8455144018028244
 20
0.0551412039750448
 30
0.0
 40
0.156
  1
SECTION A-A
  7
COMPLEX
100
AcDbText
  0
ENDBLK
  5
54C
330
28
100
AcDbEntity
  8
0
100
AcDbBlockEnd
  0
BLOCK
  5
54D
330
29
100
AcDbEntity
  8
0
100
AcDbBlockBegin
  2
SBBTX
 70
     0
 10
0.0
 20
0.0
 30
0.0
  3
SBBTX
  1

  0
LINE
  5
54E
330
29
100
AcDbEntity
  8
0
100
AcDbLine
 10
-0.8421662700371435
 20
0.0199999999999996
 30
0.0
 11
0.8421662700371435
 21
0.0199999999999996
 31
0.0
  0
LINE
  5
54F
330
29
100
AcDbEntity
  8
0
100
AcDbLine
 10
-0.8421662700371435
 20
0.0
 30
0.0
 11
0.8421662700371435
 21
0.0
 31
0.0
  0
TEXT
  5
550
330
29
100
AcDbEntity
  8
0
100
AcDbText
 10
-0.8455144018028244
 20
0.0554512145058732
 30
0.0
 40
0.156
  1
SECTION B-B
  7
COMPLEX
100
AcDbText
  0
ENDBLK
  5
551
330
29
100
AcDbEntity
  8
0
100
AcDbBlockEnd
  0
BLOCK
  5
552
330
2A
100
AcDbEntity
  8
0
100
AcDbBlockBegin
  2
SAAR
 70
     0
 10
0.0
 20
0.0
 30
0.0
  3
SAAR
  1

  0
TEXT
  5
553
330
2A
100
AcDbEntity
  8
0
100
AcDbText
 10
0.3487392072179478
 20
0.5116372546807444
 30
0.0
 40
0.156
  1
A
  7
COMPLEX
 72
     1
 11
0.4230249215036617
 21
0.5116372546807444
 31
0.0
100
AcDbText
  0
LINE
  5
554
330
2A
100
AcDbEntity
  8
0
100
AcDbLine
 10
0.4374999999999983
 20
0.2292366486465216
 30
0.0
 11
0.451024804847763
 21
0.2292366486465225
 31
0.0
  0
LINE
  5
555
330
2A
100
AcDbEntity
  8
0
100
AcDbLine
 10
0.4074999999999998
 20
0.2292366486465216
 30
0.0
 11
0.4074999999999989
 21
0.0149999999999988
 31
0.0
  0
LINE
  5
556
330
2A
100
AcDbEntity
  8
0
100
AcDbLine
 10
0.4374999999999992
 20
0.2292366486465216
 30
0.0
 11
0.4374999999999992
 21
-0.017923002649547
 31
0.0
  0
LINE
  5
557
330
2A
100
AcDbEntity
  8
0
100
AcDbLine
 10
0.4224999999999995
 20
0.0299999999999994
 30
0.0
 11
-0.0000000000000009
 21
0.0299999999999994
 31
0.0
  0
LINE
  5
558
330
2A
100
AcDbEntity
  8
0
100
AcDbLine
 10
0.4571321552628529
 20
0.0
 30
0.0
 11
0.0
 21
0.0
 31
0.0
  0
ARC
  5
559
330
2A
100
AcDbEntity
  8
0
100
AcDbCircle
 10
-0.0774898749921995
 20
0.4486009293161688
 30
0.0
 40
0.5
100
AcDbArc
 50
333.9772135427694
 51
0.3646288638273987
  0
LINE
  5
55A
330
2A
100
AcDbEntity
  8
0
100
AcDbLine
 10
0.4374999999999992
 20
0.2292366486465216
 30
0.0
 11
0.4374999999999992
 21
0.2292366486465216
 31
0.0
  0
ARC
  5
55B
330
2A
100
AcDbEntity
  8
0
100
AcDbCircle
 10
0.9224898749921965
 20
0.4486009293161688
 30
0.0
 40
0.5
100
AcDbArc
 50
179.6353711361726
 51
206.0227864572306
  0
ARC
  5
55C
330
2A
100
AcDbEntity
  8
0
100
AcDbCircle
 10
-0.0774898749921995
 20
0.4486009293161688
 30
0.0
 40
0.5200000000000001
100
AcDbArc
 50
335.0482819082217
 51
344.0535702443027
  0
ARC
  5
55D
330
2A
100
AcDbEntity
  8
0
100
AcDbCircle
 10
0.9224898749921965
 20
0.4486009293161688
 30
0.0
 40
0.5200000000000001
100
AcDbArc
 50
195.9464297556973
 51
204.951718091778
  0
LINE
  5
55E
330
2A
100
AcDbEntity
  8
0
100
AcDbLine
 10
0.3939751951522217
 20
0.2292366486465216
 30
0.0
 11
0.4074999999999998
 21
0.2292366486465216
 31
0.0
  0
LINE
  5
55F
330
2A
100
AcDbEntity
  8
0
100
AcDbLine
 10
0.3939751951522217
 20
0.2292366486465216
 30
0.0
 11
0.371819942802035
 21
0.2292366486465216
 31
0.0
  0
LINE
  5
560
330
2A
100
AcDbEntity
  8
0
100
AcDbLine
 10
0.451024804847763
 20
0.2292366486465225
 30
0.0
 11
0.4731800571979621
 21
0.2292366486465216
 31
0.0
  0
INSERT
  5
561
330
2A
100
AcDbEntity
  8
0
100
AcDbBlockReference
  2
*X3
 10
-3.748701991468968
 20
-6.921648479033177
 30
0.0
  0
ENDBLK
  5
562
330
2A
100
AcDbEntity
  8
0
100
AcDbBlockEnd
  0
BLOCK
  5
563
330
2B
100
AcDbEntity
  8
0
100
AcDbBlockBegin
  2
*X3
 70
     1
 10
0.0
 20
0.0
 30
0.0
  3
*X3
  1

  0
LINE
  5
564
330
2B
100
AcDbEntity
  8
0
 62
     0
100
AcDbLine
 10
4.158042821030212
 20
7.25625
 30
0.0
 11
4.184361161907728
 21
7.25625
 31
0.0
  0
LINE
  5
565
330
2B
100
AcDbEntity
  8
0
 62
     0
100
AcDbLine
 10
4.159464167164085
 20
7.2625
 30
0.0
 11
4.182939815773856
 21
7.2625
 31
0.0
  0
LINE
  5
566
330
2B
100
AcDbEntity
  8
0
 62
     0
100
AcDbLine
 10
4.160801607892522
 20
7.26875
 30
0.0
 11
4.181602375045417
 21
7.26875
 31
0.0
  0
LINE
  5
567
330
2B
100
AcDbEntity
  8
0
 62
     0
100
AcDbLine
 10
4.162055829087108
 20
7.275
 30
0.0
 11
4.180348153850832
 21
7.275
 31
0.0
  0
LINE
  5
568
330
2B
100
AcDbEntity
  8
0
 62
     0
100
AcDbLine
 10
4.163227467165616
 20
7.28125
 30
0.0
 11
4.179176515772323
 21
7.28125
 31
0.0
  0
LINE
  5
569
330
2B
100
AcDbEntity
  8
0
 62
     0
100
AcDbLine
 10
4.1643171107912
 20
7.2875
 30
0.0
 11
4.178086872146739
 21
7.2875
 31
0.0
  0
LINE
  5
56A
330
2B
100
AcDbEntity
  8
0
 62
     0
100
AcDbLine
 10
4.165325302419223
 20
7.29375
 30
0.0
 11
4.177078680518715
 21
7.29375
 31
0.0
  0
LINE
  5
56B
330
2B
100
AcDbEntity
  8
0
 62
     0
100
AcDbLine
 10
4.16625253970155
 20
7.3
 30
0.0
 11
4.17615144323639
 21
7.3
 31
0.0
  0
LINE
  5
56C
330
2B
100
AcDbEntity
  8
0
 62
     0
100
AcDbLine
 10
4.167099276757146
 20
7.30625
 30
0.0
 11
4.175304706180795
 21
7.30625
 31
0.0
  0
LINE
  5
56D
330
2B
100
AcDbEntity
  8
0
 62
     0
100
AcDbLine
 10
4.167865925316793
 20
7.3125
 30
0.0
 11
4.174538057621145
 21
7.3125
 31
0.0
  0
LINE
  5
56E
330
2B
100
AcDbEntity
  8
0
 62
     0
100
AcDbLine
 10
4.16855285574882
 20
7.31875
 30
0.0
 11
4.17385112718912
 21
7.31875
 31
0.0
  0
LINE
  5
56F
330
2B
100
AcDbEntity
  8
0
 62
     0
100
AcDbLine
 10
4.169160397971983
 20
7.325
 30
0.0
 11
4.173243584965957
 21
7.325
 31
0.0
  0
LINE
  5
570
330
2B
100
AcDbEntity
  8
0
 62
     0
100
AcDbLine
 10
4.169688842260835
 20
7.33125
 30
0.0
 11
4.172715140677103
 21
7.33125
 31
0.0
  0
LINE
  5
571
330
2B
100
AcDbEntity
  8
0
 62
     0
100
AcDbLine
 10
4.170138439948251
 20
7.3375
 30
0.0
 11
4.172265542989687
 21
7.3375
 31
0.0
  0
LINE
  5
572
330
2B
100
AcDbEntity
  8
0
 62
     0
100
AcDbLine
 10
4.170509404029122
 20
7.34375
 30
0.0
 11
4.171894578908817
 21
7.34375
 31
0.0
  0
LINE
  5
573
330
2B
100
AcDbEntity
  8
0
 62
     0
100
AcDbLine
 10
4.170801909668647
 20
7.35
 30
0.0
 11
4.171602073269292
 21
7.35
 31
0.0
  0
LINE
  5
574
330
2B
100
AcDbEntity
  8
0
 62
     0
100
AcDbLine
 10
4.171016094618071
 20
7.35625
 30
0.0
 11
4.171387888319867
 21
7.35625
 31
0.0
  0
LINE
  5
575
330
2B
100
AcDbEntity
  8
0
 62
     0
100
AcDbLine
 10
4.171152059540171
 20
7.3625
 30
0.0
 11
4.171251923397766
 21
7.3625
 31
0.0
  0
LINE
  5
576
330
2B
100
AcDbEntity
  8
0
 62
     0
100
AcDbLine
 10
4.17119411469162
 20
7.36875
 30
0.0
 11
4.171209868246319
 21
7.36875
 31
0.0
  0
LINE
  5
577
330
2B
100
AcDbEntity
  8
0
 62
     0
100
AcDbLine
 10
4.156536832302816
 20
7.25
 30
0.0
 11
4.185867150635123
 21
7.25
 31
0.0
  0
LINE
  5
578
330
2B
100
AcDbEntity
  8
0
 62
     0
100
AcDbLine
 10
4.154945410438709
 20
7.24375
 30
0.0
 11
4.187458572499231
 21
7.24375
 31
0.0
  0
LINE
  5
579
330
2B
100
AcDbEntity
  8
0
 62
     0
100
AcDbLine
 10
4.153267709311144
 20
7.2375
 30
0.0
 11
4.189136273626795
 21
7.2375
 31
0.0
  0
LINE
  5
57A
330
2B
100
AcDbEntity
  8
0
 62
     0
100
AcDbLine
 10
4.151502824775956
 20
7.23125
 30
0.0
 11
4.190901158161984
 21
7.23125
 31
0.0
  0
LINE
  5
57B
330
2B
100
AcDbEntity
  8
0
 62
     0
100
AcDbLine
 10
4.149649792014731
 20
7.225
 30
0.0
 11
4.170514238817704
 21
7.225
 31
0.0
  0
LINE
  5
57C
330
2B
100
AcDbEntity
  8
0
 62
     0
100
AcDbLine
 10
4.17188974412022
 20
7.225
 30
0.0
 11
4.192754190923209
 21
7.225
 31
0.0
  0
LINE
  5
57D
330
2B
100
AcDbEntity
  8
0
 62
     0
100
AcDbLine
 10
4.147707582635473
 20
7.21875
 30
0.0
 11
4.16865349922432
 21
7.21875
 31
0.0
  0
LINE
  5
57E
330
2B
100
AcDbEntity
  8
0
 62
     0
100
AcDbLine
 10
4.173750483713604
 20
7.21875
 30
0.0
 11
4.194696400302465
 21
7.21875
 31
0.0
  0
LINE
  5
57F
330
2B
100
AcDbEntity
  8
0
 62
     0
100
AcDbLine
 10
4.145675101508724
 20
7.2125
 30
0.0
 11
4.166706944063726
 21
7.2125
 31
0.0
  0
LINE
  5
580
330
2B
100
AcDbEntity
  8
0
 62
     0
100
AcDbLine
 10
4.175697038874197
 20
7.2125
 30
0.0
 11
4.196728881429214
 21
7.2125
 31
0.0
  0
LINE
  5
581
330
2B
100
AcDbEntity
  8
0
 62
     0
100
AcDbLine
 10
4.143551183314425
 20
7.20625
 30
0.0
 11
4.164673557788107
 21
7.20625
 31
0.0
  0
LINE
  5
582
330
2B
100
AcDbEntity
  8
0
 62
     0
100
AcDbLine
 10
4.17773042514982
 20
7.20625
 30
0.0
 11
4.198852799623516
 21
7.20625
 31
0.0
  0
LINE
  5
583
330
2B
100
AcDbEntity
  8
0
 62
     0
100
AcDbLine
 10
4.141334588771703
 20
7.2
 30
0.0
 11
4.162552262360144
 21
7.2
 31
0.0
  0
LINE
  5
584
330
2B
100
AcDbEntity
  8
0
 62
     0
100
AcDbLine
 10
4.179851720577784
 20
7.2
 30
0.0
 11
4.201069394166239
 21
7.2
 31
0.0
  0
LINE
  5
585
330
2B
100
AcDbEntity
  8
0
 62
     0
100
AcDbLine
 10
4.139024000520274
 20
7.19375
 30
0.0
 11
4.160341914027816
 21
7.19375
 31
0.0
  0
LINE
  5
586
330
2B
100
AcDbEntity
  8
0
 62
     0
100
AcDbLine
 10
4.182062068910108
 20
7.19375
 30
0.0
 11
4.203379982417666
 21
7.19375
 31
0.0
  0
LINE
  5
587
330
2B
100
AcDbEntity
  8
0
 62
     0
100
AcDbLine
 10
4.136618018618079
 20
7.1875
 30
0.0
 11
4.158041299813144
 21
7.1875
 31
0.0
  0
LINE
  5
588
330
2B
100
AcDbEntity
  8
0
 62
     0
100
AcDbLine
 10
4.18436268312478
 20
7.1875
 30
0.0
 11
4.20578596431986
 21
7.1875
 31
0.0
  0
LINE
  5
589
330
2B
100
AcDbEntity
  8
0
 62
     0
100
AcDbLine
 10
4.134115155615204
 20
7.18125
 30
0.0
 11
4.155649133687051
 21
7.18125
 31
0.0
  0
LINE
  5
58A
330
2B
100
AcDbEntity
  8
0
 62
     0
100
AcDbLine
 10
4.186754849250876
 20
7.18125
 30
0.0
 11
4.208288827322737
 21
7.18125
 31
0.0
  0
LINE
  5
58B
330
2B
100
AcDbEntity
  8
0
 62
     0
100
AcDbLine
 10
4.131513831158817
 20
7.175
 30
0.0
 11
4.153164052399043
 21
7.175
 31
0.0
  0
LINE
  5
58C
330
2B
100
AcDbEntity
  8
0
 62
     0
100
AcDbLine
 10
4.189239930538879
 20
7.175
 30
0.0
 11
4.210890151779121
 21
7.175
 31
0.0
  0
LINE
  5
58D
330
2B
100
AcDbEntity
  8
0
 62
     0
100
AcDbLine
 10
4.128812366077735
 20
7.16875
 30
0.0
 11
4.1505846109264
 21
7.16875
 31
0.0
  0
LINE
  5
58E
330
2B
100
AcDbEntity
  8
0
 62
     0
100
AcDbLine
 10
4.191819372011525
 20
7.16875
 30
0.0
 11
4.213591616860204
 21
7.16875
 31
0.0
  0
LINE
  5
58F
330
2B
100
AcDbEntity
  8
0
 62
     0
100
AcDbLine
 10
4.126008975888199
 20
7.1625
 30
0.0
 11
4.147909277503027
 21
7.1625
 31
0.0
  0
LINE
  5
590
330
2B
100
AcDbEntity
  8
0
 62
     0
100
AcDbLine
 10
4.194494705434896
 20
7.1625
 30
0.0
 11
4.216395007049741
 21
7.1625
 31
0.0
  0
LINE
  5
591
330
2B
100
AcDbEntity
  8
0
 62
     0
100
AcDbLine
 10
4.123101763654189
 20
7.15625
 30
0.0
 11
4.145136428182898
 21
7.15625
 31
0.0
  0
LINE
  5
592
330
2B
100
AcDbEntity
  8
0
 62
     0
100
AcDbLine
 10
4.197267554755029
 20
7.15625
 30
0.0
 11
4.219302219283752
 21
7.15625
 31
0.0
  0
ENDBLK
  5
593
330
2B
100
AcDbEntity
  8
0
100
AcDbBlockEnd
  0
BLOCK
  5
594
330
2C
100
AcDbEntity
  8
0
100
AcDbBlockBegin
  2
SBBT
 70
     0
 10
0.0
 20
0.0
 30
0.0
  3
SBBT
  1

  0
TEXT
  5
595
330
2C
100
AcDbEntity
  8
0
100
AcDbText
 10
-0.6618640508256033
 20
0.338139455665849
 30
0.0
 40
0.156
  1
B
  7
COMPLEX
 72
     1
 11
-0.5838640508256035
 21
0.338139455665849
 31
0.0
100
AcDbText
  0
INSERT
  5
596
330
2C
100
AcDbEntity
  8
0
100
AcDbBlockReference
  2
*X5
 10
6.921648479033177
 20
-3.748701991468968
 30
0.0
 50
90.0
  0
LINE
  5
597
330
2C
100
AcDbEntity
  8
0
100
AcDbLine
 10
-0.2292366486465225
 20
0.451024804847763
 30
0.0
 11
-0.2292366486465216
 21
0.4731800571979621
 31
0.0
  0
LINE
  5
598
330
2C
100
AcDbEntity
  8
0
100
AcDbLine
 10
-0.2292366486465216
 20
0.3939751951522217
 30
0.0
 11
-0.2292366486465216
 21
0.371819942802035
 31
0.0
  0
LINE
  5
599
330
2C
100
AcDbEntity
  8
0
100
AcDbLine
 10
-0.2292366486465216
 20
0.3939751951522217
 30
0.0
 11
-0.2292366486465216
 21
0.4074999999999998
 31
0.0
  0
ARC
  5
59A
330
2C
100
AcDbEntity
  8
0
100
AcDbCircle
 10
-0.4486009293161688
 20
0.9224898749921965
 30
0.0
 40
0.5200000000000001
100
AcDbArc
 50
285.9464297556974
 51
294.951718091778
  0
ARC
  5
59B
330
2C
100
AcDbEntity
  8
0
100
AcDbCircle
 10
-0.4486009293161688
 20
-0.0774898749921995
 30
0.0
 40
0.5200000000000001
100
AcDbArc
 50
65.04828190822165
 51
74.0535702443027
  0
ARC
  5
59C
330
2C
100
AcDbEntity
  8
0
100
AcDbCircle
 10
-0.4486009293161688
 20
0.9224898749921965
 30
0.0
 40
0.5
100
AcDbArc
 50
269.6353711361726
 51
296.0227864572306
  0
LINE
  5
59D
330
2C
100
AcDbEntity
  8
0
100
AcDbLine
 10
-0.2292366486465216
 20
0.4374999999999992
 30
0.0
 11
-0.2292366486465216
 21
0.4374999999999992
 31
0.0
  0
ARC
  5
59E
330
2C
100
AcDbEntity
  8
0
100
AcDbCircle
 10
-0.4486009293161688
 20
-0.0774898749921995
 30
0.0
 40
0.5
100
AcDbArc
 50
63.97721354276936
 51
90.36462886382741
  0
LINE
  5
59F
330
2C
100
AcDbEntity
  8
0
100
AcDbLine
 10
0.0
 20
0.4571321552628529
 30
0.0
 11
0.0
 21
0.0
 31
0.0
  0
LINE
  5
5A0
330
2C
100
AcDbEntity
  8
0
100
AcDbLine
 10
-0.0299999999999994
 20
0.4224999999999995
 30
0.0
 11
-0.0299999999999994
 21
-0.0000000000000009
 31
0.0
  0
LINE
  5
5A1
330
2C
100
AcDbEntity
  8
0
100
AcDbLine
 10
-0.2292366486465216
 20
0.4374999999999992
 30
0.0
 11
0.017923002649547
 21
0.4374999999999992
 31
0.0
  0
LINE
  5
5A2
330
2C
100
AcDbEntity
  8
0
100
AcDbLine
 10
-0.2292366486465216
 20
0.4074999999999998
 30
0.0
 11
-0.0149999999999988
 21
0.4074999999999989
 31
0.0
  0
LINE
  5
5A3
330
2C
100
AcDbEntity
  8
0
100
AcDbLine
 10
-0.2292366486465216
 20
0.4374999999999983
 30
0.0
 11
-0.2292366486465225
 21
0.451024804847763
 31
0.0
  0
ENDBLK
  5
5A4
330
2C
100
AcDbEntity
  8
0
100
AcDbBlockEnd
  0
BLOCK
  5
5A5
330
2D
100
AcDbEntity
  8
0
100
AcDbBlockBegin
  2
*X5
 70
     1
 10
0.0
 20
0.0
 30
0.0
  3
*X5
  1

  0
LINE
  5
5A6
330
2D
100
AcDbEntity
  8
0
 62
     0
100
AcDbLine
 10
4.158042821030212
 20
7.25625
 30
0.0
 11
4.184361161907728
 21
7.25625
 31
0.0
  0
LINE
  5
5A7
330
2D
100
AcDbEntity
  8
0
 62
     0
100
AcDbLine
 10
4.159464167164085
 20
7.2625
 30
0.0
 11
4.182939815773856
 21
7.2625
 31
0.0
  0
LINE
  5
5A8
330
2D
100
AcDbEntity
  8
0
 62
     0
100
AcDbLine
 10
4.160801607892522
 20
7.26875
 30
0.0
 11
4.181602375045417
 21
7.26875
 31
0.0
  0
LINE
  5
5A9
330
2D
100
AcDbEntity
  8
0
 62
     0
100
AcDbLine
 10
4.162055829087108
 20
7.275
 30
0.0
 11
4.180348153850832
 21
7.275
 31
0.0
  0
LINE
  5
5AA
330
2D
100
AcDbEntity
  8
0
 62
     0
100
AcDbLine
 10
4.163227467165616
 20
7.28125
 30
0.0
 11
4.179176515772323
 21
7.28125
 31
0.0
  0
LINE
  5
5AB
330
2D
100
AcDbEntity
  8
0
 62
     0
100
AcDbLine
 10
4.1643171107912
 20
7.2875
 30
0.0
 11
4.178086872146739
 21
7.2875
 31
0.0
  0
LINE
  5
5AC
330
2D
100
AcDbEntity
  8
0
 62
     0
100
AcDbLine
 10
4.165325302419223
 20
7.29375
 30
0.0
 11
4.177078680518715
 21
7.29375
 31
0.0
  0
LINE
  5
5AD
330
2D
100
AcDbEntity
  8
0
 62
     0
100
AcDbLine
 10
4.16625253970155
 20
7.3
 30
0.0
 11
4.17615144323639
 21
7.3
 31
0.0
  0
LINE
  5
5AE
330
2D
100
AcDbEntity
  8
0
 62
     0
100
AcDbLine
 10
4.167099276757146
 20
7.30625
 30
0.0
 11
4.175304706180795
 21
7.30625
 31
0.0
  0
LINE
  5
5AF
330
2D
100
AcDbEntity
  8
0
 62
     0
100
AcDbLine
 10
4.167865925316793
 20
7.3125
 30
0.0
 11
4.174538057621145
 21
7.3125
 31
0.0
  0
LINE
  5
5B0
330
2D
100
AcDbEntity
  8
0
 62
     0
100
AcDbLine
 10
4.16855285574882
 20
7.31875
 30
0.0
 11
4.17385112718912
 21
7.31875
 31
0.0
  0
LINE
  5
5B1
330
2D
100
AcDbEntity
  8
0
 62
     0
100
AcDbLine
 10
4.169160397971983
 20
7.325
 30
0.0
 11
4.173243584965957
 21
7.325
 31
0.0
  0
LINE
  5
5B2
330
2D
100
AcDbEntity
  8
0
 62
     0
100
AcDbLine
 10
4.169688842260835
 20
7.33125
 30
0.0
 11
4.172715140677103
 21
7.33125
 31
0.0
  0
LINE
  5
5B3
330
2D
100
AcDbEntity
  8
0
 62
     0
100
AcDbLine
 10
4.170138439948251
 20
7.3375
 30
0.0
 11
4.172265542989687
 21
7.3375
 31
0.0
  0
LINE
  5
5B4
330
2D
100
AcDbEntity
  8
0
 62
     0
100
AcDbLine
 10
4.170509404029122
 20
7.34375
 30
0.0
 11
4.171894578908817
 21
7.34375
 31
0.0
  0
LINE
  5
5B5
330
2D
100
AcDbEntity
  8
0
 62
     0
100
AcDbLine
 10
4.170801909668647
 20
7.35
 30
0.0
 11
4.171602073269292
 21
7.35
 31
0.0
  0
LINE
  5
5B6
330
2D
100
AcDbEntity
  8
0
 62
     0
100
AcDbLine
 10
4.171016094618071
 20
7.35625
 30
0.0
 11
4.171387888319867
 21
7.35625
 31
0.0
  0
LINE
  5
5B7
330
2D
100
AcDbEntity
  8
0
 62
     0
100
AcDbLine
 10
4.171152059540171
 20
7.3625
 30
0.0
 11
4.171251923397766
 21
7.3625
 31
0.0
  0
LINE
  5
5B8
330
2D
100
AcDbEntity
  8
0
 62
     0
100
AcDbLine
 10
4.17119411469162
 20
7.36875
 30
0.0
 11
4.171209868246319
 21
7.36875
 31
0.0
  0
LINE
  5
5B9
330
2D
100
AcDbEntity
  8
0
 62
     0
100
AcDbLine
 10
4.156536832302816
 20
7.25
 30
0.0
 11
4.185867150635123
 21
7.25
 31
0.0
  0
LINE
  5
5BA
330
2D
100
AcDbEntity
  8
0
 62
     0
100
AcDbLine
 10
4.154945410438709
 20
7.24375
 30
0.0
 11
4.187458572499231
 21
7.24375
 31
0.0
  0
LINE
  5
5BB
330
2D
100
AcDbEntity
  8
0
 62
     0
100
AcDbLine
 10
4.153267709311144
 20
7.2375
 30
0.0
 11
4.189136273626795
 21
7.2375
 31
0.0
  0
LINE
  5
5BC
330
2D
100
AcDbEntity
  8
0
 62
     0
100
AcDbLine
 10
4.151502824775956
 20
7.23125
 30
0.0
 11
4.190901158161984
 21
7.23125
 31
0.0
  0
LINE
  5
5BD
330
2D
100
AcDbEntity
  8
0
 62
     0
100
AcDbLine
 10
4.149649792014731
 20
7.225
 30
0.0
 11
4.170514238817704
 21
7.225
 31
0.0
  0
LINE
  5
5BE
330
2D
100
AcDbEntity
  8
0
 62
     0
100
AcDbLine
 10
4.17188974412022
 20
7.225
 30
0.0
 11
4.192754190923209
 21
7.225
 31
0.0
  0
LINE
  5
5BF
330
2D
100
AcDbEntity
  8
0
 62
     0
100
AcDbLine
 10
4.147707582635473
 20
7.21875
 30
0.0
 11
4.16865349922432
 21
7.21875
 31
0.0
  0
LINE
  5
5C0
330
2D
100
AcDbEntity
  8
0
 62
     0
100
AcDbLine
 10
4.173750483713604
 20
7.21875
 30
0.0
 11
4.194696400302465
 21
7.21875
 31
0.0
  0
LINE
  5
5C1
330
2D
100
AcDbEntity
  8
0
 62
     0
100
AcDbLine
 10
4.145675101508724
 20
7.2125
 30
0.0
 11
4.166706944063726
 21
7.2125
 31
0.0
  0
LINE
  5
5C2
330
2D
100
AcDbEntity
  8
0
 62
     0
100
AcDbLine
 10
4.175697038874197
 20
7.2125
 30
0.0
 11
4.196728881429214
 21
7.2125
 31
0.0
  0
LINE
  5
5C3
330
2D
100
AcDbEntity
  8
0
 62
     0
100
AcDbLine
 10
4.143551183314425
 20
7.20625
 30
0.0
 11
4.164673557788107
 21
7.20625
 31
0.0
  0
LINE
  5
5C4
330
2D
100
AcDbEntity
  8
0
 62
     0
100
AcDbLine
 10
4.17773042514982
 20
7.20625
 30
0.0
 11
4.198852799623516
 21
7.20625
 31
0.0
  0
LINE
  5
5C5
330
2D
100
AcDbEntity
  8
0
 62
     0
100
AcDbLine
 10
4.141334588771703
 20
7.2
 30
0.0
 11
4.162552262360144
 21
7.2
 31
0.0
  0
LINE
  5
5C6
330
2D
100
AcDbEntity
  8
0
 62
     0
100
AcDbLine
 10
4.179851720577784
 20
7.2
 30
0.0
 11
4.201069394166239
 21
7.2
 31
0.0
  0
LINE
  5
5C7
330
2D
100
AcDbEntity
  8
0
 62
     0
100
AcDbLine
 10
4.139024000520274
 20
7.19375
 30
0.0
 11
4.160341914027816
 21
7.19375
 31
0.0
  0
LINE
  5
5C8
330
2D
100
AcDbEntity
  8
0
 62
     0
100
AcDbLine
 10
4.182062068910108
 20
7.19375
 30
0.0
 11
4.203379982417666
 21
7.19375
 31
0.0
  0
LINE
  5
5C9
330
2D
100
AcDbEntity
  8
0
 62
     0
100
AcDbLine
 10
4.136618018618079
 20
7.1875
 30
0.0
 11
4.158041299813144
 21
7.1875
 31
0.0
  0
LINE
  5
5CA
330
2D
100
AcDbEntity
  8
0
 62
     0
100
AcDbLine
 10
4.18436268312478
 20
7.1875
 30
0.0
 11
4.20578596431986
 21
7.1875
 31
0.0
  0
LINE
  5
5CB
330
2D
100
AcDbEntity
  8
0
 62
     0
100
AcDbLine
 10
4.134115155615204
 20
7.18125
 30
0.0
 11
4.155649133687051
 21
7.18125
 31
0.0
  0
LINE
  5
5CC
330
2D
100
AcDbEntity
  8
0
 62
     0
100
AcDbLine
 10
4.186754849250876
 20
7.18125
 30
0.0
 11
4.208288827322737
 21
7.18125
 31
0.0
  0
LINE
  5
5CD
330
2D
100
AcDbEntity
  8
0
 62
     0
100
AcDbLine
 10
4.131513831158817
 20
7.175
 30
0.0
 11
4.153164052399043
 21
7.175
 31
0.0
  0
LINE
  5
5CE
330
2D
100
AcDbEntity
  8
0
 62
     0
100
AcDbLine
 10
4.189239930538879
 20
7.175
 30
0.0
 11
4.210890151779121
 21
7.175
 31
0.0
  0
LINE
  5
5CF
330
2D
100
AcDbEntity
  8
0
 62
     0
100
AcDbLine
 10
4.128812366077735
 20
7.16875
 30
0.0
 11
4.1505846109264
 21
7.16875
 31
0.0
  0
LINE
  5
5D0
330
2D
100
AcDbEntity
  8
0
 62
     0
100
AcDbLine
 10
4.191819372011525
 20
7.16875
 30
0.0
 11
4.213591616860204
 21
7.16875
 31
0.0
  0
LINE
  5
5D1
330
2D
100
AcDbEntity
  8
0
 62
     0
100
AcDbLine
 10
4.126008975888199
 20
7.1625
 30
0.0
 11
4.147909277503027
 21
7.1625
 31
0.0
  0
LINE
  5
5D2
330
2D
100
AcDbEntity
  8
0
 62
     0
100
AcDbLine
 10
4.194494705434896
 20
7.1625
 30
0.0
 11
4.216395007049741
 21
7.1625
 31
0.0
  0
LINE
  5
5D3
330
2D
100
AcDbEntity
  8
0
 62
     0
100
AcDbLine
 10
4.123101763654189
 20
7.15625
 30
0.0
 11
4.145136428182898
 21
7.15625
 31
0.0
  0
LINE
  5
5D4
330
2D
100
AcDbEntity
  8
0
 62
     0
100
AcDbLine
 10
4.197267554755029
 20
7.15625
 30
0.0
 11
4.219302219283752
 21
7.15625
 31
0.0
  0
ENDBLK
  5
5D5
330
2D
100
AcDbEntity
  8
0
100
AcDbBlockEnd
  0
BLOCK
  5
5D6
330
2E
100
AcDbEntity
  8
0
100
AcDbBlockBegin
  2
SBBB
 70
     0
 10
0.0
 20
0.0
 30
0.0
  3
SBBB
  1

  0
TEXT
  5
5D7
330
2E
100
AcDbEntity
  8
0
100
AcDbText
 10
-0.6558782172982847
 20
-0.50536529293236
 30
0.0
 40
0.156
  1
B
  7
COMPLEX
 72
     1
 11
-0.5778782172982849
 21
-0.50536529293236
 31
0.0
100
AcDbText
  0
LINE
  5
5D8
330
2E
100
AcDbEntity
  8
0
100
AcDbLine
 10
-0.2292366486465216
 20
-0.4374999999999983
 30
0.0
 11
-0.2292366486465225
 21
-0.451024804847763
 31
0.0
  0
LINE
  5
5D9
330
2E
100
AcDbEntity
  8
0
100
AcDbLine
 10
-0.2292366486465216
 20
-0.4074999999999998
 30
0.0
 11
-0.0149999999999988
 21
-0.4074999999999989
 31
0.0
  0
LINE
  5
5DA
330
2E
100
AcDbEntity
  8
0
100
AcDbLine
 10
-0.2292366486465216
 20
-0.4374999999999992
 30
0.0
 11
0.017923002649547
 21
-0.4374999999999992
 31
0.0
  0
LINE
  5
5DB
330
2E
100
AcDbEntity
  8
0
100
AcDbLine
 10
-0.0299999999999994
 20
-0.4224999999999995
 30
0.0
 11
-0.0299999999999994
 21
0.0000000000000009
 31
0.0
  0
LINE
  5
5DC
330
2E
100
AcDbEntity
  8
0
100
AcDbLine
 10
0.0
 20
-0.4571321552628529
 30
0.0
 11
0.0
 21
0.0
 31
0.0
  0
ARC
  5
5DD
330
2E
100
AcDbEntity
  8
0
100
AcDbCircle
 10
-0.4486009293161688
 20
0.0774898749921995
 30
0.0
 40
0.5
100
AcDbArc
 50
269.6353711361726
 51
296.0227864572306
  0
LINE
  5
5DE
330
2E
100
AcDbEntity
  8
0
100
AcDbLine
 10
-0.2292366486465216
 20
-0.4374999999999992
 30
0.0
 11
-0.2292366486465216
 21
-0.4374999999999992
 31
0.0
  0
ARC
  5
5DF
330
2E
100
AcDbEntity
  8
0
100
AcDbCircle
 10
-0.4486009293161688
 20
-0.9224898749921965
 30
0.0
 40
0.5
100
AcDbArc
 50
63.97721354276936
 51
90.36462886382739
  0
ARC
  5
5E0
330
2E
100
AcDbEntity
  8
0
100
AcDbCircle
 10
-0.4486009293161688
 20
0.0774898749921995
 30
0.0
 40
0.5200000000000001
100
AcDbArc
 50
285.9464297556974
 51
294.9517180917784
  0
ARC
  5
5E1
330
2E
100
AcDbEntity
  8
0
100
AcDbCircle
 10
-0.4486009293161688
 20
-0.9224898749921965
 30
0.0
 40
0.5200000000000001
100
AcDbArc
 50
65.04828190822201
 51
74.0535702443027
  0
LINE
  5
5E2
330
2E
100
AcDbEntity
  8
0
100
AcDbLine
 10
-0.2292366486465216
 20
-0.3939751951522217
 30
0.0
 11
-0.2292366486465216
 21
-0.4074999999999998
 31
0.0
  0
LINE
  5
5E3
330
2E
100
AcDbEntity
  8
0
100
AcDbLine
 10
-0.2292366486465216
 20
-0.3939751951522217
 30
0.0
 11
-0.2292366486465216
 21
-0.371819942802035
 31
0.0
  0
LINE
  5
5E4
330
2E
100
AcDbEntity
  8
0
100
AcDbLine
 10
-0.2292366486465225
 20
-0.451024804847763
 30
0.0
 11
-0.2292366486465216
 21
-0.4731800571979621
 31
0.0
  0
INSERT
  5
5E5
330
2E
100
AcDbEntity
  8
0
100
AcDbBlockReference
  2
*X7
 10
6.921648479033177
 20
3.748701991468968
 30
0.0
 41
-1.0
 50
90.0
  0
ENDBLK
  5
5E6
330
2E
100
AcDbEntity
  8
0
100
AcDbBlockEnd
  0
BLOCK
  5
5E7
330
2F
100
AcDbEntity
  8
0
100
AcDbBlockBegin
  2
*X7
 70
     1
 10
0.0
 20
0.0
 30
0.0
  3
*X7
  1

  0
LINE
  5
5E8
330
2F
100
AcDbEntity
  8
0
 62
     0
100
AcDbLine
 10
4.158042821030212
 20
7.25625
 30
0.0
 11
4.184361161907728
 21
7.25625
 31
0.0
  0
LINE
  5
5E9
330
2F
100
AcDbEntity
  8
0
 62
     0
100
AcDbLine
 10
4.159464167164085
 20
7.2625
 30
0.0
 11
4.182939815773856
 21
7.2625
 31
0.0
  0
LINE
  5
5EA
330
2F
100
AcDbEntity
  8
0
 62
     0
100
AcDbLine
 10
4.160801607892522
 20
7.26875
 30
0.0
 11
4.181602375045417
 21
7.26875
 31
0.0
  0
LINE
  5
5EB
330
2F
100
AcDbEntity
  8
0
 62
     0
100
AcDbLine
 10
4.162055829087108
 20
7.275
 30
0.0
 11
4.180348153850832
 21
7.275
 31
0.0
  0
LINE
  5
5EC
330
2F
100
AcDbEntity
  8
0
 62
     0
100
AcDbLine
 10
4.163227467165616
 20
7.28125
 30
0.0
 11
4.179176515772323
 21
7.28125
 31
0.0
  0
LINE
  5
5ED
330
2F
100
AcDbEntity
  8
0
 62
     0
100
AcDbLine
 10
4.1643171107912
 20
7.2875
 30
0.0
 11
4.178086872146739
 21
7.2875
 31
0.0
  0
LINE
  5
5EE
330
2F
100
AcDbEntity
  8
0
 62
     0
100
AcDbLine
 10
4.165325302419223
 20
7.29375
 30
0.0
 11
4.177078680518715
 21
7.29375
 31
0.0
  0
LINE
  5
5EF
330
2F
100
AcDbEntity
  8
0
 62
     0
100
AcDbLine
 10
4.16625253970155
 20
7.3
 30
0.0
 11
4.17615144323639
 21
7.3
 31
0.0
  0
LINE
  5
5F0
330
2F
100
AcDbEntity
  8
0
 62
     0
100
AcDbLine
 10
4.167099276757146
 20
7.30625
 30
0.0
 11
4.175304706180795
 21
7.30625
 31
0.0
  0
LINE
  5
5F1
330
2F
100
AcDbEntity
  8
0
 62
     0
100
AcDbLine
 10
4.167865925316793
 20
7.3125
 30
0.0
 11
4.174538057621145
 21
7.3125
 31
0.0
  0
LINE
  5
5F2
330
2F
100
AcDbEntity
  8
0
 62
     0
100
AcDbLine
 10
4.16855285574882
 20
7.31875
 30
0.0
 11
4.17385112718912
 21
7.31875
 31
0.0
  0
LINE
  5
5F3
330
2F
100
AcDbEntity
  8
0
 62
     0
100
AcDbLine
 10
4.169160397971983
 20
7.325
 30
0.0
 11
4.173243584965957
 21
7.325
 31
0.0
  0
LINE
  5
5F4
330
2F
100
AcDbEntity
  8
0
 62
     0
100
AcDbLine
 10
4.169688842260835
 20
7.33125
 30
0.0
 11
4.172715140677103
 21
7.33125
 31
0.0
  0
LINE
  5
5F5
330
2F
100
AcDbEntity
  8
0
 62
     0
100
AcDbLine
 10
4.170138439948251
 20
7.3375
 30
0.0
 11
4.172265542989687
 21
7.3375
 31
0.0
  0
LINE
  5
5F6
330
2F
100
AcDbEntity
  8
0
 62
     0
100
AcDbLine
 10
4.170509404029122
 20
7.34375
 30
0.0
 11
4.171894578908817
 21
7.34375
 31
0.0
  0
LINE
  5
5F7
330
2F
100
AcDbEntity
  8
0
 62
     0
100
AcDbLine
 10
4.170801909668647
 20
7.35
 30
0.0
 11
4.171602073269292
 21
7.35
 31
0.0
  0
LINE
  5
5F8
330
2F
100
AcDbEntity
  8
0
 62
     0
100
AcDbLine
 10
4.171016094618071
 20
7.35625
 30
0.0
 11
4.171387888319867
 21
7.35625
 31
0.0
  0
LINE
  5
5F9
330
2F
100
AcDbEntity
  8
0
 62
     0
100
AcDbLine
 10
4.171152059540171
 20
7.3625
 30
0.0
 11
4.171251923397766
 21
7.3625
 31
0.0
  0
LINE
  5
5FA
330
2F
100
AcDbEntity
  8
0
 62
     0
100
AcDbLine
 10
4.17119411469162
 20
7.36875
 30
0.0
 11
4.171209868246319
 21
7.36875
 31
0.0
  0
LINE
  5
5FB
330
2F
100
AcDbEntity
  8
0
 62
     0
100
AcDbLine
 10
4.156536832302816
 20
7.25
 30
0.0
 11
4.185867150635123
 21
7.25
 31
0.0
  0
LINE
  5
5FC
330
2F
100
AcDbEntity
  8
0
 62
     0
100
AcDbLine
 10
4.154945410438709
 20
7.24375
 30
0.0
 11
4.187458572499231
 21
7.24375
 31
0.0
  0
LINE
  5
5FD
330
2F
100
AcDbEntity
  8
0
 62
     0
100
AcDbLine
 10
4.153267709311144
 20
7.2375
 30
0.0
 11
4.189136273626795
 21
7.2375
 31
0.0
  0
LINE
  5
5FE
330
2F
100
AcDbEntity
  8
0
 62
     0
100
AcDbLine
 10
4.151502824775956
 20
7.23125
 30
0.0
 11
4.190901158161984
 21
7.23125
 31
0.0
  0
LINE
  5
5FF
330
2F
100
AcDbEntity
  8
0
 62
     0
100
AcDbLine
 10
4.149649792014731
 20
7.225
 30
0.0
 11
4.170514238817704
 21
7.225
 31
0.0
  0
LINE
  5
600
330
2F
100
AcDbEntity
  8
0
 62
     0
100
AcDbLine
 10
4.17188974412022
 20
7.225
 30
0.0
 11
4.192754190923209
 21
7.225
 31
0.0
  0
LINE
  5
601
330
2F
100
AcDbEntity
  8
0
 62
     0
100
AcDbLine
 10
4.147707582635473
 20
7.21875
 30
0.0
 11
4.16865349922432
 21
7.21875
 31
0.0
  0
LINE
  5
602
330
2F
100
AcDbEntity
  8
0
 62
     0
100
AcDbLine
 10
4.173750483713604
 20
7.21875
 30
0.0
 11
4.194696400302465
 21
7.21875
 31
0.0
  0
LINE
  5
603
330
2F
100
AcDbEntity
  8
0
 62
     0
100
AcDbLine
 10
4.145675101508724
 20
7.2125
 30
0.0
 11
4.166706944063726
 21
7.2125
 31
0.0
  0
LINE
  5
604
330
2F
100
AcDbEntity
  8
0
 62
     0
100
AcDbLine
 10
4.175697038874197
 20
7.2125
 30
0.0
 11
4.196728881429214
 21
7.2125
 31
0.0
  0
LINE
  5
605
330
2F
100
AcDbEntity
  8
0
 62
     0
100
AcDbLine
 10
4.143551183314425
 20
7.20625
 30
0.0
 11
4.164673557788107
 21
7.20625
 31
0.0
  0
LINE
  5
606
330
2F
100
AcDbEntity
  8
0
 62
     0
100
AcDbLine
 10
4.17773042514982
 20
7.20625
 30
0.0
 11
4.198852799623516
 21
7.20625
 31
0.0
  0
LINE
  5
607
330
2F
100
AcDbEntity
  8
0
 62
     0
100
AcDbLine
 10
4.141334588771703
 20
7.2
 30
0.0
 11
4.162552262360144
 21
7.2
 31
0.0
  0
LINE
  5
608
330
2F
100
AcDbEntity
  8
0
 62
     0
100
AcDbLine
 10
4.179851720577784
 20
7.2
 30
0.0
 11
4.201069394166239
 21
7.2
 31
0.0
  0
LINE
  5
609
330
2F
100
AcDbEntity
  8
0
 62
     0
100
AcDbLine
 10
4.139024000520274
 20
7.19375
 30
0.0
 11
4.160341914027816
 21
7.19375
 31
0.0
  0
LINE
  5
60A
330
2F
100
AcDbEntity
  8
0
 62
     0
100
AcDbLine
 10
4.182062068910108
 20
7.19375
 30
0.0
 11
4.203379982417666
 21
7.19375
 31
0.0
  0
LINE
  5
60B
330
2F
100
AcDbEntity
  8
0
 62
     0
100
AcDbLine
 10
4.136618018618079
 20
7.1875
 30
0.0
 11
4.158041299813144
 21
7.1875
 31
0.0
  0
LINE
  5
60C
330
2F
100
AcDbEntity
  8
0
 62
     0
100
AcDbLine
 10
4.18436268312478
 20
7.1875
 30
0.0
 11
4.20578596431986
 21
7.1875
 31
0.0
  0
LINE
  5
60D
330
2F
100
AcDbEntity
  8
0
 62
     0
100
AcDbLine
 10
4.134115155615204
 20
7.18125
 30
0.0
 11
4.155649133687051
 21
7.18125
 31
0.0
  0
LINE
  5
60E
330
2F
100
AcDbEntity
  8
0
 62
     0
100
AcDbLine
 10
4.186754849250876
 20
7.18125
 30
0.0
 11
4.208288827322737
 21
7.18125
 31
0.0
  0
LINE
  5
60F
330
2F
100
AcDbEntity
  8
0
 62
     0
100
AcDbLine
 10
4.131513831158817
 20
7.175
 30
0.0
 11
4.153164052399043
 21
7.175
 31
0.0
  0
LINE
  5
610
330
2F
100
AcDbEntity
  8
0
 62
     0
100
AcDbLine
 10
4.189239930538879
 20
7.175
 30
0.0
 11
4.210890151779121
 21
7.175
 31
0.0
  0
LINE
  5
611
330
2F
100
AcDbEntity
  8
0
 62
     0
100
AcDbLine
 10
4.128812366077735
 20
7.16875
 30
0.0
 11
4.1505846109264
 21
7.16875
 31
0.0
  0
LINE
  5
612
330
2F
100
AcDbEntity
  8
0
 62
     0
100
AcDbLine
 10
4.191819372011525
 20
7.16875
 30
0.0
 11
4.213591616860204
 21
7.16875
 31
0.0
  0
LINE
  5
613
330
2F
100
AcDbEntity
  8
0
 62
     0
100
AcDbLine
 10
4.126008975888199
 20
7.1625
 30
0.0
 11
4.147909277503027
 21
7.1625
 31
0.0
  0
LINE
  5
614
330
2F
100
AcDbEntity
  8
0
 62
     0
100
AcDbLine
 10
4.194494705434896
 20
7.1625
 30
0.0
 11
4.216395007049741
 21
7.1625
 31
0.0
  0
LINE
  5
615
330
2F
100
AcDbEntity
  8
0
 62
     0
100
AcDbLine
 10
4.123101763654189
 20
7.15625
 30
0.0
 11
4.145136428182898
 21
7.15625
 31
0.0
  0
LINE
  5
616
330
2F
100
AcDbEntity
  8
0
 62
     0
100
AcDbLine
 10
4.197267554755029
 20
7.15625
 30
0.0
 11
4.219302219283752
 21
7.15625
 31
0.0
  0
ENDBLK
  5
617
330
2F
100
AcDbEntity
  8
0
100
AcDbBlockEnd
  0
BLOCK
  5
65C
330
32
100
AcDbEntity
  8
0
100
AcDbBlockBegin
  2
SAAL
 70
     0
 10
0.0
 20
0.0
 30
0.0
  3
SAAL
  1

  0
TEXT
  5
65D
330
32
100
AcDbEntity
  8
0
100
AcDbText
 10
-0.5040834610697376
 20
0.5122863324383254
 30
0.0
 40
0.156
  1
A
  7
COMPLEX
 72
     1
 11
-0.4297977467840233
 21
0.5122863324383254
 31
0.0
100
AcDbText
  0
INSERT
  5
65E
330
32
100
AcDbEntity
  8
0
100
AcDbBlockReference
  2
*X9
 10
3.748701991468969
 20
-6.921648479033177
 30
0.0
 41
-1.0
  0
LINE
  5
65F
330
32
100
AcDbEntity
  8
0
100
AcDbLine
 10
-0.4510248048477635
 20
0.2292366486465225
 30
0.0
 11
-0.4731800571979626
 21
0.2292366486465216
 31
0.0
  0
LINE
  5
660
330
32
100
AcDbEntity
  8
0
100
AcDbLine
 10
-0.3939751951522221
 20
0.2292366486465216
 30
0.0
 11
-0.3718199428020354
 21
0.2292366486465216
 31
0.0
  0
LINE
  5
661
330
32
100
AcDbEntity
  8
0
100
AcDbLine
 10
-0.3939751951522221
 20
0.2292366486465216
 30
0.0
 11
-0.4075000000000002
 21
0.2292366486465216
 31
0.0
  0
ARC
  5
662
330
32
100
AcDbEntity
  8
0
100
AcDbCircle
 10
-0.9224898749921969
 20
0.4486009293161688
 30
0.0
 40
0.5200000000000001
100
AcDbArc
 50
335.048281908222
 51
344.0535702443027
  0
ARC
  5
663
330
32
100
AcDbEntity
  8
0
100
AcDbCircle
 10
0.0774898749921995
 20
0.4486009293161688
 30
0.0
 40
0.5200000000000001
100
AcDbArc
 50
195.9464297556973
 51
204.9517180917784
  0
ARC
  5
664
330
32
100
AcDbEntity
  8
0
100
AcDbCircle
 10
-0.9224898749921969
 20
0.4486009293161688
 30
0.0
 40
0.5
100
AcDbArc
 50
333.9772135427694
 51
0.3646288638273872
  0
LINE
  5
665
330
32
100
AcDbEntity
  8
0
100
AcDbLine
 10
-0.4374999999999996
 20
0.2292366486465216
 30
0.0
 11
-0.4374999999999996
 21
0.2292366486465216
 31
0.0
  0
ARC
  5
666
330
32
100
AcDbEntity
  8
0
100
AcDbCircle
 10
0.0774898749921995
 20
0.4486009293161688
 30
0.0
 40
0.5
100
AcDbArc
 50
179.6353711361726
 51
206.0227864572306
  0
LINE
  5
667
330
32
100
AcDbEntity
  8
0
100
AcDbLine
 10
-0.4571321552628534
 20
0.0
 30
0.0
 11
0.0
 21
0.0
 31
0.0
  0
LINE
  5
668
330
32
100
AcDbEntity
  8
0
100
AcDbLine
 10
-0.4224999999999999
 20
0.0299999999999994
 30
0.0
 11
0.0000000000000009
 21
0.0299999999999994
 31
0.0
  0
LINE
  5
669
330
32
100
AcDbEntity
  8
0
100
AcDbLine
 10
-0.4374999999999996
 20
0.2292366486465216
 30
0.0
 11
-0.4374999999999996
 21
-0.017923002649547
 31
0.0
  0
LINE
  5
66A
330
32
100
AcDbEntity
  8
0
100
AcDbLine
 10
-0.4075000000000002
 20
0.2292366486465216
 30
0.0
 11
-0.4074999999999993
 21
0.0149999999999988
 31
0.0
  0
LINE
  5
66B
330
32
100
AcDbEntity
  8
0
100
AcDbLine
 10
-0.4374999999999987
 20
0.2292366486465216
 30
0.0
 11
-0.4510248048477635
 21
0.2292366486465225
 31
0.0
  0
ENDBLK
  5
66C
330
32
100
AcDbEntity
  8
0
100
AcDbBlockEnd
  0
BLOCK
  5
66D
330
33
100
AcDbEntity
  8
0
100
AcDbBlockBegin
  2
*X9
 70
     1
 10
0.0
 20
0.0
 30
0.0
  3
*X9
  1

  0
LINE
  5
66E
330
33
100
AcDbEntity
  8
0
 62
     0
100
AcDbLine
 10
4.158042821030212
 20
7.25625
 30
0.0
 11
4.184361161907728
 21
7.25625
 31
0.0
  0
LINE
  5
66F
330
33
100
AcDbEntity
  8
0
 62
     0
100
AcDbLine
 10
4.159464167164085
 20
7.2625
 30
0.0
 11
4.182939815773856
 21
7.2625
 31
0.0
  0
LINE
  5
670
330
33
100
AcDbEntity
  8
0
 62
     0
100
AcDbLine
 10
4.160801607892522
 20
7.26875
 30
0.0
 11
4.181602375045417
 21
7.26875
 31
0.0
  0
LINE
  5
671
330
33
100
AcDbEntity
  8
0
 62
     0
100
AcDbLine
 10
4.162055829087108
 20
7.275
 30
0.0
 11
4.180348153850832
 21
7.275
 31
0.0
  0
LINE
  5
672
330
33
100
AcDbEntity
  8
0
 62
     0
100
AcDbLine
 10
4.163227467165616
 20
7.28125
 30
0.0
 11
4.179176515772323
 21
7.28125
 31
0.0
  0
LINE
  5
673
330
33
100
AcDbEntity
  8
0
 62
     0
100
AcDbLine
 10
4.1643171107912
 20
7.2875
 30
0.0
 11
4.178086872146739
 21
7.2875
 31
0.0
  0
LINE
  5
674
330
33
100
AcDbEntity
  8
0
 62
     0
100
AcDbLine
 10
4.165325302419223
 20
7.29375
 30
0.0
 11
4.177078680518715
 21
7.29375
 31
0.0
  0
LINE
  5
675
330
33
100
AcDbEntity
  8
0
 62
     0
100
AcDbLine
 10
4.16625253970155
 20
7.3
 30
0.0
 11
4.17615144323639
 21
7.3
 31
0.0
  0
LINE
  5
676
330
33
100
AcDbEntity
  8
0
 62
     0
100
AcDbLine
 10
4.167099276757146
 20
7.30625
 30
0.0
 11
4.175304706180795
 21
7.30625
 31
0.0
  0
LINE
  5
677
330
33
100
AcDbEntity
  8
0
 62
     0
100
AcDbLine
 10
4.167865925316793
 20
7.3125
 30
0.0
 11
4.174538057621145
 21
7.3125
 31
0.0
  0
LINE
  5
678
330
33
100
AcDbEntity
  8
0
 62
     0
100
AcDbLine
 10
4.16855285574882
 20
7.31875
 30
0.0
 11
4.17385112718912
 21
7.31875
 31
0.0
  0
LINE
  5
679
330
33
100
AcDbEntity
  8
0
 62
     0
100
AcDbLine
 10
4.169160397971983
 20
7.325
 30
0.0
 11
4.173243584965957
 21
7.325
 31
0.0
  0
LINE
  5
67A
330
33
100
AcDbEntity
  8
0
 62
     0
100
AcDbLine
 10
4.169688842260835
 20
7.33125
 30
0.0
 11
4.172715140677103
 21
7.33125
 31
0.0
  0
LINE
  5
67B
330
33
100
AcDbEntity
  8
0
 62
     0
100
AcDbLine
 10
4.170138439948251
 20
7.3375
 30
0.0
 11
4.172265542989687
 21
7.3375
 31
0.0
  0
LINE
  5
67C
330
33
100
AcDbEntity
  8
0
 62
     0
100
AcDbLine
 10
4.170509404029122
 20
7.34375
 30
0.0
 11
4.171894578908817
 21
7.34375
 31
0.0
  0
LINE
  5
67D
330
33
100
AcDbEntity
  8
0
 62
     0
100
AcDbLine
 10
4.170801909668647
 20
7.35
 30
0.0
 11
4.171602073269292
 21
7.35
 31
0.0
  0
LINE
  5
67E
330
33
100
AcDbEntity
  8
0
 62
     0
100
AcDbLine
 10
4.171016094618071
 20
7.35625
 30
0.0
 11
4.171387888319867
 21
7.35625
 31
0.0
  0
LINE
  5
67F
330
33
100
AcDbEntity
  8
0
 62
     0
100
AcDbLine
 10
4.171152059540171
 20
7.3625
 30
0.0
 11
4.171251923397766
 21
7.3625
 31
0.0
  0
LINE
  5
680
330
33
100
AcDbEntity
  8
0
 62
     0
100
AcDbLine
 10
4.17119411469162
 20
7.36875
 30
0.0
 11
4.171209868246319
 21
7.36875
 31
0.0
  0
LINE
  5
681
330
33
100
AcDbEntity
  8
0
 62
     0
100
AcDbLine
 10
4.156536832302816
 20
7.25
 30
0.0
 11
4.185867150635123
 21
7.25
 31
0.0
  0
LINE
  5
682
330
33
100
AcDbEntity
  8
0
 62
     0
100
AcDbLine
 10
4.154945410438709
 20
7.24375
 30
0.0
 11
4.187458572499231
 21
7.24375
 31
0.0
  0
LINE
  5
683
330
33
100
AcDbEntity
  8
0
 62
     0
100
AcDbLine
 10
4.153267709311144
 20
7.2375
 30
0.0
 11
4.189136273626795
 21
7.2375
 31
0.0
  0
LINE
  5
684
330
33
100
AcDbEntity
  8
0
 62
     0
100
AcDbLine
 10
4.151502824775956
 20
7.23125
 30
0.0
 11
4.190901158161984
 21
7.23125
 31
0.0
  0
LINE
  5
685
330
33
100
AcDbEntity
  8
0
 62
     0
100
AcDbLine
 10
4.149649792014731
 20
7.225
 30
0.0
 11
4.170514238817704
 21
7.225
 31
0.0
  0
LINE
  5
686
330
33
100
AcDbEntity
  8
0
 62
     0
100
AcDbLine
 10
4.17188974412022
 20
7.225
 30
0.0
 11
4.192754190923209
 21
7.225
 31
0.0
  0
LINE
  5
687
330
33
100
AcDbEntity
  8
0
 62
     0
100
AcDbLine
 10
4.147707582635473
 20
7.21875
 30
0.0
 11
4.16865349922432
 21
7.21875
 31
0.0
  0
LINE
  5
688
330
33
100
AcDbEntity
  8
0
 62
     0
100
AcDbLine
 10
4.173750483713604
 20
7.21875
 30
0.0
 11
4.194696400302465
 21
7.21875
 31
0.0
  0
LINE
  5
689
330
33
100
AcDbEntity
  8
0
 62
     0
100
AcDbLine
 10
4.145675101508724
 20
7.2125
 30
0.0
 11
4.166706944063726
 21
7.2125
 31
0.0
  0
LINE
  5
68A
330
33
100
AcDbEntity
  8
0
 62
     0
100
AcDbLine
 10
4.175697038874197
 20
7.2125
 30
0.0
 11
4.196728881429214
 21
7.2125
 31
0.0
  0
LINE
  5
68B
330
33
100
AcDbEntity
  8
0
 62
     0
100
AcDbLine
 10
4.143551183314425
 20
7.20625
 30
0.0
 11
4.164673557788107
 21
7.20625
 31
0.0
  0
LINE
  5
68C
330
33
100
AcDbEntity
  8
0
 62
     0
100
AcDbLine
 10
4.17773042514982
 20
7.20625
 30
0.0
 11
4.198852799623516
 21
7.20625
 31
0.0
  0
LINE
  5
68D
330
33
100
AcDbEntity
  8
0
 62
     0
100
AcDbLine
 10
4.141334588771703
 20
7.2
 30
0.0
 11
4.162552262360144
 21
7.2
 31
0.0
  0
LINE
  5
68E
330
33
100
AcDbEntity
  8
0
 62
     0
100
AcDbLine
 10
4.179851720577784
 20
7.2
 30
0.0
 11
4.201069394166239
 21
7.2
 31
0.0
  0
LINE
  5
68F
330
33
100
AcDbEntity
  8
0
 62
     0
100
AcDbLine
 10
4.139024000520274
 20
7.19375
 30
0.0
 11
4.160341914027816
 21
7.19375
 31
0.0
  0
LINE
  5
690
330
33
100
AcDbEntity
  8
0
 62
     0
100
AcDbLine
 10
4.182062068910108
 20
7.19375
 30
0.0
 11
4.203379982417666
 21
7.19375
 31
0.0
  0
LINE
  5
691
330
33
100
AcDbEntity
  8
0
 62
     0
100
AcDbLine
 10
4.136618018618079
 20
7.1875
 30
0.0
 11
4.158041299813144
 21
7.1875
 31
0.0
  0
LINE
  5
692
330
33
100
AcDbEntity
  8
0
 62
     0
100
AcDbLine
 10
4.18436268312478
 20
7.1875
 30
0.0
 11
4.20578596431986
 21
7.1875
 31
0.0
  0
LINE
  5
693
330
33
100
AcDbEntity
  8
0
 62
     0
100
AcDbLine
 10
4.134115155615204
 20
7.18125
 30
0.0
 11
4.155649133687051
 21
7.18125
 31
0.0
  0
LINE
  5
694
330
33
100
AcDbEntity
  8
0
 62
     0
100
AcDbLine
 10
4.186754849250876
 20
7.18125
 30
0.0
 11
4.208288827322737
 21
7.18125
 31
0.0
  0
LINE
  5
695
330
33
100
AcDbEntity
  8
0
 62
     0
100
AcDbLine
 10
4.131513831158817
 20
7.175
 30
0.0
 11
4.153164052399043
 21
7.175
 31
0.0
  0
LINE
  5
696
330
33
100
AcDbEntity
  8
0
 62
     0
100
AcDbLine
 10
4.189239930538879
 20
7.175
 30
0.0
 11
4.210890151779121
 21
7.175
 31
0.0
  0
LINE
  5
697
330
33
100
AcDbEntity
  8
0
 62
     0
100
AcDbLine
 10
4.128812366077735
 20
7.16875
 30
0.0
 11
4.1505846109264
 21
7.16875
 31
0.0
  0
LINE
  5
698
330
33
100
AcDbEntity
  8
0
 62
     0
100
AcDbLine
 10
4.191819372011525
 20
7.16875
 30
0.0
 11
4.213591616860204
 21
7.16875
 31
0.0
  0
LINE
  5
699
330
33
100
AcDbEntity
  8
0
 62
     0
100
AcDbLine
 10
4.126008975888199
 20
7.1625
 30
0.0
 11
4.147909277503027
 21
7.1625
 31
0.0
  0
LINE
  5
69A
330
33
100
AcDbEntity
  8
0
 62
     0
100
AcDbLine
 10
4.194494705434896
 20
7.1625
 30
0.0
 11
4.216395007049741
 21
7.1625
 31
0.0
  0
LINE
  5
69B
330
33
100
AcDbEntity
  8
0
 62
     0
100
AcDbLine
 10
4.123101763654189
 20
7.15625
 30
0.0
 11
4.145136428182898
 21
7.15625
 31
0.0
  0
LINE
  5
69C
330
33
100
AcDbEntity
  8
0
 62
     0
100
AcDbLine
 10
4.197267554755029
 20
7.15625
 30
0.0
 11
4.219302219283752
 21
7.15625
 31
0.0
  0
ENDBLK
  5
69D
330
33
100
AcDbEntity
  8
0
100
AcDbBlockEnd
  0
BLOCK
  5
1171
330
116F
100
AcDbEntity
  8
0
100
AcDbBlockBegin
  2
GENAXEH
 70
     0
 10
0.0
 20
0.0
 30
0.0
  3
GENAXEH
  1

  0
LINE
  5
1170
330
116F
100
AcDbEntity
  8
0
100
AcDbLine
 10
-1.0
 20
0.0
 30
0.0
 11
1.0
 21
0.0
 31
0.0
  0
ENDBLK
  5
1172
330
116F
100
AcDbEntity
  8
0
100
AcDbBlockEnd
  0
BLOCK
  5
1179
330
1178
100
AcDbEntity
  8
0
100
AcDbBlockBegin
  2
*X11
 70
     1
 10
0.0
 20
0.0
 30
0.0
  3
*X11
  1

  0
LINE
  5
117A
330
1178
100
AcDbEntity
  8
0
 62
     0
100
AcDbLine
 10
30.6638548183199
 20
7.329331039163823
 30
0.0
 11
30.78532931239786
 21
7.450805533241787
 31
0.0
  0
LINE
  5
117B
330
1178
100
AcDbEntity
  8
0
 62
     0
100
AcDbLine
 10
30.64429752539616
 20
8.370433918019909
 30
0.0
 11
30.76671492228638
 21
8.492851314910124
 31
0.0
  0
LINE
  5
117C
330
1178
100
AcDbEntity
  8
0
 62
     0
100
AcDbLine
 10
30.6261012503926
 20
9.412897814796176
 30
0.0
 11
30.74810053217489
 21
9.534897096578459
 31
0.0
  0
LINE
  5
117D
330
1178
100
AcDbEntity
  8
0
 62
     0
100
AcDbLine
 10
30.47778923215232
 20
10.32524596833571
 30
0.0
 11
30.57036310721181
 21
10.4178198433952
 31
0.0
  0
LINE
  5
117E
330
1178
100
AcDbEntity
  8
0
 62
     0
100
AcDbLine
 10
30.61137597649084
 20
10.45883271267423
 30
0.0
 11
30.72948614206341
 21
10.5769428782468
 31
0.0
  0
LINE
  5
117F
330
1178
100
AcDbEntity
  8
0
 62
     0
100
AcDbLine
 10
31.5630037943311
 20
7.167819843395203
 30
0.0
 11
31.6880037943311
 21
7.292819843395203
 31
0.0
  0
LINE
  5
1180
330
1178
100
AcDbEntity
  8
0
 62
     0
100
AcDbLine
 10
34.02161299598829
 20
9.626429045052399
 30
0.0
 11
34.14790891893557
 21
9.752724967999677
 31
0.0
  0
LINE
  5
1181
330
1178
100
AcDbEntity
  8
0
 62
     0
100
AcDbLine
 10
32.62366396611092
 20
7.167819843395203
 30
0.0
 11
32.74866396611092
 21
7.292819843395203
 31
0.0
  0
LINE
  5
1182
330
1178
100
AcDbEntity
  8
0
 62
     0
100
AcDbLine
 10
34.00232148082068
 20
8.546477358104972
 30
0.0
 11
34.12906612457133
 21
8.673222001855611
 31
0.0
  0
LINE
  5
1183
330
1178
100
AcDbEntity
  8
0
 62
     0
100
AcDbLine
 10
33.68432413789074
 20
7.167819843395203
 30
0.0
 11
33.80932413789074
 21
7.292819843395203
 31
0.0
  0
LINE
  5
1184
330
1178
100
AcDbEntity
  8
0
 62
     0
100
AcDbLine
 10
33.98302996565308
 20
7.466525671157546
 30
0.0
 11
34.11022333020709
 21
7.593719035711545
 31
0.0
  0
LINE
  5
1185
330
1178
100
AcDbEntity
  8
0
 62
     0
100
AcDbLine
 10
30.64733023789167
 20
8.196689935515411
 30
0.0
 11
30.76981732063308
 21
8.319177018256832
 31
0.0
  0
LINE
  5
1186
330
1178
100
AcDbEntity
  8
0
 62
     0
100
AcDbLine
 10
30.62913396288811
 20
9.239153832291679
 30
0.0
 11
30.7512029305216
 21
9.361222799925169
 31
0.0
  0
LINE
  5
1187
330
1178
100
AcDbEntity
  8
0
 62
     0
100
AcDbLine
 10
30.52824901677162
 20
10.19892905795501
 30
0.0
 11
30.73258854041011
 21
10.4032685815935
 31
0.0
  0
LINE
  5
1188
330
1178
100
AcDbEntity
  8
0
 62
     0
100
AcDbLine
 10
30.72577529986804
 20
7.214474825711959
 30
0.0
 11
30.81472098834438
 21
7.303420514188306
 31
0.0
  0
LINE
  5
1189
330
1178
100
AcDbEntity
  8
0
 62
     0
100
AcDbLine
 10
34.03768925863336
 20
10.52638878447728
 30
0.0
 11
34.14471660453366
 21
10.63341613037759
 31
0.0
  0
LINE
  5
118A
330
1178
100
AcDbEntity
  8
0
 62
     0
100
AcDbLine
 10
31.7397804893311
 20
7.167819843395203
 30
0.0
 11
31.8647804893311
 21
7.292819843395203
 31
0.0
  0
LINE
  5
118B
330
1178
100
AcDbEntity
  8
0
 62
     0
100
AcDbLine
 10
34.01839774346576
 20
9.446437097529859
 30
0.0
 11
34.14476845321347
 21
9.57280780727757
 31
0.0
  0
LINE
  5
118C
330
1178
100
AcDbEntity
  8
0
 62
     0
100
AcDbLine
 10
32.80044066111092
 20
7.167819843395203
 30
0.0
 11
32.92544066111092
 21
7.292819843395203
 31
0.0
  0
LINE
  5
118D
330
1178
100
AcDbEntity
  8
0
 62
     0
100
AcDbLine
 10
33.99910622829815
 20
8.366485410582431
 30
0.0
 11
34.12592565884922
 21
8.493304841133504
 31
0.0
  0
LINE
  5
118E
330
1178
100
AcDbEntity
  8
0
 62
     0
100
AcDbLine
 10
33.86110083289074
 20
7.167819843395203
 30
0.0
 11
34.10708286448498
 21
7.413801874989439
 31
0.0
  0
LINE
  5
118F
330
1178
100
AcDbEntity
  8
0
 62
     0
100
AcDbLine
 10
30.65036295040432
 20
8.02294595202807
 30
0.0
 11
30.77291971899734
 21
8.14550272062109
 31
0.0
  0
LINE
  5
1190
330
1178
100
AcDbEntity
  8
0
 62
     0
100
AcDbLine
 10
30.63216667540077
 20
9.065409848804337
 30
0.0
 11
30.75430532888586
 21
9.187548502289425
 31
0.0
  0
LINE
  5
1191
330
1178
100
AcDbEntity
  8
0
 62
     0
100
AcDbLine
 10
30.61397040039722
 20
10.1078737455806
 30
0.0
 11
30.73569093877437
 21
10.22959428395776
 31
0.0
  0
LINE
  5
1192
330
1178
100
AcDbEntity
  8
0
 62
     0
100
AcDbLine
 10
30.85589701355127
 20
7.167819843395203
 30
0.0
 11
30.98089701355128
 21
7.292819843395203
 31
0.0
  0
LINE
  5
1193
330
1178
100
AcDbEntity
  8
0
 62
     0
100
AcDbLine
 10
34.03447400609263
 20
10.34639683593656
 30
0.0
 11
34.15607337563016
 21
10.46799620547408
 31
0.0
  0
LINE
  5
1194
330
1178
100
AcDbEntity
  8
0
 62
     0
100
AcDbLine
 10
31.9165571853311
 20
7.167819843395203
 30
0.0
 11
32.04155718533109
 21
7.292819843395203
 31
0.0
  0
LINE
  5
1195
330
1178
100
AcDbEntity
  8
0
 62
     0
100
AcDbLine
 10
34.01518249092503
 20
9.266445148989133
 30
0.0
 11
34.1416279874736
 21
9.392890645537702
 31
0.0
  0
LINE
  5
1196
330
1178
100
AcDbEntity
  8
0
 62
     0
100
AcDbLine
 10
32.97721735711092
 20
7.167819843395203
 30
0.0
 11
33.10221735711092
 21
7.292819843395203
 31
0.0
  0
LINE
  5
1197
330
1178
100
AcDbEntity
  8
0
 62
     0
100
AcDbLine
 10
33.99589097575742
 20
8.186493462041706
 30
0.0
 11
34.12278519310935
 21
8.313387679393636
 31
0.0
  0
LINE
  5
1198
330
1178
100
AcDbEntity
  8
0
 62
     0
100
AcDbLine
 10
30.65339566289983
 20
7.849201969523575
 30
0.0
 11
30.77602211734405
 21
7.9718284239678
 31
0.0
  0
LINE
  5
1199
330
1178
100
AcDbEntity
  8
0
 62
     0
100
AcDbLine
 10
30.63519938789627
 20
8.89166586629984
 30
0.0
 11
30.75740772723257
 21
9.013874205636135
 31
0.0
  0
LINE
  5
119A
330
1178
100
AcDbEntity
  8
0
 62
     0
100
AcDbLine
 10
30.61700311289272
 20
9.934129763076109
 30
0.0
 11
30.73879333712108
 21
10.05591998730447
 31
0.0
  0
LINE
  5
119B
330
1178
100
AcDbEntity
  8
0
 62
     0
100
AcDbLine
 10
31.03267370855127
 20
7.167819843395203
 30
0.0
 11
31.15767370855127
 21
7.292819843395203
 31
0.0
  0
LINE
  5
119C
330
1178
100
AcDbEntity
  8
0
 62
     0
100
AcDbLine
 10
34.03125875357009
 20
10.16640488841402
 30
0.0
 11
34.28267370855127
 21
10.4178198433952
 31
0.0
  0
LINE
  5
119D
330
1178
100
AcDbEntity
  8
0
 62
     0
100
AcDbLine
 10
32.0933338803311
 20
7.167819843395203
 30
0.0
 11
32.2183338803311
 21
7.292819843395203
 31
0.0
  0
LINE
  5
119E
330
1178
100
AcDbEntity
  8
0
 62
     0
100
AcDbLine
 10
34.01196723840249
 20
9.086453201466596
 30
0.0
 11
34.13848752175149
 21
9.2129734848156
 31
0.0
  0
LINE
  5
119F
330
1178
100
AcDbEntity
  8
0
 62
     0
100
AcDbLine
 10
33.15399405211092
 20
7.167819843395203
 30
0.0
 11
33.27899405211092
 21
7.292819843395203
 31
0.0
  0
LINE
  5
11A0
330
1178
100
AcDbEntity
  8
0
 62
     0
100
AcDbLine
 10
33.99267572323488
 20
8.00650151451917
 30
0.0
 11
34.11964472738725
 21
8.133470518671535
 31
0.0
  0
ENDBLK
  5
11A1
330
1178
100
AcDbEntity
  8
0
100
AcDbBlockEnd
  0
BLOCK
  5
11A3
330
11A2
100
AcDbEntity
  8
0
100
AcDbBlockBegin
  2
*X12
 70
     1
 10
0.0
 20
0.0
 30
0.0
  3
*X12
  1

  0
LINE
  5
11A4
330
11A2
100
AcDbEntity
  8
0
 62
     0
100
AcDbLine
 10
31.49358702779765
 20
10.9328198433952
 30
0.0
 11
31.36858702779765
 21
11.0578198433952
 31
0.0
  0
LINE
  5
11A5
330
11A2
100
AcDbEntity
  8
0
 62
     0
100
AcDbLine
 10
30.62042685601783
 20
10.7453198433952
 30
0.0
 11
30.51153798370435
 21
10.85420871570868
 31
0.0
  0
LINE
  5
11A6
330
11A2
100
AcDbEntity
  8
0
 62
     0
100
AcDbLine
 10
32.55424719957747
 20
10.9328198433952
 30
0.0
 11
32.42924719957747
 21
11.0578198433952
 31
0.0
  0
LINE
  5
11A7
330
11A2
100
AcDbEntity
  8
0
 62
     0
100
AcDbLine
 10
33.80240737135729
 20
10.7453198433952
 30
0.0
 11
33.48990737135729
 21
11.0578198433952
 31
0.0
  0
LINE
  5
11A8
330
11A2
100
AcDbEntity
  8
0
 62
     0
100
AcDbLine
 10
31.67036372279766
 20
10.9328198433952
 30
0.0
 11
31.54536372279765
 21
11.0578198433952
 31
0.0
  0
LINE
  5
11A9
330
11A2
100
AcDbEntity
  8
0
 62
     0
100
AcDbLine
 10
30.79720355101783
 20
10.7453198433952
 30
0.0
 11
30.67220355101783
 21
10.8703198433952
 31
0.0
  0
LINE
  5
11AA
330
11A2
100
AcDbEntity
  8
0
 62
     0
100
AcDbLine
 10
32.73102389457748
 20
10.9328198433952
 30
0.0
 11
32.60602389457747
 21
11.0578198433952
 31
0.0
  0
LINE
  5
11AB
330
11A2
100
AcDbEntity
  8
0
 62
     0
100
AcDbLine
 10
34.29023876097627
 20
10.43426514877623
 30
0.0
 11
34.16063676656646
 21
10.56386714318604
 31
0.0
  0
LINE
  5
11AC
330
11A2
100
AcDbEntity
  8
0
 62
     0
100
AcDbLine
 10
33.9791840663573
 20
10.7453198433952
 30
0.0
 11
33.8541840663573
 21
10.8703198433952
 31
0.0
  0
LINE
  5
11AD
330
11A2
100
AcDbEntity
  8
0
 62
     0
100
AcDbLine
 10
31.84714041879765
 20
10.9328198433952
 30
0.0
 11
31.72214041879765
 21
11.0578198433952
 31
0.0
  0
LINE
  5
11AE
330
11A2
100
AcDbEntity
  8
0
 62
     0
100
AcDbLine
 10
30.97398024701783
 20
10.7453198433952
 30
0.0
 11
30.84898024701783
 21
10.8703198433952
 31
0.0
  0
LINE
  5
11AF
330
11A2
100
AcDbEntity
  8
0
 62
     0
100
AcDbLine
 10
32.90780059057747
 20
10.9328198433952
 30
0.0
 11
32.78280059057747
 21
11.0578198433952
 31
0.0
  0
LINE
  5
11B0
330
11A2
100
AcDbEntity
  8
0
 62
     0
100
AcDbLine
 10
34.28384221025029
 20
10.61743839550221
 30
0.0
 11
34.0309607623573
 21
10.8703198433952
 31
0.0
  0
LINE
  5
11B1
330
11A2
100
AcDbEntity
  8
0
 62
     0
100
AcDbLine
 10
32.02391711379764
 20
10.9328198433952
 30
0.0
 11
31.89891711379765
 21
11.0578198433952
 31
0.0
  0
LINE
  5
11B2
330
11A2
100
AcDbEntity
  8
0
 62
     0
100
AcDbLine
 10
31.07453643473339
 20
10.82154035067963
 30
0.0
 11
30.98614808708508
 21
10.90992869832795
 31
0.0
  0
LINE
  5
11B3
330
11A2
100
AcDbEntity
  8
0
 62
     0
100
AcDbLine
 10
33.08457728557747
 20
10.9328198433952
 30
0.0
 11
32.95957728557747
 21
11.0578198433952
 31
0.0
  0
LINE
  5
11B4
330
11A2
100
AcDbEntity
  8
0
 62
     0
100
AcDbLine
 10
34.2774456595605
 20
10.80061164119199
 30
0.0
 11
34.20773745735729
 21
10.8703198433952
 31
0.0
  0
ENDBLK
  5
11B5
330
11A2
100
AcDbEntity
  8
0
100
AcDbBlockEnd
  0
BLOCK
  5
11B7
330
11B6
100
AcDbEntity
  8
0
100
AcDbBlockBegin
  2
*X13
 70
     1
 10
0.0
 20
0.0
 30
0.0
  3
*X13
  1

  0
LINE
  5
11B8
330
11B6
100
AcDbEntity
  8
0
 62
     0
100
AcDbLine
 10
30.613379993703
 20
10.703125
 30
0.0
 11
30.75170860639417
 21
10.703125
 31
0.0
  0
LINE
  5
11B9
330
11B6
100
AcDbEntity
  8
0
 62
     0
100
AcDbLine
 10
34.01374750115298
 20
10.703125
 30
0.0
 11
34.15411012282264
 21
10.703125
 31
0.0
  0
LINE
  5
11BA
330
11B6
100
AcDbEntity
  8
0
 62
     0
100
AcDbLine
 10
30.61392563072631
 20
10.71875
 30
0.0
 11
30.75021142690554
 21
10.71875
 31
0.0
  0
LINE
  5
11BB
330
11B6
100
AcDbEntity
  8
0
 62
     0
100
AcDbLine
 10
34.01515066774618
 20
10.71875
 30
0.0
 11
34.15379381904747
 21
10.71875
 31
0.0
  0
LINE
  5
11BC
330
11B6
100
AcDbEntity
  8
0
 62
     0
100
AcDbLine
 10
30.61447126774962
 20
10.734375
 30
0.0
 11
30.74359474852303
 21
10.734375
 31
0.0
  0
LINE
  5
11BD
330
11B6
100
AcDbEntity
  8
0
 62
     0
100
AcDbLine
 10
34.02164824122045
 20
10.734375
 30
0.0
 11
34.1534775152723
 21
10.734375
 31
0.0
  0
LINE
  5
11BE
330
11B6
100
AcDbEntity
  8
0
 62
     0
100
AcDbLine
 10
30.6128343566797
 20
10.6875
 30
0.0
 11
30.74854355399683
 21
10.6875
 31
0.0
  0
LINE
  5
11BF
330
11B6
100
AcDbEntity
  8
0
 62
     0
100
AcDbLine
 10
34.01701143035953
 20
10.6875
 30
0.0
 11
34.15442642659781
 21
10.6875
 31
0.0
  0
LINE
  5
11C0
330
11B6
100
AcDbEntity
  8
0
 62
     0
100
AcDbLine
 10
30.61228871965639
 20
10.671875
 30
0.0
 11
30.7396663303601
 21
10.671875
 31
0.0
  0
LINE
  5
11C1
330
11B6
100
AcDbEntity
  8
0
 62
     0
100
AcDbLine
 10
34.02603252262253
 20
10.671875
 30
0.0
 11
34.15474273037297
 21
10.671875
 31
0.0
  0
ENDBLK
  5
11C2
330
11B6
100
AcDbEntity
  8
0
100
AcDbBlockEnd
  0
BLOCK
  5
12A8
330
12A7
100
AcDbEntity
  8
0
100
AcDbBlockBegin
  2
*X14
 70
     1
 10
0.0
 20
0.0
 30
0.0
  3
*X14
  1

  0
LINE
  5
12A9
330
12A7
100
AcDbEntity
  8
0
 62
     0
100
AcDbLine
 10
45.98853012183634
 20
30.07862754513901
 30
0.0
 11
46.11353012183633
 21
30.20362754513901
 31
0.0
  0
LINE
  5
12AA
330
12A7
100
AcDbEntity
  8
0
 62
     0
100
AcDbLine
 10
45.98853012183634
 20
31.13928771691883
 30
0.0
 11
46.11353012183633
 21
31.26428771691883
 31
0.0
  0
LINE
  5
12AB
330
12A7
100
AcDbEntity
  8
0
 62
     0
100
AcDbLine
 10
45.98853012183634
 20
32.19994788869866
 30
0.0
 11
46.11353012183633
 21
32.32494788869864
 31
0.0
  0
LINE
  5
12AC
330
12A7
100
AcDbEntity
  8
0
 62
     0
100
AcDbLine
 10
45.98853012183634
 20
33.26060806047848
 30
0.0
 11
46.11353012183633
 21
33.38560806047847
 31
0.0
  0
LINE
  5
12AD
330
12A7
100
AcDbEntity
  8
0
 62
     0
100
AcDbLine
 10
46.17603012183632
 20
34.50876823225829
 30
0.0
 11
46.23957466878624
 21
34.57231277920821
 31
0.0
  0
LINE
  5
12AE
330
12A7
100
AcDbEntity
  8
0
 62
     0
100
AcDbLine
 10
45.98853012183634
 20
29.01796737335919
 30
0.0
 11
46.11353012183633
 21
29.14296737335919
 31
0.0
  0
LINE
  5
12AF
330
12A7
100
AcDbEntity
  8
0
 62
     0
100
AcDbLine
 10
45.98853012183634
 20
27.95730720157937
 30
0.0
 11
46.11353012183633
 21
28.08230720157936
 31
0.0
  0
LINE
  5
12B0
330
12A7
100
AcDbEntity
  8
0
 62
     0
100
AcDbLine
 10
45.98853012183634
 20
26.89664702979955
 30
0.0
 11
46.11353012183633
 21
27.02164702979954
 31
0.0
  0
LINE
  5
12B1
330
12A7
100
AcDbEntity
  8
0
 62
     0
100
AcDbLine
 10
46.17603012183633
 20
26.02348685801973
 30
0.0
 11
46.30103012183633
 21
26.14848685801973
 31
0.0
  0
LINE
  5
12B2
330
12A7
100
AcDbEntity
  8
0
 62
     0
100
AcDbLine
 10
45.98853012183634
 20
29.90185085013902
 30
0.0
 11
46.11353012183633
 21
30.02685085013901
 31
0.0
  0
LINE
  5
12B3
330
12A7
100
AcDbEntity
  8
0
 62
     0
100
AcDbLine
 10
45.98853012183634
 20
30.96251102191884
 30
0.0
 11
46.11353012183633
 21
31.08751102191883
 31
0.0
  0
LINE
  5
12B4
330
12A7
100
AcDbEntity
  8
0
 62
     0
100
AcDbLine
 10
45.98853012183634
 20
32.02317119369866
 30
0.0
 11
46.11353012183633
 21
32.14817119369865
 31
0.0
  0
LINE
  5
12B5
330
12A7
100
AcDbEntity
  8
0
 62
     0
100
AcDbLine
 10
45.98853012183634
 20
33.08383136547848
 30
0.0
 11
46.11353012183633
 21
33.20883136547847
 31
0.0
  0
LINE
  5
12B6
330
12A7
100
AcDbEntity
  8
0
 62
     0
100
AcDbLine
 10
46.17603012183632
 20
34.33199153725829
 30
0.0
 11
46.42274791447603
 21
34.578709329898
 31
0.0
  0
LINE
  5
12B7
330
12A7
100
AcDbEntity
  8
0
 62
     0
100
AcDbLine
 10
45.98853012183634
 20
28.8411906783592
 30
0.0
 11
46.11353012183633
 21
28.96619067835919
 31
0.0
  0
LINE
  5
12B8
330
12A7
100
AcDbEntity
  8
0
 62
     0
100
AcDbLine
 10
45.98853012183634
 20
27.78053050657937
 30
0.0
 11
46.11353012183633
 21
27.90553050657937
 31
0.0
  0
LINE
  5
12B9
330
12A7
100
AcDbEntity
  8
0
 62
     0
100
AcDbLine
 10
45.98853012183634
 20
26.71987033479955
 30
0.0
 11
46.11353012183633
 21
26.84487033479954
 31
0.0
  0
LINE
  5
12BA
330
12A7
100
AcDbEntity
  8
0
 62
     0
100
AcDbLine
 10
46.17603012183633
 20
25.84671016301973
 30
0.0
 11
46.30103012183633
 21
25.97171016301973
 31
0.0
  0
LINE
  5
12BB
330
12A7
100
AcDbEntity
  8
0
 62
     0
100
AcDbLine
 10
45.98853012183634
 20
30.78573432591884
 30
0.0
 11
46.11353012183633
 21
30.91073432591882
 31
0.0
  0
LINE
  5
12BC
330
12A7
100
AcDbEntity
  8
0
 62
     0
100
AcDbLine
 10
45.98853012183634
 20
31.84639449769866
 30
0.0
 11
46.11353012183633
 21
31.97139449769865
 31
0.0
  0
LINE
  5
12BD
330
12A7
100
AcDbEntity
  8
0
 62
     0
100
AcDbLine
 10
45.98853012183634
 20
32.90705466947848
 30
0.0
 11
46.11353012183633
 21
33.03205466947847
 31
0.0
  0
LINE
  5
12BE
330
12A7
100
AcDbEntity
  8
0
 62
     0
100
AcDbLine
 10
46.17603012183632
 20
34.15521484125829
 30
0.0
 11
46.30103012183633
 21
34.28021484125829
 31
0.0
  0
LINE
  5
12BF
330
12A7
100
AcDbEntity
  8
0
 62
     0
100
AcDbLine
 10
46.4763191667922
 20
34.45550388621416
 30
0.0
 11
46.60592116120201
 21
34.58510588062397
 31
0.0
  0
LINE
  5
12C0
330
12A7
100
AcDbEntity
  8
0
 62
     0
100
AcDbLine
 10
45.98853012183634
 20
29.72507415413901
 30
0.0
 11
46.11353012183633
 21
29.85007415413901
 31
0.0
  0
LINE
  5
12C1
330
12A7
100
AcDbEntity
  8
0
 62
     0
100
AcDbLine
 10
45.98853012183634
 20
28.66441398235919
 30
0.0
 11
46.11353012183633
 21
28.78941398235918
 31
0.0
  0
LINE
  5
12C2
330
12A7
100
AcDbEntity
  8
0
 62
     0
100
AcDbLine
 10
45.98853012183634
 20
27.60375381057937
 30
0.0
 11
46.11353012183633
 21
27.72875381057936
 31
0.0
  0
LINE
  5
12C3
330
12A7
100
AcDbEntity
  8
0
 62
     0
100
AcDbLine
 10
45.98853012183634
 20
26.54309363879955
 30
0.0
 11
46.11353012183633
 21
26.66809363879954
 31
0.0
  0
LINE
  5
12C4
330
12A7
100
AcDbEntity
  8
0
 62
     0
100
AcDbLine
 10
46.23016408650539
 20
25.72406743168879
 30
0.0
 11
46.35072190441927
 21
25.84462524960266
 31
0.0
  0
LINE
  5
12C5
330
12A7
100
AcDbEntity
  8
0
 62
     0
100
AcDbLine
 10
45.98853012183634
 20
30.60895763091883
 30
0.0
 11
46.11353012183633
 21
30.73395763091883
 31
0.0
  0
LINE
  5
12C6
330
12A7
100
AcDbEntity
  8
0
 62
     0
100
AcDbLine
 10
45.98853012183634
 20
31.66961780269866
 30
0.0
 11
46.11353012183633
 21
31.79461780269865
 31
0.0
  0
LINE
  5
12C7
330
12A7
100
AcDbEntity
  8
0
 62
     0
100
AcDbLine
 10
45.98853012183634
 20
32.73027797447848
 30
0.0
 11
46.11353012183633
 21
32.85527797447847
 31
0.0
  0
LINE
  5
12C8
330
12A7
100
AcDbEntity
  8
0
 62
     0
100
AcDbLine
 10
45.98853012183634
 20
33.7909381462583
 30
0.0
 11
46.30103012183633
 21
34.10343814625829
 31
0.0
  0
LINE
  5
12C9
330
12A7
100
AcDbEntity
  8
0
 62
     0
100
AcDbLine
 10
45.98853012183634
 20
29.54829745913901
 30
0.0
 11
46.11353012183633
 21
29.67329745913901
 31
0.0
  0
LINE
  5
12CA
330
12A7
100
AcDbEntity
  8
0
 62
     0
100
AcDbLine
 10
45.98853012183634
 20
28.48763728735919
 30
0.0
 11
46.11353012183633
 21
28.61263728735919
 31
0.0
  0
LINE
  5
12CB
330
12A7
100
AcDbEntity
  8
0
 62
     0
100
AcDbLine
 10
45.98853012183634
 20
27.42697711557937
 30
0.0
 11
46.11353012183633
 21
27.55197711557936
 31
0.0
  0
LINE
  5
12CC
330
12A7
100
AcDbEntity
  8
0
 62
     0
100
AcDbLine
 10
45.98868244562873
 20
26.36646926759194
 30
0.0
 11
46.11353012183633
 21
26.49131694379954
 31
0.0
  0
LINE
  5
12CD
330
12A7
100
AcDbEntity
  8
0
 62
     0
100
AcDbLine
 10
46.40067790442111
 20
25.7178045546045
 30
0.0
 11
46.52153371940179
 21
25.83866036958518
 31
0.0
  0
ENDBLK
  5
12CE
330
12A7
100
AcDbEntity
  8
0
100
AcDbBlockEnd
  0
BLOCK
  5
12D0
330
12CF
100
AcDbEntity
  8
0
100
AcDbBlockBegin
  2
*X15
 70
     1
 10
0.0
 20
0.0
 30
0.0
  3
*X15
  1

  0
LINE
  5
12D1
330
12CF
100
AcDbEntity
  8
0
 62
     0
100
AcDbLine
 10
49.75353012183635
 20
32.7829673733592
 30
0.0
 11
49.87853012183634
 21
32.9079673733592
 31
0.0
  0
LINE
  5
12D2
330
12CF
100
AcDbEntity
  8
0
 62
     0
100
AcDbLine
 10
49.75353012183635
 20
33.84362754513902
 30
0.0
 11
49.87853012183634
 21
33.96862754513902
 31
0.0
  0
LINE
  5
12D3
330
12CF
100
AcDbEntity
  8
0
 62
     0
100
AcDbLine
 10
49.13529548708474
 20
34.28605308216724
 30
0.0
 11
49.25794632673868
 21
34.40870392182118
 31
0.0
  0
LINE
  5
12D4
330
12CF
100
AcDbEntity
  8
0
 62
     0
100
AcDbLine
 10
48.0932497054164
 20
34.30466747227872
 30
0.0
 11
48.21548242996241
 21
34.42690019682473
 31
0.0
  0
LINE
  5
12D5
330
12CF
100
AcDbEntity
  8
0
 62
     0
100
AcDbLine
 10
47.05120392374806
 20
34.32328186239021
 30
0.0
 11
47.17301853318614
 21
34.44509647182828
 31
0.0
  0
LINE
  5
12D6
330
12CF
100
AcDbEntity
  8
0
 62
     0
100
AcDbLine
 10
49.75353012183635
 20
31.72230720157938
 30
0.0
 11
49.87853012183634
 21
31.84730720157938
 31
0.0
  0
LINE
  5
12D7
330
12CF
100
AcDbEntity
  8
0
 62
     0
100
AcDbLine
 10
49.75353012183635
 20
30.66164702979956
 30
0.0
 11
49.87853012183634
 21
30.78664702979955
 31
0.0
  0
LINE
  5
12D8
330
12CF
100
AcDbEntity
  8
0
 62
     0
100
AcDbLine
 10
49.75353012183635
 20
29.60098685801974
 30
0.0
 11
49.87853012183634
 21
29.72598685801973
 31
0.0
  0
LINE
  5
12D9
330
12CF
100
AcDbEntity
  8
0
 62
     0
100
AcDbLine
 10
47.06191075302
 20
25.84870731742358
 30
0.0
 11
47.18811035849056
 21
25.97490692289414
 31
0.0
  0
LINE
  5
12DA
330
12CF
100
AcDbEntity
  8
0
 62
     0
100
AcDbLine
 10
49.75353012183635
 20
28.54032668623992
 30
0.0
 11
49.87853012183634
 21
28.66532668623991
 31
0.0
  0
LINE
  5
12DB
330
12CF
100
AcDbEntity
  8
0
 62
     0
100
AcDbLine
 10
48.14141371916408
 20
25.86755011178782
 30
0.0
 11
48.268062045438
 21
25.99419843806174
 31
0.0
  0
LINE
  5
12DC
330
12CF
100
AcDbEntity
  8
0
 62
     0
100
AcDbLine
 10
49.75353012183635
 20
27.47966651446009
 30
0.0
 11
49.87853012183634
 21
27.60466651446009
 31
0.0
  0
LINE
  5
12DD
330
12CF
100
AcDbEntity
  8
0
 62
     0
100
AcDbLine
 10
49.22091668530814
 20
25.88639290615208
 30
0.0
 11
49.34801373238542
 21
26.01348995322935
 31
0.0
  0
LINE
  5
12DE
330
12CF
100
AcDbEntity
  8
0
 62
     0
100
AcDbLine
 10
49.75353012183635
 20
26.41900634268028
 30
0.0
 11
49.87853012183634
 21
26.54400634268027
 31
0.0
  0
LINE
  5
12DF
330
12CF
100
AcDbEntity
  8
0
 62
     0
100
AcDbLine
 10
49.75353012183635
 20
32.6061906783592
 30
0.0
 11
49.87853012183634
 21
32.7311906783592
 31
0.0
  0
LINE
  5
12E0
330
12CF
100
AcDbEntity
  8
0
 62
     0
100
AcDbLine
 10
49.75353012183635
 20
33.66685085013902
 30
0.0
 11
49.87853012183634
 21
33.79185085013902
 31
0.0
  0
LINE
  5
12E1
330
12CF
100
AcDbEntity
  8
0
 62
     0
100
AcDbLine
 10
49.30896978373803
 20
34.28295068382052
 30
0.0
 11
49.43169030924318
 21
34.40567120932568
 31
0.0
  0
LINE
  5
12E2
330
12CF
100
AcDbEntity
  8
0
 62
     0
100
AcDbLine
 10
48.26692400206969
 20
34.30156507393201
 30
0.0
 11
48.38922641246691
 21
34.42386748432923
 31
0.0
  0
LINE
  5
12E3
330
12CF
100
AcDbEntity
  8
0
 62
     0
100
AcDbLine
 10
47.22487822040135
 20
34.32017946404349
 30
0.0
 11
47.34676251569064
 21
34.44206375933278
 31
0.0
  0
LINE
  5
12E4
330
12CF
100
AcDbEntity
  8
0
 62
     0
100
AcDbLine
 10
49.75353012183635
 20
31.54553050657938
 30
0.0
 11
49.87853012183634
 21
31.67053050657937
 31
0.0
  0
LINE
  5
12E5
330
12CF
100
AcDbEntity
  8
0
 62
     0
100
AcDbLine
 10
49.75353012183635
 20
30.48487033479956
 30
0.0
 11
49.87853012183634
 21
30.60987033479956
 31
0.0
  0
LINE
  5
12E6
330
12CF
100
AcDbEntity
  8
0
 62
     0
100
AcDbLine
 10
49.75353012183635
 20
29.42421016301974
 30
0.0
 11
49.87853012183634
 21
29.54921016301974
 31
0.0
  0
LINE
  5
12E7
330
12CF
100
AcDbEntity
  8
0
 62
     0
100
AcDbLine
 10
47.24182791374211
 20
25.85184778314568
 30
0.0
 11
47.3681023060131
 21
25.97812217541668
 31
0.0
  0
LINE
  5
12E8
330
12CF
100
AcDbEntity
  8
0
 62
     0
100
AcDbLine
 10
49.75353012183635
 20
28.36354999123992
 30
0.0
 11
49.87853012183634
 21
28.48854999123991
 31
0.0
  0
LINE
  5
12E9
330
12CF
100
AcDbEntity
  8
0
 62
     0
100
AcDbLine
 10
48.32133087988618
 20
25.87069057750993
 30
0.0
 11
48.44805399296053
 21
25.99741369058428
 31
0.0
  0
LINE
  5
12EA
330
12CF
100
AcDbEntity
  8
0
 62
     0
100
AcDbLine
 10
49.75353012183635
 20
27.3028898194601
 30
0.0
 11
49.87853012183634
 21
27.42788981946009
 31
0.0
  0
LINE
  5
12EB
330
12CF
100
AcDbEntity
  8
0
 62
     0
100
AcDbLine
 10
49.40083384603026
 20
25.88953337187418
 30
0.0
 11
49.52800567990796
 21
26.01670520575189
 31
0.0
  0
LINE
  5
12EC
330
12CF
100
AcDbEntity
  8
0
 62
     0
100
AcDbLine
 10
49.75353012183635
 20
26.24222964768027
 30
0.0
 11
49.87853012183634
 21
26.36722964768027
 31
0.0
  0
LINE
  5
12ED
330
12CF
100
AcDbEntity
  8
0
 62
     0
100
AcDbLine
 10
49.75353012183635
 20
32.4294139823592
 30
0.0
 11
49.87853012183634
 21
32.5544139823592
 31
0.0
  0
LINE
  5
12EE
330
12CF
100
AcDbEntity
  8
0
 62
     0
100
AcDbLine
 10
49.75353012183635
 20
33.49007415413903
 30
0.0
 11
49.87853012183634
 21
33.61507415413902
 31
0.0
  0
LINE
  5
12EF
330
12CF
100
AcDbEntity
  8
0
 62
     0
100
AcDbLine
 10
49.48264408137377
 20
34.27984828545627
 30
0.0
 11
49.60543429273052
 21
34.40263849681302
 31
0.0
  0
LINE
  5
12F0
330
12CF
100
AcDbEntity
  8
0
 62
     0
100
AcDbLine
 10
48.44059829970543
 20
34.29846267556775
 30
0.0
 11
48.56297039595425
 21
34.42083477181657
 31
0.0
  0
LINE
  5
12F1
330
12CF
100
AcDbEntity
  8
0
 62
     0
100
AcDbLine
 10
47.39855251803709
 20
34.31707706567924
 30
0.0
 11
47.52050649917798
 21
34.43903104682012
 31
0.0
  0
LINE
  5
12F2
330
12CF
100
AcDbEntity
  8
0
 62
     0
100
AcDbLine
 10
46.37853012183633
 20
34.35771484125829
 30
0.0
 11
46.46412900749756
 21
34.44331372691952
 31
0.0
  0
LINE
  5
12F3
330
12CF
100
AcDbEntity
  8
0
 62
     0
100
AcDbLine
 10
49.75353012183635
 20
31.36875381057938
 30
0.0
 11
49.87853012183634
 21
31.49375381057938
 31
0.0
  0
LINE
  5
12F4
330
12CF
100
AcDbEntity
  8
0
 62
     0
100
AcDbLine
 10
49.75353012183635
 20
30.30809363879956
 30
0.0
 11
49.87853012183634
 21
30.43309363879955
 31
0.0
  0
LINE
  5
12F5
330
12CF
100
AcDbEntity
  8
0
 62
     0
100
AcDbLine
 10
46.37853012183633
 20
25.87243346701973
 30
0.0
 11
46.46814256760641
 21
25.9620459127898
 31
0.0
  0
LINE
  5
12F6
330
12CF
100
AcDbEntity
  8
0
 62
     0
100
AcDbLine
 10
49.75353012183635
 20
29.24743346701974
 30
0.0
 11
49.87853012183634
 21
29.37243346701973
 31
0.0
  0
LINE
  5
12F7
330
12CF
100
AcDbEntity
  8
0
 62
     0
100
AcDbLine
 10
47.42174507548198
 20
25.85498824888555
 30
0.0
 11
47.54809425455383
 21
25.9813374279574
 31
0.0
  0
LINE
  5
12F8
330
12CF
100
AcDbEntity
  8
0
 62
     0
100
AcDbLine
 10
49.75353012183635
 20
28.18677329523991
 30
0.0
 11
49.87853012183634
 21
28.31177329523991
 31
0.0
  0
LINE
  5
12F9
330
12CF
100
AcDbEntity
  8
0
 62
     0
100
AcDbLine
 10
48.50124804162605
 20
25.8738310432498
 30
0.0
 11
48.62804594150127
 21
26.00062894312501
 31
0.0
  0
LINE
  5
12FA
330
12CF
100
AcDbEntity
  8
0
 62
     0
100
AcDbLine
 10
49.75353012183635
 20
27.12611312346009
 30
0.0
 11
49.87853012183634
 21
27.25111312346009
 31
0.0
  0
LINE
  5
12FB
330
12CF
100
AcDbEntity
  8
0
 62
     0
100
AcDbLine
 10
49.58075100777012
 20
25.89267383761405
 30
0.0
 11
49.71097094848847
 21
26.0228937783324
 31
0.0
  0
LINE
  5
12FC
330
12CF
100
AcDbEntity
  8
0
 62
     0
100
AcDbLine
 10
49.75026367172248
 20
26.06218650156642
 30
0.0
 11
49.87853012183634
 21
26.19045295168027
 31
0.0
  0
LINE
  5
12FD
330
12CF
100
AcDbEntity
  8
0
 62
     0
100
AcDbLine
 10
49.75353012183635
 20
32.2526372873592
 30
0.0
 11
49.87853012183634
 21
32.37763728735919
 31
0.0
  0
LINE
  5
12FE
330
12CF
100
AcDbEntity
  8
0
 62
     0
100
AcDbLine
 10
49.75353012183635
 20
33.31329745913902
 30
0.0
 11
49.87853012183634
 21
33.43829745913902
 31
0.0
  0
LINE
  5
12FF
330
12CF
100
AcDbEntity
  8
0
 62
     0
100
AcDbLine
 10
49.65631837802707
 20
34.27674588710956
 30
0.0
 11
49.76533614507795
 21
34.38576365416045
 31
0.0
  0
LINE
  5
1300
330
12CF
100
AcDbEntity
  8
0
 62
     0
100
AcDbLine
 10
48.61427259635872
 20
34.29536027722104
 30
0.0
 11
48.73671437845874
 21
34.41780205932106
 31
0.0
  0
LINE
  5
1301
330
12CF
100
AcDbEntity
  8
0
 62
     0
100
AcDbLine
 10
47.57222681469039
 20
34.31397466733252
 30
0.0
 11
47.69425048168248
 21
34.43599833432462
 31
0.0
  0
LINE
  5
1302
330
12CF
100
AcDbEntity
  8
0
 62
     0
100
AcDbLine
 10
46.53018103302205
 20
34.33258905744401
 30
0.0
 11
46.78296356696239
 21
34.58537159138435
 31
0.0
  0
LINE
  5
1303
330
12CF
100
AcDbEntity
  8
0
 62
     0
100
AcDbLine
 10
49.75353012183635
 20
31.19197711557938
 30
0.0
 11
49.87853012183634
 21
31.31697711557937
 31
0.0
  0
LINE
  5
1304
330
12CF
100
AcDbEntity
  8
0
 62
     0
100
AcDbLine
 10
49.75353012183635
 20
30.13131694379956
 30
0.0
 11
49.87853012183634
 21
30.25631694379955
 31
0.0
  0
LINE
  5
1305
330
12CF
100
AcDbEntity
  8
0
 62
     0
100
AcDbLine
 10
46.5307303447467
 20
25.84785699493009
 30
0.0
 11
46.64813451512894
 21
25.96526116531233
 31
0.0
  0
LINE
  5
1306
330
12CF
100
AcDbEntity
  8
0
 62
     0
100
AcDbLine
 10
49.75353012183635
 20
29.07065677201974
 30
0.0
 11
49.87853012183634
 21
29.19565677201973
 31
0.0
  0
LINE
  5
1307
330
12CF
100
AcDbEntity
  8
0
 62
     0
100
AcDbLine
 10
47.60166223620408
 20
25.85812871460765
 30
0.0
 11
47.72808620207637
 21
25.98455268047994
 31
0.0
  0
LINE
  5
1308
330
12CF
100
AcDbEntity
  8
0
 62
     0
100
AcDbLine
 10
49.75353012183635
 20
28.00999660023991
 30
0.0
 11
49.87853012183634
 21
28.13499660023991
 31
0.0
  0
LINE
  5
1309
330
12CF
100
AcDbEntity
  8
0
 62
     0
100
AcDbLine
 10
48.68116520234815
 20
25.87697150897191
 30
0.0
 11
48.8080378890238
 21
26.00384419564754
 31
0.0
  0
LINE
  5
130A
330
12CF
100
AcDbEntity
  8
0
 62
     0
100
AcDbLine
 10
49.75353012183635
 20
26.9493364284601
 30
0.0
 11
49.87853012183634
 21
27.07433642846009
 31
0.0
  0
LINE
  5
130B
330
12CF
100
AcDbEntity
  8
0
 62
     0
100
AcDbLine
 10
49.78435905251429
 20
25.91950518735822
 30
0.0
 11
49.85365226269667
 21
25.9887983975406
 31
0.0
  0
ENDBLK
  5
130C
330
12CF
100
AcDbEntity
  8
0
100
AcDbBlockEnd
  0
BLOCK
  5
15FC
330
15F1
100
AcDbEntity
  8
0
100
AcDbBlockBegin
  2
*D16
 70
     1
 10
0.0
 20
0.0
 30
0.0
  3
*D16
  1

  0
LINE
  5
16FE
330
15F1
100
AcDbEntity
  8
DIM
 62
     0
440
 16777216
370
    -2
100
AcDbLine
 10
56.91337233862246
 20
30.16000805884228
 30
0.0
 11
58.34004928651272
 21
30.16000805884228
 31
0.0
  0
LINE
  5
16FF
330
15F1
100
AcDbEntity
  8
DIM
 62
     0
440
 16777216
370
    -2
100
AcDbLine
 10
56.91337233862246
 20
23.78103164550755
 30
0.0
 11
58.34004928651272
 21
23.78103164550755
 31
0.0
  0
LINE
  5
1700
330
15F1
100
AcDbEntity
  8
DIM
 62
     0
440
 16777216
370
    -2
100
AcDbLine
 10
58.16004928651272
 20
29.98000805884228
 30
0.0
 11
58.16004928651272
 21
27.15051985217491
 31
0.0
  0
LINE
  5
1701
330
15F1
100
AcDbEntity
  8
DIM
 62
     0
440
 16777216
370
    -2
100
AcDbLine
 10
58.16004928651272
 20
23.96103164550755
 30
0.0
 11
58.16004928651272
 21
26.79051985217491
 31
0.0
  0
SOLID
  5
1702
330
15F1
100
AcDbEntity
  8
DIM
 62
     0
440
 16777216
100
AcDbTrace
 10
58.13004928651272
 20
29.98000805884228
 30
0.0
 11
58.19004928651272
 21
29.98000805884228
 31
0.0
 12
58.16004928651272
 22
30.16000805884228
 32
0.0
 13
58.16004928651272
 23
30.16000805884228
 33
0.0
  0
SOLID
  5
1703
330
15F1
100
AcDbEntity
  8
DIM
 62
     0
440
 16777216
100
AcDbTrace
 10
58.13004928651272
 20
23.96103164550755
 30
0.0
 11
58.19004928651272
 21
23.96103164550755
 31
0.0
 12
58.16004928651272
 22
23.78103164550755
 32
0.0
 13
58.16004928651272
 23
23.78103164550755
 33
0.0
  0
MTEXT
  5
1704
330
15F1
100
AcDbEntity
  8
DIM
 62
     0
440
 16777216
100
AcDbMText
 10
58.16004928651271
 20
26.97051985217493
 30
0.0
 40
0.18
 41
0.0
 46
0.0
 71
     5
 72
     1
  1
\A1;6.3790
 73
     1
 44
1.0
  0
POINT
  5
1705
330
15F1
100
AcDbEntity
  8
DEFPOINTS
 62
     0
440
 16777216
100
AcDbPoint
 10
56.85087233862247
 20
30.16000805884228
 30
0.0
  0
POINT
  5
1706
330
15F1
100
AcDbEntity
  8
DEFPOINTS
 62
     0
440
 16777216
100
AcDbPoint
 10
56.85087233862247
 20
23.78103164550755
 30
0.0
  0
POINT
  5
1707
330
15F1
100
AcDbEntity
  8
DEFPOINTS
 62
     0
440
 16777216
100
AcDbPoint
 10
58.16004928651272
 20
23.78103164550755
 30
0.0
  0
ENDBLK
  5
15FD
330
15F1
100
AcDbEntity
  8
0
100
AcDbBlockEnd
  0
BLOCK
  5
1609
330
15FE
100
AcDbEntity
  8
0
100
AcDbBlockBegin
  2
*D17
 70
     1
 10
0.0
 20
0.0
 30
0.0
  3
*D17
  1

  0
LINE
  5
1708
330
15FE
100
AcDbEntity
  8
DIM
 62
     0
440
 16777216
370
    -2
100
AcDbLine
 10
56.8519631140248
 20
22.84228510806183
 30
0.0
 11
60.57009151989387
 21
22.84228510806183
 31
0.0
  0
LINE
  5
1709
330
15FE
100
AcDbEntity
  8
DIM
 62
     0
440
 16777216
370
    -2
100
AcDbLine
 10
56.8519631140248
 20
31.098754596288
 30
0.0
 11
60.57009151989387
 21
31.098754596288
 31
0.0
  0
LINE
  5
170A
330
15FE
100
AcDbEntity
  8
DIM
 62
     0
440
 16777216
370
    -2
100
AcDbLine
 10
60.39009151989386
 20
23.02228510806183
 30
0.0
 11
60.39009151989386
 21
26.80268571363942
 31
0.0
  0
LINE
  5
170B
330
15FE
100
AcDbEntity
  8
DIM
 62
     0
440
 16777216
370
    -2
100
AcDbLine
 10
60.39009151989386
 20
30.91875459628801
 30
0.0
 11
60.39009151989386
 21
27.16268571363942
 31
0.0
  0
SOLID
  5
170C
330
15FE
100
AcDbEntity
  8
DIM
 62
     0
440
 16777216
100
AcDbTrace
 10
60.36009151989386
 20
23.02228510806183
 30
0.0
 11
60.42009151989386
 21
23.02228510806183
 31
0.0
 12
60.39009151989386
 22
22.84228510806183
 32
0.0
 13
60.39009151989386
 23
22.84228510806183
 33
0.0
  0
SOLID
  5
170D
330
15FE
100
AcDbEntity
  8
DIM
 62
     0
440
 16777216
100
AcDbTrace
 10
60.36009151989386
 20
30.91875459628801
 30
0.0
 11
60.42009151989386
 21
30.91875459628801
 31
0.0
 12
60.39009151989386
 22
31.098754596288
 32
0.0
 13
60.39009151989386
 23
31.098754596288
 33
0.0
  0
MTEXT
  5
170E
330
15FE
100
AcDbEntity
  8
DIM
 62
     0
440
 16777216
100
AcDbMText
 10
60.39009151989386
 20
26.98268571363943
 30
0.0
 40
0.18
 41
0.0
 46
0.0
 71
     5
 72
     1
  1
\A1;8.2565
 73
     1
 44
1.0
  0
POINT
  5
170F
330
15FE
100
AcDbEntity
  8
DEFPOINTS
 62
     0
440
 16777216
100
AcDbPoint
 10
56.7894631140248
 20
22.84228510806183
 30
0.0
  0
POINT
  5
1710
330
15FE
100
AcDbEntity
  8
DEFPOINTS
 62
     0
440
 16777216
100
AcDbPoint
 10
56.7894631140248
 20
31.098754596288
 30
0.0
  0
POINT
  5
1711
330
15FE
100
AcDbEntity
  8
DEFPOINTS
 62
     0
440
 16777216
100
AcDbPoint
 10
60.39009151989386
 20
31.098754596288
 30
0.0
  0
ENDBLK
  5
160A
330
15FE
100
AcDbEntity
  8
0
100
AcDbBlockEnd
  0
BLOCK
  5
1616
330
160B
100
AcDbEntity
  8
0
100
AcDbBlockBegin
  2
*D18
 70
     1
 10
0.0
 20
0.0
 30
0.0
  3
*D18
  1

  0
LINE
  5
1712
330
160B
100
AcDbEntity
  8
DIM
 62
     0
440
 16777216
370
    -2
100
AcDbLine
 10
56.09668420044286
 20
12.61829817944515
 30
0.0
 11
56.09668420044286
 21
11.59018926033148
 31
0.0
  0
LINE
  5
1713
330
160B
100
AcDbEntity
  8
DIM
 62
     0
440
 16777216
370
    -2
100
AcDbLine
 10
53.90501084426569
 20
12.61829817944515
 30
0.0
 11
53.90501084426569
 21
11.59018926033148
 31
0.0
  0
LINE
  5
1714
330
160B
100
AcDbEntity
  8
DIM
 62
     0
440
 16777216
370
    -2
100
AcDbLine
 10
55.91668420044285
 20
11.77018926033148
 30
0.0
 11
55.48084752235427
 21
11.77018926033148
 31
0.0
  0
LINE
  5
1715
330
160B
100
AcDbEntity
  8
DIM
 62
     0
440
 16777216
370
    -2
100
AcDbLine
 10
54.08501084426569
 20
11.77018926033148
 30
0.0
 11
54.52084752235428
 21
11.77018926033148
 31
0.0
  0
SOLID
  5
1716
330
160B
100
AcDbEntity
  8
DIM
 62
     0
440
 16777216
100
AcDbTrace
 10
55.91668420044285
 20
11.80018926033148
 30
0.0
 11
55.91668420044285
 21
11.74018926033148
 31
0.0
 12
56.09668420044286
 22
11.77018926033148
 32
0.0
 13
56.09668420044286
 23
11.77018926033148
 33
0.0
  0
SOLID
  5
1717
330
160B
100
AcDbEntity
  8
DIM
 62
     0
440
 16777216
100
AcDbTrace
 10
54.08501084426569
 20
11.80018926033148
 30
0.0
 11
54.08501084426569
 21
11.74018926033148
 31
0.0
 12
53.90501084426569
 22
11.77018926033148
 32
0.0
 13
53.90501084426569
 23
11.77018926033148
 33
0.0
  0
MTEXT
  5
1718
330
160B
100
AcDbEntity
  8
DIM
 62
     0
440
 16777216
100
AcDbMText
 10
55.00084752235427
 20
11.77018926033148
 30
0.0
 40
0.18
 41
0.0
 46
0.0
 71
     5
 72
     1
  1
\A1;2.1917
 73
     1
 44
1.0
  0
POINT
  5
1719
330
160B
100
AcDbEntity
  8
DEFPOINTS
 62
     0
440
 16777216
100
AcDbPoint
 10
56.09668420044286
 20
12.68079817944515
 30
0.0
  0
POINT
  5
171A
330
160B
100
AcDbEntity
  8
DEFPOINTS
 62
     0
440
 16777216
100
AcDbPoint
 10
53.90501084426569
 20
12.68079817944515
 30
0.0
  0
POINT
  5
171B
330
160B
100
AcDbEntity
  8
DEFPOINTS
 62
     0
440
 16777216
100
AcDbPoint
 10
53.90501084426569
 20
11.77018926033148
 30
0.0
  0
ENDBLK
  5
1617
330
160B
100
AcDbEntity
  8
0
100
AcDbBlockEnd
  0
BLOCK
  5
1623
330
1618
100
AcDbEntity
  8
0
100
AcDbBlockBegin
  2
*D19
 70
     1
 10
0.0
 20
0.0
 30
0.0
  3
*D19
  1

  0
LINE
  5
171C
330
1618
100
AcDbEntity
  8
DIM
 62
     0
440
 16777216
370
    -2
100
AcDbLine
 10
53.53209752235428
 20
12.49329817944514
 30
0.0
 11
53.53209752235428
 21
10.89673515685445
 31
0.0
  0
LINE
  5
171D
330
1618
100
AcDbEntity
  8
DIM
 62
     0
440
 16777216
370
    -2
100
AcDbLine
 10
56.46959752235427
 20
12.49329817944515
 30
0.0
 11
56.46959752235427
 21
10.89673515685445
 31
0.0
  0
LINE
  5
171E
330
1618
100
AcDbEntity
  8
DIM
 62
     0
440
 16777216
370
    -2
100
AcDbLine
 10
53.71209752235428
 20
11.07673515685445
 30
0.0
 11
54.46084752235428
 21
11.07673515685445
 31
0.0
  0
LINE
  5
171F
330
1618
100
AcDbEntity
  8
DIM
 62
     0
440
 16777216
370
    -2
100
AcDbLine
 10
56.28959752235427
 20
11.07673515685445
 30
0.0
 11
55.54084752235428
 21
11.07673515685445
 31
0.0
  0
SOLID
  5
1720
330
1618
100
AcDbEntity
  8
DIM
 62
     0
440
 16777216
100
AcDbTrace
 10
53.71209752235428
 20
11.10673515685445
 30
0.0
 11
53.71209752235428
 21
11.04673515685445
 31
0.0
 12
53.53209752235428
 22
11.07673515685445
 32
0.0
 13
53.53209752235428
 23
11.07673515685445
 33
0.0
  0
SOLID
  5
1721
330
1618
100
AcDbEntity
  8
DIM
 62
     0
440
 16777216
100
AcDbTrace
 10
56.28959752235427
 20
11.10673515685445
 30
0.0
 11
56.28959752235427
 21
11.04673515685445
 31
0.0
 12
56.46959752235427
 22
11.07673515685445
 32
0.0
 13
56.46959752235427
 23
11.07673515685445
 33
0.0
  0
MTEXT
  5
1722
330
1618
100
AcDbEntity
  8
DIM
 62
     0
440
 16777216
100
AcDbMText
 10
55.00084752235427
 20
11.07673515685445
 30
0.0
 40
0.18
 41
0.0
 46
0.0
 71
     5
 72
     1
  1
\A1;2.9375
 73
     1
 44
1.0
  0
POINT
  5
1723
330
1618
100
AcDbEntity
  8
DEFPOINTS
 62
     0
440
 16777216
100
AcDbPoint
 10
53.53209752235428
 20
12.55579817944515
 30
0.0
  0
POINT
  5
1724
330
1618
100
AcDbEntity
  8
DEFPOINTS
 62
     0
440
 16777216
100
AcDbPoint
 10
56.46959752235427
 20
12.55579817944515
 30
0.0
  0
POINT
  5
1725
330
1618
100
AcDbEntity
  8
DEFPOINTS
 62
     0
440
 16777216
100
AcDbPoint
 10
56.46959752235427
 20
11.07673515685445
 30
0.0
  0
ENDBLK
  5
1624
330
1618
100
AcDbEntity
  8
0
100
AcDbBlockEnd
  0
BLOCK
  5
1630
330
1625
100
AcDbEntity
  8
0
100
AcDbBlockBegin
  2
*D20
 70
     1
 10
0.0
 20
0.0
 30
0.0
  3
*D20
  1

  0
LINE
  5
1726
330
1625
100
AcDbEntity
  8
DIM
 62
     0
440
 16777216
370
    -2
100
AcDbLine
 10
57.03837233862247
 20
30.53301985217492
 30
0.0
 11
59.4787942567499
 21
30.53301985217492
 31
0.0
  0
LINE
  5
1727
330
1625
100
AcDbEntity
  8
DIM
 62
     0
440
 16777216
370
    -2
100
AcDbLine
 10
57.03837233862247
 20
23.40801985217492
 30
0.0
 11
59.4787942567499
 21
23.40801985217492
 31
0.0
  0
LINE
  5
1728
330
1625
100
AcDbEntity
  8
DIM
 62
     0
440
 16777216
370
    -2
100
AcDbLine
 10
59.2987942567499
 20
30.35301985217492
 30
0.0
 11
59.2987942567499
 21
27.15051985217491
 31
0.0
  0
LINE
  5
1729
330
1625
100
AcDbEntity
  8
DIM
 62
     0
440
 16777216
370
    -2
100
AcDbLine
 10
59.2987942567499
 20
23.58801985217492
 30
0.0
 11
59.2987942567499
 21
26.79051985217491
 31
0.0
  0
SOLID
  5
172A
330
1625
100
AcDbEntity
  8
DIM
 62
     0
440
 16777216
100
AcDbTrace
 10
59.26879425674989
 20
30.35301985217492
 30
0.0
 11
59.3287942567499
 21
30.35301985217492
 31
0.0
 12
59.2987942567499
 22
30.53301985217492
 32
0.0
 13
59.2987942567499
 23
30.53301985217492
 33
0.0
  0
SOLID
  5
172B
330
1625
100
AcDbEntity
  8
DIM
 62
     0
440
 16777216
100
AcDbTrace
 10
59.26879425674989
 20
23.58801985217492
 30
0.0
 11
59.3287942567499
 21
23.58801985217492
 31
0.0
 12
59.2987942567499
 22
23.40801985217492
 32
0.0
 13
59.2987942567499
 23
23.40801985217492
 33
0.0
  0
MTEXT
  5
172C
330
1625
100
AcDbEntity
  8
DIM
 62
     0
440
 16777216
100
AcDbMText
 10
59.2987942567499
 20
26.97051985217492
 30
0.0
 40
0.18
 41
0.0
 46
0.0
 71
     5
 72
     1
  1
\A1;7.1250
 73
     1
 44
1.0
  0
POINT
  5
172D
330
1625
100
AcDbEntity
  8
DEFPOINTS
 62
     0
440
 16777216
100
AcDbPoint
 10
56.97587233862247
 20
30.53301985217492
 30
0.0
  0
POINT
  5
172E
330
1625
100
AcDbEntity
  8
DEFPOINTS
 62
     0
440
 16777216
100
AcDbPoint
 10
56.97587233862247
 20
23.40801985217492
 30
0.0
  0
POINT
  5
172F
330
1625
100
AcDbEntity
  8
DEFPOINTS
 62
     0
440
 16777216
100
AcDbPoint
 10
59.2987942567499
 20
23.40801985217492
 30
0.0
  0
ENDBLK
  5
1631
330
1625
100
AcDbEntity
  8
0
100
AcDbBlockEnd
  0
BLOCK
  5
163D
330
1632
100
AcDbEntity
  8
0
100
AcDbBlockBegin
  2
*D21
 70
     1
 10
0.0
 20
0.0
 30
0.0
  3
*D21
  1

  0
LINE
  5
1730
330
1632
100
AcDbEntity
  8
DIM
 62
     0
440
 16777216
370
    -2
100
AcDbLine
 10
53.40386277824119
 20
12.67970740404282
 30
0.0
 11
53.40386277824119
 21
10.12906929844392
 31
0.0
  0
LINE
  5
1731
330
1632
100
AcDbEntity
  8
DIM
 62
     0
440
 16777216
370
    -2
100
AcDbLine
 10
56.59783226646736
 20
12.67970740404282
 30
0.0
 11
56.59783226646736
 21
10.12906929844392
 31
0.0
  0
LINE
  5
1732
330
1632
100
AcDbEntity
  8
DIM
 62
     0
440
 16777216
370
    -2
100
AcDbLine
 10
53.58386277824119
 20
10.30906929844392
 30
0.0
 11
54.50584752235428
 21
10.30906929844392
 31
0.0
  0
LINE
  5
1733
330
1632
100
AcDbEntity
  8
DIM
 62
     0
440
 16777216
370
    -2
100
AcDbLine
 10
56.41783226646736
 20
10.30906929844392
 30
0.0
 11
55.49584752235428
 21
10.30906929844392
 31
0.0
  0
SOLID
  5
1734
330
1632
100
AcDbEntity
  8
DIM
 62
     0
440
 16777216
100
AcDbTrace
 10
53.58386277824119
 20
10.33906929844392
 30
0.0
 11
53.58386277824119
 21
10.27906929844392
 31
0.0
 12
53.40386277824119
 22
10.30906929844392
 32
0.0
 13
53.40386277824119
 23
10.30906929844392
 33
0.0
  0
SOLID
  5
1735
330
1632
100
AcDbEntity
  8
DIM
 62
     0
440
 16777216
100
AcDbTrace
 10
56.41783226646736
 20
10.33906929844392
 30
0.0
 11
56.41783226646736
 21
10.27906929844392
 31
0.0
 12
56.59783226646736
 22
10.30906929844392
 32
0.0
 13
56.59783226646736
 23
10.30906929844392
 33
0.0
  0
MTEXT
  5
1736
330
1632
100
AcDbEntity
  8
DIM
 62
     0
440
 16777216
100
AcDbMText
 10
55.00084752235427
 20
10.30906929844392
 30
0.0
 40
0.18
 41
0.0
 46
0.0
 71
     5
 72
     1
  1
\A1;3.1940
 73
     1
 44
1.0
  0
POINT
  5
1737
330
1632
100
AcDbEntity
  8
DEFPOINTS
 62
     0
440
 16777216
100
AcDbPoint
 10
53.40386277824119
 20
12.74220740404282
 30
0.0
  0
POINT
  5
1738
330
1632
100
AcDbEntity
  8
DEFPOINTS
 62
     0
440
 16777216
100
AcDbPoint
 10
56.59783226646736
 20
12.74220740404282
 30
0.0
  0
POINT
  5
1739
330
1632
100
AcDbEntity
  8
DEFPOINTS
 62
     0
440
 16777216
100
AcDbPoint
 10
56.59783226646736
 20
10.30906929844392
 30
0.0
  0
ENDBLK
  5
163E
330
1632
100
AcDbEntity
  8
0
100
AcDbBlockEnd
  0
BLOCK
  5
164A
330
163F
100
AcDbEntity
  8
0
100
AcDbBlockBegin
  2
*D22
 70
     1
 10
0.0
 20
0.0
 30
0.0
  3
*D22
  1

  0
LINE
  5
173A
330
163F
100
AcDbEntity
  8
DIM
 62
     0
440
 16777216
370
    -2
100
AcDbLine
 10
19.96448408104764
 20
22.53301985217492
 30
0.0
 11
16.31622063786299
 21
22.53301985217492
 31
0.0
  0
LINE
  5
173B
330
163F
100
AcDbEntity
  8
DIM
 62
     0
440
 16777216
370
    -2
100
AcDbLine
 10
19.96448408104764
 20
31.40801985217492
 30
0.0
 11
16.31622063786299
 21
31.40801985217492
 31
0.0
  0
LINE
  5
173C
330
163F
100
AcDbEntity
  8
DIM
 62
     0
440
 16777216
370
    -2
100
AcDbLine
 10
16.49622063786299
 20
22.71301985217492
 30
0.0
 11
16.49622063786299
 21
26.79051985217492
 31
0.0
  0
LINE
  5
173D
330
163F
100
AcDbEntity
  8
DIM
 62
     0
440
 16777216
370
    -2
100
AcDbLine
 10
16.49622063786299
 20
31.22801985217492
 30
0.0
 11
16.49622063786299
 21
27.15051985217492
 31
0.0
  0
SOLID
  5
173E
330
163F
100
AcDbEntity
  8
DIM
 62
     0
440
 16777216
100
AcDbTrace
 10
16.46622063786298
 20
22.71301985217492
 30
0.0
 11
16.52622063786299
 21
22.71301985217492
 31
0.0
 12
16.49622063786299
 22
22.53301985217492
 32
0.0
 13
16.49622063786299
 23
22.53301985217492
 33
0.0
  0
SOLID
  5
173F
330
163F
100
AcDbEntity
  8
DIM
 62
     0
440
 16777216
100
AcDbTrace
 10
16.46622063786299
 20
31.22801985217492
 30
0.0
 11
16.52622063786299
 21
31.22801985217492
 31
0.0
 12
16.49622063786299
 22
31.40801985217492
 32
0.0
 13
16.49622063786299
 23
31.40801985217492
 33
0.0
  0
MTEXT
  5
1740
330
163F
100
AcDbEntity
  8
DIM
 62
     0
440
 16777216
100
AcDbMText
 10
16.49622063786298
 20
26.97051985217492
 30
0.0
 40
0.18
 41
0.0
 46
0.0
 71
     5
 72
     1
  1
\A1;8.8750
 73
     1
 44
1.0
  0
POINT
  5
1741
330
163F
100
AcDbEntity
  8
DEFPOINTS
 62
     0
440
 16777216
100
AcDbPoint
 10
20.02698408104764
 20
22.53301985217492
 30
0.0
  0
POINT
  5
1742
330
163F
100
AcDbEntity
  8
DEFPOINTS
 62
     0
440
 16777216
100
AcDbPoint
 10
20.02698408104764
 20
31.40801985217492
 30
0.0
  0
POINT
  5
1743
330
163F
100
AcDbEntity
  8
DEFPOINTS
 62
     0
440
 16777216
100
AcDbPoint
 10
16.49622063786299
 20
31.40801985217492
 30
0.0
  0
ENDBLK
  5
164B
330
163F
100
AcDbEntity
  8
0
100
AcDbBlockEnd
  0
BLOCK
  5
1657
330
164C
100
AcDbEntity
  8
0
100
AcDbBlockBegin
  2
*D23
 70
     1
 10
0.0
 20
0.0
 30
0.0
  3
*D23
  1

  0
LINE
  5
1744
330
164C
100
AcDbEntity
  8
DIM
 62
     0
440
 16777216
370
    -2
100
AcDbLine
 10
23.52698408104764
 20
31.18926985217492
 30
0.0
 11
23.52698408104764
 21
34.26842592534752
 31
0.0
  0
LINE
  5
1745
330
164C
100
AcDbEntity
  8
DIM
 62
     0
440
 16777216
370
    -2
100
AcDbLine
 10
19.71448408104764
 20
31.18926985217492
 30
0.0
 11
19.71448408104764
 21
34.26842592534752
 31
0.0
  0
LINE
  5
1746
330
164C
100
AcDbEntity
  8
DIM
 62
     0
440
 16777216
370
    -2
100
AcDbLine
 10
23.33948408104764
 20
34.08092592534752
 30
0.0
 11
22.34823408104764
 21
34.08092592534752
 31
0.0
  0
LINE
  5
1747
330
164C
100
AcDbEntity
  8
DIM
 62
     0
440
 16777216
370
    -2
100
AcDbLine
 10
19.90198408104763
 20
34.08092592534752
 30
0.0
 11
20.89323408104764
 21
34.08092592534752
 31
0.0
  0
SOLID
  5
1748
330
164C
100
AcDbEntity
  8
DIM
 62
     0
440
 16777216
100
AcDbTrace
 10
23.33948408104764
 20
34.11217592534752
 30
0.0
 11
23.33948408104764
 21
34.04967592534752
 31
0.0
 12
23.52698408104764
 22
34.08092592534752
 32
0.0
 13
23.52698408104764
 23
34.08092592534752
 33
0.0
  0
SOLID
  5
1749
330
164C
100
AcDbEntity
  8
DIM
 62
     0
440
 16777216
100
AcDbTrace
 10
19.90198408104763
 20
34.11217592534752
 30
0.0
 11
19.90198408104763
 21
34.04967592534752
 31
0.0
 12
19.71448408104764
 22
34.08092592534752
 32
0.0
 13
19.71448408104764
 23
34.08092592534752
 33
0.0
  0
MTEXT
  5
174A
330
164C
100
AcDbEntity
  8
DIM
 62
     0
440
 16777216
100
AcDbMText
 10
21.62073408104764
 20
34.08092592534752
 30
0.0
 40
0.18
 41
0.0
 46
0.0
 71
     5
 72
     1
  1
\A1;3 13/16
 73
     1
 44
1.0
  0
POINT
  5
174B
330
164C
100
AcDbEntity
  8
DEFPOINTS
 62
     0
440
 16777216
100
AcDbPoint
 10
23.52698408104764
 20
31.09551985217492
 30
0.0
  0
POINT
  5
174C
330
164C
100
AcDbEntity
  8
DEFPOINTS
 62
     0
440
 16777216
100
AcDbPoint
 10
19.71448408104764
 20
31.09551985217492
 30
0.0
  0
POINT
  5
174D
330
164C
100
AcDbEntity
  8
DEFPOINTS
 62
     0
440
 16777216
100
AcDbPoint
 10
19.71448408104764
 20
34.08092592534752
 30
0.0
  0
ENDBLK
  5
1658
330
164C
100
AcDbEntity
  8
0
100
AcDbBlockEnd
  0
BLOCK
  5
1664
330
1659
100
AcDbEntity
  8
0
100
AcDbBlockBegin
  2
*D24
 70
     1
 10
0.0
 20
0.0
 30
0.0
  3
*D24
  1

  0
LINE
  5
174E
330
1659
100
AcDbEntity
  8
DIM
 62
     0
440
 16777216
370
    -2
100
AcDbLine
 10
20.30823408104764
 20
30.75176985217492
 30
0.0
 11
17.93435106252471
 21
30.75176985217492
 31
0.0
  0
LINE
  5
174F
330
1659
100
AcDbEntity
  8
DIM
 62
     0
440
 16777216
370
    -2
100
AcDbLine
 10
20.30823408104764
 20
23.18926985217492
 30
0.0
 11
17.93435106252471
 21
23.18926985217492
 31
0.0
  0
LINE
  5
1750
330
1659
100
AcDbEntity
  8
DIM
 62
     0
440
 16777216
370
    -2
100
AcDbLine
 10
18.11435106252471
 20
30.57176985217492
 30
0.0
 11
18.11435106252471
 21
27.15051985217492
 31
0.0
  0
LINE
  5
1751
330
1659
100
AcDbEntity
  8
DIM
 62
     0
440
 16777216
370
    -2
100
AcDbLine
 10
18.11435106252471
 20
23.36926985217492
 30
0.0
 11
18.11435106252471
 21
26.79051985217492
 31
0.0
  0
SOLID
  5
1752
330
1659
100
AcDbEntity
  8
DIM
 62
     0
440
 16777216
100
AcDbTrace
 10
18.08435106252471
 20
30.57176985217492
 30
0.0
 11
18.14435106252471
 21
30.57176985217492
 31
0.0
 12
18.11435106252471
 22
30.75176985217492
 32
0.0
 13
18.11435106252471
 23
30.75176985217492
 33
0.0
  0
SOLID
  5
1753
330
1659
100
AcDbEntity
  8
DIM
 62
     0
440
 16777216
100
AcDbTrace
 10
18.08435106252471
 20
23.36926985217492
 30
0.0
 11
18.14435106252471
 21
23.36926985217492
 31
0.0
 12
18.11435106252471
 22
23.18926985217492
 32
0.0
 13
18.11435106252471
 23
23.18926985217492
 33
0.0
  0
MTEXT
  5
1754
330
1659
100
AcDbEntity
  8
DIM
 62
     0
440
 16777216
100
AcDbMText
 10
18.11435106252471
 20
26.97051985217492
 30
0.0
 40
0.18
 41
0.0
 46
0.0
 71
     5
 72
     1
  1
\A1;7.5625
 73
     1
 44
1.0
  0
POINT
  5
1755
330
1659
100
AcDbEntity
  8
DEFPOINTS
 62
     0
440
 16777216
100
AcDbPoint
 10
20.37073408104764
 20
30.75176985217492
 30
0.0
  0
POINT
  5
1756
330
1659
100
AcDbEntity
  8
DEFPOINTS
 62
     0
440
 16777216
100
AcDbPoint
 10
20.37073408104764
 20
23.18926985217492
 30
0.0
  0
POINT
  5
1757
330
1659
100
AcDbEntity
  8
DEFPOINTS
 62
     0
440
 16777216
100
AcDbPoint
 10
18.11435106252471
 20
23.18926985217492
 30
0.0
  0
ENDBLK
  5
1665
330
1659
100
AcDbEntity
  8
0
100
AcDbBlockEnd
  0
BLOCK
  5
1671
330
1666
100
AcDbEntity
  8
0
100
AcDbBlockBegin
  2
*D25
 70
     1
 10
0.0
 20
0.0
 30
0.0
  3
*D25
  1

  0
LINE
  5
1758
330
1666
100
AcDbEntity
  8
DIM
 62
     0
440
 16777216
370
    -2
100
AcDbLine
 10
23.21772834421344
 20
12.55579817944515
 30
0.0
 11
25.33951750195181
 21
12.55579817944515
 31
0.0
  0
LINE
  5
1759
330
1666
100
AcDbEntity
  8
DIM
 62
     0
440
 16777216
370
    -2
100
AcDbLine
 10
23.51385069596955
 20
16.25829817944515
 30
0.0
 11
25.33951750195181
 21
16.25829817944515
 31
0.0
  0
LINE
  5
175A
330
1666
100
AcDbEntity
  8
DIM
 62
     0
440
 16777216
370
    -2
100
AcDbLine
 10
25.15951750195181
 20
12.73579817944515
 30
0.0
 11
25.15951750195181
 21
14.22704817944515
 31
0.0
  0
LINE
  5
175B
330
1666
100
AcDbEntity
  8
DIM
 62
     0
440
 16777216
370
    -2
100
AcDbLine
 10
25.15951750195181
 20
16.07829817944515
 30
0.0
 11
25.15951750195181
 21
14.58704817944515
 31
0.0
  0
SOLID
  5
175C
330
1666
100
AcDbEntity
  8
DIM
 62
     0
440
 16777216
100
AcDbTrace
 10
25.12951750195181
 20
12.73579817944515
 30
0.0
 11
25.18951750195181
 21
12.73579817944515
 31
0.0
 12
25.15951750195181
 22
12.55579817944515
 32
0.0
 13
25.15951750195181
 23
12.55579817944515
 33
0.0
  0
SOLID
  5
175D
330
1666
100
AcDbEntity
  8
DIM
 62
     0
440
 16777216
100
AcDbTrace
 10
25.12951750195181
 20
16.07829817944515
 30
0.0
 11
25.18951750195181
 21
16.07829817944515
 31
0.0
 12
25.15951750195181
 22
16.25829817944515
 32
0.0
 13
25.15951750195181
 23
16.25829817944515
 33
0.0
  0
MTEXT
  5
175E
330
1666
100
AcDbEntity
  8
DIM
 62
     0
440
 16777216
100
AcDbMText
 10
25.15951750195181
 20
14.40704817944516
 30
0.0
 40
0.18
 41
0.0
 46
0.0
 71
     5
 72
     1
  1
\A1;3.7025
 73
     1
 44
1.0
  0
POINT
  5
175F
330
1666
100
AcDbEntity
  8
DEFPOINTS
 62
     0
440
 16777216
100
AcDbPoint
 10
23.15522834421344
 20
12.55579817944515
 30
0.0
  0
POINT
  5
1760
330
1666
100
AcDbEntity
  8
DEFPOINTS
 62
     0
440
 16777216
100
AcDbPoint
 10
23.45135069596955
 20
16.25829817944515
 30
0.0
  0
POINT
  5
1761
330
1666
100
AcDbEntity
  8
DEFPOINTS
 62
     0
440
 16777216
100
AcDbPoint
 10
25.15951750195181
 20
16.25829817944515
 30
0.0
  0
ENDBLK
  5
1672
330
1666
100
AcDbEntity
  8
0
100
AcDbBlockEnd
  0
BLOCK
  5
167E
330
1673
100
AcDbEntity
  8
0
100
AcDbBlockBegin
  2
*D26
 70
     1
 10
0.0
 20
0.0
 30
0.0
  3
*D26
  1

  0
LINE
  5
1762
330
1673
100
AcDbEntity
  8
DIM
 62
     0
440
 16777216
370
    -2
100
AcDbLine
 10
56.59784178552008
 20
12.68079817944515
 30
0.0
 11
58.34004928651272
 21
12.68079817944515
 31
0.0
  0
LINE
  5
1763
330
1673
100
AcDbEntity
  8
DIM
 62
     0
440
 16777216
370
    -2
100
AcDbLine
 10
56.71952397612948
 20
16.05579817944515
 30
0.0
 11
58.34004928651273
 21
16.05579817944515
 31
0.0
  0
LINE
  5
1764
330
1673
100
AcDbEntity
  8
DIM
 62
     0
440
 16777216
370
    -2
100
AcDbLine
 10
58.16004928651272
 20
12.86079817944515
 30
0.0
 11
58.16004928651272
 21
14.18829817944514
 31
0.0
  0
LINE
  5
1765
330
1673
100
AcDbEntity
  8
DIM
 62
     0
440
 16777216
370
    -2
100
AcDbLine
 10
58.16004928651272
 20
15.87579817944515
 30
0.0
 11
58.16004928651272
 21
14.54829817944514
 31
0.0
  0
SOLID
  5
1766
330
1673
100
AcDbEntity
  8
DIM
 62
     0
440
 16777216
100
AcDbTrace
 10
58.13004928651272
 20
12.86079817944515
 30
0.0
 11
58.19004928651272
 21
12.86079817944515
 31
0.0
 12
58.16004928651272
 22
12.68079817944515
 32
0.0
 13
58.16004928651272
 23
12.68079817944515
 33
0.0
  0
SOLID
  5
1767
330
1673
100
AcDbEntity
  8
DIM
 62
     0
440
 16777216
100
AcDbTrace
 10
58.13004928651272
 20
15.87579817944515
 30
0.0
 11
58.19004928651272
 21
15.87579817944515
 31
0.0
 12
58.16004928651273
 22
16.05579817944515
 32
0.0
 13
58.16004928651273
 23
16.05579817944515
 33
0.0
  0
MTEXT
  5
1768
330
1673
100
AcDbEntity
  8
DIM
 62
     0
440
 16777216
100
AcDbMText
 10
58.16004928651272
 20
14.36829817944515
 30
0.0
 40
0.18
 41
0.0
 46
0.0
 71
     5
 72
     1
  1
\A1;3.3750
 73
     1
 44
1.0
  0
POINT
  5
1769
330
1673
100
AcDbEntity
  8
DEFPOINTS
 62
     0
440
 16777216
100
AcDbPoint
 10
56.53534178552008
 20
12.68079817944515
 30
0.0
  0
POINT
  5
176A
330
1673
100
AcDbEntity
  8
DEFPOINTS
 62
     0
440
 16777216
100
AcDbPoint
 10
56.65702397612948
 20
16.05579817944515
 30
0.0
  0
POINT
  5
176B
330
1673
100
AcDbEntity
  8
DEFPOINTS
 62
     0
440
 16777216
100
AcDbPoint
 10
58.16004928651273
 20
16.05579817944515
 30
0.0
  0
ENDBLK
  5
167F
330
1673
100
AcDbEntity
  8
0
100
AcDbBlockEnd
  0
BLOCK
  5
168C
330
1680
100
AcDbEntity
  8
0
100
AcDbBlockBegin
  2
*D27
 70
     1
 10
0.0
 20
0.0
 30
0.0
  3
*D27
  1

  0
LINE
  5
176C
330
1680
100
AcDbEntity
  8
DIM
 62
     0
440
 16777216
370
    -2
100
AcDbLine
 10
53.8651242176509
 20
16.32079817944515
 30
0.0
 11
54.15156203966335
 21
16.32079817944515
 31
0.0
  0
LINE
  5
176D
330
1680
100
AcDbEntity
  8
DIM
 62
     0
440
 16777216
370
    -2
100
AcDbLine
 10
53.81334752235426
 20
16.44579817944515
 30
0.0
 11
54.15156203966335
 21
16.44579817944515
 31
0.0
  0
LINE
  5
176E
330
1680
100
AcDbEntity
  8
DIM
 62
     0
440
 16777216
370
    -2
100
AcDbLine
 10
53.97156203966336
 20
16.14079817944515
 30
0.0
 11
53.97156203966335
 21
15.96079817944515
 31
0.0
  0
LINE
  5
176F
330
1680
100
AcDbEntity
  8
DIM
 62
     0
440
 16777216
370
    -2
100
AcDbLine
 10
53.97156203966336
 20
16.62579817944514
 30
0.0
 11
53.97156203966336
 21
16.80579817944515
 31
0.0
  0
LINE
  5
1770
330
1680
100
AcDbEntity
  8
DIM
 62
     0
440
 16777216
370
    -2
100
AcDbLine
 10
53.97156203966336
 20
16.80579817944515
 30
0.0
 11
54.15156203966335
 21
16.80579817944515
 31
0.0
  0
SOLID
  5
1771
330
1680
100
AcDbEntity
  8
DIM
 62
     0
440
 16777216
100
AcDbTrace
 10
53.94156203966335
 20
16.14079817944515
 30
0.0
 11
54.00156203966336
 21
16.14079817944515
 31
0.0
 12
53.97156203966336
 22
16.32079817944515
 32
0.0
 13
53.97156203966336
 23
16.32079817944515
 33
0.0
  0
SOLID
  5
1772
330
1680
100
AcDbEntity
  8
DIM
 62
     0
440
 16777216
100
AcDbTrace
 10
53.94156203966335
 20
16.62579817944514
 30
0.0
 11
54.00156203966336
 21
16.62579817944514
 31
0.0
 12
53.97156203966336
 22
16.44579817944515
 32
0.0
 13
53.97156203966336
 23
16.44579817944515
 33
0.0
  0
MTEXT
  5
1773
330
1680
100
AcDbEntity
  8
DIM
 62
     0
440
 16777216
100
AcDbMText
 10
54.63156203966335
 20
16.80579817944515
 30
0.0
 40
0.18
 41
0.0
 46
0.0
 71
     5
 72
     1
  1
\A1;0.1250
 73
     1
 44
1.0
  0
POINT
  5
1774
330
1680
100
AcDbEntity
  8
DEFPOINTS
 62
     0
440
 16777216
100
AcDbPoint
 10
53.8026242176509
 20
16.32079817944515
 30
0.0
  0
POINT
  5
1775
330
1680
100
AcDbEntity
  8
DEFPOINTS
 62
     0
440
 16777216
100
AcDbPoint
 10
53.75084752235427
 20
16.44579817944515
 30
0.0
  0
POINT
  5
1776
330
1680
100
AcDbEntity
  8
DEFPOINTS
 62
     0
440
 16777216
100
AcDbPoint
 10
53.97156203966336
 20
16.44579817944515
 30
0.0
  0
ENDBLK
  5
168D
330
1680
100
AcDbEntity
  8
0
100
AcDbBlockEnd
  0
BLOCK
  5
1699
330
168E
100
AcDbEntity
  8
0
100
AcDbBlockBegin
  2
*D28
 70
     1
 10
0.0
 20
0.0
 30
0.0
  3
*D28
  1

  0
LINE
  5
1777
330
168E
100
AcDbEntity
  8
DIM
 62
     0
440
 16777216
370
    -2
100
AcDbLine
 10
20.37073408104764
 20
30.84551985217492
 30
0.0
 11
20.37073408104764
 21
33.26657048648704
 31
0.0
  0
LINE
  5
1778
330
168E
100
AcDbEntity
  8
DIM
 62
     0
440
 16777216
370
    -2
100
AcDbLine
 10
22.87073408104764
 20
30.84551985217492
 30
0.0
 11
22.87073408104764
 21
33.26657048648704
 31
0.0
  0
LINE
  5
1779
330
168E
100
AcDbEntity
  8
DIM
 62
     0
440
 16777216
370
    -2
100
AcDbLine
 10
20.55823408104764
 20
33.07907048648704
 30
0.0
 11
21.04323408104764
 21
33.07907048648704
 31
0.0
  0
LINE
  5
177A
330
168E
100
AcDbEntity
  8
DIM
 62
     0
440
 16777216
370
    -2
100
AcDbLine
 10
22.68323408104764
 20
33.07907048648704
 30
0.0
 11
22.19823408104764
 21
33.07907048648704
 31
0.0
  0
SOLID
  5
177B
330
168E
100
AcDbEntity
  8
DIM
 62
     0
440
 16777216
100
AcDbTrace
 10
20.55823408104764
 20
33.11032048648704
 30
0.0
 11
20.55823408104764
 21
33.04782048648704
 31
0.0
 12
20.37073408104764
 22
33.07907048648704
 32
0.0
 13
20.37073408104764
 23
33.07907048648704
 33
0.0
  0
SOLID
  5
177C
330
168E
100
AcDbEntity
  8
DIM
 62
     0
440
 16777216
100
AcDbTrace
 10
22.68323408104764
 20
33.11032048648704
 30
0.0
 11
22.68323408104764
 21
33.04782048648704
 31
0.0
 12
22.87073408104764
 22
33.07907048648704
 32
0.0
 13
22.87073408104764
 23
33.07907048648704
 33
0.0
  0
MTEXT
  5
177D
330
168E
100
AcDbEntity
  8
DIM
 62
     0
440
 16777216
100
AcDbMText
 10
21.62073408104764
 20
33.07907048648704
 30
0.0
 40
0.18
 41
0.0
 46
0.0
 71
     5
 72
     1
  1
\A1;2 1/2
 73
     1
 44
1.0
  0
POINT
  5
177E
330
168E
100
AcDbEntity
  8
DEFPOINTS
 62
     0
440
 16777216
100
AcDbPoint
 10
20.37073408104764
 20
30.75176985217492
 30
0.0
  0
POINT
  5
177F
330
168E
100
AcDbEntity
  8
DEFPOINTS
 62
     0
440
 16777216
100
AcDbPoint
 10
22.87073408104764
 20
30.75176985217492
 30
0.0
  0
POINT
  5
1780
330
168E
100
AcDbEntity
  8
DEFPOINTS
 62
     0
440
 16777216
100
AcDbPoint
 10
22.87073408104764
 20
33.07907048648704
 30
0.0
  0
ENDBLK
  5
169A
330
168E
100
AcDbEntity
  8
0
100
AcDbBlockEnd
  0
BLOCK
  5
16A7
330
169B
100
AcDbEntity
  8
0
100
AcDbBlockBegin
  2
*D29
 70
     1
 10
0.0
 20
0.0
 30
0.0
  3
*D29
  1

  0
LINE
  5
1781
330
169B
100
AcDbEntity
  8
DIM
 62
     0
440
 16777216
370
    -2
100
AcDbLine
 10
53.40385325918846
 20
12.68079817944515
 30
0.0
 11
52.48345510207354
 21
12.68079817944515
 31
0.0
  0
LINE
  5
1782
330
169B
100
AcDbEntity
  8
DIM
 62
     0
440
 16777216
370
    -2
100
AcDbLine
 10
53.40385325918846
 20
12.55579817944515
 30
0.0
 11
52.48345510207354
 21
12.55579817944515
 31
0.0
  0
LINE
  5
1783
330
169B
100
AcDbEntity
  8
DIM
 62
     0
440
 16777216
370
    -2
100
AcDbLine
 10
52.66345510207353
 20
12.86079817944515
 30
0.0
 11
52.66345510207353
 21
13.04079817944515
 31
0.0
  0
LINE
  5
1784
330
169B
100
AcDbEntity
  8
DIM
 62
     0
440
 16777216
370
    -2
100
AcDbLine
 10
52.66345510207353
 20
12.37579817944515
 30
0.0
 11
52.66345510207353
 21
12.19579817944515
 31
0.0
  0
LINE
  5
1785
330
169B
100
AcDbEntity
  8
DIM
 62
     0
440
 16777216
370
    -2
100
AcDbLine
 10
52.66345510207353
 20
12.19579817944515
 30
0.0
 11
52.48345510207354
 21
12.19579817944515
 31
0.0
  0
SOLID
  5
1786
330
169B
100
AcDbEntity
  8
DIM
 62
     0
440
 16777216
100
AcDbTrace
 10
52.63345510207353
 20
12.86079817944515
 30
0.0
 11
52.69345510207354
 21
12.86079817944515
 31
0.0
 12
52.66345510207353
 22
12.68079817944515
 32
0.0
 13
52.66345510207353
 23
12.68079817944515
 33
0.0
  0
SOLID
  5
1787
330
169B
100
AcDbEntity
  8
DIM
 62
     0
440
 16777216
100
AcDbTrace
 10
52.63345510207353
 20
12.37579817944515
 30
0.0
 11
52.69345510207354
 21
12.37579817944515
 31
0.0
 12
52.66345510207353
 22
12.55579817944515
 32
0.0
 13
52.66345510207353
 23
12.55579817944515
 33
0.0
  0
MTEXT
  5
1788
330
169B
100
AcDbEntity
  8
DIM
 62
     0
440
 16777216
100
AcDbMText
 10
52.00345510207353
 20
12.19579817944516
 30
0.0
 40
0.18
 41
0.0
 46
0.0
 71
     5
 72
     1
  1
\A1;0.1250
 73
     1
 44
1.0
  0
POINT
  5
1789
330
169B
100
AcDbEntity
  8
DEFPOINTS
 62
     0
440
 16777216
100
AcDbPoint
 10
53.46635325918846
 20
12.68079817944515
 30
0.0
  0
POINT
  5
178A
330
169B
100
AcDbEntity
  8
DEFPOINTS
 62
     0
440
 16777216
100
AcDbPoint
 10
53.46635325918846
 20
12.55579817944515
 30
0.0
  0
POINT
  5
178B
330
169B
100
AcDbEntity
  8
DEFPOINTS
 62
     0
440
 16777216
100
AcDbPoint
 10
52.66345510207353
 20
12.55579817944515
 30
0.0
  0
ENDBLK
  5
16A8
330
169B
100
AcDbEntity
  8
0
100
AcDbBlockEnd
  0
BLOCK
  5
16B2
330
16A9
100
AcDbEntity
  8
0
100
AcDbBlockBegin
  2
*D30
 70
     1
 10
0.0
 20
0.0
 30
0.0
  3
*D30
  1

  0
LINE
  5
178C
330
16A9
100
AcDbEntity
  8
DIM
 62
     0
440
 16777216
370
    -2
100
AcDbLine
 10
47.30563978105132
 20
22.64522072261221
 30
0.0
 11
47.1256397810513
 21
22.64522072261221
 31
0.0
  0
LINE
  5
178D
330
16A9
100
AcDbEntity
  8
DIM
 62
     0
440
 16777216
370
    -2
100
AcDbLine
 10
47.1256397810513
 20
22.64522072261221
 30
0.0
 11
46.34830681648409
 21
23.23360077870463
 31
0.0
  0
MTEXT
  5
178E
330
16A9
100
AcDbEntity
  8
DIM
 62
     0
440
 16777216
100
AcDbMText
 10
47.80438978105133
 20
22.6452207226122
 30
0.0
 40
0.18
 41
0.0
 46
0.0
 71
     5
 72
     1
  1
\A1;∅0.218
 73
     1
 44
1.0
  0
SOLID
  5
178F
330
16A9
100
AcDbEntity
  8
DIM
 62
     0
440
 16777216
100
AcDbTrace
 10
46.36641260265749
 20
23.25752107358248
 30
0.0
 11
46.33020103031071
 21
23.20968048382677
 31
0.0
 12
46.20478504721697
 22
23.34223549574495
 32
0.0
 13
46.20478504721697
 23
23.34223549574495
 33
0.0
  0
LINE
  5
1790
330
16A9
100
AcDbEntity
  8
DIM
 62
     0
440
 16777216
370
    -2
100
AcDbLine
 10
46.02787464249409
 20
23.40801985217493
 30
0.0
 11
46.2078746424941
 21
23.40801985217493
 31
0.0
  0
LINE
  5
1791
330
16A9
100
AcDbEntity
  8
DIM
 62
     0
440
 16777216
370
    -2
100
AcDbLine
 10
46.1178746424941
 20
23.31801985217493
 30
0.0
 11
46.1178746424941
 21
23.49801985217493
 31
0.0
  0
POINT
  5
1792
330
16A9
100
AcDbEntity
  8
DEFPOINTS
 62
     0
440
 16777216
100
AcDbPoint
 10
46.20478504721697
 20
23.34223549574495
 30
0.0
  0
POINT
  5
1793
330
16A9
100
AcDbEntity
  8
DEFPOINTS
 62
     0
440
 16777216
100
AcDbPoint
 10
46.03096423777122
 20
23.4738042086049
 30
0.0
  0
ENDBLK
  5
16B3
330
16A9
100
AcDbEntity
  8
0
100
AcDbBlockEnd
  0
BLOCK
  5
16BF
330
16B4
100
AcDbEntity
  8
0
100
AcDbBlockBegin
  2
*D31
 70
     1
 10
0.0
 20
0.0
 30
0.0
  3
*D31
  1

  0
LINE
  5
1794
330
16B4
100
AcDbEntity
  8
DIM
 62
     0
440
 16777216
370
    -2
100
AcDbLine
 10
7.505485052347097
 20
30.71676985217492
 30
0.0
 11
7.505485052347097
 21
33.26657048648704
 31
0.0
  0
LINE
  5
1795
330
16B4
100
AcDbEntity
  8
DIM
 62
     0
440
 16777216
370
    -2
100
AcDbLine
 10
10.44294220038874
 20
30.71676985217492
 30
0.0
 11
10.44294220038874
 21
33.26657048648704
 31
0.0
  0
LINE
  5
1796
330
16B4
100
AcDbEntity
  8
DIM
 62
     0
440
 16777216
370
    -2
100
AcDbLine
 10
7.692985052347097
 20
33.07907048648704
 30
0.0
 11
8.246713626367919
 21
33.07907048648704
 31
0.0
  0
LINE
  5
1797
330
16B4
100
AcDbEntity
  8
DIM
 62
     0
440
 16777216
370
    -2
100
AcDbLine
 10
10.25544220038874
 20
33.07907048648704
 30
0.0
 11
9.70171362636792
 21
33.07907048648704
 31
0.0
  0
SOLID
  5
1798
330
16B4
100
AcDbEntity
  8
DIM
 62
     0
440
 16777216
100
AcDbTrace
 10
7.692985052347097
 20
33.11032048648704
 30
0.0
 11
7.692985052347097
 21
33.04782048648704
 31
0.0
 12
7.505485052347097
 22
33.07907048648704
 32
0.0
 13
7.505485052347097
 23
33.07907048648704
 33
0.0
  0
SOLID
  5
1799
330
16B4
100
AcDbEntity
  8
DIM
 62
     0
440
 16777216
100
AcDbTrace
 10
10.25544220038874
 20
33.11032048648704
 30
0.0
 11
10.25544220038874
 21
33.04782048648704
 31
0.0
 12
10.44294220038874
 22
33.07907048648704
 32
0.0
 13
10.44294220038874
 23
33.07907048648704
 33
0.0
  0
MTEXT
  5
179A
330
16B4
100
AcDbEntity
  8
DIM
 62
     0
440
 16777216
100
AcDbMText
 10
8.974213626367919
 20
33.07907048648704
 30
0.0
 40
0.18
 41
0.0
 46
0.0
 71
     5
 72
     1
  1
\A1;2 15/16
 73
     1
 44
1.0
  0
POINT
  5
179B
330
16B4
100
AcDbEntity
  8
DEFPOINTS
 62
     0
440
 16777216
100
AcDbPoint
 10
7.505485052347097
 20
30.62301985217492
 30
0.0
  0
POINT
  5
179C
330
16B4
100
AcDbEntity
  8
DEFPOINTS
 62
     0
440
 16777216
100
AcDbPoint
 10
10.44294220038874
 20
30.62301985217492
 30
0.0
  0
POINT
  5
179D
330
16B4
100
AcDbEntity
  8
DEFPOINTS
 62
     0
440
 16777216
100
AcDbPoint
 10
10.44294220038874
 20
33.07907048648704
 30
0.0
  0
ENDBLK
  5
16C0
330
16B4
100
AcDbEntity
  8
0
100
AcDbBlockEnd
  0
BLOCK
  5
16CC
330
16C1
100
AcDbEntity
  8
0
100
AcDbBlockBegin
  2
*D32
 70
     1
 10
0.0
 20
0.0
 30
0.0
  3
*D32
  1

  0
LINE
  5
179E
330
16C1
100
AcDbEntity
  8
DIM
 62
     0
440
 16777216
370
    -2
100
AcDbLine
 10
7.321735052347094
 20
30.53301985217492
 30
0.0
 11
5.006920398134072
 21
30.53301985217492
 31
0.0
  0
LINE
  5
179F
330
16C1
100
AcDbEntity
  8
DIM
 62
     0
440
 16777216
370
    -2
100
AcDbLine
 10
7.321735052347094
 20
23.40801985217492
 30
0.0
 11
5.00692039813407
 21
23.40801985217492
 31
0.0
  0
LINE
  5
17A0
330
16C1
100
AcDbEntity
  8
DIM
 62
     0
440
 16777216
370
    -2
100
AcDbLine
 10
5.194420398134072
 20
30.34551985217492
 30
0.0
 11
5.194420398134071
 21
27.24801985217492
 31
0.0
  0
LINE
  5
17A1
330
16C1
100
AcDbEntity
  8
DIM
 62
     0
440
 16777216
370
    -2
100
AcDbLine
 10
5.19442039813407
 20
23.59551985217492
 30
0.0
 11
5.194420398134071
 21
26.69301985217492
 31
0.0
  0
SOLID
  5
17A2
330
16C1
100
AcDbEntity
  8
DIM
 62
     0
440
 16777216
100
AcDbTrace
 10
5.163170398134072
 20
30.34551985217492
 30
0.0
 11
5.225670398134072
 21
30.34551985217492
 31
0.0
 12
5.194420398134072
 22
30.53301985217492
 32
0.0
 13
5.194420398134072
 23
30.53301985217492
 33
0.0
  0
SOLID
  5
17A3
330
16C1
100
AcDbEntity
  8
DIM
 62
     0
440
 16777216
100
AcDbTrace
 10
5.16317039813407
 20
23.59551985217492
 30
0.0
 11
5.22567039813407
 21
23.59551985217492
 31
0.0
 12
5.19442039813407
 22
23.40801985217492
 32
0.0
 13
5.19442039813407
 23
23.40801985217492
 33
0.0
  0
MTEXT
  5
17A4
330
16C1
100
AcDbEntity
  8
DIM
 62
     0
440
 16777216
100
AcDbMText
 10
5.194420398134067
 20
26.97051985217492
 30
0.0
 40
0.18
 41
0.0
 46
0.0
 71
     5
 72
     1
  1
\A1;7 1/8
 73
     1
 44
1.0
  0
POINT
  5
17A5
330
16C1
100
AcDbEntity
  8
DEFPOINTS
 62
     0
440
 16777216
100
AcDbPoint
 10
7.415485052347094
 20
30.53301985217492
 30
0.0
  0
POINT
  5
17A6
330
16C1
100
AcDbEntity
  8
DEFPOINTS
 62
     0
440
 16777216
100
AcDbPoint
 10
7.415485052347094
 20
23.40801985217492
 30
0.0
  0
POINT
  5
17A7
330
16C1
100
AcDbEntity
  8
DEFPOINTS
 62
     0
440
 16777216
100
AcDbPoint
 10
5.19442039813407
 20
23.40801985217492
 30
0.0
  0
ENDBLK
  5
16CD
330
16C1
100
AcDbEntity
  8
0
100
AcDbBlockEnd
  0
BLOCK
  5
16D7
330
16CE
100
AcDbEntity
  8
0
100
AcDbBlockBegin
  2
*D33
 70
     1
 10
0.0
 20
0.0
 30
0.0
  3
*D33
  1

  0
LINE
  5
17A8
330
16CE
100
AcDbEntity
  8
DIM
 62
     0
440
 16777216
370
    -2
100
AcDbLine
 10
11.67248793303558
 20
24.13523922251244
 30
0.0
 11
11.48498793303558
 21
24.13523922251244
 31
0.0
  0
LINE
  5
17A9
330
16CE
100
AcDbEntity
  8
DIM
 62
     0
440
 16777216
370
    -2
100
AcDbLine
 10
11.48498793303558
 20
24.13523922251244
 30
0.0
 11
10.68608676742287
 21
23.57770476465033
 31
0.0
  0
MTEXT
  5
17AA
330
16CE
100
AcDbEntity
  8
DIM
 62
     0
440
 16777216
100
AcDbMText
 10
12.26498793303558
 20
24.13523922251244
 30
0.0
 40
0.18
 41
0.0
 46
0.0
 71
     5
 72
     1
  1
\A1;∅0.218
 73
     1
 44
1.0
  0
SOLID
  5
17AB
330
16CE
100
AcDbEntity
  8
DIM
 62
     0
440
 16777216
100
AcDbTrace
 10
10.6682026071704
 20
23.60333129996169
 30
0.0
 11
10.70397092767533
 21
23.55207822933898
 31
0.0
 12
10.53232755555474
 22
23.47039980313553
 32
0.0
 13
10.53232755555474
 23
23.47039980313553
 33
0.0
  0
LINE
  5
17AC
330
16CE
100
AcDbEntity
  8
DIM
 62
     0
440
 16777216
370
    -2
100
AcDbLine
 10
10.34919220038874
 20
23.40801985217493
 30
0.0
 11
10.53669220038874
 21
23.40801985217493
 31
0.0
  0
LINE
  5
17AD
330
16CE
100
AcDbEntity
  8
DIM
 62
     0
440
 16777216
370
    -2
100
AcDbLine
 10
10.44294220038874
 20
23.31426985217493
 30
0.0
 11
10.44294220038874
 21
23.50176985217493
 31
0.0
  0
POINT
  5
17AE
330
16CE
100
AcDbEntity
  8
DEFPOINTS
 62
     0
440
 16777216
100
AcDbPoint
 10
10.53232755555474
 20
23.47039980313553
 30
0.0
  0
POINT
  5
17AF
330
16CE
100
AcDbEntity
  8
DEFPOINTS
 62
     0
440
 16777216
100
AcDbPoint
 10
10.35355684522274
 20
23.34563990121433
 30
0.0
  0
ENDBLK
  5
16D8
330
16CE
100
AcDbEntity
  8
0
100
AcDbBlockEnd
  0
BLOCK
  5
16E2
330
16D9
100
AcDbEntity
  8
0
100
AcDbBlockBegin
  2
*D34
 70
     1
 10
0.0
 20
0.0
 30
0.0
  3
*D34
  1

  0
LINE
  5
17B0
330
16D9
100
AcDbEntity
  8
DIM
 62
     0
440
 16777216
370
    -2
100
AcDbLine
 10
11.48440809758596
 20
22.85055939598434
 30
0.0
 11
11.29690809758597
 21
22.85055939598434
 31
0.0
  0
LINE
  5
17B1
330
16D9
100
AcDbEntity
  8
DIM
 62
     0
440
 16777216
370
    -2
100
AcDbLine
 10
11.29690809758597
 20
22.85055939598434
 30
0.0
 11
10.74439699862949
 21
23.21123315390082
 31
0.0
  0
MTEXT
  5
17B2
330
16D9
100
AcDbEntity
  8
DIM
 62
     0
440
 16777216
100
AcDbMText
 10
12.10690809758597
 20
22.85055939598434
 30
0.0
 40
0.18
 41
0.0
 46
0.0
 71
     5
 72
     1
  1
\A1;∅0.345
 73
     1
 44
1.0
  0
SOLID
  5
17B3
330
16D9
100
AcDbEntity
  8
DIM
 62
     0
440
 16777216
100
AcDbTrace
 10
10.76147917729912
 20
23.23740110513699
 30
0.0
 11
10.72731481995986
 21
23.18506520266464
 31
0.0
 12
10.58738929121243
 22
23.31372622591858
 32
0.0
 13
10.58738929121243
 23
23.31372622591858
 33
0.0
  0
LINE
  5
17B4
330
16D9
100
AcDbEntity
  8
DIM
 62
     0
440
 16777216
370
    -2
100
AcDbLine
 10
10.34919220038873
 20
23.40801985217494
 30
0.0
 11
10.53669220038873
 21
23.40801985217494
 31
0.0
  0
LINE
  5
17B5
330
16D9
100
AcDbEntity
  8
DIM
 62
     0
440
 16777216
370
    -2
100
AcDbLine
 10
10.44294220038873
 20
23.31426985217493
 30
0.0
 11
10.44294220038873
 21
23.50176985217494
 31
0.0
  0
POINT
  5
17B6
330
16D9
100
AcDbEntity
  8
DEFPOINTS
 62
     0
440
 16777216
100
AcDbPoint
 10
10.58738929121243
 20
23.31372622591858
 30
0.0
  0
POINT
  5
17B7
330
16D9
100
AcDbEntity
  8
DEFPOINTS
 62
     0
440
 16777216
100
AcDbPoint
 10
10.29849510956504
 20
23.50231347843128
 30
0.0
  0
ENDBLK
  5
16E3
330
16D9
100
AcDbEntity
  8
0
100
AcDbBlockEnd
  0
BLOCK
  5
16EF
330
16E4
100
AcDbEntity
  8
0
100
AcDbBlockBegin
  2
*D35
 70
     1
 10
0.0
 20
0.0
 30
0.0
  3
*D35
  1

  0
LINE
  5
17B8
330
16E4
100
AcDbEntity
  8
DIM
 62
     0
440
 16777216
370
    -2
100
AcDbLine
 10
7.380713626367927
 20
31.27926985217492
 30
0.0
 11
7.380713626367927
 21
34.26964240165134
 31
0.0
  0
LINE
  5
17B9
330
16E4
100
AcDbEntity
  8
DIM
 62
     0
440
 16777216
370
    -2
100
AcDbLine
 10
10.56771362636792
 20
31.27926985217492
 30
0.0
 11
10.56771362636792
 21
34.26964240165134
 31
0.0
  0
LINE
  5
17BA
330
16E4
100
AcDbEntity
  8
DIM
 62
     0
440
 16777216
370
    -2
100
AcDbLine
 10
7.568213626367927
 20
34.08214240165134
 30
0.0
 11
8.306713626367926
 21
34.08214240165134
 31
0.0
  0
LINE
  5
17BB
330
16E4
100
AcDbEntity
  8
DIM
 62
     0
440
 16777216
370
    -2
100
AcDbLine
 10
10.38021362636793
 20
34.08214240165134
 30
0.0
 11
9.641713626367927
 21
34.08214240165134
 31
0.0
  0
SOLID
  5
17BC
330
16E4
100
AcDbEntity
  8
DIM
 62
     0
440
 16777216
100
AcDbTrace
 10
7.568213626367927
 20
34.11339240165134
 30
0.0
 11
7.568213626367927
 21
34.05089240165134
 31
0.0
 12
7.380713626367927
 22
34.08214240165134
 32
0.0
 13
7.380713626367927
 23
34.08214240165134
 33
0.0
  0
SOLID
  5
17BD
330
16E4
100
AcDbEntity
  8
DIM
 62
     0
440
 16777216
100
AcDbTrace
 10
10.38021362636793
 20
34.11339240165134
 30
0.0
 11
10.38021362636793
 21
34.05089240165134
 31
0.0
 12
10.56771362636792
 22
34.08214240165134
 32
0.0
 13
10.56771362636792
 23
34.08214240165134
 33
0.0
  0
MTEXT
  5
17BE
330
16E4
100
AcDbEntity
  8
DIM
 62
     0
440
 16777216
100
AcDbMText
 10
8.974213626367927
 20
34.08214240165134
 30
0.0
 40
0.18
 41
0.0
 46
0.0
 71
     5
 72
     1
  1
\A1;3 3/16
 73
     1
 44
1.0
  0
POINT
  5
17BF
330
16E4
100
AcDbEntity
  8
DEFPOINTS
 62
     0
440
 16777216
100
AcDbPoint
 10
7.380713626367927
 20
31.18551985217492
 30
0.0
  0
POINT
  5
17C0
330
16E4
100
AcDbEntity
  8
DEFPOINTS
 62
     0
440
 16777216
100
AcDbPoint
 10
10.56771362636792
 20
31.18551985217492
 30
0.0
  0
POINT
  5
17C1
330
16E4
100
AcDbEntity
  8
DEFPOINTS
 62
     0
440
 16777216
100
AcDbPoint
 10
10.56771362636792
 20
34.08214240165134
 30
0.0
  0
ENDBLK
  5
16F0
330
16E4
100
AcDbEntity
  8
0
100
AcDbBlockEnd
  0
BLOCK
  5
16FC
330
16F1
100
AcDbEntity
  8
0
100
AcDbBlockBegin
  2
*D36
 70
     1
 10
0.0
 20
0.0
 30
0.0
  3
*D36
  1

  0
LINE
  5
17C2
330
16F1
100
AcDbEntity
  8
DIM
 62
     0
440
 16777216
370
    -2
100
AcDbLine
 10
7.196963626367923
 20
22.84551985217492
 30
0.0
 11
3.555510522889446
 21
22.84551985217492
 31
0.0
  0
LINE
  5
17C3
330
16F1
100
AcDbEntity
  8
DIM
 62
     0
440
 16777216
370
    -2
100
AcDbLine
 10
7.196963626367923
 20
31.09551985217492
 30
0.0
 11
3.555510522889449
 21
31.09551985217492
 31
0.0
  0
LINE
  5
17C4
330
16F1
100
AcDbEntity
  8
DIM
 62
     0
440
 16777216
370
    -2
100
AcDbLine
 10
3.743010522889447
 20
23.03301985217492
 30
0.0
 11
3.743010522889447
 21
26.69301985217492
 31
0.0
  0
LINE
  5
17C5
330
16F1
100
AcDbEntity
  8
DIM
 62
     0
440
 16777216
370
    -2
100
AcDbLine
 10
3.743010522889448
 20
30.90801985217492
 30
0.0
 11
3.743010522889448
 21
27.24801985217492
 31
0.0
  0
SOLID
  5
17C6
330
16F1
100
AcDbEntity
  8
DIM
 62
     0
440
 16777216
100
AcDbTrace
 10
3.711760522889447
 20
23.03301985217492
 30
0.0
 11
3.774260522889447
 21
23.03301985217492
 31
0.0
 12
3.743010522889446
 22
22.84551985217492
 32
0.0
 13
3.743010522889446
 23
22.84551985217492
 33
0.0
  0
SOLID
  5
17C7
330
16F1
100
AcDbEntity
  8
DIM
 62
     0
440
 16777216
100
AcDbTrace
 10
3.711760522889448
 20
30.90801985217492
 30
0.0
 11
3.774260522889448
 21
30.90801985217492
 31
0.0
 12
3.743010522889449
 22
31.09551985217492
 32
0.0
 13
3.743010522889449
 23
31.09551985217492
 33
0.0
  0
MTEXT
  5
17C8
330
16F1
100
AcDbEntity
  8
DIM
 62
     0
440
 16777216
100
AcDbMText
 10
3.743010522889443
 20
26.97051985217492
 30
0.0
 40
0.18
 41
0.0
 46
0.0
 71
     5
 72
     1
  1
\A1;8 1/4
 73
     1
 44
1.0
  0
POINT
  5
17C9
330
16F1
100
AcDbEntity
  8
DEFPOINTS
 62
     0
440
 16777216
100
AcDbPoint
 10
7.290713626367923
 20
22.84551985217492
 30
0.0
  0
POINT
  5
17CA
330
16F1
100
AcDbEntity
  8
DEFPOINTS
 62
     0
440
 16777216
100
AcDbPoint
 10
7.290713626367923
 20
31.09551985217492
 30
0.0
  0
POINT
  5
17CB
330
16F1
100
AcDbEntity
  8
DEFPOINTS
 62
     0
440
 16777216
100
AcDbPoint
 10
3.743010522889449
 20
31.09551985217492
 30
0.0
  0
ENDBLK
  5
16FD
330
16F1
100
AcDbEntity
  8
0
100
AcDbBlockEnd
  0
ENDSEC
  0
SECTION
  2
ENTITIES
  0
TEXT
  5
8C6
330
18
100
AcDbEntity
  8
TITLE
100
AcDbText
 10
44.74101858325111
 20
2.421898353972657
 30
0.0
 40
0.187
  1
F.R. POLYESTER FIBERGLASS
100
AcDbText
  0
TEXT
  5
8C7
330
18
100
AcDbEntity
  8
TITLE
100
AcDbText
 10
44.71726211672854
 20
3.622225083533685
 30
0.0
 40
0.187
  1
NEMA 4X
100
AcDbText
  0
TEXT
  5
8CA
330
18
100
AcDbEntity
  8
TITLE
100
AcDbText
 10
53.17456419876062
 20
2.385744489080259
 30
0.0
 40
0.187
  1
7/23/93
 41
0.800351545947276
 72
     5
 11
54.17233579270821
 21
2.385744489080259
 31
0.0
100
AcDbText
  0
TEXT
  5
8CB
330
18
100
AcDbEntity
  8
TITLE
100
AcDbText
 10
52.3744284369846
 20
2.403143248823269
 30
0.0
 40
0.187
  1
GF
100
AcDbText
  0
TEXT
  5
8CC
330
18
100
AcDbEntity
  8
TITLE
100
AcDbText
 10
56.3104177797388
 20
0.1900408411951275
 30
0.0
 40
0.187
  1
ENCLOSURE
100
AcDbText
  0
TEXT
  5
8CD
330
18
100
AcDbEntity
  8
TITLE
100
AcDbText
 10
60.80038995250301
 20
3.296493546852524
 30
0.0
 40
0.187
  1
.010
100
AcDbText
  0
TEXT
  5
8CE
330
18
100
AcDbEntity
  8
TITLE
100
AcDbText
 10
61.97763528936859
 20
0.9252612291032704
 30
0.0
 40
0.187
  1
HW-N4X844
 72
     1
 11
62.81913528936859
 21
0.9252612291032704
 31
0.0
100
AcDbText
  0
TEXT
  5
8CF
330
18
100
AcDbEntity
  8
TITLE
100
AcDbText
 10
62.34456027646956
 20
3.277738441703135
 30
0.0
 40
0.187
  1
1/32
100
AcDbText
  0
TEXT
  5
A47
330
18
100
AcDbEntity
  8
TITLE
100
AcDbText
 10
44.71726211672854
 20
3.158861322627167
 30
0.0
 40
0.187
  1
COLOR: GRAY 
100
AcDbText
  0
TEXT
  5
DED
330
18
100
AcDbEntity
  8
TITLE
100
AcDbText
 10
51.96638083203399
 20
1.316742979900486
 30
0.0
 40
0.154
  1
APD. BY
  7
ITALIC
 72
     1
 11
52.42838083203399
 21
1.316742979900486
 31
0.0
100
AcDbText
  0
TEXT
  5
DEE
330
18
100
AcDbEntity
  8
TITLE
 62
     1
100
AcDbText
 10
53.47434386396953
 20
1.322440723290178
 30
0.0
 40
0.154
  1
DATE
  7
ITALIC
 72
     1
 11
53.75667719730286
 21
1.322440723290178
 31
0.0
100
AcDbText
  0
TEXT
  5
DF4
330
18
100
AcDbEntity
  8
TITLE
100
AcDbText
 10
51.96638083203399
 20
2.072056300604384
 30
0.0
 40
0.154
  1
CHK. BY
  7
ITALIC
 72
     1
 11
52.42838083203399
 21
2.072056300604384
 31
0.0
100
AcDbText
  0
TEXT
  5
DF6
330
18
100
AcDbEntity
  8
TITLE
 62
     1
100
AcDbText
 10
53.46190663208497
 20
2.072056300604384
 30
0.0
 40
0.154
  1
DATE
  7
ITALIC
 72
     1
 11
53.7442399654183
 21
2.072056300604384
 31
0.0
100
AcDbText
  0
TEXT
  5
DFC
330
18
100
AcDbEntity
  8
TITLE
 62
     1
100
AcDbText
 10
60.47755802933359
 20
3.356364944423901
 30
0.0
 40
0.15525
  1
+
  7
ITALIC
100
AcDbText
  0
TEXT
  5
DFD
330
18
100
AcDbEntity
  8
TITLE
 62
     1
100
AcDbText
 10
60.47755802933359
 20
3.198840704743548
 30
0.0
 40
0.15525
  1
-
  7
ITALIC
100
AcDbText
  0
TEXT
  5
DFF
330
18
100
AcDbEntity
  8
TITLE
 62
     1
100
AcDbText
 10
62.01705691683141
 20
3.349780357914581
 30
0.0
 40
0.15525
  1
+
  7
ITALIC
100
AcDbText
  0
TEXT
  5
E00
330
18
100
AcDbEntity
  8
TITLE
 62
     1
100
AcDbText
 10
62.01705691683141
 20
3.19799197822055
 30
0.0
 40
0.15525
  1
-
  7
ITALIC
100
AcDbText
  0
TEXT
  5
F4C
330
18
100
AcDbEntity
  8
TITLE
100
AcDbText
 10
52.20267205253438
 20
0.2172647121122048
 30
0.0
 40
0.15125
  1
DO NOT SCALE
 72
     1
 11
53.08496371920104
 21
0.2172647121122048
 31
0.0
100
AcDbText
  0
POLYLINE
  5
103E
330
18
100
AcDbEntity
  8
TITLE
100
AcDb2dPolyline
 66
     1
 10
0.0
 20
0.0
 30
0.0
 70
     1
  0
VERTEX
  5
103F
330
103E
100
AcDbEntity
  8
TITLE
100
AcDbVertex
100
AcDb2dVertex
 10
63.96000000000377
 20
41.71000000000276
 30
0.0
  0
VERTEX
  5
1040
330
103E
100
AcDbEntity
  8
TITLE
100
AcDbVertex
100
AcDb2dVertex
 10
0.0399999999999943
 20
41.71000000000276
 30
0.0
  0
VERTEX
  5
1041
330
103E
100
AcDbEntity
  8
TITLE
100
AcDbVertex
100
AcDb2dVertex
 10
0.0399999999999996
 20
0.0400000000000014
 30
0.0
  0
VERTEX
  5
1042
330
103E
100
AcDbEntity
  8
TITLE
100
AcDbVertex
100
AcDb2dVertex
 10
63.96000000000374
 20
0.0400000000000014
 30
0.0
  0
SEQEND
  5
1043
330
103E
100
AcDbEntity
  8
TITLE
  0
POLYLINE
  5
1044
330
18
100
AcDbEntity
  8
TITLE
100
AcDb2dPolyline
 66
     1
 10
0.0
 20
0.0
 30
0.0
 70
     1
  0
VERTEX
  5
1045
330
1044
100
AcDbEntity
  8
TITLE
100
AcDbVertex
100
AcDb2dVertex
 10
64.00000000000376
 20
41.75000000000276
 30
0.0
  0
VERTEX
  5
1046
330
1044
100
AcDbEntity
  8
TITLE
100
AcDbVertex
100
AcDb2dVertex
 10
-0.0000000000000071
 20
41.75000000000276
 30
0.0
  0
VERTEX
  5
1047
330
1044
100
AcDbEntity
  8
TITLE
100
AcDbVertex
100
AcDb2dVertex
 10
0.0
 20
0.0000000000000018
 30
0.0
  0
VERTEX
  5
1048
330
1044
100
AcDbEntity
  8
TITLE
100
AcDbVertex
100
AcDb2dVertex
 10
64.00000000000374
 20
0.0000000000000018
 30
0.0
  0
SEQEND
  5
1049
330
1044
100
AcDbEntity
  8
TITLE
  0
POLYLINE
  5
104A
330
18
100
AcDbEntity
  8
TITLE
100
AcDb2dPolyline
 66
     1
 10
0.0
 20
0.0
 30
0.0
 70
     1
  0
VERTEX
  5
104B
330
104A
100
AcDbEntity
  8
TITLE
100
AcDbVertex
100
AcDb2dVertex
 10
63.98000000000377
 20
41.73000000000278
 30
0.0
  0
VERTEX
  5
104C
330
104A
100
AcDbEntity
  8
TITLE
100
AcDbVertex
100
AcDb2dVertex
 10
0.0199999999999943
 20
41.73000000000278
 30
0.0
  0
VERTEX
  5
104D
330
104A
100
AcDbEntity
  8
TITLE
100
AcDbVertex
100
AcDb2dVertex
 10
0.0199999999999996
 20
0.0200000000000014
 30
0.0
  0
VERTEX
  5
104E
330
104A
100
AcDbEntity
  8
TITLE
100
AcDbVertex
100
AcDb2dVertex
 10
63.98000000000374
 20
0.0200000000000014
 30
0.0
  0
SEQEND
  5
104F
330
104A
100
AcDbEntity
  8
TITLE
  0
TEXT
  5
1082
330
18
100
AcDbEntity
  8
TITLE
 62
     1
100
AcDbText
 10
62.01705691683141
 20
3.19799197822055
 30
0.0
 40
0.15525
  1
-
  7
ITALIC
100
AcDbText
  0
TEXT
  5
1083
330
18
100
AcDbEntity
  8
TITLE
 62
     1
100
AcDbText
 10
62.01705691683141
 20
3.349780357914581
 30
0.0
 40
0.15525
  1
+
  7
ITALIC
100
AcDbText
  0
TEXT
  5
1084
330
18
100
AcDbEntity
  8
TITLE
 62
     1
100
AcDbText
 10
62.01705691683141
 20
3.64320306308844
 30
0.0
 40
0.15525
  1
FRACTIONAL
  7
ITALIC
100
AcDbText
  0
TEXT
  5
1085
330
18
100
AcDbEntity
  8
TITLE
 62
     1
100
AcDbText
 10
60.47755802933359
 20
3.198840704743548
 30
0.0
 40
0.15525
  1
-
  7
ITALIC
100
AcDbText
  0
TEXT
  5
1086
330
18
100
AcDbEntity
  8
TITLE
 62
     1
100
AcDbText
 10
60.47755802933359
 20
3.356364944423901
 30
0.0
 40
0.15525
  1
+
  7
ITALIC
100
AcDbText
  0
TEXT
  5
1087
330
18
100
AcDbEntity
  8
TITLE
 62
     1
100
AcDbText
 10
60.47755802933359
 20
3.649787649597743
 30
0.0
 40
0.15525
  1
DECIMAL
  7
ITALIC
100
AcDbText
  0
TEXT
  5
1088
330
18
100
AcDbEntity
  8
TITLE
 62
     1
100
AcDbText
 10
57.92743410179541
 20
3.643086326406458
 30
0.0
 40
0.15525
  1
TOLERANCES
  7
ITALIC
 72
     1
 11
58.67780910179541
 21
3.643086326406458
 31
0.0
100
AcDbText
  0
LINE
  5
1089
330
18
100
AcDbEntity
  8
TITLE
 62
     1
100
AcDbLine
 10
57.33500000000375
 20
4.04
 30
0.0
 11
57.33500000000375
 21
3.040000000000001
 31
0.0
  0
TEXT
  5
108A
330
18
100
AcDbEntity
  8
TITLE
 62
     1
100
AcDbText
 10
57.51343410179541
 20
3.27666845244556
 30
0.0
 40
0.15525
  1
UNLESS SPECIFIED
  7
ITALIC
 72
     1
 11
58.67780910179541
 21
3.27666845244556
 31
0.0
100
AcDbText
  0
TEXT
  5
108B
330
18
100
AcDbEntity
  8
TITLE
 62
     1
100
AcDbText
 10
53.44713965836721
 20
2.822727796946285
 30
0.0
 40
0.14
  1
DATE
  7
ITALIC
 72
     1
 11
53.70380632503388
 21
2.822727796946285
 31
0.0
100
AcDbText
  0
TEXT
  5
108C
330
18
100
AcDbEntity
  8
TITLE
 62
     1
100
AcDbText
 10
53.46190663208497
 20
2.072056300604384
 30
0.0
 40
0.154
  1
DATE
  7
ITALIC
 72
     1
 11
53.7442399654183
 21
2.072056300604384
 31
0.0
100
AcDbText
  0
TEXT
  5
108D
330
18
100
AcDbEntity
  8
TITLE
100
AcDbText
 10
52.13269628546089
 20
2.82618097475822
 30
0.0
 40
0.14
  1
DR. BY
  7
ITALIC
 72
     1
 11
52.48269628546089
 21
2.82618097475822
 31
0.0
100
AcDbText
  0
TEXT
  5
108E
330
18
100
AcDbEntity
  8
TITLE
100
AcDbText
 10
51.96638083203399
 20
2.072056300604384
 30
0.0
 40
0.154
  1
CHK. BY
  7
ITALIC
 72
     1
 11
52.42838083203399
 21
2.072056300604384
 31
0.0
100
AcDbText
  0
LINE
  5
108F
330
18
100
AcDbEntity
  8
TITLE
 62
     1
100
AcDbLine
 10
61.74479396240641
 20
0.7900000000000014
 30
0.0
 11
61.74479396240641
 21
1.540000000000001
 31
0.0
  0
TEXT
  5
1090
330
18
100
AcDbEntity
  8
TITLE
 62
     1
100
AcDbText
 10
59.46791140966684
 20
0.5206953542067927
 30
0.0
 40
0.1694
  1
PART NO.
  7
ITALIC
100
AcDbText
  0
LINE
  5
1091
330
18
100
AcDbEntity
  8
TITLE
 62
     1
100
AcDbLine
 10
59.21000000000375
 20
0.7900000000000014
 30
0.0
 11
59.21000000000375
 21
0.0399999999999978
 31
0.0
  0
TEXT
  5
1092
330
18
100
AcDbEntity
  8
TITLE
 62
     1
100
AcDbText
 10
54.56633048452305
 20
0.5102494913256912
 30
0.0
 40
0.1694
  1
PART NAME
  7
ITALIC
100
AcDbText
  0
TEXT
  5
1093
330
18
100
AcDbEntity
  8
TITLE
 62
     1
100
AcDbText
 10
54.54266216399277
 20
1.252558201771084
 30
0.0
 40
0.1694
  1
CUSTOMER
  7
ITALIC
 72
     2
 11
55.8413954973261
 21
1.252558201771084
 31
0.0
100
AcDbText
  0
TEXT
  5
1094
330
18
100
AcDbEntity
  8
TITLE
 62
     1
100
AcDbText
 10
53.47434386396953
 20
1.322440723290178
 30
0.0
 40
0.154
  1
DATE
  7
ITALIC
 72
     1
 11
53.75667719730286
 21
1.322440723290178
 31
0.0
100
AcDbText
  0
TEXT
  5
1095
330
18
100
AcDbEntity
  8
TITLE
100
AcDbText
 10
51.96638083203399
 20
1.316742979900486
 30
0.0
 40
0.154
  1
APD. BY
  7
ITALIC
 72
     1
 11
52.42838083203399
 21
1.316742979900486
 31
0.0
100
AcDbText
  0
TEXT
  5
1096
330
18
100
AcDbEntity
  8
TITLE
100
AcDbText
 10
52.73472273397718
 20
0.5212952711989276
 30
0.0
 40
0.154
  1
SCALE
  7
ITALIC
 72
     1
 11
53.09405606731051
 21
0.5212952711989276
 31
0.0
100
AcDbText
  0
LINE
  5
1097
330
18
100
AcDbEntity
  8
TITLE
 62
     1
100
AcDbLine
 10
53.08500000000375
 20
3.040000000000004
 30
0.0
 11
53.08500000000375
 21
0.7900000000000032
 31
0.0
  0
LINE
  5
1098
330
18
100
AcDbEntity
  8
TITLE
 62
     1
100
AcDbLine
 10
54.33500000000375
 20
3.039999999999997
 30
0.0
 11
54.33500000000375
 21
0.0399999999999996
 31
0.0
  0
LINE
  5
1099
330
18
100
AcDbEntity
  8
TITLE
 62
     1
100
AcDbLine
 10
63.96000000000374
 20
1.540000000000001
 30
0.0
 11
54.33500000000375
 21
1.540000000000001
 31
0.0
  0
TEXT
  5
109A
330
18
100
AcDbEntity
  8
TITLE
 62
     1
100
AcDbText
 10
61.83818339703766
 20
1.326747107986976
 30
0.0
 40
0.125
  1
AutoCAD DWG. FILE
100
AcDbText
  0
TEXT
  5
109B
330
18
100
AcDbEntity
  8
TITLE
100
AcDbText
 10
51.14538256127479
 20
2.036268066777214
 30
0.0
 40
0.154
  1
CHD.
  7
ITALIC
 72
     1
 11
51.3763825612748
 21
2.036268066777214
 31
0.0
100
AcDbText
  0
TEXT
  5
109C
330
18
100
AcDbEntity
  8
TITLE
100
AcDbText
 10
50.38257751100488
 20
2.055260544742853
 30
0.0
 40
0.154
  1
BY
  7
ITALIC
 72
     1
 11
50.51091084433821
 21
2.055260544742853
 31
0.0
100
AcDbText
  0
TEXT
  5
109D
330
18
100
AcDbEntity
  8
TITLE
100
AcDbText
 10
49.21118533914498
 20
2.045764305760033
 30
0.0
 40
0.154
  1
DATE
  7
ITALIC
 72
     1
 11
49.4935186724783
 21
2.045764305760033
 31
0.0
100
AcDbText
  0
TEXT
  5
109E
330
18
100
AcDbEntity
  8
TITLE
100
AcDbText
 10
43.43743673306819
 20
4.138388543293784
 30
0.0
 40
0.14
  1
NOTES:
  7
ITALIC
100
AcDbText
  0
TEXT
  5
109F
330
18
100
AcDbEntity
  8
TITLE
100
AcDbText
 10
43.26186688171646
 20
2.055260544742853
 30
0.0
 40
0.154
  1
LET.
  7
ITALIC
 72
     1
 11
43.49286688171646
 21
2.055260544742853
 31
0.0
100
AcDbText
  0
TEXT
  5
10A0
330
18
100
AcDbEntity
  8
TITLE
100
AcDbText
 10
43.41367829470571
 20
2.762795715722289
 30
0.0
 40
0.154
  1
MATERIAL
  7
ITALIC
100
AcDbText
  0
LINE
  5
10A1
330
18
100
AcDbEntity
  8
TITLE
100
AcDbLine
 10
51.83500000000375
 20
1.915000000000001
 30
0.0
 11
42.96000000000375
 21
1.915000000000004
 31
0.0
  0
TEXT
  5
10A2
330
18
100
AcDbEntity
  8
TITLE
100
AcDbText
 10
45.20274150067381
 20
2.036268066777214
 30
0.0
 40
0.154
  1
REVISION RECORD
  7
ITALIC
 72
     1
 11
46.30640816734048
 21
2.036268066777214
 31
0.0
100
AcDbText
  0
LINE
  5
10A3
330
18
100
AcDbEntity
  8
TITLE
100
AcDbLine
 10
51.83500000000375
 20
0.4149999999999996
 30
0.0
 11
42.96000000000375
 21
0.415000000000005
 31
0.0
  0
LINE
  5
10A4
330
18
100
AcDbEntity
  8
TITLE
100
AcDbLine
 10
51.83500000000375
 20
1.165000000000001
 30
0.0
 11
42.96000000000375
 21
1.165000000000004
 31
0.0
  0
LINE
  5
10A5
330
18
100
AcDbEntity
  8
TITLE
100
AcDbLine
 10
42.96000000000375
 20
4.040000000000004
 30
0.0
 11
42.96000000000375
 21
0.0400000000000014
 31
0.0
  0
LINE
  5
10A6
330
18
100
AcDbEntity
  8
TITLE
100
AcDbLine
 10
43.96000000000374
 20
2.290000000000001
 30
0.0
 11
43.96000000000374
 21
0.0400000000000014
 31
0.0
  0
LINE
  5
10A7
330
18
100
AcDbEntity
  8
TITLE
100
AcDbLine
 10
48.96000000000374
 20
2.290000000000004
 30
0.0
 11
48.96000000000374
 21
0.0400000000000049
 31
0.0
  0
LINE
  5
10A8
330
18
100
AcDbEntity
  8
TITLE
100
AcDbLine
 10
50.08500000000374
 20
2.290000000000004
 30
0.0
 11
50.08500000000374
 21
0.0400000000000067
 31
0.0
  0
LINE
  5
10A9
330
18
100
AcDbEntity
  8
TITLE
100
AcDbLine
 10
50.96000000000374
 20
2.290000000000004
 30
0.0
 11
50.96000000000374
 21
0.0400000000000085
 31
0.0
  0
LINE
  5
10AA
330
18
100
AcDbEntity
  8
TITLE
100
AcDbLine
 10
51.83500000000375
 20
3.040000000000001
 30
0.0
 11
51.83500000000375
 21
0.0399999999999996
 31
0.0
  0
LINE
  5
10AB
330
18
100
AcDbEntity
  8
TITLE
100
AcDbLine
 10
63.96000000000374
 20
4.04
 30
0.0
 11
42.96000000000375
 21
4.040000000000004
 31
0.0
  0
LINE
  5
10AC
330
18
100
AcDbEntity
  8
TITLE
100
AcDbLine
 10
57.33500000000375
 20
3.540000000000002
 30
0.0
 11
42.96000000000375
 21
3.540000000000004
 31
0.0
  0
LINE
  5
10AD
330
18
100
AcDbEntity
  8
TITLE
100
AcDbLine
 10
63.96000000000374
 20
3.040000000000001
 30
0.0
 11
42.96000000000375
 21
3.040000000000004
 31
0.0
  0
LINE
  5
10AE
330
18
100
AcDbEntity
  8
TITLE
100
AcDbLine
 10
54.33500000000375
 20
2.290000000000001
 30
0.0
 11
42.96000000000375
 21
2.290000000000004
 31
0.0
  0
LINE
  5
10AF
330
18
100
AcDbEntity
  8
TITLE
100
AcDbLine
 10
54.33500000000375
 20
1.540000000000001
 30
0.0
 11
42.96000000000375
 21
1.540000000000004
 31
0.0
  0
LINE
  5
10B0
330
18
100
AcDbEntity
  8
TITLE
100
AcDbLine
 10
63.96000000000374
 20
0.7900000000000014
 30
0.0
 11
42.96000000000375
 21
0.790000000000005
 31
0.0
  0
TEXT
  5
10C0
330
18
100
AcDbEntity
  8
TITLE
100
AcDbText
 10
56.06935516508698
 20
2.074724672111827
 30
0.0
 40
0.4401508407560161
  1
HUBBELL WIEGMANN
  7
STYLE1
100
AcDbText
  0
TEXT
  5
10C1
330
18
100
AcDbEntity
  8
TITLE
100
AcDbText
 10
61.02766488677365
 20
0.1705245254469929
 30
0.0
 40
0.187
  1
HW-N4X844
 72
     1
 11
61.86916488677365
 21
0.1705245254469929
 31
0.0
100
AcDbText
  0
LINE
  5
14FA
330
18
100
AcDbEntity
  8
0
100
AcDbLine
 10
19.71448408104764
 20
31.09551985217492
 30
0.0
 11
19.71448408104764
 21
22.84551985217492
 31
0.0
  0
LINE
  5
14FB
330
18
100
AcDbEntity
  8
0
100
AcDbLine
 10
20.02698408104764
 20
22.53301985217492
 30
0.0
 11
23.21448408104763
 21
22.53301985217492
 31
0.0
  0
LINE
  5
14FC
330
18
100
AcDbEntity
  8
0
100
AcDbLine
 10
23.52698408104763
 20
22.84551985217492
 30
0.0
 11
23.52698408104764
 21
31.09551985217492
 31
0.0
  0
LINE
  5
14FD
330
18
100
AcDbEntity
  8
0
100
AcDbLine
 10
23.21448408104764
 20
31.40801985217492
 30
0.0
 11
20.02698408104764
 21
31.40801985217492
 31
0.0
  0
LINE
  5
14FE
330
18
100
AcDbEntity
  8
0
100
AcDbLine
 10
19.79011746612571
 20
16.25829817944515
 30
0.0
 11
23.45135069596955
 21
16.25829817944515
 31
0.0
  0
LINE
  5
14FF
330
18
100
AcDbEntity
  8
0
100
AcDbLine
 10
19.71448408104764
 20
15.82079817944515
 30
0.0
 11
19.72765553943702
 21
16.19797939798906
 31
0.0
  0
LINE
  5
1500
330
18
100
AcDbEntity
  8
0
100
AcDbLine
 10
23.52698408104764
 20
15.82079817944515
 30
0.0
 11
23.51381262265825
 21
16.19797939798906
 31
0.0
  0
ARC
  5
1501
330
18
100
AcDbEntity
  8
0
100
AcDbCircle
 10
19.79011746612571
 20
16.19579817944515
 30
0.0
 40
0.0625
100
AcDbArc
 50
90.00000000000003
 51
178.0
  0
ARC
  5
1502
330
18
100
AcDbEntity
  8
0
100
AcDbCircle
 10
23.45135069596955
 20
16.19579817944515
 30
0.0
 40
0.0625
100
AcDbArc
 50
2.000000000000015
 51
90.0
  0
LINE
  5
1503
330
18
100
AcDbEntity
  8
0
100
AcDbLine
 10
19.71448408104764
 20
15.63329817944515
 30
0.0
 11
23.52698408104764
 21
15.63329817944515
 31
0.0
  0
LINE
  5
1504
330
18
100
AcDbEntity
  8
0
100
AcDbLine
 10
19.85044800184707
 20
15.50829817944515
 30
0.0
 11
23.39102016024821
 21
15.50829817944515
 31
0.0
  0
LINE
  5
1505
330
18
100
AcDbEntity
  8
0
100
AcDbLine
 10
19.71448408104764
 20
15.80579817944515
 30
0.0
 11
19.71448408104764
 21
15.63329817944515
 31
0.0
  0
LINE
  5
1506
330
18
100
AcDbEntity
  8
0
100
AcDbLine
 10
23.52698408104764
 20
15.80579817944515
 30
0.0
 11
23.52698408104764
 21
15.63329817944515
 31
0.0
  0
LINE
  5
1507
330
18
100
AcDbEntity
  8
0
100
AcDbLine
 10
20.08623981788183
 20
12.55579817944515
 30
0.0
 11
23.15522834421344
 21
12.55579817944515
 31
0.0
  0
ARC
  5
1508
330
18
100
AcDbEntity
  8
0
100
AcDbCircle
 10
20.08623981788183
 20
12.74329817944515
 30
0.0
 40
0.1875
100
AcDbArc
 50
181.0
 51
270.0
  0
ARC
  5
1509
330
18
100
AcDbEntity
  8
0
100
AcDbCircle
 10
23.15522834421344
 20
12.74329817944515
 30
0.0
 40
0.1875
100
AcDbArc
 50
270.0
 51
359.0
  0
LINE
  5
150A
330
18
100
AcDbEntity
  8
0
100
AcDbLine
 10
19.85044800184707
 20
15.50829817944515
 30
0.0
 11
19.89876837504001
 21
12.74002585323816
 31
0.0
  0
LINE
  5
150B
330
18
100
AcDbEntity
  8
0
100
AcDbLine
 10
19.71448408104764
 20
15.63329817944515
 30
0.0
 11
19.85044800184707
 21
15.50829817944515
 31
0.0
  0
LINE
  5
150C
330
18
100
AcDbEntity
  8
0
100
AcDbLine
 10
23.3910201602482
 20
15.50829817944515
 30
0.0
 11
23.34269978705527
 21
12.74002585323816
 31
0.0
  0
LINE
  5
150D
330
18
100
AcDbEntity
  8
0
100
AcDbLine
 10
23.52698408104764
 20
15.63329817944515
 30
0.0
 11
23.3910201602482
 21
15.50829817944515
 31
0.0
  0
LINE
  5
150E
330
18
100
AcDbEntity
  8
0
100
AcDbLine
 10
19.71448408104764
 20
15.80579817944515
 30
0.0
 11
23.52698408104764
 21
15.80579817944515
 31
0.0
  0
LINE
  5
150F
330
18
100
AcDbEntity
  8
0
100
AcDbLine
 10
19.71448408104764
 20
15.82079817944515
 30
0.0
 11
23.52698408104764
 21
15.82079817944515
 31
0.0
  0
ARC
  5
1510
330
18
100
AcDbEntity
  8
0
100
AcDbCircle
 10
20.02698408104764
 20
31.09551985217492
 30
0.0
 40
0.3125
100
AcDbArc
 50
90.0
 51
180.0
  0
ARC
  5
1511
330
18
100
AcDbEntity
  8
0
100
AcDbCircle
 10
23.21448408104764
 20
31.09551985217492
 30
0.0
 40
0.3125
100
AcDbArc
 50
0.0
 51
90.0
  0
ARC
  5
1512
330
18
100
AcDbEntity
  8
0
100
AcDbCircle
 10
23.21448408104763
 20
22.84551985217492
 30
0.0
 40
0.3125
100
AcDbArc
 50
270.0
 51
0.0
  0
ARC
  5
1513
330
18
100
AcDbEntity
  8
0
100
AcDbCircle
 10
20.02698408104763
 20
22.84551985217492
 30
0.0
 40
0.3125
100
AcDbArc
 50
180.0
 51
270.0
  0
CIRCLE
  5
1514
330
18
100
AcDbEntity
  8
0
100
AcDbCircle
 10
20.02723408104764
 20
31.09551985217492
 30
0.0
 40
0.1875
  0
CIRCLE
  5
1515
330
18
100
AcDbEntity
  8
0
100
AcDbCircle
 10
20.02723408104764
 20
31.09551985217492
 30
0.0
 40
0.171875
  0
LINE
  5
1516
330
18
100
AcDbEntity
  8
0
100
AcDbLine
 10
20.16915564298626
 20
30.99602469710749
 30
0.0
 11
19.92877896030132
 21
31.23640137979242
 31
0.0
  0
LINE
  5
1517
330
18
100
AcDbEntity
  8
0
100
AcDbLine
 10
20.12568920179392
 20
30.95463832455744
 30
0.0
 11
19.88635255343013
 21
31.19397497292123
 31
0.0
  0
LINE
  5
1518
330
18
100
AcDbEntity
  8
0
100
AcDbLine
 10
20.09418920179392
 20
22.67338832455744
 30
0.0
 11
19.85485255343013
 21
22.91272497292123
 31
0.0
  0
LINE
  5
1519
330
18
100
AcDbEntity
  8
0
100
AcDbLine
 10
20.13765564298625
 20
22.71477469710749
 30
0.0
 11
19.89727896030132
 21
22.95515137979242
 31
0.0
  0
CIRCLE
  5
151A
330
18
100
AcDbEntity
  8
0
100
AcDbCircle
 10
19.99573408104764
 20
22.81426985217492
 30
0.0
 40
0.171875
  0
CIRCLE
  5
151B
330
18
100
AcDbEntity
  8
0
100
AcDbCircle
 10
19.99573408104764
 20
22.81426985217492
 30
0.0
 40
0.1875
  0
LINE
  5
151C
330
18
100
AcDbEntity
  8
0
100
AcDbLine
 10
23.31268920179391
 20
30.95463832455744
 30
0.0
 11
23.07335255343013
 21
31.19397497292123
 31
0.0
  0
LINE
  5
151D
330
18
100
AcDbEntity
  8
0
100
AcDbLine
 10
23.35615564298625
 20
30.99602469710749
 30
0.0
 11
23.11577896030132
 21
31.23640137979242
 31
0.0
  0
CIRCLE
  5
151E
330
18
100
AcDbEntity
  8
0
100
AcDbCircle
 10
23.21423408104763
 20
31.09551985217492
 30
0.0
 40
0.171875
  0
CIRCLE
  5
151F
330
18
100
AcDbEntity
  8
0
100
AcDbCircle
 10
23.21423408104763
 20
31.09551985217492
 30
0.0
 40
0.1875
  0
LINE
  5
1520
330
18
100
AcDbEntity
  8
0
100
AcDbLine
 10
23.31268920179391
 20
22.70463832455744
 30
0.0
 11
23.07335255343013
 21
22.94397497292123
 31
0.0
  0
LINE
  5
1521
330
18
100
AcDbEntity
  8
0
100
AcDbLine
 10
23.35615564298625
 20
22.74602469710749
 30
0.0
 11
23.11577896030132
 21
22.98640137979242
 31
0.0
  0
CIRCLE
  5
1522
330
18
100
AcDbEntity
  8
0
100
AcDbCircle
 10
23.21423408104763
 20
22.84551985217492
 30
0.0
 40
0.171875
  0
CIRCLE
  5
1523
330
18
100
AcDbEntity
  8
0
100
AcDbCircle
 10
23.21423408104763
 20
22.84551985217492
 30
0.0
 40
0.1875
  0
LINE
  5
1524
330
18
100
AcDbEntity
  8
0
100
AcDbLine
 10
20.37073408104764
 20
30.75176985217492
 30
0.0
 11
20.37073408104764
 21
23.18926985217492
 31
0.0
  0
LINE
  5
1525
330
18
100
AcDbEntity
  8
0
100
AcDbLine
 10
22.87073408104764
 20
30.75176985217492
 30
0.0
 11
22.87073408104764
 21
23.18926985217492
 31
0.0
  0
LINE
  5
1526
330
18
100
AcDbEntity
  8
0
100
AcDbLine
 10
20.37073408104764
 20
30.75176985217492
 30
0.0
 11
22.87073408104764
 21
30.75176985217492
 31
0.0
  0
LINE
  5
1527
330
18
100
AcDbEntity
  8
0
100
AcDbLine
 10
20.37073408104764
 20
23.18926985217492
 30
0.0
 11
22.87073408104764
 21
23.18926985217492
 31
0.0
  0
LINE
  5
1528
330
18
100
AcDbEntity
  8
0
100
AcDbLine
 10
20.37073408104764
 20
30.93926985217492
 30
0.0
 11
22.87073408104764
 21
30.93926985217492
 31
0.0
  0
LINE
  5
1529
330
18
100
AcDbEntity
  8
0
100
AcDbLine
 10
20.18323408104764
 20
30.75176985217492
 30
0.0
 11
20.18323408104764
 21
23.18926985217492
 31
0.0
  0
LINE
  5
152A
330
18
100
AcDbEntity
  8
0
100
AcDbLine
 10
20.37073408104764
 20
23.00176985217492
 30
0.0
 11
22.87073408104764
 21
23.00176985217492
 31
0.0
  0
LINE
  5
152B
330
18
100
AcDbEntity
  8
0
100
AcDbLine
 10
23.05823408104764
 20
30.75176985217492
 30
0.0
 11
23.05823408104764
 21
23.18926985217492
 31
0.0
  0
ARC
  5
152C
330
18
100
AcDbEntity
  8
0
100
AcDbCircle
 10
20.37073408104764
 20
30.75176985217492
 30
0.0
 40
0.1875
100
AcDbArc
 50
90.0
 51
180.0
  0
ARC
  5
152D
330
18
100
AcDbEntity
  8
0
100
AcDbCircle
 10
22.87073408104764
 20
30.75176985217492
 30
0.0
 40
0.1875
100
AcDbArc
 50
0.0
 51
90.0
  0
ARC
  5
152E
330
18
100
AcDbEntity
  8
0
100
AcDbCircle
 10
22.87073408104764
 20
23.18926985217492
 30
0.0
 40
0.1875
100
AcDbArc
 50
270.0
 51
0.0
  0
ARC
  5
152F
330
18
100
AcDbEntity
  8
0
100
AcDbCircle
 10
20.37073408104764
 20
23.18926985217492
 30
0.0
 40
0.1875
100
AcDbArc
 50
180.0
 51
270.0
  0
LINE
  5
1530
330
18
100
AcDbEntity
  8
0
100
AcDbLine
 10
20.37073408104764
 20
16.44579817944515
 30
0.0
 11
22.87073408104764
 21
16.44579817944515
 31
0.0
  0
LINE
  5
1531
330
18
100
AcDbEntity
  8
0
100
AcDbLine
 10
20.37073408104764
 20
16.44579817944515
 30
0.0
 11
20.18323408104764
 21
16.25829817944515
 31
0.0
  0
LINE
  5
1532
330
18
100
AcDbEntity
  8
0
100
AcDbLine
 10
22.87073408104764
 20
16.44579817944515
 30
0.0
 11
23.05823408104764
 21
16.25829817944515
 31
0.0
  0
LINE
  5
1533
330
18
100
AcDbEntity
  8
0
100
AcDbLine
 10
56.38657082705763
 20
16.13329817944515
 30
0.0
 11
56.77110858885074
 21
16.13329817944515
 31
0.0
  0
LINE
  5
1534
330
18
100
AcDbEntity
  8
0
100
AcDbLine
 10
53.6151242176509
 20
16.13329817944515
 30
0.0
 11
56.38657082705763
 21
16.13329817944515
 31
0.0
  0
LINE
  5
1535
330
18
100
AcDbEntity
  8
0
100
AcDbLine
 10
53.34467106857906
 20
16.05579817944515
 30
0.0
 11
56.65702397612948
 21
16.05579817944515
 31
0.0
  0
LINE
  5
1536
330
18
100
AcDbEntity
  8
0
100
AcDbLine
 10
53.47587233862246
 20
22.78309339839971
 30
0.0
 11
53.47587233862246
 21
31.15794630595013
 31
0.0
  0
LINE
  5
1537
330
18
100
AcDbEntity
  8
0
100
AcDbLine
 10
53.39837233862247
 20
23.05354654747155
 30
0.0
 11
53.39837233862247
 21
30.88749315687828
 31
0.0
  0
LINE
  5
1538
330
18
100
AcDbEntity
  8
0
100
AcDbLine
 10
31.84195758283153
 20
30.75176985217492
 30
0.0
 11
32.02945758283152
 21
30.93926985217492
 31
0.0
  0
LINE
  5
1539
330
18
100
AcDbEntity
  8
0
100
AcDbLine
 10
31.84195758283153
 20
23.18926985217492
 30
0.0
 11
32.02945758283153
 21
23.00176985217492
 31
0.0
  0
LINE
  5
153A
330
18
100
AcDbEntity
  8
0
100
AcDbLine
 10
31.84195758283153
 20
23.18926985217492
 30
0.0
 11
31.84195758283153
 21
30.75176985217492
 31
0.0
  0
LINE
  5
153B
330
18
100
AcDbEntity
  8
0
100
AcDbLine
 10
32.46695758283152
 20
22.53301985217492
 30
0.0
 11
32.46695758283152
 21
31.40801985217492
 31
0.0
  0
LINE
  5
153C
330
18
100
AcDbEntity
  8
0
100
AcDbLine
 10
32.48195758283152
 20
22.53301985217492
 30
0.0
 11
32.48195758283152
 21
31.40801985217492
 31
0.0
  0
LINE
  5
153D
330
18
100
AcDbEntity
  8
0
100
AcDbLine
 10
32.65445758283152
 20
31.40801985217492
 30
0.0
 11
32.77945758283152
 21
31.27205593137548
 31
0.0
  0
LINE
  5
153E
330
18
100
AcDbEntity
  8
0
100
AcDbLine
 10
32.77945758283152
 20
31.27205593137548
 30
0.0
 11
35.54772990903851
 21
31.22373555818255
 31
0.0
  0
LINE
  5
153F
330
18
100
AcDbEntity
  8
0
100
AcDbLine
 10
32.65445758283152
 20
22.53301985217492
 30
0.0
 11
32.77945758283152
 21
22.66898377297436
 31
0.0
  0
LINE
  5
1540
330
18
100
AcDbEntity
  8
0
100
AcDbLine
 10
32.77945758283152
 20
22.66898377297436
 30
0.0
 11
35.54772990903851
 21
22.71730414616729
 31
0.0
  0
ARC
  5
1541
330
18
100
AcDbEntity
  8
0
100
AcDbCircle
 10
35.54445758283151
 20
31.03626411534072
 30
0.0
 40
0.1875
100
AcDbArc
 50
0.0
 51
89.0
  0
ARC
  5
1542
330
18
100
AcDbEntity
  8
0
100
AcDbCircle
 10
35.54445758283151
 20
22.90477558900911
 30
0.0
 40
0.1875
100
AcDbArc
 50
271.0
 51
0.0
  0
LINE
  5
1543
330
18
100
AcDbEntity
  8
0
100
AcDbLine
 10
35.73195758283151
 20
22.90477558900911
 30
0.0
 11
35.73195758283151
 21
31.03626411534072
 31
0.0
  0
LINE
  5
1544
330
18
100
AcDbEntity
  8
0
100
AcDbLine
 10
32.48195758283152
 20
31.40801985217492
 30
0.0
 11
32.65445758283152
 21
31.40801985217492
 31
0.0
  0
LINE
  5
1545
330
18
100
AcDbEntity
  8
0
100
AcDbLine
 10
32.48195758283152
 20
22.53301985217492
 30
0.0
 11
32.65445758283152
 21
22.53301985217492
 31
0.0
  0
LINE
  5
1546
330
18
100
AcDbEntity
  8
0
100
AcDbLine
 10
32.77945758283152
 20
22.66898377297436
 30
0.0
 11
32.77945758283151
 21
31.27205593137548
 31
0.0
  0
LINE
  5
1547
330
18
100
AcDbEntity
  8
0
100
AcDbLine
 10
32.65445758283152
 20
22.53301985217492
 30
0.0
 11
32.65445758283152
 21
31.40801985217492
 31
0.0
  0
ARC
  5
1548
330
18
100
AcDbEntity
  8
0
100
AcDbCircle
 10
32.09195758283152
 20
31.33238646709683
 30
0.0
 40
0.0625
100
AcDbArc
 50
91.99999999999997
 51
180.0
  0
ARC
  5
1549
330
18
100
AcDbEntity
  8
0
100
AcDbCircle
 10
32.09195758283153
 20
22.60865323725299
 30
0.0
 40
0.0625
100
AcDbArc
 50
180.0
 51
267.9999999999999
  0
LINE
  5
154A
330
18
100
AcDbEntity
  8
0
100
AcDbLine
 10
32.46695758283152
 20
31.40801985217492
 30
0.0
 11
32.08977636428762
 21
31.39484839378553
 31
0.0
  0
LINE
  5
154B
330
18
100
AcDbEntity
  8
0
100
AcDbLine
 10
32.46695758283152
 20
22.53301985217492
 30
0.0
 11
32.08977636428762
 21
22.5461913105643
 31
0.0
  0
LINE
  5
154C
330
18
100
AcDbEntity
  8
0
100
AcDbLine
 10
32.02945758283153
 20
22.60865323725299
 30
0.0
 11
32.02945758283152
 21
31.33238646709684
 31
0.0
  0
LINE
  5
154D
330
18
100
AcDbEntity
  8
0
100
AcDbLine
 10
56.77160971154495
 20
16.05695407755677
 30
0.0
 11
56.64542695414109
 21
16.05695407755677
 31
0.0
  0
LINE
  5
154E
330
18
100
AcDbEntity
  8
0
100
AcDbLine
 10
56.77009145342413
 20
16.13195407755677
 30
0.0
 11
56.64600026840006
 21
16.13195407755677
 31
0.0
  0
ARC
  5
154F
330
18
100
AcDbEntity
  8
0
100
AcDbCircle
 10
56.68421907381635
 20
16.0941597344804
 30
0.0
 40
0.0537502507526586
100
AcDbArc
 50
135.3199400149533
 51
223.8041173829552
  0
LINE
  5
1550
330
18
100
AcDbEntity
  8
0
100
AcDbLine
 10
56.77009145342413
 20
16.13195407755677
 30
0.0
 11
56.77160971154495
 21
16.05695407755677
 31
0.0
  0
LINE
  5
1551
330
18
100
AcDbEntity
  8
0
100
AcDbLine
 10
53.22896418047331
 20
16.05604960013716
 30
0.0
 11
53.2315832381852
 21
16.13104960013715
 31
0.0
  0
ARC
  5
1552
330
18
100
AcDbEntity
  8
0
100
AcDbCircle
 10
53.3148365600811
 20
16.09384394321351
 30
0.0
 40
0.0537502507526586
100
AcDbArc
 50
315.3199400149533
 51
43.80411738295514
  0
LINE
  5
1553
330
18
100
AcDbEntity
  8
0
100
AcDbLine
 10
53.22896418047331
 20
16.05604960013716
 30
0.0
 11
53.35305536549739
 21
16.05604960013716
 31
0.0
  0
LINE
  5
1554
330
18
100
AcDbEntity
  8
0
100
AcDbLine
 10
53.2315832381852
 20
16.13104960013715
 30
0.0
 11
53.35362867975637
 21
16.13104960013715
 31
0.0
  0
LINE
  5
1555
330
18
100
AcDbEntity
  8
0
100
AcDbLine
 10
53.39880231612545
 20
22.6717440193902
 30
0.0
 11
53.39880231612545
 21
22.79378946096136
 31
0.0
  0
LINE
  5
1556
330
18
100
AcDbEntity
  8
0
100
AcDbLine
 10
53.47380231612546
 20
22.66912496167831
 30
0.0
 11
53.47380231612546
 21
22.79321614670239
 31
0.0
  0
ARC
  5
1557
330
18
100
AcDbEntity
  8
0
100
AcDbCircle
 10
53.43600797304909
 20
22.7549973412861
 30
0.0
 40
0.0537502507526586
100
AcDbArc
 50
45.31994001495333
 51
133.8041173829551
  0
LINE
  5
1558
330
18
100
AcDbEntity
  8
0
100
AcDbLine
 10
53.47380231612546
 20
22.66912496167831
 30
0.0
 11
53.39880231612545
 21
22.6717440193902
 31
0.0
  0
LINE
  5
1559
330
18
100
AcDbEntity
  8
0
100
AcDbLine
 10
53.84610000013295
 20
16.05579817944515
 30
0.0
 11
53.90501084426569
 21
12.68079817944515
 31
0.0
  0
LINE
  5
155A
330
18
100
AcDbEntity
  8
0
100
AcDbLine
 10
56.15559504457559
 20
16.05579817944515
 30
0.0
 11
56.09668420044286
 21
12.68079817944515
 31
0.0
  0
LINE
  5
155B
330
18
100
AcDbEntity
  8
0
100
AcDbLine
 10
53.47587233862246
 20
30.22029674071351
 30
0.0
 11
56.85087233862247
 21
30.16000805884228
 31
0.0
  0
LINE
  5
155C
330
18
100
AcDbEntity
  8
0
100
AcDbLine
 10
53.47587233862246
 20
23.72074296363632
 30
0.0
 11
56.85087233862247
 21
23.78103164550755
 31
0.0
  0
LINE
  5
155D
330
18
100
AcDbEntity
  8
HIDE
100
AcDbLine
 10
53.47587233862246
 20
23.59551985217492
 30
0.0
 11
56.47587233862247
 21
23.58051985217492
 31
0.0
  0
LINE
  5
155E
330
18
100
AcDbEntity
  8
HIDE
100
AcDbLine
 10
53.47587233862246
 20
23.22051985217492
 30
0.0
 11
56.47587233862247
 21
23.23551985217492
 31
0.0
  0
LINE
  5
155F
330
18
100
AcDbEntity
  8
HIDE
100
AcDbLine
 10
56.47587233862247
 20
23.58051985217492
 30
0.0
 11
56.47587233862247
 21
23.51701985217492
 31
0.0
  0
LINE
  5
1560
330
18
100
AcDbEntity
  8
HIDE
100
AcDbLine
 10
56.47587233862247
 20
23.51701985217492
 30
0.0
 11
56.97587233862247
 21
23.51701985217492
 31
0.0
  0
LINE
  5
1561
330
18
100
AcDbEntity
  8
HIDE
100
AcDbLine
 10
56.47587233862247
 20
23.29901985217492
 30
0.0
 11
56.97587233862247
 21
23.29901985217492
 31
0.0
  0
LINE
  5
1562
330
18
100
AcDbEntity
  8
HIDE
100
AcDbLine
 10
56.47587233862247
 20
23.29901985217492
 30
0.0
 11
56.47587233862247
 21
23.23551985217492
 31
0.0
  0
LINE
  5
1563
330
18
100
AcDbEntity
  8
HIDE
100
AcDbLine
 10
56.47587233862247
 20
30.42401985217491
 30
0.0
 11
56.47587233862247
 21
30.36051985217492
 31
0.0
  0
LINE
  5
1564
330
18
100
AcDbEntity
  8
HIDE
100
AcDbLine
 10
56.47587233862247
 20
30.42401985217491
 30
0.0
 11
56.97587233862247
 21
30.42401985217491
 31
0.0
  0
LINE
  5
1565
330
18
100
AcDbEntity
  8
HIDE
100
AcDbLine
 10
56.47587233862247
 20
30.64201985217492
 30
0.0
 11
56.97587233862247
 21
30.64201985217492
 31
0.0
  0
LINE
  5
1566
330
18
100
AcDbEntity
  8
HIDE
100
AcDbLine
 10
56.47587233862247
 20
30.70551985217492
 30
0.0
 11
56.47587233862247
 21
30.64201985217492
 31
0.0
  0
LINE
  5
1567
330
18
100
AcDbEntity
  8
HIDE
100
AcDbLine
 10
53.47587233862246
 20
30.72051985217492
 30
0.0
 11
56.47587233862247
 21
30.70551985217492
 31
0.0
  0
LINE
  5
1568
330
18
100
AcDbEntity
  8
HIDE
100
AcDbLine
 10
53.47587233862246
 20
30.34551985217492
 30
0.0
 11
56.47587233862247
 21
30.36051985217492
 31
0.0
  0
LINE
  5
1569
330
18
100
AcDbEntity
  8
HIDE
100
AcDbLine
 10
53.34459752235428
 20
16.05579817944515
 30
0.0
 11
53.35959752235428
 21
13.05579817944514
 31
0.0
  0
LINE
  5
156A
330
18
100
AcDbEntity
  8
HIDE
100
AcDbLine
 10
53.71959752235428
 20
16.05579817944515
 30
0.0
 11
53.70459752235428
 21
13.05579817944514
 31
0.0
  0
LINE
  5
156B
330
18
100
AcDbEntity
  8
HIDE
100
AcDbLine
 10
53.70459752235428
 20
13.05579817944514
 30
0.0
 11
53.64109752235427
 21
13.05579817944514
 31
0.0
  0
LINE
  5
156C
330
18
100
AcDbEntity
  8
HIDE
100
AcDbLine
 10
53.64109752235427
 20
13.05579817944514
 30
0.0
 11
53.64109752235427
 21
12.55579817944515
 31
0.0
  0
LINE
  5
156D
330
18
100
AcDbEntity
  8
HIDE
100
AcDbLine
 10
53.42309752235427
 20
13.05579817944514
 30
0.0
 11
53.42309752235427
 21
12.55579817944515
 31
0.0
  0
LINE
  5
156E
330
18
100
AcDbEntity
  8
HIDE
100
AcDbLine
 10
53.42309752235427
 20
13.05579817944514
 30
0.0
 11
53.35959752235428
 21
13.05579817944514
 31
0.0
  0
LINE
  5
156F
330
18
100
AcDbEntity
  8
HIDE
100
AcDbLine
 10
56.28209752235427
 20
16.05579817944515
 30
0.0
 11
56.29709752235427
 21
13.05579817944515
 31
0.0
  0
LINE
  5
1570
330
18
100
AcDbEntity
  8
HIDE
100
AcDbLine
 10
56.65709752235427
 20
16.05579817944515
 30
0.0
 11
56.64209752235427
 21
13.05579817944515
 31
0.0
  0
LINE
  5
1571
330
18
100
AcDbEntity
  8
HIDE
100
AcDbLine
 10
56.64209752235427
 20
13.05579817944515
 30
0.0
 11
56.57859752235427
 21
13.05579817944515
 31
0.0
  0
LINE
  5
1572
330
18
100
AcDbEntity
  8
HIDE
100
AcDbLine
 10
56.57859752235427
 20
13.05579817944515
 30
0.0
 11
56.57859752235427
 21
12.55579817944515
 31
0.0
  0
LINE
  5
1573
330
18
100
AcDbEntity
  8
HIDE
100
AcDbLine
 10
56.36059752235427
 20
13.05579817944515
 30
0.0
 11
56.36059752235427
 21
12.55579817944515
 31
0.0
  0
LINE
  5
1574
330
18
100
AcDbEntity
  8
HIDE
100
AcDbLine
 10
56.36059752235427
 20
13.05579817944515
 30
0.0
 11
56.29709752235427
 21
13.05579817944515
 31
0.0
  0
INSERT
  5
1575
330
18
100
AcDbEntity
  8
HATCH
100
AcDbBlockReference
  2
*X11
 10
22.61680829020195
 20
5.38797833604995
 30
0.0
  0
INSERT
  5
1576
330
18
100
AcDbEntity
  8
HATCH
100
AcDbBlockReference
  2
*X12
 10
22.61680829020195
 20
5.38797833604995
 30
0.0
  0
INSERT
  5
1577
330
18
100
AcDbEntity
  8
HATCH
100
AcDbBlockReference
  2
*X13
 10
22.61680829020195
 20
5.38797833604995
 30
0.0
  0
SOLID
  5
1578
330
18
100
AcDbEntity
  8
DIM
100
AcDbTrace
 10
53.36686621319516
 20
31.42248151905011
 30
0.0
 11
53.31446948539761
 21
31.39324826886972
 31
0.0
 12
53.42836759983758
 22
31.25067471056727
 32
0.0
 13
53.42836759983758
 23
31.25067471056727
 33
0.0
  0
LINE
  5
1579
330
18
100
AcDbEntity
  8
DIM
100
AcDbLine
 10
53.34066784929638
 20
31.40786489395991
 30
0.0
 11
52.83445319725699
 21
32.31518758871182
 31
0.0
  0
LINE
  5
157A
330
18
100
AcDbEntity
  8
DIM
100
AcDbLine
 10
52.83445319725699
 20
32.31518758871182
 30
0.0
 11
52.65445319725699
 21
32.31518758871182
 31
0.0
  0
TEXT
  5
157B
330
18
100
AcDbEntity
  8
DIM
100
AcDbText
 10
51.40233972746272
 20
32.24472674670372
 30
0.0
 40
0.18
  1
GASKET
100
AcDbText
  0
DIMENSION
  5
157C
330
18
100
AcDbEntity
  8
DIM
100
AcDbDimension
280
     0
  2
*D16
 10
58.16004928651272
 20
23.78103164550755
 30
0.0
 11
58.16004928651271
 21
26.97051985217493
 31
0.0
 70
    32
 71
     5
 42
6.378976413334733
 73
     0
 74
     0
 75
     0
  3
STANDARD
100
AcDbAlignedDimension
 13
56.85087233862247
 23
30.16000805884228
 33
0.0
 14
56.85087233862247
 24
23.78103164550755
 34
0.0
 50
90.0
100
AcDbRotatedDimension
  0
DIMENSION
  5
157D
330
18
100
AcDbEntity
  8
DIM
100
AcDbDimension
280
     0
  2
*D17
 10
60.39009151989386
 20
31.098754596288
 30
0.0
 11
60.39009151989386
 21
26.98268571363943
 31
0.0
 70
   160
 71
     5
 42
8.256469488226173
 73
     0
 74
     0
 75
     0
  3
STANDARD
100
AcDbAlignedDimension
 13
56.7894631140248
 23
22.84228510806183
 33
0.0
 14
56.7894631140248
 24
31.098754596288
 34
0.0
 50
90.0
100
AcDbRotatedDimension
  0
DIMENSION
  5
157E
330
18
100
AcDbEntity
  8
DIM
100
AcDbDimension
280
     0
  2
*D18
 10
53.90501084426569
 20
11.77018926033148
 30
0.0
 11
55.00084752235427
 21
11.77018926033148
 31
0.0
 70
    32
 71
     5
 42
2.191673356177169
 73
     0
 74
     0
 75
     0
  3
STANDARD
100
AcDbAlignedDimension
 13
56.09668420044286
 23
12.68079817944515
 33
0.0
 14
53.90501084426569
 24
12.68079817944515
 34
0.0
100
AcDbRotatedDimension
  0
DIMENSION
  5
157F
330
18
100
AcDbEntity
  8
DIM
100
AcDbDimension
280
     0
  2
*D19
 10
56.46959752235427
 20
11.07673515685445
 30
0.0
 11
55.00084752235427
 21
11.07673515685445
 31
0.0
 70
    32
 71
     5
 42
2.937499999999992
 73
     0
 74
     0
 75
     0
  3
STANDARD
100
AcDbAlignedDimension
 13
53.53209752235428
 23
12.55579817944515
 33
0.0
 14
56.46959752235427
 24
12.55579817944515
 34
0.0
100
AcDbRotatedDimension
  0
DIMENSION
  5
1580
330
18
100
AcDbEntity
  8
DIM
100
AcDbDimension
280
     0
  2
*D20
 10
59.2987942567499
 20
23.40801985217492
 30
0.0
 11
59.2987942567499
 21
26.97051985217492
 31
0.0
 70
   160
 71
     5
 42
7.125
 73
     0
 74
     0
 75
     0
  3
STANDARD
100
AcDbAlignedDimension
 13
56.97587233862247
 23
30.53301985217492
 33
0.0
 14
56.97587233862247
 24
23.40801985217492
 34
0.0
 50
90.0
100
AcDbRotatedDimension
  0
DIMENSION
  5
1581
330
18
100
AcDbEntity
  8
DIM
100
AcDbDimension
280
     0
  2
*D21
 10
56.59783226646736
 20
10.30906929844392
 30
0.0
 11
55.00084752235427
 21
10.30906929844392
 31
0.0
 70
    32
 71
     5
 42
3.193969488226166
 73
     0
 74
     0
 75
     0
  3
STANDARD
100
AcDbAlignedDimension
 13
53.40386277824119
 23
12.74220740404282
 33
0.0
 14
56.59783226646736
 24
12.74220740404282
 34
0.0
100
AcDbRotatedDimension
  0
DIMENSION
  5
1582
330
18
100
AcDbEntity
  8
DIM
100
AcDbDimension
280
     0
  2
*D22
 10
16.49622063786299
 20
31.40801985217492
 30
0.0
 11
16.49622063786298
 21
26.97051985217492
 31
0.0
 70
    32
 71
     5
 42
8.875
 73
     0
 74
     0
 75
     0
  3
STANDARD
100
AcDbAlignedDimension
 13
20.02698408104764
 23
22.53301985217492
 33
0.0
 14
20.02698408104764
 24
31.40801985217492
 34
0.0
 50
90.0
100
AcDbRotatedDimension
  0
DIMENSION
  5
1583
330
18
100
AcDbEntity
  8
DIM
100
AcDbDimension
280
     0
  2
*D23
 10
19.71448408104764
 20
34.08092592534752
 30
0.0
 11
21.62073408104764
 21
34.08092592534752
 31
0.0
 70
   160
 71
     5
 42
3.8125
 73
     0
 74
     0
 75
     0
  3
STANDARD
100
AcDbAlignedDimension
 13
23.52698408104764
 23
31.09551985217492
 33
0.0
 14
19.71448408104764
 24
31.09551985217492
 34
0.0
100
AcDbRotatedDimension
1001
ACAD
1000
DSTYLE
1002
{
1070
    41
1040
0.1875
1070
    42
1040
0.09375
1070
    43
1040
0.375
1070
    44
1040
0.1875
1070
   141
1040
0.09375
1070
   147
1040
0.1875
1070
   271
1070
     5
1070
   276
1070
     2
1070
   277
1070
     5
1070
   288
1070
     1
1002
}
  0
DIMENSION
  5
1584
330
18
100
AcDbEntity
  8
DIM
100
AcDbDimension
280
     0
  2
*D24
 10
18.11435106252471
 20
23.18926985217492
 30
0.0
 11
18.11435106252471
 21
26.97051985217492
 31
0.0
 70
    32
 71
     5
 42
7.5625
 73
     0
 74
     0
 75
     0
  3
STANDARD
100
AcDbAlignedDimension
 13
20.37073408104764
 23
30.75176985217492
 33
0.0
 14
20.37073408104764
 24
23.18926985217492
 34
0.0
 50
90.0
100
AcDbRotatedDimension
  0
DIMENSION
  5
1585
330
18
100
AcDbEntity
  8
DIM
100
AcDbDimension
280
     0
  2
*D25
 10
25.15951750195181
 20
16.25829817944515
 30
0.0
 11
25.15951750195181
 21
14.40704817944516
 31
0.0
 70
    32
 71
     5
 42
3.702499999999998
 73
     0
 74
     0
 75
     0
  3
STANDARD
100
AcDbAlignedDimension
 13
23.15522834421344
 23
12.55579817944515
 33
0.0
 14
23.45135069596955
 24
16.25829817944515
 34
0.0
 50
90.0
100
AcDbRotatedDimension
  0
DIMENSION
  5
1586
330
18
100
AcDbEntity
  8
DIM
100
AcDbDimension
280
     0
  2
*D26
 10
58.16004928651273
 20
16.05579817944515
 30
0.0
 11
58.16004928651272
 21
14.36829817944515
 31
0.0
 70
   160
 71
     5
 42
3.375000000000003
 73
     0
 74
     0
 75
     0
  3
STANDARD
100
AcDbAlignedDimension
 13
56.53534178552008
 23
12.68079817944515
 33
0.0
 14
56.65702397612948
 24
16.05579817944515
 34
0.0
 50
90.0
100
AcDbRotatedDimension
  0
SOLID
  5
1587
330
18
100
AcDbEntity
  8
DIM
100
AcDbTrace
 10
23.53655445766182
 20
22.55049417984007
 30
0.0
 11
23.57792150579065
 21
22.59395413070413
 31
0.0
 12
23.42685812913405
 22
22.6963252996586
 32
0.0
 13
23.42685812913405
 23
22.6963252996586
 33
0.0
  0
LINE
  5
1588
330
18
100
AcDbEntity
  8
DIM
100
AcDbLine
 10
23.55723798172623
 20
22.5722241552721
 30
0.0
 11
24.17456854780989
 21
21.98462240398481
 31
0.0
  0
LINE
  5
1589
330
18
100
AcDbEntity
  8
DIM
100
AcDbLine
 10
24.17456854780989
 20
21.98462240398481
 30
0.0
 11
24.35456854780989
 21
21.98462240398481
 31
0.0
  0
TEXT
  5
158A
330
18
100
AcDbEntity
  8
DIM
100
AcDbText
 10
24.53456854780989
 20
21.89462240398481
 30
0.0
 40
0.18
  1
10-24 S.S. PAN HD. SCREW
100
AcDbText
  0
DIMENSION
  5
158B
330
18
100
AcDbEntity
  8
DIM
100
AcDbDimension
280
     0
  2
*D27
 10
53.97156203966336
 20
16.44579817944515
 30
0.0
 11
54.63156203966335
 21
16.80579817944515
 31
0.0
 70
    32
 71
     5
 42
0.125
 73
     0
 74
     0
 75
     0
  3
STANDARD
100
AcDbAlignedDimension
 13
53.8026242176509
 23
16.32079817944515
 33
0.0
 14
53.75084752235427
 24
16.44579817944515
 34
0.0
 50
90.0
100
AcDbRotatedDimension
  0
INSERT
  5
158C
330
18
100
AcDbEntity
  8
DIM
100
AcDbBlockReference
  2
SAAR
 10
23.61998408104764
 20
28.86630462607716
 30
0.0
 41
2.0
 42
2.0
 43
2.0
  0
INSERT
  5
158D
330
18
100
AcDbEntity
  8
DIM
100
AcDbBlockReference
  2
SBBT
 10
22.14740616544803
 20
31.55454964261875
 30
0.0
 41
2.0
 42
2.0
 43
2.0
  0
INSERT
  5
158E
330
18
100
AcDbEntity
  8
DIM
100
AcDbBlockReference
  2
SAAL
 10
19.62148408104763
 20
28.86630462607717
 30
0.0
 41
2.0
 42
2.0
 43
2.0
  0
INSERT
  5
158F
330
18
100
AcDbEntity
  8
DIM
100
AcDbBlockReference
  2
SBBB
 10
22.14740616544803
 20
22.37189102797367
 30
0.0
 41
2.0
 42
2.0
 43
2.0
  0
DIMENSION
  5
1590
330
18
100
AcDbEntity
  8
DIM
100
AcDbDimension
280
     0
  2
*D28
 10
22.87073408104764
 20
33.07907048648704
 30
0.0
 11
21.62073408104764
 21
33.07907048648704
 31
0.0
 70
    32
 71
     5
 42
2.5
 73
     0
 74
     0
 75
     0
  3
STANDARD
100
AcDbAlignedDimension
 13
20.37073408104764
 23
30.75176985217492
 33
0.0
 14
22.87073408104764
 24
30.75176985217492
 34
0.0
100
AcDbRotatedDimension
1001
ACAD
1000
DSTYLE
1002
{
1070
    41
1040
0.1875
1070
    42
1040
0.09375
1070
    43
1040
0.375
1070
    44
1040
0.1875
1070
   141
1040
0.09375
1070
   147
1040
0.1875
1070
   271
1070
     5
1070
   276
1070
     2
1070
   277
1070
     5
1070
   288
1070
     1
1002
}
  0
INSERT
  5
1591
330
18
100
AcDbEntity
  8
DIM
100
AcDbBlockReference
  2
SBBTX
 10
55.36629995368595
 20
20.65263479553818
 30
0.0
 41
2.0
 42
2.0
 43
2.0
  0
INSERT
  5
1592
330
18
100
AcDbEntity
  8
DIM
100
AcDbBlockReference
  2
SAATX
 10
55.36629995368596
 20
8.766299578117013
 30
0.0
 41
2.0
 42
2.0
 43
2.0
  0
DIMENSION
  5
1593
330
18
100
AcDbEntity
  8
DIM
100
AcDbDimension
280
     0
  2
*D29
 10
52.66345510207353
 20
12.55579817944515
 30
0.0
 11
52.00345510207353
 21
12.19579817944516
 31
0.0
 70
    32
 71
     5
 42
0.125
 73
     0
 74
     0
 75
     0
  3
STANDARD
100
AcDbAlignedDimension
 13
53.46635325918846
 23
12.68079817944515
 33
0.0
 14
53.46635325918846
 24
12.55579817944515
 34
0.0
 50
90.0
100
AcDbRotatedDimension
  0
TEXT
  5
1594
330
18
100
AcDbEntity
  8
DIM
100
AcDbText
 10
51.67126132849487
 20
11.83719887907031
 30
0.0
 40
0.1875
  1
TYP.
100
AcDbText
  0
LWPOLYLINE
  5
1595
330
18
100
AcDbEntity
  8
0
100
AcDbPolyline
 90
       18
 70
     0
 43
0.0
 10
56.77110858885074
 20
16.13329817944515
 10
56.78202132931691
 20
15.82079817944515
 10
56.90709752235427
 20
15.82079817944515
 10
56.89392606396488
 20
16.19797939798906
 42
0.4040262258351567
 10
56.83146413727619
 20
16.25829817944515
 10
56.43834752235427
 20
16.25829817944515
 10
56.25084752235427
 20
16.44579817944515
 10
53.75084752235427
 20
16.44579817944515
 10
53.56334752235426
 20
16.25829817944515
 10
53.17023090743235
 20
16.25829817944515
 42
0.4040262258351567
 10
53.10776898074365
 20
16.19797939798906
 10
53.09459752235427
 20
15.82079817944515
 10
53.21967371539162
 20
15.82079817944515
 10
53.2305864558578
 20
16.13329817944515
 10
53.6151242176509
 20
16.13329817944515
 10
53.8026242176509
 20
16.32079817944515
 10
56.19907082705763
 20
16.32079817944515
 10
56.38657082705763
 20
16.13329817944515
  0
LWPOLYLINE
  5
1596
330
18
100
AcDbEntity
  8
0
100
AcDbPolyline
 90
       20
 70
     1
 43
0.0
 10
53.46635325918846
 20
12.68079817944515
 10
56.53534178552008
 20
12.68079817944515
 42
0.4091108014277098
 10
56.59783226646736
 20
12.74220740404282
 10
56.65702397612948
 20
16.05579817944515
 10
56.75916293565578
 20
16.05579817944515
 10
56.77632648337097
 20
15.80579817944515
 10
56.90709752235427
 20
15.80579817944515
 10
56.90709752235427
 20
15.63329817944515
 10
56.77113360155483
 20
15.50829817944515
 10
56.72281322836191
 20
12.74002585323816
 42
-0.4091108014277098
 10
56.53534178552008
 20
12.55579817944515
 10
53.46635325918846
 20
12.55579817944515
 42
-0.4091108014277098
 10
53.27888181634664
 20
12.74002585323816
 10
53.2305614431537
 20
15.50829817944515
 10
53.09459752235427
 20
15.63329817944515
 10
53.09459752235427
 20
15.80579817944515
 10
53.22536856133756
 20
15.80579817944515
 10
53.24253210905276
 20
16.05579817944515
 10
53.34467106857906
 20
16.05579817944515
 10
53.40386277824119
 20
12.74220740404282
 42
0.4091108014277098
  0
LWPOLYLINE
  5
1597
330
18
100
AcDbEntity
  8
0
100
AcDbPolyline
 90
       18
 70
     1
 43
0.0
 10
53.33369112007856
 20
31.39484839378553
 10
53.71087233862247
 20
31.40801985217492
 10
53.71087233862247
 20
31.28294365913756
 10
53.39837233862247
 20
31.2720309186714
 10
53.39837233862247
 20
30.88749315687828
 10
53.21087233862247
 20
30.69999315687828
 10
53.21087233862247
 20
23.24104654747155
 10
53.39837233862247
 20
23.05354654747155
 10
53.39837233862247
 20
22.66900878567844
 10
53.71087233862247
 20
22.65809604521227
 10
53.71087233862247
 20
22.53301985217492
 10
53.33369112007856
 20
22.5461913105643
 42
-0.4040262258351567
 10
53.27337233862246
 20
22.60865323725299
 10
53.27337233862246
 20
23.00176985217491
 10
53.08587233862247
 20
23.18926985217491
 10
53.08587233862247
 20
30.75176985217492
 10
53.27337233862246
 20
30.93926985217492
 10
53.27337233862246
 20
31.33238646709684
 42
-0.4040262258351567
  0
LWPOLYLINE
  5
1598
330
18
100
AcDbEntity
  8
0
100
AcDbPolyline
 90
       20
 70
     1
 43
0.0
 10
56.7894631140248
 20
31.098754596288
 42
-0.4091108014277097
 10
56.85087233862248
 20
31.03626411534073
 10
56.85087233862248
 20
22.9047755890091
 42
-0.4091108014277098
 10
56.7894631140248
 20
22.84228510806183
 10
53.47587233862246
 20
22.78309339839971
 10
53.47587233862246
 20
22.68095443887341
 10
53.72587233862247
 20
22.66379089115821
 10
53.72587233862247
 20
22.53301985217492
 10
53.89837233862246
 20
22.53301985217492
 10
54.02337233862247
 20
22.66898377297435
 10
56.79164466482945
 20
22.71730414616729
 42
0.4091108014277098
 10
56.97587233862247
 20
22.9047755890091
 10
56.97587233862247
 20
31.03626411534073
 42
0.4091108014277097
 10
56.79164466482946
 20
31.22373555818255
 10
54.02337233862247
 20
31.27205593137548
 10
53.89837233862246
 20
31.40801985217492
 10
53.72587233862247
 20
31.40801985217492
 10
53.72587233862247
 20
31.27724881319163
 10
53.47587233862246
 20
31.26008526547643
 10
53.47587233862246
 20
31.15794630595013
  0
INSERT
  5
1599
330
18
100
AcDbEntity
  8
HATCH
100
AcDbBlockReference
  2
*X14
 10
7.097342216786131
 20
-3.177351739209427
 30
0.0
  0
INSERT
  5
159A
330
18
100
AcDbEntity
  8
HATCH
100
AcDbBlockReference
  2
*X15
 10
7.097342216786131
 20
-3.177351739209427
 30
0.0
  0
LINE
  5
159B
330
18
100
AcDbEntity
  8
HATCH
 62
     4
100
AcDbLine
 10
53.42764199476818
 20
22.6707369156201
 30
0.0
 11
53.42764199476818
 21
22.8083866059649
 31
0.0
  0
LINE
  5
159C
330
18
100
AcDbEntity
  8
HATCH
 62
     4
100
AcDbLine
 10
53.42939233790859
 20
31.13385666625419
 30
0.0
 11
53.42939233790859
 21
31.27130046799367
 31
0.0
  0
LINE
  5
159D
330
18
100
AcDbEntity
  8
HATCH
 62
     4
100
AcDbLine
 10
53.41201699476817
 20
22.6712825526434
 30
0.0
 11
53.41201699476817
 21
22.80395029406663
 31
0.0
  0
LINE
  5
159E
330
18
100
AcDbEntity
  8
HATCH
 62
     4
100
AcDbLine
 10
53.41376733790859
 20
31.13869342049815
 30
0.0
 11
53.41376733790859
 21
31.27075483097036
 31
0.0
  0
LINE
  5
159F
330
18
100
AcDbEntity
  8
HATCH
 62
     4
100
AcDbLine
 10
53.44326699476817
 20
22.67019127859679
 30
0.0
 11
53.44326699476817
 21
22.80805956878745
 31
0.0
  0
LINE
  5
15A0
330
18
100
AcDbEntity
  8
HATCH
 62
     4
100
AcDbLine
 10
53.4450173379086
 20
31.13383188293406
 30
0.0
 11
53.4450173379086
 21
31.27184610501698
 31
0.0
  0
LINE
  5
15A1
330
18
100
AcDbEntity
  8
HATCH
 62
     4
100
AcDbLine
 10
53.45889199476817
 20
22.66964564157348
 30
0.0
 11
53.45889199476817
 21
22.80287154557939
 31
0.0
  0
LINE
  5
15A2
330
18
100
AcDbEntity
  8
HATCH
 62
     4
100
AcDbLine
 10
53.46064233790859
 20
31.13861167986151
 30
0.0
 11
53.46064233790859
 21
31.27239174204028
 31
0.0
  0
LWPOLYLINE
  5
15A3
330
18
100
AcDbEntity
  8
0
100
AcDbPolyline
 90
        4
 70
     1
 43
0.0
 10
53.39999948283122
 20
31.14822860530593
 42
0.4064858097245168
 10
53.47499948283061
 20
31.14880191956493
 10
53.47499948283093
 20
31.27289310458868
 10
53.39999948283093
 20
31.27027404687679
  0
LWPOLYLINE
  5
15A4
330
18
100
AcDbEntity
  8
0
100
AcDbPolyline
 90
        8
 70
     1
 43
0.0
 10
43.05537464249409
 20
31.40801985217493
 42
0.4142135623730956
 10
42.74287464249409
 20
31.09551985217493
 10
42.74287464249409
 20
22.84551985217492
 42
0.4142135623730951
 10
43.05537464249409
 20
22.53301985217492
 10
46.24287464249409
 20
22.53301985217492
 42
0.4142135623730948
 10
46.55537464249409
 20
22.84551985217492
 10
46.55537464249409
 20
31.09551985217492
 42
0.4142135623730944
 10
46.24287464249409
 20
31.40801985217492
  0
LWPOLYLINE
  5
15A5
330
18
100
AcDbEntity
  8
0
100
AcDbPolyline
 90
        8
 70
     1
 43
0.0
 10
43.05537464249409
 20
31.27201985217492
 42
0.414213562373086
 10
42.8788746424941
 20
31.09551985217493
 10
42.8788746424941
 20
22.84551985217492
 42
0.4142135623730919
 10
43.05537464249409
 20
22.66901985217491
 10
46.24287464249409
 20
22.66901985217491
 42
0.4142135623730976
 10
46.41937464249409
 20
22.84551985217492
 10
46.41937464249409
 20
31.09551985217492
 42
0.414213562373086
 10
46.24287464249409
 20
31.27201985217491
  0
LWPOLYLINE
  5
15A6
330
18
100
AcDbEntity
  8
0
100
AcDbPolyline
 90
        8
 70
     1
 43
0.0
 10
43.05537464249409
 20
31.22371985217493
 42
0.4142135623730771
 10
42.9271746424941
 20
31.09551985217493
 10
42.9271746424941
 20
22.84551985217492
 42
0.4142135623730771
 10
43.05537464249409
 20
22.71731985217491
 10
46.24287464249409
 20
22.71731985217491
 42
0.4142135623730853
 10
46.37107464249409
 20
22.84551985217492
 10
46.37107464249409
 20
31.09551985217492
 42
0.4142135623730934
 10
46.24287464249409
 20
31.22371985217492
  0
CIRCLE
  5
15A7
330
18
100
AcDbEntity
  8
0
100
AcDbCircle
 10
46.11787464249409
 20
23.40801985217492
 30
0.0
 40
0.109
  0
CIRCLE
  5
15A8
330
18
100
AcDbEntity
  8
0
100
AcDbCircle
 10
43.1803746424941
 20
23.40801985217492
 30
0.0
 40
0.109
  0
CIRCLE
  5
15A9
330
18
100
AcDbEntity
  8
0
100
AcDbCircle
 10
43.1803746424941
 20
30.53301985217492
 30
0.0
 40
0.109
  0
CIRCLE
  5
15AA
330
18
100
AcDbEntity
  8
0
100
AcDbCircle
 10
46.11787464249409
 20
30.53301985217492
 30
0.0
 40
0.109
  0
DIMENSION
  5
15AB
330
18
100
AcDbEntity
  8
DIM
100
AcDbDimension
280
     0
  2
*D30
 10
46.03096423777122
 20
23.4738042086049
 30
0.0
 11
47.80438978105133
 21
22.6452207226122
 31
0.0
 70
   163
 71
     5
 42
0.2179999999999929
 73
     0
 74
     0
 75
     0
  3
STANDARD
100
AcDbDiametricDimension
 15
46.20478504721697
 25
23.34223549574495
 35
0.0
 40
0.0
1001
ACAD
1000
DSTYLE
1002
{
1070
   288
1070
     1
1070
   147
1040
0.09375
1070
    42
1040
0.09375
1070
   271
1070
     3
1002
}
  0
LINE
  5
15AC
330
18
100
AcDbEntity
  8
0
  6
Continuous
100
AcDbLine
 10
43.0903746424941
 20
23.40801985217492
 30
0.0
 11
43.27037464249411
 21
23.40801985217492
 31
0.0
  0
LINE
  5
15AD
330
18
100
AcDbEntity
  8
0
  6
Continuous
100
AcDbLine
 10
43.1803746424941
 20
23.31801985217492
 30
0.0
 11
43.1803746424941
 21
23.49801985217492
 31
0.0
  0
LINE
  5
15AE
330
18
100
AcDbEntity
  8
0
  6
Continuous
100
AcDbLine
 10
43.09037464249411
 20
30.53301985217492
 30
0.0
 11
43.27037464249412
 21
30.53301985217492
 31
0.0
  0
LINE
  5
15AF
330
18
100
AcDbEntity
  8
0
  6
Continuous
100
AcDbLine
 10
43.18037464249411
 20
30.44301985217491
 30
0.0
 11
43.18037464249411
 21
30.62301985217492
 31
0.0
  0
LINE
  5
15B0
330
18
100
AcDbEntity
  8
0
  6
Continuous
100
AcDbLine
 10
46.02787464249408
 20
30.53301985217492
 30
0.0
 11
46.20787464249409
 21
30.53301985217492
 31
0.0
  0
LINE
  5
15B1
330
18
100
AcDbEntity
  8
0
  6
Continuous
100
AcDbLine
 10
46.11787464249409
 20
30.44301985217491
 30
0.0
 11
46.11787464249409
 21
30.62301985217492
 31
0.0
  0
CIRCLE
  5
15B2
330
18
100
AcDbEntity
  8
0
100
AcDbCircle
 10
7.505485052347097
 20
30.53301985217492
 30
0.0
 40
0.1875
  0
CIRCLE
  5
15B3
330
18
100
AcDbEntity
  8
0
100
AcDbCircle
 10
7.505485052347097
 20
30.53301985217492
 30
0.0
 40
0.1725
  0
CIRCLE
  5
15B4
330
18
100
AcDbEntity
  8
0
100
AcDbCircle
 10
7.505485052347097
 20
30.53301985217492
 30
0.0
 40
0.109
  0
CIRCLE
  5
15B5
330
18
100
AcDbEntity
  8
0
100
AcDbCircle
 10
10.44294220038874
 20
30.53301985217492
 30
0.0
 40
0.1875
  0
CIRCLE
  5
15B6
330
18
100
AcDbEntity
  8
0
100
AcDbCircle
 10
10.44294220038874
 20
30.53301985217492
 30
0.0
 40
0.1725
  0
CIRCLE
  5
15B7
330
18
100
AcDbEntity
  8
0
100
AcDbCircle
 10
10.44294220038874
 20
30.53301985217492
 30
0.0
 40
0.109
  0
CIRCLE
  5
15B8
330
18
100
AcDbEntity
  8
0
100
AcDbCircle
 10
10.44294220038874
 20
23.40801985217492
 30
0.0
 40
0.1875
  0
CIRCLE
  5
15B9
330
18
100
AcDbEntity
  8
0
100
AcDbCircle
 10
10.44294220038874
 20
23.40801985217492
 30
0.0
 40
0.1725
  0
CIRCLE
  5
15BA
330
18
100
AcDbEntity
  8
0
100
AcDbCircle
 10
10.44294220038874
 20
23.40801985217492
 30
0.0
 40
0.109
  0
CIRCLE
  5
15BB
330
18
100
AcDbEntity
  8
0
100
AcDbCircle
 10
7.505485052347097
 20
23.40801985217492
 30
0.0
 40
0.109
  0
CIRCLE
  5
15BC
330
18
100
AcDbEntity
  8
0
100
AcDbCircle
 10
7.505485052347097
 20
23.40801985217492
 30
0.0
 40
0.1725
  0
CIRCLE
  5
15BD
330
18
100
AcDbEntity
  8
0
100
AcDbCircle
 10
7.505485052347097
 20
23.40801985217492
 30
0.0
 40
0.1875
  0
LWPOLYLINE
  5
15BE
330
18
100
AcDbEntity
  8
0
100
AcDbPolyline
 90
       24
 70
     1
 43
0.0
 10
7.403716368337114
 20
23.60129937539562
 10
7.528766104146598
 20
23.60129937539562
 42
-0.414213562373101
 10
7.698766104146599
 20
23.43129937539563
 10
7.698766104146599
 20
22.86877259414409
 42
0.4142135623730902
 10
7.903766104146598
 20
22.66377259414409
 10
10.04466114858925
 20
22.66377259414409
 42
0.4142135623730902
 10
10.24966114858925
 20
22.86877259414409
 10
10.24966114858927
 20
23.43129937539561
 42
-0.414213562373101
 10
10.41966114858927
 20
23.60129937539562
 10
10.54471088439874
 20
23.60129937539562
 42
0.4142135623730902
 10
10.74971088439873
 20
23.80629937539561
 10
10.74971088439875
 20
30.13474032895421
 42
0.4142135623730902
 10
10.54471088439875
 20
30.33974032895421
 10
10.41966114858927
 20
30.33974032895422
 42
-0.414213562373101
 10
10.24966114858927
 20
30.50974032895421
 10
10.24966114858925
 20
31.07226711020575
 42
0.4142135623730902
 10
10.04466114858925
 20
31.27726711020573
 10
7.903766104146598
 20
31.27726711020573
 42
0.4142135623730902
 10
7.698766104146599
 20
31.07226711020573
 10
7.698766104146585
 20
30.50974032895421
 42
-0.414213562373101
 10
7.528766104146583
 20
30.33974032895419
 10
7.4037163683371
 20
30.33974032895419
 42
0.4142135623730902
 10
7.198716368337102
 20
30.13474032895421
 10
7.198716368337116
 20
23.80629937539561
 42
0.4142135623730902
  0
LWPOLYLINE
  5
15BF
330
18
100
AcDbEntity
  8
0
100
AcDbPolyline
 90
       24
 70
     1
 43
0.0
 10
7.403716368337114
 20
23.61879937539562
 10
7.528766104146598
 20
23.61879937539563
 42
-0.4142135623731
 10
7.716266104146598
 20
23.43129937539563
 10
7.716266104146598
 20
22.86877259414409
 42
0.414213562373097
 10
7.903766104146598
 20
22.68127259414409
 10
10.04466114858925
 20
22.68127259414409
 42
0.4142135623730946
 10
10.23216114858925
 20
22.86877259414409
 10
10.23216114858927
 20
23.43129937539561
 42
-0.4142135623730975
 10
10.41966114858927
 20
23.61879937539562
 10
10.54471088439874
 20
23.61879937539562
 42
0.4142135623730961
 10
10.73221088439874
 20
23.80629937539561
 10
10.73221088439875
 20
30.13474032895421
 42
0.4142135623730956
 10
10.54471088439875
 20
30.32224032895421
 10
10.41966114858927
 20
30.32224032895421
 42
-0.4142135623730927
 10
10.23216114858927
 20
30.50974032895421
 10
10.23216114858925
 20
31.07226711020575
 42
0.4142135623730961
 10
10.04466114858925
 20
31.25976711020574
 10
7.903766104146598
 20
31.25976711020573
 42
0.4142135623730923
 10
7.716266104146598
 20
31.07226711020573
 10
7.716266104146583
 20
30.50974032895421
 42
-0.4142135623730951
 10
7.528766104146583
 20
30.32224032895421
 10
7.4037163683371
 20
30.32224032895421
 42
0.4142135623730961
 10
7.2162163683371
 20
30.13474032895421
 10
7.216216368337114
 20
23.80629937539561
 42
0.4142135623730975
  0
CIRCLE
  5
15C0
330
18
100
AcDbEntity
  8
0
 62
     4
100
AcDbCircle
 10
7.380713626367927
 20
22.84551985217492
 30
0.0
 40
0.109
  0
CIRCLE
  5
15C1
330
18
100
AcDbEntity
  8
0
 62
     4
100
AcDbCircle
 10
7.380713626367927
 20
22.84551985217492
 30
0.0
 40
0.076
  0
ARC
  5
15C2
330
18
100
AcDbEntity
  8
0
100
AcDbCircle
 10
7.380463626367927
 20
22.84551985217492
 30
0.0
 40
0.3125
100
AcDbArc
 50
180.0
 51
270.0
  0
ARC
  5
15C3
330
18
100
AcDbEntity
  8
0
100
AcDbCircle
 10
10.56796362636792
 20
22.84551985217492
 30
0.0
 40
0.3125
100
AcDbArc
 50
270.0
 51
0.0
  0
ARC
  5
15C4
330
18
100
AcDbEntity
  8
0
100
AcDbCircle
 10
10.56796362636792
 20
31.09551985217492
 30
0.0
 40
0.3125
100
AcDbArc
 50
0.0
 51
90.0
  0
ARC
  5
15C5
330
18
100
AcDbEntity
  8
0
100
AcDbCircle
 10
7.380463626367927
 20
31.09551985217492
 30
0.0
 40
0.3125
100
AcDbArc
 50
90.0
 51
180.0
  0
LINE
  5
15C6
330
18
100
AcDbEntity
  8
0
100
AcDbLine
 10
10.56796362636792
 20
22.53301985217492
 30
0.0
 11
7.380463626367927
 21
22.53301985217492
 31
0.0
  0
LINE
  5
15C7
330
18
100
AcDbEntity
  8
0
100
AcDbLine
 10
10.56796362636792
 20
31.40801985217492
 30
0.0
 11
7.380463626367927
 21
31.40801985217492
 31
0.0
  0
LINE
  5
15C8
330
18
100
AcDbEntity
  8
0
100
AcDbLine
 10
10.88046362636792
 20
22.84551985217492
 30
0.0
 11
10.88046362636792
 21
31.09551985217492
 31
0.0
  0
LINE
  5
15C9
330
18
100
AcDbEntity
  8
0
100
AcDbLine
 10
7.067963626367927
 20
22.84551985217492
 30
0.0
 11
7.067963626367927
 21
31.09551985217492
 31
0.0
  0
CIRCLE
  5
15CA
330
18
100
AcDbEntity
  8
0
 62
     4
100
AcDbCircle
 10
7.380713626367927
 20
31.09551985217492
 30
0.0
 40
0.076
  0
CIRCLE
  5
15CB
330
18
100
AcDbEntity
  8
0
 62
     4
100
AcDbCircle
 10
7.380713626367927
 20
31.09551985217492
 30
0.0
 40
0.109
  0
CIRCLE
  5
15CC
330
18
100
AcDbEntity
  8
0
 62
     4
100
AcDbCircle
 10
10.56771362636792
 20
22.84551985217492
 30
0.0
 40
0.076
  0
CIRCLE
  5
15CD
330
18
100
AcDbEntity
  8
0
 62
     4
100
AcDbCircle
 10
10.56771362636792
 20
22.84551985217492
 30
0.0
 40
0.109
  0
CIRCLE
  5
15CE
330
18
100
AcDbEntity
  8
0
 62
     4
100
AcDbCircle
 10
10.56771362636792
 20
31.09551985217492
 30
0.0
 40
0.076
  0
CIRCLE
  5
15CF
330
18
100
AcDbEntity
  8
0
 62
     4
100
AcDbCircle
 10
10.56771362636792
 20
31.09551985217492
 30
0.0
 40
0.109
  0
LINE
  5
15D0
330
18
100
AcDbEntity
  8
CENTER
100
AcDbLine
 10
7.290713626367923
 20
22.84551985217492
 30
0.0
 11
7.47071362636793
 21
22.84551985217492
 31
0.0
  0
LINE
  5
15D1
330
18
100
AcDbEntity
  8
CENTER
100
AcDbLine
 10
7.380713626367928
 20
22.72426985217493
 30
0.0
 11
7.380713626367927
 21
22.93551985217492
 31
0.0
  0
LINE
  5
15D2
330
18
100
AcDbEntity
  8
CENTER
100
AcDbLine
 10
7.415485052347094
 20
23.40801985217492
 30
0.0
 11
7.5954850523471
 21
23.40801985217492
 31
0.0
  0
LINE
  5
15D3
330
18
100
AcDbEntity
  8
CENTER
100
AcDbLine
 10
7.505485052347097
 20
23.31801985217492
 30
0.0
 11
7.505485052347097
 21
23.49801985217492
 31
0.0
  0
LINE
  5
15D4
330
18
100
AcDbEntity
  8
CENTER
100
AcDbLine
 10
7.415485052347094
 20
30.53301985217492
 30
0.0
 11
7.5954850523471
 21
30.53301985217492
 31
0.0
  0
LINE
  5
15D5
330
18
100
AcDbEntity
  8
CENTER
100
AcDbLine
 10
7.505485052347097
 20
30.44301985217491
 30
0.0
 11
7.505485052347097
 21
30.62301985217492
 31
0.0
  0
LINE
  5
15D6
330
18
100
AcDbEntity
  8
CENTER
100
AcDbLine
 10
7.290713626367923
 20
31.09551985217492
 30
0.0
 11
7.47071362636793
 21
31.09551985217492
 31
0.0
  0
LINE
  5
15D7
330
18
100
AcDbEntity
  8
CENTER
100
AcDbLine
 10
7.380713626367927
 20
31.00551985217491
 30
0.0
 11
7.380713626367927
 21
31.18551985217492
 31
0.0
  0
LINE
  5
15D8
330
18
100
AcDbEntity
  8
CENTER
100
AcDbLine
 10
10.47771362636792
 20
31.09551985217492
 30
0.0
 11
10.65771362636793
 21
31.09551985217492
 31
0.0
  0
LINE
  5
15D9
330
18
100
AcDbEntity
  8
CENTER
100
AcDbLine
 10
10.56771362636792
 20
31.00551985217491
 30
0.0
 11
10.56771362636792
 21
31.18551985217492
 31
0.0
  0
LINE
  5
15DA
330
18
100
AcDbEntity
  8
CENTER
100
AcDbLine
 10
10.35294220038874
 20
30.53301985217492
 30
0.0
 11
10.53294220038874
 21
30.53301985217492
 31
0.0
  0
LINE
  5
15DB
330
18
100
AcDbEntity
  8
CENTER
100
AcDbLine
 10
10.44294220038874
 20
30.44301985217491
 30
0.0
 11
10.44294220038874
 21
30.62301985217492
 31
0.0
  0
LINE
  5
15DC
330
18
100
AcDbEntity
  8
CENTER
100
AcDbLine
 10
10.35294220038874
 20
23.40801985217492
 30
0.0
 11
10.53294220038874
 21
23.40801985217492
 31
0.0
  0
LINE
  5
15DD
330
18
100
AcDbEntity
  8
CENTER
100
AcDbLine
 10
10.44294220038874
 20
23.31801985217492
 30
0.0
 11
10.44294220038874
 21
23.49801985217492
 31
0.0
  0
LINE
  5
15DE
330
18
100
AcDbEntity
  8
CENTER
100
AcDbLine
 10
10.47771362636792
 20
22.84551985217492
 30
0.0
 11
10.65771362636793
 21
22.84551985217492
 31
0.0
  0
LINE
  5
15DF
330
18
100
AcDbEntity
  8
CENTER
100
AcDbLine
 10
10.56771362636792
 20
22.75551985217493
 30
0.0
 11
10.56771362636792
 21
22.93551985217492
 31
0.0
  0
LWPOLYLINE
  5
15E0
330
18
100
AcDbEntity
  8
0
100
AcDbPolyline
 90
       24
 70
     1
 43
0.0
 10
7.413216368337131
 20
23.72079937539561
 10
7.528266104146545
 20
23.72079937539563
 42
-0.4142135623731403
 10
7.818266104146587
 20
23.43079937539563
 10
7.818266104146587
 20
22.8782725941441
 42
0.4142135623730999
 10
7.9132661041466
 20
22.78327259414409
 10
10.03516114858925
 20
22.78327259414409
 42
0.4142135623731026
 10
10.13016114858926
 20
22.8782725941441
 10
10.13016114858926
 20
23.43079937539563
 42
-0.4142135623731406
 10
10.4201611485893
 20
23.72079937539563
 10
10.53521088439872
 20
23.7207993753956
 42
0.4142135623731437
 10
10.63021088439874
 20
23.81579937539562
 10
10.63021088439874
 20
30.12524032895421
 42
0.4142135623731025
 10
10.53521088439874
 20
30.22024032895421
 10
10.42016114858927
 20
30.22024032895421
 42
-0.4142135623730871
 10
10.13016114858927
 20
30.51024032895421
 10
10.13016114858926
 20
31.06276711020575
 42
0.4142135623730615
 10
10.03516114858926
 20
31.15776711020573
 10
7.9132661041466
 20
31.15776711020573
 42
0.4142135623730903
 10
7.818266104146587
 20
31.06276711020573
 10
7.818266104146587
 20
30.51024032895419
 42
-0.4142135623730948
 10
7.528266104146588
 20
30.22024032895419
 10
7.413216368337103
 20
30.2202403289542
 42
0.4142135623730873
 10
7.318216368337104
 20
30.12524032895421
 10
7.318216368337118
 20
23.81579937539561
 42
0.4142135623731463
  0
LWPOLYLINE
  5
15E1
330
18
100
AcDbEntity
  8
0
100
AcDbPolyline
 90
       24
 70
     1
 43
0.0
 10
7.413216368337117
 20
23.78059937539562
 10
7.528766104146598
 20
23.78059937539562
 42
-0.4142135623730935
 10
7.878066104146597
 20
23.43129937539562
 10
7.878066104146597
 20
22.87827259414409
 42
0.4142135623731318
 10
7.9132661041466
 20
22.84307259414408
 10
10.03516114858924
 20
22.84307259414408
 42
0.4142135623731281
 10
10.07036114858925
 20
22.87827259414409
 10
10.07036114858926
 20
23.43129937539563
 42
-0.4142135623730859
 10
10.41966114858927
 20
23.78059937539562
 10
10.53521088439873
 20
23.78059937539562
 42
0.4142135623731133
 10
10.57041088439873
 20
23.81579937539562
 10
10.57041088439874
 20
30.12524032895421
 42
0.414213562373091
 10
10.53521088439874
 20
30.16044032895422
 10
10.41966114858925
 20
30.16044032895422
 42
-0.4142135623730983
 10
10.07036114858926
 20
30.50974032895421
 10
10.07036114858926
 20
31.06276711020573
 42
0.414213562373054
 10
10.03516114858927
 20
31.09796711020571
 10
7.9132661041466
 20
31.09796711020572
 42
0.4142135623730874
 10
7.878066104146597
 20
31.06276711020573
 10
7.878066104146583
 20
30.50974032895418
 42
-0.4142135623730814
 10
7.528766104146576
 20
30.16044032895419
 10
7.413216368337096
 20
30.16044032895419
 42
0.4142135623730356
 10
7.3780163683371
 20
30.12524032895419
 10
7.378016368337114
 20
23.81579937539562
 42
0.414213562373069
  0
DIMENSION
  5
15E2
330
18
100
AcDbEntity
  8
DIM
100
AcDbDimension
280
     0
  2
*D31
 10
10.44294220038874
 20
33.07907048648704
 30
0.0
 11
8.974213626367919
 21
33.07907048648704
 31
0.0
 70
    32
 71
     5
 42
2.937457148041644
 73
     0
 74
     0
 75
     0
  3
STANDARD
100
AcDbAlignedDimension
 13
7.505485052347097
 23
30.62301985217492
 33
0.0
 14
10.44294220038874
 24
30.62301985217492
 34
0.0
100
AcDbRotatedDimension
1001
ACAD
1000
DSTYLE
1002
{
1070
    41
1040
0.1875
1070
    42
1040
0.09375
1070
    43
1040
0.375
1070
    44
1040
0.1875
1070
   141
1040
0.09375
1070
   147
1040
0.1875
1070
   271
1070
     5
1070
   276
1070
     2
1070
   277
1070
     5
1070
   288
1070
     1
1002
}
  0
DIMENSION
  5
15E3
330
18
100
AcDbEntity
  8
DIM
100
AcDbDimension
280
     0
  2
*D32
 10
5.19442039813407
 20
23.40801985217492
 30
0.0
 11
5.194420398134067
 21
26.97051985217492
 31
0.0
 70
    32
 71
     5
 42
7.124999999999996
 73
     0
 74
     0
 75
     0
  3
STANDARD
100
AcDbAlignedDimension
 13
7.415485052347094
 23
30.53301985217492
 33
0.0
 14
7.415485052347094
 24
23.40801985217492
 34
0.0
 50
90.0
100
AcDbRotatedDimension
1001
ACAD
1000
DSTYLE
1002
{
1070
    41
1040
0.1875
1070
    42
1040
0.09375
1070
    43
1040
0.375
1070
    44
1040
0.1875
1070
   141
1040
0.09375
1070
   147
1040
0.1875
1070
   271
1070
     5
1070
   276
1070
     2
1070
   277
1070
     5
1070
   288
1070
     1
1002
}
  0
LEADER
  5
15E4
330
18
100
AcDbEntity
  8
DIM
100
AcDbLeader
  3
STANDARD
 73
     0
 74
     0
 75
     1
 76
     3
 10
10.63622895200211
 20
31.14185459073977
 30
0.0
 10
12.03220206881408
 20
32.65469564004491
 30
0.0
 10
12.21970206881408
 20
32.65469564004491
 30
0.0
1001
ACAD
1000
DSTYLE
1002
{
1070
   288
1070
     1
1070
   270
1070
     7
1070
   147
1040
0.1875
1070
    42
1040
0.09375
1070
    44
1040
0.1875
1070
    43
1040
0.375
1070
   271
1070
     6
1070
   141
1040
0.09375
1070
    41
1040
0.1875
1002
}
  0
TEXT
  5
15E5
330
18
100
AcDbEntity
  8
DIM
100
AcDbText
 10
12.37797429771765
 20
32.5746124608649
 30
0.0
 40
0.1875
  1
10-24 BRASS INSERT
 11
12.37797429771765
 21
32.5121124608649
 31
0.0
100
AcDbText
 73
     1
  0
TEXT
  5
15E6
330
18
100
AcDbEntity
  8
DIM
100
AcDbText
 10
12.37797429771765
 20
32.2621124608649
 30
0.0
 40
0.1875
  1
4 PLC'S.
 11
12.37797429771765
 21
32.1996124608649
 31
0.0
100
AcDbText
 73
     1
  0
DIMENSION
  5
15E7
330
18
100
AcDbEntity
  8
DIM
100
AcDbDimension
280
     0
  2
*D33
 10
10.35355684522274
 20
23.34563990121433
 30
0.0
 11
12.26498793303558
 21
24.13523922251244
 31
0.0
 70
   163
 71
     5
 42
0.2179999999999929
 73
     0
 74
     0
 75
     0
  3
STANDARD
100
AcDbDiametricDimension
 15
10.53232755555474
 25
23.47039980313553
 35
0.0
 40
0.0
1001
ACAD
1000
DSTYLE
1002
{
1070
   288
1070
     1
1070
   147
1040
0.1875
1070
    42
1040
0.09375
1070
    44
1040
0.1875
1070
    43
1040
0.375
1070
   271
1070
     3
1070
   141
1040
0.09375
1070
    41
1040
0.1875
1002
}
  0
DIMENSION
  5
15E8
330
18
100
AcDbEntity
  8
DIM
100
AcDbDimension
280
     0
  2
*D34
 10
10.29849510956504
 20
23.50231347843128
 30
0.0
 11
12.10690809758597
 21
22.85055939598434
 31
0.0
 70
   163
 71
     5
 42
0.3450000000000077
 73
     0
 74
     0
 75
     0
  3
STANDARD
100
AcDbDiametricDimension
 15
10.58738929121243
 25
23.31372622591858
 35
0.0
 40
0.0
1001
ACAD
1000
DSTYLE
1002
{
1070
   288
1070
     1
1070
   147
1040
0.1875
1070
    42
1040
0.09375
1070
    44
1040
0.1875
1070
    43
1040
0.375
1070
   271
1070
     3
1070
   141
1040
0.09375
1070
    41
1040
0.1875
1002
}
  0
TEXT
  5
15E9
330
18
100
AcDbEntity
  8
DIM
100
AcDbText
 10
11.76919182738106
 20
23.75994326566317
 30
0.0
 40
0.1875
  1
4 PLC'S.
 11
11.76919182738106
 21
23.69744326566317
 31
0.0
100
AcDbText
 73
     1
  0
TEXT
  5
15EA
330
18
100
AcDbEntity
  8
DIM
100
AcDbText
 10
11.56799904020602
 20
22.46808636463194
 30
0.0
 40
0.1875
  1
4 PLC'S.
 11
11.56799904020602
 21
22.40558636463195
 31
0.0
100
AcDbText
 73
     1
  0
LINE
  5
15EB
330
18
100
AcDbEntity
  8
DIM
100
AcDbLine
 10
7.783574378944322
 20
20.69263479553818
 30
0.0
 11
10.16485287379153
 21
20.69263479553818
 31
0.0
  0
LINE
  5
15EC
330
18
100
AcDbEntity
  8
DIM
100
AcDbLine
 10
7.783574378944322
 20
20.65263479553818
 30
0.0
 11
10.16485287379153
 21
20.65263479553818
 31
0.0
  0
TEXT
  5
15ED
330
18
100
AcDbEntity
  8
DIM
100
AcDbText
 10
7.776878115412962
 20
20.76353722454993
 30
0.0
 40
0.312
  1
TOP VIEW
  7
COMPLEX
100
AcDbText
  0
TEXT
  5
15EE
330
18
100
AcDbEntity
  8
DIM
100
AcDbText
 10
7.755463626367927
 20
20.30285339096639
 30
0.0
 40
0.1875
  1
WITHOUT COVER
 72
     1
 11
8.974213626367927
 21
20.30285339096639
 31
0.0
100
AcDbText
  0
DIMENSION
  5
15EF
330
18
100
AcDbEntity
  8
DIM
100
AcDbDimension
280
     0
  2
*D35
 10
10.56771362636792
 20
34.08214240165134
 30
0.0
 11
8.974213626367927
 21
34.08214240165134
 31
0.0
 70
    32
 71
     5
 42
3.187
 73
     0
 74
     0
 75
     0
  3
STANDARD
100
AcDbAlignedDimension
 13
7.380713626367927
 23
31.18551985217492
 33
0.0
 14
10.56771362636792
 24
31.18551985217492
 34
0.0
100
AcDbRotatedDimension
1001
ACAD
1000
DSTYLE
1002
{
1070
    41
1040
0.1875
1070
    42
1040
0.09375
1070
    43
1040
0.375
1070
    44
1040
0.1875
1070
   141
1040
0.09375
1070
   147
1040
0.1875
1070
   271
1070
     5
1070
   276
1070
     2
1070
   277
1070
     5
1070
   288
1070
     1
1002
}
  0
DIMENSION
  5
15F0
330
18
100
AcDbEntity
  8
DIM
100
AcDbDimension
280
     0
  2
*D36
 10
3.743010522889449
 20
31.09551985217492
 30
0.0
 11
3.743010522889443
 21
26.97051985217492
 31
0.0
 70
    32
 71
     5
 42
8.25
 73
     0
 74
     0
 75
     0
  3
STANDARD
100
AcDbAlignedDimension
 13
7.290713626367923
 23
22.84551985217492
 33
0.0
 14
7.290713626367923
 24
31.09551985217492
 34
0.0
 50
90.0
100
AcDbRotatedDimension
1001
ACAD
1000
DSTYLE
1002
{
1070
    41
1040
0.1875
1070
    42
1040
0.09375
1070
    43
1040
0.375
1070
    44
1040
0.1875
1070
   141
1040
0.09375
1070
   147
1040
0.1875
1070
   271
1070
     5
1070
   276
1070
     2
1070
   277
1070
     5
1070
   288
1070
     1
1002
}
  0
ENDSEC
  0
SECTION
  2
OBJECTS
  0
DICTIONARY
  5
C
330
0
100
AcDbDictionary
281
     1
  3
ACAD_COLOR
350
F63
  3
ACAD_GROUP
350
D
  3
ACAD_LAYOUT
350
F66
  3
ACAD_MATERIAL
350
F62
  3
ACAD_MLEADERSTYLE
350
1825
  3
ACAD_MLINESTYLE
350
E
  3
ACAD_PLOTSETTINGS
350
F67
  3
ACAD_PLOTSTYLENAME
350
F60
  3
ACAD_SCALELIST
350
1813
  3
ACAD_TABLESTYLE
350
F64
  3
ACAD_VISUALSTYLE
350
10D2
  3
ACDB_RECOMPOSE_DATA
350
1837
  3
AcDbVariableDictionary
350
101C
  3
AcmDictionary
350
FC5
  3
AMG
350
F6F
  3
AMGSNAPSETTINGS
350
1006
  0
DICTIONARY
  5
17E9
330
8
100
AcDbDictionary
280
     1
281
     1
  0
DICTIONARY
  5
10B1
330
18
100
AcDbDictionary
280
     1
281
     1
  3
ACAD_SORTENTS
360
10B2
  0
DICTIONARY
  5
F63
102
{ACAD_REACTORS
330
C
102
}
330
C
100
AcDbDictionary
281
     1
  0
DICTIONARY
  5
D
102
{ACAD_REACTORS
330
C
102
}
330
C
100
AcDbDictionary
281
     1
  0
DICTIONARY
  5
F66
102
{ACAD_REACTORS
330
C
102
}
330
C
100
AcDbDictionary
281
     1
  3
Layout1
350
F69
  3
Model
350
F68
  0
DICTIONARY
  5
F62
102
{ACAD_REACTORS
330
C
102
}
330
C
100
AcDbDictionary
281
     1
  3
ByBlock
350
10D0
  3
ByLayer
350
10CF
  3
Global
350
10D1
  0
DICTIONARY
  5
1825
102
{ACAD_REACTORS
330
C
102
}
330
C
100
AcDbDictionary
281
     1
  3
Standard
350
1826
  0
DICTIONARY
  5
E
102
{ACAD_REACTORS
330
C
102
}
330
C
100
AcDbDictionary
281
     1
  3
STANDARD
350
1B
  0
DICTIONARY
  5
F67
102
{ACAD_REACTORS
330
C
102
}
330
C
100
AcDbDictionary
281
     1
  0
ACDBDICTIONARYWDFLT
  5
F60
102
{ACAD_REACTORS
330
C
102
}
330
C
100
AcDbDictionary
281
     1
  3
Normal
350
F61
100
AcDbDictionaryWithDefault
340
F61
  0
DICTIONARY
  5
1813
102
{ACAD_REACTORS
330
C
102
}
330
C
100
AcDbDictionary
281
     1
  3
A0
350
1814
  3
A1
350
1815
  3
A2
350
1816
  3
A3
350
1817
  3
A4
350
1818
  3
A5
350
1819
  3
A6
350
181A
  3
A7
350
181B
  3
A8
350
181C
  3
A9
350
181D
  3
B0
350
181E
  3
B1
350
181F
  3
B2
350
1820
  3
B3
350
1821
  3
B4
350
1822
  3
B5
350
1823
  3
B6
350
1824
  0
DICTIONARY
  5
F64
102
{ACAD_REACTORS
330
C
102
}
330
C
100
AcDbDictionary
281
     1
  3
Standard
350
F65
  0
DICTIONARY
  5
10D2
102
{ACAD_REACTORS
330
C
102
}
330
C
100
AcDbDictionary
281
     1
  3
2dWireframe
350
10D8
  3
3D Hidden
350
10DA
  3
3dWireframe
350
10D9
  3
Basic
350
10D7
  3
Brighten
350
10DE
  3
ColorChange
350
10E2
  3
Conceptual
350
10DB
  3
Dim
350
10DD
  3
EdgeColorOff
350
1812
  3
Facepattern
350
10E1
  3
Flat
350
10D3
  3
FlatWithEdges
350
10D4
  3
Gouraud
350
10D5
  3
GouraudWithEdges
350
10D6
  3
Hidden
350
180A
  3
JitterOff
350
1810
  3
Linepattern
350
10E0
  3
OverhangOff
350
1811
  3
Realistic
350
10DC
  3
Shaded
350
180F
  3
Shaded with edges
350
180E
  3
Shades of Gray
350
180B
  3
Sketchy
350
180C
  3
Thicken
350
10DF
  3
Wireframe
350
1809
  3
X-Ray
350
180D
  0
XRECORD
  5
1837
102
{ACAD_REACTORS
330
C
102
}
330
C
100
AcDbXrecord
280
     1
 90
        1
330
F65
  0
DICTIONARY
  5
101C
102
{ACAD_REACTORS
330
C
102
}
330
C
100
AcDbDictionary
281
     1
  3
CANNOSCALE
350
1831
  3
CMLEADERSTYLE
350
182F
  3
CTABLESTYLE
350
101D
  3
DIMASSOC
350
101E
  3
INDEXCTL
350
1807
  3
LAYEREVAL
350
1833
  3
LAYERNOTIFY
350
1834
  3
LIGHTINGUNITS
350
1832
  3
MSLTSCALE
350
1830
  3
PROJECTNAME
350
101F
  3
SORTENTS
350
1806
  0
DICTIONARY
  5
FC5
102
{ACAD_REACTORS
330
C
102
}
330
C
100
AcDbDictionary
281
     1
  3
AcmStdDictionary
350
FD2
  3
AMDTSECTSYM_ARROWCOLOR
350
FF1
  0
DICTIONARY
  5
F6F
102
{ACAD_REACTORS
330
C
102
}
330
C
100
AcDbDictionary
281
     1
  0
DICTIONARY
  5
1006
102
{ACAD_REACTORS
330
C
102
}
330
C
100
AcDbDictionary
281
     1
  0
SORTENTSTABLE
  5
10B2
102
{ACAD_REACTORS
330
10B1
102
}
330
10B1
100
AcDbSortentsTable
330
18
331
108D
  5
108D
331
F4C
  5
F4C
331
10AF
  5
10AF
331
109E
  5
109E
331
DFF
  5
DFF
331
DEE
  5
DEE
331
10A2
  5
10A2
331
1091
  5
1091
331
1095
  5
1095
331
1084
  5
1084
331
10A6
  5
10A6
331
10AA
  5
10AA
331
1099
  5
1099
331
DF6
  5
DF6
331
8CC
  5
8CC
331
1088
  5
1088
331
109D
  5
109D
331
108C
  5
108C
331
10AE
  5
10AE
331
103E
  5
103E
331
DED
  5
DED
331
10A1
  5
10A1
331
1090
  5
1090
331
8C7
  5
8C7
331
10A5
  5
10A5
331
1094
  5
1094
331
1083
  5
1083
331
10A9
  5
10A9
331
1098
  5
1098
331
8CB
  5
8CB
331
1087
  5
1087
331
10AD
  5
10AD
331
109C
  5
109C
331
8CF
  5
8CF
331
108B
  5
108B
331
104A
  5
104A
331
DFD
  5
DFD
331
10A0
  5
10A0
331
108F
  5
108F
331
8C6
  5
8C6
331
10A4
  5
10A4
331
A47
  5
A47
331
1093
  5
1093
331
1082
  5
1082
331
10A8
  5
10A8
331
1086
  5
1086
331
DF4
  5
DF4
331
1097
  5
1097
331
8CA
  5
8CA
331
10AC
  5
10AC
331
109B
  5
109B
331
8CE
  5
8CE
331
108A
  5
108A
331
108E
  5
108E
331
DFC
  5
DFC
331
10B0
  5
10B0
331
109F
  5
109F
331
E00
  5
E00
331
10A3
  5
10A3
331
1092
  5
1092
331
1096
  5
1096
331
1085
  5
1085
331
1044
  5
1044
331
10A7
  5
10A7
331
10AB
  5
10AB
331
109A
  5
109A
331
8CD
  5
8CD
331
1089
  5
1089
  0
LAYOUT
  5
F69
102
{ACAD_REACTORS
330
F66
102
}
330
F66
100
AcDbPlotSettings
  1

  2
\\BELDINGDC\IBM 4039 LaserPrinter PS
  4

  6

 40
0.0
 41
0.0
 42
0.0
 43
0.0
 44
0.0
 45
0.0
 46
0.0
 47
0.0
 48
0.0
 49
0.0
140
0.0
141
0.0
142
1.0
143
1.0
 70
   688
 72
     0
 73
     0
 74
     5
  7

 75
    16
147
1.0
 76
     0
 77
     2
 78
   300
148
0.0
149
0.0
100
AcDbLayout
  1
Layout1
 70
     1
 71
     1
 10
0.0
 20
0.0
 11
12.0
 21
9.0
 12
0.0
 22
0.0
 32
0.0
 14
1.000000000000000E+20
 24
1.000000000000000E+20
 34
1.000000000000000E+20
 15
-1.000000000000000E+20
 25
-1.000000000000000E+20
 35
-1.000000000000000E+20
146
0.0
 13
0.0
 23
0.0
 33
0.0
 16
1.0
 26
0.0
 36
0.0
 17
0.0
 27
1.0
 37
0.0
 76
     0
330
15
  0
LAYOUT
  5
F68
102
{ACAD_REACTORS
330
F66
102
}
330
F66
100
AcDbPlotSettings
  1

  2
HP DesignJet 500 24 by HP
  4
User265
  6

 40
4.995333194732666
 41
16.97568893432617
 42
4.99530029296875
 43
16.97564697265625
 44
558.7576293945312
 45
863.5153198242187
 46
3.776419897700728
 47
0.0
 48
0.0
 49
0.0
140
0.0
141
0.0
142
1.0
143
1.959656748343369
 70
 11956
 72
     0
 73
     1
 74
     1
  7

 75
     0
147
0.5102934485059018
 76
     0
 77
     2
 78
   300
148
0.0104419782283003
149
0.0422767812652353
100
AcDbLayout
  1
Model
 70
     1
 71
     0
 10
0.0
 20
0.0
 11
12.0
 21
9.0
 12
0.0
 22
0.0
 32
0.0
 14
0.0
 24
0.0
 34
0.0
 15
0.0
 25
0.0
 35
0.0
146
0.0
 13
0.0
 23
0.0
 33
0.0
 16
1.0
 26
0.0
 36
0.0
 17
0.0
 27
1.0
 37
0.0
 76
     0
330
18
331
10C8
1001
ACAD_PSEXT
1000
HP DesignJet 500 24 by HP
1000
HP DesignJet 500 24 by HP
1000
USB001
1000

1070
     0
  0
MATERIAL
  5
10D0
102
{ACAD_REACTORS
330
F62
102
}
330
F62
100
AcDbMaterial
  1
ByBlock
 73
     1
 78
     1
172
     1
176
     1
270
     1
274
     1
 94
       63
  0
MATERIAL
  5
10CF
102
{ACAD_REACTORS
330
F62
102
}
330
F62
100
AcDbMaterial
  1
ByLayer
 73
     1
 78
     1
172
     1
176
     1
270
     1
274
     1
 94
       63
  0
MATERIAL
  5
10D1
102
{ACAD_REACTORS
330
F62
102
}
330
F62
100
AcDbMaterial
  1
Global
 73
     1
 78
     1
172
     1
176
     1
270
     1
274
     1
 94
       63
  0
MLEADERSTYLE
  5
1826
102
{ACAD_REACTORS
330
1825
102
}
330
1825
100
AcDbMLeaderStyle
179
     2
170
     2
171
     1
172
     0
 90
        2
 40
0.0
 41
0.0
173
     1
 91
-1056964608
340
12
 92
       -2
290
     1
 42
0.09
291
     1
 43
0.36
  3
Standard
 44
0.18
300

342
10
174
     1
178
     6
175
     1
176
     0
 93
-1056964608
 45
0.18
292
     0
297
     0
 46
0.18
 94
-1056964608
 47
1.0
 49
1.0
140
1.0
293
     1
141
0.0
294
     1
177
     0
142
1.0
295
     1
296
     0
143
0.125
271
     0
272
     9
273
     9
  0
MLINESTYLE
  5
1B
102
{ACAD_REACTORS
330
E
102
}
330
E
100
AcDbMlineStyle
  2
STANDARD
 70
     0
  3

 62
     0
 51
90.0
 52
90.0
 71
     2
 49
0.5
 62
   256
  6
BYLAYER
 49
-0.5
 62
   256
  6
BYLAYER
  0
ACDBPLACEHOLDER
  5
F61
102
{ACAD_REACTORS
330
F60
102
}
330
F60
  0
SCALE
  5
1814
102
{ACAD_REACTORS
330
1813
102
}
330
1813
100
AcDbScale
 70
     0
300
1:1
140
1.0
141
1.0
290
     1
  0
SCALE
  5
1815
102
{ACAD_REACTORS
330
1813
102
}
330
1813
100
AcDbScale
 70
     0
300
1/128" = 1'-0"
140
0.0078125
141
12.0
290
     0
  0
SCALE
  5
1816
102
{ACAD_REACTORS
330
1813
102
}
330
1813
100
AcDbScale
 70
     0
300
1/64" = 1'-0"
140
0.015625
141
12.0
290
     0
  0
SCALE
  5
1817
102
{ACAD_REACTORS
330
1813
102
}
330
1813
100
AcDbScale
 70
     0
300
1/32" = 1'-0"
140
0.03125
141
12.0
290
     0
  0
SCALE
  5
1818
102
{ACAD_REACTORS
330
1813
102
}
330
1813
100
AcDbScale
 70
     0
300
1/16" = 1'-0"
140
0.0625
141
12.0
290
     0
  0
SCALE
  5
1819
102
{ACAD_REACTORS
330
1813
102
}
330
1813
100
AcDbScale
 70
     0
300
3/32" = 1'-0"
140
0.09375
141
12.0
290
     0
  0
SCALE
  5
181A
102
{ACAD_REACTORS
330
1813
102
}
330
1813
100
AcDbScale
 70
     0
300
1/8" = 1'-0"
140
0.125
141
12.0
290
     0
  0
SCALE
  5
181B
102
{ACAD_REACTORS
330
1813
102
}
330
1813
100
AcDbScale
 70
     0
300
3/16" = 1'-0"
140
0.1875
141
12.0
290
     0
  0
SCALE
  5
181C
102
{ACAD_REACTORS
330
1813
102
}
330
1813
100
AcDbScale
 70
     0
300
1/4" = 1'-0"
140
0.25
141
12.0
290
     0
  0
SCALE
  5
181D
102
{ACAD_REACTORS
330
1813
102
}
330
1813
100
AcDbScale
 70
     0
300
3/8" = 1'-0"
140
0.375
141
12.0
290
     0
  0
SCALE
  5
181E
102
{ACAD_REACTORS
330
1813
102
}
330
1813
100
AcDbScale
 70
     0
300
1/2" = 1'-0"
140
0.5
141
12.0
290
     0
  0
SCALE
  5
181F
102
{ACAD_REACTORS
330
1813
102
}
330
1813
100
AcDbScale
 70
     0
300
3/4" = 1'-0"
140
0.75
141
12.0
290
     0
  0
SCALE
  5
1820
102
{ACAD_REACTORS
330
1813
102
}
330
1813
100
AcDbScale
 70
     0
300
1" = 1'-0"
140
1.0
141
12.0
290
     0
  0
SCALE
  5
1821
102
{ACAD_REACTORS
330
1813
102
}
330
1813
100
AcDbScale
 70
     0
300
1-1/2" = 1'-0"
140
1.5
141
12.0
290
     0
  0
SCALE
  5
1822
102
{ACAD_REACTORS
330
1813
102
}
330
1813
100
AcDbScale
 70
     0
300
3" = 1'-0"
140
3.0
141
12.0
290
     0
  0
SCALE
  5
1823
102
{ACAD_REACTORS
330
1813
102
}
330
1813
100
AcDbScale
 70
     0
300
6" = 1'-0"
140
6.0
141
12.0
290
     0
  0
SCALE
  5
1824
102
{ACAD_REACTORS
330
1813
102
}
330
1813
100
AcDbScale
 70
     0
300
1'-0" = 1'-0"
140
12.0
141
12.0
290
     0
  0
TABLESTYLE
  5
F65
102
{ACAD_XDICTIONARY
360
1835
102
}
102
{ACAD_REACTORS
330
F64
102
}
330
F64
100
AcDbTableStyle
280
     0
  3
Standard
 70
     0
 71
     0
 40
0.06
 41
0.06
280
     0
281
     0
  7
STANDARD
140
0.18
170
     2
 62
     0
 63
     7
283
     0
 90
        4
 91
        0
  1

274
    -2
284
     1
 64
     0
275
    -2
285
     1
 65
     0
276
    -2
286
     1
 66
     0
277
    -2
287
     1
 67
     0
278
    -2
288
     1
 68
     0
279
    -2
289
     1
 69
     0
  7
STANDARD
140
0.25
170
     5
 62
     0
 63
     7
283
     0
 90
        4
 91
        0
  1

274
    -2
284
     1
 64
     0
275
    -2
285
     1
 65
     0
276
    -2
286
     1
 66
     0
277
    -2
287
     1
 67
     0
278
    -2
288
     1
 68
     0
279
    -2
289
     1
 69
     0
  7
STANDARD
140
0.18
170
     5
 62
     0
 63
     7
283
     0
 90
        4
 91
        0
  1

274
    -2
284
     1
 64
     0
275
    -2
285
     1
 65
     0
276
    -2
286
     1
 66
     0
277
    -2
287
     1
 67
     0
278
    -2
288
     1
 68
     0
279
    -2
289
     1
 69
     0
  0
VISUALSTYLE
  5
10D8
102
{ACAD_REACTORS
330
10D2
102
}
330
10D2
100
AcDbVisualStyle
  2
2dWireframe
 70
     4
177
     2
291
     0
 71
     0
176
     1
 72
     2
176
     1
 73
     0
176
     1
 90
        0
176
     1
 40
0.6
176
     1
 41
30.0
176
     1
 63
     7
176
     1
 74
     1
176
     1
 91
        4
176
     1
 64
     7
176
     1
 65
   257
176
     1
 75
     1
176
     1
175
     1
176
     1
 42
1.0
176
     1
 92
        0
176
     1
 66
   257
176
     1
 43
1.0
176
     1
 76
     1
176
     1
 77
     6
176
     1
 78
     2
176
     1
 67
     7
176
     1
 79
     5
176
     1
170
     0
176
     1
171
     0
176
     1
290
     0
176
     1
 93
        1
176
     1
 44
0.0
176
     1
173
     0
176
     1
  0
VISUALSTYLE
  5
10DA
102
{ACAD_REACTORS
330
10D2
102
}
330
10D2
100
AcDbVisualStyle
  2
3D Hidden
 70
     6
177
     2
291
     0
 71
     1
176
     1
 72
     2
176
     1
 73
     2
176
     1
 90
        0
176
     1
 40
0.6
176
     1
 41
30.0
176
     1
 63
     7
176
     1
 74
     2
176
     1
 91
        2
176
     1
 64
     7
176
     1
 65
   257
176
     1
 75
     2
176
     1
175
     1
176
     1
 42
40.0
176
     1
 92
        0
176
     1
 66
   257
176
     1
 43
1.0
176
     1
 76
     1
176
     1
 77
     6
176
     1
 78
     2
176
     1
 67
     7
176
     1
 79
     3
176
     1
170
     0
176
     1
171
     0
176
     1
290
     0
176
     1
 93
        1
176
     1
 44
0.0
176
     1
173
     0
176
     1
  0
VISUALSTYLE
  5
10D9
102
{ACAD_REACTORS
330
10D2
102
}
330
10D2
100
AcDbVisualStyle
  2
3dWireframe
 70
     5
177
     2
291
     0
 71
     0
176
     1
 72
     2
176
     1
 73
     0
176
     1
 90
        0
176
     1
 40
0.6
176
     1
 41
30.0
176
     1
 63
     7
176
     1
 74
     1
176
     1
 91
        4
176
     1
 64
     7
176
     1
 65
   257
176
     1
 75
     1
176
     1
175
     1
176
     1
 42
1.0
176
     1
 92
        0
176
     1
 66
   257
176
     1
 43
1.0
176
     1
 76
     1
176
     1
 77
     6
176
     1
 78
     2
176
     1
 67
     7
176
     1
 79
     5
176
     1
170
     0
176
     1
171
     0
176
     1
290
     0
176
     1
 93
        1
176
     1
 44
0.0
176
     1
173
     0
176
     1
  0
VISUALSTYLE
  5
10D7
102
{ACAD_REACTORS
330
10D2
102
}
330
10D2
100
AcDbVisualStyle
  2
Basic
 70
     7
177
     2
291
     1
 71
     1
176
     1
 72
     0
176
     1
 73
     1
176
     1
 90
        0
176
     1
 40
0.6
176
     1
 41
30.0
176
     1
 63
     7
176
     1
 74
     0
176
     1
 91
        4
176
     1
 64
     7
176
     1
 65
   257
176
     1
 75
     1
176
     1
175
     1
176
     1
 42
1.0
176
     1
 92
        8
176
     1
 66
     7
176
     1
 43
1.0
176
     1
 76
     1
176
     1
 77
     6
176
     1
 78
     2
176
     1
 67
     7
176
     1
 79
     5
176
     1
170
     0
176
     1
171
     0
176
     1
290
     0
176
     1
 93
        1
176
     1
 44
0.0
176
     1
173
     0
176
     1
  0
VISUALSTYLE
  5
10DE
102
{ACAD_REACTORS
330
10D2
102
}
330
10D2
100
AcDbVisualStyle
  2
Brighten
 70
    12
177
     2
291
     1
 71
     2
176
     1
 72
     2
176
     1
 73
     0
176
     1
 90
        0
176
     1
 40
0.6
176
     1
 41
30.0
176
     1
 63
     7
176
     1
 74
     1
176
     1
 91
        4
176
     1
 64
     7
176
     1
 65
   257
176
     1
 75
     1
176
     1
175
     1
176
     1
 42
1.0
176
     1
 92
        8
176
     1
 66
     7
176
     1
 43
1.0
176
     1
 76
     1
176
     1
 77
     6
176
     1
 78
     2
176
     1
 67
     7
176
     1
 79
     5
176
     1
170
     0
176
     1
171
     0
176
     1
290
     0
176
     1
 93
        1
176
     1
 44
50.0
176
     1
173
     0
176
     1
  0
VISUALSTYLE
  5
10E2
102
{ACAD_REACTORS
330
10D2
102
}
330
10D2
100
AcDbVisualStyle
  2
ColorChange
 70
    16
177
     2
291
     1
 71
     2
176
     1
 72
     2
176
     1
 73
     3
176
     1
 90
        0
176
     1
 40
0.6
176
     1
 41
30.0
176
     1
 63
     8
176
     1
 74
     1
176
     1
 91
        4
176
     1
 64
     7
176
     1
 65
   257
176
     1
 75
     1
176
     1
175
     1
176
     1
 42
1.0
176
     1
 92
        8
176
     1
 66
     8
176
     1
 43
1.0
176
     1
 76
     1
176
     1
 77
     6
176
     1
 78
     2
176
     1
 67
     7
176
     1
 79
     5
176
     1
170
     0
176
     1
171
     0
176
     1
290
     0
176
     1
 93
        1
176
     1
 44
0.0
176
     1
173
     0
176
     1
  0
VISUALSTYLE
  5
10DB
102
{ACAD_REACTORS
330
10D2
102
}
330
10D2
100
AcDbVisualStyle
  2
Conceptual
 70
     9
177
     2
291
     0
 71
     3
176
     1
 72
     2
176
     1
 73
     0
176
     1
 90
        0
176
     1
 40
0.6
176
     1
 41
30.0
176
     1
 63
     7
176
     1
 74
     2
176
     1
 91
        2
176
     1
 64
     7
176
     1
 65
   257
176
     1
 75
     1
176
     1
175
     1
176
     1
 42
40.0
176
     1
 92
        8
176
     1
 66
     7
176
     1
 43
1.0
176
     1
 76
     1
176
     1
 77
     6
176
     1
 78
     2
176
     1
 67
     7
176
     1
 79
     3
176
     1
170
     0
176
     1
171
     0
176
     1
290
     0
176
     1
 93
        1
176
     1
 44
0.0
176
     1
173
     0
176
     1
  0
VISUALSTYLE
  5
10DD
102
{ACAD_REACTORS
330
10D2
102
}
330
10D2
100
AcDbVisualStyle
  2
Dim
 70
    11
177
     2
291
     1
 71
     2
176
     1
 72
     2
176
     1
 73
     0
176
     1
 90
        0
176
     1
 40
0.6
176
     1
 41
30.0
176
     1
 63
     7
176
     1
 74
     1
176
     1
 91
        4
176
     1
 64
     7
176
     1
 65
   257
176
     1
 75
     1
176
     1
175
     1
176
     1
 42
1.0
176
     1
 92
        8
176
     1
 66
     7
176
     1
 43
1.0
176
     1
 76
     1
176
     1
 77
     6
176
     1
 78
     2
176
     1
 67
     7
176
     1
 79
     5
176
     1
170
     0
176
     1
171
     0
176
     1
290
     0
176
     1
 93
        1
176
     1
 44
-50.0
176
     1
173
     0
176
     1
  0
VISUALSTYLE
  5
1812
102
{ACAD_REACTORS
330
10D2
102
}
330
10D2
100
AcDbVisualStyle
  2
EdgeColorOff
 70
    22
177
     2
291
     1
 71
     2
176
     0
 72
     2
176
     0
 73
     0
176
     0
 90
        0
176
     0
 40
0.6
176
     0
 41
30.0
176
     0
 63
     7
421
 16777215
176
     0
 74
     1
176
     0
 91
        4
176
     0
 64
     7
176
     0
 65
   257
176
     0
 75
     1
176
     0
175
     1
176
     0
 42
1.0
176
     0
 92
        8
176
     2
 66
     7
176
     0
 43
1.0
176
     0
 76
     1
176
     0
 77
     6
176
     0
 78
     2
176
     0
 67
     7
176
     0
 79
     5
176
     0
170
     0
176
     0
171
     0
176
     0
290
     0
176
     0
 93
        1
176
     0
 44
0.0
176
     0
173
     0
176
     0
  0
VISUALSTYLE
  5
10E1
102
{ACAD_REACTORS
330
10D2
102
}
330
10D2
100
AcDbVisualStyle
  2
Facepattern
 70
    15
177
     2
291
     1
 71
     2
176
     1
 72
     2
176
     1
 73
     0
176
     1
 90
        0
176
     1
 40
0.6
176
     1
 41
30.0
176
     1
 63
     7
176
     1
 74
     1
176
     1
 91
        4
176
     1
 64
     7
176
     1
 65
   257
176
     1
 75
     1
176
     1
175
     1
176
     1
 42
1.0
176
     1
 92
        8
176
     1
 66
     7
176
     1
 43
1.0
176
     1
 76
     1
176
     1
 77
     6
176
     1
 78
     2
176
     1
 67
     7
176
     1
 79
     5
176
     1
170
     0
176
     1
171
     0
176
     1
290
     0
176
     1
 93
        1
176
     1
 44
0.0
176
     1
173
     0
176
     1
  0
VISUALSTYLE
  5
10D3
102
{ACAD_REACTORS
330
10D2
102
}
330
10D2
100
AcDbVisualStyle
  2
Flat
 70
     0
177
     2
291
     1
 71
     2
176
     1
 72
     1
176
     1
 73
     1
176
     1
 90
        2
176
     1
 40
0.6
176
     1
 41
30.0
176
     1
 63
     7
176
     1
 74
     0
176
     1
 91
        4
176
     1
 64
     7
176
     1
 65
   257
176
     1
 75
     1
176
     1
175
     1
176
     1
 42
1.0
176
     1
 92
        8
176
     1
 66
     7
176
     1
 43
1.0
176
     1
 76
     1
176
     1
 77
     6
176
     1
 78
     2
176
     1
 67
     7
176
     1
 79
     5
176
     1
170
     0
176
     1
171
     0
176
     1
290
     0
176
     1
 93
       13
176
     1
 44
0.0
176
     1
173
     0
176
     1
  0
VISUALSTYLE
  5
10D4
102
{ACAD_REACTORS
330
10D2
102
}
330
10D2
100
AcDbVisualStyle
  2
FlatWithEdges
 70
     1
177
     2
291
     1
 71
     2
176
     1
 72
     1
176
     1
 73
     1
176
     1
 90
        2
176
     1
 40
0.6
176
     1
 41
30.0
176
     1
 63
     7
176
     1
 74
     1
176
     1
 91
        4
176
     1
 64
     7
176
     1
 65
   257
176
     1
 75
     1
176
     1
175
     1
176
     1
 42
1.0
176
     1
 92
        0
176
     1
 66
   257
176
     1
 43
1.0
176
     1
 76
     1
176
     1
 77
     6
176
     1
 78
     2
176
     1
 67
     7
176
     1
 79
     5
176
     1
170
     0
176
     1
171
     0
176
     1
290
     0
176
     1
 93
       13
176
     1
 44
0.0
176
     1
173
     0
176
     1
  0
VISUALSTYLE
  5
10D5
102
{ACAD_REACTORS
330
10D2
102
}
330
10D2
100
AcDbVisualStyle
  2
Gouraud
 70
     2
177
     2
291
     1
 71
     2
176
     1
 72
     2
176
     1
 73
     1
176
     1
 90
        2
176
     1
 40
0.6
176
     1
 41
30.0
176
     1
 63
     7
176
     1
 74
     0
176
     1
 91
        4
176
     1
 64
     7
176
     1
 65
   257
176
     1
 75
     1
176
     1
175
     1
176
     1
 42
1.0
176
     1
 92
        0
176
     1
 66
     7
176
     1
 43
1.0
176
     1
 76
     1
176
     1
 77
     6
176
     1
 78
     2
176
     1
 67
     7
176
     1
 79
     5
176
     1
170
     0
176
     1
171
     0
176
     1
290
     0
176
     1
 93
       13
176
     1
 44
0.0
176
     1
173
     0
176
     1
  0
VISUALSTYLE
  5
10D6
102
{ACAD_REACTORS
330
10D2
102
}
330
10D2
100
AcDbVisualStyle
  2
GouraudWithEdges
 70
     3
177
     2
291
     1
 71
     2
176
     1
 72
     2
176
     1
 73
     1
176
     1
 90
        2
176
     1
 40
0.6
176
     1
 41
30.0
176
     1
 63
     7
176
     1
 74
     1
176
     1
 91
        4
176
     1
 64
     7
176
     1
 65
   257
176
     1
 75
     1
176
     1
175
     1
176
     1
 42
1.0
176
     1
 92
        0
176
     1
 66
   257
176
     1
 43
1.0
176
     1
 76
     1
176
     1
 77
     6
176
     1
 78
     2
176
     1
 67
     7
176
     1
 79
     5
176
     1
170
     0
176
     1
171
     0
176
     1
290
     0
176
     1
 93
       13
176
     1
 44
0.0
176
     1
173
     0
176
     1
  0
VISUALSTYLE
  5
180A
102
{ACAD_REACTORS
330
10D2
102
}
330
10D2
100
AcDbVisualStyle
  2
Hidden
 70
     6
177
     2
291
     0
 71
     1
176
     1
 72
     2
176
     1
 73
     2
176
     1
 90
        0
176
     1
 40
0.6
176
     1
 41
30.0
176
     1
 63
     7
421
 16777215
176
     1
 74
     2
176
     1
 91
        2
176
     1
 64
     7
176
     1
 65
   257
176
     1
 75
     2
176
     1
175
     1
176
     1
 42
40.0
176
     1
 92
        0
176
     1
 66
   257
176
     1
 43
1.0
176
     1
 76
     1
176
     1
 77
     6
176
     1
 78
     2
176
     1
 67
     7
176
     1
 79
     3
176
     1
170
     0
176
     1
171
     0
176
     1
290
     0
176
     1
 93
        1
176
     1
 44
0.0
176
     1
173
     0
176
     1
  0
VISUALSTYLE
  5
1810
102
{ACAD_REACTORS
330
10D2
102
}
330
10D2
100
AcDbVisualStyle
  2
JitterOff
 70
    20
177
     2
291
     1
 71
     2
176
     0
 72
     2
176
     0
 73
     0
176
     0
 90
        0
176
     0
 40
0.6
176
     0
 41
30.0
176
     0
 63
     7
421
 16777215
176
     0
 74
     1
176
     0
 91
        4
176
     0
 64
     7
176
     0
 65
   257
176
     0
 75
     1
176
     0
175
     1
176
     0
 42
1.0
176
     0
 92
       10
176
     2
 66
     7
176
     0
 43
1.0
176
     0
 76
     1
176
     0
 77
     6
176
     0
 78
     2
176
     0
 67
     7
176
     0
 79
     5
176
     0
170
     0
176
     0
171
     0
176
     0
290
     0
176
     0
 93
        1
176
     0
 44
0.0
176
     0
173
     0
176
     0
  0
VISUALSTYLE
  5
10E0
102
{ACAD_REACTORS
330
10D2
102
}
330
10D2
100
AcDbVisualStyle
  2
Linepattern
 70
    14
177
     2
291
     1
 71
     2
176
     1
 72
     2
176
     1
 73
     0
176
     1
 90
        0
176
     1
 40
0.6
176
     1
 41
30.0
176
     1
 63
     7
176
     1
 74
     1
176
     1
 91
        4
176
     1
 64
     7
176
     1
 65
   257
176
     1
 75
     7
176
     1
175
     7
176
     1
 42
1.0
176
     1
 92
        8
176
     1
 66
     7
176
     1
 43
1.0
176
     1
 76
     1
176
     1
 77
     6
176
     1
 78
     2
176
     1
 67
     7
176
     1
 79
     5
176
     1
170
     0
176
     1
171
     0
176
     1
290
     0
176
     1
 93
        1
176
     1
 44
0.0
176
     1
173
     0
176
     1
  0
VISUALSTYLE
  5
1811
102
{ACAD_REACTORS
330
10D2
102
}
330
10D2
100
AcDbVisualStyle
  2
OverhangOff
 70
    21
177
     2
291
     1
 71
     2
176
     0
 72
     2
176
     0
 73
     0
176
     0
 90
        0
176
     0
 40
0.6
176
     0
 41
30.0
176
     0
 63
     7
421
 16777215
176
     0
 74
     1
176
     0
 91
        4
176
     0
 64
     7
176
     0
 65
   257
176
     0
 75
     1
176
     0
175
     1
176
     0
 42
1.0
176
     0
 92
        9
176
     2
 66
     7
176
     0
 43
1.0
176
     0
 76
     1
176
     0
 77
     6
176
     0
 78
     2
176
     0
 67
     7
176
     0
 79
     5
176
     0
170
     0
176
     0
171
     0
176
     0
290
     0
176
     0
 93
        1
176
     0
 44
0.0
176
     0
173
     0
176
     0
  0
VISUALSTYLE
  5
10DC
102
{ACAD_REACTORS
330
10D2
102
}
330
10D2
100
AcDbVisualStyle
  2
Realistic
 70
     8
177
     2
291
     0
 71
     2
176
     1
 72
     2
176
     1
 73
     0
176
     1
 90
        0
176
     1
 40
0.6
176
     1
 41
30.0
176
     1
 63
     7
176
     1
 74
     1
176
     1
 91
        0
176
     1
 64
     7
176
     1
 65
   257
176
     1
 75
     1
176
     1
175
     1
176
     1
 42
1.0
176
     1
 92
        8
176
     1
 66
     8
176
     1
 43
1.0
176
     1
 76
     1
176
     1
 77
     6
176
     1
 78
     2
176
     1
 67
     7
176
     1
 79
     5
176
     1
170
     0
176
     1
171
     0
176
     1
290
     0
176
     1
 93
       13
176
     1
 44
0.0
176
     1
173
     0
176
     1
  0
VISUALSTYLE
  5
180F
102
{ACAD_REACTORS
330
10D2
102
}
330
10D2
100
AcDbVisualStyle
  2
Shaded
 70
    27
177
     2
291
     0
 71
     2
176
     1
 72
     2
176
     1
 73
     1
176
     1
 90
        2
176
     1
 40
0.6
176
     1
 41
30.0
176
     1
 63
     7
421
 16777215
176
     1
 74
     0
176
     1
 91
        4
176
     1
 64
     7
176
     1
 65
   257
176
     1
 75
     1
176
     1
175
     1
176
     1
 42
1.0
176
     1
 92
        8
176
     1
 66
   257
176
     1
 43
1.0
176
     1
 76
     1
176
     1
 77
     6
176
     1
 78
     2
176
     1
 67
     8
425
  7895160
176
     1
 79
     3
176
     1
170
     0
176
     1
171
     0
176
     1
290
     0
176
     1
 93
        5
176
     1
 44
0.0
176
     1
173
     0
176
     1
  0
VISUALSTYLE
  5
180E
102
{ACAD_REACTORS
330
10D2
102
}
330
10D2
100
AcDbVisualStyle
  2
Shaded with edges
 70
    26
177
     2
291
     0
 71
     2
176
     1
 72
     2
176
     1
 73
     1
176
     1
 90
        2
176
     1
 40
0.6
176
     1
 41
30.0
176
     1
 63
     7
421
 16777215
176
     1
 74
     1
176
     1
 91
       10
176
     1
 64
     7
176
     1
 65
   257
176
     1
 75
     2
176
     1
175
     1
176
     1
 42
1.0
176
     1
 92
        8
176
     1
 66
   257
176
     1
 43
1.0
176
     1
 76
     1
176
     1
 77
     6
176
     1
 78
     2
176
     1
 67
     7
176
     1
 79
     3
176
     1
170
     0
176
     1
171
     0
176
     1
290
     0
176
     1
 93
        5
176
     1
 44
0.0
176
     1
173
     0
176
     1
  0
VISUALSTYLE
  5
180B
102
{ACAD_REACTORS
330
10D2
102
}
330
10D2
100
AcDbVisualStyle
  2
Shades of Gray
 70
    23
177
     2
291
     0
 71
     2
176
     1
 72
     2
176
     1
 73
     3
176
     1
 90
        0
176
     1
 40
0.6
176
     1
 41
30.0
176
     1
 63
     7
421
 16777215
176
     1
 74
     2
176
     1
 91
        2
176
     1
 64
     7
176
     1
 65
     7
176
     1
 75
     1
176
     1
175
     1
176
     1
 42
40.0
176
     1
 92
        8
176
     1
 66
     7
176
     1
 43
1.0
176
     1
 76
     1
176
     1
 77
     6
176
     1
 78
     2
176
     1
 67
     7
176
     1
 79
     3
176
     1
170
     0
176
     1
171
     0
176
     1
290
     0
176
     1
 93
        1
176
     1
 44
0.0
176
     1
173
     0
176
     1
  0
VISUALSTYLE
  5
180C
102
{ACAD_REACTORS
330
10D2
102
}
330
10D2
100
AcDbVisualStyle
  2
Sketchy
 70
    24
177
     2
291
     0
 71
     1
176
     1
 72
     2
176
     1
 73
     2
176
     1
 90
        0
176
     1
 40
0.6
176
     1
 41
30.0
176
     1
 63
     7
421
 16777215
176
     1
 74
     2
176
     1
 91
        2
176
     1
 64
     7
176
     1
 65
     7
176
     1
 75
     1
176
     1
175
     1
176
     1
 42
40.0
176
     1
 92
       11
176
     1
 66
     7
176
     1
 43
1.0
176
     1
 76
     1
176
     1
 77
     6
176
     1
 78
     2
176
     1
 67
     7
176
     1
 79
     6
176
     1
170
     0
176
     1
171
     0
176
     1
290
     0
176
     1
 93
        1
176
     1
 44
0.0
176
     1
173
     0
176
     1
  0
VISUALSTYLE
  5
10DF
102
{ACAD_REACTORS
330
10D2
102
}
330
10D2
100
AcDbVisualStyle
  2
Thicken
 70
    13
177
     2
291
     1
 71
     2
176
     1
 72
     2
176
     1
 73
     0
176
     1
 90
        0
176
     1
 40
0.6
176
     1
 41
30.0
176
     1
 63
     7
176
     1
 74
     1
176
     1
 91
        4
176
     1
 64
     7
176
     1
 65
   257
176
     1
 75
     1
176
     1
175
     1
176
     1
 42
1.0
176
     1
 92
       12
176
     1
 66
     7
176
     1
 43
1.0
176
     1
 76
     1
176
     1
 77
     6
176
     1
 78
     2
176
     1
 67
     7
176
     1
 79
     5
176
     1
170
     0
176
     1
171
     0
176
     1
290
     0
176
     1
 93
        1
176
     1
 44
0.0
176
     1
173
     0
176
     1
  0
VISUALSTYLE
  5
1809
102
{ACAD_REACTORS
330
10D2
102
}
330
10D2
100
AcDbVisualStyle
  2
Wireframe
 70
     5
177
     2
291
     0
 71
     0
176
     1
 72
     2
176
     1
 73
     0
176
     1
 90
        0
176
     1
 40
0.6
176
     1
 41
30.0
176
     1
 63
     7
421
 16777215
176
     1
 74
     1
176
     1
 91
        4
176
     1
 64
     7
176
     1
 65
   257
176
     1
 75
     1
176
     1
175
     1
176
     1
 42
1.0
176
     1
 92
        0
176
     1
 66
   257
176
     1
 43
1.0
176
     1
 76
     1
176
     1
 77
     6
176
     1
 78
     2
176
     1
 67
     7
176
     1
 79
     3
176
     1
170
     0
176
     1
171
     0
176
     1
290
     0
176
     1
 93
        1
176
     1
 44
0.0
176
     1
173
     0
176
     1
  0
VISUALSTYLE
  5
180D
102
{ACAD_REACTORS
330
10D2
102
}
330
10D2
100
AcDbVisualStyle
  2
X-Ray
 70
    25
177
     2
291
     0
 71
     2
176
     1
 72
     2
176
     1
 73
     1
176
     1
 90
        1
176
     1
 40
0.5
176
     1
 41
30.0
176
     1
 63
     7
421
 16777215
176
     1
 74
     1
176
     1
 91
        0
176
     1
 64
     7
176
     1
 65
   257
176
     1
 75
     1
176
     1
175
     1
176
     1
 42
1.0
176
     1
 92
        8
176
     1
 66
     7
176
     1
 43
1.0
176
     1
 76
     1
176
     1
 77
     6
176
     1
 78
     2
176
     1
 67
     7
176
     1
 79
     3
176
     1
170
     0
176
     1
171
     0
176
     1
290
     0
176
     1
 93
       13
176
     1
 44
0.0
176
     1
173
     0
176
     1
  0
DICTIONARYVAR
  5
1831
102
{ACAD_REACTORS
330
101C
102
}
330
101C
100
DictionaryVariables
280
     0
  1
1:1
  0
DICTIONARYVAR
  5
182F
102
{ACAD_REACTORS
330
101C
102
}
330
101C
100
DictionaryVariables
280
     0
  1
STANDARD
  0
DICTIONARYVAR
  5
101D
102
{ACAD_REACTORS
330
101C
102
}
330
101C
100
DictionaryVariables
280
     0
  1
STANDARD
  0
DICTIONARYVAR
  5
101E
102
{ACAD_REACTORS
330
101C
102
}
330
101C
100
DictionaryVariables
280
     0
  1
1
  0
DICTIONARYVAR
  5
1807
102
{ACAD_REACTORS
330
101C
102
}
330
101C
100
DictionaryVariables
280
     0
  1
0
  0
DICTIONARYVAR
  5
1833
102
{ACAD_REACTORS
330
101C
102
}
330
101C
100
DictionaryVariables
280
     0
  1
1
  0
DICTIONARYVAR
  5
1834
102
{ACAD_REACTORS
330
101C
102
}
330
101C
100
DictionaryVariables
280
     0
  1
15
  0
DICTIONARYVAR
  5
1832
102
{ACAD_REACTORS
330
101C
102
}
330
101C
100
DictionaryVariables
280
     0
  1
0
  0
DICTIONARYVAR
  5
1830
102
{ACAD_REACTORS
330
101C
102
}
330
101C
100
DictionaryVariables
280
     0
  1
0
  0
DICTIONARYVAR
  5
101F
102
{ACAD_REACTORS
330
101C
102
}
330
101C
100
DictionaryVariables
280
     0
  1

  0
DICTIONARYVAR
  5
1806
102
{ACAD_REACTORS
330
101C
102
}
330
101C
100
DictionaryVariables
280
     0
  1
127
  0
DICTIONARY
  5
FD2
102
{ACAD_REACTORS
330
FC5
102
}
330
FC5
100
AcDbDictionary
281
     1
  0
XRECORD
  5
FF1
102
{ACAD_REACTORS
330
FC5
102
}
330
FC5
100
AcDbXrecord
280
     1
 90
-1023410169
  0
DICTIONARY
  5
1835
330
F65
100
AcDbDictionary
280
     1
281
     1
  3
ACAD_ROUNDTRIP_2008_TABLESTYLE_CELLSTYLEMAP
360
1836
  0
CELLSTYLEMAP
  5
1836
102
{ACAD_REACTORS
330
1835
102
}
330
1835
100
AcDbCellStyleMap
 90
        3
300
CELLSTYLE
  1
TABLEFORMAT_BEGIN
 90
        5
170
     1
 91
        0
 92
    32768
 62
   257
 93
        1
300
CONTENTFORMAT
  1
CONTENTFORMAT_BEGIN
 90
        0
 91
        0
 92
        4
 93
        0
300

 40
0.0
140
1.0
 94
        5
 62
     0
340
10
144
0.25
309
CONTENTFORMAT_END
171
     0
 94
        6
 95
        1
302
GRIDFORMAT
  1
GRIDFORMAT_BEGIN
 90
        0
 91
        1
 62
     0
 92
       -2
340
0
 93
        0
 40
0.045
309
GRIDFORMAT_END
 95
        2
302
GRIDFORMAT
  1
GRIDFORMAT_BEGIN
 90
        0
 91
        1
 62
     0
 92
       -2
340
0
 93
        0
 40
0.045
309
GRIDFORMAT_END
 95
        4
302
GRIDFORMAT
  1
GRIDFORMAT_BEGIN
 90
        0
 91
        1
 62
     0
 92
       -2
340
0
 93
        0
 40
0.045
309
GRIDFORMAT_END
 95
        8
302
GRIDFORMAT
  1
GRIDFORMAT_BEGIN
 90
        0
 91
        1
 62
     0
 92
       -2
340
0
 93
        0
 40
0.045
309
GRIDFORMAT_END
 95
       16
302
GRIDFORMAT
  1
GRIDFORMAT_BEGIN
 90
        0
 91
        1
 62
     0
 92
       -2
340
0
 93
        0
 40
0.045
309
GRIDFORMAT_END
 95
       32
302
GRIDFORMAT
  1
GRIDFORMAT_BEGIN
 90
        0
 91
        1
 62
     0
 92
       -2
340
0
 93
        0
 40
0.045
309
GRIDFORMAT_END
309
TABLEFORMAT_END
  1
CELLSTYLE_BEGIN
 90
        1
 91
        1
300
_TITLE
309
CELLSTYLE_END
300
CELLSTYLE
  1
TABLEFORMAT_BEGIN
 90
        5
170
     1
 91
        0
 92
        0
 62
   257
 93
        1
300
CONTENTFORMAT
  1
CONTENTFORMAT_BEGIN
 90
        0
 91
        0
 92
        4
 93
        0
300

 40
0.0
140
1.0
 94
        5
 62
     0
340
10
144
0.18
309
CONTENTFORMAT_END
171
     0
 94
        6
 95
        1
302
GRIDFORMAT
  1
GRIDFORMAT_BEGIN
 90
        0
 91
        1
 62
     0
 92
       -2
340
0
 93
        0
 40
0.045
309
GRIDFORMAT_END
 95
        2
302
GRIDFORMAT
  1
GRIDFORMAT_BEGIN
 90
        0
 91
        1
 62
     0
 92
       -2
340
0
 93
        0
 40
0.045
309
GRIDFORMAT_END
 95
        4
302
GRIDFORMAT
  1
GRIDFORMAT_BEGIN
 90
        0
 91
        1
 62
     0
 92
       -2
340
0
 93
        0
 40
0.045
309
GRIDFORMAT_END
 95
        8
302
GRIDFORMAT
  1
GRIDFORMAT_BEGIN
 90
        0
 91
        1
 62
     0
 92
       -2
340
0
 93
        0
 40
0.045
309
GRIDFORMAT_END
 95
       16
302
GRIDFORMAT
  1
GRIDFORMAT_BEGIN
 90
        0
 91
        1
 62
     0
 92
       -2
340
0
 93
        0
 40
0.045
309
GRIDFORMAT_END
 95
       32
302
GRIDFORMAT
  1
GRIDFORMAT_BEGIN
 90
        0
 91
        1
 62
     0
 92
       -2
340
0
 93
        0
 40
0.045
309
GRIDFORMAT_END
309
TABLEFORMAT_END
  1
CELLSTYLE_BEGIN
 90
        2
 91
        1
300
_HEADER
309
CELLSTYLE_END
300
CELLSTYLE
  1
TABLEFORMAT_BEGIN
 90
        5
170
     1
 91
        0
 92
        0
 62
   257
 93
        1
300
CONTENTFORMAT
  1
CONTENTFORMAT_BEGIN
 90
        0
 91
        0
 92
        4
 93
        0
300

 40
0.0
140
1.0
 94
        2
 62
     0
340
10
144
0.18
309
CONTENTFORMAT_END
171
     0
 94
        6
 95
        1
302
GRIDFORMAT
  1
GRIDFORMAT_BEGIN
 90
        0
 91
        1
 62
     0
 92
       -2
340
0
 93
        0
 40
0.045
309
GRIDFORMAT_END
 95
        2
302
GRIDFORMAT
  1
GRIDFORMAT_BEGIN
 90
        0
 91
        1
 62
     0
 92
       -2
340
0
 93
        0
 40
0.045
309
GRIDFORMAT_END
 95
        4
302
GRIDFORMAT
  1
GRIDFORMAT_BEGIN
 90
        0
 91
        1
 62
     0
 92
       -2
340
0
 93
        0
 40
0.045
309
GRIDFORMAT_END
 95
        8
302
GRIDFORMAT
  1
GRIDFORMAT_BEGIN
 90
        0
 91
        1
 62
     0
 92
       -2
340
0
 93
        0
 40
0.045
309
GRIDFORMAT_END
 95
       16
302
GRIDFORMAT
  1
GRIDFORMAT_BEGIN
 90
        0
 91
        1
 62
     0
 92
       -2
340
0
 93
        0
 40
0.045
309
GRIDFORMAT_END
 95
       32
302
GRIDFORMAT
  1
GRIDFORMAT_BEGIN
 90
        0
 91
        1
 62
     0
 92
       -2
340
0
 93
        0
 40
0.045
309
GRIDFORMAT_END
309
TABLEFORMAT_END
  1
CELLSTYLE_BEGIN
 90
        3
 91
        2
300
_DATA
309
CELLSTYLE_END
  0
ENDSEC
  0
EOF
