  0
SECTION
  2
HEADER
  9
$ACADVER
  1
AC1024
  9
$ACADMAINTVER
 70
    37
  9
$DWGCODEPAGE
  3
ANSI_1252
  9
$LASTSAVEDBY
  1
jtigges
  9
$INSBASE
 10
0.0
 20
0.0
 30
0.0
  9
$EXTMIN
 10
-0.0039060711815466
 20
-0.002548101122315
 30
-0.0000000349181948
  9
$EXTMAX
 10
64.00390666724987
 20
41.75254848996414
 30
0.0000000814935746
  9
$LIMMIN
 10
0.0
 20
0.0
  9
$LIMMAX
 10
12.0
 20
9.0
  9
$ORTHOMODE
 70
     0
  9
$REGENMODE
 70
     1
  9
$FILLMODE
 70
     1
  9
$QTEXTMODE
 70
     0
  9
$MIRRTEXT
 70
     1
  9
$LTSCALE
 40
1.0
  9
$ATTMODE
 70
     1
  9
$TEXTSIZE
 40
0.2
  9
$TRACEWID
 40
0.05
  9
$TEXTSTYLE
  7
STANDARD
  9
$CLAYER
  8
0
  9
$CELTYPE
  6
BYLAYER
  9
$CECOLOR
 62
   256
  9
$CELTSCALE
 40
1.0
  9
$DISPSILH
 70
     0
  9
$DIMSCALE
 40
1.0
  9
$DIMASZ
 40
0.1875
  9
$DIMEXO
 40
0.1875
  9
$DIMDLI
 40
0.375
  9
$DIMRND
 40
0.0
  9
$DIMDLE
 40
0.0
  9
$DIMEXE
 40
0.09375
  9
$DIMTP
 40
0.0
  9
$DIMTM
 40
0.0
  9
$DIMTXT
 40
0.1875
  9
$DIMCEN
 40
0.09375
  9
$DIMTSZ
 40
0.0
  9
$DIMTOL
 70
     0
  9
$DIMLIM
 70
     0
  9
$DIMTIH
 70
     1
  9
$DIMTOH
 70
     1
  9
$DIMSE1
 70
     0
  9
$DIMSE2
 70
     0
  9
$DIMTAD
 70
     0
  9
$DIMZIN
 70
     0
  9
$DIMBLK
  1

  9
$DIMASO
 70
     1
  9
$DIMSHO
 70
     1
  9
$DIMPOST
  1

  9
$DIMAPOST
  1

  9
$DIMALT
 70
     0
  9
$DIMALTD
 70
     2
  9
$DIMALTF
 40
25.4
  9
$DIMLFAC
 40
1.0
  9
$DIMTOFL
 70
     0
  9
$DIMTVP
 40
0.0
  9
$DIMTIX
 70
     0
  9
$DIMSOXD
 70
     0
  9
$DIMSAH
 70
     0
  9
$DIMBLK1
  1

  9
$DIMBLK2
  1

  9
$DIMSTYLE
  2
STANDARD
  9
$DIMCLRD
 70
     0
  9
$DIMCLRE
 70
     0
  9
$DIMCLRT
 70
     0
  9
$DIMTFAC
 40
0.5
  9
$DIMGAP
 40
0.1875
  9
$DIMJUST
 70
     0
  9
$DIMSD1
 70
     0
  9
$DIMSD2
 70
     0
  9
$DIMTOLJ
 70
     1
  9
$DIMTZIN
 70
     0
  9
$DIMALTZ
 70
     0
  9
$DIMALTTZ
 70
     0
  9
$DIMUPT
 70
     0
  9
$DIMDEC
 70
     5
  9
$DIMTDEC
 70
     4
  9
$DIMALTU
 70
     2
  9
$DIMALTTD
 70
     2
  9
$DIMTXSTY
  7
STANDARD
  9
$DIMAUNIT
 70
     0
  9
$DIMADEC
 70
     0
  9
$DIMALTRND
 40
0.0
  9
$DIMAZIN
 70
     0
  9
$DIMDSEP
 70
    46
  9
$DIMATFIT
 70
     0
  9
$DIMFRAC
 70
     2
  9
$DIMLDRBLK
  1

  9
$DIMLUNIT
 70
     5
  9
$DIMLWD
 70
    -2
  9
$DIMLWE
 70
    -2
  9
$DIMTMOVE
 70
     0
  9
$DIMFXL
 40
1.0
  9
$DIMFXLON
 70
     0
  9
$DIMJOGANG
 40
0.7853981633974483
  9
$DIMTFILL
 70
     0
  9
$DIMTFILLCLR
 70
     0
  9
$DIMARCSYM
 70
     1
  9
$DIMLTYPE
  6

  9
$DIMLTEX1
  6

  9
$DIMLTEX2
  6

  9
$DIMTXTDIRECTION
 70
     0
  9
$LUNITS
 70
     5
  9
$LUPREC
 70
     5
  9
$SKETCHINC
 40
0.1
  9
$FILLETRAD
 40
0.0
  9
$AUNITS
 70
     0
  9
$AUPREC
 70
     1
  9
$MENU
  1
acad
  9
$ELEVATION
 40
0.0
  9
$PELEVATION
 40
0.0
  9
$THICKNESS
 40
0.0
  9
$LIMCHECK
 70
     0
  9
$CHAMFERA
 40
0.0
  9
$CHAMFERB
 40
0.0
  9
$CHAMFERC
 40
0.0
  9
$CHAMFERD
 40
0.0
  9
$SKPOLY
 70
     0
  9
$TDCREATE
 40
2450035.177149537
  9
$TDUCREATE
 40
2450035.427149537
  9
$TDUPDATE
 40
2456722.319770717
  9
$TDUUPDATE
 40
2456722.569770718
  9
$TDINDWG
 40
0.0369303125
  9
$TDUSRTIMER
 40
0.0369303125
  9
$USRTIMER
 70
     1
  9
$ANGBASE
 50
0.0
  9
$ANGDIR
 70
     0
  9
$PDMODE
 70
     0
  9
$PDSIZE
 40
0.0
  9
$PLINEWID
 40
0.0
  9
$SPLFRAME
 70
     0
  9
$SPLINETYPE
 70
     6
  9
$SPLINESEGS
 70
     8
  9
$HANDSEED
  5
1F9D
  9
$SURFTAB1
 70
     6
  9
$SURFTAB2
 70
     6
  9
$SURFTYPE
 70
     6
  9
$SURFU
 70
     6
  9
$SURFV
 70
     6
  9
$UCSBASE
  2

  9
$UCSNAME
  2

  9
$UCSORG
 10
0.0
 20
0.0
 30
0.0
  9
$UCSXDIR
 10
1.0
 20
0.0
 30
0.0
  9
$UCSYDIR
 10
0.0
 20
1.0
 30
0.0
  9
$UCSORTHOREF
  2

  9
$UCSORTHOVIEW
 70
     0
  9
$UCSORGTOP
 10
0.0
 20
0.0
 30
0.0
  9
$UCSORGBOTTOM
 10
0.0
 20
0.0
 30
0.0
  9
$UCSORGLEFT
 10
0.0
 20
0.0
 30
0.0
  9
$UCSORGRIGHT
 10
0.0
 20
0.0
 30
0.0
  9
$UCSORGFRONT
 10
0.0
 20
0.0
 30
0.0
  9
$UCSORGBACK
 10
0.0
 20
0.0
 30
0.0
  9
$PUCSBASE
  2

  9
$PUCSNAME
  2

  9
$PUCSORG
 10
0.0
 20
0.0
 30
0.0
  9
$PUCSXDIR
 10
1.0
 20
0.0
 30
0.0
  9
$PUCSYDIR
 10
0.0
 20
1.0
 30
0.0
  9
$PUCSORTHOREF
  2

  9
$PUCSORTHOVIEW
 70
     0
  9
$PUCSORGTOP
 10
0.0
 20
0.0
 30
0.0
  9
$PUCSORGBOTTOM
 10
0.0
 20
0.0
 30
0.0
  9
$PUCSORGLEFT
 10
0.0
 20
0.0
 30
0.0
  9
$PUCSORGRIGHT
 10
0.0
 20
0.0
 30
0.0
  9
$PUCSORGFRONT
 10
0.0
 20
0.0
 30
0.0
  9
$PUCSORGBACK
 10
0.0
 20
0.0
 30
0.0
  9
$USERI1
 70
     0
  9
$USERI2
 70
     0
  9
$USERI3
 70
     0
  9
$USERI4
 70
     0
  9
$USERI5
 70
     0
  9
$USERR1
 40
0.0
  9
$USERR2
 40
0.0
  9
$USERR3
 40
0.0
  9
$USERR4
 40
0.0
  9
$USERR5
 40
0.0
  9
$WORLDVIEW
 70
     1
  9
$SHADEDGE
 70
     3
  9
$SHADEDIF
 70
    70
  9
$TILEMODE
 70
     1
  9
$MAXACTVP
 70
    16
  9
$PINSBASE
 10
0.0
 20
0.0
 30
0.0
  9
$PLIMCHECK
 70
     0
  9
$PEXTMIN
 10
1.000000000000000E+20
 20
1.000000000000000E+20
 30
1.000000000000000E+20
  9
$PEXTMAX
 10
-1.000000000000000E+20
 20
-1.000000000000000E+20
 30
-1.000000000000000E+20
  9
$PLIMMIN
 10
0.0
 20
0.0
  9
$PLIMMAX
 10
12.0
 20
9.0
  9
$UNITMODE
 70
     0
  9
$VISRETAIN
 70
     0
  9
$PLINEGEN
 70
     0
  9
$PSLTSCALE
 70
     1
  9
$TREEDEPTH
 70
  3020
  9
$CMLSTYLE
  2
STANDARD
  9
$CMLJUST
 70
     0
  9
$CMLSCALE
 40
1.0
  9
$PROXYGRAPHICS
 70
     1
  9
$MEASUREMENT
 70
     0
  9
$CELWEIGHT
370
    -1
  9
$ENDCAPS
280
     0
  9
$JOINSTYLE
280
     0
  9
$LWDISPLAY
290
     0
  9
$INSUNITS
 70
     0
  9
$HYPERLINKBASE
  1

  9
$STYLESHEET
  1

  9
$XEDIT
290
     1
  9
$CEPSNTYPE
380
     0
  9
$PSTYLEMODE
290
     1
  9
$FINGERPRINTGUID
  2
{FAE641F8-93A2-4D04-8027-CB5674C8401A}
  9
$VERSIONGUID
  2
{29324818-D8FA-4E9A-B771-820B292150A3}
  9
$EXTNAMES
290
     1
  9
$PSVPSCALE
 40
0.0
  9
$OLESTARTUP
290
     0
  9
$SORTENTS
280
   127
  9
$INDEXCTL
280
     0
  9
$HIDETEXT
280
     0
  9
$XCLIPFRAME
280
     2
  9
$HALOGAP
280
     0
  9
$OBSCOLOR
 70
   257
  9
$OBSLTYPE
280
     0
  9
$INTERSECTIONDISPLAY
280
     0
  9
$INTERSECTIONCOLOR
 70
   257
  9
$DIMASSOC
280
     1
  9
$PROJECTNAME
  1

  9
$CAMERADISPLAY
290
     0
  9
$LENSLENGTH
 40
50.0
  9
$CAMERAHEIGHT
 40
0.0
  9
$STEPSPERSEC
 40
2.0
  9
$STEPSIZE
 40
6.0
  9
$3DDWFPREC
 40
2.0
  9
$PSOLWIDTH
 40
0.25
  9
$PSOLHEIGHT
 40
4.0
  9
$LOFTANG1
 40
1.570796326794896
  9
$LOFTANG2
 40
1.570796326794896
  9
$LOFTMAG1
 40
0.0
  9
$LOFTMAG2
 40
0.0
  9
$LOFTPARAM
 70
     7
  9
$LOFTNORMALS
280
     1
  9
$LATITUDE
 40
37.795
  9
$LONGITUDE
 40
-122.394
  9
$NORTHDIRECTION
 40
0.0
  9
$TIMEZONE
 70
 -8000
  9
$LIGHTGLYPHDISPLAY
280
     1
  9
$TILEMODELIGHTSYNCH
280
     1
  9
$CMATERIAL
347
10CF
  9
$SOLIDHIST
280
     1
  9
$SHOWHIST
280
     1
  9
$DWFFRAME
280
     2
  9
$DGNFRAME
280
     0
  9
$REALWORLDSCALE
290
     1
  9
$INTERFERECOLOR
 62
     1
  9
$INTERFEREOBJVS
345
10DC
  9
$INTERFEREVPVS
346
1F6E
  9
$CSHADOW
280
     0
  9
$SHADOWPLANELOCATION
 40
0.0
  0
ENDSEC
  0
SECTION
  2
CLASSES
  0
CLASS
  1
ACDBDICTIONARYWDFLT
  2
AcDbDictionaryWithDefault
  3
ObjectDBX Classes
 90
        0
 91
        1
280
     0
281
     0
  0
CLASS
  1
TABLESTYLE
  2
AcDbTableStyle
  3
ObjectDBX Classes
 90
     4095
 91
        1
280
     0
281
     0
  0
CLASS
  1
ACME_DOCUMENT
  2
AcMeDbDoc
  3
AcMeServices
 90
        0
 91
        0
280
     0
281
     0
  0
CLASS
  1
AMGSETTINGSOBJ
  2
AmgSettingsObj
  3
"AcadM|Product Description: AutoCAD Mechanical|Company: Autodesk"
 90
        0
 91
        0
280
     0
281
     0
  0
CLASS
  1
ACMESCOPE
  2
AcMeScope
  3
AcMeServices
 90
        0
 91
        0
280
     0
281
     0
  0
CLASS
  1
ACMECOMMANDHISTORY
  2
AcMeCommandHistory
  3
AcMeServices
 90
        0
 91
        0
280
     0
281
     0
  0
CLASS
  1
ACIMSYSVARMAN
  2
AcImSysVarManager
  3
AcMeServices
 90
        0
 91
        0
280
     0
281
     0
  0
CLASS
  1
ACIMINTSYSVAR
  2
AcImIntSysVar
  3
AcMeServices
 90
        0
 91
        0
280
     0
281
     0
  0
CLASS
  1
ACMEDRAWINGMAN
  2
AcMeDrawingMan
  3
AcMeServices
 90
        0
 91
        0
280
     0
281
     0
  0
CLASS
  1
ACMEVIEW
  2
AcMeView
  3
AcMeServices
 90
        0
 91
        0
280
     0
281
     0
  0
CLASS
  1
ACDBENTITYCACHE
  2
AcMeEntityCache
  3
AcMeServices
 90
        0
 91
        0
280
     0
281
     0
  0
CLASS
  1
GSMANAGER
  2
AcMeGSManager
  3
AcMeServices
 90
        0
 91
        0
280
     0
281
     0
  0
CLASS
  1
AMDTINTERNALREACTOR
  2
AmdtInternalReactor
  3
AcMeServices
 90
        0
 91
        0
280
     0
281
     0
  0
CLASS
  1
ACMESTATEMGR
  2
AcMeStateMgr
  3
AcMeServices
 90
        0
 91
        0
280
     0
281
     0
  0
CLASS
  1
ACGREFMASTER
  2
AcGrefMaster
  3
AcAttribServices
 90
        0
 91
        0
280
     0
281
     0
  0
CLASS
  1
AM_DRAWING_MGR
  2
AcDmDwgMgr
  3
AcMechDwgViewMgmt
 90
        0
 91
        0
280
     0
281
     0
  0
CLASS
  1
AM_DWG_DOCUMENT
  2
AcDmDwgDocument
  3
AcMechDwgViewMgmt
 90
        0
 91
        0
280
     0
281
     0
  0
CLASS
  1
AM_DWG_SHEET
  2
AcDmSheet
  3
AcMechDwgViewMgmt
 90
        0
 91
        0
280
     0
281
     0
  0
CLASS
  1
AM_VIEWDIMPARMAP
  2
AcDmViewDimParMap
  3
AcMechDwgViewMgmt
 90
        0
 91
        0
280
     0
281
     0
  0
CLASS
  1
ACIMREALSYSVAR
  2
AcImRealSysVar
  3
AcMeServices
 90
        0
 91
        0
280
     0
281
     0
  0
CLASS
  1
AM_DWGMGR_NAME
  2
AcDmDwgMgrName
  3
AcMechDwgViewMgmt
 90
        0
 91
        0
280
     0
281
     0
  0
CLASS
  1
ACME_DATABASE
  2
AcMeDbDatabase
  3
AcMeServices
 90
        0
 91
        0
280
     0
281
     0
  0
CLASS
  1
ACRFINSADJUSTERMGR
  2
AcRfInsAdjusterMgr
  3
AcMeServices
 90
        0
 91
        0
280
     0
281
     0
  0
CLASS
  1
ACGREFACADMASTER
  2
AcGrefacadMaster
  3
AcGrefServices
 90
        0
 91
        0
280
     0
281
     0
  0
CLASS
  1
AMDTMENUSTATEMGR
  2
AmdtMenuStateMgr
  3
McadcomServices
 90
        0
 91
        0
280
     0
281
     0
  0
CLASS
  1
AMDTMCOMMENUSTATE
  2
AmdtMcomMenuState
  3
McadcomServices
 90
        0
 91
        0
280
     0
281
     0
  0
CLASS
  1
AMIMASTER
  2
AmiMaster
  3
AmiServices
 90
        0
 91
        0
280
     0
281
     0
  0
CLASS
  1
MAPIAMMOUDLE
  2
MApiAmModule
  3
MApiAmServices
 90
        0
 91
        0
280
     0
281
     0
  0
CLASS
  1
AMDTADMENUSTATE
  2
AmdtAdMenuState
  3
DesignerServices
 90
        0
 91
        0
280
     0
281
     0
  0
CLASS
  1
ADAPPL
  2
AcAdAppl
  3
DesignerServices
 90
        0
 91
        0
280
     0
281
     0
  0
CLASS
  1
DEPMGR
  2
AcAdDepMgr
  3
DesignerServices
 90
        0
 91
        0
280
     0
281
     0
  0
CLASS
  1
PARAMMGR
  2
AcAdParamMgr
  3
DesignerServices
 90
        0
 91
        0
280
     0
281
     0
  0
CLASS
  1
PARAMSCOPE
  2
AcAdParamScope
  3
DesignerServices
 90
        0
 91
        0
280
     0
281
     0
  0
CLASS
  1
NAMEDAPPL
  2
AcAdNamedAppl
  3
DesignerServices
 90
        0
 91
        0
280
     0
281
     0
  0
CLASS
  1
AMDTDMMENUSTATE
  2
AmdtDmMenuState
  3
AcMechDwgViewMgmt
 90
        0
 91
        0
280
     0
281
     0
  0
CLASS
  1
AMDTAMMENUSTATE
  2
AmdtAmMenuState
  3
DesignerAssemblies
 90
        0
 91
        0
280
     0
281
     0
  0
CLASS
  1
ACIMSTRSYSVAR
  2
AcImStrSysVar
  3
AcMeServices
 90
        0
 91
        0
280
     0
281
     0
  0
CLASS
  1
ACAMPROJECT
  2
AcAmProject
  3
DesignerAssemblies
 90
        0
 91
        0
280
     0
281
     0
  0
CLASS
  1
ACAMGRCOMPDEF
  2
AcAmGrCompDef
  3
DesignerAssemblies
 90
        0
 91
        0
280
     0
281
     0
  0
CLASS
  1
ACCMCONTEXT
  2
AcCmContext
  3
DesignerAssemblies
 90
        0
 91
        0
280
     0
281
     0
  0
CLASS
  1
ACAMCOMPDEF
  2
AcAmCompDef
  3
DesignerAssemblies
 90
        0
 91
        0
280
     0
281
     0
  0
CLASS
  1
ACAMCOMPDEFMGR
  2
AcAmCompDefMgr
  3
DesignerAssemblies
 90
        0
 91
        0
280
     0
281
     0
  0
CLASS
  1
AMCONTEXTMGR
  2
AcAmContextMgr
  3
DesignerAssemblies
 90
        0
 91
        0
280
     0
281
     0
  0
CLASS
  1
ACAMCONTEXTMODELER
  2
AcAmContextModeler
  3
DesignerAssemblies
 90
        0
 91
        0
280
     0
281
     0
  0
CLASS
  1
ACMDATADICTIONARY
  2
AcmDataDictionary
  3
"AcmSymBB|Product Description: AutoCAD Mechanical|Company: Autodesk"
 90
        0
 91
        0
280
     0
281
     0
  0
CLASS
  1
CATALOGSTATE
  2
AcAmCatalogState
  3
DesignerAssemblies
 90
        0
 91
        0
280
     0
281
     0
  0
CLASS
  1
ACAMGRCOMPDEFSET
  2
AcAmGrCompDefSet
  3
DesignerAssemblies
 90
        0
 91
        0
280
     0
281
     0
  0
CLASS
  1
AMDTBROWSERDBTAB
  2
AmdtBrowserDbTab
  3
McadcomServices
 90
        0
 91
        0
280
     0
281
     0
  0
CLASS
  1
CBROWSERAPPOBJECT
  2
CBrowserAppObject
  3
McadcomServices
 90
        0
 91
        0
280
     0
281
     0
  0
CLASS
  1
DM_PLACEHOLDER
  2
AcDmSelsetPlaceholder
  3
AcMechDwgViewMgmt
 90
        0
 91
        0
280
     0
281
     0
  0
CLASS
  1
ACMSTANDARDANSI
  2
AcmStandardANSI
  3
"Amdt_StdImp|Product Description: AutoCAD Mechanical|Company: Autodesk"
 90
        0
 91
        0
280
     0
281
     0
  0
CLASS
  1
AMGOBJPROPCFG
  2
AmgObjPropCfg
  3
"AmgLay|Product Description: AutoCAD Mechanical|Company: Autodesk"
 90
        1
 91
        0
280
     0
281
     0
  0
CLASS
  1
ACMSURFSTANDARDANSI
  2
AcmSurfTextStdANSI
  3
"Amdt_StdImp|Product Description: AutoCAD Mechanical|Company: Autodesk"
 90
        0
 91
        0
280
     0
281
     0
  0
CLASS
  1
ACMFCFSTANDARDANSI
  2
AcmFCFStdANSI
  3
"Amdt_StdImp|Product Description: AutoCAD Mechanical|Company: Autodesk"
 90
        0
 91
        0
280
     0
281
     0
  0
CLASS
  1
ACMWELDSTANDARDANSI
  2
AcmWeldingStdANSI
  3
"Amdt_StdImp|Product Description: AutoCAD Mechanical|Company: Autodesk"
 90
        0
 91
        0
280
     0
281
     0
  0
CLASS
  1
ACMIDSTANDARDANSI
  2
AcmIdStdANSI
  3
"Amdt_StdImp|Product Description: AutoCAD Mechanical|Company: Autodesk"
 90
        0
 91
        0
280
     0
281
     0
  0
CLASS
  1
ACMDATUMSTANDARDANSI
  2
AcmDatumStdANSI
  3
"Amdt_StdImp|Product Description: AutoCAD Mechanical|Company: Autodesk"
 90
        0
 91
        0
280
     0
281
     0
  0
CLASS
  1
ACMBOMSTANDARDANSI
  2
AcmBOMStdANSI
  3
"Amdt_StdImp|Product Description: AutoCAD Mechanical|Company: Autodesk"
 90
        0
 91
        0
280
     0
281
     0
  0
CLASS
  1
ACMDETAILSTANDARDANSI
  2
AmdtDetailSymStdANSI
  3
"Amdt_StdImp|Product Description: AutoCAD Mechanical|Company: Autodesk"
 90
        0
 91
        0
280
     0
281
     0
  0
CLASS
  1
ACMSECTIONSTANDARDANSI
  2
AmdtSectionSymStdANSI
  3
"Amdt_StdImp|Product Description: AutoCAD Mechanical|Company: Autodesk"
 90
        0
 91
        0
280
     0
281
     0
  0
CLASS
  1
ACMCENTERLINESTANDARDANSI
  2
AmdtCenterLineStdANSI
  3
"Amdt_StdImp|Product Description: AutoCAD Mechanical|Company: Autodesk"
 90
        0
 91
        0
280
     0
281
     0
  0
CLASS
  1
ACMTHREADLINESTANDARDANSI
  2
AmdtThreadLineStdANSI
  3
"Amdt_StdImp|Product Description: AutoCAD Mechanical|Company: Autodesk"
 90
        0
 91
        0
280
     0
281
     0
  0
CLASS
  1
ACMNOTESTANDARDANSI
  2
AmdtNoteStdANSI
  3
"Amdt_StdImp|Product Description: AutoCAD Mechanical|Company: Autodesk"
 90
        0
 91
        0
280
     0
281
     0
  0
CLASS
  1
AMDTNOTETEMPLATEDB
  2
AmdtNoteTemplateDB
  3
AMDT_STDIMP_MODULE_NAME
 90
        0
 91
        0
280
     0
281
     0
  0
CLASS
  1
ACAMGLAYSTD
  2
AcAmgLayStd
  3
"AmgLay|Product Description: AutoCAD Mechanical|Company: Autodesk"
 90
        0
 91
        0
280
     0
281
     0
  0
CLASS
  1
ACAMGDIMSTD
  2
AcAmgDimStd
  3
"AmgDim|Product Description: AutoCAD Mechanical|Company: Autodesk"
 90
        0
 91
        0
280
     0
281
     0
  0
CLASS
  1
ACAMGHOLECHARTSTDANSI
  2
AcAmgHoleChartStdANSI
  3
ACMSYMBB_MODULE_NAME
 90
        0
 91
        0
280
     0
281
     0
  0
CLASS
  1
ACAMGTITLESTD
  2
AcAmgTitleStd
  3
"AmgTitle|Product Description: AutoCAD Mechanical|Company: Autodesk"
 90
        0
 91
        0
280
     0
281
     0
  0
CLASS
  1
ACAMGFILTERDAT
  2
AcAmgFilterDat
  3
"AcadM|Product Description: AutoCAD Mechanical|Company: Autodesk"
 90
        0
 91
        0
280
     0
281
     0
  0
CLASS
  1
DICTIONARYVAR
  2
AcDbDictionaryVar
  3
ObjectDBX Classes
 90
        0
 91
       11
280
     0
281
     0
  0
CLASS
  1
SORTENTSTABLE
  2
AcDbSortentsTable
  3
ObjectDBX Classes
 90
        0
 91
        1
280
     0
281
     0
  0
CLASS
  1
MATERIAL
  2
AcDbMaterial
  3
ObjectDBX Classes
 90
     1153
 91
        3
280
     0
281
     0
  0
CLASS
  1
VISUALSTYLE
  2
AcDbVisualStyle
  3
ObjectDBX Classes
 90
     4095
 91
       26
280
     0
281
     0
  0
CLASS
  1
ACMTAPERSTANDARDANSI
  2
AcmTaperStdANSI
  3
"Amdt_StdImp|Product Description: AutoCAD Mechanical|Company: Autodesk"
 90
        0
 91
        0
280
     0
281
     0
  0
CLASS
  1
CAMSSTRUCTBTNSTATE
  2
StructBtnState
  3
L"DesignerAssemblies"
 90
        0
 91
        0
280
     0
281
     0
  0
CLASS
  1
SCALE
  2
AcDbScale
  3
ObjectDBX Classes
 90
     1153
 91
       17
280
     0
281
     0
  0
CLASS
  1
MLEADERSTYLE
  2
AcDbMLeaderStyle
  3
ACDB_MLEADERSTYLE_CLASS
 90
     4095
 91
        1
280
     0
281
     0
  0
CLASS
  1
CELLSTYLEMAP
  2
AcDbCellStyleMap
  3
ObjectDBX Classes
 90
     1152
 91
        1
280
     0
281
     0
  0
ENDSEC
  0
SECTION
  2
TABLES
  0
TABLE
  2
VPORT
  5
8
102
{ACAD_XDICTIONARY
360
1F4E
102
}
330
0
100
AcDbSymbolTable
 70
     1
  0
VPORT
  5
10C8
330
8
100
AcDbSymbolTableRecord
100
AcDbViewportTableRecord
  2
*Active
 70
     0
 10
0.0
 20
0.0
 11
1.0
 21
1.0
 12
32.00000029803417
 22
20.87500019442091
 13
0.0
 23
0.0
 14
1.0
 24
1.0
 15
0.0
 25
0.0
 16
0.0
 26
0.0
 36
1.0
 17
0.0
 27
0.0
 37
0.0
 40
42.03818199170399
 41
2.16628959276018
 42
50.0
 43
0.0
 44
0.0
 50
0.0
 51
0.0
 71
     0
 72
   100
 73
     1
 74
     0
 75
     0
 76
     0
 77
     0
 78
     0
281
     0
 65
     1
110
0.0
120
0.0
130
0.0
111
1.0
121
0.0
131
0.0
112
0.0
122
1.0
132
0.0
 79
     0
146
0.0
348
10D8
 60
     3
 61
     5
292
     1
282
     1
141
0.0
142
0.0
 63
   250
421
  3355443
  0
ENDTAB
  0
TABLE
  2
LTYPE
  5
5
330
0
100
AcDbSymbolTable
 70
    16
  0
LTYPE
  5
12
330
5
100
AcDbSymbolTableRecord
100
AcDbLinetypeTableRecord
  2
BYBLOCK
 70
     0
  3

 72
    65
 73
     0
 40
0.0
  0
LTYPE
  5
13
330
5
100
AcDbSymbolTableRecord
100
AcDbLinetypeTableRecord
  2
BYLAYER
 70
     0
  3

 72
    65
 73
     0
 40
0.0
  0
LTYPE
  5
14
330
5
100
AcDbSymbolTableRecord
100
AcDbLinetypeTableRecord
  2
CONTINUOUS
 70
     0
  3
Solid line
 72
    65
 73
     0
 40
0.0
  0
LTYPE
  5
AF
330
5
100
AcDbSymbolTableRecord
100
AcDbLinetypeTableRecord
  2
HIDDEN
 70
     0
  3
_ _ _ _ _ _ _ _ _ _ _ _ _ _ _ _ _ _ _ _ _ _ _
 72
    65
 73
     2
 40
0.375
 49
0.25
 74
     0
 49
-0.125
 74
     0
  0
LTYPE
  5
B0
330
5
100
AcDbSymbolTableRecord
100
AcDbLinetypeTableRecord
  2
CENTER
 70
     0
  3
____ _ ____ _ ____ _ ____ _ ____ _ ____ _ ____
 72
    65
 73
     4
 40
2.0
 49
1.25
 74
     0
 49
-0.25
 74
     0
 49
0.25
 74
     0
 49
-0.25
 74
     0
  0
LTYPE
  5
1117
330
5
100
AcDbSymbolTableRecord
100
AcDbLinetypeTableRecord
  2
PHANTOM2
 70
     0
  3
Phantom (.5x) ___ _ _ ___ _ _ ___ _ _ ___ _ _
 72
    65
 73
     6
 40
1.25
 49
0.625
 74
     0
 49
-0.125
 74
     0
 49
0.125
 74
     0
 49
-0.125
 74
     0
 49
0.125
 74
     0
 49
-0.125
 74
     0
  0
LTYPE
  5
1145
330
5
100
AcDbSymbolTableRecord
100
AcDbLinetypeTableRecord
  2
AM_ISO02W050
 70
     0
  3
__ __ __ __ __ __ __ __ __ __ __ __ __ __ __
 72
    65
 73
     2
 40
7.5
 49
6.0
 74
     0
 49
-1.5
 74
     0
  0
LTYPE
  5
1146
330
5
100
AcDbSymbolTableRecord
100
AcDbLinetypeTableRecord
  2
AM_ISO08W050
 70
     0
  3
____ . ____ . ____ . ____ . ____ . ____ . ____
 72
    65
 73
     4
 40
18.0
 49
12.0
 74
     0
 49
-1.5
 74
     0
 49
3.0
 74
     0
 49
-1.5
 74
     0
  0
LTYPE
  5
1147
330
5
100
AcDbSymbolTableRecord
100
AcDbLinetypeTableRecord
  2
AM_ISO09W050
 70
     0
  3
_____ . . _____ . . _____ . . ____ .. ____
 72
    65
 73
     6
 40
22.5
 49
12.0
 74
     0
 49
-1.5
 74
     0
 49
3.0
 74
     0
 49
-1.5
 74
     0
 49
3.0
 74
     0
 49
-1.5
 74
     0
  0
LTYPE
  5
1148
330
5
100
AcDbSymbolTableRecord
100
AcDbLinetypeTableRecord
  2
Amconstr
 70
     0
  3
_______________________
 72
    65
 73
     2
 40
9999.0
 49
9999.0
 74
     0
 49
0.0
 74
     0
  0
LTYPE
  5
1149
330
5
100
AcDbSymbolTableRecord
100
AcDbLinetypeTableRecord
  2
AM_ISO08W050x2
 70
     0
  3
__ . __ . __ . __ . __ . __
 72
    65
 73
     4
 40
9.0
 49
6.0
 74
     0
 49
-0.75
 74
     0
 49
1.5
 74
     0
 49
-0.75
 74
     0
  0
LTYPE
  5
114A
330
5
100
AcDbSymbolTableRecord
100
AcDbLinetypeTableRecord
  2
AM_ISO02W050x2
 70
     0
  3
 _ _ _ _ _ _ _ _ _ _ _ _
 72
    65
 73
     2
 40
3.75
 49
3.0
 74
     0
 49
-0.75
 74
     0
  0
LTYPE
  5
114D
330
5
100
AcDbSymbolTableRecord
100
AcDbLinetypeTableRecord
  2
Amzigzag
 70
     0
  3
/\/-/\/-/\/-/\/-/\/-/\/
 72
    65
 73
     2
 40
11.0001
 49
0.0001
 74
     4
 75
   136
340
114C
 46
0.04
 50
0.0
 44
0.0
 45
0.0
 49
-11.0
 74
     0
  0
LTYPE
  5
114E
330
5
100
AcDbSymbolTableRecord
100
AcDbLinetypeTableRecord
  2
CENTER2
 70
     0
  3
Center (.5x) ___ _ ___ _ ___ _ ___ _ ___ _ ___
 72
    65
 73
     4
 40
1.125
 49
0.75
 74
     0
 49
-0.125
 74
     0
 49
0.125
 74
     0
 49
-0.125
 74
     0
  0
LTYPE
  5
114F
330
5
100
AcDbSymbolTableRecord
100
AcDbLinetypeTableRecord
  2
HIDDEN2
 70
     0
  3
Hidden (.5x) _ _ _ _ _ _ _ _ _ _ _ _ _ _ _ _ _
 72
    65
 73
     2
 40
0.1875
 49
0.125
 74
     0
 49
-0.0625
 74
     0
  0
LTYPE
  5
1150
330
5
100
AcDbSymbolTableRecord
100
AcDbLinetypeTableRecord
  2
Amzigzag2
 70
     0
  3
/\/-/\/-/\/-/\/-/\/-/\/
 72
    65
 73
     2
 40
0.4401
 49
0.0001
 74
     4
 75
   136
340
114C
 46
0.0016
 50
0.0
 44
0.0
 45
0.0
 49
-0.4400000000000001
 74
     0
  0
LTYPE
  5
115F
330
5
100
AcDbSymbolTableRecord
100
AcDbLinetypeTableRecord
  2
ACANSTGB
 70
     0
  3
__ . . __ . .
 72
    65
 73
     6
 40
0.35433070866
 49
0.15748031496
 74
     0
 49
-0.03937007874
 74
     0
 49
0.03937007874
 74
     0
 49
-0.03937007874
 74
     0
 49
0.03937007874
 74
     0
 49
-0.03937007874
 74
     0
  0
LTYPE
  5
1160
330
5
100
AcDbSymbolTableRecord
100
AcDbLinetypeTableRecord
  2
ACANSTGL
 70
     0
  3
_ _ _ _ _
 72
    65
 73
     2
 40
0.11811023622
 49
0.07874015748
 74
     0
 49
-0.03937007874
 74
     0
  0
ENDTAB
  0
TABLE
  2
LAYER
  5
2
330
0
100
AcDbSymbolTable
 70
     7
  0
LAYER
  5
F
330
2
100
AcDbSymbolTableRecord
100
AcDbLayerTableRecord
  2
0
 70
     0
 62
     7
  6
CONTINUOUS
370
    -3
390
F61
347
10D1
  0
LAYER
  5
B3
330
2
100
AcDbSymbolTableRecord
100
AcDbLayerTableRecord
  2
DIM
 70
     0
 62
     3
  6
CONTINUOUS
370
    -3
390
F61
347
10D1
  0
LAYER
  5
B4
330
2
100
AcDbSymbolTableRecord
100
AcDbLayerTableRecord
  2
HATCH
 70
     0
 62
     4
  6
CONTINUOUS
370
    -3
390
F61
347
10D1
  0
LAYER
  5
B6
330
2
100
AcDbSymbolTableRecord
100
AcDbLayerTableRecord
  2
HIDE
 70
     0
 62
     5
  6
HIDDEN
370
    -3
390
F61
347
10D1
  0
LAYER
  5
B7
330
2
100
AcDbSymbolTableRecord
100
AcDbLayerTableRecord
  2
CENTER
 70
     0
 62
     2
  6
CENTER
370
    -3
390
F61
347
10D1
  0
LAYER
  5
B8
330
2
100
AcDbSymbolTableRecord
100
AcDbLayerTableRecord
  2
TITLE
 70
     0
 62
     1
  6
CONTINUOUS
370
    -3
390
F61
347
10D1
  0
LAYER
  5
B9
330
2
100
AcDbSymbolTableRecord
100
AcDbLayerTableRecord
  2
DEFPOINTS
 70
     0
 62
    -7
  6
CONTINUOUS
290
     0
370
    -3
390
F61
347
10D1
  0
ENDTAB
  0
TABLE
  2
STYLE
  5
3
330
0
100
AcDbSymbolTable
 70
     7
  0
STYLE
  5
10
330
3
100
AcDbSymbolTableRecord
100
AcDbTextStyleTableRecord
  2
STANDARD
 70
     0
 40
0.0
 41
1.0
 50
0.0
 71
     0
 42
0.2
  3
txt
  4

  0
STYLE
  5
AD
330
3
100
AcDbSymbolTableRecord
100
AcDbTextStyleTableRecord
  2
ITALIC
 70
     0
 40
0.0
 41
1.0
 50
0.0
 71
     0
 42
0.2
  3
txt
  4

  0
STYLE
  5
AE
330
3
100
AcDbSymbolTableRecord
100
AcDbTextStyleTableRecord
  2
COMPLEX
 70
     0
 40
0.0
 41
1.0
 50
0.0
 71
     0
 42
0.156
  3
ROMANC
  4

  0
STYLE
  5
DBB
330
3
100
AcDbSymbolTableRecord
100
AcDbTextStyleTableRecord
  2
STYLE1
 70
     0
 40
0.0
 41
1.0
 50
0.0
 71
     0
 42
0.25
  3
swiss.ttf
  4

1001
ACAD
1000
Swis721 BT
1071
       34
  0
STYLE
  5
114C
330
3
100
AcDbSymbolTableRecord
100
AcDbTextStyleTableRecord
  2

 70
     1
 40
0.0
 41
1.0
 50
0.0
 71
     0
 42
0.2
  3
genltshp.shx
  4

  0
STYLE
  5
1151
330
3
100
AcDbSymbolTableRecord
100
AcDbTextStyleTableRecord
  2
ACANSTS
 70
     0
 40
1.0
 41
1.0
 50
0.0
 71
     0
 42
0.2
  3
romans.shx
  4

  0
STYLE
  5
115E
330
3
100
AcDbSymbolTableRecord
100
AcDbTextStyleTableRecord
  2
ACANSGDT
 70
     0
 40
0.0
 41
1.0
 50
0.0
 71
     0
 42
0.2
  3
amgdt.shx
  4

  0
ENDTAB
  0
TABLE
  2
VIEW
  5
6
330
0
100
AcDbSymbolTable
 70
     0
  0
ENDTAB
  0
TABLE
  2
UCS
  5
7
330
0
100
AcDbSymbolTable
 70
     0
  0
ENDTAB
  0
TABLE
  2
APPID
  5
9
330
0
100
AcDbSymbolTable
 70
    10
  0
APPID
  5
11
330
9
100
AcDbSymbolTableRecord
100
AcDbRegAppTableRecord
  2
ACAD
 70
     0
  0
APPID
  5
F74
330
9
100
AcDbSymbolTableRecord
100
AcDbRegAppTableRecord
  2
MCAD_NO_VIS
 70
     0
  0
APPID
  5
F75
330
9
100
AcDbSymbolTableRecord
100
AcDbRegAppTableRecord
  2
ACAD_TEMP_GRAPHIC
 70
     0
  0
APPID
  5
FA3
330
9
100
AcDbSymbolTableRecord
100
AcDbRegAppTableRecord
  2
AD_DRAW
 70
     0
  0
APPID
  5
FA6
330
9
100
AcDbSymbolTableRecord
100
AcDbRegAppTableRecord
  2
ACATTRIBSERVICES
 70
     0
  0
APPID
  5
FC4
330
9
100
AcDbSymbolTableRecord
100
AcDbRegAppTableRecord
  2
DESIGNERASSEMBLIES
 70
     0
  0
APPID
  5
FCA
330
9
100
AcDbSymbolTableRecord
100
AcDbRegAppTableRecord
  2
ACADM_DIM_EDIT
 70
     0
  0
APPID
  5
FCB
330
9
100
AcDbSymbolTableRecord
100
AcDbRegAppTableRecord
  2
AMDT_DM_ADJ
 70
     0
  0
APPID
  5
100D
330
9
100
AcDbSymbolTableRecord
100
AcDbRegAppTableRecord
  2
ACAD_PSEXT
 70
     0
  0
APPID
  5
1F6A
330
9
100
AcDbSymbolTableRecord
100
AcDbRegAppTableRecord
  2
ACAD_DSTYLE_DIMARC_LENGTH_SYMBOL
 70
     0
  0
ENDTAB
  0
TABLE
  2
DIMSTYLE
  5
A
330
0
100
AcDbSymbolTable
 70
     7
100
AcDbDimStyleTable
 71
     1
340
A44
  0
DIMSTYLE
105
A44
102
{ACAD_REACTORS
330
1BEA
330
1BEC
330
1BED
330
1C07
330
1C08
330
1C0B
330
1C0C
330
1C0D
330
1C0F
330
1C10
330
1C11
330
1C12
330
1C13
330
1C1A
330
1C1B
330
1C1C
330
1C1D
330
1C30
330
1C31
330
1C3C
330
1C3D
330
1C91
330
1C93
330
1CC7
330
1CC8
330
1CC9
330
1CCA
330
1CCC
102
}
330
A
100
AcDbSymbolTableRecord
100
AcDbDimStyleTableRecord
  2
STANDARD
 70
     0
340
10
  0
DIMSTYLE
105
116A
330
A
100
AcDbSymbolTableRecord
100
AcDbDimStyleTableRecord
  2
AM_ANSI
 70
     0
  4
mm
 41
0.1
 42
0.05
 43
0.5
 44
0.1
 47
0.1
 48
0.1
 78
     7
 79
     2
 90
     1
140
0.12
141
0.0
146
0.71
147
0.06
176
   256
177
   256
178
     2
274
     4
284
     7
340
10
371
    -1
372
    -1
  0
DIMSTYLE
105
116B
330
A
100
AcDbSymbolTableRecord
100
AcDbDimStyleTableRecord
  2
AM_ANSI$3
 70
     0
  4
mm
 41
0.1
 42
0.05
 43
0.5
 44
0.1
 47
0.1
 48
0.1
 78
     7
 79
     2
 90
     1
140
0.12
141
0.0
146
0.71
147
0.06
176
   256
177
   256
178
     2
274
     4
284
     7
288
     1
289
     0
340
10
371
    -1
372
    -1
  0
DIMSTYLE
105
116C
330
A
100
AcDbSymbolTableRecord
100
AcDbDimStyleTableRecord
  2
AM_ANSI$4
 70
     0
  4
mm
 41
0.1
 42
0.05
 43
0.5
 44
0.1
 47
0.1
 48
0.1
 78
     7
 79
     2
 90
     1
140
0.12
141
0.0
146
0.71
147
0.06
176
   256
177
   256
178
     2
274
     4
284
     7
288
     1
289
     0
340
10
371
    -1
372
    -1
  0
DIMSTYLE
105
116D
330
A
100
AcDbSymbolTableRecord
100
AcDbDimStyleTableRecord
  2
AM_ANSI$7
 70
     0
  4
mm
 41
0.1
 42
0.05
 43
0.5
 44
0.1
 47
0.1
 48
0.1
 78
     7
 79
     2
 90
     1
140
0.24
141
0.0
146
0.71
147
0.06
176
   256
177
   256
178
     2
274
     4
284
     7
340
10
371
    -1
372
    -1
  0
DIMSTYLE
105
116E
330
A
100
AcDbSymbolTableRecord
100
AcDbDimStyleTableRecord
  2
AM_ANSI$SF
 70
     0
  4
mm
 41
0.1
 42
0.05
 43
0.5
 44
0.1
 47
0.1
 48
0.1
 75
     1
 76
     1
 78
     7
 79
     2
 90
     1
140
0.12
141
0.0
146
0.71
147
0.06
176
   256
177
   256
178
     2
274
     4
284
     7
340
10
371
    -1
372
    -1
  0
DIMSTYLE
105
1173
330
A
100
AcDbSymbolTableRecord
100
AcDbDimStyleTableRecord
  2
AM_ANSI$SH
 70
     0
  4
mm
 41
0.1
 42
0.05
 43
0.5
 44
0.1
 47
0.1
 48
0.1
 75
     1
 76
     1
 78
     7
 79
     2
 90
     1
140
0.12
141
0.0
146
0.71
147
0.06
173
     1
176
   256
177
   256
178
     2
274
     4
284
     7
340
10
343
116F
371
    -1
372
    -1
  0
ENDTAB
  0
TABLE
  2
BLOCK_RECORD
  5
1
330
0
100
AcDbSymbolTable
 70
   158
  0
BLOCK_RECORD
  5
18
102
{ACAD_XDICTIONARY
360
10B1
102
}
330
1
100
AcDbSymbolTableRecord
100
AcDbBlockTableRecord
  2
*MODEL_SPACE
340
F68
 70
     0
280
     1
281
     0
  0
BLOCK_RECORD
  5
15
330
1
100
AcDbSymbolTableRecord
100
AcDbBlockTableRecord
  2
*PAPER_SPACE
340
F69
 70
     0
280
     1
281
     0
  0
BLOCK_RECORD
  5
28
330
1
100
AcDbSymbolTableRecord
100
AcDbBlockTableRecord
  2
SAATX
340
0
102
{BLKREFS
331
1BEE
102
}
 70
     0
280
     1
281
     0
  0
BLOCK_RECORD
  5
29
330
1
100
AcDbSymbolTableRecord
100
AcDbBlockTableRecord
  2
SBBTX
340
0
102
{BLKREFS
331
1BEF
102
}
 70
     0
280
     1
281
     0
  0
BLOCK_RECORD
  5
2A
330
1
100
AcDbSymbolTableRecord
100
AcDbBlockTableRecord
  2
SAAR
340
0
102
{BLKREFS
331
1C19
102
}
 70
     0
280
     1
281
     0
  0
BLOCK_RECORD
  5
2B
330
1
100
AcDbSymbolTableRecord
100
AcDbBlockTableRecord
  2
*X3
340
0
102
{BLKREFS
331
561
102
}
 70
     0
280
     1
281
     0
  0
BLOCK_RECORD
  5
2C
330
1
100
AcDbSymbolTableRecord
100
AcDbBlockTableRecord
  2
SBBT
340
0
102
{BLKREFS
331
1C18
102
}
 70
     0
280
     1
281
     0
  0
BLOCK_RECORD
  5
2D
330
1
100
AcDbSymbolTableRecord
100
AcDbBlockTableRecord
  2
*X5
340
0
102
{BLKREFS
331
596
102
}
 70
     0
280
     1
281
     0
  0
BLOCK_RECORD
  5
2E
330
1
100
AcDbSymbolTableRecord
100
AcDbBlockTableRecord
  2
SBBB
340
0
102
{BLKREFS
331
1C17
102
}
 70
     0
280
     1
281
     0
  0
BLOCK_RECORD
  5
2F
330
1
100
AcDbSymbolTableRecord
100
AcDbBlockTableRecord
  2
*X7
340
0
102
{BLKREFS
331
5E5
102
}
 70
     0
280
     1
281
     0
  0
BLOCK_RECORD
  5
32
330
1
100
AcDbSymbolTableRecord
100
AcDbBlockTableRecord
  2
SAAL
340
0
102
{BLKREFS
331
1BEB
102
}
 70
     0
280
     1
281
     0
  0
BLOCK_RECORD
  5
33
330
1
100
AcDbSymbolTableRecord
100
AcDbBlockTableRecord
  2
*X11
340
0
102
{BLKREFS
331
65E
102
}
 70
     0
280
     1
281
     0
  0
BLOCK_RECORD
  5
116F
330
1
100
AcDbSymbolTableRecord
100
AcDbBlockTableRecord
  2
GENAXEH
340
0
 70
     0
280
     1
281
     0
  0
BLOCK_RECORD
  5
1863
330
1
100
AcDbSymbolTableRecord
100
AcDbBlockTableRecord
  2
*X97
340
0
102
{BLKREFS
331
1C0E
102
}
 70
     0
280
     1
281
     0
  0
BLOCK_RECORD
  5
1892
330
1
100
AcDbSymbolTableRecord
100
AcDbBlockTableRecord
  2
*X98
340
0
102
{BLKREFS
331
1BF6
102
}
 70
     0
280
     1
281
     0
  0
BLOCK_RECORD
  5
18DB
330
1
100
AcDbSymbolTableRecord
100
AcDbBlockTableRecord
  2
*X100
340
0
102
{BLKREFS
331
1C89
102
}
 70
     0
280
     1
281
     0
  0
BLOCK_RECORD
  5
1929
330
1
100
AcDbSymbolTableRecord
100
AcDbBlockTableRecord
  2
*X101
340
0
102
{BLKREFS
331
1C8A
102
}
 70
     0
280
     1
281
     0
  0
BLOCK_RECORD
  5
1CCD
330
1
100
AcDbSymbolTableRecord
100
AcDbBlockTableRecord
  2
*D130
340
0
 70
     0
280
     1
281
     0
  0
BLOCK_RECORD
  5
1CDA
330
1
100
AcDbSymbolTableRecord
100
AcDbBlockTableRecord
  2
*D131
340
0
 70
     0
280
     1
281
     0
  0
BLOCK_RECORD
  5
1CE7
330
1
100
AcDbSymbolTableRecord
100
AcDbBlockTableRecord
  2
*D132
340
0
 70
     0
280
     1
281
     0
  0
BLOCK_RECORD
  5
1CF4
330
1
100
AcDbSymbolTableRecord
100
AcDbBlockTableRecord
  2
*D133
340
0
 70
     0
280
     1
281
     0
  0
BLOCK_RECORD
  5
1D01
330
1
100
AcDbSymbolTableRecord
100
AcDbBlockTableRecord
  2
*D134
340
0
 70
     0
280
     1
281
     0
  0
BLOCK_RECORD
  5
1D0E
330
1
100
AcDbSymbolTableRecord
100
AcDbBlockTableRecord
  2
*D135
340
0
 70
     0
280
     1
281
     0
  0
BLOCK_RECORD
  5
1D1B
330
1
100
AcDbSymbolTableRecord
100
AcDbBlockTableRecord
  2
*D136
340
0
 70
     0
280
     1
281
     0
  0
BLOCK_RECORD
  5
1D28
330
1
100
AcDbSymbolTableRecord
100
AcDbBlockTableRecord
  2
*D137
340
0
 70
     0
280
     1
281
     0
  0
BLOCK_RECORD
  5
1D35
330
1
100
AcDbSymbolTableRecord
100
AcDbBlockTableRecord
  2
*D138
340
0
 70
     0
280
     1
281
     0
  0
BLOCK_RECORD
  5
1D42
330
1
100
AcDbSymbolTableRecord
100
AcDbBlockTableRecord
  2
*D139
340
0
 70
     0
280
     1
281
     0
  0
BLOCK_RECORD
  5
1D4F
330
1
100
AcDbSymbolTableRecord
100
AcDbBlockTableRecord
  2
*D140
340
0
 70
     0
280
     1
281
     0
  0
BLOCK_RECORD
  5
1D5C
330
1
100
AcDbSymbolTableRecord
100
AcDbBlockTableRecord
  2
*D141
340
0
 70
     0
280
     1
281
     0
  0
BLOCK_RECORD
  5
1D69
330
1
100
AcDbSymbolTableRecord
100
AcDbBlockTableRecord
  2
*D142
340
0
 70
     0
280
     1
281
     0
  0
BLOCK_RECORD
  5
1D76
330
1
100
AcDbSymbolTableRecord
100
AcDbBlockTableRecord
  2
*D143
340
0
 70
     0
280
     1
281
     0
  0
BLOCK_RECORD
  5
1D83
330
1
100
AcDbSymbolTableRecord
100
AcDbBlockTableRecord
  2
*D144
340
0
 70
     0
280
     1
281
     0
  0
BLOCK_RECORD
  5
1D90
330
1
100
AcDbSymbolTableRecord
100
AcDbBlockTableRecord
  2
*D145
340
0
 70
     0
280
     1
281
     0
  0
BLOCK_RECORD
  5
1D9D
330
1
100
AcDbSymbolTableRecord
100
AcDbBlockTableRecord
  2
*D146
340
0
 70
     0
280
     1
281
     0
  0
BLOCK_RECORD
  5
1DAA
330
1
100
AcDbSymbolTableRecord
100
AcDbBlockTableRecord
  2
*D147
340
0
 70
     0
280
     1
281
     0
  0
BLOCK_RECORD
  5
1DB8
330
1
100
AcDbSymbolTableRecord
100
AcDbBlockTableRecord
  2
*D148
340
0
 70
     0
280
     1
281
     0
  0
BLOCK_RECORD
  5
1DC6
330
1
100
AcDbSymbolTableRecord
100
AcDbBlockTableRecord
  2
*D149
340
0
 70
     0
280
     1
281
     0
  0
BLOCK_RECORD
  5
1DD3
330
1
100
AcDbSymbolTableRecord
100
AcDbBlockTableRecord
  2
*D150
340
0
 70
     0
280
     1
281
     0
  0
BLOCK_RECORD
  5
1DE0
330
1
100
AcDbSymbolTableRecord
100
AcDbBlockTableRecord
  2
*D151
340
0
 70
     0
280
     1
281
     0
  0
BLOCK_RECORD
  5
1DEB
330
1
100
AcDbSymbolTableRecord
100
AcDbBlockTableRecord
  2
*D152
340
0
 70
     0
280
     1
281
     0
  0
BLOCK_RECORD
  5
1DF6
330
1
100
AcDbSymbolTableRecord
100
AcDbBlockTableRecord
  2
*D153
340
0
 70
     0
280
     1
281
     0
  0
BLOCK_RECORD
  5
1E03
330
1
100
AcDbSymbolTableRecord
100
AcDbBlockTableRecord
  2
*D154
340
0
 70
     0
280
     1
281
     0
  0
BLOCK_RECORD
  5
1E10
330
1
100
AcDbSymbolTableRecord
100
AcDbBlockTableRecord
  2
*D155
340
0
 70
     0
280
     1
281
     0
  0
BLOCK_RECORD
  5
1E1D
330
1
100
AcDbSymbolTableRecord
100
AcDbBlockTableRecord
  2
*D156
340
0
 70
     0
280
     1
281
     0
  0
BLOCK_RECORD
  5
1E2A
330
1
100
AcDbSymbolTableRecord
100
AcDbBlockTableRecord
  2
*D157
340
0
 70
     0
280
     1
281
     0
  0
ENDTAB
  0
ENDSEC
  0
SECTION
  2
BLOCKS
  0
BLOCK
  5
BC
330
18
100
AcDbEntity
  8
0
100
AcDbBlockBegin
  2
*MODEL_SPACE
 70
     0
 10
0.0
 20
0.0
 30
0.0
  3
*MODEL_SPACE
  1

  0
ENDBLK
  5
BD
330
18
100
AcDbEntity
  8
0
100
AcDbBlockEnd
  0
BLOCK
  5
BA
330
15
100
AcDbEntity
 67
     1
  8
0
100
AcDbBlockBegin
  2
*PAPER_SPACE
 70
     0
 10
0.0
 20
0.0
 30
0.0
  3
*PAPER_SPACE
  1

  0
ENDBLK
  5
BB
330
15
100
AcDbEntity
 67
     1
  8
0
100
AcDbBlockEnd
  0
BLOCK
  5
548
330
28
100
AcDbEntity
  8
0
100
AcDbBlockBegin
  2
SAATX
 70
     0
 10
0.0
 20
0.0
 30
0.0
  3
SAATX
  1

  0
LINE
  5
549
330
28
100
AcDbEntity
  8
0
100
AcDbLine
 10
-0.8421662700371435
 20
0.0
 30
0.0
 11
0.8421662700371435
 21
0.0
 31
0.0
  0
LINE
  5
54A
330
28
100
AcDbEntity
  8
0
100
AcDbLine
 10
-0.8421662700371435
 20
0.0199999999999996
 30
0.0
 11
0.8421662700371435
 21
0.0199999999999996
 31
0.0
  0
TEXT
  5
54B
330
28
100
AcDbEntity
  8
0
100
AcDbText
 10
-0.8455144018028244
 20
0.0551412039750448
 30
0.0
 40
0.156
  1
SECTION A-A
  7
COMPLEX
100
AcDbText
  0
ENDBLK
  5
54C
330
28
100
AcDbEntity
  8
0
100
AcDbBlockEnd
  0
BLOCK
  5
54D
330
29
100
AcDbEntity
  8
0
100
AcDbBlockBegin
  2
SBBTX
 70
     0
 10
0.0
 20
0.0
 30
0.0
  3
SBBTX
  1

  0
LINE
  5
54E
330
29
100
AcDbEntity
  8
0
100
AcDbLine
 10
-0.8421662700371435
 20
0.0199999999999996
 30
0.0
 11
0.8421662700371435
 21
0.0199999999999996
 31
0.0
  0
LINE
  5
54F
330
29
100
AcDbEntity
  8
0
100
AcDbLine
 10
-0.8421662700371435
 20
0.0
 30
0.0
 11
0.8421662700371435
 21
0.0
 31
0.0
  0
TEXT
  5
550
330
29
100
AcDbEntity
  8
0
100
AcDbText
 10
-0.8455144018028244
 20
0.0554512145058732
 30
0.0
 40
0.156
  1
SECTION B-B
  7
COMPLEX
100
AcDbText
  0
ENDBLK
  5
551
330
29
100
AcDbEntity
  8
0
100
AcDbBlockEnd
  0
BLOCK
  5
552
330
2A
100
AcDbEntity
  8
0
100
AcDbBlockBegin
  2
SAAR
 70
     0
 10
0.0
 20
0.0
 30
0.0
  3
SAAR
  1

  0
TEXT
  5
553
330
2A
100
AcDbEntity
  8
0
100
AcDbText
 10
0.3487392072179478
 20
0.5116372546807444
 30
0.0
 40
0.156
  1
A
  7
COMPLEX
 72
     1
 11
0.4230249215036617
 21
0.5116372546807444
 31
0.0
100
AcDbText
  0
LINE
  5
554
330
2A
100
AcDbEntity
  8
0
100
AcDbLine
 10
0.4374999999999983
 20
0.2292366486465216
 30
0.0
 11
0.451024804847763
 21
0.2292366486465225
 31
0.0
  0
LINE
  5
555
330
2A
100
AcDbEntity
  8
0
100
AcDbLine
 10
0.4074999999999998
 20
0.2292366486465216
 30
0.0
 11
0.4074999999999989
 21
0.0149999999999988
 31
0.0
  0
LINE
  5
556
330
2A
100
AcDbEntity
  8
0
100
AcDbLine
 10
0.4374999999999992
 20
0.2292366486465216
 30
0.0
 11
0.4374999999999992
 21
-0.017923002649547
 31
0.0
  0
LINE
  5
557
330
2A
100
AcDbEntity
  8
0
100
AcDbLine
 10
0.4224999999999995
 20
0.0299999999999994
 30
0.0
 11
-0.0000000000000009
 21
0.0299999999999994
 31
0.0
  0
LINE
  5
558
330
2A
100
AcDbEntity
  8
0
100
AcDbLine
 10
0.4571321552628529
 20
0.0
 30
0.0
 11
0.0
 21
0.0
 31
0.0
  0
ARC
  5
559
330
2A
100
AcDbEntity
  8
0
100
AcDbCircle
 10
-0.0774898749921995
 20
0.4486009293161688
 30
0.0
 40
0.5
100
AcDbArc
 50
333.9772135427694
 51
0.3646288638273987
  0
LINE
  5
55A
330
2A
100
AcDbEntity
  8
0
100
AcDbLine
 10
0.4374999999999992
 20
0.2292366486465216
 30
0.0
 11
0.4374999999999992
 21
0.2292366486465216
 31
0.0
  0
ARC
  5
55B
330
2A
100
AcDbEntity
  8
0
100
AcDbCircle
 10
0.9224898749921965
 20
0.4486009293161688
 30
0.0
 40
0.5
100
AcDbArc
 50
179.6353711361726
 51
206.0227864572306
  0
ARC
  5
55C
330
2A
100
AcDbEntity
  8
0
100
AcDbCircle
 10
-0.0774898749921995
 20
0.4486009293161688
 30
0.0
 40
0.5200000000000001
100
AcDbArc
 50
335.0482819082217
 51
344.0535702443027
  0
ARC
  5
55D
330
2A
100
AcDbEntity
  8
0
100
AcDbCircle
 10
0.9224898749921965
 20
0.4486009293161688
 30
0.0
 40
0.5200000000000001
100
AcDbArc
 50
195.9464297556973
 51
204.951718091778
  0
LINE
  5
55E
330
2A
100
AcDbEntity
  8
0
100
AcDbLine
 10
0.3939751951522217
 20
0.2292366486465216
 30
0.0
 11
0.4074999999999998
 21
0.2292366486465216
 31
0.0
  0
LINE
  5
55F
330
2A
100
AcDbEntity
  8
0
100
AcDbLine
 10
0.3939751951522217
 20
0.2292366486465216
 30
0.0
 11
0.371819942802035
 21
0.2292366486465216
 31
0.0
  0
LINE
  5
560
330
2A
100
AcDbEntity
  8
0
100
AcDbLine
 10
0.451024804847763
 20
0.2292366486465225
 30
0.0
 11
0.4731800571979621
 21
0.2292366486465216
 31
0.0
  0
INSERT
  5
561
330
2A
100
AcDbEntity
  8
0
100
AcDbBlockReference
  2
*X3
 10
-3.748701991468968
 20
-6.921648479033177
 30
0.0
  0
ENDBLK
  5
562
330
2A
100
AcDbEntity
  8
0
100
AcDbBlockEnd
  0
BLOCK
  5
563
330
2B
100
AcDbEntity
  8
0
100
AcDbBlockBegin
  2
*X3
 70
     1
 10
0.0
 20
0.0
 30
0.0
  3
*X3
  1

  0
LINE
  5
564
330
2B
100
AcDbEntity
  8
0
 62
     0
100
AcDbLine
 10
4.158042821030212
 20
7.25625
 30
0.0
 11
4.184361161907728
 21
7.25625
 31
0.0
  0
LINE
  5
565
330
2B
100
AcDbEntity
  8
0
 62
     0
100
AcDbLine
 10
4.159464167164085
 20
7.2625
 30
0.0
 11
4.182939815773856
 21
7.2625
 31
0.0
  0
LINE
  5
566
330
2B
100
AcDbEntity
  8
0
 62
     0
100
AcDbLine
 10
4.160801607892522
 20
7.26875
 30
0.0
 11
4.181602375045417
 21
7.26875
 31
0.0
  0
LINE
  5
567
330
2B
100
AcDbEntity
  8
0
 62
     0
100
AcDbLine
 10
4.162055829087108
 20
7.275
 30
0.0
 11
4.180348153850832
 21
7.275
 31
0.0
  0
LINE
  5
568
330
2B
100
AcDbEntity
  8
0
 62
     0
100
AcDbLine
 10
4.163227467165616
 20
7.28125
 30
0.0
 11
4.179176515772323
 21
7.28125
 31
0.0
  0
LINE
  5
569
330
2B
100
AcDbEntity
  8
0
 62
     0
100
AcDbLine
 10
4.1643171107912
 20
7.2875
 30
0.0
 11
4.178086872146739
 21
7.2875
 31
0.0
  0
LINE
  5
56A
330
2B
100
AcDbEntity
  8
0
 62
     0
100
AcDbLine
 10
4.165325302419223
 20
7.29375
 30
0.0
 11
4.177078680518715
 21
7.29375
 31
0.0
  0
LINE
  5
56B
330
2B
100
AcDbEntity
  8
0
 62
     0
100
AcDbLine
 10
4.16625253970155
 20
7.3
 30
0.0
 11
4.17615144323639
 21
7.3
 31
0.0
  0
LINE
  5
56C
330
2B
100
AcDbEntity
  8
0
 62
     0
100
AcDbLine
 10
4.167099276757146
 20
7.30625
 30
0.0
 11
4.175304706180795
 21
7.30625
 31
0.0
  0
LINE
  5
56D
330
2B
100
AcDbEntity
  8
0
 62
     0
100
AcDbLine
 10
4.167865925316793
 20
7.3125
 30
0.0
 11
4.174538057621145
 21
7.3125
 31
0.0
  0
LINE
  5
56E
330
2B
100
AcDbEntity
  8
0
 62
     0
100
AcDbLine
 10
4.16855285574882
 20
7.31875
 30
0.0
 11
4.17385112718912
 21
7.31875
 31
0.0
  0
LINE
  5
56F
330
2B
100
AcDbEntity
  8
0
 62
     0
100
AcDbLine
 10
4.169160397971983
 20
7.325
 30
0.0
 11
4.173243584965957
 21
7.325
 31
0.0
  0
LINE
  5
570
330
2B
100
AcDbEntity
  8
0
 62
     0
100
AcDbLine
 10
4.169688842260835
 20
7.33125
 30
0.0
 11
4.172715140677103
 21
7.33125
 31
0.0
  0
LINE
  5
571
330
2B
100
AcDbEntity
  8
0
 62
     0
100
AcDbLine
 10
4.170138439948251
 20
7.3375
 30
0.0
 11
4.172265542989687
 21
7.3375
 31
0.0
  0
LINE
  5
572
330
2B
100
AcDbEntity
  8
0
 62
     0
100
AcDbLine
 10
4.170509404029122
 20
7.34375
 30
0.0
 11
4.171894578908817
 21
7.34375
 31
0.0
  0
LINE
  5
573
330
2B
100
AcDbEntity
  8
0
 62
     0
100
AcDbLine
 10
4.170801909668647
 20
7.35
 30
0.0
 11
4.171602073269292
 21
7.35
 31
0.0
  0
LINE
  5
574
330
2B
100
AcDbEntity
  8
0
 62
     0
100
AcDbLine
 10
4.171016094618071
 20
7.35625
 30
0.0
 11
4.171387888319867
 21
7.35625
 31
0.0
  0
LINE
  5
575
330
2B
100
AcDbEntity
  8
0
 62
     0
100
AcDbLine
 10
4.171152059540171
 20
7.3625
 30
0.0
 11
4.171251923397766
 21
7.3625
 31
0.0
  0
LINE
  5
576
330
2B
100
AcDbEntity
  8
0
 62
     0
100
AcDbLine
 10
4.17119411469162
 20
7.36875
 30
0.0
 11
4.171209868246319
 21
7.36875
 31
0.0
  0
LINE
  5
577
330
2B
100
AcDbEntity
  8
0
 62
     0
100
AcDbLine
 10
4.156536832302816
 20
7.25
 30
0.0
 11
4.185867150635123
 21
7.25
 31
0.0
  0
LINE
  5
578
330
2B
100
AcDbEntity
  8
0
 62
     0
100
AcDbLine
 10
4.154945410438709
 20
7.24375
 30
0.0
 11
4.187458572499231
 21
7.24375
 31
0.0
  0
LINE
  5
579
330
2B
100
AcDbEntity
  8
0
 62
     0
100
AcDbLine
 10
4.153267709311144
 20
7.2375
 30
0.0
 11
4.189136273626795
 21
7.2375
 31
0.0
  0
LINE
  5
57A
330
2B
100
AcDbEntity
  8
0
 62
     0
100
AcDbLine
 10
4.151502824775956
 20
7.23125
 30
0.0
 11
4.190901158161984
 21
7.23125
 31
0.0
  0
LINE
  5
57B
330
2B
100
AcDbEntity
  8
0
 62
     0
100
AcDbLine
 10
4.149649792014731
 20
7.225
 30
0.0
 11
4.170514238817704
 21
7.225
 31
0.0
  0
LINE
  5
57C
330
2B
100
AcDbEntity
  8
0
 62
     0
100
AcDbLine
 10
4.17188974412022
 20
7.225
 30
0.0
 11
4.192754190923209
 21
7.225
 31
0.0
  0
LINE
  5
57D
330
2B
100
AcDbEntity
  8
0
 62
     0
100
AcDbLine
 10
4.147707582635473
 20
7.21875
 30
0.0
 11
4.16865349922432
 21
7.21875
 31
0.0
  0
LINE
  5
57E
330
2B
100
AcDbEntity
  8
0
 62
     0
100
AcDbLine
 10
4.173750483713604
 20
7.21875
 30
0.0
 11
4.194696400302465
 21
7.21875
 31
0.0
  0
LINE
  5
57F
330
2B
100
AcDbEntity
  8
0
 62
     0
100
AcDbLine
 10
4.145675101508724
 20
7.2125
 30
0.0
 11
4.166706944063726
 21
7.2125
 31
0.0
  0
LINE
  5
580
330
2B
100
AcDbEntity
  8
0
 62
     0
100
AcDbLine
 10
4.175697038874197
 20
7.2125
 30
0.0
 11
4.196728881429214
 21
7.2125
 31
0.0
  0
LINE
  5
581
330
2B
100
AcDbEntity
  8
0
 62
     0
100
AcDbLine
 10
4.143551183314425
 20
7.20625
 30
0.0
 11
4.164673557788107
 21
7.20625
 31
0.0
  0
LINE
  5
582
330
2B
100
AcDbEntity
  8
0
 62
     0
100
AcDbLine
 10
4.17773042514982
 20
7.20625
 30
0.0
 11
4.198852799623516
 21
7.20625
 31
0.0
  0
LINE
  5
583
330
2B
100
AcDbEntity
  8
0
 62
     0
100
AcDbLine
 10
4.141334588771703
 20
7.2
 30
0.0
 11
4.162552262360144
 21
7.2
 31
0.0
  0
LINE
  5
584
330
2B
100
AcDbEntity
  8
0
 62
     0
100
AcDbLine
 10
4.179851720577784
 20
7.2
 30
0.0
 11
4.201069394166239
 21
7.2
 31
0.0
  0
LINE
  5
585
330
2B
100
AcDbEntity
  8
0
 62
     0
100
AcDbLine
 10
4.139024000520274
 20
7.19375
 30
0.0
 11
4.160341914027816
 21
7.19375
 31
0.0
  0
LINE
  5
586
330
2B
100
AcDbEntity
  8
0
 62
     0
100
AcDbLine
 10
4.182062068910108
 20
7.19375
 30
0.0
 11
4.203379982417666
 21
7.19375
 31
0.0
  0
LINE
  5
587
330
2B
100
AcDbEntity
  8
0
 62
     0
100
AcDbLine
 10
4.136618018618079
 20
7.1875
 30
0.0
 11
4.158041299813144
 21
7.1875
 31
0.0
  0
LINE
  5
588
330
2B
100
AcDbEntity
  8
0
 62
     0
100
AcDbLine
 10
4.18436268312478
 20
7.1875
 30
0.0
 11
4.20578596431986
 21
7.1875
 31
0.0
  0
LINE
  5
589
330
2B
100
AcDbEntity
  8
0
 62
     0
100
AcDbLine
 10
4.134115155615204
 20
7.18125
 30
0.0
 11
4.155649133687051
 21
7.18125
 31
0.0
  0
LINE
  5
58A
330
2B
100
AcDbEntity
  8
0
 62
     0
100
AcDbLine
 10
4.186754849250876
 20
7.18125
 30
0.0
 11
4.208288827322737
 21
7.18125
 31
0.0
  0
LINE
  5
58B
330
2B
100
AcDbEntity
  8
0
 62
     0
100
AcDbLine
 10
4.131513831158817
 20
7.175
 30
0.0
 11
4.153164052399043
 21
7.175
 31
0.0
  0
LINE
  5
58C
330
2B
100
AcDbEntity
  8
0
 62
     0
100
AcDbLine
 10
4.189239930538879
 20
7.175
 30
0.0
 11
4.210890151779121
 21
7.175
 31
0.0
  0
LINE
  5
58D
330
2B
100
AcDbEntity
  8
0
 62
     0
100
AcDbLine
 10
4.128812366077735
 20
7.16875
 30
0.0
 11
4.1505846109264
 21
7.16875
 31
0.0
  0
LINE
  5
58E
330
2B
100
AcDbEntity
  8
0
 62
     0
100
AcDbLine
 10
4.191819372011525
 20
7.16875
 30
0.0
 11
4.213591616860204
 21
7.16875
 31
0.0
  0
LINE
  5
58F
330
2B
100
AcDbEntity
  8
0
 62
     0
100
AcDbLine
 10
4.126008975888199
 20
7.1625
 30
0.0
 11
4.147909277503027
 21
7.1625
 31
0.0
  0
LINE
  5
590
330
2B
100
AcDbEntity
  8
0
 62
     0
100
AcDbLine
 10
4.194494705434896
 20
7.1625
 30
0.0
 11
4.216395007049741
 21
7.1625
 31
0.0
  0
LINE
  5
591
330
2B
100
AcDbEntity
  8
0
 62
     0
100
AcDbLine
 10
4.123101763654189
 20
7.15625
 30
0.0
 11
4.145136428182898
 21
7.15625
 31
0.0
  0
LINE
  5
592
330
2B
100
AcDbEntity
  8
0
 62
     0
100
AcDbLine
 10
4.197267554755029
 20
7.15625
 30
0.0
 11
4.219302219283752
 21
7.15625
 31
0.0
  0
ENDBLK
  5
593
330
2B
100
AcDbEntity
  8
0
100
AcDbBlockEnd
  0
BLOCK
  5
594
330
2C
100
AcDbEntity
  8
0
100
AcDbBlockBegin
  2
SBBT
 70
     0
 10
0.0
 20
0.0
 30
0.0
  3
SBBT
  1

  0
TEXT
  5
595
330
2C
100
AcDbEntity
  8
0
100
AcDbText
 10
-0.6618640508256033
 20
0.338139455665849
 30
0.0
 40
0.156
  1
B
  7
COMPLEX
 72
     1
 11
-0.5838640508256035
 21
0.338139455665849
 31
0.0
100
AcDbText
  0
INSERT
  5
596
330
2C
100
AcDbEntity
  8
0
100
AcDbBlockReference
  2
*X5
 10
6.921648479033177
 20
-3.748701991468968
 30
0.0
 50
90.0
  0
LINE
  5
597
330
2C
100
AcDbEntity
  8
0
100
AcDbLine
 10
-0.2292366486465225
 20
0.451024804847763
 30
0.0
 11
-0.2292366486465216
 21
0.4731800571979621
 31
0.0
  0
LINE
  5
598
330
2C
100
AcDbEntity
  8
0
100
AcDbLine
 10
-0.2292366486465216
 20
0.3939751951522217
 30
0.0
 11
-0.2292366486465216
 21
0.371819942802035
 31
0.0
  0
LINE
  5
599
330
2C
100
AcDbEntity
  8
0
100
AcDbLine
 10
-0.2292366486465216
 20
0.3939751951522217
 30
0.0
 11
-0.2292366486465216
 21
0.4074999999999998
 31
0.0
  0
ARC
  5
59A
330
2C
100
AcDbEntity
  8
0
100
AcDbCircle
 10
-0.4486009293161688
 20
0.9224898749921965
 30
0.0
 40
0.5200000000000001
100
AcDbArc
 50
285.9464297556974
 51
294.951718091778
  0
ARC
  5
59B
330
2C
100
AcDbEntity
  8
0
100
AcDbCircle
 10
-0.4486009293161688
 20
-0.0774898749921995
 30
0.0
 40
0.5200000000000001
100
AcDbArc
 50
65.04828190822165
 51
74.0535702443027
  0
ARC
  5
59C
330
2C
100
AcDbEntity
  8
0
100
AcDbCircle
 10
-0.4486009293161688
 20
0.9224898749921965
 30
0.0
 40
0.5
100
AcDbArc
 50
269.6353711361726
 51
296.0227864572306
  0
LINE
  5
59D
330
2C
100
AcDbEntity
  8
0
100
AcDbLine
 10
-0.2292366486465216
 20
0.4374999999999992
 30
0.0
 11
-0.2292366486465216
 21
0.4374999999999992
 31
0.0
  0
ARC
  5
59E
330
2C
100
AcDbEntity
  8
0
100
AcDbCircle
 10
-0.4486009293161688
 20
-0.0774898749921995
 30
0.0
 40
0.5
100
AcDbArc
 50
63.97721354276936
 51
90.36462886382741
  0
LINE
  5
59F
330
2C
100
AcDbEntity
  8
0
100
AcDbLine
 10
0.0
 20
0.4571321552628529
 30
0.0
 11
0.0
 21
0.0
 31
0.0
  0
LINE
  5
5A0
330
2C
100
AcDbEntity
  8
0
100
AcDbLine
 10
-0.0299999999999994
 20
0.4224999999999995
 30
0.0
 11
-0.0299999999999994
 21
-0.0000000000000009
 31
0.0
  0
LINE
  5
5A1
330
2C
100
AcDbEntity
  8
0
100
AcDbLine
 10
-0.2292366486465216
 20
0.4374999999999992
 30
0.0
 11
0.017923002649547
 21
0.4374999999999992
 31
0.0
  0
LINE
  5
5A2
330
2C
100
AcDbEntity
  8
0
100
AcDbLine
 10
-0.2292366486465216
 20
0.4074999999999998
 30
0.0
 11
-0.0149999999999988
 21
0.4074999999999989
 31
0.0
  0
LINE
  5
5A3
330
2C
100
AcDbEntity
  8
0
100
AcDbLine
 10
-0.2292366486465216
 20
0.4374999999999983
 30
0.0
 11
-0.2292366486465225
 21
0.451024804847763
 31
0.0
  0
ENDBLK
  5
5A4
330
2C
100
AcDbEntity
  8
0
100
AcDbBlockEnd
  0
BLOCK
  5
5A5
330
2D
100
AcDbEntity
  8
0
100
AcDbBlockBegin
  2
*X5
 70
     1
 10
0.0
 20
0.0
 30
0.0
  3
*X5
  1

  0
LINE
  5
5A6
330
2D
100
AcDbEntity
  8
0
 62
     0
100
AcDbLine
 10
4.158042821030212
 20
7.25625
 30
0.0
 11
4.184361161907728
 21
7.25625
 31
0.0
  0
LINE
  5
5A7
330
2D
100
AcDbEntity
  8
0
 62
     0
100
AcDbLine
 10
4.159464167164085
 20
7.2625
 30
0.0
 11
4.182939815773856
 21
7.2625
 31
0.0
  0
LINE
  5
5A8
330
2D
100
AcDbEntity
  8
0
 62
     0
100
AcDbLine
 10
4.160801607892522
 20
7.26875
 30
0.0
 11
4.181602375045417
 21
7.26875
 31
0.0
  0
LINE
  5
5A9
330
2D
100
AcDbEntity
  8
0
 62
     0
100
AcDbLine
 10
4.162055829087108
 20
7.275
 30
0.0
 11
4.180348153850832
 21
7.275
 31
0.0
  0
LINE
  5
5AA
330
2D
100
AcDbEntity
  8
0
 62
     0
100
AcDbLine
 10
4.163227467165616
 20
7.28125
 30
0.0
 11
4.179176515772323
 21
7.28125
 31
0.0
  0
LINE
  5
5AB
330
2D
100
AcDbEntity
  8
0
 62
     0
100
AcDbLine
 10
4.1643171107912
 20
7.2875
 30
0.0
 11
4.178086872146739
 21
7.2875
 31
0.0
  0
LINE
  5
5AC
330
2D
100
AcDbEntity
  8
0
 62
     0
100
AcDbLine
 10
4.165325302419223
 20
7.29375
 30
0.0
 11
4.177078680518715
 21
7.29375
 31
0.0
  0
LINE
  5
5AD
330
2D
100
AcDbEntity
  8
0
 62
     0
100
AcDbLine
 10
4.16625253970155
 20
7.3
 30
0.0
 11
4.17615144323639
 21
7.3
 31
0.0
  0
LINE
  5
5AE
330
2D
100
AcDbEntity
  8
0
 62
     0
100
AcDbLine
 10
4.167099276757146
 20
7.30625
 30
0.0
 11
4.175304706180795
 21
7.30625
 31
0.0
  0
LINE
  5
5AF
330
2D
100
AcDbEntity
  8
0
 62
     0
100
AcDbLine
 10
4.167865925316793
 20
7.3125
 30
0.0
 11
4.174538057621145
 21
7.3125
 31
0.0
  0
LINE
  5
5B0
330
2D
100
AcDbEntity
  8
0
 62
     0
100
AcDbLine
 10
4.16855285574882
 20
7.31875
 30
0.0
 11
4.17385112718912
 21
7.31875
 31
0.0
  0
LINE
  5
5B1
330
2D
100
AcDbEntity
  8
0
 62
     0
100
AcDbLine
 10
4.169160397971983
 20
7.325
 30
0.0
 11
4.173243584965957
 21
7.325
 31
0.0
  0
LINE
  5
5B2
330
2D
100
AcDbEntity
  8
0
 62
     0
100
AcDbLine
 10
4.169688842260835
 20
7.33125
 30
0.0
 11
4.172715140677103
 21
7.33125
 31
0.0
  0
LINE
  5
5B3
330
2D
100
AcDbEntity
  8
0
 62
     0
100
AcDbLine
 10
4.170138439948251
 20
7.3375
 30
0.0
 11
4.172265542989687
 21
7.3375
 31
0.0
  0
LINE
  5
5B4
330
2D
100
AcDbEntity
  8
0
 62
     0
100
AcDbLine
 10
4.170509404029122
 20
7.34375
 30
0.0
 11
4.171894578908817
 21
7.34375
 31
0.0
  0
LINE
  5
5B5
330
2D
100
AcDbEntity
  8
0
 62
     0
100
AcDbLine
 10
4.170801909668647
 20
7.35
 30
0.0
 11
4.171602073269292
 21
7.35
 31
0.0
  0
LINE
  5
5B6
330
2D
100
AcDbEntity
  8
0
 62
     0
100
AcDbLine
 10
4.171016094618071
 20
7.35625
 30
0.0
 11
4.171387888319867
 21
7.35625
 31
0.0
  0
LINE
  5
5B7
330
2D
100
AcDbEntity
  8
0
 62
     0
100
AcDbLine
 10
4.171152059540171
 20
7.3625
 30
0.0
 11
4.171251923397766
 21
7.3625
 31
0.0
  0
LINE
  5
5B8
330
2D
100
AcDbEntity
  8
0
 62
     0
100
AcDbLine
 10
4.17119411469162
 20
7.36875
 30
0.0
 11
4.171209868246319
 21
7.36875
 31
0.0
  0
LINE
  5
5B9
330
2D
100
AcDbEntity
  8
0
 62
     0
100
AcDbLine
 10
4.156536832302816
 20
7.25
 30
0.0
 11
4.185867150635123
 21
7.25
 31
0.0
  0
LINE
  5
5BA
330
2D
100
AcDbEntity
  8
0
 62
     0
100
AcDbLine
 10
4.154945410438709
 20
7.24375
 30
0.0
 11
4.187458572499231
 21
7.24375
 31
0.0
  0
LINE
  5
5BB
330
2D
100
AcDbEntity
  8
0
 62
     0
100
AcDbLine
 10
4.153267709311144
 20
7.2375
 30
0.0
 11
4.189136273626795
 21
7.2375
 31
0.0
  0
LINE
  5
5BC
330
2D
100
AcDbEntity
  8
0
 62
     0
100
AcDbLine
 10
4.151502824775956
 20
7.23125
 30
0.0
 11
4.190901158161984
 21
7.23125
 31
0.0
  0
LINE
  5
5BD
330
2D
100
AcDbEntity
  8
0
 62
     0
100
AcDbLine
 10
4.149649792014731
 20
7.225
 30
0.0
 11
4.170514238817704
 21
7.225
 31
0.0
  0
LINE
  5
5BE
330
2D
100
AcDbEntity
  8
0
 62
     0
100
AcDbLine
 10
4.17188974412022
 20
7.225
 30
0.0
 11
4.192754190923209
 21
7.225
 31
0.0
  0
LINE
  5
5BF
330
2D
100
AcDbEntity
  8
0
 62
     0
100
AcDbLine
 10
4.147707582635473
 20
7.21875
 30
0.0
 11
4.16865349922432
 21
7.21875
 31
0.0
  0
LINE
  5
5C0
330
2D
100
AcDbEntity
  8
0
 62
     0
100
AcDbLine
 10
4.173750483713604
 20
7.21875
 30
0.0
 11
4.194696400302465
 21
7.21875
 31
0.0
  0
LINE
  5
5C1
330
2D
100
AcDbEntity
  8
0
 62
     0
100
AcDbLine
 10
4.145675101508724
 20
7.2125
 30
0.0
 11
4.166706944063726
 21
7.2125
 31
0.0
  0
LINE
  5
5C2
330
2D
100
AcDbEntity
  8
0
 62
     0
100
AcDbLine
 10
4.175697038874197
 20
7.2125
 30
0.0
 11
4.196728881429214
 21
7.2125
 31
0.0
  0
LINE
  5
5C3
330
2D
100
AcDbEntity
  8
0
 62
     0
100
AcDbLine
 10
4.143551183314425
 20
7.20625
 30
0.0
 11
4.164673557788107
 21
7.20625
 31
0.0
  0
LINE
  5
5C4
330
2D
100
AcDbEntity
  8
0
 62
     0
100
AcDbLine
 10
4.17773042514982
 20
7.20625
 30
0.0
 11
4.198852799623516
 21
7.20625
 31
0.0
  0
LINE
  5
5C5
330
2D
100
AcDbEntity
  8
0
 62
     0
100
AcDbLine
 10
4.141334588771703
 20
7.2
 30
0.0
 11
4.162552262360144
 21
7.2
 31
0.0
  0
LINE
  5
5C6
330
2D
100
AcDbEntity
  8
0
 62
     0
100
AcDbLine
 10
4.179851720577784
 20
7.2
 30
0.0
 11
4.201069394166239
 21
7.2
 31
0.0
  0
LINE
  5
5C7
330
2D
100
AcDbEntity
  8
0
 62
     0
100
AcDbLine
 10
4.139024000520274
 20
7.19375
 30
0.0
 11
4.160341914027816
 21
7.19375
 31
0.0
  0
LINE
  5
5C8
330
2D
100
AcDbEntity
  8
0
 62
     0
100
AcDbLine
 10
4.182062068910108
 20
7.19375
 30
0.0
 11
4.203379982417666
 21
7.19375
 31
0.0
  0
LINE
  5
5C9
330
2D
100
AcDbEntity
  8
0
 62
     0
100
AcDbLine
 10
4.136618018618079
 20
7.1875
 30
0.0
 11
4.158041299813144
 21
7.1875
 31
0.0
  0
LINE
  5
5CA
330
2D
100
AcDbEntity
  8
0
 62
     0
100
AcDbLine
 10
4.18436268312478
 20
7.1875
 30
0.0
 11
4.20578596431986
 21
7.1875
 31
0.0
  0
LINE
  5
5CB
330
2D
100
AcDbEntity
  8
0
 62
     0
100
AcDbLine
 10
4.134115155615204
 20
7.18125
 30
0.0
 11
4.155649133687051
 21
7.18125
 31
0.0
  0
LINE
  5
5CC
330
2D
100
AcDbEntity
  8
0
 62
     0
100
AcDbLine
 10
4.186754849250876
 20
7.18125
 30
0.0
 11
4.208288827322737
 21
7.18125
 31
0.0
  0
LINE
  5
5CD
330
2D
100
AcDbEntity
  8
0
 62
     0
100
AcDbLine
 10
4.131513831158817
 20
7.175
 30
0.0
 11
4.153164052399043
 21
7.175
 31
0.0
  0
LINE
  5
5CE
330
2D
100
AcDbEntity
  8
0
 62
     0
100
AcDbLine
 10
4.189239930538879
 20
7.175
 30
0.0
 11
4.210890151779121
 21
7.175
 31
0.0
  0
LINE
  5
5CF
330
2D
100
AcDbEntity
  8
0
 62
     0
100
AcDbLine
 10
4.128812366077735
 20
7.16875
 30
0.0
 11
4.1505846109264
 21
7.16875
 31
0.0
  0
LINE
  5
5D0
330
2D
100
AcDbEntity
  8
0
 62
     0
100
AcDbLine
 10
4.191819372011525
 20
7.16875
 30
0.0
 11
4.213591616860204
 21
7.16875
 31
0.0
  0
LINE
  5
5D1
330
2D
100
AcDbEntity
  8
0
 62
     0
100
AcDbLine
 10
4.126008975888199
 20
7.1625
 30
0.0
 11
4.147909277503027
 21
7.1625
 31
0.0
  0
LINE
  5
5D2
330
2D
100
AcDbEntity
  8
0
 62
     0
100
AcDbLine
 10
4.194494705434896
 20
7.1625
 30
0.0
 11
4.216395007049741
 21
7.1625
 31
0.0
  0
LINE
  5
5D3
330
2D
100
AcDbEntity
  8
0
 62
     0
100
AcDbLine
 10
4.123101763654189
 20
7.15625
 30
0.0
 11
4.145136428182898
 21
7.15625
 31
0.0
  0
LINE
  5
5D4
330
2D
100
AcDbEntity
  8
0
 62
     0
100
AcDbLine
 10
4.197267554755029
 20
7.15625
 30
0.0
 11
4.219302219283752
 21
7.15625
 31
0.0
  0
ENDBLK
  5
5D5
330
2D
100
AcDbEntity
  8
0
100
AcDbBlockEnd
  0
BLOCK
  5
5D6
330
2E
100
AcDbEntity
  8
0
100
AcDbBlockBegin
  2
SBBB
 70
     0
 10
0.0
 20
0.0
 30
0.0
  3
SBBB
  1

  0
TEXT
  5
5D7
330
2E
100
AcDbEntity
  8
0
100
AcDbText
 10
-0.6558782172982847
 20
-0.50536529293236
 30
0.0
 40
0.156
  1
B
  7
COMPLEX
 72
     1
 11
-0.5778782172982849
 21
-0.50536529293236
 31
0.0
100
AcDbText
  0
LINE
  5
5D8
330
2E
100
AcDbEntity
  8
0
100
AcDbLine
 10
-0.2292366486465216
 20
-0.4374999999999983
 30
0.0
 11
-0.2292366486465225
 21
-0.451024804847763
 31
0.0
  0
LINE
  5
5D9
330
2E
100
AcDbEntity
  8
0
100
AcDbLine
 10
-0.2292366486465216
 20
-0.4074999999999998
 30
0.0
 11
-0.0149999999999988
 21
-0.4074999999999989
 31
0.0
  0
LINE
  5
5DA
330
2E
100
AcDbEntity
  8
0
100
AcDbLine
 10
-0.2292366486465216
 20
-0.4374999999999992
 30
0.0
 11
0.017923002649547
 21
-0.4374999999999992
 31
0.0
  0
LINE
  5
5DB
330
2E
100
AcDbEntity
  8
0
100
AcDbLine
 10
-0.0299999999999994
 20
-0.4224999999999995
 30
0.0
 11
-0.0299999999999994
 21
0.0000000000000009
 31
0.0
  0
LINE
  5
5DC
330
2E
100
AcDbEntity
  8
0
100
AcDbLine
 10
0.0
 20
-0.4571321552628529
 30
0.0
 11
0.0
 21
0.0
 31
0.0
  0
ARC
  5
5DD
330
2E
100
AcDbEntity
  8
0
100
AcDbCircle
 10
-0.4486009293161688
 20
0.0774898749921995
 30
0.0
 40
0.5
100
AcDbArc
 50
269.6353711361726
 51
296.0227864572306
  0
LINE
  5
5DE
330
2E
100
AcDbEntity
  8
0
100
AcDbLine
 10
-0.2292366486465216
 20
-0.4374999999999992
 30
0.0
 11
-0.2292366486465216
 21
-0.4374999999999992
 31
0.0
  0
ARC
  5
5DF
330
2E
100
AcDbEntity
  8
0
100
AcDbCircle
 10
-0.4486009293161688
 20
-0.9224898749921965
 30
0.0
 40
0.5
100
AcDbArc
 50
63.97721354276936
 51
90.36462886382739
  0
ARC
  5
5E0
330
2E
100
AcDbEntity
  8
0
100
AcDbCircle
 10
-0.4486009293161688
 20
0.0774898749921995
 30
0.0
 40
0.5200000000000001
100
AcDbArc
 50
285.9464297556974
 51
294.9517180917784
  0
ARC
  5
5E1
330
2E
100
AcDbEntity
  8
0
100
AcDbCircle
 10
-0.4486009293161688
 20
-0.9224898749921965
 30
0.0
 40
0.5200000000000001
100
AcDbArc
 50
65.04828190822201
 51
74.0535702443027
  0
LINE
  5
5E2
330
2E
100
AcDbEntity
  8
0
100
AcDbLine
 10
-0.2292366486465216
 20
-0.3939751951522217
 30
0.0
 11
-0.2292366486465216
 21
-0.4074999999999998
 31
0.0
  0
LINE
  5
5E3
330
2E
100
AcDbEntity
  8
0
100
AcDbLine
 10
-0.2292366486465216
 20
-0.3939751951522217
 30
0.0
 11
-0.2292366486465216
 21
-0.371819942802035
 31
0.0
  0
LINE
  5
5E4
330
2E
100
AcDbEntity
  8
0
100
AcDbLine
 10
-0.2292366486465225
 20
-0.451024804847763
 30
0.0
 11
-0.2292366486465216
 21
-0.4731800571979621
 31
0.0
  0
INSERT
  5
5E5
330
2E
100
AcDbEntity
  8
0
100
AcDbBlockReference
  2
*X7
 10
6.921648479033177
 20
3.748701991468968
 30
0.0
 41
-1.0
 50
90.0
  0
ENDBLK
  5
5E6
330
2E
100
AcDbEntity
  8
0
100
AcDbBlockEnd
  0
BLOCK
  5
5E7
330
2F
100
AcDbEntity
  8
0
100
AcDbBlockBegin
  2
*X7
 70
     1
 10
0.0
 20
0.0
 30
0.0
  3
*X7
  1

  0
LINE
  5
5E8
330
2F
100
AcDbEntity
  8
0
 62
     0
100
AcDbLine
 10
4.158042821030212
 20
7.25625
 30
0.0
 11
4.184361161907728
 21
7.25625
 31
0.0
  0
LINE
  5
5E9
330
2F
100
AcDbEntity
  8
0
 62
     0
100
AcDbLine
 10
4.159464167164085
 20
7.2625
 30
0.0
 11
4.182939815773856
 21
7.2625
 31
0.0
  0
LINE
  5
5EA
330
2F
100
AcDbEntity
  8
0
 62
     0
100
AcDbLine
 10
4.160801607892522
 20
7.26875
 30
0.0
 11
4.181602375045417
 21
7.26875
 31
0.0
  0
LINE
  5
5EB
330
2F
100
AcDbEntity
  8
0
 62
     0
100
AcDbLine
 10
4.162055829087108
 20
7.275
 30
0.0
 11
4.180348153850832
 21
7.275
 31
0.0
  0
LINE
  5
5EC
330
2F
100
AcDbEntity
  8
0
 62
     0
100
AcDbLine
 10
4.163227467165616
 20
7.28125
 30
0.0
 11
4.179176515772323
 21
7.28125
 31
0.0
  0
LINE
  5
5ED
330
2F
100
AcDbEntity
  8
0
 62
     0
100
AcDbLine
 10
4.1643171107912
 20
7.2875
 30
0.0
 11
4.178086872146739
 21
7.2875
 31
0.0
  0
LINE
  5
5EE
330
2F
100
AcDbEntity
  8
0
 62
     0
100
AcDbLine
 10
4.165325302419223
 20
7.29375
 30
0.0
 11
4.177078680518715
 21
7.29375
 31
0.0
  0
LINE
  5
5EF
330
2F
100
AcDbEntity
  8
0
 62
     0
100
AcDbLine
 10
4.16625253970155
 20
7.3
 30
0.0
 11
4.17615144323639
 21
7.3
 31
0.0
  0
LINE
  5
5F0
330
2F
100
AcDbEntity
  8
0
 62
     0
100
AcDbLine
 10
4.167099276757146
 20
7.30625
 30
0.0
 11
4.175304706180795
 21
7.30625
 31
0.0
  0
LINE
  5
5F1
330
2F
100
AcDbEntity
  8
0
 62
     0
100
AcDbLine
 10
4.167865925316793
 20
7.3125
 30
0.0
 11
4.174538057621145
 21
7.3125
 31
0.0
  0
LINE
  5
5F2
330
2F
100
AcDbEntity
  8
0
 62
     0
100
AcDbLine
 10
4.16855285574882
 20
7.31875
 30
0.0
 11
4.17385112718912
 21
7.31875
 31
0.0
  0
LINE
  5
5F3
330
2F
100
AcDbEntity
  8
0
 62
     0
100
AcDbLine
 10
4.169160397971983
 20
7.325
 30
0.0
 11
4.173243584965957
 21
7.325
 31
0.0
  0
LINE
  5
5F4
330
2F
100
AcDbEntity
  8
0
 62
     0
100
AcDbLine
 10
4.169688842260835
 20
7.33125
 30
0.0
 11
4.172715140677103
 21
7.33125
 31
0.0
  0
LINE
  5
5F5
330
2F
100
AcDbEntity
  8
0
 62
     0
100
AcDbLine
 10
4.170138439948251
 20
7.3375
 30
0.0
 11
4.172265542989687
 21
7.3375
 31
0.0
  0
LINE
  5
5F6
330
2F
100
AcDbEntity
  8
0
 62
     0
100
AcDbLine
 10
4.170509404029122
 20
7.34375
 30
0.0
 11
4.171894578908817
 21
7.34375
 31
0.0
  0
LINE
  5
5F7
330
2F
100
AcDbEntity
  8
0
 62
     0
100
AcDbLine
 10
4.170801909668647
 20
7.35
 30
0.0
 11
4.171602073269292
 21
7.35
 31
0.0
  0
LINE
  5
5F8
330
2F
100
AcDbEntity
  8
0
 62
     0
100
AcDbLine
 10
4.171016094618071
 20
7.35625
 30
0.0
 11
4.171387888319867
 21
7.35625
 31
0.0
  0
LINE
  5
5F9
330
2F
100
AcDbEntity
  8
0
 62
     0
100
AcDbLine
 10
4.171152059540171
 20
7.3625
 30
0.0
 11
4.171251923397766
 21
7.3625
 31
0.0
  0
LINE
  5
5FA
330
2F
100
AcDbEntity
  8
0
 62
     0
100
AcDbLine
 10
4.17119411469162
 20
7.36875
 30
0.0
 11
4.171209868246319
 21
7.36875
 31
0.0
  0
LINE
  5
5FB
330
2F
100
AcDbEntity
  8
0
 62
     0
100
AcDbLine
 10
4.156536832302816
 20
7.25
 30
0.0
 11
4.185867150635123
 21
7.25
 31
0.0
  0
LINE
  5
5FC
330
2F
100
AcDbEntity
  8
0
 62
     0
100
AcDbLine
 10
4.154945410438709
 20
7.24375
 30
0.0
 11
4.187458572499231
 21
7.24375
 31
0.0
  0
LINE
  5
5FD
330
2F
100
AcDbEntity
  8
0
 62
     0
100
AcDbLine
 10
4.153267709311144
 20
7.2375
 30
0.0
 11
4.189136273626795
 21
7.2375
 31
0.0
  0
LINE
  5
5FE
330
2F
100
AcDbEntity
  8
0
 62
     0
100
AcDbLine
 10
4.151502824775956
 20
7.23125
 30
0.0
 11
4.190901158161984
 21
7.23125
 31
0.0
  0
LINE
  5
5FF
330
2F
100
AcDbEntity
  8
0
 62
     0
100
AcDbLine
 10
4.149649792014731
 20
7.225
 30
0.0
 11
4.170514238817704
 21
7.225
 31
0.0
  0
LINE
  5
600
330
2F
100
AcDbEntity
  8
0
 62
     0
100
AcDbLine
 10
4.17188974412022
 20
7.225
 30
0.0
 11
4.192754190923209
 21
7.225
 31
0.0
  0
LINE
  5
601
330
2F
100
AcDbEntity
  8
0
 62
     0
100
AcDbLine
 10
4.147707582635473
 20
7.21875
 30
0.0
 11
4.16865349922432
 21
7.21875
 31
0.0
  0
LINE
  5
602
330
2F
100
AcDbEntity
  8
0
 62
     0
100
AcDbLine
 10
4.173750483713604
 20
7.21875
 30
0.0
 11
4.194696400302465
 21
7.21875
 31
0.0
  0
LINE
  5
603
330
2F
100
AcDbEntity
  8
0
 62
     0
100
AcDbLine
 10
4.145675101508724
 20
7.2125
 30
0.0
 11
4.166706944063726
 21
7.2125
 31
0.0
  0
LINE
  5
604
330
2F
100
AcDbEntity
  8
0
 62
     0
100
AcDbLine
 10
4.175697038874197
 20
7.2125
 30
0.0
 11
4.196728881429214
 21
7.2125
 31
0.0
  0
LINE
  5
605
330
2F
100
AcDbEntity
  8
0
 62
     0
100
AcDbLine
 10
4.143551183314425
 20
7.20625
 30
0.0
 11
4.164673557788107
 21
7.20625
 31
0.0
  0
LINE
  5
606
330
2F
100
AcDbEntity
  8
0
 62
     0
100
AcDbLine
 10
4.17773042514982
 20
7.20625
 30
0.0
 11
4.198852799623516
 21
7.20625
 31
0.0
  0
LINE
  5
607
330
2F
100
AcDbEntity
  8
0
 62
     0
100
AcDbLine
 10
4.141334588771703
 20
7.2
 30
0.0
 11
4.162552262360144
 21
7.2
 31
0.0
  0
LINE
  5
608
330
2F
100
AcDbEntity
  8
0
 62
     0
100
AcDbLine
 10
4.179851720577784
 20
7.2
 30
0.0
 11
4.201069394166239
 21
7.2
 31
0.0
  0
LINE
  5
609
330
2F
100
AcDbEntity
  8
0
 62
     0
100
AcDbLine
 10
4.139024000520274
 20
7.19375
 30
0.0
 11
4.160341914027816
 21
7.19375
 31
0.0
  0
LINE
  5
60A
330
2F
100
AcDbEntity
  8
0
 62
     0
100
AcDbLine
 10
4.182062068910108
 20
7.19375
 30
0.0
 11
4.203379982417666
 21
7.19375
 31
0.0
  0
LINE
  5
60B
330
2F
100
AcDbEntity
  8
0
 62
     0
100
AcDbLine
 10
4.136618018618079
 20
7.1875
 30
0.0
 11
4.158041299813144
 21
7.1875
 31
0.0
  0
LINE
  5
60C
330
2F
100
AcDbEntity
  8
0
 62
     0
100
AcDbLine
 10
4.18436268312478
 20
7.1875
 30
0.0
 11
4.20578596431986
 21
7.1875
 31
0.0
  0
LINE
  5
60D
330
2F
100
AcDbEntity
  8
0
 62
     0
100
AcDbLine
 10
4.134115155615204
 20
7.18125
 30
0.0
 11
4.155649133687051
 21
7.18125
 31
0.0
  0
LINE
  5
60E
330
2F
100
AcDbEntity
  8
0
 62
     0
100
AcDbLine
 10
4.186754849250876
 20
7.18125
 30
0.0
 11
4.208288827322737
 21
7.18125
 31
0.0
  0
LINE
  5
60F
330
2F
100
AcDbEntity
  8
0
 62
     0
100
AcDbLine
 10
4.131513831158817
 20
7.175
 30
0.0
 11
4.153164052399043
 21
7.175
 31
0.0
  0
LINE
  5
610
330
2F
100
AcDbEntity
  8
0
 62
     0
100
AcDbLine
 10
4.189239930538879
 20
7.175
 30
0.0
 11
4.210890151779121
 21
7.175
 31
0.0
  0
LINE
  5
611
330
2F
100
AcDbEntity
  8
0
 62
     0
100
AcDbLine
 10
4.128812366077735
 20
7.16875
 30
0.0
 11
4.1505846109264
 21
7.16875
 31
0.0
  0
LINE
  5
612
330
2F
100
AcDbEntity
  8
0
 62
     0
100
AcDbLine
 10
4.191819372011525
 20
7.16875
 30
0.0
 11
4.213591616860204
 21
7.16875
 31
0.0
  0
LINE
  5
613
330
2F
100
AcDbEntity
  8
0
 62
     0
100
AcDbLine
 10
4.126008975888199
 20
7.1625
 30
0.0
 11
4.147909277503027
 21
7.1625
 31
0.0
  0
LINE
  5
614
330
2F
100
AcDbEntity
  8
0
 62
     0
100
AcDbLine
 10
4.194494705434896
 20
7.1625
 30
0.0
 11
4.216395007049741
 21
7.1625
 31
0.0
  0
LINE
  5
615
330
2F
100
AcDbEntity
  8
0
 62
     0
100
AcDbLine
 10
4.123101763654189
 20
7.15625
 30
0.0
 11
4.145136428182898
 21
7.15625
 31
0.0
  0
LINE
  5
616
330
2F
100
AcDbEntity
  8
0
 62
     0
100
AcDbLine
 10
4.197267554755029
 20
7.15625
 30
0.0
 11
4.219302219283752
 21
7.15625
 31
0.0
  0
ENDBLK
  5
617
330
2F
100
AcDbEntity
  8
0
100
AcDbBlockEnd
  0
BLOCK
  5
65C
330
32
100
AcDbEntity
  8
0
100
AcDbBlockBegin
  2
SAAL
 70
     0
 10
0.0
 20
0.0
 30
0.0
  3
SAAL
  1

  0
TEXT
  5
65D
330
32
100
AcDbEntity
  8
0
100
AcDbText
 10
-0.5040834610697376
 20
0.5122863324383254
 30
0.0
 40
0.156
  1
A
  7
COMPLEX
 72
     1
 11
-0.4297977467840233
 21
0.5122863324383254
 31
0.0
100
AcDbText
  0
INSERT
  5
65E
330
32
100
AcDbEntity
  8
0
100
AcDbBlockReference
  2
*X11
 10
3.748701991468969
 20
-6.921648479033177
 30
0.0
 41
-1.0
  0
LINE
  5
65F
330
32
100
AcDbEntity
  8
0
100
AcDbLine
 10
-0.4510248048477635
 20
0.2292366486465225
 30
0.0
 11
-0.4731800571979626
 21
0.2292366486465216
 31
0.0
  0
LINE
  5
660
330
32
100
AcDbEntity
  8
0
100
AcDbLine
 10
-0.3939751951522221
 20
0.2292366486465216
 30
0.0
 11
-0.3718199428020354
 21
0.2292366486465216
 31
0.0
  0
LINE
  5
661
330
32
100
AcDbEntity
  8
0
100
AcDbLine
 10
-0.3939751951522221
 20
0.2292366486465216
 30
0.0
 11
-0.4075000000000002
 21
0.2292366486465216
 31
0.0
  0
ARC
  5
662
330
32
100
AcDbEntity
  8
0
100
AcDbCircle
 10
-0.9224898749921969
 20
0.4486009293161688
 30
0.0
 40
0.5200000000000001
100
AcDbArc
 50
335.048281908222
 51
344.0535702443027
  0
ARC
  5
663
330
32
100
AcDbEntity
  8
0
100
AcDbCircle
 10
0.0774898749921995
 20
0.4486009293161688
 30
0.0
 40
0.5200000000000001
100
AcDbArc
 50
195.9464297556973
 51
204.9517180917784
  0
ARC
  5
664
330
32
100
AcDbEntity
  8
0
100
AcDbCircle
 10
-0.9224898749921969
 20
0.4486009293161688
 30
0.0
 40
0.5
100
AcDbArc
 50
333.9772135427694
 51
0.3646288638273872
  0
LINE
  5
665
330
32
100
AcDbEntity
  8
0
100
AcDbLine
 10
-0.4374999999999996
 20
0.2292366486465216
 30
0.0
 11
-0.4374999999999996
 21
0.2292366486465216
 31
0.0
  0
ARC
  5
666
330
32
100
AcDbEntity
  8
0
100
AcDbCircle
 10
0.0774898749921995
 20
0.4486009293161688
 30
0.0
 40
0.5
100
AcDbArc
 50
179.6353711361726
 51
206.0227864572306
  0
LINE
  5
667
330
32
100
AcDbEntity
  8
0
100
AcDbLine
 10
-0.4571321552628534
 20
0.0
 30
0.0
 11
0.0
 21
0.0
 31
0.0
  0
LINE
  5
668
330
32
100
AcDbEntity
  8
0
100
AcDbLine
 10
-0.4224999999999999
 20
0.0299999999999994
 30
0.0
 11
0.0000000000000009
 21
0.0299999999999994
 31
0.0
  0
LINE
  5
669
330
32
100
AcDbEntity
  8
0
100
AcDbLine
 10
-0.4374999999999996
 20
0.2292366486465216
 30
0.0
 11
-0.4374999999999996
 21
-0.017923002649547
 31
0.0
  0
LINE
  5
66A
330
32
100
AcDbEntity
  8
0
100
AcDbLine
 10
-0.4075000000000002
 20
0.2292366486465216
 30
0.0
 11
-0.4074999999999993
 21
0.0149999999999988
 31
0.0
  0
LINE
  5
66B
330
32
100
AcDbEntity
  8
0
100
AcDbLine
 10
-0.4374999999999987
 20
0.2292366486465216
 30
0.0
 11
-0.4510248048477635
 21
0.2292366486465225
 31
0.0
  0
ENDBLK
  5
66C
330
32
100
AcDbEntity
  8
0
100
AcDbBlockEnd
  0
BLOCK
  5
66D
330
33
100
AcDbEntity
  8
0
100
AcDbBlockBegin
  2
*X11
 70
     1
 10
0.0
 20
0.0
 30
0.0
  3
*X11
  1

  0
LINE
  5
66E
330
33
100
AcDbEntity
  8
0
 62
     0
100
AcDbLine
 10
4.158042821030212
 20
7.25625
 30
0.0
 11
4.184361161907728
 21
7.25625
 31
0.0
  0
LINE
  5
66F
330
33
100
AcDbEntity
  8
0
 62
     0
100
AcDbLine
 10
4.159464167164085
 20
7.2625
 30
0.0
 11
4.182939815773856
 21
7.2625
 31
0.0
  0
LINE
  5
670
330
33
100
AcDbEntity
  8
0
 62
     0
100
AcDbLine
 10
4.160801607892522
 20
7.26875
 30
0.0
 11
4.181602375045417
 21
7.26875
 31
0.0
  0
LINE
  5
671
330
33
100
AcDbEntity
  8
0
 62
     0
100
AcDbLine
 10
4.162055829087108
 20
7.275
 30
0.0
 11
4.180348153850832
 21
7.275
 31
0.0
  0
LINE
  5
672
330
33
100
AcDbEntity
  8
0
 62
     0
100
AcDbLine
 10
4.163227467165616
 20
7.28125
 30
0.0
 11
4.179176515772323
 21
7.28125
 31
0.0
  0
LINE
  5
673
330
33
100
AcDbEntity
  8
0
 62
     0
100
AcDbLine
 10
4.1643171107912
 20
7.2875
 30
0.0
 11
4.178086872146739
 21
7.2875
 31
0.0
  0
LINE
  5
674
330
33
100
AcDbEntity
  8
0
 62
     0
100
AcDbLine
 10
4.165325302419223
 20
7.29375
 30
0.0
 11
4.177078680518715
 21
7.29375
 31
0.0
  0
LINE
  5
675
330
33
100
AcDbEntity
  8
0
 62
     0
100
AcDbLine
 10
4.16625253970155
 20
7.3
 30
0.0
 11
4.17615144323639
 21
7.3
 31
0.0
  0
LINE
  5
676
330
33
100
AcDbEntity
  8
0
 62
     0
100
AcDbLine
 10
4.167099276757146
 20
7.30625
 30
0.0
 11
4.175304706180795
 21
7.30625
 31
0.0
  0
LINE
  5
677
330
33
100
AcDbEntity
  8
0
 62
     0
100
AcDbLine
 10
4.167865925316793
 20
7.3125
 30
0.0
 11
4.174538057621145
 21
7.3125
 31
0.0
  0
LINE
  5
678
330
33
100
AcDbEntity
  8
0
 62
     0
100
AcDbLine
 10
4.16855285574882
 20
7.31875
 30
0.0
 11
4.17385112718912
 21
7.31875
 31
0.0
  0
LINE
  5
679
330
33
100
AcDbEntity
  8
0
 62
     0
100
AcDbLine
 10
4.169160397971983
 20
7.325
 30
0.0
 11
4.173243584965957
 21
7.325
 31
0.0
  0
LINE
  5
67A
330
33
100
AcDbEntity
  8
0
 62
     0
100
AcDbLine
 10
4.169688842260835
 20
7.33125
 30
0.0
 11
4.172715140677103
 21
7.33125
 31
0.0
  0
LINE
  5
67B
330
33
100
AcDbEntity
  8
0
 62
     0
100
AcDbLine
 10
4.170138439948251
 20
7.3375
 30
0.0
 11
4.172265542989687
 21
7.3375
 31
0.0
  0
LINE
  5
67C
330
33
100
AcDbEntity
  8
0
 62
     0
100
AcDbLine
 10
4.170509404029122
 20
7.34375
 30
0.0
 11
4.171894578908817
 21
7.34375
 31
0.0
  0
LINE
  5
67D
330
33
100
AcDbEntity
  8
0
 62
     0
100
AcDbLine
 10
4.170801909668647
 20
7.35
 30
0.0
 11
4.171602073269292
 21
7.35
 31
0.0
  0
LINE
  5
67E
330
33
100
AcDbEntity
  8
0
 62
     0
100
AcDbLine
 10
4.171016094618071
 20
7.35625
 30
0.0
 11
4.171387888319867
 21
7.35625
 31
0.0
  0
LINE
  5
67F
330
33
100
AcDbEntity
  8
0
 62
     0
100
AcDbLine
 10
4.171152059540171
 20
7.3625
 30
0.0
 11
4.171251923397766
 21
7.3625
 31
0.0
  0
LINE
  5
680
330
33
100
AcDbEntity
  8
0
 62
     0
100
AcDbLine
 10
4.17119411469162
 20
7.36875
 30
0.0
 11
4.171209868246319
 21
7.36875
 31
0.0
  0
LINE
  5
681
330
33
100
AcDbEntity
  8
0
 62
     0
100
AcDbLine
 10
4.156536832302816
 20
7.25
 30
0.0
 11
4.185867150635123
 21
7.25
 31
0.0
  0
LINE
  5
682
330
33
100
AcDbEntity
  8
0
 62
     0
100
AcDbLine
 10
4.154945410438709
 20
7.24375
 30
0.0
 11
4.187458572499231
 21
7.24375
 31
0.0
  0
LINE
  5
683
330
33
100
AcDbEntity
  8
0
 62
     0
100
AcDbLine
 10
4.153267709311144
 20
7.2375
 30
0.0
 11
4.189136273626795
 21
7.2375
 31
0.0
  0
LINE
  5
684
330
33
100
AcDbEntity
  8
0
 62
     0
100
AcDbLine
 10
4.151502824775956
 20
7.23125
 30
0.0
 11
4.190901158161984
 21
7.23125
 31
0.0
  0
LINE
  5
685
330
33
100
AcDbEntity
  8
0
 62
     0
100
AcDbLine
 10
4.149649792014731
 20
7.225
 30
0.0
 11
4.170514238817704
 21
7.225
 31
0.0
  0
LINE
  5
686
330
33
100
AcDbEntity
  8
0
 62
     0
100
AcDbLine
 10
4.17188974412022
 20
7.225
 30
0.0
 11
4.192754190923209
 21
7.225
 31
0.0
  0
LINE
  5
687
330
33
100
AcDbEntity
  8
0
 62
     0
100
AcDbLine
 10
4.147707582635473
 20
7.21875
 30
0.0
 11
4.16865349922432
 21
7.21875
 31
0.0
  0
LINE
  5
688
330
33
100
AcDbEntity
  8
0
 62
     0
100
AcDbLine
 10
4.173750483713604
 20
7.21875
 30
0.0
 11
4.194696400302465
 21
7.21875
 31
0.0
  0
LINE
  5
689
330
33
100
AcDbEntity
  8
0
 62
     0
100
AcDbLine
 10
4.145675101508724
 20
7.2125
 30
0.0
 11
4.166706944063726
 21
7.2125
 31
0.0
  0
LINE
  5
68A
330
33
100
AcDbEntity
  8
0
 62
     0
100
AcDbLine
 10
4.175697038874197
 20
7.2125
 30
0.0
 11
4.196728881429214
 21
7.2125
 31
0.0
  0
LINE
  5
68B
330
33
100
AcDbEntity
  8
0
 62
     0
100
AcDbLine
 10
4.143551183314425
 20
7.20625
 30
0.0
 11
4.164673557788107
 21
7.20625
 31
0.0
  0
LINE
  5
68C
330
33
100
AcDbEntity
  8
0
 62
     0
100
AcDbLine
 10
4.17773042514982
 20
7.20625
 30
0.0
 11
4.198852799623516
 21
7.20625
 31
0.0
  0
LINE
  5
68D
330
33
100
AcDbEntity
  8
0
 62
     0
100
AcDbLine
 10
4.141334588771703
 20
7.2
 30
0.0
 11
4.162552262360144
 21
7.2
 31
0.0
  0
LINE
  5
68E
330
33
100
AcDbEntity
  8
0
 62
     0
100
AcDbLine
 10
4.179851720577784
 20
7.2
 30
0.0
 11
4.201069394166239
 21
7.2
 31
0.0
  0
LINE
  5
68F
330
33
100
AcDbEntity
  8
0
 62
     0
100
AcDbLine
 10
4.139024000520274
 20
7.19375
 30
0.0
 11
4.160341914027816
 21
7.19375
 31
0.0
  0
LINE
  5
690
330
33
100
AcDbEntity
  8
0
 62
     0
100
AcDbLine
 10
4.182062068910108
 20
7.19375
 30
0.0
 11
4.203379982417666
 21
7.19375
 31
0.0
  0
LINE
  5
691
330
33
100
AcDbEntity
  8
0
 62
     0
100
AcDbLine
 10
4.136618018618079
 20
7.1875
 30
0.0
 11
4.158041299813144
 21
7.1875
 31
0.0
  0
LINE
  5
692
330
33
100
AcDbEntity
  8
0
 62
     0
100
AcDbLine
 10
4.18436268312478
 20
7.1875
 30
0.0
 11
4.20578596431986
 21
7.1875
 31
0.0
  0
LINE
  5
693
330
33
100
AcDbEntity
  8
0
 62
     0
100
AcDbLine
 10
4.134115155615204
 20
7.18125
 30
0.0
 11
4.155649133687051
 21
7.18125
 31
0.0
  0
LINE
  5
694
330
33
100
AcDbEntity
  8
0
 62
     0
100
AcDbLine
 10
4.186754849250876
 20
7.18125
 30
0.0
 11
4.208288827322737
 21
7.18125
 31
0.0
  0
LINE
  5
695
330
33
100
AcDbEntity
  8
0
 62
     0
100
AcDbLine
 10
4.131513831158817
 20
7.175
 30
0.0
 11
4.153164052399043
 21
7.175
 31
0.0
  0
LINE
  5
696
330
33
100
AcDbEntity
  8
0
 62
     0
100
AcDbLine
 10
4.189239930538879
 20
7.175
 30
0.0
 11
4.210890151779121
 21
7.175
 31
0.0
  0
LINE
  5
697
330
33
100
AcDbEntity
  8
0
 62
     0
100
AcDbLine
 10
4.128812366077735
 20
7.16875
 30
0.0
 11
4.1505846109264
 21
7.16875
 31
0.0
  0
LINE
  5
698
330
33
100
AcDbEntity
  8
0
 62
     0
100
AcDbLine
 10
4.191819372011525
 20
7.16875
 30
0.0
 11
4.213591616860204
 21
7.16875
 31
0.0
  0
LINE
  5
699
330
33
100
AcDbEntity
  8
0
 62
     0
100
AcDbLine
 10
4.126008975888199
 20
7.1625
 30
0.0
 11
4.147909277503027
 21
7.1625
 31
0.0
  0
LINE
  5
69A
330
33
100
AcDbEntity
  8
0
 62
     0
100
AcDbLine
 10
4.194494705434896
 20
7.1625
 30
0.0
 11
4.216395007049741
 21
7.1625
 31
0.0
  0
LINE
  5
69B
330
33
100
AcDbEntity
  8
0
 62
     0
100
AcDbLine
 10
4.123101763654189
 20
7.15625
 30
0.0
 11
4.145136428182898
 21
7.15625
 31
0.0
  0
LINE
  5
69C
330
33
100
AcDbEntity
  8
0
 62
     0
100
AcDbLine
 10
4.197267554755029
 20
7.15625
 30
0.0
 11
4.219302219283752
 21
7.15625
 31
0.0
  0
ENDBLK
  5
69D
330
33
100
AcDbEntity
  8
0
100
AcDbBlockEnd
  0
BLOCK
  5
1171
330
116F
100
AcDbEntity
  8
0
100
AcDbBlockBegin
  2
GENAXEH
 70
     0
 10
0.0
 20
0.0
 30
0.0
  3
GENAXEH
  1

  0
LINE
  5
1170
330
116F
100
AcDbEntity
  8
0
100
AcDbLine
 10
-1.0
 20
0.0
 30
0.0
 11
1.0
 21
0.0
 31
0.0
  0
ENDBLK
  5
1172
330
116F
100
AcDbEntity
  8
0
100
AcDbBlockEnd
  0
BLOCK
  5
1864
330
1863
100
AcDbEntity
  8
0
100
AcDbBlockBegin
  2
*X97
 70
     1
 10
0.0
 20
0.0
 30
0.0
  3
*X97
  1

  0
LINE
  5
1865
330
1863
100
AcDbEntity
  8
0
 62
     0
100
AcDbLine
 10
38.91208393030641
 20
25.52302150531773
 30
0.0
 11
38.78708393030641
 21
25.64802150531774
 31
0.0
  0
LINE
  5
1866
330
1863
100
AcDbEntity
  8
0
 62
     0
100
AcDbLine
 10
36.65807125150623
 20
27.77703418411791
 30
0.0
 11
36.4170839303064
 21
28.01802150531774
 31
0.0
  0
LINE
  5
1867
330
1863
100
AcDbEntity
  8
0
 62
     0
100
AcDbLine
 10
38.11658880147155
 20
25.52302150531773
 30
0.0
 11
37.99158880147154
 21
25.64802150531773
 31
0.0
  0
LINE
  5
1868
330
1863
100
AcDbEntity
  8
0
 62
     0
100
AcDbLine
 10
36.67220334727941
 20
26.96740695950987
 30
0.0
 11
36.54496332339556
 21
27.09464698339372
 31
0.0
  0
LINE
  5
1869
330
1863
100
AcDbEntity
  8
0
 62
     0
100
AcDbLine
 10
37.32109367263668
 20
25.52302150531773
 30
0.0
 11
37.19609367263668
 21
25.64802150531773
 31
0.0
  0
LINE
  5
186A
330
1863
100
AcDbEntity
  8
0
 62
     0
100
AcDbLine
 10
36.68633544305259
 20
26.15777973490182
 30
0.0
 11
36.55909541916873
 21
26.28501975878567
 31
0.0
  0
LINE
  5
186B
330
1863
100
AcDbEntity
  8
0
 62
     0
100
AcDbLine
 10
39.70348911475632
 20
25.52711144970269
 30
0.0
 11
39.58257905914127
 21
25.64802150531774
 31
0.0
  0
LINE
  5
186C
330
1863
100
AcDbEntity
  8
0
 62
     0
100
AcDbLine
 10
39.8600206887397
 20
26.16607500455419
 30
0.0
 11
39.73714642596887
 21
26.288949267325
 31
0.0
  0
LINE
  5
186D
330
1863
100
AcDbEntity
  8
0
 62
     0
100
AcDbLine
 10
39.87366789499235
 20
26.9479229271364
 30
0.0
 11
39.75079363222153
 21
27.07079718990721
 31
0.0
  0
LINE
  5
186E
330
1863
100
AcDbEntity
  8
0
 62
     0
100
AcDbLine
 10
39.89734100989164
 20
27.71974494107198
 30
0.0
 11
39.76444083847419
 21
27.85264511248942
 31
0.0
  0
LINE
  5
186F
330
1863
100
AcDbEntity
  8
0
 62
     0
100
AcDbLine
 10
39.04466645155641
 20
25.52302150531773
 30
0.0
 11
38.91966645155641
 21
25.64802150531774
 31
0.0
  0
LINE
  5
1870
330
1863
100
AcDbEntity
  8
0
 62
     0
100
AcDbLine
 10
36.65571590221465
 20
27.91197205465949
 30
0.0
 11
36.53020653134349
 21
28.03748142553065
 31
0.0
  0
LINE
  5
1871
330
1863
100
AcDbEntity
  8
0
 62
     0
100
AcDbLine
 10
38.24917132272155
 20
25.52302150531773
 30
0.0
 11
38.12417132272154
 21
25.64802150531773
 31
0.0
  0
LINE
  5
1872
330
1863
100
AcDbEntity
  8
0
 62
     0
100
AcDbLine
 10
36.66984799798783
 20
27.10234483005145
 30
0.0
 11
36.54260797410398
 21
27.2295848539353
 31
0.0
  0
LINE
  5
1873
330
1863
100
AcDbEntity
  8
0
 62
     0
100
AcDbLine
 10
37.45367619388668
 20
25.52302150531773
 30
0.0
 11
37.32867619388668
 21
25.64802150531773
 31
0.0
  0
LINE
  5
1874
330
1863
100
AcDbEntity
  8
0
 62
     0
100
AcDbLine
 10
36.68398009376101
 20
26.2927176054434
 30
0.0
 11
36.55674006987716
 21
26.41995762932725
 31
0.0
  0
LINE
  5
1875
330
1863
100
AcDbEntity
  8
0
 62
     0
100
AcDbLine
 10
39.79105041391608
 20
25.57213267179293
 30
0.0
 11
39.68479219116599
 21
25.67839089454302
 31
0.0
  0
LINE
  5
1876
330
1863
100
AcDbEntity
  8
0
 62
     0
100
AcDbLine
 10
39.86229522311132
 20
26.29638299143256
 30
0.0
 11
39.7394209603405
 21
26.41925725420338
 31
0.0
  0
LINE
  5
1877
330
1863
100
AcDbEntity
  8
0
 62
     0
100
AcDbLine
 10
39.87594242936398
 20
27.07823091401477
 30
0.0
 11
39.75306816659315
 21
27.20110517678559
 31
0.0
  0
LINE
  5
1878
330
1863
100
AcDbEntity
  8
0
 62
     0
100
AcDbLine
 10
39.96363227051663
 20
27.78603620169698
 30
0.0
 11
39.76671537284581
 21
27.9829530993678
 31
0.0
  0
LINE
  5
1879
330
1863
100
AcDbEntity
  8
0
 62
     0
100
AcDbLine
 10
39.17724897355641
 20
25.52302150531773
 30
0.0
 11
39.05224897355641
 21
25.64802150531774
 31
0.0
  0
LINE
  5
187A
330
1863
100
AcDbEntity
  8
0
 62
     0
100
AcDbLine
 10
36.65336055290975
 20
28.04690992596439
 30
0.0
 11
36.53887167832308
 21
28.16139880055107
 31
0.0
  0
LINE
  5
187B
330
1863
100
AcDbEntity
  8
0
 62
     0
100
AcDbLine
 10
38.38175384472155
 20
25.52302150531773
 30
0.0
 11
38.25675384472154
 21
25.64802150531773
 31
0.0
  0
LINE
  5
187C
330
1863
100
AcDbEntity
  8
0
 62
     0
100
AcDbLine
 10
36.66749264868293
 20
27.23728270135635
 30
0.0
 11
36.54025262479908
 21
27.3645227252402
 31
0.0
  0
LINE
  5
187D
330
1863
100
AcDbEntity
  8
0
 62
     0
100
AcDbLine
 10
37.58625871588668
 20
25.52302150531773
 30
0.0
 11
37.46125871588668
 21
25.64802150531773
 31
0.0
  0
LINE
  5
187E
330
1863
100
AcDbEntity
  8
0
 62
     0
100
AcDbLine
 10
36.68162474445611
 20
26.4276554767483
 30
0.0
 11
36.55438472057226
 21
26.55489550063215
 31
0.0
  0
LINE
  5
187F
330
1863
100
AcDbEntity
  8
0
 62
     0
100
AcDbLine
 10
36.79076358705181
 20
25.52302150531773
 30
0.0
 11
36.56851681634544
 21
25.7452682760241
 31
0.0
  0
LINE
  5
1880
330
1863
100
AcDbEntity
  8
0
 62
     0
100
AcDbLine
 10
39.8429421604606
 20
25.6528234472484
 30
0.0
 11
39.72801082943764
 21
25.76775477827137
 31
0.0
  0
LINE
  5
1881
330
1863
100
AcDbEntity
  8
0
 62
     0
100
AcDbLine
 10
39.86456975749582
 20
26.42669097904807
 30
0.0
 11
39.74169549472499
 21
26.54956524181889
 31
0.0
  0
LINE
  5
1882
330
1863
100
AcDbEntity
  8
0
 62
     0
100
AcDbLine
 10
39.87821696374847
 20
27.20853890163028
 30
0.0
 11
39.75534270097765
 21
27.33141316440109
 31
0.0
  0
LINE
  5
1883
330
1863
100
AcDbEntity
  8
0
 62
     0
100
AcDbLine
 10
40.02311757413738
 20
27.85913342007622
 30
0.0
 11
39.76898990723031
 21
28.11326108698331
 31
0.0
  0
LINE
  5
1884
330
1863
100
AcDbEntity
  8
0
 62
     0
100
AcDbLine
 10
39.30983149480641
 20
25.52302150531773
 30
0.0
 11
39.18483149480641
 21
25.64802150531774
 31
0.0
  0
LINE
  5
1885
330
1863
100
AcDbEntity
  8
0
 62
     0
100
AcDbLine
 10
36.65100520361817
 20
28.18184779650597
 30
0.0
 11
36.56483149480642
 21
28.26802150531774
 31
0.0
  0
LINE
  5
1886
330
1863
100
AcDbEntity
  8
0
 62
     0
100
AcDbLine
 10
38.51433636597155
 20
25.52302150531773
 30
0.0
 11
38.38933636597154
 21
25.64802150531773
 31
0.0
  0
LINE
  5
1887
330
1863
100
AcDbEntity
  8
0
 62
     0
100
AcDbLine
 10
36.66513729939135
 20
27.37222057189793
 30
0.0
 11
36.5378972755075
 21
27.49946059578177
 31
0.0
  0
LINE
  5
1888
330
1863
100
AcDbEntity
  8
0
 62
     0
100
AcDbLine
 10
37.71884123713668
 20
25.52302150531773
 30
0.0
 11
37.59384123713668
 21
25.64802150531773
 31
0.0
  0
LINE
  5
1889
330
1863
100
AcDbEntity
  8
0
 62
     0
100
AcDbLine
 10
36.67926939516453
 20
26.56259334728988
 30
0.0
 11
36.55202937128068
 21
26.68983337117373
 31
0.0
  0
LINE
  5
188A
330
1863
100
AcDbEntity
  8
0
 62
     0
100
AcDbLine
 10
36.92334610830182
 20
25.52302150531773
 30
0.0
 11
36.79646471646723
 21
25.64990289715231
 31
0.0
  0
LINE
  5
188B
330
1863
100
AcDbEntity
  8
0
 62
     0
100
AcDbLine
 10
36.69495185577172
 20
25.75141575784783
 30
0.0
 11
36.56616146705386
 21
25.88020614656568
 31
0.0
  0
LINE
  5
188C
330
1863
100
AcDbEntity
  8
0
 62
     0
100
AcDbLine
 10
39.85319708561478
 20
25.77515104334424
 30
0.0
 11
39.73032282284396
 21
25.89802530611506
 31
0.0
  0
LINE
  5
188D
330
1863
100
AcDbEntity
  8
0
 62
     0
100
AcDbLine
 10
39.86684429186744
 20
26.55699896592644
 30
0.0
 11
39.74397002909661
 21
26.67987322869726
 31
0.0
  0
LINE
  5
188E
330
1863
100
AcDbEntity
  8
0
 62
     0
100
AcDbLine
 10
39.8804914981201
 20
27.33884688850865
 30
0.0
 11
39.75761723534927
 21
27.46172115127947
 31
0.0
  0
LINE
  5
188F
330
1863
100
AcDbEntity
  8
0
 62
     0
100
AcDbLine
 10
40.02311757413738
 20
27.99171594132622
 30
0.0
 11
39.99681201014587
 21
28.01802150531774
 31
0.0
  0
LINE
  5
1890
330
1863
100
AcDbEntity
  8
0
 62
     0
100
AcDbLine
 10
39.88449238161204
 20
28.13034113385157
 30
0.0
 11
39.77126444160193
 21
28.24356907386168
 31
0.0
  0
ENDBLK
  5
1891
330
1863
100
AcDbEntity
  8
0
100
AcDbBlockEnd
  0
BLOCK
  5
1893
330
1892
100
AcDbEntity
  8
0
100
AcDbBlockBegin
  2
*X98
 70
     1
 10
0.0
 20
0.0
 30
0.0
  3
*X98
  1

  0
LINE
  5
1894
330
1892
100
AcDbEntity
  8
0
 62
     0
100
AcDbLine
 10
10.19704891602013
 20
24.51596123504772
 30
0.0
 11
10.32204891602014
 21
24.64096123504772
 31
0.0
  0
LINE
  5
1895
330
1892
100
AcDbEntity
  8
0
 62
     0
100
AcDbLine
 10
9.401553787185269
 20
24.51596123504772
 30
0.0
 11
9.526553787185273
 21
24.64096123504772
 31
0.0
  0
LINE
  5
1896
330
1892
100
AcDbEntity
  8
0
 62
     0
100
AcDbLine
 10
8.606058658350404
 20
24.51596123504772
 30
0.0
 11
8.731058658350406
 21
24.64096123504772
 31
0.0
  0
LINE
  5
1897
330
1892
100
AcDbEntity
  8
0
 62
     0
100
AcDbLine
 10
10.90979886175489
 20
24.43321605194761
 30
0.0
 11
10.99818720940321
 21
24.52160439959593
 31
0.0
  0
LINE
  5
1898
330
1892
100
AcDbEntity
  8
0
 62
     0
100
AcDbLine
 10
11.37878037395141
 20
24.10670243530927
 30
0.0
 11
11.49650073579331
 21
24.22442279715116
 31
0.0
  0
LINE
  5
1899
330
1892
100
AcDbEntity
  8
0
 62
     0
100
AcDbLine
 10
10.32963143727013
 20
24.51596123504772
 30
0.0
 11
10.45463143727014
 21
24.64096123504772
 31
0.0
  0
LINE
  5
189A
330
1892
100
AcDbEntity
  8
0
 62
     0
100
AcDbLine
 10
9.53413630843527
 20
24.51596123504772
 30
0.0
 11
9.659136308435272
 21
24.64096123504772
 31
0.0
  0
LINE
  5
189B
330
1892
100
AcDbEntity
  8
0
 62
     0
100
AcDbLine
 10
8.738641179600403
 20
24.51596123504772
 30
0.0
 11
8.863641179600405
 21
24.64096123504772
 31
0.0
  0
LINE
  5
189C
330
1892
100
AcDbEntity
  8
0
 62
     0
100
AcDbLine
 10
10.9760901223799
 20
24.36692479132262
 30
0.0
 11
11.06447847002821
 21
24.45531313897093
 31
0.0
  0
LINE
  5
189D
330
1892
100
AcDbEntity
  8
0
 62
     0
100
AcDbLine
 10
11.42062169493987
 20
24.01596123504773
 30
0.0
 11
11.50097439580641
 21
24.09631393591427
 31
0.0
  0
LINE
  5
189E
330
1892
100
AcDbEntity
  8
0
 62
     0
100
AcDbLine
 10
10.46221395927013
 20
24.51596123504772
 30
0.0
 11
10.58721395927014
 21
24.64096123504772
 31
0.0
  0
LINE
  5
189F
330
1892
100
AcDbEntity
  8
0
 62
     0
100
AcDbLine
 10
9.66671883043527
 20
24.51596123504772
 30
0.0
 11
9.791718830435273
 21
24.64096123504772
 31
0.0
  0
LINE
  5
18A0
330
1892
100
AcDbEntity
  8
0
 62
     0
100
AcDbLine
 10
8.871223701600404
 20
24.51596123504772
 30
0.0
 11
8.996223701600406
 21
24.64096123504772
 31
0.0
  0
LINE
  5
18A1
330
1892
100
AcDbEntity
  8
0
 62
     0
100
AcDbLine
 10
7.889701705383815
 20
24.329934367666
 30
0.0
 11
8.013228572765541
 21
24.45346123504772
 31
0.0
  0
LINE
  5
18A2
330
1892
100
AcDbEntity
  8
0
 62
     0
100
AcDbLine
 10
11.07020908810501
 20
24.32846123504774
 30
0.0
 11
11.19520908810501
 21
24.45346123504773
 31
0.0
  0
LINE
  5
18A3
330
1892
100
AcDbEntity
  8
0
 62
     0
100
AcDbLine
 10
10.59479648052013
 20
24.51596123504772
 30
0.0
 11
10.71979648052014
 21
24.64096123504772
 31
0.0
  0
LINE
  5
18A4
330
1892
100
AcDbEntity
  8
0
 62
     0
100
AcDbLine
 10
9.799301351685269
 20
24.51596123504772
 30
0.0
 11
9.924301351685272
 21
24.64096123504772
 31
0.0
  0
LINE
  5
18A5
330
1892
100
AcDbEntity
  8
0
 62
     0
100
AcDbLine
 10
9.003806222850403
 20
24.51596123504772
 30
0.0
 11
9.128806222850405
 21
24.64096123504772
 31
0.0
  0
LINE
  5
18A6
330
1892
100
AcDbEntity
  8
0
 62
     0
100
AcDbLine
 10
7.884904292366474
 20
24.19255443339866
 30
0.0
 11
8.14581109401554
 21
24.45346123504772
 31
0.0
  0
LINE
  5
18A7
330
1892
100
AcDbEntity
  8
0
 62
     0
100
AcDbLine
 10
11.20279160935501
 20
24.32846123504774
 30
0.0
 11
11.32779160935501
 21
24.45346123504773
 31
0.0
  0
ENDBLK
  5
18A8
330
1892
100
AcDbEntity
  8
0
100
AcDbBlockEnd
  0
BLOCK
  5
18DC
330
18DB
100
AcDbEntity
  8
0
100
AcDbBlockBegin
  2
*X100
 70
     1
 10
0.0
 20
0.0
 30
0.0
  3
*X100
  1

  0
LINE
  5
18DD
330
18DB
100
AcDbEntity
  8
0
 62
     0
100
AcDbLine
 10
43.91109963283668
 20
25.3495466266898
 30
0.0
 11
44.03609963283667
 21
25.4745466266898
 31
0.0
  0
LINE
  5
18DE
330
18DB
100
AcDbEntity
  8
0
 62
     0
100
AcDbLine
 10
43.91109963283668
 20
25.87987671257971
 30
0.0
 11
44.03609963283667
 21
26.00487671257971
 31
0.0
  0
LINE
  5
18DF
330
18DB
100
AcDbEntity
  8
0
 62
     0
100
AcDbLine
 10
43.91109963283668
 20
26.41020679846962
 30
0.0
 11
44.03609963283667
 21
26.53520679846962
 31
0.0
  0
LINE
  5
18E0
330
18DB
100
AcDbEntity
  8
0
 62
     0
100
AcDbLine
 10
43.91109963283668
 20
26.94053688435953
 30
0.0
 11
44.03609963283667
 21
27.06553688435953
 31
0.0
  0
LINE
  5
18E1
330
18DB
100
AcDbEntity
  8
0
 62
     0
100
AcDbLine
 10
43.91109963283668
 20
27.47086697024944
 30
0.0
 11
44.03609963283667
 21
27.59586697024944
 31
0.0
  0
LINE
  5
18E2
330
18DB
100
AcDbEntity
  8
0
 62
     0
100
AcDbLine
 10
43.91109963283668
 20
28.00119705613936
 30
0.0
 11
44.03609963283667
 21
28.12619705613935
 31
0.0
  0
LINE
  5
18E3
330
18DB
100
AcDbEntity
  8
0
 62
     0
100
AcDbLine
 10
43.91109963283668
 20
28.53152714202927
 30
0.0
 11
44.03609963283667
 21
28.65652714202926
 31
0.0
  0
LINE
  5
18E4
330
18DB
100
AcDbEntity
  8
0
 62
     0
100
AcDbLine
 10
43.91109963283668
 20
29.06185722791918
 30
0.0
 11
44.03609963283667
 21
29.18685722791917
 31
0.0
  0
LINE
  5
18E5
330
18DB
100
AcDbEntity
  8
0
 62
     0
100
AcDbLine
 10
44.09859963283667
 20
29.77968731380908
 30
0.0
 11
44.33760409134158
 21
30.01869177231399
 31
0.0
  0
LINE
  5
18E6
330
18DB
100
AcDbEntity
  8
0
 62
     0
100
AcDbLine
 10
43.91109963283668
 20
24.81921654079989
 30
0.0
 11
44.03609963283667
 21
24.94421654079989
 31
0.0
  0
LINE
  5
18E7
330
18DB
100
AcDbEntity
  8
0
 62
     0
100
AcDbLine
 10
43.91109963283668
 20
24.28888645490998
 30
0.0
 11
44.03609963283667
 21
24.41388645490998
 31
0.0
  0
LINE
  5
18E8
330
18DB
100
AcDbEntity
  8
0
 62
     0
100
AcDbLine
 10
43.91109963283668
 20
23.75855636902007
 30
0.0
 11
44.03609963283667
 21
23.88355636902007
 31
0.0
  0
LINE
  5
18E9
330
18DB
100
AcDbEntity
  8
0
 62
     0
100
AcDbLine
 10
43.91109963283668
 20
23.22822628313016
 30
0.0
 11
44.03609963283667
 21
23.35322628313015
 31
0.0
  0
LINE
  5
18EA
330
18DB
100
AcDbEntity
  8
0
 62
     0
100
AcDbLine
 10
43.91109963283668
 20
22.69789619724025
 30
0.0
 11
44.03609963283667
 21
22.82289619724025
 31
0.0
  0
LINE
  5
18EB
330
18DB
100
AcDbEntity
  8
0
 62
     0
100
AcDbLine
 10
43.91109963283668
 20
22.16756611135034
 30
0.0
 11
44.03609963283667
 21
22.29256611135034
 31
0.0
  0
LINE
  5
18EC
330
18DB
100
AcDbEntity
  8
0
 62
     0
100
AcDbLine
 10
43.91109963283668
 20
21.63723602546043
 30
0.0
 11
44.03609963283667
 21
21.76223602546043
 31
0.0
  0
LINE
  5
18ED
330
18DB
100
AcDbEntity
  8
0
 62
     0
100
AcDbLine
 10
44.00981193175407
 20
21.2056182384879
 30
0.0
 11
44.09820027940238
 21
21.29400658613622
 31
0.0
  0
LINE
  5
18EE
330
18DB
100
AcDbEntity
  8
0
 62
     0
100
AcDbLine
 10
44.09859963283667
 20
20.76407585368061
 30
0.0
 11
44.22359963283668
 21
20.8890758536806
 31
0.0
  0
LINE
  5
18EF
330
18DB
100
AcDbEntity
  8
0
 62
     0
100
AcDbLine
 10
43.91109963283668
 20
25.2611582791898
 30
0.0
 11
44.03609963283667
 21
25.3861582791898
 31
0.0
  0
LINE
  5
18F0
330
18DB
100
AcDbEntity
  8
0
 62
     0
100
AcDbLine
 10
43.91109963283668
 20
25.79148836507971
 30
0.0
 11
44.03609963283667
 21
25.91648836507971
 31
0.0
  0
LINE
  5
18F1
330
18DB
100
AcDbEntity
  8
0
 62
     0
100
AcDbLine
 10
43.91109963283668
 20
26.32181845096962
 30
0.0
 11
44.03609963283667
 21
26.44681845096962
 31
0.0
  0
LINE
  5
18F2
330
18DB
100
AcDbEntity
  8
0
 62
     0
100
AcDbLine
 10
43.91109963283668
 20
26.85214853685953
 30
0.0
 11
44.03609963283667
 21
26.97714853685953
 31
0.0
  0
LINE
  5
18F3
330
18DB
100
AcDbEntity
  8
0
 62
     0
100
AcDbLine
 10
43.91109963283668
 20
27.38247862274944
 30
0.0
 11
44.03609963283667
 21
27.50747862274944
 31
0.0
  0
LINE
  5
18F4
330
18DB
100
AcDbEntity
  8
0
 62
     0
100
AcDbLine
 10
43.91109963283668
 20
27.91280870863936
 30
0.0
 11
44.03609963283667
 21
28.03780870863935
 31
0.0
  0
LINE
  5
18F5
330
18DB
100
AcDbEntity
  8
0
 62
     0
100
AcDbLine
 10
43.91109963283668
 20
28.44313879452927
 30
0.0
 11
44.03609963283667
 21
28.56813879452926
 31
0.0
  0
LINE
  5
18F6
330
18DB
100
AcDbEntity
  8
0
 62
     0
100
AcDbLine
 10
43.91109963283668
 20
28.97346888041917
 30
0.0
 11
44.03609963283667
 21
29.09846888041917
 31
0.0
  0
LINE
  5
18F7
330
18DB
100
AcDbEntity
  8
0
 62
     0
100
AcDbLine
 10
44.09859963283667
 20
29.69129896630909
 30
0.0
 11
44.22359963283668
 21
29.81629896630908
 31
0.0
  0
LINE
  5
18F8
330
18DB
100
AcDbEntity
  8
0
 62
     0
100
AcDbLine
 10
44.30792405589127
 20
29.90062338936369
 30
0.0
 11
44.42919071418648
 21
30.02189004765889
 31
0.0
  0
LINE
  5
18F9
330
18DB
100
AcDbEntity
  8
0
 62
     0
100
AcDbLine
 10
43.91109963283668
 20
24.73082819329989
 30
0.0
 11
44.03609963283667
 21
24.85582819329989
 31
0.0
  0
LINE
  5
18FA
330
18DB
100
AcDbEntity
  8
0
 62
     0
100
AcDbLine
 10
43.91109963283668
 20
24.20049810740998
 30
0.0
 11
44.03609963283667
 21
24.32549810740998
 31
0.0
  0
LINE
  5
18FB
330
18DB
100
AcDbEntity
  8
0
 62
     0
100
AcDbLine
 10
43.91109963283668
 20
23.67016802152007
 30
0.0
 11
44.03609963283667
 21
23.79516802152007
 31
0.0
  0
LINE
  5
18FC
330
18DB
100
AcDbEntity
  8
0
 62
     0
100
AcDbLine
 10
43.91109963283668
 20
23.13983793563016
 30
0.0
 11
44.03609963283667
 21
23.26483793563015
 31
0.0
  0
LINE
  5
18FD
330
18DB
100
AcDbEntity
  8
0
 62
     0
100
AcDbLine
 10
43.91109963283668
 20
22.60950784974025
 30
0.0
 11
44.03609963283667
 21
22.73450784974024
 31
0.0
  0
LINE
  5
18FE
330
18DB
100
AcDbEntity
  8
0
 62
     0
100
AcDbLine
 10
43.91109963283668
 20
22.07917776385034
 30
0.0
 11
44.03609963283667
 21
22.20417776385033
 31
0.0
  0
LINE
  5
18FF
330
18DB
100
AcDbEntity
  8
0
 62
     0
100
AcDbLine
 10
43.91109963283668
 20
21.54884767796042
 30
0.0
 11
44.03609963283667
 21
21.67384767796042
 31
0.0
  0
LINE
  5
1900
330
18DB
100
AcDbEntity
  8
0
 62
     0
100
AcDbLine
 10
44.05400610550406
 20
21.1614240647379
 30
0.0
 11
44.14239445315238
 21
21.24981241238622
 31
0.0
  0
LINE
  5
1901
330
18DB
100
AcDbEntity
  8
0
 62
     0
100
AcDbLine
 10
44.12606719892989
 20
20.70315507227381
 30
0.0
 11
44.23462221188425
 21
20.81171008522818
 31
0.0
  0
LINE
  5
1902
330
18DB
100
AcDbEntity
  8
0
 62
     0
100
AcDbLine
 10
43.91109963283668
 20
25.1727699311898
 30
0.0
 11
44.03609963283667
 21
25.2977699311898
 31
0.0
  0
LINE
  5
1903
330
18DB
100
AcDbEntity
  8
0
 62
     0
100
AcDbLine
 10
43.91109963283668
 20
25.70310001707972
 30
0.0
 11
44.03609963283667
 21
25.82810001707971
 31
0.0
  0
LINE
  5
1904
330
18DB
100
AcDbEntity
  8
0
 62
     0
100
AcDbLine
 10
43.91109963283668
 20
26.23343010296962
 30
0.0
 11
44.03609963283667
 21
26.35843010296962
 31
0.0
  0
LINE
  5
1905
330
18DB
100
AcDbEntity
  8
0
 62
     0
100
AcDbLine
 10
43.91109963283668
 20
26.76376018885954
 30
0.0
 11
44.03609963283667
 21
26.88876018885953
 31
0.0
  0
LINE
  5
1906
330
18DB
100
AcDbEntity
  8
0
 62
     0
100
AcDbLine
 10
43.91109963283668
 20
27.29409027474944
 30
0.0
 11
44.03609963283667
 21
27.41909027474944
 31
0.0
  0
LINE
  5
1907
330
18DB
100
AcDbEntity
  8
0
 62
     0
100
AcDbLine
 10
43.91109963283668
 20
27.82442036063935
 30
0.0
 11
44.03609963283667
 21
27.94942036063935
 31
0.0
  0
LINE
  5
1908
330
18DB
100
AcDbEntity
  8
0
 62
     0
100
AcDbLine
 10
43.91109963283668
 20
28.35475044652926
 30
0.0
 11
44.03609963283667
 21
28.47975044652926
 31
0.0
  0
LINE
  5
1909
330
18DB
100
AcDbEntity
  8
0
 62
     0
100
AcDbLine
 10
43.91109963283668
 20
28.88508053241917
 30
0.0
 11
44.03609963283667
 21
29.01008053241918
 31
0.0
  0
LINE
  5
190A
330
18DB
100
AcDbEntity
  8
0
 62
     0
100
AcDbLine
 10
44.09859963283667
 20
29.60291061830909
 30
0.0
 11
44.22359963283668
 21
29.72791061830909
 31
0.0
  0
LINE
  5
190B
330
18DB
100
AcDbEntity
  8
0
 62
     0
100
AcDbLine
 10
44.39631240389127
 20
29.90062338936369
 30
0.0
 11
44.52077733754946
 21
30.02508832302188
 31
0.0
  0
LINE
  5
190C
330
18DB
100
AcDbEntity
  8
0
 62
     0
100
AcDbLine
 10
43.91109963283668
 20
24.64243984529989
 30
0.0
 11
44.03609963283667
 21
24.76743984529989
 31
0.0
  0
LINE
  5
190D
330
18DB
100
AcDbEntity
  8
0
 62
     0
100
AcDbLine
 10
43.91109963283668
 20
24.11210975940998
 30
0.0
 11
44.03609963283667
 21
24.23710975940998
 31
0.0
  0
LINE
  5
190E
330
18DB
100
AcDbEntity
  8
0
 62
     0
100
AcDbLine
 10
43.91109963283668
 20
23.58177967352007
 30
0.0
 11
44.03609963283667
 21
23.70677967352007
 31
0.0
  0
LINE
  5
190F
330
18DB
100
AcDbEntity
  8
0
 62
     0
100
AcDbLine
 10
43.91109963283668
 20
23.05144958763016
 30
0.0
 11
44.03609963283667
 21
23.17644958763016
 31
0.0
  0
LINE
  5
1910
330
18DB
100
AcDbEntity
  8
0
 62
     0
100
AcDbLine
 10
43.91109963283668
 20
22.52111950174025
 30
0.0
 11
44.03609963283667
 21
22.64611950174025
 31
0.0
  0
LINE
  5
1911
330
18DB
100
AcDbEntity
  8
0
 62
     0
100
AcDbLine
 10
43.91109963283668
 20
21.99078941585034
 30
0.0
 11
44.03609963283667
 21
22.11578941585034
 31
0.0
  0
LINE
  5
1912
330
18DB
100
AcDbEntity
  8
0
 62
     0
100
AcDbLine
 10
43.91109963283668
 20
21.46045932996043
 30
0.0
 11
44.03609963283667
 21
21.58545932996043
 31
0.0
  0
LINE
  5
1913
330
18DB
100
AcDbEntity
  8
0
 62
     0
100
AcDbLine
 10
44.09820027950406
 20
21.1172298907379
 30
0.0
 11
44.18658862715239
 21
21.20561823838622
 31
0.0
  0
LINE
  5
1914
330
18DB
100
AcDbEntity
  8
0
 62
     0
100
AcDbLine
 10
44.20223965924178
 20
20.69093918458571
 30
0.0
 11
44.31558101206136
 21
20.80428053740529
 31
0.0
  0
LINE
  5
1915
330
18DB
100
AcDbEntity
  8
0
 62
     0
100
AcDbLine
 10
43.91109963283668
 20
25.0843815836898
 30
0.0
 11
44.03609963283667
 21
25.2093815836898
 31
0.0
  0
LINE
  5
1916
330
18DB
100
AcDbEntity
  8
0
 62
     0
100
AcDbLine
 10
43.91109963283668
 20
25.61471166957971
 30
0.0
 11
44.03609963283667
 21
25.73971166957971
 31
0.0
  0
LINE
  5
1917
330
18DB
100
AcDbEntity
  8
0
 62
     0
100
AcDbLine
 10
43.91109963283668
 20
26.14504175546962
 30
0.0
 11
44.03609963283667
 21
26.27004175546962
 31
0.0
  0
LINE
  5
1918
330
18DB
100
AcDbEntity
  8
0
 62
     0
100
AcDbLine
 10
43.91109963283668
 20
26.67537184135954
 30
0.0
 11
44.03609963283667
 21
26.80037184135953
 31
0.0
  0
LINE
  5
1919
330
18DB
100
AcDbEntity
  8
0
 62
     0
100
AcDbLine
 10
43.91109963283668
 20
27.20570192724944
 30
0.0
 11
44.03609963283667
 21
27.33070192724945
 31
0.0
  0
LINE
  5
191A
330
18DB
100
AcDbEntity
  8
0
 62
     0
100
AcDbLine
 10
43.91109963283668
 20
27.73603201313936
 30
0.0
 11
44.03609963283667
 21
27.86103201313935
 31
0.0
  0
LINE
  5
191B
330
18DB
100
AcDbEntity
  8
0
 62
     0
100
AcDbLine
 10
43.91109963283668
 20
28.26636209902927
 30
0.0
 11
44.03609963283667
 21
28.39136209902926
 31
0.0
  0
LINE
  5
191C
330
18DB
100
AcDbEntity
  8
0
 62
     0
100
AcDbLine
 10
43.91109963283668
 20
28.79669218491918
 30
0.0
 11
44.03609963283667
 21
28.92169218491917
 31
0.0
  0
LINE
  5
191D
330
18DB
100
AcDbEntity
  8
0
 62
     0
100
AcDbLine
 10
43.91109963283668
 20
29.32702227080909
 30
0.0
 11
44.22359963283668
 21
29.63952227080909
 31
0.0
  0
LINE
  5
191E
330
18DB
100
AcDbEntity
  8
0
 62
     0
100
AcDbLine
 10
44.48470075139127
 20
29.90062338936369
 30
0.0
 11
44.53609963283668
 21
29.95202227080909
 31
0.0
  0
LINE
  5
191F
330
18DB
100
AcDbEntity
  8
0
 62
     0
100
AcDbLine
 10
43.91109963283668
 20
24.5540514977999
 30
0.0
 11
44.03609963283667
 21
24.67905149779989
 31
0.0
  0
LINE
  5
1920
330
18DB
100
AcDbEntity
  8
0
 62
     0
100
AcDbLine
 10
43.91109963283668
 20
24.02372141190998
 30
0.0
 11
44.03609963283667
 21
24.14872141190998
 31
0.0
  0
LINE
  5
1921
330
18DB
100
AcDbEntity
  8
0
 62
     0
100
AcDbLine
 10
43.91109963283668
 20
23.49339132602007
 30
0.0
 11
44.03609963283667
 21
23.61839132602007
 31
0.0
  0
LINE
  5
1922
330
18DB
100
AcDbEntity
  8
0
 62
     0
100
AcDbLine
 10
43.91109963283668
 20
22.96306124013016
 30
0.0
 11
44.03609963283667
 21
23.08806124013016
 31
0.0
  0
LINE
  5
1923
330
18DB
100
AcDbEntity
  8
0
 62
     0
100
AcDbLine
 10
43.91109963283668
 20
22.43273115424025
 30
0.0
 11
44.03609963283667
 21
22.55773115424025
 31
0.0
  0
LINE
  5
1924
330
18DB
100
AcDbEntity
  8
0
 62
     0
100
AcDbLine
 10
43.91109963283668
 20
21.90240106835034
 30
0.0
 11
44.03609963283667
 21
22.02740106835034
 31
0.0
  0
LINE
  5
1925
330
18DB
100
AcDbEntity
  8
0
 62
     0
100
AcDbLine
 10
43.91109963283668
 20
21.37207098246043
 30
0.0
 11
44.03609963283667
 21
21.49707098246043
 31
0.0
  0
LINE
  5
1926
330
18DB
100
AcDbEntity
  8
0
 62
     0
100
AcDbLine
 10
44.09859963283667
 20
21.02924089657052
 30
0.0
 11
44.22359963283668
 21
21.15424089657051
 31
0.0
  0
LINE
  5
1927
330
18DB
100
AcDbEntity
  8
0
 62
     0
100
AcDbLine
 10
44.28764556673305
 20
20.68795674457698
 30
0.0
 11
44.40396935956136
 21
20.80428053740529
 31
0.0
  0
ENDBLK
  5
1928
330
18DB
100
AcDbEntity
  8
0
100
AcDbBlockEnd
  0
BLOCK
  5
192A
330
1929
100
AcDbEntity
  8
0
100
AcDbBlockBegin
  2
*X101
 70
     1
 10
0.0
 20
0.0
 30
0.0
  3
*X101
  1

  0
LINE
  5
192B
330
1929
100
AcDbEntity
  8
0
 62
     0
100
AcDbLine
 10
47.04609963283668
 20
23.48780179052143
 30
0.0
 11
46.92109963283667
 21
23.61280179052144
 31
0.0
  0
LINE
  5
192C
330
1929
100
AcDbEntity
  8
0
 62
     0
100
AcDbLine
 10
47.04609963283668
 20
22.95747170463152
 30
0.0
 11
46.92109963283667
 21
23.08247170463153
 31
0.0
  0
LINE
  5
192D
330
1929
100
AcDbEntity
  8
0
 62
     0
100
AcDbLine
 10
47.04609963283668
 20
22.42714161874161
 30
0.0
 11
46.92109963283667
 21
22.55214161874162
 31
0.0
  0
LINE
  5
192E
330
1929
100
AcDbEntity
  8
0
 62
     0
100
AcDbLine
 10
47.04609963283668
 20
21.8968115328517
 30
0.0
 11
46.92109963283667
 21
22.02181153285171
 31
0.0
  0
LINE
  5
192F
330
1929
100
AcDbEntity
  8
0
 62
     0
100
AcDbLine
 10
47.04609963283668
 20
21.36648144696179
 30
0.0
 11
46.92109963283667
 21
21.4914814469618
 31
0.0
  0
LINE
  5
1930
330
1929
100
AcDbEntity
  8
0
 62
     0
100
AcDbLine
 10
46.98388857021115
 20
20.89836242369741
 30
0.0
 11
46.87768156743739
 21
21.00456942647117
 31
0.0
  0
LINE
  5
1931
330
1929
100
AcDbEntity
  8
0
 62
     0
100
AcDbLine
 10
46.50771645790879
 20
20.84420445010986
 30
0.0
 11
46.38484219513798
 21
20.96707871288067
 31
0.0
  0
LINE
  5
1932
330
1929
100
AcDbEntity
  8
0
 62
     0
100
AcDbLine
 10
45.98648450952065
 20
20.83510631260808
 30
0.0
 11
45.86361024674984
 21
20.95798057537889
 31
0.0
  0
LINE
  5
1933
330
1929
100
AcDbEntity
  8
0
 62
     0
100
AcDbLine
 10
45.46525256113252
 20
20.8260081751063
 30
0.0
 11
45.34237829836171
 21
20.94888243787712
 31
0.0
  0
LINE
  5
1934
330
1929
100
AcDbEntity
  8
0
 62
     0
100
AcDbLine
 10
44.94402061274438
 20
20.81691003760453
 30
0.0
 11
44.82114634997357
 21
20.93978430037534
 31
0.0
  0
LINE
  5
1935
330
1929
100
AcDbEntity
  8
0
 62
     0
100
AcDbLine
 10
44.55132002705371
 20
20.67928053740529
 30
0.0
 11
44.55109963283667
 21
20.67950093162233
 31
0.0
  0
LINE
  5
1936
330
1929
100
AcDbEntity
  8
0
 62
     0
100
AcDbLine
 10
44.41073364181284
 20
20.81986692264616
 30
0.0
 11
44.30109963283668
 21
20.92950093162233
 31
0.0
  0
LINE
  5
1937
330
1929
100
AcDbEntity
  8
0
 62
     0
100
AcDbLine
 10
47.04609963283668
 20
24.01813187641134
 30
0.0
 11
46.92109963283668
 21
24.14313187641135
 31
0.0
  0
LINE
  5
1938
330
1929
100
AcDbEntity
  8
0
 62
     0
100
AcDbLine
 10
47.04609963283668
 20
24.54846196230125
 30
0.0
 11
46.92109963283668
 21
24.67346196230126
 31
0.0
  0
LINE
  5
1939
330
1929
100
AcDbEntity
  8
0
 62
     0
100
AcDbLine
 10
47.04609963283668
 20
25.07879204819117
 30
0.0
 11
46.92109963283668
 21
25.20379204819117
 31
0.0
  0
LINE
  5
193A
330
1929
100
AcDbEntity
  8
0
 62
     0
100
AcDbLine
 10
47.04609963283668
 20
25.60912213408107
 30
0.0
 11
46.92109963283668
 21
25.73412213408108
 31
0.0
  0
LINE
  5
193B
330
1929
100
AcDbEntity
  8
0
 62
     0
100
AcDbLine
 10
47.04609963283668
 20
26.13945221997099
 30
0.0
 11
46.92109963283668
 21
26.26445221997099
 31
0.0
  0
LINE
  5
193C
330
1929
100
AcDbEntity
  8
0
 62
     0
100
AcDbLine
 10
47.04609963283668
 20
26.6697823058609
 30
0.0
 11
46.92109963283668
 21
26.7947823058609
 31
0.0
  0
LINE
  5
193D
330
1929
100
AcDbEntity
  8
0
 62
     0
100
AcDbLine
 10
47.04609963283668
 20
27.20011239175081
 30
0.0
 11
46.92109963283668
 21
27.32511239175081
 31
0.0
  0
LINE
  5
193E
330
1929
100
AcDbEntity
  8
0
 62
     0
100
AcDbLine
 10
44.47505128638763
 20
29.77116073819986
 30
0.0
 11
44.36441400499755
 21
29.88179801958993
 31
0.0
  0
LINE
  5
193F
330
1929
100
AcDbEntity
  8
0
 62
     0
100
AcDbLine
 10
47.04609963283668
 20
27.73044247764072
 30
0.0
 11
46.92109963283668
 21
27.85544247764072
 31
0.0
  0
LINE
  5
1940
330
1929
100
AcDbEntity
  8
0
 62
     0
100
AcDbLine
 10
45.01480276945967
 20
29.76173934101773
 30
0.0
 11
44.88756274557583
 21
29.88897936490158
 31
0.0
  0
LINE
  5
1941
330
1929
100
AcDbEntity
  8
0
 62
     0
100
AcDbLine
 10
47.04609963283668
 20
28.26077256353063
 30
0.0
 11
46.92109963283669
 21
28.38577256353063
 31
0.0
  0
LINE
  5
1942
330
1929
100
AcDbEntity
  8
0
 62
     0
100
AcDbLine
 10
45.5545542525317
 20
29.75231794383561
 30
0.0
 11
45.42731422864786
 21
29.87955796771945
 31
0.0
  0
LINE
  5
1943
330
1929
100
AcDbEntity
  8
0
 62
     0
100
AcDbLine
 10
47.04609963283668
 20
28.79110264942054
 30
0.0
 11
46.92109963283669
 21
28.91610264942054
 31
0.0
  0
LINE
  5
1944
330
1929
100
AcDbEntity
  8
0
 62
     0
100
AcDbLine
 10
46.09430573560374
 20
29.74289654665348
 30
0.0
 11
45.96706571171989
 21
29.87013657053733
 31
0.0
  0
LINE
  5
1945
330
1929
100
AcDbEntity
  8
0
 62
     0
100
AcDbLine
 10
47.04609963283668
 20
29.32143273531045
 30
0.0
 11
46.92109963283669
 21
29.44643273531045
 31
0.0
  0
LINE
  5
1946
330
1929
100
AcDbEntity
  8
0
 62
     0
100
AcDbLine
 10
46.63405721867579
 20
29.73347514947135
 30
0.0
 11
46.50681719479193
 21
29.86071517335521
 31
0.0
  0
LINE
  5
1947
330
1929
100
AcDbEntity
  8
0
 62
     0
100
AcDbLine
 10
47.04609963283668
 20
23.57619013802143
 30
0.0
 11
46.92109963283668
 21
23.70119013802144
 31
0.0
  0
LINE
  5
1948
330
1929
100
AcDbEntity
  8
0
 62
     0
100
AcDbLine
 10
47.04609963283668
 20
23.04586005213153
 30
0.0
 11
46.92109963283667
 21
23.17086005213153
 31
0.0
  0
LINE
  5
1949
330
1929
100
AcDbEntity
  8
0
 62
     0
100
AcDbLine
 10
47.04609963283668
 20
22.51552996624161
 30
0.0
 11
46.92109963283667
 21
22.64052996624162
 31
0.0
  0
LINE
  5
194A
330
1929
100
AcDbEntity
  8
0
 62
     0
100
AcDbLine
 10
47.04609963283668
 20
21.9851998803517
 30
0.0
 11
46.92109963283667
 21
22.11019988035171
 31
0.0
  0
LINE
  5
194B
330
1929
100
AcDbEntity
  8
0
 62
     0
100
AcDbLine
 10
47.04609963283668
 20
21.45486979446179
 30
0.0
 11
46.92109963283667
 21
21.5798697944618
 31
0.0
  0
LINE
  5
194C
330
1929
100
AcDbEntity
  8
0
 62
     0
100
AcDbLine
 10
47.02297921627088
 20
20.94766012513769
 30
0.0
 11
46.91370855709815
 21
21.05693078431041
 31
0.0
  0
LINE
  5
194D
330
1929
100
AcDbEntity
  8
0
 62
     0
100
AcDbLine
 10
46.59458844916104
 20
20.84572080635761
 30
0.0
 11
46.47171418639023
 21
20.96859506912842
 31
0.0
  0
LINE
  5
194E
330
1929
100
AcDbEntity
  8
0
 62
     0
100
AcDbLine
 10
46.07335650077291
 20
20.83662266885584
 30
0.0
 11
45.95048223800209
 21
20.95949693162665
 31
0.0
  0
LINE
  5
194F
330
1929
100
AcDbEntity
  8
0
 62
     0
100
AcDbLine
 10
45.55212455238478
 20
20.82752453135405
 30
0.0
 11
45.42925028961396
 21
20.95039879412487
 31
0.0
  0
LINE
  5
1950
330
1929
100
AcDbEntity
  8
0
 62
     0
100
AcDbLine
 10
45.03089260399664
 20
20.81842639385228
 30
0.0
 11
44.90801834122581
 21
20.9413006566231
 31
0.0
  0
LINE
  5
1951
330
1929
100
AcDbEntity
  8
0
 62
     0
100
AcDbLine
 10
44.63970837455372
 20
20.67928053740529
 30
0.0
 11
44.55109963283667
 21
20.76788927912233
 31
0.0
  0
LINE
  5
1952
330
1929
100
AcDbEntity
  8
0
 62
     0
100
AcDbLine
 10
44.50576739682808
 20
20.81322151513093
 30
0.0
 11
44.38678639283768
 21
20.93220251912132
 31
0.0
  0
LINE
  5
1953
330
1929
100
AcDbEntity
  8
0
 62
     0
100
AcDbLine
 10
47.04609963283668
 20
24.10652022391134
 30
0.0
 11
46.92109963283668
 21
24.23152022391135
 31
0.0
  0
LINE
  5
1954
330
1929
100
AcDbEntity
  8
0
 62
     0
100
AcDbLine
 10
47.04609963283668
 20
24.63685030980125
 30
0.0
 11
46.92109963283668
 21
24.76185030980126
 31
0.0
  0
LINE
  5
1955
330
1929
100
AcDbEntity
  8
0
 62
     0
100
AcDbLine
 10
47.04609963283668
 20
25.16718039569117
 30
0.0
 11
46.92109963283668
 21
25.29218039569117
 31
0.0
  0
LINE
  5
1956
330
1929
100
AcDbEntity
  8
0
 62
     0
100
AcDbLine
 10
47.04609963283668
 20
25.69751048158108
 30
0.0
 11
46.92109963283668
 21
25.82251048158108
 31
0.0
  0
LINE
  5
1957
330
1929
100
AcDbEntity
  8
0
 62
     0
100
AcDbLine
 10
47.04609963283668
 20
26.22784056747099
 30
0.0
 11
46.92109963283668
 21
26.35284056747099
 31
0.0
  0
LINE
  5
1958
330
1929
100
AcDbEntity
  8
0
 62
     0
100
AcDbLine
 10
47.04609963283668
 20
26.7581706533609
 30
0.0
 11
46.92109963283668
 21
26.8831706533609
 31
0.0
  0
LINE
  5
1959
330
1929
100
AcDbEntity
  8
0
 62
     0
100
AcDbLine
 10
47.04609963283668
 20
27.28850073925081
 30
0.0
 11
46.92109963283668
 21
27.41350073925081
 31
0.0
  0
LINE
  5
195A
330
1929
100
AcDbEntity
  8
0
 62
     0
100
AcDbLine
 10
44.56500986674869
 20
29.7695905053388
 30
0.0
 11
44.44702558787717
 21
29.88757478421031
 31
0.0
  0
LINE
  5
195B
330
1929
100
AcDbEntity
  8
0
 62
     0
100
AcDbLine
 10
47.04609963283668
 20
27.81883082514072
 30
0.0
 11
46.92109963283669
 21
27.94383082514072
 31
0.0
  0
LINE
  5
195C
330
1929
100
AcDbEntity
  8
0
 62
     0
100
AcDbLine
 10
45.10476134982073
 20
29.76016910815668
 30
0.0
 11
44.97752132593688
 21
29.88740913204052
 31
0.0
  0
LINE
  5
195D
330
1929
100
AcDbEntity
  8
0
 62
     0
100
AcDbLine
 10
47.04609963283668
 20
28.34916091103063
 30
0.0
 11
46.92109963283669
 21
28.47416091103063
 31
0.0
  0
LINE
  5
195E
330
1929
100
AcDbEntity
  8
0
 62
     0
100
AcDbLine
 10
45.64451283289276
 20
29.75074771097455
 30
0.0
 11
45.51727280900891
 21
29.8779877348584
 31
0.0
  0
LINE
  5
195F
330
1929
100
AcDbEntity
  8
0
 62
     0
100
AcDbLine
 10
47.04609963283668
 20
28.87949099692054
 30
0.0
 11
46.92109963283669
 21
29.00449099692054
 31
0.0
  0
LINE
  5
1960
330
1929
100
AcDbEntity
  8
0
 62
     0
100
AcDbLine
 10
46.1842643159648
 20
29.74132631379243
 30
0.0
 11
46.05702429208094
 21
29.86856633767628
 31
0.0
  0
LINE
  5
1961
330
1929
100
AcDbEntity
  8
0
 62
     0
100
AcDbLine
 10
47.04609963283668
 20
29.40982108281045
 30
0.0
 11
46.92109963283669
 21
29.53482108281045
 31
0.0
  0
LINE
  5
1962
330
1929
100
AcDbEntity
  8
0
 62
     0
100
AcDbLine
 10
46.72401579903683
 20
29.7319049166103
 30
0.0
 11
46.59677577515298
 21
29.85914494049416
 31
0.0
  0
LINE
  5
1963
330
1929
100
AcDbEntity
  8
0
 62
     0
100
AcDbLine
 10
47.04609963283668
 20
23.66457848602143
 30
0.0
 11
46.92109963283668
 21
23.78957848602144
 31
0.0
  0
LINE
  5
1964
330
1929
100
AcDbEntity
  8
0
 62
     0
100
AcDbLine
 10
47.04609963283668
 20
23.13424840013152
 30
0.0
 11
46.92109963283667
 21
23.25924840013153
 31
0.0
  0
LINE
  5
1965
330
1929
100
AcDbEntity
  8
0
 62
     0
100
AcDbLine
 10
47.04609963283668
 20
22.60391831424161
 30
0.0
 11
46.92109963283667
 21
22.72891831424162
 31
0.0
  0
LINE
  5
1966
330
1929
100
AcDbEntity
  8
0
 62
     0
100
AcDbLine
 10
47.04609963283668
 20
22.0735882283517
 30
0.0
 11
46.92109963283667
 21
22.19858822835171
 31
0.0
  0
LINE
  5
1967
330
1929
100
AcDbEntity
  8
0
 62
     0
100
AcDbLine
 10
47.04609963283668
 20
21.54325814246179
 30
0.0
 11
46.92109963283667
 21
21.6682581424618
 31
0.0
  0
LINE
  5
1968
330
1929
100
AcDbEntity
  8
0
 62
     0
100
AcDbLine
 10
47.04462661168962
 20
21.01440107771894
 30
0.0
 11
46.92109963283667
 21
21.13792805657189
 31
0.0
  0
LINE
  5
1969
330
1929
100
AcDbEntity
  8
0
 62
     0
100
AcDbLine
 10
46.6814604409047
 20
20.84723716261394
 30
0.0
 11
46.55858617813389
 21
20.97011142538475
 31
0.0
  0
LINE
  5
196A
330
1929
100
AcDbEntity
  8
0
 62
     0
100
AcDbLine
 10
46.16022849251658
 20
20.83813902511217
 30
0.0
 11
46.03735422974575
 21
20.96101328788297
 31
0.0
  0
LINE
  5
196B
330
1929
100
AcDbEntity
  8
0
 62
     0
100
AcDbLine
 10
45.63899654412844
 20
20.82904088761039
 30
0.0
 11
45.51612228135762
 21
20.9519151503812
 31
0.0
  0
LINE
  5
196C
330
1929
100
AcDbEntity
  8
0
 62
     0
100
AcDbLine
 10
45.11776459574031
 20
20.81994275010861
 30
0.0
 11
44.99489033296948
 21
20.94281701287942
 31
0.0
  0
LINE
  5
196D
330
1929
100
AcDbEntity
  8
0
 62
     0
100
AcDbLine
 10
44.72584817769519
 20
20.68152908226381
 30
0.0
 11
44.47365838458135
 21
20.93371887537765
 31
0.0
  0
LINE
  5
196E
330
1929
100
AcDbEntity
  8
0
 62
     0
100
AcDbLine
 10
47.04609963283668
 20
24.19490857191134
 30
0.0
 11
46.92109963283668
 21
24.31990857191135
 31
0.0
  0
LINE
  5
196F
330
1929
100
AcDbEntity
  8
0
 62
     0
100
AcDbLine
 10
47.04609963283668
 20
24.72523865780126
 30
0.0
 11
46.92109963283668
 21
24.85023865780126
 31
0.0
  0
LINE
  5
1970
330
1929
100
AcDbEntity
  8
0
 62
     0
100
AcDbLine
 10
47.04609963283668
 20
25.25556874369117
 30
0.0
 11
46.92109963283668
 21
25.38056874369117
 31
0.0
  0
LINE
  5
1971
330
1929
100
AcDbEntity
  8
0
 62
     0
100
AcDbLine
 10
47.04609963283668
 20
25.78589882958107
 30
0.0
 11
46.92109963283668
 21
25.91089882958108
 31
0.0
  0
LINE
  5
1972
330
1929
100
AcDbEntity
  8
0
 62
     0
100
AcDbLine
 10
47.04609963283668
 20
26.31622891547099
 30
0.0
 11
46.92109963283668
 21
26.44122891547099
 31
0.0
  0
LINE
  5
1973
330
1929
100
AcDbEntity
  8
0
 62
     0
100
AcDbLine
 10
47.04609963283668
 20
26.84655900136089
 30
0.0
 11
46.92109963283668
 21
26.9715590013609
 31
0.0
  0
LINE
  5
1974
330
1929
100
AcDbEntity
  8
0
 62
     0
100
AcDbLine
 10
47.04609963283668
 20
27.37688908725081
 30
0.0
 11
46.92109963283668
 21
27.50188908725081
 31
0.0
  0
LINE
  5
1975
330
1929
100
AcDbEntity
  8
0
 62
     0
100
AcDbLine
 10
44.65496844761862
 20
29.76802027246887
 30
0.0
 11
44.52963717122411
 21
29.89335154886337
 31
0.0
  0
LINE
  5
1976
330
1929
100
AcDbEntity
  8
0
 62
     0
100
AcDbLine
 10
47.04609963283668
 20
27.90721917314072
 30
0.0
 11
46.92109963283669
 21
28.03221917314072
 31
0.0
  0
LINE
  5
1977
330
1929
100
AcDbEntity
  8
0
 62
     0
100
AcDbLine
 10
45.19471993069066
 20
29.75859887528674
 30
0.0
 11
45.06747990680682
 21
29.88583889917059
 31
0.0
  0
LINE
  5
1978
330
1929
100
AcDbEntity
  8
0
 62
     0
100
AcDbLine
 10
47.04609963283668
 20
28.43754925903063
 30
0.0
 11
46.92109963283669
 21
28.56254925903063
 31
0.0
  0
LINE
  5
1979
330
1929
100
AcDbEntity
  8
0
 62
     0
100
AcDbLine
 10
45.73447141376269
 20
29.74917747810462
 30
0.0
 11
45.60723138987884
 21
29.87641750198847
 31
0.0
  0
LINE
  5
197A
330
1929
100
AcDbEntity
  8
0
 62
     0
100
AcDbLine
 10
47.04609963283668
 20
28.96787934492054
 30
0.0
 11
46.92109963283669
 21
29.09287934492054
 31
0.0
  0
LINE
  5
197B
330
1929
100
AcDbEntity
  8
0
 62
     0
100
AcDbLine
 10
46.27422289683473
 20
29.73975608092249
 30
0.0
 11
46.14698287295088
 21
29.86699610480635
 31
0.0
  0
LINE
  5
197C
330
1929
100
AcDbEntity
  8
0
 62
     0
100
AcDbLine
 10
47.04609963283668
 20
29.49820943081045
 30
0.0
 11
46.91964096725889
 21
29.62466809638824
 31
0.0
  0
LINE
  5
197D
330
1929
100
AcDbEntity
  8
0
 62
     0
100
AcDbLine
 10
46.81514008161936
 20
29.72916898202776
 30
0.0
 11
46.68673435602292
 21
29.85757470762422
 31
0.0
  0
LINE
  5
197E
330
1929
100
AcDbEntity
  8
0
 62
     0
100
AcDbLine
 10
47.04609963283668
 20
23.75296683352143
 30
0.0
 11
46.92109963283668
 21
23.87796683352144
 31
0.0
  0
LINE
  5
197F
330
1929
100
AcDbEntity
  8
0
 62
     0
100
AcDbLine
 10
47.04609963283668
 20
23.22263674763152
 30
0.0
 11
46.92109963283667
 21
23.34763674763153
 31
0.0
  0
LINE
  5
1980
330
1929
100
AcDbEntity
  8
0
 62
     0
100
AcDbLine
 10
47.04609963283668
 20
22.69230666174161
 30
0.0
 11
46.92109963283667
 21
22.81730666174162
 31
0.0
  0
LINE
  5
1981
330
1929
100
AcDbEntity
  8
0
 62
     0
100
AcDbLine
 10
47.04609963283668
 20
22.1619765758517
 30
0.0
 11
46.92109963283667
 21
22.28697657585171
 31
0.0
  0
LINE
  5
1982
330
1929
100
AcDbEntity
  8
0
 62
     0
100
AcDbLine
 10
47.04609963283668
 20
21.63164648996179
 30
0.0
 11
46.92109963283667
 21
21.7566464899618
 31
0.0
  0
LINE
  5
1983
330
1929
100
AcDbEntity
  8
0
 62
     0
100
AcDbLine
 10
47.04609963283668
 20
21.10131640407188
 30
0.0
 11
46.92109963283667
 21
21.22631640407189
 31
0.0
  0
LINE
  5
1984
330
1929
100
AcDbEntity
  8
0
 62
     0
100
AcDbLine
 10
46.76833243215695
 20
20.84875351886169
 30
0.0
 11
46.64545816938614
 21
20.9716277816325
 31
0.0
  0
LINE
  5
1985
330
1929
100
AcDbEntity
  8
0
 62
     0
100
AcDbLine
 10
46.24710048376882
 20
20.83965538135991
 30
0.0
 11
46.12422622099801
 21
20.96252964413073
 31
0.0
  0
LINE
  5
1986
330
1929
100
AcDbEntity
  8
0
 62
     0
100
AcDbLine
 10
45.72586853538068
 20
20.83055724385814
 30
0.0
 11
45.60299427260988
 21
20.95343150662895
 31
0.0
  0
LINE
  5
1987
330
1929
100
AcDbEntity
  8
0
 62
     0
100
AcDbLine
 10
45.20463658699256
 20
20.82145910635636
 30
0.0
 11
45.08176232422174
 21
20.94433336912718
 31
0.0
  0
LINE
  5
1988
330
1929
100
AcDbEntity
  8
0
 62
     0
100
AcDbLine
 10
44.77004235144519
 20
20.72572325601381
 30
0.0
 11
44.56053037583361
 21
20.9352352316254
 31
0.0
  0
LINE
  5
1989
330
1929
100
AcDbEntity
  8
0
 62
     0
100
AcDbLine
 10
47.04609963283668
 20
24.28329691941135
 30
0.0
 11
46.92109963283668
 21
24.40829691941135
 31
0.0
  0
LINE
  5
198A
330
1929
100
AcDbEntity
  8
0
 62
     0
100
AcDbLine
 10
47.04609963283668
 20
24.81362700530125
 30
0.0
 11
46.92109963283668
 21
24.93862700530126
 31
0.0
  0
LINE
  5
198B
330
1929
100
AcDbEntity
  8
0
 62
     0
100
AcDbLine
 10
47.04609963283668
 20
25.34395709119117
 30
0.0
 11
46.92109963283668
 21
25.46895709119117
 31
0.0
  0
LINE
  5
198C
330
1929
100
AcDbEntity
  8
0
 62
     0
100
AcDbLine
 10
47.04609963283668
 20
25.87428717708108
 30
0.0
 11
46.92109963283668
 21
25.99928717708108
 31
0.0
  0
LINE
  5
198D
330
1929
100
AcDbEntity
  8
0
 62
     0
100
AcDbLine
 10
47.04609963283668
 20
26.40461726297099
 30
0.0
 11
46.92109963283668
 21
26.52961726297099
 31
0.0
  0
LINE
  5
198E
330
1929
100
AcDbEntity
  8
0
 62
     0
100
AcDbLine
 10
47.04609963283668
 20
26.9349473488609
 30
0.0
 11
46.92109963283668
 21
27.0599473488609
 31
0.0
  0
LINE
  5
198F
330
1929
100
AcDbEntity
  8
0
 62
     0
100
AcDbLine
 10
47.04609963283668
 20
27.46527743475081
 30
0.0
 11
46.92109963283668
 21
27.59027743475081
 31
0.0
  0
LINE
  5
1990
330
1929
100
AcDbEntity
  8
0
 62
     0
100
AcDbLine
 10
44.74492702797967
 20
29.76645003960781
 30
0.0
 11
44.55109963283667
 21
29.96027743475081
 31
0.0
  0
LINE
  5
1991
330
1929
100
AcDbEntity
  8
0
 62
     0
100
AcDbLine
 10
47.04609963283668
 20
27.99560752064072
 30
0.0
 11
46.92109963283669
 21
28.12060752064072
 31
0.0
  0
LINE
  5
1992
330
1929
100
AcDbEntity
  8
0
 62
     0
100
AcDbLine
 10
45.28467851105172
 20
29.75702864242569
 30
0.0
 11
45.15743848716787
 21
29.88426866630954
 31
0.0
  0
LINE
  5
1993
330
1929
100
AcDbEntity
  8
0
 62
     0
100
AcDbLine
 10
47.04609963283668
 20
28.52593760653063
 30
0.0
 11
46.92109963283669
 21
28.65093760653063
 31
0.0
  0
LINE
  5
1994
330
1929
100
AcDbEntity
  8
0
 62
     0
100
AcDbLine
 10
45.82442999412375
 20
29.74760724524357
 30
0.0
 11
45.6971899702399
 21
29.87484726912741
 31
0.0
  0
LINE
  5
1995
330
1929
100
AcDbEntity
  8
0
 62
     0
100
AcDbLine
 10
47.04609963283668
 20
29.05626769242054
 30
0.0
 11
46.92109963283669
 21
29.18126769242054
 31
0.0
  0
LINE
  5
1996
330
1929
100
AcDbEntity
  8
0
 62
     0
100
AcDbLine
 10
46.36418147719579
 20
29.73818584806144
 30
0.0
 11
46.23694145331193
 21
29.86542587194529
 31
0.0
  0
LINE
  5
1997
330
1929
100
AcDbEntity
  8
0
 62
     0
100
AcDbLine
 10
47.04609963283668
 20
29.58659777831045
 30
0.0
 11
46.77669293638397
 21
29.85600447476317
 31
0.0
  0
ENDBLK
  5
1998
330
1929
100
AcDbEntity
  8
0
100
AcDbBlockEnd
  0
BLOCK
  5
1CD8
330
1CCD
100
AcDbEntity
  8
0
100
AcDbBlockBegin
  2
*D130
 70
     1
 10
0.0
 20
0.0
 30
0.0
  3
*D130
  1

  0
LINE
  5
1E37
330
1CCD
100
AcDbEntity
  8
DIM
 62
     0
440
 16777216
370
    -2
100
AcDbLine
 10
37.17709499563007
 20
30.41163361256858
 30
0.0
 11
37.17709499563007
 21
32.2665423091412
 31
0.0
  0
LINE
  5
1E38
330
1CCD
100
AcDbEntity
  8
DIM
 62
     0
440
 16777216
370
    -2
100
AcDbLine
 10
39.36343629905744
 20
30.18921514632781
 30
0.0
 11
39.36343629905744
 21
32.2665423091412
 31
0.0
  0
LINE
  5
1E39
330
1CCD
100
AcDbEntity
  8
DIM
 62
     0
440
 16777216
370
    -2
100
AcDbLine
 10
37.36459499563006
 20
32.1727923091412
 30
0.0
 11
37.58409898067709
 21
32.1727923091412
 31
0.0
  0
LINE
  5
1E3A
330
1CCD
100
AcDbEntity
  8
DIM
 62
     0
440
 16777216
370
    -2
100
AcDbLine
 10
39.17593629905744
 20
32.1727923091412
 30
0.0
 11
38.95643231401042
 21
32.1727923091412
 31
0.0
  0
SOLID
  5
1E3B
330
1CCD
100
AcDbEntity
  8
DIM
 62
     0
440
 16777216
100
AcDbTrace
 10
37.36459499563006
 20
32.2040423091412
 30
0.0
 11
37.36459499563006
 21
32.1415423091412
 31
0.0
 12
37.17709499563007
 22
32.1727923091412
 32
0.0
 13
37.17709499563007
 23
32.1727923091412
 33
0.0
  0
SOLID
  5
1E3C
330
1CCD
100
AcDbEntity
  8
DIM
 62
     0
440
 16777216
100
AcDbTrace
 10
39.17593629905744
 20
32.2040423091412
 30
0.0
 11
39.17593629905744
 21
32.1415423091412
 31
0.0
 12
39.36343629905744
 22
32.1727923091412
 32
0.0
 13
39.36343629905744
 23
32.1727923091412
 33
0.0
  0
MTEXT
  5
1E3D
330
1CCD
100
AcDbEntity
  8
DIM
 62
     0
440
 16777216
100
AcDbMText
 10
38.27026564734376
 20
32.1727923091412
 30
0.0
 40
0.187
 41
0.0
 46
0.0
 71
     5
 72
     1
  1
\A1;2 3/16
 73
     1
 44
1.0
  0
POINT
  5
1E3E
330
1CCD
100
AcDbEntity
  8
DEFPOINTS
 62
     0
440
 16777216
100
AcDbPoint
 10
37.17709499563007
 20
30.28663361256858
 30
0.0
  0
POINT
  5
1E3F
330
1CCD
100
AcDbEntity
  8
DEFPOINTS
 62
     0
440
 16777216
100
AcDbPoint
 10
39.36343629905744
 20
30.06421514632781
 30
0.0
  0
POINT
  5
1E40
330
1CCD
100
AcDbEntity
  8
DEFPOINTS
 62
     0
440
 16777216
100
AcDbPoint
 10
39.36343629905744
 20
32.1727923091412
 30
0.0
  0
ENDBLK
  5
1CD9
330
1CCD
100
AcDbEntity
  8
0
100
AcDbBlockEnd
  0
BLOCK
  5
1CE5
330
1CDA
100
AcDbEntity
  8
0
100
AcDbBlockBegin
  2
*D131
 70
     1
 10
0.0
 20
0.0
 30
0.0
  3
*D131
  1

  0
LINE
  5
1E41
330
1CDA
100
AcDbEntity
  8
DIM
 62
     0
440
 16777216
370
    -2
100
AcDbLine
 10
23.33298133680759
 20
21.70149945718281
 30
0.0
 11
20.65340403766418
 21
21.70149945718281
 31
0.0
  0
LINE
  5
1E42
330
1CDA
100
AcDbEntity
  8
DIM
 62
     0
440
 16777216
370
    -2
100
AcDbLine
 10
23.33298133680759
 20
29.7978023091412
 30
0.0
 11
20.65340403766418
 21
29.7978023091412
 31
0.0
  0
LINE
  5
1E43
330
1CDA
100
AcDbEntity
  8
DIM
 62
     0
440
 16777216
370
    -2
100
AcDbLine
 10
20.74715403766418
 20
21.88899945718281
 30
0.0
 11
20.74715403766418
 21
25.513900883162
 31
0.0
  0
LINE
  5
1E44
330
1CDA
100
AcDbEntity
  8
DIM
 62
     0
440
 16777216
370
    -2
100
AcDbLine
 10
20.74715403766418
 20
29.61030230914119
 30
0.0
 11
20.74715403766418
 21
26.075900883162
 31
0.0
  0
SOLID
  5
1E45
330
1CDA
100
AcDbEntity
  8
DIM
 62
     0
440
 16777216
100
AcDbTrace
 10
20.71590403766418
 20
21.88899945718281
 30
0.0
 11
20.77840403766418
 21
21.88899945718281
 31
0.0
 12
20.74715403766418
 22
21.70149945718281
 32
0.0
 13
20.74715403766418
 23
21.70149945718281
 33
0.0
  0
SOLID
  5
1E46
330
1CDA
100
AcDbEntity
  8
DIM
 62
     0
440
 16777216
100
AcDbTrace
 10
20.71590403766418
 20
29.61030230914119
 30
0.0
 11
20.77840403766418
 21
29.61030230914119
 31
0.0
 12
20.74715403766418
 22
29.7978023091412
 32
0.0
 13
20.74715403766418
 23
29.7978023091412
 33
0.0
  0
MTEXT
  5
1E47
330
1CDA
100
AcDbEntity
  8
DIM
 62
     0
440
 16777216
100
AcDbMText
 10
20.74715403766417
 20
25.794900883162
 30
0.0
 40
0.187
 41
0.0
 46
0.0
 71
     5
 72
     1
  1
\A1;8 3/32
 73
     1
 44
1.0
  0
POINT
  5
1E48
330
1CDA
100
AcDbEntity
  8
DEFPOINTS
 62
     0
440
 16777216
100
AcDbPoint
 10
23.45798133680759
 20
21.70149945718281
 30
0.0
  0
POINT
  5
1E49
330
1CDA
100
AcDbEntity
  8
DEFPOINTS
 62
     0
440
 16777216
100
AcDbPoint
 10
23.45798133680759
 20
29.7978023091412
 30
0.0
  0
POINT
  5
1E4A
330
1CDA
100
AcDbEntity
  8
DEFPOINTS
 62
     0
440
 16777216
100
AcDbPoint
 10
20.74715403766418
 20
29.7978023091412
 30
0.0
  0
ENDBLK
  5
1CE6
330
1CDA
100
AcDbEntity
  8
0
100
AcDbBlockEnd
  0
BLOCK
  5
1CF2
330
1CE7
100
AcDbEntity
  8
0
100
AcDbBlockBegin
  2
*D132
 70
     1
 10
0.0
 20
0.0
 30
0.0
  3
*D132
  1

  0
LINE
  5
1E4B
330
1CE7
100
AcDbEntity
  8
DIM
 62
     0
440
 16777216
370
    -2
100
AcDbLine
 10
23.45798133680759
 20
29.92280230914119
 30
0.0
 11
23.45798133680759
 21
32.26654230914119
 31
0.0
  0
LINE
  5
1E4C
330
1CE7
100
AcDbEntity
  8
DIM
 62
     0
440
 16777216
370
    -2
100
AcDbLine
 10
25.83303418876595
 20
29.92280230914119
 30
0.0
 11
25.83303418876595
 21
32.26654230914119
 31
0.0
  0
LINE
  5
1E4D
330
1CE7
100
AcDbEntity
  8
DIM
 62
     0
440
 16777216
370
    -2
100
AcDbLine
 10
23.64548133680759
 20
32.17279230914119
 30
0.0
 11
24.02167442945344
 21
32.17279230914119
 31
0.0
  0
LINE
  5
1E4E
330
1CE7
100
AcDbEntity
  8
DIM
 62
     0
440
 16777216
370
    -2
100
AcDbLine
 10
25.64553418876595
 20
32.17279230914119
 30
0.0
 11
25.26934109612011
 21
32.17279230914119
 31
0.0
  0
SOLID
  5
1E4F
330
1CE7
100
AcDbEntity
  8
DIM
 62
     0
440
 16777216
100
AcDbTrace
 10
23.64548133680759
 20
32.20404230914119
 30
0.0
 11
23.64548133680759
 21
32.14154230914119
 31
0.0
 12
23.45798133680759
 22
32.17279230914119
 32
0.0
 13
23.45798133680759
 23
32.17279230914119
 33
0.0
  0
SOLID
  5
1E50
330
1CE7
100
AcDbEntity
  8
DIM
 62
     0
440
 16777216
100
AcDbTrace
 10
25.64553418876595
 20
32.20404230914119
 30
0.0
 11
25.64553418876595
 21
32.14154230914119
 31
0.0
 12
25.83303418876595
 22
32.17279230914119
 32
0.0
 13
25.83303418876595
 23
32.17279230914119
 33
0.0
  0
MTEXT
  5
1E51
330
1CE7
100
AcDbEntity
  8
DIM
 62
     0
440
 16777216
100
AcDbMText
 10
24.64550776278677
 20
32.17279230914119
 30
0.0
 40
0.187
 41
0.0
 46
0.0
 71
     5
 72
     1
  1
\A1;2 3/8
 73
     1
 44
1.0
  0
POINT
  5
1E52
330
1CE7
100
AcDbEntity
  8
DEFPOINTS
 62
     0
440
 16777216
100
AcDbPoint
 10
23.45798133680759
 20
29.7978023091412
 30
0.0
  0
POINT
  5
1E53
330
1CE7
100
AcDbEntity
  8
DEFPOINTS
 62
     0
440
 16777216
100
AcDbPoint
 10
25.83303418876595
 20
29.7978023091412
 30
0.0
  0
POINT
  5
1E54
330
1CE7
100
AcDbEntity
  8
DEFPOINTS
 62
     0
440
 16777216
100
AcDbPoint
 10
25.83303418876595
 20
32.17279230914119
 30
0.0
  0
ENDBLK
  5
1CF3
330
1CE7
100
AcDbEntity
  8
0
100
AcDbBlockEnd
  0
BLOCK
  5
1CFF
330
1CF4
100
AcDbEntity
  8
0
100
AcDbBlockBegin
  2
*D133
 70
     1
 10
0.0
 20
0.0
 30
0.0
  3
*D133
  1

  0
LINE
  5
1E55
330
1CF4
100
AcDbEntity
  8
DIM
 62
     0
440
 16777216
370
    -2
100
AcDbLine
 10
52.84679213478941
 20
11.54870055650174
 30
0.0
 11
52.84679213478941
 21
7.643541331904074
 31
0.0
  0
LINE
  5
1E56
330
1CF4
100
AcDbEntity
  8
DIM
 62
     0
440
 16777216
370
    -2
100
AcDbLine
 10
49.81392264656325
 20
11.54870055650174
 30
0.0
 11
49.81392264656325
 21
7.643541331904074
 31
0.0
  0
LINE
  5
1E57
330
1CF4
100
AcDbEntity
  8
DIM
 62
     0
440
 16777216
370
    -2
100
AcDbLine
 10
52.65929213478941
 20
7.737291331904074
 30
0.0
 11
52.00076420263662
 21
7.737291331904074
 31
0.0
  0
LINE
  5
1E58
330
1CF4
100
AcDbEntity
  8
DIM
 62
     0
440
 16777216
370
    -2
100
AcDbLine
 10
50.00142264656325
 20
7.737291331904074
 30
0.0
 11
50.62843086930328
 21
7.737291331904074
 31
0.0
  0
SOLID
  5
1E59
330
1CF4
100
AcDbEntity
  8
DIM
 62
     0
440
 16777216
100
AcDbTrace
 10
52.65929213478941
 20
7.768541331904074
 30
0.0
 11
52.65929213478941
 21
7.706041331904074
 31
0.0
 12
52.84679213478941
 22
7.737291331904074
 32
0.0
 13
52.84679213478941
 23
7.737291331904074
 33
0.0
  0
SOLID
  5
1E5A
330
1CF4
100
AcDbEntity
  8
DIM
 62
     0
440
 16777216
100
AcDbTrace
 10
50.00142264656325
 20
7.768541331904074
 30
0.0
 11
50.00142264656325
 21
7.706041331904074
 31
0.0
 12
49.81392264656325
 22
7.737291331904074
 32
0.0
 13
49.81392264656325
 23
7.737291331904074
 33
0.0
  0
MTEXT
  5
1E5B
330
1CF4
100
AcDbEntity
  8
DIM
 62
     0
440
 16777216
100
AcDbMText
 10
51.31459753596995
 20
7.737291331904074
 30
0.0
 40
0.187
 41
0.0
 46
0.0
 71
     5
 72
     1
  1
\A1;3 1/32
 73
     1
 44
1.0
  0
POINT
  5
1E5C
330
1CF4
100
AcDbEntity
  8
DEFPOINTS
 62
     0
440
 16777216
100
AcDbPoint
 10
52.84679213478941
 20
11.67370055650174
 30
0.0
  0
POINT
  5
1E5D
330
1CF4
100
AcDbEntity
  8
DEFPOINTS
 62
     0
440
 16777216
100
AcDbPoint
 10
49.81392264656325
 20
11.67370055650174
 30
0.0
  0
POINT
  5
1E5E
330
1CF4
100
AcDbEntity
  8
DEFPOINTS
 62
     0
440
 16777216
100
AcDbPoint
 10
49.81392264656325
 20
7.737291331904074
 30
0.0
  0
ENDBLK
  5
1D00
330
1CF4
100
AcDbEntity
  8
0
100
AcDbBlockEnd
  0
BLOCK
  5
1D0C
330
1D01
100
AcDbEntity
  8
0
100
AcDbBlockBegin
  2
*D134
 70
     1
 10
0.0
 20
0.0
 30
0.0
  3
*D134
  1

  0
LINE
  5
1E5F
330
1D01
100
AcDbEntity
  8
DIM
 62
     0
440
 16777216
370
    -2
100
AcDbLine
 10
52.90930165384214
 20
11.61229133190407
 30
0.0
 11
54.98662881665552
 21
11.61229133190407
 31
0.0
  0
LINE
  5
1E60
330
1D01
100
AcDbEntity
  8
DIM
 62
     0
440
 16777216
370
    -2
100
AcDbLine
 10
53.11962607468634
 20
14.23229133190407
 30
0.0
 11
54.98662881665552
 21
14.23229133190407
 31
0.0
  0
LINE
  5
1E61
330
1D01
100
AcDbEntity
  8
DIM
 62
     0
440
 16777216
370
    -2
100
AcDbLine
 10
54.89287881665553
 20
11.79979133190407
 30
0.0
 11
54.89287881665553
 21
12.64129133190406
 31
0.0
  0
LINE
  5
1E62
330
1D01
100
AcDbEntity
  8
DIM
 62
     0
440
 16777216
370
    -2
100
AcDbLine
 10
54.89287881665553
 20
14.04479133190407
 30
0.0
 11
54.89287881665553
 21
13.20329133190407
 31
0.0
  0
SOLID
  5
1E63
330
1D01
100
AcDbEntity
  8
DIM
 62
     0
440
 16777216
100
AcDbTrace
 10
54.86162881665553
 20
11.79979133190407
 30
0.0
 11
54.92412881665552
 21
11.79979133190407
 31
0.0
 12
54.89287881665553
 22
11.61229133190407
 32
0.0
 13
54.89287881665553
 23
11.61229133190407
 33
0.0
  0
SOLID
  5
1E64
330
1D01
100
AcDbEntity
  8
DIM
 62
     0
440
 16777216
100
AcDbTrace
 10
54.86162881665553
 20
14.04479133190407
 30
0.0
 11
54.92412881665552
 21
14.04479133190407
 31
0.0
 12
54.89287881665553
 22
14.23229133190407
 32
0.0
 13
54.89287881665553
 23
14.23229133190407
 33
0.0
  0
MTEXT
  5
1E65
330
1D01
100
AcDbEntity
  8
DIM
 62
     0
440
 16777216
100
AcDbMText
 10
54.89287881665553
 20
12.92229133190408
 30
0.0
 40
0.187
 41
0.0
 46
0.0
 71
     5
 72
     1
  1
\A1;2 5/8
 73
     1
 44
1.0
  0
POINT
  5
1E66
330
1D01
100
AcDbEntity
  8
DEFPOINTS
 62
     0
440
 16777216
100
AcDbPoint
 10
52.78430165384214
 20
11.61229133190407
 30
0.0
  0
POINT
  5
1E67
330
1D01
100
AcDbEntity
  8
DEFPOINTS
 62
     0
440
 16777216
100
AcDbPoint
 10
52.99462607468634
 20
14.23229133190407
 30
0.0
  0
POINT
  5
1E68
330
1D01
100
AcDbEntity
  8
DEFPOINTS
 62
     0
440
 16777216
100
AcDbPoint
 10
54.89287881665553
 20
14.23229133190407
 30
0.0
  0
ENDBLK
  5
1D0D
330
1D01
100
AcDbEntity
  8
0
100
AcDbBlockEnd
  0
BLOCK
  5
1D19
330
1D0E
100
AcDbEntity
  8
0
100
AcDbBlockBegin
  2
*D135
 70
     1
 10
0.0
 20
0.0
 30
0.0
  3
*D135
  1

  0
LINE
  5
1E69
330
1D0E
100
AcDbEntity
  8
DIM
 62
     0
440
 16777216
370
    -2
100
AcDbLine
 10
50.26933844247583
 20
14.35729133190406
 30
0.0
 11
50.26933844247583
 21
15.95104133190407
 31
0.0
  0
LINE
  5
1E6A
330
1D0E
100
AcDbEntity
  8
DIM
 62
     0
440
 16777216
370
    -2
100
AcDbLine
 10
52.39137633887686
 20
14.35729133190407
 30
0.0
 11
52.39137633887686
 21
15.95104133190407
 31
0.0
  0
LINE
  5
1E6B
330
1D0E
100
AcDbEntity
  8
DIM
 62
     0
440
 16777216
370
    -2
100
AcDbLine
 10
50.45683844247583
 20
15.85729133190407
 30
0.0
 11
50.80524072400968
 21
15.85729133190407
 31
0.0
  0
LINE
  5
1E6C
330
1D0E
100
AcDbEntity
  8
DIM
 62
     0
440
 16777216
370
    -2
100
AcDbLine
 10
52.20387633887686
 20
15.85729133190407
 30
0.0
 11
51.99057405734301
 21
15.85729133190407
 31
0.0
  0
SOLID
  5
1E6D
330
1D0E
100
AcDbEntity
  8
DIM
 62
     0
440
 16777216
100
AcDbTrace
 10
50.45683844247583
 20
15.88854133190407
 30
0.0
 11
50.45683844247583
 21
15.82604133190407
 31
0.0
 12
50.26933844247583
 22
15.85729133190407
 32
0.0
 13
50.26933844247583
 23
15.85729133190407
 33
0.0
  0
SOLID
  5
1E6E
330
1D0E
100
AcDbEntity
  8
DIM
 62
     0
440
 16777216
100
AcDbTrace
 10
52.20387633887686
 20
15.88854133190407
 30
0.0
 11
52.20387633887686
 21
15.82604133190407
 31
0.0
 12
52.39137633887686
 22
15.85729133190407
 32
0.0
 13
52.39137633887686
 23
15.85729133190407
 33
0.0
  0
MTEXT
  5
1E6F
330
1D0E
100
AcDbEntity
  8
DIM
 62
     0
440
 16777216
100
AcDbMText
 10
51.39790739067635
 20
15.85729133190407
 30
0.0
 40
0.187
 41
0.0
 46
0.0
 71
     5
 72
     1
  1
\A1;2 1/8
 73
     1
 44
1.0
  0
POINT
  5
1E70
330
1D0E
100
AcDbEntity
  8
DEFPOINTS
 62
     0
440
 16777216
100
AcDbPoint
 10
50.26933844247583
 20
14.23229133190406
 30
0.0
  0
POINT
  5
1E71
330
1D0E
100
AcDbEntity
  8
DEFPOINTS
 62
     0
440
 16777216
100
AcDbPoint
 10
52.39137633887686
 20
14.23229133190407
 30
0.0
  0
POINT
  5
1E72
330
1D0E
100
AcDbEntity
  8
DEFPOINTS
 62
     0
440
 16777216
100
AcDbPoint
 10
52.39137633887686
 20
15.85729133190407
 30
0.0
  0
ENDBLK
  5
1D1A
330
1D0E
100
AcDbEntity
  8
0
100
AcDbBlockEnd
  0
BLOCK
  5
1D26
330
1D1B
100
AcDbEntity
  8
0
100
AcDbBlockBegin
  2
*D136
 70
     1
 10
0.0
 20
0.0
 30
0.0
  3
*D136
  1

  0
LINE
  5
1E73
330
1D1B
100
AcDbEntity
  8
DIM
 62
     0
440
 16777216
370
    -2
100
AcDbLine
 10
49.76926227845389
 20
14.35729133190407
 30
0.0
 11
49.76926227845389
 21
16.90722181795142
 31
0.0
  0
LINE
  5
1E74
330
1D1B
100
AcDbEntity
  8
DIM
 62
     0
440
 16777216
370
    -2
100
AcDbLine
 10
52.89145250289878
 20
14.35729133190407
 30
0.0
 11
52.89145250289878
 21
16.90722181795142
 31
0.0
  0
LINE
  5
1E75
330
1D1B
100
AcDbEntity
  8
DIM
 62
     0
440
 16777216
370
    -2
100
AcDbLine
 10
49.95676227845389
 20
16.81347181795142
 30
0.0
 11
50.80524072400966
 21
16.81347181795142
 31
0.0
  0
LINE
  5
1E76
330
1D1B
100
AcDbEntity
  8
DIM
 62
     0
440
 16777216
370
    -2
100
AcDbLine
 10
52.70395250289878
 20
16.81347181795142
 30
0.0
 11
51.990574057343
 21
16.81347181795142
 31
0.0
  0
SOLID
  5
1E77
330
1D1B
100
AcDbEntity
  8
DIM
 62
     0
440
 16777216
100
AcDbTrace
 10
49.95676227845389
 20
16.84472181795142
 30
0.0
 11
49.95676227845389
 21
16.78222181795142
 31
0.0
 12
49.76926227845389
 22
16.81347181795142
 32
0.0
 13
49.76926227845389
 23
16.81347181795142
 33
0.0
  0
SOLID
  5
1E78
330
1D1B
100
AcDbEntity
  8
DIM
 62
     0
440
 16777216
100
AcDbTrace
 10
52.70395250289878
 20
16.84472181795142
 30
0.0
 11
52.70395250289878
 21
16.78222181795142
 31
0.0
 12
52.89145250289878
 22
16.81347181795142
 32
0.0
 13
52.89145250289878
 23
16.81347181795142
 33
0.0
  0
MTEXT
  5
1E79
330
1D1B
100
AcDbEntity
  8
DIM
 62
     0
440
 16777216
100
AcDbMText
 10
51.39790739067633
 20
16.81347181795142
 30
0.0
 40
0.187
 41
0.0
 46
0.0
 71
     5
 72
     1
  1
\A1;3 1/8
 73
     1
 44
1.0
  0
POINT
  5
1E7A
330
1D1B
100
AcDbEntity
  8
DEFPOINTS
 62
     0
440
 16777216
100
AcDbPoint
 10
49.76926227845389
 20
14.23229133190407
 30
0.0
  0
POINT
  5
1E7B
330
1D1B
100
AcDbEntity
  8
DEFPOINTS
 62
     0
440
 16777216
100
AcDbPoint
 10
52.89145250289878
 20
14.23229133190407
 30
0.0
  0
POINT
  5
1E7C
330
1D1B
100
AcDbEntity
  8
DEFPOINTS
 62
     0
440
 16777216
100
AcDbPoint
 10
52.89145250289878
 20
16.81347181795142
 30
0.0
  0
ENDBLK
  5
1D27
330
1D1B
100
AcDbEntity
  8
0
100
AcDbBlockEnd
  0
BLOCK
  5
1D33
330
1D28
100
AcDbEntity
  8
0
100
AcDbBlockBegin
  2
*D137
 70
     1
 10
0.0
 20
0.0
 30
0.0
  3
*D137
  1

  0
LINE
  5
1E7D
330
1D28
100
AcDbEntity
  8
DIM
 62
     0
440
 16777216
370
    -2
100
AcDbLine
 10
49.95535739067634
 20
11.36229133190407
 30
0.0
 11
49.95535739067634
 21
8.893541331904074
 31
0.0
  0
LINE
  5
1E7E
330
1D28
100
AcDbEntity
  8
DIM
 62
     0
440
 16777216
370
    -2
100
AcDbLine
 10
52.70535739067632
 20
11.36229133190407
 30
0.0
 11
52.70535739067632
 21
8.893541331904074
 31
0.0
  0
LINE
  5
1E7F
330
1D28
100
AcDbEntity
  8
DIM
 62
     0
440
 16777216
370
    -2
100
AcDbLine
 10
50.14285739067633
 20
8.987291331904074
 30
0.0
 11
50.89321420263662
 21
8.987291331904074
 31
0.0
  0
LINE
  5
1E80
330
1D28
100
AcDbEntity
  8
DIM
 62
     0
440
 16777216
370
    -2
100
AcDbLine
 10
52.51785739067632
 20
8.987291331904074
 30
0.0
 11
52.14088086930328
 21
8.987291331904074
 31
0.0
  0
SOLID
  5
1E81
330
1D28
100
AcDbEntity
  8
DIM
 62
     0
440
 16777216
100
AcDbTrace
 10
50.14285739067633
 20
9.018541331904074
 30
0.0
 11
50.14285739067633
 21
8.956041331904074
 31
0.0
 12
49.95535739067634
 22
8.987291331904074
 32
0.0
 13
49.95535739067634
 23
8.987291331904074
 33
0.0
  0
SOLID
  5
1E82
330
1D28
100
AcDbEntity
  8
DIM
 62
     0
440
 16777216
100
AcDbTrace
 10
52.51785739067632
 20
9.018541331904074
 30
0.0
 11
52.51785739067632
 21
8.956041331904074
 31
0.0
 12
52.70535739067632
 22
8.987291331904074
 32
0.0
 13
52.70535739067632
 23
8.987291331904074
 33
0.0
  0
MTEXT
  5
1E83
330
1D28
100
AcDbEntity
  8
DIM
 62
     0
440
 16777216
100
AcDbMText
 10
51.51704753596995
 20
8.987291331904074
 30
0.0
 40
0.187
 41
0.0
 46
0.0
 71
     5
 72
     1
  1
\A1;2 3/4
 73
     1
 44
1.0
  0
POINT
  5
1E84
330
1D28
100
AcDbEntity
  8
DEFPOINTS
 62
     0
440
 16777216
100
AcDbPoint
 10
49.95535739067634
 20
11.48729133190407
 30
0.0
  0
POINT
  5
1E85
330
1D28
100
AcDbEntity
  8
DEFPOINTS
 62
     0
440
 16777216
100
AcDbPoint
 10
52.70535739067632
 20
11.48729133190407
 30
0.0
  0
POINT
  5
1E86
330
1D28
100
AcDbEntity
  8
DEFPOINTS
 62
     0
440
 16777216
100
AcDbPoint
 10
52.70535739067632
 20
8.987291331904074
 30
0.0
  0
ENDBLK
  5
1D34
330
1D28
100
AcDbEntity
  8
0
100
AcDbBlockEnd
  0
BLOCK
  5
1D40
330
1D35
100
AcDbEntity
  8
0
100
AcDbBlockBegin
  2
*D138
 70
     1
 10
0.0
 20
0.0
 30
0.0
  3
*D138
  1

  0
LINE
  5
1E87
330
1D35
100
AcDbEntity
  8
DIM
 62
     0
440
 16777216
370
    -2
100
AcDbLine
 10
52.94925532902503
 20
30.12670562727508
 30
0.0
 11
58.35469562923304
 21
30.12670562727507
 31
0.0
  0
LINE
  5
1E88
330
1D35
100
AcDbEntity
  8
DIM
 62
     0
440
 16777216
370
    -2
100
AcDbLine
 10
52.94925532902502
 20
21.37253613904893
 30
0.0
 11
58.35469562923304
 21
21.37253613904892
 31
0.0
  0
LINE
  5
1E89
330
1D35
100
AcDbEntity
  8
DIM
 62
     0
440
 16777216
370
    -2
100
AcDbLine
 10
58.26094562923304
 20
29.93920562727507
 30
0.0
 11
58.26094562923304
 21
26.19209653295312
 31
0.0
  0
LINE
  5
1E8A
330
1D35
100
AcDbEntity
  8
DIM
 62
     0
440
 16777216
370
    -2
100
AcDbLine
 10
58.26094562923304
 20
21.56003613904893
 30
0.0
 11
58.26094562923304
 21
25.63009653295312
 31
0.0
  0
SOLID
  5
1E8B
330
1D35
100
AcDbEntity
  8
DIM
 62
     0
440
 16777216
100
AcDbTrace
 10
58.22969562923304
 20
29.93920562727507
 30
0.0
 11
58.29219562923304
 21
29.93920562727507
 31
0.0
 12
58.26094562923304
 22
30.12670562727507
 32
0.0
 13
58.26094562923304
 23
30.12670562727507
 33
0.0
  0
SOLID
  5
1E8C
330
1D35
100
AcDbEntity
  8
DIM
 62
     0
440
 16777216
100
AcDbTrace
 10
58.22969562923304
 20
21.56003613904893
 30
0.0
 11
58.29219562923304
 21
21.56003613904893
 31
0.0
 12
58.26094562923304
 22
21.37253613904892
 32
0.0
 13
58.26094562923304
 23
21.37253613904892
 33
0.0
  0
MTEXT
  5
1E8D
330
1D35
100
AcDbEntity
  8
DIM
 62
     0
440
 16777216
100
AcDbMText
 10
58.26094562923303
 20
25.91109653295313
 30
0.0
 40
0.187
 41
0.0
 46
0.0
 71
     5
 72
     1
  1
\A1;8 3/4
 73
     1
 44
1.0
  0
POINT
  5
1E8E
330
1D35
100
AcDbEntity
  8
DEFPOINTS
 62
     0
440
 16777216
100
AcDbPoint
 10
52.82425532902504
 20
30.12670562727508
 30
0.0
  0
POINT
  5
1E8F
330
1D35
100
AcDbEntity
  8
DEFPOINTS
 62
     0
440
 16777216
100
AcDbPoint
 10
52.82425532902502
 20
21.37253613904893
 30
0.0
  0
POINT
  5
1E90
330
1D35
100
AcDbEntity
  8
DEFPOINTS
 62
     0
440
 16777216
100
AcDbPoint
 10
58.26094562923304
 20
21.37253613904892
 30
0.0
  0
ENDBLK
  5
1D41
330
1D35
100
AcDbEntity
  8
0
100
AcDbBlockEnd
  0
BLOCK
  5
1D4D
330
1D42
100
AcDbEntity
  8
0
100
AcDbBlockBegin
  2
*D139
 70
     1
 10
0.0
 20
0.0
 30
0.0
  3
*D139
  1

  0
LINE
  5
1E91
330
1D42
100
AcDbEntity
  8
DIM
 62
     0
440
 16777216
370
    -2
100
AcDbLine
 10
53.01066455362271
 20
22.14058267649464
 30
0.0
 11
54.85469562923304
 21
22.14058267649464
 31
0.0
  0
LINE
  5
1E92
330
1D42
100
AcDbEntity
  8
DIM
 62
     0
440
 16777216
370
    -2
100
AcDbLine
 10
53.01066455362271
 20
29.35865908982936
 30
0.0
 11
54.85469562923304
 21
29.35865908982936
 31
0.0
  0
LINE
  5
1E93
330
1D42
100
AcDbEntity
  8
DIM
 62
     0
440
 16777216
370
    -2
100
AcDbLine
 10
54.76094562923304
 20
22.32808267649463
 30
0.0
 11
54.76094562923304
 21
25.526570883162
 31
0.0
  0
LINE
  5
1E94
330
1D42
100
AcDbEntity
  8
DIM
 62
     0
440
 16777216
370
    -2
100
AcDbLine
 10
54.76094562923304
 20
29.17115908982936
 30
0.0
 11
54.76094562923304
 21
26.088570883162
 31
0.0
  0
SOLID
  5
1E95
330
1D42
100
AcDbEntity
  8
DIM
 62
     0
440
 16777216
100
AcDbTrace
 10
54.72969562923304
 20
22.32808267649463
 30
0.0
 11
54.79219562923304
 21
22.32808267649463
 31
0.0
 12
54.76094562923304
 22
22.14058267649464
 32
0.0
 13
54.76094562923304
 23
22.14058267649464
 33
0.0
  0
SOLID
  5
1E96
330
1D42
100
AcDbEntity
  8
DIM
 62
     0
440
 16777216
100
AcDbTrace
 10
54.72969562923304
 20
29.17115908982936
 30
0.0
 11
54.79219562923304
 21
29.17115908982936
 31
0.0
 12
54.76094562923304
 22
29.35865908982936
 32
0.0
 13
54.76094562923304
 23
29.35865908982936
 33
0.0
  0
MTEXT
  5
1E97
330
1D42
100
AcDbEntity
  8
DIM
 62
     0
440
 16777216
100
AcDbMText
 10
54.76094562923304
 20
25.80757088316201
 30
0.0
 40
0.187
 41
0.0
 46
0.0
 71
     5
 72
     1
  1
\A1;7 7/32
 73
     1
 44
1.0
  0
POINT
  5
1E98
330
1D42
100
AcDbEntity
  8
DEFPOINTS
 62
     0
440
 16777216
100
AcDbPoint
 10
52.8856645536227
 20
22.14058267649464
 30
0.0
  0
POINT
  5
1E99
330
1D42
100
AcDbEntity
  8
DEFPOINTS
 62
     0
440
 16777216
100
AcDbPoint
 10
52.8856645536227
 20
29.35865908982936
 30
0.0
  0
POINT
  5
1E9A
330
1D42
100
AcDbEntity
  8
DEFPOINTS
 62
     0
440
 16777216
100
AcDbPoint
 10
54.76094562923304
 20
29.35865908982936
 30
0.0
  0
ENDBLK
  5
1D4E
330
1D42
100
AcDbEntity
  8
0
100
AcDbBlockEnd
  0
BLOCK
  5
1D5A
330
1D4F
100
AcDbEntity
  8
0
100
AcDbBlockBegin
  2
*D140
 70
     1
 10
0.0
 20
0.0
 30
0.0
  3
*D140
  1

  0
LINE
  5
1E9B
330
1D4F
100
AcDbEntity
  8
DIM
 62
     0
440
 16777216
370
    -2
100
AcDbLine
 10
50.14066455362271
 20
22.09485040638271
 30
0.0
 11
48.03191455362271
 21
22.09485040638271
 31
0.0
  0
LINE
  5
1E9C
330
1D4F
100
AcDbEntity
  8
DIM
 62
     0
440
 16777216
370
    -2
100
AcDbLine
 10
50.14066455362271
 20
29.40439135994129
 30
0.0
 11
48.03191455362271
 21
29.40439135994129
 31
0.0
  0
LINE
  5
1E9D
330
1D4F
100
AcDbEntity
  8
DIM
 62
     0
440
 16777216
370
    -2
100
AcDbLine
 10
48.12566455362271
 20
22.28235040638271
 30
0.0
 11
48.12566455362271
 21
25.526570883162
 31
0.0
  0
LINE
  5
1E9E
330
1D4F
100
AcDbEntity
  8
DIM
 62
     0
440
 16777216
370
    -2
100
AcDbLine
 10
48.12566455362271
 20
29.21689135994129
 30
0.0
 11
48.12566455362271
 21
26.088570883162
 31
0.0
  0
SOLID
  5
1E9F
330
1D4F
100
AcDbEntity
  8
DIM
 62
     0
440
 16777216
100
AcDbTrace
 10
48.09441455362271
 20
22.28235040638271
 30
0.0
 11
48.15691455362271
 21
22.28235040638271
 31
0.0
 12
48.12566455362271
 22
22.09485040638271
 32
0.0
 13
48.12566455362271
 23
22.09485040638271
 33
0.0
  0
SOLID
  5
1EA0
330
1D4F
100
AcDbEntity
  8
DIM
 62
     0
440
 16777216
100
AcDbTrace
 10
48.09441455362271
 20
29.21689135994129
 30
0.0
 11
48.15691455362271
 21
29.21689135994129
 31
0.0
 12
48.12566455362271
 22
29.40439135994129
 32
0.0
 13
48.12566455362271
 23
29.40439135994129
 33
0.0
  0
MTEXT
  5
1EA1
330
1D4F
100
AcDbEntity
  8
DIM
 62
     0
440
 16777216
100
AcDbMText
 10
48.1256645536227
 20
25.80757088316201
 30
0.0
 40
0.187
 41
0.0
 46
0.0
 71
     5
 72
     1
  1
\A1;7 5/16
 73
     1
 44
1.0
  0
POINT
  5
1EA2
330
1D4F
100
AcDbEntity
  8
DEFPOINTS
 62
     0
440
 16777216
100
AcDbPoint
 10
50.26566455362271
 20
22.09485040638271
 30
0.0
  0
POINT
  5
1EA3
330
1D4F
100
AcDbEntity
  8
DEFPOINTS
 62
     0
440
 16777216
100
AcDbPoint
 10
50.26566455362271
 20
29.40439135994129
 30
0.0
  0
POINT
  5
1EA4
330
1D4F
100
AcDbEntity
  8
DEFPOINTS
 62
     0
440
 16777216
100
AcDbPoint
 10
48.12566455362271
 20
29.40439135994129
 30
0.0
  0
ENDBLK
  5
1D5B
330
1D4F
100
AcDbEntity
  8
0
100
AcDbBlockEnd
  0
BLOCK
  5
1D67
330
1D5C
100
AcDbEntity
  8
0
100
AcDbBlockBegin
  2
*D141
 70
     1
 10
0.0
 20
0.0
 30
0.0
  3
*D141
  1

  0
LINE
  5
1EA5
330
1D5C
100
AcDbEntity
  8
DIM
 62
     0
440
 16777216
370
    -2
100
AcDbLine
 10
50.14066455362271
 20
21.32787577093953
 30
0.0
 11
46.28191455362271
 21
21.32787577093953
 31
0.0
  0
LINE
  5
1EA6
330
1D5C
100
AcDbEntity
  8
DIM
 62
     0
440
 16777216
370
    -2
100
AcDbLine
 10
50.14066455362271
 20
30.17136599538447
 30
0.0
 11
46.28191455362271
 21
30.17136599538447
 31
0.0
  0
LINE
  5
1EA7
330
1D5C
100
AcDbEntity
  8
DIM
 62
     0
440
 16777216
370
    -2
100
AcDbLine
 10
46.37566455362271
 20
21.51537577093954
 30
0.0
 11
46.37566455362271
 21
25.526570883162
 31
0.0
  0
LINE
  5
1EA8
330
1D5C
100
AcDbEntity
  8
DIM
 62
     0
440
 16777216
370
    -2
100
AcDbLine
 10
46.37566455362271
 20
29.98386599538447
 30
0.0
 11
46.37566455362271
 21
26.08857088316201
 31
0.0
  0
SOLID
  5
1EA9
330
1D5C
100
AcDbEntity
  8
DIM
 62
     0
440
 16777216
100
AcDbTrace
 10
46.34441455362271
 20
21.51537577093954
 30
0.0
 11
46.40691455362271
 21
21.51537577093954
 31
0.0
 12
46.37566455362271
 22
21.32787577093953
 32
0.0
 13
46.37566455362271
 23
21.32787577093953
 33
0.0
  0
SOLID
  5
1EAA
330
1D5C
100
AcDbEntity
  8
DIM
 62
     0
440
 16777216
100
AcDbTrace
 10
46.34441455362271
 20
29.98386599538447
 30
0.0
 11
46.40691455362271
 21
29.98386599538447
 31
0.0
 12
46.37566455362271
 22
30.17136599538447
 32
0.0
 13
46.37566455362271
 23
30.17136599538447
 33
0.0
  0
MTEXT
  5
1EAB
330
1D5C
100
AcDbEntity
  8
DIM
 62
     0
440
 16777216
100
AcDbMText
 10
46.37566455362271
 20
25.80757088316201
 30
0.0
 40
0.187
 41
0.0
 46
0.0
 71
     5
 72
     1
  1
\A1;8 27/32
 73
     1
 44
1.0
  0
POINT
  5
1EAC
330
1D5C
100
AcDbEntity
  8
DEFPOINTS
 62
     0
440
 16777216
100
AcDbPoint
 10
50.26566455362271
 20
21.32787577093953
 30
0.0
  0
POINT
  5
1EAD
330
1D5C
100
AcDbEntity
  8
DEFPOINTS
 62
     0
440
 16777216
100
AcDbPoint
 10
50.26566455362271
 20
30.17136599538447
 30
0.0
  0
POINT
  5
1EAE
330
1D5C
100
AcDbEntity
  8
DEFPOINTS
 62
     0
440
 16777216
100
AcDbPoint
 10
46.37566455362271
 20
30.17136599538447
 30
0.0
  0
ENDBLK
  5
1D68
330
1D5C
100
AcDbEntity
  8
0
100
AcDbBlockEnd
  0
BLOCK
  5
1D74
330
1D69
100
AcDbEntity
  8
0
100
AcDbBlockBegin
  2
*D142
 70
     1
 10
0.0
 20
0.0
 30
0.0
  3
*D142
  1

  0
LINE
  5
1EAF
330
1D69
100
AcDbEntity
  8
DIM
 62
     0
440
 16777216
370
    -2
100
AcDbLine
 10
53.1356645536227
 20
21.78087088316201
 30
0.0
 11
56.60469562923304
 21
21.78087088316201
 31
0.0
  0
LINE
  5
1EB0
330
1D69
100
AcDbEntity
  8
DIM
 62
     0
440
 16777216
370
    -2
100
AcDbLine
 10
53.1356645536227
 20
29.71837088316199
 30
0.0
 11
56.60469562923304
 21
29.71837088316199
 31
0.0
  0
LINE
  5
1EB1
330
1D69
100
AcDbEntity
  8
DIM
 62
     0
440
 16777216
370
    -2
100
AcDbLine
 10
56.51094562923304
 20
21.968370883162
 30
0.0
 11
56.51094562923304
 21
25.526570883162
 31
0.0
  0
LINE
  5
1EB2
330
1D69
100
AcDbEntity
  8
DIM
 62
     0
440
 16777216
370
    -2
100
AcDbLine
 10
56.51094562923304
 20
29.53087088316199
 30
0.0
 11
56.51094562923304
 21
26.088570883162
 31
0.0
  0
SOLID
  5
1EB3
330
1D69
100
AcDbEntity
  8
DIM
 62
     0
440
 16777216
100
AcDbTrace
 10
56.47969562923304
 20
21.968370883162
 30
0.0
 11
56.54219562923304
 21
21.968370883162
 31
0.0
 12
56.51094562923304
 22
21.78087088316201
 32
0.0
 13
56.51094562923304
 23
21.78087088316201
 33
0.0
  0
SOLID
  5
1EB4
330
1D69
100
AcDbEntity
  8
DIM
 62
     0
440
 16777216
100
AcDbTrace
 10
56.47969562923304
 20
29.53087088316199
 30
0.0
 11
56.54219562923304
 21
29.53087088316199
 31
0.0
 12
56.51094562923304
 22
29.71837088316199
 32
0.0
 13
56.51094562923304
 23
29.71837088316199
 33
0.0
  0
MTEXT
  5
1EB5
330
1D69
100
AcDbEntity
  8
DIM
 62
     0
440
 16777216
100
AcDbMText
 10
56.51094562923304
 20
25.80757088316201
 30
0.0
 40
0.187
 41
0.0
 46
0.0
 71
     5
 72
     1
  1
\A1;7 15/16
 73
     1
 44
1.0
  0
POINT
  5
1EB6
330
1D69
100
AcDbEntity
  8
DEFPOINTS
 62
     0
440
 16777216
100
AcDbPoint
 10
53.01066455362271
 20
21.78087088316201
 30
0.0
  0
POINT
  5
1EB7
330
1D69
100
AcDbEntity
  8
DEFPOINTS
 62
     0
440
 16777216
100
AcDbPoint
 10
53.01066455362271
 20
29.71837088316199
 30
0.0
  0
POINT
  5
1EB8
330
1D69
100
AcDbEntity
  8
DEFPOINTS
 62
     0
440
 16777216
100
AcDbPoint
 10
56.51094562923304
 20
29.71837088316199
 30
0.0
  0
ENDBLK
  5
1D75
330
1D69
100
AcDbEntity
  8
0
100
AcDbBlockEnd
  0
BLOCK
  5
1D81
330
1D76
100
AcDbEntity
  8
0
100
AcDbBlockBegin
  2
*D143
 70
     1
 10
0.0
 20
0.0
 30
0.0
  3
*D143
  1

  0
LINE
  5
1EB9
330
1D76
100
AcDbEntity
  8
DIM
 62
     0
440
 16777216
370
    -2
100
AcDbLine
 10
26.31820202595257
 20
11.48729133190407
 30
0.0
 11
30.05177918876596
 21
11.48729133190407
 31
0.0
  0
LINE
  5
1EBA
330
1D76
100
AcDbEntity
  8
DIM
 62
     0
440
 16777216
370
    -2
100
AcDbLine
 10
25.92677918876595
 20
14.62229133190406
 30
0.0
 11
30.05177918876596
 21
14.62229133190406
 31
0.0
  0
LINE
  5
1EBB
330
1D76
100
AcDbEntity
  8
DIM
 62
     0
440
 16777216
370
    -2
100
AcDbLine
 10
29.95802918876596
 20
11.67479133190407
 30
0.0
 11
29.95802918876596
 21
12.77379133190406
 31
0.0
  0
LINE
  5
1EBC
330
1D76
100
AcDbEntity
  8
DIM
 62
     0
440
 16777216
370
    -2
100
AcDbLine
 10
29.95802918876596
 20
14.43479133190406
 30
0.0
 11
29.95802918876596
 21
13.33579133190406
 31
0.0
  0
SOLID
  5
1EBD
330
1D76
100
AcDbEntity
  8
DIM
 62
     0
440
 16777216
100
AcDbTrace
 10
29.92677918876596
 20
11.67479133190407
 30
0.0
 11
29.98927918876596
 21
11.67479133190407
 31
0.0
 12
29.95802918876596
 22
11.48729133190407
 32
0.0
 13
29.95802918876596
 23
11.48729133190407
 33
0.0
  0
SOLID
  5
1EBE
330
1D76
100
AcDbEntity
  8
DIM
 62
     0
440
 16777216
100
AcDbTrace
 10
29.92677918876596
 20
14.43479133190406
 30
0.0
 11
29.98927918876596
 21
14.43479133190406
 31
0.0
 12
29.95802918876596
 22
14.62229133190406
 32
0.0
 13
29.95802918876596
 23
14.62229133190406
 33
0.0
  0
MTEXT
  5
1EBF
330
1D76
100
AcDbEntity
  8
DIM
 62
     0
440
 16777216
100
AcDbMText
 10
29.95802918876595
 20
13.05479133190407
 30
0.0
 40
0.187
 41
0.0
 46
0.0
 71
     5
 72
     1
  1
\A1;3 1/8
 73
     1
 44
1.0
  0
POINT
  5
1EC0
330
1D76
100
AcDbEntity
  8
DEFPOINTS
 62
     0
440
 16777216
100
AcDbPoint
 10
26.19320202595257
 20
11.48729133190407
 30
0.0
  0
POINT
  5
1EC1
330
1D76
100
AcDbEntity
  8
DEFPOINTS
 62
     0
440
 16777216
100
AcDbPoint
 10
25.80177918876595
 20
14.62229133190406
 30
0.0
  0
POINT
  5
1EC2
330
1D76
100
AcDbEntity
  8
DEFPOINTS
 62
     0
440
 16777216
100
AcDbPoint
 10
29.95802918876596
 20
14.62229133190406
 30
0.0
  0
ENDBLK
  5
1D82
330
1D76
100
AcDbEntity
  8
0
100
AcDbBlockEnd
  0
BLOCK
  5
1D8E
330
1D83
100
AcDbEntity
  8
0
100
AcDbBlockBegin
  2
*D144
 70
     1
 10
0.0
 20
0.0
 30
0.0
  3
*D144
  1

  0
LINE
  5
1EC3
330
1D83
100
AcDbEntity
  8
DIM
 62
     0
440
 16777216
370
    -2
100
AcDbLine
 10
26.22445202595257
 20
11.48729133190407
 30
0.0
 11
28.30177918876595
 21
11.48729133190407
 31
0.0
  0
LINE
  5
1EC4
330
1D83
100
AcDbEntity
  8
DIM
 62
     0
440
 16777216
370
    -2
100
AcDbLine
 10
26.50739580368787
 20
14.43479133190407
 30
0.0
 11
28.30177918876595
 21
14.43479133190407
 31
0.0
  0
LINE
  5
1EC5
330
1D83
100
AcDbEntity
  8
DIM
 62
     0
440
 16777216
370
    -2
100
AcDbLine
 10
28.20802918876595
 20
11.67479133190407
 30
0.0
 11
28.20802918876595
 21
12.68004133190407
 31
0.0
  0
LINE
  5
1EC6
330
1D83
100
AcDbEntity
  8
DIM
 62
     0
440
 16777216
370
    -2
100
AcDbLine
 10
28.20802918876595
 20
14.24729133190407
 30
0.0
 11
28.20802918876595
 21
13.24204133190407
 31
0.0
  0
SOLID
  5
1EC7
330
1D83
100
AcDbEntity
  8
DIM
 62
     0
440
 16777216
100
AcDbTrace
 10
28.17677918876595
 20
11.67479133190407
 30
0.0
 11
28.23927918876595
 21
11.67479133190407
 31
0.0
 12
28.20802918876595
 22
11.48729133190407
 32
0.0
 13
28.20802918876595
 23
11.48729133190407
 33
0.0
  0
SOLID
  5
1EC8
330
1D83
100
AcDbEntity
  8
DIM
 62
     0
440
 16777216
100
AcDbTrace
 10
28.17677918876595
 20
14.24729133190407
 30
0.0
 11
28.23927918876595
 21
14.24729133190407
 31
0.0
 12
28.20802918876595
 22
14.43479133190407
 32
0.0
 13
28.20802918876595
 23
14.43479133190407
 33
0.0
  0
MTEXT
  5
1EC9
330
1D83
100
AcDbEntity
  8
DIM
 62
     0
440
 16777216
100
AcDbMText
 10
28.20802918876595
 20
12.96104133190407
 30
0.0
 40
0.187
 41
0.0
 46
0.0
 71
     5
 72
     1
  1
\A1;2 15/16
 73
     1
 44
1.0
  0
POINT
  5
1ECA
330
1D83
100
AcDbEntity
  8
DEFPOINTS
 62
     0
440
 16777216
100
AcDbPoint
 10
26.09945202595257
 20
11.48729133190407
 30
0.0
  0
POINT
  5
1ECB
330
1D83
100
AcDbEntity
  8
DEFPOINTS
 62
     0
440
 16777216
100
AcDbPoint
 10
26.38239580368787
 20
14.43479133190407
 30
0.0
  0
POINT
  5
1ECC
330
1D83
100
AcDbEntity
  8
DEFPOINTS
 62
     0
440
 16777216
100
AcDbPoint
 10
28.20802918876595
 20
14.43479133190407
 30
0.0
  0
ENDBLK
  5
1D8F
330
1D83
100
AcDbEntity
  8
0
100
AcDbBlockEnd
  0
BLOCK
  5
1D9B
330
1D90
100
AcDbEntity
  8
0
100
AcDbBlockBegin
  2
*D145
 70
     1
 10
0.0
 20
0.0
 30
0.0
  3
*D145
  1

  0
LINE
  5
1ECD
330
1D90
100
AcDbEntity
  8
DIM
 62
     0
440
 16777216
370
    -2
100
AcDbLine
 10
26.45802918876594
 20
30.23529230914119
 30
0.0
 11
26.45802918876594
 21
33.51654230914119
 31
0.0
  0
LINE
  5
1ECE
330
1D90
100
AcDbEntity
  8
DIM
 62
     0
440
 16777216
370
    -2
100
AcDbLine
 10
22.83298633680758
 20
30.23529230914119
 30
0.0
 11
22.83298633680758
 21
33.51654230914119
 31
0.0
  0
LINE
  5
1ECF
330
1D90
100
AcDbEntity
  8
DIM
 62
     0
440
 16777216
370
    -2
100
AcDbLine
 10
26.27052918876594
 20
33.42279230914119
 30
0.0
 11
25.33689109612009
 21
33.42279230914119
 31
0.0
  0
LINE
  5
1ED0
330
1D90
100
AcDbEntity
  8
DIM
 62
     0
440
 16777216
370
    -2
100
AcDbLine
 10
23.02048633680758
 20
33.42279230914119
 30
0.0
 11
24.08922442945343
 21
33.42279230914119
 31
0.0
  0
SOLID
  5
1ED1
330
1D90
100
AcDbEntity
  8
DIM
 62
     0
440
 16777216
100
AcDbTrace
 10
26.27052918876594
 20
33.45404230914119
 30
0.0
 11
26.27052918876594
 21
33.39154230914119
 31
0.0
 12
26.45802918876594
 22
33.42279230914119
 32
0.0
 13
26.45802918876594
 23
33.42279230914119
 33
0.0
  0
SOLID
  5
1ED2
330
1D90
100
AcDbEntity
  8
DIM
 62
     0
440
 16777216
100
AcDbTrace
 10
23.02048633680758
 20
33.45404230914119
 30
0.0
 11
23.02048633680758
 21
33.39154230914119
 31
0.0
 12
22.83298633680758
 22
33.42279230914119
 32
0.0
 13
22.83298633680758
 23
33.42279230914119
 33
0.0
  0
MTEXT
  5
1ED3
330
1D90
100
AcDbEntity
  8
DIM
 62
     0
440
 16777216
100
AcDbMText
 10
24.71305776278676
 20
33.42279230914119
 30
0.0
 40
0.187
 41
0.0
 46
0.0
 71
     5
 72
     1
  1
\A1;3 5/8
 73
     1
 44
1.0
  0
POINT
  5
1ED4
330
1D90
100
AcDbEntity
  8
DEFPOINTS
 62
     0
440
 16777216
100
AcDbPoint
 10
26.45802918876594
 20
30.11029230914119
 30
0.0
  0
POINT
  5
1ED5
330
1D90
100
AcDbEntity
  8
DEFPOINTS
 62
     0
440
 16777216
100
AcDbPoint
 10
22.83298633680758
 20
30.11029230914119
 30
0.0
  0
POINT
  5
1ED6
330
1D90
100
AcDbEntity
  8
DEFPOINTS
 62
     0
440
 16777216
100
AcDbPoint
 10
22.83298633680758
 20
33.42279230914119
 30
0.0
  0
ENDBLK
  5
1D9C
330
1D90
100
AcDbEntity
  8
0
100
AcDbBlockEnd
  0
BLOCK
  5
1DA8
330
1D9D
100
AcDbEntity
  8
0
100
AcDbBlockBegin
  2
*D146
 70
     1
 10
0.0
 20
0.0
 30
0.0
  3
*D146
  1

  0
LINE
  5
1ED7
330
1D9D
100
AcDbEntity
  8
DIM
 62
     0
440
 16777216
370
    -2
100
AcDbLine
 10
23.02048633680759
 20
21.07644945718281
 30
0.0
 11
18.59938464396822
 21
21.07644945718281
 31
0.0
  0
LINE
  5
1ED8
330
1D9D
100
AcDbEntity
  8
DIM
 62
     0
440
 16777216
370
    -2
100
AcDbLine
 10
23.02048633680758
 20
30.42279230914119
 30
0.0
 11
18.59938464396823
 21
30.42279230914119
 31
0.0
  0
LINE
  5
1ED9
330
1D9D
100
AcDbEntity
  8
DIM
 62
     0
440
 16777216
370
    -2
100
AcDbLine
 10
18.69313464396822
 20
21.26394945718281
 30
0.0
 11
18.69313464396823
 21
25.52288034954669
 31
0.0
  0
LINE
  5
1EDA
330
1D9D
100
AcDbEntity
  8
DIM
 62
     0
440
 16777216
370
    -2
100
AcDbLine
 10
18.69313464396823
 20
30.23529230914119
 30
0.0
 11
18.69313464396823
 21
26.08488034954669
 31
0.0
  0
SOLID
  5
1EDB
330
1D9D
100
AcDbEntity
  8
DIM
 62
     0
440
 16777216
100
AcDbTrace
 10
18.66188464396822
 20
21.26394945718281
 30
0.0
 11
18.72438464396822
 21
21.26394945718281
 31
0.0
 12
18.69313464396822
 22
21.07644945718281
 32
0.0
 13
18.69313464396822
 23
21.07644945718281
 33
0.0
  0
SOLID
  5
1EDC
330
1D9D
100
AcDbEntity
  8
DIM
 62
     0
440
 16777216
100
AcDbTrace
 10
18.66188464396823
 20
30.23529230914119
 30
0.0
 11
18.72438464396823
 21
30.23529230914119
 31
0.0
 12
18.69313464396823
 22
30.42279230914119
 32
0.0
 13
18.69313464396823
 23
30.42279230914119
 33
0.0
  0
MTEXT
  5
1EDD
330
1D9D
100
AcDbEntity
  8
DIM
 62
     0
440
 16777216
100
AcDbMText
 10
18.69313464396822
 20
25.80388034954669
 30
0.0
 40
0.187
 41
0.0
 46
0.0
 71
     5
 72
     1
  1
\A1;9 11/32
 73
     1
 44
1.0
  0
POINT
  5
1EDE
330
1D9D
100
AcDbEntity
  8
DEFPOINTS
 62
     0
440
 16777216
100
AcDbPoint
 10
23.14548633680759
 20
21.07644945718281
 30
0.0
  0
POINT
  5
1EDF
330
1D9D
100
AcDbEntity
  8
DEFPOINTS
 62
     0
440
 16777216
100
AcDbPoint
 10
23.14548633680758
 20
30.42279230914119
 30
0.0
  0
POINT
  5
1EE0
330
1D9D
100
AcDbEntity
  8
DEFPOINTS
 62
     0
440
 16777216
100
AcDbPoint
 10
18.69313464396823
 20
30.42279230914119
 30
0.0
  0
ENDBLK
  5
1DA9
330
1D9D
100
AcDbEntity
  8
0
100
AcDbBlockEnd
  0
BLOCK
  5
1DB6
330
1DAA
100
AcDbEntity
  8
0
100
AcDbBlockBegin
  2
*D147
 70
     1
 10
0.0
 20
0.0
 30
0.0
  3
*D147
  1

  0
LINE
  5
1EE1
330
1DAA
100
AcDbEntity
  8
DIM
 62
     0
440
 16777216
370
    -2
100
AcDbLine
 10
50.76790466555451
 20
14.48729133190407
 30
0.0
 11
50.7670702922865
 21
14.48729133190407
 31
0.0
  0
LINE
  5
1EE2
330
1DAA
100
AcDbEntity
  8
DIM
 62
     0
440
 16777216
370
    -2
100
AcDbLine
 10
50.7922326977401
 20
14.61229133190407
 30
0.0
 11
50.7670702922865
 21
14.61229133190407
 31
0.0
  0
LINE
  5
1EE3
330
1DAA
100
AcDbEntity
  8
DIM
 62
     0
440
 16777216
370
    -2
100
AcDbLine
 10
50.67332029228651
 20
14.29979133190407
 30
0.0
 11
50.67332029228651
 21
14.11229133190406
 31
0.0
  0
LINE
  5
1EE4
330
1DAA
100
AcDbEntity
  8
DIM
 62
     0
440
 16777216
370
    -2
100
AcDbLine
 10
50.67332029228651
 20
14.79979133190407
 30
0.0
 11
50.67332029228651
 21
14.98729133190407
 31
0.0
  0
LINE
  5
1EE5
330
1DAA
100
AcDbEntity
  8
DIM
 62
     0
440
 16777216
370
    -2
100
AcDbLine
 10
50.67332029228651
 20
14.98729133190407
 30
0.0
 11
50.8608202922865
 21
14.98729133190407
 31
0.0
  0
SOLID
  5
1EE6
330
1DAA
100
AcDbEntity
  8
DIM
 62
     0
440
 16777216
100
AcDbTrace
 10
50.64207029228651
 20
14.29979133190407
 30
0.0
 11
50.7045702922865
 21
14.29979133190407
 31
0.0
 12
50.67332029228651
 22
14.48729133190407
 32
0.0
 13
50.67332029228651
 23
14.48729133190407
 33
0.0
  0
SOLID
  5
1EE7
330
1DAA
100
AcDbEntity
  8
DIM
 62
     0
440
 16777216
100
AcDbTrace
 10
50.64207029228651
 20
14.79979133190407
 30
0.0
 11
50.7045702922865
 21
14.79979133190407
 31
0.0
 12
50.67332029228651
 22
14.61229133190407
 32
0.0
 13
50.67332029228651
 23
14.61229133190407
 33
0.0
  0
MTEXT
  5
1EE8
330
1DAA
100
AcDbEntity
  8
DIM
 62
     0
440
 16777216
100
AcDbMText
 10
51.3755702922865
 20
14.98729133190407
 30
0.0
 40
0.187
 41
0.0
 46
0.0
 71
     5
 72
     1
  1
\A1;0.125
 73
     1
 44
1.0
  0
POINT
  5
1EE9
330
1DAA
100
AcDbEntity
  8
DEFPOINTS
 62
     0
440
 16777216
100
AcDbPoint
 10
50.64290466555451
 20
14.48729133190407
 30
0.0
  0
POINT
  5
1EEA
330
1DAA
100
AcDbEntity
  8
DEFPOINTS
 62
     0
440
 16777216
100
AcDbPoint
 10
50.66723269774009
 20
14.61229133190407
 30
0.0
  0
POINT
  5
1EEB
330
1DAA
100
AcDbEntity
  8
DEFPOINTS
 62
     0
440
 16777216
100
AcDbPoint
 10
50.67332029228651
 20
14.61229133190407
 30
0.0
  0
ENDBLK
  5
1DB7
330
1DAA
100
AcDbEntity
  8
0
100
AcDbBlockEnd
  0
BLOCK
  5
1DC4
330
1DB8
100
AcDbEntity
  8
0
100
AcDbBlockBegin
  2
*D148
 70
     1
 10
0.0
 20
0.0
 30
0.0
  3
*D148
  1

  0
LINE
  5
1EEC
330
1DB8
100
AcDbEntity
  8
DIM
 62
     0
440
 16777216
370
    -2
100
AcDbLine
 10
49.81283170645526
 20
11.61229133190407
 30
0.0
 11
48.93251071181076
 21
11.61229133190407
 31
0.0
  0
LINE
  5
1EED
330
1DB8
100
AcDbEntity
  8
DIM
 62
     0
440
 16777216
370
    -2
100
AcDbLine
 10
49.75141312751052
 20
11.48729133190407
 30
0.0
 11
48.93251071181076
 21
11.48729133190407
 31
0.0
  0
LINE
  5
1EEE
330
1DB8
100
AcDbEntity
  8
DIM
 62
     0
440
 16777216
370
    -2
100
AcDbLine
 10
49.02626071181075
 20
11.79979133190407
 30
0.0
 11
49.02626071181075
 21
11.98729133190407
 31
0.0
  0
LINE
  5
1EEF
330
1DB8
100
AcDbEntity
  8
DIM
 62
     0
440
 16777216
370
    -2
100
AcDbLine
 10
49.02626071181075
 20
11.29979133190407
 30
0.0
 11
49.02626071181075
 21
11.11229133190407
 31
0.0
  0
LINE
  5
1EF0
330
1DB8
100
AcDbEntity
  8
DIM
 62
     0
440
 16777216
370
    -2
100
AcDbLine
 10
49.02626071181075
 20
11.11229133190407
 30
0.0
 11
48.83876071181076
 21
11.11229133190407
 31
0.0
  0
SOLID
  5
1EF1
330
1DB8
100
AcDbEntity
  8
DIM
 62
     0
440
 16777216
100
AcDbTrace
 10
48.99501071181076
 20
11.79979133190407
 30
0.0
 11
49.05751071181075
 21
11.79979133190407
 31
0.0
 12
49.02626071181075
 22
11.61229133190407
 32
0.0
 13
49.02626071181075
 23
11.61229133190407
 33
0.0
  0
SOLID
  5
1EF2
330
1DB8
100
AcDbEntity
  8
DIM
 62
     0
440
 16777216
100
AcDbTrace
 10
48.99501071181076
 20
11.29979133190407
 30
0.0
 11
49.05751071181075
 21
11.29979133190407
 31
0.0
 12
49.02626071181075
 22
11.48729133190407
 32
0.0
 13
49.02626071181075
 23
11.48729133190407
 33
0.0
  0
MTEXT
  5
1EF3
330
1DB8
100
AcDbEntity
  8
DIM
 62
     0
440
 16777216
100
AcDbMText
 10
48.32401071181076
 20
11.11229133190408
 30
0.0
 40
0.187
 41
0.0
 46
0.0
 71
     5
 72
     1
  1
\A1;0.125
 73
     1
 44
1.0
  0
POINT
  5
1EF4
330
1DB8
100
AcDbEntity
  8
DEFPOINTS
 62
     0
440
 16777216
100
AcDbPoint
 10
49.93783170645526
 20
11.61229133190407
 30
0.0
  0
POINT
  5
1EF5
330
1DB8
100
AcDbEntity
  8
DEFPOINTS
 62
     0
440
 16777216
100
AcDbPoint
 10
49.87641312751051
 20
11.48729133190407
 30
0.0
  0
POINT
  5
1EF6
330
1DB8
100
AcDbEntity
  8
DEFPOINTS
 62
     0
440
 16777216
100
AcDbPoint
 10
49.02626071181075
 20
11.48729133190407
 30
0.0
  0
ENDBLK
  5
1DC5
330
1DB8
100
AcDbEntity
  8
0
100
AcDbBlockEnd
  0
BLOCK
  5
1DD1
330
1DC6
100
AcDbEntity
  8
0
100
AcDbBlockBegin
  2
*D149
 70
     1
 10
0.0
 20
0.0
 30
0.0
  3
*D149
  1

  0
LINE
  5
1EF7
330
1DC6
100
AcDbEntity
  8
DIM
 62
     0
440
 16777216
370
    -2
100
AcDbLine
 10
52.5106645536227
 20
30.01587088316199
 30
0.0
 11
52.5106645536227
 21
31.52572570762611
 31
0.0
  0
LINE
  5
1EF8
330
1DC6
100
AcDbEntity
  8
DIM
 62
     0
440
 16777216
370
    -2
100
AcDbLine
 10
53.01066455362271
 20
30.18921514632781
 30
0.0
 11
53.01066455362271
 21
31.52572570762611
 31
0.0
  0
LINE
  5
1EF9
330
1DC6
100
AcDbEntity
  8
DIM
 62
     0
440
 16777216
370
    -2
100
AcDbLine
 10
52.3231645536227
 20
31.43197570762611
 30
0.0
 11
52.1356645536227
 21
31.43197570762611
 31
0.0
  0
LINE
  5
1EFA
330
1DC6
100
AcDbEntity
  8
DIM
 62
     0
440
 16777216
370
    -2
100
AcDbLine
 10
53.1981645536227
 20
31.43197570762611
 30
0.0
 11
53.3856645536227
 21
31.43197570762611
 31
0.0
  0
SOLID
  5
1EFB
330
1DC6
100
AcDbEntity
  8
DIM
 62
     0
440
 16777216
100
AcDbTrace
 10
52.3231645536227
 20
31.46322570762611
 30
0.0
 11
52.3231645536227
 21
31.40072570762611
 31
0.0
 12
52.5106645536227
 22
31.43197570762611
 32
0.0
 13
52.5106645536227
 23
31.43197570762611
 33
0.0
  0
SOLID
  5
1EFC
330
1DC6
100
AcDbEntity
  8
DIM
 62
     0
440
 16777216
100
AcDbTrace
 10
53.1981645536227
 20
31.46322570762611
 30
0.0
 11
53.1981645536227
 21
31.40072570762611
 31
0.0
 12
53.01066455362271
 22
31.43197570762611
 32
0.0
 13
53.01066455362271
 23
31.43197570762611
 33
0.0
  0
MTEXT
  5
1EFD
330
1DC6
100
AcDbEntity
  8
DIM
 62
     0
440
 16777216
100
AcDbMText
 10
53.79133122028937
 20
31.43197570762611
 30
0.0
 40
0.187
 41
0.0
 46
0.0
 71
     5
 72
     1
  1
\A1;1/2
 73
     1
 44
1.0
  0
POINT
  5
1EFE
330
1DC6
100
AcDbEntity
  8
DEFPOINTS
 62
     0
440
 16777216
100
AcDbPoint
 10
52.5106645536227
 20
29.89087088316198
 30
0.0
  0
POINT
  5
1EFF
330
1DC6
100
AcDbEntity
  8
DEFPOINTS
 62
     0
440
 16777216
100
AcDbPoint
 10
53.01066455362271
 20
30.06421514632781
 30
0.0
  0
POINT
  5
1F00
330
1DC6
100
AcDbEntity
  8
DEFPOINTS
 62
     0
440
 16777216
100
AcDbPoint
 10
53.01066455362271
 20
31.43197570762611
 30
0.0
  0
ENDBLK
  5
1DD2
330
1DC6
100
AcDbEntity
  8
0
100
AcDbBlockEnd
  0
BLOCK
  5
1DDE
330
1DD3
100
AcDbEntity
  8
0
100
AcDbBlockBegin
  2
*D150
 70
     1
 10
0.0
 20
0.0
 30
0.0
  3
*D150
  1

  0
LINE
  5
1F01
330
1DD3
100
AcDbEntity
  8
DIM
 62
     0
440
 16777216
370
    -2
100
AcDbLine
 10
52.5106645536227
 20
30.14087088316199
 30
0.0
 11
52.5106645536227
 21
31.52572570762611
 31
0.0
  0
LINE
  5
1F02
330
1DD3
100
AcDbEntity
  8
DIM
 62
     0
440
 16777216
370
    -2
100
AcDbLine
 10
50.26566455362271
 20
30.39953956717202
 30
0.0
 11
50.26566455362271
 21
31.52572570762611
 31
0.0
  0
LINE
  5
1F03
330
1DD3
100
AcDbEntity
  8
DIM
 62
     0
440
 16777216
370
    -2
100
AcDbLine
 10
52.3231645536227
 20
31.43197570762611
 30
0.0
 11
51.98083122028936
 21
31.43197570762611
 31
0.0
  0
LINE
  5
1F04
330
1DD3
100
AcDbEntity
  8
DIM
 62
     0
440
 16777216
370
    -2
100
AcDbLine
 10
50.45316455362271
 20
31.43197570762611
 30
0.0
 11
50.79549788695604
 21
31.43197570762611
 31
0.0
  0
SOLID
  5
1F05
330
1DD3
100
AcDbEntity
  8
DIM
 62
     0
440
 16777216
100
AcDbTrace
 10
52.3231645536227
 20
31.46322570762611
 30
0.0
 11
52.3231645536227
 21
31.40072570762611
 31
0.0
 12
52.5106645536227
 22
31.43197570762611
 32
0.0
 13
52.5106645536227
 23
31.43197570762611
 33
0.0
  0
SOLID
  5
1F06
330
1DD3
100
AcDbEntity
  8
DIM
 62
     0
440
 16777216
100
AcDbTrace
 10
50.45316455362271
 20
31.46322570762611
 30
0.0
 11
50.45316455362271
 21
31.40072570762611
 31
0.0
 12
50.26566455362271
 22
31.43197570762611
 32
0.0
 13
50.26566455362271
 23
31.43197570762611
 33
0.0
  0
MTEXT
  5
1F07
330
1DD3
100
AcDbEntity
  8
DIM
 62
     0
440
 16777216
100
AcDbMText
 10
51.3881645536227
 20
31.43197570762611
 30
0.0
 40
0.187
 41
0.0
 46
0.0
 71
     5
 72
     1
  1
\A1;2 1/4
 73
     1
 44
1.0
  0
POINT
  5
1F08
330
1DD3
100
AcDbEntity
  8
DEFPOINTS
 62
     0
440
 16777216
100
AcDbPoint
 10
52.5106645536227
 20
30.01587088316199
 30
0.0
  0
POINT
  5
1F09
330
1DD3
100
AcDbEntity
  8
DEFPOINTS
 62
     0
440
 16777216
100
AcDbPoint
 10
50.26566455362271
 20
30.27453956717203
 30
0.0
  0
POINT
  5
1F0A
330
1DD3
100
AcDbEntity
  8
DEFPOINTS
 62
     0
440
 16777216
100
AcDbPoint
 10
50.26566455362271
 20
31.43197570762611
 30
0.0
  0
ENDBLK
  5
1DDF
330
1DD3
100
AcDbEntity
  8
0
100
AcDbBlockEnd
  0
BLOCK
  5
1DE9
330
1DE0
100
AcDbEntity
  8
0
100
AcDbBlockBegin
  2
*D151
 70
     1
 10
0.0
 20
0.0
 30
0.0
  3
*D151
  1

  0
LINE
  5
1F0B
330
1DE0
100
AcDbEntity
  8
DIM
 62
     0
440
 16777216
370
    -2
100
AcDbLine
 10
11.19300611930515
 20
21.54046808223885
 30
0.0
 11
11.6724213741805
 21
21.10980705568307
 31
0.0
  0
LINE
  5
1F0C
330
1DE0
100
AcDbEntity
  8
DIM
 62
     0
440
 16777216
370
    -2
100
AcDbLine
 10
11.6724213741805
 20
21.10980705568307
 30
0.0
 11
11.8599213741805
 21
21.10980705568307
 31
0.0
  0
SOLID
  5
1F0D
330
1DE0
100
AcDbEntity
  8
DIM
 62
     0
440
 16777216
100
AcDbTrace
 10
11.21388948499185
 20
21.56371560979762
 30
0.0
 11
11.17212275361846
 21
21.51722055468008
 31
0.0
 12
11.05352095395255
 22
21.66576827635903
 32
0.0
 13
11.05352095395255
 23
21.66576827635903
 33
0.0
  0
MTEXT
  5
1F0E
330
1DE0
100
AcDbEntity
  8
DIM
 62
     0
440
 16777216
100
AcDbMText
 10
12.49933804084717
 20
21.10980705568307
 30
0.0
 40
0.187
 41
0.0
 46
0.0
 71
     5
 72
     1
  1
\A1;∅0.345
 73
     1
 44
1.0
  0
LINE
  5
1F0F
330
1DE0
100
AcDbEntity
  8
DIM
 62
     0
440
 16777216
370
    -2
100
AcDbLine
 10
10.83144460182815
 20
21.7810444549496
 30
0.0
 11
11.01894460182815
 21
21.7810444549496
 31
0.0
  0
LINE
  5
1F10
330
1DE0
100
AcDbEntity
  8
DIM
 62
     0
440
 16777216
370
    -2
100
AcDbLine
 10
10.92519460182815
 20
21.6872944549496
 30
0.0
 11
10.92519460182814
 21
21.8747944549496
 31
0.0
  0
POINT
  5
1F11
330
1DE0
100
AcDbEntity
  8
DEFPOINTS
 62
     0
440
 16777216
100
AcDbPoint
 10
11.05352095395255
 20
21.66576827635903
 30
0.0
  0
POINT
  5
1F12
330
1DE0
100
AcDbEntity
  8
DEFPOINTS
 62
     0
440
 16777216
100
AcDbPoint
 10
10.79686824970375
 20
21.89632063354016
 30
0.0
  0
ENDBLK
  5
1DEA
330
1DE0
100
AcDbEntity
  8
0
100
AcDbBlockEnd
  0
BLOCK
  5
1DF4
330
1DEB
100
AcDbEntity
  8
0
100
AcDbBlockBegin
  2
*D152
 70
     1
 10
0.0
 20
0.0
 30
0.0
  3
*D152
  1

  0
LINE
  5
1F13
330
1DEB
100
AcDbEntity
  8
DIM
 62
     0
440
 16777216
370
    -2
100
AcDbLine
 10
11.19267311187485
 20
21.90897997254809
 30
0.0
 11
11.64951314274828
 21
22.12748749227106
 31
0.0
  0
LINE
  5
1F14
330
1DEB
100
AcDbEntity
  8
DIM
 62
     0
440
 16777216
370
    -2
100
AcDbLine
 10
11.64951314274828
 20
22.12748749227106
 30
0.0
 11
11.83701314274829
 21
22.12748749227106
 31
0.0
  0
SOLID
  5
1F15
330
1DEB
100
AcDbEntity
  8
DIM
 62
     0
440
 16777216
100
AcDbTrace
 10
11.17918918295427
 20
21.93717121517527
 30
0.0
 11
11.20615704079543
 21
21.88078872992091
 31
0.0
 12
11.02352565611176
 22
21.8280763990246
 32
0.0
 13
11.02352565611176
 23
21.8280763990246
 33
0.0
  0
MTEXT
  5
1F16
330
1DEB
100
AcDbEntity
  8
DIM
 62
     0
440
 16777216
100
AcDbMText
 10
12.44526314274829
 20
22.12748749227106
 30
0.0
 40
0.187
 41
0.0
 46
0.0
 71
     5
 72
     1
  1
\A1;∅0.218
 73
     1
 44
1.0
  0
LINE
  5
1F17
330
1DEB
100
AcDbEntity
  8
DIM
 62
     0
440
 16777216
370
    -2
100
AcDbLine
 10
10.83144460182815
 20
21.78104445494961
 30
0.0
 11
11.01894460182815
 21
21.78104445494961
 31
0.0
  0
LINE
  5
1F18
330
1DEB
100
AcDbEntity
  8
DIM
 62
     0
440
 16777216
370
    -2
100
AcDbLine
 10
10.92519460182815
 20
21.68729445494961
 30
0.0
 11
10.92519460182815
 21
21.87479445494961
 31
0.0
  0
POINT
  5
1F19
330
1DEB
100
AcDbEntity
  8
DEFPOINTS
 62
     0
440
 16777216
100
AcDbPoint
 10
11.02352565611176
 20
21.8280763990246
 30
0.0
  0
POINT
  5
1F1A
330
1DEB
100
AcDbEntity
  8
DEFPOINTS
 62
     0
440
 16777216
100
AcDbPoint
 10
10.82686354754454
 20
21.73401251087462
 30
0.0
  0
ENDBLK
  5
1DF5
330
1DEB
100
AcDbEntity
  8
0
100
AcDbBlockEnd
  0
BLOCK
  5
1E01
330
1DF6
100
AcDbEntity
  8
0
100
AcDbBlockBegin
  2
*D153
 70
     1
 10
0.0
 20
0.0
 30
0.0
  3
*D153
  1

  0
LINE
  5
1F1B
330
1DF6
100
AcDbEntity
  8
DIM
 62
     0
440
 16777216
370
    -2
100
AcDbLine
 10
7.960194601828141
 20
21.78104445494958
 30
0.0
 11
5.643923175848973
 21
21.78104445494958
 31
0.0
  0
LINE
  5
1F1C
330
1DF6
100
AcDbEntity
  8
DIM
 62
     0
440
 16777216
370
    -2
100
AcDbLine
 10
7.960194601828141
 20
29.71819731137447
 30
0.0
 11
5.643923175848975
 21
29.71819731137447
 31
0.0
  0
LINE
  5
1F1D
330
1DF6
100
AcDbEntity
  8
DIM
 62
     0
440
 16777216
370
    -2
100
AcDbLine
 10
5.737673175848973
 20
21.96854445494958
 30
0.0
 11
5.737673175848974
 21
25.46862088316203
 31
0.0
  0
LINE
  5
1F1E
330
1DF6
100
AcDbEntity
  8
DIM
 62
     0
440
 16777216
370
    -2
100
AcDbLine
 10
5.737673175848975
 20
29.53069731137447
 30
0.0
 11
5.737673175848975
 21
26.03062088316202
 31
0.0
  0
SOLID
  5
1F1F
330
1DF6
100
AcDbEntity
  8
DIM
 62
     0
440
 16777216
100
AcDbTrace
 10
5.706423175848973
 20
21.96854445494958
 30
0.0
 11
5.768923175848973
 21
21.96854445494958
 31
0.0
 12
5.737673175848973
 22
21.78104445494958
 32
0.0
 13
5.737673175848973
 23
21.78104445494958
 33
0.0
  0
SOLID
  5
1F20
330
1DF6
100
AcDbEntity
  8
DIM
 62
     0
440
 16777216
100
AcDbTrace
 10
5.706423175848975
 20
29.53069731137447
 30
0.0
 11
5.768923175848975
 21
29.53069731137447
 31
0.0
 12
5.737673175848975
 22
29.71819731137447
 32
0.0
 13
5.737673175848975
 23
29.71819731137447
 33
0.0
  0
MTEXT
  5
1F21
330
1DF6
100
AcDbEntity
  8
DIM
 62
     0
440
 16777216
100
AcDbMText
 10
5.73767317584897
 20
25.74962088316202
 30
0.0
 40
0.187
 41
0.0
 46
0.0
 71
     5
 72
     1
  1
\A1;7 15/16
 73
     1
 44
1.0
  0
POINT
  5
1F22
330
1DF6
100
AcDbEntity
  8
DEFPOINTS
 62
     0
440
 16777216
100
AcDbPoint
 10
8.085194601828142
 20
21.78104445494958
 30
0.0
  0
POINT
  5
1F23
330
1DF6
100
AcDbEntity
  8
DEFPOINTS
 62
     0
440
 16777216
100
AcDbPoint
 10
8.085194601828142
 20
29.71819731137447
 30
0.0
  0
POINT
  5
1F24
330
1DF6
100
AcDbEntity
  8
DEFPOINTS
 62
     0
440
 16777216
100
AcDbPoint
 10
5.737673175848975
 20
29.71819731137447
 30
0.0
  0
ENDBLK
  5
1E02
330
1DF6
100
AcDbEntity
  8
0
100
AcDbBlockEnd
  0
BLOCK
  5
1E0E
330
1E03
100
AcDbEntity
  8
0
100
AcDbBlockBegin
  2
*D154
 70
     1
 10
0.0
 20
0.0
 30
0.0
  3
*D154
  1

  0
LINE
  5
1F25
330
1E03
100
AcDbEntity
  8
DIM
 62
     0
440
 16777216
370
    -2
100
AcDbLine
 10
7.83517317584895
 20
21.39027302897039
 30
0.0
 11
3.809999956143001
 21
21.39027302897039
 31
0.0
  0
LINE
  5
1F26
330
1E03
100
AcDbEntity
  8
DIM
 62
     0
440
 16777216
370
    -2
100
AcDbLine
 10
7.83517317584895
 20
30.10896873735367
 30
0.0
 11
3.809999956143002
 21
30.10896873735367
 31
0.0
  0
LINE
  5
1F27
330
1E03
100
AcDbEntity
  8
DIM
 62
     0
440
 16777216
370
    -2
100
AcDbLine
 10
3.903749956143
 20
21.57777302897038
 30
0.0
 11
3.903749956143001
 21
25.46862088316203
 31
0.0
  0
LINE
  5
1F28
330
1E03
100
AcDbEntity
  8
DIM
 62
     0
440
 16777216
370
    -2
100
AcDbLine
 10
3.903749956143002
 20
29.92146873735368
 30
0.0
 11
3.903749956143001
 21
26.03062088316203
 31
0.0
  0
SOLID
  5
1F29
330
1E03
100
AcDbEntity
  8
DIM
 62
     0
440
 16777216
100
AcDbTrace
 10
3.872499956143
 20
21.57777302897038
 30
0.0
 11
3.934999956143
 21
21.57777302897038
 31
0.0
 12
3.903749956143
 22
21.39027302897039
 32
0.0
 13
3.903749956143
 23
21.39027302897039
 33
0.0
  0
SOLID
  5
1F2A
330
1E03
100
AcDbEntity
  8
DIM
 62
     0
440
 16777216
100
AcDbTrace
 10
3.872499956143002
 20
29.92146873735368
 30
0.0
 11
3.934999956143002
 21
29.92146873735368
 31
0.0
 12
3.903749956143002
 22
30.10896873735367
 32
0.0
 13
3.903749956143002
 23
30.10896873735367
 33
0.0
  0
MTEXT
  5
1F2B
330
1E03
100
AcDbEntity
  8
DIM
 62
     0
440
 16777216
100
AcDbMText
 10
3.903749956142997
 20
25.74962088316203
 30
0.0
 40
0.187
 41
0.0
 46
0.0
 71
     5
 72
     1
  1
\A1;8 23/32
 73
     1
 44
1.0
  0
POINT
  5
1F2C
330
1E03
100
AcDbEntity
  8
DEFPOINTS
 62
     0
440
 16777216
100
AcDbPoint
 10
7.96017317584895
 20
21.39027302897039
 30
0.0
  0
POINT
  5
1F2D
330
1E03
100
AcDbEntity
  8
DEFPOINTS
 62
     0
440
 16777216
100
AcDbPoint
 10
7.96017317584895
 20
30.10896873735367
 30
0.0
  0
POINT
  5
1F2E
330
1E03
100
AcDbEntity
  8
DEFPOINTS
 62
     0
440
 16777216
100
AcDbPoint
 10
3.903749956143002
 20
30.10896873735367
 30
0.0
  0
ENDBLK
  5
1E0F
330
1E03
100
AcDbEntity
  8
0
100
AcDbBlockEnd
  0
BLOCK
  5
1E1B
330
1E10
100
AcDbEntity
  8
0
100
AcDbBlockBegin
  2
*D155
 70
     1
 10
0.0
 20
0.0
 30
0.0
  3
*D155
  1

  0
LINE
  5
1F2F
330
1E10
100
AcDbEntity
  8
DIM
 62
     0
440
 16777216
370
    -2
100
AcDbLine
 10
11.05021602780736
 20
30.32396873735368
 30
0.0
 11
11.05021602780736
 21
33.51654230914119
 31
0.0
  0
LINE
  5
1F30
330
1E10
100
AcDbEntity
  8
DIM
 62
     0
440
 16777216
370
    -2
100
AcDbLine
 10
8.050173175848954
 20
30.32396873735368
 30
0.0
 11
8.050173175848954
 21
33.51654230914119
 31
0.0
  0
LINE
  5
1F31
330
1E10
100
AcDbEntity
  8
DIM
 62
     0
440
 16777216
370
    -2
100
AcDbLine
 10
10.86271602780736
 20
33.42279230914119
 30
0.0
 11
9.800027935161486
 21
33.42279230914119
 31
0.0
  0
LINE
  5
1F32
330
1E10
100
AcDbEntity
  8
DIM
 62
     0
440
 16777216
370
    -2
100
AcDbLine
 10
8.237673175848954
 20
33.42279230914119
 30
0.0
 11
9.300361268494819
 21
33.42279230914119
 31
0.0
  0
SOLID
  5
1F33
330
1E10
100
AcDbEntity
  8
DIM
 62
     0
440
 16777216
100
AcDbTrace
 10
10.86271602780736
 20
33.45404230914119
 30
0.0
 11
10.86271602780736
 21
33.39154230914119
 31
0.0
 12
11.05021602780736
 22
33.42279230914119
 32
0.0
 13
11.05021602780736
 23
33.42279230914119
 33
0.0
  0
SOLID
  5
1F34
330
1E10
100
AcDbEntity
  8
DIM
 62
     0
440
 16777216
100
AcDbTrace
 10
8.237673175848954
 20
33.45404230914119
 30
0.0
 11
8.237673175848954
 21
33.39154230914119
 31
0.0
 12
8.050173175848954
 22
33.42279230914119
 32
0.0
 13
8.050173175848954
 23
33.42279230914119
 33
0.0
  0
MTEXT
  5
1F35
330
1E10
100
AcDbEntity
  8
DIM
 62
     0
440
 16777216
100
AcDbMText
 10
9.550194601828152
 20
33.42279230914119
 30
0.0
 40
0.187
 41
0.0
 46
0.0
 71
     5
 72
     1
  1
\A1;3
 73
     1
 44
1.0
  0
POINT
  5
1F36
330
1E10
100
AcDbEntity
  8
DEFPOINTS
 62
     0
440
 16777216
100
AcDbPoint
 10
11.05021602780736
 20
30.19896873735368
 30
0.0
  0
POINT
  5
1F37
330
1E10
100
AcDbEntity
  8
DEFPOINTS
 62
     0
440
 16777216
100
AcDbPoint
 10
8.050173175848954
 20
30.19896873735368
 30
0.0
  0
POINT
  5
1F38
330
1E10
100
AcDbEntity
  8
DEFPOINTS
 62
     0
440
 16777216
100
AcDbPoint
 10
8.050173175848954
 20
33.42279230914119
 30
0.0
  0
ENDBLK
  5
1E1C
330
1E10
100
AcDbEntity
  8
0
100
AcDbBlockEnd
  0
BLOCK
  5
1E28
330
1E1D
100
AcDbEntity
  8
0
100
AcDbBlockBegin
  2
*D156
 70
     1
 10
0.0
 20
0.0
 30
0.0
  3
*D156
  1

  0
LINE
  5
1F39
330
1E1D
100
AcDbEntity
  8
DIM
 62
     0
440
 16777216
370
    -2
100
AcDbLine
 10
8.175194601828145
 20
29.93319731137447
 30
0.0
 11
8.175194601828145
 21
32.23360028909761
 31
0.0
  0
LINE
  5
1F3A
330
1E1D
100
AcDbEntity
  8
DIM
 62
     0
440
 16777216
370
    -2
100
AcDbLine
 10
10.92519460182815
 20
29.93319731137447
 30
0.0
 11
10.92519460182815
 21
32.23360028909761
 31
0.0
  0
LINE
  5
1F3B
330
1E1D
100
AcDbEntity
  8
DIM
 62
     0
440
 16777216
370
    -2
100
AcDbLine
 10
8.362694601828145
 20
32.13985028909761
 30
0.0
 11
8.926361268494819
 21
32.13985028909761
 31
0.0
  0
LINE
  5
1F3C
330
1E1D
100
AcDbEntity
  8
DIM
 62
     0
440
 16777216
370
    -2
100
AcDbLine
 10
10.73769460182815
 20
32.13985028909761
 30
0.0
 11
10.17402793516148
 21
32.13985028909761
 31
0.0
  0
SOLID
  5
1F3D
330
1E1D
100
AcDbEntity
  8
DIM
 62
     0
440
 16777216
100
AcDbTrace
 10
8.362694601828145
 20
32.17110028909761
 30
0.0
 11
8.362694601828145
 21
32.10860028909761
 31
0.0
 12
8.175194601828145
 22
32.13985028909761
 32
0.0
 13
8.175194601828145
 23
32.13985028909761
 33
0.0
  0
SOLID
  5
1F3E
330
1E1D
100
AcDbEntity
  8
DIM
 62
     0
440
 16777216
100
AcDbTrace
 10
10.73769460182815
 20
32.17110028909761
 30
0.0
 11
10.73769460182815
 21
32.10860028909761
 31
0.0
 12
10.92519460182815
 22
32.13985028909761
 32
0.0
 13
10.92519460182815
 23
32.13985028909761
 33
0.0
  0
MTEXT
  5
1F3F
330
1E1D
100
AcDbEntity
  8
DIM
 62
     0
440
 16777216
100
AcDbMText
 10
9.550194601828152
 20
32.13985028909761
 30
0.0
 40
0.187
 41
0.0
 46
0.0
 71
     5
 72
     1
  1
\A1;2 3/4
 73
     1
 44
1.0
  0
POINT
  5
1F40
330
1E1D
100
AcDbEntity
  8
DEFPOINTS
 62
     0
440
 16777216
100
AcDbPoint
 10
8.175194601828145
 20
29.80819731137447
 30
0.0
  0
POINT
  5
1F41
330
1E1D
100
AcDbEntity
  8
DEFPOINTS
 62
     0
440
 16777216
100
AcDbPoint
 10
10.92519460182815
 20
29.80819731137447
 30
0.0
  0
POINT
  5
1F42
330
1E1D
100
AcDbEntity
  8
DEFPOINTS
 62
     0
440
 16777216
100
AcDbPoint
 10
10.92519460182815
 20
32.13985028909761
 30
0.0
  0
ENDBLK
  5
1E29
330
1E1D
100
AcDbEntity
  8
0
100
AcDbBlockEnd
  0
BLOCK
  5
1E35
330
1E2A
100
AcDbEntity
  8
0
100
AcDbBlockBegin
  2
*D157
 70
     1
 10
0.0
 20
0.0
 30
0.0
  3
*D157
  1

  0
LINE
  5
1F43
330
1E2A
100
AcDbEntity
  8
DIM
 62
     0
440
 16777216
370
    -2
100
AcDbLine
 10
50.31507071258776
 20
11.36229133190407
 30
0.0
 11
50.31507071258776
 21
10.02848200761161
 31
0.0
  0
LINE
  5
1F44
330
1E2A
100
AcDbEntity
  8
DIM
 62
     0
440
 16777216
370
    -2
100
AcDbLine
 10
52.34564406876492
 20
11.36229133190407
 30
0.0
 11
52.34564406876492
 21
10.02848200761161
 31
0.0
  0
LINE
  5
1F45
330
1E2A
100
AcDbEntity
  8
DIM
 62
     0
440
 16777216
370
    -2
100
AcDbLine
 10
50.50257071258775
 20
10.12223200761161
 30
0.0
 11
50.70669072400967
 21
10.12223200761161
 31
0.0
  0
LINE
  5
1F46
330
1E2A
100
AcDbEntity
  8
DIM
 62
     0
440
 16777216
370
    -2
100
AcDbLine
 10
52.15814406876492
 20
10.12223200761161
 30
0.0
 11
51.954024057343
 21
10.12223200761161
 31
0.0
  0
SOLID
  5
1F47
330
1E2A
100
AcDbEntity
  8
DIM
 62
     0
440
 16777216
100
AcDbTrace
 10
50.50257071258775
 20
10.15348200761161
 30
0.0
 11
50.50257071258775
 21
10.09098200761161
 31
0.0
 12
50.31507071258776
 22
10.12223200761161
 32
0.0
 13
50.31507071258776
 23
10.12223200761161
 33
0.0
  0
SOLID
  5
1F48
330
1E2A
100
AcDbEntity
  8
DIM
 62
     0
440
 16777216
100
AcDbTrace
 10
52.15814406876492
 20
10.15348200761161
 30
0.0
 11
52.15814406876492
 21
10.09098200761161
 31
0.0
 12
52.34564406876492
 22
10.12223200761161
 32
0.0
 13
52.34564406876492
 23
10.12223200761161
 33
0.0
  0
MTEXT
  5
1F49
330
1E2A
100
AcDbEntity
  8
DIM
 62
     0
440
 16777216
100
AcDbMText
 10
51.33035739067634
 20
10.12223200761161
 30
0.0
 40
0.187
 41
0.0
 46
0.0
 71
     5
 72
     1
  1
\A1;2 1/32
 73
     1
 44
1.0
  0
POINT
  5
1F4A
330
1E2A
100
AcDbEntity
  8
DEFPOINTS
 62
     0
440
 16777216
100
AcDbPoint
 10
50.31507071258776
 20
11.48729133190407
 30
0.0
  0
POINT
  5
1F4B
330
1E2A
100
AcDbEntity
  8
DEFPOINTS
 62
     0
440
 16777216
100
AcDbPoint
 10
52.34564406876492
 20
11.48729133190407
 30
0.0
  0
POINT
  5
1F4C
330
1E2A
100
AcDbEntity
  8
DEFPOINTS
 62
     0
440
 16777216
100
AcDbPoint
 10
52.34564406876492
 20
10.12223200761161
 30
0.0
  0
ENDBLK
  5
1E36
330
1E2A
100
AcDbEntity
  8
0
100
AcDbBlockEnd
  0
ENDSEC
  0
SECTION
  2
ENTITIES
  0
TEXT
  5
8C6
330
18
100
AcDbEntity
  8
TITLE
100
AcDbText
 10
44.74101858325111
 20
2.421898353972657
 30
0.0
 40
0.187
  1
F.R. POLYESTER FIBERGLASS
100
AcDbText
  0
TEXT
  5
8C7
330
18
100
AcDbEntity
  8
TITLE
100
AcDbText
 10
44.71726211672854
 20
3.622225083533685
 30
0.0
 40
0.187
  1
NEMA 4X
100
AcDbText
  0
TEXT
  5
8CA
330
18
100
AcDbEntity
  8
TITLE
100
AcDbText
 10
53.17456419876062
 20
2.385744489080259
 30
0.0
 40
0.187
  1
7/23/93
 41
0.800351545947276
 72
     5
 11
54.17233579270821
 21
2.385744489080259
 31
0.0
100
AcDbText
  0
TEXT
  5
8CB
330
18
100
AcDbEntity
  8
TITLE
100
AcDbText
 10
52.3744284369846
 20
2.403143248823269
 30
0.0
 40
0.187
  1
GF
100
AcDbText
  0
TEXT
  5
8CC
330
18
100
AcDbEntity
  8
TITLE
100
AcDbText
 10
56.3104177797388
 20
0.1900408411951275
 30
0.0
 40
0.187
  1
ENCLOSURE
100
AcDbText
  0
TEXT
  5
8CD
330
18
100
AcDbEntity
  8
TITLE
100
AcDbText
 10
60.80038995250301
 20
3.296493546852524
 30
0.0
 40
0.187
  1
.010
100
AcDbText
  0
TEXT
  5
8CE
330
18
100
AcDbEntity
  8
TITLE
100
AcDbText
 10
61.97763528936859
 20
0.9252612291032704
 30
0.0
 40
0.187
  1
HW-N4X932
 72
     1
 11
62.81913528936859
 21
0.9252612291032704
 31
0.0
100
AcDbText
  0
TEXT
  5
8CF
330
18
100
AcDbEntity
  8
TITLE
100
AcDbText
 10
62.34456027646956
 20
3.277738441703135
 30
0.0
 40
0.187
  1
1/32
100
AcDbText
  0
TEXT
  5
A47
330
18
100
AcDbEntity
  8
TITLE
100
AcDbText
 10
44.71726211672854
 20
3.158861322627167
 30
0.0
 40
0.187
  1
COLOR: GRAY 
100
AcDbText
  0
TEXT
  5
DED
330
18
100
AcDbEntity
  8
TITLE
100
AcDbText
 10
51.96638083203399
 20
1.316742979900486
 30
0.0
 40
0.154
  1
APD. BY
  7
ITALIC
 72
     1
 11
52.42838083203399
 21
1.316742979900486
 31
0.0
100
AcDbText
  0
TEXT
  5
DEE
330
18
100
AcDbEntity
  8
TITLE
 62
     1
100
AcDbText
 10
53.47434386396953
 20
1.322440723290178
 30
0.0
 40
0.154
  1
DATE
  7
ITALIC
 72
     1
 11
53.75667719730286
 21
1.322440723290178
 31
0.0
100
AcDbText
  0
TEXT
  5
DF4
330
18
100
AcDbEntity
  8
TITLE
100
AcDbText
 10
51.96638083203399
 20
2.072056300604384
 30
0.0
 40
0.154
  1
CHK. BY
  7
ITALIC
 72
     1
 11
52.42838083203399
 21
2.072056300604384
 31
0.0
100
AcDbText
  0
TEXT
  5
DF6
330
18
100
AcDbEntity
  8
TITLE
 62
     1
100
AcDbText
 10
53.46190663208497
 20
2.072056300604384
 30
0.0
 40
0.154
  1
DATE
  7
ITALIC
 72
     1
 11
53.7442399654183
 21
2.072056300604384
 31
0.0
100
AcDbText
  0
TEXT
  5
DFC
330
18
100
AcDbEntity
  8
TITLE
 62
     1
100
AcDbText
 10
60.47755802933359
 20
3.356364944423901
 30
0.0
 40
0.15525
  1
+
  7
ITALIC
100
AcDbText
  0
TEXT
  5
DFD
330
18
100
AcDbEntity
  8
TITLE
 62
     1
100
AcDbText
 10
60.47755802933359
 20
3.198840704743548
 30
0.0
 40
0.15525
  1
-
  7
ITALIC
100
AcDbText
  0
TEXT
  5
DFF
330
18
100
AcDbEntity
  8
TITLE
 62
     1
100
AcDbText
 10
62.01705691683141
 20
3.349780357914581
 30
0.0
 40
0.15525
  1
+
  7
ITALIC
100
AcDbText
  0
TEXT
  5
E00
330
18
100
AcDbEntity
  8
TITLE
 62
     1
100
AcDbText
 10
62.01705691683141
 20
3.19799197822055
 30
0.0
 40
0.15525
  1
-
  7
ITALIC
100
AcDbText
  0
TEXT
  5
F4C
330
18
100
AcDbEntity
  8
TITLE
100
AcDbText
 10
52.20267205253438
 20
0.2172647121122048
 30
0.0
 40
0.15125
  1
DO NOT SCALE
 72
     1
 11
53.08496371920104
 21
0.2172647121122048
 31
0.0
100
AcDbText
  0
POLYLINE
  5
103E
330
18
100
AcDbEntity
  8
TITLE
100
AcDb2dPolyline
 66
     1
 10
0.0
 20
0.0
 30
0.0
 70
     1
  0
VERTEX
  5
103F
330
103E
100
AcDbEntity
  8
TITLE
100
AcDbVertex
100
AcDb2dVertex
 10
63.96000000000377
 20
41.71000000000276
 30
0.0
  0
VERTEX
  5
1040
330
103E
100
AcDbEntity
  8
TITLE
100
AcDbVertex
100
AcDb2dVertex
 10
0.0399999999999943
 20
41.71000000000276
 30
0.0
  0
VERTEX
  5
1041
330
103E
100
AcDbEntity
  8
TITLE
100
AcDbVertex
100
AcDb2dVertex
 10
0.0399999999999996
 20
0.0400000000000014
 30
0.0
  0
VERTEX
  5
1042
330
103E
100
AcDbEntity
  8
TITLE
100
AcDbVertex
100
AcDb2dVertex
 10
63.96000000000374
 20
0.0400000000000014
 30
0.0
  0
SEQEND
  5
1043
330
103E
100
AcDbEntity
  8
TITLE
  0
POLYLINE
  5
1044
330
18
100
AcDbEntity
  8
TITLE
100
AcDb2dPolyline
 66
     1
 10
0.0
 20
0.0
 30
0.0
 70
     1
  0
VERTEX
  5
1045
330
1044
100
AcDbEntity
  8
TITLE
100
AcDbVertex
100
AcDb2dVertex
 10
64.00000000000376
 20
41.75000000000276
 30
0.0
  0
VERTEX
  5
1046
330
1044
100
AcDbEntity
  8
TITLE
100
AcDbVertex
100
AcDb2dVertex
 10
-0.0000000000000071
 20
41.75000000000276
 30
0.0
  0
VERTEX
  5
1047
330
1044
100
AcDbEntity
  8
TITLE
100
AcDbVertex
100
AcDb2dVertex
 10
0.0
 20
0.0000000000000018
 30
0.0
  0
VERTEX
  5
1048
330
1044
100
AcDbEntity
  8
TITLE
100
AcDbVertex
100
AcDb2dVertex
 10
64.00000000000374
 20
0.0000000000000018
 30
0.0
  0
SEQEND
  5
1049
330
1044
100
AcDbEntity
  8
TITLE
  0
POLYLINE
  5
104A
330
18
100
AcDbEntity
  8
TITLE
100
AcDb2dPolyline
 66
     1
 10
0.0
 20
0.0
 30
0.0
 70
     1
  0
VERTEX
  5
104B
330
104A
100
AcDbEntity
  8
TITLE
100
AcDbVertex
100
AcDb2dVertex
 10
63.98000000000377
 20
41.73000000000278
 30
0.0
  0
VERTEX
  5
104C
330
104A
100
AcDbEntity
  8
TITLE
100
AcDbVertex
100
AcDb2dVertex
 10
0.0199999999999943
 20
41.73000000000278
 30
0.0
  0
VERTEX
  5
104D
330
104A
100
AcDbEntity
  8
TITLE
100
AcDbVertex
100
AcDb2dVertex
 10
0.0199999999999996
 20
0.0200000000000014
 30
0.0
  0
VERTEX
  5
104E
330
104A
100
AcDbEntity
  8
TITLE
100
AcDbVertex
100
AcDb2dVertex
 10
63.98000000000374
 20
0.0200000000000014
 30
0.0
  0
SEQEND
  5
104F
330
104A
100
AcDbEntity
  8
TITLE
  0
TEXT
  5
1082
330
18
100
AcDbEntity
  8
TITLE
 62
     1
100
AcDbText
 10
62.01705691683141
 20
3.19799197822055
 30
0.0
 40
0.15525
  1
-
  7
ITALIC
100
AcDbText
  0
TEXT
  5
1083
330
18
100
AcDbEntity
  8
TITLE
 62
     1
100
AcDbText
 10
62.01705691683141
 20
3.349780357914581
 30
0.0
 40
0.15525
  1
+
  7
ITALIC
100
AcDbText
  0
TEXT
  5
1084
330
18
100
AcDbEntity
  8
TITLE
 62
     1
100
AcDbText
 10
62.01705691683141
 20
3.64320306308844
 30
0.0
 40
0.15525
  1
FRACTIONAL
  7
ITALIC
100
AcDbText
  0
TEXT
  5
1085
330
18
100
AcDbEntity
  8
TITLE
 62
     1
100
AcDbText
 10
60.47755802933359
 20
3.198840704743548
 30
0.0
 40
0.15525
  1
-
  7
ITALIC
100
AcDbText
  0
TEXT
  5
1086
330
18
100
AcDbEntity
  8
TITLE
 62
     1
100
AcDbText
 10
60.47755802933359
 20
3.356364944423901
 30
0.0
 40
0.15525
  1
+
  7
ITALIC
100
AcDbText
  0
TEXT
  5
1087
330
18
100
AcDbEntity
  8
TITLE
 62
     1
100
AcDbText
 10
60.47755802933359
 20
3.649787649597743
 30
0.0
 40
0.15525
  1
DECIMAL
  7
ITALIC
100
AcDbText
  0
TEXT
  5
1088
330
18
100
AcDbEntity
  8
TITLE
 62
     1
100
AcDbText
 10
57.92743410179541
 20
3.643086326406458
 30
0.0
 40
0.15525
  1
TOLERANCES
  7
ITALIC
 72
     1
 11
58.67780910179541
 21
3.643086326406458
 31
0.0
100
AcDbText
  0
LINE
  5
1089
330
18
100
AcDbEntity
  8
TITLE
 62
     1
100
AcDbLine
 10
57.33500000000375
 20
4.04
 30
0.0
 11
57.33500000000375
 21
3.040000000000001
 31
0.0
  0
TEXT
  5
108A
330
18
100
AcDbEntity
  8
TITLE
 62
     1
100
AcDbText
 10
57.51343410179541
 20
3.27666845244556
 30
0.0
 40
0.15525
  1
UNLESS SPECIFIED
  7
ITALIC
 72
     1
 11
58.67780910179541
 21
3.27666845244556
 31
0.0
100
AcDbText
  0
TEXT
  5
108B
330
18
100
AcDbEntity
  8
TITLE
 62
     1
100
AcDbText
 10
53.44713965836721
 20
2.822727796946285
 30
0.0
 40
0.14
  1
DATE
  7
ITALIC
 72
     1
 11
53.70380632503388
 21
2.822727796946285
 31
0.0
100
AcDbText
  0
TEXT
  5
108C
330
18
100
AcDbEntity
  8
TITLE
 62
     1
100
AcDbText
 10
53.46190663208497
 20
2.072056300604384
 30
0.0
 40
0.154
  1
DATE
  7
ITALIC
 72
     1
 11
53.7442399654183
 21
2.072056300604384
 31
0.0
100
AcDbText
  0
TEXT
  5
108D
330
18
100
AcDbEntity
  8
TITLE
100
AcDbText
 10
52.13269628546089
 20
2.82618097475822
 30
0.0
 40
0.14
  1
DR. BY
  7
ITALIC
 72
     1
 11
52.48269628546089
 21
2.82618097475822
 31
0.0
100
AcDbText
  0
TEXT
  5
108E
330
18
100
AcDbEntity
  8
TITLE
100
AcDbText
 10
51.96638083203399
 20
2.072056300604384
 30
0.0
 40
0.154
  1
CHK. BY
  7
ITALIC
 72
     1
 11
52.42838083203399
 21
2.072056300604384
 31
0.0
100
AcDbText
  0
LINE
  5
108F
330
18
100
AcDbEntity
  8
TITLE
 62
     1
100
AcDbLine
 10
61.74479396240641
 20
0.7900000000000014
 30
0.0
 11
61.74479396240641
 21
1.540000000000001
 31
0.0
  0
TEXT
  5
1090
330
18
100
AcDbEntity
  8
TITLE
 62
     1
100
AcDbText
 10
59.46791140966684
 20
0.5206953542067927
 30
0.0
 40
0.1694
  1
PART NO.
  7
ITALIC
100
AcDbText
  0
LINE
  5
1091
330
18
100
AcDbEntity
  8
TITLE
 62
     1
100
AcDbLine
 10
59.21000000000375
 20
0.7900000000000014
 30
0.0
 11
59.21000000000375
 21
0.0399999999999978
 31
0.0
  0
TEXT
  5
1092
330
18
100
AcDbEntity
  8
TITLE
 62
     1
100
AcDbText
 10
54.56633048452305
 20
0.5102494913256912
 30
0.0
 40
0.1694
  1
PART NAME
  7
ITALIC
100
AcDbText
  0
TEXT
  5
1093
330
18
100
AcDbEntity
  8
TITLE
 62
     1
100
AcDbText
 10
54.54266216399277
 20
1.252558201771084
 30
0.0
 40
0.1694
  1
CUSTOMER
  7
ITALIC
 72
     2
 11
55.8413954973261
 21
1.252558201771084
 31
0.0
100
AcDbText
  0
TEXT
  5
1094
330
18
100
AcDbEntity
  8
TITLE
 62
     1
100
AcDbText
 10
53.47434386396953
 20
1.322440723290178
 30
0.0
 40
0.154
  1
DATE
  7
ITALIC
 72
     1
 11
53.75667719730286
 21
1.322440723290178
 31
0.0
100
AcDbText
  0
TEXT
  5
1095
330
18
100
AcDbEntity
  8
TITLE
100
AcDbText
 10
51.96638083203399
 20
1.316742979900486
 30
0.0
 40
0.154
  1
APD. BY
  7
ITALIC
 72
     1
 11
52.42838083203399
 21
1.316742979900486
 31
0.0
100
AcDbText
  0
TEXT
  5
1096
330
18
100
AcDbEntity
  8
TITLE
100
AcDbText
 10
52.73472273397718
 20
0.5212952711989276
 30
0.0
 40
0.154
  1
SCALE
  7
ITALIC
 72
     1
 11
53.09405606731051
 21
0.5212952711989276
 31
0.0
100
AcDbText
  0
LINE
  5
1097
330
18
100
AcDbEntity
  8
TITLE
 62
     1
100
AcDbLine
 10
53.08500000000375
 20
3.040000000000004
 30
0.0
 11
53.08500000000375
 21
0.7900000000000032
 31
0.0
  0
LINE
  5
1098
330
18
100
AcDbEntity
  8
TITLE
 62
     1
100
AcDbLine
 10
54.33500000000375
 20
3.039999999999997
 30
0.0
 11
54.33500000000375
 21
0.0399999999999996
 31
0.0
  0
LINE
  5
1099
330
18
100
AcDbEntity
  8
TITLE
 62
     1
100
AcDbLine
 10
63.96000000000374
 20
1.540000000000001
 30
0.0
 11
54.33500000000375
 21
1.540000000000001
 31
0.0
  0
TEXT
  5
109A
330
18
100
AcDbEntity
  8
TITLE
 62
     1
100
AcDbText
 10
61.83818339703766
 20
1.326747107986976
 30
0.0
 40
0.125
  1
AutoCAD DWG. FILE
100
AcDbText
  0
TEXT
  5
109B
330
18
100
AcDbEntity
  8
TITLE
100
AcDbText
 10
51.14538256127479
 20
2.036268066777214
 30
0.0
 40
0.154
  1
CHD.
  7
ITALIC
 72
     1
 11
51.3763825612748
 21
2.036268066777214
 31
0.0
100
AcDbText
  0
TEXT
  5
109C
330
18
100
AcDbEntity
  8
TITLE
100
AcDbText
 10
50.38257751100488
 20
2.055260544742853
 30
0.0
 40
0.154
  1
BY
  7
ITALIC
 72
     1
 11
50.51091084433821
 21
2.055260544742853
 31
0.0
100
AcDbText
  0
TEXT
  5
109D
330
18
100
AcDbEntity
  8
TITLE
100
AcDbText
 10
49.21118533914498
 20
2.045764305760033
 30
0.0
 40
0.154
  1
DATE
  7
ITALIC
 72
     1
 11
49.4935186724783
 21
2.045764305760033
 31
0.0
100
AcDbText
  0
TEXT
  5
109E
330
18
100
AcDbEntity
  8
TITLE
100
AcDbText
 10
43.43743673306819
 20
4.138388543293784
 30
0.0
 40
0.14
  1
NOTES:
  7
ITALIC
100
AcDbText
  0
TEXT
  5
109F
330
18
100
AcDbEntity
  8
TITLE
100
AcDbText
 10
43.26186688171646
 20
2.055260544742853
 30
0.0
 40
0.154
  1
LET.
  7
ITALIC
 72
     1
 11
43.49286688171646
 21
2.055260544742853
 31
0.0
100
AcDbText
  0
TEXT
  5
10A0
330
18
100
AcDbEntity
  8
TITLE
100
AcDbText
 10
43.41367829470571
 20
2.762795715722289
 30
0.0
 40
0.154
  1
MATERIAL
  7
ITALIC
100
AcDbText
  0
LINE
  5
10A1
330
18
100
AcDbEntity
  8
TITLE
100
AcDbLine
 10
51.83500000000375
 20
1.915000000000001
 30
0.0
 11
42.96000000000375
 21
1.915000000000004
 31
0.0
  0
TEXT
  5
10A2
330
18
100
AcDbEntity
  8
TITLE
100
AcDbText
 10
45.20274150067381
 20
2.036268066777214
 30
0.0
 40
0.154
  1
REVISION RECORD
  7
ITALIC
 72
     1
 11
46.30640816734048
 21
2.036268066777214
 31
0.0
100
AcDbText
  0
LINE
  5
10A3
330
18
100
AcDbEntity
  8
TITLE
100
AcDbLine
 10
51.83500000000375
 20
0.4149999999999996
 30
0.0
 11
42.96000000000375
 21
0.415000000000005
 31
0.0
  0
LINE
  5
10A4
330
18
100
AcDbEntity
  8
TITLE
100
AcDbLine
 10
51.83500000000375
 20
1.165000000000001
 30
0.0
 11
42.96000000000375
 21
1.165000000000004
 31
0.0
  0
LINE
  5
10A5
330
18
100
AcDbEntity
  8
TITLE
100
AcDbLine
 10
42.96000000000375
 20
4.040000000000004
 30
0.0
 11
42.96000000000375
 21
0.0400000000000014
 31
0.0
  0
LINE
  5
10A6
330
18
100
AcDbEntity
  8
TITLE
100
AcDbLine
 10
43.96000000000374
 20
2.290000000000001
 30
0.0
 11
43.96000000000374
 21
0.0400000000000014
 31
0.0
  0
LINE
  5
10A7
330
18
100
AcDbEntity
  8
TITLE
100
AcDbLine
 10
48.96000000000374
 20
2.290000000000004
 30
0.0
 11
48.96000000000374
 21
0.0400000000000049
 31
0.0
  0
LINE
  5
10A8
330
18
100
AcDbEntity
  8
TITLE
100
AcDbLine
 10
50.08500000000374
 20
2.290000000000004
 30
0.0
 11
50.08500000000374
 21
0.0400000000000067
 31
0.0
  0
LINE
  5
10A9
330
18
100
AcDbEntity
  8
TITLE
100
AcDbLine
 10
50.96000000000374
 20
2.290000000000004
 30
0.0
 11
50.96000000000374
 21
0.0400000000000085
 31
0.0
  0
LINE
  5
10AA
330
18
100
AcDbEntity
  8
TITLE
100
AcDbLine
 10
51.83500000000375
 20
3.040000000000001
 30
0.0
 11
51.83500000000375
 21
0.0399999999999996
 31
0.0
  0
LINE
  5
10AB
330
18
100
AcDbEntity
  8
TITLE
100
AcDbLine
 10
63.96000000000374
 20
4.04
 30
0.0
 11
42.96000000000375
 21
4.040000000000004
 31
0.0
  0
LINE
  5
10AC
330
18
100
AcDbEntity
  8
TITLE
100
AcDbLine
 10
57.33500000000375
 20
3.540000000000002
 30
0.0
 11
42.96000000000375
 21
3.540000000000004
 31
0.0
  0
LINE
  5
10AD
330
18
100
AcDbEntity
  8
TITLE
100
AcDbLine
 10
63.96000000000374
 20
3.040000000000001
 30
0.0
 11
42.96000000000375
 21
3.040000000000004
 31
0.0
  0
LINE
  5
10AE
330
18
100
AcDbEntity
  8
TITLE
100
AcDbLine
 10
54.33500000000375
 20
2.290000000000001
 30
0.0
 11
42.96000000000375
 21
2.290000000000004
 31
0.0
  0
LINE
  5
10AF
330
18
100
AcDbEntity
  8
TITLE
100
AcDbLine
 10
54.33500000000375
 20
1.540000000000001
 30
0.0
 11
42.96000000000375
 21
1.540000000000004
 31
0.0
  0
LINE
  5
10B0
330
18
100
AcDbEntity
  8
TITLE
100
AcDbLine
 10
63.96000000000374
 20
0.7900000000000014
 30
0.0
 11
42.96000000000375
 21
0.790000000000005
 31
0.0
  0
TEXT
  5
10C0
330
18
100
AcDbEntity
  8
TITLE
100
AcDbText
 10
56.06935516508698
 20
2.074724672111827
 30
0.0
 40
0.4401508407560161
  1
HUBBELL WIEGMANN
  7
STYLE1
100
AcDbText
  0
TEXT
  5
10C1
330
18
100
AcDbEntity
  8
TITLE
100
AcDbText
 10
61.02766488677365
 20
0.1705245254469929
 30
0.0
 40
0.187
  1
HW-N4X932
 72
     1
 11
61.86916488677365
 21
0.1705245254469929
 31
0.0
100
AcDbText
  0
DIMENSION
  5
1BEA
330
18
100
AcDbEntity
  8
DIM
100
AcDbDimension
280
     0
  2
*D130
 10
39.36343629905744
 20
32.1727923091412
 30
0.0
 11
38.27026564734376
 21
32.1727923091412
 31
0.0
 70
   160
 71
     5
 42
2.186341303427369
 73
     0
 74
     0
 75
     0
  3
STANDARD
100
AcDbAlignedDimension
 13
37.17709499563007
 23
30.28663361256858
 33
0.0
 14
39.36343629905744
 24
30.06421514632781
 34
0.0
100
AcDbRotatedDimension
1001
ACAD
1000
DSTYLE
1002
{
1070
    41
1040
0.1875
1070
    42
1040
0.125
1070
    43
1040
0.375
1070
    44
1040
0.09375
1070
   140
1040
0.187
1070
   141
1040
0.09375
1070
   147
1040
0.1875
1070
   271
1070
     5
1070
   276
1070
     2
1070
   277
1070
     5
1070
   289
1070
     0
1002
}
  0
INSERT
  5
1BEB
330
18
100
AcDbEntity
  8
DIM
100
AcDbBlockReference
  2
SAAL
 10
22.66524879327636
 20
26.97514048486168
 30
0.0
 41
2.0
 42
2.0
 43
2.0
  0
DIMENSION
  5
1BEC
330
18
100
AcDbEntity
  8
DIM
100
AcDbDimension
280
     0
  2
*D131
 10
20.74715403766418
 20
29.7978023091412
 30
0.0
 11
20.74715403766417
 21
25.794900883162
 31
0.0
 70
   160
 71
     5
 42
8.096302851958384
 73
     0
 74
     0
 75
     0
  3
STANDARD
100
AcDbAlignedDimension
 13
23.45798133680759
 23
21.70149945718281
 33
0.0
 14
23.45798133680759
 24
29.7978023091412
 34
0.0
 50
90.0
100
AcDbRotatedDimension
1001
ACAD
1000
DSTYLE
1002
{
1070
    41
1040
0.1875
1070
    42
1040
0.125
1070
    43
1040
0.375
1070
    44
1040
0.09375
1070
   140
1040
0.187
1070
   141
1040
0.09375
1070
   147
1040
0.1875
1070
   271
1070
     5
1070
   276
1070
     2
1070
   277
1070
     5
1070
   289
1070
     0
1002
}
  0
DIMENSION
  5
1BED
330
18
100
AcDbEntity
  8
DIM
100
AcDbDimension
280
     0
  2
*D132
 10
25.83303418876595
 20
32.17279230914119
 30
0.0
 11
24.64550776278677
 21
32.17279230914119
 31
0.0
 70
   160
 71
     5
 42
2.375052851958358
 73
     0
 74
     0
 75
     0
  3
STANDARD
100
AcDbAlignedDimension
 13
23.45798133680759
 23
29.7978023091412
 33
0.0
 14
25.83303418876595
 24
29.7978023091412
 34
0.0
100
AcDbRotatedDimension
1001
ACAD
1000
DSTYLE
1002
{
1070
    41
1040
0.1875
1070
    42
1040
0.125
1070
    43
1040
0.375
1070
    44
1040
0.09375
1070
   140
1040
0.187
1070
   141
1040
0.09375
1070
   147
1040
0.1875
1070
   271
1070
     5
1070
   276
1070
     2
1070
   277
1070
     5
1070
   289
1070
     0
1002
}
  0
INSERT
  5
1BEE
330
18
100
AcDbEntity
  8
DIM
100
AcDbBlockReference
  2
SAATX
 10
51.5101329909523
 20
5.993270671619853
 30
0.0
 41
2.0
 42
2.0
 43
2.0
  0
INSERT
  5
1BEF
330
18
100
AcDbEntity
  8
DIM
100
AcDbBlockReference
  2
SBBTX
 10
51.65045451987889
 20
19.24098784080713
 30
0.0
 41
2.0
 42
2.0
 43
2.0
  0
LINE
  5
1BF0
330
18
100
AcDbEntity
  8
0
100
AcDbLine
 10
52.99899650043281
 20
14.16979133190407
 30
0.0
 11
53.01787881665551
 21
14.16979133190407
 31
0.0
  0
LINE
  5
1BF1
330
18
100
AcDbEntity
  8
0
100
AcDbLine
 10
50.00715265999379
 20
14.30979133190407
 30
0.0
 11
52.65365212135889
 21
14.30979133190407
 31
0.0
  0
LWPOLYLINE
  5
1BF2
330
18
100
AcDbEntity
  8
0
100
AcDbPolyline
 90
       20
 70
     1
 43
0.0
 10
53.06724543157743
 20
14.43479133190407
 10
52.70542881665551
 20
14.43479133190407
 10
52.51792881665551
 20
14.62229133190407
 10
50.14287596469715
 20
14.62229133190407
 10
49.95537596469715
 20
14.43479133190407
 10
49.59346934977524
 20
14.43479133190407
 42
0.4040262258351567
 10
49.53100742308654
 20
14.37447255044798
 10
49.51783596469716
 20
13.99729133190408
 10
49.64283596469716
 20
13.99729133190408
 10
49.64283596469716
 20
14.27854133190407
 42
-0.4142135623730951
 10
49.67408596469716
 20
14.30979133190407
 10
50.00715265999379
 20
14.30979133190407
 10
50.19465265999379
 20
14.49729133190407
 10
52.46615212135889
 20
14.49729133190407
 10
52.65365212135889
 20
14.30979133190408
 10
52.98662881665551
 20
14.30979133190408
 42
-0.4142135623730977
 10
53.01787881665551
 20
14.27854133190408
 10
53.01787881665551
 20
13.99729133190408
 10
53.14287881665551
 20
13.99729133190408
 10
53.12970735826613
 20
14.37447255044798
 42
0.4040262258351567
  0
LINE
  5
1BF3
330
18
100
AcDbEntity
  8
0
100
AcDbLine
 10
50.39263844247582
 20
14.49729133190407
 30
0.0
 11
50.39263844247582
 21
14.30979133190407
 31
0.0
  0
LINE
  5
1BF4
330
18
100
AcDbEntity
  8
0
100
AcDbLine
 10
52.26807633887685
 20
14.49729133190407
 30
0.0
 11
52.26807633887685
 21
14.30979133190407
 31
0.0
  0
LINE
  5
1BF5
330
18
100
AcDbEntity
  8
0
100
AcDbLine
 10
49.64283596469716
 20
14.16979133190407
 30
0.0
 11
49.66171828091987
 21
14.16979133190407
 31
0.0
  0
INSERT
  5
1BF6
330
18
100
AcDbEntity
  8
HATCH
100
AcDbBlockReference
  2
*X98
 10
41.6390984427041
 20
-10.01866990314365
 30
0.0
  0
LINE
  5
1BF7
330
18
100
AcDbEntity
  8
HIDE
100
AcDbLine
 10
52.81435739067632
 20
11.98729133190407
 30
0.0
 11
52.87785739067633
 21
11.98729133190407
 31
0.0
  0
LINE
  5
1BF8
330
18
100
AcDbEntity
  8
HIDE
100
AcDbLine
 10
52.81435739067632
 20
11.98729133190407
 30
0.0
 11
52.81435739067632
 21
11.48729133190407
 31
0.0
  0
LINE
  5
1BF9
330
18
100
AcDbEntity
  8
HIDE
100
AcDbLine
 10
52.59635739067633
 20
11.98729133190407
 30
0.0
 11
52.59635739067633
 21
11.48729133190407
 31
0.0
  0
LINE
  5
1BFA
330
18
100
AcDbEntity
  8
HIDE
100
AcDbLine
 10
52.53285739067633
 20
11.98729133190407
 30
0.0
 11
52.59635739067633
 21
11.98729133190407
 31
0.0
  0
LINE
  5
1BFB
330
18
100
AcDbEntity
  8
HIDE
100
AcDbLine
 10
52.53285739067633
 20
11.98729133190407
 30
0.0
 11
52.51785739067633
 21
14.23229133190407
 31
0.0
  0
LINE
  5
1BFC
330
18
100
AcDbEntity
  8
HIDE
100
AcDbLine
 10
52.89285739067633
 20
14.23229133190407
 30
0.0
 11
52.87785739067633
 21
11.98729133190407
 31
0.0
  0
LINE
  5
1BFD
330
18
100
AcDbEntity
  8
HIDE
100
AcDbLine
 10
49.76785739067633
 20
14.23229133190407
 30
0.0
 11
49.78285739067633
 21
11.98729133190407
 31
0.0
  0
LINE
  5
1BFE
330
18
100
AcDbEntity
  8
HIDE
100
AcDbLine
 10
50.12785739067632
 20
11.98729133190407
 30
0.0
 11
50.14285739067632
 21
14.23229133190407
 31
0.0
  0
LINE
  5
1BFF
330
18
100
AcDbEntity
  8
0
100
AcDbLine
 10
49.76926227845389
 20
14.23229133190407
 30
0.0
 11
52.89145250289878
 21
14.23229133190407
 31
0.0
  0
LINE
  5
1C00
330
18
100
AcDbEntity
  8
HIDE
100
AcDbLine
 10
50.12785739067632
 20
11.98729133190407
 30
0.0
 11
50.06435739067633
 21
11.98729133190407
 31
0.0
  0
LINE
  5
1C01
330
18
100
AcDbEntity
  8
HIDE
100
AcDbLine
 10
50.06435739067633
 20
11.98729133190407
 30
0.0
 11
50.06435739067633
 21
11.48729133190407
 31
0.0
  0
LINE
  5
1C02
330
18
100
AcDbEntity
  8
HIDE
100
AcDbLine
 10
49.84635739067633
 20
11.98729133190407
 30
0.0
 11
49.84635739067633
 21
11.48729133190407
 31
0.0
  0
LINE
  5
1C03
330
18
100
AcDbEntity
  8
HIDE
100
AcDbLine
 10
49.84635739067633
 20
11.98729133190407
 30
0.0
 11
49.78285739067633
 21
11.98729133190407
 31
0.0
  0
LINE
  5
1C04
330
18
100
AcDbEntity
  8
0
100
AcDbLine
 10
52.39137633887686
 20
14.23229133190407
 30
0.0
 11
52.34564406876492
 21
11.61229133190407
 31
0.0
  0
LINE
  5
1C05
330
18
100
AcDbEntity
  8
0
100
AcDbLine
 10
50.26933844247583
 20
14.23229133190406
 30
0.0
 11
50.31507071258776
 21
11.61229133190407
 31
0.0
  0
LWPOLYLINE
  5
1C06
330
18
100
AcDbEntity
  8
0
 62
     7
100
AcDbPolyline
 90
       20
 70
     1
 43
0.0
 10
49.81285074456071
 20
11.73510978109941
 10
49.76926227845389
 20
14.23229133190407
 10
49.66608870666633
 20
14.23229133190407
 10
49.64860700368046
 20
13.98229133190407
 10
49.51783596469716
 20
13.98229133190407
 10
49.51783596469716
 20
13.80979133190407
 10
49.65399466126978
 20
13.67363263533144
 10
49.68894168466871
 20
11.67151900569708
 42
0.4091108014277117
 10
49.87641312751051
 20
11.48729133190407
 10
52.78430165384214
 20
11.48729133190407
 42
0.4091108014277065
 10
52.97177309668397
 20
11.67151900569708
 10
53.00672012008289
 20
13.67363263533145
 10
53.14287881665552
 20
13.80979133190407
 10
53.14287881665552
 20
13.98229133190407
 10
53.01210777767222
 20
13.98229133190407
 10
52.99462607468634
 20
14.23229133190407
 10
52.89145250289878
 20
14.23229133190407
 10
52.84786403679196
 20
11.73510978109941
 42
-0.4091108014277121
 10
52.72288307489741
 20
11.61229133190408
 10
49.93783170645526
 20
11.61229133190407
 42
-0.4091108014277121
  0
DIMENSION
  5
1C07
330
18
100
AcDbEntity
  8
DIM
100
AcDbDimension
280
     0
  2
*D133
 10
49.81392264656325
 20
7.737291331904074
 30
0.0
 11
51.31459753596995
 21
7.737291331904074
 31
0.0
 70
   160
 71
     5
 42
3.032869488226161
 73
     0
 74
     0
 75
     0
  3
STANDARD
100
AcDbAlignedDimension
 13
52.84679213478941
 23
11.67370055650174
 33
0.0
 14
49.81392264656325
 24
11.67370055650174
 34
0.0
100
AcDbRotatedDimension
1001
ACAD
1000
DSTYLE
1002
{
1070
    41
1040
0.1875
1070
    42
1040
0.125
1070
    43
1040
0.375
1070
    44
1040
0.09375
1070
   140
1040
0.187
1070
   141
1040
0.09375
1070
   147
1040
0.1875
1070
   271
1070
     5
1070
   276
1070
     2
1070
   277
1070
     5
1070
   289
1070
     0
1002
}
  0
DIMENSION
  5
1C08
330
18
100
AcDbEntity
  8
DIM
100
AcDbDimension
280
     0
  2
*D134
 10
54.89287881665553
 20
14.23229133190407
 30
0.0
 11
54.89287881665553
 21
12.92229133190408
 31
0.0
 70
   160
 71
     5
 42
2.62
 73
     0
 74
     0
 75
     0
  3
STANDARD
100
AcDbAlignedDimension
 13
52.78430165384214
 23
11.61229133190407
 33
0.0
 14
52.99462607468634
 24
14.23229133190407
 34
0.0
 50
90.0
100
AcDbRotatedDimension
1001
ACAD
1000
DSTYLE
1002
{
1070
    41
1040
0.1875
1070
    42
1040
0.125
1070
    43
1040
0.375
1070
    44
1040
0.09375
1070
   140
1040
0.187
1070
   141
1040
0.09375
1070
   147
1040
0.1875
1070
   271
1070
     5
1070
   276
1070
     2
1070
   277
1070
     5
1070
   289
1070
     0
1002
}
  0
LINE
  5
1C09
330
18
100
AcDbEntity
  8
HIDE
100
AcDbLine
 10
50.06435739067633
 20
11.48729133190407
 30
0.0
 11
49.84635739067633
 21
11.48729133190407
 31
0.0
  0
LINE
  5
1C0A
330
18
100
AcDbEntity
  8
HIDE
100
AcDbLine
 10
52.81435739067632
 20
11.48729133190407
 30
0.0
 11
52.59635739067633
 21
11.48729133190407
 31
0.0
  0
DIMENSION
  5
1C0B
330
18
100
AcDbEntity
  8
DIM
100
AcDbDimension
280
     0
  2
*D135
 10
52.39137633887686
 20
15.85729133190407
 30
0.0
 11
51.39790739067635
 21
15.85729133190407
 31
0.0
 70
   160
 71
     5
 42
2.122037896401032
 73
     0
 74
     0
 75
     0
  3
STANDARD
100
AcDbAlignedDimension
 13
50.26933844247583
 23
14.23229133190406
 33
0.0
 14
52.39137633887686
 24
14.23229133190407
 34
0.0
100
AcDbRotatedDimension
1001
ACAD
1000
DSTYLE
1002
{
1070
    41
1040
0.1875
1070
    42
1040
0.125
1070
    43
1040
0.375
1070
    44
1040
0.09375
1070
   140
1040
0.187
1070
   141
1040
0.09375
1070
   147
1040
0.1875
1070
   271
1070
     5
1070
   276
1070
     2
1070
   277
1070
     5
1070
   289
1070
     0
1002
}
  0
DIMENSION
  5
1C0C
330
18
100
AcDbEntity
  8
DIM
100
AcDbDimension
280
     0
  2
*D136
 10
52.89145250289878
 20
16.81347181795142
 30
0.0
 11
51.39790739067633
 21
16.81347181795142
 31
0.0
 70
   160
 71
     5
 42
3.122190224444892
 73
     0
 74
     0
 75
     0
  3
STANDARD
100
AcDbAlignedDimension
 13
49.76926227845389
 23
14.23229133190407
 33
0.0
 14
52.89145250289878
 24
14.23229133190407
 34
0.0
100
AcDbRotatedDimension
1001
ACAD
1000
DSTYLE
1002
{
1070
    41
1040
0.1875
1070
    42
1040
0.125
1070
    43
1040
0.375
1070
    44
1040
0.09375
1070
   140
1040
0.187
1070
   141
1040
0.09375
1070
   147
1040
0.1875
1070
   271
1070
     5
1070
   276
1070
     2
1070
   277
1070
     5
1070
   289
1070
     0
1002
}
  0
DIMENSION
  5
1C0D
330
18
100
AcDbEntity
  8
DIM
100
AcDbDimension
280
     0
  2
*D137
 10
52.70535739067632
 20
8.987291331904074
 30
0.0
 11
51.51704753596995
 21
8.987291331904074
 31
0.0
 70
   160
 71
     5
 42
2.749999999999992
 73
     0
 74
     0
 75
     0
  3
STANDARD
100
AcDbAlignedDimension
 13
49.95535739067634
 23
11.48729133190407
 33
0.0
 14
52.70535739067632
 24
11.48729133190407
 34
0.0
100
AcDbRotatedDimension
1001
ACAD
1000
DSTYLE
1002
{
1070
    41
1040
0.1875
1070
    42
1040
0.125
1070
    43
1040
0.375
1070
    44
1040
0.09375
1070
   140
1040
0.187
1070
   141
1040
0.09375
1070
   147
1040
0.1875
1070
   271
1070
     5
1070
   276
1070
     2
1070
   277
1070
     5
1070
   289
1070
     0
1002
}
  0
INSERT
  5
1C0E
330
18
100
AcDbEntity
  8
HATCH
100
AcDbBlockReference
  2
*X97
 10
13.11976124251813
 20
-14.03573017341365
 30
0.0
  0
DIMENSION
  5
1C0F
330
18
100
AcDbEntity
  8
DIM
100
AcDbDimension
280
     0
  2
*D138
 10
58.26094562923304
 20
21.37253613904892
 30
0.0
 11
58.26094562923303
 21
25.91109653295313
 31
0.0
 70
   160
 71
     5
 42
8.754169488226146
 73
     0
 74
     0
 75
     0
  3
STANDARD
100
AcDbAlignedDimension
 13
52.82425532902504
 23
30.12670562727508
 33
0.0
 14
52.82425532902502
 24
21.37253613904893
 34
0.0
 50
90.0
100
AcDbRotatedDimension
1001
ACAD
1000
DSTYLE
1002
{
1070
    41
1040
0.1875
1070
    42
1040
0.125
1070
    43
1040
0.375
1070
    44
1040
0.09375
1070
   140
1040
0.187
1070
   141
1040
0.09375
1070
   147
1040
0.1875
1070
   271
1070
     5
1070
   276
1070
     2
1070
   277
1070
     5
1070
   289
1070
     0
1002
}
  0
DIMENSION
  5
1C10
330
18
100
AcDbEntity
  8
DIM
100
AcDbDimension
280
     0
  2
*D139
 10
54.76094562923304
 20
29.35865908982936
 30
0.0
 11
54.76094562923304
 21
25.80757088316201
 31
0.0
 70
   160
 71
     5
 42
7.218076413334721
 73
     0
 74
     0
 75
     0
  3
STANDARD
100
AcDbAlignedDimension
 13
52.8856645536227
 23
22.14058267649464
 33
0.0
 14
52.8856645536227
 24
29.35865908982936
 34
0.0
 50
90.0
100
AcDbRotatedDimension
1001
ACAD
1000
DSTYLE
1002
{
1070
    41
1040
0.1875
1070
    42
1040
0.125
1070
    43
1040
0.375
1070
    44
1040
0.09375
1070
   140
1040
0.187
1070
   141
1040
0.09375
1070
   147
1040
0.1875
1070
   271
1070
     5
1070
   276
1070
     2
1070
   277
1070
     5
1070
   289
1070
     0
1002
}
  0
DIMENSION
  5
1C11
330
18
100
AcDbEntity
  8
DIM
100
AcDbDimension
280
     0
  2
*D140
 10
48.12566455362271
 20
29.40439135994129
 30
0.0
 11
48.1256645536227
 21
25.80757088316201
 31
0.0
 70
   160
 71
     5
 42
7.309540953558581
 73
     0
 74
     0
 75
     0
  3
STANDARD
100
AcDbAlignedDimension
 13
50.26566455362271
 23
22.09485040638271
 33
0.0
 14
50.26566455362271
 24
29.40439135994129
 34
0.0
 50
90.0
100
AcDbRotatedDimension
1001
ACAD
1000
DSTYLE
1002
{
1070
    41
1040
0.1875
1070
    42
1040
0.125
1070
    43
1040
0.375
1070
    44
1040
0.09375
1070
   140
1040
0.187
1070
   141
1040
0.09375
1070
   147
1040
0.1875
1070
   271
1070
     5
1070
   276
1070
     2
1070
   277
1070
     5
1070
   289
1070
     0
1002
}
  0
DIMENSION
  5
1C12
330
18
100
AcDbEntity
  8
DIM
100
AcDbDimension
280
     0
  2
*D141
 10
46.37566455362271
 20
30.17136599538447
 30
0.0
 11
46.37566455362271
 21
25.80757088316201
 31
0.0
 70
   160
 71
     5
 42
8.843490224444931
 73
     0
 74
     0
 75
     0
  3
STANDARD
100
AcDbAlignedDimension
 13
50.26566455362271
 23
21.32787577093953
 33
0.0
 14
50.26566455362271
 24
30.17136599538447
 34
0.0
 50
90.0
100
AcDbRotatedDimension
1001
ACAD
1000
DSTYLE
1002
{
1070
    41
1040
0.1875
1070
    42
1040
0.125
1070
    43
1040
0.375
1070
    44
1040
0.09375
1070
   140
1040
0.187
1070
   141
1040
0.09375
1070
   147
1040
0.1875
1070
   271
1070
     5
1070
   276
1070
     2
1070
   277
1070
     5
1070
   289
1070
     0
1002
}
  0
DIMENSION
  5
1C13
330
18
100
AcDbEntity
  8
DIM
100
AcDbDimension
280
     0
  2
*D142
 10
56.51094562923304
 20
29.71837088316199
 30
0.0
 11
56.51094562923304
 21
25.80757088316201
 31
0.0
 70
   160
 71
     5
 42
7.937499999999982
 73
     0
 74
     0
 75
     0
  3
STANDARD
100
AcDbAlignedDimension
 13
53.01066455362271
 23
21.78087088316201
 33
0.0
 14
53.01066455362271
 24
29.71837088316199
 34
0.0
 50
90.0
100
AcDbRotatedDimension
1001
ACAD
1000
DSTYLE
1002
{
1070
    41
1040
0.1875
1070
    42
1040
0.125
1070
    43
1040
0.375
1070
    44
1040
0.09375
1070
   140
1040
0.187
1070
   141
1040
0.09375
1070
   147
1040
0.1875
1070
   271
1070
     5
1070
   276
1070
     2
1070
   277
1070
     5
1070
   289
1070
     0
1002
}
  0
LINE
  5
1C14
330
18
100
AcDbEntity
  8
0
100
AcDbLine
 10
22.96914503338022
 20
13.67363263533144
 30
0.0
 11
26.32187049219333
 21
13.67363263533145
 31
0.0
  0
LINE
  5
1C15
330
18
100
AcDbEntity
  8
0
100
AcDbLine
 10
26.45802918876595
 20
13.80979133190407
 30
0.0
 11
26.32187049219333
 21
13.67363263533145
 31
0.0
  0
LINE
  5
1C16
330
18
100
AcDbEntity
  8
0
100
AcDbLine
 10
22.83298633680759
 20
13.80979133190407
 30
0.0
 11
22.96914503338022
 21
13.67363263533144
 31
0.0
  0
INSERT
  5
1C17
330
18
100
AcDbEntity
  8
DIM
100
AcDbBlockReference
  2
SBBB
 10
25.42376379683966
 20
20.84962498107321
 30
0.0
 41
2.0
 42
2.0
 43
2.0
  0
INSERT
  5
1C18
330
18
100
AcDbEntity
  8
DIM
100
AcDbBlockReference
  2
SBBT
 10
25.42376379683965
 20
30.60581968397856
 30
0.0
 41
2.0
 42
2.0
 43
2.0
  0
INSERT
  5
1C19
330
18
100
AcDbEntity
  8
DIM
100
AcDbBlockReference
  2
SAAR
 10
26.55102918876595
 20
26.95802876762809
 30
0.0
 41
2.0
 42
2.0
 43
2.0
  0
DIMENSION
  5
1C1A
330
18
100
AcDbEntity
  8
DIM
100
AcDbDimension
280
     0
  2
*D143
 10
29.95802918876596
 20
14.62229133190406
 30
0.0
 11
29.95802918876595
 21
13.05479133190407
 31
0.0
 70
   160
 71
     5
 42
3.13499999999999
 73
     0
 74
     0
 75
     0
  3
STANDARD
100
AcDbAlignedDimension
 13
26.19320202595257
 23
11.48729133190407
 33
0.0
 14
25.80177918876595
 24
14.62229133190406
 34
0.0
 50
90.0
100
AcDbRotatedDimension
1001
ACAD
1000
DSTYLE
1002
{
1070
    41
1040
0.1875
1070
    42
1040
0.125
1070
    43
1040
0.375
1070
    44
1040
0.09375
1070
   140
1040
0.187
1070
   141
1040
0.09375
1070
   147
1040
0.1875
1070
   271
1070
     5
1070
   276
1070
     2
1070
   277
1070
     5
1070
   289
1070
     0
1002
}
  0
DIMENSION
  5
1C1B
330
18
100
AcDbEntity
  8
DIM
100
AcDbDimension
280
     0
  2
*D144
 10
28.20802918876595
 20
14.43479133190407
 30
0.0
 11
28.20802918876595
 21
12.96104133190407
 31
0.0
 70
   160
 71
     5
 42
2.947499999999998
 73
     0
 74
     0
 75
     0
  3
STANDARD
100
AcDbAlignedDimension
 13
26.09945202595257
 23
11.48729133190407
 33
0.0
 14
26.38239580368787
 24
14.43479133190407
 34
0.0
 50
90.0
100
AcDbRotatedDimension
1001
ACAD
1000
DSTYLE
1002
{
1070
    41
1040
0.1875
1070
    42
1040
0.125
1070
    43
1040
0.375
1070
    44
1040
0.09375
1070
   140
1040
0.187
1070
   141
1040
0.09375
1070
   147
1040
0.1875
1070
   271
1070
     5
1070
   276
1070
     2
1070
   277
1070
     5
1070
   289
1070
     0
1002
}
  0
DIMENSION
  5
1C1C
330
18
100
AcDbEntity
  8
DIM
100
AcDbDimension
280
     0
  2
*D145
 10
22.83298633680758
 20
33.42279230914119
 30
0.0
 11
24.71305776278676
 21
33.42279230914119
 31
0.0
 70
   160
 71
     5
 42
3.625042851958362
 73
     0
 74
     0
 75
     0
  3
STANDARD
100
AcDbAlignedDimension
 13
26.45802918876594
 23
30.11029230914119
 33
0.0
 14
22.83298633680758
 24
30.11029230914119
 34
0.0
100
AcDbRotatedDimension
1001
ACAD
1000
DSTYLE
1002
{
1070
    41
1040
0.1875
1070
    42
1040
0.125
1070
    43
1040
0.375
1070
    44
1040
0.09375
1070
   140
1040
0.187
1070
   141
1040
0.09375
1070
   147
1040
0.1875
1070
   271
1070
     5
1070
   276
1070
     2
1070
   277
1070
     5
1070
   289
1070
     0
1002
}
  0
DIMENSION
  5
1C1D
330
18
100
AcDbEntity
  8
DIM
100
AcDbDimension
280
     0
  2
*D146
 10
18.69313464396823
 20
30.42279230914119
 30
0.0
 11
18.69313464396822
 21
25.80388034954669
 31
0.0
 70
   160
 71
     5
 42
9.346342851958382
 73
     0
 74
     0
 75
     0
  3
STANDARD
100
AcDbAlignedDimension
 13
23.14548633680759
 23
21.07644945718281
 33
0.0
 14
23.14548633680758
 24
30.42279230914119
 34
0.0
 50
90.0
100
AcDbRotatedDimension
1001
ACAD
1000
DSTYLE
1002
{
1070
    41
1040
0.1875
1070
    42
1040
0.125
1070
    43
1040
0.375
1070
    44
1040
0.09375
1070
   140
1040
0.187
1070
   141
1040
0.09375
1070
   147
1040
0.1875
1070
   271
1070
     5
1070
   276
1070
     2
1070
   277
1070
     5
1070
   289
1070
     0
1002
}
  0
LINE
  5
1C1E
330
18
100
AcDbEntity
  8
0
100
AcDbLine
 10
25.80177918876595
 20
14.62229133190406
 30
0.0
 11
25.98927918876595
 21
14.43479133190407
 31
0.0
  0
LINE
  5
1C1F
330
18
100
AcDbEntity
  8
0
100
AcDbLine
 10
23.48923633680759
 20
14.62229133190406
 30
0.0
 11
23.30173633680759
 21
14.43479133190406
 31
0.0
  0
LINE
  5
1C20
330
18
100
AcDbEntity
  8
0
100
AcDbLine
 10
23.48923633680759
 20
14.62229133190406
 30
0.0
 11
25.80177918876595
 21
14.62229133190406
 31
0.0
  0
LINE
  5
1C21
330
18
100
AcDbEntity
  8
0
100
AcDbLine
 10
22.83298633680759
 20
13.99729133190407
 30
0.0
 11
26.45802918876595
 21
13.99729133190407
 31
0.0
  0
LINE
  5
1C22
330
18
100
AcDbEntity
  8
0
100
AcDbLine
 10
22.83298633680759
 20
13.98229133190407
 30
0.0
 11
26.45802918876595
 21
13.98229133190407
 31
0.0
  0
LINE
  5
1C23
330
18
100
AcDbEntity
  8
0
100
AcDbLine
 10
26.32187049219333
 20
13.67363263533145
 30
0.0
 11
26.28692346879439
 21
11.67151900569708
 31
0.0
  0
LINE
  5
1C24
330
18
100
AcDbEntity
  8
0
100
AcDbLine
 10
22.96914503338022
 20
13.67363263533144
 30
0.0
 11
23.00409205677916
 21
11.67151900569708
 31
0.0
  0
ARC
  5
1C25
330
18
100
AcDbEntity
  8
0
100
AcDbCircle
 10
26.09945202595257
 20
11.67479133190407
 30
0.0
 40
0.1875
100
AcDbArc
 50
270.0
 51
359.0
  0
ARC
  5
1C26
330
18
100
AcDbEntity
  8
0
100
AcDbCircle
 10
23.19156349962098
 20
11.67479133190407
 30
0.0
 40
0.1875
100
AcDbArc
 50
181.0
 51
270.0
  0
LINE
  5
1C27
330
18
100
AcDbEntity
  8
0
100
AcDbLine
 10
23.19156349962098
 20
11.48729133190407
 30
0.0
 11
26.09945202595257
 21
11.48729133190407
 31
0.0
  0
LINE
  5
1C28
330
18
100
AcDbEntity
  8
0
100
AcDbLine
 10
26.45802918876595
 20
13.98229133190407
 30
0.0
 11
26.45802918876595
 21
13.80979133190407
 31
0.0
  0
LINE
  5
1C29
330
18
100
AcDbEntity
  8
0
100
AcDbLine
 10
22.83298633680759
 20
13.98229133190407
 30
0.0
 11
22.83298633680759
 21
13.80979133190407
 31
0.0
  0
LINE
  5
1C2A
330
18
100
AcDbEntity
  8
0
100
AcDbLine
 10
22.83298633680759
 20
13.80979133190407
 30
0.0
 11
26.45802918876595
 21
13.80979133190407
 31
0.0
  0
ARC
  5
1C2B
330
18
100
AcDbEntity
  8
0
100
AcDbCircle
 10
26.38239580368787
 20
14.37229133190407
 30
0.0
 40
0.0625
100
AcDbArc
 50
2.000000000000015
 51
90.0
  0
ARC
  5
1C2C
330
18
100
AcDbEntity
  8
0
100
AcDbCircle
 10
22.90861972188567
 20
14.37229133190406
 30
0.0
 40
0.0625
100
AcDbArc
 50
90.00000000000003
 51
178.0
  0
LINE
  5
1C2D
330
18
100
AcDbEntity
  8
0
100
AcDbLine
 10
26.45802918876595
 20
13.99729133190407
 30
0.0
 11
26.44485773037656
 21
14.37447255044797
 31
0.0
  0
LINE
  5
1C2E
330
18
100
AcDbEntity
  8
0
100
AcDbLine
 10
22.83298633680759
 20
13.99729133190407
 30
0.0
 11
22.84615779519698
 21
14.37447255044797
 31
0.0
  0
LINE
  5
1C2F
330
18
100
AcDbEntity
  8
0
100
AcDbLine
 10
22.90861972188567
 20
14.43479133190406
 30
0.0
 11
26.38239580368787
 21
14.43479133190407
 31
0.0
  0
DIMENSION
  5
1C30
330
18
100
AcDbEntity
  8
DIM
100
AcDbDimension
280
     0
  2
*D147
 10
50.67332029228651
 20
14.61229133190407
 30
0.0
 11
51.3755702922865
 21
14.98729133190407
 31
0.0
 70
    32
 71
     5
 42
0.125
 73
     0
 74
     0
 75
     0
  3
STANDARD
100
AcDbAlignedDimension
 13
50.64290466555451
 23
14.48729133190407
 33
0.0
 14
50.66723269774009
 24
14.61229133190407
 34
0.0
 50
90.0
100
AcDbRotatedDimension
1001
ACAD
1000
DSTYLE
1002
{
1070
    41
1040
0.1875
1070
    42
1040
0.125
1070
    43
1040
0.375
1070
    44
1040
0.09375
1070
   140
1040
0.187
1070
   141
1040
0.09375
1070
   147
1040
0.1875
1070
   271
1070
     3
1070
   289
1070
     0
1002
}
  0
DIMENSION
  5
1C31
330
18
100
AcDbEntity
  8
DIM
100
AcDbDimension
280
     0
  2
*D148
 10
49.02626071181075
 20
11.48729133190407
 30
0.0
 11
48.32401071181076
 21
11.11229133190408
 31
0.0
 70
    32
 71
     5
 42
0.1249999999999964
 73
     0
 74
     0
 75
     0
  3
STANDARD
100
AcDbAlignedDimension
 13
49.93783170645526
 23
11.61229133190407
 33
0.0
 14
49.87641312751051
 24
11.48729133190407
 34
0.0
 50
90.0
100
AcDbRotatedDimension
1001
ACAD
1000
DSTYLE
1002
{
1070
    41
1040
0.1875
1070
    42
1040
0.125
1070
    43
1040
0.375
1070
    44
1040
0.09375
1070
   140
1040
0.187
1070
   141
1040
0.09375
1070
   147
1040
0.1875
1070
   271
1070
     3
1070
   289
1070
     0
1002
}
  0
LWPOLYLINE
  5
1C32
330
18
100
AcDbEntity
  8
0
 62
     2
100
AcDbPolyline
 90
        4
 70
     1
 43
0.0
 10
49.75379752855566
 20
14.24029133190834
 42
0.9999834785717778
 10
49.75379752855566
 20
14.30279133189981
 10
49.67775728169363
 20
14.30279133190134
 42
1.000013231781622
 10
49.67775728169363
 20
14.24029133190681
  0
LWPOLYLINE
  5
1C33
330
18
100
AcDbEntity
  8
0
 62
     2
100
AcDbPolyline
 90
        4
 70
     1
 43
0.0
 10
52.906917252797
 20
14.24029133190834
 42
-0.9999834785717778
 10
52.906917252797
 20
14.30279133189981
 10
52.98295749965904
 20
14.30279133190134
 42
-1.000013231781622
 10
52.98295749965904
 20
14.24029133190681
  0
SOLID
  5
1C34
330
18
100
AcDbEntity
  8
DIM
100
AcDbTrace
 10
49.5803279233927
 20
14.43715525174031
 30
0.0
 11
49.53222292001679
 21
14.39751495539115
 31
0.0
 12
49.67519631075221
 22
14.27302009343802
 32
0.0
 13
49.67519631075221
 23
14.27302009343802
 33
0.0
  0
LINE
  5
1C35
330
18
100
AcDbEntity
  8
DIM
100
AcDbLine
 10
49.55627542170475
 20
14.41733510356573
 30
0.0
 11
48.80206697782632
 21
15.33259566113923
 31
0.0
  0
LINE
  5
1C36
330
18
100
AcDbEntity
  8
DIM
100
AcDbLine
 10
48.80206697782632
 20
15.33259566113923
 30
0.0
 11
48.61506697782632
 21
15.33259566113923
 31
0.0
  0
TEXT
  5
1C37
330
18
100
AcDbEntity
  8
DIM
100
AcDbText
 10
47.39491601079405
 20
15.23909566113923
 30
0.0
 40
0.187
  1
GASKET
100
AcDbText
  0
LINE
  5
1C38
330
18
100
AcDbEntity
  8
DIM
100
AcDbLine
 10
27.34753546014374
 20
31.25185295502612
 30
0.0
 11
27.53453546014374
 21
31.25185295502612
 31
0.0
  0
TEXT
  5
1C39
330
18
100
AcDbEntity
  8
DIM
100
AcDbText
 10
27.72153546014374
 20
31.15835295502612
 30
0.0
 40
0.187
  1
10-24 X 3/4 S.S. 
100
AcDbText
  0
TEXT
  5
1C3A
330
18
100
AcDbEntity
  8
DIM
100
AcDbText
 10
27.73397398224408
 20
30.84763710840513
 30
0.0
 40
0.187
  1
PAN HD. SCREW
100
AcDbText
  0
TEXT
  5
1C3B
330
18
100
AcDbEntity
  8
DIM
100
AcDbText
 10
27.73397398224408
 20
30.53597044173846
 30
0.0
 40
0.187
  1
4 REQ'D.
100
AcDbText
  0
DIMENSION
  5
1C3C
330
18
100
AcDbEntity
  8
DIM
100
AcDbDimension
280
     0
  2
*D149
 10
53.01066455362271
 20
31.43197570762611
 30
0.0
 11
53.79133122028937
 21
31.43197570762611
 31
0.0
 70
   160
 71
     5
 42
0.5
 73
     0
 74
     0
 75
     0
  3
STANDARD
100
AcDbAlignedDimension
 13
52.5106645536227
 23
29.89087088316198
 33
0.0
 14
53.01066455362271
 24
30.06421514632781
 34
0.0
100
AcDbRotatedDimension
1001
ACAD
1000
DSTYLE
1002
{
1070
    41
1040
0.1875
1070
    42
1040
0.125
1070
    43
1040
0.375
1070
    44
1040
0.09375
1070
   140
1040
0.187
1070
   141
1040
0.09375
1070
   147
1040
0.1875
1070
   271
1070
     5
1070
   276
1070
     2
1070
   277
1070
     5
1070
   289
1070
     0
1002
}
  0
DIMENSION
  5
1C3D
330
18
100
AcDbEntity
  8
DIM
100
AcDbDimension
280
     0
  2
*D150
 10
50.26566455362271
 20
31.43197570762611
 30
0.0
 11
51.3881645536227
 21
31.43197570762611
 31
0.0
 70
   160
 71
     5
 42
2.244999999999997
 73
     0
 74
     0
 75
     0
  3
STANDARD
100
AcDbAlignedDimension
 13
52.5106645536227
 23
30.01587088316199
 33
0.0
 14
50.26566455362271
 24
30.27453956717203
 34
0.0
100
AcDbRotatedDimension
1001
ACAD
1000
DSTYLE
1002
{
1070
    41
1040
0.1875
1070
    42
1040
0.125
1070
    43
1040
0.375
1070
    44
1040
0.09375
1070
   140
1040
0.187
1070
   141
1040
0.09375
1070
   147
1040
0.1875
1070
   271
1070
     5
1070
   276
1070
     2
1070
   277
1070
     5
1070
   289
1070
     0
1002
}
  0
LINE
  5
1C3E
330
18
100
AcDbEntity
  8
0
100
AcDbLine
 10
50.3131645536227
 20
30.27786109073936
 30
0.0
 11
50.3131645536227
 21
30.29779230914123
 31
0.0
  0
LINE
  5
1C3F
330
18
100
AcDbEntity
  8
0
100
AcDbLine
 10
50.3131645536227
 20
21.22138067558467
 30
0.0
 11
50.3131645536227
 21
21.2014494571828
 31
0.0
  0
LWPOLYLINE
  5
1C40
330
18
100
AcDbEntity
  8
0
100
AcDbPolyline
 90
       20
 70
     1
 43
0.0
 10
50.0631645536227
 20
30.34715892406314
 10
50.0631645536227
 20
29.98530230914122
 10
49.87566455362269
 20
29.79780230914121
 10
49.87566455362269
 20
21.7014994571828
 10
50.0631645536227
 20
21.51399945718281
 10
50.0631645536227
 20
21.1520828422609
 42
0.4040262258351567
 10
50.12348333507879
 20
21.0896209155722
 10
50.50066455362269
 20
21.07644945718282
 10
50.50066455362269
 20
21.20144945718282
 10
50.2194145536227
 20
21.20144945718282
 42
-0.4142135623730946
 10
50.18816455362269
 20
21.23269945718282
 10
50.18816455362269
 20
21.56577615247945
 10
50.0006645536227
 20
21.75327615247944
 10
50.0006645536227
 20
29.74602561384458
 10
50.18816455362269
 20
29.93352561384458
 10
50.18816455362269
 20
30.26654230914121
 42
-0.4142135623730956
 10
50.2194145536227
 20
30.29779230914121
 10
50.50066455362269
 20
30.29779230914121
 10
50.50066455362269
 20
30.42279230914121
 10
50.12348333507879
 20
30.40962085075182
 42
0.4040262258351567
  0
LINE
  5
1C41
330
18
100
AcDbEntity
  8
0
100
AcDbLine
 10
50.0006645536227
 20
22.21717348546976
 30
0.0
 11
50.18816455362269
 21
22.21717348546976
 31
0.0
  0
LINE
  5
1C42
330
18
100
AcDbEntity
  8
0
100
AcDbLine
 10
50.0006645536227
 20
29.28206828085427
 30
0.0
 11
50.18816455362269
 21
29.28206828085427
 31
0.0
  0
LINE
  5
1C43
330
18
100
AcDbEntity
  8
0
100
AcDbLine
 10
50.18816455362269
 20
29.93352561384458
 30
0.0
 11
50.18816455362269
 21
21.56577615247945
 31
0.0
  0
LINE
  5
1C44
330
18
100
AcDbEntity
  8
HIDE
100
AcDbLine
 10
52.5106645536227
 20
29.82737088316202
 30
0.0
 11
52.5106645536227
 21
29.89087088316201
 31
0.0
  0
LINE
  5
1C45
330
18
100
AcDbEntity
  8
HIDE
100
AcDbLine
 10
52.5106645536227
 20
29.82737088316202
 30
0.0
 11
53.01066455362271
 21
29.82737088316202
 31
0.0
  0
LINE
  5
1C46
330
18
100
AcDbEntity
  8
HIDE
100
AcDbLine
 10
52.5106645536227
 20
29.60937088316201
 30
0.0
 11
53.01066455362271
 21
29.60937088316201
 31
0.0
  0
LINE
  5
1C47
330
18
100
AcDbEntity
  8
HIDE
100
AcDbLine
 10
52.5106645536227
 20
29.54587088316201
 30
0.0
 11
52.5106645536227
 21
29.60937088316201
 31
0.0
  0
LINE
  5
1C48
330
18
100
AcDbEntity
  8
HIDE
100
AcDbLine
 10
52.5106645536227
 20
29.54587088316201
 30
0.0
 11
50.26566455362268
 21
29.530870883162
 31
0.0
  0
LINE
  5
1C49
330
18
100
AcDbEntity
  8
HIDE
100
AcDbLine
 10
52.5106645536227
 20
29.89087088316201
 30
0.0
 11
50.2656645536227
 21
29.90587088316201
 31
0.0
  0
LINE
  5
1C4A
330
18
100
AcDbEntity
  8
HIDE
100
AcDbLine
 10
52.5106645536227
 20
21.60837088316201
 30
0.0
 11
50.2656645536227
 21
21.59337088316201
 31
0.0
  0
LINE
  5
1C4B
330
18
100
AcDbEntity
  8
HIDE
100
AcDbLine
 10
52.5106645536227
 20
21.95337088316201
 30
0.0
 11
50.26566455362268
 21
21.96837088316201
 31
0.0
  0
LINE
  5
1C4C
330
18
100
AcDbEntity
  8
HIDE
100
AcDbLine
 10
52.5106645536227
 20
21.95337088316201
 30
0.0
 11
52.5106645536227
 21
21.88987088316202
 31
0.0
  0
LINE
  5
1C4D
330
18
100
AcDbEntity
  8
HIDE
100
AcDbLine
 10
52.5106645536227
 20
21.88987088316202
 30
0.0
 11
53.01066455362271
 21
21.88987088316202
 31
0.0
  0
LINE
  5
1C4E
330
18
100
AcDbEntity
  8
HIDE
100
AcDbLine
 10
52.5106645536227
 20
21.67187088316202
 30
0.0
 11
53.01066455362271
 21
21.67187088316202
 31
0.0
  0
LINE
  5
1C4F
330
18
100
AcDbEntity
  8
HIDE
100
AcDbLine
 10
52.5106645536227
 20
21.67187088316202
 30
0.0
 11
52.5106645536227
 21
21.60837088316201
 31
0.0
  0
LINE
  5
1C50
330
18
100
AcDbEntity
  8
0
100
AcDbLine
 10
50.2656645536227
 20
30.17136599538449
 30
0.0
 11
50.2656645536227
 21
21.32787577093954
 31
0.0
  0
LINE
  5
1C51
330
18
100
AcDbEntity
  8
0
100
AcDbLine
 10
52.8856645536227
 20
29.35865908982937
 30
0.0
 11
50.2656645536227
 21
29.40439135994131
 31
0.0
  0
LINE
  5
1C52
330
18
100
AcDbEntity
  8
0
100
AcDbLine
 10
52.8856645536227
 20
22.14058267649463
 30
0.0
 11
50.2656645536227
 21
22.0948504063827
 31
0.0
  0
LWPOLYLINE
  5
1C53
330
18
100
AcDbEntity
  8
0
100
AcDbPolyline
 90
       20
 70
     1
 43
0.0
 10
50.51566455362269
 20
21.2072204961661
 10
50.2656645536227
 20
21.22470219915198
 10
50.2656645536227
 20
21.32787577093954
 10
52.76284610442735
 20
21.37146423704638
 42
0.4091108014277082
 10
52.88566455362269
 20
21.49644519894093
 10
52.8856645536227
 20
30.00279656738308
 42
0.4091108014277101
 10
52.76284610442735
 20
30.12777752927763
 10
50.2656645536227
 20
30.17136599538449
 10
50.2656645536227
 20
30.27453956717204
 10
50.51566455362269
 20
30.29202127015793
 10
50.51566455362269
 20
30.42279230914121
 10
50.6881645536227
 20
30.42279230914121
 10
50.82432325019533
 20
30.28663361256858
 10
52.8264368798297
 20
30.25168658916965
 42
-0.4091108014277117
 10
53.01066455362271
 20
30.06421514632782
 10
53.01066455362271
 20
21.43502661999619
 42
-0.4091108014277119
 10
52.82643687982968
 20
21.24755517715438
 10
50.82432325019532
 20
21.21260815375544
 10
50.6881645536227
 20
21.07644945718282
 10
50.51566455362269
 20
21.07644945718282
  0
LINE
  5
1C54
330
18
100
AcDbEntity
  8
HIDE
100
AcDbLine
 10
53.01066455362271
 20
21.67187088316202
 30
0.0
 11
53.01066455362271
 21
21.88987088316202
 31
0.0
  0
LINE
  5
1C55
330
18
100
AcDbEntity
  8
HIDE
100
AcDbLine
 10
53.01066455362271
 20
29.60937088316201
 30
0.0
 11
53.01066455362271
 21
29.82737088316202
 31
0.0
  0
LINE
  5
1C56
330
18
100
AcDbEntity
  8
0
100
AcDbLine
 10
23.28636786442507
 20
21.29049433643652
 30
0.0
 11
23.04703121606129
 21
21.52983098480031
 31
0.0
  0
LINE
  5
1C57
330
18
100
AcDbEntity
  8
0
100
AcDbLine
 10
23.24394145755388
 20
21.24806792956534
 30
0.0
 11
23.00460480919008
 21
21.48740457792911
 31
0.0
  0
CIRCLE
  5
1C58
330
18
100
AcDbEntity
  8
0
100
AcDbCircle
 10
23.14548633680759
 20
21.38894945718281
 30
0.0
 40
0.171875
  0
LINE
  5
1C59
330
18
100
AcDbEntity
  8
0
100
AcDbLine
 10
26.28641071638343
 20
21.29049433643652
 30
0.0
 11
26.04707406801964
 21
21.52983098480031
 31
0.0
  0
LINE
  5
1C5A
330
18
100
AcDbEntity
  8
0
100
AcDbLine
 10
26.24398430951223
 20
21.24806792956534
 30
0.0
 11
26.00464766114844
 21
21.48740457792911
 31
0.0
  0
CIRCLE
  5
1C5B
330
18
100
AcDbEntity
  8
0
100
AcDbCircle
 10
26.14552918876595
 20
21.38894945718281
 30
0.0
 40
0.171875
  0
LINE
  5
1C5C
330
18
100
AcDbEntity
  8
0
100
AcDbLine
 10
26.28641071638343
 20
30.01183718839492
 30
0.0
 11
26.04707406801964
 21
30.25117383675871
 31
0.0
  0
LINE
  5
1C5D
330
18
100
AcDbEntity
  8
0
100
AcDbLine
 10
26.24398430951223
 20
29.96941078152373
 30
0.0
 11
26.00464766114844
 21
30.20874742988752
 31
0.0
  0
CIRCLE
  5
1C5E
330
18
100
AcDbEntity
  8
0
100
AcDbCircle
 10
26.14552918876595
 20
30.11029230914121
 30
0.0
 40
0.171875
  0
LINE
  5
1C5F
330
18
100
AcDbEntity
  8
0
100
AcDbLine
 10
23.28636786442507
 20
30.01183718839492
 30
0.0
 11
23.04703121606129
 21
30.25117383675871
 31
0.0
  0
LINE
  5
1C60
330
18
100
AcDbEntity
  8
0
100
AcDbLine
 10
23.24394145755388
 20
29.96941078152373
 30
0.0
 11
23.00460480919008
 21
30.20874742988752
 31
0.0
  0
CIRCLE
  5
1C61
330
18
100
AcDbEntity
  8
0
100
AcDbCircle
 10
23.14548633680759
 20
30.11029230914121
 30
0.0
 40
0.171875
  0
CIRCLE
  5
1C62
330
18
100
AcDbEntity
  8
0
 62
     4
100
AcDbCircle
 10
23.14548633680759
 20
21.38894945718281
 30
0.0
 40
0.1875
  0
ARC
  5
1C63
330
18
100
AcDbEntity
  8
0
100
AcDbCircle
 10
23.14548633680759
 20
21.38894945718281
 30
0.0
 40
0.3125
100
AcDbArc
 50
180.0
 51
270.0
  0
ARC
  5
1C64
330
18
100
AcDbEntity
  8
0
100
AcDbCircle
 10
26.14552918876596
 20
21.38894945718281
 30
0.0
 40
0.3125
100
AcDbArc
 50
270.0
 51
0.0
  0
ARC
  5
1C65
330
18
100
AcDbEntity
  8
0
100
AcDbCircle
 10
26.14552918876594
 20
30.11029230914121
 30
0.0
 40
0.3125
100
AcDbArc
 50
0.0
 51
90.0
  0
ARC
  5
1C66
330
18
100
AcDbEntity
  8
0
100
AcDbCircle
 10
23.14548633680758
 20
30.11029230914121
 30
0.0
 40
0.3125
100
AcDbArc
 50
90.0
 51
180.0
  0
LINE
  5
1C67
330
18
100
AcDbEntity
  8
0
100
AcDbLine
 10
26.14552918876594
 20
30.42279230914121
 30
0.0
 11
23.14548633680758
 21
30.42279230914121
 31
0.0
  0
LINE
  5
1C68
330
18
100
AcDbEntity
  8
0
100
AcDbLine
 10
26.45802918876595
 20
21.38894945718281
 30
0.0
 11
26.45802918876594
 21
30.11029230914121
 31
0.0
  0
LINE
  5
1C69
330
18
100
AcDbEntity
  8
0
100
AcDbLine
 10
23.14548633680759
 20
21.07644945718281
 30
0.0
 11
26.14552918876595
 21
21.07644945718281
 31
0.0
  0
LINE
  5
1C6A
330
18
100
AcDbEntity
  8
0
100
AcDbLine
 10
22.83298633680758
 20
30.11029230914121
 30
0.0
 11
22.83298633680759
 21
21.38894945718281
 31
0.0
  0
CIRCLE
  5
1C6B
330
18
100
AcDbEntity
  8
0
 62
     4
100
AcDbCircle
 10
23.14548633680759
 20
30.11029230914121
 30
0.0
 40
0.1875
  0
CIRCLE
  5
1C6C
330
18
100
AcDbEntity
  8
0
 62
     4
100
AcDbCircle
 10
26.14552918876595
 20
30.11029230914121
 30
0.0
 40
0.1875
  0
CIRCLE
  5
1C6D
330
18
100
AcDbEntity
  8
0
 62
     4
100
AcDbCircle
 10
26.14552918876595
 20
21.38894945718281
 30
0.0
 40
0.1875
  0
LWPOLYLINE
  5
1C6E
330
18
100
AcDbEntity
  8
0
100
AcDbPolyline
 90
        8
 70
     1
 43
0.0
 10
26.02053418876595
 20
21.7014994571828
 10
26.02053418876595
 20
29.79780230914121
 42
0.4142135623730951
 10
25.83303418876595
 20
29.98530230914122
 10
23.45798133680759
 20
29.98530230914122
 42
0.4142135623730951
 10
23.27048133680759
 20
29.79780230914121
 10
23.27048133680759
 20
21.7014994571828
 42
0.4142135623730946
 10
23.45798133680759
 20
21.51399945718281
 10
25.83303418876595
 20
21.51399945718281
 42
0.4142135623730951
  0
LWPOLYLINE
  5
1C6F
330
18
100
AcDbEntity
  8
0
100
AcDbPolyline
 90
        4
 70
     1
 43
0.0
 10
25.83303418876595
 20
21.7014994571828
 10
25.83303418876595
 20
29.79780230914121
 10
23.45798133680759
 20
29.79780230914121
 10
23.45798133680759
 20
21.7014994571828
  0
LINE
  5
1C70
330
18
100
AcDbEntity
  8
0
100
AcDbLine
 10
37.04093629905744
 20
30.4227923091412
 30
0.0
 11
37.17709499563007
 21
30.28663361256858
 31
0.0
  0
LINE
  5
1C71
330
18
100
AcDbEntity
  8
0
100
AcDbLine
 10
37.17709499563007
 20
21.21260815375543
 30
0.0
 11
37.17709499563007
 21
30.28663361256858
 31
0.0
  0
LINE
  5
1C72
330
18
100
AcDbEntity
  8
0
100
AcDbLine
 10
37.04093629905744
 20
21.0764494571828
 30
0.0
 11
37.17709499563007
 21
21.21260815375543
 31
0.0
  0
LINE
  5
1C73
330
18
100
AcDbEntity
  8
0
100
AcDbLine
 10
36.41593629905745
 20
21.15208284226087
 30
0.0
 11
36.41593629905744
 21
30.34715892406313
 31
0.0
  0
LINE
  5
1C74
330
18
100
AcDbEntity
  8
0
100
AcDbLine
 10
36.85343629905744
 20
21.0764494571828
 30
0.0
 11
36.47625508051354
 21
21.08962091557219
 31
0.0
  0
LINE
  5
1C75
330
18
100
AcDbEntity
  8
0
100
AcDbLine
 10
36.85343629905744
 20
30.4227923091412
 30
0.0
 11
36.47625508051353
 21
30.40962085075181
 31
0.0
  0
ARC
  5
1C76
330
18
100
AcDbEntity
  8
0
100
AcDbCircle
 10
36.47843629905745
 20
21.15208284226087
 30
0.0
 40
0.0625
100
AcDbArc
 50
180.0
 51
267.9999999999999
  0
ARC
  5
1C77
330
18
100
AcDbEntity
  8
0
100
AcDbCircle
 10
36.47843629905743
 20
30.34715892406311
 30
0.0
 40
0.0625
100
AcDbArc
 50
91.99999999999997
 51
180.0
  0
LINE
  5
1C78
330
18
100
AcDbEntity
  8
0
100
AcDbLine
 10
37.04093629905744
 20
21.0764494571828
 30
0.0
 11
37.04093629905744
 21
30.4227923091412
 31
0.0
  0
LINE
  5
1C79
330
18
100
AcDbEntity
  8
0
100
AcDbLine
 10
36.86843629905744
 20
21.0764494571828
 30
0.0
 11
37.04093629905744
 21
21.0764494571828
 31
0.0
  0
LINE
  5
1C7A
330
18
100
AcDbEntity
  8
0
100
AcDbLine
 10
36.86843629905744
 20
30.4227923091412
 30
0.0
 11
37.04093629905744
 21
30.4227923091412
 31
0.0
  0
LINE
  5
1C7B
330
18
100
AcDbEntity
  8
0
100
AcDbLine
 10
39.36343629905744
 20
21.4350266199962
 30
0.0
 11
39.36343629905742
 21
30.06421514632782
 31
0.0
  0
ARC
  5
1C7C
330
18
100
AcDbEntity
  8
0
100
AcDbCircle
 10
39.17593629905744
 20
21.4350266199962
 30
0.0
 40
0.1875
100
AcDbArc
 50
271.0
 51
0.0
  0
ARC
  5
1C7D
330
18
100
AcDbEntity
  8
0
100
AcDbCircle
 10
39.17593629905743
 20
30.06421514632782
 30
0.0
 40
0.1875
100
AcDbArc
 50
0.0
 51
89.0
  0
LINE
  5
1C7E
330
18
100
AcDbEntity
  8
0
100
AcDbLine
 10
37.17709499563007
 20
21.21260815375543
 30
0.0
 11
39.17920862526444
 21
21.24755517715438
 31
0.0
  0
LINE
  5
1C7F
330
18
100
AcDbEntity
  8
0
100
AcDbLine
 10
37.17709499563007
 20
30.28663361256858
 30
0.0
 11
39.17920862526442
 21
30.25168658916964
 31
0.0
  0
LINE
  5
1C80
330
18
100
AcDbEntity
  8
0
100
AcDbLine
 10
36.86843629905744
 20
21.0764494571828
 30
0.0
 11
36.86843629905744
 21
30.4227923091412
 31
0.0
  0
LINE
  5
1C81
330
18
100
AcDbEntity
  8
0
100
AcDbLine
 10
36.85343629905744
 20
21.0764494571828
 30
0.0
 11
36.85343629905744
 21
30.4227923091412
 31
0.0
  0
LINE
  5
1C82
330
18
100
AcDbEntity
  8
0
100
AcDbLine
 10
36.22843629905745
 20
21.7326994571828
 30
0.0
 11
36.22843629905744
 21
29.76654230914121
 31
0.0
  0
LINE
  5
1C83
330
18
100
AcDbEntity
  8
0
100
AcDbLine
 10
36.22843629905745
 20
21.7326994571828
 30
0.0
 11
36.41593629905745
 21
21.5451994571828
 31
0.0
  0
LINE
  5
1C84
330
18
100
AcDbEntity
  8
0
100
AcDbLine
 10
36.22843629905744
 20
29.76654230914121
 30
0.0
 11
36.41593629905744
 21
29.9540423091412
 31
0.0
  0
SOLID
  5
1C85
330
18
100
AcDbEntity
  8
DIM
100
AcDbTrace
 10
26.38776732709567
 20
30.27863807009253
 30
0.0
 11
26.34439499988264
 21
30.323407319322
 31
0.0
 12
26.23177341580074
 22
30.17090571306818
 32
0.0
 13
26.23177341580074
 23
30.17090571306818
 33
0.0
  0
LINE
  5
1C86
330
18
100
AcDbEntity
  8
DIM
100
AcDbLine
 10
26.36608116348915
 20
30.30102269470726
 30
0.0
 11
27.34753546014374
 21
31.25185295502612
 31
0.0
  0
LWPOLYLINE
  5
1C87
330
18
100
AcDbEntity
  8
0
 62
     2
100
AcDbPolyline
 90
        4
 70
     1
 43
0.0
 10
50.25766455361844
 20
21.31241102104132
 42
0.9999834785717778
 10
50.19516455362697
 20
21.31241102104132
 10
50.19516455362544
 20
21.23637077417929
 42
1.000013231781622
 10
50.25766455361996
 20
21.23637077417929
  0
LWPOLYLINE
  5
1C88
330
18
100
AcDbEntity
  8
0
 62
     2
100
AcDbPolyline
 90
        4
 70
     1
 43
0.0
 10
50.25766455361844
 20
30.1868307452827
 42
-0.9999834785717778
 10
50.19516455362697
 20
30.1868307452827
 10
50.19516455362544
 20
30.26287099214473
 42
-1.000013231781622
 10
50.25766455361996
 20
30.26287099214473
  0
INSERT
  5
1C89
330
18
100
AcDbEntity
  8
HATCH
100
AcDbBlockReference
  2
*X100
 10
5.964564920786017
 20
0.3971689197775276
 30
0.0
  0
INSERT
  5
1C8A
330
18
100
AcDbEntity
  8
HATCH
100
AcDbBlockReference
  2
*X101
 10
5.964564920786017
 20
0.3971689197775276
 30
0.0
  0
LINE
  5
1C8B
330
18
100
AcDbEntity
  8
DIM
100
AcDbLine
 10
8.349728364925653
 20
19.70202619227757
 30
0.0
 11
10.75066083873065
 21
19.70202619227757
 31
0.0
  0
LINE
  5
1C8C
330
18
100
AcDbEntity
  8
DIM
100
AcDbLine
 10
8.349728364925653
 20
19.66202619227756
 30
0.0
 11
10.75066083873065
 21
19.66202619227756
 31
0.0
  0
TEXT
  5
1C8D
330
18
100
AcDbEntity
  8
DIM
100
AcDbText
 10
8.343032101394285
 20
19.77292862128931
 30
0.0
 40
0.312
  1
TOP VIEW
  7
COMPLEX
100
AcDbText
  0
TEXT
  5
1C8E
330
18
100
AcDbEntity
  8
DIM
100
AcDbText
 10
8.336372370626129
 20
19.33318120272115
 30
0.0
 40
0.187
  1
WITHOUT COVER
100
AcDbText
  0
SOLID
  5
1C8F
330
18
100
AcDbEntity
  8
DIM
100
AcDbTrace
 10
11.28476059237201
 20
30.26022774262934
 30
0.0
 11
11.24037849066251
 21
30.30399615009743
 31
0.0
 12
11.13126431911303
 22
30.14896564123485
 32
0.0
 13
11.13126431911303
 23
30.14896564123485
 33
0.0
  0
TEXT
  5
1C90
330
18
100
AcDbEntity
  8
DIM
100
AcDbText
 10
11.9798807291158
 20
20.70107704089917
 30
0.0
 40
0.187
  1
4 PLC'S.
100
AcDbText
  0
DIMENSION
  5
1C91
330
18
100
AcDbEntity
  8
DIM
100
AcDbDimension
280
     0
  2
*D151
 10
10.79686824970375
 20
21.89632063354016
 30
0.0
 11
12.49933804084717
 21
21.10980705568307
 31
0.0
 70
   163
 71
     5
 42
0.3449999999999953
 73
     0
 74
     0
 75
     0
  3
STANDARD
100
AcDbDiametricDimension
 15
11.05352095395255
 25
21.66576827635903
 35
0.0
 40
0.0
1001
ACAD
1000
DSTYLE
1002
{
1070
    41
1040
0.1875
1070
    42
1040
0.125
1070
    43
1040
0.375
1070
    44
1040
0.09375
1070
   140
1040
0.187
1070
   141
1040
0.09375
1070
   147
1040
0.1875
1070
   271
1070
     3
1070
   289
1070
     0
1002
}
  0
TEXT
  5
1C92
330
18
100
AcDbEntity
  8
DIM
100
AcDbText
 10
11.9798807291158
 20
21.68827012214079
 30
0.0
 40
0.187
  1
4 PLC'S.
100
AcDbText
  0
DIMENSION
  5
1C93
330
18
100
AcDbEntity
  8
DIM
100
AcDbDimension
280
     0
  2
*D152
 10
10.82686354754454
 20
21.73401251087462
 30
0.0
 11
12.44526314274829
 21
22.12748749227106
 31
0.0
 70
   163
 71
     5
 42
0.2179999999999822
 73
     0
 74
     0
 75
     0
  3
STANDARD
100
AcDbDiametricDimension
 15
11.02352565611176
 25
21.8280763990246
 35
0.0
 40
0.0
1001
ACAD
1000
DSTYLE
1002
{
1070
    41
1040
0.1875
1070
    42
1040
0.125
1070
    43
1040
0.375
1070
    44
1040
0.09375
1070
   140
1040
0.187
1070
   141
1040
0.09375
1070
   147
1040
0.1875
1070
   271
1070
     3
1070
   289
1070
     0
1002
}
  0
LINE
  5
1C94
330
18
100
AcDbEntity
  8
DIM
100
AcDbLine
 10
11.26256954151726
 20
30.28211194636337
 30
0.0
 11
12.01910781502452
 21
31.04925794376861
 31
0.0
  0
LINE
  5
1C95
330
18
100
AcDbEntity
  8
DIM
100
AcDbLine
 10
12.01910781502452
 20
31.04925794376861
 30
0.0
 11
12.20610781502452
 21
31.04925794376861
 31
0.0
  0
TEXT
  5
1C96
330
18
100
AcDbEntity
  8
DIM
100
AcDbText
 10
12.38008846896484
 20
30.6317310657195
 30
0.0
 40
0.187
  1
4 PLC'S.
100
AcDbText
  0
TEXT
  5
1C97
330
18
100
AcDbEntity
  8
DIM
100
AcDbText
 10
12.39310781502452
 20
30.95575794376861
 30
0.0
 40
0.187
  1
10-24 BRASS INSERT
 11
12.39310781502452
 21
31.04925794376861
 31
0.0
100
AcDbText
 73
     2
  0
CIRCLE
  5
1C98
330
18
100
AcDbEntity
  8
0
100
AcDbCircle
 10
8.175194601828145
 20
29.71819731137447
 30
0.0
 40
0.1875
  0
CIRCLE
  5
1C99
330
18
100
AcDbEntity
  8
0
100
AcDbCircle
 10
8.175194601828145
 20
29.71819731137447
 30
0.0
 40
0.1725
  0
CIRCLE
  5
1C9A
330
18
100
AcDbEntity
  8
0
100
AcDbCircle
 10
8.175194601828145
 20
29.71819731137447
 30
0.0
 40
0.109
  0
CIRCLE
  5
1C9B
330
18
100
AcDbEntity
  8
0
100
AcDbCircle
 10
10.92519460182815
 20
29.71819731137447
 30
0.0
 40
0.1875
  0
CIRCLE
  5
1C9C
330
18
100
AcDbEntity
  8
0
100
AcDbCircle
 10
10.92519460182815
 20
29.71819731137447
 30
0.0
 40
0.1725
  0
CIRCLE
  5
1C9D
330
18
100
AcDbEntity
  8
0
100
AcDbCircle
 10
10.92519460182815
 20
29.71819731137447
 30
0.0
 40
0.109
  0
CIRCLE
  5
1C9E
330
18
100
AcDbEntity
  8
0
100
AcDbCircle
 10
10.92519460182815
 20
21.78104445494958
 30
0.0
 40
0.1875
  0
CIRCLE
  5
1C9F
330
18
100
AcDbEntity
  8
0
100
AcDbCircle
 10
10.92519460182815
 20
21.78104445494958
 30
0.0
 40
0.1725
  0
CIRCLE
  5
1CA0
330
18
100
AcDbEntity
  8
0
100
AcDbCircle
 10
10.92519460182815
 20
21.78104445494958
 30
0.0
 40
0.109
  0
CIRCLE
  5
1CA1
330
18
100
AcDbEntity
  8
0
100
AcDbCircle
 10
8.175194601828145
 20
21.78104445494958
 30
0.0
 40
0.109
  0
CIRCLE
  5
1CA2
330
18
100
AcDbEntity
  8
0
100
AcDbCircle
 10
8.175194601828145
 20
21.78104445494958
 30
0.0
 40
0.1725
  0
CIRCLE
  5
1CA3
330
18
100
AcDbEntity
  8
0
100
AcDbCircle
 10
8.175194601828145
 20
21.78104445494958
 30
0.0
 40
0.1875
  0
LWPOLYLINE
  5
1CA4
330
18
100
AcDbEntity
  8
0
100
AcDbPolyline
 90
       24
 70
     1
 43
0.0
 10
8.073425917818163
 20
21.97432397817028
 10
8.198475653627639
 20
21.97432397817029
 42
-0.414213562373101
 10
8.368475653627641
 20
21.80432397817027
 10
8.368475653627641
 20
21.41237577093955
 42
0.4142135623730902
 10
8.573475653627639
 20
21.20737577093955
 10
10.52691355002867
 20
21.20737577093955
 42
0.4142135623730902
 10
10.73191355002867
 20
21.41237577093955
 10
10.73191355002868
 20
21.80432397817027
 42
-0.414213562373101
 10
10.90191355002868
 20
21.97432397817028
 10
11.02696328583816
 20
21.97432397817028
 42
0.4142135623730902
 10
11.23196328583815
 20
22.17932397817028
 10
11.23196328583816
 20
29.31991778815377
 42
0.4142135623730902
 10
11.02696328583816
 20
29.52491778815377
 10
10.90191355002869
 20
29.52491778815377
 42
-0.414213562373101
 10
10.73191355002868
 20
29.69491778815378
 10
10.73191355002867
 20
30.0868659953845
 42
0.4142135623730902
 10
10.52691355002867
 20
30.29186599538451
 10
8.573475653627639
 20
30.2918659953845
 42
0.4142135623730902
 10
8.368475653627641
 20
30.0868659953845
 10
8.368475653627633
 20
29.69491778815376
 42
-0.414213562373101
 10
8.198475653627632
 20
29.52491778815377
 10
8.073425917818148
 20
29.52491778815377
 42
0.4142135623730902
 10
7.86842591781815
 20
29.31991778815376
 10
7.868425917818164
 20
22.17932397817028
 42
0.4142135623730902
  0
LWPOLYLINE
  5
1CA5
330
18
100
AcDbEntity
  8
0
100
AcDbPolyline
 90
       24
 70
     1
 43
0.0
 10
8.073425917818163
 20
21.99182397817027
 10
8.198475653627639
 20
21.99182397817027
 42
-0.4142135623731
 10
8.385975653627639
 20
21.80432397817027
 10
8.385975653627639
 20
21.41237577093955
 42
0.414213562373097
 10
8.573475653627639
 20
21.22487577093955
 10
10.52691355002867
 20
21.22487577093955
 42
0.4142135623730946
 10
10.71441355002867
 20
21.41237577093955
 10
10.71441355002868
 20
21.80432397817027
 42
-0.4142135623730975
 10
10.90191355002868
 20
21.99182397817027
 10
11.02696328583816
 20
21.99182397817027
 42
0.4142135623730961
 10
11.21446328583815
 20
22.17932397817028
 10
11.21446328583816
 20
29.31991778815377
 42
0.4142135623730956
 10
11.02696328583816
 20
29.50741778815377
 10
10.90191355002869
 20
29.50741778815379
 42
-0.4142135623730927
 10
10.71441355002868
 20
29.69491778815378
 10
10.71441355002867
 20
30.0868659953845
 42
0.4142135623730961
 10
10.52691355002867
 20
30.2743659953845
 10
8.573475653627639
 20
30.2743659953845
 42
0.4142135623730923
 10
8.385975653627639
 20
30.0868659953845
 10
8.385975653627632
 20
29.69491778815376
 42
-0.4142135623730951
 10
8.198475653627632
 20
29.50741778815375
 10
8.073425917818148
 20
29.50741778815375
 42
0.4142135623730961
 10
7.885925917818148
 20
29.31991778815376
 10
7.885925917818163
 20
22.17932397817028
 42
0.4142135623730975
  0
CIRCLE
  5
1CA6
330
18
100
AcDbEntity
  8
0
 62
     4
100
AcDbCircle
 10
8.050173175848954
 20
21.39027302897039
 30
0.0
 40
0.109
  0
CIRCLE
  5
1CA7
330
18
100
AcDbEntity
  8
0
 62
     4
100
AcDbCircle
 10
8.050173175848954
 20
21.39027302897039
 30
0.0
 40
0.076
  0
ARC
  5
1CA8
330
18
100
AcDbEntity
  8
0
100
AcDbCircle
 10
8.050173175848975
 20
21.38912302897038
 30
0.0
 40
0.3125
100
AcDbArc
 50
180.0
 51
270.0
  0
ARC
  5
1CA9
330
18
100
AcDbEntity
  8
0
100
AcDbCircle
 10
11.05021602780734
 20
21.38912302897039
 30
0.0
 40
0.3125
100
AcDbArc
 50
270.0
 51
0.0
  0
ARC
  5
1CAA
330
18
100
AcDbEntity
  8
0
100
AcDbCircle
 10
11.05021602780734
 20
30.11011873735367
 30
0.0
 40
0.3125
100
AcDbArc
 50
0.0
 51
90.0
  0
ARC
  5
1CAB
330
18
100
AcDbEntity
  8
0
100
AcDbCircle
 10
8.050173175848975
 20
30.11011873735367
 30
0.0
 40
0.3125
100
AcDbArc
 50
90.0
 51
180.0
  0
LINE
  5
1CAC
330
18
100
AcDbEntity
  8
0
100
AcDbLine
 10
11.05021602780734
 20
21.07662302897039
 30
0.0
 11
8.050173175848975
 21
21.07662302897038
 31
0.0
  0
LINE
  5
1CAD
330
18
100
AcDbEntity
  8
0
100
AcDbLine
 10
11.05021602780734
 20
30.42261873735367
 30
0.0
 11
8.050173175848975
 21
30.42261873735367
 31
0.0
  0
LINE
  5
1CAE
330
18
100
AcDbEntity
  8
0
100
AcDbLine
 10
11.36271602780734
 20
21.38912302897039
 30
0.0
 11
11.36271602780734
 21
30.11011873735367
 31
0.0
  0
LINE
  5
1CAF
330
18
100
AcDbEntity
  8
0
100
AcDbLine
 10
7.737673175848975
 20
21.38912302897038
 30
0.0
 11
7.737673175848975
 21
30.11011873735367
 31
0.0
  0
CIRCLE
  5
1CB0
330
18
100
AcDbEntity
  8
0
 62
     4
100
AcDbCircle
 10
8.050173175848954
 20
30.10896873735367
 30
0.0
 40
0.076
  0
CIRCLE
  5
1CB1
330
18
100
AcDbEntity
  8
0
 62
     4
100
AcDbCircle
 10
8.050173175848954
 20
30.10896873735367
 30
0.0
 40
0.109
  0
CIRCLE
  5
1CB2
330
18
100
AcDbEntity
  8
0
 62
     4
100
AcDbCircle
 10
11.05021602780736
 20
21.39027302897039
 30
0.0
 40
0.076
  0
CIRCLE
  5
1CB3
330
18
100
AcDbEntity
  8
0
 62
     4
100
AcDbCircle
 10
11.05021602780736
 20
21.39027302897039
 30
0.0
 40
0.109
  0
CIRCLE
  5
1CB4
330
18
100
AcDbEntity
  8
0
 62
     4
100
AcDbCircle
 10
11.05021602780736
 20
30.10896873735367
 30
0.0
 40
0.076
  0
CIRCLE
  5
1CB5
330
18
100
AcDbEntity
  8
0
 62
     4
100
AcDbCircle
 10
11.05021602780736
 20
30.10896873735367
 30
0.0
 40
0.109
  0
LINE
  5
1CB6
330
18
100
AcDbEntity
  8
CENTER
100
AcDbLine
 10
7.96017317584895
 20
21.39027302897039
 30
0.0
 11
8.140173175848957
 21
21.39027302897039
 31
0.0
  0
LINE
  5
1CB7
330
18
100
AcDbEntity
  8
CENTER
100
AcDbLine
 10
8.050173175848954
 20
21.30027302897038
 30
0.0
 11
8.050173175848954
 21
21.48027302897038
 31
0.0
  0
LINE
  5
1CB8
330
18
100
AcDbEntity
  8
CENTER
100
AcDbLine
 10
8.085194601828142
 20
21.78104445494958
 30
0.0
 11
8.265194601828149
 21
21.78104445494958
 31
0.0
  0
LINE
  5
1CB9
330
18
100
AcDbEntity
  8
CENTER
100
AcDbLine
 10
8.175194601828145
 20
21.69104445494958
 30
0.0
 11
8.175194601828145
 21
21.87104445494957
 31
0.0
  0
LINE
  5
1CBA
330
18
100
AcDbEntity
  8
CENTER
100
AcDbLine
 10
8.085194601828142
 20
29.71819731137447
 30
0.0
 11
8.265194601828149
 21
29.71819731137447
 31
0.0
  0
LINE
  5
1CBB
330
18
100
AcDbEntity
  8
CENTER
100
AcDbLine
 10
8.175194601828145
 20
29.62819731137446
 30
0.0
 11
8.175194601828145
 21
29.80819731137447
 31
0.0
  0
LINE
  5
1CBC
330
18
100
AcDbEntity
  8
CENTER
100
AcDbLine
 10
7.96017317584895
 20
30.10896873735367
 30
0.0
 11
8.140173175848957
 21
30.10896873735367
 31
0.0
  0
LINE
  5
1CBD
330
18
100
AcDbEntity
  8
CENTER
100
AcDbLine
 10
8.050173175848954
 20
30.01896873735367
 30
0.0
 11
8.050173175848954
 21
30.19896873735368
 31
0.0
  0
LINE
  5
1CBE
330
18
100
AcDbEntity
  8
CENTER
100
AcDbLine
 10
10.96021602780735
 20
30.10896873735367
 30
0.0
 11
11.14021602780736
 21
30.10896873735367
 31
0.0
  0
LINE
  5
1CBF
330
18
100
AcDbEntity
  8
CENTER
100
AcDbLine
 10
11.05021602780736
 20
30.01896873735367
 30
0.0
 11
11.05021602780736
 21
30.19896873735368
 31
0.0
  0
LINE
  5
1CC0
330
18
100
AcDbEntity
  8
CENTER
100
AcDbLine
 10
10.83519460182815
 20
29.71819731137447
 30
0.0
 11
11.01519460182815
 21
29.71819731137447
 31
0.0
  0
LINE
  5
1CC1
330
18
100
AcDbEntity
  8
CENTER
100
AcDbLine
 10
10.92519460182815
 20
29.62819731137446
 30
0.0
 11
10.92519460182815
 21
29.80819731137447
 31
0.0
  0
LINE
  5
1CC2
330
18
100
AcDbEntity
  8
CENTER
100
AcDbLine
 10
10.83519460182815
 20
21.78104445494958
 30
0.0
 11
11.01519460182815
 21
21.78104445494958
 31
0.0
  0
LINE
  5
1CC3
330
18
100
AcDbEntity
  8
CENTER
100
AcDbLine
 10
10.92519460182815
 20
21.69104445494958
 30
0.0
 11
10.92519460182815
 21
21.87104445494957
 31
0.0
  0
LINE
  5
1CC4
330
18
100
AcDbEntity
  8
CENTER
100
AcDbLine
 10
10.96021602780735
 20
21.39027302897039
 30
0.0
 11
11.14021602780736
 21
21.39027302897039
 31
0.0
  0
LINE
  5
1CC5
330
18
100
AcDbEntity
  8
CENTER
100
AcDbLine
 10
11.05021602780736
 20
21.30027302897038
 30
0.0
 11
11.05021602780736
 21
21.48027302897038
 31
0.0
  0
LWPOLYLINE
  5
1CC6
330
18
100
AcDbEntity
  8
0
100
AcDbPolyline
 90
       24
 70
     1
 43
0.0
 10
8.082925917818165
 20
22.09482397817028
 10
8.198475653627639
 20
22.09482397817028
 42
-0.4142135623730982
 10
8.48897565362764
 20
21.80432397817027
 10
8.48897565362764
 20
21.42187577093954
 42
0.4142135623730956
 10
8.582975653627642
 20
21.32787577093954
 10
10.51741355002867
 20
21.32787577093954
 42
0.4142135623730888
 10
10.61141355002867
 20
21.42187577093955
 10
10.61141355002868
 20
21.80432397817027
 42
-0.4142135623730982
 10
10.90191355002868
 20
22.09482397817028
 10
11.01746328583815
 20
22.09482397817027
 42
0.4142135623731029
 10
11.11146328583815
 20
22.18882397817028
 10
11.11146328583816
 20
29.31041778815378
 42
0.4142135623730789
 10
11.01746328583817
 20
29.40441778815378
 10
10.90191355002869
 20
29.40441778815378
 42
-0.4142135623730982
 10
10.61141355002868
 20
29.69491778815377
 10
10.61141355002868
 20
30.07736599538449
 42
0.4142135623730855
 10
10.51741355002868
 20
30.1713659953845
 10
8.582975653627642
 20
30.17136599538449
 42
0.4142135623730888
 10
8.48897565362764
 20
30.07736599538449
 10
8.488975653627633
 20
29.69491778815376
 42
-0.4142135623730982
 10
8.198475653627632
 20
29.40441778815376
 10
8.082925917818151
 20
29.40441778815376
 42
0.4142135623730961
 10
7.98892591781815
 20
29.31041778815375
 10
7.988925917818164
 20
22.18882397817028
 42
0.4142135623731023
  0
DIMENSION
  5
1CC7
330
18
100
AcDbEntity
  8
DIM
100
AcDbDimension
280
     0
  2
*D153
 10
5.737673175848975
 20
29.71819731137447
 30
0.0
 11
5.73767317584897
 21
25.74962088316202
 31
0.0
 70
    32
 71
     5
 42
7.937152856424884
 73
     0
 74
     0
 75
     0
  3
STANDARD
100
AcDbAlignedDimension
 13
8.085194601828142
 23
21.78104445494958
 33
0.0
 14
8.085194601828142
 24
29.71819731137447
 34
0.0
 50
90.0
100
AcDbRotatedDimension
1001
ACAD
1000
DSTYLE
1002
{
1070
    41
1040
0.1875
1070
    42
1040
0.125
1070
    43
1040
0.375
1070
    44
1040
0.09375
1070
   140
1040
0.187
1070
   141
1040
0.09375
1070
   147
1040
0.1875
1070
   271
1070
     5
1070
   276
1070
     2
1070
   277
1070
     5
1070
   289
1070
     0
1002
}
  0
DIMENSION
  5
1CC8
330
18
100
AcDbEntity
  8
DIM
100
AcDbDimension
280
     0
  2
*D154
 10
3.903749956143002
 20
30.10896873735367
 30
0.0
 11
3.903749956142997
 21
25.74962088316203
 31
0.0
 70
    32
 71
     5
 42
8.71869570838329
 73
     0
 74
     0
 75
     0
  3
STANDARD
100
AcDbAlignedDimension
 13
7.96017317584895
 23
21.39027302897039
 33
0.0
 14
7.96017317584895
 24
30.10896873735367
 34
0.0
 50
90.0
100
AcDbRotatedDimension
1001
ACAD
1000
DSTYLE
1002
{
1070
    41
1040
0.1875
1070
    42
1040
0.125
1070
    43
1040
0.375
1070
    44
1040
0.09375
1070
   140
1040
0.187
1070
   141
1040
0.09375
1070
   147
1040
0.1875
1070
   271
1070
     5
1070
   276
1070
     2
1070
   277
1070
     5
1070
   289
1070
     0
1002
}
  0
DIMENSION
  5
1CC9
330
18
100
AcDbEntity
  8
DIM
100
AcDbDimension
280
     0
  2
*D155
 10
8.050173175848954
 20
33.42279230914119
 30
0.0
 11
9.550194601828152
 21
33.42279230914119
 31
0.0
 70
   160
 71
     5
 42
3.000042851958404
 73
     0
 74
     0
 75
     0
  3
STANDARD
100
AcDbAlignedDimension
 13
11.05021602780736
 23
30.19896873735368
 33
0.0
 14
8.050173175848954
 24
30.19896873735368
 34
0.0
100
AcDbRotatedDimension
1001
ACAD
1000
DSTYLE
1002
{
1070
    41
1040
0.1875
1070
    42
1040
0.125
1070
    43
1040
0.375
1070
    44
1040
0.09375
1070
   140
1040
0.187
1070
   141
1040
0.09375
1070
   147
1040
0.1875
1070
   271
1070
     5
1070
   276
1070
     2
1070
   277
1070
     5
1070
   289
1070
     0
1002
}
  0
DIMENSION
  5
1CCA
330
18
100
AcDbEntity
  8
DIM
100
AcDbDimension
280
     0
  2
*D156
 10
10.92519460182815
 20
32.13985028909761
 30
0.0
 11
9.550194601828152
 21
32.13985028909761
 31
0.0
 70
   160
 71
     5
 42
2.750000000000007
 73
     0
 74
     0
 75
     0
  3
STANDARD
100
AcDbAlignedDimension
 13
8.175194601828145
 23
29.80819731137447
 33
0.0
 14
10.92519460182815
 24
29.80819731137447
 34
0.0
100
AcDbRotatedDimension
1001
ACAD
1000
DSTYLE
1002
{
1070
    41
1040
0.1875
1070
    42
1040
0.125
1070
    43
1040
0.375
1070
    44
1040
0.09375
1070
   140
1040
0.187
1070
   141
1040
0.09375
1070
   147
1040
0.1875
1070
   271
1070
     5
1070
   276
1070
     2
1070
   277
1070
     5
1070
   289
1070
     0
1002
}
  0
LWPOLYLINE
  5
1CCB
330
18
100
AcDbEntity
  8
0
100
AcDbPolyline
 90
       24
 70
     1
 43
0.0
 10
8.082925917818165
 20
22.13962397817028
 10
8.198475653627639
 20
22.13962397817028
 42
-0.4142135623730958
 10
8.533775653627643
 20
21.80432397817027
 10
8.533775653627643
 20
21.42187577093954
 42
0.4142135623730903
 10
8.582975653627642
 20
21.37267577093954
 10
10.51741355002867
 20
21.37267577093955
 42
0.4142135623730903
 10
10.56661355002867
 20
21.42187577093955
 10
10.56661355002868
 20
21.80432397817027
 42
-0.4142135623730958
 10
10.90191355002868
 20
22.13962397817028
 10
11.01746328583815
 20
22.13962397817026
 42
0.4142135623730903
 10
11.06666328583815
 20
22.18882397817028
 10
11.06666328583816
 20
29.31041778815378
 42
0.4142135623730268
 10
11.01746328583817
 20
29.35961778815377
 10
10.90191355002869
 20
29.35961778815377
 42
-0.4142135623731051
 10
10.56661355002868
 20
29.69491778815377
 10
10.56661355002868
 20
30.07736599538449
 42
0.4142135623730691
 10
10.51741355002868
 20
30.12656599538451
 10
8.582975653627642
 20
30.12656599538449
 42
0.4142135623730691
 10
8.533775653627643
 20
30.07736599538449
 10
8.533775653627635
 20
29.69491778815376
 42
-0.4142135623730989
 10
8.198475653627632
 20
29.35961778815377
 10
8.082925917818151
 20
29.35961778815377
 42
0.4142135623730691
 10
8.033725917818152
 20
29.31041778815375
 10
8.033725917818166
 20
22.18882397817028
 42
0.4142135623730903
  0
DIMENSION
  5
1CCC
330
18
100
AcDbEntity
  8
DIM
100
AcDbDimension
280
     0
  2
*D157
 10
52.34564406876492
 20
10.12223200761161
 30
0.0
 11
51.33035739067634
 21
10.12223200761161
 31
0.0
 70
    32
 71
     5
 42
2.030573356177164
 73
     0
 74
     0
 75
     0
  3
STANDARD
100
AcDbAlignedDimension
 13
50.31507071258776
 23
11.48729133190407
 33
0.0
 14
52.34564406876492
 24
11.48729133190407
 34
0.0
100
AcDbRotatedDimension
1001
ACAD
1000
DSTYLE
1002
{
1070
    41
1040
0.1875
1070
    42
1040
0.125
1070
    43
1040
0.375
1070
    44
1040
0.09375
1070
   140
1040
0.187
1070
   141
1040
0.09375
1070
   147
1040
0.125
1070
   271
1070
     5
1070
   276
1070
     2
1070
   277
1070
     5
1070
   289
1070
     0
1002
}
  0
ENDSEC
  0
SECTION
  2
OBJECTS
  0
DICTIONARY
  5
C
330
0
100
AcDbDictionary
281
     1
  3
ACAD_COLOR
350
F63
  3
ACAD_GROUP
350
D
  3
ACAD_LAYOUT
350
F66
  3
ACAD_MATERIAL
350
F62
  3
ACAD_MLEADERSTYLE
350
1F8A
  3
ACAD_MLINESTYLE
350
E
  3
ACAD_PLOTSETTINGS
350
F67
  3
ACAD_PLOTSTYLENAME
350
F60
  3
ACAD_SCALELIST
350
1F78
  3
ACAD_TABLESTYLE
350
F64
  3
ACAD_VISUALSTYLE
350
10D2
  3
ACDB_RECOMPOSE_DATA
350
1F9C
  3
AcDbVariableDictionary
350
101C
  3
AcmDictionary
350
FC5
  3
AMG
350
F6F
  3
AMGSNAPSETTINGS
350
1006
  0
DICTIONARY
  5
1F4E
330
8
100
AcDbDictionary
280
     1
281
     1
  0
DICTIONARY
  5
10B1
330
18
100
AcDbDictionary
280
     1
281
     1
  3
ACAD_SORTENTS
360
10B2
  0
DICTIONARY
  5
F63
102
{ACAD_REACTORS
330
C
102
}
330
C
100
AcDbDictionary
281
     1
  0
DICTIONARY
  5
D
102
{ACAD_REACTORS
330
C
102
}
330
C
100
AcDbDictionary
281
     1
  0
DICTIONARY
  5
F66
102
{ACAD_REACTORS
330
C
102
}
330
C
100
AcDbDictionary
281
     1
  3
Layout1
350
F69
  3
Model
350
F68
  0
DICTIONARY
  5
F62
102
{ACAD_REACTORS
330
C
102
}
330
C
100
AcDbDictionary
281
     1
  3
ByBlock
350
10D0
  3
ByLayer
350
10CF
  3
Global
350
10D1
  0
DICTIONARY
  5
1F8A
102
{ACAD_REACTORS
330
C
102
}
330
C
100
AcDbDictionary
281
     1
  3
Standard
350
1F8B
  0
DICTIONARY
  5
E
102
{ACAD_REACTORS
330
C
102
}
330
C
100
AcDbDictionary
281
     1
  3
STANDARD
350
1B
  0
DICTIONARY
  5
F67
102
{ACAD_REACTORS
330
C
102
}
330
C
100
AcDbDictionary
281
     1
  0
ACDBDICTIONARYWDFLT
  5
F60
102
{ACAD_REACTORS
330
C
102
}
330
C
100
AcDbDictionary
281
     1
  3
Normal
350
F61
100
AcDbDictionaryWithDefault
340
F61
  0
DICTIONARY
  5
1F78
102
{ACAD_REACTORS
330
C
102
}
330
C
100
AcDbDictionary
281
     1
  3
A0
350
1F79
  3
A1
350
1F7A
  3
A2
350
1F7B
  3
A3
350
1F7C
  3
A4
350
1F7D
  3
A5
350
1F7E
  3
A6
350
1F7F
  3
A7
350
1F80
  3
A8
350
1F81
  3
A9
350
1F82
  3
B0
350
1F83
  3
B1
350
1F84
  3
B2
350
1F85
  3
B3
350
1F86
  3
B4
350
1F87
  3
B5
350
1F88
  3
B6
350
1F89
  0
DICTIONARY
  5
F64
102
{ACAD_REACTORS
330
C
102
}
330
C
100
AcDbDictionary
281
     1
  3
Standard
350
F65
  0
DICTIONARY
  5
10D2
102
{ACAD_REACTORS
330
C
102
}
330
C
100
AcDbDictionary
281
     1
  3
2dWireframe
350
10D8
  3
3D Hidden
350
10DA
  3
3dWireframe
350
10D9
  3
Basic
350
10D7
  3
Brighten
350
10DE
  3
ColorChange
350
10E2
  3
Conceptual
350
10DB
  3
Dim
350
10DD
  3
EdgeColorOff
350
1F77
  3
Facepattern
350
10E1
  3
Flat
350
10D3
  3
FlatWithEdges
350
10D4
  3
Gouraud
350
10D5
  3
GouraudWithEdges
350
10D6
  3
Hidden
350
1F6F
  3
JitterOff
350
1F75
  3
Linepattern
350
10E0
  3
OverhangOff
350
1F76
  3
Realistic
350
10DC
  3
Shaded
350
1F74
  3
Shaded with edges
350
1F73
  3
Shades of Gray
350
1F70
  3
Sketchy
350
1F71
  3
Thicken
350
10DF
  3
Wireframe
350
1F6E
  3
X-Ray
350
1F72
  0
XRECORD
  5
1F9C
102
{ACAD_REACTORS
330
C
102
}
330
C
100
AcDbXrecord
280
     1
 90
        1
330
F65
  0
DICTIONARY
  5
101C
102
{ACAD_REACTORS
330
C
102
}
330
C
100
AcDbDictionary
281
     1
  3
CANNOSCALE
350
1F96
  3
CMLEADERSTYLE
350
1F94
  3
CTABLESTYLE
350
101D
  3
DIMASSOC
350
101E
  3
INDEXCTL
350
1F6C
  3
LAYEREVAL
350
1F98
  3
LAYERNOTIFY
350
1F99
  3
LIGHTINGUNITS
350
1F97
  3
MSLTSCALE
350
1F95
  3
PROJECTNAME
350
101F
  3
SORTENTS
350
1F6B
  0
DICTIONARY
  5
FC5
102
{ACAD_REACTORS
330
C
102
}
330
C
100
AcDbDictionary
281
     1
  3
AcmStdDictionary
350
FD2
  3
AMDTSECTSYM_ARROWCOLOR
350
FF1
  0
DICTIONARY
  5
F6F
102
{ACAD_REACTORS
330
C
102
}
330
C
100
AcDbDictionary
281
     1
  0
DICTIONARY
  5
1006
102
{ACAD_REACTORS
330
C
102
}
330
C
100
AcDbDictionary
281
     1
  0
SORTENTSTABLE
  5
10B2
102
{ACAD_REACTORS
330
10B1
102
}
330
10B1
100
AcDbSortentsTable
330
18
331
109C
  5
109C
331
1098
  5
1098
331
1094
  5
1094
331
1090
  5
1090
331
108C
  5
108C
331
1088
  5
1088
331
1084
  5
1084
331
8CD
  5
8CD
331
F4C
  5
F4C
331
1044
  5
1044
331
E00
  5
E00
331
DFC
  5
DFC
331
10AF
  5
10AF
331
10AB
  5
10AB
331
10A7
  5
10A7
331
10A3
  5
10A3
331
DF4
  5
DF4
331
109F
  5
109F
331
109B
  5
109B
331
1097
  5
1097
331
1093
  5
1093
331
108F
  5
108F
331
108B
  5
108B
331
1087
  5
1087
331
1083
  5
1083
331
8CC
  5
8CC
331
DFF
  5
DFF
331
10AE
  5
10AE
331
10AA
  5
10AA
331
10A6
  5
10A6
331
10A2
  5
10A2
331
109E
  5
109E
331
109A
  5
109A
331
1096
  5
1096
331
1092
  5
1092
331
108E
  5
108E
331
108A
  5
108A
331
1086
  5
1086
331
1082
  5
1082
331
A47
  5
A47
331
8CF
  5
8CF
331
8CB
  5
8CB
331
104A
  5
104A
331
8C7
  5
8C7
331
10AD
  5
10AD
331
103E
  5
103E
331
10A9
  5
10A9
331
10A5
  5
10A5
331
10A1
  5
10A1
331
DF6
  5
DF6
331
DEE
  5
DEE
331
109D
  5
109D
331
1099
  5
1099
331
1095
  5
1095
331
1091
  5
1091
331
108D
  5
108D
331
1089
  5
1089
331
1085
  5
1085
331
8CE
  5
8CE
331
8CA
  5
8CA
331
10B0
  5
10B0
331
8C6
  5
8C6
331
DFD
  5
DFD
331
10AC
  5
10AC
331
10A8
  5
10A8
331
10A4
  5
10A4
331
10A0
  5
10A0
331
DED
  5
DED
  0
LAYOUT
  5
F69
102
{ACAD_REACTORS
330
F66
102
}
330
F66
100
AcDbPlotSettings
  1

  2
\\BELDINGDC\IBM 4039 LaserPrinter PS
  4

  6

 40
0.0
 41
0.0
 42
0.0
 43
0.0
 44
0.0
 45
0.0
 46
0.0
 47
0.0
 48
0.0
 49
0.0
140
0.0
141
0.0
142
1.0
143
1.0
 70
   688
 72
     0
 73
     0
 74
     5
  7

 75
    16
147
1.0
 76
     0
 77
     2
 78
   300
148
0.0
149
0.0
100
AcDbLayout
  1
Layout1
 70
     1
 71
     1
 10
0.0
 20
0.0
 11
12.0
 21
9.0
 12
0.0
 22
0.0
 32
0.0
 14
1.000000000000000E+20
 24
1.000000000000000E+20
 34
1.000000000000000E+20
 15
-1.000000000000000E+20
 25
-1.000000000000000E+20
 35
-1.000000000000000E+20
146
0.0
 13
0.0
 23
0.0
 33
0.0
 16
1.0
 26
0.0
 36
0.0
 17
0.0
 27
1.0
 37
0.0
 76
     0
330
15
  0
LAYOUT
  5
F68
102
{ACAD_REACTORS
330
F66
102
}
330
F66
100
AcDbPlotSettings
  1

  2
HP DesignJet 500 24 by HP
  4
User265
  6

 40
4.995333194732666
 41
16.97568893432617
 42
4.99530029296875
 43
16.97564697265625
 44
558.7576293945312
 45
863.5153198242187
 46
3.776419897700728
 47
0.0
 48
0.0
 49
0.0
140
0.0
141
0.0
142
1.0
143
1.959656748343369
 70
 11956
 72
     0
 73
     1
 74
     1
  7

 75
     0
147
0.5102934485059018
 76
     0
 77
     2
 78
   300
148
0.0104419782283003
149
0.0422767812652353
100
AcDbLayout
  1
Model
 70
     1
 71
     0
 10
0.0
 20
0.0
 11
12.0
 21
9.0
 12
0.0
 22
0.0
 32
0.0
 14
0.0
 24
0.0
 34
0.0
 15
0.0
 25
0.0
 35
0.0
146
0.0
 13
0.0
 23
0.0
 33
0.0
 16
1.0
 26
0.0
 36
0.0
 17
0.0
 27
1.0
 37
0.0
 76
     0
330
18
331
10C8
1001
ACAD_PSEXT
1000
HP DesignJet 500 24 by HP
1000
HP DesignJet 500 24 by HP
1000
USB001
1000

1070
     0
  0
MATERIAL
  5
10D0
102
{ACAD_REACTORS
330
F62
102
}
330
F62
100
AcDbMaterial
  1
ByBlock
 73
     1
 78
     1
172
     1
176
     1
270
     1
274
     1
 94
       63
  0
MATERIAL
  5
10CF
102
{ACAD_REACTORS
330
F62
102
}
330
F62
100
AcDbMaterial
  1
ByLayer
 73
     1
 78
     1
172
     1
176
     1
270
     1
274
     1
 94
       63
  0
MATERIAL
  5
10D1
102
{ACAD_REACTORS
330
F62
102
}
330
F62
100
AcDbMaterial
  1
Global
 73
     1
 78
     1
172
     1
176
     1
270
     1
274
     1
 94
       63
  0
MLEADERSTYLE
  5
1F8B
102
{ACAD_REACTORS
330
1F8A
102
}
330
1F8A
100
AcDbMLeaderStyle
179
     2
170
     2
171
     1
172
     0
 90
        2
 40
0.0
 41
0.0
173
     1
 91
-1056964608
340
12
 92
       -2
290
     1
 42
0.09
291
     1
 43
0.36
  3
Standard
 44
0.18
300

342
10
174
     1
178
     6
175
     1
176
     0
 93
-1056964608
 45
0.18
292
     0
297
     0
 46
0.18
 94
-1056964608
 47
1.0
 49
1.0
140
1.0
293
     1
141
0.0
294
     1
177
     0
142
1.0
295
     1
296
     0
143
0.125
271
     0
272
     9
273
     9
  0
MLINESTYLE
  5
1B
102
{ACAD_REACTORS
330
E
102
}
330
E
100
AcDbMlineStyle
  2
STANDARD
 70
     0
  3

 62
     0
 51
90.0
 52
90.0
 71
     2
 49
0.5
 62
   256
  6
BYLAYER
 49
-0.5
 62
   256
  6
BYLAYER
  0
ACDBPLACEHOLDER
  5
F61
102
{ACAD_REACTORS
330
F60
102
}
330
F60
  0
SCALE
  5
1F79
102
{ACAD_REACTORS
330
1F78
102
}
330
1F78
100
AcDbScale
 70
     0
300
1:1
140
1.0
141
1.0
290
     1
  0
SCALE
  5
1F7A
102
{ACAD_REACTORS
330
1F78
102
}
330
1F78
100
AcDbScale
 70
     0
300
1/128" = 1'-0"
140
0.0078125
141
12.0
290
     0
  0
SCALE
  5
1F7B
102
{ACAD_REACTORS
330
1F78
102
}
330
1F78
100
AcDbScale
 70
     0
300
1/64" = 1'-0"
140
0.015625
141
12.0
290
     0
  0
SCALE
  5
1F7C
102
{ACAD_REACTORS
330
1F78
102
}
330
1F78
100
AcDbScale
 70
     0
300
1/32" = 1'-0"
140
0.03125
141
12.0
290
     0
  0
SCALE
  5
1F7D
102
{ACAD_REACTORS
330
1F78
102
}
330
1F78
100
AcDbScale
 70
     0
300
1/16" = 1'-0"
140
0.0625
141
12.0
290
     0
  0
SCALE
  5
1F7E
102
{ACAD_REACTORS
330
1F78
102
}
330
1F78
100
AcDbScale
 70
     0
300
3/32" = 1'-0"
140
0.09375
141
12.0
290
     0
  0
SCALE
  5
1F7F
102
{ACAD_REACTORS
330
1F78
102
}
330
1F78
100
AcDbScale
 70
     0
300
1/8" = 1'-0"
140
0.125
141
12.0
290
     0
  0
SCALE
  5
1F80
102
{ACAD_REACTORS
330
1F78
102
}
330
1F78
100
AcDbScale
 70
     0
300
3/16" = 1'-0"
140
0.1875
141
12.0
290
     0
  0
SCALE
  5
1F81
102
{ACAD_REACTORS
330
1F78
102
}
330
1F78
100
AcDbScale
 70
     0
300
1/4" = 1'-0"
140
0.25
141
12.0
290
     0
  0
SCALE
  5
1F82
102
{ACAD_REACTORS
330
1F78
102
}
330
1F78
100
AcDbScale
 70
     0
300
3/8" = 1'-0"
140
0.375
141
12.0
290
     0
  0
SCALE
  5
1F83
102
{ACAD_REACTORS
330
1F78
102
}
330
1F78
100
AcDbScale
 70
     0
300
1/2" = 1'-0"
140
0.5
141
12.0
290
     0
  0
SCALE
  5
1F84
102
{ACAD_REACTORS
330
1F78
102
}
330
1F78
100
AcDbScale
 70
     0
300
3/4" = 1'-0"
140
0.75
141
12.0
290
     0
  0
SCALE
  5
1F85
102
{ACAD_REACTORS
330
1F78
102
}
330
1F78
100
AcDbScale
 70
     0
300
1" = 1'-0"
140
1.0
141
12.0
290
     0
  0
SCALE
  5
1F86
102
{ACAD_REACTORS
330
1F78
102
}
330
1F78
100
AcDbScale
 70
     0
300
1-1/2" = 1'-0"
140
1.5
141
12.0
290
     0
  0
SCALE
  5
1F87
102
{ACAD_REACTORS
330
1F78
102
}
330
1F78
100
AcDbScale
 70
     0
300
3" = 1'-0"
140
3.0
141
12.0
290
     0
  0
SCALE
  5
1F88
102
{ACAD_REACTORS
330
1F78
102
}
330
1F78
100
AcDbScale
 70
     0
300
6" = 1'-0"
140
6.0
141
12.0
290
     0
  0
SCALE
  5
1F89
102
{ACAD_REACTORS
330
1F78
102
}
330
1F78
100
AcDbScale
 70
     0
300
1'-0" = 1'-0"
140
12.0
141
12.0
290
     0
  0
TABLESTYLE
  5
F65
102
{ACAD_XDICTIONARY
360
1F9A
102
}
102
{ACAD_REACTORS
330
F64
102
}
330
F64
100
AcDbTableStyle
280
     0
  3
Standard
 70
     0
 71
     0
 40
0.06
 41
0.06
280
     0
281
     0
  7
STANDARD
140
0.18
170
     2
 62
     0
 63
     7
283
     0
 90
        4
 91
        0
  1

274
    -2
284
     1
 64
     0
275
    -2
285
     1
 65
     0
276
    -2
286
     1
 66
     0
277
    -2
287
     1
 67
     0
278
    -2
288
     1
 68
     0
279
    -2
289
     1
 69
     0
  7
STANDARD
140
0.25
170
     5
 62
     0
 63
     7
283
     0
 90
        4
 91
        0
  1

274
    -2
284
     1
 64
     0
275
    -2
285
     1
 65
     0
276
    -2
286
     1
 66
     0
277
    -2
287
     1
 67
     0
278
    -2
288
     1
 68
     0
279
    -2
289
     1
 69
     0
  7
STANDARD
140
0.18
170
     5
 62
     0
 63
     7
283
     0
 90
        4
 91
        0
  1

274
    -2
284
     1
 64
     0
275
    -2
285
     1
 65
     0
276
    -2
286
     1
 66
     0
277
    -2
287
     1
 67
     0
278
    -2
288
     1
 68
     0
279
    -2
289
     1
 69
     0
  0
VISUALSTYLE
  5
10D8
102
{ACAD_REACTORS
330
10D2
102
}
330
10D2
100
AcDbVisualStyle
  2
2dWireframe
 70
     4
177
     2
291
     0
 71
     0
176
     1
 72
     2
176
     1
 73
     0
176
     1
 90
        0
176
     1
 40
0.6
176
     1
 41
30.0
176
     1
 63
     7
176
     1
 74
     1
176
     1
 91
        4
176
     1
 64
     7
176
     1
 65
   257
176
     1
 75
     1
176
     1
175
     1
176
     1
 42
1.0
176
     1
 92
        0
176
     1
 66
   257
176
     1
 43
1.0
176
     1
 76
     1
176
     1
 77
     6
176
     1
 78
     2
176
     1
 67
     7
176
     1
 79
     5
176
     1
170
     0
176
     1
171
     0
176
     1
290
     0
176
     1
 93
        1
176
     1
 44
0.0
176
     1
173
     0
176
     1
  0
VISUALSTYLE
  5
10DA
102
{ACAD_REACTORS
330
10D2
102
}
330
10D2
100
AcDbVisualStyle
  2
3D Hidden
 70
     6
177
     2
291
     0
 71
     1
176
     1
 72
     2
176
     1
 73
     2
176
     1
 90
        0
176
     1
 40
0.6
176
     1
 41
30.0
176
     1
 63
     7
176
     1
 74
     2
176
     1
 91
        2
176
     1
 64
     7
176
     1
 65
   257
176
     1
 75
     2
176
     1
175
     1
176
     1
 42
40.0
176
     1
 92
        0
176
     1
 66
   257
176
     1
 43
1.0
176
     1
 76
     1
176
     1
 77
     6
176
     1
 78
     2
176
     1
 67
     7
176
     1
 79
     3
176
     1
170
     0
176
     1
171
     0
176
     1
290
     0
176
     1
 93
        1
176
     1
 44
0.0
176
     1
173
     0
176
     1
  0
VISUALSTYLE
  5
10D9
102
{ACAD_REACTORS
330
10D2
102
}
330
10D2
100
AcDbVisualStyle
  2
3dWireframe
 70
     5
177
     2
291
     0
 71
     0
176
     1
 72
     2
176
     1
 73
     0
176
     1
 90
        0
176
     1
 40
0.6
176
     1
 41
30.0
176
     1
 63
     7
176
     1
 74
     1
176
     1
 91
        4
176
     1
 64
     7
176
     1
 65
   257
176
     1
 75
     1
176
     1
175
     1
176
     1
 42
1.0
176
     1
 92
        0
176
     1
 66
   257
176
     1
 43
1.0
176
     1
 76
     1
176
     1
 77
     6
176
     1
 78
     2
176
     1
 67
     7
176
     1
 79
     5
176
     1
170
     0
176
     1
171
     0
176
     1
290
     0
176
     1
 93
        1
176
     1
 44
0.0
176
     1
173
     0
176
     1
  0
VISUALSTYLE
  5
10D7
102
{ACAD_REACTORS
330
10D2
102
}
330
10D2
100
AcDbVisualStyle
  2
Basic
 70
     7
177
     2
291
     1
 71
     1
176
     1
 72
     0
176
     1
 73
     1
176
     1
 90
        0
176
     1
 40
0.6
176
     1
 41
30.0
176
     1
 63
     7
176
     1
 74
     0
176
     1
 91
        4
176
     1
 64
     7
176
     1
 65
   257
176
     1
 75
     1
176
     1
175
     1
176
     1
 42
1.0
176
     1
 92
        8
176
     1
 66
     7
176
     1
 43
1.0
176
     1
 76
     1
176
     1
 77
     6
176
     1
 78
     2
176
     1
 67
     7
176
     1
 79
     5
176
     1
170
     0
176
     1
171
     0
176
     1
290
     0
176
     1
 93
        1
176
     1
 44
0.0
176
     1
173
     0
176
     1
  0
VISUALSTYLE
  5
10DE
102
{ACAD_REACTORS
330
10D2
102
}
330
10D2
100
AcDbVisualStyle
  2
Brighten
 70
    12
177
     2
291
     1
 71
     2
176
     1
 72
     2
176
     1
 73
     0
176
     1
 90
        0
176
     1
 40
0.6
176
     1
 41
30.0
176
     1
 63
     7
176
     1
 74
     1
176
     1
 91
        4
176
     1
 64
     7
176
     1
 65
   257
176
     1
 75
     1
176
     1
175
     1
176
     1
 42
1.0
176
     1
 92
        8
176
     1
 66
     7
176
     1
 43
1.0
176
     1
 76
     1
176
     1
 77
     6
176
     1
 78
     2
176
     1
 67
     7
176
     1
 79
     5
176
     1
170
     0
176
     1
171
     0
176
     1
290
     0
176
     1
 93
        1
176
     1
 44
50.0
176
     1
173
     0
176
     1
  0
VISUALSTYLE
  5
10E2
102
{ACAD_REACTORS
330
10D2
102
}
330
10D2
100
AcDbVisualStyle
  2
ColorChange
 70
    16
177
     2
291
     1
 71
     2
176
     1
 72
     2
176
     1
 73
     3
176
     1
 90
        0
176
     1
 40
0.6
176
     1
 41
30.0
176
     1
 63
     8
176
     1
 74
     1
176
     1
 91
        4
176
     1
 64
     7
176
     1
 65
   257
176
     1
 75
     1
176
     1
175
     1
176
     1
 42
1.0
176
     1
 92
        8
176
     1
 66
     8
176
     1
 43
1.0
176
     1
 76
     1
176
     1
 77
     6
176
     1
 78
     2
176
     1
 67
     7
176
     1
 79
     5
176
     1
170
     0
176
     1
171
     0
176
     1
290
     0
176
     1
 93
        1
176
     1
 44
0.0
176
     1
173
     0
176
     1
  0
VISUALSTYLE
  5
10DB
102
{ACAD_REACTORS
330
10D2
102
}
330
10D2
100
AcDbVisualStyle
  2
Conceptual
 70
     9
177
     2
291
     0
 71
     3
176
     1
 72
     2
176
     1
 73
     0
176
     1
 90
        0
176
     1
 40
0.6
176
     1
 41
30.0
176
     1
 63
     7
176
     1
 74
     2
176
     1
 91
        2
176
     1
 64
     7
176
     1
 65
   257
176
     1
 75
     1
176
     1
175
     1
176
     1
 42
40.0
176
     1
 92
        8
176
     1
 66
     7
176
     1
 43
1.0
176
     1
 76
     1
176
     1
 77
     6
176
     1
 78
     2
176
     1
 67
     7
176
     1
 79
     3
176
     1
170
     0
176
     1
171
     0
176
     1
290
     0
176
     1
 93
        1
176
     1
 44
0.0
176
     1
173
     0
176
     1
  0
VISUALSTYLE
  5
10DD
102
{ACAD_REACTORS
330
10D2
102
}
330
10D2
100
AcDbVisualStyle
  2
Dim
 70
    11
177
     2
291
     1
 71
     2
176
     1
 72
     2
176
     1
 73
     0
176
     1
 90
        0
176
     1
 40
0.6
176
     1
 41
30.0
176
     1
 63
     7
176
     1
 74
     1
176
     1
 91
        4
176
     1
 64
     7
176
     1
 65
   257
176
     1
 75
     1
176
     1
175
     1
176
     1
 42
1.0
176
     1
 92
        8
176
     1
 66
     7
176
     1
 43
1.0
176
     1
 76
     1
176
     1
 77
     6
176
     1
 78
     2
176
     1
 67
     7
176
     1
 79
     5
176
     1
170
     0
176
     1
171
     0
176
     1
290
     0
176
     1
 93
        1
176
     1
 44
-50.0
176
     1
173
     0
176
     1
  0
VISUALSTYLE
  5
1F77
102
{ACAD_REACTORS
330
10D2
102
}
330
10D2
100
AcDbVisualStyle
  2
EdgeColorOff
 70
    22
177
     2
291
     1
 71
     2
176
     0
 72
     2
176
     0
 73
     0
176
     0
 90
        0
176
     0
 40
0.6
176
     0
 41
30.0
176
     0
 63
     7
421
 16777215
176
     0
 74
     1
176
     0
 91
        4
176
     0
 64
     7
176
     0
 65
   257
176
     0
 75
     1
176
     0
175
     1
176
     0
 42
1.0
176
     0
 92
        8
176
     2
 66
     7
176
     0
 43
1.0
176
     0
 76
     1
176
     0
 77
     6
176
     0
 78
     2
176
     0
 67
     7
176
     0
 79
     5
176
     0
170
     0
176
     0
171
     0
176
     0
290
     0
176
     0
 93
        1
176
     0
 44
0.0
176
     0
173
     0
176
     0
  0
VISUALSTYLE
  5
10E1
102
{ACAD_REACTORS
330
10D2
102
}
330
10D2
100
AcDbVisualStyle
  2
Facepattern
 70
    15
177
     2
291
     1
 71
     2
176
     1
 72
     2
176
     1
 73
     0
176
     1
 90
        0
176
     1
 40
0.6
176
     1
 41
30.0
176
     1
 63
     7
176
     1
 74
     1
176
     1
 91
        4
176
     1
 64
     7
176
     1
 65
   257
176
     1
 75
     1
176
     1
175
     1
176
     1
 42
1.0
176
     1
 92
        8
176
     1
 66
     7
176
     1
 43
1.0
176
     1
 76
     1
176
     1
 77
     6
176
     1
 78
     2
176
     1
 67
     7
176
     1
 79
     5
176
     1
170
     0
176
     1
171
     0
176
     1
290
     0
176
     1
 93
        1
176
     1
 44
0.0
176
     1
173
     0
176
     1
  0
VISUALSTYLE
  5
10D3
102
{ACAD_REACTORS
330
10D2
102
}
330
10D2
100
AcDbVisualStyle
  2
Flat
 70
     0
177
     2
291
     1
 71
     2
176
     1
 72
     1
176
     1
 73
     1
176
     1
 90
        2
176
     1
 40
0.6
176
     1
 41
30.0
176
     1
 63
     7
176
     1
 74
     0
176
     1
 91
        4
176
     1
 64
     7
176
     1
 65
   257
176
     1
 75
     1
176
     1
175
     1
176
     1
 42
1.0
176
     1
 92
        8
176
     1
 66
     7
176
     1
 43
1.0
176
     1
 76
     1
176
     1
 77
     6
176
     1
 78
     2
176
     1
 67
     7
176
     1
 79
     5
176
     1
170
     0
176
     1
171
     0
176
     1
290
     0
176
     1
 93
       13
176
     1
 44
0.0
176
     1
173
     0
176
     1
  0
VISUALSTYLE
  5
10D4
102
{ACAD_REACTORS
330
10D2
102
}
330
10D2
100
AcDbVisualStyle
  2
FlatWithEdges
 70
     1
177
     2
291
     1
 71
     2
176
     1
 72
     1
176
     1
 73
     1
176
     1
 90
        2
176
     1
 40
0.6
176
     1
 41
30.0
176
     1
 63
     7
176
     1
 74
     1
176
     1
 91
        4
176
     1
 64
     7
176
     1
 65
   257
176
     1
 75
     1
176
     1
175
     1
176
     1
 42
1.0
176
     1
 92
        0
176
     1
 66
   257
176
     1
 43
1.0
176
     1
 76
     1
176
     1
 77
     6
176
     1
 78
     2
176
     1
 67
     7
176
     1
 79
     5
176
     1
170
     0
176
     1
171
     0
176
     1
290
     0
176
     1
 93
       13
176
     1
 44
0.0
176
     1
173
     0
176
     1
  0
VISUALSTYLE
  5
10D5
102
{ACAD_REACTORS
330
10D2
102
}
330
10D2
100
AcDbVisualStyle
  2
Gouraud
 70
     2
177
     2
291
     1
 71
     2
176
     1
 72
     2
176
     1
 73
     1
176
     1
 90
        2
176
     1
 40
0.6
176
     1
 41
30.0
176
     1
 63
     7
176
     1
 74
     0
176
     1
 91
        4
176
     1
 64
     7
176
     1
 65
   257
176
     1
 75
     1
176
     1
175
     1
176
     1
 42
1.0
176
     1
 92
        0
176
     1
 66
     7
176
     1
 43
1.0
176
     1
 76
     1
176
     1
 77
     6
176
     1
 78
     2
176
     1
 67
     7
176
     1
 79
     5
176
     1
170
     0
176
     1
171
     0
176
     1
290
     0
176
     1
 93
       13
176
     1
 44
0.0
176
     1
173
     0
176
     1
  0
VISUALSTYLE
  5
10D6
102
{ACAD_REACTORS
330
10D2
102
}
330
10D2
100
AcDbVisualStyle
  2
GouraudWithEdges
 70
     3
177
     2
291
     1
 71
     2
176
     1
 72
     2
176
     1
 73
     1
176
     1
 90
        2
176
     1
 40
0.6
176
     1
 41
30.0
176
     1
 63
     7
176
     1
 74
     1
176
     1
 91
        4
176
     1
 64
     7
176
     1
 65
   257
176
     1
 75
     1
176
     1
175
     1
176
     1
 42
1.0
176
     1
 92
        0
176
     1
 66
   257
176
     1
 43
1.0
176
     1
 76
     1
176
     1
 77
     6
176
     1
 78
     2
176
     1
 67
     7
176
     1
 79
     5
176
     1
170
     0
176
     1
171
     0
176
     1
290
     0
176
     1
 93
       13
176
     1
 44
0.0
176
     1
173
     0
176
     1
  0
VISUALSTYLE
  5
1F6F
102
{ACAD_REACTORS
330
10D2
102
}
330
10D2
100
AcDbVisualStyle
  2
Hidden
 70
     6
177
     2
291
     0
 71
     1
176
     1
 72
     2
176
     1
 73
     2
176
     1
 90
        0
176
     1
 40
0.6
176
     1
 41
30.0
176
     1
 63
     7
421
 16777215
176
     1
 74
     2
176
     1
 91
        2
176
     1
 64
     7
176
     1
 65
   257
176
     1
 75
     2
176
     1
175
     1
176
     1
 42
40.0
176
     1
 92
        0
176
     1
 66
   257
176
     1
 43
1.0
176
     1
 76
     1
176
     1
 77
     6
176
     1
 78
     2
176
     1
 67
     7
176
     1
 79
     3
176
     1
170
     0
176
     1
171
     0
176
     1
290
     0
176
     1
 93
        1
176
     1
 44
0.0
176
     1
173
     0
176
     1
  0
VISUALSTYLE
  5
1F75
102
{ACAD_REACTORS
330
10D2
102
}
330
10D2
100
AcDbVisualStyle
  2
JitterOff
 70
    20
177
     2
291
     1
 71
     2
176
     0
 72
     2
176
     0
 73
     0
176
     0
 90
        0
176
     0
 40
0.6
176
     0
 41
30.0
176
     0
 63
     7
421
 16777215
176
     0
 74
     1
176
     0
 91
        4
176
     0
 64
     7
176
     0
 65
   257
176
     0
 75
     1
176
     0
175
     1
176
     0
 42
1.0
176
     0
 92
       10
176
     2
 66
     7
176
     0
 43
1.0
176
     0
 76
     1
176
     0
 77
     6
176
     0
 78
     2
176
     0
 67
     7
176
     0
 79
     5
176
     0
170
     0
176
     0
171
     0
176
     0
290
     0
176
     0
 93
        1
176
     0
 44
0.0
176
     0
173
     0
176
     0
  0
VISUALSTYLE
  5
10E0
102
{ACAD_REACTORS
330
10D2
102
}
330
10D2
100
AcDbVisualStyle
  2
Linepattern
 70
    14
177
     2
291
     1
 71
     2
176
     1
 72
     2
176
     1
 73
     0
176
     1
 90
        0
176
     1
 40
0.6
176
     1
 41
30.0
176
     1
 63
     7
176
     1
 74
     1
176
     1
 91
        4
176
     1
 64
     7
176
     1
 65
   257
176
     1
 75
     7
176
     1
175
     7
176
     1
 42
1.0
176
     1
 92
        8
176
     1
 66
     7
176
     1
 43
1.0
176
     1
 76
     1
176
     1
 77
     6
176
     1
 78
     2
176
     1
 67
     7
176
     1
 79
     5
176
     1
170
     0
176
     1
171
     0
176
     1
290
     0
176
     1
 93
        1
176
     1
 44
0.0
176
     1
173
     0
176
     1
  0
VISUALSTYLE
  5
1F76
102
{ACAD_REACTORS
330
10D2
102
}
330
10D2
100
AcDbVisualStyle
  2
OverhangOff
 70
    21
177
     2
291
     1
 71
     2
176
     0
 72
     2
176
     0
 73
     0
176
     0
 90
        0
176
     0
 40
0.6
176
     0
 41
30.0
176
     0
 63
     7
421
 16777215
176
     0
 74
     1
176
     0
 91
        4
176
     0
 64
     7
176
     0
 65
   257
176
     0
 75
     1
176
     0
175
     1
176
     0
 42
1.0
176
     0
 92
        9
176
     2
 66
     7
176
     0
 43
1.0
176
     0
 76
     1
176
     0
 77
     6
176
     0
 78
     2
176
     0
 67
     7
176
     0
 79
     5
176
     0
170
     0
176
     0
171
     0
176
     0
290
     0
176
     0
 93
        1
176
     0
 44
0.0
176
     0
173
     0
176
     0
  0
VISUALSTYLE
  5
10DC
102
{ACAD_REACTORS
330
10D2
102
}
330
10D2
100
AcDbVisualStyle
  2
Realistic
 70
     8
177
     2
291
     0
 71
     2
176
     1
 72
     2
176
     1
 73
     0
176
     1
 90
        0
176
     1
 40
0.6
176
     1
 41
30.0
176
     1
 63
     7
176
     1
 74
     1
176
     1
 91
        0
176
     1
 64
     7
176
     1
 65
   257
176
     1
 75
     1
176
     1
175
     1
176
     1
 42
1.0
176
     1
 92
        8
176
     1
 66
     8
176
     1
 43
1.0
176
     1
 76
     1
176
     1
 77
     6
176
     1
 78
     2
176
     1
 67
     7
176
     1
 79
     5
176
     1
170
     0
176
     1
171
     0
176
     1
290
     0
176
     1
 93
       13
176
     1
 44
0.0
176
     1
173
     0
176
     1
  0
VISUALSTYLE
  5
1F74
102
{ACAD_REACTORS
330
10D2
102
}
330
10D2
100
AcDbVisualStyle
  2
Shaded
 70
    27
177
     2
291
     0
 71
     2
176
     1
 72
     2
176
     1
 73
     1
176
     1
 90
        2
176
     1
 40
0.6
176
     1
 41
30.0
176
     1
 63
     7
421
 16777215
176
     1
 74
     0
176
     1
 91
        4
176
     1
 64
     7
176
     1
 65
   257
176
     1
 75
     1
176
     1
175
     1
176
     1
 42
1.0
176
     1
 92
        8
176
     1
 66
   257
176
     1
 43
1.0
176
     1
 76
     1
176
     1
 77
     6
176
     1
 78
     2
176
     1
 67
     8
425
  7895160
176
     1
 79
     3
176
     1
170
     0
176
     1
171
     0
176
     1
290
     0
176
     1
 93
        5
176
     1
 44
0.0
176
     1
173
     0
176
     1
  0
VISUALSTYLE
  5
1F73
102
{ACAD_REACTORS
330
10D2
102
}
330
10D2
100
AcDbVisualStyle
  2
Shaded with edges
 70
    26
177
     2
291
     0
 71
     2
176
     1
 72
     2
176
     1
 73
     1
176
     1
 90
        2
176
     1
 40
0.6
176
     1
 41
30.0
176
     1
 63
     7
421
 16777215
176
     1
 74
     1
176
     1
 91
       10
176
     1
 64
     7
176
     1
 65
   257
176
     1
 75
     2
176
     1
175
     1
176
     1
 42
1.0
176
     1
 92
        8
176
     1
 66
   257
176
     1
 43
1.0
176
     1
 76
     1
176
     1
 77
     6
176
     1
 78
     2
176
     1
 67
     7
176
     1
 79
     3
176
     1
170
     0
176
     1
171
     0
176
     1
290
     0
176
     1
 93
        5
176
     1
 44
0.0
176
     1
173
     0
176
     1
  0
VISUALSTYLE
  5
1F70
102
{ACAD_REACTORS
330
10D2
102
}
330
10D2
100
AcDbVisualStyle
  2
Shades of Gray
 70
    23
177
     2
291
     0
 71
     2
176
     1
 72
     2
176
     1
 73
     3
176
     1
 90
        0
176
     1
 40
0.6
176
     1
 41
30.0
176
     1
 63
     7
421
 16777215
176
     1
 74
     2
176
     1
 91
        2
176
     1
 64
     7
176
     1
 65
     7
176
     1
 75
     1
176
     1
175
     1
176
     1
 42
40.0
176
     1
 92
        8
176
     1
 66
     7
176
     1
 43
1.0
176
     1
 76
     1
176
     1
 77
     6
176
     1
 78
     2
176
     1
 67
     7
176
     1
 79
     3
176
     1
170
     0
176
     1
171
     0
176
     1
290
     0
176
     1
 93
        1
176
     1
 44
0.0
176
     1
173
     0
176
     1
  0
VISUALSTYLE
  5
1F71
102
{ACAD_REACTORS
330
10D2
102
}
330
10D2
100
AcDbVisualStyle
  2
Sketchy
 70
    24
177
     2
291
     0
 71
     1
176
     1
 72
     2
176
     1
 73
     2
176
     1
 90
        0
176
     1
 40
0.6
176
     1
 41
30.0
176
     1
 63
     7
421
 16777215
176
     1
 74
     2
176
     1
 91
        2
176
     1
 64
     7
176
     1
 65
     7
176
     1
 75
     1
176
     1
175
     1
176
     1
 42
40.0
176
     1
 92
       11
176
     1
 66
     7
176
     1
 43
1.0
176
     1
 76
     1
176
     1
 77
     6
176
     1
 78
     2
176
     1
 67
     7
176
     1
 79
     6
176
     1
170
     0
176
     1
171
     0
176
     1
290
     0
176
     1
 93
        1
176
     1
 44
0.0
176
     1
173
     0
176
     1
  0
VISUALSTYLE
  5
10DF
102
{ACAD_REACTORS
330
10D2
102
}
330
10D2
100
AcDbVisualStyle
  2
Thicken
 70
    13
177
     2
291
     1
 71
     2
176
     1
 72
     2
176
     1
 73
     0
176
     1
 90
        0
176
     1
 40
0.6
176
     1
 41
30.0
176
     1
 63
     7
176
     1
 74
     1
176
     1
 91
        4
176
     1
 64
     7
176
     1
 65
   257
176
     1
 75
     1
176
     1
175
     1
176
     1
 42
1.0
176
     1
 92
       12
176
     1
 66
     7
176
     1
 43
1.0
176
     1
 76
     1
176
     1
 77
     6
176
     1
 78
     2
176
     1
 67
     7
176
     1
 79
     5
176
     1
170
     0
176
     1
171
     0
176
     1
290
     0
176
     1
 93
        1
176
     1
 44
0.0
176
     1
173
     0
176
     1
  0
VISUALSTYLE
  5
1F6E
102
{ACAD_REACTORS
330
10D2
102
}
330
10D2
100
AcDbVisualStyle
  2
Wireframe
 70
     5
177
     2
291
     0
 71
     0
176
     1
 72
     2
176
     1
 73
     0
176
     1
 90
        0
176
     1
 40
0.6
176
     1
 41
30.0
176
     1
 63
     7
421
 16777215
176
     1
 74
     1
176
     1
 91
        4
176
     1
 64
     7
176
     1
 65
   257
176
     1
 75
     1
176
     1
175
     1
176
     1
 42
1.0
176
     1
 92
        0
176
     1
 66
   257
176
     1
 43
1.0
176
     1
 76
     1
176
     1
 77
     6
176
     1
 78
     2
176
     1
 67
     7
176
     1
 79
     3
176
     1
170
     0
176
     1
171
     0
176
     1
290
     0
176
     1
 93
        1
176
     1
 44
0.0
176
     1
173
     0
176
     1
  0
VISUALSTYLE
  5
1F72
102
{ACAD_REACTORS
330
10D2
102
}
330
10D2
100
AcDbVisualStyle
  2
X-Ray
 70
    25
177
     2
291
     0
 71
     2
176
     1
 72
     2
176
     1
 73
     1
176
     1
 90
        1
176
     1
 40
0.5
176
     1
 41
30.0
176
     1
 63
     7
421
 16777215
176
     1
 74
     1
176
     1
 91
        0
176
     1
 64
     7
176
     1
 65
   257
176
     1
 75
     1
176
     1
175
     1
176
     1
 42
1.0
176
     1
 92
        8
176
     1
 66
     7
176
     1
 43
1.0
176
     1
 76
     1
176
     1
 77
     6
176
     1
 78
     2
176
     1
 67
     7
176
     1
 79
     3
176
     1
170
     0
176
     1
171
     0
176
     1
290
     0
176
     1
 93
       13
176
     1
 44
0.0
176
     1
173
     0
176
     1
  0
DICTIONARYVAR
  5
1F96
102
{ACAD_REACTORS
330
101C
102
}
330
101C
100
DictionaryVariables
280
     0
  1
1:1
  0
DICTIONARYVAR
  5
1F94
102
{ACAD_REACTORS
330
101C
102
}
330
101C
100
DictionaryVariables
280
     0
  1
STANDARD
  0
DICTIONARYVAR
  5
101D
102
{ACAD_REACTORS
330
101C
102
}
330
101C
100
DictionaryVariables
280
     0
  1
STANDARD
  0
DICTIONARYVAR
  5
101E
102
{ACAD_REACTORS
330
101C
102
}
330
101C
100
DictionaryVariables
280
     0
  1
1
  0
DICTIONARYVAR
  5
1F6C
102
{ACAD_REACTORS
330
101C
102
}
330
101C
100
DictionaryVariables
280
     0
  1
0
  0
DICTIONARYVAR
  5
1F98
102
{ACAD_REACTORS
330
101C
102
}
330
101C
100
DictionaryVariables
280
     0
  1
1
  0
DICTIONARYVAR
  5
1F99
102
{ACAD_REACTORS
330
101C
102
}
330
101C
100
DictionaryVariables
280
     0
  1
15
  0
DICTIONARYVAR
  5
1F97
102
{ACAD_REACTORS
330
101C
102
}
330
101C
100
DictionaryVariables
280
     0
  1
0
  0
DICTIONARYVAR
  5
1F95
102
{ACAD_REACTORS
330
101C
102
}
330
101C
100
DictionaryVariables
280
     0
  1
0
  0
DICTIONARYVAR
  5
101F
102
{ACAD_REACTORS
330
101C
102
}
330
101C
100
DictionaryVariables
280
     0
  1

  0
DICTIONARYVAR
  5
1F6B
102
{ACAD_REACTORS
330
101C
102
}
330
101C
100
DictionaryVariables
280
     0
  1
127
  0
DICTIONARY
  5
FD2
102
{ACAD_REACTORS
330
FC5
102
}
330
FC5
100
AcDbDictionary
281
     1
  0
XRECORD
  5
FF1
102
{ACAD_REACTORS
330
FC5
102
}
330
FC5
100
AcDbXrecord
280
     1
 90
-1023410169
  0
DICTIONARY
  5
1F9A
330
F65
100
AcDbDictionary
280
     1
281
     1
  3
ACAD_ROUNDTRIP_2008_TABLESTYLE_CELLSTYLEMAP
360
1F9B
  0
CELLSTYLEMAP
  5
1F9B
102
{ACAD_REACTORS
330
1F9A
102
}
330
1F9A
100
AcDbCellStyleMap
 90
        3
300
CELLSTYLE
  1
TABLEFORMAT_BEGIN
 90
        5
170
     1
 91
        0
 92
    32768
 62
   257
 93
        1
300
CONTENTFORMAT
  1
CONTENTFORMAT_BEGIN
 90
        0
 91
        0
 92
        4
 93
        0
300

 40
0.0
140
1.0
 94
        5
 62
     0
340
10
144
0.25
309
CONTENTFORMAT_END
171
     0
 94
        6
 95
        1
302
GRIDFORMAT
  1
GRIDFORMAT_BEGIN
 90
        0
 91
        1
 62
     0
 92
       -2
340
0
 93
        0
 40
0.045
309
GRIDFORMAT_END
 95
        2
302
GRIDFORMAT
  1
GRIDFORMAT_BEGIN
 90
        0
 91
        1
 62
     0
 92
       -2
340
0
 93
        0
 40
0.045
309
GRIDFORMAT_END
 95
        4
302
GRIDFORMAT
  1
GRIDFORMAT_BEGIN
 90
        0
 91
        1
 62
     0
 92
       -2
340
0
 93
        0
 40
0.045
309
GRIDFORMAT_END
 95
        8
302
GRIDFORMAT
  1
GRIDFORMAT_BEGIN
 90
        0
 91
        1
 62
     0
 92
       -2
340
0
 93
        0
 40
0.045
309
GRIDFORMAT_END
 95
       16
302
GRIDFORMAT
  1
GRIDFORMAT_BEGIN
 90
        0
 91
        1
 62
     0
 92
       -2
340
0
 93
        0
 40
0.045
309
GRIDFORMAT_END
 95
       32
302
GRIDFORMAT
  1
GRIDFORMAT_BEGIN
 90
        0
 91
        1
 62
     0
 92
       -2
340
0
 93
        0
 40
0.045
309
GRIDFORMAT_END
309
TABLEFORMAT_END
  1
CELLSTYLE_BEGIN
 90
        1
 91
        1
300
_TITLE
309
CELLSTYLE_END
300
CELLSTYLE
  1
TABLEFORMAT_BEGIN
 90
        5
170
     1
 91
        0
 92
        0
 62
   257
 93
        1
300
CONTENTFORMAT
  1
CONTENTFORMAT_BEGIN
 90
        0
 91
        0
 92
        4
 93
        0
300

 40
0.0
140
1.0
 94
        5
 62
     0
340
10
144
0.18
309
CONTENTFORMAT_END
171
     0
 94
        6
 95
        1
302
GRIDFORMAT
  1
GRIDFORMAT_BEGIN
 90
        0
 91
        1
 62
     0
 92
       -2
340
0
 93
        0
 40
0.045
309
GRIDFORMAT_END
 95
        2
302
GRIDFORMAT
  1
GRIDFORMAT_BEGIN
 90
        0
 91
        1
 62
     0
 92
       -2
340
0
 93
        0
 40
0.045
309
GRIDFORMAT_END
 95
        4
302
GRIDFORMAT
  1
GRIDFORMAT_BEGIN
 90
        0
 91
        1
 62
     0
 92
       -2
340
0
 93
        0
 40
0.045
309
GRIDFORMAT_END
 95
        8
302
GRIDFORMAT
  1
GRIDFORMAT_BEGIN
 90
        0
 91
        1
 62
     0
 92
       -2
340
0
 93
        0
 40
0.045
309
GRIDFORMAT_END
 95
       16
302
GRIDFORMAT
  1
GRIDFORMAT_BEGIN
 90
        0
 91
        1
 62
     0
 92
       -2
340
0
 93
        0
 40
0.045
309
GRIDFORMAT_END
 95
       32
302
GRIDFORMAT
  1
GRIDFORMAT_BEGIN
 90
        0
 91
        1
 62
     0
 92
       -2
340
0
 93
        0
 40
0.045
309
GRIDFORMAT_END
309
TABLEFORMAT_END
  1
CELLSTYLE_BEGIN
 90
        2
 91
        1
300
_HEADER
309
CELLSTYLE_END
300
CELLSTYLE
  1
TABLEFORMAT_BEGIN
 90
        5
170
     1
 91
        0
 92
        0
 62
   257
 93
        1
300
CONTENTFORMAT
  1
CONTENTFORMAT_BEGIN
 90
        0
 91
        0
 92
        4
 93
        0
300

 40
0.0
140
1.0
 94
        2
 62
     0
340
10
144
0.18
309
CONTENTFORMAT_END
171
     0
 94
        6
 95
        1
302
GRIDFORMAT
  1
GRIDFORMAT_BEGIN
 90
        0
 91
        1
 62
     0
 92
       -2
340
0
 93
        0
 40
0.045
309
GRIDFORMAT_END
 95
        2
302
GRIDFORMAT
  1
GRIDFORMAT_BEGIN
 90
        0
 91
        1
 62
     0
 92
       -2
340
0
 93
        0
 40
0.045
309
GRIDFORMAT_END
 95
        4
302
GRIDFORMAT
  1
GRIDFORMAT_BEGIN
 90
        0
 91
        1
 62
     0
 92
       -2
340
0
 93
        0
 40
0.045
309
GRIDFORMAT_END
 95
        8
302
GRIDFORMAT
  1
GRIDFORMAT_BEGIN
 90
        0
 91
        1
 62
     0
 92
       -2
340
0
 93
        0
 40
0.045
309
GRIDFORMAT_END
 95
       16
302
GRIDFORMAT
  1
GRIDFORMAT_BEGIN
 90
        0
 91
        1
 62
     0
 92
       -2
340
0
 93
        0
 40
0.045
309
GRIDFORMAT_END
 95
       32
302
GRIDFORMAT
  1
GRIDFORMAT_BEGIN
 90
        0
 91
        1
 62
     0
 92
       -2
340
0
 93
        0
 40
0.045
309
GRIDFORMAT_END
309
TABLEFORMAT_END
  1
CELLSTYLE_BEGIN
 90
        3
 91
        2
300
_DATA
309
CELLSTYLE_END
  0
ENDSEC
  0
EOF
