  0
SECTION
  2
HEADER
  9
$ACADVER
  1
AC1024
  9
$ACADMAINTVER
 70
    37
  9
$DWGCODEPAGE
  3
ANSI_1252
  9
$LASTSAVEDBY
  1
jtigges
  9
$INSBASE
 10
0.0
 20
0.0
 30
0.0
  9
$EXTMIN
 10
-0.0013872384801914
 20
-0.0023011825535662
 30
-0.0000000000000058
  9
$EXTMAX
 10
64.00295401517144
 20
41.75145542181428
 30
0.0000000000000104
  9
$LIMMIN
 10
0.0
 20
0.0
  9
$LIMMAX
 10
12.0
 20
9.0
  9
$ORTHOMODE
 70
     0
  9
$REGENMODE
 70
     1
  9
$FILLMODE
 70
     1
  9
$QTEXTMODE
 70
     0
  9
$MIRRTEXT
 70
     0
  9
$LTSCALE
 40
1.5
  9
$ATTMODE
 70
     1
  9
$TEXTSIZE
 40
0.187
  9
$TRACEWID
 40
0.05
  9
$TEXTSTYLE
  7
STANDARD
  9
$CLAYER
  8
0
  9
$CELTYPE
  6
BYLAYER
  9
$CECOLOR
 62
   256
  9
$CELTSCALE
 40
1.0
  9
$DISPSILH
 70
     0
  9
$DIMSCALE
 40
1.0
  9
$DIMASZ
 40
0.1875
  9
$DIMEXO
 40
0.1875
  9
$DIMDLI
 40
0.375
  9
$DIMRND
 40
0.0
  9
$DIMDLE
 40
0.0
  9
$DIMEXE
 40
0.1875
  9
$DIMTP
 40
0.0
  9
$DIMTM
 40
0.0
  9
$DIMTXT
 40
0.1875
  9
$DIMCEN
 40
0.09375
  9
$DIMTSZ
 40
0.0
  9
$DIMTOL
 70
     0
  9
$DIMLIM
 70
     0
  9
$DIMTIH
 70
     1
  9
$DIMTOH
 70
     1
  9
$DIMSE1
 70
     0
  9
$DIMSE2
 70
     0
  9
$DIMTAD
 70
     0
  9
$DIMZIN
 70
     0
  9
$DIMBLK
  1

  9
$DIMASO
 70
     1
  9
$DIMSHO
 70
     0
  9
$DIMPOST
  1

  9
$DIMAPOST
  1

  9
$DIMALT
 70
     0
  9
$DIMALTD
 70
     2
  9
$DIMALTF
 40
25.4
  9
$DIMLFAC
 40
1.0
  9
$DIMTOFL
 70
     0
  9
$DIMTVP
 40
0.0
  9
$DIMTIX
 70
     0
  9
$DIMSOXD
 70
     0
  9
$DIMSAH
 70
     0
  9
$DIMBLK1
  1

  9
$DIMBLK2
  1

  9
$DIMSTYLE
  2
STANDARD
  9
$DIMCLRD
 70
     0
  9
$DIMCLRE
 70
     0
  9
$DIMCLRT
 70
     0
  9
$DIMTFAC
 40
1.0
  9
$DIMGAP
 40
0.1875
  9
$DIMJUST
 70
     0
  9
$DIMSD1
 70
     0
  9
$DIMSD2
 70
     0
  9
$DIMTOLJ
 70
     1
  9
$DIMTZIN
 70
     0
  9
$DIMALTZ
 70
     0
  9
$DIMALTTZ
 70
     0
  9
$DIMUPT
 70
     0
  9
$DIMDEC
 70
     5
  9
$DIMTDEC
 70
     4
  9
$DIMALTU
 70
     2
  9
$DIMALTTD
 70
     2
  9
$DIMTXSTY
  7
STANDARD
  9
$DIMAUNIT
 70
     0
  9
$DIMADEC
 70
     0
  9
$DIMALTRND
 40
0.0
  9
$DIMAZIN
 70
     0
  9
$DIMDSEP
 70
    46
  9
$DIMATFIT
 70
     0
  9
$DIMFRAC
 70
     2
  9
$DIMLDRBLK
  1

  9
$DIMLUNIT
 70
     5
  9
$DIMLWD
 70
    -2
  9
$DIMLWE
 70
    -2
  9
$DIMTMOVE
 70
     0
  9
$DIMFXL
 40
1.0
  9
$DIMFXLON
 70
     0
  9
$DIMJOGANG
 40
0.7853981633974483
  9
$DIMTFILL
 70
     0
  9
$DIMTFILLCLR
 70
     0
  9
$DIMARCSYM
 70
     0
  9
$DIMLTYPE
  6

  9
$DIMLTEX1
  6

  9
$DIMLTEX2
  6

  9
$DIMTXTDIRECTION
 70
     0
  9
$LUNITS
 70
     5
  9
$LUPREC
 70
     5
  9
$SKETCHINC
 40
0.1
  9
$FILLETRAD
 40
0.0
  9
$AUNITS
 70
     1
  9
$AUPREC
 70
     4
  9
$MENU
  1
acad
  9
$ELEVATION
 40
0.0
  9
$PELEVATION
 40
0.0
  9
$THICKNESS
 40
0.0
  9
$LIMCHECK
 70
     0
  9
$CHAMFERA
 40
0.0
  9
$CHAMFERB
 40
0.0
  9
$CHAMFERC
 40
0.0
  9
$CHAMFERD
 40
0.0
  9
$SKPOLY
 70
     0
  9
$TDCREATE
 40
2449968.599981945
  9
$TDUCREATE
 40
2449968.849981945
  9
$TDUPDATE
 40
2456722.331380764
  9
$TDUUPDATE
 40
2456722.581380764
  9
$TDINDWG
 40
0.0435572569
  9
$TDUSRTIMER
 40
0.0435572569
  9
$USRTIMER
 70
     1
  9
$ANGBASE
 50
0.0
  9
$ANGDIR
 70
     0
  9
$PDMODE
 70
     0
  9
$PDSIZE
 40
0.0
  9
$PLINEWID
 40
0.0
  9
$SPLFRAME
 70
     0
  9
$SPLINETYPE
 70
     6
  9
$SPLINESEGS
 70
     8
  9
$HANDSEED
  5
16E8
  9
$SURFTAB1
 70
     6
  9
$SURFTAB2
 70
     6
  9
$SURFTYPE
 70
     6
  9
$SURFU
 70
     6
  9
$SURFV
 70
     6
  9
$UCSBASE
  2

  9
$UCSNAME
  2

  9
$UCSORG
 10
0.0
 20
0.0
 30
0.0
  9
$UCSXDIR
 10
1.0
 20
0.0
 30
0.0
  9
$UCSYDIR
 10
0.0
 20
1.0
 30
0.0
  9
$UCSORTHOREF
  2

  9
$UCSORTHOVIEW
 70
     0
  9
$UCSORGTOP
 10
0.0
 20
0.0
 30
0.0
  9
$UCSORGBOTTOM
 10
0.0
 20
0.0
 30
0.0
  9
$UCSORGLEFT
 10
0.0
 20
0.0
 30
0.0
  9
$UCSORGRIGHT
 10
0.0
 20
0.0
 30
0.0
  9
$UCSORGFRONT
 10
0.0
 20
0.0
 30
0.0
  9
$UCSORGBACK
 10
0.0
 20
0.0
 30
0.0
  9
$PUCSBASE
  2

  9
$PUCSNAME
  2

  9
$PUCSORG
 10
0.0
 20
0.0
 30
0.0
  9
$PUCSXDIR
 10
1.0
 20
0.0
 30
0.0
  9
$PUCSYDIR
 10
0.0
 20
1.0
 30
0.0
  9
$PUCSORTHOREF
  2

  9
$PUCSORTHOVIEW
 70
     0
  9
$PUCSORGTOP
 10
0.0
 20
0.0
 30
0.0
  9
$PUCSORGBOTTOM
 10
0.0
 20
0.0
 30
0.0
  9
$PUCSORGLEFT
 10
0.0
 20
0.0
 30
0.0
  9
$PUCSORGRIGHT
 10
0.0
 20
0.0
 30
0.0
  9
$PUCSORGFRONT
 10
0.0
 20
0.0
 30
0.0
  9
$PUCSORGBACK
 10
0.0
 20
0.0
 30
0.0
  9
$USERI1
 70
     0
  9
$USERI2
 70
     0
  9
$USERI3
 70
     0
  9
$USERI4
 70
     0
  9
$USERI5
 70
     0
  9
$USERR1
 40
0.0
  9
$USERR2
 40
0.0
  9
$USERR3
 40
0.0
  9
$USERR4
 40
0.0
  9
$USERR5
 40
0.0
  9
$WORLDVIEW
 70
     1
  9
$SHADEDGE
 70
     3
  9
$SHADEDIF
 70
    70
  9
$TILEMODE
 70
     1
  9
$MAXACTVP
 70
    16
  9
$PINSBASE
 10
0.0
 20
0.0
 30
0.0
  9
$PLIMCHECK
 70
     0
  9
$PEXTMIN
 10
1.000000000000000E+20
 20
1.000000000000000E+20
 30
1.000000000000000E+20
  9
$PEXTMAX
 10
-1.000000000000000E+20
 20
-1.000000000000000E+20
 30
-1.000000000000000E+20
  9
$PLIMMIN
 10
0.0
 20
0.0
  9
$PLIMMAX
 10
12.0
 20
9.0
  9
$UNITMODE
 70
     0
  9
$VISRETAIN
 70
     0
  9
$PLINEGEN
 70
     0
  9
$PSLTSCALE
 70
     0
  9
$TREEDEPTH
 70
  3020
  9
$CMLSTYLE
  2
STANDARD
  9
$CMLJUST
 70
     0
  9
$CMLSCALE
 40
1.0
  9
$PROXYGRAPHICS
 70
     1
  9
$MEASUREMENT
 70
     0
  9
$CELWEIGHT
370
    -1
  9
$ENDCAPS
280
     0
  9
$JOINSTYLE
280
     0
  9
$LWDISPLAY
290
     0
  9
$INSUNITS
 70
     0
  9
$HYPERLINKBASE
  1

  9
$STYLESHEET
  1

  9
$XEDIT
290
     1
  9
$CEPSNTYPE
380
     0
  9
$PSTYLEMODE
290
     1
  9
$FINGERPRINTGUID
  2
{41194B61-9F6D-4CD1-A4D4-89A079CE5CDC}
  9
$VERSIONGUID
  2
{F898E720-89DD-4209-9065-433C818ADE55}
  9
$EXTNAMES
290
     1
  9
$PSVPSCALE
 40
0.0
  9
$OLESTARTUP
290
     0
  9
$SORTENTS
280
   127
  9
$INDEXCTL
280
     0
  9
$HIDETEXT
280
     0
  9
$XCLIPFRAME
280
     0
  9
$HALOGAP
280
     0
  9
$OBSCOLOR
 70
   257
  9
$OBSLTYPE
280
     0
  9
$INTERSECTIONDISPLAY
280
     0
  9
$INTERSECTIONCOLOR
 70
   257
  9
$DIMASSOC
280
     1
  9
$PROJECTNAME
  1

  9
$CAMERADISPLAY
290
     0
  9
$LENSLENGTH
 40
50.0
  9
$CAMERAHEIGHT
 40
0.0
  9
$STEPSPERSEC
 40
2.0
  9
$STEPSIZE
 40
6.0
  9
$3DDWFPREC
 40
2.0
  9
$PSOLWIDTH
 40
0.25
  9
$PSOLHEIGHT
 40
4.0
  9
$LOFTANG1
 40
1.570796326794896
  9
$LOFTANG2
 40
1.570796326794896
  9
$LOFTMAG1
 40
0.0
  9
$LOFTMAG2
 40
0.0
  9
$LOFTPARAM
 70
     7
  9
$LOFTNORMALS
280
     1
  9
$LATITUDE
 40
37.795
  9
$LONGITUDE
 40
-122.394
  9
$NORTHDIRECTION
 40
0.0
  9
$TIMEZONE
 70
 -8000
  9
$LIGHTGLYPHDISPLAY
280
     1
  9
$TILEMODELIGHTSYNCH
280
     1
  9
$CMATERIAL
347
15E2
  9
$SOLIDHIST
280
     1
  9
$SHOWHIST
280
     1
  9
$DWFFRAME
280
     2
  9
$DGNFRAME
280
     0
  9
$REALWORLDSCALE
290
     1
  9
$INTERFERECOLOR
 62
     1
  9
$INTERFEREOBJVS
345
15EF
  9
$INTERFEREVPVS
346
16B2
  9
$CSHADOW
280
     0
  9
$SHADOWPLANELOCATION
 40
0.0
  0
ENDSEC
  0
SECTION
  2
CLASSES
  0
CLASS
  1
ACDBDICTIONARYWDFLT
  2
AcDbDictionaryWithDefault
  3
ObjectDBX Classes
 90
        0
 91
        1
280
     0
281
     0
  0
CLASS
  1
DICTIONARYVAR
  2
AcDbDictionaryVar
  3
ObjectDBX Classes
 90
        0
 91
        9
280
     0
281
     0
  0
CLASS
  1
ACDBPLACEHOLDER
  2
AcDbPlaceHolder
  3
ObjectDBX Classes
 90
        0
 91
        1
280
     0
281
     0
  0
CLASS
  1
LAYOUT
  2
AcDbLayout
  3
ObjectDBX Classes
 90
        0
 91
        2
280
     0
281
     0
  0
CLASS
  1
TABLESTYLE
  2
AcDbTableStyle
  3
ObjectDBX Classes
 90
     4095
 91
        1
280
     0
281
     0
  0
CLASS
  1
MATERIAL
  2
AcDbMaterial
  3
ObjectDBX Classes
 90
     1153
 91
        3
280
     0
281
     0
  0
CLASS
  1
VISUALSTYLE
  2
AcDbVisualStyle
  3
ObjectDBX Classes
 90
     4095
 91
       26
280
     0
281
     0
  0
CLASS
  1
ACME_DOCUMENT
  2
AcMeDbDoc
  3
AcMeServices
 90
        0
 91
        0
280
     0
281
     0
  0
CLASS
  1
AMGSETTINGSOBJ
  2
AmgSettingsObj
  3
"AcadM|Product Description: AutoCAD Mechanical|Company: Autodesk"
 90
        0
 91
        2
280
     0
281
     0
  0
CLASS
  1
ACMESCOPE
  2
AcMeScope
  3
AcMeServices
 90
        0
 91
        1
280
     0
281
     0
  0
CLASS
  1
ACMECOMMANDHISTORY
  2
AcMeCommandHistory
  3
AcMeServices
 90
        0
 91
        1
280
     0
281
     0
  0
CLASS
  1
ACIMSYSVARMAN
  2
AcImSysVarManager
  3
AcMeServices
 90
        0
 91
        5
280
     0
281
     0
  0
CLASS
  1
ACIMINTSYSVAR
  2
AcImIntSysVar
  3
AcMeServices
 90
        0
 91
       27
280
     0
281
     0
  0
CLASS
  1
ACMEDRAWINGMAN
  2
AcMeDrawingMan
  3
AcMeServices
 90
        0
 91
        1
280
     0
281
     0
  0
CLASS
  1
ACMEVIEW
  2
AcMeView
  3
AcMeServices
 90
        0
 91
        1
280
     0
281
     0
  0
CLASS
  1
ACDBENTITYCACHE
  2
AcMeEntityCache
  3
AcMeServices
 90
        0
 91
        0
280
     0
281
     0
  0
CLASS
  1
GSMANAGER
  2
AcMeGSManager
  3
AcMeServices
 90
        0
 91
        0
280
     0
281
     0
  0
CLASS
  1
AMDTINTERNALREACTOR
  2
AmdtInternalReactor
  3
AcMeServices
 90
        0
 91
        0
280
     0
281
     0
  0
CLASS
  1
ACMESTATEMGR
  2
AcMeStateMgr
  3
AcMeServices
 90
        0
 91
        1
280
     0
281
     0
  0
CLASS
  1
ACGREFMASTER
  2
AcGrefMaster
  3
AcAttribServices
 90
        0
 91
        1
280
     0
281
     0
  0
CLASS
  1
AM_DRAWING_MGR
  2
AcDmDwgMgr
  3
AcMechDwgViewMgmt
 90
        0
 91
        1
280
     0
281
     0
  0
CLASS
  1
AM_DWG_DOCUMENT
  2
AcDmDwgDocument
  3
AcMechDwgViewMgmt
 90
        0
 91
        1
280
     0
281
     0
  0
CLASS
  1
AM_DWG_SHEET
  2
AcDmSheet
  3
AcMechDwgViewMgmt
 90
        0
 91
        1
280
     0
281
     0
  0
CLASS
  1
AM_VIEWDIMPARMAP
  2
AcDmViewDimParMap
  3
AcMechDwgViewMgmt
 90
        0
 91
        1
280
     0
281
     0
  0
CLASS
  1
ACIMREALSYSVAR
  2
AcImRealSysVar
  3
AcMeServices
 90
        0
 91
        1
280
     0
281
     0
  0
CLASS
  1
AM_DWGMGR_NAME
  2
AcDmDwgMgrName
  3
AcMechDwgViewMgmt
 90
        0
 91
        1
280
     0
281
     0
  0
CLASS
  1
ACME_DATABASE
  2
AcMeDbDatabase
  3
AcMeServices
 90
        0
 91
        0
280
     0
281
     0
  0
CLASS
  1
ACRFINSADJUSTERMGR
  2
AcRfInsAdjusterMgr
  3
AcMeServices
 90
        0
 91
        0
280
     0
281
     0
  0
CLASS
  1
ACGREFACADMASTER
  2
AcGrefacadMaster
  3
AcGrefServices
 90
        0
 91
        1
280
     0
281
     0
  0
CLASS
  1
AMDTMENUSTATEMGR
  2
AmdtMenuStateMgr
  3
McadcomServices
 90
        0
 91
        0
280
     0
281
     0
  0
CLASS
  1
AMDTMCOMMENUSTATE
  2
AmdtMcomMenuState
  3
McadcomServices
 90
        0
 91
        0
280
     0
281
     0
  0
CLASS
  1
AMIMASTER
  2
AmiMaster
  3
AmiServices
 90
        0
 91
        1
280
     0
281
     0
  0
CLASS
  1
MAPIAMMOUDLE
  2
MApiAmModule
  3
MApiAmServices
 90
        0
 91
        1
280
     0
281
     0
  0
CLASS
  1
ACIMSTRSYSVAR
  2
AcImStrSysVar
  3
AcMeServices
 90
        0
 91
        5
280
     0
281
     0
  0
CLASS
  1
AMDTADMENUSTATE
  2
AmdtAdMenuState
  3
DesignerServices
 90
        0
 91
        0
280
     0
281
     0
  0
CLASS
  1
ADAPPL
  2
AcAdAppl
  3
DesignerServices
 90
        0
 91
        1
280
     0
281
     0
  0
CLASS
  1
DEPMGR
  2
AcAdDepMgr
  3
DesignerServices
 90
        0
 91
        1
280
     0
281
     0
  0
CLASS
  1
PARAMMGR
  2
AcAdParamMgr
  3
DesignerServices
 90
        0
 91
        1
280
     0
281
     0
  0
CLASS
  1
PARAMSCOPE
  2
AcAdParamScope
  3
DesignerServices
 90
        0
 91
        1
280
     0
281
     0
  0
CLASS
  1
NAMEDAPPL
  2
AcAdNamedAppl
  3
DesignerServices
 90
        0
 91
        1
280
     0
281
     0
  0
CLASS
  1
AMDTDMMENUSTATE
  2
AmdtDmMenuState
  3
AcMechDwgViewMgmt
 90
        0
 91
        0
280
     0
281
     0
  0
CLASS
  1
AMDTAMMENUSTATE
  2
AmdtAmMenuState
  3
DesignerAssemblies
 90
        0
 91
        0
280
     0
281
     0
  0
CLASS
  1
ACAMPROJECT
  2
AcAmProject
  3
DesignerAssemblies
 90
        0
 91
        1
280
     0
281
     0
  0
CLASS
  1
ACAMGRCOMPDEF
  2
AcAmGrCompDef
  3
DesignerAssemblies
 90
        0
 91
        1
280
     0
281
     0
  0
CLASS
  1
ACCMCONTEXT
  2
AcCmContext
  3
DesignerAssemblies
 90
        0
 91
        1
280
     0
281
     0
  0
CLASS
  1
ACAMCOMPDEF
  2
AcAmCompDef
  3
DesignerAssemblies
 90
        0
 91
        1
280
     0
281
     0
  0
CLASS
  1
ACAMCOMPDEFMGR
  2
AcAmCompDefMgr
  3
DesignerAssemblies
 90
        0
 91
        1
280
     0
281
     0
  0
CLASS
  1
AMCONTEXTMGR
  2
AcAmContextMgr
  3
DesignerAssemblies
 90
        0
 91
        1
280
     0
281
     0
  0
CLASS
  1
ACAMCONTEXTMODELER
  2
AcAmContextModeler
  3
DesignerAssemblies
 90
        0
 91
        1
280
     0
281
     0
  0
CLASS
  1
ACMDATADICTIONARY
  2
AcmDataDictionary
  3
"AcmSymBB|Product Description: AutoCAD Mechanical|Company: Autodesk"
 90
        0
 91
        1
280
     0
281
     0
  0
CLASS
  1
CATALOGSTATE
  2
AcAmCatalogState
  3
DesignerAssemblies
 90
        0
 91
        1
280
     0
281
     0
  0
CLASS
  1
ACAMGRCOMPDEFSET
  2
AcAmGrCompDefSet
  3
DesignerAssemblies
 90
        0
 91
        0
280
     0
281
     0
  0
CLASS
  1
AMDTBROWSERDBTAB
  2
AmdtBrowserDbTab
  3
McadcomServices
 90
        0
 91
        0
280
     0
281
     0
  0
CLASS
  1
CBROWSERAPPOBJECT
  2
CBrowserAppObject
  3
McadcomServices
 90
        0
 91
        0
280
     0
281
     0
  0
CLASS
  1
DM_PLACEHOLDER
  2
AcDmSelsetPlaceholder
  3
AcMechDwgViewMgmt
 90
        0
 91
        0
280
     0
281
     0
  0
CLASS
  1
ACMSTANDARDANSI
  2
AcmStandardANSI
  3
"Amdt_StdImp|Product Description: AutoCAD Mechanical|Company: Autodesk"
 90
        0
 91
        1
280
     0
281
     0
  0
CLASS
  1
AMGOBJPROPCFG
  2
AmgObjPropCfg
  3
"AmgLay|Product Description: AutoCAD Mechanical|Company: Autodesk"
 90
        1
 91
        1
280
     0
281
     0
  0
CLASS
  1
ACMSURFSTANDARDANSI
  2
AcmSurfTextStdANSI
  3
"Amdt_StdImp|Product Description: AutoCAD Mechanical|Company: Autodesk"
 90
        0
 91
        1
280
     0
281
     0
  0
CLASS
  1
ACMFCFSTANDARDANSI
  2
AcmFCFStdANSI
  3
"Amdt_StdImp|Product Description: AutoCAD Mechanical|Company: Autodesk"
 90
        0
 91
        1
280
     0
281
     0
  0
CLASS
  1
ACMWELDSTANDARDANSI
  2
AcmWeldingStdANSI
  3
"Amdt_StdImp|Product Description: AutoCAD Mechanical|Company: Autodesk"
 90
        0
 91
        1
280
     0
281
     0
  0
CLASS
  1
ACMIDSTANDARDANSI
  2
AcmIdStdANSI
  3
"Amdt_StdImp|Product Description: AutoCAD Mechanical|Company: Autodesk"
 90
        0
 91
        1
280
     0
281
     0
  0
CLASS
  1
ACMDATUMSTANDARDANSI
  2
AcmDatumStdANSI
  3
"Amdt_StdImp|Product Description: AutoCAD Mechanical|Company: Autodesk"
 90
        0
 91
        1
280
     0
281
     0
  0
CLASS
  1
ACMBOMSTANDARDANSI
  2
AcmBOMStdANSI
  3
"Amdt_StdImp|Product Description: AutoCAD Mechanical|Company: Autodesk"
 90
        0
 91
        1
280
     0
281
     0
  0
CLASS
  1
ACMDETAILSTANDARDANSI
  2
AmdtDetailSymStdANSI
  3
"Amdt_StdImp|Product Description: AutoCAD Mechanical|Company: Autodesk"
 90
        0
 91
        1
280
     0
281
     0
  0
CLASS
  1
ACMSECTIONSTANDARDANSI
  2
AmdtSectionSymStdANSI
  3
"Amdt_StdImp|Product Description: AutoCAD Mechanical|Company: Autodesk"
 90
        0
 91
        1
280
     0
281
     0
  0
CLASS
  1
ACMCENTERLINESTANDARDANSI
  2
AmdtCenterLineStdANSI
  3
"Amdt_StdImp|Product Description: AutoCAD Mechanical|Company: Autodesk"
 90
        0
 91
        1
280
     0
281
     0
  0
CLASS
  1
ACMTHREADLINESTANDARDANSI
  2
AmdtThreadLineStdANSI
  3
"Amdt_StdImp|Product Description: AutoCAD Mechanical|Company: Autodesk"
 90
        0
 91
        1
280
     0
281
     0
  0
CLASS
  1
ACMNOTESTANDARDANSI
  2
AmdtNoteStdANSI
  3
"Amdt_StdImp|Product Description: AutoCAD Mechanical|Company: Autodesk"
 90
        0
 91
        1
280
     0
281
     0
  0
CLASS
  1
ACMTAPERSTANDARDANSI
  2
AcmTaperStdANSI
  3
"Amdt_StdImp|Product Description: AutoCAD Mechanical|Company: Autodesk"
 90
        0
 91
        1
280
     0
281
     0
  0
CLASS
  1
AMDTNOTETEMPLATEDB
  2
AmdtNoteTemplateDB
  3
AMDT_STDIMP_MODULE_NAME
 90
        0
 91
        6
280
     0
281
     0
  0
CLASS
  1
ACAMGLAYSTD
  2
AcAmgLayStd
  3
"AmgLay|Product Description: AutoCAD Mechanical|Company: Autodesk"
 90
        0
 91
        1
280
     0
281
     0
  0
CLASS
  1
ACAMGDIMSTD
  2
AcAmgDimStd
  3
"AmgDim|Product Description: AutoCAD Mechanical|Company: Autodesk"
 90
        0
 91
        1
280
     0
281
     0
  0
CLASS
  1
ACAMGHOLECHARTSTDANSI
  2
AcAmgHoleChartStdANSI
  3
ACMSYMBB_MODULE_NAME
 90
        0
 91
        1
280
     0
281
     0
  0
CLASS
  1
ACAMGTITLESTD
  2
AcAmgTitleStd
  3
"AmgTitle|Product Description: AutoCAD Mechanical|Company: Autodesk"
 90
        0
 91
        1
280
     0
281
     0
  0
CLASS
  1
ACAMGFILTERDAT
  2
AcAmgFilterDat
  3
"AcadM|Product Description: AutoCAD Mechanical|Company: Autodesk"
 90
        0
 91
        6
280
     0
281
     0
  0
CLASS
  1
SORTENTSTABLE
  2
AcDbSortentsTable
  3
ObjectDBX Classes
 90
        0
 91
        0
280
     0
281
     0
  0
CLASS
  1
CAMSSTRUCTBTNSTATE
  2
StructBtnState
  3
L"DesignerAssemblies"
 90
        0
 91
        1
280
     0
281
     0
  0
CLASS
  1
SCALE
  2
AcDbScale
  3
ObjectDBX Classes
 90
     1153
 91
       17
280
     0
281
     0
  0
CLASS
  1
MLEADERSTYLE
  2
AcDbMLeaderStyle
  3
ACDB_MLEADERSTYLE_CLASS
 90
     4095
 91
        1
280
     0
281
     0
  0
CLASS
  1
CELLSTYLEMAP
  2
AcDbCellStyleMap
  3
ObjectDBX Classes
 90
     1152
 91
        1
280
     0
281
     0
  0
ENDSEC
  0
SECTION
  2
TABLES
  0
TABLE
  2
VPORT
  5
8
330
0
100
AcDbSymbolTable
 70
     1
  0
VPORT
  5
15DA
330
8
100
AcDbSymbolTableRecord
100
AcDbViewportTableRecord
  2
*Active
 70
     0
 10
0.0
 20
0.0
 11
1.0
 21
1.0
 12
32.00078338834563
 22
20.87457711963036
 13
0.0
 23
0.0
 14
1.0
 24
1.0
 15
0.0
 25
0.0
 16
0.0
 26
0.0
 36
1.0
 17
0.0
 27
0.0
 37
0.0
 40
42.03683292032967
 41
2.16628959276018
 42
50.0
 43
0.0
 44
0.0
 50
0.0
 51
0.0
 71
     0
 72
   100
 73
     1
 74
     0
 75
     0
 76
     0
 77
     0
 78
     0
281
     0
 65
     1
110
0.0
120
0.0
130
0.0
111
1.0
121
0.0
131
0.0
112
0.0
122
1.0
132
0.0
 79
     0
146
0.0
348
15EB
 60
     3
 61
     5
292
     1
282
     1
141
0.0
142
0.0
 63
   250
421
  3355443
  0
ENDTAB
  0
TABLE
  2
LTYPE
  5
5
330
0
100
AcDbSymbolTable
 70
    16
  0
LTYPE
  5
12
330
5
100
AcDbSymbolTableRecord
100
AcDbLinetypeTableRecord
  2
BYBLOCK
 70
     0
  3

 72
    65
 73
     0
 40
0.0
  0
LTYPE
  5
13
330
5
100
AcDbSymbolTableRecord
100
AcDbLinetypeTableRecord
  2
BYLAYER
 70
     0
  3

 72
    65
 73
     0
 40
0.0
  0
LTYPE
  5
14
330
5
100
AcDbSymbolTableRecord
100
AcDbLinetypeTableRecord
  2
CONTINUOUS
 70
     0
  3
Solid line
 72
    65
 73
     0
 40
0.0
  0
LTYPE
  5
9F
330
5
100
AcDbSymbolTableRecord
100
AcDbLinetypeTableRecord
  2
HIDDEN
 70
     0
  3
_ _ _ _ _ _ _ _ _ _ _ _ _ _ _ _ _ _ _ _ _ _ _
 72
    65
 73
     2
 40
0.375
 49
0.25
 74
     0
 49
-0.125
 74
     0
  0
LTYPE
  5
A0
330
5
100
AcDbSymbolTableRecord
100
AcDbLinetypeTableRecord
  2
CENTER
 70
     0
  3
____ _ ____ _ ____ _ ____ _ ____ _ ____ _ ____
 72
    65
 73
     4
 40
2.0
 49
1.25
 74
     0
 49
-0.25
 74
     0
 49
0.25
 74
     0
 49
-0.25
 74
     0
  0
LTYPE
  5
162D
330
5
100
AcDbSymbolTableRecord
100
AcDbLinetypeTableRecord
  2
PHANTOM2
 70
     0
  3
Phantom (.5x) ___ _ _ ___ _ _ ___ _ _ ___ _ _
 72
    65
 73
     6
 40
1.25
 49
0.625
 74
     0
 49
-0.125
 74
     0
 49
0.125
 74
     0
 49
-0.125
 74
     0
 49
0.125
 74
     0
 49
-0.125
 74
     0
  0
LTYPE
  5
1662
330
5
100
AcDbSymbolTableRecord
100
AcDbLinetypeTableRecord
  2
AM_ISO02W050
 70
     0
  3
__ __ __ __ __ __ __ __ __ __ __ __ __ __ __
 72
    65
 73
     2
 40
7.5
 49
6.0
 74
     0
 49
-1.5
 74
     0
  0
LTYPE
  5
1663
330
5
100
AcDbSymbolTableRecord
100
AcDbLinetypeTableRecord
  2
AM_ISO08W050
 70
     0
  3
____ . ____ . ____ . ____ . ____ . ____ . ____
 72
    65
 73
     4
 40
18.0
 49
12.0
 74
     0
 49
-1.5
 74
     0
 49
3.0
 74
     0
 49
-1.5
 74
     0
  0
LTYPE
  5
1664
330
5
100
AcDbSymbolTableRecord
100
AcDbLinetypeTableRecord
  2
AM_ISO09W050
 70
     0
  3
_____ . . _____ . . _____ . . ____ .. ____
 72
    65
 73
     6
 40
22.5
 49
12.0
 74
     0
 49
-1.5
 74
     0
 49
3.0
 74
     0
 49
-1.5
 74
     0
 49
3.0
 74
     0
 49
-1.5
 74
     0
  0
LTYPE
  5
1665
330
5
100
AcDbSymbolTableRecord
100
AcDbLinetypeTableRecord
  2
Amconstr
 70
     0
  3
_______________________
 72
    65
 73
     2
 40
9999.0
 49
9999.0
 74
     0
 49
0.0
 74
     0
  0
LTYPE
  5
1666
330
5
100
AcDbSymbolTableRecord
100
AcDbLinetypeTableRecord
  2
AM_ISO08W050x2
 70
     0
  3
__ . __ . __ . __ . __ . __
 72
    65
 73
     4
 40
9.0
 49
6.0
 74
     0
 49
-0.75
 74
     0
 49
1.5
 74
     0
 49
-0.75
 74
     0
  0
LTYPE
  5
1667
330
5
100
AcDbSymbolTableRecord
100
AcDbLinetypeTableRecord
  2
AM_ISO02W050x2
 70
     0
  3
 _ _ _ _ _ _ _ _ _ _ _ _
 72
    65
 73
     2
 40
3.75
 49
3.0
 74
     0
 49
-0.75
 74
     0
  0
LTYPE
  5
166A
330
5
100
AcDbSymbolTableRecord
100
AcDbLinetypeTableRecord
  2
Amzigzag
 70
     0
  3
/\/-/\/-/\/-/\/-/\/-/\/
 72
    65
 73
     2
 40
11.0001
 49
0.0001
 74
     4
 75
   136
340
1669
 46
0.04
 50
0.0
 44
0.0
 45
0.0
 49
-11.0
 74
     0
  0
LTYPE
  5
166B
330
5
100
AcDbSymbolTableRecord
100
AcDbLinetypeTableRecord
  2
CENTER2
 70
     0
  3
Center (.5x) ___ _ ___ _ ___ _ ___ _ ___ _ ___
 72
    65
 73
     4
 40
1.125
 49
0.75
 74
     0
 49
-0.125
 74
     0
 49
0.125
 74
     0
 49
-0.125
 74
     0
  0
LTYPE
  5
166C
330
5
100
AcDbSymbolTableRecord
100
AcDbLinetypeTableRecord
  2
HIDDEN2
 70
     0
  3
Hidden (.5x) _ _ _ _ _ _ _ _ _ _ _ _ _ _ _ _ _
 72
    65
 73
     2
 40
0.1875
 49
0.125
 74
     0
 49
-0.0625
 74
     0
  0
LTYPE
  5
166D
330
5
100
AcDbSymbolTableRecord
100
AcDbLinetypeTableRecord
  2
Amzigzag2
 70
     0
  3
/\/-/\/-/\/-/\/-/\/-/\/
 72
    65
 73
     2
 40
0.4401
 49
0.0001
 74
     4
 75
   136
340
1669
 46
0.0016
 50
0.0
 44
0.0
 45
0.0
 49
-0.4400000000000001
 74
     0
  0
LTYPE
  5
167C
330
5
100
AcDbSymbolTableRecord
100
AcDbLinetypeTableRecord
  2
ACANSTGB
 70
     0
  3
__ . . __ . .
 72
    65
 73
     6
 40
0.35433070866
 49
0.15748031496
 74
     0
 49
-0.03937007874
 74
     0
 49
0.03937007874
 74
     0
 49
-0.03937007874
 74
     0
 49
0.03937007874
 74
     0
 49
-0.03937007874
 74
     0
  0
LTYPE
  5
167D
330
5
100
AcDbSymbolTableRecord
100
AcDbLinetypeTableRecord
  2
ACANSTGL
 70
     0
  3
_ _ _ _ _
 72
    65
 73
     2
 40
0.11811023622
 49
0.07874015748
 74
     0
 49
-0.03937007874
 74
     0
  0
ENDTAB
  0
TABLE
  2
LAYER
  5
2
102
{ACAD_XDICTIONARY
360
16A4
102
}
330
0
100
AcDbSymbolTable
 70
     8
  0
LAYER
  5
F
330
2
100
AcDbSymbolTableRecord
100
AcDbLayerTableRecord
  2
0
 70
     0
 62
     7
  6
CONTINUOUS
370
    -3
390
15B5
347
15E4
  0
LAYER
  5
A3
330
2
100
AcDbSymbolTableRecord
100
AcDbLayerTableRecord
  2
DIM
 70
     0
 62
     3
  6
CONTINUOUS
370
    -3
390
15B5
347
15E4
  0
LAYER
  5
A4
330
2
100
AcDbSymbolTableRecord
100
AcDbLayerTableRecord
  2
HATCH
 70
     0
 62
     4
  6
CONTINUOUS
370
    -3
390
15B5
347
15E4
  0
LAYER
  5
A5
330
2
100
AcDbSymbolTableRecord
100
AcDbLayerTableRecord
  2
PN
 70
     0
 62
     6
  6
CONTINUOUS
370
    -3
390
15B5
347
15E4
  0
LAYER
  5
A6
330
2
100
AcDbSymbolTableRecord
100
AcDbLayerTableRecord
  2
HIDE
 70
     0
 62
     5
  6
HIDDEN
370
    -3
390
15B5
347
15E4
  0
LAYER
  5
A7
330
2
100
AcDbSymbolTableRecord
100
AcDbLayerTableRecord
  2
CENTER
 70
     0
 62
     2
  6
CENTER
370
    -3
390
15B5
347
15E4
  0
LAYER
  5
A8
330
2
100
AcDbSymbolTableRecord
100
AcDbLayerTableRecord
  2
TITLE
 70
     0
 62
     1
  6
CONTINUOUS
370
    -3
390
15B5
347
15E4
  0
LAYER
  5
A9
330
2
100
AcDbSymbolTableRecord
100
AcDbLayerTableRecord
  2
DEFPOINTS
 70
     0
 62
    -7
  6
CONTINUOUS
290
     0
370
    -3
390
15B5
347
15E4
  0
ENDTAB
  0
TABLE
  2
STYLE
  5
3
330
0
100
AcDbSymbolTable
 70
     8
  0
STYLE
  5
10
330
3
100
AcDbSymbolTableRecord
100
AcDbTextStyleTableRecord
  2
STANDARD
 70
     0
 40
0.0
 41
1.0
 50
0.0
 71
     0
 42
0.187
  3
txt
  4

  0
STYLE
  5
9D
330
3
100
AcDbSymbolTableRecord
100
AcDbTextStyleTableRecord
  2
ITALIC
 70
     0
 40
0.0
 41
1.0
 50
0.0
 71
     0
 42
0.2
  3
txt
  4

  0
STYLE
  5
9E
330
3
100
AcDbSymbolTableRecord
100
AcDbTextStyleTableRecord
  2
COMPLEX
 70
     0
 40
0.0
 41
1.0
 50
0.0
 71
     0
 42
0.156
  3
ROMANC
  4

  0
STYLE
  5
1400
330
3
100
AcDbSymbolTableRecord
100
AcDbTextStyleTableRecord
  2
STYLE1
 70
     0
 40
0.0
 41
1.0
 50
0.0
 71
     0
 42
0.25
  3
swiss.ttf
  4

1001
ACAD
1000
Swis721 BT
1071
       34
  0
STYLE
  5
1669
330
3
100
AcDbSymbolTableRecord
100
AcDbTextStyleTableRecord
  2

 70
     1
 40
0.0
 41
1.0
 50
0.0
 71
     0
 42
0.187
  3
genltshp.shx
  4

  0
STYLE
  5
166E
330
3
100
AcDbSymbolTableRecord
100
AcDbTextStyleTableRecord
  2
ACANSTS
 70
     0
 40
1.0
 41
1.0
 50
0.0
 71
     0
 42
0.187
  3
romans.shx
  4

  0
STYLE
  5
167B
330
3
100
AcDbSymbolTableRecord
100
AcDbTextStyleTableRecord
  2
ACANSGDT
 70
     0
 40
0.0
 41
1.0
 50
0.0
 71
     0
 42
0.187
  3
amgdt.shx
  4

  0
STYLE
  5
16A2
330
3
100
AcDbSymbolTableRecord
100
AcDbTextStyleTableRecord
  2

 70
     1
 40
0.0
 41
1.0
 50
0.0
 71
     0
 42
0.2
  3
ltypeshp.shx
  4

  0
ENDTAB
  0
TABLE
  2
VIEW
  5
6
330
0
100
AcDbSymbolTable
 70
     0
  0
ENDTAB
  0
TABLE
  2
UCS
  5
7
330
0
100
AcDbSymbolTable
 70
     0
  0
ENDTAB
  0
TABLE
  2
APPID
  5
9
330
0
100
AcDbSymbolTable
 70
     9
  0
APPID
  5
11
330
9
100
AcDbSymbolTableRecord
100
AcDbRegAppTableRecord
  2
ACAD
 70
     0
  0
APPID
  5
1600
330
9
100
AcDbSymbolTableRecord
100
AcDbRegAppTableRecord
  2
MCAD_NO_VIS
 70
     0
  0
APPID
  5
1601
330
9
100
AcDbSymbolTableRecord
100
AcDbRegAppTableRecord
  2
ACAD_TEMP_GRAPHIC
 70
     0
  0
APPID
  5
162F
330
9
100
AcDbSymbolTableRecord
100
AcDbRegAppTableRecord
  2
AD_DRAW
 70
     0
  0
APPID
  5
1632
330
9
100
AcDbSymbolTableRecord
100
AcDbRegAppTableRecord
  2
ACATTRIBSERVICES
 70
     0
  0
APPID
  5
1653
330
9
100
AcDbSymbolTableRecord
100
AcDbRegAppTableRecord
  2
DESIGNERASSEMBLIES
 70
     0
  0
APPID
  5
1659
330
9
100
AcDbSymbolTableRecord
100
AcDbRegAppTableRecord
  2
ACADM_DIM_EDIT
 70
     0
  0
APPID
  5
165A
330
9
100
AcDbSymbolTableRecord
100
AcDbRegAppTableRecord
  2
AMDT_DM_ADJ
 70
     0
  0
APPID
  5
16A3
330
9
100
AcDbSymbolTableRecord
100
AcDbRegAppTableRecord
  2
ACAD_PSEXT
 70
     0
  0
ENDTAB
  0
TABLE
  2
DIMSTYLE
  5
A
330
0
100
AcDbSymbolTable
 70
     7
100
AcDbDimStyleTable
 71
     1
340
108F
  0
DIMSTYLE
105
108F
102
{ACAD_REACTORS
330
FCD
330
FCE
330
FD5
330
FD6
330
FD7
330
FD8
330
FDB
330
FDC
330
FE4
330
FE5
330
FE6
330
FE7
330
1080
330
1546
330
1555
102
}
330
A
100
AcDbSymbolTableRecord
100
AcDbDimStyleTableRecord
  2
STANDARD
 70
     0
340
10
  0
DIMSTYLE
105
1688
330
A
100
AcDbSymbolTableRecord
100
AcDbDimStyleTableRecord
  2
AM_ANSI
 70
     0
  4
mm
 41
0.1
 42
0.05
 43
0.5
 44
0.1
 47
0.1
 48
0.1
 78
     7
 79
     2
 90
     1
140
0.12
141
0.0
146
0.71
147
0.06
176
   256
177
   256
178
     2
274
     4
284
     7
340
10
371
    -1
372
    -1
  0
DIMSTYLE
105
1689
330
A
100
AcDbSymbolTableRecord
100
AcDbDimStyleTableRecord
  2
AM_ANSI$3
 70
     0
  4
mm
 41
0.1
 42
0.05
 43
0.5
 44
0.1
 47
0.1
 48
0.1
 78
     7
 79
     2
 90
     1
140
0.12
141
0.0
146
0.71
147
0.06
176
   256
177
   256
178
     2
274
     4
284
     7
288
     1
289
     0
340
10
371
    -1
372
    -1
  0
DIMSTYLE
105
168A
330
A
100
AcDbSymbolTableRecord
100
AcDbDimStyleTableRecord
  2
AM_ANSI$4
 70
     0
  4
mm
 41
0.1
 42
0.05
 43
0.5
 44
0.1
 47
0.1
 48
0.1
 78
     7
 79
     2
 90
     1
140
0.12
141
0.0
146
0.71
147
0.06
176
   256
177
   256
178
     2
274
     4
284
     7
288
     1
289
     0
340
10
371
    -1
372
    -1
  0
DIMSTYLE
105
168B
330
A
100
AcDbSymbolTableRecord
100
AcDbDimStyleTableRecord
  2
AM_ANSI$7
 70
     0
  4
mm
 41
0.1
 42
0.05
 43
0.5
 44
0.1
 47
0.1
 48
0.1
 78
     7
 79
     2
 90
     1
140
0.24
141
0.0
146
0.71
147
0.06
176
   256
177
   256
178
     2
274
     4
284
     7
340
10
371
    -1
372
    -1
  0
DIMSTYLE
105
168C
330
A
100
AcDbSymbolTableRecord
100
AcDbDimStyleTableRecord
  2
AM_ANSI$SF
 70
     0
  4
mm
 41
0.1
 42
0.05
 43
0.5
 44
0.1
 47
0.1
 48
0.1
 75
     1
 76
     1
 78
     7
 79
     2
 90
     1
140
0.12
141
0.0
146
0.71
147
0.06
176
   256
177
   256
178
     2
274
     4
284
     7
340
10
371
    -1
372
    -1
  0
DIMSTYLE
105
1691
330
A
100
AcDbSymbolTableRecord
100
AcDbDimStyleTableRecord
  2
AM_ANSI$SH
 70
     0
  4
mm
 41
0.1
 42
0.05
 43
0.5
 44
0.1
 47
0.1
 48
0.1
 75
     1
 76
     1
 78
     7
 79
     2
 90
     1
140
0.12
141
0.0
146
0.71
147
0.06
173
     1
176
   256
177
   256
178
     2
274
     4
284
     7
340
10
343
168D
371
    -1
372
    -1
  0
ENDTAB
  0
TABLE
  2
BLOCK_RECORD
  5
1
330
0
100
AcDbSymbolTable
 70
    33
  0
BLOCK_RECORD
  5
18
330
1
100
AcDbSymbolTableRecord
100
AcDbBlockTableRecord
  2
*MODEL_SPACE
340
15BA
 70
     0
280
     1
281
     0
  0
BLOCK_RECORD
  5
15
330
1
100
AcDbSymbolTableRecord
100
AcDbBlockTableRecord
  2
*PAPER_SPACE
340
15BB
 70
     0
280
     1
281
     0
  0
BLOCK_RECORD
  5
22
330
1
100
AcDbSymbolTableRecord
100
AcDbBlockTableRecord
  2
SAATX
340
0
102
{BLKREFS
331
EE6
102
}
 70
     0
280
     1
281
     0
  0
BLOCK_RECORD
  5
23
330
1
100
AcDbSymbolTableRecord
100
AcDbBlockTableRecord
  2
SBBTX
340
0
102
{BLKREFS
331
EE7
102
}
 70
     0
280
     1
281
     0
  0
BLOCK_RECORD
  5
24
330
1
100
AcDbSymbolTableRecord
100
AcDbBlockTableRecord
  2
SAAR
340
0
102
{BLKREFS
331
EEA
102
}
 70
     0
280
     1
281
     0
  0
BLOCK_RECORD
  5
25
330
1
100
AcDbSymbolTableRecord
100
AcDbBlockTableRecord
  2
*X3
340
0
102
{BLKREFS
331
3A6
102
}
 70
     0
280
     1
281
     0
  0
BLOCK_RECORD
  5
26
330
1
100
AcDbSymbolTableRecord
100
AcDbBlockTableRecord
  2
SBBT
340
0
102
{BLKREFS
331
EE9
102
}
 70
     0
280
     1
281
     0
  0
BLOCK_RECORD
  5
27
330
1
100
AcDbSymbolTableRecord
100
AcDbBlockTableRecord
  2
*X5
340
0
102
{BLKREFS
331
3DB
102
}
 70
     0
280
     1
281
     0
  0
BLOCK_RECORD
  5
28
330
1
100
AcDbSymbolTableRecord
100
AcDbBlockTableRecord
  2
SBBB
340
0
102
{BLKREFS
331
EE8
102
}
 70
     0
280
     1
281
     0
  0
BLOCK_RECORD
  5
29
330
1
100
AcDbSymbolTableRecord
100
AcDbBlockTableRecord
  2
*X7
340
0
102
{BLKREFS
331
42A
102
}
 70
     0
280
     1
281
     0
  0
BLOCK_RECORD
  5
2E
330
1
100
AcDbSymbolTableRecord
100
AcDbBlockTableRecord
  2
SAAL
340
0
102
{BLKREFS
331
EE5
102
}
 70
     0
280
     1
281
     0
  0
BLOCK_RECORD
  5
2F
330
1
100
AcDbSymbolTableRecord
100
AcDbBlockTableRecord
  2
*X9
340
0
102
{BLKREFS
331
571
102
}
 70
     0
280
     1
281
     0
  0
BLOCK_RECORD
  5
4E
330
1
100
AcDbSymbolTableRecord
100
AcDbBlockTableRecord
  2
*X10
340
0
102
{BLKREFS
331
1062
102
}
 70
     0
280
     1
281
     0
  0
BLOCK_RECORD
  5
4F
330
1
100
AcDbSymbolTableRecord
100
AcDbBlockTableRecord
  2
*X11
340
0
102
{BLKREFS
331
1063
102
}
 70
     0
280
     1
281
     0
  0
BLOCK_RECORD
  5
50
330
1
100
AcDbSymbolTableRecord
100
AcDbBlockTableRecord
  2
*X12
340
0
102
{BLKREFS
331
1064
102
}
 70
     0
280
     1
281
     0
  0
BLOCK_RECORD
  5
51
330
1
100
AcDbSymbolTableRecord
100
AcDbBlockTableRecord
  2
*X13
340
0
102
{BLKREFS
331
1065
102
}
 70
     0
280
     1
281
     0
  0
BLOCK_RECORD
  5
1479
330
1
100
AcDbSymbolTableRecord
100
AcDbBlockTableRecord
  2
*D15
340
0
 70
     0
280
     1
281
     0
  0
BLOCK_RECORD
  5
1486
330
1
100
AcDbSymbolTableRecord
100
AcDbBlockTableRecord
  2
*D16
340
0
 70
     0
280
     1
281
     0
  0
BLOCK_RECORD
  5
1493
330
1
100
AcDbSymbolTableRecord
100
AcDbBlockTableRecord
  2
*D17
340
0
 70
     0
280
     1
281
     0
  0
BLOCK_RECORD
  5
14AC
330
1
100
AcDbSymbolTableRecord
100
AcDbBlockTableRecord
  2
*D18
340
0
 70
     0
280
     1
281
     0
  0
BLOCK_RECORD
  5
14B9
330
1
100
AcDbSymbolTableRecord
100
AcDbBlockTableRecord
  2
*D19
340
0
 70
     0
280
     1
281
     0
  0
BLOCK_RECORD
  5
14C6
330
1
100
AcDbSymbolTableRecord
100
AcDbBlockTableRecord
  2
*D20
340
0
 70
     0
280
     1
281
     0
  0
BLOCK_RECORD
  5
14D3
330
1
100
AcDbSymbolTableRecord
100
AcDbBlockTableRecord
  2
*D21
340
0
 70
     0
280
     1
281
     0
  0
BLOCK_RECORD
  5
14E0
330
1
100
AcDbSymbolTableRecord
100
AcDbBlockTableRecord
  2
*D22
340
0
 70
     0
280
     1
281
     0
  0
BLOCK_RECORD
  5
14ED
330
1
100
AcDbSymbolTableRecord
100
AcDbBlockTableRecord
  2
*D23
340
0
 70
     0
280
     1
281
     0
  0
BLOCK_RECORD
  5
14FA
330
1
100
AcDbSymbolTableRecord
100
AcDbBlockTableRecord
  2
*D24
340
0
 70
     0
280
     1
281
     0
  0
BLOCK_RECORD
  5
1507
330
1
100
AcDbSymbolTableRecord
100
AcDbBlockTableRecord
  2
*D25
340
0
 70
     0
280
     1
281
     0
  0
BLOCK_RECORD
  5
1514
330
1
100
AcDbSymbolTableRecord
100
AcDbBlockTableRecord
  2
*D26
340
0
 70
     0
280
     1
281
     0
  0
BLOCK_RECORD
  5
1521
330
1
100
AcDbSymbolTableRecord
100
AcDbBlockTableRecord
  2
*D27
340
0
 70
     0
280
     1
281
     0
  0
BLOCK_RECORD
  5
1538
330
1
100
AcDbSymbolTableRecord
100
AcDbBlockTableRecord
  2
*D28
340
0
 70
     0
280
     1
281
     0
  0
BLOCK_RECORD
  5
1547
330
1
100
AcDbSymbolTableRecord
100
AcDbBlockTableRecord
  2
*D29
340
0
 70
     0
280
     1
281
     0
  0
BLOCK_RECORD
  5
164A
330
1
100
AcDbSymbolTableRecord
100
AcDbBlockTableRecord
  2
*U30
340
0
 70
     0
280
     1
281
     0
  0
BLOCK_RECORD
  5
168D
330
1
100
AcDbSymbolTableRecord
100
AcDbBlockTableRecord
  2
GENAXEH
340
0
 70
     0
280
     1
281
     0
  0
ENDTAB
  0
ENDSEC
  0
SECTION
  2
BLOCKS
  0
BLOCK
  5
AD
330
18
100
AcDbEntity
  8
0
100
AcDbBlockBegin
  2
*MODEL_SPACE
 70
     0
 10
0.0
 20
0.0
 30
0.0
  3
*MODEL_SPACE
  1

  0
ENDBLK
  5
AE
330
18
100
AcDbEntity
  8
0
100
AcDbBlockEnd
  0
BLOCK
  5
AB
330
15
100
AcDbEntity
 67
     1
  8
0
100
AcDbBlockBegin
  2
*PAPER_SPACE
 70
     0
 10
0.0
 20
0.0
 30
0.0
  3
*PAPER_SPACE
  1

  0
ENDBLK
  5
AC
330
15
100
AcDbEntity
 67
     1
  8
0
100
AcDbBlockEnd
  0
BLOCK
  5
38D
330
22
100
AcDbEntity
  8
0
100
AcDbBlockBegin
  2
SAATX
 70
     0
 10
0.0
 20
0.0
 30
0.0
  3
SAATX
  1

  0
LINE
  5
38E
330
22
100
AcDbEntity
  8
0
100
AcDbLine
 10
-0.8421662700371435
 20
0.0
 30
0.0
 11
0.8421662700371435
 21
0.0
 31
0.0
  0
LINE
  5
38F
330
22
100
AcDbEntity
  8
0
100
AcDbLine
 10
-0.8421662700371435
 20
0.0199999999999996
 30
0.0
 11
0.8421662700371435
 21
0.0199999999999996
 31
0.0
  0
TEXT
  5
390
330
22
100
AcDbEntity
  8
0
100
AcDbText
 10
-0.8455144018028244
 20
0.0551412039750448
 30
0.0
 40
0.156
  1
SECTION A-A
  7
COMPLEX
100
AcDbText
  0
ENDBLK
  5
391
330
22
100
AcDbEntity
  8
0
100
AcDbBlockEnd
  0
BLOCK
  5
392
330
23
100
AcDbEntity
  8
0
100
AcDbBlockBegin
  2
SBBTX
 70
     0
 10
0.0
 20
0.0
 30
0.0
  3
SBBTX
  1

  0
LINE
  5
393
330
23
100
AcDbEntity
  8
0
100
AcDbLine
 10
-0.8421662700371435
 20
0.0199999999999996
 30
0.0
 11
0.8421662700371435
 21
0.0199999999999996
 31
0.0
  0
LINE
  5
394
330
23
100
AcDbEntity
  8
0
100
AcDbLine
 10
-0.8421662700371435
 20
0.0
 30
0.0
 11
0.8421662700371435
 21
0.0
 31
0.0
  0
TEXT
  5
395
330
23
100
AcDbEntity
  8
0
100
AcDbText
 10
-0.8455144018028244
 20
0.0554512145058732
 30
0.0
 40
0.156
  1
SECTION B-B
  7
COMPLEX
100
AcDbText
  0
ENDBLK
  5
396
330
23
100
AcDbEntity
  8
0
100
AcDbBlockEnd
  0
BLOCK
  5
397
330
24
100
AcDbEntity
  8
0
100
AcDbBlockBegin
  2
SAAR
 70
     0
 10
0.0
 20
0.0
 30
0.0
  3
SAAR
  1

  0
TEXT
  5
398
330
24
100
AcDbEntity
  8
0
100
AcDbText
 10
0.3487392072179478
 20
0.5116372546807444
 30
0.0
 40
0.156
  1
A
  7
COMPLEX
 72
     1
 11
0.4230249215036617
 21
0.5116372546807444
 31
0.0
100
AcDbText
  0
LINE
  5
399
330
24
100
AcDbEntity
  8
0
100
AcDbLine
 10
0.4374999999999983
 20
0.2292366486465216
 30
0.0
 11
0.451024804847763
 21
0.2292366486465225
 31
0.0
  0
LINE
  5
39A
330
24
100
AcDbEntity
  8
0
100
AcDbLine
 10
0.4074999999999998
 20
0.2292366486465216
 30
0.0
 11
0.4074999999999989
 21
0.0149999999999988
 31
0.0
  0
LINE
  5
39B
330
24
100
AcDbEntity
  8
0
100
AcDbLine
 10
0.4374999999999992
 20
0.2292366486465216
 30
0.0
 11
0.4374999999999992
 21
-0.017923002649547
 31
0.0
  0
LINE
  5
39C
330
24
100
AcDbEntity
  8
0
100
AcDbLine
 10
0.4224999999999995
 20
0.0299999999999994
 30
0.0
 11
-0.0000000000000009
 21
0.0299999999999994
 31
0.0
  0
LINE
  5
39D
330
24
100
AcDbEntity
  8
0
100
AcDbLine
 10
0.4571321552628529
 20
0.0
 30
0.0
 11
0.0
 21
0.0
 31
0.0
  0
ARC
  5
39E
330
24
100
AcDbEntity
  8
0
100
AcDbCircle
 10
-0.0774898749921995
 20
0.4486009293161688
 30
0.0
 40
0.5
100
AcDbArc
 50
333.9772135427694
 51
0.3646288638273987
  0
LINE
  5
39F
330
24
100
AcDbEntity
  8
0
100
AcDbLine
 10
0.4374999999999992
 20
0.2292366486465216
 30
0.0
 11
0.4374999999999992
 21
0.2292366486465216
 31
0.0
  0
ARC
  5
3A0
330
24
100
AcDbEntity
  8
0
100
AcDbCircle
 10
0.9224898749921965
 20
0.4486009293161688
 30
0.0
 40
0.5
100
AcDbArc
 50
179.6353711361726
 51
206.0227864572306
  0
ARC
  5
3A1
330
24
100
AcDbEntity
  8
0
100
AcDbCircle
 10
-0.0774898749921995
 20
0.4486009293161688
 30
0.0
 40
0.5200000000000001
100
AcDbArc
 50
335.0482819082217
 51
344.0535702443027
  0
ARC
  5
3A2
330
24
100
AcDbEntity
  8
0
100
AcDbCircle
 10
0.9224898749921965
 20
0.4486009293161688
 30
0.0
 40
0.5200000000000001
100
AcDbArc
 50
195.9464297556973
 51
204.951718091778
  0
LINE
  5
3A3
330
24
100
AcDbEntity
  8
0
100
AcDbLine
 10
0.3939751951522217
 20
0.2292366486465216
 30
0.0
 11
0.4074999999999998
 21
0.2292366486465216
 31
0.0
  0
LINE
  5
3A4
330
24
100
AcDbEntity
  8
0
100
AcDbLine
 10
0.3939751951522217
 20
0.2292366486465216
 30
0.0
 11
0.371819942802035
 21
0.2292366486465216
 31
0.0
  0
LINE
  5
3A5
330
24
100
AcDbEntity
  8
0
100
AcDbLine
 10
0.451024804847763
 20
0.2292366486465225
 30
0.0
 11
0.4731800571979621
 21
0.2292366486465216
 31
0.0
  0
INSERT
  5
3A6
330
24
100
AcDbEntity
  8
0
100
AcDbBlockReference
  2
*X3
 10
-3.748701991468968
 20
-6.921648479033177
 30
0.0
  0
ENDBLK
  5
3A7
330
24
100
AcDbEntity
  8
0
100
AcDbBlockEnd
  0
BLOCK
  5
3A8
330
25
100
AcDbEntity
  8
0
100
AcDbBlockBegin
  2
*X3
 70
     1
 10
0.0
 20
0.0
 30
0.0
  3
*X3
  1

  0
LINE
  5
3A9
330
25
100
AcDbEntity
  8
0
 62
     0
100
AcDbLine
 10
4.158042821030212
 20
7.25625
 30
0.0
 11
4.184361161907728
 21
7.25625
 31
0.0
  0
LINE
  5
3AA
330
25
100
AcDbEntity
  8
0
 62
     0
100
AcDbLine
 10
4.159464167164085
 20
7.2625
 30
0.0
 11
4.182939815773856
 21
7.2625
 31
0.0
  0
LINE
  5
3AB
330
25
100
AcDbEntity
  8
0
 62
     0
100
AcDbLine
 10
4.160801607892522
 20
7.26875
 30
0.0
 11
4.181602375045417
 21
7.26875
 31
0.0
  0
LINE
  5
3AC
330
25
100
AcDbEntity
  8
0
 62
     0
100
AcDbLine
 10
4.162055829087108
 20
7.275
 30
0.0
 11
4.180348153850832
 21
7.275
 31
0.0
  0
LINE
  5
3AD
330
25
100
AcDbEntity
  8
0
 62
     0
100
AcDbLine
 10
4.163227467165616
 20
7.28125
 30
0.0
 11
4.179176515772323
 21
7.28125
 31
0.0
  0
LINE
  5
3AE
330
25
100
AcDbEntity
  8
0
 62
     0
100
AcDbLine
 10
4.1643171107912
 20
7.2875
 30
0.0
 11
4.178086872146739
 21
7.2875
 31
0.0
  0
LINE
  5
3AF
330
25
100
AcDbEntity
  8
0
 62
     0
100
AcDbLine
 10
4.165325302419223
 20
7.29375
 30
0.0
 11
4.177078680518715
 21
7.29375
 31
0.0
  0
LINE
  5
3B0
330
25
100
AcDbEntity
  8
0
 62
     0
100
AcDbLine
 10
4.16625253970155
 20
7.3
 30
0.0
 11
4.17615144323639
 21
7.3
 31
0.0
  0
LINE
  5
3B1
330
25
100
AcDbEntity
  8
0
 62
     0
100
AcDbLine
 10
4.167099276757146
 20
7.30625
 30
0.0
 11
4.175304706180795
 21
7.30625
 31
0.0
  0
LINE
  5
3B2
330
25
100
AcDbEntity
  8
0
 62
     0
100
AcDbLine
 10
4.167865925316793
 20
7.3125
 30
0.0
 11
4.174538057621145
 21
7.3125
 31
0.0
  0
LINE
  5
3B3
330
25
100
AcDbEntity
  8
0
 62
     0
100
AcDbLine
 10
4.16855285574882
 20
7.31875
 30
0.0
 11
4.17385112718912
 21
7.31875
 31
0.0
  0
LINE
  5
3B4
330
25
100
AcDbEntity
  8
0
 62
     0
100
AcDbLine
 10
4.169160397971983
 20
7.325
 30
0.0
 11
4.173243584965957
 21
7.325
 31
0.0
  0
LINE
  5
3B5
330
25
100
AcDbEntity
  8
0
 62
     0
100
AcDbLine
 10
4.169688842260835
 20
7.33125
 30
0.0
 11
4.172715140677103
 21
7.33125
 31
0.0
  0
LINE
  5
3B6
330
25
100
AcDbEntity
  8
0
 62
     0
100
AcDbLine
 10
4.170138439948251
 20
7.3375
 30
0.0
 11
4.172265542989687
 21
7.3375
 31
0.0
  0
LINE
  5
3B7
330
25
100
AcDbEntity
  8
0
 62
     0
100
AcDbLine
 10
4.170509404029122
 20
7.34375
 30
0.0
 11
4.171894578908817
 21
7.34375
 31
0.0
  0
LINE
  5
3B8
330
25
100
AcDbEntity
  8
0
 62
     0
100
AcDbLine
 10
4.170801909668647
 20
7.35
 30
0.0
 11
4.171602073269292
 21
7.35
 31
0.0
  0
LINE
  5
3B9
330
25
100
AcDbEntity
  8
0
 62
     0
100
AcDbLine
 10
4.171016094618071
 20
7.35625
 30
0.0
 11
4.171387888319867
 21
7.35625
 31
0.0
  0
LINE
  5
3BA
330
25
100
AcDbEntity
  8
0
 62
     0
100
AcDbLine
 10
4.171152059540171
 20
7.3625
 30
0.0
 11
4.171251923397766
 21
7.3625
 31
0.0
  0
LINE
  5
3BB
330
25
100
AcDbEntity
  8
0
 62
     0
100
AcDbLine
 10
4.17119411469162
 20
7.36875
 30
0.0
 11
4.171209868246319
 21
7.36875
 31
0.0
  0
LINE
  5
3BC
330
25
100
AcDbEntity
  8
0
 62
     0
100
AcDbLine
 10
4.156536832302816
 20
7.25
 30
0.0
 11
4.185867150635123
 21
7.25
 31
0.0
  0
LINE
  5
3BD
330
25
100
AcDbEntity
  8
0
 62
     0
100
AcDbLine
 10
4.154945410438709
 20
7.24375
 30
0.0
 11
4.187458572499231
 21
7.24375
 31
0.0
  0
LINE
  5
3BE
330
25
100
AcDbEntity
  8
0
 62
     0
100
AcDbLine
 10
4.153267709311144
 20
7.2375
 30
0.0
 11
4.189136273626795
 21
7.2375
 31
0.0
  0
LINE
  5
3BF
330
25
100
AcDbEntity
  8
0
 62
     0
100
AcDbLine
 10
4.151502824775956
 20
7.23125
 30
0.0
 11
4.190901158161984
 21
7.23125
 31
0.0
  0
LINE
  5
3C0
330
25
100
AcDbEntity
  8
0
 62
     0
100
AcDbLine
 10
4.149649792014731
 20
7.225
 30
0.0
 11
4.170514238817704
 21
7.225
 31
0.0
  0
LINE
  5
3C1
330
25
100
AcDbEntity
  8
0
 62
     0
100
AcDbLine
 10
4.17188974412022
 20
7.225
 30
0.0
 11
4.192754190923209
 21
7.225
 31
0.0
  0
LINE
  5
3C2
330
25
100
AcDbEntity
  8
0
 62
     0
100
AcDbLine
 10
4.147707582635473
 20
7.21875
 30
0.0
 11
4.16865349922432
 21
7.21875
 31
0.0
  0
LINE
  5
3C3
330
25
100
AcDbEntity
  8
0
 62
     0
100
AcDbLine
 10
4.173750483713604
 20
7.21875
 30
0.0
 11
4.194696400302465
 21
7.21875
 31
0.0
  0
LINE
  5
3C4
330
25
100
AcDbEntity
  8
0
 62
     0
100
AcDbLine
 10
4.145675101508724
 20
7.2125
 30
0.0
 11
4.166706944063726
 21
7.2125
 31
0.0
  0
LINE
  5
3C5
330
25
100
AcDbEntity
  8
0
 62
     0
100
AcDbLine
 10
4.175697038874197
 20
7.2125
 30
0.0
 11
4.196728881429214
 21
7.2125
 31
0.0
  0
LINE
  5
3C6
330
25
100
AcDbEntity
  8
0
 62
     0
100
AcDbLine
 10
4.143551183314425
 20
7.20625
 30
0.0
 11
4.164673557788107
 21
7.20625
 31
0.0
  0
LINE
  5
3C7
330
25
100
AcDbEntity
  8
0
 62
     0
100
AcDbLine
 10
4.17773042514982
 20
7.20625
 30
0.0
 11
4.198852799623516
 21
7.20625
 31
0.0
  0
LINE
  5
3C8
330
25
100
AcDbEntity
  8
0
 62
     0
100
AcDbLine
 10
4.141334588771703
 20
7.2
 30
0.0
 11
4.162552262360144
 21
7.2
 31
0.0
  0
LINE
  5
3C9
330
25
100
AcDbEntity
  8
0
 62
     0
100
AcDbLine
 10
4.179851720577784
 20
7.2
 30
0.0
 11
4.201069394166239
 21
7.2
 31
0.0
  0
LINE
  5
3CA
330
25
100
AcDbEntity
  8
0
 62
     0
100
AcDbLine
 10
4.139024000520274
 20
7.19375
 30
0.0
 11
4.160341914027816
 21
7.19375
 31
0.0
  0
LINE
  5
3CB
330
25
100
AcDbEntity
  8
0
 62
     0
100
AcDbLine
 10
4.182062068910108
 20
7.19375
 30
0.0
 11
4.203379982417666
 21
7.19375
 31
0.0
  0
LINE
  5
3CC
330
25
100
AcDbEntity
  8
0
 62
     0
100
AcDbLine
 10
4.136618018618079
 20
7.1875
 30
0.0
 11
4.158041299813144
 21
7.1875
 31
0.0
  0
LINE
  5
3CD
330
25
100
AcDbEntity
  8
0
 62
     0
100
AcDbLine
 10
4.18436268312478
 20
7.1875
 30
0.0
 11
4.20578596431986
 21
7.1875
 31
0.0
  0
LINE
  5
3CE
330
25
100
AcDbEntity
  8
0
 62
     0
100
AcDbLine
 10
4.134115155615204
 20
7.18125
 30
0.0
 11
4.155649133687051
 21
7.18125
 31
0.0
  0
LINE
  5
3CF
330
25
100
AcDbEntity
  8
0
 62
     0
100
AcDbLine
 10
4.186754849250876
 20
7.18125
 30
0.0
 11
4.208288827322737
 21
7.18125
 31
0.0
  0
LINE
  5
3D0
330
25
100
AcDbEntity
  8
0
 62
     0
100
AcDbLine
 10
4.131513831158817
 20
7.175
 30
0.0
 11
4.153164052399043
 21
7.175
 31
0.0
  0
LINE
  5
3D1
330
25
100
AcDbEntity
  8
0
 62
     0
100
AcDbLine
 10
4.189239930538879
 20
7.175
 30
0.0
 11
4.210890151779121
 21
7.175
 31
0.0
  0
LINE
  5
3D2
330
25
100
AcDbEntity
  8
0
 62
     0
100
AcDbLine
 10
4.128812366077735
 20
7.16875
 30
0.0
 11
4.1505846109264
 21
7.16875
 31
0.0
  0
LINE
  5
3D3
330
25
100
AcDbEntity
  8
0
 62
     0
100
AcDbLine
 10
4.191819372011525
 20
7.16875
 30
0.0
 11
4.213591616860204
 21
7.16875
 31
0.0
  0
LINE
  5
3D4
330
25
100
AcDbEntity
  8
0
 62
     0
100
AcDbLine
 10
4.126008975888199
 20
7.1625
 30
0.0
 11
4.147909277503027
 21
7.1625
 31
0.0
  0
LINE
  5
3D5
330
25
100
AcDbEntity
  8
0
 62
     0
100
AcDbLine
 10
4.194494705434896
 20
7.1625
 30
0.0
 11
4.216395007049741
 21
7.1625
 31
0.0
  0
LINE
  5
3D6
330
25
100
AcDbEntity
  8
0
 62
     0
100
AcDbLine
 10
4.123101763654189
 20
7.15625
 30
0.0
 11
4.145136428182898
 21
7.15625
 31
0.0
  0
LINE
  5
3D7
330
25
100
AcDbEntity
  8
0
 62
     0
100
AcDbLine
 10
4.197267554755029
 20
7.15625
 30
0.0
 11
4.219302219283752
 21
7.15625
 31
0.0
  0
ENDBLK
  5
3D8
330
25
100
AcDbEntity
  8
0
100
AcDbBlockEnd
  0
BLOCK
  5
3D9
330
26
100
AcDbEntity
  8
0
100
AcDbBlockBegin
  2
SBBT
 70
     0
 10
0.0
 20
0.0
 30
0.0
  3
SBBT
  1

  0
TEXT
  5
3DA
330
26
100
AcDbEntity
  8
0
100
AcDbText
 10
-0.6618640508256033
 20
0.338139455665849
 30
0.0
 40
0.156
  1
B
  7
COMPLEX
 72
     1
 11
-0.5838640508256035
 21
0.338139455665849
 31
0.0
100
AcDbText
  0
INSERT
  5
3DB
330
26
100
AcDbEntity
  8
0
100
AcDbBlockReference
  2
*X5
 10
6.921648479033177
 20
-3.748701991468968
 30
0.0
 50
90.0
  0
LINE
  5
3DC
330
26
100
AcDbEntity
  8
0
100
AcDbLine
 10
-0.2292366486465225
 20
0.451024804847763
 30
0.0
 11
-0.2292366486465216
 21
0.4731800571979621
 31
0.0
  0
LINE
  5
3DD
330
26
100
AcDbEntity
  8
0
100
AcDbLine
 10
-0.2292366486465216
 20
0.3939751951522217
 30
0.0
 11
-0.2292366486465216
 21
0.371819942802035
 31
0.0
  0
LINE
  5
3DE
330
26
100
AcDbEntity
  8
0
100
AcDbLine
 10
-0.2292366486465216
 20
0.3939751951522217
 30
0.0
 11
-0.2292366486465216
 21
0.4074999999999998
 31
0.0
  0
ARC
  5
3DF
330
26
100
AcDbEntity
  8
0
100
AcDbCircle
 10
-0.4486009293161688
 20
0.9224898749921965
 30
0.0
 40
0.5200000000000001
100
AcDbArc
 50
285.9464297556974
 51
294.951718091778
  0
ARC
  5
3E0
330
26
100
AcDbEntity
  8
0
100
AcDbCircle
 10
-0.4486009293161688
 20
-0.0774898749921995
 30
0.0
 40
0.5200000000000001
100
AcDbArc
 50
65.04828190822165
 51
74.0535702443027
  0
ARC
  5
3E1
330
26
100
AcDbEntity
  8
0
100
AcDbCircle
 10
-0.4486009293161688
 20
0.9224898749921965
 30
0.0
 40
0.5
100
AcDbArc
 50
269.6353711361726
 51
296.0227864572306
  0
LINE
  5
3E2
330
26
100
AcDbEntity
  8
0
100
AcDbLine
 10
-0.2292366486465216
 20
0.4374999999999992
 30
0.0
 11
-0.2292366486465216
 21
0.4374999999999992
 31
0.0
  0
ARC
  5
3E3
330
26
100
AcDbEntity
  8
0
100
AcDbCircle
 10
-0.4486009293161688
 20
-0.0774898749921995
 30
0.0
 40
0.5
100
AcDbArc
 50
63.97721354276936
 51
90.36462886382741
  0
LINE
  5
3E4
330
26
100
AcDbEntity
  8
0
100
AcDbLine
 10
0.0
 20
0.4571321552628529
 30
0.0
 11
0.0
 21
0.0
 31
0.0
  0
LINE
  5
3E5
330
26
100
AcDbEntity
  8
0
100
AcDbLine
 10
-0.0299999999999994
 20
0.4224999999999995
 30
0.0
 11
-0.0299999999999994
 21
-0.0000000000000009
 31
0.0
  0
LINE
  5
3E6
330
26
100
AcDbEntity
  8
0
100
AcDbLine
 10
-0.2292366486465216
 20
0.4374999999999992
 30
0.0
 11
0.017923002649547
 21
0.4374999999999992
 31
0.0
  0
LINE
  5
3E7
330
26
100
AcDbEntity
  8
0
100
AcDbLine
 10
-0.2292366486465216
 20
0.4074999999999998
 30
0.0
 11
-0.0149999999999988
 21
0.4074999999999989
 31
0.0
  0
LINE
  5
3E8
330
26
100
AcDbEntity
  8
0
100
AcDbLine
 10
-0.2292366486465216
 20
0.4374999999999983
 30
0.0
 11
-0.2292366486465225
 21
0.451024804847763
 31
0.0
  0
ENDBLK
  5
3E9
330
26
100
AcDbEntity
  8
0
100
AcDbBlockEnd
  0
BLOCK
  5
3EA
330
27
100
AcDbEntity
  8
0
100
AcDbBlockBegin
  2
*X5
 70
     1
 10
0.0
 20
0.0
 30
0.0
  3
*X5
  1

  0
LINE
  5
3EB
330
27
100
AcDbEntity
  8
0
 62
     0
100
AcDbLine
 10
4.158042821030212
 20
7.25625
 30
0.0
 11
4.184361161907728
 21
7.25625
 31
0.0
  0
LINE
  5
3EC
330
27
100
AcDbEntity
  8
0
 62
     0
100
AcDbLine
 10
4.159464167164085
 20
7.2625
 30
0.0
 11
4.182939815773856
 21
7.2625
 31
0.0
  0
LINE
  5
3ED
330
27
100
AcDbEntity
  8
0
 62
     0
100
AcDbLine
 10
4.160801607892522
 20
7.26875
 30
0.0
 11
4.181602375045417
 21
7.26875
 31
0.0
  0
LINE
  5
3EE
330
27
100
AcDbEntity
  8
0
 62
     0
100
AcDbLine
 10
4.162055829087108
 20
7.275
 30
0.0
 11
4.180348153850832
 21
7.275
 31
0.0
  0
LINE
  5
3EF
330
27
100
AcDbEntity
  8
0
 62
     0
100
AcDbLine
 10
4.163227467165616
 20
7.28125
 30
0.0
 11
4.179176515772323
 21
7.28125
 31
0.0
  0
LINE
  5
3F0
330
27
100
AcDbEntity
  8
0
 62
     0
100
AcDbLine
 10
4.1643171107912
 20
7.2875
 30
0.0
 11
4.178086872146739
 21
7.2875
 31
0.0
  0
LINE
  5
3F1
330
27
100
AcDbEntity
  8
0
 62
     0
100
AcDbLine
 10
4.165325302419223
 20
7.29375
 30
0.0
 11
4.177078680518715
 21
7.29375
 31
0.0
  0
LINE
  5
3F2
330
27
100
AcDbEntity
  8
0
 62
     0
100
AcDbLine
 10
4.16625253970155
 20
7.3
 30
0.0
 11
4.17615144323639
 21
7.3
 31
0.0
  0
LINE
  5
3F3
330
27
100
AcDbEntity
  8
0
 62
     0
100
AcDbLine
 10
4.167099276757146
 20
7.30625
 30
0.0
 11
4.175304706180795
 21
7.30625
 31
0.0
  0
LINE
  5
3F4
330
27
100
AcDbEntity
  8
0
 62
     0
100
AcDbLine
 10
4.167865925316793
 20
7.3125
 30
0.0
 11
4.174538057621145
 21
7.3125
 31
0.0
  0
LINE
  5
3F5
330
27
100
AcDbEntity
  8
0
 62
     0
100
AcDbLine
 10
4.16855285574882
 20
7.31875
 30
0.0
 11
4.17385112718912
 21
7.31875
 31
0.0
  0
LINE
  5
3F6
330
27
100
AcDbEntity
  8
0
 62
     0
100
AcDbLine
 10
4.169160397971983
 20
7.325
 30
0.0
 11
4.173243584965957
 21
7.325
 31
0.0
  0
LINE
  5
3F7
330
27
100
AcDbEntity
  8
0
 62
     0
100
AcDbLine
 10
4.169688842260835
 20
7.33125
 30
0.0
 11
4.172715140677103
 21
7.33125
 31
0.0
  0
LINE
  5
3F8
330
27
100
AcDbEntity
  8
0
 62
     0
100
AcDbLine
 10
4.170138439948251
 20
7.3375
 30
0.0
 11
4.172265542989687
 21
7.3375
 31
0.0
  0
LINE
  5
3F9
330
27
100
AcDbEntity
  8
0
 62
     0
100
AcDbLine
 10
4.170509404029122
 20
7.34375
 30
0.0
 11
4.171894578908817
 21
7.34375
 31
0.0
  0
LINE
  5
3FA
330
27
100
AcDbEntity
  8
0
 62
     0
100
AcDbLine
 10
4.170801909668647
 20
7.35
 30
0.0
 11
4.171602073269292
 21
7.35
 31
0.0
  0
LINE
  5
3FB
330
27
100
AcDbEntity
  8
0
 62
     0
100
AcDbLine
 10
4.171016094618071
 20
7.35625
 30
0.0
 11
4.171387888319867
 21
7.35625
 31
0.0
  0
LINE
  5
3FC
330
27
100
AcDbEntity
  8
0
 62
     0
100
AcDbLine
 10
4.171152059540171
 20
7.3625
 30
0.0
 11
4.171251923397766
 21
7.3625
 31
0.0
  0
LINE
  5
3FD
330
27
100
AcDbEntity
  8
0
 62
     0
100
AcDbLine
 10
4.17119411469162
 20
7.36875
 30
0.0
 11
4.171209868246319
 21
7.36875
 31
0.0
  0
LINE
  5
3FE
330
27
100
AcDbEntity
  8
0
 62
     0
100
AcDbLine
 10
4.156536832302816
 20
7.25
 30
0.0
 11
4.185867150635123
 21
7.25
 31
0.0
  0
LINE
  5
3FF
330
27
100
AcDbEntity
  8
0
 62
     0
100
AcDbLine
 10
4.154945410438709
 20
7.24375
 30
0.0
 11
4.187458572499231
 21
7.24375
 31
0.0
  0
LINE
  5
400
330
27
100
AcDbEntity
  8
0
 62
     0
100
AcDbLine
 10
4.153267709311144
 20
7.2375
 30
0.0
 11
4.189136273626795
 21
7.2375
 31
0.0
  0
LINE
  5
401
330
27
100
AcDbEntity
  8
0
 62
     0
100
AcDbLine
 10
4.151502824775956
 20
7.23125
 30
0.0
 11
4.190901158161984
 21
7.23125
 31
0.0
  0
LINE
  5
402
330
27
100
AcDbEntity
  8
0
 62
     0
100
AcDbLine
 10
4.149649792014731
 20
7.225
 30
0.0
 11
4.170514238817704
 21
7.225
 31
0.0
  0
LINE
  5
403
330
27
100
AcDbEntity
  8
0
 62
     0
100
AcDbLine
 10
4.17188974412022
 20
7.225
 30
0.0
 11
4.192754190923209
 21
7.225
 31
0.0
  0
LINE
  5
404
330
27
100
AcDbEntity
  8
0
 62
     0
100
AcDbLine
 10
4.147707582635473
 20
7.21875
 30
0.0
 11
4.16865349922432
 21
7.21875
 31
0.0
  0
LINE
  5
405
330
27
100
AcDbEntity
  8
0
 62
     0
100
AcDbLine
 10
4.173750483713604
 20
7.21875
 30
0.0
 11
4.194696400302465
 21
7.21875
 31
0.0
  0
LINE
  5
406
330
27
100
AcDbEntity
  8
0
 62
     0
100
AcDbLine
 10
4.145675101508724
 20
7.2125
 30
0.0
 11
4.166706944063726
 21
7.2125
 31
0.0
  0
LINE
  5
407
330
27
100
AcDbEntity
  8
0
 62
     0
100
AcDbLine
 10
4.175697038874197
 20
7.2125
 30
0.0
 11
4.196728881429214
 21
7.2125
 31
0.0
  0
LINE
  5
408
330
27
100
AcDbEntity
  8
0
 62
     0
100
AcDbLine
 10
4.143551183314425
 20
7.20625
 30
0.0
 11
4.164673557788107
 21
7.20625
 31
0.0
  0
LINE
  5
409
330
27
100
AcDbEntity
  8
0
 62
     0
100
AcDbLine
 10
4.17773042514982
 20
7.20625
 30
0.0
 11
4.198852799623516
 21
7.20625
 31
0.0
  0
LINE
  5
40A
330
27
100
AcDbEntity
  8
0
 62
     0
100
AcDbLine
 10
4.141334588771703
 20
7.2
 30
0.0
 11
4.162552262360144
 21
7.2
 31
0.0
  0
LINE
  5
40B
330
27
100
AcDbEntity
  8
0
 62
     0
100
AcDbLine
 10
4.179851720577784
 20
7.2
 30
0.0
 11
4.201069394166239
 21
7.2
 31
0.0
  0
LINE
  5
40C
330
27
100
AcDbEntity
  8
0
 62
     0
100
AcDbLine
 10
4.139024000520274
 20
7.19375
 30
0.0
 11
4.160341914027816
 21
7.19375
 31
0.0
  0
LINE
  5
40D
330
27
100
AcDbEntity
  8
0
 62
     0
100
AcDbLine
 10
4.182062068910108
 20
7.19375
 30
0.0
 11
4.203379982417666
 21
7.19375
 31
0.0
  0
LINE
  5
40E
330
27
100
AcDbEntity
  8
0
 62
     0
100
AcDbLine
 10
4.136618018618079
 20
7.1875
 30
0.0
 11
4.158041299813144
 21
7.1875
 31
0.0
  0
LINE
  5
40F
330
27
100
AcDbEntity
  8
0
 62
     0
100
AcDbLine
 10
4.18436268312478
 20
7.1875
 30
0.0
 11
4.20578596431986
 21
7.1875
 31
0.0
  0
LINE
  5
410
330
27
100
AcDbEntity
  8
0
 62
     0
100
AcDbLine
 10
4.134115155615204
 20
7.18125
 30
0.0
 11
4.155649133687051
 21
7.18125
 31
0.0
  0
LINE
  5
411
330
27
100
AcDbEntity
  8
0
 62
     0
100
AcDbLine
 10
4.186754849250876
 20
7.18125
 30
0.0
 11
4.208288827322737
 21
7.18125
 31
0.0
  0
LINE
  5
412
330
27
100
AcDbEntity
  8
0
 62
     0
100
AcDbLine
 10
4.131513831158817
 20
7.175
 30
0.0
 11
4.153164052399043
 21
7.175
 31
0.0
  0
LINE
  5
413
330
27
100
AcDbEntity
  8
0
 62
     0
100
AcDbLine
 10
4.189239930538879
 20
7.175
 30
0.0
 11
4.210890151779121
 21
7.175
 31
0.0
  0
LINE
  5
414
330
27
100
AcDbEntity
  8
0
 62
     0
100
AcDbLine
 10
4.128812366077735
 20
7.16875
 30
0.0
 11
4.1505846109264
 21
7.16875
 31
0.0
  0
LINE
  5
415
330
27
100
AcDbEntity
  8
0
 62
     0
100
AcDbLine
 10
4.191819372011525
 20
7.16875
 30
0.0
 11
4.213591616860204
 21
7.16875
 31
0.0
  0
LINE
  5
416
330
27
100
AcDbEntity
  8
0
 62
     0
100
AcDbLine
 10
4.126008975888199
 20
7.1625
 30
0.0
 11
4.147909277503027
 21
7.1625
 31
0.0
  0
LINE
  5
417
330
27
100
AcDbEntity
  8
0
 62
     0
100
AcDbLine
 10
4.194494705434896
 20
7.1625
 30
0.0
 11
4.216395007049741
 21
7.1625
 31
0.0
  0
LINE
  5
418
330
27
100
AcDbEntity
  8
0
 62
     0
100
AcDbLine
 10
4.123101763654189
 20
7.15625
 30
0.0
 11
4.145136428182898
 21
7.15625
 31
0.0
  0
LINE
  5
419
330
27
100
AcDbEntity
  8
0
 62
     0
100
AcDbLine
 10
4.197267554755029
 20
7.15625
 30
0.0
 11
4.219302219283752
 21
7.15625
 31
0.0
  0
ENDBLK
  5
41A
330
27
100
AcDbEntity
  8
0
100
AcDbBlockEnd
  0
BLOCK
  5
41B
330
28
100
AcDbEntity
  8
0
100
AcDbBlockBegin
  2
SBBB
 70
     0
 10
0.0
 20
0.0
 30
0.0
  3
SBBB
  1

  0
TEXT
  5
41C
330
28
100
AcDbEntity
  8
0
100
AcDbText
 10
-0.6558782172982847
 20
-0.50536529293236
 30
0.0
 40
0.156
  1
B
  7
COMPLEX
 72
     1
 11
-0.5778782172982849
 21
-0.50536529293236
 31
0.0
100
AcDbText
  0
LINE
  5
41D
330
28
100
AcDbEntity
  8
0
100
AcDbLine
 10
-0.2292366486465216
 20
-0.4374999999999983
 30
0.0
 11
-0.2292366486465225
 21
-0.451024804847763
 31
0.0
  0
LINE
  5
41E
330
28
100
AcDbEntity
  8
0
100
AcDbLine
 10
-0.2292366486465216
 20
-0.4074999999999998
 30
0.0
 11
-0.0149999999999988
 21
-0.4074999999999989
 31
0.0
  0
LINE
  5
41F
330
28
100
AcDbEntity
  8
0
100
AcDbLine
 10
-0.2292366486465216
 20
-0.4374999999999992
 30
0.0
 11
0.017923002649547
 21
-0.4374999999999992
 31
0.0
  0
LINE
  5
420
330
28
100
AcDbEntity
  8
0
100
AcDbLine
 10
-0.0299999999999994
 20
-0.4224999999999995
 30
0.0
 11
-0.0299999999999994
 21
0.0000000000000009
 31
0.0
  0
LINE
  5
421
330
28
100
AcDbEntity
  8
0
100
AcDbLine
 10
0.0
 20
-0.4571321552628529
 30
0.0
 11
0.0
 21
0.0
 31
0.0
  0
ARC
  5
422
330
28
100
AcDbEntity
  8
0
100
AcDbCircle
 10
-0.4486009293161688
 20
0.0774898749921995
 30
0.0
 40
0.5
100
AcDbArc
 50
269.6353711361726
 51
296.0227864572306
  0
LINE
  5
423
330
28
100
AcDbEntity
  8
0
100
AcDbLine
 10
-0.2292366486465216
 20
-0.4374999999999992
 30
0.0
 11
-0.2292366486465216
 21
-0.4374999999999992
 31
0.0
  0
ARC
  5
424
330
28
100
AcDbEntity
  8
0
100
AcDbCircle
 10
-0.4486009293161688
 20
-0.9224898749921965
 30
0.0
 40
0.5
100
AcDbArc
 50
63.97721354276936
 51
90.36462886382739
  0
ARC
  5
425
330
28
100
AcDbEntity
  8
0
100
AcDbCircle
 10
-0.4486009293161688
 20
0.0774898749921995
 30
0.0
 40
0.5200000000000001
100
AcDbArc
 50
285.9464297556974
 51
294.9517180917784
  0
ARC
  5
426
330
28
100
AcDbEntity
  8
0
100
AcDbCircle
 10
-0.4486009293161688
 20
-0.9224898749921965
 30
0.0
 40
0.5200000000000001
100
AcDbArc
 50
65.04828190822201
 51
74.0535702443027
  0
LINE
  5
427
330
28
100
AcDbEntity
  8
0
100
AcDbLine
 10
-0.2292366486465216
 20
-0.3939751951522217
 30
0.0
 11
-0.2292366486465216
 21
-0.4074999999999998
 31
0.0
  0
LINE
  5
428
330
28
100
AcDbEntity
  8
0
100
AcDbLine
 10
-0.2292366486465216
 20
-0.3939751951522217
 30
0.0
 11
-0.2292366486465216
 21
-0.371819942802035
 31
0.0
  0
LINE
  5
429
330
28
100
AcDbEntity
  8
0
100
AcDbLine
 10
-0.2292366486465225
 20
-0.451024804847763
 30
0.0
 11
-0.2292366486465216
 21
-0.4731800571979621
 31
0.0
  0
INSERT
  5
42A
330
28
100
AcDbEntity
  8
0
100
AcDbBlockReference
  2
*X7
 10
6.921648479033177
 20
3.748701991468968
 30
0.0
 41
-1.0
 50
90.0
  0
ENDBLK
  5
42B
330
28
100
AcDbEntity
  8
0
100
AcDbBlockEnd
  0
BLOCK
  5
42C
330
29
100
AcDbEntity
  8
0
100
AcDbBlockBegin
  2
*X7
 70
     1
 10
0.0
 20
0.0
 30
0.0
  3
*X7
  1

  0
LINE
  5
42D
330
29
100
AcDbEntity
  8
0
 62
     0
100
AcDbLine
 10
4.158042821030212
 20
7.25625
 30
0.0
 11
4.184361161907728
 21
7.25625
 31
0.0
  0
LINE
  5
42E
330
29
100
AcDbEntity
  8
0
 62
     0
100
AcDbLine
 10
4.159464167164085
 20
7.2625
 30
0.0
 11
4.182939815773856
 21
7.2625
 31
0.0
  0
LINE
  5
42F
330
29
100
AcDbEntity
  8
0
 62
     0
100
AcDbLine
 10
4.160801607892522
 20
7.26875
 30
0.0
 11
4.181602375045417
 21
7.26875
 31
0.0
  0
LINE
  5
430
330
29
100
AcDbEntity
  8
0
 62
     0
100
AcDbLine
 10
4.162055829087108
 20
7.275
 30
0.0
 11
4.180348153850832
 21
7.275
 31
0.0
  0
LINE
  5
431
330
29
100
AcDbEntity
  8
0
 62
     0
100
AcDbLine
 10
4.163227467165616
 20
7.28125
 30
0.0
 11
4.179176515772323
 21
7.28125
 31
0.0
  0
LINE
  5
432
330
29
100
AcDbEntity
  8
0
 62
     0
100
AcDbLine
 10
4.1643171107912
 20
7.2875
 30
0.0
 11
4.178086872146739
 21
7.2875
 31
0.0
  0
LINE
  5
433
330
29
100
AcDbEntity
  8
0
 62
     0
100
AcDbLine
 10
4.165325302419223
 20
7.29375
 30
0.0
 11
4.177078680518715
 21
7.29375
 31
0.0
  0
LINE
  5
434
330
29
100
AcDbEntity
  8
0
 62
     0
100
AcDbLine
 10
4.16625253970155
 20
7.3
 30
0.0
 11
4.17615144323639
 21
7.3
 31
0.0
  0
LINE
  5
435
330
29
100
AcDbEntity
  8
0
 62
     0
100
AcDbLine
 10
4.167099276757146
 20
7.30625
 30
0.0
 11
4.175304706180795
 21
7.30625
 31
0.0
  0
LINE
  5
436
330
29
100
AcDbEntity
  8
0
 62
     0
100
AcDbLine
 10
4.167865925316793
 20
7.3125
 30
0.0
 11
4.174538057621145
 21
7.3125
 31
0.0
  0
LINE
  5
437
330
29
100
AcDbEntity
  8
0
 62
     0
100
AcDbLine
 10
4.16855285574882
 20
7.31875
 30
0.0
 11
4.17385112718912
 21
7.31875
 31
0.0
  0
LINE
  5
438
330
29
100
AcDbEntity
  8
0
 62
     0
100
AcDbLine
 10
4.169160397971983
 20
7.325
 30
0.0
 11
4.173243584965957
 21
7.325
 31
0.0
  0
LINE
  5
439
330
29
100
AcDbEntity
  8
0
 62
     0
100
AcDbLine
 10
4.169688842260835
 20
7.33125
 30
0.0
 11
4.172715140677103
 21
7.33125
 31
0.0
  0
LINE
  5
43A
330
29
100
AcDbEntity
  8
0
 62
     0
100
AcDbLine
 10
4.170138439948251
 20
7.3375
 30
0.0
 11
4.172265542989687
 21
7.3375
 31
0.0
  0
LINE
  5
43B
330
29
100
AcDbEntity
  8
0
 62
     0
100
AcDbLine
 10
4.170509404029122
 20
7.34375
 30
0.0
 11
4.171894578908817
 21
7.34375
 31
0.0
  0
LINE
  5
43C
330
29
100
AcDbEntity
  8
0
 62
     0
100
AcDbLine
 10
4.170801909668647
 20
7.35
 30
0.0
 11
4.171602073269292
 21
7.35
 31
0.0
  0
LINE
  5
43D
330
29
100
AcDbEntity
  8
0
 62
     0
100
AcDbLine
 10
4.171016094618071
 20
7.35625
 30
0.0
 11
4.171387888319867
 21
7.35625
 31
0.0
  0
LINE
  5
43E
330
29
100
AcDbEntity
  8
0
 62
     0
100
AcDbLine
 10
4.171152059540171
 20
7.3625
 30
0.0
 11
4.171251923397766
 21
7.3625
 31
0.0
  0
LINE
  5
43F
330
29
100
AcDbEntity
  8
0
 62
     0
100
AcDbLine
 10
4.17119411469162
 20
7.36875
 30
0.0
 11
4.171209868246319
 21
7.36875
 31
0.0
  0
LINE
  5
440
330
29
100
AcDbEntity
  8
0
 62
     0
100
AcDbLine
 10
4.156536832302816
 20
7.25
 30
0.0
 11
4.185867150635123
 21
7.25
 31
0.0
  0
LINE
  5
441
330
29
100
AcDbEntity
  8
0
 62
     0
100
AcDbLine
 10
4.154945410438709
 20
7.24375
 30
0.0
 11
4.187458572499231
 21
7.24375
 31
0.0
  0
LINE
  5
442
330
29
100
AcDbEntity
  8
0
 62
     0
100
AcDbLine
 10
4.153267709311144
 20
7.2375
 30
0.0
 11
4.189136273626795
 21
7.2375
 31
0.0
  0
LINE
  5
443
330
29
100
AcDbEntity
  8
0
 62
     0
100
AcDbLine
 10
4.151502824775956
 20
7.23125
 30
0.0
 11
4.190901158161984
 21
7.23125
 31
0.0
  0
LINE
  5
444
330
29
100
AcDbEntity
  8
0
 62
     0
100
AcDbLine
 10
4.149649792014731
 20
7.225
 30
0.0
 11
4.170514238817704
 21
7.225
 31
0.0
  0
LINE
  5
445
330
29
100
AcDbEntity
  8
0
 62
     0
100
AcDbLine
 10
4.17188974412022
 20
7.225
 30
0.0
 11
4.192754190923209
 21
7.225
 31
0.0
  0
LINE
  5
446
330
29
100
AcDbEntity
  8
0
 62
     0
100
AcDbLine
 10
4.147707582635473
 20
7.21875
 30
0.0
 11
4.16865349922432
 21
7.21875
 31
0.0
  0
LINE
  5
447
330
29
100
AcDbEntity
  8
0
 62
     0
100
AcDbLine
 10
4.173750483713604
 20
7.21875
 30
0.0
 11
4.194696400302465
 21
7.21875
 31
0.0
  0
LINE
  5
448
330
29
100
AcDbEntity
  8
0
 62
     0
100
AcDbLine
 10
4.145675101508724
 20
7.2125
 30
0.0
 11
4.166706944063726
 21
7.2125
 31
0.0
  0
LINE
  5
449
330
29
100
AcDbEntity
  8
0
 62
     0
100
AcDbLine
 10
4.175697038874197
 20
7.2125
 30
0.0
 11
4.196728881429214
 21
7.2125
 31
0.0
  0
LINE
  5
44A
330
29
100
AcDbEntity
  8
0
 62
     0
100
AcDbLine
 10
4.143551183314425
 20
7.20625
 30
0.0
 11
4.164673557788107
 21
7.20625
 31
0.0
  0
LINE
  5
44B
330
29
100
AcDbEntity
  8
0
 62
     0
100
AcDbLine
 10
4.17773042514982
 20
7.20625
 30
0.0
 11
4.198852799623516
 21
7.20625
 31
0.0
  0
LINE
  5
44C
330
29
100
AcDbEntity
  8
0
 62
     0
100
AcDbLine
 10
4.141334588771703
 20
7.2
 30
0.0
 11
4.162552262360144
 21
7.2
 31
0.0
  0
LINE
  5
44D
330
29
100
AcDbEntity
  8
0
 62
     0
100
AcDbLine
 10
4.179851720577784
 20
7.2
 30
0.0
 11
4.201069394166239
 21
7.2
 31
0.0
  0
LINE
  5
44E
330
29
100
AcDbEntity
  8
0
 62
     0
100
AcDbLine
 10
4.139024000520274
 20
7.19375
 30
0.0
 11
4.160341914027816
 21
7.19375
 31
0.0
  0
LINE
  5
44F
330
29
100
AcDbEntity
  8
0
 62
     0
100
AcDbLine
 10
4.182062068910108
 20
7.19375
 30
0.0
 11
4.203379982417666
 21
7.19375
 31
0.0
  0
LINE
  5
450
330
29
100
AcDbEntity
  8
0
 62
     0
100
AcDbLine
 10
4.136618018618079
 20
7.1875
 30
0.0
 11
4.158041299813144
 21
7.1875
 31
0.0
  0
LINE
  5
451
330
29
100
AcDbEntity
  8
0
 62
     0
100
AcDbLine
 10
4.18436268312478
 20
7.1875
 30
0.0
 11
4.20578596431986
 21
7.1875
 31
0.0
  0
LINE
  5
452
330
29
100
AcDbEntity
  8
0
 62
     0
100
AcDbLine
 10
4.134115155615204
 20
7.18125
 30
0.0
 11
4.155649133687051
 21
7.18125
 31
0.0
  0
LINE
  5
453
330
29
100
AcDbEntity
  8
0
 62
     0
100
AcDbLine
 10
4.186754849250876
 20
7.18125
 30
0.0
 11
4.208288827322737
 21
7.18125
 31
0.0
  0
LINE
  5
454
330
29
100
AcDbEntity
  8
0
 62
     0
100
AcDbLine
 10
4.131513831158817
 20
7.175
 30
0.0
 11
4.153164052399043
 21
7.175
 31
0.0
  0
LINE
  5
455
330
29
100
AcDbEntity
  8
0
 62
     0
100
AcDbLine
 10
4.189239930538879
 20
7.175
 30
0.0
 11
4.210890151779121
 21
7.175
 31
0.0
  0
LINE
  5
456
330
29
100
AcDbEntity
  8
0
 62
     0
100
AcDbLine
 10
4.128812366077735
 20
7.16875
 30
0.0
 11
4.1505846109264
 21
7.16875
 31
0.0
  0
LINE
  5
457
330
29
100
AcDbEntity
  8
0
 62
     0
100
AcDbLine
 10
4.191819372011525
 20
7.16875
 30
0.0
 11
4.213591616860204
 21
7.16875
 31
0.0
  0
LINE
  5
458
330
29
100
AcDbEntity
  8
0
 62
     0
100
AcDbLine
 10
4.126008975888199
 20
7.1625
 30
0.0
 11
4.147909277503027
 21
7.1625
 31
0.0
  0
LINE
  5
459
330
29
100
AcDbEntity
  8
0
 62
     0
100
AcDbLine
 10
4.194494705434896
 20
7.1625
 30
0.0
 11
4.216395007049741
 21
7.1625
 31
0.0
  0
LINE
  5
45A
330
29
100
AcDbEntity
  8
0
 62
     0
100
AcDbLine
 10
4.123101763654189
 20
7.15625
 30
0.0
 11
4.145136428182898
 21
7.15625
 31
0.0
  0
LINE
  5
45B
330
29
100
AcDbEntity
  8
0
 62
     0
100
AcDbLine
 10
4.197267554755029
 20
7.15625
 30
0.0
 11
4.219302219283752
 21
7.15625
 31
0.0
  0
ENDBLK
  5
45C
330
29
100
AcDbEntity
  8
0
100
AcDbBlockEnd
  0
BLOCK
  5
56F
330
2E
100
AcDbEntity
  8
0
100
AcDbBlockBegin
  2
SAAL
 70
     0
 10
0.0
 20
0.0
 30
0.0
  3
SAAL
  1

  0
TEXT
  5
570
330
2E
100
AcDbEntity
  8
0
100
AcDbText
 10
-0.5040834610697376
 20
0.5122863324383254
 30
0.0
 40
0.156
  1
A
  7
COMPLEX
 72
     1
 11
-0.4297977467840233
 21
0.5122863324383254
 31
0.0
100
AcDbText
  0
INSERT
  5
571
330
2E
100
AcDbEntity
  8
0
100
AcDbBlockReference
  2
*X9
 10
3.748701991468969
 20
-6.921648479033177
 30
0.0
 41
-1.0
  0
LINE
  5
572
330
2E
100
AcDbEntity
  8
0
100
AcDbLine
 10
-0.4510248048477635
 20
0.2292366486465225
 30
0.0
 11
-0.4731800571979626
 21
0.2292366486465216
 31
0.0
  0
LINE
  5
573
330
2E
100
AcDbEntity
  8
0
100
AcDbLine
 10
-0.3939751951522221
 20
0.2292366486465216
 30
0.0
 11
-0.3718199428020354
 21
0.2292366486465216
 31
0.0
  0
LINE
  5
574
330
2E
100
AcDbEntity
  8
0
100
AcDbLine
 10
-0.3939751951522221
 20
0.2292366486465216
 30
0.0
 11
-0.4075000000000002
 21
0.2292366486465216
 31
0.0
  0
ARC
  5
575
330
2E
100
AcDbEntity
  8
0
100
AcDbCircle
 10
-0.9224898749921969
 20
0.4486009293161688
 30
0.0
 40
0.5200000000000001
100
AcDbArc
 50
335.048281908222
 51
344.0535702443027
  0
ARC
  5
576
330
2E
100
AcDbEntity
  8
0
100
AcDbCircle
 10
0.0774898749921995
 20
0.4486009293161688
 30
0.0
 40
0.5200000000000001
100
AcDbArc
 50
195.9464297556973
 51
204.9517180917784
  0
ARC
  5
577
330
2E
100
AcDbEntity
  8
0
100
AcDbCircle
 10
-0.9224898749921969
 20
0.4486009293161688
 30
0.0
 40
0.5
100
AcDbArc
 50
333.9772135427694
 51
0.3646288638273872
  0
LINE
  5
578
330
2E
100
AcDbEntity
  8
0
100
AcDbLine
 10
-0.4374999999999996
 20
0.2292366486465216
 30
0.0
 11
-0.4374999999999996
 21
0.2292366486465216
 31
0.0
  0
ARC
  5
579
330
2E
100
AcDbEntity
  8
0
100
AcDbCircle
 10
0.0774898749921995
 20
0.4486009293161688
 30
0.0
 40
0.5
100
AcDbArc
 50
179.6353711361726
 51
206.0227864572306
  0
LINE
  5
57A
330
2E
100
AcDbEntity
  8
0
100
AcDbLine
 10
-0.4571321552628534
 20
0.0
 30
0.0
 11
0.0
 21
0.0
 31
0.0
  0
LINE
  5
57B
330
2E
100
AcDbEntity
  8
0
100
AcDbLine
 10
-0.4224999999999999
 20
0.0299999999999994
 30
0.0
 11
0.0000000000000009
 21
0.0299999999999994
 31
0.0
  0
LINE
  5
57C
330
2E
100
AcDbEntity
  8
0
100
AcDbLine
 10
-0.4374999999999996
 20
0.2292366486465216
 30
0.0
 11
-0.4374999999999996
 21
-0.017923002649547
 31
0.0
  0
LINE
  5
57D
330
2E
100
AcDbEntity
  8
0
100
AcDbLine
 10
-0.4075000000000002
 20
0.2292366486465216
 30
0.0
 11
-0.4074999999999993
 21
0.0149999999999988
 31
0.0
  0
LINE
  5
57E
330
2E
100
AcDbEntity
  8
0
100
AcDbLine
 10
-0.4374999999999987
 20
0.2292366486465216
 30
0.0
 11
-0.4510248048477635
 21
0.2292366486465225
 31
0.0
  0
ENDBLK
  5
57F
330
2E
100
AcDbEntity
  8
0
100
AcDbBlockEnd
  0
BLOCK
  5
580
330
2F
100
AcDbEntity
  8
0
100
AcDbBlockBegin
  2
*X9
 70
     1
 10
0.0
 20
0.0
 30
0.0
  3
*X9
  1

  0
LINE
  5
581
330
2F
100
AcDbEntity
  8
0
 62
     0
100
AcDbLine
 10
4.158042821030212
 20
7.25625
 30
0.0
 11
4.184361161907728
 21
7.25625
 31
0.0
  0
LINE
  5
582
330
2F
100
AcDbEntity
  8
0
 62
     0
100
AcDbLine
 10
4.159464167164085
 20
7.2625
 30
0.0
 11
4.182939815773856
 21
7.2625
 31
0.0
  0
LINE
  5
583
330
2F
100
AcDbEntity
  8
0
 62
     0
100
AcDbLine
 10
4.160801607892522
 20
7.26875
 30
0.0
 11
4.181602375045417
 21
7.26875
 31
0.0
  0
LINE
  5
584
330
2F
100
AcDbEntity
  8
0
 62
     0
100
AcDbLine
 10
4.162055829087108
 20
7.275
 30
0.0
 11
4.180348153850832
 21
7.275
 31
0.0
  0
LINE
  5
585
330
2F
100
AcDbEntity
  8
0
 62
     0
100
AcDbLine
 10
4.163227467165616
 20
7.28125
 30
0.0
 11
4.179176515772323
 21
7.28125
 31
0.0
  0
LINE
  5
586
330
2F
100
AcDbEntity
  8
0
 62
     0
100
AcDbLine
 10
4.1643171107912
 20
7.2875
 30
0.0
 11
4.178086872146739
 21
7.2875
 31
0.0
  0
LINE
  5
587
330
2F
100
AcDbEntity
  8
0
 62
     0
100
AcDbLine
 10
4.165325302419223
 20
7.29375
 30
0.0
 11
4.177078680518715
 21
7.29375
 31
0.0
  0
LINE
  5
588
330
2F
100
AcDbEntity
  8
0
 62
     0
100
AcDbLine
 10
4.16625253970155
 20
7.3
 30
0.0
 11
4.17615144323639
 21
7.3
 31
0.0
  0
LINE
  5
589
330
2F
100
AcDbEntity
  8
0
 62
     0
100
AcDbLine
 10
4.167099276757146
 20
7.30625
 30
0.0
 11
4.175304706180795
 21
7.30625
 31
0.0
  0
LINE
  5
58A
330
2F
100
AcDbEntity
  8
0
 62
     0
100
AcDbLine
 10
4.167865925316793
 20
7.3125
 30
0.0
 11
4.174538057621145
 21
7.3125
 31
0.0
  0
LINE
  5
58B
330
2F
100
AcDbEntity
  8
0
 62
     0
100
AcDbLine
 10
4.16855285574882
 20
7.31875
 30
0.0
 11
4.17385112718912
 21
7.31875
 31
0.0
  0
LINE
  5
58C
330
2F
100
AcDbEntity
  8
0
 62
     0
100
AcDbLine
 10
4.169160397971983
 20
7.325
 30
0.0
 11
4.173243584965957
 21
7.325
 31
0.0
  0
LINE
  5
58D
330
2F
100
AcDbEntity
  8
0
 62
     0
100
AcDbLine
 10
4.169688842260835
 20
7.33125
 30
0.0
 11
4.172715140677103
 21
7.33125
 31
0.0
  0
LINE
  5
58E
330
2F
100
AcDbEntity
  8
0
 62
     0
100
AcDbLine
 10
4.170138439948251
 20
7.3375
 30
0.0
 11
4.172265542989687
 21
7.3375
 31
0.0
  0
LINE
  5
58F
330
2F
100
AcDbEntity
  8
0
 62
     0
100
AcDbLine
 10
4.170509404029122
 20
7.34375
 30
0.0
 11
4.171894578908817
 21
7.34375
 31
0.0
  0
LINE
  5
590
330
2F
100
AcDbEntity
  8
0
 62
     0
100
AcDbLine
 10
4.170801909668647
 20
7.35
 30
0.0
 11
4.171602073269292
 21
7.35
 31
0.0
  0
LINE
  5
591
330
2F
100
AcDbEntity
  8
0
 62
     0
100
AcDbLine
 10
4.171016094618071
 20
7.35625
 30
0.0
 11
4.171387888319867
 21
7.35625
 31
0.0
  0
LINE
  5
592
330
2F
100
AcDbEntity
  8
0
 62
     0
100
AcDbLine
 10
4.171152059540171
 20
7.3625
 30
0.0
 11
4.171251923397766
 21
7.3625
 31
0.0
  0
LINE
  5
593
330
2F
100
AcDbEntity
  8
0
 62
     0
100
AcDbLine
 10
4.17119411469162
 20
7.36875
 30
0.0
 11
4.171209868246319
 21
7.36875
 31
0.0
  0
LINE
  5
594
330
2F
100
AcDbEntity
  8
0
 62
     0
100
AcDbLine
 10
4.156536832302816
 20
7.25
 30
0.0
 11
4.185867150635123
 21
7.25
 31
0.0
  0
LINE
  5
595
330
2F
100
AcDbEntity
  8
0
 62
     0
100
AcDbLine
 10
4.154945410438709
 20
7.24375
 30
0.0
 11
4.187458572499231
 21
7.24375
 31
0.0
  0
LINE
  5
596
330
2F
100
AcDbEntity
  8
0
 62
     0
100
AcDbLine
 10
4.153267709311144
 20
7.2375
 30
0.0
 11
4.189136273626795
 21
7.2375
 31
0.0
  0
LINE
  5
597
330
2F
100
AcDbEntity
  8
0
 62
     0
100
AcDbLine
 10
4.151502824775956
 20
7.23125
 30
0.0
 11
4.190901158161984
 21
7.23125
 31
0.0
  0
LINE
  5
598
330
2F
100
AcDbEntity
  8
0
 62
     0
100
AcDbLine
 10
4.149649792014731
 20
7.225
 30
0.0
 11
4.170514238817704
 21
7.225
 31
0.0
  0
LINE
  5
599
330
2F
100
AcDbEntity
  8
0
 62
     0
100
AcDbLine
 10
4.17188974412022
 20
7.225
 30
0.0
 11
4.192754190923209
 21
7.225
 31
0.0
  0
LINE
  5
59A
330
2F
100
AcDbEntity
  8
0
 62
     0
100
AcDbLine
 10
4.147707582635473
 20
7.21875
 30
0.0
 11
4.16865349922432
 21
7.21875
 31
0.0
  0
LINE
  5
59B
330
2F
100
AcDbEntity
  8
0
 62
     0
100
AcDbLine
 10
4.173750483713604
 20
7.21875
 30
0.0
 11
4.194696400302465
 21
7.21875
 31
0.0
  0
LINE
  5
59C
330
2F
100
AcDbEntity
  8
0
 62
     0
100
AcDbLine
 10
4.145675101508724
 20
7.2125
 30
0.0
 11
4.166706944063726
 21
7.2125
 31
0.0
  0
LINE
  5
59D
330
2F
100
AcDbEntity
  8
0
 62
     0
100
AcDbLine
 10
4.175697038874197
 20
7.2125
 30
0.0
 11
4.196728881429214
 21
7.2125
 31
0.0
  0
LINE
  5
59E
330
2F
100
AcDbEntity
  8
0
 62
     0
100
AcDbLine
 10
4.143551183314425
 20
7.20625
 30
0.0
 11
4.164673557788107
 21
7.20625
 31
0.0
  0
LINE
  5
59F
330
2F
100
AcDbEntity
  8
0
 62
     0
100
AcDbLine
 10
4.17773042514982
 20
7.20625
 30
0.0
 11
4.198852799623516
 21
7.20625
 31
0.0
  0
LINE
  5
5A0
330
2F
100
AcDbEntity
  8
0
 62
     0
100
AcDbLine
 10
4.141334588771703
 20
7.2
 30
0.0
 11
4.162552262360144
 21
7.2
 31
0.0
  0
LINE
  5
5A1
330
2F
100
AcDbEntity
  8
0
 62
     0
100
AcDbLine
 10
4.179851720577784
 20
7.2
 30
0.0
 11
4.201069394166239
 21
7.2
 31
0.0
  0
LINE
  5
5A2
330
2F
100
AcDbEntity
  8
0
 62
     0
100
AcDbLine
 10
4.139024000520274
 20
7.19375
 30
0.0
 11
4.160341914027816
 21
7.19375
 31
0.0
  0
LINE
  5
5A3
330
2F
100
AcDbEntity
  8
0
 62
     0
100
AcDbLine
 10
4.182062068910108
 20
7.19375
 30
0.0
 11
4.203379982417666
 21
7.19375
 31
0.0
  0
LINE
  5
5A4
330
2F
100
AcDbEntity
  8
0
 62
     0
100
AcDbLine
 10
4.136618018618079
 20
7.1875
 30
0.0
 11
4.158041299813144
 21
7.1875
 31
0.0
  0
LINE
  5
5A5
330
2F
100
AcDbEntity
  8
0
 62
     0
100
AcDbLine
 10
4.18436268312478
 20
7.1875
 30
0.0
 11
4.20578596431986
 21
7.1875
 31
0.0
  0
LINE
  5
5A6
330
2F
100
AcDbEntity
  8
0
 62
     0
100
AcDbLine
 10
4.134115155615204
 20
7.18125
 30
0.0
 11
4.155649133687051
 21
7.18125
 31
0.0
  0
LINE
  5
5A7
330
2F
100
AcDbEntity
  8
0
 62
     0
100
AcDbLine
 10
4.186754849250876
 20
7.18125
 30
0.0
 11
4.208288827322737
 21
7.18125
 31
0.0
  0
LINE
  5
5A8
330
2F
100
AcDbEntity
  8
0
 62
     0
100
AcDbLine
 10
4.131513831158817
 20
7.175
 30
0.0
 11
4.153164052399043
 21
7.175
 31
0.0
  0
LINE
  5
5A9
330
2F
100
AcDbEntity
  8
0
 62
     0
100
AcDbLine
 10
4.189239930538879
 20
7.175
 30
0.0
 11
4.210890151779121
 21
7.175
 31
0.0
  0
LINE
  5
5AA
330
2F
100
AcDbEntity
  8
0
 62
     0
100
AcDbLine
 10
4.128812366077735
 20
7.16875
 30
0.0
 11
4.1505846109264
 21
7.16875
 31
0.0
  0
LINE
  5
5AB
330
2F
100
AcDbEntity
  8
0
 62
     0
100
AcDbLine
 10
4.191819372011525
 20
7.16875
 30
0.0
 11
4.213591616860204
 21
7.16875
 31
0.0
  0
LINE
  5
5AC
330
2F
100
AcDbEntity
  8
0
 62
     0
100
AcDbLine
 10
4.126008975888199
 20
7.1625
 30
0.0
 11
4.147909277503027
 21
7.1625
 31
0.0
  0
LINE
  5
5AD
330
2F
100
AcDbEntity
  8
0
 62
     0
100
AcDbLine
 10
4.194494705434896
 20
7.1625
 30
0.0
 11
4.216395007049741
 21
7.1625
 31
0.0
  0
LINE
  5
5AE
330
2F
100
AcDbEntity
  8
0
 62
     0
100
AcDbLine
 10
4.123101763654189
 20
7.15625
 30
0.0
 11
4.145136428182898
 21
7.15625
 31
0.0
  0
LINE
  5
5AF
330
2F
100
AcDbEntity
  8
0
 62
     0
100
AcDbLine
 10
4.197267554755029
 20
7.15625
 30
0.0
 11
4.219302219283752
 21
7.15625
 31
0.0
  0
ENDBLK
  5
5B0
330
2F
100
AcDbEntity
  8
0
100
AcDbBlockEnd
  0
BLOCK
  5
A18
330
4E
100
AcDbEntity
  8
0
100
AcDbBlockBegin
  2
*X10
 70
     1
 10
0.0
 20
0.0
 30
0.0
  3
*X10
  1

  0
LINE
  5
A19
330
4E
100
AcDbEntity
  8
0
 62
     0
100
AcDbLine
 10
21.71958537810203
 20
15.35562434742309
 30
0.0
 11
21.84458537810202
 21
15.48062434742309
 31
0.0
  0
LINE
  5
A1A
330
4E
100
AcDbEntity
  8
0
 62
     0
100
AcDbLine
 10
21.71958537810203
 20
16.41628451920291
 30
0.0
 11
21.84458537810202
 21
16.54128451920291
 31
0.0
  0
LINE
  5
A1B
330
4E
100
AcDbEntity
  8
0
 62
     0
100
AcDbLine
 10
21.71958537810202
 20
17.47694469098273
 30
0.0
 11
21.84458537810202
 21
17.60194469098273
 31
0.0
  0
LINE
  5
A1C
330
4E
100
AcDbEntity
  8
0
 62
     0
100
AcDbLine
 10
21.71958537810202
 20
18.53760486276255
 30
0.0
 11
21.84458537810202
 21
18.66260486276255
 31
0.0
  0
LINE
  5
A1D
330
4E
100
AcDbEntity
  8
0
 62
     0
100
AcDbLine
 10
21.71958537810202
 20
19.59826503454237
 30
0.0
 11
21.8913118173429
 21
19.76999147378325
 31
0.0
  0
LINE
  5
A1E
330
4E
100
AcDbEntity
  8
0
 62
     0
100
AcDbLine
 10
21.71958537810203
 20
14.29496417564327
 30
0.0
 11
21.84458537810202
 21
14.41996417564327
 31
0.0
  0
LINE
  5
A1F
330
4E
100
AcDbEntity
  8
0
 62
     0
100
AcDbLine
 10
21.71958537810203
 20
13.23430400386345
 30
0.0
 11
21.84458537810202
 21
13.35930400386345
 31
0.0
  0
LINE
  5
A20
330
4E
100
AcDbEntity
  8
0
 62
     0
100
AcDbLine
 10
21.71958537810203
 20
12.17364383208363
 30
0.0
 11
21.84458537810202
 21
12.29864383208363
 31
0.0
  0
LINE
  5
A21
330
4E
100
AcDbEntity
  8
0
 62
     0
100
AcDbLine
 10
21.71958537810203
 20
11.11298366030381
 30
0.0
 11
21.84458537810203
 21
11.23798366030381
 31
0.0
  0
LINE
  5
A22
330
4E
100
AcDbEntity
  8
0
 62
     0
100
AcDbLine
 10
21.71958537810203
 20
10.05232348852399
 30
0.0
 11
21.84458537810203
 21
10.17732348852399
 31
0.0
  0
LINE
  5
A23
330
4E
100
AcDbEntity
  8
0
 62
     0
100
AcDbLine
 10
21.71958537810203
 20
15.17884765242309
 30
0.0
 11
21.84458537810202
 21
15.30384765242309
 31
0.0
  0
LINE
  5
A24
330
4E
100
AcDbEntity
  8
0
 62
     0
100
AcDbLine
 10
21.71958537810203
 20
16.23950782420291
 30
0.0
 11
21.84458537810202
 21
16.36450782420291
 31
0.0
  0
LINE
  5
A25
330
4E
100
AcDbEntity
  8
0
 62
     0
100
AcDbLine
 10
21.71958537810202
 20
17.30016799598273
 30
0.0
 11
21.84458537810202
 21
17.42516799598273
 31
0.0
  0
LINE
  5
A26
330
4E
100
AcDbEntity
  8
0
 62
     0
100
AcDbLine
 10
21.71958537810202
 20
18.36082816776255
 30
0.0
 11
21.84458537810202
 21
18.48582816776255
 31
0.0
  0
LINE
  5
A27
330
4E
100
AcDbEntity
  8
0
 62
     0
100
AcDbLine
 10
21.71958537810202
 20
19.42148833954237
 30
0.0
 11
21.84458537810202
 21
19.54648833954237
 31
0.0
  0
LINE
  5
A28
330
4E
100
AcDbEntity
  8
0
 62
     0
100
AcDbLine
 10
21.9430885123429
 20
19.64499147378326
 30
0.0
 11
22.0680885123429
 21
19.76999147378325
 31
0.0
  0
LINE
  5
A29
330
4E
100
AcDbEntity
  8
0
 62
     0
100
AcDbLine
 10
21.71958537810203
 20
14.11818748064327
 30
0.0
 11
21.84458537810202
 21
14.24318748064327
 31
0.0
  0
LINE
  5
A2A
330
4E
100
AcDbEntity
  8
0
 62
     0
100
AcDbLine
 10
21.71958537810203
 20
13.05752730886345
 30
0.0
 11
21.84458537810202
 21
13.18252730886345
 31
0.0
  0
LINE
  5
A2B
330
4E
100
AcDbEntity
  8
0
 62
     0
100
AcDbLine
 10
21.71958537810203
 20
11.99686713708363
 30
0.0
 11
21.84458537810202
 21
12.12186713708363
 31
0.0
  0
LINE
  5
A2C
330
4E
100
AcDbEntity
  8
0
 62
     0
100
AcDbLine
 10
21.71958537810203
 20
10.93620696530381
 30
0.0
 11
21.84458537810203
 21
11.06120696530381
 31
0.0
  0
LINE
  5
A2D
330
4E
100
AcDbEntity
  8
0
 62
     0
100
AcDbLine
 10
21.7664557057192
 20
9.922417121141169
 30
0.0
 11
21.86403005836129
 21
10.01999147378325
 31
0.0
  0
LINE
  5
A2E
330
4E
100
AcDbEntity
  8
0
 62
     0
100
AcDbLine
 10
21.71958537810203
 20
15.00207095642309
 30
0.0
 11
21.84458537810202
 21
15.12707095642309
 31
0.0
  0
LINE
  5
A2F
330
4E
100
AcDbEntity
  8
0
 62
     0
100
AcDbLine
 10
21.71958537810203
 20
16.06273112820291
 30
0.0
 11
21.84458537810202
 21
16.18773112820291
 31
0.0
  0
LINE
  5
A30
330
4E
100
AcDbEntity
  8
0
 62
     0
100
AcDbLine
 10
21.71958537810202
 20
17.12339129998273
 30
0.0
 11
21.84458537810202
 21
17.24839129998273
 31
0.0
  0
LINE
  5
A31
330
4E
100
AcDbEntity
  8
0
 62
     0
100
AcDbLine
 10
21.71958537810202
 20
18.18405147176255
 30
0.0
 11
21.84458537810202
 21
18.30905147176255
 31
0.0
  0
LINE
  5
A32
330
4E
100
AcDbEntity
  8
0
 62
     0
100
AcDbLine
 10
21.71958537810202
 20
19.24471164354237
 30
0.0
 11
21.84458537810202
 21
19.36971164354237
 31
0.0
  0
LINE
  5
A33
330
4E
100
AcDbEntity
  8
0
 62
     0
100
AcDbLine
 10
22.1198652083429
 20
19.64499147378326
 30
0.0
 11
22.21958537810202
 21
19.74471164354237
 31
0.0
  0
LINE
  5
A34
330
4E
100
AcDbEntity
  8
0
 62
     0
100
AcDbLine
 10
21.71958537810203
 20
13.94141078464327
 30
0.0
 11
21.84458537810202
 21
14.06641078464327
 31
0.0
  0
LINE
  5
A35
330
4E
100
AcDbEntity
  8
0
 62
     0
100
AcDbLine
 10
21.71958537810203
 20
12.88075061286345
 30
0.0
 11
21.84458537810202
 21
13.00575061286345
 31
0.0
  0
LINE
  5
A36
330
4E
100
AcDbEntity
  8
0
 62
     0
100
AcDbLine
 10
21.71958537810203
 20
11.82009044108363
 30
0.0
 11
21.84458537810202
 21
11.94509044108363
 31
0.0
  0
LINE
  5
A37
330
4E
100
AcDbEntity
  8
0
 62
     0
100
AcDbLine
 10
21.71958537810203
 20
10.75943026930381
 30
0.0
 11
21.84458537810203
 21
10.88443026930381
 31
0.0
  0
LINE
  5
A38
330
4E
100
AcDbEntity
  8
0
 62
     0
100
AcDbLine
 10
21.91580675436129
 20
9.894991473783253
 30
0.0
 11
22.04080675436129
 21
10.01999147378325
 31
0.0
  0
LINE
  5
A39
330
4E
100
AcDbEntity
  8
0
 62
     0
100
AcDbLine
 10
21.71958537810203
 20
14.82529426142309
 30
0.0
 11
21.84458537810202
 21
14.95029426142309
 31
0.0
  0
LINE
  5
A3A
330
4E
100
AcDbEntity
  8
0
 62
     0
100
AcDbLine
 10
21.71958537810203
 20
15.88595443320291
 30
0.0
 11
21.84458537810202
 21
16.01095443320291
 31
0.0
  0
LINE
  5
A3B
330
4E
100
AcDbEntity
  8
0
 62
     0
100
AcDbLine
 10
21.71958537810202
 20
16.94661460498273
 30
0.0
 11
21.84458537810202
 21
17.07161460498273
 31
0.0
  0
LINE
  5
A3C
330
4E
100
AcDbEntity
  8
0
 62
     0
100
AcDbLine
 10
21.71958537810202
 20
18.00727477676255
 30
0.0
 11
21.84458537810202
 21
18.13227477676255
 31
0.0
  0
LINE
  5
A3D
330
4E
100
AcDbEntity
  8
0
 62
     0
100
AcDbLine
 10
21.71958537810202
 20
19.06793494854237
 30
0.0
 11
21.84458537810202
 21
19.19293494854237
 31
0.0
  0
LINE
  5
A3E
330
4E
100
AcDbEntity
  8
0
 62
     0
100
AcDbLine
 10
21.71958537810203
 20
13.76463408964327
 30
0.0
 11
21.84458537810202
 21
13.88963408964327
 31
0.0
  0
LINE
  5
A3F
330
4E
100
AcDbEntity
  8
0
 62
     0
100
AcDbLine
 10
21.71958537810203
 20
12.70397391786345
 30
0.0
 11
21.84458537810202
 21
12.82897391786345
 31
0.0
  0
LINE
  5
A40
330
4E
100
AcDbEntity
  8
0
 62
     0
100
AcDbLine
 10
21.71958537810203
 20
11.64331374608363
 30
0.0
 11
21.84458537810203
 21
11.76831374608363
 31
0.0
  0
LINE
  5
A41
330
4E
100
AcDbEntity
  8
0
 62
     0
100
AcDbLine
 10
21.71958537810203
 20
10.58265357430381
 30
0.0
 11
21.84458537810203
 21
10.70765357430381
 31
0.0
  0
LINE
  5
A42
330
4E
100
AcDbEntity
  8
0
 62
     0
100
AcDbLine
 10
22.09258344936129
 20
9.894991473783253
 30
0.0
 11
22.21758344936129
 21
10.01999147378325
 31
0.0
  0
ENDBLK
  5
A43
330
4E
100
AcDbEntity
  8
0
100
AcDbBlockEnd
  0
BLOCK
  5
A44
330
4F
100
AcDbEntity
  8
0
100
AcDbBlockBegin
  2
*X11
 70
     1
 10
0.0
 20
0.0
 30
0.0
  3
*X11
  1

  0
LINE
  5
A45
330
4F
100
AcDbEntity
  8
0
 62
     0
100
AcDbLine
 10
24.78208537810203
 20
16.29680400386346
 30
0.0
 11
24.90708537810203
 21
16.42180400386346
 31
0.0
  0
LINE
  5
A46
330
4F
100
AcDbEntity
  8
0
 62
     0
100
AcDbLine
 10
24.78208537810203
 20
17.35746417564327
 30
0.0
 11
24.90708537810203
 21
17.48246417564327
 31
0.0
  0
LINE
  5
A47
330
4F
100
AcDbEntity
  8
0
 62
     0
100
AcDbLine
 10
24.78208537810203
 20
18.4181243474231
 30
0.0
 11
24.90708537810203
 21
18.5431243474231
 31
0.0
  0
LINE
  5
A48
330
4F
100
AcDbEntity
  8
0
 62
     0
100
AcDbLine
 10
24.71182401728294
 20
19.40852315838382
 30
0.0
 11
24.81219361216695
 21
19.50889275326784
 31
0.0
  0
LINE
  5
A49
330
4F
100
AcDbEntity
  8
0
 62
     0
100
AcDbLine
 10
23.66936012050667
 20
19.42671943338738
 30
0.0
 11
23.7922156689321
 21
19.54957498181282
 31
0.0
  0
LINE
  5
A4A
330
4F
100
AcDbEntity
  8
0
 62
     0
100
AcDbLine
 10
22.6268962237304
 20
19.44491570839093
 30
0.0
 11
22.74975177215583
 21
19.56777125681637
 31
0.0
  0
LINE
  5
A4B
330
4F
100
AcDbEntity
  8
0
 62
     0
100
AcDbLine
 10
24.78208537810203
 20
15.23614383208364
 30
0.0
 11
24.90708537810203
 21
15.36114383208363
 31
0.0
  0
LINE
  5
A4C
330
4F
100
AcDbEntity
  8
0
 62
     0
100
AcDbLine
 10
24.78208537810203
 20
14.17548366030382
 30
0.0
 11
24.90708537810203
 21
14.30048366030382
 31
0.0
  0
LINE
  5
A4D
330
4F
100
AcDbEntity
  8
0
 62
     0
100
AcDbLine
 10
24.78208537810203
 20
13.11482348852399
 30
0.0
 11
24.90708537810204
 21
13.23982348852399
 31
0.0
  0
LINE
  5
A4E
330
4F
100
AcDbEntity
  8
0
 62
     0
100
AcDbLine
 10
22.82647292480893
 20
10.09855086345107
 30
0.0
 11
22.95369356942083
 21
10.22577150806297
 31
0.0
  0
LINE
  5
A4F
330
4F
100
AcDbEntity
  8
0
 62
     0
100
AcDbLine
 10
24.78208537810204
 20
12.05416331674417
 30
0.0
 11
24.90708537810204
 21
12.17916331674417
 31
0.0
  0
LINE
  5
A50
330
4F
100
AcDbEntity
  8
0
 62
     0
100
AcDbLine
 10
23.905975890953
 20
10.11739365781531
 30
0.0
 11
24.03319653556491
 21
10.24461430242723
 31
0.0
  0
LINE
  5
A51
330
4F
100
AcDbEntity
  8
0
 62
     0
100
AcDbLine
 10
24.78208537810204
 20
10.99350314496435
 30
0.0
 11
24.90708537810204
 21
11.11850314496435
 31
0.0
  0
LINE
  5
A52
330
4F
100
AcDbEntity
  8
0
 62
     0
100
AcDbLine
 10
24.78208537810203
 20
17.18068748064328
 30
0.0
 11
24.90708537810203
 21
17.30568748064328
 31
0.0
  0
LINE
  5
A53
330
4F
100
AcDbEntity
  8
0
 62
     0
100
AcDbLine
 10
24.78208537810203
 20
18.2413476524231
 30
0.0
 11
24.90708537810203
 21
18.3663476524231
 31
0.0
  0
LINE
  5
A54
330
4F
100
AcDbEntity
  8
0
 62
     0
100
AcDbLine
 10
24.78208537810203
 20
19.30200782420292
 30
0.0
 11
24.89421256199257
 21
19.41413500809345
 31
0.0
  0
LINE
  5
A55
330
4F
100
AcDbEntity
  8
0
 62
     0
100
AcDbLine
 10
23.84310410301116
 20
19.42368672089187
 30
0.0
 11
23.9659596514366
 21
19.54654226931731
 31
0.0
  0
LINE
  5
A56
330
4F
100
AcDbEntity
  8
0
 62
     0
100
AcDbLine
 10
22.80064020623489
 20
19.44188299589543
 30
0.0
 11
22.92349575466033
 21
19.56473854432086
 31
0.0
  0
LINE
  5
A57
330
4F
100
AcDbEntity
  8
0
 62
     0
100
AcDbLine
 10
24.78208537810203
 20
16.12002730886345
 30
0.0
 11
24.90708537810203
 21
16.24502730886345
 31
0.0
  0
LINE
  5
A58
330
4F
100
AcDbEntity
  8
0
 62
     0
100
AcDbLine
 10
24.78208537810203
 20
15.05936713708363
 30
0.0
 11
24.90708537810203
 21
15.18436713708364
 31
0.0
  0
LINE
  5
A59
330
4F
100
AcDbEntity
  8
0
 62
     0
100
AcDbLine
 10
24.78208537810203
 20
13.99870696530381
 30
0.0
 11
24.90708537810203
 21
14.12370696530381
 31
0.0
  0
LINE
  5
A5A
330
4F
100
AcDbEntity
  8
0
 62
     0
100
AcDbLine
 10
21.92688711938696
 20
10.08284853480892
 30
0.0
 11
22.05410776399887
 21
10.21006917942083
 31
0.0
  0
LINE
  5
A5B
330
4F
100
AcDbEntity
  8
0
 62
     0
100
AcDbLine
 10
24.78208537810203
 20
12.938046793524
 30
0.0
 11
24.90708537810204
 21
13.063046793524
 31
0.0
  0
LINE
  5
A5C
330
4F
100
AcDbEntity
  8
0
 62
     0
100
AcDbLine
 10
23.00639008553103
 20
10.10169132917317
 30
0.0
 11
23.13361073014294
 21
10.22891197378508
 31
0.0
  0
LINE
  5
A5D
330
4F
100
AcDbEntity
  8
0
 62
     0
100
AcDbLine
 10
24.78208537810204
 20
11.87738662174417
 30
0.0
 11
24.90708537810204
 21
12.00238662174417
 31
0.0
  0
LINE
  5
A5E
330
4F
100
AcDbEntity
  8
0
 62
     0
100
AcDbLine
 10
24.0858930516751
 20
10.12053412353742
 30
0.0
 11
24.21311369628702
 21
10.24775476814933
 31
0.0
  0
LINE
  5
A5F
330
4F
100
AcDbEntity
  8
0
 62
     0
100
AcDbLine
 10
24.78208537810204
 20
10.81672644996436
 30
0.0
 11
24.90708537810204
 21
10.94172644996435
 31
0.0
  0
LINE
  5
A60
330
4F
100
AcDbEntity
  8
0
 62
     0
100
AcDbLine
 10
24.78208537810203
 20
17.00391078464328
 30
0.0
 11
24.90708537810203
 21
17.12891078464328
 31
0.0
  0
LINE
  5
A61
330
4F
100
AcDbEntity
  8
0
 62
     0
100
AcDbLine
 10
24.78208537810203
 20
18.0645709564231
 30
0.0
 11
24.90708537810203
 21
18.1895709564231
 31
0.0
  0
LINE
  5
A62
330
4F
100
AcDbEntity
  8
0
 62
     0
100
AcDbLine
 10
24.78208537810203
 20
19.12523112820292
 30
0.0
 11
24.90708537810203
 21
19.25023112820292
 31
0.0
  0
LINE
  5
A63
330
4F
100
AcDbEntity
  8
0
 62
     0
100
AcDbLine
 10
24.01684808649851
 20
19.42065400837921
 30
0.0
 11
24.13970363492394
 21
19.54350955680465
 31
0.0
  0
LINE
  5
A64
330
4F
100
AcDbEntity
  8
0
 62
     0
100
AcDbLine
 10
22.97438418972224
 20
19.43885028338277
 30
0.0
 11
23.09723973814767
 21
19.56170583180821
 31
0.0
  0
LINE
  5
A65
330
4F
100
AcDbEntity
  8
0
 62
     0
100
AcDbLine
 10
21.93192029294597
 20
19.45704655838632
 30
0.0
 11
22.05477584137141
 21
19.57990210681176
 31
0.0
  0
LINE
  5
A66
330
4F
100
AcDbEntity
  8
0
 62
     0
100
AcDbLine
 10
24.78208537810203
 20
15.94325061286346
 30
0.0
 11
24.90708537810203
 21
16.06825061286346
 31
0.0
  0
LINE
  5
A67
330
4F
100
AcDbEntity
  8
0
 62
     0
100
AcDbLine
 10
24.78208537810203
 20
14.88259044108364
 30
0.0
 11
24.90708537810203
 21
15.00759044108363
 31
0.0
  0
LINE
  5
A68
330
4F
100
AcDbEntity
  8
0
 62
     0
100
AcDbLine
 10
24.78208537810203
 20
13.82193026930381
 30
0.0
 11
24.90708537810203
 21
13.94693026930381
 31
0.0
  0
LINE
  5
A69
330
4F
100
AcDbEntity
  8
0
 62
     0
100
AcDbLine
 10
22.10680428112683
 20
10.08598900054879
 30
0.0
 11
22.23402492573874
 21
10.2132096451607
 31
0.0
  0
LINE
  5
A6A
330
4F
100
AcDbEntity
  8
0
 62
     0
100
AcDbLine
 10
24.78208537810203
 20
12.76127009752399
 30
0.0
 11
24.90708537810204
 21
12.88627009752399
 31
0.0
  0
LINE
  5
A6B
330
4F
100
AcDbEntity
  8
0
 62
     0
100
AcDbLine
 10
23.1863072472709
 20
10.10483179491304
 30
0.0
 11
23.31352789188281
 21
10.23205243952495
 31
0.0
  0
LINE
  5
A6C
330
4F
100
AcDbEntity
  8
0
 62
     0
100
AcDbLine
 10
24.78208537810204
 20
11.70060992574417
 30
0.0
 11
24.90708537810204
 21
11.82560992574417
 31
0.0
  0
LINE
  5
A6D
330
4F
100
AcDbEntity
  8
0
 62
     0
100
AcDbLine
 10
24.26581021341498
 20
10.12367458927729
 30
0.0
 11
24.39303085802688
 21
10.2508952338892
 31
0.0
  0
LINE
  5
A6E
330
4F
100
AcDbEntity
  8
0
 62
     0
100
AcDbLine
 10
24.78208537810204
 20
10.63994975396435
 30
0.0
 11
24.90708537810204
 21
10.76494975396435
 31
0.0
  0
LINE
  5
A6F
330
4F
100
AcDbEntity
  8
0
 62
     0
100
AcDbLine
 10
24.78208537810203
 20
16.82713408964328
 30
0.0
 11
24.90708537810203
 21
16.95213408964328
 31
0.0
  0
LINE
  5
A70
330
4F
100
AcDbEntity
  8
0
 62
     0
100
AcDbLine
 10
24.78208537810203
 20
17.8877942614231
 30
0.0
 11
24.90708537810203
 21
18.0127942614231
 31
0.0
  0
LINE
  5
A71
330
4F
100
AcDbEntity
  8
0
 62
     0
100
AcDbLine
 10
24.78208537810203
 20
18.94845443320292
 30
0.0
 11
24.90708537810203
 21
19.07345443320292
 31
0.0
  0
LINE
  5
A72
330
4F
100
AcDbEntity
  8
0
 62
     0
100
AcDbLine
 10
24.190592069003
 20
19.41762129588371
 30
0.0
 11
24.31344761742844
 21
19.54047684430915
 31
0.0
  0
LINE
  5
A73
330
4F
100
AcDbEntity
  8
0
 62
     0
100
AcDbLine
 10
23.14812817222673
 20
19.43581757088727
 30
0.0
 11
23.27098372065217
 21
19.5586731193127
 31
0.0
  0
LINE
  5
A74
330
4F
100
AcDbEntity
  8
0
 62
     0
100
AcDbLine
 10
22.10566427545046
 20
19.45401384589082
 30
0.0
 11
22.2285198238759
 21
19.57686939431626
 31
0.0
  0
LINE
  5
A75
330
4F
100
AcDbEntity
  8
0
 62
     0
100
AcDbLine
 10
24.78208537810203
 20
15.76647391786346
 30
0.0
 11
24.90708537810203
 21
15.89147391786346
 31
0.0
  0
LINE
  5
A76
330
4F
100
AcDbEntity
  8
0
 62
     0
100
AcDbLine
 10
24.78208537810203
 20
14.70581374608364
 30
0.0
 11
24.90708537810203
 21
14.83081374608364
 31
0.0
  0
LINE
  5
A77
330
4F
100
AcDbEntity
  8
0
 62
     0
100
AcDbLine
 10
24.78208537810203
 20
13.64515357430382
 30
0.0
 11
24.90708537810203
 21
13.77015357430381
 31
0.0
  0
LINE
  5
A78
330
4F
100
AcDbEntity
  8
0
 62
     0
100
AcDbLine
 10
22.28672144184894
 20
10.0891294662709
 30
0.0
 11
22.41394208646084
 21
10.21635011088281
 31
0.0
  0
LINE
  5
A79
330
4F
100
AcDbEntity
  8
0
 62
     0
100
AcDbLine
 10
24.78208537810203
 20
12.58449340252399
 30
0.0
 11
24.90708537810204
 21
12.70949340252399
 31
0.0
  0
LINE
  5
A7A
330
4F
100
AcDbEntity
  8
0
 62
     0
100
AcDbLine
 10
23.36622440799301
 20
10.10797226063514
 30
0.0
 11
23.49344505260492
 21
10.23519290524706
 31
0.0
  0
LINE
  5
A7B
330
4F
100
AcDbEntity
  8
0
 62
     0
100
AcDbLine
 10
24.78208537810204
 20
11.52383323074417
 30
0.0
 11
24.90708537810204
 21
11.64883323074417
 31
0.0
  0
LINE
  5
A7C
330
4F
100
AcDbEntity
  8
0
 62
     0
100
AcDbLine
 10
24.44572737413708
 20
10.12681505499939
 30
0.0
 11
24.57294801874899
 21
10.25403569961131
 31
0.0
  0
LINE
  5
A7D
330
4F
100
AcDbEntity
  8
0
 62
     0
100
AcDbLine
 10
24.78208537810204
 20
10.46317305896435
 30
0.0
 11
24.90708537810204
 21
10.58817305896435
 31
0.0
  0
ENDBLK
  5
A7E
330
4F
100
AcDbEntity
  8
0
100
AcDbBlockEnd
  0
BLOCK
  5
A7F
330
50
100
AcDbEntity
  8
0
100
AcDbBlockBegin
  2
*X12
 70
     1
 10
0.0
 20
0.0
 30
0.0
  3
*X12
  1

  0
LINE
  5
A80
330
50
100
AcDbEntity
  8
0
 62
     0
100
AcDbLine
 10
24.42650937637289
 20
7.455946627895745
 30
0.0
 11
24.55150937637289
 21
7.580946627895746
 31
0.0
  0
LINE
  5
A81
330
50
100
AcDbEntity
  8
0
 62
     0
100
AcDbLine
 10
23.36584920459307
 20
7.455946627895745
 30
0.0
 11
23.49084920459307
 21
7.580946627895746
 31
0.0
  0
LINE
  5
A82
330
50
100
AcDbEntity
  8
0
 62
     0
100
AcDbLine
 10
22.30518903281325
 20
7.455946627895745
 30
0.0
 11
22.43018903281325
 21
7.580946627895746
 31
0.0
  0
LINE
  5
A83
330
50
100
AcDbEntity
  8
0
 62
     0
100
AcDbLine
 10
25.48716954815271
 20
7.455946627895745
 30
0.0
 11
25.61216954815272
 21
7.580946627895746
 31
0.0
  0
LINE
  5
A84
330
50
100
AcDbEntity
  8
0
 62
     0
100
AcDbLine
 10
26.54782971993253
 20
7.455946627895745
 30
0.0
 11
26.67282971993254
 21
7.580946627895746
 31
0.0
  0
LINE
  5
A85
330
50
100
AcDbEntity
  8
0
 62
     0
100
AcDbLine
 10
27.60848989171235
 20
7.455946627895745
 30
0.0
 11
27.73348989171236
 21
7.580946627895746
 31
0.0
  0
LINE
  5
A86
330
50
100
AcDbEntity
  8
0
 62
     0
100
AcDbLine
 10
28.29415006349218
 20
7.080946627895746
 30
0.0
 11
28.34328334611259
 21
7.130079910516156
 31
0.0
  0
LINE
  5
A87
330
50
100
AcDbEntity
  8
0
 62
     0
100
AcDbLine
 10
24.60328607137289
 20
7.455946627895745
 30
0.0
 11
24.7282860713729
 21
7.580946627895746
 31
0.0
  0
LINE
  5
A88
330
50
100
AcDbEntity
  8
0
 62
     0
100
AcDbLine
 10
23.54262589959307
 20
7.455946627895745
 30
0.0
 11
23.66762589959307
 21
7.580946627895746
 31
0.0
  0
LINE
  5
A89
330
50
100
AcDbEntity
  8
0
 62
     0
100
AcDbLine
 10
22.48196572781325
 20
7.455946627895745
 30
0.0
 11
22.60696572781325
 21
7.580946627895746
 31
0.0
  0
LINE
  5
A8A
330
50
100
AcDbEntity
  8
0
 62
     0
100
AcDbLine
 10
25.66394624315271
 20
7.455946627895745
 30
0.0
 11
25.78894624315271
 21
7.580946627895746
 31
0.0
  0
LINE
  5
A8B
330
50
100
AcDbEntity
  8
0
 62
     0
100
AcDbLine
 10
26.72460641493253
 20
7.455946627895745
 30
0.0
 11
26.84960641493253
 21
7.580946627895746
 31
0.0
  0
LINE
  5
A8C
330
50
100
AcDbEntity
  8
0
 62
     0
100
AcDbLine
 10
27.78526658671236
 20
7.455946627895745
 30
0.0
 11
27.91026658671236
 21
7.580946627895746
 31
0.0
  0
LINE
  5
A8D
330
50
100
AcDbEntity
  8
0
 62
     0
100
AcDbLine
 10
24.78006276737289
 20
7.455946627895745
 30
0.0
 11
24.90506276737289
 21
7.580946627895746
 31
0.0
  0
LINE
  5
A8E
330
50
100
AcDbEntity
  8
0
 62
     0
100
AcDbLine
 10
23.71940259559307
 20
7.455946627895745
 30
0.0
 11
23.84440259559307
 21
7.580946627895746
 31
0.0
  0
LINE
  5
A8F
330
50
100
AcDbEntity
  8
0
 62
     0
100
AcDbLine
 10
22.65874242381325
 20
7.455946627895745
 30
0.0
 11
22.78374242381325
 21
7.580946627895746
 31
0.0
  0
LINE
  5
A90
330
50
100
AcDbEntity
  8
0
 62
     0
100
AcDbLine
 10
25.84072293915272
 20
7.455946627895745
 30
0.0
 11
25.96572293915271
 21
7.580946627895746
 31
0.0
  0
LINE
  5
A91
330
50
100
AcDbEntity
  8
0
 62
     0
100
AcDbLine
 10
26.90138311093253
 20
7.455946627895745
 30
0.0
 11
27.02638311093254
 21
7.580946627895746
 31
0.0
  0
LINE
  5
A92
330
50
100
AcDbEntity
  8
0
 62
     0
100
AcDbLine
 10
27.96204328271235
 20
7.455946627895745
 30
0.0
 11
28.08704328271236
 21
7.580946627895746
 31
0.0
  0
LINE
  5
A93
330
50
100
AcDbEntity
  8
0
 62
     0
100
AcDbLine
 10
24.95683946237289
 20
7.455946627895745
 30
0.0
 11
25.08183946237289
 21
7.580946627895746
 31
0.0
  0
LINE
  5
A94
330
50
100
AcDbEntity
  8
0
 62
     0
100
AcDbLine
 10
23.89617929059307
 20
7.455946627895745
 30
0.0
 11
24.02117929059307
 21
7.580946627895746
 31
0.0
  0
LINE
  5
A95
330
50
100
AcDbEntity
  8
0
 62
     0
100
AcDbLine
 10
22.83551911881325
 20
7.455946627895745
 30
0.0
 11
22.96051911881325
 21
7.580946627895746
 31
0.0
  0
LINE
  5
A96
330
50
100
AcDbEntity
  8
0
 62
     0
100
AcDbLine
 10
21.72828876836738
 20
7.409376449229699
 30
0.0
 11
21.89985894703343
 21
7.580946627895746
 31
0.0
  0
LINE
  5
A97
330
50
100
AcDbEntity
  8
0
 62
     0
100
AcDbLine
 10
26.01749963415271
 20
7.455946627895745
 30
0.0
 11
26.14249963415272
 21
7.580946627895746
 31
0.0
  0
LINE
  5
A98
330
50
100
AcDbEntity
  8
0
 62
     0
100
AcDbLine
 10
27.07815980593253
 20
7.455946627895745
 30
0.0
 11
27.20315980593254
 21
7.580946627895746
 31
0.0
  0
LINE
  5
A99
330
50
100
AcDbEntity
  8
0
 62
     0
100
AcDbLine
 10
28.13881997771236
 20
7.455946627895745
 30
0.0
 11
28.25520523133628
 21
7.572331881519668
 31
0.0
  0
ENDBLK
  5
A9A
330
50
100
AcDbEntity
  8
0
100
AcDbBlockEnd
  0
BLOCK
  5
A9B
330
51
100
AcDbEntity
  8
0
100
AcDbBlockBegin
  2
*X13
 70
     1
 10
0.0
 20
0.0
 30
0.0
  3
*X13
  1

  0
LINE
  5
A9C
330
51
100
AcDbEntity
  8
0
 62
     0
100
AcDbLine
 10
23.48532971993254
 20
4.393446627895747
 30
0.0
 11
23.61032971993253
 21
4.518446627895746
 31
0.0
  0
LINE
  5
A9D
330
51
100
AcDbEntity
  8
0
 62
     0
100
AcDbLine
 10
22.42466954815272
 20
4.393446627895747
 30
0.0
 11
22.54966954815271
 21
4.518446627895746
 31
0.0
  0
LINE
  5
A9E
330
51
100
AcDbEntity
  8
0
 62
     0
100
AcDbLine
 10
21.94923541439532
 20
4.978672665918173
 30
0.0
 11
22.07210967716613
 21
5.101546928688989
 31
0.0
  0
LINE
  5
A9F
330
51
100
AcDbEntity
  8
0
 62
     0
100
AcDbLine
 10
21.93103913939176
 20
6.021136562694441
 30
0.0
 11
22.05391340216258
 21
6.144010825465257
 31
0.0
  0
LINE
  5
AA0
330
51
100
AcDbEntity
  8
0
 62
     0
100
AcDbLine
 10
21.91284286438821
 20
7.06360045947071
 30
0.0
 11
22.03571712715902
 21
7.186474722241526
 31
0.0
  0
LINE
  5
AA1
330
51
100
AcDbEntity
  8
0
 62
     0
100
AcDbLine
 10
24.54598989171236
 20
4.393446627895747
 30
0.0
 11
24.67098989171236
 21
4.518446627895746
 31
0.0
  0
LINE
  5
AA2
330
51
100
AcDbEntity
  8
0
 62
     0
100
AcDbLine
 10
25.60665006349218
 20
4.393446627895747
 30
0.0
 11
25.73165006349218
 21
4.518446627895746
 31
0.0
  0
LINE
  5
AA3
330
51
100
AcDbEntity
  8
0
 62
     0
100
AcDbLine
 10
28.02185876704763
 20
6.808655331451209
 30
0.0
 11
28.14909879093149
 21
6.935895355335061
 31
0.0
  0
LINE
  5
AA4
330
51
100
AcDbEntity
  8
0
 62
     0
100
AcDbLine
 10
26.667310235272
 20
4.393446627895747
 30
0.0
 11
26.792310235272
 21
4.518446627895746
 31
0.0
  0
LINE
  5
AA5
330
51
100
AcDbEntity
  8
0
 62
     0
100
AcDbLine
 10
28.00301597268339
 20
5.729152365307141
 30
0.0
 11
28.13025599656724
 21
5.856392389190991
 31
0.0
  0
LINE
  5
AA6
330
51
100
AcDbEntity
  8
0
 62
     0
100
AcDbLine
 10
27.72797040705182
 20
4.393446627895747
 30
0.0
 11
27.85297040705182
 21
4.518446627895746
 31
0.0
  0
LINE
  5
AA7
330
51
100
AcDbEntity
  8
0
 62
     0
100
AcDbLine
 10
27.98417317831914
 20
4.649649399163072
 30
0.0
 11
28.11141320220299
 21
4.776889423046921
 31
0.0
  0
LINE
  5
AA8
330
51
100
AcDbEntity
  8
0
 62
     0
100
AcDbLine
 10
22.60144624315271
 20
4.393446627895747
 30
0.0
 11
22.72644624315271
 21
4.518446627895746
 31
0.0
  0
LINE
  5
AA9
330
51
100
AcDbEntity
  8
0
 62
     0
100
AcDbLine
 10
21.95226812689082
 20
4.804928683413677
 30
0.0
 11
22.07514238966163
 21
4.927802946184493
 31
0.0
  0
LINE
  5
AAA
330
51
100
AcDbEntity
  8
0
 62
     0
100
AcDbLine
 10
21.93407185188727
 20
5.847392580189945
 30
0.0
 11
22.05694611465808
 21
5.970266842960761
 31
0.0
  0
LINE
  5
AAB
330
51
100
AcDbEntity
  8
0
 62
     0
100
AcDbLine
 10
21.91587557688372
 20
6.889856476966213
 30
0.0
 11
22.03874983965453
 21
7.012730739737029
 31
0.0
  0
LINE
  5
AAC
330
51
100
AcDbEntity
  8
0
 62
     0
100
AcDbLine
 10
23.66210641493253
 20
4.393446627895747
 30
0.0
 11
23.78710641493253
 21
4.518446627895746
 31
0.0
  0
LINE
  5
AAD
330
51
100
AcDbEntity
  8
0
 62
     0
100
AcDbLine
 10
24.72276658671236
 20
4.393446627895747
 30
0.0
 11
24.84776658671236
 21
4.518446627895746
 31
0.0
  0
LINE
  5
AAE
330
51
100
AcDbEntity
  8
0
 62
     0
100
AcDbLine
 10
25.78342675849218
 20
4.393446627895747
 30
0.0
 11
25.90842675849218
 21
4.518446627895746
 31
0.0
  0
LINE
  5
AAF
330
51
100
AcDbEntity
  8
0
 62
     0
100
AcDbLine
 10
28.01871830132553
 20
6.628738170729104
 30
0.0
 11
28.14595832520939
 21
6.755978194612955
 31
0.0
  0
LINE
  5
AB0
330
51
100
AcDbEntity
  8
0
 62
     0
100
AcDbLine
 10
26.844086930272
 20
4.393446627895747
 30
0.0
 11
26.969086930272
 21
4.518446627895746
 31
0.0
  0
LINE
  5
AB1
330
51
100
AcDbEntity
  8
0
 62
     0
100
AcDbLine
 10
27.99987550696128
 20
5.549235204585036
 30
0.0
 11
28.12711553084514
 21
5.676475228468886
 31
0.0
  0
LINE
  5
AB2
330
51
100
AcDbEntity
  8
0
 62
     0
100
AcDbLine
 10
27.90474710205183
 20
4.393446627895747
 30
0.0
 11
28.10827273648089
 21
4.596972262324813
 31
0.0
  0
LINE
  5
AB3
330
51
100
AcDbEntity
  8
0
 62
     0
100
AcDbLine
 10
22.77822293915272
 20
4.393446627895747
 30
0.0
 11
22.90322293915271
 21
4.518446627895746
 31
0.0
  0
LINE
  5
AB4
330
51
100
AcDbEntity
  8
0
 62
     0
100
AcDbLine
 10
21.95530083940348
 20
4.631184699926334
 30
0.0
 11
22.07817510217429
 21
4.754058962697151
 31
0.0
  0
LINE
  5
AB5
330
51
100
AcDbEntity
  8
0
 62
     0
100
AcDbLine
 10
21.93710456439992
 20
5.673648596702603
 30
0.0
 11
22.05997882717074
 21
5.796522859473419
 31
0.0
  0
LINE
  5
AB6
330
51
100
AcDbEntity
  8
0
 62
     0
100
AcDbLine
 10
21.91890828939637
 20
6.716112493478871
 30
0.0
 11
22.04178255216719
 21
6.838986756249687
 31
0.0
  0
LINE
  5
AB7
330
51
100
AcDbEntity
  8
0
 62
     0
100
AcDbLine
 10
23.83888311093254
 20
4.393446627895747
 30
0.0
 11
23.96388311093254
 21
4.518446627895746
 31
0.0
  0
LINE
  5
AB8
330
51
100
AcDbEntity
  8
0
 62
     0
100
AcDbLine
 10
24.89954328271236
 20
4.393446627895747
 30
0.0
 11
25.02454328271236
 21
4.518446627895746
 31
0.0
  0
LINE
  5
AB9
330
51
100
AcDbEntity
  8
0
 62
     0
100
AcDbLine
 10
25.96020345449218
 20
4.393446627895747
 30
0.0
 11
26.08520345449218
 21
4.518446627895746
 31
0.0
  0
LINE
  5
ABA
330
51
100
AcDbEntity
  8
0
 62
     0
100
AcDbLine
 10
28.01557783558566
 20
6.448821008989233
 30
0.0
 11
28.14281785946952
 21
6.576061032873085
 31
0.0
  0
LINE
  5
ABB
330
51
100
AcDbEntity
  8
0
 62
     0
100
AcDbLine
 10
27.020863626272
 20
4.393446627895747
 30
0.0
 11
27.145863626272
 21
4.518446627895746
 31
0.0
  0
LINE
  5
ABC
330
51
100
AcDbEntity
  8
0
 62
     0
100
AcDbLine
 10
27.99673504122142
 20
5.369318042845166
 30
0.0
 11
28.12397506510527
 21
5.496558066729015
 31
0.0
  0
LINE
  5
ABD
330
51
100
AcDbEntity
  8
0
 62
     0
100
AcDbLine
 10
22.95499963415271
 20
4.393446627895747
 30
0.0
 11
23.07999963415271
 21
4.518446627895746
 31
0.0
  0
LINE
  5
ABE
330
51
100
AcDbEntity
  8
0
 62
     0
100
AcDbLine
 10
21.98384946575483
 20
4.482956631277689
 30
0.0
 11
22.0812078146698
 21
4.580314980192653
 31
0.0
  0
LINE
  5
ABF
330
51
100
AcDbEntity
  8
0
 62
     0
100
AcDbLine
 10
21.94013727689543
 20
5.499904614198106
 30
0.0
 11
22.06301153966624
 21
5.622778876968922
 31
0.0
  0
LINE
  5
AC0
330
51
100
AcDbEntity
  8
0
 62
     0
100
AcDbLine
 10
21.92194100189187
 20
6.542368510974374
 30
0.0
 11
22.04481526466269
 21
6.66524277374519
 31
0.0
  0
LINE
  5
AC1
330
51
100
AcDbEntity
  8
0
 62
     0
100
AcDbLine
 10
24.01565980593254
 20
4.393446627895747
 30
0.0
 11
24.14065980593254
 21
4.518446627895746
 31
0.0
  0
LINE
  5
AC2
330
51
100
AcDbEntity
  8
0
 62
     0
100
AcDbLine
 10
25.07631997771236
 20
4.393446627895747
 30
0.0
 11
25.20131997771235
 21
4.518446627895746
 31
0.0
  0
LINE
  5
AC3
330
51
100
AcDbEntity
  8
0
 62
     0
100
AcDbLine
 10
28.0312801642278
 20
7.348406814411197
 30
0.0
 11
28.07631997771236
 21
7.393446627895747
 31
0.0
  0
LINE
  5
AC4
330
51
100
AcDbEntity
  8
0
 62
     0
100
AcDbLine
 10
26.13698014949218
 20
4.393446627895747
 30
0.0
 11
26.26198014949218
 21
4.518446627895746
 31
0.0
  0
LINE
  5
AC5
330
51
100
AcDbEntity
  8
0
 62
     0
100
AcDbLine
 10
28.01243736986356
 20
6.268903848267129
 30
0.0
 11
28.13967739374741
 21
6.39614387215098
 31
0.0
  0
LINE
  5
AC6
330
51
100
AcDbEntity
  8
0
 62
     0
100
AcDbLine
 10
27.197640321272
 20
4.393446627895747
 30
0.0
 11
27.322640321272
 21
4.518446627895746
 31
0.0
  0
LINE
  5
AC7
330
51
100
AcDbEntity
  8
0
 62
     0
100
AcDbLine
 10
27.99359457549931
 20
5.189400882123064
 30
0.0
 11
28.12083459938316
 21
5.316640906006913
 31
0.0
  0
ENDBLK
  5
AC8
330
51
100
AcDbEntity
  8
0
100
AcDbBlockEnd
  0
BLOCK
  5
147A
330
1479
100
AcDbEntity
  8
0
100
AcDbBlockBegin
  2
*D15
 70
     1
 10
0.0
 20
0.0
 30
0.0
  3
*D15
  1

  0
LINE
  5
147B
330
1479
100
AcDbEntity
  8
0
  6
ByBlock
 62
     0
440
 16777216
100
AcDbLine
 10
11.88439116004591
 20
33.70504863402822
 30
0.0
 11
11.88439116004591
 21
36.76471161323819
 31
0.0
  0
LINE
  5
147C
330
1479
100
AcDbEntity
  8
0
  6
ByBlock
 62
     0
440
 16777216
100
AcDbLine
 10
18.50939116004592
 20
33.70504863402823
 30
0.0
 11
18.50939116004592
 21
36.76471161323819
 31
0.0
  0
LINE
  5
147D
330
1479
100
AcDbEntity
  8
0
  6
ByBlock
 62
     0
440
 16777216
100
AcDbLine
 10
12.07189116004591
 20
36.57721161323819
 30
0.0
 11
14.57189116004591
 21
36.57721161323819
 31
0.0
  0
LINE
  5
147E
330
1479
100
AcDbEntity
  8
0
  6
ByBlock
 62
     0
440
 16777216
100
AcDbLine
 10
18.32189116004592
 20
36.57721161323819
 30
0.0
 11
15.82189116004591
 21
36.57721161323819
 31
0.0
  0
SOLID
  5
147F
330
1479
100
AcDbEntity
  8
0
  6
ByBlock
 62
     0
440
 16777216
100
AcDbTrace
 10
12.07189116004591
 20
36.60846161323819
 30
0.0
 11
12.07189116004591
 21
36.54596161323819
 31
0.0
 12
11.88439116004591
 22
36.57721161323819
 32
0.0
 13
11.88439116004591
 23
36.57721161323819
 33
0.0
  0
SOLID
  5
1480
330
1479
100
AcDbEntity
  8
0
  6
ByBlock
 62
     0
440
 16777216
100
AcDbTrace
 10
18.32189116004592
 20
36.60846161323819
 30
0.0
 11
18.32189116004592
 21
36.54596161323819
 31
0.0
 12
18.50939116004592
 22
36.57721161323819
 32
0.0
 13
18.50939116004592
 23
36.57721161323819
 33
0.0
  0
MTEXT
  5
1481
330
1479
100
AcDbEntity
  8
0
  6
ByBlock
 62
     0
440
 16777216
100
AcDbMText
 10
15.19689116004591
 20
36.57721161323819
 30
0.0
 40
0.1875
 41
0.0
 46
0.0
 71
     5
 72
     5
  1
\A1;6 5/8
 73
     1
 44
1.0
  0
POINT
  5
1482
330
1479
100
AcDbEntity
  8
DEFPOINTS
  6
ByBlock
 62
     0
440
 16777216
100
AcDbPoint
 10
11.88439116004591
 20
33.51754863402822
 30
0.0
  0
POINT
  5
1483
330
1479
100
AcDbEntity
  8
DEFPOINTS
  6
ByBlock
 62
     0
440
 16777216
100
AcDbPoint
 10
18.50939116004592
 20
33.51754863402823
 30
0.0
  0
POINT
  5
1484
330
1479
100
AcDbEntity
  8
DEFPOINTS
  6
ByBlock
 62
     0
440
 16777216
100
AcDbPoint
 10
18.50939116004592
 20
36.57721161323819
 30
0.0
  0
ENDBLK
  5
1485
330
1479
100
AcDbEntity
  8
0
100
AcDbBlockEnd
  0
BLOCK
  5
1487
330
1486
100
AcDbEntity
  8
0
100
AcDbBlockBegin
  2
*D16
 70
     1
 10
0.0
 20
0.0
 30
0.0
  3
*D16
  1

  0
LINE
  5
1488
330
1486
100
AcDbEntity
  8
0
  6
ByBlock
 62
     0
440
 16777216
100
AcDbLine
 10
12.13439116004591
 20
33.95504863402822
 30
0.0
 11
8.912336699988758
 21
33.95504863402822
 31
0.0
  0
LINE
  5
1489
330
1486
100
AcDbEntity
  8
0
  6
ByBlock
 62
     0
440
 16777216
100
AcDbLine
 10
12.13439116004592
 20
24.08004863402823
 30
0.0
 11
8.912336699988758
 21
24.08004863402823
 31
0.0
  0
LINE
  5
148A
330
1486
100
AcDbEntity
  8
0
  6
ByBlock
 62
     0
440
 16777216
100
AcDbLine
 10
9.099836699988758
 20
33.76754863402822
 30
0.0
 11
9.099836699988758
 21
29.29879863402823
 31
0.0
  0
LINE
  5
148B
330
1486
100
AcDbEntity
  8
0
  6
ByBlock
 62
     0
440
 16777216
100
AcDbLine
 10
9.099836699988758
 20
24.26754863402823
 30
0.0
 11
9.099836699988758
 21
28.73629863402822
 31
0.0
  0
SOLID
  5
148C
330
1486
100
AcDbEntity
  8
0
  6
ByBlock
 62
     0
440
 16777216
100
AcDbTrace
 10
9.068586699988758
 20
33.76754863402822
 30
0.0
 11
9.131086699988758
 21
33.76754863402822
 31
0.0
 12
9.099836699988758
 22
33.95504863402822
 32
0.0
 13
9.099836699988758
 23
33.95504863402822
 33
0.0
  0
SOLID
  5
148D
330
1486
100
AcDbEntity
  8
0
  6
ByBlock
 62
     0
440
 16777216
100
AcDbTrace
 10
9.068586699988758
 20
24.26754863402823
 30
0.0
 11
9.131086699988758
 21
24.26754863402823
 31
0.0
 12
9.099836699988758
 22
24.08004863402823
 32
0.0
 13
9.099836699988758
 23
24.08004863402823
 33
0.0
  0
MTEXT
  5
148E
330
1486
100
AcDbEntity
  8
0
  6
ByBlock
 62
     0
440
 16777216
100
AcDbMText
 10
9.099836699988758
 20
29.01754863402823
 30
0.0
 40
0.1875
 41
0.0
 46
0.0
 71
     5
 72
     5
  1
\A1;9 7/8
 73
     1
 44
1.0
  0
POINT
  5
148F
330
1486
100
AcDbEntity
  8
DEFPOINTS
  6
ByBlock
 62
     0
440
 16777216
100
AcDbPoint
 10
12.32189116004591
 20
33.95504863402822
 30
0.0
  0
POINT
  5
1490
330
1486
100
AcDbEntity
  8
DEFPOINTS
  6
ByBlock
 62
     0
440
 16777216
100
AcDbPoint
 10
12.32189116004592
 20
24.08004863402823
 30
0.0
  0
POINT
  5
1491
330
1486
100
AcDbEntity
  8
DEFPOINTS
  6
ByBlock
 62
     0
440
 16777216
100
AcDbPoint
 10
9.099836699988758
 20
24.08004863402823
 30
0.0
  0
ENDBLK
  5
1492
330
1486
100
AcDbEntity
  8
0
100
AcDbBlockEnd
  0
BLOCK
  5
14A0
330
1493
100
AcDbEntity
  8
0
100
AcDbBlockBegin
  2
*D17
 70
     1
 10
0.0
 20
0.0
 30
0.0
  3
*D17
  1

  0
LINE
  5
14A1
330
1493
100
AcDbEntity
  8
0
  6
ByBlock
 62
     0
440
 16777216
100
AcDbLine
 10
18.27277022842707
 20
11.88758937964485
 30
0.0
 11
20.27405404665431
 21
11.88758937964485
 31
0.0
  0
LINE
  5
14A2
330
1493
100
AcDbEntity
  8
0
  6
ByBlock
 62
     0
440
 16777216
100
AcDbLine
 10
18.56190977712376
 20
15.07508937964485
 30
0.0
 11
20.27405404665431
 21
15.07508937964485
 31
0.0
  0
LINE
  5
14A3
330
1493
100
AcDbEntity
  8
0
  6
ByBlock
 62
     0
440
 16777216
100
AcDbLine
 10
20.08655404665431
 20
12.07508937964485
 30
0.0
 11
20.08655404665431
 21
13.20008937964485
 31
0.0
  0
LINE
  5
14A4
330
1493
100
AcDbEntity
  8
0
  6
ByBlock
 62
     0
440
 16777216
100
AcDbLine
 10
20.08655404665431
 20
14.88758937964485
 30
0.0
 11
20.08655404665431
 21
13.76258937964485
 31
0.0
  0
SOLID
  5
14A5
330
1493
100
AcDbEntity
  8
0
  6
ByBlock
 62
     0
440
 16777216
100
AcDbTrace
 10
20.05530404665432
 20
12.07508937964485
 30
0.0
 11
20.11780404665431
 21
12.07508937964485
 31
0.0
 12
20.08655404665431
 22
11.88758937964485
 32
0.0
 13
20.08655404665431
 23
11.88758937964485
 33
0.0
  0
SOLID
  5
14A6
330
1493
100
AcDbEntity
  8
0
  6
ByBlock
 62
     0
440
 16777216
100
AcDbTrace
 10
20.05530404665432
 20
14.88758937964485
 30
0.0
 11
20.11780404665431
 21
14.88758937964485
 31
0.0
 12
20.08655404665431
 22
15.07508937964485
 32
0.0
 13
20.08655404665431
 23
15.07508937964485
 33
0.0
  0
MTEXT
  5
14A7
330
1493
100
AcDbEntity
  8
0
  6
ByBlock
 62
     0
440
 16777216
100
AcDbMText
 10
20.08655404665431
 20
13.48133937964485
 30
0.0
 40
0.1875
 41
0.0
 46
0.0
 71
     5
 72
     5
  1
\A1;3 3/16
 73
     1
 44
1.0
  0
POINT
  5
14A8
330
1493
100
AcDbEntity
  8
DEFPOINTS
  6
ByBlock
 62
     0
440
 16777216
100
AcDbPoint
 10
18.08527022842708
 20
11.88758937964485
 30
0.0
  0
POINT
  5
14A9
330
1493
100
AcDbEntity
  8
DEFPOINTS
  6
ByBlock
 62
     0
440
 16777216
100
AcDbPoint
 10
18.37440977712376
 20
15.07508937964485
 30
0.0
  0
POINT
  5
14AA
330
1493
100
AcDbEntity
  8
DEFPOINTS
  6
ByBlock
 62
     0
440
 16777216
100
AcDbPoint
 10
20.08655404665431
 20
15.07508937964485
 30
0.0
  0
ENDBLK
  5
14AB
330
1493
100
AcDbEntity
  8
0
100
AcDbBlockEnd
  0
BLOCK
  5
14AD
330
14AC
100
AcDbEntity
  8
0
100
AcDbBlockBegin
  2
*D18
 70
     1
 10
0.0
 20
0.0
 30
0.0
  3
*D18
  1

  0
LINE
  5
14AE
330
14AC
100
AcDbEntity
  8
0
  6
ByBlock
 62
     0
440
 16777216
100
AcDbLine
 10
48.54473453451826
 20
33.59343722436215
 30
0.0
 11
53.55810852145665
 21
33.59343722436215
 31
0.0
  0
LINE
  5
14AF
330
14AC
100
AcDbEntity
  8
0
  6
ByBlock
 62
     0
440
 16777216
100
AcDbLine
 10
48.54473453451826
 20
24.44168288438601
 30
0.0
 11
53.55810852145665
 21
24.44168288438601
 31
0.0
  0
LINE
  5
14B0
330
14AC
100
AcDbEntity
  8
0
  6
ByBlock
 62
     0
440
 16777216
100
AcDbLine
 10
53.37060852145665
 20
33.40593722436215
 30
0.0
 11
53.37060852145665
 21
29.29881005437408
 31
0.0
  0
LINE
  5
14B1
330
14AC
100
AcDbEntity
  8
0
  6
ByBlock
 62
     0
440
 16777216
100
AcDbLine
 10
53.37060852145665
 20
24.62918288438601
 30
0.0
 11
53.37060852145665
 21
28.73631005437408
 31
0.0
  0
SOLID
  5
14B2
330
14AC
100
AcDbEntity
  8
0
  6
ByBlock
 62
     0
440
 16777216
100
AcDbTrace
 10
53.33935852145664
 20
33.40593722436215
 30
0.0
 11
53.40185852145665
 21
33.40593722436215
 31
0.0
 12
53.37060852145665
 22
33.59343722436215
 32
0.0
 13
53.37060852145665
 23
33.59343722436215
 33
0.0
  0
SOLID
  5
14B3
330
14AC
100
AcDbEntity
  8
0
  6
ByBlock
 62
     0
440
 16777216
100
AcDbTrace
 10
53.33935852145664
 20
24.62918288438601
 30
0.0
 11
53.40185852145665
 21
24.62918288438601
 31
0.0
 12
53.37060852145665
 22
24.44168288438601
 32
0.0
 13
53.37060852145665
 23
24.44168288438601
 33
0.0
  0
MTEXT
  5
14B4
330
14AC
100
AcDbEntity
  8
0
  6
ByBlock
 62
     0
440
 16777216
100
AcDbMText
 10
53.37060852145665
 20
29.01756005437408
 30
0.0
 40
0.1875
 41
0.0
 46
0.0
 71
     5
 72
     5
  1
\A1;9 5/32
 73
     1
 44
1.0
  0
POINT
  5
14B5
330
14AC
100
AcDbEntity
  8
DEFPOINTS
  6
ByBlock
 62
     0
440
 16777216
100
AcDbPoint
 10
48.35723453451826
 20
33.59343722436215
 30
0.0
  0
POINT
  5
14B6
330
14AC
100
AcDbEntity
  8
DEFPOINTS
  6
ByBlock
 62
     0
440
 16777216
100
AcDbPoint
 10
48.35723453451826
 20
24.44168288438601
 30
0.0
  0
POINT
  5
14B7
330
14AC
100
AcDbEntity
  8
DEFPOINTS
  6
ByBlock
 62
     0
440
 16777216
100
AcDbPoint
 10
53.37060852145665
 20
24.44168288438601
 30
0.0
  0
ENDBLK
  5
14B8
330
14AC
100
AcDbEntity
  8
0
100
AcDbBlockEnd
  0
BLOCK
  5
14BA
330
14B9
100
AcDbEntity
  8
0
100
AcDbBlockBegin
  2
*D19
 70
     1
 10
0.0
 20
0.0
 30
0.0
  3
*D19
  1

  0
LINE
  5
14BB
330
14B9
100
AcDbEntity
  8
0
  6
ByBlock
 62
     0
440
 16777216
100
AcDbLine
 10
48.73114375911593
 20
32.83004863402823
 30
0.0
 11
51.79767145216455
 21
32.83004863402823
 31
0.0
  0
LINE
  5
14BC
330
14B9
100
AcDbEntity
  8
0
  6
ByBlock
 62
     0
440
 16777216
100
AcDbLine
 10
48.73114375911593
 20
25.20504863402823
 30
0.0
 11
51.79767145216455
 21
25.20504863402823
 31
0.0
  0
LINE
  5
14BD
330
14B9
100
AcDbEntity
  8
0
  6
ByBlock
 62
     0
440
 16777216
100
AcDbLine
 10
51.61017145216455
 20
32.64254863402823
 30
0.0
 11
51.61017145216455
 21
29.29879863402823
 31
0.0
  0
LINE
  5
14BE
330
14B9
100
AcDbEntity
  8
0
  6
ByBlock
 62
     0
440
 16777216
100
AcDbLine
 10
51.61017145216455
 20
25.39254863402823
 30
0.0
 11
51.61017145216455
 21
28.73629863402823
 31
0.0
  0
SOLID
  5
14BF
330
14B9
100
AcDbEntity
  8
0
  6
ByBlock
 62
     0
440
 16777216
100
AcDbTrace
 10
51.57892145216456
 20
32.64254863402823
 30
0.0
 11
51.64142145216455
 21
32.64254863402823
 31
0.0
 12
51.61017145216455
 22
32.83004863402823
 32
0.0
 13
51.61017145216455
 23
32.83004863402823
 33
0.0
  0
SOLID
  5
14C0
330
14B9
100
AcDbEntity
  8
0
  6
ByBlock
 62
     0
440
 16777216
100
AcDbTrace
 10
51.57892145216456
 20
25.39254863402823
 30
0.0
 11
51.64142145216455
 21
25.39254863402823
 31
0.0
 12
51.61017145216455
 22
25.20504863402823
 32
0.0
 13
51.61017145216455
 23
25.20504863402823
 33
0.0
  0
MTEXT
  5
14C1
330
14B9
100
AcDbEntity
  8
0
  6
ByBlock
 62
     0
440
 16777216
100
AcDbMText
 10
51.61017145216455
 20
29.01754863402823
 30
0.0
 40
0.1875
 41
0.0
 46
0.0
 71
     5
 72
     5
  1
\A1;7 5/8
 73
     1
 44
1.0
  0
POINT
  5
14C2
330
14B9
100
AcDbEntity
  8
DEFPOINTS
  6
ByBlock
 62
     0
440
 16777216
100
AcDbPoint
 10
48.54364375911593
 20
32.83004863402823
 30
0.0
  0
POINT
  5
14C3
330
14B9
100
AcDbEntity
  8
DEFPOINTS
  6
ByBlock
 62
     0
440
 16777216
100
AcDbPoint
 10
48.54364375911593
 20
25.20504863402823
 30
0.0
  0
POINT
  5
14C4
330
14B9
100
AcDbEntity
  8
DEFPOINTS
  6
ByBlock
 62
     0
440
 16777216
100
AcDbPoint
 10
51.61017145216455
 20
25.20504863402823
 30
0.0
  0
ENDBLK
  5
14C5
330
14B9
100
AcDbEntity
  8
0
100
AcDbBlockEnd
  0
BLOCK
  5
14C7
330
14C6
100
AcDbEntity
  8
0
100
AcDbBlockBegin
  2
*D20
 70
     1
 10
0.0
 20
0.0
 30
0.0
  3
*D20
  1

  0
LINE
  5
14C8
330
14C6
100
AcDbEntity
  8
0
  6
ByBlock
 62
     0
440
 16777216
100
AcDbLine
 10
48.60745805564459
 20
32.40404235433615
 30
0.0
 11
50.0643657021503
 21
32.40404235433615
 31
0.0
  0
LINE
  5
14C9
330
14C6
100
AcDbEntity
  8
0
  6
ByBlock
 62
     0
440
 16777216
100
AcDbLine
 10
48.60745805564459
 20
25.631077754412
 30
0.0
 11
50.0643657021503
 21
25.631077754412
 31
0.0
  0
LINE
  5
14CA
330
14C6
100
AcDbEntity
  8
0
  6
ByBlock
 62
     0
440
 16777216
100
AcDbLine
 10
49.8768657021503
 20
32.21654235433616
 30
0.0
 11
49.8768657021503
 21
29.29881005437407
 31
0.0
  0
LINE
  5
14CB
330
14C6
100
AcDbEntity
  8
0
  6
ByBlock
 62
     0
440
 16777216
100
AcDbLine
 10
49.8768657021503
 20
25.81857775441199
 30
0.0
 11
49.8768657021503
 21
28.73631005437407
 31
0.0
  0
SOLID
  5
14CC
330
14C6
100
AcDbEntity
  8
0
  6
ByBlock
 62
     0
440
 16777216
100
AcDbTrace
 10
49.8456157021503
 20
32.21654235433616
 30
0.0
 11
49.9081157021503
 21
32.21654235433616
 31
0.0
 12
49.8768657021503
 22
32.40404235433615
 32
0.0
 13
49.8768657021503
 23
32.40404235433615
 33
0.0
  0
SOLID
  5
14CD
330
14C6
100
AcDbEntity
  8
0
  6
ByBlock
 62
     0
440
 16777216
100
AcDbTrace
 10
49.8456157021503
 20
25.81857775441199
 30
0.0
 11
49.9081157021503
 21
25.81857775441199
 31
0.0
 12
49.8768657021503
 22
25.631077754412
 32
0.0
 13
49.8768657021503
 23
25.631077754412
 33
0.0
  0
MTEXT
  5
14CE
330
14C6
100
AcDbEntity
  8
0
  6
ByBlock
 62
     0
440
 16777216
100
AcDbMText
 10
49.8768657021503
 20
29.01756005437407
 30
0.0
 40
0.1875
 41
0.0
 46
0.0
 71
     5
 72
     5
  1
\A1;6 25/32
 73
     1
 44
1.0
  0
POINT
  5
14CF
330
14C6
100
AcDbEntity
  8
DEFPOINTS
  6
ByBlock
 62
     0
440
 16777216
100
AcDbPoint
 10
48.41995805564459
 20
32.40404235433615
 30
0.0
  0
POINT
  5
14D0
330
14C6
100
AcDbEntity
  8
DEFPOINTS
  6
ByBlock
 62
     0
440
 16777216
100
AcDbPoint
 10
48.41995805564459
 20
25.631077754412
 30
0.0
  0
POINT
  5
14D1
330
14C6
100
AcDbEntity
  8
DEFPOINTS
  6
ByBlock
 62
     0
440
 16777216
100
AcDbPoint
 10
49.8768657021503
 20
25.631077754412
 30
0.0
  0
ENDBLK
  5
14D2
330
14C6
100
AcDbEntity
  8
0
100
AcDbBlockEnd
  0
BLOCK
  5
14D4
330
14D3
100
AcDbEntity
  8
0
100
AcDbBlockBegin
  2
*D21
 70
     1
 10
0.0
 20
0.0
 30
0.0
  3
*D21
  1

  0
LINE
  5
14D5
330
14D3
100
AcDbEntity
  8
0
  6
ByBlock
 62
     0
440
 16777216
100
AcDbLine
 10
50.31491237619378
 20
15.07508937964485
 30
0.0
 11
54.51666993583116
 21
15.07508937964485
 31
0.0
  0
LINE
  5
14D6
330
14D3
100
AcDbEntity
  8
0
  6
ByBlock
 62
     0
440
 16777216
100
AcDbLine
 10
50.02577282749709
 20
11.88758937964485
 30
0.0
 11
54.51666993583116
 21
11.88758937964485
 31
0.0
  0
LINE
  5
14D7
330
14D3
100
AcDbEntity
  8
0
  6
ByBlock
 62
     0
440
 16777216
100
AcDbLine
 10
54.32916993583116
 20
14.88758937964485
 30
0.0
 11
54.32916993583116
 21
13.76258937964485
 31
0.0
  0
LINE
  5
14D8
330
14D3
100
AcDbEntity
  8
0
  6
ByBlock
 62
     0
440
 16777216
100
AcDbLine
 10
54.32916993583116
 20
12.07508937964485
 30
0.0
 11
54.32916993583116
 21
13.20008937964485
 31
0.0
  0
SOLID
  5
14D9
330
14D3
100
AcDbEntity
  8
0
  6
ByBlock
 62
     0
440
 16777216
100
AcDbTrace
 10
54.29791993583116
 20
14.88758937964485
 30
0.0
 11
54.36041993583116
 21
14.88758937964485
 31
0.0
 12
54.32916993583116
 22
15.07508937964485
 32
0.0
 13
54.32916993583116
 23
15.07508937964485
 33
0.0
  0
SOLID
  5
14DA
330
14D3
100
AcDbEntity
  8
0
  6
ByBlock
 62
     0
440
 16777216
100
AcDbTrace
 10
54.29791993583116
 20
12.07508937964485
 30
0.0
 11
54.36041993583116
 21
12.07508937964485
 31
0.0
 12
54.32916993583116
 22
11.88758937964485
 32
0.0
 13
54.32916993583116
 23
11.88758937964485
 33
0.0
  0
MTEXT
  5
14DB
330
14D3
100
AcDbEntity
  8
0
  6
ByBlock
 62
     0
440
 16777216
100
AcDbMText
 10
54.32916993583116
 20
13.48133937964485
 30
0.0
 40
0.1875
 41
0.0
 46
0.0
 71
     5
 72
     5
  1
\A1;3 3/16
 73
     1
 44
1.0
  0
POINT
  5
14DC
330
14D3
100
AcDbEntity
  8
DEFPOINTS
  6
ByBlock
 62
     0
440
 16777216
100
AcDbPoint
 10
50.12741237619378
 20
15.07508937964485
 30
0.0
  0
POINT
  5
14DD
330
14D3
100
AcDbEntity
  8
DEFPOINTS
  6
ByBlock
 62
     0
440
 16777216
100
AcDbPoint
 10
49.83827282749709
 20
11.88758937964485
 30
0.0
  0
POINT
  5
14DE
330
14D3
100
AcDbEntity
  8
DEFPOINTS
  6
ByBlock
 62
     0
440
 16777216
100
AcDbPoint
 10
54.32916993583116
 20
11.88758937964485
 30
0.0
  0
ENDBLK
  5
14DF
330
14D3
100
AcDbEntity
  8
0
100
AcDbBlockEnd
  0
BLOCK
  5
14E1
330
14E0
100
AcDbEntity
  8
0
100
AcDbBlockBegin
  2
*D22
 70
     1
 10
0.0
 20
0.0
 30
0.0
  3
*D22
  1

  0
LINE
  5
14E2
330
14E0
100
AcDbEntity
  8
0
  6
ByBlock
 62
     0
440
 16777216
100
AcDbLine
 10
50.02577282749709
 20
12.01258937964485
 30
0.0
 11
52.87650400620158
 21
12.01258937964485
 31
0.0
  0
LINE
  5
14E3
330
14E0
100
AcDbEntity
  8
0
  6
ByBlock
 62
     0
440
 16777216
100
AcDbLine
 10
50.26239375911593
 20
14.88758937964485
 30
0.0
 11
52.87650400620158
 21
14.88758937964485
 31
0.0
  0
LINE
  5
14E4
330
14E0
100
AcDbEntity
  8
0
  6
ByBlock
 62
     0
440
 16777216
100
AcDbLine
 10
52.68900400620158
 20
12.20008937964485
 30
0.0
 11
52.68900400620158
 21
13.16883937964484
 31
0.0
  0
LINE
  5
14E5
330
14E0
100
AcDbEntity
  8
0
  6
ByBlock
 62
     0
440
 16777216
100
AcDbLine
 10
52.68900400620158
 20
14.70008937964485
 30
0.0
 11
52.68900400620158
 21
13.73133937964485
 31
0.0
  0
SOLID
  5
14E6
330
14E0
100
AcDbEntity
  8
0
  6
ByBlock
 62
     0
440
 16777216
100
AcDbTrace
 10
52.65775400620158
 20
12.20008937964485
 30
0.0
 11
52.72025400620158
 21
12.20008937964485
 31
0.0
 12
52.68900400620158
 22
12.01258937964485
 32
0.0
 13
52.68900400620158
 23
12.01258937964485
 33
0.0
  0
SOLID
  5
14E7
330
14E0
100
AcDbEntity
  8
0
  6
ByBlock
 62
     0
440
 16777216
100
AcDbTrace
 10
52.65775400620158
 20
14.70008937964485
 30
0.0
 11
52.72025400620158
 21
14.70008937964485
 31
0.0
 12
52.68900400620158
 22
14.88758937964485
 32
0.0
 13
52.68900400620158
 23
14.88758937964485
 33
0.0
  0
MTEXT
  5
14E8
330
14E0
100
AcDbEntity
  8
0
  6
ByBlock
 62
     0
440
 16777216
100
AcDbMText
 10
52.68900400620158
 20
13.45008937964485
 30
0.0
 40
0.1875
 41
0.0
 46
0.0
 71
     5
 72
     5
  1
\A1;2 7/8
 73
     1
 44
1.0
  0
POINT
  5
14E9
330
14E0
100
AcDbEntity
  8
DEFPOINTS
  6
ByBlock
 62
     0
440
 16777216
100
AcDbPoint
 10
49.83827282749709
 20
12.01258937964485
 30
0.0
  0
POINT
  5
14EA
330
14E0
100
AcDbEntity
  8
DEFPOINTS
  6
ByBlock
 62
     0
440
 16777216
100
AcDbPoint
 10
50.07489375911593
 20
14.88758937964485
 30
0.0
  0
POINT
  5
14EB
330
14E0
100
AcDbEntity
  8
DEFPOINTS
  6
ByBlock
 62
     0
440
 16777216
100
AcDbPoint
 10
52.68900400620158
 20
14.88758937964485
 30
0.0
  0
ENDBLK
  5
14EC
330
14E0
100
AcDbEntity
  8
0
100
AcDbBlockEnd
  0
BLOCK
  5
14EE
330
14ED
100
AcDbEntity
  8
0
100
AcDbBlockBegin
  2
*D23
 70
     1
 10
0.0
 20
0.0
 30
0.0
  3
*D23
  1

  0
LINE
  5
14EF
330
14ED
100
AcDbEntity
  8
0
  6
ByBlock
 62
     0
440
 16777216
100
AcDbLine
 10
50.26239375911593
 20
14.88758937964485
 30
0.0
 11
51.35796966668618
 21
14.88758937964485
 31
0.0
  0
LINE
  5
14F0
330
14ED
100
AcDbEntity
  8
0
  6
ByBlock
 62
     0
440
 16777216
100
AcDbLine
 10
49.42793603246445
 20
12.38758937964484
 30
0.0
 11
51.35796966668618
 21
12.38758937964484
 31
0.0
  0
LINE
  5
14F1
330
14ED
100
AcDbEntity
  8
0
  6
ByBlock
 62
     0
440
 16777216
100
AcDbLine
 10
51.17046966668617
 20
14.70008937964485
 30
0.0
 11
51.17046966668617
 21
13.91883937964484
 31
0.0
  0
LINE
  5
14F2
330
14ED
100
AcDbEntity
  8
0
  6
ByBlock
 62
     0
440
 16777216
100
AcDbLine
 10
51.17046966668617
 20
12.57508937964484
 30
0.0
 11
51.17046966668617
 21
13.35633937964484
 31
0.0
  0
SOLID
  5
14F3
330
14ED
100
AcDbEntity
  8
0
  6
ByBlock
 62
     0
440
 16777216
100
AcDbTrace
 10
51.13921966668617
 20
14.70008937964485
 30
0.0
 11
51.20171966668618
 21
14.70008937964485
 31
0.0
 12
51.17046966668617
 22
14.88758937964485
 32
0.0
 13
51.17046966668617
 23
14.88758937964485
 33
0.0
  0
SOLID
  5
14F4
330
14ED
100
AcDbEntity
  8
0
  6
ByBlock
 62
     0
440
 16777216
100
AcDbTrace
 10
51.13921966668617
 20
12.57508937964484
 30
0.0
 11
51.20171966668618
 21
12.57508937964484
 31
0.0
 12
51.17046966668617
 22
12.38758937964484
 32
0.0
 13
51.17046966668617
 23
12.38758937964484
 33
0.0
  0
MTEXT
  5
14F5
330
14ED
100
AcDbEntity
  8
0
  6
ByBlock
 62
     0
440
 16777216
100
AcDbMText
 10
51.17046966668617
 20
13.63758937964484
 30
0.0
 40
0.1875
 41
0.0
 46
0.0
 71
     5
 72
     5
  1
\A1;2 1/2
 73
     1
 44
1.0
  0
POINT
  5
14F6
330
14ED
100
AcDbEntity
  8
DEFPOINTS
  6
ByBlock
 62
     0
440
 16777216
100
AcDbPoint
 10
50.07489375911593
 20
14.88758937964485
 30
0.0
  0
POINT
  5
14F7
330
14ED
100
AcDbEntity
  8
DEFPOINTS
  6
ByBlock
 62
     0
440
 16777216
100
AcDbPoint
 10
49.24043603246445
 20
12.38758937964484
 30
0.0
  0
POINT
  5
14F8
330
14ED
100
AcDbEntity
  8
DEFPOINTS
  6
ByBlock
 62
     0
440
 16777216
100
AcDbPoint
 10
51.17046966668617
 20
12.38758937964484
 30
0.0
  0
ENDBLK
  5
14F9
330
14ED
100
AcDbEntity
  8
0
100
AcDbBlockEnd
  0
BLOCK
  5
14FB
330
14FA
100
AcDbEntity
  8
0
100
AcDbBlockBegin
  2
*D24
 70
     1
 10
0.0
 20
0.0
 30
0.0
  3
*D24
  1

  0
LINE
  5
14FC
330
14FA
100
AcDbEntity
  8
0
  6
ByBlock
 62
     0
440
 16777216
100
AcDbLine
 10
43.9990242097875
 20
11.88649860424251
 30
0.0
 11
43.9990242097875
 21
7.847873631232335
 31
0.0
  0
LINE
  5
14FD
330
14FA
100
AcDbEntity
  8
0
  6
ByBlock
 62
     0
440
 16777216
100
AcDbLine
 10
49.90076330844437
 20
11.88649860424251
 30
0.0
 11
49.90076330844437
 21
7.847873631232335
 31
0.0
  0
LINE
  5
14FE
330
14FA
100
AcDbEntity
  8
0
  6
ByBlock
 62
     0
440
 16777216
100
AcDbLine
 10
44.18652420978751
 20
8.035373631232335
 30
0.0
 11
46.13739375911593
 21
8.035373631232335
 31
0.0
  0
LINE
  5
14FF
330
14FA
100
AcDbEntity
  8
0
  6
ByBlock
 62
     0
440
 16777216
100
AcDbLine
 10
49.71326330844437
 20
8.035373631232335
 30
0.0
 11
47.76239375911592
 21
8.035373631232335
 31
0.0
  0
SOLID
  5
1500
330
14FA
100
AcDbEntity
  8
0
  6
ByBlock
 62
     0
440
 16777216
100
AcDbTrace
 10
44.18652420978751
 20
8.066623631232335
 30
0.0
 11
44.18652420978751
 21
8.004123631232335
 31
0.0
 12
43.9990242097875
 22
8.035373631232335
 32
0.0
 13
43.9990242097875
 23
8.035373631232335
 33
0.0
  0
SOLID
  5
1501
330
14FA
100
AcDbEntity
  8
0
  6
ByBlock
 62
     0
440
 16777216
100
AcDbTrace
 10
49.71326330844437
 20
8.066623631232335
 30
0.0
 11
49.71326330844437
 21
8.004123631232335
 31
0.0
 12
49.90076330844437
 22
8.035373631232335
 32
0.0
 13
49.90076330844437
 23
8.035373631232335
 33
0.0
  0
MTEXT
  5
1502
330
14FA
100
AcDbEntity
  8
0
  6
ByBlock
 62
     0
440
 16777216
100
AcDbMText
 10
46.94989375911593
 20
8.035373631232335
 30
0.0
 40
0.1875
 41
0.0
 46
0.0
 71
     5
 72
     5
  1
\A1;5 29/32
 73
     1
 44
1.0
  0
POINT
  5
1503
330
14FA
100
AcDbEntity
  8
DEFPOINTS
  6
ByBlock
 62
     0
440
 16777216
100
AcDbPoint
 10
43.9990242097875
 20
12.07399860424251
 30
0.0
  0
POINT
  5
1504
330
14FA
100
AcDbEntity
  8
DEFPOINTS
  6
ByBlock
 62
     0
440
 16777216
100
AcDbPoint
 10
49.90076330844437
 20
12.07399860424251
 30
0.0
  0
POINT
  5
1505
330
14FA
100
AcDbEntity
  8
DEFPOINTS
  6
ByBlock
 62
     0
440
 16777216
100
AcDbPoint
 10
49.90076330844437
 20
8.035373631232335
 30
0.0
  0
ENDBLK
  5
1506
330
14FA
100
AcDbEntity
  8
0
100
AcDbBlockEnd
  0
BLOCK
  5
1508
330
1507
100
AcDbEntity
  8
0
100
AcDbBlockBegin
  2
*D25
 70
     1
 10
0.0
 20
0.0
 30
0.0
  3
*D25
  1

  0
LINE
  5
1509
330
1507
100
AcDbEntity
  8
0
  6
ByBlock
 62
     0
440
 16777216
100
AcDbLine
 10
44.13739375911593
 20
11.70008937964484
 30
0.0
 11
44.13739375911593
 21
8.8542545833612
 31
0.0
  0
LINE
  5
150A
330
1507
100
AcDbEntity
  8
0
  6
ByBlock
 62
     0
440
 16777216
100
AcDbLine
 10
49.76239375911594
 20
11.70008937964484
 30
0.0
 11
49.76239375911594
 21
8.8542545833612
 31
0.0
  0
LINE
  5
150B
330
1507
100
AcDbEntity
  8
0
  6
ByBlock
 62
     0
440
 16777216
100
AcDbLine
 10
44.32489375911593
 20
9.0417545833612
 30
0.0
 11
46.32489375911593
 21
9.0417545833612
 31
0.0
  0
LINE
  5
150C
330
1507
100
AcDbEntity
  8
0
  6
ByBlock
 62
     0
440
 16777216
100
AcDbLine
 10
49.57489375911594
 20
9.0417545833612
 30
0.0
 11
47.57489375911593
 21
9.0417545833612
 31
0.0
  0
SOLID
  5
150D
330
1507
100
AcDbEntity
  8
0
  6
ByBlock
 62
     0
440
 16777216
100
AcDbTrace
 10
44.32489375911593
 20
9.0730045833612
 30
0.0
 11
44.32489375911593
 21
9.0105045833612
 31
0.0
 12
44.13739375911593
 22
9.0417545833612
 32
0.0
 13
44.13739375911593
 23
9.0417545833612
 33
0.0
  0
SOLID
  5
150E
330
1507
100
AcDbEntity
  8
0
  6
ByBlock
 62
     0
440
 16777216
100
AcDbTrace
 10
49.57489375911594
 20
9.0730045833612
 30
0.0
 11
49.57489375911594
 21
9.0105045833612
 31
0.0
 12
49.76239375911594
 22
9.0417545833612
 32
0.0
 13
49.76239375911594
 23
9.0417545833612
 33
0.0
  0
MTEXT
  5
150F
330
1507
100
AcDbEntity
  8
0
  6
ByBlock
 62
     0
440
 16777216
100
AcDbMText
 10
46.94989375911593
 20
9.0417545833612
 30
0.0
 40
0.1875
 41
0.0
 46
0.0
 71
     5
 72
     5
  1
\A1;5 5/8
 73
     1
 44
1.0
  0
POINT
  5
1510
330
1507
100
AcDbEntity
  8
DEFPOINTS
  6
ByBlock
 62
     0
440
 16777216
100
AcDbPoint
 10
44.13739375911593
 20
11.88758937964484
 30
0.0
  0
POINT
  5
1511
330
1507
100
AcDbEntity
  8
DEFPOINTS
  6
ByBlock
 62
     0
440
 16777216
100
AcDbPoint
 10
49.76239375911594
 20
11.88758937964484
 30
0.0
  0
POINT
  5
1512
330
1507
100
AcDbEntity
  8
DEFPOINTS
  6
ByBlock
 62
     0
440
 16777216
100
AcDbPoint
 10
49.76239375911594
 20
9.0417545833612
 30
0.0
  0
ENDBLK
  5
1513
330
1507
100
AcDbEntity
  8
0
100
AcDbBlockEnd
  0
BLOCK
  5
1515
330
1514
100
AcDbEntity
  8
0
100
AcDbBlockBegin
  2
*D26
 70
     1
 10
0.0
 20
0.0
 30
0.0
  3
*D26
  1

  0
LINE
  5
1516
330
1514
100
AcDbEntity
  8
0
  6
ByBlock
 62
     0
440
 16777216
100
AcDbLine
 10
44.500172275812
 20
11.82508937964485
 30
0.0
 11
44.500172275812
 21
9.743898274748444
 31
0.0
  0
LINE
  5
1517
330
1514
100
AcDbEntity
  8
0
  6
ByBlock
 62
     0
440
 16777216
100
AcDbLine
 10
49.39961524241986
 20
11.82508937964485
 30
0.0
 11
49.39961524241986
 21
9.743898274748444
 31
0.0
  0
LINE
  5
1518
330
1514
100
AcDbEntity
  8
0
  6
ByBlock
 62
     0
440
 16777216
100
AcDbLine
 10
44.687672275812
 20
9.931398274748444
 30
0.0
 11
46.13739375911594
 21
9.931398274748444
 31
0.0
  0
LINE
  5
1519
330
1514
100
AcDbEntity
  8
0
  6
ByBlock
 62
     0
440
 16777216
100
AcDbLine
 10
49.21211524241987
 20
9.931398274748444
 30
0.0
 11
47.76239375911593
 21
9.931398274748444
 31
0.0
  0
SOLID
  5
151A
330
1514
100
AcDbEntity
  8
0
  6
ByBlock
 62
     0
440
 16777216
100
AcDbTrace
 10
44.687672275812
 20
9.962648274748444
 30
0.0
 11
44.687672275812
 21
9.900148274748444
 31
0.0
 12
44.500172275812
 22
9.931398274748444
 32
0.0
 13
44.500172275812
 23
9.931398274748444
 33
0.0
  0
SOLID
  5
151B
330
1514
100
AcDbEntity
  8
0
  6
ByBlock
 62
     0
440
 16777216
100
AcDbTrace
 10
49.21211524241987
 20
9.962648274748444
 30
0.0
 11
49.21211524241987
 21
9.900148274748444
 31
0.0
 12
49.39961524241986
 22
9.931398274748444
 32
0.0
 13
49.39961524241986
 23
9.931398274748444
 33
0.0
  0
MTEXT
  5
151C
330
1514
100
AcDbEntity
  8
0
  6
ByBlock
 62
     0
440
 16777216
100
AcDbMText
 10
46.94989375911593
 20
9.931398274748444
 30
0.0
 40
0.1875
 41
0.0
 46
0.0
 71
     5
 72
     5
  1
\A1;4 29/32
 73
     1
 44
1.0
  0
POINT
  5
151D
330
1514
100
AcDbEntity
  8
DEFPOINTS
  6
ByBlock
 62
     0
440
 16777216
100
AcDbPoint
 10
44.500172275812
 20
12.01258937964485
 30
0.0
  0
POINT
  5
151E
330
1514
100
AcDbEntity
  8
DEFPOINTS
  6
ByBlock
 62
     0
440
 16777216
100
AcDbPoint
 10
49.39961524241986
 20
12.01258937964485
 30
0.0
  0
POINT
  5
151F
330
1514
100
AcDbEntity
  8
DEFPOINTS
  6
ByBlock
 62
     0
440
 16777216
100
AcDbPoint
 10
49.39961524241986
 20
9.931398274748444
 30
0.0
  0
ENDBLK
  5
1520
330
1514
100
AcDbEntity
  8
0
100
AcDbBlockEnd
  0
BLOCK
  5
1522
330
1521
100
AcDbEntity
  8
0
100
AcDbBlockBegin
  2
*D27
 70
     1
 10
0.0
 20
0.0
 30
0.0
  3
*D27
  1

  0
LINE
  5
1523
330
1521
100
AcDbEntity
  8
0
  6
ByBlock
 62
     0
440
 16777216
100
AcDbLine
 10
44.82438658738633
 20
11.94388895255651
 30
0.0
 11
44.82438658738633
 21
10.63237107823607
 31
0.0
  0
LINE
  5
1524
330
1521
100
AcDbEntity
  8
0
  6
ByBlock
 62
     0
440
 16777216
100
AcDbLine
 10
49.07464511119547
 20
11.94388895255651
 30
0.0
 11
49.07464511119547
 21
10.63237107823607
 31
0.0
  0
LINE
  5
1525
330
1521
100
AcDbEntity
  8
0
  6
ByBlock
 62
     0
440
 16777216
100
AcDbLine
 10
45.01188658738633
 20
10.81987107823607
 30
0.0
 11
46.3557658492909
 21
10.81987107823607
 31
0.0
  0
LINE
  5
1526
330
1521
100
AcDbEntity
  8
0
  6
ByBlock
 62
     0
440
 16777216
100
AcDbLine
 10
48.88714511119547
 20
10.81987107823607
 30
0.0
 11
47.5432658492909
 21
10.81987107823607
 31
0.0
  0
SOLID
  5
1527
330
1521
100
AcDbEntity
  8
0
  6
ByBlock
 62
     0
440
 16777216
100
AcDbTrace
 10
45.01188658738633
 20
10.85112107823607
 30
0.0
 11
45.01188658738633
 21
10.78862107823607
 31
0.0
 12
44.82438658738633
 22
10.81987107823607
 32
0.0
 13
44.82438658738633
 23
10.81987107823607
 33
0.0
  0
SOLID
  5
1528
330
1521
100
AcDbEntity
  8
0
  6
ByBlock
 62
     0
440
 16777216
100
AcDbTrace
 10
48.88714511119547
 20
10.85112107823607
 30
0.0
 11
48.88714511119547
 21
10.78862107823607
 31
0.0
 12
49.07464511119547
 22
10.81987107823607
 32
0.0
 13
49.07464511119547
 23
10.81987107823607
 33
0.0
  0
MTEXT
  5
1529
330
1521
100
AcDbEntity
  8
0
  6
ByBlock
 62
     0
440
 16777216
100
AcDbMText
 10
46.9495158492909
 20
10.81987107823607
 30
0.0
 40
0.1875
 41
0.0
 46
0.0
 71
     5
 72
     5
  1
\A1;4 1/4
 73
     1
 44
1.0
  0
POINT
  5
152A
330
1521
100
AcDbEntity
  8
DEFPOINTS
  6
ByBlock
 62
     0
440
 16777216
100
AcDbPoint
 10
44.82438658738633
 20
12.13138895255651
 30
0.0
  0
POINT
  5
152B
330
1521
100
AcDbEntity
  8
DEFPOINTS
  6
ByBlock
 62
     0
440
 16777216
100
AcDbPoint
 10
49.07464511119547
 20
12.13138895255651
 30
0.0
  0
POINT
  5
152C
330
1521
100
AcDbEntity
  8
DEFPOINTS
  6
ByBlock
 62
     0
440
 16777216
100
AcDbPoint
 10
49.07464511119547
 20
10.81987107823607
 30
0.0
  0
ENDBLK
  5
152D
330
1521
100
AcDbEntity
  8
0
100
AcDbBlockEnd
  0
BLOCK
  5
1539
330
1538
100
AcDbEntity
  8
0
100
AcDbBlockBegin
  2
*D28
 70
     1
 10
0.0
 20
0.0
 30
0.0
  3
*D28
  1

  0
LINE
  5
153A
330
1538
100
AcDbEntity
  8
0
  6
ByBlock
 62
     0
440
 16777216
100
AcDbLine
 10
45.62648767160697
 20
14.95008937964484
 30
0.0
 11
45.12199585321167
 21
14.95008937964484
 31
0.0
  0
LINE
  5
153B
330
1538
100
AcDbEntity
  8
0
  6
ByBlock
 62
     0
440
 16777216
100
AcDbLine
 10
45.75148767160698
 20
15.07508937964485
 30
0.0
 11
45.12199585321167
 21
15.07508937964485
 31
0.0
  0
LINE
  5
153C
330
1538
100
AcDbEntity
  8
0
  6
ByBlock
 62
     0
440
 16777216
100
AcDbLine
 10
45.30949585321167
 20
14.76258937964484
 30
0.0
 11
45.30949585321167
 21
14.57508937964484
 31
0.0
  0
LINE
  5
153D
330
1538
100
AcDbEntity
  8
0
  6
ByBlock
 62
     0
440
 16777216
100
AcDbLine
 10
45.30949585321167
 20
15.26258937964485
 30
0.0
 11
45.30949585321167
 21
15.45008937964485
 31
0.0
  0
LINE
  5
153E
330
1538
100
AcDbEntity
  8
0
  6
ByBlock
 62
     0
440
 16777216
100
AcDbLine
 10
45.30949585321167
 20
15.45008937964485
 30
0.0
 11
45.49699585321167
 21
15.45008937964485
 31
0.0
  0
SOLID
  5
153F
330
1538
100
AcDbEntity
  8
0
  6
ByBlock
 62
     0
440
 16777216
100
AcDbTrace
 10
45.27824585321167
 20
14.76258937964484
 30
0.0
 11
45.34074585321167
 21
14.76258937964484
 31
0.0
 12
45.30949585321167
 22
14.95008937964484
 32
0.0
 13
45.30949585321167
 23
14.95008937964484
 33
0.0
  0
SOLID
  5
1540
330
1538
100
AcDbEntity
  8
0
  6
ByBlock
 62
     0
440
 16777216
100
AcDbTrace
 10
45.27824585321167
 20
15.26258937964485
 30
0.0
 11
45.34074585321167
 21
15.26258937964485
 31
0.0
 12
45.30949585321167
 22
15.07508937964485
 32
0.0
 13
45.30949585321167
 23
15.07508937964485
 33
0.0
  0
MTEXT
  5
1541
330
1538
100
AcDbEntity
  8
0
  6
ByBlock
 62
     0
440
 16777216
100
AcDbMText
 10
46.01262085321167
 20
15.45008937964485
 30
0.0
 40
0.1875
 41
0.0
 46
0.0
 71
     5
 72
     5
  1
\A1;0.125
 73
     1
 44
1.0
  0
POINT
  5
1542
330
1538
100
AcDbEntity
  8
DEFPOINTS
  6
ByBlock
 62
     0
440
 16777216
100
AcDbPoint
 10
45.81398767160698
 20
14.95008937964484
 30
0.0
  0
POINT
  5
1543
330
1538
100
AcDbEntity
  8
DEFPOINTS
  6
ByBlock
 62
     0
440
 16777216
100
AcDbPoint
 10
45.93898767160697
 20
15.07508937964485
 30
0.0
  0
POINT
  5
1544
330
1538
100
AcDbEntity
  8
DEFPOINTS
  6
ByBlock
 62
     0
440
 16777216
100
AcDbPoint
 10
45.30949585321167
 20
15.07508937964485
 30
0.0
  0
ENDBLK
  5
1545
330
1538
100
AcDbEntity
  8
0
100
AcDbBlockEnd
  0
BLOCK
  5
1548
330
1547
100
AcDbEntity
  8
0
100
AcDbBlockBegin
  2
*D29
 70
     1
 10
0.0
 20
0.0
 30
0.0
  3
*D29
  1

  0
LINE
  5
1549
330
1547
100
AcDbEntity
  8
0
  6
ByBlock
 62
     0
440
 16777216
100
AcDbLine
 10
43.87401469073478
 20
12.01258937964485
 30
0.0
 11
42.98663068788795
 21
12.01258937964485
 31
0.0
  0
LINE
  5
154A
330
1547
100
AcDbEntity
  8
0
  6
ByBlock
 62
     0
440
 16777216
100
AcDbLine
 10
43.87401469073478
 20
11.88758937964485
 30
0.0
 11
42.98663068788795
 21
11.88758937964485
 31
0.0
  0
LINE
  5
154B
330
1547
100
AcDbEntity
  8
0
  6
ByBlock
 62
     0
440
 16777216
100
AcDbLine
 10
43.17413068788795
 20
12.20008937964485
 30
0.0
 11
43.17413068788795
 21
12.38758937964485
 31
0.0
  0
LINE
  5
154C
330
1547
100
AcDbEntity
  8
0
  6
ByBlock
 62
     0
440
 16777216
100
AcDbLine
 10
43.17413068788795
 20
11.70008937964485
 30
0.0
 11
43.17413068788795
 21
11.51258937964485
 31
0.0
  0
LINE
  5
154D
330
1547
100
AcDbEntity
  8
0
  6
ByBlock
 62
     0
440
 16777216
100
AcDbLine
 10
43.17413068788795
 20
11.51258937964485
 30
0.0
 11
42.98663068788795
 21
11.51258937964485
 31
0.0
  0
SOLID
  5
154E
330
1547
100
AcDbEntity
  8
0
  6
ByBlock
 62
     0
440
 16777216
100
AcDbTrace
 10
43.14288068788795
 20
12.20008937964485
 30
0.0
 11
43.20538068788795
 21
12.20008937964485
 31
0.0
 12
43.17413068788795
 22
12.01258937964485
 32
0.0
 13
43.17413068788795
 23
12.01258937964485
 33
0.0
  0
SOLID
  5
154F
330
1547
100
AcDbEntity
  8
0
  6
ByBlock
 62
     0
440
 16777216
100
AcDbTrace
 10
43.14288068788795
 20
11.70008937964485
 30
0.0
 11
43.20538068788795
 21
11.70008937964485
 31
0.0
 12
43.17413068788795
 22
11.88758937964485
 32
0.0
 13
43.17413068788795
 23
11.88758937964485
 33
0.0
  0
MTEXT
  5
1550
330
1547
100
AcDbEntity
  8
0
  6
ByBlock
 62
     0
440
 16777216
100
AcDbMText
 10
42.47100568788795
 20
11.51258937964485
 30
0.0
 40
0.1875
 41
0.0
 46
0.0
 71
     5
 72
     5
  1
\A1;0.125
 73
     1
 44
1.0
  0
POINT
  5
1551
330
1547
100
AcDbEntity
  8
DEFPOINTS
  6
ByBlock
 62
     0
440
 16777216
100
AcDbPoint
 10
44.06151469073478
 20
12.01258937964485
 30
0.0
  0
POINT
  5
1552
330
1547
100
AcDbEntity
  8
DEFPOINTS
  6
ByBlock
 62
     0
440
 16777216
100
AcDbPoint
 10
44.06151469073478
 20
11.88758937964485
 30
0.0
  0
POINT
  5
1553
330
1547
100
AcDbEntity
  8
DEFPOINTS
  6
ByBlock
 62
     0
440
 16777216
100
AcDbPoint
 10
43.17413068788795
 20
11.88758937964485
 30
0.0
  0
ENDBLK
  5
1554
330
1547
100
AcDbEntity
  8
0
100
AcDbBlockEnd
  0
BLOCK
  5
164B
330
164A
100
AcDbEntity
  8
0
100
AcDbBlockBegin
  2
*U30
 70
     1
 10
0.0
 20
0.0
 30
0.0
  3
*U30
  1

  0
ENDBLK
  5
164C
330
164A
100
AcDbEntity
  8
0
100
AcDbBlockEnd
  0
BLOCK
  5
168F
330
168D
100
AcDbEntity
  8
0
100
AcDbBlockBegin
  2
GENAXEH
 70
     0
 10
0.0
 20
0.0
 30
0.0
  3
GENAXEH
  1

  0
LINE
  5
168E
330
168D
100
AcDbEntity
  8
0
100
AcDbLine
 10
-1.0
 20
0.0
 30
0.0
 11
1.0
 21
0.0
 31
0.0
  0
ENDBLK
  5
1690
330
168D
100
AcDbEntity
  8
0
100
AcDbBlockEnd
  0
ENDSEC
  0
SECTION
  2
ENTITIES
  0
INSERT
  5
EE5
330
18
100
AcDbEntity
  8
DIM
100
AcDbBlockReference
  2
SAAL
 10
11.43220520342374
 20
29.27842735515408
 30
0.0
 41
2.0
 42
2.0
 43
2.0
  0
INSERT
  5
EE6
330
18
100
AcDbEntity
  8
DIM
100
AcDbBlockReference
  2
SAATX
 10
46.80957223018934
 20
6.956248910735083
 30
0.0
 41
2.0
 42
2.0
 43
2.0
  0
INSERT
  5
EE7
330
18
100
AcDbEntity
  8
DIM
100
AcDbBlockReference
  2
SBBTX
 10
46.94989375911593
 20
21.61505217123206
 30
0.0
 41
2.0
 42
2.0
 43
2.0
  0
INSERT
  5
EE8
330
18
100
AcDbEntity
  8
DIM
100
AcDbBlockReference
  2
SBBB
 10
15.85885558909022
 20
23.52465573019918
 30
0.0
 41
2.0
 42
2.0
 43
2.0
  0
INSERT
  5
EE9
330
18
100
AcDbEntity
  8
DIM
100
AcDbBlockReference
  2
SBBT
 10
15.85885558909021
 20
34.4452063887227
 30
0.0
 41
2.0
 42
2.0
 43
2.0
  0
INSERT
  5
EEA
330
18
100
AcDbEntity
  8
DIM
100
AcDbBlockReference
  2
SAAR
 10
18.99812286424959
 20
29.26131563792048
 30
0.0
 41
2.0
 42
2.0
 43
2.0
  0
TEXT
  5
EEB
330
18
100
AcDbEntity
  8
TITLE
100
AcDbText
 10
60.77239781043886
 20
3.291854043250368
 30
0.0
 40
0.187
  1
.010
100
AcDbText
  0
TEXT
  5
EEC
330
18
100
AcDbEntity
  8
TITLE
100
AcDbText
 10
62.33016661219541
 20
3.30026359488149
 30
0.0
 40
0.187
  1
1/32
100
AcDbText
  0
TEXT
  5
EED
330
18
100
AcDbEntity
  8
TITLE
100
AcDbText
 10
44.7810185832511
 20
2.38189835397266
 30
0.0
 40
0.187
  1
F.R. POLYESTER FIBERGLASS
100
AcDbText
  0
TEXT
  5
EEE
330
18
100
AcDbEntity
  8
TITLE
100
AcDbText
 10
52.41442843698457
 20
2.363143248823269
 30
0.0
 40
0.187
  1
GF
100
AcDbText
  0
TEXT
  5
EEF
330
18
100
AcDbEntity
  8
TITLE
100
AcDbText
 10
56.3504177797388
 20
0.1500408411951249
 30
0.0
 40
0.187
  1
ENCLOSURE
100
AcDbText
  0
TEXT
  5
EF0
330
18
100
AcDbEntity
  8
TITLE
100
AcDbText
 10
61.1017110842512
 20
0.143073782371377
 30
0.0
 40
0.187
  1
HW-N4X963SC
100
AcDbText
  0
TEXT
  5
EF2
330
18
100
AcDbEntity
  8
TITLE
100
AcDbText
 10
44.75726211672854
 20
3.582225083533688
 30
0.0
 40
0.187
  1
NEMA 4X
100
AcDbText
  0
TEXT
  5
EF3
330
18
100
AcDbEntity
  8
TITLE
100
AcDbText
 10
53.21456419876061
 20
2.345744489080263
 30
0.0
 40
0.187
  1
7/23/93
 41
0.800351545947276
 72
     5
 11
54.21233579270822
 21
2.345744489080263
 31
0.0
100
AcDbText
  0
LINE
  5
EF8
330
18
100
AcDbEntity
  8
0
100
AcDbLine
 10
45.54364375911593
 20
32.45424860713602
 30
0.0
 11
48.41995805564459
 21
32.40404235433615
 31
0.0
  0
LINE
  5
EF9
330
18
100
AcDbEntity
  8
0
100
AcDbLine
 10
48.41864375911593
 20
32.84024863402823
 30
0.0
 11
48.38734375911593
 21
32.84024863402823
 31
0.0
  0
LINE
  5
EFA
330
18
100
AcDbEntity
  8
0
100
AcDbLine
 10
48.41864375911593
 20
33.21524863402824
 30
0.0
 11
48.38734375911593
 21
33.21524863402824
 31
0.0
  0
LINE
  5
EFB
330
18
100
AcDbEntity
  8
0
100
AcDbLine
 10
48.32484375911593
 20
33.15274863402824
 30
0.0
 11
48.32484375911593
 21
32.90274863402823
 31
0.0
  0
ARC
  5
EFC
330
18
100
AcDbEntity
  8
0
100
AcDbCircle
 10
48.38734375911593
 20
33.15274863402824
 30
0.0
 40
0.0625
100
AcDbArc
 50
90.0
 51
179.9999999999999
  0
ARC
  5
EFD
330
18
100
AcDbEntity
  8
0
100
AcDbCircle
 10
48.38734375911593
 20
32.90274863402823
 30
0.0
 40
0.0625
100
AcDbArc
 50
180.0
 51
269.9999999999999
  0
LINE
  5
EFE
330
18
100
AcDbEntity
  8
0
100
AcDbLine
 10
48.04364375911593
 20
32.66424407705212
 30
0.0
 11
48.04364375911593
 21
32.99585319100423
 31
0.0
  0
LINE
  5
EFF
330
18
100
AcDbEntity
  8
0
100
AcDbLine
 10
48.09586882240934
 20
33.05750281124375
 30
0.0
 11
48.32484375911593
 21
33.09566530069485
 31
0.0
  0
LINE
  5
F00
330
18
100
AcDbEntity
  8
0
100
AcDbLine
 10
48.09586882240934
 20
32.60259445681261
 30
0.0
 11
48.41864375911593
 21
32.54879863402817
 31
0.0
  0
LINE
  5
F01
330
18
100
AcDbEntity
  8
0
100
AcDbLine
 10
44.44998896414339
 20
14.88758937964485
 30
0.0
 11
44.500172275812
 21
12.01258937964485
 31
0.0
  0
LINE
  5
F02
330
18
100
AcDbEntity
  8
0
100
AcDbLine
 10
49.44979855408849
 20
14.88758937964485
 30
0.0
 11
49.39961524241986
 21
12.01258937964485
 31
0.0
  0
LINE
  5
F03
330
18
100
AcDbEntity
  8
0
100
AcDbLine
 10
48.29364375911595
 20
12.10258937964484
 30
0.0
 11
48.54364375911594
 21
12.10258937964484
 31
0.0
  0
LINE
  5
F04
330
18
100
AcDbEntity
  8
0
100
AcDbLine
 10
45.35614375911594
 20
12.10258937964484
 30
0.0
 11
45.60614375911593
 21
12.10258937964484
 31
0.0
  0
LINE
  5
F05
330
18
100
AcDbEntity
  8
0
100
AcDbLine
 10
44.596301969618
 20
12.33494963821958
 30
0.0
 11
44.54525146287716
 21
12.01541445657283
 31
0.0
  0
LINE
  5
F06
330
18
100
AcDbEntity
  8
0
100
AcDbLine
 10
45.0523928452566
 20
12.33542818430454
 30
0.0
 11
45.10567658707407
 21
12.01775573020835
 31
0.0
  0
LINE
  5
F07
330
18
100
AcDbEntity
  8
0
100
AcDbLine
 10
48.8472502336163
 20
12.33563464241693
 30
0.0
 11
48.79287218248341
 21
12.01796564178371
 31
0.0
  0
LINE
  5
F08
330
18
100
AcDbEntity
  8
0
100
AcDbLine
 10
49.30213502364098
 20
12.33506357072975
 30
0.0
 11
49.35426584686026
 21
12.01258937964485
 31
0.0
  0
ARC
  5
F09
330
18
100
AcDbEntity
  8
0
100
AcDbCircle
 10
45.35614375911594
 20
12.04008937964484
 30
0.0
 40
0.0625
100
AcDbArc
 50
90.0
 51
175.5168923480495
  0
ARC
  5
F0A
330
18
100
AcDbEntity
  8
0
100
AcDbCircle
 10
45.60614375911593
 20
12.04008937964484
 30
0.0
 40
0.0625
100
AcDbArc
 50
4.280760980607731
 51
90.0
  0
ARC
  5
F0B
330
18
100
AcDbEntity
  8
0
100
AcDbCircle
 10
48.29364375911595
 20
12.04008937964484
 30
0.0
 40
0.0625
100
AcDbArc
 50
90.0
 51
177.7075572240425
  0
ARC
  5
F0C
330
18
100
AcDbEntity
  8
0
100
AcDbCircle
 10
48.54364375911594
 20
12.04008937964484
 30
0.0
 40
0.0625
100
AcDbArc
 50
2.292442775957704
 51
90.0
  0
POINT
  5
F0D
330
18
100
AcDbEntity
  8
DEFPOINTS
  6
ByBlock
 62
     0
100
AcDbPoint
 10
48.49242425668299
 20
33.65970610115265
 30
0.0
  0
POINT
  5
F0E
330
18
100
AcDbEntity
  8
DEFPOINTS
  6
ByBlock
 62
     0
100
AcDbPoint
 10
48.35614375911593
 20
33.53092770240939
 30
0.0
  0
POINT
  5
F0F
330
18
100
AcDbEntity
  8
DEFPOINTS
  6
ByBlock
 62
     0
100
AcDbPoint
 10
48.43424375911594
 20
33.12929863402823
 30
0.0
  0
POINT
  5
F10
330
18
100
AcDbEntity
  8
DEFPOINTS
  6
ByBlock
 62
     0
100
AcDbPoint
 10
48.54364375911593
 20
33.12929863402822
 30
0.0
  0
POINT
  5
F11
330
18
100
AcDbEntity
  8
DEFPOINTS
  6
ByBlock
 62
     0
100
AcDbPoint
 10
48.35941608532293
 20
33.71839914525121
 30
0.0
  0
ARC
  5
F12
330
18
100
AcDbEntity
  8
0
100
AcDbCircle
 10
44.65801927108882
 20
12.32508937964484
 30
0.0
 40
0.0625
100
AcDbArc
 50
90.0
 51
170.9228574981745
  0
ARC
  5
F13
330
18
100
AcDbEntity
  8
0
100
AcDbCircle
 10
44.99075390368385
 20
12.32508937964485
 30
0.0
 40
0.0625
100
AcDbArc
 50
9.521684792483744
 51
90.0000000000001
  0
ARC
  5
F14
330
18
100
AcDbEntity
  8
0
100
AcDbCircle
 10
48.90885418992649
 20
12.32508937964485
 30
0.0
 40
0.0625
100
AcDbArc
 50
89.99999999999982
 51
170.2863501105517
  0
ARC
  5
F15
330
18
100
AcDbEntity
  8
0
100
AcDbCircle
 10
49.24043603246445
 20
12.32508937964484
 30
0.0
 40
0.0625
100
AcDbArc
 50
9.182928374787824
 51
89.9999999999998
  0
ARC
  5
F16
330
18
100
AcDbEntity
  8
0
100
AcDbCircle
 10
48.10614375911592
 20
32.99585319100423
 30
0.0
 40
0.0625
100
AcDbArc
 50
99.46232220802563
 51
180.0
  0
ARC
  5
F17
330
18
100
AcDbEntity
  8
0
100
AcDbCircle
 10
48.10614375911593
 20
32.66424407705212
 30
0.0
 40
0.0625
100
AcDbArc
 50
180.0000000000005
 51
260.5376777919738
  0
LINE
  5
F18
330
18
100
AcDbEntity
  8
0
100
AcDbLine
 10
18.07189116004592
 20
33.95504863402823
 30
0.0
 11
12.32189116004591
 21
33.95504863402822
 31
0.0
  0
LINE
  5
F19
330
18
100
AcDbEntity
  8
0
100
AcDbLine
 10
11.88439116004591
 20
33.51754863402822
 30
0.0
 11
11.88439116004592
 21
24.51754863402823
 31
0.0
  0
LINE
  5
F1A
330
18
100
AcDbEntity
  8
0
100
AcDbLine
 10
18.50939116004592
 20
33.51754863402823
 30
0.0
 11
18.50939116004592
 21
24.51754863402823
 31
0.0
  0
LINE
  5
F1B
330
18
100
AcDbEntity
  8
0
100
AcDbLine
 10
12.32189116004592
 20
24.08004863402823
 30
0.0
 11
18.07189116004592
 21
24.08004863402823
 31
0.0
  0
ARC
  5
F1C
330
18
100
AcDbEntity
  8
0
100
AcDbCircle
 10
12.32189116004591
 20
33.51754863402822
 30
0.0
 40
0.4375
100
AcDbArc
 50
90.00000000000003
 51
180.0
  0
ARC
  5
F1D
330
18
100
AcDbEntity
  8
0
100
AcDbCircle
 10
18.07189116004592
 20
33.51754863402823
 30
0.0
 40
0.4375
100
AcDbArc
 50
0.0
 51
90.0000000000001
  0
ARC
  5
F1E
330
18
100
AcDbEntity
  8
0
100
AcDbCircle
 10
18.07189116004592
 20
24.51754863402823
 30
0.0
 40
0.4375
100
AcDbArc
 50
270.0
 51
0.0
  0
ARC
  5
F1F
330
18
100
AcDbEntity
  8
0
100
AcDbCircle
 10
12.32189116004592
 20
24.51754863402823
 30
0.0
 40
0.4375
100
AcDbArc
 50
180.0
 51
270.0
  0
LINE
  5
F54
330
18
100
AcDbEntity
  8
0
100
AcDbLine
 10
50.06943905132587
 20
14.57508937964485
 30
0.0
 11
50.13734987619378
 21
14.57508937964485
 31
0.0
  0
ARC
  5
F55
330
18
100
AcDbEntity
  8
0
100
AcDbCircle
 10
48.10614375911593
 20
25.37087603169604
 30
0.0
 40
0.0625
100
AcDbArc
 50
99.4623222080262
 51
179.9999999999996
  0
ARC
  5
F56
330
18
100
AcDbEntity
  8
0
100
AcDbCircle
 10
48.10614375911593
 20
25.03926691774391
 30
0.0
 40
0.0625
100
AcDbArc
 50
180.0000000000001
 51
260.5376777919745
  0
POINT
  5
F57
330
18
100
AcDbEntity
  8
DEFPOINTS
  6
ByBlock
 62
     0
100
AcDbPoint
 10
48.35941608532293
 20
24.31672096349695
 30
0.0
  0
POINT
  5
F58
330
18
100
AcDbEntity
  8
DEFPOINTS
  6
ByBlock
 62
     0
100
AcDbPoint
 10
48.35614375911594
 20
24.50419240633876
 30
0.0
  0
POINT
  5
F59
330
18
100
AcDbEntity
  8
DEFPOINTS
  6
ByBlock
 62
     0
100
AcDbPoint
 10
48.492424256683
 20
24.37541400759551
 30
0.0
  0
LINE
  5
F5A
330
18
100
AcDbEntity
  8
0
100
AcDbLine
 10
48.09586882240934
 20
25.43252565193555
 30
0.0
 11
48.41864375911593
 21
25.48632147471999
 31
0.0
  0
LINE
  5
F5B
330
18
100
AcDbEntity
  8
0
100
AcDbLine
 10
48.09586882240934
 20
24.97761729750441
 30
0.0
 11
48.32484375911593
 21
24.93945480805331
 31
0.0
  0
LINE
  5
F5C
330
18
100
AcDbEntity
  8
0
100
AcDbLine
 10
48.04364375911593
 20
25.37087603169604
 30
0.0
 11
48.04364375911593
 21
25.03926691774391
 31
0.0
  0
ARC
  5
F5D
330
18
100
AcDbEntity
  8
0
100
AcDbCircle
 10
48.38734375911593
 20
25.13237147471993
 30
0.0
 40
0.0625
100
AcDbArc
 50
90.00000000000012
 51
180.0000000000001
  0
ARC
  5
F5E
330
18
100
AcDbEntity
  8
0
100
AcDbCircle
 10
48.38734375911593
 20
24.88237147471992
 30
0.0
 40
0.0625
100
AcDbArc
 50
180.0000000000001
 51
270.0000000000001
  0
LINE
  5
F5F
330
18
100
AcDbEntity
  8
0
100
AcDbLine
 10
48.32484375911594
 20
24.88237147471992
 30
0.0
 11
48.32484375911594
 21
25.13237147471993
 31
0.0
  0
LINE
  5
F60
330
18
100
AcDbEntity
  8
0
100
AcDbLine
 10
48.41864375911594
 20
24.81987147471992
 30
0.0
 11
48.38734375911593
 21
24.81987147471992
 31
0.0
  0
LINE
  5
F61
330
18
100
AcDbEntity
  8
0
100
AcDbLine
 10
48.41864375911594
 20
25.19487147471993
 30
0.0
 11
48.38734375911593
 21
25.19487147471993
 31
0.0
  0
LINE
  5
F62
330
18
100
AcDbEntity
  8
0
100
AcDbLine
 10
45.54364375911593
 20
25.58087150161213
 30
0.0
 11
48.41995805564459
 21
25.631077754412
 31
0.0
  0
ARC
  5
F63
330
18
100
AcDbEntity
  8
0
100
AcDbCircle
 10
49.96993215604729
 20
14.91820817490673
 30
0.0
 40
0.03
100
AcDbArc
 50
90.0
 51
270.0
  0
ARC
  5
F64
330
18
100
AcDbEntity
  8
0
100
AcDbCircle
 10
50.03243215604729
 20
14.91820817490673
 30
0.0
 40
0.03
100
AcDbArc
 50
270.0
 51
90.0
  0
LINE
  5
F65
330
18
100
AcDbEntity
  8
0
100
AcDbLine
 10
50.03243215604729
 20
14.88820817490673
 30
0.0
 11
49.96993215604729
 21
14.88820817490673
 31
0.0
  0
LINE
  5
F66
330
18
100
AcDbEntity
  8
0
100
AcDbLine
 10
50.03243215604729
 20
14.94820817490674
 30
0.0
 11
49.96993215604729
 21
14.94820817490674
 31
0.0
  0
ARC
  5
F67
330
18
100
AcDbEntity
  8
0
100
AcDbCircle
 10
45.51126442354306
 20
24.36575484026714
 30
0.0
 40
0.03
100
AcDbArc
 50
0.0
 51
180.0
  0
LINE
  5
F68
330
18
100
AcDbEntity
  8
0
100
AcDbLine
 10
45.54126442354306
 20
24.30325484026714
 30
0.0
 11
45.54126442354306
 21
24.36575484026714
 31
0.0
  0
ARC
  5
F69
330
18
100
AcDbEntity
  8
0
100
AcDbCircle
 10
45.51126442354306
 20
24.30325484026714
 30
0.0
 40
0.03
100
AcDbArc
 50
180.0
 51
0.0
  0
LINE
  5
F6A
330
18
100
AcDbEntity
  8
0
100
AcDbLine
 10
45.48126442354305
 20
24.30325484026714
 30
0.0
 11
45.48126442354305
 21
24.36575484026714
 31
0.0
  0
ARC
  5
F6B
330
18
100
AcDbEntity
  8
0
100
AcDbCircle
 10
45.51126442354306
 20
33.74075484026715
 30
0.0
 40
0.03
100
AcDbArc
 50
0.0
 51
180.0
  0
LINE
  5
F6C
330
18
100
AcDbEntity
  8
0
100
AcDbLine
 10
45.54126442354306
 20
33.67825484026714
 30
0.0
 11
45.54126442354306
 21
33.74075484026715
 31
0.0
  0
ARC
  5
F6D
330
18
100
AcDbEntity
  8
0
100
AcDbCircle
 10
45.51126442354306
 20
33.67825484026714
 30
0.0
 40
0.03
100
AcDbArc
 50
180.0
 51
0.0
  0
LINE
  5
F6E
330
18
100
AcDbEntity
  8
0
100
AcDbLine
 10
45.48126442354305
 20
33.67825484026714
 30
0.0
 11
45.48126442354305
 21
33.74075484026715
 31
0.0
  0
LINE
  5
F6F
330
18
100
AcDbEntity
  8
0
100
AcDbLine
 10
43.90743215604729
 20
14.94820817490674
 30
0.0
 11
43.84493215604729
 21
14.94820817490674
 31
0.0
  0
ARC
  5
F70
330
18
100
AcDbEntity
  8
0
100
AcDbCircle
 10
43.90743215604729
 20
14.91820817490673
 30
0.0
 40
0.03
100
AcDbArc
 50
270.0
 51
90.0
  0
LINE
  5
F71
330
18
100
AcDbEntity
  8
0
100
AcDbLine
 10
43.90743215604729
 20
14.88820817490673
 30
0.0
 11
43.84493215604729
 21
14.88820817490673
 31
0.0
  0
ARC
  5
F72
330
18
100
AcDbEntity
  8
0
100
AcDbCircle
 10
43.84493215604729
 20
14.91820817490673
 30
0.0
 40
0.03
100
AcDbArc
 50
90.0
 51
270.0
  0
LINE
  5
F73
330
18
100
AcDbEntity
  8
HIDE
100
AcDbLine
 10
45.54364375911593
 20
33.01754863402823
 30
0.0
 11
48.04364375911593
 21
32.99585319100423
 31
0.0
  0
LINE
  5
F74
330
18
100
AcDbEntity
  8
HIDE
100
AcDbLine
 10
45.54364375911593
 20
32.64254863402823
 30
0.0
 11
48.04364375911593
 21
32.65479863402823
 31
0.0
  0
LINE
  5
F75
330
18
100
AcDbEntity
  8
HIDE
100
AcDbLine
 10
48.54364375911593
 20
32.93904863402822
 30
0.0
 11
48.04364375911593
 21
32.93904863402822
 31
0.0
  0
LINE
  5
F76
330
18
100
AcDbEntity
  8
HIDE
100
AcDbLine
 10
48.54364375911593
 20
32.72104863402822
 30
0.0
 11
48.04364375911593
 21
32.72104863402822
 31
0.0
  0
LINE
  5
F77
330
18
100
AcDbEntity
  8
HIDE
100
AcDbLine
 10
48.04364375911593
 20
32.99585319100423
 30
0.0
 11
48.04364375911593
 21
32.65479863402823
 31
0.0
  0
LINE
  5
F78
330
18
100
AcDbEntity
  8
HIDE
100
AcDbLine
 10
45.54364375911592
 20
25.39254863402824
 30
0.0
 11
48.04364375911592
 21
25.37085319100424
 31
0.0
  0
LINE
  5
F79
330
18
100
AcDbEntity
  8
HIDE
100
AcDbLine
 10
45.54364375911593
 20
25.01754863402823
 30
0.0
 11
48.04364375911593
 21
25.02979863402824
 31
0.0
  0
LINE
  5
F7A
330
18
100
AcDbEntity
  8
HIDE
100
AcDbLine
 10
48.54364375911593
 20
25.09604863402823
 30
0.0
 11
48.04364375911593
 21
25.09604863402823
 31
0.0
  0
LINE
  5
F7B
330
18
100
AcDbEntity
  8
HIDE
100
AcDbLine
 10
48.54364375911593
 20
25.31404863402823
 30
0.0
 11
48.04364375911593
 21
25.31404863402823
 31
0.0
  0
LINE
  5
F7C
330
18
100
AcDbEntity
  8
HIDE
100
AcDbLine
 10
48.04364375911592
 20
25.37085319100424
 30
0.0
 11
48.04364375911593
 21
25.02979863402824
 31
0.0
  0
LINE
  5
F7D
330
18
100
AcDbEntity
  8
HIDE
100
AcDbLine
 10
49.57489375911594
 20
14.88758937964484
 30
0.0
 11
49.58714375911594
 21
12.38758937964483
 31
0.0
  0
LINE
  5
F7E
330
18
100
AcDbEntity
  8
HIDE
100
AcDbLine
 10
49.94989375911594
 20
14.88758937964484
 30
0.0
 11
49.92819831609195
 21
12.38758937964485
 31
0.0
  0
LINE
  5
F7F
330
18
100
AcDbEntity
  8
HIDE
100
AcDbLine
 10
49.92819831609195
 20
12.38758937964485
 30
0.0
 11
49.58714375911594
 21
12.38758937964483
 31
0.0
  0
LINE
  5
F80
330
18
100
AcDbEntity
  8
HIDE
100
AcDbLine
 10
49.76239375911594
 20
11.88758937964484
 30
0.0
 11
49.76239375911593
 21
12.38758937964484
 31
0.0
  0
LINE
  5
F81
330
18
100
AcDbEntity
  8
HIDE
100
AcDbLine
 10
49.65339375911594
 20
11.88758937964484
 30
0.0
 11
49.65339375911594
 21
12.38758937964484
 31
0.0
  0
LINE
  5
F82
330
18
100
AcDbEntity
  8
HIDE
100
AcDbLine
 10
49.87139375911594
 20
11.88758937964484
 30
0.0
 11
49.87139375911594
 21
12.38758937964484
 31
0.0
  0
LINE
  5
F83
330
18
100
AcDbEntity
  8
HIDE
100
AcDbLine
 10
44.32489375911594
 20
14.88758937964485
 30
0.0
 11
44.30319831609195
 21
12.38758937964485
 31
0.0
  0
LINE
  5
F84
330
18
100
AcDbEntity
  8
HIDE
100
AcDbLine
 10
43.94989375911594
 20
14.88758937964484
 30
0.0
 11
43.96214375911594
 21
12.38758937964484
 31
0.0
  0
LINE
  5
F85
330
18
100
AcDbEntity
  8
HIDE
100
AcDbLine
 10
44.30319831609195
 20
12.38758937964485
 30
0.0
 11
43.96214375911594
 21
12.38758937964484
 31
0.0
  0
LINE
  5
F86
330
18
100
AcDbEntity
  8
HIDE
100
AcDbLine
 10
44.02839375911594
 20
11.88758937964484
 30
0.0
 11
44.02839375911594
 21
12.38758937964485
 31
0.0
  0
LINE
  5
F87
330
18
100
AcDbEntity
  8
HIDE
100
AcDbLine
 10
44.13739375911593
 20
11.88758937964484
 30
0.0
 11
44.13739375911593
 21
12.38758937964485
 31
0.0
  0
LINE
  5
F88
330
18
100
AcDbEntity
  8
HIDE
100
AcDbLine
 10
44.24639375911594
 20
11.88758937964484
 30
0.0
 11
44.24639375911594
 21
12.38758937964485
 31
0.0
  0
LINE
  5
F89
330
18
100
AcDbEntity
  8
0
100
AcDbLine
 10
44.65801927108882
 20
12.38758937964484
 30
0.0
 11
44.99075390368385
 21
12.38758937964485
 31
0.0
  0
LINE
  5
F8A
330
18
100
AcDbEntity
  8
0
100
AcDbLine
 10
48.90885418992649
 20
12.38758937964485
 30
0.0
 11
49.24043603246445
 21
12.38758937964484
 31
0.0
  0
LINE
  5
FCB
330
18
100
AcDbEntity
  8
0
100
AcDbLine
 10
45.29383498272392
 20
12.04497470302508
 30
0.0
 11
45.29383498272392
 21
12.01258937964485
 31
0.0
  0
LINE
  5
FCC
330
18
100
AcDbEntity
  8
0
100
AcDbLine
 10
45.66846939998981
 20
12.04475462236735
 30
0.0
 11
45.66846939998981
 21
12.01258937964485
 31
0.0
  0
DIMENSION
  5
FCD
330
18
100
AcDbEntity
  8
DIM
100
AcDbDimension
280
     0
  2
*D15
 10
18.50939116004592
 20
36.57721161323819
 30
0.0
 11
15.19689116004591
 21
36.57721161323819
 31
0.0
 70
    32
 71
     5
 42
-1.0
 73
     0
 74
     0
 75
     0
  3
STANDARD
100
AcDbAlignedDimension
 13
11.88439116004591
 23
33.51754863402822
 33
0.0
 14
18.50939116004592
 24
33.51754863402823
 34
0.0
100
AcDbRotatedDimension
1001
ACAD
1000
DSTYLE
1002
{
1070
    41
1040
0.1875
1070
    42
1040
0.1875
1070
    43
1040
0.375
1070
    44
1040
0.1875
1070
   140
1040
0.1875
1070
   141
1040
0.09375
1070
   147
1040
0.1875
1070
   271
1070
     5
1070
   276
1070
     2
1070
   277
1070
     5
1070
   289
1070
     0
1002
}
  0
DIMENSION
  5
FCE
330
18
100
AcDbEntity
  8
DIM
100
AcDbDimension
280
     0
  2
*D16
 10
9.099836699988758
 20
24.08004863402823
 30
0.0
 11
9.099836699988758
 21
29.01754863402823
 31
0.0
 70
    32
 71
     5
 42
-1.0
 73
     0
 74
     0
 75
     0
  3
STANDARD
100
AcDbAlignedDimension
 13
12.32189116004591
 23
33.95504863402822
 33
0.0
 14
12.32189116004592
 24
24.08004863402823
 34
0.0
 50
90.0
100
AcDbRotatedDimension
1001
ACAD
1000
DSTYLE
1002
{
1070
    41
1040
0.1875
1070
    42
1040
0.1875
1070
    43
1040
0.375
1070
    44
1040
0.1875
1070
   140
1040
0.1875
1070
   141
1040
0.09375
1070
   147
1040
0.1875
1070
   271
1070
     5
1070
   276
1070
     2
1070
   277
1070
     5
1070
   289
1070
     0
1002
}
  0
LINE
  5
FCF
330
18
100
AcDbEntity
  8
0
100
AcDbLine
 10
44.82438658738633
 20
12.61874369625753
 30
0.0
 11
44.82438658738634
 21
12.49374369625753
 31
0.0
  0
LINE
  5
FD0
330
18
100
AcDbEntity
  8
0
100
AcDbLine
 10
49.07464511119547
 20
12.61874369625753
 30
0.0
 11
49.07464511119547
 21
12.49374369625753
 31
0.0
  0
LINE
  5
FD1
330
18
100
AcDbEntity
  8
0
100
AcDbLine
 10
49.07464511119547
 20
12.32758937964484
 30
0.0
 11
49.07464511119547
 21
12.13138895255651
 31
0.0
  0
LINE
  5
FD2
330
18
100
AcDbEntity
  8
0
100
AcDbLine
 10
44.82438658738633
 20
12.32758937964484
 30
0.0
 11
44.82438658738633
 21
12.13138895255651
 31
0.0
  0
LINE
  5
FD3
330
18
100
AcDbEntity
  8
0
100
AcDbLine
 10
48.23119377913196
 20
12.04258937964485
 30
0.0
 11
48.23119377913196
 21
12.01258937964485
 31
0.0
  0
LINE
  5
FD4
330
18
100
AcDbEntity
  8
0
100
AcDbLine
 10
48.60609373909992
 20
12.04258937964485
 30
0.0
 11
48.60609373909992
 21
12.01258937964485
 31
0.0
  0
DIMENSION
  5
FD5
330
18
100
AcDbEntity
  8
DIM
100
AcDbDimension
280
     0
  2
*D27
 10
49.07464511119547
 20
10.81987107823607
 30
0.0
 11
46.9495158492909
 21
10.81987107823607
 31
0.0
 70
    32
 71
     5
 42
-1.0
 73
     0
 74
     0
 75
     0
  3
STANDARD
100
AcDbAlignedDimension
 13
44.82438658738633
 23
12.13138895255651
 33
0.0
 14
49.07464511119547
 24
12.13138895255651
 34
0.0
100
AcDbRotatedDimension
1001
ACAD
1000
DSTYLE
1002
{
1070
    41
1040
0.1875
1070
    42
1040
0.1875
1070
    43
1040
0.375
1070
    44
1040
0.1875
1070
   140
1040
0.1875
1070
   141
1040
0.09375
1070
   147
1040
0.1875
1070
   271
1070
     5
1070
   276
1070
     2
1070
   277
1070
     5
1070
   289
1070
     0
1002
}
  0
DIMENSION
  5
FD6
330
18
100
AcDbEntity
  8
DIM
100
AcDbDimension
280
     0
  2
*D26
 10
49.39961524241986
 20
9.931398274748444
 30
0.0
 11
46.94989375911593
 21
9.931398274748444
 31
0.0
 70
    32
 71
     5
 42
-1.0
 73
     0
 74
     0
 75
     0
  3
STANDARD
100
AcDbAlignedDimension
 13
44.500172275812
 23
12.01258937964485
 33
0.0
 14
49.39961524241986
 24
12.01258937964485
 34
0.0
100
AcDbRotatedDimension
1001
ACAD
1000
DSTYLE
1002
{
1070
    41
1040
0.1875
1070
    42
1040
0.1875
1070
    43
1040
0.375
1070
    44
1040
0.1875
1070
   140
1040
0.1875
1070
   141
1040
0.09375
1070
   147
1040
0.1875
1070
   271
1070
     5
1070
   276
1070
     2
1070
   277
1070
     5
1070
   289
1070
     0
1002
}
  0
DIMENSION
  5
FD7
330
18
100
AcDbEntity
  8
DIM
100
AcDbDimension
280
     0
  2
*D25
 10
49.76239375911594
 20
9.0417545833612
 30
0.0
 11
46.94989375911593
 21
9.0417545833612
 31
0.0
 70
    32
 71
     5
 42
-1.0
 73
     0
 74
     0
 75
     0
  3
STANDARD
100
AcDbAlignedDimension
 13
44.13739375911593
 23
11.88758937964484
 33
0.0
 14
49.76239375911594
 24
11.88758937964484
 34
0.0
100
AcDbRotatedDimension
1001
ACAD
1000
DSTYLE
1002
{
1070
    41
1040
0.1875
1070
    42
1040
0.1875
1070
    43
1040
0.375
1070
    44
1040
0.1875
1070
   140
1040
0.1875
1070
   141
1040
0.09375
1070
   147
1040
0.1875
1070
   271
1070
     5
1070
   276
1070
     2
1070
   277
1070
     5
1070
   289
1070
     0
1002
}
  0
DIMENSION
  5
FD8
330
18
100
AcDbEntity
  8
DIM
100
AcDbDimension
280
     0
  2
*D20
 10
49.8768657021503
 20
25.631077754412
 30
0.0
 11
49.8768657021503
 21
29.01756005437407
 31
0.0
 70
    32
 71
     5
 42
-1.0
 73
     0
 74
     0
 75
     0
  3
STANDARD
100
AcDbAlignedDimension
 13
48.41995805564459
 23
32.40404235433615
 33
0.0
 14
48.41995805564459
 24
25.631077754412
 34
0.0
 50
90.0
100
AcDbRotatedDimension
1001
ACAD
1000
DSTYLE
1002
{
1070
    41
1040
0.1875
1070
    42
1040
0.1875
1070
    43
1040
0.375
1070
    44
1040
0.1875
1070
   140
1040
0.1875
1070
   141
1040
0.09375
1070
   147
1040
0.1875
1070
   271
1070
     5
1070
   276
1070
     2
1070
   277
1070
     5
1070
   289
1070
     0
1002
}
  0
POINT
  5
FD9
330
18
100
AcDbEntity
  8
DEFPOINTS
  6
ByBlock
 62
     0
100
AcDbPoint
 10
48.54364375911593
 20
32.83004863402823
 30
0.0
  0
POINT
  5
FDA
330
18
100
AcDbEntity
  8
DEFPOINTS
  6
ByBlock
 62
     0
100
AcDbPoint
 10
48.54364375911593
 20
25.20504863402823
 30
0.0
  0
DIMENSION
  5
FDB
330
18
100
AcDbEntity
  8
DIM
100
AcDbDimension
280
     0
  2
*D19
 10
51.61017145216455
 20
25.20504863402823
 30
0.0
 11
51.61017145216455
 21
29.01754863402823
 31
0.0
 70
    32
 71
     5
 42
-1.0
 73
     0
 74
     0
 75
     0
  3
STANDARD
100
AcDbAlignedDimension
 13
48.54364375911593
 23
32.83004863402823
 33
0.0
 14
48.54364375911593
 24
25.20504863402823
 34
0.0
 50
90.0
100
AcDbRotatedDimension
1001
ACAD
1000
DSTYLE
1002
{
1070
    41
1040
0.1875
1070
    42
1040
0.1875
1070
    43
1040
0.375
1070
    44
1040
0.1875
1070
   140
1040
0.1875
1070
   141
1040
0.09375
1070
   147
1040
0.1875
1070
   271
1070
     5
1070
   276
1070
     2
1070
   277
1070
     5
1070
   289
1070
     0
1002
}
  0
DIMENSION
  5
FDC
330
18
100
AcDbEntity
  8
DIM
100
AcDbDimension
280
     0
  2
*D18
 10
53.37060852145665
 20
24.44168288438601
 30
0.0
 11
53.37060852145665
 21
29.01756005437408
 31
0.0
 70
    32
 71
     5
 42
-1.0
 73
     0
 74
     0
 75
     0
  3
STANDARD
100
AcDbAlignedDimension
 13
48.35723453451826
 23
33.59343722436215
 33
0.0
 14
48.35723453451826
 24
24.44168288438601
 34
0.0
 50
90.0
100
AcDbRotatedDimension
1001
ACAD
1000
DSTYLE
1002
{
1070
    41
1040
0.1875
1070
    42
1040
0.1875
1070
    43
1040
0.375
1070
    44
1040
0.1875
1070
   140
1040
0.1875
1070
   141
1040
0.09375
1070
   147
1040
0.1875
1070
   271
1070
     5
1070
   276
1070
     2
1070
   277
1070
     5
1070
   289
1070
     0
1002
}
  0
LINE
  5
FDF
330
18
100
AcDbEntity
  8
0
100
AcDbLine
 10
48.35614375911593
 20
25.20504863402823
 30
0.0
 11
48.10614375911593
 21
25.20504863402823
 31
0.0
  0
LINE
  5
FE0
330
18
100
AcDbEntity
  8
0
100
AcDbLine
 10
47.98114375911593
 20
25.20504863402823
 30
0.0
 11
47.85614375911593
 21
25.20504863402823
 31
0.0
  0
LINE
  5
FE1
330
18
100
AcDbEntity
  8
0
100
AcDbLine
 10
47.98114375911593
 20
32.82835484684773
 30
0.0
 11
47.85614375911593
 21
32.82835484684773
 31
0.0
  0
LINE
  5
FE2
330
18
100
AcDbEntity
  8
0
100
AcDbLine
 10
48.35614375911593
 20
32.82835484684773
 30
0.0
 11
48.10614375911593
 21
32.82835484684773
 31
0.0
  0
TEXT
  5
FE3
330
18
100
AcDbEntity
  8
DIM
100
AcDbText
 10
45.20059784010473
 20
34.66814436419246
 30
0.0
 40
0.187
  1
SEE NOTES
 72
     2
 11
46.8212645067714
 21
34.66814436419246
 31
0.0
100
AcDbText
  0
DIMENSION
  5
FE4
330
18
100
AcDbEntity
  8
DIM
100
AcDbDimension
280
     0
  2
*D24
 10
49.90076330844437
 20
8.035373631232335
 30
0.0
 11
46.94989375911593
 21
8.035373631232335
 31
0.0
 70
    32
 71
     5
 42
-1.0
 73
     0
 74
     0
 75
     0
  3
STANDARD
100
AcDbAlignedDimension
 13
43.9990242097875
 23
12.07399860424251
 33
0.0
 14
49.90076330844437
 24
12.07399860424251
 34
0.0
100
AcDbRotatedDimension
1001
ACAD
1000
DSTYLE
1002
{
1070
    41
1040
0.1875
1070
    42
1040
0.1875
1070
    43
1040
0.375
1070
    44
1040
0.1875
1070
   140
1040
0.1875
1070
   141
1040
0.09375
1070
   147
1040
0.1875
1070
   271
1070
     5
1070
   276
1070
     2
1070
   277
1070
     5
1070
   289
1070
     0
1002
}
  0
DIMENSION
  5
FE5
330
18
100
AcDbEntity
  8
DIM
100
AcDbDimension
280
     0
  2
*D23
 10
51.17046966668617
 20
12.38758937964484
 30
0.0
 11
51.17046966668617
 21
13.63758937964484
 31
0.0
 70
    32
 71
     5
 42
-1.0
 73
     0
 74
     0
 75
     0
  3
STANDARD
100
AcDbAlignedDimension
 13
50.07489375911593
 23
14.88758937964485
 33
0.0
 14
49.24043603246445
 24
12.38758937964484
 34
0.0
 50
90.0
100
AcDbRotatedDimension
1001
ACAD
1000
DSTYLE
1002
{
1070
    41
1040
0.1875
1070
    42
1040
0.1875
1070
    43
1040
0.375
1070
    44
1040
0.1875
1070
   140
1040
0.1875
1070
   141
1040
0.09375
1070
   147
1040
0.1875
1070
   271
1070
     5
1070
   276
1070
     2
1070
   277
1070
     5
1070
   289
1070
     0
1002
}
  0
DIMENSION
  5
FE6
330
18
100
AcDbEntity
  8
DIM
100
AcDbDimension
280
     0
  2
*D22
 10
52.68900400620158
 20
14.88758937964485
 30
0.0
 11
52.68900400620158
 21
13.45008937964485
 31
0.0
 70
    32
 71
     5
 42
-1.0
 73
     0
 74
     0
 75
     0
  3
STANDARD
100
AcDbAlignedDimension
 13
49.83827282749709
 23
12.01258937964485
 33
0.0
 14
50.07489375911593
 24
14.88758937964485
 34
0.0
 50
90.0
100
AcDbRotatedDimension
1001
ACAD
1000
DSTYLE
1002
{
1070
    41
1040
0.1875
1070
    42
1040
0.1875
1070
    43
1040
0.375
1070
    44
1040
0.1875
1070
   140
1040
0.1875
1070
   141
1040
0.09375
1070
   147
1040
0.1875
1070
   271
1070
     5
1070
   276
1070
     2
1070
   277
1070
     5
1070
   289
1070
     0
1002
}
  0
DIMENSION
  5
FE7
330
18
100
AcDbEntity
  8
DIM
100
AcDbDimension
280
     0
  2
*D21
 10
54.32916993583116
 20
11.88758937964485
 30
0.0
 11
54.32916993583116
 21
13.48133937964485
 31
0.0
 70
    32
 71
     5
 42
-1.0
 73
     0
 74
     0
 75
     0
  3
STANDARD
100
AcDbAlignedDimension
 13
50.12741237619378
 23
15.07508937964485
 33
0.0
 14
49.83827282749709
 24
11.88758937964485
 34
0.0
 50
90.0
100
AcDbRotatedDimension
1001
ACAD
1000
DSTYLE
1002
{
1070
    41
1040
0.1875
1070
    42
1040
0.1875
1070
    43
1040
0.375
1070
    44
1040
0.1875
1070
   140
1040
0.1875
1070
   141
1040
0.09375
1070
   147
1040
0.1875
1070
   271
1070
     5
1070
   276
1070
     2
1070
   277
1070
     5
1070
   289
1070
     0
1002
}
  0
LINE
  5
FE8
330
18
100
AcDbEntity
  8
0
100
AcDbLine
 10
43.76243764203809
 20
14.57508937964485
 30
0.0
 11
43.83034846690601
 21
14.57508937964485
 31
0.0
  0
LWPOLYLINE
  5
FE9
330
18
100
AcDbEntity
  8
0
100
AcDbPolyline
 90
       10
 70
     1
 43
0.0
 10
50.12741237619378
 20
15.07508937964485
 10
43.7723751420381
 20
15.07508937964485
 42
0.4064748264185737
 10
43.64741900955997
 20
14.95340071715551
 10
43.63739375911594
 20
14.57508937964485
 10
43.76243764203809
 20
14.57508937964485
 10
43.7723751420381
 20
14.95008937964484
 10
50.12741237619378
 20
14.95008937964484
 10
50.13734987619378
 20
14.57508937964485
 10
50.26239375911593
 20
14.57508937964485
 10
50.25236850867191
 20
14.95340071715551
 42
0.4064748264185743
  0
LINE
  5
FF5
330
18
100
AcDbEntity
  8
0
100
AcDbLine
 10
43.94991280012142
 20
14.88758937964485
 30
0.0
 11
49.94987471811045
 21
14.88758937964485
 31
0.0
  0
LWPOLYLINE
  5
FF6
330
18
100
AcDbEntity
  8
0
100
AcDbPolyline
 90
       12
 70
     1
 43
0.0
 10
50.07489375911593
 20
14.88758937964485
 10
50.02574427033891
 20
12.07181705343786
 42
-0.4091108014277103
 10
49.83827282749709
 20
11.88758937964485
 10
44.06151469073478
 20
11.88758937964485
 42
-0.4091108014277102
 10
43.87404324789296
 20
12.07181705343786
 10
43.82489375911593
 20
14.88758937964485
 10
43.94991280012142
 20
14.88758937964485
 10
43.9990242097875
 20
12.07399860424251
 42
0.4091108014277096
 10
44.06151469073478
 20
12.01258937964485
 10
49.83827282749709
 20
12.01258937964485
 42
0.4091108014277098
 10
49.90076330844437
 20
12.07399860424251
 10
49.94987471811045
 20
14.88758937964485
  0
LWPOLYLINE
  5
1004
330
18
100
AcDbEntity
  8
0
100
AcDbPolyline
 90
       10
 70
     1
 43
0.0
 10
45.85614375911593
 20
33.83006005437407
 10
45.48114375911593
 20
33.83006005437407
 10
45.48114375911593
 20
24.20506005437407
 10
45.85614375911593
 20
24.20506005437407
 10
45.85614375911593
 20
24.08006005437407
 10
45.48114375911593
 20
24.08006005437407
 42
-0.4142135623730948
 10
45.35614375911593
 20
24.20506005437407
 10
45.35614375911593
 20
33.83006005437407
 42
-0.4142135623730953
 10
45.48114375911593
 20
33.95506005437407
 10
45.85614375911593
 20
33.95506005437407
  0
LINE
  5
1010
330
18
100
AcDbEntity
  8
0
100
AcDbLine
 10
45.54364375911593
 20
33.64254863402823
 30
0.0
 11
45.54364375911593
 21
24.39257147471992
 31
0.0
  0
LWPOLYLINE
  5
1011
330
18
100
AcDbEntity
  8
0
100
AcDbPolyline
 90
       12
 70
     1
 43
0.0
 10
45.54364375911593
 20
33.64254863402823
 10
48.35723453451826
 20
33.59343722436215
 42
-0.4091108014277098
 10
48.41864375911593
 20
33.53094674341488
 10
48.41864375911594
 20
24.50417336533329
 42
-0.4091108014277096
 10
48.35723453451826
 20
24.44168288438601
 10
45.54364375911593
 20
24.39257147471992
 10
45.54364375911593
 20
24.26757147471993
 10
48.35941608532293
 20
24.31672096349695
 42
0.4091108014277098
 10
48.54364375911594
 20
24.50419240633877
 10
48.54364375911593
 20
33.53092770240939
 42
0.4091108014277099
 10
48.35941608532293
 20
33.71839914525121
 10
45.54364375911593
 20
33.76754863402823
  0
POINT
  5
101F
330
18
100
AcDbEntity
  8
DEFPOINTS
  6
ByBlock
 62
     0
100
AcDbPoint
 10
34.03466459927449
 20
32.83004863402823
 30
0.0
  0
POINT
  5
1040
330
18
100
AcDbEntity
  8
DEFPOINTS
  6
ByBlock
 62
     0
100
AcDbPoint
 10
34.0346645992745
 20
33.12929863402822
 30
0.0
  0
POINT
  5
1041
330
18
100
AcDbEntity
  8
DEFPOINTS
  6
ByBlock
 62
     0
100
AcDbPoint
 10
33.98344509684156
 20
33.65970610115265
 30
0.0
  0
INSERT
  5
1062
330
18
100
AcDbEntity
  8
HATCH
100
AcDbBlockReference
  2
*X10
 10
23.63655838101391
 20
14.18506858059082
 30
0.0
  0
INSERT
  5
1063
330
18
100
AcDbEntity
  8
HATCH
100
AcDbBlockReference
  2
*X11
 10
23.63655838101391
 20
14.18506858059082
 30
0.0
  0
INSERT
  5
1064
330
18
100
AcDbEntity
  8
HATCH
100
AcDbBlockReference
  2
*X12
 10
21.91780838101391
 20
7.4941427517491
 30
0.0
  0
INSERT
  5
1065
330
18
100
AcDbEntity
  8
HATCH
100
AcDbBlockReference
  2
*X13
 10
21.91780838101391
 20
7.4941427517491
 30
0.0
  0
TEXT
  5
1066
330
18
100
AcDbEntity
  8
DIM
100
AcDbText
 10
41.66071169703275
 20
15.49503562025497
 30
0.0
 40
0.187
  1
GASKET
100
AcDbText
  0
TEXT
  5
1067
330
18
100
AcDbEntity
  8
DIM
100
AcDbText
 10
40.3407164330556
 20
13.51161247846822
 30
0.0
 40
0.187
  1
10-32 X 5/16 DP.
100
AcDbText
  0
TEXT
  5
1068
330
18
100
AcDbEntity
  8
DIM
100
AcDbText
 10
40.3407164330556
 20
13.20700929929706
 30
0.0
 40
0.187
  1
BRASS INSERT
100
AcDbText
  0
TEXT
  5
1069
330
18
100
AcDbEntity
  8
DIM
100
AcDbText
 10
40.3407164330556
 20
12.92110650231892
 30
0.0
 40
0.187
  1
4 REQ'D.
100
AcDbText
  0
LINE
  5
106A
330
18
100
AcDbEntity
  8
0
100
AcDbLine
 10
18.31643645225584
 20
14.57508937964485
 30
0.0
 11
18.27274167126889
 21
12.07181705343786
 31
0.0
  0
ARC
  5
106B
330
18
100
AcDbEntity
  8
0
100
AcDbCircle
 10
18.08527022842708
 20
12.07508937964485
 30
0.0
 40
0.1874999999999989
100
AcDbArc
 50
270.0
 51
359.0000000000001
  0
LINE
  5
106C
330
18
100
AcDbEntity
  8
0
100
AcDbLine
 10
18.08527022842708
 20
11.88758937964485
 30
0.0
 11
12.30851209166476
 21
11.88758937964485
 31
0.0
  0
ARC
  5
106D
330
18
100
AcDbEntity
  8
0
100
AcDbCircle
 10
12.30851209166476
 20
12.07508937964485
 30
0.0
 40
0.1874999999999991
100
AcDbArc
 50
180.9999999999996
 51
269.9999999999998
  0
LINE
  5
106E
330
18
100
AcDbEntity
  8
0
100
AcDbLine
 10
12.12104064882294
 20
12.07181705343786
 30
0.0
 11
12.07734586783599
 21
14.57508937964485
 31
0.0
  0
LINE
  5
106F
330
18
100
AcDbEntity
  8
0
100
AcDbLine
 10
18.37440977712376
 20
15.07508937964485
 30
0.0
 11
12.01937254296807
 21
15.07508937964485
 31
0.0
  0
ARC
  5
1070
330
18
100
AcDbEntity
  8
0
100
AcDbCircle
 10
12.01937254296808
 20
14.95008937964485
 30
0.0
 40
0.1249999999999991
100
AcDbArc
 50
90.0000000000004
 51
178.4820171108805
  0
LINE
  5
1071
330
18
100
AcDbEntity
  8
0
100
AcDbLine
 10
11.89441641048995
 20
14.95340071715551
 30
0.0
 11
11.88439116004592
 21
14.57508937964485
 31
0.0
  0
LINE
  5
1072
330
18
100
AcDbEntity
  8
0
100
AcDbLine
 10
11.88439116004592
 20
14.57508937964485
 30
0.0
 11
18.50939116004592
 21
14.57508937964485
 31
0.0
  0
LINE
  5
1073
330
18
100
AcDbEntity
  8
0
100
AcDbLine
 10
18.50939116004592
 20
14.57508937964485
 30
0.0
 11
18.49936590960189
 21
14.95340071715551
 31
0.0
  0
ARC
  5
1074
330
18
100
AcDbEntity
  8
0
100
AcDbCircle
 10
18.37440977712376
 20
14.95008937964484
 30
0.0
 40
0.1250000000000016
100
AcDbArc
 50
1.51798288911981
 51
90.0
  0
LINE
  5
1075
330
18
100
AcDbEntity
  8
0
100
AcDbLine
 10
31.34716459927449
 20
24.27302618250999
 30
0.0
 11
33.8504369254815
 21
24.31672096349695
 31
0.0
  0
ARC
  5
1076
330
18
100
AcDbEntity
  8
0
100
AcDbCircle
 10
33.8471645992745
 20
24.50419240633877
 30
0.0
 40
0.1875000000000007
100
AcDbArc
 50
270.9999999999997
 51
359.9999999999995
  0
LINE
  5
1077
330
18
100
AcDbEntity
  8
0
100
AcDbLine
 10
34.0346645992745
 20
24.50419240633877
 30
0.0
 11
34.0346645992745
 21
33.53092770240939
 31
0.0
  0
ARC
  5
1078
330
18
100
AcDbEntity
  8
0
100
AcDbCircle
 10
33.8471645992745
 20
33.53092770240939
 30
0.0
 40
0.1875
100
AcDbArc
 50
0.0
 51
89.00000000000039
  0
LINE
  5
1079
330
18
100
AcDbEntity
  8
0
100
AcDbLine
 10
33.85043692548148
 20
33.71839914525121
 30
0.0
 11
31.34716459927449
 21
33.76209392623817
 31
0.0
  0
LINE
  5
107A
330
18
100
AcDbEntity
  8
0
100
AcDbLine
 10
31.34716459927449
 20
33.95506005437407
 30
0.0
 11
31.34716459927449
 21
24.08006005437407
 31
0.0
  0
LINE
  5
107B
330
18
100
AcDbEntity
  8
0
100
AcDbLine
 10
31.34716459927449
 20
24.08006005437407
 30
0.0
 11
30.97216459927449
 21
24.08006005437407
 31
0.0
  0
ARC
  5
107C
330
18
100
AcDbEntity
  8
0
100
AcDbCircle
 10
30.97216459927449
 20
24.20506005437407
 30
0.0
 40
0.125
100
AcDbArc
 50
180.0
 51
270.0
  0
LINE
  5
107D
330
18
100
AcDbEntity
  8
0
100
AcDbLine
 10
30.84716459927449
 20
24.20506005437407
 30
0.0
 11
30.84716459927449
 21
33.83006005437407
 31
0.0
  0
ARC
  5
107E
330
18
100
AcDbEntity
  8
0
100
AcDbCircle
 10
30.97216459927449
 20
33.83006005437407
 30
0.0
 40
0.125
100
AcDbArc
 50
90.0
 51
180.0
  0
LINE
  5
107F
330
18
100
AcDbEntity
  8
0
100
AcDbLine
 10
30.97216459927449
 20
33.95506005437407
 30
0.0
 11
31.34716459927449
 21
33.95506005437407
 31
0.0
  0
DIMENSION
  5
1080
330
18
100
AcDbEntity
  8
DIM
100
AcDbDimension
280
     0
  2
*D17
 10
20.08655404665431
 20
15.07508937964485
 30
0.0
 11
20.08655404665431
 21
13.48133937964485
 31
0.0
 70
    32
 71
     5
 42
-1.0
 73
     0
 74
     0
 75
     0
  3
STANDARD
100
AcDbAlignedDimension
 13
18.08527022842708
 23
11.88758937964485
 33
0.0
 14
18.37440977712376
 24
15.07508937964485
 34
0.0
 50
90.0
100
AcDbRotatedDimension
1001
ACAD
1000
DSTYLE
1002
{
1070
    41
1040
0.1875
1070
    42
1040
0.1875
1070
    43
1040
0.375
1070
    44
1040
0.1875
1070
   140
1040
0.1875
1070
   141
1040
0.09375
1070
   147
1040
0.1875
1070
   271
1070
     5
1070
   276
1070
     2
1070
   277
1070
     5
1070
   289
1070
     0
1002
}
  0
TEXT
  5
1081
330
18
100
AcDbEntity
  8
DIM
100
AcDbText
 10
20.82571600384917
 20
13.38612779040646
 30
0.0
 40
0.187
  1
REF.
100
AcDbText
  0
TEXT
  5
1082
330
18
100
AcDbEntity
  8
DIM
100
AcDbText
 10
19.3909811430509
 20
22.75285747664902
 30
0.0
 40
0.187
  1
10-24 X 5/8 
100
AcDbText
  0
TEXT
  5
1083
330
18
100
AcDbEntity
  8
DIM
100
AcDbText
 10
19.3909811430509
 20
22.45093179249319
 30
0.0
 40
0.187
  1
S.S. PAN HD. SCREW
100
AcDbText
  0
TEXT
  5
1084
330
18
100
AcDbEntity
  8
DIM
100
AcDbText
 10
19.37358727988221
 20
22.16871854813112
 30
0.0
 40
0.187
  1
4 REQ'D.
100
AcDbText
  0
LWPOLYLINE
  5
1404
330
18
100
AcDbEntity
  8
TITLE
100
AcDbPolyline
 90
        4
 70
     1
 43
0.0
 10
63.98000000000377
 20
41.73000000000278
 10
0.0199999999999943
 20
41.73000000000278
 10
0.0199999999999996
 20
0.0200000000000014
 10
63.98000000000374
 20
0.0200000000000014
  0
LWPOLYLINE
  5
140A
330
18
100
AcDbEntity
  8
TITLE
100
AcDbPolyline
 90
        4
 70
     1
 43
0.0
 10
64.00000000000376
 20
41.75000000000276
 10
-0.0000000000000071
 20
41.75000000000276
 10
0.0
 20
0.0000000000000018
 10
64.00000000000374
 20
0.0000000000000018
  0
LWPOLYLINE
  5
1410
330
18
100
AcDbEntity
  8
TITLE
100
AcDbPolyline
 90
        4
 70
     1
 43
0.0
 10
63.96000000000377
 20
41.71000000000276
 10
0.0399999999999943
 20
41.71000000000276
 10
0.0399999999999996
 20
0.0400000000000014
 10
63.96000000000374
 20
0.0400000000000014
  0
LINE
  5
1416
330
18
100
AcDbEntity
  8
TITLE
100
AcDbLine
 10
63.96000000000374
 20
0.7900000000000014
 30
0.0
 11
42.96000000000375
 21
0.790000000000005
 31
0.0
  0
LINE
  5
1417
330
18
100
AcDbEntity
  8
TITLE
100
AcDbLine
 10
54.33500000000375
 20
1.540000000000001
 30
0.0
 11
42.96000000000375
 21
1.540000000000004
 31
0.0
  0
LINE
  5
1418
330
18
100
AcDbEntity
  8
TITLE
100
AcDbLine
 10
54.33500000000375
 20
2.290000000000001
 30
0.0
 11
42.96000000000375
 21
2.290000000000004
 31
0.0
  0
LINE
  5
1419
330
18
100
AcDbEntity
  8
TITLE
100
AcDbLine
 10
63.96000000000374
 20
3.040000000000001
 30
0.0
 11
42.96000000000375
 21
3.040000000000004
 31
0.0
  0
LINE
  5
141A
330
18
100
AcDbEntity
  8
TITLE
100
AcDbLine
 10
57.33500000000375
 20
3.540000000000002
 30
0.0
 11
42.96000000000375
 21
3.540000000000004
 31
0.0
  0
LINE
  5
141B
330
18
100
AcDbEntity
  8
TITLE
100
AcDbLine
 10
63.96000000000374
 20
4.04
 30
0.0
 11
42.96000000000375
 21
4.040000000000004
 31
0.0
  0
LINE
  5
141C
330
18
100
AcDbEntity
  8
TITLE
100
AcDbLine
 10
51.83500000000375
 20
3.040000000000001
 30
0.0
 11
51.83500000000375
 21
0.0399999999999996
 31
0.0
  0
LINE
  5
141D
330
18
100
AcDbEntity
  8
TITLE
100
AcDbLine
 10
50.96000000000374
 20
2.290000000000004
 30
0.0
 11
50.96000000000374
 21
0.0400000000000085
 31
0.0
  0
LINE
  5
141E
330
18
100
AcDbEntity
  8
TITLE
100
AcDbLine
 10
50.08500000000374
 20
2.290000000000004
 30
0.0
 11
50.08500000000374
 21
0.0400000000000067
 31
0.0
  0
LINE
  5
141F
330
18
100
AcDbEntity
  8
TITLE
100
AcDbLine
 10
48.96000000000374
 20
2.290000000000004
 30
0.0
 11
48.96000000000374
 21
0.0400000000000049
 31
0.0
  0
LINE
  5
1420
330
18
100
AcDbEntity
  8
TITLE
100
AcDbLine
 10
43.96000000000374
 20
2.290000000000001
 30
0.0
 11
43.96000000000374
 21
0.0400000000000014
 31
0.0
  0
LINE
  5
1421
330
18
100
AcDbEntity
  8
TITLE
100
AcDbLine
 10
42.96000000000375
 20
4.040000000000004
 30
0.0
 11
42.96000000000375
 21
0.0400000000000014
 31
0.0
  0
LINE
  5
1422
330
18
100
AcDbEntity
  8
TITLE
100
AcDbLine
 10
51.83500000000375
 20
1.165000000000001
 30
0.0
 11
42.96000000000375
 21
1.165000000000004
 31
0.0
  0
LINE
  5
1423
330
18
100
AcDbEntity
  8
TITLE
100
AcDbLine
 10
51.83500000000375
 20
0.4149999999999996
 30
0.0
 11
42.96000000000375
 21
0.415000000000005
 31
0.0
  0
TEXT
  5
1424
330
18
100
AcDbEntity
  8
TITLE
100
AcDbText
 10
45.20274150067381
 20
2.036268066777214
 30
0.0
 40
0.154
  1
REVISION RECORD
  7
ITALIC
 72
     1
 11
46.30640816734048
 21
2.036268066777214
 31
0.0
100
AcDbText
  0
LINE
  5
1425
330
18
100
AcDbEntity
  8
TITLE
100
AcDbLine
 10
51.83500000000375
 20
1.915000000000001
 30
0.0
 11
42.96000000000375
 21
1.915000000000004
 31
0.0
  0
TEXT
  5
1426
330
18
100
AcDbEntity
  8
TITLE
100
AcDbText
 10
43.41367829470571
 20
2.762795715722289
 30
0.0
 40
0.154
  1
MATERIAL
  7
ITALIC
100
AcDbText
  0
TEXT
  5
1427
330
18
100
AcDbEntity
  8
TITLE
100
AcDbText
 10
43.26186688171646
 20
2.055260544742853
 30
0.0
 40
0.154
  1
LET.
  7
ITALIC
 72
     1
 11
43.49286688171646
 21
2.055260544742853
 31
0.0
100
AcDbText
  0
TEXT
  5
1428
330
18
100
AcDbEntity
  8
TITLE
100
AcDbText
 10
43.43743673306819
 20
4.138388543293784
 30
0.0
 40
0.14
  1
NOTES:
  7
ITALIC
100
AcDbText
  0
TEXT
  5
1429
330
18
100
AcDbEntity
  8
TITLE
100
AcDbText
 10
49.21118533914498
 20
2.045764305760033
 30
0.0
 40
0.154
  1
DATE
  7
ITALIC
 72
     1
 11
49.4935186724783
 21
2.045764305760033
 31
0.0
100
AcDbText
  0
TEXT
  5
142A
330
18
100
AcDbEntity
  8
TITLE
100
AcDbText
 10
50.38257751100488
 20
2.055260544742853
 30
0.0
 40
0.154
  1
BY
  7
ITALIC
 72
     1
 11
50.51091084433821
 21
2.055260544742853
 31
0.0
100
AcDbText
  0
TEXT
  5
142B
330
18
100
AcDbEntity
  8
TITLE
100
AcDbText
 10
51.14538256127479
 20
2.036268066777214
 30
0.0
 40
0.154
  1
CHD.
  7
ITALIC
 72
     1
 11
51.3763825612748
 21
2.036268066777214
 31
0.0
100
AcDbText
  0
TEXT
  5
142C
330
18
100
AcDbEntity
  8
TITLE
 62
     1
100
AcDbText
 10
61.71318339703766
 20
1.326747107986976
 30
0.0
 40
0.125
  1
AutoCAD DWG. FILE
100
AcDbText
  0
LINE
  5
142D
330
18
100
AcDbEntity
  8
TITLE
 62
     1
100
AcDbLine
 10
63.96000000000374
 20
1.540000000000001
 30
0.0
 11
54.33500000000375
 21
1.540000000000001
 31
0.0
  0
LINE
  5
142E
330
18
100
AcDbEntity
  8
TITLE
 62
     1
100
AcDbLine
 10
54.33500000000375
 20
3.039999999999997
 30
0.0
 11
54.33500000000375
 21
0.0399999999999996
 31
0.0
  0
LINE
  5
142F
330
18
100
AcDbEntity
  8
TITLE
 62
     1
100
AcDbLine
 10
53.08500000000375
 20
3.040000000000004
 30
0.0
 11
53.08500000000375
 21
0.7900000000000032
 31
0.0
  0
TEXT
  5
1430
330
18
100
AcDbEntity
  8
TITLE
100
AcDbText
 10
52.73472273397718
 20
0.5212952711989276
 30
0.0
 40
0.154
  1
SCALE
  7
ITALIC
 72
     1
 11
53.09405606731051
 21
0.5212952711989276
 31
0.0
100
AcDbText
  0
TEXT
  5
1431
330
18
100
AcDbEntity
  8
TITLE
100
AcDbText
 10
52.20267205253438
 20
0.2172647121122048
 30
0.0
 40
0.15125
  1
DO NOT SCALE
 72
     1
 11
53.08496371920104
 21
0.2172647121122048
 31
0.0
100
AcDbText
  0
TEXT
  5
1432
330
18
100
AcDbEntity
  8
TITLE
100
AcDbText
 10
51.96638083203399
 20
1.316742979900486
 30
0.0
 40
0.154
  1
APD. BY
  7
ITALIC
 72
     1
 11
52.42838083203399
 21
1.316742979900486
 31
0.0
100
AcDbText
  0
TEXT
  5
1433
330
18
100
AcDbEntity
  8
TITLE
 62
     1
100
AcDbText
 10
53.47434386396953
 20
1.322440723290178
 30
0.0
 40
0.154
  1
DATE
  7
ITALIC
 72
     1
 11
53.75667719730286
 21
1.322440723290178
 31
0.0
100
AcDbText
  0
TEXT
  5
1434
330
18
100
AcDbEntity
  8
TITLE
 62
     1
100
AcDbText
 10
54.54266216399277
 20
1.252558201771084
 30
0.0
 40
0.1694
  1
CUSTOMER
  7
ITALIC
 72
     2
 11
55.8413954973261
 21
1.252558201771084
 31
0.0
100
AcDbText
  0
TEXT
  5
1435
330
18
100
AcDbEntity
  8
TITLE
 62
     1
100
AcDbText
 10
54.56633048452305
 20
0.5102494913256912
 30
0.0
 40
0.1694
  1
PART NAME
  7
ITALIC
100
AcDbText
  0
LINE
  5
1436
330
18
100
AcDbEntity
  8
TITLE
 62
     1
100
AcDbLine
 10
59.21000000000375
 20
0.7900000000000014
 30
0.0
 11
59.21000000000375
 21
0.0399999999999978
 31
0.0
  0
TEXT
  5
1437
330
18
100
AcDbEntity
  8
TITLE
 62
     1
100
AcDbText
 10
59.46791140966684
 20
0.5206953542067927
 30
0.0
 40
0.1694
  1
PART NO.
  7
ITALIC
100
AcDbText
  0
LINE
  5
1438
330
18
100
AcDbEntity
  8
TITLE
 62
     1
100
AcDbLine
 10
61.6197939624064
 20
0.7900000000000014
 30
0.0
 11
61.6197939624064
 21
1.540000000000001
 31
0.0
  0
TEXT
  5
1439
330
18
100
AcDbEntity
  8
TITLE
100
AcDbText
 10
51.96638083203399
 20
2.072056300604384
 30
0.0
 40
0.154
  1
CHK. BY
  7
ITALIC
 72
     1
 11
52.42838083203399
 21
2.072056300604384
 31
0.0
100
AcDbText
  0
TEXT
  5
143A
330
18
100
AcDbEntity
  8
TITLE
100
AcDbText
 10
52.13269628546089
 20
2.82618097475822
 30
0.0
 40
0.14
  1
DR. BY
  7
ITALIC
 72
     1
 11
52.48269628546089
 21
2.82618097475822
 31
0.0
100
AcDbText
  0
TEXT
  5
143B
330
18
100
AcDbEntity
  8
TITLE
 62
     1
100
AcDbText
 10
53.46190663208497
 20
2.072056300604384
 30
0.0
 40
0.154
  1
DATE
  7
ITALIC
 72
     1
 11
53.7442399654183
 21
2.072056300604384
 31
0.0
100
AcDbText
  0
TEXT
  5
143C
330
18
100
AcDbEntity
  8
TITLE
 62
     1
100
AcDbText
 10
53.44713965836721
 20
2.822727796946285
 30
0.0
 40
0.14
  1
DATE
  7
ITALIC
 72
     1
 11
53.70380632503388
 21
2.822727796946285
 31
0.0
100
AcDbText
  0
TEXT
  5
143D
330
18
100
AcDbEntity
  8
TITLE
 62
     1
100
AcDbText
 10
57.51343410179541
 20
3.27666845244556
 30
0.0
 40
0.15525
  1
UNLESS SPECIFIED
  7
ITALIC
 72
     1
 11
58.67780910179541
 21
3.27666845244556
 31
0.0
100
AcDbText
  0
LINE
  5
143E
330
18
100
AcDbEntity
  8
TITLE
 62
     1
100
AcDbLine
 10
57.33500000000375
 20
4.04
 30
0.0
 11
57.33500000000375
 21
3.040000000000001
 31
0.0
  0
TEXT
  5
143F
330
18
100
AcDbEntity
  8
TITLE
 62
     1
100
AcDbText
 10
57.92743410179541
 20
3.643086326406458
 30
0.0
 40
0.15525
  1
TOLERANCES
  7
ITALIC
 72
     1
 11
58.67780910179541
 21
3.643086326406458
 31
0.0
100
AcDbText
  0
TEXT
  5
1440
330
18
100
AcDbEntity
  8
TITLE
 62
     1
100
AcDbText
 10
60.47755802933359
 20
3.649787649597743
 30
0.0
 40
0.15525
  1
DECIMAL
  7
ITALIC
100
AcDbText
  0
TEXT
  5
1441
330
18
100
AcDbEntity
  8
TITLE
 62
     1
100
AcDbText
 10
60.47755802933359
 20
3.356364944423901
 30
0.0
 40
0.15525
  1
+
  7
ITALIC
100
AcDbText
  0
TEXT
  5
1442
330
18
100
AcDbEntity
  8
TITLE
 62
     1
100
AcDbText
 10
60.47755802933359
 20
3.198840704743548
 30
0.0
 40
0.15525
  1
-
  7
ITALIC
100
AcDbText
  0
TEXT
  5
1443
330
18
100
AcDbEntity
  8
TITLE
 62
     1
100
AcDbText
 10
62.01705691683141
 20
3.64320306308844
 30
0.0
 40
0.15525
  1
FRACTIONAL
  7
ITALIC
100
AcDbText
  0
TEXT
  5
1444
330
18
100
AcDbEntity
  8
TITLE
 62
     1
100
AcDbText
 10
62.01705691683141
 20
3.349780357914581
 30
0.0
 40
0.15525
  1
+
  7
ITALIC
100
AcDbText
  0
TEXT
  5
1445
330
18
100
AcDbEntity
  8
TITLE
 62
     1
100
AcDbText
 10
62.01705691683141
 20
3.19799197822055
 30
0.0
 40
0.15525
  1
-
  7
ITALIC
100
AcDbText
  0
LEADER
  5
152E
330
18
100
AcDbEntity
  8
DIM
100
AcDbLeader
  3
STANDARD
 73
     0
 74
     0
 75
     1
 76
     3
 10
18.06344799076549
 20
24.47802879214768
 30
0.0
 10
19.05677951250357
 20
22.84033529687576
 30
0.0
 10
19.24427951250357
 20
22.84033529687576
 30
0.0
1001
ACAD
1000
DSTYLE
1002
{
1070
   270
1070
     7
1070
   140
1040
0.1875
1070
   147
1040
0.1875
1070
   287
1070
     0
1070
    42
1040
0.1875
1070
    44
1040
0.1875
1070
    43
1040
0.375
1070
   271
1070
     5
1070
   141
1040
0.09375
1070
    41
1040
0.1875
1002
}
  0
MTEXT
  5
152F
330
18
100
AcDbEntity
  8
0
100
AcDbMText
 10
19.43177951250357
 20
22.84033529687576
 30
0.0
 40
0.1875
 41
0.0
 46
0.0
 71
     4
 72
     5
  1

 73
     1
 44
1.0
  0
LEADER
  5
1530
330
18
100
AcDbEntity
  8
DIM
100
AcDbLeader
  3
STANDARD
 73
     0
 75
     1
 76
     3
 10
48.02153918138504
 20
32.83118850086728
 30
0.0
 10
47.16861836186348
 20
34.77172522940228
 30
0.0
 10
46.98111836186348
 20
34.77172522940228
 30
0.0
1001
ACAD
1000
DSTYLE
1002
{
1070
   270
1070
     7
1070
   140
1040
0.1875
1070
   147
1040
0.1875
1070
   287
1070
     0
1070
    42
1040
0.1875
1070
    44
1040
0.1875
1070
    43
1040
0.375
1070
   271
1070
     5
1070
   141
1040
0.09375
1070
    41
1040
0.1875
1002
}
  0
MTEXT
  5
1531
330
18
100
AcDbEntity
  8
0
100
AcDbMText
 10
46.79361836186347
 20
34.77172522940228
 30
0.0
 40
0.1875
 41
0.0
 46
0.0
 71
     6
 72
     5
  1

 73
     1
 44
1.0
  0
LINE
  5
1532
330
18
100
AcDbEntity
  8
0
100
AcDbLine
 10
45.85614375911593
 20
33.83006005437407
 30
0.0
 11
45.85614375911593
 21
33.76209392623817
 31
0.0
  0
LINE
  5
1533
330
18
100
AcDbEntity
  8
0
100
AcDbLine
 10
45.85614375911593
 20
24.20506005437407
 30
0.0
 11
45.85614375911593
 21
24.27302618250999
 31
0.0
  0
LEADER
  5
1534
330
18
100
AcDbEntity
  8
DIM
100
AcDbLeader
  3
STANDARD
 73
     0
 75
     1
 76
     3
 10
43.84174509111216
 20
14.9299609795363
 30
0.0
 10
43.05804960894457
 20
15.59413995558134
 30
0.0
 10
42.87054960894457
 20
15.59413995558134
 30
0.0
1001
ACAD
1000
DSTYLE
1002
{
1070
   270
1070
     7
1070
   140
1040
0.1875
1070
   147
1040
0.1875
1070
   287
1070
     0
1070
    42
1040
0.1875
1070
    44
1040
0.1875
1070
    43
1040
0.375
1070
   271
1070
     5
1070
   141
1040
0.09375
1070
    41
1040
0.1875
1002
}
  0
MTEXT
  5
1535
330
18
100
AcDbEntity
  8
0
100
AcDbMText
 10
42.68304960894456
 20
15.59413995558134
 30
0.0
 40
0.1875
 41
0.0
 46
0.0
 71
     6
 72
     5
  1

 73
     1
 44
1.0
  0
LEADER
  5
1536
330
18
100
AcDbEntity
  8
DIM
100
AcDbLeader
  3
STANDARD
 73
     0
 75
     1
 76
     3
 10
44.79544154446204
 20
12.39559404130595
 30
0.0
 10
43.26803770787106
 20
13.61034228465566
 30
0.0
 10
43.08053770787106
 20
13.61034228465566
 30
0.0
1001
ACAD
1000
DSTYLE
1002
{
1070
   270
1070
     7
1070
   140
1040
0.1875
1070
   147
1040
0.1875
1070
   287
1070
     0
1070
    42
1040
0.1875
1070
    44
1040
0.1875
1070
    43
1040
0.375
1070
   271
1070
     5
1070
   141
1040
0.09375
1070
    41
1040
0.1875
1002
}
  0
MTEXT
  5
1537
330
18
100
AcDbEntity
  8
0
100
AcDbMText
 10
42.89303770787106
 20
13.61034228465566
 30
0.0
 40
0.1875
 41
0.0
 46
0.0
 71
     6
 72
     5
  1

 73
     1
 44
1.0
  0
DIMENSION
  5
1546
330
18
100
AcDbEntity
  8
DIM
100
AcDbDimension
280
     0
  2
*D28
 10
45.30949585321167
 20
15.07508937964485
 30
0.0
 11
46.01262085321167
 21
15.45008937964485
 31
0.0
 70
    32
 71
     5
 42
-1.0
 73
     0
 74
     0
 75
     0
  3
STANDARD
100
AcDbAlignedDimension
 13
45.81398767160698
 23
14.95008937964484
 33
0.0
 14
45.93898767160697
 24
15.07508937964485
 34
0.0
 50
90.0
100
AcDbRotatedDimension
1001
ACAD
1000
DSTYLE
1002
{
1070
    41
1040
0.1875
1070
    42
1040
0.1875
1070
    43
1040
0.375
1070
    44
1040
0.1875
1070
   140
1040
0.1875
1070
   141
1040
0.09375
1070
   147
1040
0.1875
1070
   271
1070
     3
1070
   289
1070
     0
1002
}
  0
DIMENSION
  5
1555
330
18
100
AcDbEntity
  8
DIM
100
AcDbDimension
280
     0
  2
*D29
 10
43.17413068788795
 20
11.88758937964485
 30
0.0
 11
42.47100568788795
 21
11.51258937964485
 31
0.0
 70
    32
 71
     5
 42
-1.0
 73
     0
 74
     0
 75
     0
  3
STANDARD
100
AcDbAlignedDimension
 13
44.06151469073478
 23
12.01258937964485
 33
0.0
 14
44.06151469073478
 24
11.88758937964485
 34
0.0
 50
90.0
100
AcDbRotatedDimension
1001
ACAD
1000
DSTYLE
1002
{
1070
    41
1040
0.1875
1070
    42
1040
0.1875
1070
    43
1040
0.375
1070
    44
1040
0.1875
1070
   140
1040
0.1875
1070
   141
1040
0.09375
1070
   147
1040
0.1875
1070
   271
1070
     3
1070
   289
1070
     0
1002
}
  0
TEXT
  5
1564
330
18
100
AcDbEntity
  8
TITLE
100
AcDbText
 10
44.75726211672854
 20
3.08402290842635
 30
0.0
 40
0.187
  1
COLOR GLACIER GRAY RR1013
100
AcDbText
  0
LINE
  5
157A
330
18
100
AcDbEntity
  8
0
100
AcDbLine
 10
12.19532195715902
 20
15.07508937964485
 30
0.0
 11
12.57032195715902
 21
15.07508937964485
 31
0.0
  0
LINE
  5
157B
330
18
100
AcDbEntity
  8
0
100
AcDbLine
 10
12.25532195715903
 20
15.17508937964485
 30
0.0
 11
12.51032195715902
 21
15.17508937964486
 31
0.0
  0
LINE
  5
157C
330
18
100
AcDbEntity
  8
0
100
AcDbLine
 10
12.19532195715902
 20
15.07508937964485
 30
0.0
 11
12.19532195715903
 21
15.11508937964485
 31
0.0
  0
LINE
  5
157D
330
18
100
AcDbEntity
  8
0
100
AcDbLine
 10
12.57032195715902
 20
15.07508937964485
 30
0.0
 11
12.57032195715902
 21
15.11508937964486
 31
0.0
  0
ARC
  5
157E
330
18
100
AcDbEntity
  8
0
100
AcDbCircle
 10
12.25532195715903
 20
15.11508937964485
 30
0.0
 40
0.06
100
AcDbArc
 50
90.00000000000055
 51
180.0
  0
ARC
  5
157F
330
18
100
AcDbEntity
  8
0
100
AcDbCircle
 10
12.51032195715902
 20
15.11508937964486
 30
0.0
 40
0.06
100
AcDbArc
 50
0.0
 51
90.0
  0
LINE
  5
1580
330
18
100
AcDbEntity
  8
0
100
AcDbLine
 10
17.81990419586037
 20
15.07508937964485
 30
0.0
 11
18.19490419586038
 21
15.07508937964485
 31
0.0
  0
LINE
  5
1581
330
18
100
AcDbEntity
  8
0
100
AcDbLine
 10
17.87990419586038
 20
15.17508937964485
 30
0.0
 11
18.13490419586037
 21
15.17508937964486
 31
0.0
  0
LINE
  5
1582
330
18
100
AcDbEntity
  8
0
100
AcDbLine
 10
17.81990419586037
 20
15.07508937964485
 30
0.0
 11
17.81990419586038
 21
15.11508937964485
 31
0.0
  0
LINE
  5
1583
330
18
100
AcDbEntity
  8
0
100
AcDbLine
 10
18.19490419586037
 20
15.07508937964485
 30
0.0
 11
18.19490419586037
 21
15.11508937964486
 31
0.0
  0
ARC
  5
1584
330
18
100
AcDbEntity
  8
0
100
AcDbCircle
 10
17.87990419586038
 20
15.11508937964485
 30
0.0
 40
0.06
100
AcDbArc
 50
90.00000000000055
 51
180.0
  0
ARC
  5
1585
330
18
100
AcDbEntity
  8
0
100
AcDbCircle
 10
18.13490419586037
 20
15.11508937964486
 30
0.0
 40
0.06
100
AcDbArc
 50
0.0
 51
90.0
  0
ARC
  5
1586
330
18
100
AcDbEntity
  8
0
100
AcDbCircle
 10
30.80716459927449
 20
33.54261148689526
 30
0.0
 40
0.06
100
AcDbArc
 50
90.0
 51
180.0
  0
ARC
  5
1587
330
18
100
AcDbEntity
  8
0
100
AcDbCircle
 10
30.80716459927449
 20
33.28761148689527
 30
0.0
 40
0.06
100
AcDbArc
 50
180.0000000000005
 51
270.0
  0
LINE
  5
1588
330
18
100
AcDbEntity
  8
0
100
AcDbLine
 10
30.84716459927449
 20
33.60261148689526
 30
0.0
 11
30.80716459927449
 21
33.60261148689526
 31
0.0
  0
LINE
  5
1589
330
18
100
AcDbEntity
  8
0
100
AcDbLine
 10
30.84716459927449
 20
33.22761148689526
 30
0.0
 11
30.80716459927449
 21
33.22761148689527
 31
0.0
  0
LINE
  5
158A
330
18
100
AcDbEntity
  8
0
100
AcDbLine
 10
30.74716459927449
 20
33.28761148689527
 30
0.0
 11
30.74716459927449
 21
33.54261148689526
 31
0.0
  0
LINE
  5
158B
330
18
100
AcDbEntity
  8
0
100
AcDbLine
 10
30.84716459927449
 20
33.22761148689526
 30
0.0
 11
30.84716459927449
 21
33.60261148689527
 31
0.0
  0
ARC
  5
158C
330
18
100
AcDbEntity
  8
0
100
AcDbCircle
 10
30.80716459927449
 20
24.71662517744413
 30
0.0
 40
0.06
100
AcDbArc
 50
90.0
 51
180.0
  0
ARC
  5
158D
330
18
100
AcDbEntity
  8
0
100
AcDbCircle
 10
30.80716459927449
 20
24.46162517744415
 30
0.0
 40
0.06
100
AcDbArc
 50
180.0000000000005
 51
270.0
  0
LINE
  5
158E
330
18
100
AcDbEntity
  8
0
100
AcDbLine
 10
30.84716459927449
 20
24.77662517744414
 30
0.0
 11
30.80716459927449
 21
24.77662517744414
 31
0.0
  0
LINE
  5
158F
330
18
100
AcDbEntity
  8
0
100
AcDbLine
 10
30.84716459927449
 20
24.40162517744413
 30
0.0
 11
30.80716459927449
 21
24.40162517744414
 31
0.0
  0
LINE
  5
1590
330
18
100
AcDbEntity
  8
0
100
AcDbLine
 10
30.74716459927449
 20
24.46162517744415
 30
0.0
 11
30.74716459927449
 21
24.71662517744413
 31
0.0
  0
LINE
  5
1591
330
18
100
AcDbEntity
  8
0
100
AcDbLine
 10
30.84716459927449
 20
24.40162517744413
 30
0.0
 11
30.84716459927449
 21
24.77662517744414
 31
0.0
  0
CIRCLE
  5
1592
330
18
100
AcDbEntity
  8
0
100
AcDbCircle
 10
18.00939116004592
 20
24.58004863402823
 30
0.0
 40
0.1875
  0
LINE
  5
1593
330
18
100
AcDbEntity
  8
0
100
AcDbLine
 10
17.86031476525608
 20
24.46632757829771
 30
0.0
 11
18.12311221577645
 21
24.72912502881807
 31
0.0
  0
LINE
  5
1594
330
18
100
AcDbEntity
  8
0
100
AcDbLine
 10
17.89567010431541
 20
24.43097223923839
 30
0.0
 11
18.15846755483577
 21
24.69376968975875
 31
0.0
  0
CIRCLE
  5
1595
330
18
100
AcDbEntity
  8
0
100
AcDbCircle
 10
12.38439116004592
 20
24.58004863402823
 30
0.0
 40
0.1875
  0
LINE
  5
1596
330
18
100
AcDbEntity
  8
0
100
AcDbLine
 10
12.23531476525608
 20
24.46632757829771
 30
0.0
 11
12.49811221577644
 21
24.72912502881807
 31
0.0
  0
LINE
  5
1597
330
18
100
AcDbEntity
  8
0
100
AcDbLine
 10
12.27067010431541
 20
24.43097223923839
 30
0.0
 11
12.53346755483576
 21
24.69376968975875
 31
0.0
  0
CIRCLE
  5
1598
330
18
100
AcDbEntity
  8
0
100
AcDbCircle
 10
12.38439116004592
 20
33.42404863402823
 30
0.0
 40
0.1875
  0
LINE
  5
1599
330
18
100
AcDbEntity
  8
0
100
AcDbLine
 10
12.23531476525608
 20
33.31032757829772
 30
0.0
 11
12.49811221577644
 21
33.57312502881807
 31
0.0
  0
LINE
  5
159A
330
18
100
AcDbEntity
  8
0
100
AcDbLine
 10
12.27067010431541
 20
33.27497223923838
 30
0.0
 11
12.53346755483576
 21
33.53776968975875
 31
0.0
  0
CIRCLE
  5
159B
330
18
100
AcDbEntity
  8
0
100
AcDbCircle
 10
18.00939116004592
 20
33.42404863402823
 30
0.0
 40
0.1875
  0
LINE
  5
159C
330
18
100
AcDbEntity
  8
0
100
AcDbLine
 10
17.86031476525607
 20
33.31032757829772
 30
0.0
 11
18.12311221577644
 21
33.57312502881807
 31
0.0
  0
LINE
  5
159D
330
18
100
AcDbEntity
  8
0
100
AcDbLine
 10
17.8956701043154
 20
33.27497223923838
 30
0.0
 11
18.15846755483576
 21
33.53776968975875
 31
0.0
  0
TEXT
  5
16AF
330
18
100
AcDbEntity
  8
TITLE
100
AcDbText
 10
55.12108670317222
 20
1.942851221653165
 30
0.0
 40
0.5928562933514403
  1
HUBBELL WIEGMANN
  7
STYLE1
100
AcDbText
  0
TEXT
  5
16DE
330
18
100
AcDbEntity
  8
TITLE
100
AcDbText
 10
61.72592348941324
 20
0.9692526438502
 30
0.0
 40
0.187
  1
HW-N4X963SC
100
AcDbText
  0
ENDSEC
  0
SECTION
  2
OBJECTS
  0
DICTIONARY
  5
C
330
0
100
AcDbDictionary
281
     1
  3
ACAD_COLOR
350
15B7
  3
ACAD_GROUP
350
D
  3
ACAD_LAYOUT
350
15B8
  3
ACAD_MATERIAL
350
15B6
  3
ACAD_MLEADERSTYLE
350
16CE
  3
ACAD_MLINESTYLE
350
E
  3
ACAD_PLOTSETTINGS
350
15B9
  3
ACAD_PLOTSTYLENAME
350
15B4
  3
ACAD_SCALELIST
350
16BC
  3
ACAD_TABLESTYLE
350
15CC
  3
ACAD_VISUALSTYLE
350
15E5
  3
AcAmCatalogState
350
1656
  3
ACDB_RECOMPOSE_DATA
350
16E7
  3
AcDbVariableDictionary
350
15C8
  3
ACDMSYSVARMGR
350
1612
  3
ACGREF_MASTER
350
160C
  3
ACGREFACAD_MASTER
350
1633
  3
AcmDictionary
350
1654
  3
ACME_BOM_MANAGER_NAME
350
1606
  3
ACME_COMMAND_HISTORY
350
1603
  3
ACME_SCOPE_NAME
350
1602
  3
ACMESTATEMGR
350
160B
  3
AcmeSysVarManager
350
1604
  3
AcmSystemVariableManager
350
1638
  3
AD_APPL
350
1640
  3
ADSYSVARMGR
350
163F
  3
AmdtNamedDwgMgr
350
162E
  3
AMG
350
15FB
  3
AMGSNAPSETTINGS
350
1694
  3
AMI_MASTER
350
1636
  3
AUTOCAD_ASSEMBLIES_PROJECT
350
1649
  3
Designer_Assemblies_SysVars
350
1643
  3
GREFAM_MODULE
350
1637
  3
StructToggleButtonState
350
16B0
  0
DICTIONARY
  5
16A4
330
2
100
AcDbDictionary
280
     1
281
     1
  3
ACAD_LAYERSTATES
360
16A5
  0
DICTIONARY
  5
15B7
102
{ACAD_REACTORS
330
C
102
}
330
C
100
AcDbDictionary
281
     1
  0
DICTIONARY
  5
D
102
{ACAD_REACTORS
330
C
102
}
330
C
100
AcDbDictionary
281
     1
  0
DICTIONARY
  5
15B8
102
{ACAD_REACTORS
330
C
102
}
330
C
100
AcDbDictionary
281
     1
  3
Layout1
350
15BB
  3
Model
350
15BA
  0
DICTIONARY
  5
15B6
102
{ACAD_REACTORS
330
C
102
}
330
C
100
AcDbDictionary
281
     1
  3
ByBlock
350
15E3
  3
ByLayer
350
15E2
  3
Global
350
15E4
  0
DICTIONARY
  5
16CE
102
{ACAD_REACTORS
330
C
102
}
330
C
100
AcDbDictionary
281
     1
  3
Standard
350
16CF
  0
DICTIONARY
  5
E
102
{ACAD_REACTORS
330
C
102
}
330
C
100
AcDbDictionary
281
     1
  3
STANDARD
350
1B
  0
DICTIONARY
  5
15B9
102
{ACAD_REACTORS
330
C
102
}
330
C
100
AcDbDictionary
281
     1
  0
ACDBDICTIONARYWDFLT
  5
15B4
102
{ACAD_REACTORS
330
C
102
}
330
C
100
AcDbDictionary
281
     1
  3
Normal
350
15B5
100
AcDbDictionaryWithDefault
340
15B5
  0
DICTIONARY
  5
16BC
102
{ACAD_REACTORS
330
C
102
}
330
C
100
AcDbDictionary
281
     1
  3
A0
350
16BD
  3
A1
350
16BE
  3
A2
350
16BF
  3
A3
350
16C0
  3
A4
350
16C1
  3
A5
350
16C2
  3
A6
350
16C3
  3
A7
350
16C4
  3
A8
350
16C5
  3
A9
350
16C6
  3
B0
350
16C7
  3
B1
350
16C8
  3
B2
350
16C9
  3
B3
350
16CA
  3
B4
350
16CB
  3
B5
350
16CC
  3
B6
350
16CD
  0
DICTIONARY
  5
15CC
102
{ACAD_REACTORS
330
C
102
}
330
C
100
AcDbDictionary
281
     1
  3
Standard
350
15CD
  0
DICTIONARY
  5
15E5
102
{ACAD_REACTORS
330
C
102
}
330
C
100
AcDbDictionary
281
     1
  3
2dWireframe
350
15EB
  3
3D Hidden
350
15ED
  3
3dWireframe
350
15EC
  3
Basic
350
15EA
  3
Brighten
350
15F1
  3
ColorChange
350
15F5
  3
Conceptual
350
15EE
  3
Dim
350
15F0
  3
EdgeColorOff
350
16BB
  3
Facepattern
350
15F4
  3
Flat
350
15E6
  3
FlatWithEdges
350
15E7
  3
Gouraud
350
15E8
  3
GouraudWithEdges
350
15E9
  3
Hidden
350
16B3
  3
JitterOff
350
16B9
  3
Linepattern
350
15F3
  3
OverhangOff
350
16BA
  3
Realistic
350
15EF
  3
Shaded
350
16B8
  3
Shaded with edges
350
16B7
  3
Shades of Gray
350
16B4
  3
Sketchy
350
16B5
  3
Thicken
350
15F2
  3
Wireframe
350
16B2
  3
X-Ray
350
16B6
  0
ACAD_PROXY_OBJECT
  5
1656
102
{ACAD_REACTORS
330
C
102
}
330
C
100
AcDbProxyObject
 90
      499
 91
      550
 95
    65563
 70
     0
162
              1018
311
4FD1C00E80170011401B8019C01A401B80194019401C801A401B8019C0170010C010401100080011801A401B0019401CC0170010C011800B0008001180080014C019401C801A4019401CC00B000800140010800B001400108015C0170010C011800980118008000C800B401100080019001C8018401DC01A401B8019C01CC0
311
0C
161
                94
310
3FFFFFFFE00A0284403002A8
 94
        0
  0
XRECORD
  5
16E7
102
{ACAD_REACTORS
330
C
102
}
330
C
100
AcDbXrecord
280
     1
 90
        1
330
15CD
  0
DICTIONARY
  5
15C8
102
{ACAD_REACTORS
330
C
102
}
330
C
100
AcDbDictionary
281
     1
  3
CANNOSCALE
350
16E1
  3
CMLEADERSTYLE
350
16DF
  3
CTABLESTYLE
350
15E0
  3
DIMASSOC
350
15C9
  3
LAYEREVAL
350
16E3
  3
LAYERNOTIFY
350
16E4
  3
LIGHTINGUNITS
350
16E2
  3
MSLTSCALE
350
16E0
  3
PROJECTNAME
350
15CA
  0
ACAD_PROXY_OBJECT
  5
1612
102
{ACAD_REACTORS
330
C
102
}
330
C
100
AcDbProxyObject
 90
      499
 91
      511
 95
    65563
 70
     0
162
                 0
161
               240
310
4C51A482000000000000000000000000000000000000000000000000000000
330
1613
330
1614
330
1615
330
1616
330
1617
330
1618
330
1619
330
161A
330
161B
330
161C
330
161D
330
161E
330
161F
330
1620
330
1621
330
1622
330
1623
330
1624
330
1625
330
1626
330
1627
330
1628
330
1629
330
162A
330
162B
330
162C
 94
        0
  0
ACAD_PROXY_OBJECT
  5
160C
102
{ACAD_REACTORS
330
C
102
}
330
C
100
AcDbProxyObject
 90
      499
 91
      519
 95
    65563
 70
     0
162
                 0
161
                34
310
040000428C
 94
        0
  0
ACAD_PROXY_OBJECT
  5
1633
102
{ACAD_REACTORS
330
C
102
}
330
C
100
AcDbProxyObject
 90
      499
 91
      528
 95
    65563
 70
     0
162
                 0
161
               114
310
04000041C08000000000000000000C
 94
        0
  0
DICTIONARY
  5
1654
102
{ACAD_REACTORS
330
C
102
}
330
C
100
AcDbDictionary
281
     1
  3
AcmBOMDATA
350
1655
  3
AcmStdDictionary
350
165F
  3
AMDTSECTSYM_ARROWCOLOR
350
167F
  0
ACAD_PROXY_OBJECT
  5
1606
102
{ACAD_REACTORS
330
C
102
}
330
C
100
AcDbProxyObject
 90
      499
 91
      513
 95
    65563
 70
     0
162
                 0
161
                50
310
0000004040000C
330
0
330
0
330
1607
 94
        0
  0
ACAD_PROXY_OBJECT
  5
1603
102
{ACAD_REACTORS
330
C
102
}
330
C
100
AcDbProxyObject
 90
      499
 91
      510
 95
    65563
 70
     0
162
              2794
311
4390401340110015001480114014C01140150011001080134013C011001084E0020002D00200055004E0044004F0042138008000B40080015401380110013C010455004E0044004F004115401380110013C01045A004F004F004D004151401480104014C011401095000410053005400450043004C00490050004154C010C0
311
1040130011401044D004F00560045004191001100114011001240150010644004400450044004900540046134014C011C008000B40080010C01BC01B401B4018401B801900080010C01040138010C0114013001300114011000B801054500520041005300450041168013C013C013401065300410056004500410053004C13
311
4014C011C008000B4008001400140010400E80080008000800190019401CC01AC01D001BC01C000B8018401C801E00080011801A401B001940158019401C801CC01A401BC01B800E8008000C400C400B800C000B800D800C800B800C800C000C
161
               196
310
4340502010101806018060180601806014040406018050101C
 94
        0
  0
ACAD_PROXY_OBJECT
  5
1602
102
{ACAD_REACTORS
330
C
102
}
330
C
100
AcDbProxyObject
 90
      499
 91
      509
 95
    65563
 70
     0
162
                 0
161
               546
310
0B00004980800000000000000000130502000000000000000000000000000000000000000000000000000000000000000000000000000000000000000000000000AAAAAA8C
360
1605
360
1607
360
160D
360
160E
360
160F
360
1610
360
1613
360
1614
360
1615
360
1616
360
1617
360
1618
360
1619
360
161A
360
161B
360
161C
360
161D
360
161E
360
161F
360
1620
360
1621
360
1622
360
1623
360
1624
360
1625
360
1626
360
1627
360
1628
360
1629
360
162A
360
162B
360
162C
360
1639
360
163B
360
163C
360
163D
360
163E
360
1644
360
1645
360
1646
360
1647
360
1648
360
164D
360
164E
360
164F
360
1650
360
1651
360
1652
 94
        0
  0
ACAD_PROXY_OBJECT
  5
160B
102
{ACAD_REACTORS
330
C
102
}
330
C
100
AcDbProxyObject
 90
      499
 91
      518
 95
    65563
 70
     0
162
                 0
161
                50
310
0B000042E4128C
 94
        0
  0
ACAD_PROXY_OBJECT
  5
1604
102
{ACAD_REACTORS
330
C
102
}
330
C
100
AcDbProxyObject
 90
      499
 91
      511
 95
    65563
 70
     0
162
                 0
161
                32
310
9014220000
330
1605
 94
        0
  0
ACAD_PROXY_OBJECT
  5
1638
102
{ACAD_REACTORS
330
C
102
}
330
C
100
AcDbProxyObject
 90
      499
 91
      511
 95
    65563
 70
     0
162
                 0
161
                32
310
9014220000
330
1639
 94
        0
  0
ACAD_PROXY_OBJECT
  5
1640
102
{ACAD_REACTORS
330
C
102
}
330
C
100
AcDbProxyObject
 90
      499
 91
      539
 95
    65563
 70
     0
162
                 0
161
                34
310
000B00008C
330
163B
 94
        0
  0
ACAD_PROXY_OBJECT
  5
163F
102
{ACAD_REACTORS
330
C
102
}
330
C
100
AcDbProxyObject
 90
      499
 91
      511
 95
    65563
 70
     0
162
                 0
161
                 8
310
AA39
 94
        0
  0
ACAD_PROXY_OBJECT
  5
162E
102
{ACAD_REACTORS
330
C
102
}
330
C
100
AcDbProxyObject
 90
      499
 91
      525
 95
    65563
 70
     0
162
                 0
161
                42
310
000100005E8C
330
160D
 94
        0
  0
DICTIONARY
  5
15FB
102
{ACAD_REACTORS
330
C
102
}
330
C
100
AcDbDictionary
281
     1
  3
AcMgSettings
350
15FC
  3
AMGLAYCFG
350
1661
  0
DICTIONARY
  5
1694
102
{ACAD_REACTORS
330
C
102
}
330
C
100
AcDbDictionary
281
     1
  3
DIMENSION
350
1699
  3
FEA
350
1698
  3
HATCH (1)
350
1695
  3
HATCH (2)
350
1696
  3
SIMPLE WELD
350
169A
  3
SYMBOLS
350
1697
  0
ACAD_PROXY_OBJECT
  5
1636
102
{ACAD_REACTORS
330
C
102
}
330
C
100
AcDbProxyObject
 90
      499
 91
      531
 95
    65563
 70
     0
162
                 0
161
                34
310
050000428C
 94
        0
  0
ACAD_PROXY_OBJECT
  5
1649
102
{ACAD_REACTORS
330
C
102
}
330
C
100
AcDbProxyObject
 90
      499
 91
      542
 95
    65563
 70
     0
162
                 0
161
                98
310
0B00005000000000000000000C
330
1650
330
0
330
1651
330
0
330
0
330
0
330
0
330
0
 94
        0
  0
ACAD_PROXY_OBJECT
  5
1643
102
{ACAD_REACTORS
330
C
102
}
330
C
100
AcDbProxyObject
 90
      499
 91
      511
 95
    65563
 70
     0
162
                 0
161
                64
310
90542200000000007B
330
1644
330
1645
330
1646
330
1647
330
1648
 94
        0
  0
ACAD_PROXY_OBJECT
  5
1637
102
{ACAD_REACTORS
330
C
102
}
330
C
100
AcDbProxyObject
 90
      499
 91
      532
 95
    65563
 70
     0
162
                 0
161
                 8
310
0540
 94
        0
  0
ACAD_PROXY_OBJECT
  5
16B0
102
{ACAD_REACTORS
330
C
102
}
330
C
100
AcDbProxyObject
 90
      499
 91
      576
 95
    65563
 70
     0
162
                 0
161
                 1
310
4C
 94
        0
  0
DICTIONARY
  5
16A5
102
{ACAD_REACTORS
330
16A4
102
}
330
16A4
100
AcDbDictionary
281
     1
  0
LAYOUT
  5
15BB
102
{ACAD_REACTORS
330
15B8
102
}
330
15B8
100
AcDbPlotSettings
  1

  2
\\BELDING_BDC_1\IBM 4039 LaserPrinter Plus
  4

  6

 40
0.0
 41
0.0
 42
0.0
 43
0.0
 44
0.0
 45
0.0
 46
0.0
 47
0.0
 48
0.0
 49
0.0
140
0.0
141
0.0
142
1.0
143
1.0
 70
   688
 72
     0
 73
     0
 74
     5
  7

 75
    16
147
1.0
 76
     0
 77
     2
 78
   300
148
0.0
149
0.0
100
AcDbLayout
  1
Layout1
 70
     0
 71
     1
 10
0.0
 20
0.0
 11
12.0
 21
9.0
 12
0.0
 22
0.0
 32
0.0
 14
1.000000000000000E+20
 24
1.000000000000000E+20
 34
1.000000000000000E+20
 15
-1.000000000000000E+20
 25
-1.000000000000000E+20
 35
-1.000000000000000E+20
146
0.0
 13
0.0
 23
0.0
 33
0.0
 16
1.0
 26
0.0
 36
0.0
 17
0.0
 27
1.0
 37
0.0
 76
     0
330
15
  0
LAYOUT
  5
15BA
102
{ACAD_REACTORS
330
15B8
102
}
330
15B8
100
AcDbPlotSettings
  1

  2
HP DesignJet 500 24 by HP
  4
User265
  6

 40
4.995333194732666
 41
16.97568893432617
 42
4.99530029296875
 43
16.97564697265625
 44
558.7576293945312
 45
863.5153198242187
 46
3.809999999999999
 47
0.0
 48
0.0
 49
0.0
140
0.0
141
0.0
142
1.0
143
1.959656748343369
 70
 11956
 72
     0
 73
     1
 74
     1
  7

 75
     0
147
0.5102934485059018
 76
     0
 77
     2
 78
   300
148
0.0104419782283003
149
0.0422767812652353
100
AcDbLayout
  1
Model
 70
     1
 71
     0
 10
0.0
 20
0.0
 11
12.0
 21
9.0
 12
0.0
 22
0.0
 32
0.0
 14
0.0
 24
0.0
 34
0.0
 15
0.0
 25
0.0
 35
0.0
146
0.0
 13
0.0
 23
0.0
 33
0.0
 16
1.0
 26
0.0
 36
0.0
 17
0.0
 27
1.0
 37
0.0
 76
     0
330
18
331
15DA
  0
MATERIAL
  5
15E3
102
{ACAD_REACTORS
330
15B6
102
}
330
15B6
100
AcDbMaterial
  1
ByBlock
 73
     1
 78
     1
172
     1
176
     1
270
     1
274
     1
 94
       63
  0
MATERIAL
  5
15E2
102
{ACAD_REACTORS
330
15B6
102
}
330
15B6
100
AcDbMaterial
  1
ByLayer
 73
     1
 78
     1
172
     1
176
     1
270
     1
274
     1
 94
       63
  0
MATERIAL
  5
15E4
102
{ACAD_REACTORS
330
15B6
102
}
330
15B6
100
AcDbMaterial
  1
Global
 73
     1
 78
     1
172
     1
176
     1
270
     1
274
     1
 94
       63
  0
MLEADERSTYLE
  5
16CF
102
{ACAD_REACTORS
330
16CE
102
}
330
16CE
100
AcDbMLeaderStyle
179
     2
170
     2
171
     1
172
     0
 90
        2
 40
0.0
 41
0.0
173
     1
 91
-1056964608
340
12
 92
       -2
290
     1
 42
0.09
291
     1
 43
0.36
  3
Standard
 44
0.18
300

342
10
174
     1
178
     6
175
     1
176
     0
 93
-1056964608
 45
0.18
292
     0
297
     0
 46
0.18
 94
-1056964608
 47
1.0
 49
1.0
140
1.0
293
     1
141
0.0
294
     1
177
     0
142
1.0
295
     1
296
     0
143
0.125
271
     0
272
     9
273
     9
  0
MLINESTYLE
  5
1B
102
{ACAD_REACTORS
330
E
102
}
330
E
100
AcDbMlineStyle
  2
STANDARD
 70
     0
  3

 62
     0
 51
90.0
 52
90.0
 71
     2
 49
0.5
 62
   256
  6
BYLAYER
 49
-0.5
 62
   256
  6
BYLAYER
  0
ACDBPLACEHOLDER
  5
15B5
102
{ACAD_REACTORS
330
15B4
102
}
330
15B4
  0
SCALE
  5
16BD
102
{ACAD_REACTORS
330
16BC
102
}
330
16BC
100
AcDbScale
 70
     0
300
1:1
140
1.0
141
1.0
290
     1
  0
SCALE
  5
16BE
102
{ACAD_REACTORS
330
16BC
102
}
330
16BC
100
AcDbScale
 70
     0
300
1/128" = 1'-0"
140
0.0078125
141
12.0
290
     0
  0
SCALE
  5
16BF
102
{ACAD_REACTORS
330
16BC
102
}
330
16BC
100
AcDbScale
 70
     0
300
1/64" = 1'-0"
140
0.015625
141
12.0
290
     0
  0
SCALE
  5
16C0
102
{ACAD_REACTORS
330
16BC
102
}
330
16BC
100
AcDbScale
 70
     0
300
1/32" = 1'-0"
140
0.03125
141
12.0
290
     0
  0
SCALE
  5
16C1
102
{ACAD_REACTORS
330
16BC
102
}
330
16BC
100
AcDbScale
 70
     0
300
1/16" = 1'-0"
140
0.0625
141
12.0
290
     0
  0
SCALE
  5
16C2
102
{ACAD_REACTORS
330
16BC
102
}
330
16BC
100
AcDbScale
 70
     0
300
3/32" = 1'-0"
140
0.09375
141
12.0
290
     0
  0
SCALE
  5
16C3
102
{ACAD_REACTORS
330
16BC
102
}
330
16BC
100
AcDbScale
 70
     0
300
1/8" = 1'-0"
140
0.125
141
12.0
290
     0
  0
SCALE
  5
16C4
102
{ACAD_REACTORS
330
16BC
102
}
330
16BC
100
AcDbScale
 70
     0
300
3/16" = 1'-0"
140
0.1875
141
12.0
290
     0
  0
SCALE
  5
16C5
102
{ACAD_REACTORS
330
16BC
102
}
330
16BC
100
AcDbScale
 70
     0
300
1/4" = 1'-0"
140
0.25
141
12.0
290
     0
  0
SCALE
  5
16C6
102
{ACAD_REACTORS
330
16BC
102
}
330
16BC
100
AcDbScale
 70
     0
300
3/8" = 1'-0"
140
0.375
141
12.0
290
     0
  0
SCALE
  5
16C7
102
{ACAD_REACTORS
330
16BC
102
}
330
16BC
100
AcDbScale
 70
     0
300
1/2" = 1'-0"
140
0.5
141
12.0
290
     0
  0
SCALE
  5
16C8
102
{ACAD_REACTORS
330
16BC
102
}
330
16BC
100
AcDbScale
 70
     0
300
3/4" = 1'-0"
140
0.75
141
12.0
290
     0
  0
SCALE
  5
16C9
102
{ACAD_REACTORS
330
16BC
102
}
330
16BC
100
AcDbScale
 70
     0
300
1" = 1'-0"
140
1.0
141
12.0
290
     0
  0
SCALE
  5
16CA
102
{ACAD_REACTORS
330
16BC
102
}
330
16BC
100
AcDbScale
 70
     0
300
1-1/2" = 1'-0"
140
1.5
141
12.0
290
     0
  0
SCALE
  5
16CB
102
{ACAD_REACTORS
330
16BC
102
}
330
16BC
100
AcDbScale
 70
     0
300
3" = 1'-0"
140
3.0
141
12.0
290
     0
  0
SCALE
  5
16CC
102
{ACAD_REACTORS
330
16BC
102
}
330
16BC
100
AcDbScale
 70
     0
300
6" = 1'-0"
140
6.0
141
12.0
290
     0
  0
SCALE
  5
16CD
102
{ACAD_REACTORS
330
16BC
102
}
330
16BC
100
AcDbScale
 70
     0
300
1'-0" = 1'-0"
140
12.0
141
12.0
290
     0
  0
TABLESTYLE
  5
15CD
102
{ACAD_XDICTIONARY
360
16E5
102
}
102
{ACAD_REACTORS
330
15CC
102
}
330
15CC
100
AcDbTableStyle
280
     0
  3
Standard
 70
     0
 71
     0
 40
0.06
 41
0.06
280
     0
281
     0
  7
STANDARD
140
0.18
170
     2
 62
     0
 63
     7
283
     0
 90
        4
 91
        0
  1

274
    -2
284
     1
 64
     0
275
    -2
285
     1
 65
     0
276
    -2
286
     1
 66
     0
277
    -2
287
     1
 67
     0
278
    -2
288
     1
 68
     0
279
    -2
289
     1
 69
     0
  7
STANDARD
140
0.25
170
     5
 62
     0
 63
     7
283
     0
 90
        4
 91
        0
  1

274
    -2
284
     1
 64
     0
275
    -2
285
     1
 65
     0
276
    -2
286
     1
 66
     0
277
    -2
287
     1
 67
     0
278
    -2
288
     1
 68
     0
279
    -2
289
     1
 69
     0
  7
STANDARD
140
0.18
170
     5
 62
     0
 63
     7
283
     0
 90
        4
 91
        0
  1

274
    -2
284
     1
 64
     0
275
    -2
285
     1
 65
     0
276
    -2
286
     1
 66
     0
277
    -2
287
     1
 67
     0
278
    -2
288
     1
 68
     0
279
    -2
289
     1
 69
     0
  0
VISUALSTYLE
  5
15EB
102
{ACAD_REACTORS
330
15E5
102
}
330
15E5
100
AcDbVisualStyle
  2
2dWireframe
 70
     4
177
     2
291
     0
 71
     0
176
     1
 72
     2
176
     1
 73
     0
176
     1
 90
        0
176
     1
 40
0.6
176
     1
 41
30.0
176
     1
 63
     7
421
 16777215
176
     1
 74
     1
176
     1
 91
        4
176
     1
 64
     7
176
     1
 65
   257
176
     1
 75
     1
176
     1
175
     1
176
     1
 42
1.0
176
     1
 92
        0
176
     1
 66
   257
176
     1
 43
1.0
176
     1
 76
     1
176
     1
 77
     6
176
     1
 78
     2
176
     1
 67
     7
176
     1
 79
     5
176
     1
170
     0
176
     1
171
     0
176
     1
290
     0
176
     1
 93
        1
176
     1
 44
0.0
176
     1
173
     0
176
     1
  0
VISUALSTYLE
  5
15ED
102
{ACAD_REACTORS
330
15E5
102
}
330
15E5
100
AcDbVisualStyle
  2
3D Hidden
 70
     6
177
     2
291
     0
 71
     1
176
     1
 72
     2
176
     1
 73
     2
176
     1
 90
        0
176
     1
 40
0.6
176
     1
 41
30.0
176
     1
 63
     7
421
 16777215
176
     1
 74
     2
176
     1
 91
        2
176
     1
 64
     7
176
     1
 65
   257
176
     1
 75
     2
176
     1
175
     1
176
     1
 42
40.0
176
     1
 92
        0
176
     1
 66
   257
176
     1
 43
1.0
176
     1
 76
     1
176
     1
 77
     6
176
     1
 78
     2
176
     1
 67
     7
176
     1
 79
     3
176
     1
170
     0
176
     1
171
     0
176
     1
290
     0
176
     1
 93
        1
176
     1
 44
0.0
176
     1
173
     0
176
     1
  0
VISUALSTYLE
  5
15EC
102
{ACAD_REACTORS
330
15E5
102
}
330
15E5
100
AcDbVisualStyle
  2
3dWireframe
 70
     5
177
     2
291
     0
 71
     0
176
     1
 72
     2
176
     1
 73
     0
176
     1
 90
        0
176
     1
 40
0.6
176
     1
 41
30.0
176
     1
 63
     7
421
 16777215
176
     1
 74
     1
176
     1
 91
        4
176
     1
 64
     7
176
     1
 65
   257
176
     1
 75
     1
176
     1
175
     1
176
     1
 42
1.0
176
     1
 92
        0
176
     1
 66
   257
176
     1
 43
1.0
176
     1
 76
     1
176
     1
 77
     6
176
     1
 78
     2
176
     1
 67
     7
176
     1
 79
     5
176
     1
170
     0
176
     1
171
     0
176
     1
290
     0
176
     1
 93
        1
176
     1
 44
0.0
176
     1
173
     0
176
     1
  0
VISUALSTYLE
  5
15EA
102
{ACAD_REACTORS
330
15E5
102
}
330
15E5
100
AcDbVisualStyle
  2
Basic
 70
     7
177
     2
291
     1
 71
     1
176
     1
 72
     0
176
     1
 73
     1
176
     1
 90
        0
176
     1
 40
0.6
176
     1
 41
30.0
176
     1
 63
     7
421
 16777215
176
     1
 74
     0
176
     1
 91
        4
176
     1
 64
     7
176
     1
 65
   257
176
     1
 75
     1
176
     1
175
     1
176
     1
 42
1.0
176
     1
 92
        8
176
     1
 66
     7
176
     1
 43
1.0
176
     1
 76
     1
176
     1
 77
     6
176
     1
 78
     2
176
     1
 67
     7
176
     1
 79
     5
176
     1
170
     0
176
     1
171
     0
176
     1
290
     0
176
     1
 93
        1
176
     1
 44
0.0
176
     1
173
     0
176
     1
  0
VISUALSTYLE
  5
15F1
102
{ACAD_REACTORS
330
15E5
102
}
330
15E5
100
AcDbVisualStyle
  2
Brighten
 70
    12
177
     2
291
     1
 71
     2
176
     1
 72
     2
176
     1
 73
     0
176
     1
 90
        0
176
     1
 40
0.6
176
     1
 41
30.0
176
     1
 63
     7
421
 16777215
176
     1
 74
     1
176
     1
 91
        4
176
     1
 64
     7
176
     1
 65
   257
176
     1
 75
     1
176
     1
175
     1
176
     1
 42
1.0
176
     1
 92
        8
176
     1
 66
     7
176
     1
 43
1.0
176
     1
 76
     1
176
     1
 77
     6
176
     1
 78
     2
176
     1
 67
     7
176
     1
 79
     5
176
     1
170
     0
176
     1
171
     0
176
     1
290
     0
176
     1
 93
        1
176
     1
 44
50.0
176
     1
173
     0
176
     1
  0
VISUALSTYLE
  5
15F5
102
{ACAD_REACTORS
330
15E5
102
}
330
15E5
100
AcDbVisualStyle
  2
ColorChange
 70
    16
177
     2
291
     1
 71
     2
176
     1
 72
     2
176
     1
 73
     3
176
     1
 90
        0
176
     1
 40
0.6
176
     1
 41
30.0
176
     1
 63
     8
421
  8421504
176
     1
 74
     1
176
     1
 91
        4
176
     1
 64
     7
176
     1
 65
   257
176
     1
 75
     1
176
     1
175
     1
176
     1
 42
1.0
176
     1
 92
        8
176
     1
 66
     8
424
  8421504
176
     1
 43
1.0
176
     1
 76
     1
176
     1
 77
     6
176
     1
 78
     2
176
     1
 67
     7
176
     1
 79
     5
176
     1
170
     0
176
     1
171
     0
176
     1
290
     0
176
     1
 93
        1
176
     1
 44
0.0
176
     1
173
     0
176
     1
  0
VISUALSTYLE
  5
15EE
102
{ACAD_REACTORS
330
15E5
102
}
330
15E5
100
AcDbVisualStyle
  2
Conceptual
 70
     9
177
     2
291
     0
 71
     3
176
     1
 72
     2
176
     1
 73
     0
176
     1
 90
        0
176
     1
 40
0.6
176
     1
 41
30.0
176
     1
 63
     7
421
 16777215
176
     1
 74
     2
176
     1
 91
        2
176
     1
 64
     7
176
     1
 65
   257
176
     1
 75
     1
176
     1
175
     1
176
     1
 42
40.0
176
     1
 92
        8
176
     1
 66
     7
176
     1
 43
1.0
176
     1
 76
     1
176
     1
 77
     6
176
     1
 78
     2
176
     1
 67
     7
176
     1
 79
     3
176
     1
170
     0
176
     1
171
     0
176
     1
290
     0
176
     1
 93
        1
176
     1
 44
0.0
176
     1
173
     0
176
     1
  0
VISUALSTYLE
  5
15F0
102
{ACAD_REACTORS
330
15E5
102
}
330
15E5
100
AcDbVisualStyle
  2
Dim
 70
    11
177
     2
291
     1
 71
     2
176
     1
 72
     2
176
     1
 73
     0
176
     1
 90
        0
176
     1
 40
0.6
176
     1
 41
30.0
176
     1
 63
     7
421
 16777215
176
     1
 74
     1
176
     1
 91
        4
176
     1
 64
     7
176
     1
 65
   257
176
     1
 75
     1
176
     1
175
     1
176
     1
 42
1.0
176
     1
 92
        8
176
     1
 66
     7
176
     1
 43
1.0
176
     1
 76
     1
176
     1
 77
     6
176
     1
 78
     2
176
     1
 67
     7
176
     1
 79
     5
176
     1
170
     0
176
     1
171
     0
176
     1
290
     0
176
     1
 93
        1
176
     1
 44
-50.0
176
     1
173
     0
176
     1
  0
VISUALSTYLE
  5
16BB
102
{ACAD_REACTORS
330
15E5
102
}
330
15E5
100
AcDbVisualStyle
  2
EdgeColorOff
 70
    22
177
     2
291
     1
 71
     2
176
     0
 72
     2
176
     0
 73
     0
176
     0
 90
        0
176
     0
 40
0.6
176
     0
 41
30.0
176
     0
 63
     7
421
 16777215
176
     0
 74
     1
176
     0
 91
        4
176
     0
 64
     7
176
     0
 65
   257
176
     0
 75
     1
176
     0
175
     1
176
     0
 42
1.0
176
     0
 92
        8
176
     2
 66
     7
176
     0
 43
1.0
176
     0
 76
     1
176
     0
 77
     6
176
     0
 78
     2
176
     0
 67
     7
176
     0
 79
     5
176
     0
170
     0
176
     0
171
     0
176
     0
290
     0
176
     0
 93
        1
176
     0
 44
0.0
176
     0
173
     0
176
     0
  0
VISUALSTYLE
  5
15F4
102
{ACAD_REACTORS
330
15E5
102
}
330
15E5
100
AcDbVisualStyle
  2
Facepattern
 70
    15
177
     2
291
     1
 71
     2
176
     1
 72
     2
176
     1
 73
     0
176
     1
 90
        0
176
     1
 40
0.6
176
     1
 41
30.0
176
     1
 63
     7
421
 16777215
176
     1
 74
     1
176
     1
 91
        4
176
     1
 64
     7
176
     1
 65
   257
176
     1
 75
     1
176
     1
175
     1
176
     1
 42
1.0
176
     1
 92
        8
176
     1
 66
     7
176
     1
 43
1.0
176
     1
 76
     1
176
     1
 77
     6
176
     1
 78
     2
176
     1
 67
     7
176
     1
 79
     5
176
     1
170
     0
176
     1
171
     0
176
     1
290
     0
176
     1
 93
        1
176
     1
 44
0.0
176
     1
173
     0
176
     1
  0
VISUALSTYLE
  5
15E6
102
{ACAD_REACTORS
330
15E5
102
}
330
15E5
100
AcDbVisualStyle
  2
Flat
 70
     0
177
     2
291
     1
 71
     2
176
     1
 72
     1
176
     1
 73
     1
176
     1
 90
        2
176
     1
 40
0.6
176
     1
 41
30.0
176
     1
 63
     7
421
 16777215
176
     1
 74
     0
176
     1
 91
        4
176
     1
 64
     7
176
     1
 65
   257
176
     1
 75
     1
176
     1
175
     1
176
     1
 42
1.0
176
     1
 92
        8
176
     1
 66
     7
176
     1
 43
1.0
176
     1
 76
     1
176
     1
 77
     6
176
     1
 78
     2
176
     1
 67
     7
176
     1
 79
     5
176
     1
170
     0
176
     1
171
     0
176
     1
290
     0
176
     1
 93
       13
176
     1
 44
0.0
176
     1
173
     0
176
     1
  0
VISUALSTYLE
  5
15E7
102
{ACAD_REACTORS
330
15E5
102
}
330
15E5
100
AcDbVisualStyle
  2
FlatWithEdges
 70
     1
177
     2
291
     1
 71
     2
176
     1
 72
     1
176
     1
 73
     1
176
     1
 90
        2
176
     1
 40
0.6
176
     1
 41
30.0
176
     1
 63
     7
421
 16777215
176
     1
 74
     1
176
     1
 91
        4
176
     1
 64
     7
176
     1
 65
   257
176
     1
 75
     1
176
     1
175
     1
176
     1
 42
1.0
176
     1
 92
        0
176
     1
 66
   257
176
     1
 43
1.0
176
     1
 76
     1
176
     1
 77
     6
176
     1
 78
     2
176
     1
 67
     7
176
     1
 79
     5
176
     1
170
     0
176
     1
171
     0
176
     1
290
     0
176
     1
 93
       13
176
     1
 44
0.0
176
     1
173
     0
176
     1
  0
VISUALSTYLE
  5
15E8
102
{ACAD_REACTORS
330
15E5
102
}
330
15E5
100
AcDbVisualStyle
  2
Gouraud
 70
     2
177
     2
291
     1
 71
     2
176
     1
 72
     2
176
     1
 73
     1
176
     1
 90
        2
176
     1
 40
0.6
176
     1
 41
30.0
176
     1
 63
     7
421
 16777215
176
     1
 74
     0
176
     1
 91
        4
176
     1
 64
     7
176
     1
 65
   257
176
     1
 75
     1
176
     1
175
     1
176
     1
 42
1.0
176
     1
 92
        0
176
     1
 66
     7
176
     1
 43
1.0
176
     1
 76
     1
176
     1
 77
     6
176
     1
 78
     2
176
     1
 67
     7
176
     1
 79
     5
176
     1
170
     0
176
     1
171
     0
176
     1
290
     0
176
     1
 93
       13
176
     1
 44
0.0
176
     1
173
     0
176
     1
  0
VISUALSTYLE
  5
15E9
102
{ACAD_REACTORS
330
15E5
102
}
330
15E5
100
AcDbVisualStyle
  2
GouraudWithEdges
 70
     3
177
     2
291
     1
 71
     2
176
     1
 72
     2
176
     1
 73
     1
176
     1
 90
        2
176
     1
 40
0.6
176
     1
 41
30.0
176
     1
 63
     7
421
 16777215
176
     1
 74
     1
176
     1
 91
        4
176
     1
 64
     7
176
     1
 65
   257
176
     1
 75
     1
176
     1
175
     1
176
     1
 42
1.0
176
     1
 92
        0
176
     1
 66
   257
176
     1
 43
1.0
176
     1
 76
     1
176
     1
 77
     6
176
     1
 78
     2
176
     1
 67
     7
176
     1
 79
     5
176
     1
170
     0
176
     1
171
     0
176
     1
290
     0
176
     1
 93
       13
176
     1
 44
0.0
176
     1
173
     0
176
     1
  0
VISUALSTYLE
  5
16B3
102
{ACAD_REACTORS
330
15E5
102
}
330
15E5
100
AcDbVisualStyle
  2
Hidden
 70
     6
177
     2
291
     0
 71
     1
176
     1
 72
     2
176
     1
 73
     2
176
     1
 90
        0
176
     1
 40
0.6
176
     1
 41
30.0
176
     1
 63
     7
421
 16777215
176
     1
 74
     2
176
     1
 91
        2
176
     1
 64
     7
176
     1
 65
   257
176
     1
 75
     2
176
     1
175
     1
176
     1
 42
40.0
176
     1
 92
        0
176
     1
 66
   257
176
     1
 43
1.0
176
     1
 76
     1
176
     1
 77
     6
176
     1
 78
     2
176
     1
 67
     7
176
     1
 79
     3
176
     1
170
     0
176
     1
171
     0
176
     1
290
     0
176
     1
 93
        1
176
     1
 44
0.0
176
     1
173
     0
176
     1
  0
VISUALSTYLE
  5
16B9
102
{ACAD_REACTORS
330
15E5
102
}
330
15E5
100
AcDbVisualStyle
  2
JitterOff
 70
    20
177
     2
291
     1
 71
     2
176
     0
 72
     2
176
     0
 73
     0
176
     0
 90
        0
176
     0
 40
0.6
176
     0
 41
30.0
176
     0
 63
     7
421
 16777215
176
     0
 74
     1
176
     0
 91
        4
176
     0
 64
     7
176
     0
 65
   257
176
     0
 75
     1
176
     0
175
     1
176
     0
 42
1.0
176
     0
 92
       10
176
     2
 66
     7
176
     0
 43
1.0
176
     0
 76
     1
176
     0
 77
     6
176
     0
 78
     2
176
     0
 67
     7
176
     0
 79
     5
176
     0
170
     0
176
     0
171
     0
176
     0
290
     0
176
     0
 93
        1
176
     0
 44
0.0
176
     0
173
     0
176
     0
  0
VISUALSTYLE
  5
15F3
102
{ACAD_REACTORS
330
15E5
102
}
330
15E5
100
AcDbVisualStyle
  2
Linepattern
 70
    14
177
     2
291
     1
 71
     2
176
     1
 72
     2
176
     1
 73
     0
176
     1
 90
        0
176
     1
 40
0.6
176
     1
 41
30.0
176
     1
 63
     7
421
 16777215
176
     1
 74
     1
176
     1
 91
        4
176
     1
 64
     7
176
     1
 65
   257
176
     1
 75
     7
176
     1
175
     7
176
     1
 42
1.0
176
     1
 92
        8
176
     1
 66
     7
176
     1
 43
1.0
176
     1
 76
     1
176
     1
 77
     6
176
     1
 78
     2
176
     1
 67
     7
176
     1
 79
     5
176
     1
170
     0
176
     1
171
     0
176
     1
290
     0
176
     1
 93
        1
176
     1
 44
0.0
176
     1
173
     0
176
     1
  0
VISUALSTYLE
  5
16BA
102
{ACAD_REACTORS
330
15E5
102
}
330
15E5
100
AcDbVisualStyle
  2
OverhangOff
 70
    21
177
     2
291
     1
 71
     2
176
     0
 72
     2
176
     0
 73
     0
176
     0
 90
        0
176
     0
 40
0.6
176
     0
 41
30.0
176
     0
 63
     7
421
 16777215
176
     0
 74
     1
176
     0
 91
        4
176
     0
 64
     7
176
     0
 65
   257
176
     0
 75
     1
176
     0
175
     1
176
     0
 42
1.0
176
     0
 92
        9
176
     2
 66
     7
176
     0
 43
1.0
176
     0
 76
     1
176
     0
 77
     6
176
     0
 78
     2
176
     0
 67
     7
176
     0
 79
     5
176
     0
170
     0
176
     0
171
     0
176
     0
290
     0
176
     0
 93
        1
176
     0
 44
0.0
176
     0
173
     0
176
     0
  0
VISUALSTYLE
  5
15EF
102
{ACAD_REACTORS
330
15E5
102
}
330
15E5
100
AcDbVisualStyle
  2
Realistic
 70
     8
177
     2
291
     0
 71
     2
176
     1
 72
     2
176
     1
 73
     0
176
     1
 90
        0
176
     1
 40
0.6
176
     1
 41
30.0
176
     1
 63
     7
421
 16777215
176
     1
 74
     1
176
     1
 91
        0
176
     1
 64
     7
176
     1
 65
   257
176
     1
 75
     1
176
     1
175
     1
176
     1
 42
1.0
176
     1
 92
        8
176
     1
 66
     8
424
  7895160
176
     1
 43
1.0
176
     1
 76
     1
176
     1
 77
     6
176
     1
 78
     2
176
     1
 67
     7
176
     1
 79
     5
176
     1
170
     0
176
     1
171
     0
176
     1
290
     0
176
     1
 93
       13
176
     1
 44
0.0
176
     1
173
     0
176
     1
  0
VISUALSTYLE
  5
16B8
102
{ACAD_REACTORS
330
15E5
102
}
330
15E5
100
AcDbVisualStyle
  2
Shaded
 70
    27
177
     2
291
     0
 71
     2
176
     1
 72
     2
176
     1
 73
     1
176
     1
 90
        2
176
     1
 40
0.6
176
     1
 41
30.0
176
     1
 63
     7
421
 16777215
176
     1
 74
     0
176
     1
 91
        4
176
     1
 64
     7
176
     1
 65
   257
176
     1
 75
     1
176
     1
175
     1
176
     1
 42
1.0
176
     1
 92
        8
176
     1
 66
   257
176
     1
 43
1.0
176
     1
 76
     1
176
     1
 77
     6
176
     1
 78
     2
176
     1
 67
     8
425
  7895160
176
     1
 79
     3
176
     1
170
     0
176
     1
171
     0
176
     1
290
     0
176
     1
 93
        5
176
     1
 44
0.0
176
     1
173
     0
176
     1
  0
VISUALSTYLE
  5
16B7
102
{ACAD_REACTORS
330
15E5
102
}
330
15E5
100
AcDbVisualStyle
  2
Shaded with edges
 70
    26
177
     2
291
     0
 71
     2
176
     1
 72
     2
176
     1
 73
     1
176
     1
 90
        2
176
     1
 40
0.6
176
     1
 41
30.0
176
     1
 63
     7
421
 16777215
176
     1
 74
     1
176
     1
 91
       10
176
     1
 64
     7
176
     1
 65
   257
176
     1
 75
     2
176
     1
175
     1
176
     1
 42
1.0
176
     1
 92
        8
176
     1
 66
   257
176
     1
 43
1.0
176
     1
 76
     1
176
     1
 77
     6
176
     1
 78
     2
176
     1
 67
     7
176
     1
 79
     3
176
     1
170
     0
176
     1
171
     0
176
     1
290
     0
176
     1
 93
        5
176
     1
 44
0.0
176
     1
173
     0
176
     1
  0
VISUALSTYLE
  5
16B4
102
{ACAD_REACTORS
330
15E5
102
}
330
15E5
100
AcDbVisualStyle
  2
Shades of Gray
 70
    23
177
     2
291
     0
 71
     2
176
     1
 72
     2
176
     1
 73
     3
176
     1
 90
        0
176
     1
 40
0.6
176
     1
 41
30.0
176
     1
 63
     7
421
 16777215
176
     1
 74
     2
176
     1
 91
        2
176
     1
 64
     7
176
     1
 65
     7
176
     1
 75
     1
176
     1
175
     1
176
     1
 42
40.0
176
     1
 92
        8
176
     1
 66
     7
176
     1
 43
1.0
176
     1
 76
     1
176
     1
 77
     6
176
     1
 78
     2
176
     1
 67
     7
176
     1
 79
     3
176
     1
170
     0
176
     1
171
     0
176
     1
290
     0
176
     1
 93
        1
176
     1
 44
0.0
176
     1
173
     0
176
     1
  0
VISUALSTYLE
  5
16B5
102
{ACAD_REACTORS
330
15E5
102
}
330
15E5
100
AcDbVisualStyle
  2
Sketchy
 70
    24
177
     2
291
     0
 71
     1
176
     1
 72
     2
176
     1
 73
     2
176
     1
 90
        0
176
     1
 40
0.6
176
     1
 41
30.0
176
     1
 63
     7
421
 16777215
176
     1
 74
     2
176
     1
 91
        2
176
     1
 64
     7
176
     1
 65
     7
176
     1
 75
     1
176
     1
175
     1
176
     1
 42
40.0
176
     1
 92
       11
176
     1
 66
     7
176
     1
 43
1.0
176
     1
 76
     1
176
     1
 77
     6
176
     1
 78
     2
176
     1
 67
     7
176
     1
 79
     6
176
     1
170
     0
176
     1
171
     0
176
     1
290
     0
176
     1
 93
        1
176
     1
 44
0.0
176
     1
173
     0
176
     1
  0
VISUALSTYLE
  5
15F2
102
{ACAD_REACTORS
330
15E5
102
}
330
15E5
100
AcDbVisualStyle
  2
Thicken
 70
    13
177
     2
291
     1
 71
     2
176
     1
 72
     2
176
     1
 73
     0
176
     1
 90
        0
176
     1
 40
0.6
176
     1
 41
30.0
176
     1
 63
     7
421
 16777215
176
     1
 74
     1
176
     1
 91
        4
176
     1
 64
     7
176
     1
 65
   257
176
     1
 75
     1
176
     1
175
     1
176
     1
 42
1.0
176
     1
 92
       12
176
     1
 66
     7
176
     1
 43
1.0
176
     1
 76
     1
176
     1
 77
     6
176
     1
 78
     2
176
     1
 67
     7
176
     1
 79
     5
176
     1
170
     0
176
     1
171
     0
176
     1
290
     0
176
     1
 93
        1
176
     1
 44
0.0
176
     1
173
     0
176
     1
  0
VISUALSTYLE
  5
16B2
102
{ACAD_REACTORS
330
15E5
102
}
330
15E5
100
AcDbVisualStyle
  2
Wireframe
 70
     5
177
     2
291
     0
 71
     0
176
     1
 72
     2
176
     1
 73
     0
176
     1
 90
        0
176
     1
 40
0.6
176
     1
 41
30.0
176
     1
 63
     7
421
 16777215
176
     1
 74
     1
176
     1
 91
        4
176
     1
 64
     7
176
     1
 65
   257
176
     1
 75
     1
176
     1
175
     1
176
     1
 42
1.0
176
     1
 92
        0
176
     1
 66
   257
176
     1
 43
1.0
176
     1
 76
     1
176
     1
 77
     6
176
     1
 78
     2
176
     1
 67
     7
176
     1
 79
     3
176
     1
170
     0
176
     1
171
     0
176
     1
290
     0
176
     1
 93
        1
176
     1
 44
0.0
176
     1
173
     0
176
     1
  0
VISUALSTYLE
  5
16B6
102
{ACAD_REACTORS
330
15E5
102
}
330
15E5
100
AcDbVisualStyle
  2
X-Ray
 70
    25
177
     2
291
     0
 71
     2
176
     1
 72
     2
176
     1
 73
     1
176
     1
 90
        1
176
     1
 40
0.5
176
     1
 41
30.0
176
     1
 63
     7
421
 16777215
176
     1
 74
     1
176
     1
 91
        0
176
     1
 64
     7
176
     1
 65
   257
176
     1
 75
     1
176
     1
175
     1
176
     1
 42
1.0
176
     1
 92
        8
176
     1
 66
     7
176
     1
 43
1.0
176
     1
 76
     1
176
     1
 77
     6
176
     1
 78
     2
176
     1
 67
     7
176
     1
 79
     3
176
     1
170
     0
176
     1
171
     0
176
     1
290
     0
176
     1
 93
       13
176
     1
 44
0.0
176
     1
173
     0
176
     1
  0
DICTIONARYVAR
  5
16E1
102
{ACAD_REACTORS
330
15C8
102
}
330
15C8
100
DictionaryVariables
280
     0
  1
1:1
  0
DICTIONARYVAR
  5
16DF
102
{ACAD_REACTORS
330
15C8
102
}
330
15C8
100
DictionaryVariables
280
     0
  1
STANDARD
  0
DICTIONARYVAR
  5
15E0
102
{ACAD_REACTORS
330
15C8
102
}
330
15C8
100
DictionaryVariables
280
     0
  1
STANDARD
  0
DICTIONARYVAR
  5
15C9
102
{ACAD_REACTORS
330
15C8
102
}
330
15C8
100
DictionaryVariables
280
     0
  1
1
  0
DICTIONARYVAR
  5
16E3
102
{ACAD_REACTORS
330
15C8
102
}
330
15C8
100
DictionaryVariables
280
     0
  1
1
  0
DICTIONARYVAR
  5
16E4
102
{ACAD_REACTORS
330
15C8
102
}
330
15C8
100
DictionaryVariables
280
     0
  1
15
  0
DICTIONARYVAR
  5
16E2
102
{ACAD_REACTORS
330
15C8
102
}
330
15C8
100
DictionaryVariables
280
     0
  1
0
  0
DICTIONARYVAR
  5
16E0
102
{ACAD_REACTORS
330
15C8
102
}
330
15C8
100
DictionaryVariables
280
     0
  1
0
  0
DICTIONARYVAR
  5
15CA
102
{ACAD_REACTORS
330
15C8
102
}
330
15C8
100
DictionaryVariables
280
     0
  1

  0
ACAD_PROXY_OBJECT
  5
1655
102
{ACAD_REACTORS
330
1654
102
}
330
1654
100
AcDbProxyObject
 90
      499
 91
      549
 95
    65563
 70
     0
162
                 0
161
                84
310
90100057356C1D8C406AAC
 94
        0
  0
DICTIONARY
  5
165F
102
{ACAD_REACTORS
330
1654
102
}
330
1654
100
AcDbDictionary
281
     1
  3
ANSI
350
1660
  0
XRECORD
  5
167F
102
{ACAD_REACTORS
330
1654
102
}
330
1654
100
AcDbXrecord
280
     1
 90
-1023410169
  0
ACAD_PROXY_OBJECT
  5
1605
330
0
100
AcDbProxyObject
 90
      499
 91
      512
 95
    65563
 70
     0
162
               234
311
43904010C01340114014C016401340108013C0130014C01240168011400C
161
                34
310
000101420C
330
1602
 94
        0
  0
ACAD_PROXY_OBJECT
  5
1607
330
0
100
AcDbProxyObject
 90
      499
 91
      514
 95
    65563
 70
     0
162
                74
311
41108013C013400C400C
161
                46
310
00010100AC00
330
1602
330
0
330
0
 94
        0
  0
ACAD_PROXY_OBJECT
  5
160D
330
0
100
AcDbProxyObject
 90
      499
 91
      520
 95
    65563
 70
     0
162
               562
311
41190018401D001940109310031002E0030002E00360032002E00300041190018401D001940109310031002E0030002E00360032002E003000419040138014C012400CC00C400C
161
                92
310
00010101010140501000096C
330
1602
330
160E
330
1612
 94
        0
  0
ACAD_PROXY_OBJECT
  5
160E
330
0
100
AcDbProxyObject
 90
      499
 91
      521
 95
    65563
 70
     0
162
                 0
161
                48
310
00019014220000
330
1602
330
160F
 94
        0
  0
ACAD_PROXY_OBJECT
  5
160F
330
0
100
AcDbProxyObject
 90
      499
 91
      522
 95
    65563
 70
     0
162
                 0
161
                48
310
0001AA0000004E
330
1602
330
15BB
330
1610
330
0
 94
        0
  0
ACAD_PROXY_OBJECT
  5
1610
330
0
100
AcDbProxyObject
 90
      499
 91
      523
 95
    65563
 70
     0
162
                 0
161
                28
310
0001AAAC
330
1602
 94
        0
  0
ACAD_PROXY_OBJECT
  5
1613
330
0
100
AcDbProxyObject
 90
      499
 91
      512
 95
    65563
 70
     0
162
               138
311
42104013401200130010C01040130010C00C
161
                34
310
000101404C
330
1602
 94
        0
  0
ACAD_PROXY_OBJECT
  5
1614
330
0
100
AcDbProxyObject
 90
      499
 91
      512
 95
    65563
 70
     0
162
               170
311
429040134014801140154014C011401100124013400C
161
                34
310
000101404C
330
1602
 94
        0
  0
ACAD_PROXY_OBJECT
  5
1615
330
0
100
AcDbProxyObject
 90
      499
 91
      512
 95
    65563
 70
     0
162
               202
311
431040134014C0114010C01500124013C013801100124013400C
161
                26
310
0001018C
330
1602
 94
        0
  0
ACAD_PROXY_OBJECT
  5
1616
330
0
100
AcDbProxyObject
 90
      499
 91
      512
 95
    65563
 70
     0
162
               170
311
429040134015801400108013C014801100114014800C
161
                34
310
000101404C
330
1602
 94
        0
  0
ACAD_PROXY_OBJECT
  5
1617
330
0
100
AcDbProxyObject
 90
      499
 91
      512
 95
    65563
 70
     0
162
               170
311
4290401340110015C011C010C013C0130013C014800C
161
                26
310
0001018C
330
1602
 94
        0
  0
ACAD_PROXY_OBJECT
  5
1618
330
0
100
AcDbProxyObject
 90
      499
 91
      512
 95
    65563
 70
     0
162
               218
311
435040134015801240114015C01480114011801480114014C012000C
161
                34
310
000101404C
330
1602
 94
        0
  0
ACAD_PROXY_OBJECT
  5
1619
330
0
100
AcDbProxyObject
 90
      499
 91
      512
 95
    65563
 70
     0
162
               266
311
441040134010401380138013C01500114014001480114014C011401480158011400C
161
                34
310
000101404C
330
1602
 94
        0
  0
ACAD_PROXY_OBJECT
  5
161A
330
0
100
AcDbProxyObject
 90
      499
 91
      512
 95
    65563
 70
     0
162
               266
311
441040134010401540150013C01100124013401040148014801040138011C011400C
161
                34
310
000101404C
330
1602
 94
        0
  0
ACAD_PROXY_OBJECT
  5
161B
330
0
100
AcDbProxyObject
 90
      499
 91
      512
 95
    65563
 70
     0
162
               186
311
42D04013401140160015001480114011801100124013400C
161
                26
310
0001018C
330
1602
 94
        0
  0
ACAD_PROXY_OBJECT
  5
161C
330
0
100
AcDbProxyObject
 90
      499
 91
      512
 95
    65563
 70
     0
162
               186
311
42D040134015001040140010401380138013C0150011400C
161
                34
310
000101404C
330
1602
 94
        0
  0
ACAD_PROXY_OBJECT
  5
161D
330
0
100
AcDbProxyObject
 90
      499
 91
      512
 95
    65563
 70
     0
162
               138
311
421040134010401540150013C010C013000C
161
                34
310
000101404C
330
1602
 94
        0
  0
ACAD_PROXY_OBJECT
  5
161E
330
0
100
AcDbProxyObject
 90
      499
 91
      512
 95
    65563
 70
     0
162
               138
311
421040134010C0130011801140104015000C
161
                34
310
000101414C
330
1602
 94
        0
  0
ACAD_PROXY_OBJECT
  5
161F
330
0
100
AcDbProxyObject
 90
      499
 91
      512
 95
    65563
 70
     0
162
               138
311
421040134010C0130015801240114015C00C
161
                34
310
0001014FCC
330
1602
 94
        0
  0
ACAD_PROXY_OBJECT
  5
1620
330
0
100
AcDbProxyObject
 90
      499
 91
      512
 95
    65563
 70
     0
162
               218
311
4350401340120012401100114016801140148013C01100124013400C
161
                34
310
000101404C
330
1602
 94
        0
  0
ACAD_PROXY_OBJECT
  5
1621
330
0
100
AcDbProxyObject
 90
      499
 91
      512
 95
    65563
 70
     0
162
               170
311
429040134012001040150010C01200124014C013C00C
161
                34
310
000101404C
330
1602
 94
        0
  0
ACAD_PROXY_OBJECT
  5
1622
330
0
100
AcDbProxyObject
 90
      499
 91
      512
 95
    65563
 70
     0
162
               234
311
439040134014C01240138011C0130011401200104015001300104016400C
161
                26
310
0001018C
330
1602
 94
        0
  0
ACAD_PROXY_OBJECT
  5
1623
330
0
100
AcDbProxyObject
 90
      499
 91
      512
 95
    65563
 70
     0
162
               186
311
42D0401340110015C011C0118013001100124014C014000C
161
                26
310
0001018C
330
1602
 94
        0
  0
ACAD_PROXY_OBJECT
  5
1624
330
0
100
AcDbProxyObject
 90
      499
 91
      512
 95
    65563
 70
     0
162
               138
311
421040134010401540150013C0120013800C
161
                26
310
0001018C
330
1602
 94
        0
  0
ACAD_PROXY_OBJECT
  5
1625
330
0
100
AcDbProxyObject
 90
      499
 91
      512
 95
    65563
 70
     0
162
               154
311
42504013401200138010C013C01540138015000C
161
                34
310
000101404C
330
1602
 94
        0
  0
ACAD_PROXY_OBJECT
  5
1626
330
0
100
AcDbProxyObject
 90
      499
 91
      512
 95
    65563
 70
     0
162
               138
311
4210401340120013801400148013C012800C
161
                34
310
000101404C
330
1602
 94
        0
  0
ACAD_PROXY_OBJECT
  5
1627
330
0
100
AcDbProxyObject
 90
      499
 91
      512
 95
    65563
 70
     0
162
               138
311
42104013401200138015001640140011400C
161
                34
310
00010141CC
330
1602
 94
        0
  0
ACAD_PROXY_OBJECT
  5
1628
330
0
100
AcDbProxyObject
 90
      499
 91
      512
 95
    65563
 70
     0
162
               138
311
42104013401200138015801240114015C00C
161
                34
310
00010143CC
330
1602
 94
        0
  0
ACAD_PROXY_OBJECT
  5
1629
330
0
100
AcDbProxyObject
 90
      499
 91
      512
 95
    65563
 70
     0
162
               218
311
435040134014C0114010C01500124013C0138010C013C0140016400C
161
                26
310
0001018C
330
1602
 94
        0
  0
ACAD_PROXY_OBJECT
  5
162A
330
0
100
AcDbProxyObject
 90
      499
 91
      512
 95
    65563
 70
     0
162
               138
311
421040134010C013001400148013C012800C
161
                34
310
00010140CC
330
1602
 94
        0
  0
ACAD_PROXY_OBJECT
  5
162B
330
0
100
AcDbProxyObject
 90
      499
 91
      524
 95
    65563
 70
     0
162
               234
311
439040134010401540150013C012001040150010C01200148013C015000C
161
                90
310
0001010000000000000B900C
330
1602
 94
        0
  0
ACAD_PROXY_OBJECT
  5
162C
330
0
100
AcDbProxyObject
 90
      499
 91
      512
 95
    65563
 70
     0
162
               234
311
439040134010401540150013C012001040150010C012001100114015000C
161
                34
310
000101404C
330
1602
 94
        0
  0
ACAD_PROXY_OBJECT
  5
1639
330
0
100
AcDbProxyObject
 90
      499
 91
      533
 95
    65563
 70
     0
162
               212
311
421040134010C01540148014C01500110010441004E0053004900C
161
                32
310
0001010100
330
1602
 94
        0
  0
ACAD_PROXY_OBJECT
  5
163B
330
0
100
AcDbProxyObject
 90
      499
 91
      535
 95
    65563
 70
     0
162
              1192
311
4795C0194019000800128018401B8008000C800CC008000C800C400E800C400C400E800C000D4008000C800C000C000E0008000A001540150010C00A40109310031002E0030002E00360032002E0030004615C0194019000800128018401B8008000C800CC008000C400D800E800C400D400E800D400C4008000C800C000C0
311
00E00109310031002E0030002E00360032002E00300000
161
               114
310
0001000000009AA6A9AA404040404C
330
1602
330
163C
330
163D
330
163F
330
0
 94
        0
  0
ACAD_PROXY_OBJECT
  5
163C
330
0
100
AcDbProxyObject
 90
      499
 91
      536
 95
    65563
 70
     0
162
                 0
161
                70
310
0001AAA80820000000
330
1602
330
163C
330
163C
 94
        0
  0
ACAD_PROXY_OBJECT
  5
163D
330
0
100
AcDbProxyObject
 90
      499
 91
      537
 95
    65563
 70
     0
162
                 0
161
                48
310
00010000000037
330
1602
330
0
330
163E
330
0
330
0
 94
        0
  0
ACAD_PROXY_OBJECT
  5
163E
330
0
100
AcDbProxyObject
 90
      499
 91
      538
 95
    65563
 70
     0
162
                 0
161
                40
310
000100AAAA00
330
1602
330
0
 94
        0
  0
ACAD_PROXY_OBJECT
  5
1644
330
0
100
AcDbProxyObject
 90
      499
 91
      533
 95
    65563
 70
     0
162
               276
311
431040104010C013C01340140011001180138010401340114010443004F004D005000C
161
                32
310
0001010100
330
1602
 94
        0
  0
ACAD_PROXY_OBJECT
  5
1645
330
0
100
AcDbProxyObject
 90
      499
 91
      533
 95
    65563
 70
     0
162
               340
311
4390401040118013C0130011001140148011001180138010401340114010646006F006C00640065007200C
161
                32
310
0001010100
330
1602
 94
        0
  0
ACAD_PROXY_OBJECT
  5
1646
330
0
100
AcDbProxyObject
 90
      499
 91
      533
 95
    65563
 70
     0
162
               276
311
431040104010401380138013C01100118013801040134011401042800410056002900C
161
                32
310
0001010100
330
1602
 94
        0
  0
ACAD_PROXY_OBJECT
  5
1647
330
0
100
AcDbProxyObject
 90
      499
 91
      533
 95
    65563
 70
     0
162
               756
311
439040104010C013C01340140015801240114015C01300124014C0150012054006F0070000A00460072006F006E0074000A00520069006700680074000A004C006500660074000A0042006F00740074006F006D000A004100750078003100C
161
                32
310
0001010100
330
1602
 94
        0
  0
ACAD_PROXY_OBJECT
  5
1648
330
0
100
AcDbProxyObject
 90
      499
 91
      512
 95
    65563
 70
     0
162
               234
311
439040134014C014C0150014801040130015C01040164014C013C013800C
161
                26
310
0001018C
330
1602
 94
        0
  0
ACAD_PROXY_OBJECT
  5
164D
330
0
100
AcDbProxyObject
 90
      499
 91
      543
 95
    65563
 70
     0
162
                 0
161
                32
310
0001000000
330
1602
340
164A
330
164F
330
164A
 94
        0
  0
ACAD_PROXY_OBJECT
  5
164E
330
0
100
AcDbProxyObject
 90
      499
 91
      544
 95
    65563
 70
     0
162
                 0
161
                18
310
00018C
330
1602
 94
        0
  0
ACAD_PROXY_OBJECT
  5
164F
330
0
100
AcDbProxyObject
 90
      499
 91
      545
 95
    65563
 70
     0
162
                74
311
4111800E400D800CC00C
161
                80
310
00010141401550055400FF
330
1602
330
164D
330
164E
 94
        0
  0
ACAD_PROXY_OBJECT
  5
1650
330
0
100
AcDbProxyObject
 90
      499
 91
      546
 95
    65563
 70
     0
162
                 0
161
               178
310
000100AAAAAAAD7EF4C9501EE553AE1F802C176376CFCC
330
1602
330
164F
 94
        0
  0
ACAD_PROXY_OBJECT
  5
1651
330
0
100
AcDbProxyObject
 90
      499
 91
      547
 95
    65563
 70
     0
162
                 0
161
               108
310
0001901422000000000000AAAAAC
330
1602
330
1652
330
1652
330
1652
330
1652
330
1652
330
0
 94
        0
  0
ACAD_PROXY_OBJECT
  5
1652
330
0
100
AcDbProxyObject
 90
      499
 91
      548
 95
    65563
 70
     0
162
                 0
161
                51
310
00010000AAAA8C
330
1602
330
1651
330
164F
 94
        0
  0
DICTIONARY
  5
15FC
102
{ACAD_REACTORS
330
15FB
102
}
330
15FB
100
AcDbDictionary
281
     1
  3
DWGSETTINGS
350
15FD
  3
TRANSSETTINGS
350
15FE
  0
ACAD_PROXY_OBJECT
  5
1661
102
{ACAD_REACTORS
330
15FB
102
}
330
15FB
100
AcDbProxyObject
 90
      499
 91
      556
 95
    65563
 70
     0
162
             15824
311
404C0010441004D005F0030009013100411040134017C00C402404C8010441004D005F0032009013300411040134017C00CC02404D0010441004D005F0034009013500411040134017C00D402404D8010441004D005F0036009013700411040134017C00DC02404E0010441004D005F0038009013900411040134017C00E40
311
2408C80104010541004D005F003100300090234004100415040134017C00C400C402409240140010541004D005F003100320090230004E00415040134017C00C0013802408C40138010541004D005F0031004E0090232004E00415040134017C00C8013802408CC0138010541004D005F0033004E0090234004E0041504013
311
4017C00D0013802408D40138010541004D005F0035004E0090236004E00415040134017C00D8013802408DC0138010541004D005F0037004E0090238004E00415040134017C00E0013802408E40138010541004D005F0039004E00903320041004E00419040134017C00C400C001380240CD001040138010641004D005F003
311
10031004E00903490050004E00419040134017C00C400C80138024112C013001240138010541004D005F0043004C0090449004E0046004F00421040134017C01400104014801140118024154801040120013400D4010641004D005F0042004F0052009045600490045005700421040134017C015801240114015C014C02419
311
0801140120012401380110010641004D005F0049004E00560090554005200410049004C00415040134017C015001480240D2001240110010641004D005F00480049004400903560049005300419040134017C01580124014C024194001040148011001240134010941004D005F00500041005200440049004D009065200450
311
04600440049004D00425040134017C01480114011801100124013402411080120013801580101390041508012001380158014C010642004500480049004E00440041108013C014800C801055200410048004D00350041108013C014800CC01055200410048004D00350041108013C014800D401055200410048004D0035004
311
110C0104013000C8010134004110C0104013000CC010134004110C0104013000D4010134004110C0104013000DC010134004110C011401380138010137004110C01140138015C010137004110C01300124013801044B004C0049004E004110C013C013800C4010130004110C013C013800C8010131004110C013C013800CC0
311
10132004110C013C013800D00101320041110011401500104010134004111001240104011C010135004111001240130012401013500411100124013401400106500041005200440049004D00411100124013401480106520045004600440049004D00411180114013401380101380041518011401340140013801013800415
311
1801140134014C01400102340041004151801140134014C015001023400410041518011401340158013801013200415180114013401580150010132004112001040150010C0101380041120012401100138010133004112001240110015C01013300411200130012401380101340041120013C010C01380101370041120013
311
C010C015C010137004112401380118013C010449004E0046004F00411300114010401100101350041938017C0108012001380158010239004E0041938017C010C013C013800C4010230004E0041938017C010C013C013800C8010231004E0041938017C010C013C013800CC010232004E0041938017C010C013C013800D001
311
0232004E0041938017C010C011401380138010237004E0041938017C010C01140138015C010237004E0041938017C0110012401300124010235004E0041938017C012001040150010C010238004E0041938017C0120012401100138010233004E0041938017C012001240110015C010233004E0041938017C0130011401040
311
110010235004E0041938017C0138011C012401400103490050004E0041938017C01400120010401380103340041004E0041938017C0150010C013C0138010230004E0041938017C0150012001300124010234004E0041938017C0150013001140138010230004E0041938017C01580140013001240103320041004E0041138
311
011C01240140010249005000411400104013000C801055200410048004D003500411400104013000CC01055200410048004D003500411400104013000D401055200410048004D0035004114001200104013801023400410041140013C014C01380101350041148010C011C01380101370041148010C011C015C01013700411
311
4C01080148012C010134004114C0114010C0150010134004114C0164010800CC0101350041134014C016401340101350041150010C013C0138010130004115001200130012401013400411500124015000C801055200410048004D003500411500124015000CC01055200410048004D003500411500124015000D401055200
311
410048004D0035004115001300114013801013000415500148010401240130010554005200410049004C004115001480130012401013400411500160015000C401013600411500160015000C801013600411500160015000CC01013600411500160015000D401013600411500160015000DC010136004115801240114015C0
311
1045600490045005700411580114011001200103480049004400411580114011001580103560049005300411580140013001240102320041004116801240168010401013400404FC0230
161
              8848
310
4190349201C00030C011E44203800030C011E44201400030C011E44201800030C010FA00C00030C010FA00C00030C010FA00800030C011EA01000030C010FA00400030C010FA3F400030C0241201C00030C011EA00C00030C010FA01C00030C011E40A01C00030C011EA03800030C011EA01400030C011EA01800030C010FA
310
00C00030C010FA00C00030C010FA00800030C011EA01000030C010FA00400030C010FA3F400030C0241201C00030C011EA00C00030C010FA01C00030C011E40A00400030C010F42601000030C010F42E01C00030C011E42600400030C010F42E3F400030C0243600C00030C010F42601C00030C010F42601C00030C011E426
310
00C00030C010F42601000030C010F425538000000C0003FFFFFFFE8000000C0003FFFFFFFE8010000C30043E8020000C30047A8000000C0003FFFFFFFE8000000C0003FFFFFFFE8020000C30047A8070000C30047A81E0000C3004F28000000C0003FFFFFFFE8000000C0003FFFFFFFE8000000C0003FFFFFFFE8000000C00
310
03FFFFFFFD038000000C0003FFFFFFFD038000000C0003FFFFFFFD038000000C0003FFFFFFFD038000000C0003FFFFFFFE8000000C0003FFFFFFFE8000000C0003FFFFFFFE8000000C0003FFFFFFFE8000000C0003FFFFFFFE8000000C0003FFFFFFFE8030000C3003FFFFFFFE8000000C0003FFFFFFFE8030000C30043E80
310
00000C0003FFFFFFFE8030000C30043E8000000C0003FFFFFFFD018000000C0003FFFFFFFD038000000C0003FFFFFFFD038000000C0003FFFFFFFD018000000C0003FFFFFFFE8000000C0003FFFFFFFE8000000C0003FFFFFFFE8000000C0003FFFFFFFE8000000C0003FFFFFFFE8000000C0003FFFFFFFD038000000C0003
310
FFFFFFFD038000000C0003FFFFFFFD038000000C0003FFFFFFFD038000000C0003FFFFFFFE8000000C0003FFFFFFFE8000000C0003FFFFFFFE8000000C0003FFFFFFFD018000000C0003FFFFFFFD038000000C0003FFFFFFFD038000000C0003FFFFFFFE8000000C0003FFFFFFFE8000000C0003FFFFFFFE8000000C0003FF
310
FFFFFD038000000C0003FFFFFFFD018000000C0003FFFFFFFD038000000C0003FFFFFFFE8000000C0003FFFFFFFE8010000C30043E8020000C30047A8000000C0003FFFFFFFE8000000C0003FFFFFFFE8000000C0003FFFFFFFE8000000C0003FFFFFFFE8000000C0003FFFFFFFE8070000C300479018000000C0003FFFFFF
310
FD018020000C30047A8020000C30047A8000000C0003FFFFFFFD038000000C0003FFFFFFFD018010000C30043E8020000C30047A8000000C0003FFFFFFFE8000000C0003FFFFFFFD038000000C0003FFFFFFFE8000000C0003FFFFFFFD018030000C30043E8030000C30043E8000000C0003FFFFFFFE8070000C30047A81E0
310
000C3004F28000000C0003FFFFFFFE8000000C0003FFFFFFFD028000000C0003FFFFFFFD028000000C0003FFFFFFFE8000000C0003FFFFFFFD01AAA3F400030C010A4391E41D1E4190F4151E4110F40D0F4091E4050F4793C7F6EB
340
14
340
14
340
14
340
9F
340
14
340
14
340
14
340
A0
340
14
340
14
340
A0
340
162D
340
14
340
14
340
14
340
14
340
9F
340
14
340
14
340
14
340
A0
340
14
340
14
340
A0
340
162D
340
14
340
1665
340
14
340
14
340
14
340
14
340
14
340
9F
340
14
340
14
340
14
340
13
340
13
340
13
340
13
340
13
340
13
340
13
340
13
340
13
340
166B
340
13
340
13
340
13
340
13
340
13
340
13
340
13
340
13
340
13
340
13
340
13
340
13
340
13
340
14
340
13
340
13
340
13
340
13
340
166C
340
13
340
13
340
166B
340
13
340
13
340
13
340
13
340
13
340
13
340
13
340
13
340
166B
340
13
340
13
340
13
340
166C
340
13
340
13
340
13
340
13
340
13
340
166C
340
13
340
162D
340
13
340
13
340
13
340
13
340
13
340
13
340
166B
340
13
340
13
340
13
340
13
340
13
340
13
340
166C
340
13
340
13
340
13
340
13
340
13
340
13
340
13
340
13
340
13
340
13
340
13
340
13
340
13
340
13
340
162D
340
166D
 94
        0
  0
ACAD_PROXY_OBJECT
  5
1699
102
{ACAD_REACTORS
330
1694
102
}
330
1694
100
AcDbProxyObject
 90
      499
 91
      574
 95
    65563
 70
     0
162
               434
311
451100124013401140138014C0124013C013800B00104013401100150017C00A8017C01100124013401012A00404A801012A00404A800C
161
                11
310
43EC
 94
        0
  0
ACAD_PROXY_OBJECT
  5
1698
102
{ACAD_REACTORS
330
1694
102
}
330
1694
100
AcDbProxyObject
 90
      499
 91
      574
 95
    65563
 70
     0
162
               290
311
404A8010B41004D005F004600450041002D0041004D005F002A00404A801012A00404A800C
161
                11
310
43EC
 94
        0
  0
ACAD_PROXY_OBJECT
  5
1695
102
{ACAD_REACTORS
330
1694
102
}
330
1694
100
AcDbProxyObject
 90
      499
 91
      574
 95
    65563
 70
     0
162
               194
311
4152001040150010C012001012A00404A801012A00404A800C
161
                11
310
43EC
 94
        0
  0
ACAD_PROXY_OBJECT
  5
1696
102
{ACAD_REACTORS
330
1694
102
}
330
1694
100
AcDbProxyObject
 90
      499
 91
      574
 95
    65563
 70
     0
162
              1026
311
41130012401380114012738002C0038004E002C002A002D0038002C002A002D0038004E002C0041004D005F0038002C0041004D005F0038004E002C002A002D0041004D005F0038002C002A002D0041004D005F0038004E00404A801012A00441240138014C01140148015000B0014C01500110014001040148015000C8011
311
000C
161
                11
310
43EC
 94
        0
  0
ACAD_PROXY_OBJECT
  5
169A
102
{ACAD_REACTORS
330
1694
102
}
330
1694
100
AcDbProxyObject
 90
      499
 91
      574
 95
    65563
 70
     0
162
               290
311
40D040148010C010441004D005F003500404A801013200419240138014C01140148015000C
161
                11
310
43CC
 94
        0
  0
ACAD_PROXY_OBJECT
  5
1697
102
{ACAD_REACTORS
330
1694
102
}
330
1694
100
AcDbProxyObject
 90
      499
 91
      574
 95
    65563
 70
     0
162
              2034
311
5E104010C01340118010C0118014801040134011400B00104010C013401100104015001540134015001040148011C0114015000B00104010C0134011001040150015401340124011000B00104010C0134015C011401300110014C0164013400B00104010C0134014C015401480118014C0164013400B00104010C013401180
311
114010401500124011000B00104010C0134014001040148015001480114011800B00104010C01340108010401300130013C013C013800B0010401340110015001140110011C0114014C0164013400B001040134011C014C010C01480114015C010C01040130010C0150010401080130011401012A00404A801012A00404A80
311
0C
161
                11
310
43EC
 94
        0
  0
DICTIONARY
  5
16E5
330
15CD
100
AcDbDictionary
280
     1
281
     1
  3
ACAD_ROUNDTRIP_2008_TABLESTYLE_CELLSTYLEMAP
360
16E6
  0
ACAD_PROXY_OBJECT
  5
1660
102
{ACAD_REACTORS
330
165F
102
}
330
165F
100
AcDbProxyObject
 90
      499
 91
      555
 95
    65563
 70
     0
162
              3516
311
411040138014C01240243904018C01B4014C01D401C801980150019401E001D0014C01D001900109410063006D0046004300460053007400640043504018C01B4015C019401B0019001A401B8019C014C01D001900108410063006D004900640053007400640042D04018C01B40110018401D001D401B4014C01D001900109
311
410063006D0042004F004D005300740064004410401B4019001D00110019401D0018401A401B0014C01E401B4014C01D00190011141006D0064007400530065006300740069006F006E00530079006D005300740064004450401B4019001D0010C019401B801D0019401C8013001A401B80194014C01D00190011141006D00
311
640074005400680072006500610064004C0069006E00650053007400640042D0401B4019001D0013801BC01D00194014C01D00190010B410063006D005400610070006500720053007400640042D04018C010401B4019C0130018401E4014C01D00190010B4100630041006D006700440069006D0053007400640044504018
311
C010401B4019C012001BC01B00194010C01A0018401C801D0014C01D00190010D4100630041006D0067005400690074006C006500530074006400C
161
               705
310
630B81E85EB51B8BE3F8030000C30040540600800030C0200800030C00B81E85EB51B8BE3F4882208120281202812028120281202812028120281202812028120281202812028120281202812028120280A04809FFFE7FFFCC
340
166E
360
166F
360
1670
360
1671
360
1672
360
1673
360
1674
360
1675
360
1676
360
1677
360
1678
360
1679
360
167A
360
1686
360
1687
360
1692
360
1693
340
0
340
0
340
0
340
0
 94
        0
  0
ACAD_PROXY_OBJECT
  5
15FD
102
{ACAD_REACTORS
330
15FC
102
}
330
15FC
100
AcDbProxyObject
 90
      499
 91
      508
 95
    65563
 70
     0
162
              3560
311
42D10015C011C014C01140150015001240138011C014C0109430041004E00470041005200520041005900420CC00C001F000D000D401F000D800C00106430045004E0041004E004700424D000D401F000E400C001F000C400CC00D40106430045004E0044004900410041D0C01140138011001240104014C010B30002E0035
311
007C0031002E0030007C0031002E00350041D0C0114013801100124014C01500106430045004E004C0045004E004190C01140138013C01180118010943004C0049004E0041005200520041005900438C000B800C400C800D401F000C000B800C800D401F000C000B800D4010843004C0049004E00450054005900500041560
311
0130012401380114010944005700470055005300430041004C00450041D300104014C0150013C0108012801013000421340104012C0114015801240114015C010650005300430041004C00450041948011401580124014C0124010130004154C010C010401300114010331003A00310042550012401340114014C015001040
311
13401400107560045005200530049004F004E00414C400D400B800C000C001107B00440057004700530045005400540049004E004700530045004E0044007D0000
161
               548
310
40682A0A940000000000001C07E82A50000000000000601FA50000000000000701FA50000000000000701FA0A82A50A0A9FA040C008000105415282D38E4EC97C99CD0505C
 94
        0
  0
ACAD_PROXY_OBJECT
  5
15FE
102
{ACAD_REACTORS
330
15FC
102
}
330
15FC
100
AcDbProxyObject
 90
      499
 91
      508
 95
    65563
 70
     0
162
              1382
311
43550014801040138014C014C01140150015001240138011C014C0112440052004100570049004E0047005400520041004E0053004C004100540049004F004E004353C01480124011C012401380104013001300164017C013C0138010A53004F0055005200430045004C0041004E00470040D1401380154010955005000520
311
0450053004500520056004500441EC0110015C011C014C01140150015001240138011C014C01140138011001F400
161
               126
310
4060C00800041801000020A0C0080000
 94
        0
  0
CELLSTYLEMAP
  5
16E6
102
{ACAD_REACTORS
330
16E5
102
}
330
16E5
100
AcDbCellStyleMap
 90
        3
300
CELLSTYLE
  1
TABLEFORMAT_BEGIN
 90
        5
170
     1
 91
        0
 92
    32768
 62
   257
 93
        1
300
CONTENTFORMAT
  1
CONTENTFORMAT_BEGIN
 90
        0
 91
        0
 92
        4
 93
        0
300

 40
0.0
140
1.0
 94
        5
 62
     0
340
10
144
0.25
309
CONTENTFORMAT_END
171
     0
 94
        6
 95
        1
302
GRIDFORMAT
  1
GRIDFORMAT_BEGIN
 90
        0
 91
        1
 62
     0
 92
       -2
340
0
 93
        0
 40
0.045
309
GRIDFORMAT_END
 95
        2
302
GRIDFORMAT
  1
GRIDFORMAT_BEGIN
 90
        0
 91
        1
 62
     0
 92
       -2
340
0
 93
        0
 40
0.045
309
GRIDFORMAT_END
 95
        4
302
GRIDFORMAT
  1
GRIDFORMAT_BEGIN
 90
        0
 91
        1
 62
     0
 92
       -2
340
0
 93
        0
 40
0.045
309
GRIDFORMAT_END
 95
        8
302
GRIDFORMAT
  1
GRIDFORMAT_BEGIN
 90
        0
 91
        1
 62
     0
 92
       -2
340
0
 93
        0
 40
0.045
309
GRIDFORMAT_END
 95
       16
302
GRIDFORMAT
  1
GRIDFORMAT_BEGIN
 90
        0
 91
        1
 62
     0
 92
       -2
340
0
 93
        0
 40
0.045
309
GRIDFORMAT_END
 95
       32
302
GRIDFORMAT
  1
GRIDFORMAT_BEGIN
 90
        0
 91
        1
 62
     0
 92
       -2
340
0
 93
        0
 40
0.045
309
GRIDFORMAT_END
309
TABLEFORMAT_END
  1
CELLSTYLE_BEGIN
 90
        1
 91
        1
300
_TITLE
309
CELLSTYLE_END
300
CELLSTYLE
  1
TABLEFORMAT_BEGIN
 90
        5
170
     1
 91
        0
 92
        0
 62
   257
 93
        1
300
CONTENTFORMAT
  1
CONTENTFORMAT_BEGIN
 90
        0
 91
        0
 92
        4
 93
        0
300

 40
0.0
140
1.0
 94
        5
 62
     0
340
10
144
0.18
309
CONTENTFORMAT_END
171
     0
 94
        6
 95
        1
302
GRIDFORMAT
  1
GRIDFORMAT_BEGIN
 90
        0
 91
        1
 62
     0
 92
       -2
340
0
 93
        0
 40
0.045
309
GRIDFORMAT_END
 95
        2
302
GRIDFORMAT
  1
GRIDFORMAT_BEGIN
 90
        0
 91
        1
 62
     0
 92
       -2
340
0
 93
        0
 40
0.045
309
GRIDFORMAT_END
 95
        4
302
GRIDFORMAT
  1
GRIDFORMAT_BEGIN
 90
        0
 91
        1
 62
     0
 92
       -2
340
0
 93
        0
 40
0.045
309
GRIDFORMAT_END
 95
        8
302
GRIDFORMAT
  1
GRIDFORMAT_BEGIN
 90
        0
 91
        1
 62
     0
 92
       -2
340
0
 93
        0
 40
0.045
309
GRIDFORMAT_END
 95
       16
302
GRIDFORMAT
  1
GRIDFORMAT_BEGIN
 90
        0
 91
        1
 62
     0
 92
       -2
340
0
 93
        0
 40
0.045
309
GRIDFORMAT_END
 95
       32
302
GRIDFORMAT
  1
GRIDFORMAT_BEGIN
 90
        0
 91
        1
 62
     0
 92
       -2
340
0
 93
        0
 40
0.045
309
GRIDFORMAT_END
309
TABLEFORMAT_END
  1
CELLSTYLE_BEGIN
 90
        2
 91
        1
300
_HEADER
309
CELLSTYLE_END
300
CELLSTYLE
  1
TABLEFORMAT_BEGIN
 90
        5
170
     1
 91
        0
 92
        0
 62
   257
 93
        1
300
CONTENTFORMAT
  1
CONTENTFORMAT_BEGIN
 90
        0
 91
        0
 92
        4
 93
        0
300

 40
0.0
140
1.0
 94
        2
 62
     0
340
10
144
0.18
309
CONTENTFORMAT_END
171
     0
 94
        6
 95
        1
302
GRIDFORMAT
  1
GRIDFORMAT_BEGIN
 90
        0
 91
        1
 62
     0
 92
       -2
340
0
 93
        0
 40
0.045
309
GRIDFORMAT_END
 95
        2
302
GRIDFORMAT
  1
GRIDFORMAT_BEGIN
 90
        0
 91
        1
 62
     0
 92
       -2
340
0
 93
        0
 40
0.045
309
GRIDFORMAT_END
 95
        4
302
GRIDFORMAT
  1
GRIDFORMAT_BEGIN
 90
        0
 91
        1
 62
     0
 92
       -2
340
0
 93
        0
 40
0.045
309
GRIDFORMAT_END
 95
        8
302
GRIDFORMAT
  1
GRIDFORMAT_BEGIN
 90
        0
 91
        1
 62
     0
 92
       -2
340
0
 93
        0
 40
0.045
309
GRIDFORMAT_END
 95
       16
302
GRIDFORMAT
  1
GRIDFORMAT_BEGIN
 90
        0
 91
        1
 62
     0
 92
       -2
340
0
 93
        0
 40
0.045
309
GRIDFORMAT_END
 95
       32
302
GRIDFORMAT
  1
GRIDFORMAT_BEGIN
 90
        0
 91
        1
 62
     0
 92
       -2
340
0
 93
        0
 40
0.045
309
GRIDFORMAT_END
309
TABLEFORMAT_END
  1
CELLSTYLE_BEGIN
 90
        3
 91
        2
300
_DATA
309
CELLSTYLE_END
  0
ACAD_PROXY_OBJECT
  5
166F
330
1660
100
AcDbProxyObject
 90
      499
 91
      557
 95
    65563
 70
     0
162
                 0
161
                96
310
63020E80A0280A0280A0280800
 94
        0
  0
ACAD_PROXY_OBJECT
  5
1670
330
1660
100
AcDbProxyObject
 90
      499
 91
      558
 95
    65563
 70
     0
162
                 0
161
               332
310
6310E405014050140501405014050140501405014250140501405014050140501200000000000000040C
340
167B
 94
        0
  0
ACAD_PROXY_OBJECT
  5
1671
330
1660
100
AcDbProxyObject
 90
      499
 91
      559
 95
    65563
 70
     0
162
                 0
161
               403
310
630C199999999999E99F91F405014050140501405014050140501405014050140501405014050140501405014050140501404C
340
0
 94
        0
  0
ACAD_PROXY_OBJECT
  5
1672
330
1660
100
AcDbProxyObject
 90
      499
 91
      560
 95
    65563
 70
     0
162
                 0
161
                10
310
630C
 94
        0
  0
ACAD_PROXY_OBJECT
  5
1673
330
1660
100
AcDbProxyObject
 90
      499
 91
      561
 95
    65563
 70
     0
162
                 0
161
               257
310
632290EA22A7D90F49F9353333333333727F44D4CCCCCCCCCDC9FC01000061804C
340
167C
340
167D
 94
        0
  0
ACAD_PROXY_OBJECT
  5
1674
330
1660
100
AcDbProxyObject
 90
      499
 91
      562
 95
    65563
 70
     0
162
             22604
311
4112401500114013401044900540045004D004CD1C01140138015001480104010C013C00B001140138015400B000C000B0012401500114013400B0011C011401380150014801040150016000B0009401CC00B000A0011C011401380134014C011C0080019C019401B8019001DC019C008000C800C800C800A40240D4401500
311
16401035100540059004C91C01140138015001480104010C013C00B001140138015400B000C000B001440150016400B0011C011401380150014801040150016000B0009401CC00B000A0011C011401380134014C011C0080019C019401B8019001DC019C008000C800C800CC00A4024113801040134011401044E0041004D0
311
045004CD1C01140138015001480104010C013C00B001140138015400B000C000B0013801040134011400B0011C011401380150014801040150016000B0009401CC00B000A0011C011401380134014C011C0080019C019401B8019001DC019C008000C800C800D800A4012C3D004900460028004900530042004C0041004E00
311
4B00280050004100520054003A004E0041004D00450029002C0042004C004F0043004B003A004E0041004D0045002C0050004100520054003A004E0041004D0045002900415100114014C010C0148010B4400450053004300520049005000540049004F004E004E91C01140138015001480104010C013C00B0011401380154
311
00B000C000B001100114014C010C01480124014001500124013C013800B0011C011401380150014801040150016000B0009401CC00B000A0011C011401380134014C011C0080019C019401B8019001DC019C008000C800C400DC00A4024214C015001040138011001040148011001085300540041004E00440041005200440
311
04DD1C01140138015001480104010C013C00B001140138015400B000C000B0014C015001040138011001040148011000B0011C011401380150014801040150016000B0009401CC00B000A0011C011401380134014C011C0080019C019401B8019001DC019C008000C800C400E000A402421340104015001140148012401040
311
13001084D004100540045005200490041004C004DD1C01140138015001480104010C013C00B001140138015400B000C000B00134010401500114014801240104013000B0011C011401380150014801040150016000B0009401CC00B000A0011C011401380134014C011C0080019C019401B8019001DC019C008000C800C800
311
C400A40241138013C0150011401044E004F00540045004CD1C01140138015001480104010C013C00B001140138015400B000C000B00138013C0150011400B0011C011401380150014801040150016000B0009401CC00B000A0011C011401380134014C011C0080019C019401B8019001DC019C008000C800C800D400A40241
311
958011401380110013C01480106560045004E0044004F0052004D51C01140138015001480104010C013C00B001140138015400B000C000B00158011401380110013C014800B0011C011401380150014801040150016000B0009401CC00B000A0011C011401380134014C011C0080019C019401B8019001DC019C008000C800
311
C800D000A402419100114014C010C014800C8010D4400450053004300520049005000540049004F004E00200032004ED1C01140138015001480104010C013C00B001140138015400B000C000B001100114014C010C01480124014001500124013C0138008000C800B0011C011401380150014801040150016000B0009401CC
311
00B000A0011C011401380134014C011C0080019C019401B8019001DC019C008000CC00D800A4024254C015001040138011001040148011000C8010A5300540041004E004400410052004400200032004E51C01140138015001480104010C013C00B001140138015400B000C000B0014C015001040138011001040148011000
311
8000C800B0011C011401380150014801040150016000B0009401CC00B000A0011C011401380134014C011C0080019C019401B8019001DC019C008000C800C800C000A40242534010401500114014801240104013000C8010A4D004100540045005200490041004C00200032004E11C01140138015001480104010C013C00B0
311
01140138015400B000C000B001340104015001140148012401040130008000C800B0011C011401380150014801040150016000B0009401CC00B000A0011C011401380134014C011C0080019C019401B8019001DC019C008000D000C000A402411340104014C014C01044D004100530053004C91C0114013801500148010401
311
0C013C00B001140138015400B000C000B001340104014C014C00B0011C011401380150014801040150016000B0009401CC00B000A0011C011401380134014C011C0080019C019401B8019001DC019C008000D000C800A4024154001480124010C01140105500052004900430045004CD1C01140138015001480104010C013C
311
00B001140138015400B000C000B0014001480124010C011400B0011C011401380150014801040150016000B0009401CC00B000A0011C011401380134014C011C0080019C019401B8019001DC019C008000D000CC00A40240D1001240134010B4D004500410053005500520045004D0045004E0054004E51C01140138015001
311
480104010C013C00B001140138015400B000C000B0013401140104014C015401480114013401140138015000B0011C011401380150014801040150016000B0009401CC00B000A0011C011401380134014C011C0080019C019401B8019001DC019C008000D000D000A40242508013C0134017C0154013801240150014C01055
311
5004E00490054005300A41CF400F0012401500114013400F801073D003C004900540045004D003E0041CF400F0012401500114013400F801073D003C004900540045004D003E0041CF400F0012401500114013400F801063D003C005100540059003E0041CF400F0012401500114013400F801073D003C004900540045004D
311
003E00AAA901310090B65006100090065006100090045006100630068000A00455CC01C401B4002401CC01C401B40024014C01C401D4018401C8019400800134019401D0019401C80028011C7300710063006D0009007300710063006D0009005300710075006100720065002000430065006E00740069006D006500740065
311
0072000A00459CC01C4019801D0002401CC01C4019801D00024014C01C401D4018401C801940080011801BC01BC01D0002801147300710069006E0009007300710069006E000900530071007500610072006500200049006E000A0043D9C018401B00024019C018401B00024011C018401B001B001BC01B80028010C710074
311
000900710074000900510075006100720074000A0046DB001C40190017C01BC01E8002401B001C40190017C01BC01E80024013001A401C401D401A401900080013C01D401B8018C01940028010A6C0009006C0009004C0069007400650072000A00441B401B0002401B401B00024013401A401B001A401B001A401D0019401
311
C80028010B79006400090079006400090059006100720064000A0042D9801D00024019801D00024011801BC01BC01D00028010B69006E00090069006E00090049006E00630068000A00429B4002401B400240134019401D0019401C80028011163006D00090063006D000900430065006E00740069006D0065007400650072
311
000A00441B401B4002401B401B40024013401A401B001A401B4019401D0019401C80028010C6C00620009006C006200090050006F0075006E0064000A00431BC01E8002401BC01E80024013C01D401B8018C01940028010967000900670009004700720061006D000A0043DB4019C002401B4019C0024013401A401B001A40
311
19C01C8018401B40028010A62007800090062007800090042006F0078000A00C
161
              5144
310
6310F40501405014069011349A4F2590CB64FD0190120280A028120280A03202269349E4B2196C9FA03202405014051C40640A8BA5C2E97CBE5024040640480A0280A3A80C81D10782C06030180C80808809014050147501904A383BFDFEFF5FBFCFD0110120280A028EA0320B41416D838E9017D9FA03202405014051D406
310
41A8BA5C2E97CBE5F23F40640480A0280A3A80C83D174B85D2F97CBE47E80C809014050147501908A20F0580C0603019010110120280A028EA0321347077FBFDFEBF7F9FA02202405014051D40642A8282DB071D202FB3F40440480A0280A3A80A0485A0681174B85D2F97CBE47E8088090140501475014090C409022E970B
310
A5F2F97C8FD0110120280A028EA028121A81A040043110F05877A1FA03202405014051E40643A8BA5C2E97CBE5F23F40640480A1E882045C0F42F5A8DC671FC0F0000618000203159AAD56AB55BEC7E566AB55AAD56FB1FA0280C566AB55AAD56FB1F959AAD56AB55BEC7E80A031218FC7E2F079DC7E4863F1F8BC1E771FA0
310
280C4863F1F8BC1E771F9218FC7E2F079DC7E80A05202566AB55AAD56FB1F959AAD56AB55BEC7E80A0280C566AB55AAD56FB1F959AAD56AB55BEC7E80A0309A4D2792C865D27E269349E4B219749FA028080159AAD56AB55BEC7E566AB55AAD56FB1FD100000000000000410200C00030C024110340D024090140510429084
310
410190A4064229014290A4290A40A000000000000785F8000000000001E17E80C010000618040380006180077BE9F1B2EDD447E1DEFA7C6CBB7511F9703D0BD6A3717C7F40683480A0482A0E832034B81E85EB51B8BE3F8020000C3008020000C3008010000C30010140501455014050140501405014050140501405014050
310
140501405014050100
340
0
340
0
 94
        0
  0
ACAD_PROXY_OBJECT
  5
1675
330
1660
100
AcDbProxyObject
 90
      499
 91
      563
 95
    65563
 70
     0
162
               762
311
4BCF4011001140150010401240130008000F0011001140150010401240130017C0130010401080114013000F801700140014C010C010401300114008000F0011001140150010401240130017C01040108014C014C010C01040130011400F800C
161
               608
310
6300B81E85EB51B8CE3F48D0726A6666666666E4FC9A9999999999C93F000000000000380FD0000000000000010000000000000014400000000000000910207800030C00B81E85EB51B8CE3FFF
340
162D
340
166E
 94
        0
  0
ACAD_PROXY_OBJECT
  5
1676
330
1660
100
AcDbProxyObject
 90
      499
 91
      564
 95
    65563
 70
     0
162
               826
311
4CCF4014C0114010C01500124013C0138008000F0014C0114010C01500124013C0138017C01300104010801140130017C011801240148014C015000F800B400F0014C0114010C01500124013C0138017C01300104010801140130017C01300104014C015000F800C
161
               405
310
630031703D0BD6A3719C7E4D4CCCCCCCCCEC9F8FFFF8070000C30022103C000186004D4CCCCCCCCCEC9FC5C0F42F5A8DC671FC
340
162D
340
166E
 94
        0
  0
ACAD_PROXY_OBJECT
  5
1677
330
1660
100
AcDbProxyObject
 90
      499
 91
      565
 95
    65563
 70
     0
162
                 0
161
               280
310
6302B8716D9CEF7C33F0A5723F0BD4A2F0FC295C8FC2F528BC3FA199999999999F99FC00
 94
        0
  0
ACAD_PROXY_OBJECT
  5
1678
330
1660
100
AcDbProxyObject
 90
      499
 91
      566
 95
    65563
 70
     0
162
                 0
161
                14
310
6324
340
0
 94
        0
  0
ACAD_PROXY_OBJECT
  5
1679
330
1660
100
AcDbProxyObject
 90
      499
 91
      567
 95
    65563
 70
     0
162
             13376
311
42950019401B401C001B0018401D00194008000C40005013D003C0069006600280065007100750061006C00280048006F006C0065003A007400610070007000650064002C0022003000220029002C00220025002500630022002C0048006F006C0065003A006E006F006D0069006E0061006C0020002200200022002000690
311
06600280065007100750061006C00280048006F006C0065003A0075006E006900740073002C0022003100220029002C002200780022002C0022002D0022002900200022002000220029003E003C0069006600280065007100750061006C00280048006F006C0065003A007400610070007000650064002C002200300022002
311
9002C0048006F006C0065003A006400690061002C0048006F006C0065003A0070006900740063006800640065007300630029003E0020007B005C00460041004D004700440054003B0078007D0020003C0069006600280065007100750061006C00280048006F006C0065003A007400650072006D0069006E0061007400690
311
06F006E002C0022003000220029002C0048006F006C0065003A00640065007000740068002C0022005400480052005500220029003E005C0050007B005C00460041004D004700440054003B0076007D002500250063003C0048006F006C0065003A00630074006400690061003E0020007B005C00460041004D00470044005
311
4003B0078007D0020003C0048006F006C0065003A0063007400640065007000740068003E0042950019401B401C001B0018401D00194008000C401FE3D003C0069006600280065007100750061006C00280048006F006C0065003A007400610070007000650064002C0022003000220029002C00220025002500630022002C
311
0048006F006C0065003A006E006F006D0069006E0061006C002000220020002200200069006600280065007100750061006C00280048006F006C0065003A0075006E006900740073002C0022003100220029002C002200780022002C0022002D0022002900200022002000220029003E003C00690066002800650071007500
311
61006C00280048006F006C0065003A007400610070007000650064002C0022003000220029002C0048006F006C0065003A006400690061002C0048006F006C0065003A0070006900740063006800640065007300630029003E0020007B005C00460041004D004700440054003B0078007D0020003C00690066002800650071
311
00750061006C00280048006F006C0065003A007400650072006D0069006E006100740069006F006E002C0022003000220029002C0048006F006C0065003A00640065007000740068002C0022005400480052005500220029003E005C0050007B005C00460041004D004700440054003B0077007D002500250063003C004800
311
6F006C0065003A00630074006400690061003E002000580020003C0048006F006C0065003A006300740061006E0067006C0065003E0025002500640042950019401B401C001B0018401D00194008000C401CF3D003C0069006600280065007100750061006C00280048006F006C0065003A007400610070007000650064002
311
C0022003000220029002C00220025002500630022002C0048006F006C0065003A006E006F006D0069006E0061006C002000220020002200200069006600280065007100750061006C00280048006F006C0065003A0075006E006900740073002C0022003100220029002C002200780022002C0022002D00220029002000220
311
02000220029003E003C0069006600280065007100750061006C00280048006F006C0065003A007400610070007000650064002C0022003000220029002C0048006F006C0065003A006400690061002C0048006F006C0065003A0070006900740063006800640065007300630029003E005C0050007B005C00460041004D004
311
700440054003B0078007D0020003C0069006600280065007100750061006C00280048006F006C0065003A007400650072006D0069006E006100740069006F006E002C0022003000220029002C0048006F006C0065003A00640065007000740068002C0022005400480052005500220029003E0042950019401B401C001B001
311
8401D00194008000C801173D003C0053005400440050003A0044004500530043003E0020003C0053005400440050003A005300540044003E0042950019401B401C001B0018401D00194008000C4010C3D003C0053005400440050003A0044004500530043003E0042950019401B401C001B0018401D00194008000CC010B3D
311
003C0053005400440050003A005300540044003E00B3
161
               656
310
631084050BA4050AA4050240501406901405034050140690140501405014069014051E40D0140690140690140690340515AAAC645C0F42F5A8DC5F1F9703D0BD6A3717C7F8020000C3008030000C300441032C
360
1684
330
1684
360
1685
330
1685
360
1683
330
1683
360
1681
360
1680
360
1682
330
1681
330
1680
330
1682
 94
        0
  0
ACAD_PROXY_OBJECT
  5
167A
330
1660
100
AcDbProxyObject
 90
      499
 91
      568
 95
    65563
 70
     0
162
                 0
161
                66
310
6310B40501406AAA8C
 94
        0
  0
ACAD_PROXY_OBJECT
  5
1686
330
1660
100
AcDbProxyObject
 90
      499
 91
      570
 95
    65563
 70
     0
162
                 0
161
                26
310
63102A8C
340
1661
 94
        0
  0
ACAD_PROXY_OBJECT
  5
1687
330
1660
100
AcDbProxyObject
 90
      499
 91
      571
 95
    65563
 70
     0
162
               142
311
408F000F801023C003E0040DB0018C00CC00
161
               172
310
63103000000000000380FC000000000000E03F3FFFEC
340
1688
340
0
340
0
340
1689
340
168A
340
0
340
168B
340
168C
340
1691
340
0
340
168A
340
0
 94
        0
  0
ACAD_PROXY_OBJECT
  5
1692
330
1660
100
AcDbProxyObject
 90
      499
 91
      572
 95
    65563
 70
     0
162
             20912
311
44D300124014C01500080013C01180080010C013C013C0148011001240138010401500114014C0142470045004E0054005200410043004F002C0045004E0055002C0030002C004C0049005300540020004F004600200043004F004F005200440049004E0041005400450053002C00470045004E00540052004100540058002
311
C00250073002C002800470045004E004D00530047002000670065006E00640069006D007A00200033003000290043CF400F0011001940198018401D401B001D0015001A401D001B0019400F8010A48004F004C00450020005400410042004C0045004E51C01140138015001480104010C013C00B001140138015400B000C00
311
0B00120013C0130011400800150010401080130011400B0011C011401380150014801040150016000B0009401CC00B000A0011C011401380134014C011C0080019C019401B8019001A401B401E8008000CC00C400A4010F3D003C00440065006600610075006C0074005400690074006C0065003E004193C01480124011C01
311
2401380134470045004E0054005200410043004F002C0045004E0055002C0030002C004F0052004900470049004E002C00470045004E00540052004100540058002C00250073002C002800470045004E004D00530047002000670065006E00640069006D007A002000310029004193C01480124011C0124013801344700450
311
04E0054005200410043004F002C0045004E0055002C0030002C004F0052004900470049004E002C00470045004E00540052004100540058002C00250073002C002800470045004E004D00530047002000670065006E00640069006D007A0020003100290041120013C013001140132470045004E0054005200410043004F00
311
2C0045004E0055002C0030002C0048004F004C0045002C00470045004E00540052004100540058002C00250073002C002800470045004E004D00530047002000670065006E00640069006D007A00200032002900538F400F00124011800A00124014C0108013001040138012C00A0012001BC01B00194012401D0019401B40
311
0A400B0013C01C801A4019C01A401B800B00080012001BC01B00194012401D0019401B400A400F800F00124011800A00124014C0108013001040138012C00A0012001BC01B00194012401D0019401B400A400B00088008800B00080012001BC01B00194012401B80190019401E000A400F8010158004BD1C01140138015001
311
480104010C013C00B001140138015400B000C000B0016000B0011C011401380150014801040150016000B0009401CC00B000A0011C011401380134014C011C0080019C019401B8019001A401B401E8008000CC00A4010159004BD1C01140138015001480104010C013C00B001140138015400B000C000B0016400B0011C011
311
401380150014801040150016000B0009401CC00B000A0011C011401380134014C011C0080019C019401B8019001A401B401E8008000D000A4010152004BD1C01140138015001480104010C013C00B001140138015400B000C000B0014800B0011C011401380150014801040150016000B0009401CC00B000A0011C01140138
311
0134014C011C0080019C019401B8019001A401B401E8008000D800A401187B005C004600530059004D0042004F004C007C00420030007C00490030007C00430032007C00500030003B004A007D005191C01140138015001480104010C013C00B001140138015400B000C000B001EC01700118014C016401340108013C01300
311
1F0010800C001F0012400C001F0010C00C801F0014000C000EC012801F400B0011C011401380150014801040150016000B0009401CC00B000A0011C011401380134014C011C0080019C019401B8019001A401B401E8008000DC00A401032500250043004C51C01140138015001480104010C013C00B001140138015400B000
311
C000B000940094010C00B0011C011401380150014801040150016000B0009401CC00B000A0011C011401380134014C011C0080019C019401B8019001A401B401E8008000E000A4010B4400450053004300520049005000540049004F004E004E91C01140138015001480104010C013C00B001140138015400B000C000B0011
311
00114014C010C01480124014001500124013C013800B0011C011401380150014801040150016000B0009401CC00B000A0011C011401380134014C011C0080019C019401B8019001A401B401E8008000C800C000A401044900540045004D004CD1C01140138015001480104010C013C00B001140138015400B000C000B00124
311
01500114013400B0011C011401380150014801040150016000B0009401CC00B000A0011C011401380134014C011C0080019C019401B8019001A401B401E8008000C400D000A4010549004E004400450058004D11C01140138015001480104010C013C00B001140138015400B000C000B00124013801100114016000B0011C0
311
11401380150014801040150016000B0009401CC00B000A0011C011401380134014C011C0080019C019401B8019001A401B401E8008000C400D400A4010448004F004C0045004CD1C01140138015001480104010C013C00B001140138015400B000C000B00120013C0130011400B0011C011401380150014801040150016000
311
B0009401CC00B000A0011C011401380134014C011C0080019C019401B8019001A401B401E8008000C400D800A4010A48004F004C004500200049004E004400450058004E51C01140138015001480104010C013C00B001140138015400B000C000B00120013C0130011400800124013801100114016000B0011C01140138015
311
0014801040150016000B0009401CC00B000A0011C011401380134014C011C0080019C019401B8019001A401B401E8008000C400DC00A40109550053004500520020004900540045004D004E11C01140138015001480104010C013C00B001140138015400B000C000B00154014C011401480080012401500114013400B0011C
311
011401380150014801040150016000B0009401CC00B000A0011C011401380134014C011C0080019C019401B8019001A401B401E8008000C800C800A401035100540059004C91C01140138015001480104010C013C00B001140138015400B000C000B001440150016400B0011C011401380150014801040150016000B000940
311
1CC00B000A0011C011401380134014C011C0080019C019401B8019001A401B401E8008000C400E400A401085300540041004E0044004100520044004DD1C01140138015001480104010C013C00B001140138015400B000C000B0014C015001040138011001040148011000B0011C011401380150014801040150016000B000
311
9401CC00B000A0011C011401380134014C011C0080019C019401B8019001A401B401E8008000C800C400A4014E3D003C004900460028004900530042004C0041004E004B00280048006F006C0065004900740065006D0029002C004F0072006900670069006E002C00200048006F006C0065004900740065006D0029003E00
311
3C004900460028004900530042004C0041004E004B00280048006F006C0065004900740065006D0029002C00220022002C00200048006F006C00650049006E0064006500780029003E00CC
161
              6822
310
631211A9010300002E07A17AD46E2F8FE00800030C01010300002E07A17AD46E2F8FE00800030C0004078000C000000000000000000000000000000007B14AE47E17AA43F2E07A17AD46E2F8FE00800030C007B14AE47E17AA43F2E07A17AD46E2F8FE00800030C02010101E0003000000000000000000000000000000001E
310
C52B91F85EA90FCB81E85EB51B8BE3F8020000C3001EC52B91F85EA90FCB81E85EB51B8BE3F8020000C3008050E4410F4450240D0441507431014391244D154151241D144310D4400004040004041000885000080800080820010FA00010101010104002234000202000202000040A8000404000404000081D000080800080
310
8000104A000101000101030020B4000202000202020041E800040400040010008650000808000808280501A0001010001010500A1D4000202000202080044A8000404000404140089D0000808000808280115A0001010001010600229400020200020008004369100067FFFFFFF801353333333333D27F3FFFFFFFC0C9A999
310
9999999E93F9FFFFFFFE024D4CCCCCCCCCF49FCFFFFFFFF0126A6666666667A4FE7FFFFFFF811353333333333D27F3FFFFFFFC089A9999999999E93F9FFFFFFFE06CFFFFFFFF03000000000000001027FFFFFFF801353333333333B27F3FFFFFFFC009A9999999999E93F9FFFFFFFE004D4CCCCCCCCCF49FCFFFFFFFF0026A
310
6666666667A4FE7FFFFFFF801353333333333D27F3FFFFFFFC0CB81E85EB51B8DE3F9FFFFFFFE0633B33333333303204FFFFFFFF440019FFFFFFFE004D4CCCCCCCCCF49FCFFFFFFFF0326A6666666667A4FE7FFFFFFF819353333333333D27F3FFFFFFFC0C9A9999999999E93F9FFFFFFFE064D4CCCCCCCCCF49FCFFFFFFFF
310
0326A6666666667A4FE7FFFFFFF81B3FFFFFFFC0C00000000000000409FFFFFFFE004D4CCCCCCCCCEC9FCFFFFFFFF0026A6666666667A4FE7FFFFFFF819353333333333D27F3FFFFFFFC009A9999999999E93F9FFFFFFFE004D4CCCCCCCCCF49FCFFFFFFFF032E07A17AD46E378FE7FFFFFFF818CECCCCCCCCCC0C813FFFFF
310
FFD044400000010F000000448000001130000004110700010044800000103000100408000400FFFFFFFF4090100014111000000043C0000011200000044C0000010300004111000000043C00000112000000454000000FFFFFFFF8
340
0
340
0
340
0
340
0
340
166E
340
166E
 94
        0
  0
ACAD_PROXY_OBJECT
  5
1693
330
1660
100
AcDbProxyObject
 90
      499
 91
      573
 95
    65563
 70
     0
162
             10564
311
411040138014C0124010641004E00530049005F004300429040138014C0124017C0150012401500154014C011541004E00530049005F00540052005F005200650076006900730069006F006E006C0069007300740061004450C008000A000C400DC00B800C001E000C800C800B800C001A401B8018C01A000A4010641004E0
311
0530049005F00430044518008000A000C800E000B800C001E000D000C000B800C001A401B8018C01A000A4010641004E00530049005F00460044508008000A000C400C400B800C001E000C400DC00B800C001A401B8018C01A000A4010641004E00530049005F00420044510008000A000C800C800B800C001E000CC00D000
311
B800C001A401B8018C01A000A4010641004E00530049005F00440044514008000A000CC00D000B800C001E000D000D000B800C001A401B8018C01A000A4010641004E00530049005F00450044104008000A000E000B800D401E000C400C400B800C001A401B8018C01A000A4010641004E00530049005F00410043954014C0
311
080015001A401D001B001940080010801B001BC018C01AC010A41004E00530049005F005400490054005500530044D0401B801CC01A40080015001A401D001B001940080010801B001BC018C01AC00800110010C010C41004E00530049005F005400490054004C0045004400430044D0401B801CC01A40080015001A401D00
311
1B001940080010801B001BC018C01AC00800104010C010C41004E00530049005F005400490054004C004500410043004490401B801CC01A40080015001A401D001B001940080010801B001BC018C01AC00800104010B41004E00530049005F005400490054004C00450041004490401B801CC01A40080015001A401D001B00
311
1940080010801B001BC018C01AC00800110010B41004E00530049005F005400490054004C004500440044948019401D801A401CC01A401BC01B801B001A401CC01D000800104017C01080148017C011541004E00530049005F00420052005F005200650076006900730069006F006E006C0069007300740061004494801940
311
1D801A401CC01A401BC01B801B001A401CC01D000800104017C01500148017C011541004E00530049005F00540052005F005200650076006900730069006F006E006C00690073007400610044948019401D801A401CC01A401BC01B801B001A401CC01D000800110017C01080148017C011541004E00530049005F00420052
311
005F005200650076006900730069006F006E006C00690073007400640044948019401D801A401CC01A401BC01B801B001A401CC01D000800110017C01500148017C011541004E00530049005F00540052005F005200650076006900730069006F006E006C00690073007400640044948019401D801A401CC01A401BC01B801
311
B001A401CC01D000800104017C01080130017C011541004E00530049005F0042004C005F005200650076006900730069006F006E006C00690073007400610044948019401D801A401CC01A401BC01B801B001A401CC01D000800104017C01500130017C011541004E00530049005F0054004C005F005200650076006900730
311
069006F006E006C00690073007400610044948019401D801A401CC01A401BC01B801B001A401CC01D000800110017C01080130017C011541004E00530049005F0042004C005F005200650076006900730069006F006E006C00690073007400640044948019401D801A401CC01A401BC01B801B001A401CC01D000800110017
311
C01500130017C011541004E00530049005F0054004C005F005200650076006900730069006F006E006C006900730074006400C
161
                50
310
6319741905420C
 94
        0
  0
ACAD_PROXY_OBJECT
  5
1684
330
0
100
AcDbProxyObject
 90
      499
 91
      569
 95
    65563
 70
     0
162
              4364
311
42950019401B401C001B0018401D00194008000C40005013D003C0069006600280065007100750061006C00280048006F006C0065003A007400610070007000650064002C0022003000220029002C00220025002500630022002C0048006F006C0065003A006E006F006D0069006E0061006C0020002200200022002000690
311
06600280065007100750061006C00280048006F006C0065003A0075006E006900740073002C0022003100220029002C002200780022002C0022002D0022002900200022002000220029003E003C0069006600280065007100750061006C00280048006F006C0065003A007400610070007000650064002C002200300022002
311
9002C0048006F006C0065003A006400690061002C0048006F006C0065003A0070006900740063006800640065007300630029003E0020007B005C00460041004D004700440054003B0078007D0020003C0069006600280065007100750061006C00280048006F006C0065003A007400650072006D0069006E0061007400690
311
06F006E002C0022003000220029002C0048006F006C0065003A00640065007000740068002C0022005400480052005500220029003E005C0050007B005C00460041004D004700440054003B0076007D002500250063003C0048006F006C0065003A00630074006400690061003E0020007B005C00460041004D00470044005
311
4003B0078007D0020003C0048006F006C0065003A0063007400640065007000740068003E00C
161
                28
310
6320101C
 94
        0
  0
ACAD_PROXY_OBJECT
  5
1685
330
0
100
AcDbProxyObject
 90
      499
 91
      569
 95
    65563
 70
     0
162
              4244
311
42950019401B401C001B0018401D00194008000C401FE3D003C0069006600280065007100750061006C00280048006F006C0065003A007400610070007000650064002C0022003000220029002C00220025002500630022002C0048006F006C0065003A006E006F006D0069006E0061006C002000220020002200200069006
311
600280065007100750061006C00280048006F006C0065003A0075006E006900740073002C0022003100220029002C002200780022002C0022002D0022002900200022002000220029003E003C0069006600280065007100750061006C00280048006F006C0065003A007400610070007000650064002C00220030002200290
311
02C0048006F006C0065003A006400690061002C0048006F006C0065003A0070006900740063006800640065007300630029003E0020007B005C00460041004D004700440054003B0078007D0020003C0069006600280065007100750061006C00280048006F006C0065003A007400650072006D0069006E006100740069006
311
F006E002C0022003000220029002C0048006F006C0065003A00640065007000740068002C0022005400480052005500220029003E005C0050007B005C00460041004D004700440054003B0077007D002500250063003C0048006F006C0065003A00630074006400690061003E002000580020003C0048006F006C0065003A0
311
06300740061006E0067006C0065003E00250025006400C
161
                28
310
6320101C
 94
        0
  0
ACAD_PROXY_OBJECT
  5
1683
330
0
100
AcDbProxyObject
 90
      499
 91
      569
 95
    65563
 70
     0
162
              3492
311
42950019401B401C001B0018401D00194008000C401CF3D003C0069006600280065007100750061006C00280048006F006C0065003A007400610070007000650064002C0022003000220029002C00220025002500630022002C0048006F006C0065003A006E006F006D0069006E0061006C002000220020002200200069006
311
600280065007100750061006C00280048006F006C0065003A0075006E006900740073002C0022003100220029002C002200780022002C0022002D0022002900200022002000220029003E003C0069006600280065007100750061006C00280048006F006C0065003A007400610070007000650064002C00220030002200290
311
02C0048006F006C0065003A006400690061002C0048006F006C0065003A0070006900740063006800640065007300630029003E005C0050007B005C00460041004D004700440054003B0078007D0020003C0069006600280065007100750061006C00280048006F006C0065003A007400650072006D0069006E00610074006
311
9006F006E002C0022003000220029002C0048006F006C0065003A00640065007000740068002C0022005400480052005500220029003E00C
161
                28
310
6320101C
 94
        0
  0
ACAD_PROXY_OBJECT
  5
1681
330
0
100
AcDbProxyObject
 90
      499
 91
      569
 95
    65563
 70
     0
162
               548
311
42950019401B401C001B0018401D00194008000C801173D003C0053005400440050003A0044004500530043003E0020003C0053005400440050003A005300540044003E00C
161
                28
310
6320101C
 94
        0
  0
ACAD_PROXY_OBJECT
  5
1680
330
0
100
AcDbProxyObject
 90
      499
 91
      569
 95
    65563
 70
     0
162
               372
311
42950019401B401C001B0018401D00194008000C4010C3D003C0053005400440050003A0044004500530043003E00C
161
                28
310
6320101C
 94
        0
  0
ACAD_PROXY_OBJECT
  5
1682
330
0
100
AcDbProxyObject
 90
      499
 91
      569
 95
    65563
 70
     0
162
               356
311
42950019401B401C001B0018401D00194008000CC010B3D003C0053005400440050003A005300540044003E00C
161
                28
310
6320101C
 94
        0
  0
ENDSEC
  0
EOF
