  0
SECTION
  2
HEADER
  9
$ACADVER
  1
AC1024
  9
$ACADMAINTVER
 70
    37
  9
$DWGCODEPAGE
  3
ANSI_1252
  9
$LASTSAVEDBY
  1
jtigges
  9
$INSBASE
 10
0.0
 20
0.0
 30
0.0
  9
$EXTMIN
 10
-0.0039060711815466
 20
-0.002548101122315
 30
-0.0000000349181948
  9
$EXTMAX
 10
64.00390666724987
 20
41.75254848996414
 30
0.0000000814935746
  9
$LIMMIN
 10
0.0
 20
0.0
  9
$LIMMAX
 10
12.0
 20
9.0
  9
$ORTHOMODE
 70
     0
  9
$REGENMODE
 70
     1
  9
$FILLMODE
 70
     1
  9
$QTEXTMODE
 70
     0
  9
$MIRRTEXT
 70
     1
  9
$LTSCALE
 40
1.0
  9
$ATTMODE
 70
     1
  9
$TEXTSIZE
 40
0.2
  9
$TRACEWID
 40
0.05
  9
$TEXTSTYLE
  7
STANDARD
  9
$CLAYER
  8
0
  9
$CELTYPE
  6
BYLAYER
  9
$CECOLOR
 62
   256
  9
$CELTSCALE
 40
1.0
  9
$DISPSILH
 70
     0
  9
$DIMSCALE
 40
1.0
  9
$DIMASZ
 40
0.1875
  9
$DIMEXO
 40
0.1875
  9
$DIMDLI
 40
0.375
  9
$DIMRND
 40
0.0
  9
$DIMDLE
 40
0.0
  9
$DIMEXE
 40
0.09375
  9
$DIMTP
 40
0.0
  9
$DIMTM
 40
0.0
  9
$DIMTXT
 40
0.187
  9
$DIMCEN
 40
0.09375
  9
$DIMTSZ
 40
0.0
  9
$DIMTOL
 70
     0
  9
$DIMLIM
 70
     0
  9
$DIMTIH
 70
     1
  9
$DIMTOH
 70
     1
  9
$DIMSE1
 70
     0
  9
$DIMSE2
 70
     0
  9
$DIMTAD
 70
     0
  9
$DIMZIN
 70
     0
  9
$DIMBLK
  1

  9
$DIMASO
 70
     1
  9
$DIMSHO
 70
     1
  9
$DIMPOST
  1

  9
$DIMAPOST
  1

  9
$DIMALT
 70
     0
  9
$DIMALTD
 70
     2
  9
$DIMALTF
 40
25.4
  9
$DIMLFAC
 40
1.0
  9
$DIMTOFL
 70
     0
  9
$DIMTVP
 40
0.0
  9
$DIMTIX
 70
     0
  9
$DIMSOXD
 70
     0
  9
$DIMSAH
 70
     0
  9
$DIMBLK1
  1

  9
$DIMBLK2
  1

  9
$DIMSTYLE
  2
STANDARD
  9
$DIMCLRD
 70
     0
  9
$DIMCLRE
 70
     0
  9
$DIMCLRT
 70
     0
  9
$DIMTFAC
 40
0.4973262032085562
  9
$DIMGAP
 40
0.1875
  9
$DIMJUST
 70
     0
  9
$DIMSD1
 70
     0
  9
$DIMSD2
 70
     0
  9
$DIMTOLJ
 70
     1
  9
$DIMTZIN
 70
     0
  9
$DIMALTZ
 70
     0
  9
$DIMALTTZ
 70
     0
  9
$DIMUPT
 70
     0
  9
$DIMDEC
 70
     5
  9
$DIMTDEC
 70
     4
  9
$DIMALTU
 70
     2
  9
$DIMALTTD
 70
     2
  9
$DIMTXSTY
  7
STANDARD
  9
$DIMAUNIT
 70
     0
  9
$DIMADEC
 70
     0
  9
$DIMALTRND
 40
0.0
  9
$DIMAZIN
 70
     0
  9
$DIMDSEP
 70
    46
  9
$DIMATFIT
 70
     0
  9
$DIMFRAC
 70
     2
  9
$DIMLDRBLK
  1

  9
$DIMLUNIT
 70
     5
  9
$DIMLWD
 70
    -2
  9
$DIMLWE
 70
    -2
  9
$DIMTMOVE
 70
     0
  9
$DIMFXL
 40
1.0
  9
$DIMFXLON
 70
     0
  9
$DIMJOGANG
 40
0.7853981633974483
  9
$DIMTFILL
 70
     0
  9
$DIMTFILLCLR
 70
     0
  9
$DIMARCSYM
 70
     0
  9
$DIMLTYPE
  6

  9
$DIMLTEX1
  6

  9
$DIMLTEX2
  6

  9
$DIMTXTDIRECTION
 70
     0
  9
$LUNITS
 70
     5
  9
$LUPREC
 70
     5
  9
$SKETCHINC
 40
0.1
  9
$FILLETRAD
 40
0.0
  9
$AUNITS
 70
     0
  9
$AUPREC
 70
     1
  9
$MENU
  1
acad
  9
$ELEVATION
 40
0.0
  9
$PELEVATION
 40
0.0
  9
$THICKNESS
 40
0.0
  9
$LIMCHECK
 70
     0
  9
$CHAMFERA
 40
0.0
  9
$CHAMFERB
 40
0.0
  9
$CHAMFERC
 40
0.0
  9
$CHAMFERD
 40
0.0
  9
$SKPOLY
 70
     0
  9
$TDCREATE
 40
2450019.220429398
  9
$TDUCREATE
 40
2450019.470429398
  9
$TDUPDATE
 40
2456722.295218461
  9
$TDUUPDATE
 40
2456722.545218461
  9
$TDINDWG
 40
0.0865199537
  9
$TDUSRTIMER
 40
0.0865199537
  9
$USRTIMER
 70
     1
  9
$ANGBASE
 50
0.0
  9
$ANGDIR
 70
     0
  9
$PDMODE
 70
     0
  9
$PDSIZE
 40
0.0
  9
$PLINEWID
 40
0.0
  9
$SPLFRAME
 70
     0
  9
$SPLINETYPE
 70
     6
  9
$SPLINESEGS
 70
     8
  9
$HANDSEED
  5
2114
  9
$SURFTAB1
 70
     6
  9
$SURFTAB2
 70
     6
  9
$SURFTYPE
 70
     6
  9
$SURFU
 70
     6
  9
$SURFV
 70
     6
  9
$UCSBASE
  2

  9
$UCSNAME
  2

  9
$UCSORG
 10
0.0
 20
0.0
 30
0.0
  9
$UCSXDIR
 10
1.0
 20
0.0
 30
0.0
  9
$UCSYDIR
 10
0.0
 20
1.0
 30
0.0
  9
$UCSORTHOREF
  2

  9
$UCSORTHOVIEW
 70
     0
  9
$UCSORGTOP
 10
0.0
 20
0.0
 30
0.0
  9
$UCSORGBOTTOM
 10
0.0
 20
0.0
 30
0.0
  9
$UCSORGLEFT
 10
0.0
 20
0.0
 30
0.0
  9
$UCSORGRIGHT
 10
0.0
 20
0.0
 30
0.0
  9
$UCSORGFRONT
 10
0.0
 20
0.0
 30
0.0
  9
$UCSORGBACK
 10
0.0
 20
0.0
 30
0.0
  9
$PUCSBASE
  2

  9
$PUCSNAME
  2

  9
$PUCSORG
 10
0.0
 20
0.0
 30
0.0
  9
$PUCSXDIR
 10
1.0
 20
0.0
 30
0.0
  9
$PUCSYDIR
 10
0.0
 20
1.0
 30
0.0
  9
$PUCSORTHOREF
  2

  9
$PUCSORTHOVIEW
 70
     0
  9
$PUCSORGTOP
 10
0.0
 20
0.0
 30
0.0
  9
$PUCSORGBOTTOM
 10
0.0
 20
0.0
 30
0.0
  9
$PUCSORGLEFT
 10
0.0
 20
0.0
 30
0.0
  9
$PUCSORGRIGHT
 10
0.0
 20
0.0
 30
0.0
  9
$PUCSORGFRONT
 10
0.0
 20
0.0
 30
0.0
  9
$PUCSORGBACK
 10
0.0
 20
0.0
 30
0.0
  9
$USERI1
 70
     0
  9
$USERI2
 70
     0
  9
$USERI3
 70
     0
  9
$USERI4
 70
     0
  9
$USERI5
 70
     0
  9
$USERR1
 40
0.0
  9
$USERR2
 40
0.0
  9
$USERR3
 40
0.0
  9
$USERR4
 40
0.0
  9
$USERR5
 40
0.0
  9
$WORLDVIEW
 70
     1
  9
$SHADEDGE
 70
     3
  9
$SHADEDIF
 70
    70
  9
$TILEMODE
 70
     1
  9
$MAXACTVP
 70
    16
  9
$PINSBASE
 10
0.0
 20
0.0
 30
0.0
  9
$PLIMCHECK
 70
     0
  9
$PEXTMIN
 10
1.000000000000000E+20
 20
1.000000000000000E+20
 30
1.000000000000000E+20
  9
$PEXTMAX
 10
-1.000000000000000E+20
 20
-1.000000000000000E+20
 30
-1.000000000000000E+20
  9
$PLIMMIN
 10
0.0
 20
0.0
  9
$PLIMMAX
 10
12.0
 20
9.0
  9
$UNITMODE
 70
     0
  9
$VISRETAIN
 70
     0
  9
$PLINEGEN
 70
     0
  9
$PSLTSCALE
 70
     1
  9
$TREEDEPTH
 70
  3020
  9
$CMLSTYLE
  2
STANDARD
  9
$CMLJUST
 70
     0
  9
$CMLSCALE
 40
1.0
  9
$PROXYGRAPHICS
 70
     1
  9
$MEASUREMENT
 70
     0
  9
$CELWEIGHT
370
    -1
  9
$ENDCAPS
280
     0
  9
$JOINSTYLE
280
     0
  9
$LWDISPLAY
290
     0
  9
$INSUNITS
 70
     0
  9
$HYPERLINKBASE
  1

  9
$STYLESHEET
  1

  9
$XEDIT
290
     1
  9
$CEPSNTYPE
380
     0
  9
$PSTYLEMODE
290
     1
  9
$FINGERPRINTGUID
  2
{B16257F6-CC28-11D8-A1BF-00C04F0587E9}
  9
$VERSIONGUID
  2
{818925A0-1774-4C6A-A202-E6E28598CACF}
  9
$EXTNAMES
290
     1
  9
$PSVPSCALE
 40
0.0
  9
$OLESTARTUP
290
     0
  9
$SORTENTS
280
   127
  9
$INDEXCTL
280
     0
  9
$HIDETEXT
280
     0
  9
$XCLIPFRAME
280
     0
  9
$HALOGAP
280
     0
  9
$OBSCOLOR
 70
   257
  9
$OBSLTYPE
280
     0
  9
$INTERSECTIONDISPLAY
280
     0
  9
$INTERSECTIONCOLOR
 70
   257
  9
$DIMASSOC
280
     1
  9
$PROJECTNAME
  1

  9
$CAMERADISPLAY
290
     0
  9
$LENSLENGTH
 40
50.0
  9
$CAMERAHEIGHT
 40
0.0
  9
$STEPSPERSEC
 40
2.0
  9
$STEPSIZE
 40
6.0
  9
$3DDWFPREC
 40
2.0
  9
$PSOLWIDTH
 40
0.25
  9
$PSOLHEIGHT
 40
4.0
  9
$LOFTANG1
 40
1.570796326794896
  9
$LOFTANG2
 40
1.570796326794896
  9
$LOFTMAG1
 40
0.0
  9
$LOFTMAG2
 40
0.0
  9
$LOFTPARAM
 70
     7
  9
$LOFTNORMALS
280
     1
  9
$LATITUDE
 40
37.795
  9
$LONGITUDE
 40
-122.394
  9
$NORTHDIRECTION
 40
0.0
  9
$TIMEZONE
 70
 -8000
  9
$LIGHTGLYPHDISPLAY
280
     1
  9
$TILEMODELIGHTSYNCH
280
     1
  9
$CMATERIAL
347
2062
  9
$SOLIDHIST
280
     1
  9
$SHOWHIST
280
     1
  9
$DWFFRAME
280
     2
  9
$DGNFRAME
280
     0
  9
$REALWORLDSCALE
290
     1
  9
$INTERFERECOLOR
 62
     1
  9
$INTERFEREOBJVS
345
206F
  9
$INTERFEREVPVS
346
20DE
  9
$CSHADOW
280
     0
  9
$SHADOWPLANELOCATION
 40
0.0
  0
ENDSEC
  0
SECTION
  2
CLASSES
  0
CLASS
  1
ACDBDICTIONARYWDFLT
  2
AcDbDictionaryWithDefault
  3
ObjectDBX Classes
 90
        0
 91
        1
280
     0
281
     0
  0
CLASS
  1
ACDBPLACEHOLDER
  2
AcDbPlaceHolder
  3
ObjectDBX Classes
 90
        0
 91
        1
280
     0
281
     0
  0
CLASS
  1
LAYOUT
  2
AcDbLayout
  3
ObjectDBX Classes
 90
        0
 91
        2
280
     0
281
     0
  0
CLASS
  1
TABLESTYLE
  2
AcDbTableStyle
  3
ObjectDBX Classes
 90
     4095
 91
        1
280
     0
281
     0
  0
CLASS
  1
ACME_DOCUMENT
  2
AcMeDbDoc
  3
AcMeServices
 90
        0
 91
        0
280
     0
281
     0
  0
CLASS
  1
AMGSETTINGSOBJ
  2
AmgSettingsObj
  3
"AcadM|Product Description: AutoCAD Mechanical|Company: Autodesk"
 90
        0
 91
        2
280
     0
281
     0
  0
CLASS
  1
ACMESCOPE
  2
AcMeScope
  3
AcMeServices
 90
        0
 91
        1
280
     0
281
     0
  0
CLASS
  1
ACMECOMMANDHISTORY
  2
AcMeCommandHistory
  3
AcMeServices
 90
        0
 91
        1
280
     0
281
     0
  0
CLASS
  1
ACIMSYSVARMAN
  2
AcImSysVarManager
  3
AcMeServices
 90
        0
 91
        5
280
     0
281
     0
  0
CLASS
  1
ACIMINTSYSVAR
  2
AcImIntSysVar
  3
AcMeServices
 90
        0
 91
       27
280
     0
281
     0
  0
CLASS
  1
ACMEDRAWINGMAN
  2
AcMeDrawingMan
  3
AcMeServices
 90
        0
 91
        1
280
     0
281
     0
  0
CLASS
  1
ACMEVIEW
  2
AcMeView
  3
AcMeServices
 90
        0
 91
        1
280
     0
281
     0
  0
CLASS
  1
ACDBENTITYCACHE
  2
AcMeEntityCache
  3
AcMeServices
 90
        0
 91
        0
280
     0
281
     0
  0
CLASS
  1
GSMANAGER
  2
AcMeGSManager
  3
AcMeServices
 90
        0
 91
        0
280
     0
281
     0
  0
CLASS
  1
AMDTINTERNALREACTOR
  2
AmdtInternalReactor
  3
AcMeServices
 90
        0
 91
        0
280
     0
281
     0
  0
CLASS
  1
ACMESTATEMGR
  2
AcMeStateMgr
  3
AcMeServices
 90
        0
 91
        1
280
     0
281
     0
  0
CLASS
  1
ACGREFMASTER
  2
AcGrefMaster
  3
AcAttribServices
 90
        0
 91
        1
280
     0
281
     0
  0
CLASS
  1
AM_DRAWING_MGR
  2
AcDmDwgMgr
  3
AcMechDwgViewMgmt
 90
        0
 91
        1
280
     0
281
     0
  0
CLASS
  1
AM_DWG_DOCUMENT
  2
AcDmDwgDocument
  3
AcMechDwgViewMgmt
 90
        0
 91
        1
280
     0
281
     0
  0
CLASS
  1
AM_DWG_SHEET
  2
AcDmSheet
  3
AcMechDwgViewMgmt
 90
        0
 91
        1
280
     0
281
     0
  0
CLASS
  1
AM_VIEWDIMPARMAP
  2
AcDmViewDimParMap
  3
AcMechDwgViewMgmt
 90
        0
 91
        1
280
     0
281
     0
  0
CLASS
  1
ACIMREALSYSVAR
  2
AcImRealSysVar
  3
AcMeServices
 90
        0
 91
        1
280
     0
281
     0
  0
CLASS
  1
AM_DWGMGR_NAME
  2
AcDmDwgMgrName
  3
AcMechDwgViewMgmt
 90
        0
 91
        1
280
     0
281
     0
  0
CLASS
  1
ACME_DATABASE
  2
AcMeDbDatabase
  3
AcMeServices
 90
        0
 91
        0
280
     0
281
     0
  0
CLASS
  1
ACRFINSADJUSTERMGR
  2
AcRfInsAdjusterMgr
  3
AcMeServices
 90
        0
 91
        0
280
     0
281
     0
  0
CLASS
  1
ACGREFACADMASTER
  2
AcGrefacadMaster
  3
AcGrefServices
 90
        0
 91
        1
280
     0
281
     0
  0
CLASS
  1
AMDTMENUSTATEMGR
  2
AmdtMenuStateMgr
  3
McadcomServices
 90
        0
 91
        0
280
     0
281
     0
  0
CLASS
  1
AMDTMCOMMENUSTATE
  2
AmdtMcomMenuState
  3
McadcomServices
 90
        0
 91
        0
280
     0
281
     0
  0
CLASS
  1
AMIMASTER
  2
AmiMaster
  3
AmiServices
 90
        0
 91
        1
280
     0
281
     0
  0
CLASS
  1
MAPIAMMOUDLE
  2
MApiAmModule
  3
MApiAmServices
 90
        0
 91
        1
280
     0
281
     0
  0
CLASS
  1
AMDTADMENUSTATE
  2
AmdtAdMenuState
  3
DesignerServices
 90
        0
 91
        0
280
     0
281
     0
  0
CLASS
  1
ADAPPL
  2
AcAdAppl
  3
DesignerServices
 90
        0
 91
        1
280
     0
281
     0
  0
CLASS
  1
DEPMGR
  2
AcAdDepMgr
  3
DesignerServices
 90
        0
 91
        1
280
     0
281
     0
  0
CLASS
  1
PARAMMGR
  2
AcAdParamMgr
  3
DesignerServices
 90
        0
 91
        1
280
     0
281
     0
  0
CLASS
  1
PARAMSCOPE
  2
AcAdParamScope
  3
DesignerServices
 90
        0
 91
        1
280
     0
281
     0
  0
CLASS
  1
NAMEDAPPL
  2
AcAdNamedAppl
  3
DesignerServices
 90
        0
 91
        1
280
     0
281
     0
  0
CLASS
  1
AMDTDMMENUSTATE
  2
AmdtDmMenuState
  3
AcMechDwgViewMgmt
 90
        0
 91
        0
280
     0
281
     0
  0
CLASS
  1
AMDTAMMENUSTATE
  2
AmdtAmMenuState
  3
DesignerAssemblies
 90
        0
 91
        0
280
     0
281
     0
  0
CLASS
  1
ACIMSTRSYSVAR
  2
AcImStrSysVar
  3
AcMeServices
 90
        0
 91
        5
280
     0
281
     0
  0
CLASS
  1
ACAMPROJECT
  2
AcAmProject
  3
DesignerAssemblies
 90
        0
 91
        1
280
     0
281
     0
  0
CLASS
  1
ACAMGRCOMPDEF
  2
AcAmGrCompDef
  3
DesignerAssemblies
 90
        0
 91
        1
280
     0
281
     0
  0
CLASS
  1
ACCMCONTEXT
  2
AcCmContext
  3
DesignerAssemblies
 90
        0
 91
        1
280
     0
281
     0
  0
CLASS
  1
ACAMCOMPDEF
  2
AcAmCompDef
  3
DesignerAssemblies
 90
        0
 91
        1
280
     0
281
     0
  0
CLASS
  1
ACAMCOMPDEFMGR
  2
AcAmCompDefMgr
  3
DesignerAssemblies
 90
        0
 91
        1
280
     0
281
     0
  0
CLASS
  1
AMCONTEXTMGR
  2
AcAmContextMgr
  3
DesignerAssemblies
 90
        0
 91
        1
280
     0
281
     0
  0
CLASS
  1
ACAMCONTEXTMODELER
  2
AcAmContextModeler
  3
DesignerAssemblies
 90
        0
 91
        1
280
     0
281
     0
  0
CLASS
  1
ACMDATADICTIONARY
  2
AcmDataDictionary
  3
"AcmSymBB|Product Description: AutoCAD Mechanical|Company: Autodesk"
 90
        0
 91
        1
280
     0
281
     0
  0
CLASS
  1
CATALOGSTATE
  2
AcAmCatalogState
  3
DesignerAssemblies
 90
        0
 91
        1
280
     0
281
     0
  0
CLASS
  1
ACAMGRCOMPDEFSET
  2
AcAmGrCompDefSet
  3
DesignerAssemblies
 90
        0
 91
        0
280
     0
281
     0
  0
CLASS
  1
AMDTBROWSERDBTAB
  2
AmdtBrowserDbTab
  3
McadcomServices
 90
        0
 91
        0
280
     0
281
     0
  0
CLASS
  1
CBROWSERAPPOBJECT
  2
CBrowserAppObject
  3
McadcomServices
 90
        0
 91
        0
280
     0
281
     0
  0
CLASS
  1
DM_PLACEHOLDER
  2
AcDmSelsetPlaceholder
  3
AcMechDwgViewMgmt
 90
        0
 91
        0
280
     0
281
     0
  0
CLASS
  1
ACMSTANDARDANSI
  2
AcmStandardANSI
  3
"Amdt_StdImp|Product Description: AutoCAD Mechanical|Company: Autodesk"
 90
        0
 91
        1
280
     0
281
     0
  0
CLASS
  1
AMGOBJPROPCFG
  2
AmgObjPropCfg
  3
"AmgLay|Product Description: AutoCAD Mechanical|Company: Autodesk"
 90
        1
 91
        1
280
     0
281
     0
  0
CLASS
  1
ACMSURFSTANDARDANSI
  2
AcmSurfTextStdANSI
  3
"Amdt_StdImp|Product Description: AutoCAD Mechanical|Company: Autodesk"
 90
        0
 91
        1
280
     0
281
     0
  0
CLASS
  1
ACMFCFSTANDARDANSI
  2
AcmFCFStdANSI
  3
"Amdt_StdImp|Product Description: AutoCAD Mechanical|Company: Autodesk"
 90
        0
 91
        1
280
     0
281
     0
  0
CLASS
  1
ACMWELDSTANDARDANSI
  2
AcmWeldingStdANSI
  3
"Amdt_StdImp|Product Description: AutoCAD Mechanical|Company: Autodesk"
 90
        0
 91
        1
280
     0
281
     0
  0
CLASS
  1
ACMIDSTANDARDANSI
  2
AcmIdStdANSI
  3
"Amdt_StdImp|Product Description: AutoCAD Mechanical|Company: Autodesk"
 90
        0
 91
        1
280
     0
281
     0
  0
CLASS
  1
ACMDATUMSTANDARDANSI
  2
AcmDatumStdANSI
  3
"Amdt_StdImp|Product Description: AutoCAD Mechanical|Company: Autodesk"
 90
        0
 91
        1
280
     0
281
     0
  0
CLASS
  1
ACMBOMSTANDARDANSI
  2
AcmBOMStdANSI
  3
"Amdt_StdImp|Product Description: AutoCAD Mechanical|Company: Autodesk"
 90
        0
 91
        1
280
     0
281
     0
  0
CLASS
  1
ACMDETAILSTANDARDANSI
  2
AmdtDetailSymStdANSI
  3
"Amdt_StdImp|Product Description: AutoCAD Mechanical|Company: Autodesk"
 90
        0
 91
        1
280
     0
281
     0
  0
CLASS
  1
ACMSECTIONSTANDARDANSI
  2
AmdtSectionSymStdANSI
  3
"Amdt_StdImp|Product Description: AutoCAD Mechanical|Company: Autodesk"
 90
        0
 91
        1
280
     0
281
     0
  0
CLASS
  1
ACMCENTERLINESTANDARDANSI
  2
AmdtCenterLineStdANSI
  3
"Amdt_StdImp|Product Description: AutoCAD Mechanical|Company: Autodesk"
 90
        0
 91
        1
280
     0
281
     0
  0
CLASS
  1
ACMTHREADLINESTANDARDANSI
  2
AmdtThreadLineStdANSI
  3
"Amdt_StdImp|Product Description: AutoCAD Mechanical|Company: Autodesk"
 90
        0
 91
        1
280
     0
281
     0
  0
CLASS
  1
ACMNOTESTANDARDANSI
  2
AmdtNoteStdANSI
  3
"Amdt_StdImp|Product Description: AutoCAD Mechanical|Company: Autodesk"
 90
        0
 91
        1
280
     0
281
     0
  0
CLASS
  1
AMDTNOTETEMPLATEDB
  2
AmdtNoteTemplateDB
  3
AMDT_STDIMP_MODULE_NAME
 90
        0
 91
        5
280
     0
281
     0
  0
CLASS
  1
ACAMGLAYSTD
  2
AcAmgLayStd
  3
"AmgLay|Product Description: AutoCAD Mechanical|Company: Autodesk"
 90
        0
 91
        1
280
     0
281
     0
  0
CLASS
  1
ACAMGDIMSTD
  2
AcAmgDimStd
  3
"AmgDim|Product Description: AutoCAD Mechanical|Company: Autodesk"
 90
        0
 91
        1
280
     0
281
     0
  0
CLASS
  1
ACAMGHOLECHARTSTDANSI
  2
AcAmgHoleChartStdANSI
  3
ACMSYMBB_MODULE_NAME
 90
        0
 91
        1
280
     0
281
     0
  0
CLASS
  1
ACAMGTITLESTD
  2
AcAmgTitleStd
  3
"AmgTitle|Product Description: AutoCAD Mechanical|Company: Autodesk"
 90
        0
 91
        1
280
     0
281
     0
  0
CLASS
  1
SORTENTSTABLE
  2
AcDbSortentsTable
  3
ObjectDBX Classes
 90
        0
 91
        2
280
     0
281
     0
  0
CLASS
  1
ACAMGFILTERDAT
  2
AcAmgFilterDat
  3
"AcadM|Product Description: AutoCAD Mechanical|Company: Autodesk"
 90
        0
 91
        6
280
     0
281
     0
  0
CLASS
  1
DICTIONARYVAR
  2
AcDbDictionaryVar
  3
ObjectDBX Classes
 90
        0
 91
        9
280
     0
281
     0
  0
CLASS
  1
MATERIAL
  2
AcDbMaterial
  3
ObjectDBX Classes
 90
     1153
 91
        3
280
     0
281
     0
  0
CLASS
  1
VISUALSTYLE
  2
AcDbVisualStyle
  3
ObjectDBX Classes
 90
     4095
 91
       26
280
     0
281
     0
  0
CLASS
  1
ACMTAPERSTANDARDANSI
  2
AcmTaperStdANSI
  3
"Amdt_StdImp|Product Description: AutoCAD Mechanical|Company: Autodesk"
 90
        0
 91
        1
280
     0
281
     0
  0
CLASS
  1
CAMSSTRUCTBTNSTATE
  2
StructBtnState
  3
L"DesignerAssemblies"
 90
        0
 91
        1
280
     0
281
     0
  0
CLASS
  1
SCALE
  2
AcDbScale
  3
ObjectDBX Classes
 90
     1153
 91
       17
280
     0
281
     0
  0
CLASS
  1
MLEADERSTYLE
  2
AcDbMLeaderStyle
  3
ACDB_MLEADERSTYLE_CLASS
 90
     4095
 91
        1
280
     0
281
     0
  0
CLASS
  1
CELLSTYLEMAP
  2
AcDbCellStyleMap
  3
ObjectDBX Classes
 90
     1152
 91
        1
280
     0
281
     0
  0
ENDSEC
  0
SECTION
  2
TABLES
  0
TABLE
  2
VPORT
  5
8
330
0
100
AcDbSymbolTable
 70
     1
  0
VPORT
  5
205B
330
8
100
AcDbSymbolTableRecord
100
AcDbViewportTableRecord
  2
*Active
 70
     0
 10
0.0
 20
0.0
 11
1.0
 21
1.0
 12
32.00000029803417
 22
20.87500019442091
 13
0.0
 23
0.0
 14
1.0
 24
1.0
 15
0.0
 25
0.0
 16
0.0
 26
0.0
 36
1.0
 17
0.0
 27
0.0
 37
0.0
 40
42.03818199170399
 41
2.16628959276018
 42
50.0
 43
0.0
 44
0.0
 50
0.0
 51
0.0
 71
     0
 72
   100
 73
     1
 74
     0
 75
     0
 76
     0
 77
     0
 78
     0
281
     0
 65
     1
110
0.0
120
0.0
130
0.0
111
1.0
121
0.0
131
0.0
112
0.0
122
1.0
132
0.0
 79
     0
146
0.0
348
206B
 60
     3
 61
     5
292
     1
282
     1
141
0.0
142
0.0
 63
   250
421
  3355443
  0
ENDTAB
  0
TABLE
  2
LTYPE
  5
5
330
0
100
AcDbSymbolTable
 70
    16
  0
LTYPE
  5
12
330
5
100
AcDbSymbolTableRecord
100
AcDbLinetypeTableRecord
  2
BYBLOCK
 70
     0
  3

 72
    65
 73
     0
 40
0.0
  0
LTYPE
  5
13
330
5
100
AcDbSymbolTableRecord
100
AcDbLinetypeTableRecord
  2
BYLAYER
 70
     0
  3

 72
    65
 73
     0
 40
0.0
  0
LTYPE
  5
14
330
5
100
AcDbSymbolTableRecord
100
AcDbLinetypeTableRecord
  2
CONTINUOUS
 70
     0
  3
Solid line
 72
    65
 73
     0
 40
0.0
  0
LTYPE
  5
1F
330
5
100
AcDbSymbolTableRecord
100
AcDbLinetypeTableRecord
  2
HIDDEN
 70
     0
  3
_ _ _ _ _ _ _ _ _ _ _ _ _ _ _ _ _ _ _ _ _ _ _
 72
    65
 73
     2
 40
0.375
 49
0.25
 74
     0
 49
-0.125
 74
     0
  0
LTYPE
  5
20
330
5
100
AcDbSymbolTableRecord
100
AcDbLinetypeTableRecord
  2
CENTER
 70
     0
  3
____ _ ____ _ ____ _ ____ _ ____ _ ____ _ ____
 72
    65
 73
     4
 40
2.0
 49
1.25
 74
     0
 49
-0.25
 74
     0
 49
0.25
 74
     0
 49
-0.25
 74
     0
  0
LTYPE
  5
1616
330
5
100
AcDbSymbolTableRecord
100
AcDbLinetypeTableRecord
  2
PHANTOM2
 70
     0
  3
Phantom (.5x) ___ _ _ ___ _ _ ___ _ _ ___ _ _
 72
    65
 73
     6
 40
1.25
 49
0.625
 74
     0
 49
-0.125
 74
     0
 49
0.125
 74
     0
 49
-0.125
 74
     0
 49
0.125
 74
     0
 49
-0.125
 74
     0
  0
LTYPE
  5
164A
330
5
100
AcDbSymbolTableRecord
100
AcDbLinetypeTableRecord
  2
AM_ISO02W050
 70
     0
  3
__ __ __ __ __ __ __ __ __ __ __ __ __ __ __
 72
    65
 73
     2
 40
7.5
 49
6.0
 74
     0
 49
-1.5
 74
     0
  0
LTYPE
  5
164B
330
5
100
AcDbSymbolTableRecord
100
AcDbLinetypeTableRecord
  2
AM_ISO08W050
 70
     0
  3
____ . ____ . ____ . ____ . ____ . ____ . ____
 72
    65
 73
     4
 40
18.0
 49
12.0
 74
     0
 49
-1.5
 74
     0
 49
3.0
 74
     0
 49
-1.5
 74
     0
  0
LTYPE
  5
164C
330
5
100
AcDbSymbolTableRecord
100
AcDbLinetypeTableRecord
  2
AM_ISO09W050
 70
     0
  3
_____ . . _____ . . _____ . . ____ .. ____
 72
    65
 73
     6
 40
22.5
 49
12.0
 74
     0
 49
-1.5
 74
     0
 49
3.0
 74
     0
 49
-1.5
 74
     0
 49
3.0
 74
     0
 49
-1.5
 74
     0
  0
LTYPE
  5
164D
330
5
100
AcDbSymbolTableRecord
100
AcDbLinetypeTableRecord
  2
Amconstr
 70
     0
  3
_______________________
 72
    65
 73
     2
 40
9999.0
 49
9999.0
 74
     0
 49
0.0
 74
     0
  0
LTYPE
  5
164E
330
5
100
AcDbSymbolTableRecord
100
AcDbLinetypeTableRecord
  2
AM_ISO08W050x2
 70
     0
  3
__ . __ . __ . __ . __ . __
 72
    65
 73
     4
 40
9.0
 49
6.0
 74
     0
 49
-0.75
 74
     0
 49
1.5
 74
     0
 49
-0.75
 74
     0
  0
LTYPE
  5
164F
330
5
100
AcDbSymbolTableRecord
100
AcDbLinetypeTableRecord
  2
AM_ISO02W050x2
 70
     0
  3
 _ _ _ _ _ _ _ _ _ _ _ _
 72
    65
 73
     2
 40
3.75
 49
3.0
 74
     0
 49
-0.75
 74
     0
  0
LTYPE
  5
1652
330
5
100
AcDbSymbolTableRecord
100
AcDbLinetypeTableRecord
  2
Amzigzag
 70
     0
  3
/\/-/\/-/\/-/\/-/\/-/\/
 72
    65
 73
     2
 40
11.0001
 49
0.0001
 74
     4
 75
   135
340
1651
 46
0.04
 50
0.0
 44
0.0
 45
0.0
 49
-11.0
 74
     0
  0
LTYPE
  5
1653
330
5
100
AcDbSymbolTableRecord
100
AcDbLinetypeTableRecord
  2
CENTER2
 70
     0
  3
Center (.5x) ___ _ ___ _ ___ _ ___ _ ___ _ ___
 72
    65
 73
     4
 40
1.125
 49
0.75
 74
     0
 49
-0.125
 74
     0
 49
0.125
 74
     0
 49
-0.125
 74
     0
  0
LTYPE
  5
1654
330
5
100
AcDbSymbolTableRecord
100
AcDbLinetypeTableRecord
  2
HIDDEN2
 70
     0
  3
Hidden (.5x) _ _ _ _ _ _ _ _ _ _ _ _ _ _ _ _ _
 72
    65
 73
     2
 40
0.1875
 49
0.125
 74
     0
 49
-0.0625
 74
     0
  0
LTYPE
  5
1655
330
5
100
AcDbSymbolTableRecord
100
AcDbLinetypeTableRecord
  2
Amzigzag2
 70
     0
  3
/\/-/\/-/\/-/\/-/\/-/\/
 72
    65
 73
     2
 40
0.4401
 49
0.0001
 74
     4
 75
   135
340
1651
 46
0.0016
 50
0.0
 44
0.0
 45
0.0
 49
-0.4400000000000001
 74
     0
  0
LTYPE
  5
1663
330
5
100
AcDbSymbolTableRecord
100
AcDbLinetypeTableRecord
  2
ACANSTGB
 70
     0
  3
__ . . __ . .
 72
    65
 73
     6
 40
0.35433070866
 49
0.15748031496
 74
     0
 49
-0.03937007874
 74
     0
 49
0.03937007874
 74
     0
 49
-0.03937007874
 74
     0
 49
0.03937007874
 74
     0
 49
-0.03937007874
 74
     0
  0
LTYPE
  5
1664
330
5
100
AcDbSymbolTableRecord
100
AcDbLinetypeTableRecord
  2
ACANSTGL
 70
     0
  3
_ _ _ _ _
 72
    65
 73
     2
 40
0.11811023622
 49
0.07874015748
 74
     0
 49
-0.03937007874
 74
     0
  0
ENDTAB
  0
TABLE
  2
LAYER
  5
2
102
{ACAD_XDICTIONARY
360
20D2
102
}
330
0
100
AcDbSymbolTable
 70
    10
  0
LAYER
  5
F
330
2
100
AcDbSymbolTableRecord
100
AcDbLayerTableRecord
  2
0
 70
     0
 62
     7
  6
CONTINUOUS
370
    -3
390
15B8
347
2064
  0
LAYER
  5
23
330
2
100
AcDbSymbolTableRecord
100
AcDbLayerTableRecord
  2
DIM
 70
     0
 62
     3
  6
CONTINUOUS
370
    -3
390
15B8
347
2064
  0
LAYER
  5
24
330
2
100
AcDbSymbolTableRecord
100
AcDbLayerTableRecord
  2
HATCH
 70
     0
 62
     4
  6
CONTINUOUS
370
    -3
390
15B8
347
2064
  0
LAYER
  5
25
330
2
100
AcDbSymbolTableRecord
100
AcDbLayerTableRecord
  2
PN
 70
     0
 62
     6
  6
CONTINUOUS
370
    -3
390
15B8
347
2064
  0
LAYER
  5
26
330
2
100
AcDbSymbolTableRecord
100
AcDbLayerTableRecord
  2
HIDE
 70
     0
 62
     5
  6
HIDDEN
370
    -3
390
15B8
347
2064
  0
LAYER
  5
27
330
2
100
AcDbSymbolTableRecord
100
AcDbLayerTableRecord
  2
CENTER
 70
     0
 62
     2
  6
CENTER
370
    -3
390
15B8
347
2064
  0
LAYER
  5
28
330
2
100
AcDbSymbolTableRecord
100
AcDbLayerTableRecord
  2
TITLE
 70
     0
 62
     1
  6
CONTINUOUS
370
    -3
390
15B8
347
2064
  0
LAYER
  5
86A
330
2
100
AcDbSymbolTableRecord
100
AcDbLayerTableRecord
  2
DEFPOINTS
 70
     0
 62
    -7
  6
CONTINUOUS
290
     0
370
    -3
390
15B8
347
2064
  0
LAYER
  5
16E3
330
2
100
AcDbSymbolTableRecord
100
AcDbLayerTableRecord
  2
AM_5
 70
     0
 62
     3
  6
CONTINUOUS
370
    15
390
15B8
347
2064
  0
LAYER
  5
16E4
330
2
100
AcDbSymbolTableRecord
100
AcDbLayerTableRecord
  2
AM_9
 70
     0
 62
   253
  6
CONTINUOUS
290
     0
370
     0
390
15B8
347
2064
  0
ENDTAB
  0
TABLE
  2
STYLE
  5
3
330
0
100
AcDbSymbolTable
 70
     6
  0
STYLE
  5
10
330
3
100
AcDbSymbolTableRecord
100
AcDbTextStyleTableRecord
  2
STANDARD
 70
     0
 40
0.0
 41
1.0
 50
0.0
 71
     0
 42
0.2
  3
txt
  4

  0
STYLE
  5
1E
330
3
100
AcDbSymbolTableRecord
100
AcDbTextStyleTableRecord
  2
ITALIC
 70
     0
 40
0.0
 41
1.0
 50
0.0
 71
     0
 42
0.2
  3
txt
  4

  0
STYLE
  5
DBA
330
3
100
AcDbSymbolTableRecord
100
AcDbTextStyleTableRecord
  2
STYLE1
 70
     0
 40
0.0
 41
1.0
 50
0.0
 71
     0
 42
0.25
  3
swiss.ttf
  4

1001
ACAD
1000
Swis721 BT
1071
       34
  0
STYLE
  5
1651
330
3
100
AcDbSymbolTableRecord
100
AcDbTextStyleTableRecord
  2

 70
     1
 40
0.0
 41
1.0
 50
0.0
 71
     0
 42
0.2
  3
ltypeshp.shx
  4

  0
STYLE
  5
1656
330
3
100
AcDbSymbolTableRecord
100
AcDbTextStyleTableRecord
  2
ACANSTS
 70
     0
 40
1.0
 41
1.0
 50
0.0
 71
     0
 42
0.2
  3
romans.shx
  4

  0
STYLE
  5
1662
330
3
100
AcDbSymbolTableRecord
100
AcDbTextStyleTableRecord
  2
ACANSGDT
 70
     0
 40
0.0
 41
1.0
 50
0.0
 71
     0
 42
0.2
  3
amgdtans.shx
  4

  0
ENDTAB
  0
TABLE
  2
VIEW
  5
6
330
0
100
AcDbSymbolTable
 70
     0
  0
ENDTAB
  0
TABLE
  2
UCS
  5
7
330
0
100
AcDbSymbolTable
 70
     0
  0
ENDTAB
  0
TABLE
  2
APPID
  5
9
330
0
100
AcDbSymbolTable
 70
    14
  0
APPID
  5
11
330
9
100
AcDbSymbolTableRecord
100
AcDbRegAppTableRecord
  2
ACAD
 70
     0
  0
APPID
  5
15E9
330
9
100
AcDbSymbolTableRecord
100
AcDbRegAppTableRecord
  2
MCAD_NO_VIS
 70
     0
  0
APPID
  5
15EA
330
9
100
AcDbSymbolTableRecord
100
AcDbRegAppTableRecord
  2
ACAD_TEMP_GRAPHIC
 70
     0
  0
APPID
  5
1618
330
9
100
AcDbSymbolTableRecord
100
AcDbRegAppTableRecord
  2
AD_DRAW
 70
     0
  0
APPID
  5
161B
330
9
100
AcDbSymbolTableRecord
100
AcDbRegAppTableRecord
  2
ACATTRIBSERVICES
 70
     0
  0
APPID
  5
1639
330
9
100
AcDbSymbolTableRecord
100
AcDbRegAppTableRecord
  2
DESIGNERASSEMBLIES
 70
     0
  0
APPID
  5
163F
330
9
100
AcDbSymbolTableRecord
100
AcDbRegAppTableRecord
  2
ACADM_DIM_EDIT
 70
     0
  0
APPID
  5
1640
330
9
100
AcDbSymbolTableRecord
100
AcDbRegAppTableRecord
  2
AMDT_DM_ADJ
 70
     0
  0
APPID
  5
16E6
330
9
100
AcDbSymbolTableRecord
100
AcDbRegAppTableRecord
  2
GENIUS_GENODEF_13
 70
     0
  0
APPID
  5
16E7
330
9
100
AcDbSymbolTableRecord
100
AcDbRegAppTableRecord
  2
GENIUS_GENOLIS_13
 70
     0
  0
APPID
  5
16E8
330
9
100
AcDbSymbolTableRecord
100
AcDbRegAppTableRecord
  2
GENIUS_GENOENT_13
 70
     0
  0
APPID
  5
16E9
330
9
100
AcDbSymbolTableRecord
100
AcDbRegAppTableRecord
  2
GENIUS_GENOBJ-N-CRS_13
 70
     0
  0
APPID
  5
16EA
330
9
100
AcDbSymbolTableRecord
100
AcDbRegAppTableRecord
  2
GENIUS_GENOREF_13
 70
     0
  0
APPID
  5
2043
330
9
100
AcDbSymbolTableRecord
100
AcDbRegAppTableRecord
  2
ACAD_PSEXT
 70
     0
  0
ENDTAB
  0
TABLE
  2
DIMSTYLE
  5
A
330
0
100
AcDbSymbolTable
 70
     8
100
AcDbDimStyleTable
 71
     1
340
2F7
  0
DIMSTYLE
105
2F7
102
{ACAD_REACTORS
330
1FA6
102
}
330
A
100
AcDbSymbolTableRecord
100
AcDbDimStyleTableRecord
  2
STANDARD
 70
     0
340
10
  0
DIMSTYLE
105
166E
330
A
100
AcDbSymbolTableRecord
100
AcDbDimStyleTableRecord
  2
AM_ANSI
 70
     0
  4
mm
 41
0.1
 42
0.05
 43
0.5
 44
0.1
 47
0.1
 48
0.1
 78
     7
 79
     2
140
0.12
141
0.0
146
0.71
147
0.06
176
   256
177
   256
178
     2
274
     4
284
     7
340
10
371
    -1
372
    -1
  0
DIMSTYLE
105
166F
330
A
100
AcDbSymbolTableRecord
100
AcDbDimStyleTableRecord
  2
AM_ANSI$3
 70
     0
  4
mm
 41
0.1
 42
0.05
 43
0.5
 44
0.1
 47
0.1
 48
0.1
 78
     7
 79
     2
140
0.12
141
0.0
146
0.71
147
0.06
176
   256
177
   256
178
     2
274
     4
284
     7
288
     1
289
     0
340
10
371
    -1
372
    -1
  0
DIMSTYLE
105
1670
330
A
100
AcDbSymbolTableRecord
100
AcDbDimStyleTableRecord
  2
AM_ANSI$4
 70
     0
  4
mm
 41
0.1
 42
0.05
 43
0.5
 44
0.1
 47
0.1
 48
0.1
 78
     7
 79
     2
140
0.12
141
0.0
146
0.71
147
0.06
176
   256
177
   256
178
     2
274
     4
284
     7
288
     1
289
     0
340
10
371
    -1
372
    -1
  0
DIMSTYLE
105
1671
330
A
100
AcDbSymbolTableRecord
100
AcDbDimStyleTableRecord
  2
AM_ANSI$7
 70
     0
  4
mm
 41
0.1
 42
0.05
 43
0.5
 44
0.1
 47
0.1
 48
0.1
 78
     7
 79
     2
140
0.24
141
0.0
146
0.71
147
0.06
176
   256
177
   256
178
     2
274
     4
284
     7
340
10
371
    -1
372
    -1
  0
DIMSTYLE
105
1672
330
A
100
AcDbSymbolTableRecord
100
AcDbDimStyleTableRecord
  2
AM_ANSI$SF
 70
     0
  4
mm
 41
0.1
 42
0.05
 43
0.5
 44
0.1
 47
0.1
 48
0.1
 75
     1
 76
     1
 78
     7
 79
     2
140
0.12
141
0.0
146
0.71
147
0.06
176
   256
177
   256
178
     2
274
     4
284
     7
340
10
371
    -1
372
    -1
  0
DIMSTYLE
105
1677
330
A
100
AcDbSymbolTableRecord
100
AcDbDimStyleTableRecord
  2
AM_ANSI$SH
 70
     0
  4
mm
 41
0.1
 42
0.05
 43
0.5
 44
0.1
 47
0.1
 48
0.1
 75
     1
 76
     1
 78
     7
 79
     2
140
0.12
141
0.0
146
0.71
147
0.06
173
     1
176
   256
177
   256
178
     2
274
     4
284
     7
340
10
343
1673
371
    -1
372
    -1
  0
DIMSTYLE
105
16E5
102
{ACAD_REACTORS
330
1F88
330
1F8C
330
1F8D
330
1F8E
330
1F8F
102
}
330
A
100
AcDbSymbolTableRecord
100
AcDbDimStyleTableRecord
  2
STANDARD$0
 70
     0
340
10
  0
ENDTAB
  0
TABLE
  2
BLOCK_RECORD
  5
1
330
0
100
AcDbSymbolTable
 70
    11
  0
BLOCK_RECORD
  5
18
102
{ACAD_XDICTIONARY
360
20CF
102
}
330
1
100
AcDbSymbolTableRecord
100
AcDbBlockTableRecord
  2
*MODEL_SPACE
340
15BB
 70
     0
280
     1
281
     0
  0
BLOCK_RECORD
  5
15
330
1
100
AcDbSymbolTableRecord
100
AcDbBlockTableRecord
  2
*PAPER_SPACE
340
15BC
 70
     0
280
     1
281
     0
  0
BLOCK_RECORD
  5
1280
330
1
100
AcDbSymbolTableRecord
100
AcDbBlockTableRecord
  2
*X0
340
0
102
{BLKREFS
331
154B
102
}
 70
     0
280
     1
281
     0
  0
BLOCK_RECORD
  5
1536
330
1
100
AcDbSymbolTableRecord
100
AcDbBlockTableRecord
  2
T2
340
0
 70
     0
280
     1
281
     0
  0
BLOCK_RECORD
  5
1630
330
1
100
AcDbSymbolTableRecord
100
AcDbBlockTableRecord
  2
*U2
340
0
 70
     0
280
     1
281
     0
  0
BLOCK_RECORD
  5
1673
330
1
100
AcDbSymbolTableRecord
100
AcDbBlockTableRecord
  2
GENAXEH
340
0
 70
     0
280
     1
281
     0
  0
BLOCK_RECORD
  5
1FB1
330
1
100
AcDbSymbolTableRecord
100
AcDbBlockTableRecord
  2
*D4
340
0
 70
     0
280
     1
281
     0
  0
BLOCK_RECORD
  5
1FBE
330
1
100
AcDbSymbolTableRecord
100
AcDbBlockTableRecord
  2
*D5
340
0
 70
     0
280
     1
281
     0
  0
BLOCK_RECORD
  5
1FCB
330
1
100
AcDbSymbolTableRecord
100
AcDbBlockTableRecord
  2
*D6
340
0
 70
     0
280
     1
281
     0
  0
BLOCK_RECORD
  5
1FD9
330
1
100
AcDbSymbolTableRecord
100
AcDbBlockTableRecord
  2
*D7
340
0
 70
     0
280
     1
281
     0
  0
BLOCK_RECORD
  5
1FE6
330
1
100
AcDbSymbolTableRecord
100
AcDbBlockTableRecord
  2
*D8
340
0
 70
     0
280
     1
281
     0
  0
BLOCK_RECORD
  5
1FF3
330
1
100
AcDbSymbolTableRecord
100
AcDbBlockTableRecord
  2
*D9
340
0
 70
     0
280
     1
281
     0
  0
ENDTAB
  0
ENDSEC
  0
SECTION
  2
BLOCKS
  0
BLOCK
  5
2B
330
18
100
AcDbEntity
  8
0
100
AcDbBlockBegin
  2
*MODEL_SPACE
 70
     0
 10
0.0
 20
0.0
 30
0.0
  3
*MODEL_SPACE
  1

  0
ENDBLK
  5
2C
330
18
100
AcDbEntity
  8
0
100
AcDbBlockEnd
  0
BLOCK
  5
29
330
15
100
AcDbEntity
 67
     1
  8
0
100
AcDbBlockBegin
  2
*PAPER_SPACE
 70
     0
 10
0.0
 20
0.0
 30
0.0
  3
*PAPER_SPACE
  1

  0
ENDBLK
  5
2A
330
15
100
AcDbEntity
 67
     1
  8
0
100
AcDbBlockEnd
  0
BLOCK
  5
1305
330
1280
100
AcDbEntity
  8
0
100
AcDbBlockBegin
  2
*X0
 70
     1
 10
0.0
 20
0.0
 30
0.0
  3
*X0
  1

  0
LINE
  5
1281
330
1280
100
AcDbEntity
  8
0
 62
     0
100
AcDbLine
 10
27.3100072306796
 20
0.8708427403763453
 30
0.0
 11
27.48262201737051
 21
1.043457527067252
 31
0.0
  0
LINE
  5
1282
330
1280
100
AcDbEntity
  8
0
 62
     0
100
AcDbLine
 10
27.7520009141747
 20
1.312836423871451
 30
0.0
 11
27.85832174992691
 21
1.419157259623653
 31
0.0
  0
LINE
  5
1283
330
1280
100
AcDbEntity
  8
0
 62
     0
100
AcDbLine
 10
27.29895868722355
 20
0.8708427403763453
 30
0.0
 11
27.46965962331391
 21
1.0415436764667
 31
0.0
  0
LINE
  5
1284
330
1280
100
AcDbEntity
  8
0
 62
     0
100
AcDbLine
 10
27.74304416629002
 20
1.31492821944281
 30
0.0
 11
27.84727320647087
 21
1.419157259623653
 31
0.0
  0
LINE
  5
1285
330
1280
100
AcDbEntity
  8
0
 62
     0
100
AcDbLine
 10
27.28865529704658
 20
0.8715878936554052
 30
0.0
 11
27.45801642065249
 21
1.040949017261312
 31
0.0
  0
LINE
  5
1286
330
1280
100
AcDbEntity
  8
0
 62
     0
100
AcDbLine
 10
27.7335028142953
 20
1.316435410904124
 30
0.0
 11
27.83622466301482
 21
1.419157259623653
 31
0.0
  0
LINE
  5
1287
330
1280
100
AcDbEntity
  8
0
 62
     0
100
AcDbLine
 10
27.28248300637859
 20
0.876464146443461
 30
0.0
 11
27.44734340985173
 21
1.041324549916596
 31
0.0
  0
LINE
  5
1288
330
1280
100
AcDbEntity
  8
0
 62
     0
100
AcDbLine
 10
27.72327234467449
 20
1.317253484739355
 30
0.0
 11
27.82517611955878
 21
1.419157259623653
 31
0.0
  0
LINE
  5
1289
330
1280
100
AcDbEntity
  8
0
 62
     0
100
AcDbLine
 10
27.2804374266431
 20
0.8854671101640105
 30
0.0
 11
27.43743764627249
 21
1.042467329793391
 31
0.0
  0
LINE
  5
128A
330
1280
100
AcDbEntity
  8
0
 62
     0
100
AcDbLine
 10
27.71219553621447
 20
1.317225219735374
 30
0.0
 11
27.81412757610274
 21
1.419157259623653
 31
0.0
  0
LINE
  5
128B
330
1280
100
AcDbEntity
  8
0
 62
     0
100
AcDbLine
 10
27.2804374266431
 20
0.8965156536200536
 30
0.0
 11
27.42816920538106
 21
1.044247432358002
 31
0.0
  0
LINE
  5
128C
330
1280
100
AcDbEntity
  8
0
 62
     0
100
AcDbLine
 10
27.70001735255056
 20
1.316095579527502
 30
0.0
 11
27.80307903264671
 21
1.419157259623653
 31
0.0
  0
LINE
  5
128D
330
1280
100
AcDbEntity
  8
0
 62
     0
100
AcDbLine
 10
27.2804374266431
 20
0.9075641970760919
 30
0.0
 11
27.41944953126117
 21
1.046576301694151
 31
0.0
  0
LINE
  5
128E
330
1280
100
AcDbEntity
  8
0
 62
     0
100
AcDbLine
 10
27.68627163114664
 20
1.313398401579628
 30
0.0
 11
27.79203048919067
 21
1.419157259623653
 31
0.0
  0
LINE
  5
128F
330
1280
100
AcDbEntity
  8
0
 62
     0
100
AcDbLine
 10
27.2804374266431
 20
0.9186127405321304
 30
0.0
 11
27.41121566875828
 21
1.0493909826473
 31
0.0
  0
LINE
  5
1290
330
1280
100
AcDbEntity
  8
0
 62
     0
100
AcDbLine
 10
27.66990238203785
 20
1.308077695926883
 30
0.0
 11
27.78098194573463
 21
1.419157259623653
 31
0.0
  0
LINE
  5
1291
330
1280
100
AcDbEntity
  8
0
 62
     0
100
AcDbLine
 10
27.2804374266431
 20
0.9296612839881687
 30
0.0
 11
27.40342161264395
 21
1.052645469989015
 31
0.0
  0
LINE
  5
1292
330
1280
100
AcDbEntity
  8
0
 62
     0
100
AcDbLine
 10
27.64675355657322
 20
1.295977413918288
 30
0.0
 11
27.76993340227858
 21
1.419157259623653
 31
0.0
  0
LINE
  5
1293
330
1280
100
AcDbEntity
  8
0
 62
     0
100
AcDbLine
 10
27.2804374266431
 20
0.9407098274442118
 30
0.0
 11
27.39603321832221
 21
1.056305619123314
 31
0.0
  0
LINE
  5
1294
330
1280
100
AcDbEntity
  8
0
 62
     0
100
AcDbLine
 10
27.49299672140779
 20
1.153269122208899
 30
0.0
 11
27.75888485882255
 21
1.419157259623653
 31
0.0
  0
LINE
  5
1295
330
1280
100
AcDbEntity
  8
0
 62
     0
100
AcDbLine
 10
27.2804374266431
 20
0.9517583709002501
 30
0.0
 11
27.38902505223432
 21
1.060345996491459
 31
0.0
  0
LINE
  5
1296
330
1280
100
AcDbEntity
  8
0
 62
     0
100
AcDbLine
 10
27.48191526669059
 20
1.153236210947735
 30
0.0
 11
27.74783631536651
 21
1.419157259623653
 31
0.0
  0
LINE
  5
1297
330
1280
100
AcDbEntity
  8
0
 62
     0
100
AcDbLine
 10
27.2804374266431
 20
0.9628069143562886
 30
0.0
 11
27.38237837440491
 21
1.064747862118093
 31
0.0
  0
LINE
  5
1298
330
1280
100
AcDbEntity
  8
0
 62
     0
100
AcDbLine
 10
27.47368104530164
 20
1.15605053301483
 30
0.0
 11
27.73678777191046
 21
1.419157259623653
 31
0.0
  0
LINE
  5
1299
330
1280
100
AcDbEntity
  8
0
 62
     0
100
AcDbLine
 10
27.2804374266431
 20
0.9738554578123316
 30
0.0
 11
27.37607982361687
 21
1.069497854786095
 31
0.0
  0
LINE
  5
129A
330
1280
100
AcDbEntity
  8
0
 62
     0
100
AcDbLine
 10
27.46716856317628
 20
1.160586594345498
 30
0.0
 11
27.72573922845442
 21
1.419157259623653
 31
0.0
  0
LINE
  5
129B
330
1280
100
AcDbEntity
  8
0
 62
     0
100
AcDbLine
 10
27.2804374266431
 20
0.9849040012683699
 30
0.0
 11
27.37010985226545
 21
1.074576426890717
 31
0.0
  0
LINE
  5
129C
330
1280
100
AcDbEntity
  8
0
 62
     0
100
AcDbLine
 10
27.46190303298581
 20
1.166369607611078
 30
0.0
 11
27.71469068499838
 21
1.419157259623653
 31
0.0
  0
LINE
  5
129D
330
1280
100
AcDbEntity
  8
0
 62
     0
100
AcDbLine
 10
27.2804374266431
 20
0.9959525447244082
 30
0.0
 11
27.36441212060541
 21
1.079927238686711
 31
0.0
  0
LINE
  5
129E
330
1280
100
AcDbEntity
  8
0
 62
     0
100
AcDbLine
 10
27.4580862915343
 20
1.173601409615603
 30
0.0
 11
27.70364214154235
 21
1.419157259623653
 31
0.0
  0
LINE
  5
129F
330
1280
100
AcDbEntity
  8
0
 62
     0
100
AcDbLine
 10
27.2804374266431
 20
1.007001088180451
 30
0.0
 11
27.3590476760544
 21
1.085611337591737
 31
0.0
  0
LINE
  5
12A0
330
1280
100
AcDbEntity
  8
0
 62
     0
100
AcDbLine
 10
27.45630337199827
 20
1.182867033535613
 30
0.0
 11
27.69259359808631
 21
1.419157259623653
 31
0.0
  0
LINE
  5
12A1
330
1280
100
AcDbEntity
  8
0
 62
     0
100
AcDbLine
 10
27.2804374266431
 20
1.018049631636489
 30
0.0
 11
27.35401827480653
 21
1.091630479799915
 31
0.0
  0
LINE
  5
12A2
330
1280
100
AcDbEntity
  8
0
 62
     0
100
AcDbLine
 10
27.45931602865035
 20
1.196928233643737
 30
0.0
 11
27.68154505463026
 21
1.419157259623653
 31
0.0
  0
LINE
  5
12A3
330
1280
100
AcDbEntity
  8
0
 62
     0
100
AcDbLine
 10
27.2804374266431
 20
1.029098175092528
 30
0.0
 11
27.34932943372869
 21
1.097990182178115
 31
0.0
  0
LINE
  5
12A4
330
1280
100
AcDbEntity
  8
0
 62
     0
100
AcDbLine
 10
27.2804374266431
 20
1.040146718548566
 30
0.0
 11
27.3449907455677
 21
1.104700037473157
 31
0.0
  0
LINE
  5
12A5
330
1280
100
AcDbEntity
  8
0
 62
     0
100
AcDbLine
 10
27.2804374266431
 20
1.051195262004609
 30
0.0
 11
27.34101645488534
 21
1.111774290246836
 31
0.0
  0
LINE
  5
12A6
330
1280
100
AcDbEntity
  8
0
 62
     0
100
AcDbLine
 10
27.2804374266431
 20
1.062243805460647
 30
0.0
 11
27.33742637979978
 21
1.119232758617317
 31
0.0
  0
LINE
  5
12A7
330
1280
100
AcDbEntity
  8
0
 62
     0
100
AcDbLine
 10
27.2804374266431
 20
1.073292348916686
 30
0.0
 11
27.33424733032767
 21
1.127102252601252
 31
0.0
  0
LINE
  5
12A8
330
1280
100
AcDbEntity
  8
0
 62
     0
100
AcDbLine
 10
27.2804374266431
 20
1.084340892372729
 30
0.0
 11
27.33151528824961
 21
1.135418753979235
 31
0.0
  0
LINE
  5
12A9
330
1280
100
AcDbEntity
  8
0
 62
     0
100
AcDbLine
 10
27.2804374266431
 20
1.095389435828767
 30
0.0
 11
27.3292788271509
 21
1.144230836336558
 31
0.0
  0
LINE
  5
12AA
330
1280
100
AcDbEntity
  8
0
 62
     0
100
AcDbLine
 10
27.2804374266431
 20
1.106437979284806
 30
0.0
 11
27.32760468192076
 21
1.153605234562463
 31
0.0
  0
LINE
  5
12AB
330
1280
100
AcDbEntity
  8
0
 62
     0
100
AcDbLine
 10
27.2804374266431
 20
1.117486522740844
 30
0.0
 11
27.32658731931682
 21
1.163636415414562
 31
0.0
  0
LINE
  5
12AC
330
1280
100
AcDbEntity
  8
0
 62
     0
100
AcDbLine
 10
27.2804374266431
 20
1.128535066196887
 30
0.0
 11
27.32636664402678
 21
1.174464283580557
 31
0.0
  0
LINE
  5
12AD
330
1280
100
AcDbEntity
  8
0
 62
     0
100
AcDbLine
 10
27.2804374266431
 20
1.139583609652925
 30
0.0
 11
27.32716429408758
 21
1.186310477097401
 31
0.0
  0
LINE
  5
12AE
330
1280
100
AcDbEntity
  8
0
 62
     0
100
AcDbLine
 10
27.2804374266431
 20
1.150632153108964
 30
0.0
 11
27.32937007503573
 21
1.199564801501592
 31
0.0
  0
LINE
  5
12AF
330
1280
100
AcDbEntity
  8
0
 62
     0
100
AcDbLine
 10
27.2804374266431
 20
1.161680696565007
 30
0.0
 11
27.33380440212454
 21
1.21504767204644
 31
0.0
  0
LINE
  5
12B0
330
1280
100
AcDbEntity
  8
0
 62
     0
100
AcDbLine
 10
27.2804374266431
 20
1.172729240021045
 30
0.0
 11
27.34303582165507
 21
1.235327635033016
 31
0.0
  0
LINE
  5
12B1
330
1280
100
AcDbEntity
  8
0
 62
     0
100
AcDbLine
 10
27.2804374266431
 20
1.183777783477083
 30
0.0
 11
27.51581690278967
 21
1.419157259623653
 31
0.0
  0
LINE
  5
12B2
330
1280
100
AcDbEntity
  8
0
 62
     0
100
AcDbLine
 10
27.2804374266431
 20
1.194826326933126
 30
0.0
 11
27.50476835933364
 21
1.419157259623653
 31
0.0
  0
LINE
  5
12B3
330
1280
100
AcDbEntity
  8
0
 62
     0
100
AcDbLine
 10
27.2804374266431
 20
1.205874870389165
 30
0.0
 11
27.49371981587759
 21
1.419157259623653
 31
0.0
  0
LINE
  5
12B4
330
1280
100
AcDbEntity
  8
0
 62
     0
100
AcDbLine
 10
27.2804374266431
 20
1.216923413845203
 30
0.0
 11
27.48267127242155
 21
1.419157259623653
 31
0.0
  0
LINE
  5
12B5
330
1280
100
AcDbEntity
  8
0
 62
     0
100
AcDbLine
 10
27.2804374266431
 20
1.227971957301241
 30
0.0
 11
27.47162272896551
 21
1.419157259623653
 31
0.0
  0
LINE
  5
12B6
330
1280
100
AcDbEntity
  8
0
 62
     0
100
AcDbLine
 10
27.2804374266431
 20
1.239020500757285
 30
0.0
 11
27.46057418550947
 21
1.419157259623653
 31
0.0
  0
LINE
  5
12B7
330
1280
100
AcDbEntity
  8
0
 62
     0
100
AcDbLine
 10
27.2804374266431
 20
1.250069044213323
 30
0.0
 11
27.44952564205343
 21
1.419157259623653
 31
0.0
  0
LINE
  5
12B8
330
1280
100
AcDbEntity
  8
0
 62
     0
100
AcDbLine
 10
27.2804374266431
 20
1.261117587669361
 30
0.0
 11
27.4384770985974
 21
1.419157259623653
 31
0.0
  0
LINE
  5
12B9
330
1280
100
AcDbEntity
  8
0
 62
     0
100
AcDbLine
 10
27.2804374266431
 20
1.272166131125404
 30
0.0
 11
27.42742855514135
 21
1.419157259623653
 31
0.0
  0
LINE
  5
12BA
330
1280
100
AcDbEntity
  8
0
 62
     0
100
AcDbLine
 10
27.2804374266431
 20
1.283214674581443
 30
0.0
 11
27.41638001168531
 21
1.419157259623653
 31
0.0
  0
LINE
  5
12BB
330
1280
100
AcDbEntity
  8
0
 62
     0
100
AcDbLine
 10
27.2804374266431
 20
1.294263218037481
 30
0.0
 11
27.40533146822928
 21
1.419157259623653
 31
0.0
  0
LINE
  5
12BC
330
1280
100
AcDbEntity
  8
0
 62
     0
100
AcDbLine
 10
27.2804374266431
 20
1.305311761493519
 30
0.0
 11
27.39428292477324
 21
1.419157259623653
 31
0.0
  0
LINE
  5
12BD
330
1280
100
AcDbEntity
  8
0
 62
     0
100
AcDbLine
 10
27.2804374266431
 20
1.316360304949562
 30
0.0
 11
27.3832343813172
 21
1.419157259623653
 31
0.0
  0
LINE
  5
12BE
330
1280
100
AcDbEntity
  8
0
 62
     0
100
AcDbLine
 10
27.2804374266431
 20
1.327408848405601
 30
0.0
 11
27.37218583786115
 21
1.419157259623653
 31
0.0
  0
LINE
  5
12BF
330
1280
100
AcDbEntity
  8
0
 62
     0
100
AcDbLine
 10
27.2804374266431
 20
1.338457391861639
 30
0.0
 11
27.36113729440511
 21
1.419157259623653
 31
0.0
  0
LINE
  5
12C0
330
1280
100
AcDbEntity
  8
0
 62
     0
100
AcDbLine
 10
27.2804374266431
 20
1.349505935317682
 30
0.0
 11
27.35008875094908
 21
1.419157259623653
 31
0.0
  0
LINE
  5
12C1
330
1280
100
AcDbEntity
  8
0
 62
     0
100
AcDbLine
 10
27.2804374266431
 20
1.360554478773721
 30
0.0
 11
27.33904020749303
 21
1.419157259623653
 31
0.0
  0
LINE
  5
12C2
330
1280
100
AcDbEntity
  8
0
 62
     0
100
AcDbLine
 10
27.2804374266431
 20
1.371603022229759
 30
0.0
 11
27.327991664037
 21
1.419157259623653
 31
0.0
  0
LINE
  5
12C3
330
1280
100
AcDbEntity
  8
0
 62
     0
100
AcDbLine
 10
27.2804374266431
 20
1.382651565685797
 30
0.0
 11
27.31694312058095
 21
1.419157259623653
 31
0.0
  0
LINE
  5
12C4
330
1280
100
AcDbEntity
  8
0
 62
     0
100
AcDbLine
 10
27.2804374266431
 20
1.39370010914184
 30
0.0
 11
27.30589457712492
 21
1.419157259623653
 31
0.0
  0
LINE
  5
12C5
330
1280
100
AcDbEntity
  8
0
 62
     0
100
AcDbLine
 10
27.2804374266431
 20
1.404748652597879
 30
0.0
 11
27.29484603366888
 21
1.419157259623653
 31
0.0
  0
LINE
  5
12C6
330
1280
100
AcDbEntity
  8
0
 62
     0
100
AcDbLine
 10
27.32105577413563
 20
0.8708427403763453
 30
0.0
 11
27.49760874485362
 21
1.047395711094327
 31
0.0
  0
LINE
  5
12C7
330
1280
100
AcDbEntity
  8
0
 62
     0
100
AcDbLine
 10
27.7604461175158
 20
1.31023308375651
 30
0.0
 11
27.86937029338294
 21
1.419157259623653
 31
0.0
  0
LINE
  5
12C8
330
1280
100
AcDbEntity
  8
0
 62
     0
100
AcDbLine
 10
27.33210431759168
 20
0.8708427403763453
 30
0.0
 11
27.51660733993784
 21
1.055345762722502
 31
0.0
  0
LINE
  5
12C9
330
1280
100
AcDbEntity
  8
0
 62
     0
100
AcDbLine
 10
27.76843259325569
 20
1.307171016040359
 30
0.0
 11
27.88041883683898
 21
1.419157259623653
 31
0.0
  0
LINE
  5
12CA
330
1280
100
AcDbEntity
  8
0
 62
     0
100
AcDbLine
 10
27.34315286104771
 20
0.8708427403763453
 30
0.0
 11
27.67488654716862
 21
1.202576426497251
 31
0.0
  0
LINE
  5
12CB
330
1280
100
AcDbEntity
  8
0
 62
     0
100
AcDbLine
 10
27.77599932525835
 20
1.303689204586975
 30
0.0
 11
27.89146227554938
 21
1.419152154878009
 31
0.0
  0
LINE
  5
12CC
330
1280
100
AcDbEntity
  8
0
 62
     0
100
AcDbLine
 10
27.35420140450376
 20
0.8708427403763453
 30
0.0
 11
27.68891245734026
 21
1.205553793212853
 31
0.0
  0
LINE
  5
12CD
330
1280
100
AcDbEntity
  8
0
 62
     0
100
AcDbLine
 10
27.78317534999442
 20
1.299816685867007
 30
0.0
 11
27.89937613760983
 21
1.416017473482417
 31
0.0
  0
LINE
  5
12CE
330
1280
100
AcDbEntity
  8
0
 62
     0
100
AcDbLine
 10
27.36524994795979
 20
0.8708427403763453
 30
0.0
 11
27.69816957920642
 21
1.203762371622968
 31
0.0
  0
LINE
  5
12CF
330
1280
100
AcDbEntity
  8
0
 62
     0
100
AcDbLine
 10
27.78998221218746
 20
1.295575004604006
 30
0.0
 11
27.90336163516511
 21
1.408954427581657
 31
0.0
  0
LINE
  5
12D0
330
1280
100
AcDbEntity
  8
0
 62
     0
100
AcDbLine
 10
27.37629849141583
 20
0.8708427403763453
 30
0.0
 11
27.70539591570496
 21
1.199940164665469
 31
0.0
  0
LINE
  5
12D1
330
1280
100
AcDbEntity
  8
0
 62
     0
100
AcDbLine
 10
27.79643555659359
 20
1.290979805554101
 30
0.0
 11
27.90356822513043
 21
1.398112474090929
 31
0.0
  0
LINE
  5
12D2
330
1280
100
AcDbEntity
  8
0
 62
     0
100
AcDbLine
 10
27.38734703487188
 20
0.8708427403763453
 30
0.0
 11
27.71117517259411
 21
1.194670878098575
 31
0.0
  0
LINE
  5
12D3
330
1280
100
AcDbEntity
  8
0
 62
     0
100
AcDbLine
 10
27.8025461656507
 20
1.286041871155172
 30
0.0
 11
27.90356822513043
 21
1.387063930634891
 31
0.0
  0
LINE
  5
12D4
330
1280
100
AcDbEntity
  8
0
 62
     0
100
AcDbLine
 10
27.39839557832791
 20
0.8708427403763453
 30
0.0
 11
27.7157062426026
 21
1.188153404651031
 31
0.0
  0
LINE
  5
12D5
330
1280
100
AcDbEntity
  8
0
 62
     0
100
AcDbLine
 10
27.80837159340093
 20
1.280818755449355
 30
0.0
 11
27.90356822513042
 21
1.376015387178852
 31
0.0
  0
LINE
  5
12D6
330
1280
100
AcDbEntity
  8
0
 62
     0
100
AcDbLine
 10
27.40944412178396
 20
0.8708427403763453
 30
0.0
 11
27.71851393969749
 21
1.179912558289886
 31
0.0
  0
LINE
  5
12D7
330
1280
100
AcDbEntity
  8
0
 62
     0
100
AcDbLine
 10
27.81388552162722
 20
1.275284140219612
 30
0.0
 11
27.90356822513042
 21
1.364966843722814
 31
0.0
  0
LINE
  5
12D8
330
1280
100
AcDbEntity
  8
0
 62
     0
100
AcDbLine
 10
27.42049266523999
 20
0.8708427403763453
 30
0.0
 11
27.71846679491825
 21
1.168816870054604
 31
0.0
  0
LINE
  5
12D9
330
1280
100
AcDbEntity
  8
0
 62
     0
100
AcDbLine
 10
27.81906564873466
 20
1.26941572387101
 30
0.0
 11
27.90356822513042
 21
1.353918300266771
 31
0.0
  0
LINE
  5
12DA
330
1280
100
AcDbEntity
  8
0
 62
     0
100
AcDbLine
 10
27.82390816996316
 20
1.263209701643469
 30
0.0
 11
27.90356822513042
 21
1.342869756810732
 31
0.0
  0
LINE
  5
12DB
330
1280
100
AcDbEntity
  8
0
 62
     0
100
AcDbLine
 10
27.82840537490917
 20
1.25665836313344
 30
0.0
 11
27.90356822513042
 21
1.331821213354694
 31
0.0
  0
LINE
  5
12DC
330
1280
100
AcDbEntity
  8
0
 62
     0
100
AcDbLine
 10
27.83254519618949
 20
1.249749640957723
 30
0.0
 11
27.90356822513042
 21
1.32077266989865
 31
0.0
  0
LINE
  5
12DD
330
1280
100
AcDbEntity
  8
0
 62
     0
100
AcDbLine
 10
27.83631045675955
 20
1.242466358071741
 30
0.0
 11
27.90356822513042
 21
1.309724126442612
 31
0.0
  0
LINE
  5
12DE
330
1280
100
AcDbEntity
  8
0
 62
     0
100
AcDbLine
 10
27.83967769871537
 20
1.234785056571515
 30
0.0
 11
27.90356822513042
 21
1.298675582986573
 31
0.0
  0
LINE
  5
12DF
330
1280
100
AcDbEntity
  8
0
 62
     0
100
AcDbLine
 10
27.84261538819789
 20
1.226674202597994
 30
0.0
 11
27.90356822513042
 21
1.28762703953053
 31
0.0
  0
LINE
  5
12E0
330
1280
100
AcDbEntity
  8
0
 62
     0
100
AcDbLine
 10
27.84508113113317
 20
1.218091402077239
 30
0.0
 11
27.90356822513042
 21
1.276578496074492
 31
0.0
  0
LINE
  5
12E1
330
1280
100
AcDbEntity
  8
0
 62
     0
100
AcDbLine
 10
27.84701722297193
 20
1.208978950459959
 30
0.0
 11
27.90356822513042
 21
1.265529952618453
 31
0.0
  0
LINE
  5
12E2
330
1280
100
AcDbEntity
  8
0
 62
     0
100
AcDbLine
 10
27.84834319975303
 20
1.199256383785016
 30
0.0
 11
27.90356822513042
 21
1.254481409162415
 31
0.0
  0
LINE
  5
12E3
330
1280
100
AcDbEntity
  8
0
 62
     0
100
AcDbLine
 10
27.84894254449275
 20
1.188807185068705
 30
0.0
 11
27.90356822513042
 21
1.243432865706372
 31
0.0
  0
LINE
  5
12E4
330
1280
100
AcDbEntity
  8
0
 62
     0
100
AcDbLine
 10
27.84863677657107
 20
1.177452873690979
 30
0.0
 11
27.90356822513042
 21
1.232384322250333
 31
0.0
  0
LINE
  5
12E5
330
1280
100
AcDbEntity
  8
0
 62
     0
100
AcDbLine
 10
27.8471282065377
 20
1.164895760201571
 30
0.0
 11
27.90356822513042
 21
1.221335778794294
 31
0.0
  0
LINE
  5
12E6
330
1280
100
AcDbEntity
  8
0
 62
     0
100
AcDbLine
 10
27.84384666475196
 20
1.150565674959785
 30
0.0
 11
27.90356822513042
 21
1.210287235338251
 31
0.0
  0
LINE
  5
12E7
330
1280
100
AcDbEntity
  8
0
 62
     0
100
AcDbLine
 10
27.83736996918043
 20
1.133040435932225
 30
0.0
 11
27.90356822513042
 21
1.199238691882213
 31
0.0
  0
LINE
  5
12E8
330
1280
100
AcDbEntity
  8
0
 62
     0
100
AcDbLine
 10
27.81840643788305
 20
1.103028361178801
 30
0.0
 11
27.90356822513042
 21
1.188190148426174
 31
0.0
  0
LINE
  5
12E9
330
1280
100
AcDbEntity
  8
0
 62
     0
100
AcDbLine
 10
27.59726936053663
 20
0.8708427403763453
 30
0.0
 11
27.90356822513042
 21
1.177141604970136
 31
0.0
  0
LINE
  5
12EA
330
1280
100
AcDbEntity
  8
0
 62
     0
100
AcDbLine
 10
27.60831790399267
 20
0.8708427403763453
 30
0.0
 11
27.90356822513042
 21
1.166093061514092
 31
0.0
  0
LINE
  5
12EB
330
1280
100
AcDbEntity
  8
0
 62
     0
100
AcDbLine
 10
27.61936644744871
 20
0.8708427403763453
 30
0.0
 11
27.90356822513042
 21
1.155044518058054
 31
0.0
  0
LINE
  5
12EC
330
1280
100
AcDbEntity
  8
0
 62
     0
100
AcDbLine
 10
27.63041499090475
 20
0.8708427403763453
 30
0.0
 11
27.90356822513042
 21
1.143995974602016
 31
0.0
  0
LINE
  5
12ED
330
1280
100
AcDbEntity
  8
0
 62
     0
100
AcDbLine
 10
27.64146353436079
 20
0.8708427403763453
 30
0.0
 11
27.90356822513042
 21
1.132947431145972
 31
0.0
  0
LINE
  5
12EE
330
1280
100
AcDbEntity
  8
0
 62
     0
100
AcDbLine
 10
27.65251207781683
 20
0.8708427403763453
 30
0.0
 11
27.90356822513042
 21
1.121898887689934
 31
0.0
  0
LINE
  5
12EF
330
1280
100
AcDbEntity
  8
0
 62
     0
100
AcDbLine
 10
27.66356062127287
 20
0.8708427403763453
 30
0.0
 11
27.90356822513042
 21
1.110850344233895
 31
0.0
  0
LINE
  5
12F0
330
1280
100
AcDbEntity
  8
0
 62
     0
100
AcDbLine
 10
27.67460916472891
 20
0.8708427403763453
 30
0.0
 11
27.90356822513042
 21
1.099801800777852
 31
0.0
  0
LINE
  5
12F1
330
1280
100
AcDbEntity
  8
0
 62
     0
100
AcDbLine
 10
27.68565770818495
 20
0.8708427403763453
 30
0.0
 11
27.90356822513042
 21
1.088753257321813
 31
0.0
  0
LINE
  5
12F2
330
1280
100
AcDbEntity
  8
0
 62
     0
100
AcDbLine
 10
27.69670625164099
 20
0.8708427403763453
 30
0.0
 11
27.90356822513042
 21
1.077704713865775
 31
0.0
  0
LINE
  5
12F3
330
1280
100
AcDbEntity
  8
0
 62
     0
100
AcDbLine
 10
27.70775479509703
 20
0.8708427403763453
 30
0.0
 11
27.90356822513042
 21
1.066656170409737
 31
0.0
  0
LINE
  5
12F4
330
1280
100
AcDbEntity
  8
0
 62
     0
100
AcDbLine
 10
27.71880333855307
 20
0.8708427403763453
 30
0.0
 11
27.90356822513042
 21
1.055607626953693
 31
0.0
  0
LINE
  5
12F5
330
1280
100
AcDbEntity
  8
0
 62
     0
100
AcDbLine
 10
27.72985188200911
 20
0.8708427403763453
 30
0.0
 11
27.90356822513042
 21
1.044559083497655
 31
0.0
  0
LINE
  5
12F6
330
1280
100
AcDbEntity
  8
0
 62
     0
100
AcDbLine
 10
27.74090042546515
 20
0.8708427403763453
 30
0.0
 11
27.90356822513042
 21
1.033510540041616
 31
0.0
  0
LINE
  5
12F7
330
1280
100
AcDbEntity
  8
0
 62
     0
100
AcDbLine
 10
27.75194896892119
 20
0.8708427403763453
 30
0.0
 11
27.90356822513042
 21
1.022461996585573
 31
0.0
  0
LINE
  5
12F8
330
1280
100
AcDbEntity
  8
0
 62
     0
100
AcDbLine
 10
27.76299751237722
 20
0.8708427403763453
 30
0.0
 11
27.90356822513042
 21
1.011413453129535
 31
0.0
  0
LINE
  5
12F9
330
1280
100
AcDbEntity
  8
0
 62
     0
100
AcDbLine
 10
27.77404605583327
 20
0.8708427403763453
 30
0.0
 11
27.90356822513042
 21
1.000364909673496
 31
0.0
  0
LINE
  5
12FA
330
1280
100
AcDbEntity
  8
0
 62
     0
100
AcDbLine
 10
27.78509459928931
 20
0.8708427403763453
 30
0.0
 11
27.90356822513042
 21
0.9893163662174581
 31
0.0
  0
LINE
  5
12FB
330
1280
100
AcDbEntity
  8
0
 62
     0
100
AcDbLine
 10
27.79614314274535
 20
0.8708427403763453
 30
0.0
 11
27.90356822513042
 21
0.9782678227614148
 31
0.0
  0
LINE
  5
12FC
330
1280
100
AcDbEntity
  8
0
 62
     0
100
AcDbLine
 10
27.80719168620139
 20
0.8708427403763453
 30
0.0
 11
27.90356822513042
 21
0.9672192793053763
 31
0.0
  0
LINE
  5
12FD
330
1280
100
AcDbEntity
  8
0
 62
     0
100
AcDbLine
 10
27.81824022965742
 20
0.8708427403763453
 30
0.0
 11
27.90356822513042
 21
0.9561707358493379
 31
0.0
  0
LINE
  5
12FE
330
1280
100
AcDbEntity
  8
0
 62
     0
100
AcDbLine
 10
27.82928877311347
 20
0.8708427403763453
 30
0.0
 11
27.90356822513042
 21
0.9451221923932946
 31
0.0
  0
LINE
  5
12FF
330
1280
100
AcDbEntity
  8
0
 62
     0
100
AcDbLine
 10
27.84033731656951
 20
0.8708427403763453
 30
0.0
 11
27.90356822513042
 21
0.9340736489372561
 31
0.0
  0
LINE
  5
1300
330
1280
100
AcDbEntity
  8
0
 62
     0
100
AcDbLine
 10
27.85138586002555
 20
0.8708427403763453
 30
0.0
 11
27.90356822513042
 21
0.9230251054812177
 31
0.0
  0
LINE
  5
1301
330
1280
100
AcDbEntity
  8
0
 62
     0
100
AcDbLine
 10
27.86243440348159
 20
0.8708427403763453
 30
0.0
 11
27.90356822513042
 21
0.9119765620251792
 31
0.0
  0
LINE
  5
1302
330
1280
100
AcDbEntity
  8
0
 62
     0
100
AcDbLine
 10
27.87348294693763
 20
0.8708427403763453
 30
0.0
 11
27.90356822513042
 21
0.9009280185691359
 31
0.0
  0
LINE
  5
1303
330
1280
100
AcDbEntity
  8
0
 62
     0
100
AcDbLine
 10
27.88453149039366
 20
0.8708427403763453
 30
0.0
 11
27.90356822513042
 21
0.8898794751130974
 31
0.0
  0
LINE
  5
1304
330
1280
100
AcDbEntity
  8
0
 62
     0
100
AcDbLine
 10
27.89713639245572
 20
0.8723990989823603
 30
0.0
 11
27.90201186652441
 21
0.877274573051044
 31
0.0
  0
ENDBLK
  5
1306
330
1280
100
AcDbEntity
  8
0
100
AcDbBlockEnd
  0
BLOCK
  5
1537
330
1536
100
AcDbEntity
  8
0
100
AcDbBlockBegin
  2
T2
 70
     0
 10
0.0
 20
0.0
 30
0.0
  3
T2
  1

  0
LWPOLYLINE
  5
1538
330
1536
100
AcDbEntity
  8
TITLE
100
AcDbPolyline
 90
        4
 70
     1
 43
0.0
 10
63.96000000000377
 20
41.71000000000276
 10
0.0399999999999943
 20
41.71000000000276
 10
0.0399999999999996
 20
0.0400000000000014
 10
63.96000000000374
 20
0.0400000000000014
  0
LWPOLYLINE
  5
153E
330
1536
100
AcDbEntity
  8
TITLE
100
AcDbPolyline
 90
        4
 70
     1
 43
0.0
 10
64.00000000000376
 20
41.75000000000276
 10
-0.0000000000000071
 20
41.75000000000276
 10
0.0
 20
0.0000000000000018
 10
64.00000000000374
 20
0.0000000000000018
  0
LWPOLYLINE
  5
1544
330
1536
100
AcDbEntity
  8
TITLE
100
AcDbPolyline
 90
        4
 70
     1
 43
0.0
 10
63.98000000000377
 20
41.73000000000278
 10
0.0199999999999943
 20
41.73000000000278
 10
0.0199999999999996
 20
0.0200000000000014
 10
63.98000000000374
 20
0.0200000000000014
  0
TEXT
  5
154A
330
1536
100
AcDbEntity
  8
TITLE
100
AcDbText
 10
56.04836633950596
 20
2.380319658112426
 30
0.0
 40
0.4560000000000001
  1
STAHLIN
 41
1.03945897926087
  7
STYLE1
 72
     5
 11
58.7761607440142
 21
2.380319658112426
 31
0.0
100
AcDbText
  0
INSERT
  5
154B
330
1536
100
AcDbEntity
  8
0
 62
     1
100
AcDbBlockReference
  2
*X0
 10
0.0000000000000142
 20
0.0
 30
0.0
 41
2.0
 42
2.0
 43
2.0
1001
ACAD
1000
HATCH
1002
{
1070
    19
1000
ANSI31
1040
0.125
1040
6.283185307179586
1000
ASC_BOUNDS
1070
     1
1070
     2
1070
     2
1005
154D
1005
155E
1000
ASC_SEEDPOINT
1011
0.0
1021
0.0
1031
0.0
1002
}
  0
TEXT
  5
154C
330
1536
100
AcDbEntity
  8
TITLE
100
AcDbText
 10
56.08179444942404
 20
1.741965761805758
 30
0.0
 40
0.124
  1
DIVISION OF ROBROY INDUSTRIES
 41
0.8060929261227062
  7
ITALIC
 72
     5
 11
58.81391207369593
 21
1.741965761805758
 31
0.0
100
AcDbText
  0
LWPOLYLINE
  5
154D
330
1536
100
AcDbEntity
  8
0
 62
     1
100
AcDbPolyline
 90
       15
 70
     0
 43
0.0
 10
55.4204982849593
 20
2.306679667514295
 10
54.8555040981977
 20
1.741685480752693
 10
54.58580008521981
 20
1.741685480752693
 42
-0.4142135623730939
 10
54.56087485328622
 20
1.766610712686286
 10
54.5608748532862
 20
2.813389287313711
 42
-0.4142135623730959
 10
54.58580008521979
 20
2.838314519247305
 10
55.04023691383308
 20
2.838314519247305
 10
54.72859834299488
 20
2.526675948409092
 42
0.4330201013744681
 10
54.74065385509597
 20
2.148769968630162
 10
54.74322484545986
 20
2.146507664554079
 42
0.3956538349195001
 10
55.09776518423489
 20
2.157817793456857
 10
55.33355907689763
 20
2.393618876429485
 42
-0.4142135623730808
 10
55.41815811940752
 20
2.393618876429492
 10
55.42049828502847
 20
2.391278709954995
 42
-0.4142135623731028
 10
55.4204982850285
 20
2.306679667445109
1001
ACAD
1000
ASC_BOUNDS
1002
{
1070
    19
1005
154B
1002
}
  0
LWPOLYLINE
  5
155E
330
1536
100
AcDbEntity
  8
0
 62
     1
100
AcDbPolyline
 90
       15
 70
     0
 43
0.0
 10
54.93009771352707
 20
2.409929957613172
 10
55.35848227516122
 20
2.838314519247305
 10
55.78221121832725
 20
2.838314519247305
 42
-0.4142135623730959
 10
55.80713645026084
 20
2.813389287313711
 10
55.80713645026084
 20
1.766610712686286
 42
-0.4142135623730951
 10
55.78221121832725
 20
1.741685480752693
 10
55.17374945952584
 20
1.741685480752693
 10
55.62199765549151
 20
2.189933676718368
 42
0.433020101374468
 10
55.60994214339039
 20
2.567839656497305
 10
55.60737115302654
 20
2.570101960573389
 42
0.3956538349195001
 10
55.25283081425148
 20
2.558791831670603
 10
55.01703692158874
 20
2.322990748697975
 42
-0.4142135623730808
 10
54.93243787907887
 20
2.322990748697975
 10
54.93009771345789
 20
2.325330915172472
 42
-0.414213562373103
 10
54.93009771345789
 20
2.409929957682351
1001
ACAD
1000
ASC_BOUNDS
1002
{
1070
    19
1005
154B
1002
}
  0
LWPOLYLINE
  5
156F
330
1536
100
AcDbEntity
  8
TITLE
 62
     1
100
AcDbPolyline
 90
        2
 70
     0
 43
0.06
 10
60.33200636550343
 20
2.740967948476402
 10
60.33200636550343
 20
1.839032051523602
  0
TEXT
  5
1573
330
1536
100
AcDbEntity
  8
TITLE
100
AcDbText
 10
56.08092442727688
 20
2.011651761684468
 30
0.0
 40
0.25
  1
ENCLOSURES
 41
1.132998946758617
  7
ITALIC
 72
     5
 11
58.81900521527687
 21
2.011651761684468
 31
0.0
100
AcDbText
  0
TEXT
  5
1574
330
1536
100
AcDbEntity
  8
TITLE
 62
     1
100
AcDbText
 10
60.50228587067294
 20
2.35076622306493
 30
0.0
 40
0.18
  1
BELDING,MICHIGAN
  7
ITALIC
 72
     1
 11
61.77728587067294
 21
2.35076622306493
 31
0.0
100
AcDbText
  0
TEXT
  5
1575
330
1536
100
AcDbEntity
  8
TITLE
 62
     1
100
AcDbText
 10
61.37228587067294
 20
2.050766223064925
 30
0.0
 40
0.18
  1
48809
  7
ITALIC
 72
     1
 11
61.77728587067294
 21
2.050766223064925
 31
0.0
100
AcDbText
  0
TEXT
  5
1576
330
1536
100
AcDbEntity
  8
TITLE
 62
     1
100
AcDbText
 10
61.37228587067292
 20
2.050766223064933
 30
0.0
 40
0.18
  1
48809
  7
ITALIC
 72
     1
 11
61.77728587067292
 21
2.050766223064933
 31
0.0
100
AcDbText
  0
TEXT
  5
1577
330
1536
100
AcDbEntity
  8
TITLE
 62
     1
100
AcDbText
 10
60.50228587067293
 20
2.350766223064944
 30
0.0
 40
0.18
  1
BELDING,MICHIGAN
  7
ITALIC
 72
     1
 11
61.77728587067292
 21
2.350766223064944
 31
0.0
100
AcDbText
  0
LWPOLYLINE
  5
1578
330
1536
100
AcDbEntity
  8
TITLE
 62
     1
100
AcDbPolyline
 90
        2
 70
     0
 43
0.06
 10
60.33200636550342
 20
2.740967948476402
 10
60.33200636550342
 20
1.839032051523609
  0
TEXT
  5
157C
330
1536
100
AcDbEntity
  8
TITLE
 62
     1
100
AcDbText
 10
62.01705691683141
 20
3.19799197822055
 30
0.0
 40
0.15525
  1
-
  7
ITALIC
100
AcDbText
  0
TEXT
  5
157D
330
1536
100
AcDbEntity
  8
TITLE
 62
     1
100
AcDbText
 10
62.01705691683141
 20
3.349780357914581
 30
0.0
 40
0.15525
  1
+
  7
ITALIC
100
AcDbText
  0
TEXT
  5
157E
330
1536
100
AcDbEntity
  8
TITLE
 62
     1
100
AcDbText
 10
62.01705691683141
 20
3.64320306308844
 30
0.0
 40
0.15525
  1
FRACTIONAL
  7
ITALIC
100
AcDbText
  0
TEXT
  5
157F
330
1536
100
AcDbEntity
  8
TITLE
 62
     1
100
AcDbText
 10
60.47755802933359
 20
3.198840704743548
 30
0.0
 40
0.15525
  1
-
  7
ITALIC
100
AcDbText
  0
TEXT
  5
1580
330
1536
100
AcDbEntity
  8
TITLE
 62
     1
100
AcDbText
 10
60.47755802933359
 20
3.356364944423901
 30
0.0
 40
0.15525
  1
+
  7
ITALIC
100
AcDbText
  0
TEXT
  5
1581
330
1536
100
AcDbEntity
  8
TITLE
 62
     1
100
AcDbText
 10
60.47755802933359
 20
3.649787649597743
 30
0.0
 40
0.15525
  1
DECIMAL
  7
ITALIC
100
AcDbText
  0
TEXT
  5
1582
330
1536
100
AcDbEntity
  8
TITLE
 62
     1
100
AcDbText
 10
57.92743410179541
 20
3.643086326406458
 30
0.0
 40
0.15525
  1
TOLERANCES
  7
ITALIC
 72
     1
 11
58.67780910179541
 21
3.643086326406458
 31
0.0
100
AcDbText
  0
LINE
  5
1583
330
1536
100
AcDbEntity
  8
TITLE
 62
     1
100
AcDbLine
 10
57.33500000000375
 20
4.04
 30
0.0
 11
57.33500000000375
 21
3.040000000000001
 31
0.0
  0
TEXT
  5
1584
330
1536
100
AcDbEntity
  8
TITLE
 62
     1
100
AcDbText
 10
57.51343410179541
 20
3.27666845244556
 30
0.0
 40
0.15525
  1
UNLESS SPECIFIED
  7
ITALIC
 72
     1
 11
58.67780910179541
 21
3.27666845244556
 31
0.0
100
AcDbText
  0
TEXT
  5
1585
330
1536
100
AcDbEntity
  8
TITLE
 62
     1
100
AcDbText
 10
53.44713965836721
 20
2.822727796946285
 30
0.0
 40
0.14
  1
DATE
  7
ITALIC
 72
     1
 11
53.70380632503388
 21
2.822727796946285
 31
0.0
100
AcDbText
  0
TEXT
  5
1586
330
1536
100
AcDbEntity
  8
TITLE
 62
     1
100
AcDbText
 10
53.46190663208497
 20
2.072056300604384
 30
0.0
 40
0.154
  1
DATE
  7
ITALIC
 72
     1
 11
53.7442399654183
 21
2.072056300604384
 31
0.0
100
AcDbText
  0
TEXT
  5
1587
330
1536
100
AcDbEntity
  8
TITLE
100
AcDbText
 10
52.13269628546089
 20
2.82618097475822
 30
0.0
 40
0.14
  1
DR. BY
  7
ITALIC
 72
     1
 11
52.48269628546089
 21
2.82618097475822
 31
0.0
100
AcDbText
  0
TEXT
  5
1588
330
1536
100
AcDbEntity
  8
TITLE
100
AcDbText
 10
51.96638083203399
 20
2.072056300604384
 30
0.0
 40
0.154
  1
CHK. BY
  7
ITALIC
 72
     1
 11
52.42838083203399
 21
2.072056300604384
 31
0.0
100
AcDbText
  0
LINE
  5
1589
330
1536
100
AcDbEntity
  8
TITLE
 62
     1
100
AcDbLine
 10
61.74479396240641
 20
0.7900000000000014
 30
0.0
 11
61.74479396240641
 21
1.540000000000001
 31
0.0
  0
TEXT
  5
158A
330
1536
100
AcDbEntity
  8
TITLE
 62
     1
100
AcDbText
 10
59.46791140966684
 20
0.5206953542067927
 30
0.0
 40
0.1694
  1
PART NO.
  7
ITALIC
100
AcDbText
  0
LINE
  5
158B
330
1536
100
AcDbEntity
  8
TITLE
 62
     1
100
AcDbLine
 10
59.21000000000375
 20
0.7900000000000014
 30
0.0
 11
59.21000000000375
 21
0.0399999999999978
 31
0.0
  0
TEXT
  5
158C
330
1536
100
AcDbEntity
  8
TITLE
 62
     1
100
AcDbText
 10
54.56633048452305
 20
0.5102494913256912
 30
0.0
 40
0.1694
  1
PART NAME
  7
ITALIC
100
AcDbText
  0
TEXT
  5
158D
330
1536
100
AcDbEntity
  8
TITLE
 62
     1
100
AcDbText
 10
54.54266216399277
 20
1.252558201771084
 30
0.0
 40
0.1694
  1
CUSTOMER
  7
ITALIC
 72
     2
 11
55.8413954973261
 21
1.252558201771084
 31
0.0
100
AcDbText
  0
TEXT
  5
158E
330
1536
100
AcDbEntity
  8
TITLE
 62
     1
100
AcDbText
 10
53.47434386396953
 20
1.322440723290178
 30
0.0
 40
0.154
  1
DATE
  7
ITALIC
 72
     1
 11
53.75667719730286
 21
1.322440723290178
 31
0.0
100
AcDbText
  0
TEXT
  5
158F
330
1536
100
AcDbEntity
  8
TITLE
100
AcDbText
 10
51.96638083203399
 20
1.316742979900486
 30
0.0
 40
0.154
  1
APD. BY
  7
ITALIC
 72
     1
 11
52.42838083203399
 21
1.316742979900486
 31
0.0
100
AcDbText
  0
TEXT
  5
1590
330
1536
100
AcDbEntity
  8
TITLE
100
AcDbText
 10
52.73472273397718
 20
0.5212952711989276
 30
0.0
 40
0.154
  1
SCALE
  7
ITALIC
 72
     1
 11
53.09405606731051
 21
0.5212952711989276
 31
0.0
100
AcDbText
  0
LINE
  5
1591
330
1536
100
AcDbEntity
  8
TITLE
 62
     1
100
AcDbLine
 10
53.08500000000375
 20
3.040000000000004
 30
0.0
 11
53.08500000000375
 21
0.7900000000000032
 31
0.0
  0
LINE
  5
1592
330
1536
100
AcDbEntity
  8
TITLE
 62
     1
100
AcDbLine
 10
54.33500000000375
 20
3.039999999999997
 30
0.0
 11
54.33500000000375
 21
0.0399999999999996
 31
0.0
  0
LINE
  5
1593
330
1536
100
AcDbEntity
  8
TITLE
 62
     1
100
AcDbLine
 10
63.96000000000374
 20
1.540000000000001
 30
0.0
 11
54.33500000000375
 21
1.540000000000001
 31
0.0
  0
TEXT
  5
1594
330
1536
100
AcDbEntity
  8
TITLE
 62
     1
100
AcDbText
 10
61.83818339703766
 20
1.326747107986976
 30
0.0
 40
0.125
  1
AutoCAD DWG. FILE
100
AcDbText
  0
TEXT
  5
1595
330
1536
100
AcDbEntity
  8
TITLE
100
AcDbText
 10
51.14538256127479
 20
2.036268066777214
 30
0.0
 40
0.154
  1
CHD.
  7
ITALIC
 72
     1
 11
51.3763825612748
 21
2.036268066777214
 31
0.0
100
AcDbText
  0
TEXT
  5
1596
330
1536
100
AcDbEntity
  8
TITLE
100
AcDbText
 10
50.38257751100488
 20
2.055260544742853
 30
0.0
 40
0.154
  1
BY
  7
ITALIC
 72
     1
 11
50.51091084433821
 21
2.055260544742853
 31
0.0
100
AcDbText
  0
TEXT
  5
1597
330
1536
100
AcDbEntity
  8
TITLE
100
AcDbText
 10
49.21118533914498
 20
2.045764305760033
 30
0.0
 40
0.154
  1
DATE
  7
ITALIC
 72
     1
 11
49.4935186724783
 21
2.045764305760033
 31
0.0
100
AcDbText
  0
TEXT
  5
1598
330
1536
100
AcDbEntity
  8
TITLE
100
AcDbText
 10
43.43743673306819
 20
4.138388543293784
 30
0.0
 40
0.14
  1
NOTES:
  7
ITALIC
100
AcDbText
  0
TEXT
  5
1599
330
1536
100
AcDbEntity
  8
TITLE
100
AcDbText
 10
43.26186688171646
 20
2.055260544742853
 30
0.0
 40
0.154
  1
LET.
  7
ITALIC
 72
     1
 11
43.49286688171646
 21
2.055260544742853
 31
0.0
100
AcDbText
  0
TEXT
  5
159A
330
1536
100
AcDbEntity
  8
TITLE
100
AcDbText
 10
43.41367829470571
 20
2.762795715722289
 30
0.0
 40
0.154
  1
MATERIAL
  7
ITALIC
100
AcDbText
  0
LINE
  5
159B
330
1536
100
AcDbEntity
  8
TITLE
100
AcDbLine
 10
51.83500000000375
 20
1.915000000000001
 30
0.0
 11
42.96000000000375
 21
1.915000000000004
 31
0.0
  0
TEXT
  5
159C
330
1536
100
AcDbEntity
  8
TITLE
100
AcDbText
 10
45.20274150067381
 20
2.036268066777214
 30
0.0
 40
0.154
  1
REVISION RECORD
  7
ITALIC
 72
     1
 11
46.30640816734048
 21
2.036268066777214
 31
0.0
100
AcDbText
  0
LINE
  5
159D
330
1536
100
AcDbEntity
  8
TITLE
100
AcDbLine
 10
51.83500000000375
 20
0.4149999999999996
 30
0.0
 11
42.96000000000375
 21
0.415000000000005
 31
0.0
  0
LINE
  5
159E
330
1536
100
AcDbEntity
  8
TITLE
100
AcDbLine
 10
51.83500000000375
 20
1.165000000000001
 30
0.0
 11
42.96000000000375
 21
1.165000000000004
 31
0.0
  0
LINE
  5
159F
330
1536
100
AcDbEntity
  8
TITLE
100
AcDbLine
 10
42.96000000000375
 20
4.040000000000004
 30
0.0
 11
42.96000000000375
 21
0.0400000000000014
 31
0.0
  0
LINE
  5
15A0
330
1536
100
AcDbEntity
  8
TITLE
100
AcDbLine
 10
43.96000000000374
 20
2.290000000000001
 30
0.0
 11
43.96000000000374
 21
0.0400000000000014
 31
0.0
  0
LINE
  5
15A1
330
1536
100
AcDbEntity
  8
TITLE
100
AcDbLine
 10
48.96000000000374
 20
2.290000000000004
 30
0.0
 11
48.96000000000374
 21
0.0400000000000049
 31
0.0
  0
LINE
  5
15A2
330
1536
100
AcDbEntity
  8
TITLE
100
AcDbLine
 10
50.08500000000374
 20
2.290000000000004
 30
0.0
 11
50.08500000000374
 21
0.0400000000000067
 31
0.0
  0
LINE
  5
15A3
330
1536
100
AcDbEntity
  8
TITLE
100
AcDbLine
 10
50.96000000000374
 20
2.290000000000004
 30
0.0
 11
50.96000000000374
 21
0.0400000000000085
 31
0.0
  0
LINE
  5
15A4
330
1536
100
AcDbEntity
  8
TITLE
100
AcDbLine
 10
51.83500000000375
 20
3.040000000000001
 30
0.0
 11
51.83500000000375
 21
0.0399999999999996
 31
0.0
  0
LINE
  5
15A5
330
1536
100
AcDbEntity
  8
TITLE
100
AcDbLine
 10
63.96000000000374
 20
4.04
 30
0.0
 11
42.96000000000375
 21
4.040000000000004
 31
0.0
  0
LINE
  5
15A6
330
1536
100
AcDbEntity
  8
TITLE
100
AcDbLine
 10
57.33500000000375
 20
3.540000000000002
 30
0.0
 11
42.96000000000375
 21
3.540000000000004
 31
0.0
  0
LINE
  5
15A7
330
1536
100
AcDbEntity
  8
TITLE
100
AcDbLine
 10
63.96000000000374
 20
3.040000000000001
 30
0.0
 11
42.96000000000375
 21
3.040000000000004
 31
0.0
  0
LINE
  5
15A8
330
1536
100
AcDbEntity
  8
TITLE
100
AcDbLine
 10
54.33500000000375
 20
2.290000000000001
 30
0.0
 11
42.96000000000375
 21
2.290000000000004
 31
0.0
  0
LINE
  5
15A9
330
1536
100
AcDbEntity
  8
TITLE
100
AcDbLine
 10
54.33500000000375
 20
1.540000000000001
 30
0.0
 11
42.96000000000375
 21
1.540000000000004
 31
0.0
  0
LINE
  5
15AA
330
1536
100
AcDbEntity
  8
TITLE
100
AcDbLine
 10
63.96000000000374
 20
0.7900000000000014
 30
0.0
 11
42.96000000000375
 21
0.790000000000005
 31
0.0
  0
ENDBLK
  5
15AB
330
1536
100
AcDbEntity
  8
0
100
AcDbBlockEnd
  0
BLOCK
  5
1631
330
1630
100
AcDbEntity
  8
0
100
AcDbBlockBegin
  2
*U2
 70
     1
 10
0.0
 20
0.0
 30
0.0
  3
*U2
  1

  0
ENDBLK
  5
1632
330
1630
100
AcDbEntity
  8
0
100
AcDbBlockEnd
  0
BLOCK
  5
1675
330
1673
100
AcDbEntity
  8
0
100
AcDbBlockBegin
  2
GENAXEH
 70
     0
 10
0.0
 20
0.0
 30
0.0
  3
GENAXEH
  1

  0
LINE
  5
1674
330
1673
100
AcDbEntity
  8
0
100
AcDbLine
 10
-1.0
 20
0.0
 30
0.0
 11
1.0
 21
0.0
 31
0.0
  0
ENDBLK
  5
1676
330
1673
100
AcDbEntity
  8
0
100
AcDbBlockEnd
  0
BLOCK
  5
1FBC
330
1FB1
100
AcDbEntity
  8
0
100
AcDbBlockBegin
  2
*D4
 70
     1
 10
0.0
 20
0.0
 30
0.0
  3
*D4
  1

  0
LINE
  5
1FFE
330
1FB1
100
AcDbEntity
  8
AM_5
 62
     0
440
 16777216
370
    -2
100
AcDbLine
 10
13.8251081225206
 20
32.03406233125181
 30
0.0
 11
11.64452660188958
 21
32.03406233125181
 31
0.0
  0
LINE
  5
1FFF
330
1FB1
100
AcDbEntity
  8
AM_5
 62
     0
440
 16777216
370
    -2
100
AcDbLine
 10
13.8251081225206
 20
11.0340623312518
 30
0.0
 11
11.64452660188957
 21
11.0340623312518
 31
0.0
  0
LINE
  5
2000
330
1FB1
100
AcDbEntity
  8
AM_5
 62
     0
440
 16777216
370
    -2
100
AcDbLine
 10
11.83202660188958
 20
31.8465623312518
 30
0.0
 11
11.83202660188958
 21
22.45091343895589
 31
0.0
  0
LINE
  5
2001
330
1FB1
100
AcDbEntity
  8
AM_5
 62
     0
440
 16777216
370
    -2
100
AcDbLine
 10
11.83202660188958
 20
11.2215623312518
 30
0.0
 11
11.83202660188958
 21
21.88841343895589
 31
0.0
  0
SOLID
  5
2002
330
1FB1
100
AcDbEntity
  8
AM_5
 62
     0
440
 16777216
100
AcDbTrace
 10
11.80077660188958
 20
31.8465623312518
 30
0.0
 11
11.86327660188958
 21
31.8465623312518
 31
0.0
 12
11.83202660188958
 22
32.03406233125181
 32
0.0
 13
11.83202660188958
 23
32.03406233125181
 33
0.0
  0
SOLID
  5
2003
330
1FB1
100
AcDbEntity
  8
AM_5
 62
     0
440
 16777216
100
AcDbTrace
 10
11.80077660188957
 20
11.2215623312518
 30
0.0
 11
11.86327660188958
 21
11.2215623312518
 31
0.0
 12
11.83202660188958
 22
11.0340623312518
 32
0.0
 13
11.83202660188958
 23
11.0340623312518
 33
0.0
  0
MTEXT
  5
2004
330
1FB1
100
AcDbEntity
  8
AM_5
 62
     0
440
 16777216
100
AcDbMText
 10
11.83202660188958
 20
22.16966343895589
 30
0.0
 40
0.1875
 41
0.0
 46
0.0
 71
     5
 72
     1
  1
\A1;21.00
 73
     1
 44
1.0
  0
POINT
  5
2005
330
1FB1
100
AcDbEntity
  8
DEFPOINTS
 62
     0
440
 16777216
100
AcDbPoint
 10
13.8876081225206
 20
32.03406233125181
 30
0.0
  0
POINT
  5
2006
330
1FB1
100
AcDbEntity
  8
DEFPOINTS
 62
     0
440
 16777216
100
AcDbPoint
 10
13.8876081225206
 20
11.0340623312518
 30
0.0
  0
POINT
  5
2007
330
1FB1
100
AcDbEntity
  8
DEFPOINTS
 62
     0
440
 16777216
100
AcDbPoint
 10
11.83202660188958
 20
11.0340623312518
 30
0.0
  0
ENDBLK
  5
1FBD
330
1FB1
100
AcDbEntity
  8
0
100
AcDbBlockEnd
  0
BLOCK
  5
1FC9
330
1FBE
100
AcDbEntity
  8
0
100
AcDbBlockBegin
  2
*D5
 70
     1
 10
0.0
 20
0.0
 30
0.0
  3
*D5
  1

  0
LINE
  5
2008
330
1FBE
100
AcDbEntity
  8
AM_5
 62
     0
440
 16777216
370
    -2
100
AcDbLine
 10
13.8876081225206
 20
32.0965623312518
 30
0.0
 11
13.8876081225206
 21
33.17245159761584
 31
0.0
  0
LINE
  5
2009
330
1FBE
100
AcDbEntity
  8
AM_5
 62
     0
440
 16777216
370
    -2
100
AcDbLine
 10
30.8876081225206
 20
32.09656233125178
 30
0.0
 11
30.8876081225206
 21
33.17245159761584
 31
0.0
  0
LINE
  5
200A
330
1FBE
100
AcDbEntity
  8
AM_5
 62
     0
440
 16777216
370
    -2
100
AcDbLine
 10
14.0751081225206
 20
32.98495159761584
 30
0.0
 11
21.8876081225206
 21
32.98495159761584
 31
0.0
  0
LINE
  5
200B
330
1FBE
100
AcDbEntity
  8
AM_5
 62
     0
440
 16777216
370
    -2
100
AcDbLine
 10
30.70010812252061
 20
32.98495159761584
 30
0.0
 11
22.88760812252061
 21
32.98495159761584
 31
0.0
  0
SOLID
  5
200C
330
1FBE
100
AcDbEntity
  8
AM_5
 62
     0
440
 16777216
100
AcDbTrace
 10
14.0751081225206
 20
33.01620159761584
 30
0.0
 11
14.0751081225206
 21
32.95370159761584
 31
0.0
 12
13.8876081225206
 22
32.98495159761584
 32
0.0
 13
13.8876081225206
 23
32.98495159761584
 33
0.0
  0
SOLID
  5
200D
330
1FBE
100
AcDbEntity
  8
AM_5
 62
     0
440
 16777216
100
AcDbTrace
 10
30.70010812252061
 20
33.01620159761584
 30
0.0
 11
30.70010812252061
 21
32.95370159761584
 31
0.0
 12
30.8876081225206
 22
32.98495159761584
 32
0.0
 13
30.8876081225206
 23
32.98495159761584
 33
0.0
  0
MTEXT
  5
200E
330
1FBE
100
AcDbEntity
  8
AM_5
 62
     0
440
 16777216
100
AcDbMText
 10
22.3876081225206
 20
32.98495159761584
 30
0.0
 40
0.1875
 41
0.0
 46
0.0
 71
     5
 72
     1
  1
\A1;17.00
 73
     1
 44
1.0
  0
POINT
  5
200F
330
1FBE
100
AcDbEntity
  8
DEFPOINTS
 62
     0
440
 16777216
100
AcDbPoint
 10
13.8876081225206
 20
32.03406233125181
 30
0.0
  0
POINT
  5
2010
330
1FBE
100
AcDbEntity
  8
DEFPOINTS
 62
     0
440
 16777216
100
AcDbPoint
 10
30.8876081225206
 20
32.03406233125178
 30
0.0
  0
POINT
  5
2011
330
1FBE
100
AcDbEntity
  8
DEFPOINTS
 62
     0
440
 16777216
100
AcDbPoint
 10
30.8876081225206
 20
32.98495159761584
 30
0.0
  0
ENDBLK
  5
1FCA
330
1FBE
100
AcDbEntity
  8
0
100
AcDbBlockEnd
  0
BLOCK
  5
1FD7
330
1FCB
100
AcDbEntity
  8
0
100
AcDbBlockBegin
  2
*D6
 70
     1
 10
0.0
 20
0.0
 30
0.0
  3
*D6
  1

  0
LINE
  5
2012
330
1FCB
100
AcDbEntity
  8
AM_5
 62
     0
440
 16777216
370
    -2
100
AcDbLine
 10
13.8251081225206
 20
33.53406233125181
 30
0.0
 11
13.51965232480889
 21
33.53406233125181
 31
0.0
  0
LINE
  5
2013
330
1FCB
100
AcDbEntity
  8
AM_5
 62
     0
440
 16777216
370
    -2
100
AcDbLine
 10
13.8251081225206
 20
33.66406233125179
 30
0.0
 11
13.51965232480889
 21
33.66406233125179
 31
0.0
  0
LINE
  5
2014
330
1FCB
100
AcDbEntity
  8
AM_5
 62
     0
440
 16777216
370
    -2
100
AcDbLine
 10
13.70715232480889
 20
33.3465623312518
 30
0.0
 11
13.70715232480889
 21
33.1590623312518
 31
0.0
  0
LINE
  5
2015
330
1FCB
100
AcDbEntity
  8
AM_5
 62
     0
440
 16777216
370
    -2
100
AcDbLine
 10
13.70715232480889
 20
33.85156233125178
 30
0.0
 11
13.70715232480889
 21
34.03906233125179
 31
0.0
  0
LINE
  5
2016
330
1FCB
100
AcDbEntity
  8
AM_5
 62
     0
440
 16777216
370
    -2
100
AcDbLine
 10
13.70715232480889
 20
34.03906233125179
 30
0.0
 11
13.89465232480889
 21
34.03906233125179
 31
0.0
  0
SOLID
  5
2017
330
1FCB
100
AcDbEntity
  8
AM_5
 62
     0
440
 16777216
100
AcDbTrace
 10
13.67590232480889
 20
33.3465623312518
 30
0.0
 11
13.73840232480889
 21
33.3465623312518
 31
0.0
 12
13.70715232480889
 22
33.53406233125181
 32
0.0
 13
13.70715232480889
 23
33.53406233125181
 33
0.0
  0
SOLID
  5
2018
330
1FCB
100
AcDbEntity
  8
AM_5
 62
     0
440
 16777216
100
AcDbTrace
 10
13.67590232480889
 20
33.85156233125178
 30
0.0
 11
13.73840232480889
 21
33.85156233125178
 31
0.0
 12
13.70715232480889
 22
33.66406233125179
 32
0.0
 13
13.70715232480889
 23
33.66406233125179
 33
0.0
  0
MTEXT
  5
2019
330
1FCB
100
AcDbEntity
  8
AM_5
 62
     0
440
 16777216
100
AcDbMText
 10
14.31652732480888
 20
34.03906233125179
 30
0.0
 40
0.1875
 41
0.0
 46
0.0
 71
     5
 72
     1
  1
\A1;0.13
 73
     1
 44
1.0
  0
POINT
  5
201A
330
1FCB
100
AcDbEntity
  8
DEFPOINTS
 62
     0
440
 16777216
100
AcDbPoint
 10
13.8876081225206
 20
33.53406233125181
 30
0.0
  0
POINT
  5
201B
330
1FCB
100
AcDbEntity
  8
DEFPOINTS
 62
     0
440
 16777216
100
AcDbPoint
 10
13.8876081225206
 20
33.66406233125179
 30
0.0
  0
POINT
  5
201C
330
1FCB
100
AcDbEntity
  8
DEFPOINTS
 62
     0
440
 16777216
100
AcDbPoint
 10
13.70715232480889
 20
33.66406233125179
 30
0.0
  0
ENDBLK
  5
1FD8
330
1FCB
100
AcDbEntity
  8
0
100
AcDbBlockEnd
  0
BLOCK
  5
1FE4
330
1FD9
100
AcDbEntity
  8
0
100
AcDbBlockBegin
  2
*D7
 70
     1
 10
0.0
 20
0.0
 30
0.0
  3
*D7
  1

  0
LINE
  5
201D
330
1FD9
100
AcDbEntity
  8
AM_5
 62
     0
440
 16777216
370
    -2
100
AcDbLine
 10
14.7626081225206
 20
31.5565623312518
 30
0.0
 11
14.7626081225206
 21
32.69088696925059
 31
0.0
  0
LINE
  5
201E
330
1FD9
100
AcDbEntity
  8
AM_5
 62
     0
440
 16777216
370
    -2
100
AcDbLine
 10
30.0126081225206
 20
31.53050312233508
 30
0.0
 11
30.0126081225206
 21
32.69088696925059
 31
0.0
  0
LINE
  5
201F
330
1FD9
100
AcDbEntity
  8
AM_5
 62
     0
440
 16777216
370
    -2
100
AcDbLine
 10
14.9501081225206
 20
32.50338696925059
 30
0.0
 11
21.86906717975475
 21
32.50338696925059
 31
0.0
  0
LINE
  5
2020
330
1FD9
100
AcDbEntity
  8
AM_5
 62
     0
440
 16777216
370
    -2
100
AcDbLine
 10
29.82510812252061
 20
32.50338696925059
 30
0.0
 11
22.93156717975475
 21
32.50338696925059
 31
0.0
  0
SOLID
  5
2021
330
1FD9
100
AcDbEntity
  8
AM_5
 62
     0
440
 16777216
100
AcDbTrace
 10
14.9501081225206
 20
32.53463696925059
 30
0.0
 11
14.9501081225206
 21
32.47213696925059
 31
0.0
 12
14.7626081225206
 22
32.50338696925059
 32
0.0
 13
14.7626081225206
 23
32.50338696925059
 33
0.0
  0
SOLID
  5
2022
330
1FD9
100
AcDbEntity
  8
AM_5
 62
     0
440
 16777216
100
AcDbTrace
 10
29.82510812252061
 20
32.53463696925059
 30
0.0
 11
29.82510812252061
 21
32.47213696925059
 31
0.0
 12
30.0126081225206
 22
32.50338696925059
 32
0.0
 13
30.0126081225206
 23
32.50338696925059
 33
0.0
  0
MTEXT
  5
2023
330
1FD9
100
AcDbEntity
  8
AM_5
 62
     0
440
 16777216
100
AcDbMText
 10
22.40031717975475
 20
32.50338696925059
 30
0.0
 40
0.1875
 41
0.0
 46
0.0
 71
     5
 72
     1
  1
\A1;15.25
 73
     1
 44
1.0
  0
POINT
  5
2024
330
1FD9
100
AcDbEntity
  8
DEFPOINTS
 62
     0
440
 16777216
100
AcDbPoint
 10
14.7626081225206
 20
31.4940623312518
 30
0.0
  0
POINT
  5
2025
330
1FD9
100
AcDbEntity
  8
DEFPOINTS
 62
     0
440
 16777216
100
AcDbPoint
 10
30.0126081225206
 20
31.46800312233508
 30
0.0
  0
POINT
  5
2026
330
1FD9
100
AcDbEntity
  8
DEFPOINTS
 62
     0
440
 16777216
100
AcDbPoint
 10
30.0126081225206
 20
32.50338696925059
 30
0.0
  0
ENDBLK
  5
1FE5
330
1FD9
100
AcDbEntity
  8
0
100
AcDbBlockEnd
  0
BLOCK
  5
1FF1
330
1FE6
100
AcDbEntity
  8
0
100
AcDbBlockBegin
  2
*D8
 70
     1
 10
0.0
 20
0.0
 30
0.0
  3
*D8
  1

  0
LINE
  5
2027
330
1FE6
100
AcDbEntity
  8
AM_5
 62
     0
440
 16777216
370
    -2
100
AcDbLine
 10
14.3651081225206
 20
31.1590623312518
 30
0.0
 11
13.04533363152536
 21
31.1590623312518
 31
0.0
  0
LINE
  5
2028
330
1FE6
100
AcDbEntity
  8
AM_5
 62
     0
440
 16777216
370
    -2
100
AcDbLine
 10
14.3651081225206
 20
11.9090623312518
 30
0.0
 11
13.04533363152535
 21
11.9090623312518
 31
0.0
  0
LINE
  5
2029
330
1FE6
100
AcDbEntity
  8
AM_5
 62
     0
440
 16777216
370
    -2
100
AcDbLine
 10
13.23283363152536
 20
30.9715623312518
 30
0.0
 11
13.23283363152536
 21
22.45091343895589
 31
0.0
  0
LINE
  5
202A
330
1FE6
100
AcDbEntity
  8
AM_5
 62
     0
440
 16777216
370
    -2
100
AcDbLine
 10
13.23283363152536
 20
12.0965623312518
 30
0.0
 11
13.23283363152536
 21
21.88841343895589
 31
0.0
  0
SOLID
  5
202B
330
1FE6
100
AcDbEntity
  8
AM_5
 62
     0
440
 16777216
100
AcDbTrace
 10
13.20158363152536
 20
30.9715623312518
 30
0.0
 11
13.26408363152536
 21
30.9715623312518
 31
0.0
 12
13.23283363152536
 22
31.1590623312518
 32
0.0
 13
13.23283363152536
 23
31.1590623312518
 33
0.0
  0
SOLID
  5
202C
330
1FE6
100
AcDbEntity
  8
AM_5
 62
     0
440
 16777216
100
AcDbTrace
 10
13.20158363152535
 20
12.0965623312518
 30
0.0
 11
13.26408363152536
 21
12.0965623312518
 31
0.0
 12
13.23283363152535
 22
11.9090623312518
 32
0.0
 13
13.23283363152535
 23
11.9090623312518
 33
0.0
  0
MTEXT
  5
202D
330
1FE6
100
AcDbEntity
  8
AM_5
 62
     0
440
 16777216
100
AcDbMText
 10
13.23283363152535
 20
22.16966343895589
 30
0.0
 40
0.1875
 41
0.0
 46
0.0
 71
     5
 72
     1
  1
\A1;19.25
 73
     1
 44
1.0
  0
POINT
  5
202E
330
1FE6
100
AcDbEntity
  8
DEFPOINTS
 62
     0
440
 16777216
100
AcDbPoint
 10
14.4276081225206
 20
31.1590623312518
 30
0.0
  0
POINT
  5
202F
330
1FE6
100
AcDbEntity
  8
DEFPOINTS
 62
     0
440
 16777216
100
AcDbPoint
 10
14.4276081225206
 20
11.9090623312518
 30
0.0
  0
POINT
  5
2030
330
1FE6
100
AcDbEntity
  8
DEFPOINTS
 62
     0
440
 16777216
100
AcDbPoint
 10
13.23283363152535
 20
11.9090623312518
 30
0.0
  0
ENDBLK
  5
1FF2
330
1FE6
100
AcDbEntity
  8
0
100
AcDbBlockEnd
  0
BLOCK
  5
1FFC
330
1FF3
100
AcDbEntity
  8
0
100
AcDbBlockBegin
  2
*D9
 70
     1
 10
0.0
 20
0.0
 30
0.0
  3
*D9
  1

  0
LINE
  5
2031
330
1FF3
100
AcDbEntity
  8
CENTER
 62
     0
440
 16777216
370
    -2
100
AcDbLine
 10
14.46561625307079
 20
31.48031313589003
 30
0.0
 11
13.48900829240366
 21
32.53669253698819
 31
0.0
  0
LINE
  5
2032
330
1FF3
100
AcDbEntity
  8
CENTER
 62
     0
440
 16777216
370
    -2
100
AcDbLine
 10
13.48900829240366
 20
32.53669253698819
 30
0.0
 11
13.30150829240366
 21
32.53669253698819
 31
0.0
  0
SOLID
  5
2033
330
1FF3
100
AcDbEntity
  8
CENTER
 62
     0
440
 16777216
100
AcDbTrace
 10
14.48856273911637
 20
31.50152684085073
 30
0.0
 11
14.4426697670252
 21
31.45909943092933
 31
0.0
 12
14.59289848283499
 22
31.3426342196165
 32
0.0
 13
14.59289848283499
 23
31.3426342196165
 33
0.0
  0
MTEXT
  5
2034
330
1FF3
100
AcDbEntity
  8
CENTER
 62
     0
440
 16777216
100
AcDbMText
 10
12.72150829240367
 20
32.53669253698819
 30
0.0
 40
0.18
 41
0.0
 46
0.0
 71
     5
 72
     1
  1
\A1;∅0.50
 73
     1
 44
1.0
  0
LINE
  5
2035
330
1FF3
100
AcDbEntity
  8
CENTER
 62
     0
440
 16777216
370
    -2
100
AcDbLine
 10
14.6688581225206
 20
31.1590623312518
 30
0.0
 11
14.8563581225206
 21
31.1590623312518
 31
0.0
  0
LINE
  5
2036
330
1FF3
100
AcDbEntity
  8
CENTER
 62
     0
440
 16777216
370
    -2
100
AcDbLine
 10
14.7626081225206
 20
31.0653123312518
 30
0.0
 11
14.76260812252059
 21
31.2528123312518
 31
0.0
  0
POINT
  5
2037
330
1FF3
100
AcDbEntity
  8
DEFPOINTS
 62
     0
440
 16777216
100
AcDbPoint
 10
14.59289848283499
 20
31.3426342196165
 30
0.0
  0
POINT
  5
2038
330
1FF3
100
AcDbEntity
  8
DEFPOINTS
 62
     0
440
 16777216
100
AcDbPoint
 10
14.93231776220621
 20
30.97549044288711
 30
0.0
  0
ENDBLK
  5
1FFD
330
1FF3
100
AcDbEntity
  8
0
100
AcDbBlockEnd
  0
ENDSEC
  0
SECTION
  2
ENTITIES
  0
TEXT
  5
332
330
18
100
AcDbEntity
  8
TITLE
100
AcDbText
 10
52.20267205253438
 20
0.2172647121122048
 30
0.0
 40
0.15125
  1
DO NOT SCALE
 72
     1
 11
53.08496371920104
 21
0.2172647121122048
 31
0.0
100
AcDbText
  0
TEXT
  5
15D0
330
18
100
AcDbEntity
  8
TITLE
100
AcDbText
 10
44.97421779060663
 20
2.467264712112207
 30
0.0
 40
0.15125
  1
Aluminum
 72
     1
 11
45.46578029060663
 21
2.467264712112207
 31
0.0
100
AcDbText
  0
TEXT
  5
15D3
330
18
100
AcDbEntity
  8
TITLE
100
AcDbText
 10
55.73389818394772
 20
0.2172647121122049
 30
0.0
 40
0.15125
  1
BACK PANEL
 72
     1
 11
56.46493985061439
 21
0.2172647121122049
 31
0.0
100
AcDbText
  0
TEXT
  5
15D5
330
18
100
AcDbEntity
  8
TITLE
100
AcDbText
 10
52.34508968422885
 20
2.467264712112203
 30
0.0
 40
0.15125
  1
JDS
 72
     1
 11
52.54675635089552
 21
2.467264712112203
 31
0.0
100
AcDbText
  0
TEXT
  5
15D6
330
18
100
AcDbEntity
  8
TITLE
100
AcDbText
 10
53.33040218422885
 20
2.467264712112205
 30
0.0
 40
0.15125
  1
5/16/05
 72
     1
 11
53.79675635089552
 21
2.467264712112205
 31
0.0
100
AcDbText
  0
TEXT
  5
15D7
330
18
100
AcDbEntity
  8
TITLE
100
AcDbText
 10
60.64092265275614
 20
3.293804878086824
 30
0.0
 40
0.15125
  1
.010
 72
     1
 11
60.81738098608948
 21
3.293804878086824
 31
0.0
100
AcDbText
  0
TEXT
  5
15D9
330
18
100
AcDbEntity
  8
TITLE
100
AcDbText
 10
62.18567123463365
 20
3.293804878086824
 30
0.0
 40
0.15125
  1
1/32
 72
     1
 11
62.43775456796699
 21
3.293804878086824
 31
0.0
100
AcDbText
  0
MTEXT
  5
184C
330
18
100
AcDbEntity
  8
TITLE
100
AcDbMText
 10
60.32675476531412
 20
0.3963711942039367
 30
0.0
 40
0.2
 41
2.474364785144189
 46
0.0
 71
     1
 72
     5
  1
HW-WM2420A
 73
     1
 44
1.0
  0
LINE
  5
1F84
330
18
100
AcDbEntity
  8
0
100
AcDbLine
 10
13.8876081225206
 20
11.0340623312518
 30
0.0
 11
30.8876081225206
 21
11.03406233125179
 31
0.0
  0
LINE
  5
1F85
330
18
100
AcDbEntity
  8
0
100
AcDbLine
 10
30.8876081225206
 20
11.0340623312518
 30
0.0
 11
30.8876081225206
 21
32.03406233125178
 31
0.0
  0
LINE
  5
1F86
330
18
100
AcDbEntity
  8
0
100
AcDbLine
 10
30.8876081225206
 20
32.03406233125178
 30
0.0
 11
13.8876081225206
 21
32.03406233125181
 31
0.0
  0
LINE
  5
1F87
330
18
100
AcDbEntity
  8
0
100
AcDbLine
 10
13.8876081225206
 20
32.03406233125181
 30
0.0
 11
13.8876081225206
 21
11.0340623312518
 31
0.0
  0
DIMENSION
  5
1F88
330
18
100
AcDbEntity
  8
AM_5
100
AcDbDimension
280
     0
  2
*D4
 10
11.83202660188958
 20
11.0340623312518
 30
0.0
 11
11.83202660188958
 21
22.16966343895589
 31
0.0
 70
   160
  1
<>
 71
     5
 42
21.0
 73
     0
 74
     0
 75
     0
  3
STANDARD$0
100
AcDbAlignedDimension
 13
13.8876081225206
 23
32.03406233125181
 33
0.0
 14
13.8876081225206
 24
11.0340623312518
 34
0.0
 50
90.0
100
AcDbRotatedDimension
1001
ACAD
1000
DSTYLE
1002
{
1070
   140
1040
0.1875
1070
    41
1040
0.1875
1070
    43
1040
0.375
1070
    44
1040
0.1875
1070
   141
1040
0.09375
1070
   147
1040
0.1875
1070
   271
1070
     2
1070
   276
1070
     2
1070
   277
1070
     2
1070
   289
1070
     0
1002
}
  0
LINE
  5
1F89
330
18
100
AcDbEntity
  8
0
100
AcDbLine
 10
13.8876081225206
 20
33.53406233125181
 30
0.0
 11
30.8876081225206
 21
33.53406233125177
 31
0.0
  0
LINE
  5
1F8A
330
18
100
AcDbEntity
  8
0
100
AcDbLine
 10
30.8876081225206
 20
33.66406233125186
 30
0.0
 11
13.8876081225206
 21
33.66406233125179
 31
0.0
  0
LINE
  5
1F8B
330
18
100
AcDbEntity
  8
0
100
AcDbLine
 10
13.8876081225206
 20
33.66406233125179
 30
0.0
 11
13.8876081225206
 21
33.53406233125181
 31
0.0
  0
DIMENSION
  5
1F8C
330
18
100
AcDbEntity
  8
AM_5
100
AcDbDimension
280
     0
  2
*D5
 10
30.8876081225206
 20
32.98495159761584
 30
0.0
 11
22.3876081225206
 21
32.98495159761584
 31
0.0
 70
    32
 71
     5
 42
17.0
 73
     0
 74
     0
 75
     0
  3
STANDARD$0
100
AcDbAlignedDimension
 13
13.8876081225206
 23
32.03406233125181
 33
0.0
 14
30.8876081225206
 24
32.03406233125178
 34
0.0
100
AcDbRotatedDimension
1001
ACAD
1000
DSTYLE
1002
{
1070
   140
1040
0.1875
1070
    40
1040
1.0
1070
   144
1040
1.0
1070
    41
1040
0.1875
1070
    43
1040
0.375
1070
    44
1040
0.1875
1070
   141
1040
0.09375
1070
   147
1040
0.1875
1070
   271
1070
     2
1070
   276
1070
     2
1070
   277
1070
     2
1070
   289
1070
     0
1002
}
  0
DIMENSION
  5
1F8D
330
18
100
AcDbEntity
  8
AM_5
100
AcDbDimension
280
     0
  2
*D6
 10
13.70715232480889
 20
33.66406233125179
 30
0.0
 11
14.31652732480888
 21
34.03906233125179
 31
0.0
 70
    32
 71
     5
 42
0.1299999999999812
 73
     0
 74
     0
 75
     0
  3
STANDARD$0
100
AcDbAlignedDimension
 13
13.8876081225206
 23
33.53406233125181
 33
0.0
 14
13.8876081225206
 24
33.66406233125179
 34
0.0
 50
90.0
100
AcDbRotatedDimension
1001
ACAD
1000
DSTYLE
1002
{
1070
   140
1040
0.1875
1070
    40
1040
1.0
1070
   144
1040
1.0
1070
    41
1040
0.1875
1070
    43
1040
0.375
1070
    44
1040
0.1875
1070
   141
1040
0.09375
1070
   147
1040
0.1875
1070
   271
1070
     2
1070
   276
1070
     2
1070
   277
1070
     2
1070
   289
1070
     0
1002
}
  0
DIMENSION
  5
1F8E
330
18
100
AcDbEntity
  8
AM_5
100
AcDbDimension
280
     0
  2
*D7
 10
30.0126081225206
 20
32.50338696925059
 30
0.0
 11
22.40031717975475
 21
32.50338696925059
 31
0.0
 70
   160
 71
     5
 42
15.25
 73
     0
 74
     0
 75
     0
  3
STANDARD$0
100
AcDbAlignedDimension
 13
14.7626081225206
 23
31.4940623312518
 33
0.0
 14
30.0126081225206
 24
31.46800312233508
 34
0.0
100
AcDbRotatedDimension
1001
ACAD
1000
DSTYLE
1002
{
1070
   140
1040
0.1875
1070
    40
1040
1.0
1070
   144
1040
1.0
1070
    41
1040
0.1875
1070
    43
1040
0.375
1070
    44
1040
0.1875
1070
   141
1040
0.09375
1070
   147
1040
0.1875
1070
   271
1070
     2
1070
   276
1070
     2
1070
   277
1070
     2
1070
   289
1070
     0
1002
}
  0
DIMENSION
  5
1F8F
330
18
100
AcDbEntity
  8
AM_5
100
AcDbDimension
280
     0
  2
*D8
 10
13.23283363152535
 20
11.9090623312518
 30
0.0
 11
13.23283363152535
 21
22.16966343895589
 31
0.0
 70
   160
 71
     5
 42
19.25
 73
     0
 74
     0
 75
     0
  3
STANDARD$0
100
AcDbAlignedDimension
 13
14.4276081225206
 23
31.1590623312518
 33
0.0
 14
14.4276081225206
 24
11.9090623312518
 34
0.0
 50
90.0
100
AcDbRotatedDimension
1001
ACAD
1000
DSTYLE
1002
{
1070
   140
1040
0.1875
1070
    40
1040
1.0
1070
   144
1040
1.0
1070
    41
1040
0.1875
1070
    43
1040
0.375
1070
    44
1040
0.1875
1070
   141
1040
0.09375
1070
   147
1040
0.1875
1070
   271
1070
     2
1070
   276
1070
     2
1070
   277
1070
     2
1070
   289
1070
     0
1002
}
  0
LINE
  5
1F90
330
18
100
AcDbEntity
  8
CENTER
  6
CENTER2
 48
0.1
100
AcDbLine
 10
14.7626081225206
 20
31.1590623312518
 30
0.0
 11
15.0976081225206
 21
31.1590623312518
 31
0.0
1001
GENIUS_GENOREF_13
1005
1FAD
  0
LINE
  5
1F91
330
18
100
AcDbEntity
  8
CENTER
  6
CENTER2
 48
0.1
100
AcDbLine
 10
14.7626081225206
 20
31.1590623312518
 30
0.0
 11
14.7626081225206
 21
31.4940623312518
 31
0.0
1001
GENIUS_GENOREF_13
1005
1FAD
  0
LINE
  5
1F92
330
18
100
AcDbEntity
  8
CENTER
  6
CENTER2
 48
0.1
100
AcDbLine
 10
14.7626081225206
 20
31.1590623312518
 30
0.0
 11
14.4276081225206
 21
31.1590623312518
 31
0.0
1001
GENIUS_GENOREF_13
1005
1FAD
  0
LINE
  5
1F93
330
18
100
AcDbEntity
  8
CENTER
  6
CENTER2
 48
0.1
100
AcDbLine
 10
14.7626081225206
 20
31.23406233125181
 30
0.0
 11
14.7626081225206
 21
30.8240623312518
 31
0.0
1001
GENIUS_GENOREF_13
1005
1FAD
  0
TEXT
  5
1F94
330
18
100
AcDbEntity
  8
CENTER
100
AcDbText
 10
11.97772257737922
 20
32.42494053563977
 30
0.0
 40
0.1875
  1
4X
100
AcDbText
  0
LINE
  5
1F95
330
18
100
AcDbEntity
  8
0
100
AcDbLine
 10
30.8876081225206
 20
33.66406233125181
 30
0.0
 11
30.8876081225206
 21
33.53406233125179
 31
0.0
  0
CIRCLE
  5
1F96
330
18
100
AcDbEntity
  8
0
100
AcDbCircle
 10
14.7626081225206
 20
31.1590623312518
 30
0.0
 40
0.25
  0
LINE
  5
1F97
330
18
100
AcDbEntity
  8
CENTER
  6
CENTER2
 48
0.1
100
AcDbLine
 10
30.0126081225206
 20
31.13300312233508
 30
0.0
 11
30.34760812252061
 21
31.13300312233508
 31
0.0
1001
GENIUS_GENOREF_13
1005
1FB0
  0
LINE
  5
1F98
330
18
100
AcDbEntity
  8
CENTER
  6
CENTER2
 48
0.1
100
AcDbLine
 10
30.0126081225206
 20
31.13300312233508
 30
0.0
 11
30.0126081225206
 21
31.46800312233508
 31
0.0
1001
GENIUS_GENOREF_13
1005
1FB0
  0
LINE
  5
1F99
330
18
100
AcDbEntity
  8
CENTER
  6
CENTER2
 48
0.1
100
AcDbLine
 10
30.0126081225206
 20
31.13300312233508
 30
0.0
 11
29.6776081225206
 21
31.13300312233508
 31
0.0
1001
GENIUS_GENOREF_13
1005
1FB0
  0
LINE
  5
1F9A
330
18
100
AcDbEntity
  8
CENTER
  6
CENTER2
 48
0.1
100
AcDbLine
 10
30.0126081225206
 20
31.20800312233507
 30
0.0
 11
30.0126081225206
 21
30.79800312233508
 31
0.0
1001
GENIUS_GENOREF_13
1005
1FB0
  0
CIRCLE
  5
1F9B
330
18
100
AcDbEntity
  8
0
100
AcDbCircle
 10
30.0126081225206
 20
31.13300312233508
 30
0.0
 40
0.25
  0
LINE
  5
1F9C
330
18
100
AcDbEntity
  8
CENTER
  6
CENTER2
 48
0.1
100
AcDbLine
 10
30.0126081225206
 20
11.90906233125179
 30
0.0
 11
30.34760812252061
 21
11.90906233125179
 31
0.0
1001
GENIUS_GENOREF_13
1005
1FAF
  0
LINE
  5
1F9D
330
18
100
AcDbEntity
  8
CENTER
  6
CENTER2
 48
0.1
100
AcDbLine
 10
30.0126081225206
 20
11.90906233125179
 30
0.0
 11
30.0126081225206
 21
12.24406233125179
 31
0.0
1001
GENIUS_GENOREF_13
1005
1FAF
  0
LINE
  5
1F9E
330
18
100
AcDbEntity
  8
CENTER
  6
CENTER2
 48
0.1
100
AcDbLine
 10
30.0126081225206
 20
11.90906233125179
 30
0.0
 11
29.6776081225206
 21
11.90906233125179
 31
0.0
1001
GENIUS_GENOREF_13
1005
1FAF
  0
LINE
  5
1F9F
330
18
100
AcDbEntity
  8
CENTER
  6
CENTER2
 48
0.1
100
AcDbLine
 10
30.0126081225206
 20
11.98406233125179
 30
0.0
 11
30.0126081225206
 21
11.57406233125179
 31
0.0
1001
GENIUS_GENOREF_13
1005
1FAF
  0
CIRCLE
  5
1FA0
330
18
100
AcDbEntity
  8
0
100
AcDbCircle
 10
30.0126081225206
 20
11.90906233125179
 30
0.0
 40
0.25
  0
LINE
  5
1FA1
330
18
100
AcDbEntity
  8
CENTER
  6
CENTER2
 48
0.1
100
AcDbLine
 10
14.7626081225206
 20
11.9090623312518
 30
0.0
 11
15.0976081225206
 21
11.9090623312518
 31
0.0
1001
GENIUS_GENOREF_13
1005
1FAE
  0
LINE
  5
1FA2
330
18
100
AcDbEntity
  8
CENTER
  6
CENTER2
 48
0.1
100
AcDbLine
 10
14.7626081225206
 20
11.9090623312518
 30
0.0
 11
14.7626081225206
 21
12.2440623312518
 31
0.0
1001
GENIUS_GENOREF_13
1005
1FAE
  0
LINE
  5
1FA3
330
18
100
AcDbEntity
  8
CENTER
  6
CENTER2
 48
0.1
100
AcDbLine
 10
14.7626081225206
 20
11.9090623312518
 30
0.0
 11
14.4276081225206
 21
11.9090623312518
 31
0.0
1001
GENIUS_GENOREF_13
1005
1FAE
  0
LINE
  5
1FA4
330
18
100
AcDbEntity
  8
CENTER
  6
CENTER2
 48
0.1
100
AcDbLine
 10
14.7626081225206
 20
11.9840623312518
 30
0.0
 11
14.7626081225206
 21
11.5740623312518
 31
0.0
1001
GENIUS_GENOREF_13
1005
1FAE
  0
CIRCLE
  5
1FA5
330
18
100
AcDbEntity
  8
0
100
AcDbCircle
 10
14.7626081225206
 20
11.9090623312518
 30
0.0
 40
0.25
  0
DIMENSION
  5
1FA6
330
18
100
AcDbEntity
  8
CENTER
100
AcDbDimension
280
     0
  2
*D9
 10
14.93231776220621
 20
30.97549044288711
 30
0.0
 11
12.72150829240367
 21
32.53669253698819
 31
0.0
 70
   163
 71
     5
 42
0.5
 73
     0
 74
     0
 75
     0
  3
STANDARD
100
AcDbDiametricDimension
 15
14.59289848283499
 25
31.3426342196165
 35
0.0
 40
0.0
1001
ACAD
1000
DSTYLE
1002
{
1070
    41
1040
0.1875
1070
    43
1040
0.375
1070
    44
1040
0.1875
1070
   141
1040
0.09375
1070
   147
1040
0.25
1070
   271
1070
     2
1070
   276
1070
     2
1070
   277
1070
     2
1070
   289
1070
     0
1002
}
  0
LINE
  5
1FA7
330
18
100
AcDbEntity
  8
AM_9
100
AcDbLine
 10
14.5126081225206
 20
33.53406233125181
 30
0.0
 11
14.5126081225206
 21
33.66406233125179
 31
0.0
  0
LINE
  5
1FA8
330
18
100
AcDbEntity
  8
AM_9
100
AcDbLine
 10
15.0126081225206
 20
33.53406233125181
 30
0.0
 11
15.0126081225206
 21
33.66406233125179
 31
0.0
  0
LINE
  5
1FA9
330
18
100
AcDbEntity
  8
AM_9
100
AcDbLine
 10
29.76260812252061
 20
33.53406233125178
 30
0.0
 11
29.76260812252061
 21
33.66406233125184
 31
0.0
  0
LINE
  5
1FAA
330
18
100
AcDbEntity
  8
AM_9
100
AcDbLine
 10
30.2626081225206
 20
33.53406233125177
 30
0.0
 11
30.2626081225206
 21
33.66406233125184
 31
0.0
  0
LINE
  5
1FAB
330
18
100
AcDbEntity
  8
CENTER
 48
0.1
100
AcDbLine
 10
30.0126081225206
 20
33.40906233125178
 30
0.0
 11
30.0126081225206
 21
33.78906233125184
 31
0.0
  0
LINE
  5
1FAC
330
18
100
AcDbEntity
  8
CENTER
 48
0.1
100
AcDbLine
 10
14.7626081225206
 20
33.4090623312518
 30
0.0
 11
14.7626081225206
 21
33.78906233125178
 31
0.0
  0
POINT
  5
1FAD
330
18
100
AcDbEntity
  8
0
 60
     1
100
AcDbPoint
 10
16.8835764155351
 20
24.21173436903167
 30
0.0
1001
GENIUS_GENOLIS_13
1002
{
1000
ENT
1005
1F93
1005
1F92
1005
1F91
1005
1F90
1002
}
1001
GENIUS_GENOENT_13
1002
{
1000
MYREF
1005
1FAD
1002
}
1002
{
1000
GRP
1005
0
1002
}
1001
GENIUS_GENOBJ-N-CRS_13
1002
{
1000
OWNER
1000
GEN
1002
}
1001
GENIUS_GENODEF_13
1002
{
1000
HIER
1070
    10
1002
}
1002
{
1000
MANEDIT
1070
     0
1002
}
1002
{
1000
NOSEL
1070
     0
1002
}
1002
{
1000
BEHIND
1070
     0
1002
}
1002
{
1000
OTHER
1070
     0
1002
}
1002
{
1000
REACTOR
1002
}
  0
POINT
  5
1FAE
330
18
100
AcDbEntity
  8
0
 60
     1
100
AcDbPoint
 10
16.5085764155351
 20
8.96173436903167
 30
0.0
1001
GENIUS_GENOLIS_13
1002
{
1000
ENT
1005
1FA4
1005
1FA3
1005
1FA2
1005
1FA1
1002
}
1001
GENIUS_GENOENT_13
1002
{
1000
MYREF
1005
1FAE
1002
}
1002
{
1000
GRP
1005
0
1002
}
1001
GENIUS_GENOBJ-N-CRS_13
1002
{
1000
OWNER
1000
GEN
1002
}
1001
GENIUS_GENODEF_13
1002
{
1000
HIER
1070
    10
1002
}
1002
{
1000
MANEDIT
1070
     0
1002
}
1002
{
1000
NOSEL
1070
     0
1002
}
1002
{
1000
BEHIND
1070
     0
1002
}
1002
{
1000
OTHER
1070
     0
1002
}
1002
{
1000
REACTOR
1002
}
  0
POINT
  5
1FAF
330
18
100
AcDbEntity
  8
0
 60
     1
100
AcDbPoint
 10
28.5085764155351
 20
8.961734369031667
 30
0.0
1001
GENIUS_GENOLIS_13
1002
{
1000
ENT
1005
1F9F
1005
1F9E
1005
1F9D
1005
1F9C
1002
}
1001
GENIUS_GENOENT_13
1002
{
1000
MYREF
1005
1FAF
1002
}
1002
{
1000
GRP
1005
0
1002
}
1001
GENIUS_GENOBJ-N-CRS_13
1002
{
1000
OWNER
1000
GEN
1002
}
1001
GENIUS_GENODEF_13
1002
{
1000
HIER
1070
    10
1002
}
1002
{
1000
MANEDIT
1070
     0
1002
}
1002
{
1000
NOSEL
1070
     0
1002
}
1002
{
1000
BEHIND
1070
     0
1002
}
1002
{
1000
OTHER
1070
     0
1002
}
1002
{
1000
REACTOR
1002
}
  0
POINT
  5
1FB0
330
18
100
AcDbEntity
  8
0
 60
     1
100
AcDbPoint
 10
28.13357641553511
 20
24.18567516011495
 30
0.0
1001
GENIUS_GENOLIS_13
1002
{
1000
ENT
1005
1F9A
1005
1F99
1005
1F98
1005
1F97
1002
}
1001
GENIUS_GENOENT_13
1002
{
1000
MYREF
1005
1FB0
1002
}
1002
{
1000
GRP
1005
0
1002
}
1001
GENIUS_GENOBJ-N-CRS_13
1002
{
1000
OWNER
1000
GEN
1002
}
1001
GENIUS_GENODEF_13
1002
{
1000
HIER
1070
    10
1002
}
1002
{
1000
MANEDIT
1070
     0
1002
}
1002
{
1000
NOSEL
1070
     0
1002
}
1002
{
1000
BEHIND
1070
     0
1002
}
1002
{
1000
OTHER
1070
     0
1002
}
1002
{
1000
REACTOR
1002
}
  0
LWPOLYLINE
  5
2091
330
18
100
AcDbEntity
  8
TITLE
100
AcDbPolyline
 90
        4
 70
     1
 43
0.0
 10
63.96000000000377
 20
41.71000000000276
 10
0.0399999999999943
 20
41.71000000000276
 10
0.0399999999999996
 20
0.0400000000000014
 10
63.96000000000374
 20
0.0400000000000014
  0
LWPOLYLINE
  5
2092
330
18
100
AcDbEntity
  8
TITLE
100
AcDbPolyline
 90
        4
 70
     1
 43
0.0
 10
64.00000000000376
 20
41.75000000000276
 10
-0.0000000000000071
 20
41.75000000000276
 10
0.0
 20
0.0000000000000018
 10
64.00000000000374
 20
0.0000000000000018
  0
LWPOLYLINE
  5
2093
330
18
100
AcDbEntity
  8
TITLE
100
AcDbPolyline
 90
        4
 70
     1
 43
0.0
 10
63.98000000000377
 20
41.73000000000278
 10
0.0199999999999943
 20
41.73000000000278
 10
0.0199999999999996
 20
0.0200000000000014
 10
63.98000000000374
 20
0.0200000000000014
  0
TEXT
  5
20A0
330
18
100
AcDbEntity
  8
TITLE
 62
     1
100
AcDbText
 10
62.01705691683141
 20
3.19799197822055
 30
0.0
 40
0.15525
  1
-
  7
ITALIC
100
AcDbText
  0
TEXT
  5
20A1
330
18
100
AcDbEntity
  8
TITLE
 62
     1
100
AcDbText
 10
62.01705691683141
 20
3.349780357914581
 30
0.0
 40
0.15525
  1
+
  7
ITALIC
100
AcDbText
  0
TEXT
  5
20A2
330
18
100
AcDbEntity
  8
TITLE
 62
     1
100
AcDbText
 10
62.01705691683141
 20
3.64320306308844
 30
0.0
 40
0.15525
  1
FRACTIONAL
  7
ITALIC
100
AcDbText
  0
TEXT
  5
20A3
330
18
100
AcDbEntity
  8
TITLE
 62
     1
100
AcDbText
 10
60.47755802933359
 20
3.198840704743548
 30
0.0
 40
0.15525
  1
-
  7
ITALIC
100
AcDbText
  0
TEXT
  5
20A4
330
18
100
AcDbEntity
  8
TITLE
 62
     1
100
AcDbText
 10
60.47755802933359
 20
3.356364944423901
 30
0.0
 40
0.15525
  1
+
  7
ITALIC
100
AcDbText
  0
TEXT
  5
20A5
330
18
100
AcDbEntity
  8
TITLE
 62
     1
100
AcDbText
 10
60.47755802933359
 20
3.649787649597743
 30
0.0
 40
0.15525
  1
DECIMAL
  7
ITALIC
100
AcDbText
  0
TEXT
  5
20A6
330
18
100
AcDbEntity
  8
TITLE
 62
     1
100
AcDbText
 10
57.92743410179541
 20
3.643086326406458
 30
0.0
 40
0.15525
  1
TOLERANCES
  7
ITALIC
 72
     1
 11
58.67780910179541
 21
3.643086326406458
 31
0.0
100
AcDbText
  0
LINE
  5
20A7
330
18
100
AcDbEntity
  8
TITLE
 62
     1
100
AcDbLine
 10
57.33500000000375
 20
4.04
 30
0.0
 11
57.33500000000375
 21
3.040000000000001
 31
0.0
  0
TEXT
  5
20A8
330
18
100
AcDbEntity
  8
TITLE
 62
     1
100
AcDbText
 10
57.51343410179541
 20
3.27666845244556
 30
0.0
 40
0.15525
  1
UNLESS SPECIFIED
  7
ITALIC
 72
     1
 11
58.67780910179541
 21
3.27666845244556
 31
0.0
100
AcDbText
  0
TEXT
  5
20A9
330
18
100
AcDbEntity
  8
TITLE
 62
     1
100
AcDbText
 10
53.44713965836721
 20
2.822727796946285
 30
0.0
 40
0.14
  1
DATE
  7
ITALIC
 72
     1
 11
53.70380632503388
 21
2.822727796946285
 31
0.0
100
AcDbText
  0
TEXT
  5
20AA
330
18
100
AcDbEntity
  8
TITLE
 62
     1
100
AcDbText
 10
53.46190663208497
 20
2.072056300604384
 30
0.0
 40
0.154
  1
DATE
  7
ITALIC
 72
     1
 11
53.7442399654183
 21
2.072056300604384
 31
0.0
100
AcDbText
  0
TEXT
  5
20AB
330
18
100
AcDbEntity
  8
TITLE
100
AcDbText
 10
52.13269628546089
 20
2.82618097475822
 30
0.0
 40
0.14
  1
DR. BY
  7
ITALIC
 72
     1
 11
52.48269628546089
 21
2.82618097475822
 31
0.0
100
AcDbText
  0
TEXT
  5
20AC
330
18
100
AcDbEntity
  8
TITLE
100
AcDbText
 10
51.96638083203399
 20
2.072056300604384
 30
0.0
 40
0.154
  1
CHK. BY
  7
ITALIC
 72
     1
 11
52.42838083203399
 21
2.072056300604384
 31
0.0
100
AcDbText
  0
LINE
  5
20AD
330
18
100
AcDbEntity
  8
TITLE
 62
     1
100
AcDbLine
 10
61.74479396240641
 20
0.7900000000000014
 30
0.0
 11
61.74479396240641
 21
1.540000000000001
 31
0.0
  0
TEXT
  5
20AE
330
18
100
AcDbEntity
  8
TITLE
 62
     1
100
AcDbText
 10
59.46791140966684
 20
0.5206953542067927
 30
0.0
 40
0.1694
  1
PART NO.
  7
ITALIC
100
AcDbText
  0
LINE
  5
20AF
330
18
100
AcDbEntity
  8
TITLE
 62
     1
100
AcDbLine
 10
59.21000000000375
 20
0.7900000000000014
 30
0.0
 11
59.21000000000375
 21
0.0399999999999978
 31
0.0
  0
TEXT
  5
20B0
330
18
100
AcDbEntity
  8
TITLE
 62
     1
100
AcDbText
 10
54.56633048452305
 20
0.5102494913256912
 30
0.0
 40
0.1694
  1
PART NAME
  7
ITALIC
100
AcDbText
  0
TEXT
  5
20B1
330
18
100
AcDbEntity
  8
TITLE
 62
     1
100
AcDbText
 10
54.54266216399277
 20
1.252558201771084
 30
0.0
 40
0.1694
  1
CUSTOMER
  7
ITALIC
 72
     2
 11
55.8413954973261
 21
1.252558201771084
 31
0.0
100
AcDbText
  0
TEXT
  5
20B2
330
18
100
AcDbEntity
  8
TITLE
 62
     1
100
AcDbText
 10
53.47434386396953
 20
1.322440723290178
 30
0.0
 40
0.154
  1
DATE
  7
ITALIC
 72
     1
 11
53.75667719730286
 21
1.322440723290178
 31
0.0
100
AcDbText
  0
TEXT
  5
20B3
330
18
100
AcDbEntity
  8
TITLE
100
AcDbText
 10
51.96638083203399
 20
1.316742979900486
 30
0.0
 40
0.154
  1
APD. BY
  7
ITALIC
 72
     1
 11
52.42838083203399
 21
1.316742979900486
 31
0.0
100
AcDbText
  0
TEXT
  5
20B4
330
18
100
AcDbEntity
  8
TITLE
100
AcDbText
 10
52.73472273397718
 20
0.5212952711989276
 30
0.0
 40
0.154
  1
SCALE
  7
ITALIC
 72
     1
 11
53.09405606731051
 21
0.5212952711989276
 31
0.0
100
AcDbText
  0
LINE
  5
20B5
330
18
100
AcDbEntity
  8
TITLE
 62
     1
100
AcDbLine
 10
53.08500000000375
 20
3.040000000000004
 30
0.0
 11
53.08500000000375
 21
0.7900000000000032
 31
0.0
  0
LINE
  5
20B6
330
18
100
AcDbEntity
  8
TITLE
 62
     1
100
AcDbLine
 10
54.33500000000375
 20
3.039999999999997
 30
0.0
 11
54.33500000000375
 21
0.0399999999999996
 31
0.0
  0
LINE
  5
20B7
330
18
100
AcDbEntity
  8
TITLE
 62
     1
100
AcDbLine
 10
63.96000000000374
 20
1.540000000000001
 30
0.0
 11
54.33500000000375
 21
1.540000000000001
 31
0.0
  0
TEXT
  5
20B8
330
18
100
AcDbEntity
  8
TITLE
 62
     1
100
AcDbText
 10
61.83818339703766
 20
1.326747107986976
 30
0.0
 40
0.125
  1
AutoCAD DWG. FILE
100
AcDbText
  0
TEXT
  5
20B9
330
18
100
AcDbEntity
  8
TITLE
100
AcDbText
 10
51.14538256127479
 20
2.036268066777214
 30
0.0
 40
0.154
  1
CHD.
  7
ITALIC
 72
     1
 11
51.3763825612748
 21
2.036268066777214
 31
0.0
100
AcDbText
  0
TEXT
  5
20BA
330
18
100
AcDbEntity
  8
TITLE
100
AcDbText
 10
50.38257751100488
 20
2.055260544742853
 30
0.0
 40
0.154
  1
BY
  7
ITALIC
 72
     1
 11
50.51091084433821
 21
2.055260544742853
 31
0.0
100
AcDbText
  0
TEXT
  5
20BB
330
18
100
AcDbEntity
  8
TITLE
100
AcDbText
 10
49.21118533914498
 20
2.045764305760033
 30
0.0
 40
0.154
  1
DATE
  7
ITALIC
 72
     1
 11
49.4935186724783
 21
2.045764305760033
 31
0.0
100
AcDbText
  0
TEXT
  5
20BC
330
18
100
AcDbEntity
  8
TITLE
100
AcDbText
 10
43.43743673306819
 20
4.138388543293784
 30
0.0
 40
0.14
  1
NOTES:
  7
ITALIC
100
AcDbText
  0
TEXT
  5
20BD
330
18
100
AcDbEntity
  8
TITLE
100
AcDbText
 10
43.26186688171646
 20
2.055260544742853
 30
0.0
 40
0.154
  1
LET.
  7
ITALIC
 72
     1
 11
43.49286688171646
 21
2.055260544742853
 31
0.0
100
AcDbText
  0
TEXT
  5
20BE
330
18
100
AcDbEntity
  8
TITLE
100
AcDbText
 10
43.41367829470571
 20
2.762795715722289
 30
0.0
 40
0.154
  1
MATERIAL
  7
ITALIC
100
AcDbText
  0
LINE
  5
20BF
330
18
100
AcDbEntity
  8
TITLE
100
AcDbLine
 10
51.83500000000375
 20
1.915000000000001
 30
0.0
 11
42.96000000000375
 21
1.915000000000004
 31
0.0
  0
TEXT
  5
20C0
330
18
100
AcDbEntity
  8
TITLE
100
AcDbText
 10
45.20274150067381
 20
2.036268066777214
 30
0.0
 40
0.154
  1
REVISION RECORD
  7
ITALIC
 72
     1
 11
46.30640816734048
 21
2.036268066777214
 31
0.0
100
AcDbText
  0
LINE
  5
20C1
330
18
100
AcDbEntity
  8
TITLE
100
AcDbLine
 10
51.83500000000375
 20
0.4149999999999996
 30
0.0
 11
42.96000000000375
 21
0.415000000000005
 31
0.0
  0
LINE
  5
20C2
330
18
100
AcDbEntity
  8
TITLE
100
AcDbLine
 10
51.83500000000375
 20
1.165000000000001
 30
0.0
 11
42.96000000000375
 21
1.165000000000004
 31
0.0
  0
LINE
  5
20C3
330
18
100
AcDbEntity
  8
TITLE
100
AcDbLine
 10
42.96000000000375
 20
4.040000000000004
 30
0.0
 11
42.96000000000375
 21
0.0400000000000014
 31
0.0
  0
LINE
  5
20C4
330
18
100
AcDbEntity
  8
TITLE
100
AcDbLine
 10
43.96000000000374
 20
2.290000000000001
 30
0.0
 11
43.96000000000374
 21
0.0400000000000014
 31
0.0
  0
LINE
  5
20C5
330
18
100
AcDbEntity
  8
TITLE
100
AcDbLine
 10
48.96000000000374
 20
2.290000000000004
 30
0.0
 11
48.96000000000374
 21
0.0400000000000049
 31
0.0
  0
LINE
  5
20C6
330
18
100
AcDbEntity
  8
TITLE
100
AcDbLine
 10
50.08500000000374
 20
2.290000000000004
 30
0.0
 11
50.08500000000374
 21
0.0400000000000067
 31
0.0
  0
LINE
  5
20C7
330
18
100
AcDbEntity
  8
TITLE
100
AcDbLine
 10
50.96000000000374
 20
2.290000000000004
 30
0.0
 11
50.96000000000374
 21
0.0400000000000085
 31
0.0
  0
LINE
  5
20C8
330
18
100
AcDbEntity
  8
TITLE
100
AcDbLine
 10
51.83500000000375
 20
3.040000000000001
 30
0.0
 11
51.83500000000375
 21
0.0399999999999996
 31
0.0
  0
LINE
  5
20C9
330
18
100
AcDbEntity
  8
TITLE
100
AcDbLine
 10
63.96000000000374
 20
4.04
 30
0.0
 11
42.96000000000375
 21
4.040000000000004
 31
0.0
  0
LINE
  5
20CA
330
18
100
AcDbEntity
  8
TITLE
100
AcDbLine
 10
57.33500000000375
 20
3.540000000000002
 30
0.0
 11
42.96000000000375
 21
3.540000000000004
 31
0.0
  0
LINE
  5
20CB
330
18
100
AcDbEntity
  8
TITLE
100
AcDbLine
 10
63.96000000000374
 20
3.040000000000001
 30
0.0
 11
42.96000000000375
 21
3.040000000000004
 31
0.0
  0
LINE
  5
20CC
330
18
100
AcDbEntity
  8
TITLE
100
AcDbLine
 10
54.33500000000375
 20
2.290000000000001
 30
0.0
 11
42.96000000000375
 21
2.290000000000004
 31
0.0
  0
LINE
  5
20CD
330
18
100
AcDbEntity
  8
TITLE
100
AcDbLine
 10
54.33500000000375
 20
1.540000000000001
 30
0.0
 11
42.96000000000375
 21
1.540000000000004
 31
0.0
  0
LINE
  5
20CE
330
18
100
AcDbEntity
  8
TITLE
100
AcDbLine
 10
63.96000000000374
 20
0.7900000000000014
 30
0.0
 11
42.96000000000375
 21
0.790000000000005
 31
0.0
  0
TEXT
  5
20DB
330
18
100
AcDbEntity
  8
TITLE
100
AcDbText
 10
55.27121638939947
 20
2.013534508601424
 30
0.0
 40
0.5654436389344158
  1
HUBBELL WIEGMANN
  7
STYLE1
100
AcDbText
  0
MTEXT
  5
210A
330
18
100
AcDbEntity
  8
TITLE
100
AcDbMText
 10
61.83420800852664
 20
1.164681356982868
 30
0.0
 40
0.2
 41
2.474364785144189
 46
0.0
 71
     1
 72
     5
  1
HW-WM2420A
 73
     1
 44
1.0
  0
ENDSEC
  0
SECTION
  2
OBJECTS
  0
DICTIONARY
  5
C
330
0
100
AcDbDictionary
281
     1
  3
ACAD_COLOR
350
15DD
  3
ACAD_GROUP
350
D
  3
ACAD_LAYOUT
350
15B9
  3
ACAD_MATERIAL
350
15DC
  3
ACAD_MLEADERSTYLE
350
20FA
  3
ACAD_MLINESTYLE
350
E
  3
ACAD_PLOTSETTINGS
350
15BA
  3
ACAD_PLOTSTYLENAME
350
15B7
  3
ACAD_SCALELIST
350
20E8
  3
ACAD_TABLESTYLE
350
15DE
  3
ACAD_VISUALSTYLE
350
2065
  3
AcAmCatalogState
350
163C
  3
ACDB_RECOMPOSE_DATA
350
2113
  3
AcDbVariableDictionary
350
1848
  3
ACDMSYSVARMGR
350
15FB
  3
ACGREF_MASTER
350
15F5
  3
ACGREFACAD_MASTER
350
161C
  3
AcmDictionary
350
163A
  3
ACME_BOM_MANAGER_NAME
350
15EF
  3
ACME_COMMAND_HISTORY
350
15EC
  3
ACME_SCOPE_NAME
350
15EB
  3
ACMESTATEMGR
350
15F4
  3
AcmeSysVarManager
350
15ED
  3
AcmSystemVariableManager
350
1645
  3
AD_APPL
350
1627
  3
ADSYSVARMGR
350
1626
  3
AmdtNamedDwgMgr
350
1617
  3
AMG
350
15E4
  3
AMGSNAPSETTINGS
350
173B
  3
AMI_MASTER
350
161F
  3
AUTOCAD_ASSEMBLIES_PROJECT
350
162F
  3
Designer_Assemblies_SysVars
350
162A
  3
GREFAM_MODULE
350
1620
  3
StructToggleButtonState
350
20DC
  0
DICTIONARY
  5
20D2
330
2
100
AcDbDictionary
280
     1
281
     1
  3
ACAD_LAYERSTATES
360
20D3
  0
DICTIONARY
  5
20CF
330
18
100
AcDbDictionary
280
     1
281
     1
  3
ACAD_SORTENTS
360
20D0
  0
DICTIONARY
  5
15DD
102
{ACAD_REACTORS
330
C
102
}
330
C
100
AcDbDictionary
281
     1
  0
DICTIONARY
  5
D
102
{ACAD_REACTORS
330
C
102
}
330
C
100
AcDbDictionary
281
     1
  0
DICTIONARY
  5
15B9
102
{ACAD_REACTORS
330
C
102
}
330
C
100
AcDbDictionary
281
     1
  3
Layout1
350
15BC
  3
Model
350
15BB
  0
DICTIONARY
  5
15DC
102
{ACAD_REACTORS
330
C
102
}
330
C
100
AcDbDictionary
281
     1
  3
ByBlock
350
2063
  3
ByLayer
350
2062
  3
Global
350
2064
  0
DICTIONARY
  5
20FA
102
{ACAD_REACTORS
330
C
102
}
330
C
100
AcDbDictionary
281
     1
  3
Standard
350
20FB
  0
DICTIONARY
  5
E
102
{ACAD_REACTORS
330
C
102
}
330
C
100
AcDbDictionary
281
     1
  3
STANDARD
350
1B
  0
DICTIONARY
  5
15BA
102
{ACAD_REACTORS
330
C
102
}
330
C
100
AcDbDictionary
281
     1
  0
ACDBDICTIONARYWDFLT
  5
15B7
102
{ACAD_REACTORS
330
C
102
}
330
C
100
AcDbDictionary
281
     1
  3
Normal
350
15B8
100
AcDbDictionaryWithDefault
340
15B8
  0
DICTIONARY
  5
20E8
102
{ACAD_REACTORS
330
C
102
}
330
C
100
AcDbDictionary
281
     1
  3
A0
350
20E9
  3
A1
350
20EA
  3
A2
350
20EB
  3
A3
350
20EC
  3
A4
350
20ED
  3
A5
350
20EE
  3
A6
350
20EF
  3
A7
350
20F0
  3
A8
350
20F1
  3
A9
350
20F2
  3
B0
350
20F3
  3
B1
350
20F4
  3
B2
350
20F5
  3
B3
350
20F6
  3
B4
350
20F7
  3
B5
350
20F8
  3
B6
350
20F9
  0
DICTIONARY
  5
15DE
102
{ACAD_REACTORS
330
C
102
}
330
C
100
AcDbDictionary
281
     1
  3
Standard
350
15DF
  0
DICTIONARY
  5
2065
102
{ACAD_REACTORS
330
C
102
}
330
C
100
AcDbDictionary
281
     1
  3
2dWireframe
350
206B
  3
3D Hidden
350
206D
  3
3dWireframe
350
206C
  3
Basic
350
206A
  3
Brighten
350
2071
  3
ColorChange
350
2075
  3
Conceptual
350
206E
  3
Dim
350
2070
  3
EdgeColorOff
350
20E7
  3
Facepattern
350
2074
  3
Flat
350
2066
  3
FlatWithEdges
350
2067
  3
Gouraud
350
2068
  3
GouraudWithEdges
350
2069
  3
Hidden
350
20DF
  3
JitterOff
350
20E5
  3
Linepattern
350
2073
  3
OverhangOff
350
20E6
  3
Realistic
350
206F
  3
Shaded
350
20E4
  3
Shaded with edges
350
20E3
  3
Shades of Gray
350
20E0
  3
Sketchy
350
20E1
  3
Thicken
350
2072
  3
Wireframe
350
20DE
  3
X-Ray
350
20E2
  0
ACAD_PROXY_OBJECT
  5
163C
102
{ACAD_REACTORS
330
C
102
}
330
C
100
AcDbProxyObject
 90
      499
 91
      547
 95
    65563
 70
     0
162
                42
311
4091C00E800C
161
               190
310
3FFFFFFFE00A02814030022832C4100343333330CF4C7100
 94
        0
1001
ACAD
1000
AcRTDxfName
1000
CATALOGSTATE
1000
AcRTDxfName
1000
CATALOGSTATE
  0
XRECORD
  5
2113
102
{ACAD_REACTORS
330
C
102
}
330
C
100
AcDbXrecord
280
     1
 90
        1
330
15DF
  0
DICTIONARY
  5
1848
102
{ACAD_REACTORS
330
C
102
}
330
C
100
AcDbDictionary
281
     1
  3
CANNOSCALE
350
210D
  3
CMLEADERSTYLE
350
210B
  3
CTABLESTYLE
350
1849
  3
DIMASSOC
350
2052
  3
LAYEREVAL
350
210F
  3
LAYERNOTIFY
350
2110
  3
LIGHTINGUNITS
350
210E
  3
MSLTSCALE
350
210C
  3
PROJECTNAME
350
2053
  0
ACAD_PROXY_OBJECT
  5
15FB
102
{ACAD_REACTORS
330
C
102
}
330
C
100
AcDbProxyObject
 90
      499
 91
      508
 95
    65563
 70
     0
162
                 0
161
               240
310
4C51A47A000000000000000000000000000000000000000000000000000000
330
15FC
330
15FD
330
15FE
330
15FF
330
1600
330
1601
330
1602
330
1603
330
1604
330
1605
330
1606
330
1607
330
1608
330
1609
330
160A
330
160B
330
160C
330
160D
330
160E
330
160F
330
1610
330
1611
330
1612
330
1613
330
1614
330
1615
 94
        0
1001
ACAD
1000
AcRTDxfName
1000
ACIMSYSVARMAN
1000
AcRTDxfName
1000
ACIMSYSVARMAN
  0
ACAD_PROXY_OBJECT
  5
15F5
102
{ACAD_REACTORS
330
C
102
}
330
C
100
AcDbProxyObject
 90
      499
 91
      516
 95
    65563
 70
     0
162
                 0
161
                34
310
040000428C
 94
        0
1001
ACAD
1000
AcRTDxfName
1000
ACGREFMASTER
1000
AcRTDxfName
1000
ACGREFMASTER
  0
ACAD_PROXY_OBJECT
  5
161C
102
{ACAD_REACTORS
330
C
102
}
330
C
100
AcDbProxyObject
 90
      499
 91
      525
 95
    65563
 70
     0
162
                 0
161
               114
310
04000041C08000000000000000000C
 94
        0
1001
ACAD
1000
AcRTDxfName
1000
ACGREFACADMASTER
1000
AcRTDxfName
1000
ACGREFACADMASTER
  0
DICTIONARY
  5
163A
102
{ACAD_REACTORS
330
C
102
}
330
C
100
AcDbDictionary
281
     1
  3
AcmBOMDATA
350
163B
  3
AcmStdDictionary
350
1647
  3
AMDTSECTSYM_ARROWCOLOR
350
1666
  0
ACAD_PROXY_OBJECT
  5
15EF
102
{ACAD_REACTORS
330
C
102
}
330
C
100
AcDbProxyObject
 90
      499
 91
      510
 95
    65563
 70
     0
162
                 0
161
                50
310
0001004040000C
330
0
330
0
330
15F0
 94
        0
1001
ACAD
1000
AcRTDxfName
1000
ACMEDRAWINGMAN
1000
AcRTDxfName
1000
ACMEDRAWINGMAN
  0
ACAD_PROXY_OBJECT
  5
15EC
102
{ACAD_REACTORS
330
C
102
}
330
C
100
AcDbProxyObject
 90
      499
 91
      507
 95
    65563
 70
     0
162
              7820
311
425400104014C01500114010C01300124014001064D0054004500440049005400419340150011401100124015001065300410056004500410053004BD34014C011C008000B4008001400140010400E80080008000800190019401CC01AC01D001BC01C000B8018401C801E00080011801A401B001940158019401C801CC01A
311
401BC01B800E8008000E400B800C000B800D000CC00B800C0018C010545005200410053004500425400104014C01500114010C01300124014001064D00540045004400490054004194C0104015801140104014C012F4D005300470020002D0020005000500041003A002000200020006400650073006B0074006F0070002E0
311
06100720078002000460069006C006500560065007200730069006F006E003A00200039002E0030002E00340033002E00300063004151401480104014C011401095000410053005400450043004C0049005000419340150011401100124015001184D005300470020002D00200043006F006D006D0061006E0064002000430
311
041004E00430045004C004C00450044002E00419340150011401100124015001065300410056004500410053004194C0104015801140104014C012F4D005300470020002D0020005000500041003A002000200020006400650073006B0074006F0070002E006100720078002000460069006C0065005600650072007300690
311
06F006E003A00200039002E0030002E00340033002E00300063004151401480104014C011401095000410053005400450043004C0049005000419340150011401100124015001065300410056004500410053004BD34014C011C008000B4008001400140010400E80080008000800190019401CC01AC01D001BC01C000B801
311
8401C801E00080011801A401B001940158019401C801CC01A401BC01B800E8008000E400B800C000B800D000CC00B800C0018C010E41004D004400540052004500530045005400440042004D004F00440042138008000B40080015401380110013C01084E0020002D00200055004E0044004F004115401380110013C010455
311
004E0044004F0041D14016001400130013C01100114010545005200410053004500425400104014C01500114010C01300124014001055300430041004C00450041134013C0158011401044D004F0056004500419340150011401100124015001045A004F004F004D004194C0104015801140104014C01304D0053004700200
311
02D0020005000500041003A002000200020006400650073006B0074006F0070002E006100720078002000460069006C006500560065007200730069006F006E003A002000310031002E0030002E00360032002E0032003000C
161
               430
310
478060180601404040601806014040406018050101018060140404060180601404040502010101806018060180601806018060140404
 94
        0
1001
ACAD
1000
AcRTDxfName
1000
ACMECOMMANDHISTORY
1000
AcRTDxfName
1000
ACMECOMMANDHISTORY
  0
ACAD_PROXY_OBJECT
  5
15EB
102
{ACAD_REACTORS
330
C
102
}
330
C
100
AcDbProxyObject
 90
      499
 91
      506
 95
    65563
 70
     0
162
                 0
161
               554
310
0B000049808000000000000000001304CE000000000000000000000000000000000000000000000000000000000000000000000000000000000000000000000000AAA406AA8C
360
15EE
360
15F0
360
15F6
360
15F7
360
15F8
360
15F9
360
15FC
360
15FD
360
15FE
360
15FF
360
1600
360
1601
360
1602
360
1603
360
1604
360
1605
360
1606
360
1607
360
1608
360
1609
360
160A
360
160B
360
160C
360
160D
360
160E
360
160F
360
1610
360
1611
360
1612
360
1613
360
1614
360
1615
360
1622
360
1623
360
1624
360
1625
360
162B
360
162C
360
162D
360
162E
360
1633
360
1634
360
1635
360
1636
360
1637
360
1638
360
1646
360
2088
 94
        0
1001
ACAD
1000
AcRTDxfName
1000
ACMESCOPE
1000
AcRTDxfName
1000
ACMESCOPE
  0
ACAD_PROXY_OBJECT
  5
15F4
102
{ACAD_REACTORS
330
C
102
}
330
C
100
AcDbProxyObject
 90
      499
 91
      515
 95
    65563
 70
     0
162
                 0
161
                50
310
0B000042E4128C
 94
        0
1001
ACAD
1000
AcRTDxfName
1000
ACMESTATEMGR
1000
AcRTDxfName
1000
ACMESTATEMGR
  0
ACAD_PROXY_OBJECT
  5
15ED
102
{ACAD_REACTORS
330
C
102
}
330
C
100
AcDbProxyObject
 90
      499
 91
      508
 95
    65563
 70
     0
162
                 0
161
                32
310
90140A0000
330
15EE
 94
        0
1001
ACAD
1000
AcRTDxfName
1000
ACIMSYSVARMAN
1000
AcRTDxfName
1000
ACIMSYSVARMAN
  0
ACAD_PROXY_OBJECT
  5
1645
102
{ACAD_REACTORS
330
C
102
}
330
C
100
AcDbProxyObject
 90
      499
 91
      508
 95
    65563
 70
     0
162
                 0
161
                32
310
90140A0000
330
1646
 94
        0
1001
ACAD
1000
AcRTDxfName
1000
ACIMSYSVARMAN
1000
AcRTDxfName
1000
ACIMSYSVARMAN
  0
ACAD_PROXY_OBJECT
  5
1627
102
{ACAD_REACTORS
330
C
102
}
330
C
100
AcDbProxyObject
 90
      499
 91
      535
 95
    65563
 70
     0
162
                 0
161
                34
310
000B00008C
330
1622
 94
        0
1001
ACAD
1000
AcRTDxfName
1000
NAMEDAPPL
1000
AcRTDxfName
1000
NAMEDAPPL
  0
ACAD_PROXY_OBJECT
  5
1626
102
{ACAD_REACTORS
330
C
102
}
330
C
100
AcDbProxyObject
 90
      499
 91
      508
 95
    65563
 70
     0
162
                 0
161
                 8
310
AA39
 94
        0
1001
ACAD
1000
AcRTDxfName
1000
ACIMSYSVARMAN
1000
AcRTDxfName
1000
ACIMSYSVARMAN
  0
ACAD_PROXY_OBJECT
  5
1617
102
{ACAD_REACTORS
330
C
102
}
330
C
100
AcDbProxyObject
 90
      499
 91
      522
 95
    65563
 70
     0
162
                 0
161
                42
310
000100005E8C
330
15F6
 94
        0
1001
ACAD
1000
AcRTDxfName
1000
AM_DWGMGR_NAME
1000
AcRTDxfName
1000
AM_DWGMGR_NAME
  0
DICTIONARY
  5
15E4
102
{ACAD_REACTORS
330
C
102
}
330
C
100
AcDbDictionary
281
     1
  3
AcMgSettings
350
15E5
  3
AMGLAYCFG
350
1649
  0
DICTIONARY
  5
173B
102
{ACAD_REACTORS
330
C
102
}
330
C
100
AcDbDictionary
281
     1
  3
DIMENSION
350
1740
  3
FEA
350
173F
  3
HATCH (1)
350
173C
  3
HATCH (2)
350
173D
  3
SIMPLE WELD
350
1741
  3
SYMBOLS
350
173E
  0
ACAD_PROXY_OBJECT
  5
161F
102
{ACAD_REACTORS
330
C
102
}
330
C
100
AcDbProxyObject
 90
      499
 91
      528
 95
    65563
 70
     0
162
                 0
161
                34
310
050000428C
 94
        0
1001
ACAD
1000
AcRTDxfName
1000
AMIMASTER
1000
AcRTDxfName
1000
AMIMASTER
  0
ACAD_PROXY_OBJECT
  5
162F
102
{ACAD_REACTORS
330
C
102
}
330
C
100
AcDbProxyObject
 90
      499
 91
      539
 95
    65563
 70
     0
162
                 0
161
                98
310
0B00005000000000000000000C
330
1636
330
0
330
1637
330
0
330
0
330
0
330
0
330
0
 94
        0
1001
ACAD
1000
AcRTDxfName
1000
ACAMPROJECT
1000
AcRTDxfName
1000
ACAMPROJECT
  0
ACAD_PROXY_OBJECT
  5
162A
102
{ACAD_REACTORS
330
C
102
}
330
C
100
AcDbProxyObject
 90
      499
 91
      508
 95
    65563
 70
     0
162
                 0
161
                64
310
905416000000000060
330
162B
330
162C
330
162D
330
162E
330
2088
 94
        0
1001
ACAD
1000
AcRTDxfName
1000
ACIMSYSVARMAN
1000
AcRTDxfName
1000
ACIMSYSVARMAN
  0
ACAD_PROXY_OBJECT
  5
1620
102
{ACAD_REACTORS
330
C
102
}
330
C
100
AcDbProxyObject
 90
      499
 91
      529
 95
    65563
 70
     0
162
                 0
161
                 8
310
05E7
 94
        0
1001
ACAD
1000
AcRTDxfName
1000
MAPIAMMOUDLE
1000
AcRTDxfName
1000
MAPIAMMOUDLE
  0
ACAD_PROXY_OBJECT
  5
20DC
102
{ACAD_REACTORS
330
C
102
}
330
C
100
AcDbProxyObject
 90
      499
 91
      576
 95
    65563
 70
     0
162
                 0
161
                 1
310
4C
 94
        0
  0
DICTIONARY
  5
20D3
102
{ACAD_REACTORS
330
20D2
102
}
330
20D2
100
AcDbDictionary
281
     1
  0
SORTENTSTABLE
  5
20D0
102
{ACAD_REACTORS
330
20CF
102
}
330
20CF
100
AcDbSortentsTable
330
18
331
20C2
  5
2092
331
20A4
  5
1F90
331
20B3
  5
1F9F
331
1FA5
  5
20C7
331
20CA
  5
209A
331
1F96
  5
20B8
331
20BA
  5
1FA6
331
1F87
  5
20A9
331
1FA9
  5
20CB
331
15D6
  5
20A2
331
1F9D
  5
20BF
331
1F8E
  5
20B0
331
20AB
  5
1F97
331
20C9
  5
2099
331
1FA8
  5
20CA
331
20C1
  5
2091
331
1FA4
  5
20C6
331
1F95
  5
20B7
331
1F86
  5
20A8
331
2093
  5
15D5
331
20AA
  5
1F96
331
20B9
  5
1FA5
331
20A3
  5
1F8F
331
15D5
  5
20A1
331
1F9C
  5
20BE
331
1F8D
  5
20AF
331
20B2
  5
1F9E
331
20C0
  5
1FAC
331
20A2
  5
1F8E
331
20B1
  5
1F9D
331
1FA3
  5
20C5
331
20C8
  5
2098
331
1F94
  5
20B6
331
20C7
  5
2097
331
20B8
  5
1FA4
331
1F85
  5
20A7
331
1F9B
  5
20BD
331
1F8C
  5
20AE
331
2092
  5
15D3
331
20BF
  5
1FAB
331
20A9
  5
1F95
331
20A1
  5
1F8D
331
20B0
  5
1F9C
331
1F93
  5
20B5
331
1F84
  5
20A6
331
20C6
  5
2096
331
2091
  5
15D0
331
20A8
  5
1F94
331
20B7
  5
1FA3
331
20CE
  5
209E
331
15D3
  5
20A0
331
1F9A
  5
20BC
331
1F8B
  5
20AD
331
20AF
  5
1F9B
331
20BE
  5
1FAA
331
184C
  5
20A5
331
1FA2
  5
20C4
331
20A0
  5
1F8C
331
1FA1
  5
20C3
331
20CD
  5
209D
331
1FAC
  5
20CE
331
1F92
  5
20B4
331
20B6
  5
1FA2
331
1F99
  5
20BB
331
1F8A
  5
20AC
331
332
  5
332
331
20AE
  5
1F9A
331
20BD
  5
1FA9
331
20A7
  5
1F93
331
20C5
  5
2095
331
15D9
  5
20A4
331
1FA0
  5
20C2
331
20C4
  5
2094
331
20A6
  5
1F92
331
20B5
  5
1FA1
331
1FA7
  5
20C9
331
20CC
  5
209C
331
1F98
  5
20BA
331
20AD
  5
1F99
331
20BC
  5
1FA8
331
1F9F
  5
20C1
331
1F89
  5
20AB
331
1FAB
  5
20CD
331
1F91
  5
20B3
331
20CB
  5
209B
331
1FAA
  5
20CC
331
1F90
  5
20B2
331
20C3
  5
2093
331
1FA6
  5
20C8
331
15D0
  5
209F
331
1F97
  5
20B9
331
1F88
  5
20AA
331
20AC
  5
1F98
331
20BB
  5
1FA7
331
20A5
  5
1F91
331
15D7
  5
20A3
331
1F9E
  5
20C0
331
1F8F
  5
20B1
331
20B4
  5
1FA0
  0
LAYOUT
  5
15BC
102
{ACAD_REACTORS
330
15B9
102
}
330
15B9
100
AcDbPlotSettings
  1

  2
HP DeskJet 880C Series Printer
  4

  6

 40
0.0
 41
0.0
 42
0.0
 43
0.0
 44
0.0
 45
0.0
 46
0.0
 47
0.0
 48
0.0
 49
0.0
140
0.0
141
0.0
142
1.0
143
1.0
 70
   688
 72
     0
 73
     0
 74
     5
  7

 75
    16
147
1.0
 76
     0
 77
     2
 78
   300
148
0.0
149
0.0
100
AcDbLayout
  1
Layout1
 70
     1
 71
     1
 10
0.0
 20
0.0
 11
12.0
 21
9.0
 12
0.0
 22
0.0
 32
0.0
 14
1.000000000000000E+20
 24
1.000000000000000E+20
 34
1.000000000000000E+20
 15
-1.000000000000000E+20
 25
-1.000000000000000E+20
 35
-1.000000000000000E+20
146
0.0
 13
0.0
 23
0.0
 33
0.0
 16
1.0
 26
0.0
 36
0.0
 17
0.0
 27
1.0
 37
0.0
 76
     0
330
15
  0
LAYOUT
  5
15BB
102
{ACAD_REACTORS
330
15B9
102
}
330
15B9
100
AcDbPlotSettings
  1

  2
HP DesignJet 500 24 by HP
  4
User265
  6

 40
4.995333194732666
 41
16.97568893432617
 42
4.99530029296875
 43
16.97564697265625
 44
558.7576293945312
 45
863.5153198242187
 46
3.803057886658118
 47
-0.0000000000000271
 48
0.0
 49
0.0
140
0.0
141
0.0
142
1.0
143
1.959703229970991
 70
 11956
 72
     0
 73
     1
 74
     1
  7

 75
     0
147
0.5102813450048775
 76
     0
 77
     2
 78
   300
148
0.0496055901632595
149
0.0323598967078765
100
AcDbLayout
  1
Model
 70
     1
 71
     0
 10
0.0
 20
0.0
 11
12.0
 21
9.0
 12
0.0
 22
0.0
 32
0.0
 14
0.0
 24
0.0
 34
0.0
 15
0.0
 25
0.0
 35
0.0
146
0.0
 13
0.0
 23
0.0
 33
0.0
 16
1.0
 26
0.0
 36
0.0
 17
0.0
 27
1.0
 37
0.0
 76
     0
330
18
331
205B
1001
ACAD_PSEXT
1000
HP DesignJet 500 24 by HP
1000
HP DesignJet 500 24 by HP
1000
USB001
1000

1070
     0
  0
MATERIAL
  5
2063
102
{ACAD_REACTORS
330
15DC
102
}
330
15DC
100
AcDbMaterial
  1
ByBlock
 73
     1
 78
     1
172
     1
176
     1
270
     1
274
     1
 94
       63
  0
MATERIAL
  5
2062
102
{ACAD_REACTORS
330
15DC
102
}
330
15DC
100
AcDbMaterial
  1
ByLayer
 73
     1
 78
     1
172
     1
176
     1
270
     1
274
     1
 94
       63
  0
MATERIAL
  5
2064
102
{ACAD_REACTORS
330
15DC
102
}
330
15DC
100
AcDbMaterial
  1
Global
 73
     1
 78
     1
172
     1
176
     1
270
     1
274
     1
 94
       63
  0
MLEADERSTYLE
  5
20FB
102
{ACAD_REACTORS
330
20FA
102
}
330
20FA
100
AcDbMLeaderStyle
179
     2
170
     2
171
     1
172
     0
 90
        2
 40
0.0
 41
0.0
173
     1
 91
-1056964608
340
12
 92
       -2
290
     1
 42
0.09
291
     1
 43
0.36
  3
Standard
 44
0.18
300

342
10
174
     1
178
     6
175
     1
176
     0
 93
-1056964608
 45
0.18
292
     0
297
     0
 46
0.18
 94
-1056964608
 47
1.0
 49
1.0
140
1.0
293
     1
141
0.0
294
     1
177
     0
142
1.0
295
     1
296
     0
143
0.125
271
     0
272
     9
273
     9
  0
MLINESTYLE
  5
1B
102
{ACAD_REACTORS
330
E
102
}
330
E
100
AcDbMlineStyle
  2
STANDARD
 70
     0
  3

 62
     0
 51
90.0
 52
90.0
 71
     2
 49
0.5
 62
   256
  6
BYLAYER
 49
-0.5
 62
   256
  6
BYLAYER
  0
ACDBPLACEHOLDER
  5
15B8
102
{ACAD_REACTORS
330
15B7
102
}
330
15B7
  0
SCALE
  5
20E9
102
{ACAD_REACTORS
330
20E8
102
}
330
20E8
100
AcDbScale
 70
     0
300
1:1
140
1.0
141
1.0
290
     1
  0
SCALE
  5
20EA
102
{ACAD_REACTORS
330
20E8
102
}
330
20E8
100
AcDbScale
 70
     0
300
1/128" = 1'-0"
140
0.0078125
141
12.0
290
     0
  0
SCALE
  5
20EB
102
{ACAD_REACTORS
330
20E8
102
}
330
20E8
100
AcDbScale
 70
     0
300
1/64" = 1'-0"
140
0.015625
141
12.0
290
     0
  0
SCALE
  5
20EC
102
{ACAD_REACTORS
330
20E8
102
}
330
20E8
100
AcDbScale
 70
     0
300
1/32" = 1'-0"
140
0.03125
141
12.0
290
     0
  0
SCALE
  5
20ED
102
{ACAD_REACTORS
330
20E8
102
}
330
20E8
100
AcDbScale
 70
     0
300
1/16" = 1'-0"
140
0.0625
141
12.0
290
     0
  0
SCALE
  5
20EE
102
{ACAD_REACTORS
330
20E8
102
}
330
20E8
100
AcDbScale
 70
     0
300
3/32" = 1'-0"
140
0.09375
141
12.0
290
     0
  0
SCALE
  5
20EF
102
{ACAD_REACTORS
330
20E8
102
}
330
20E8
100
AcDbScale
 70
     0
300
1/8" = 1'-0"
140
0.125
141
12.0
290
     0
  0
SCALE
  5
20F0
102
{ACAD_REACTORS
330
20E8
102
}
330
20E8
100
AcDbScale
 70
     0
300
3/16" = 1'-0"
140
0.1875
141
12.0
290
     0
  0
SCALE
  5
20F1
102
{ACAD_REACTORS
330
20E8
102
}
330
20E8
100
AcDbScale
 70
     0
300
1/4" = 1'-0"
140
0.25
141
12.0
290
     0
  0
SCALE
  5
20F2
102
{ACAD_REACTORS
330
20E8
102
}
330
20E8
100
AcDbScale
 70
     0
300
3/8" = 1'-0"
140
0.375
141
12.0
290
     0
  0
SCALE
  5
20F3
102
{ACAD_REACTORS
330
20E8
102
}
330
20E8
100
AcDbScale
 70
     0
300
1/2" = 1'-0"
140
0.5
141
12.0
290
     0
  0
SCALE
  5
20F4
102
{ACAD_REACTORS
330
20E8
102
}
330
20E8
100
AcDbScale
 70
     0
300
3/4" = 1'-0"
140
0.75
141
12.0
290
     0
  0
SCALE
  5
20F5
102
{ACAD_REACTORS
330
20E8
102
}
330
20E8
100
AcDbScale
 70
     0
300
1" = 1'-0"
140
1.0
141
12.0
290
     0
  0
SCALE
  5
20F6
102
{ACAD_REACTORS
330
20E8
102
}
330
20E8
100
AcDbScale
 70
     0
300
1-1/2" = 1'-0"
140
1.5
141
12.0
290
     0
  0
SCALE
  5
20F7
102
{ACAD_REACTORS
330
20E8
102
}
330
20E8
100
AcDbScale
 70
     0
300
3" = 1'-0"
140
3.0
141
12.0
290
     0
  0
SCALE
  5
20F8
102
{ACAD_REACTORS
330
20E8
102
}
330
20E8
100
AcDbScale
 70
     0
300
6" = 1'-0"
140
6.0
141
12.0
290
     0
  0
SCALE
  5
20F9
102
{ACAD_REACTORS
330
20E8
102
}
330
20E8
100
AcDbScale
 70
     0
300
1'-0" = 1'-0"
140
12.0
141
12.0
290
     0
  0
TABLESTYLE
  5
15DF
102
{ACAD_XDICTIONARY
360
2111
102
}
102
{ACAD_REACTORS
330
15DE
102
}
330
15DE
100
AcDbTableStyle
280
     0
  3
Standard
 70
     0
 71
     0
 40
0.06
 41
0.06
280
     0
281
     0
  7
STANDARD
140
0.18
170
     2
 62
     0
 63
     7
283
     0
 90
        4
 91
        0
  1

274
    -2
284
     1
 64
     0
275
    -2
285
     1
 65
     0
276
    -2
286
     1
 66
     0
277
    -2
287
     1
 67
     0
278
    -2
288
     1
 68
     0
279
    -2
289
     1
 69
     0
  7
STANDARD
140
0.25
170
     5
 62
     0
 63
     7
283
     0
 90
        4
 91
        0
  1

274
    -2
284
     1
 64
     0
275
    -2
285
     1
 65
     0
276
    -2
286
     1
 66
     0
277
    -2
287
     1
 67
     0
278
    -2
288
     1
 68
     0
279
    -2
289
     1
 69
     0
  7
STANDARD
140
0.18
170
     5
 62
     0
 63
     7
283
     0
 90
        4
 91
        0
  1

274
    -2
284
     1
 64
     0
275
    -2
285
     1
 65
     0
276
    -2
286
     1
 66
     0
277
    -2
287
     1
 67
     0
278
    -2
288
     1
 68
     0
279
    -2
289
     1
 69
     0
  0
VISUALSTYLE
  5
206B
102
{ACAD_REACTORS
330
2065
102
}
330
2065
100
AcDbVisualStyle
  2
2dWireframe
 70
     4
177
     2
291
     0
 71
     0
176
     1
 72
     2
176
     1
 73
     0
176
     1
 90
        0
176
     1
 40
0.6
176
     1
 41
30.0
176
     1
 63
     7
421
 16777215
176
     1
 74
     1
176
     1
 91
        4
176
     1
 64
     7
176
     1
 65
   257
176
     1
 75
     1
176
     1
175
     1
176
     1
 42
1.0
176
     1
 92
        0
176
     1
 66
   257
176
     1
 43
1.0
176
     1
 76
     1
176
     1
 77
     6
176
     1
 78
     2
176
     1
 67
     7
176
     1
 79
     5
176
     1
170
     0
176
     1
171
     0
176
     1
290
     0
176
     1
 93
        1
176
     1
 44
0.0
176
     1
173
     0
176
     1
  0
VISUALSTYLE
  5
206D
102
{ACAD_REACTORS
330
2065
102
}
330
2065
100
AcDbVisualStyle
  2
3D Hidden
 70
     6
177
     2
291
     0
 71
     1
176
     1
 72
     2
176
     1
 73
     2
176
     1
 90
        0
176
     1
 40
0.6
176
     1
 41
30.0
176
     1
 63
     7
421
 16777215
176
     1
 74
     2
176
     1
 91
        2
176
     1
 64
     7
176
     1
 65
   257
176
     1
 75
     2
176
     1
175
     1
176
     1
 42
40.0
176
     1
 92
        0
176
     1
 66
   257
176
     1
 43
1.0
176
     1
 76
     1
176
     1
 77
     6
176
     1
 78
     2
176
     1
 67
     7
176
     1
 79
     3
176
     1
170
     0
176
     1
171
     0
176
     1
290
     0
176
     1
 93
        1
176
     1
 44
0.0
176
     1
173
     0
176
     1
  0
VISUALSTYLE
  5
206C
102
{ACAD_REACTORS
330
2065
102
}
330
2065
100
AcDbVisualStyle
  2
3dWireframe
 70
     5
177
     2
291
     0
 71
     0
176
     1
 72
     2
176
     1
 73
     0
176
     1
 90
        0
176
     1
 40
0.6
176
     1
 41
30.0
176
     1
 63
     7
421
 16777215
176
     1
 74
     1
176
     1
 91
        4
176
     1
 64
     7
176
     1
 65
   257
176
     1
 75
     1
176
     1
175
     1
176
     1
 42
1.0
176
     1
 92
        0
176
     1
 66
   257
176
     1
 43
1.0
176
     1
 76
     1
176
     1
 77
     6
176
     1
 78
     2
176
     1
 67
     7
176
     1
 79
     5
176
     1
170
     0
176
     1
171
     0
176
     1
290
     0
176
     1
 93
        1
176
     1
 44
0.0
176
     1
173
     0
176
     1
  0
VISUALSTYLE
  5
206A
102
{ACAD_REACTORS
330
2065
102
}
330
2065
100
AcDbVisualStyle
  2
Basic
 70
     7
177
     2
291
     1
 71
     1
176
     1
 72
     0
176
     1
 73
     1
176
     1
 90
        0
176
     1
 40
0.6
176
     1
 41
30.0
176
     1
 63
     7
421
 16777215
176
     1
 74
     0
176
     1
 91
        4
176
     1
 64
     7
176
     1
 65
   257
176
     1
 75
     1
176
     1
175
     1
176
     1
 42
1.0
176
     1
 92
        8
176
     1
 66
     7
176
     1
 43
1.0
176
     1
 76
     1
176
     1
 77
     6
176
     1
 78
     2
176
     1
 67
     7
176
     1
 79
     5
176
     1
170
     0
176
     1
171
     0
176
     1
290
     0
176
     1
 93
        1
176
     1
 44
0.0
176
     1
173
     0
176
     1
  0
VISUALSTYLE
  5
2071
102
{ACAD_REACTORS
330
2065
102
}
330
2065
100
AcDbVisualStyle
  2
Brighten
 70
    12
177
     2
291
     1
 71
     2
176
     1
 72
     2
176
     1
 73
     0
176
     1
 90
        0
176
     1
 40
0.6
176
     1
 41
30.0
176
     1
 63
     7
421
 16777215
176
     1
 74
     1
176
     1
 91
        4
176
     1
 64
     7
176
     1
 65
   257
176
     1
 75
     1
176
     1
175
     1
176
     1
 42
1.0
176
     1
 92
        8
176
     1
 66
     7
176
     1
 43
1.0
176
     1
 76
     1
176
     1
 77
     6
176
     1
 78
     2
176
     1
 67
     7
176
     1
 79
     5
176
     1
170
     0
176
     1
171
     0
176
     1
290
     0
176
     1
 93
        1
176
     1
 44
50.0
176
     1
173
     0
176
     1
  0
VISUALSTYLE
  5
2075
102
{ACAD_REACTORS
330
2065
102
}
330
2065
100
AcDbVisualStyle
  2
ColorChange
 70
    16
177
     2
291
     1
 71
     2
176
     1
 72
     2
176
     1
 73
     3
176
     1
 90
        0
176
     1
 40
0.6
176
     1
 41
30.0
176
     1
 63
     8
421
  8421504
176
     1
 74
     1
176
     1
 91
        4
176
     1
 64
     7
176
     1
 65
   257
176
     1
 75
     1
176
     1
175
     1
176
     1
 42
1.0
176
     1
 92
        8
176
     1
 66
     8
424
  8421504
176
     1
 43
1.0
176
     1
 76
     1
176
     1
 77
     6
176
     1
 78
     2
176
     1
 67
     7
176
     1
 79
     5
176
     1
170
     0
176
     1
171
     0
176
     1
290
     0
176
     1
 93
        1
176
     1
 44
0.0
176
     1
173
     0
176
     1
  0
VISUALSTYLE
  5
206E
102
{ACAD_REACTORS
330
2065
102
}
330
2065
100
AcDbVisualStyle
  2
Conceptual
 70
     9
177
     2
291
     0
 71
     3
176
     1
 72
     2
176
     1
 73
     0
176
     1
 90
        0
176
     1
 40
0.6
176
     1
 41
30.0
176
     1
 63
     7
421
 16777215
176
     1
 74
     2
176
     1
 91
        2
176
     1
 64
     7
176
     1
 65
   257
176
     1
 75
     1
176
     1
175
     1
176
     1
 42
40.0
176
     1
 92
        8
176
     1
 66
     7
176
     1
 43
1.0
176
     1
 76
     1
176
     1
 77
     6
176
     1
 78
     2
176
     1
 67
     7
176
     1
 79
     3
176
     1
170
     0
176
     1
171
     0
176
     1
290
     0
176
     1
 93
        1
176
     1
 44
0.0
176
     1
173
     0
176
     1
  0
VISUALSTYLE
  5
2070
102
{ACAD_REACTORS
330
2065
102
}
330
2065
100
AcDbVisualStyle
  2
Dim
 70
    11
177
     2
291
     1
 71
     2
176
     1
 72
     2
176
     1
 73
     0
176
     1
 90
        0
176
     1
 40
0.6
176
     1
 41
30.0
176
     1
 63
     7
421
 16777215
176
     1
 74
     1
176
     1
 91
        4
176
     1
 64
     7
176
     1
 65
   257
176
     1
 75
     1
176
     1
175
     1
176
     1
 42
1.0
176
     1
 92
        8
176
     1
 66
     7
176
     1
 43
1.0
176
     1
 76
     1
176
     1
 77
     6
176
     1
 78
     2
176
     1
 67
     7
176
     1
 79
     5
176
     1
170
     0
176
     1
171
     0
176
     1
290
     0
176
     1
 93
        1
176
     1
 44
-50.0
176
     1
173
     0
176
     1
  0
VISUALSTYLE
  5
20E7
102
{ACAD_REACTORS
330
2065
102
}
330
2065
100
AcDbVisualStyle
  2
EdgeColorOff
 70
    22
177
     2
291
     1
 71
     2
176
     0
 72
     2
176
     0
 73
     0
176
     0
 90
        0
176
     0
 40
0.6
176
     0
 41
30.0
176
     0
 63
     7
421
 16777215
176
     0
 74
     1
176
     0
 91
        4
176
     0
 64
     7
176
     0
 65
   257
176
     0
 75
     1
176
     0
175
     1
176
     0
 42
1.0
176
     0
 92
        8
176
     2
 66
     7
176
     0
 43
1.0
176
     0
 76
     1
176
     0
 77
     6
176
     0
 78
     2
176
     0
 67
     7
176
     0
 79
     5
176
     0
170
     0
176
     0
171
     0
176
     0
290
     0
176
     0
 93
        1
176
     0
 44
0.0
176
     0
173
     0
176
     0
  0
VISUALSTYLE
  5
2074
102
{ACAD_REACTORS
330
2065
102
}
330
2065
100
AcDbVisualStyle
  2
Facepattern
 70
    15
177
     2
291
     1
 71
     2
176
     1
 72
     2
176
     1
 73
     0
176
     1
 90
        0
176
     1
 40
0.6
176
     1
 41
30.0
176
     1
 63
     7
421
 16777215
176
     1
 74
     1
176
     1
 91
        4
176
     1
 64
     7
176
     1
 65
   257
176
     1
 75
     1
176
     1
175
     1
176
     1
 42
1.0
176
     1
 92
        8
176
     1
 66
     7
176
     1
 43
1.0
176
     1
 76
     1
176
     1
 77
     6
176
     1
 78
     2
176
     1
 67
     7
176
     1
 79
     5
176
     1
170
     0
176
     1
171
     0
176
     1
290
     0
176
     1
 93
        1
176
     1
 44
0.0
176
     1
173
     0
176
     1
  0
VISUALSTYLE
  5
2066
102
{ACAD_REACTORS
330
2065
102
}
330
2065
100
AcDbVisualStyle
  2
Flat
 70
     0
177
     2
291
     1
 71
     2
176
     1
 72
     1
176
     1
 73
     1
176
     1
 90
        2
176
     1
 40
0.6
176
     1
 41
30.0
176
     1
 63
     7
421
 16777215
176
     1
 74
     0
176
     1
 91
        4
176
     1
 64
     7
176
     1
 65
   257
176
     1
 75
     1
176
     1
175
     1
176
     1
 42
1.0
176
     1
 92
        8
176
     1
 66
     7
176
     1
 43
1.0
176
     1
 76
     1
176
     1
 77
     6
176
     1
 78
     2
176
     1
 67
     7
176
     1
 79
     5
176
     1
170
     0
176
     1
171
     0
176
     1
290
     0
176
     1
 93
       13
176
     1
 44
0.0
176
     1
173
     0
176
     1
  0
VISUALSTYLE
  5
2067
102
{ACAD_REACTORS
330
2065
102
}
330
2065
100
AcDbVisualStyle
  2
FlatWithEdges
 70
     1
177
     2
291
     1
 71
     2
176
     1
 72
     1
176
     1
 73
     1
176
     1
 90
        2
176
     1
 40
0.6
176
     1
 41
30.0
176
     1
 63
     7
421
 16777215
176
     1
 74
     1
176
     1
 91
        4
176
     1
 64
     7
176
     1
 65
   257
176
     1
 75
     1
176
     1
175
     1
176
     1
 42
1.0
176
     1
 92
        0
176
     1
 66
   257
176
     1
 43
1.0
176
     1
 76
     1
176
     1
 77
     6
176
     1
 78
     2
176
     1
 67
     7
176
     1
 79
     5
176
     1
170
     0
176
     1
171
     0
176
     1
290
     0
176
     1
 93
       13
176
     1
 44
0.0
176
     1
173
     0
176
     1
  0
VISUALSTYLE
  5
2068
102
{ACAD_REACTORS
330
2065
102
}
330
2065
100
AcDbVisualStyle
  2
Gouraud
 70
     2
177
     2
291
     1
 71
     2
176
     1
 72
     2
176
     1
 73
     1
176
     1
 90
        2
176
     1
 40
0.6
176
     1
 41
30.0
176
     1
 63
     7
421
 16777215
176
     1
 74
     0
176
     1
 91
        4
176
     1
 64
     7
176
     1
 65
   257
176
     1
 75
     1
176
     1
175
     1
176
     1
 42
1.0
176
     1
 92
        0
176
     1
 66
     7
176
     1
 43
1.0
176
     1
 76
     1
176
     1
 77
     6
176
     1
 78
     2
176
     1
 67
     7
176
     1
 79
     5
176
     1
170
     0
176
     1
171
     0
176
     1
290
     0
176
     1
 93
       13
176
     1
 44
0.0
176
     1
173
     0
176
     1
  0
VISUALSTYLE
  5
2069
102
{ACAD_REACTORS
330
2065
102
}
330
2065
100
AcDbVisualStyle
  2
GouraudWithEdges
 70
     3
177
     2
291
     1
 71
     2
176
     1
 72
     2
176
     1
 73
     1
176
     1
 90
        2
176
     1
 40
0.6
176
     1
 41
30.0
176
     1
 63
     7
421
 16777215
176
     1
 74
     1
176
     1
 91
        4
176
     1
 64
     7
176
     1
 65
   257
176
     1
 75
     1
176
     1
175
     1
176
     1
 42
1.0
176
     1
 92
        0
176
     1
 66
   257
176
     1
 43
1.0
176
     1
 76
     1
176
     1
 77
     6
176
     1
 78
     2
176
     1
 67
     7
176
     1
 79
     5
176
     1
170
     0
176
     1
171
     0
176
     1
290
     0
176
     1
 93
       13
176
     1
 44
0.0
176
     1
173
     0
176
     1
  0
VISUALSTYLE
  5
20DF
102
{ACAD_REACTORS
330
2065
102
}
330
2065
100
AcDbVisualStyle
  2
Hidden
 70
     6
177
     2
291
     0
 71
     1
176
     1
 72
     2
176
     1
 73
     2
176
     1
 90
        0
176
     1
 40
0.6
176
     1
 41
30.0
176
     1
 63
     7
421
 16777215
176
     1
 74
     2
176
     1
 91
        2
176
     1
 64
     7
176
     1
 65
   257
176
     1
 75
     2
176
     1
175
     1
176
     1
 42
40.0
176
     1
 92
        0
176
     1
 66
   257
176
     1
 43
1.0
176
     1
 76
     1
176
     1
 77
     6
176
     1
 78
     2
176
     1
 67
     7
176
     1
 79
     3
176
     1
170
     0
176
     1
171
     0
176
     1
290
     0
176
     1
 93
        1
176
     1
 44
0.0
176
     1
173
     0
176
     1
  0
VISUALSTYLE
  5
20E5
102
{ACAD_REACTORS
330
2065
102
}
330
2065
100
AcDbVisualStyle
  2
JitterOff
 70
    20
177
     2
291
     1
 71
     2
176
     0
 72
     2
176
     0
 73
     0
176
     0
 90
        0
176
     0
 40
0.6
176
     0
 41
30.0
176
     0
 63
     7
421
 16777215
176
     0
 74
     1
176
     0
 91
        4
176
     0
 64
     7
176
     0
 65
   257
176
     0
 75
     1
176
     0
175
     1
176
     0
 42
1.0
176
     0
 92
       10
176
     2
 66
     7
176
     0
 43
1.0
176
     0
 76
     1
176
     0
 77
     6
176
     0
 78
     2
176
     0
 67
     7
176
     0
 79
     5
176
     0
170
     0
176
     0
171
     0
176
     0
290
     0
176
     0
 93
        1
176
     0
 44
0.0
176
     0
173
     0
176
     0
  0
VISUALSTYLE
  5
2073
102
{ACAD_REACTORS
330
2065
102
}
330
2065
100
AcDbVisualStyle
  2
Linepattern
 70
    14
177
     2
291
     1
 71
     2
176
     1
 72
     2
176
     1
 73
     0
176
     1
 90
        0
176
     1
 40
0.6
176
     1
 41
30.0
176
     1
 63
     7
421
 16777215
176
     1
 74
     1
176
     1
 91
        4
176
     1
 64
     7
176
     1
 65
   257
176
     1
 75
     7
176
     1
175
     7
176
     1
 42
1.0
176
     1
 92
        8
176
     1
 66
     7
176
     1
 43
1.0
176
     1
 76
     1
176
     1
 77
     6
176
     1
 78
     2
176
     1
 67
     7
176
     1
 79
     5
176
     1
170
     0
176
     1
171
     0
176
     1
290
     0
176
     1
 93
        1
176
     1
 44
0.0
176
     1
173
     0
176
     1
  0
VISUALSTYLE
  5
20E6
102
{ACAD_REACTORS
330
2065
102
}
330
2065
100
AcDbVisualStyle
  2
OverhangOff
 70
    21
177
     2
291
     1
 71
     2
176
     0
 72
     2
176
     0
 73
     0
176
     0
 90
        0
176
     0
 40
0.6
176
     0
 41
30.0
176
     0
 63
     7
421
 16777215
176
     0
 74
     1
176
     0
 91
        4
176
     0
 64
     7
176
     0
 65
   257
176
     0
 75
     1
176
     0
175
     1
176
     0
 42
1.0
176
     0
 92
        9
176
     2
 66
     7
176
     0
 43
1.0
176
     0
 76
     1
176
     0
 77
     6
176
     0
 78
     2
176
     0
 67
     7
176
     0
 79
     5
176
     0
170
     0
176
     0
171
     0
176
     0
290
     0
176
     0
 93
        1
176
     0
 44
0.0
176
     0
173
     0
176
     0
  0
VISUALSTYLE
  5
206F
102
{ACAD_REACTORS
330
2065
102
}
330
2065
100
AcDbVisualStyle
  2
Realistic
 70
     8
177
     2
291
     0
 71
     2
176
     1
 72
     2
176
     1
 73
     0
176
     1
 90
        0
176
     1
 40
0.6
176
     1
 41
30.0
176
     1
 63
     7
421
 16777215
176
     1
 74
     1
176
     1
 91
        0
176
     1
 64
     7
176
     1
 65
   257
176
     1
 75
     1
176
     1
175
     1
176
     1
 42
1.0
176
     1
 92
        8
176
     1
 66
     8
424
  7895160
176
     1
 43
1.0
176
     1
 76
     1
176
     1
 77
     6
176
     1
 78
     2
176
     1
 67
     7
176
     1
 79
     5
176
     1
170
     0
176
     1
171
     0
176
     1
290
     0
176
     1
 93
       13
176
     1
 44
0.0
176
     1
173
     0
176
     1
  0
VISUALSTYLE
  5
20E4
102
{ACAD_REACTORS
330
2065
102
}
330
2065
100
AcDbVisualStyle
  2
Shaded
 70
    27
177
     2
291
     0
 71
     2
176
     1
 72
     2
176
     1
 73
     1
176
     1
 90
        2
176
     1
 40
0.6
176
     1
 41
30.0
176
     1
 63
     7
421
 16777215
176
     1
 74
     0
176
     1
 91
        4
176
     1
 64
     7
176
     1
 65
   257
176
     1
 75
     1
176
     1
175
     1
176
     1
 42
1.0
176
     1
 92
        8
176
     1
 66
   257
176
     1
 43
1.0
176
     1
 76
     1
176
     1
 77
     6
176
     1
 78
     2
176
     1
 67
     8
425
  7895160
176
     1
 79
     3
176
     1
170
     0
176
     1
171
     0
176
     1
290
     0
176
     1
 93
        5
176
     1
 44
0.0
176
     1
173
     0
176
     1
  0
VISUALSTYLE
  5
20E3
102
{ACAD_REACTORS
330
2065
102
}
330
2065
100
AcDbVisualStyle
  2
Shaded with edges
 70
    26
177
     2
291
     0
 71
     2
176
     1
 72
     2
176
     1
 73
     1
176
     1
 90
        2
176
     1
 40
0.6
176
     1
 41
30.0
176
     1
 63
     7
421
 16777215
176
     1
 74
     1
176
     1
 91
       10
176
     1
 64
     7
176
     1
 65
   257
176
     1
 75
     2
176
     1
175
     1
176
     1
 42
1.0
176
     1
 92
        8
176
     1
 66
   257
176
     1
 43
1.0
176
     1
 76
     1
176
     1
 77
     6
176
     1
 78
     2
176
     1
 67
     7
176
     1
 79
     3
176
     1
170
     0
176
     1
171
     0
176
     1
290
     0
176
     1
 93
        5
176
     1
 44
0.0
176
     1
173
     0
176
     1
  0
VISUALSTYLE
  5
20E0
102
{ACAD_REACTORS
330
2065
102
}
330
2065
100
AcDbVisualStyle
  2
Shades of Gray
 70
    23
177
     2
291
     0
 71
     2
176
     1
 72
     2
176
     1
 73
     3
176
     1
 90
        0
176
     1
 40
0.6
176
     1
 41
30.0
176
     1
 63
     7
421
 16777215
176
     1
 74
     2
176
     1
 91
        2
176
     1
 64
     7
176
     1
 65
     7
176
     1
 75
     1
176
     1
175
     1
176
     1
 42
40.0
176
     1
 92
        8
176
     1
 66
     7
176
     1
 43
1.0
176
     1
 76
     1
176
     1
 77
     6
176
     1
 78
     2
176
     1
 67
     7
176
     1
 79
     3
176
     1
170
     0
176
     1
171
     0
176
     1
290
     0
176
     1
 93
        1
176
     1
 44
0.0
176
     1
173
     0
176
     1
  0
VISUALSTYLE
  5
20E1
102
{ACAD_REACTORS
330
2065
102
}
330
2065
100
AcDbVisualStyle
  2
Sketchy
 70
    24
177
     2
291
     0
 71
     1
176
     1
 72
     2
176
     1
 73
     2
176
     1
 90
        0
176
     1
 40
0.6
176
     1
 41
30.0
176
     1
 63
     7
421
 16777215
176
     1
 74
     2
176
     1
 91
        2
176
     1
 64
     7
176
     1
 65
     7
176
     1
 75
     1
176
     1
175
     1
176
     1
 42
40.0
176
     1
 92
       11
176
     1
 66
     7
176
     1
 43
1.0
176
     1
 76
     1
176
     1
 77
     6
176
     1
 78
     2
176
     1
 67
     7
176
     1
 79
     6
176
     1
170
     0
176
     1
171
     0
176
     1
290
     0
176
     1
 93
        1
176
     1
 44
0.0
176
     1
173
     0
176
     1
  0
VISUALSTYLE
  5
2072
102
{ACAD_REACTORS
330
2065
102
}
330
2065
100
AcDbVisualStyle
  2
Thicken
 70
    13
177
     2
291
     1
 71
     2
176
     1
 72
     2
176
     1
 73
     0
176
     1
 90
        0
176
     1
 40
0.6
176
     1
 41
30.0
176
     1
 63
     7
421
 16777215
176
     1
 74
     1
176
     1
 91
        4
176
     1
 64
     7
176
     1
 65
   257
176
     1
 75
     1
176
     1
175
     1
176
     1
 42
1.0
176
     1
 92
       12
176
     1
 66
     7
176
     1
 43
1.0
176
     1
 76
     1
176
     1
 77
     6
176
     1
 78
     2
176
     1
 67
     7
176
     1
 79
     5
176
     1
170
     0
176
     1
171
     0
176
     1
290
     0
176
     1
 93
        1
176
     1
 44
0.0
176
     1
173
     0
176
     1
  0
VISUALSTYLE
  5
20DE
102
{ACAD_REACTORS
330
2065
102
}
330
2065
100
AcDbVisualStyle
  2
Wireframe
 70
     5
177
     2
291
     0
 71
     0
176
     1
 72
     2
176
     1
 73
     0
176
     1
 90
        0
176
     1
 40
0.6
176
     1
 41
30.0
176
     1
 63
     7
421
 16777215
176
     1
 74
     1
176
     1
 91
        4
176
     1
 64
     7
176
     1
 65
   257
176
     1
 75
     1
176
     1
175
     1
176
     1
 42
1.0
176
     1
 92
        0
176
     1
 66
   257
176
     1
 43
1.0
176
     1
 76
     1
176
     1
 77
     6
176
     1
 78
     2
176
     1
 67
     7
176
     1
 79
     3
176
     1
170
     0
176
     1
171
     0
176
     1
290
     0
176
     1
 93
        1
176
     1
 44
0.0
176
     1
173
     0
176
     1
  0
VISUALSTYLE
  5
20E2
102
{ACAD_REACTORS
330
2065
102
}
330
2065
100
AcDbVisualStyle
  2
X-Ray
 70
    25
177
     2
291
     0
 71
     2
176
     1
 72
     2
176
     1
 73
     1
176
     1
 90
        1
176
     1
 40
0.5
176
     1
 41
30.0
176
     1
 63
     7
421
 16777215
176
     1
 74
     1
176
     1
 91
        0
176
     1
 64
     7
176
     1
 65
   257
176
     1
 75
     1
176
     1
175
     1
176
     1
 42
1.0
176
     1
 92
        8
176
     1
 66
     7
176
     1
 43
1.0
176
     1
 76
     1
176
     1
 77
     6
176
     1
 78
     2
176
     1
 67
     7
176
     1
 79
     3
176
     1
170
     0
176
     1
171
     0
176
     1
290
     0
176
     1
 93
       13
176
     1
 44
0.0
176
     1
173
     0
176
     1
  0
DICTIONARYVAR
  5
210D
102
{ACAD_REACTORS
330
1848
102
}
330
1848
100
DictionaryVariables
280
     0
  1
1:1
  0
DICTIONARYVAR
  5
210B
102
{ACAD_REACTORS
330
1848
102
}
330
1848
100
DictionaryVariables
280
     0
  1
STANDARD
  0
DICTIONARYVAR
  5
1849
102
{ACAD_REACTORS
330
1848
102
}
330
1848
100
DictionaryVariables
280
     0
  1
STANDARD
  0
DICTIONARYVAR
  5
2052
102
{ACAD_REACTORS
330
1848
102
}
330
1848
100
DictionaryVariables
280
     0
  1
1
  0
DICTIONARYVAR
  5
210F
102
{ACAD_REACTORS
330
1848
102
}
330
1848
100
DictionaryVariables
280
     0
  1
1
  0
DICTIONARYVAR
  5
2110
102
{ACAD_REACTORS
330
1848
102
}
330
1848
100
DictionaryVariables
280
     0
  1
15
  0
DICTIONARYVAR
  5
210E
102
{ACAD_REACTORS
330
1848
102
}
330
1848
100
DictionaryVariables
280
     0
  1
0
  0
DICTIONARYVAR
  5
210C
102
{ACAD_REACTORS
330
1848
102
}
330
1848
100
DictionaryVariables
280
     0
  1
0
  0
DICTIONARYVAR
  5
2053
102
{ACAD_REACTORS
330
1848
102
}
330
1848
100
DictionaryVariables
280
     0
  1

  0
ACAD_PROXY_OBJECT
  5
163B
102
{ACAD_REACTORS
330
163A
102
}
330
163A
100
AcDbProxyObject
 90
      499
 91
      546
 95
    65563
 70
     0
162
                 0
161
                84
310
90100057356C1D8C406AAC
 94
        0
1001
ACAD
1000
AcRTDxfName
1000
ACMDATADICTIONARY
1000
AcRTDxfName
1000
ACMDATADICTIONARY
  0
DICTIONARY
  5
1647
102
{ACAD_REACTORS
330
163A
102
}
330
163A
100
AcDbDictionary
281
     1
  3
ANSI
350
1648
  0
XRECORD
  5
1666
102
{ACAD_REACTORS
330
163A
102
}
330
163A
100
AcDbXrecord
280
     1
 90
-1023410169
  0
ACAD_PROXY_OBJECT
  5
15EE
330
0
100
AcDbProxyObject
 90
      499
 91
      509
 95
    65563
 70
     0
162
               234
311
43904010C01340114014C016401340108013C0130014C01240168011400C
161
                34
310
000101420C
330
15EB
 94
        0
1001
ACAD
1000
AcRTDxfName
1000
ACIMINTSYSVAR
1000
AcRTDxfName
1000
ACIMINTSYSVAR
  0
ACAD_PROXY_OBJECT
  5
15F0
330
0
100
AcDbProxyObject
 90
      499
 91
      511
 95
    65563
 70
     0
162
                74
311
41108013C013400C400C
161
                46
310
00010100AC00
330
15EB
330
0
330
0
 94
        0
1001
ACAD
1000
AcRTDxfName
1000
ACMEVIEW
1000
AcRTDxfName
1000
ACMEVIEW
  0
ACAD_PROXY_OBJECT
  5
15F6
330
0
100
AcDbProxyObject
 90
      499
 91
      517
 95
    65563
 70
     0
162
               546
311
41190018401D00194010839002E0030002E00340033002E00300041190018401D001940109310031002E0030002E00360032002E003000419040138014C012400CC00C400C
161
                92
310
00010101010140501000096C
330
15EB
330
15F7
330
15FB
 94
        0
1001
ACAD
1000
AcRTDxfName
1000
AM_DRAWING_MGR
1000
AcRTDxfName
1000
AM_DRAWING_MGR
  0
ACAD_PROXY_OBJECT
  5
15F7
330
0
100
AcDbProxyObject
 90
      499
 91
      518
 95
    65563
 70
     0
162
                 0
161
                48
310
000190140A0086
330
15EB
330
15F8
 94
        0
1001
ACAD
1000
AcRTDxfName
1000
AM_DWG_DOCUMENT
1000
AcRTDxfName
1000
AM_DWG_DOCUMENT
  0
ACAD_PROXY_OBJECT
  5
15F8
330
0
100
AcDbProxyObject
 90
      499
 91
      519
 95
    65563
 70
     0
162
                 0
161
                48
310
0001AA000000F4
330
15EB
330
15BC
330
15F9
330
0
 94
        0
1001
ACAD
1000
AcRTDxfName
1000
AM_DWG_SHEET
1000
AcRTDxfName
1000
AM_DWG_SHEET
  0
ACAD_PROXY_OBJECT
  5
15F9
330
0
100
AcDbProxyObject
 90
      499
 91
      520
 95
    65563
 70
     0
162
                 0
161
                28
310
0001AAAC
330
15EB
 94
        0
1001
ACAD
1000
AcRTDxfName
1000
AM_VIEWDIMPARMAP
1000
AcRTDxfName
1000
AM_VIEWDIMPARMAP
  0
ACAD_PROXY_OBJECT
  5
15FC
330
0
100
AcDbProxyObject
 90
      499
 91
      509
 95
    65563
 70
     0
162
               138
311
42104013401200130010C01040130010C00C
161
                34
310
000101404C
330
15EB
 94
        0
1001
ACAD
1000
AcRTDxfName
1000
ACIMINTSYSVAR
1000
AcRTDxfName
1000
ACIMINTSYSVAR
  0
ACAD_PROXY_OBJECT
  5
15FD
330
0
100
AcDbProxyObject
 90
      499
 91
      509
 95
    65563
 70
     0
162
               170
311
429040134014801140154014C011401100124013400C
161
                34
310
000101404C
330
15EB
 94
        0
1001
ACAD
1000
AcRTDxfName
1000
ACIMINTSYSVAR
1000
AcRTDxfName
1000
ACIMINTSYSVAR
  0
ACAD_PROXY_OBJECT
  5
15FE
330
0
100
AcDbProxyObject
 90
      499
 91
      509
 95
    65563
 70
     0
162
               202
311
431040134014C0114010C01500124013C013801100124013400C
161
                26
310
0001018C
330
15EB
 94
        0
1001
ACAD
1000
AcRTDxfName
1000
ACIMINTSYSVAR
1000
AcRTDxfName
1000
ACIMINTSYSVAR
  0
ACAD_PROXY_OBJECT
  5
15FF
330
0
100
AcDbProxyObject
 90
      499
 91
      509
 95
    65563
 70
     0
162
               170
311
429040134015801400108013C014801100114014800C
161
                34
310
000101404C
330
15EB
 94
        0
1001
ACAD
1000
AcRTDxfName
1000
ACIMINTSYSVAR
1000
AcRTDxfName
1000
ACIMINTSYSVAR
  0
ACAD_PROXY_OBJECT
  5
1600
330
0
100
AcDbProxyObject
 90
      499
 91
      509
 95
    65563
 70
     0
162
               170
311
4290401340110015C011C010C013C0130013C014800C
161
                26
310
0001018C
330
15EB
 94
        0
1001
ACAD
1000
AcRTDxfName
1000
ACIMINTSYSVAR
1000
AcRTDxfName
1000
ACIMINTSYSVAR
  0
ACAD_PROXY_OBJECT
  5
1601
330
0
100
AcDbProxyObject
 90
      499
 91
      509
 95
    65563
 70
     0
162
               218
311
435040134015801240114015C01480114011801480114014C012000C
161
                34
310
000101404C
330
15EB
 94
        0
1001
ACAD
1000
AcRTDxfName
1000
ACIMINTSYSVAR
1000
AcRTDxfName
1000
ACIMINTSYSVAR
  0
ACAD_PROXY_OBJECT
  5
1602
330
0
100
AcDbProxyObject
 90
      499
 91
      509
 95
    65563
 70
     0
162
               266
311
441040134010401380138013C01500114014001480114014C011401480158011400C
161
                34
310
000101404C
330
15EB
 94
        0
1001
ACAD
1000
AcRTDxfName
1000
ACIMINTSYSVAR
1000
AcRTDxfName
1000
ACIMINTSYSVAR
  0
ACAD_PROXY_OBJECT
  5
1603
330
0
100
AcDbProxyObject
 90
      499
 91
      509
 95
    65563
 70
     0
162
               266
311
441040134010401540150013C01100124013401040148014801040138011C011400C
161
                34
310
000101404C
330
15EB
 94
        0
1001
ACAD
1000
AcRTDxfName
1000
ACIMINTSYSVAR
1000
AcRTDxfName
1000
ACIMINTSYSVAR
  0
ACAD_PROXY_OBJECT
  5
1604
330
0
100
AcDbProxyObject
 90
      499
 91
      509
 95
    65563
 70
     0
162
               186
311
42D04013401140160015001480114011801100124013400C
161
                26
310
0001018C
330
15EB
 94
        0
1001
ACAD
1000
AcRTDxfName
1000
ACIMINTSYSVAR
1000
AcRTDxfName
1000
ACIMINTSYSVAR
  0
ACAD_PROXY_OBJECT
  5
1605
330
0
100
AcDbProxyObject
 90
      499
 91
      509
 95
    65563
 70
     0
162
               186
311
42D040134015001040140010401380138013C0150011400C
161
                34
310
000101404C
330
15EB
 94
        0
1001
ACAD
1000
AcRTDxfName
1000
ACIMINTSYSVAR
1000
AcRTDxfName
1000
ACIMINTSYSVAR
  0
ACAD_PROXY_OBJECT
  5
1606
330
0
100
AcDbProxyObject
 90
      499
 91
      509
 95
    65563
 70
     0
162
               138
311
421040134010401540150013C010C013000C
161
                34
310
000101404C
330
15EB
 94
        0
1001
ACAD
1000
AcRTDxfName
1000
ACIMINTSYSVAR
1000
AcRTDxfName
1000
ACIMINTSYSVAR
  0
ACAD_PROXY_OBJECT
  5
1607
330
0
100
AcDbProxyObject
 90
      499
 91
      509
 95
    65563
 70
     0
162
               138
311
421040134010C0130011801140104015000C
161
                34
310
000101414C
330
15EB
 94
        0
1001
ACAD
1000
AcRTDxfName
1000
ACIMINTSYSVAR
1000
AcRTDxfName
1000
ACIMINTSYSVAR
  0
ACAD_PROXY_OBJECT
  5
1608
330
0
100
AcDbProxyObject
 90
      499
 91
      509
 95
    65563
 70
     0
162
               138
311
421040134010C0130015801240114015C00C
161
                34
310
0001014FCC
330
15EB
 94
        0
1001
ACAD
1000
AcRTDxfName
1000
ACIMINTSYSVAR
1000
AcRTDxfName
1000
ACIMINTSYSVAR
  0
ACAD_PROXY_OBJECT
  5
1609
330
0
100
AcDbProxyObject
 90
      499
 91
      509
 95
    65563
 70
     0
162
               218
311
4350401340120012401100114016801140148013C01100124013400C
161
                34
310
000101404C
330
15EB
 94
        0
1001
ACAD
1000
AcRTDxfName
1000
ACIMINTSYSVAR
1000
AcRTDxfName
1000
ACIMINTSYSVAR
  0
ACAD_PROXY_OBJECT
  5
160A
330
0
100
AcDbProxyObject
 90
      499
 91
      509
 95
    65563
 70
     0
162
               170
311
429040134012001040150010C01200124014C013C00C
161
                34
310
000101404C
330
15EB
 94
        0
1001
ACAD
1000
AcRTDxfName
1000
ACIMINTSYSVAR
1000
AcRTDxfName
1000
ACIMINTSYSVAR
  0
ACAD_PROXY_OBJECT
  5
160B
330
0
100
AcDbProxyObject
 90
      499
 91
      509
 95
    65563
 70
     0
162
               234
311
439040134014C01240138011C0130011401200104015001300104016400C
161
                26
310
0001018C
330
15EB
 94
        0
1001
ACAD
1000
AcRTDxfName
1000
ACIMINTSYSVAR
1000
AcRTDxfName
1000
ACIMINTSYSVAR
  0
ACAD_PROXY_OBJECT
  5
160C
330
0
100
AcDbProxyObject
 90
      499
 91
      509
 95
    65563
 70
     0
162
               186
311
42D0401340110015C011C0118013001100124014C014000C
161
                26
310
0001018C
330
15EB
 94
        0
1001
ACAD
1000
AcRTDxfName
1000
ACIMINTSYSVAR
1000
AcRTDxfName
1000
ACIMINTSYSVAR
  0
ACAD_PROXY_OBJECT
  5
160D
330
0
100
AcDbProxyObject
 90
      499
 91
      509
 95
    65563
 70
     0
162
               138
311
421040134010401540150013C0120013800C
161
                26
310
0001018C
330
15EB
 94
        0
1001
ACAD
1000
AcRTDxfName
1000
ACIMINTSYSVAR
1000
AcRTDxfName
1000
ACIMINTSYSVAR
  0
ACAD_PROXY_OBJECT
  5
160E
330
0
100
AcDbProxyObject
 90
      499
 91
      509
 95
    65563
 70
     0
162
               154
311
42504013401200138010C013C01540138015000C
161
                34
310
000101404C
330
15EB
 94
        0
1001
ACAD
1000
AcRTDxfName
1000
ACIMINTSYSVAR
1000
AcRTDxfName
1000
ACIMINTSYSVAR
  0
ACAD_PROXY_OBJECT
  5
160F
330
0
100
AcDbProxyObject
 90
      499
 91
      509
 95
    65563
 70
     0
162
               138
311
4210401340120013801400148013C012800C
161
                34
310
000101404C
330
15EB
 94
        0
1001
ACAD
1000
AcRTDxfName
1000
ACIMINTSYSVAR
1000
AcRTDxfName
1000
ACIMINTSYSVAR
  0
ACAD_PROXY_OBJECT
  5
1610
330
0
100
AcDbProxyObject
 90
      499
 91
      509
 95
    65563
 70
     0
162
               138
311
42104013401200138015001640140011400C
161
                34
310
00010141CC
330
15EB
 94
        0
1001
ACAD
1000
AcRTDxfName
1000
ACIMINTSYSVAR
1000
AcRTDxfName
1000
ACIMINTSYSVAR
  0
ACAD_PROXY_OBJECT
  5
1611
330
0
100
AcDbProxyObject
 90
      499
 91
      509
 95
    65563
 70
     0
162
               138
311
42104013401200138015801240114015C00C
161
                34
310
00010143CC
330
15EB
 94
        0
1001
ACAD
1000
AcRTDxfName
1000
ACIMINTSYSVAR
1000
AcRTDxfName
1000
ACIMINTSYSVAR
  0
ACAD_PROXY_OBJECT
  5
1612
330
0
100
AcDbProxyObject
 90
      499
 91
      509
 95
    65563
 70
     0
162
               218
311
435040134014C0114010C01500124013C0138010C013C0140016400C
161
                26
310
0001018C
330
15EB
 94
        0
1001
ACAD
1000
AcRTDxfName
1000
ACIMINTSYSVAR
1000
AcRTDxfName
1000
ACIMINTSYSVAR
  0
ACAD_PROXY_OBJECT
  5
1613
330
0
100
AcDbProxyObject
 90
      499
 91
      509
 95
    65563
 70
     0
162
               138
311
421040134010C013001400148013C012800C
161
                34
310
00010140CC
330
15EB
 94
        0
1001
ACAD
1000
AcRTDxfName
1000
ACIMINTSYSVAR
1000
AcRTDxfName
1000
ACIMINTSYSVAR
  0
ACAD_PROXY_OBJECT
  5
1614
330
0
100
AcDbProxyObject
 90
      499
 91
      521
 95
    65563
 70
     0
162
               234
311
439040134010401540150013C012001040150010C01200148013C015000C
161
                90
310
0001010000000000000B900C
330
15EB
 94
        0
1001
ACAD
1000
AcRTDxfName
1000
ACIMREALSYSVAR
1000
AcRTDxfName
1000
ACIMREALSYSVAR
  0
ACAD_PROXY_OBJECT
  5
1615
330
0
100
AcDbProxyObject
 90
      499
 91
      509
 95
    65563
 70
     0
162
               234
311
439040134010401540150013C012001040150010C012001100114015000C
161
                34
310
000101404C
330
15EB
 94
        0
1001
ACAD
1000
AcRTDxfName
1000
ACIMINTSYSVAR
1000
AcRTDxfName
1000
ACIMINTSYSVAR
  0
ACAD_PROXY_OBJECT
  5
1622
330
0
100
AcDbProxyObject
 90
      499
 91
      531
 95
    65563
 70
     0
162
              1176
311
4793401BC01B800800134018401E4008000C400D8008000C400C400E800CC00C800E800D000C0008000C800C000C000D4008000A001540150010C00A4010839002E0030002E00340033002E0030004615001D4019400800128018401B8008000C800E4008000C400C400E800C000D400E800D000DC008000C800C000C000E0
311
0109310031002E0030002E00360032002E00300000
161
               114
310
0001000000009AA6A9AA404040404C
330
15EB
330
1623
330
1624
330
1626
330
0
 94
        0
1001
ACAD
1000
AcRTDxfName
1000
ADAPPL
1000
AcRTDxfName
1000
ADAPPL
  0
ACAD_PROXY_OBJECT
  5
1623
330
0
100
AcDbProxyObject
 90
      499
 91
      532
 95
    65563
 70
     0
162
                 0
161
                70
310
0001AAA80820000000
330
15EB
330
1623
330
1623
 94
        0
1001
ACAD
1000
AcRTDxfName
1000
DEPMGR
1000
AcRTDxfName
1000
DEPMGR
  0
ACAD_PROXY_OBJECT
  5
1624
330
0
100
AcDbProxyObject
 90
      499
 91
      533
 95
    65563
 70
     0
162
                 0
161
                48
310
00010000000041
330
15EB
330
0
330
1625
330
0
330
0
 94
        0
1001
ACAD
1000
AcRTDxfName
1000
PARAMMGR
1000
AcRTDxfName
1000
PARAMMGR
  0
ACAD_PROXY_OBJECT
  5
1625
330
0
100
AcDbProxyObject
 90
      499
 91
      534
 95
    65563
 70
     0
162
                 0
161
                40
310
000100AAAA00
330
15EB
330
0
 94
        0
1001
ACAD
1000
AcRTDxfName
1000
PARAMSCOPE
1000
AcRTDxfName
1000
PARAMSCOPE
  0
ACAD_PROXY_OBJECT
  5
162B
330
0
100
AcDbProxyObject
 90
      499
 91
      538
 95
    65563
 70
     0
162
               276
311
431040104010C013C01340140011001180138010401340114010443004F004D005000C
161
                32
310
0001010100
330
15EB
 94
        0
1001
ACAD
1000
AcRTDxfName
1000
ACIMSTRSYSVAR
1000
AcRTDxfName
1000
ACIMSTRSYSVAR
  0
ACAD_PROXY_OBJECT
  5
162C
330
0
100
AcDbProxyObject
 90
      499
 91
      538
 95
    65563
 70
     0
162
               340
311
4390401040118013C0130011001140148011001180138010401340114010646006F006C00640065007200C
161
                32
310
0001010100
330
15EB
 94
        0
1001
ACAD
1000
AcRTDxfName
1000
ACIMSTRSYSVAR
1000
AcRTDxfName
1000
ACIMSTRSYSVAR
  0
ACAD_PROXY_OBJECT
  5
162D
330
0
100
AcDbProxyObject
 90
      499
 91
      538
 95
    65563
 70
     0
162
               276
311
431040104010401380138013C01100118013801040134011401042800410056002900C
161
                32
310
0001010100
330
15EB
 94
        0
1001
ACAD
1000
AcRTDxfName
1000
ACIMSTRSYSVAR
1000
AcRTDxfName
1000
ACIMSTRSYSVAR
  0
ACAD_PROXY_OBJECT
  5
162E
330
0
100
AcDbProxyObject
 90
      499
 91
      538
 95
    65563
 70
     0
162
               756
311
439040104010C013C01340140015801240114015C01300124014C0150012054006F0070000A00460072006F006E0074000A00520069006700680074000A004C006500660074000A0042006F00740074006F006D000A004100750078003100C
161
                32
310
0001010100
330
15EB
 94
        0
1001
ACAD
1000
AcRTDxfName
1000
ACIMSTRSYSVAR
1000
AcRTDxfName
1000
ACIMSTRSYSVAR
  0
ACAD_PROXY_OBJECT
  5
1633
330
0
100
AcDbProxyObject
 90
      499
 91
      540
 95
    65563
 70
     0
162
                 0
161
                32
310
0001000000
330
15EB
340
1630
330
1635
330
1630
 94
        0
1001
ACAD
1000
AcRTDxfName
1000
ACAMGRCOMPDEF
1000
AcRTDxfName
1000
ACAMGRCOMPDEF
  0
ACAD_PROXY_OBJECT
  5
1634
330
0
100
AcDbProxyObject
 90
      499
 91
      541
 95
    65563
 70
     0
162
                 0
161
                18
310
00018C
330
15EB
 94
        0
1001
ACAD
1000
AcRTDxfName
1000
ACCMCONTEXT
1000
AcRTDxfName
1000
ACCMCONTEXT
  0
ACAD_PROXY_OBJECT
  5
1635
330
0
100
AcDbProxyObject
 90
      499
 91
      542
 95
    65563
 70
     0
162
               138
311
42108014000C800D000C800C00104013000C
161
                80
310
0001014140155005540000
330
15EB
330
1633
330
1634
 94
        0
1001
ACAD
1000
AcRTDxfName
1000
ACAMCOMPDEF
1000
AcRTDxfName
1000
ACAMCOMPDEF
  0
ACAD_PROXY_OBJECT
  5
1636
330
0
100
AcDbProxyObject
 90
      499
 91
      543
 95
    65563
 70
     0
162
                 0
161
               178
310
000100AAAAAA8967AF7A5354A6522670EE36CB53958F4C
330
15EB
330
1635
 94
        0
1001
ACAD
1000
AcRTDxfName
1000
ACAMCOMPDEFMGR
1000
AcRTDxfName
1000
ACAMCOMPDEFMGR
  0
ACAD_PROXY_OBJECT
  5
1637
330
0
100
AcDbProxyObject
 90
      499
 91
      544
 95
    65563
 70
     0
162
                 0
161
               108
310
000190140A000000000000AAAAAC
330
15EB
330
1638
330
1638
330
1638
330
1638
330
1638
330
0
 94
        0
1001
ACAD
1000
AcRTDxfName
1000
AMCONTEXTMGR
1000
AcRTDxfName
1000
AMCONTEXTMGR
  0
ACAD_PROXY_OBJECT
  5
1638
330
0
100
AcDbProxyObject
 90
      499
 91
      545
 95
    65563
 70
     0
162
                 0
161
                51
310
00010000AAAA8C
330
15EB
330
1637
330
1635
 94
        0
1001
ACAD
1000
AcRTDxfName
1000
ACAMCONTEXTMODELER
1000
AcRTDxfName
1000
ACAMCONTEXTMODELER
  0
ACAD_PROXY_OBJECT
  5
1646
330
0
100
AcDbProxyObject
 90
      499
 91
      538
 95
    65563
 70
     0
162
               212
311
421040134010C01540148014C01500110010441004E0053004900C
161
                32
310
0001010100
330
15EB
 94
        0
1001
ACAD
1000
AcRTDxfName
1000
ACIMSTRSYSVAR
1000
AcRTDxfName
1000
ACIMSTRSYSVAR
  0
ACAD_PROXY_OBJECT
  5
2088
330
0
100
AcDbProxyObject
 90
      499
 91
      509
 95
    65563
 70
     0
162
               234
311
439040134014C014C0150014801040130015C01040164014C013C013800C
161
                26
310
0001018C
330
15EB
 94
        0
  0
DICTIONARY
  5
15E5
102
{ACAD_REACTORS
330
15E4
102
}
330
15E4
100
AcDbDictionary
281
     1
  3
DWGSETTINGS
350
15E6
  3
TRANSSETTINGS
350
15E7
  0
ACAD_PROXY_OBJECT
  5
1649
102
{ACAD_REACTORS
330
15E4
102
}
330
15E4
100
AcDbProxyObject
 90
      499
 91
      553
 95
    65563
 70
     0
162
             15824
311
404C0010441004D005F0030009013100411040134017C00C402404C8010441004D005F0032009013300411040134017C00CC02404D0010441004D005F0034009013500411040134017C00D402404D8010441004D005F0036009013700411040134017C00DC02404E0010441004D005F0038009013900411040134017C00E40
311
2408C80104010541004D005F003100300090234004100415040134017C00C400C402409240140010541004D005F003100320090230004E00415040134017C00C0013802408C40138010541004D005F0031004E0090232004E00415040134017C00C8013802408CC0138010541004D005F0033004E0090234004E0041504013
311
4017C00D0013802408D40138010541004D005F0035004E0090236004E00415040134017C00D8013802408DC0138010541004D005F0037004E0090238004E00415040134017C00E0013802408E40138010541004D005F0039004E00903320041004E00419040134017C00C400C001380240CD001040138010641004D005F003
311
10031004E00903490050004E00419040134017C00C400C80138024112C013001240138010541004D005F0043004C0090449004E0046004F00421040134017C01400104014801140118024154801040120013400D4010641004D005F0042004F0052009045600490045005700421040134017C015801240114015C014C02419
311
0801140120012401380110010641004D005F0049004E00560090554005200410049004C00415040134017C015001480240D2001240110010641004D005F00480049004400903560049005300419040134017C01580124014C024194001040148011001240134010941004D005F00500041005200440049004D009065200450
311
04600440049004D00425040134017C01480114011801100124013402411080120013801580101390041508012001380158014C010642004500480049004E00440041108013C014800C801055200410048004D00350041108013C014800CC01055200410048004D00350041108013C014800D401055200410048004D0035004
311
110C0104013000C8010134004110C0104013000CC010134004110C0104013000D4010134004110C0104013000DC010134004110C011401380138010137004110C01140138015C010137004110C01300124013801044B004C0049004E004110C013C013800C4010130004110C013C013800C8010131004110C013C013800CC0
311
10132004110C013C013800D00101320041110011401500104010134004111001240104011C010135004111001240130012401013500411100124013401400106500041005200440049004D00411100124013401480106520045004600440049004D00411180114013401380101380041518011401340140013801013800415
311
1801140134014C01400102340041004151801140134014C015001023400410041518011401340158013801013200415180114013401580150010132004112001040150010C0101380041120012401100138010133004112001240110015C01013300411200130012401380101340041120013C010C01380101370041120013
311
C010C015C010137004112401380118013C010449004E0046004F00411300114010401100101350041938017C0108012001380158010239004E0041938017C010C013C013800C4010230004E0041938017C010C013C013800C8010231004E0041938017C010C013C013800CC010232004E0041938017C010C013C013800D001
311
0232004E0041938017C010C011401380138010237004E0041938017C010C01140138015C010237004E0041938017C0110012401300124010235004E0041938017C012001040150010C010238004E0041938017C0120012401100138010233004E0041938017C012001240110015C010233004E0041938017C0130011401040
311
110010235004E0041938017C0138011C012401400103490050004E0041938017C01400120010401380103340041004E0041938017C0150010C013C0138010230004E0041938017C0150012001300124010234004E0041938017C0150013001140138010230004E0041938017C01580140013001240103320041004E0041138
311
011C01240140010249005000411400104013000C801055200410048004D003500411400104013000CC01055200410048004D003500411400104013000D401055200410048004D0035004114001200104013801023400410041140013C014C01380101350041148010C011C01380101370041148010C011C015C01013700411
311
4C01080148012C010134004114C0114010C0150010134004114C0164010800CC0101350041134014C016401340101350041150010C013C0138010130004115001200130012401013400411500124015000C801055200410048004D003500411500124015000CC01055200410048004D003500411500124015000D401055200
311
410048004D0035004115001300114013801013000415500148010401240130010554005200410049004C004115001480130012401013400411500160015000C401013600411500160015000C801013600411500160015000CC01013600411500160015000D401013600411500160015000DC010136004115801240114015C0
311
1045600490045005700411580114011001200103480049004400411580114011001580103560049005300411580140013001240102320041004116801240168010401013400404FC0260
161
              8848
310
4190349201C00030C011E44203800030C011E44201400030C011E44201800030C010FA00C00030C010FA00C00030C010FA00800030C011EA01000030C010FA00400030C010FA3F400030C0241201C00030C011EA00C00030C010FA01C00030C011E40A01C00030C011EA03800030C011EA01400030C011EA01800030C010FA
310
00C00030C010FA00C00030C010FA00800030C011EA01000030C010FA00400030C010FA3F400030C0241201C00030C011EA00C00030C010FA01C00030C011E40A00400030C010F42601000030C010F42E01C00030C011E42600400030C010F42E3F400030C0243600C00030C010F42601C00030C010F42601C00030C011E426
310
00C00030C010F42601000030C010F425538000000C0003FFFFFFFE8000000C0003FFFFFFFE8010000C30043E8020000C30047A8000000C0003FFFFFFFE8000000C0003FFFFFFFE8020000C30047A8070000C30047A81E0000C3004F28000000C0003FFFFFFFE8000000C0003FFFFFFFE8000000C0003FFFFFFFE8000000C00
310
03FFFFFFFD038000000C0003FFFFFFFD038000000C0003FFFFFFFD038000000C0003FFFFFFFD038000000C0003FFFFFFFE8000000C0003FFFFFFFE8000000C0003FFFFFFFE8000000C0003FFFFFFFE8000000C0003FFFFFFFE8000000C0003FFFFFFFE8030000C3003FFFFFFFE8000000C0003FFFFFFFE8030000C30043E80
310
00000C0003FFFFFFFE8030000C30043E8000000C0003FFFFFFFD018000000C0003FFFFFFFD038000000C0003FFFFFFFD038000000C0003FFFFFFFD018000000C0003FFFFFFFE8000000C0003FFFFFFFE8000000C0003FFFFFFFE8000000C0003FFFFFFFE8000000C0003FFFFFFFE8000000C0003FFFFFFFD038000000C0003
310
FFFFFFFD038000000C0003FFFFFFFD038000000C0003FFFFFFFD038000000C0003FFFFFFFE8000000C0003FFFFFFFE8000000C0003FFFFFFFE8000000C0003FFFFFFFD018000000C0003FFFFFFFD038000000C0003FFFFFFFD038000000C0003FFFFFFFE8000000C0003FFFFFFFE8000000C0003FFFFFFFE8000000C0003FF
310
FFFFFD038000000C0003FFFFFFFD018000000C0003FFFFFFFD038000000C0003FFFFFFFE8000000C0003FFFFFFFE8010000C30043E8020000C30047A8000000C0003FFFFFFFE8000000C0003FFFFFFFE8000000C0003FFFFFFFE8000000C0003FFFFFFFE8000000C0003FFFFFFFE8070000C300479018000000C0003FFFFFF
310
FD018020000C30047A8020000C30047A8000000C0003FFFFFFFD038000000C0003FFFFFFFD018010000C30043E8020000C30047A8000000C0003FFFFFFFE8000000C0003FFFFFFFD038000000C0003FFFFFFFE8000000C0003FFFFFFFD018030000C30043E8030000C30043E8000000C0003FFFFFFFE8070000C30047A81E0
310
000C3004F28000000C0003FFFFFFFE8000000C0003FFFFFFFD028000000C0003FFFFFFFD028000000C0003FFFFFFFE8000000C0003FFFFFFFD01AAA3F400030C010A4050F4091E40D0F4110F4151E4190F41D1E4391E4793C7F616
340
14
340
14
340
14
340
1F
340
14
340
14
340
14
340
20
340
14
340
14
340
20
340
1616
340
14
340
14
340
14
340
14
340
1F
340
14
340
14
340
14
340
20
340
14
340
14
340
20
340
1616
340
14
340
164D
340
14
340
14
340
14
340
14
340
14
340
1F
340
14
340
14
340
14
340
13
340
13
340
13
340
13
340
13
340
13
340
13
340
13
340
13
340
1653
340
13
340
13
340
13
340
13
340
13
340
13
340
13
340
13
340
13
340
13
340
13
340
13
340
13
340
14
340
13
340
13
340
13
340
13
340
1654
340
13
340
13
340
1653
340
13
340
13
340
13
340
13
340
13
340
13
340
13
340
13
340
1653
340
13
340
13
340
13
340
1654
340
13
340
13
340
13
340
13
340
13
340
1654
340
13
340
1616
340
13
340
13
340
13
340
13
340
13
340
13
340
1653
340
13
340
13
340
13
340
13
340
13
340
13
340
1654
340
13
340
13
340
13
340
13
340
13
340
13
340
13
340
13
340
13
340
13
340
13
340
13
340
13
340
13
340
1616
340
1655
 94
        0
1001
ACAD
1000
AcRTDxfName
1000
AMGOBJPROPCFG
1000
AcRTDxfName
1000
AMGOBJPROPCFG
  0
ACAD_PROXY_OBJECT
  5
1740
102
{ACAD_REACTORS
330
173B
102
}
330
173B
100
AcDbProxyObject
 90
      499
 91
      571
 95
    65563
 70
     0
162
               434
311
451100124013401140138014C0124013C013800B00104013401100150017C00A8017C01100124013401012A00404A801012A00404A800C
161
                11
310
43EC
 94
        0
1001
ACAD
1000
AcRTDxfName
1000
ACAMGFILTERDAT
1000
AcRTDxfName
1000
ACAMGFILTERDAT
  0
ACAD_PROXY_OBJECT
  5
173F
102
{ACAD_REACTORS
330
173B
102
}
330
173B
100
AcDbProxyObject
 90
      499
 91
      571
 95
    65563
 70
     0
162
               290
311
404A8010B41004D005F004600450041002D0041004D005F002A00404A801012A00404A800C
161
                11
310
43EC
 94
        0
1001
ACAD
1000
AcRTDxfName
1000
ACAMGFILTERDAT
1000
AcRTDxfName
1000
ACAMGFILTERDAT
  0
ACAD_PROXY_OBJECT
  5
173C
102
{ACAD_REACTORS
330
173B
102
}
330
173B
100
AcDbProxyObject
 90
      499
 91
      571
 95
    65563
 70
     0
162
               194
311
4152001040150010C012001012A00404A801012A00404A800C
161
                11
310
43EC
 94
        0
1001
ACAD
1000
AcRTDxfName
1000
ACAMGFILTERDAT
1000
AcRTDxfName
1000
ACAMGFILTERDAT
  0
ACAD_PROXY_OBJECT
  5
173D
102
{ACAD_REACTORS
330
173B
102
}
330
173B
100
AcDbProxyObject
 90
      499
 91
      571
 95
    65563
 70
     0
162
              1026
311
41130012401380114012738002C0038004E002C002A002D0038002C002A002D0038004E002C0041004D005F0038002C0041004D005F0038004E002C002A002D0041004D005F0038002C002A002D0041004D005F0038004E00404A801012A00441240138014C01140148015000B0014C01500110014001040148015000C8011
311
000C
161
                11
310
43EC
 94
        0
1001
ACAD
1000
AcRTDxfName
1000
ACAMGFILTERDAT
1000
AcRTDxfName
1000
ACAMGFILTERDAT
  0
ACAD_PROXY_OBJECT
  5
1741
102
{ACAD_REACTORS
330
173B
102
}
330
173B
100
AcDbProxyObject
 90
      499
 91
      571
 95
    65563
 70
     0
162
               290
311
40D040148010C010441004D005F003500404A801013200419240138014C01140148015000C
161
                11
310
43CC
 94
        0
1001
ACAD
1000
AcRTDxfName
1000
ACAMGFILTERDAT
1000
AcRTDxfName
1000
ACAMGFILTERDAT
  0
ACAD_PROXY_OBJECT
  5
173E
102
{ACAD_REACTORS
330
173B
102
}
330
173B
100
AcDbProxyObject
 90
      499
 91
      571
 95
    65563
 70
     0
162
              2034
311
5E104010C01340118010C0118014801040134011400B00104010C013401100104015001540134015001040148011C0114015000B00104010C0134011001040150015401340124011000B00104010C0134015C011401300110014C0164013400B00104010C0134014C015401480118014C0164013400B00104010C013401180
311
114010401500124011000B00104010C0134014001040148015001480114011800B00104010C01340108010401300130013C013C013800B0010401340110015001140110011C0114014C0164013400B001040134011C014C010C01480114015C010C01040130010C0150010401080130011401012A00404A801012A00404A80
311
0C
161
                11
310
43EC
 94
        0
1001
ACAD
1000
AcRTDxfName
1000
ACAMGFILTERDAT
1000
AcRTDxfName
1000
ACAMGFILTERDAT
  0
DICTIONARY
  5
2111
330
15DF
100
AcDbDictionary
280
     1
281
     1
  3
ACAD_ROUNDTRIP_2008_TABLESTYLE_CELLSTYLEMAP
360
2112
  0
ACAD_PROXY_OBJECT
  5
1648
102
{ACAD_REACTORS
330
1647
102
}
330
1647
100
AcDbProxyObject
 90
      499
 91
      552
 95
    65563
 70
     0
162
              3516
311
411040138014C01240243904018C01B4014C01D401C801980150019401E001D0014C01D001900109410063006D0046004300460053007400640043504018C01B4015C019401B0019001A401B8019C014C01D001900108410063006D004900640053007400640042D04018C01B40110018401D001D401B4014C01D001900109
311
410063006D0042004F004D005300740064004410401B4019001D00110019401D0018401A401B0014C01E401B4014C01D00190011141006D0064007400530065006300740069006F006E00530079006D005300740064004450401B4019001D0010C019401B801D0019401C8013001A401B80194014C01D00190011141006D00
311
640074005400680072006500610064004C0069006E00650053007400640042D0401B4019001D0013801BC01D00194014C01D00190010B4100630041006D0067004C006100790053007400640042D04018C010401B4019C011001A401B4014C01D0019001114100630041006D00670048006F006C0065004300680061007200
311
740053007400640043504018C010401B4019C015001A401D001B00194014C01D00190010B410063006D0054006100700065007200530074006400C
161
               705
310
630B81E85EB51B8BE3F8030000C30040540600800030C0200800030C00B81E85EB51B8BE3F4882208120281202812028120281202812028120281202812028120281202812028120281202812028120280A04809FFFE7FFFCC
340
1656
360
1657
360
1658
360
1659
360
165A
360
165B
360
165C
360
165D
360
165E
360
165F
360
1660
360
1661
360
166C
360
166D
360
1678
360
1679
360
208A
340
0
340
0
340
0
340
0
 94
        0
1001
ACAD
1000
AcRTDxfName
1000
ACMSTANDARDANSI
1000
AcRTDxfName
1000
ACMSTANDARDANSI
  0
ACAD_PROXY_OBJECT
  5
15E6
102
{ACAD_REACTORS
330
15E5
102
}
330
15E5
100
AcDbProxyObject
 90
      499
 91
      505
 95
    65563
 70
     0
162
              3608
311
42D10015C011C014C01140150015001240138011C014C0109430041004E00470041005200520041005900420CC00C001F000D000D401F000D800C00106430045004E0041004E004700424D000D401F000E400C001F000C400CC00D40106430045004E0044004900410041D0C01140138011001240104014C010B30002E0035
311
007C0031002E0030007C0031002E00350041D0C0114013801100124014C01500106430045004E004C0045004E004190C01140138013C01180118010943004C0049004E0041005200520041005900438C000B800C400C800D401F000C000B800C800D401F000C000B800D4010843004C0049004E00450054005900500041560
311
0130012401380114010944005700470055005300430041004C00450041D300104014C0150013C0108012801043100460042003000421340104012C0114015801240114015C010650005300430041004C00450041948011401580124014C0124010130004154C010C010401300114010331003A003100425500124013401140
311
14C01500104013401400107560045005200530049004F004E00414C400D400B800C000C001107B00440057004700530045005400540049004E004700530045004E0044007D0000
161
               548
310
40682A0A940000000000001C07E82A50000000000000601FA50000000000000701FA50000000000000701FA0A82A50A0A9FA040C0080001054152811C92B0458099CD0505C
 94
        0
1001
ACAD
1000
AcRTDxfName
1000
AMGSETTINGSOBJ
1000
AcRTDxfName
1000
AMGSETTINGSOBJ
  0
ACAD_PROXY_OBJECT
  5
15E7
102
{ACAD_REACTORS
330
15E5
102
}
330
15E5
100
AcDbProxyObject
 90
      499
 91
      505
 95
    65563
 70
     0
162
              1382
311
43550014801040138014C014C01140150015001240138011C014C0112440052004100570049004E0047005400520041004E0053004C004100540049004F004E004353C01480124011C012401380104013001300164017C013C0138010A53004F0055005200430045004C0041004E00470040D1401380154010955005000520
311
0450053004500520056004500441EC0110015C011C014C01140150015001240138011C014C01140138011001F400
161
               126
310
4060C00800041801000020A0C0080000
 94
        0
1001
ACAD
1000
AcRTDxfName
1000
AMGSETTINGSOBJ
1000
AcRTDxfName
1000
AMGSETTINGSOBJ
  0
CELLSTYLEMAP
  5
2112
102
{ACAD_REACTORS
330
2111
102
}
330
2111
100
AcDbCellStyleMap
 90
        3
300
CELLSTYLE
  1
TABLEFORMAT_BEGIN
 90
        5
170
     1
 91
        0
 92
    32768
 62
   257
 93
        1
300
CONTENTFORMAT
  1
CONTENTFORMAT_BEGIN
 90
        0
 91
        0
 92
        4
 93
        0
300

 40
0.0
140
1.0
 94
        5
 62
     0
340
10
144
0.25
309
CONTENTFORMAT_END
171
     0
 94
        6
 95
        1
302
GRIDFORMAT
  1
GRIDFORMAT_BEGIN
 90
        0
 91
        1
 62
     0
 92
       -2
340
0
 93
        0
 40
0.045
309
GRIDFORMAT_END
 95
        2
302
GRIDFORMAT
  1
GRIDFORMAT_BEGIN
 90
        0
 91
        1
 62
     0
 92
       -2
340
0
 93
        0
 40
0.045
309
GRIDFORMAT_END
 95
        4
302
GRIDFORMAT
  1
GRIDFORMAT_BEGIN
 90
        0
 91
        1
 62
     0
 92
       -2
340
0
 93
        0
 40
0.045
309
GRIDFORMAT_END
 95
        8
302
GRIDFORMAT
  1
GRIDFORMAT_BEGIN
 90
        0
 91
        1
 62
     0
 92
       -2
340
0
 93
        0
 40
0.045
309
GRIDFORMAT_END
 95
       16
302
GRIDFORMAT
  1
GRIDFORMAT_BEGIN
 90
        0
 91
        1
 62
     0
 92
       -2
340
0
 93
        0
 40
0.045
309
GRIDFORMAT_END
 95
       32
302
GRIDFORMAT
  1
GRIDFORMAT_BEGIN
 90
        0
 91
        1
 62
     0
 92
       -2
340
0
 93
        0
 40
0.045
309
GRIDFORMAT_END
309
TABLEFORMAT_END
  1
CELLSTYLE_BEGIN
 90
        1
 91
        1
300
_TITLE
309
CELLSTYLE_END
300
CELLSTYLE
  1
TABLEFORMAT_BEGIN
 90
        5
170
     1
 91
        0
 92
        0
 62
   257
 93
        1
300
CONTENTFORMAT
  1
CONTENTFORMAT_BEGIN
 90
        0
 91
        0
 92
        4
 93
        0
300

 40
0.0
140
1.0
 94
        5
 62
     0
340
10
144
0.18
309
CONTENTFORMAT_END
171
     0
 94
        6
 95
        1
302
GRIDFORMAT
  1
GRIDFORMAT_BEGIN
 90
        0
 91
        1
 62
     0
 92
       -2
340
0
 93
        0
 40
0.045
309
GRIDFORMAT_END
 95
        2
302
GRIDFORMAT
  1
GRIDFORMAT_BEGIN
 90
        0
 91
        1
 62
     0
 92
       -2
340
0
 93
        0
 40
0.045
309
GRIDFORMAT_END
 95
        4
302
GRIDFORMAT
  1
GRIDFORMAT_BEGIN
 90
        0
 91
        1
 62
     0
 92
       -2
340
0
 93
        0
 40
0.045
309
GRIDFORMAT_END
 95
        8
302
GRIDFORMAT
  1
GRIDFORMAT_BEGIN
 90
        0
 91
        1
 62
     0
 92
       -2
340
0
 93
        0
 40
0.045
309
GRIDFORMAT_END
 95
       16
302
GRIDFORMAT
  1
GRIDFORMAT_BEGIN
 90
        0
 91
        1
 62
     0
 92
       -2
340
0
 93
        0
 40
0.045
309
GRIDFORMAT_END
 95
       32
302
GRIDFORMAT
  1
GRIDFORMAT_BEGIN
 90
        0
 91
        1
 62
     0
 92
       -2
340
0
 93
        0
 40
0.045
309
GRIDFORMAT_END
309
TABLEFORMAT_END
  1
CELLSTYLE_BEGIN
 90
        2
 91
        1
300
_HEADER
309
CELLSTYLE_END
300
CELLSTYLE
  1
TABLEFORMAT_BEGIN
 90
        5
170
     1
 91
        0
 92
        0
 62
   257
 93
        1
300
CONTENTFORMAT
  1
CONTENTFORMAT_BEGIN
 90
        0
 91
        0
 92
        4
 93
        0
300

 40
0.0
140
1.0
 94
        2
 62
     0
340
10
144
0.18
309
CONTENTFORMAT_END
171
     0
 94
        6
 95
        1
302
GRIDFORMAT
  1
GRIDFORMAT_BEGIN
 90
        0
 91
        1
 62
     0
 92
       -2
340
0
 93
        0
 40
0.045
309
GRIDFORMAT_END
 95
        2
302
GRIDFORMAT
  1
GRIDFORMAT_BEGIN
 90
        0
 91
        1
 62
     0
 92
       -2
340
0
 93
        0
 40
0.045
309
GRIDFORMAT_END
 95
        4
302
GRIDFORMAT
  1
GRIDFORMAT_BEGIN
 90
        0
 91
        1
 62
     0
 92
       -2
340
0
 93
        0
 40
0.045
309
GRIDFORMAT_END
 95
        8
302
GRIDFORMAT
  1
GRIDFORMAT_BEGIN
 90
        0
 91
        1
 62
     0
 92
       -2
340
0
 93
        0
 40
0.045
309
GRIDFORMAT_END
 95
       16
302
GRIDFORMAT
  1
GRIDFORMAT_BEGIN
 90
        0
 91
        1
 62
     0
 92
       -2
340
0
 93
        0
 40
0.045
309
GRIDFORMAT_END
 95
       32
302
GRIDFORMAT
  1
GRIDFORMAT_BEGIN
 90
        0
 91
        1
 62
     0
 92
       -2
340
0
 93
        0
 40
0.045
309
GRIDFORMAT_END
309
TABLEFORMAT_END
  1
CELLSTYLE_BEGIN
 90
        3
 91
        2
300
_DATA
309
CELLSTYLE_END
  0
ACAD_PROXY_OBJECT
  5
1657
330
1648
100
AcDbProxyObject
 90
      499
 91
      554
 95
    65563
 70
     0
162
                 0
161
                96
310
63020E80A0280A0280A0280800
 94
        0
1001
ACAD
1000
AcRTDxfName
1000
ACMSURFSTANDARDANSI
1000
AcRTDxfName
1000
ACMSURFSTANDARDANSI
  0
ACAD_PROXY_OBJECT
  5
1658
330
1648
100
AcDbProxyObject
 90
      499
 91
      555
 95
    65563
 70
     0
162
                 0
161
               332
310
6310E405014050140501405014050140501405014250140501405014050140501200000000000000040C
340
1662
 94
        0
1001
ACAD
1000
AcRTDxfName
1000
ACMFCFSTANDARDANSI
1000
AcRTDxfName
1000
ACMFCFSTANDARDANSI
  0
ACAD_PROXY_OBJECT
  5
1659
330
1648
100
AcDbProxyObject
 90
      499
 91
      556
 95
    65563
 70
     0
162
                 0
161
               403
310
630C199999999999E99F91F405014050140501405014050140501405014050140501405014050140501405014050140501404C
340
0
 94
        0
1001
ACAD
1000
AcRTDxfName
1000
ACMWELDSTANDARDANSI
1000
AcRTDxfName
1000
ACMWELDSTANDARDANSI
  0
ACAD_PROXY_OBJECT
  5
165A
330
1648
100
AcDbProxyObject
 90
      499
 91
      557
 95
    65563
 70
     0
162
                 0
161
                10
310
630C
 94
        0
1001
ACAD
1000
AcRTDxfName
1000
ACMIDSTANDARDANSI
1000
AcRTDxfName
1000
ACMIDSTANDARDANSI
  0
ACAD_PROXY_OBJECT
  5
165B
330
1648
100
AcDbProxyObject
 90
      499
 91
      558
 95
    65563
 70
     0
162
                 0
161
               257
310
632290EA22A7D90F49F9353333333333727F44D4CCCCCCCCCDC9FC01000061804C
340
1663
340
1664
 94
        0
1001
ACAD
1000
AcRTDxfName
1000
ACMDATUMSTANDARDANSI
1000
AcRTDxfName
1000
ACMDATUMSTANDARDANSI
  0
ACAD_PROXY_OBJECT
  5
165C
330
1648
100
AcDbProxyObject
 90
      499
 91
      559
 95
    65563
 70
     0
162
             22604
311
4112401500114013401044900540045004D004CD1C01140138015001480104010C013C00B001140138015400B000C000B0012401500114013400B0011C011401380150014801040150016000B0009401CC00B000A0011C011401380134014C011C0080019C019401B8019001DC019C008000C800C800C800A40240D4401500
311
16401035100540059004C91C01140138015001480104010C013C00B001140138015400B000C000B001440150016400B0011C011401380150014801040150016000B0009401CC00B000A0011C011401380134014C011C0080019C019401B8019001DC019C008000C800C800CC00A4024113801040134011401044E0041004D0
311
045004CD1C01140138015001480104010C013C00B001140138015400B000C000B0013801040134011400B0011C011401380150014801040150016000B0009401CC00B000A0011C011401380134014C011C0080019C019401B8019001DC019C008000C800C800D800A4012C3D004900460028004900530042004C0041004E00
311
4B00280050004100520054003A004E0041004D00450029002C0042004C004F0043004B003A004E0041004D0045002C0050004100520054003A004E0041004D0045002900415100114014C010C0148010B4400450053004300520049005000540049004F004E004E91C01140138015001480104010C013C00B0011401380154
311
00B000C000B001100114014C010C01480124014001500124013C013800B0011C011401380150014801040150016000B0009401CC00B000A0011C011401380134014C011C0080019C019401B8019001DC019C008000C800C400DC00A4024214C015001040138011001040148011001085300540041004E00440041005200440
311
04DD1C01140138015001480104010C013C00B001140138015400B000C000B0014C015001040138011001040148011000B0011C011401380150014801040150016000B0009401CC00B000A0011C011401380134014C011C0080019C019401B8019001DC019C008000C800C400E000A402421340104015001140148012401040
311
13001084D004100540045005200490041004C004DD1C01140138015001480104010C013C00B001140138015400B000C000B00134010401500114014801240104013000B0011C011401380150014801040150016000B0009401CC00B000A0011C011401380134014C011C0080019C019401B8019001DC019C008000C800C800
311
C400A40241138013C0150011401044E004F00540045004CD1C01140138015001480104010C013C00B001140138015400B000C000B00138013C0150011400B0011C011401380150014801040150016000B0009401CC00B000A0011C011401380134014C011C0080019C019401B8019001DC019C008000C800C800D400A40241
311
958011401380110013C01480106560045004E0044004F0052004D51C01140138015001480104010C013C00B001140138015400B000C000B00158011401380110013C014800B0011C011401380150014801040150016000B0009401CC00B000A0011C011401380134014C011C0080019C019401B8019001DC019C008000C800
311
C800D000A402419100114014C010C014800C8010D4400450053004300520049005000540049004F004E00200032004ED1C01140138015001480104010C013C00B001140138015400B000C000B001100114014C010C01480124014001500124013C0138008000C800B0011C011401380150014801040150016000B0009401CC
311
00B000A0011C011401380134014C011C0080019C019401B8019001DC019C008000CC00D800A4024254C015001040138011001040148011000C8010A5300540041004E004400410052004400200032004E51C01140138015001480104010C013C00B001140138015400B000C000B0014C015001040138011001040148011000
311
8000C800B0011C011401380150014801040150016000B0009401CC00B000A0011C011401380134014C011C0080019C019401B8019001DC019C008000C800C800C000A40242534010401500114014801240104013000C8010A4D004100540045005200490041004C00200032004E11C01140138015001480104010C013C00B0
311
01140138015400B000C000B001340104015001140148012401040130008000C800B0011C011401380150014801040150016000B0009401CC00B000A0011C011401380134014C011C0080019C019401B8019001DC019C008000D000C000A402411340104014C014C01044D004100530053004C91C0114013801500148010401
311
0C013C00B001140138015400B000C000B001340104014C014C00B0011C011401380150014801040150016000B0009401CC00B000A0011C011401380134014C011C0080019C019401B8019001DC019C008000D000C800A4024154001480124010C01140105500052004900430045004CD1C01140138015001480104010C013C
311
00B001140138015400B000C000B0014001480124010C011400B0011C011401380150014801040150016000B0009401CC00B000A0011C011401380134014C011C0080019C019401B8019001DC019C008000D000CC00A40240D1001240134010B4D004500410053005500520045004D0045004E0054004E51C01140138015001
311
480104010C013C00B001140138015400B000C000B0013401140104014C015401480114013401140138015000B0011C011401380150014801040150016000B0009401CC00B000A0011C011401380134014C011C0080019C019401B8019001DC019C008000D000D000A40242508013C0134017C0154013801240150014C01055
311
5004E00490054005300A41CF400F0012401500114013400F801073D003C004900540045004D003E0041CF400F0012401500114013400F801073D003C004900540045004D003E0041CF400F0012401500114013400F801063D003C005100540059003E0041CF400F0012401500114013400F801073D003C004900540045004D
311
003E00AAA901310090B65006100090065006100090045006100630068000A00455CC01C401B4002401CC01C401B40024014C01C401D4018401C8019400800134019401D0019401C80028011C7300710063006D0009007300710063006D0009005300710075006100720065002000430065006E00740069006D006500740065
311
0072000A00459CC01C4019801D0002401CC01C4019801D00024014C01C401D4018401C801940080011801BC01BC01D0002801147300710069006E0009007300710069006E000900530071007500610072006500200049006E000A0043D9C018401B00024019C018401B00024011C018401B001B001BC01B80028010C710074
311
000900710074000900510075006100720074000A0046DB001C40190017C01BC01E8002401B001C40190017C01BC01E80024013001A401C401D401A401900080013C01D401B8018C01940028010A6C0009006C0009004C0069007400650072000A00441B401B0002401B401B00024013401A401B001A401B001A401D0019401
311
C80028010B79006400090079006400090059006100720064000A0042D9801D00024019801D00024011801BC01BC01D00028010B69006E00090069006E00090049006E00630068000A00429B4002401B400240134019401D0019401C80028011163006D00090063006D000900430065006E00740069006D0065007400650072
311
000A00441B401B4002401B401B40024013401A401B001A401B4019401D0019401C80028010C6C00620009006C006200090050006F0075006E0064000A00431BC01E8002401BC01E80024013C01D401B8018C01940028010967000900670009004700720061006D000A0043DB4019C002401B4019C0024013401A401B001A40
311
19C01C8018401B40028010A62007800090062007800090042006F0078000A00C
161
              5144
310
6310F40501405014069011309A4F2590CB64FD0190120280A028120280A03202261349E4B2196C9FA03202405014051C40640A8B95C2E97CBE5024040640480A0280A3A80C81D10782C06030180C80808809014050147501904A383BFDFEFF5FBFCFD0110120280A028EA0320B41396D838E9017D9FA03202405014051D406
310
41A8B95C2E97CBE5F23F40640480A0280A3A80C83D172B85D2F97CBE47E80C809014050147501908A20F0580C0603019010110120280A028EA0321347077FBFDFEBF7F9FA02202405014051D40642A8272DB071D202FB3F40440480A0280A3A80A0485A0681172B85D2F97CBE47E8088090140501475014090C409022E570B
310
A5F2F97C8FD0110120280A028EA028121A81A047DC2910F05877A1FA03202405014051E40643A8BA5C2E97CBE5F23F40640480A1E882045C0F42F5A8DC671FC0F0000618000203159AAD56AB55BEC7E566AB55AAD56FB1FA0280C566AB55AAD56FB1F959AAD56AB55BEC7E80A031218FC7E2F079DC7E4863F1F8BC1E771FA0
310
280C4863F1F8BC1E771F9218FC7E2F079DC7E80A05202566AB55AAD56FB1F959AAD56AB55BEC7E80A0280C566AB55AAD56FB1F959AAD56AB55BEC7E80A030984D2792C865D27E261349E4B219749FA028080159AAD56AB55BEC7E566AB55AAD56FB1FD100000000000000410200C00030C024110340D024090140510429084
310
410190A4064229014290A4290A40A000000000000785F8000000000001E17E80C010000618040380006180077BE9F1B2EDD447E1DEFA7C6CBB7511F9703D0BD6A3717C7F40683480A0482A0E832034B81E85EB51B8BE3F8020000C3008020000C3008010000C30010140501455014050140501405014050140501405014050
310
140501405014050100
340
0
340
0
 94
        0
1001
ACAD
1000
AcRTDxfName
1000
ACMBOMSTANDARDANSI
1000
AcRTDxfName
1000
ACMBOMSTANDARDANSI
  0
ACAD_PROXY_OBJECT
  5
165D
330
1648
100
AcDbProxyObject
 90
      499
 91
      560
 95
    65563
 70
     0
162
               762
311
4BCF4011001140150010401240130008000F0011001140150010401240130017C0130010401080114013000F801700140014C010C010401300114008000F0011001140150010401240130017C01040108014C014C010C01040130011400F800C
161
               608
310
6300B81E85EB51B8CE3F48D0726A6666666666E4FC9A9999999999C93F000000000000380FD0000000000000010000000000000014400000000000000910207800030C00B81E85EB51B8CE3F00
340
1616
340
1656
 94
        0
1001
ACAD
1000
AcRTDxfName
1000
ACMDETAILSTANDARDANSI
1000
AcRTDxfName
1000
ACMDETAILSTANDARDANSI
  0
ACAD_PROXY_OBJECT
  5
165E
330
1648
100
AcDbProxyObject
 90
      499
 91
      561
 95
    65563
 70
     0
162
               826
311
4CCF4014C0114010C01500124013C0138008000F0014C0114010C01500124013C0138017C01300104010801140130017C011801240148014C015000F800B400F0014C0114010C01500124013C0138017C01300104010801140130017C01300104014C015000F800C
161
               405
310
630031703D0BD6A3719C7E4D4CCCCCCCCCEC9F8FFFF8070000C30022103C000186004D4CCCCCCCCCEC9FC5C0F42F5A8DC671FC
340
1616
340
1656
 94
        0
1001
ACAD
1000
AcRTDxfName
1000
ACMSECTIONSTANDARDANSI
1000
AcRTDxfName
1000
ACMSECTIONSTANDARDANSI
  0
ACAD_PROXY_OBJECT
  5
165F
330
1648
100
AcDbProxyObject
 90
      499
 91
      562
 95
    65563
 70
     0
162
                 0
161
               280
310
6302B8716D9CEF7C33F0A5723F0BD4A2F0FC295C8FC2F528BC3FA199999999999F99FC00
 94
        0
1001
ACAD
1000
AcRTDxfName
1000
ACMCENTERLINESTANDARDANSI
1000
AcRTDxfName
1000
ACMCENTERLINESTANDARDANSI
  0
ACAD_PROXY_OBJECT
  5
1660
330
1648
100
AcDbProxyObject
 90
      499
 91
      563
 95
    65563
 70
     0
162
                 0
161
                14
310
6324
340
0
 94
        0
1001
ACAD
1000
AcRTDxfName
1000
ACMTHREADLINESTANDARDANSI
1000
AcRTDxfName
1000
ACMTHREADLINESTANDARDANSI
  0
ACAD_PROXY_OBJECT
  5
1661
330
1648
100
AcDbProxyObject
 90
      499
 91
      564
 95
    65563
 70
     0
162
             13020
311
42950019401B401C001B0018401D00194008000C40005013D003C0069006600280065007100750061006C00280048006F006C0065003A007400610070007000650064002C0022003000220029002C00220025002500630022002C0048006F006C0065003A006E006F006D0069006E0061006C0020002200200022002000690
311
06600280065007100750061006C00280048006F006C0065003A0075006E006900740073002C0022003100220029002C002200780022002C0022002D0022002900200022002000220029003E003C0069006600280065007100750061006C00280048006F006C0065003A007400610070007000650064002C002200300022002
311
9002C0048006F006C0065003A006400690061002C0048006F006C0065003A0070006900740063006800640065007300630029003E0020007B005C00460041004D004700440054003B0078007D0020003C0069006600280065007100750061006C00280048006F006C0065003A007400650072006D0069006E0061007400690
311
06F006E002C0022003000220029002C0048006F006C0065003A00640065007000740068002C0022005400480052005500220029003E005C0050007B005C00460041004D004700440054003B0076007D002500250063003C0048006F006C0065003A00630074006400690061003E0020007B005C00460041004D00470044005
311
4003B0078007D0020003C0048006F006C0065003A0063007400640065007000740068003E0042950019401B401C001B0018401D00194008000C401FE3D003C0069006600280065007100750061006C00280048006F006C0065003A007400610070007000650064002C0022003000220029002C00220025002500630022002C
311
0048006F006C0065003A006E006F006D0069006E0061006C002000220020002200200069006600280065007100750061006C00280048006F006C0065003A0075006E006900740073002C0022003100220029002C002200780022002C0022002D0022002900200022002000220029003E003C00690066002800650071007500
311
61006C00280048006F006C0065003A007400610070007000650064002C0022003000220029002C0048006F006C0065003A006400690061002C0048006F006C0065003A0070006900740063006800640065007300630029003E0020007B005C00460041004D004700440054003B0078007D0020003C00690066002800650071
311
00750061006C00280048006F006C0065003A007400650072006D0069006E006100740069006F006E002C0022003000220029002C0048006F006C0065003A00640065007000740068002C0022005400480052005500220029003E005C0050007B005C00460041004D004700440054003B0077007D002500250063003C004800
311
6F006C0065003A00630074006400690061003E002000580020003C0048006F006C0065003A006300740061006E0067006C0065003E0025002500640042950019401B401C001B0018401D00194008000C401CF3D003C0069006600280065007100750061006C00280048006F006C0065003A007400610070007000650064002
311
C0022003000220029002C00220025002500630022002C0048006F006C0065003A006E006F006D0069006E0061006C002000220020002200200069006600280065007100750061006C00280048006F006C0065003A0075006E006900740073002C0022003100220029002C002200780022002C0022002D00220029002000220
311
02000220029003E003C0069006600280065007100750061006C00280048006F006C0065003A007400610070007000650064002C0022003000220029002C0048006F006C0065003A006400690061002C0048006F006C0065003A0070006900740063006800640065007300630029003E005C0050007B005C00460041004D004
311
700440054003B0078007D0020003C0069006600280065007100750061006C00280048006F006C0065003A007400650072006D0069006E006100740069006F006E002C0022003000220029002C0048006F006C0065003A00640065007000740068002C0022005400480052005500220029003E0042950019401B401C001B001
311
8401D00194008000C801173D003C0053005400440050003A0044004500530043003E0020003C0053005400440050003A005300540044003E0042950019401B401C001B0018401D00194008000C4010C3D003C0053005400440050003A0044004500530043003E00C
161
               640
310
631084050BA4050AA4050240501406901405034050140690140501405014069014051E4090140690140690240515AAABBA065C0F42F5A8DC5F1F9703D0BD6A3717C7F8020000C3008030000C3004410300
360
166A
330
166A
360
166B
330
166B
360
1669
330
1669
360
1668
360
1667
330
1668
330
1667
 94
        0
1001
ACAD
1000
AcRTDxfName
1000
ACMNOTESTANDARDANSI
1000
AcRTDxfName
1000
ACMNOTESTANDARDANSI
  0
ACAD_PROXY_OBJECT
  5
166C
330
1648
100
AcDbProxyObject
 90
      499
 91
      566
 95
    65563
 70
     0
162
                 0
161
                26
310
63102A8C
340
1649
 94
        0
1001
ACAD
1000
AcRTDxfName
1000
ACAMGLAYSTD
1000
AcRTDxfName
1000
ACAMGLAYSTD
  0
ACAD_PROXY_OBJECT
  5
166D
330
1648
100
AcDbProxyObject
 90
      499
 91
      567
 95
    65563
 70
     0
162
               142
311
408F000F801023C003E0040DB0018C00CC00
161
               172
310
63103000000000000380FC000000000000E03F3FFFEC
340
166E
340
0
340
0
340
166F
340
1670
340
0
340
1671
340
1672
340
1677
340
0
340
0
340
0
 94
        0
1001
ACAD
1000
AcRTDxfName
1000
ACAMGDIMSTD
1000
AcRTDxfName
1000
ACAMGDIMSTD
  0
ACAD_PROXY_OBJECT
  5
1678
330
1648
100
AcDbProxyObject
 90
      499
 91
      568
 95
    65563
 70
     0
162
             20912
311
44D300124014C01500080013C01180080010C013C013C0148011001240138010401500114014C0142470045004E0054005200410043004F002C0045004E0055002C0030002C004C0049005300540020004F004600200043004F004F005200440049004E0041005400450053002C00470045004E00540052004100540058002
311
C00250073002C002800470045004E004D00530047002000670065006E00640069006D007A00200033003000290043CF400F0011001940198018401D401B001D0015001A401D001B0019400F8010A48004F004C00450020005400410042004C0045004E51C01140138015001480104010C013C00B001140138015400B000C00
311
0B00120013C0130011400800150010401080130011400B0011C011401380150014801040150016000B0009401CC00B000A0011C011401380134014C011C0080019C019401B8019001A401B401E8008000CC00C400A4010F3D003C00440065006600610075006C0074005400690074006C0065003E004193C01480124011C01
311
2401380134470045004E0054005200410043004F002C0045004E0055002C0030002C004F0052004900470049004E002C00470045004E00540052004100540058002C00250073002C002800470045004E004D00530047002000670065006E00640069006D007A002000310029004193C01480124011C0124013801344700450
311
04E0054005200410043004F002C0045004E0055002C0030002C004F0052004900470049004E002C00470045004E00540052004100540058002C00250073002C002800470045004E004D00530047002000670065006E00640069006D007A0020003100290041120013C013001140132470045004E0054005200410043004F00
311
2C0045004E0055002C0030002C0048004F004C0045002C00470045004E00540052004100540058002C00250073002C002800470045004E004D00530047002000670065006E00640069006D007A00200032002900538F400F00124011800A00124014C0108013001040138012C00A0012001BC01B00194012401D0019401B40
311
0A400B0013C01C801A4019C01A401B800B00080012001BC01B00194012401D0019401B400A400F800F00124011800A00124014C0108013001040138012C00A0012001BC01B00194012401D0019401B400A400B00088008800B00080012001BC01B00194012401B80190019401E000A400F8010158004BD1C01140138015001
311
480104010C013C00B001140138015400B000C000B0016000B0011C011401380150014801040150016000B0009401CC00B000A0011C011401380134014C011C0080019C019401B8019001A401B401E8008000CC00A4010159004BD1C01140138015001480104010C013C00B001140138015400B000C000B0016400B0011C011
311
401380150014801040150016000B0009401CC00B000A0011C011401380134014C011C0080019C019401B8019001A401B401E8008000D000A4010152004BD1C01140138015001480104010C013C00B001140138015400B000C000B0014800B0011C011401380150014801040150016000B0009401CC00B000A0011C01140138
311
0134014C011C0080019C019401B8019001A401B401E8008000D800A401187B005C004600530059004D0042004F004C007C00420030007C00490030007C00430032007C00500030003B004A007D005191C01140138015001480104010C013C00B001140138015400B000C000B001EC01700118014C016401340108013C01300
311
1F0010800C001F0012400C001F0010C00C801F0014000C000EC012801F400B0011C011401380150014801040150016000B0009401CC00B000A0011C011401380134014C011C0080019C019401B8019001A401B401E8008000DC00A401032500250043004C51C01140138015001480104010C013C00B001140138015400B000
311
C000B000940094010C00B0011C011401380150014801040150016000B0009401CC00B000A0011C011401380134014C011C0080019C019401B8019001A401B401E8008000E000A4010B4400450053004300520049005000540049004F004E004E91C01140138015001480104010C013C00B001140138015400B000C000B0011
311
00114014C010C01480124014001500124013C013800B0011C011401380150014801040150016000B0009401CC00B000A0011C011401380134014C011C0080019C019401B8019001A401B401E8008000C800C000A401044900540045004D004CD1C01140138015001480104010C013C00B001140138015400B000C000B00124
311
01500114013400B0011C011401380150014801040150016000B0009401CC00B000A0011C011401380134014C011C0080019C019401B8019001A401B401E8008000C400D000A4010549004E004400450058004D11C01140138015001480104010C013C00B001140138015400B000C000B00124013801100114016000B0011C0
311
11401380150014801040150016000B0009401CC00B000A0011C011401380134014C011C0080019C019401B8019001A401B401E8008000C400D400A4010448004F004C0045004CD1C01140138015001480104010C013C00B001140138015400B000C000B00120013C0130011400B0011C011401380150014801040150016000
311
B0009401CC00B000A0011C011401380134014C011C0080019C019401B8019001A401B401E8008000C400D800A4010A48004F004C004500200049004E004400450058004E51C01140138015001480104010C013C00B001140138015400B000C000B00120013C0130011400800124013801100114016000B0011C01140138015
311
0014801040150016000B0009401CC00B000A0011C011401380134014C011C0080019C019401B8019001A401B401E8008000C400DC00A401035100540059004C91C01140138015001480104010C013C00B001140138015400B000C000B001440150016400B0011C011401380150014801040150016000B0009401CC00B000A0
311
011C011401380134014C011C0080019C019401B8019001A401B401E8008000C400E400A401085300540041004E0044004100520044004DD1C01140138015001480104010C013C00B001140138015400B000C000B0014C015001040138011001040148011000B0011C011401380150014801040150016000B0009401CC00B00
311
0A0011C011401380134014C011C0080019C019401B8019001A401B401E8008000C800C400A40109550053004500520020004900540045004D004E11C01140138015001480104010C013C00B001140138015400B000C000B00154014C011401480080012401500114013400B0011C011401380150014801040150016000B000
311
9401CC00B000A0011C011401380134014C011C0080019C019401B8019001A401B401E8008000C800C800A4014E3D003C004900460028004900530042004C0041004E004B00280048006F006C0065004900740065006D0029002C004F0072006900670069006E002C00200048006F006C0065004900740065006D0029003E00
311
3C004900460028004900530042004C0041004E004B00280048006F006C0065004900740065006D0029002C00220022002C00200048006F006C00650049006E0064006500780029003E00CC
161
              6854
310
631211A3FFFFFFFD010300002E07A17AD46E2F8FE00800030C01010300002E07A17AD46E2F8FE00800030C0004078000C000000000000000000000000000000007B14AE47E17AA43F2E07A17AD46E2F8FE00800030C007B14AE47E17AA43F2E07A17AD46E2F8FE00800030C02010101E000300000000000000000000000000
310
0000001EC52B91F85EA90FCB81E85EB51B8BE3F8020000C3001EC52B91F85EA90FCB81E85EB51B8BE3F8020000C3008050E4410F4450240D0441507431014391244D154151241D144310D4400004040004041000885000080800080820010FA00010101010104002234000202000202000040A8000404000404000081D0000
310
808000808000104A000101000101030020B4000202000202020041E800040400040010008650000808000808280501A0001010001010500A1D4000202000202080044A8000404000404140089D0000808000808300114A000101000100040021B40002020002020A004569100067FFFFFFF801353333333333D27F3FFFFFFF
310
C0C9A9999999999E93F9FFFFFFFE024D4CCCCCCCCCF49FCFFFFFFFF0126A6666666667A4FE7FFFFFFF811353333333333D27F3FFFFFFFC089A9999999999E93F9FFFFFFFE06CFFFFFFFF03000000000000001027FFFFFFF801353333333333B27F3FFFFFFFC009A9999999999E93F9FFFFFFFE004D4CCCCCCCCCF49FCFFFFF
310
FFF0026A6666666667A4FE7FFFFFFF819703D0BD6A371BC7F3FFFFFFFC0C67666666666606409FFFFFFFE004D4CCCCCCCCCF49FCFFFFFFFF440019FFFFFFFE004D4CCCCCCCCCF49FCFFFFFFFF0326A6666666667A4FE7FFFFFFF819353333333333D27F3FFFFFFFC0C9A9999999999E93F9FFFFFFFE064D4CCCCCCCCCF49FC
310
FFFFFFFF0326A6666666667A4FE7FFFFFFF81B3FFFFFFFC0C00000000000000409FFFFFFFE004D4CCCCCCCCCEC9FCFFFFFFFF0026A6666666667A4FE7FFFFFFF819353333333333D27F3FFFFFFFC009A9999999999E93F9FFFFFFFE065C0F42F5A8DC6F1FCFFFFFFFF0319D999999999819027FFFFFFF801353333333333D2
310
7F3FFFFFFFD044400000010F000000448000001130000004110700010044800000103000100408000400FFFFFFFF4090100014111000000043C0000011200000044C0000010300004111000000043C00000112000000454000000FFFFFFFF8
340
0
340
0
340
0
340
0
340
1656
340
1656
 94
        0
1001
ACAD
1000
AcRTDxfName
1000
ACAMGHOLECHARTSTDANSI
1000
AcRTDxfName
1000
ACAMGHOLECHARTSTDANSI
  0
ACAD_PROXY_OBJECT
  5
1679
330
1648
100
AcDbProxyObject
 90
      499
 91
      569
 95
    65563
 70
     0
162
             10564
311
411040138014C0124010641004E00530049005F004300429040138014C0124017C0150012401500154014C011541004E00530049005F00540052005F005200650076006900730069006F006E006C0069007300740061004450C008000A000C400DC00B800C001E000C800C800B800C001A401B8018C01A000A4010641004E0
311
0530049005F00430044518008000A000C800E000B800C001E000D000C000B800C001A401B8018C01A000A4010641004E00530049005F00460044508008000A000C400C400B800C001E000C400DC00B800C001A401B8018C01A000A4010641004E00530049005F00420044510008000A000C800C800B800C001E000CC00D000
311
B800C001A401B8018C01A000A4010641004E00530049005F00440044514008000A000CC00D000B800C001E000D000D000B800C001A401B8018C01A000A4010641004E00530049005F00450044104008000A000E000B800D401E000C400C400B800C001A401B8018C01A000A4010641004E00530049005F00410043954014C0
311
080015001A401D001B001940080010801B001BC018C01AC010A41004E00530049005F005400490054005500530044D0401B801CC01A40080015001A401D001B001940080010801B001BC018C01AC00800110010C010C41004E00530049005F005400490054004C004500440043004490401B801CC01A40080015001A401D00
311
1B001940080010801B001BC018C01AC00800104010B41004E00530049005F005400490054004C004500410044D0401B801CC01A40080015001A401D001B001940080010801B001BC018C01AC00800104010C010C41004E00530049005F005400490054004C004500410043004490401B801CC01A40080015001A401D001B00
311
1940080010801B001BC018C01AC00800110010B41004E00530049005F005400490054004C004500440044948019401D801A401CC01A401BC01B801B001A401CC01D000800104017C01080148017C011541004E00530049005F00420052005F005200650076006900730069006F006E006C0069007300740061004494801940
311
1D801A401CC01A401BC01B801B001A401CC01D000800104017C01500148017C011541004E00530049005F00540052005F005200650076006900730069006F006E006C00690073007400610044948019401D801A401CC01A401BC01B801B001A401CC01D000800110017C01080148017C011541004E00530049005F00420052
311
005F005200650076006900730069006F006E006C00690073007400640044948019401D801A401CC01A401BC01B801B001A401CC01D000800110017C01500148017C011541004E00530049005F00540052005F005200650076006900730069006F006E006C00690073007400640044948019401D801A401CC01A401BC01B801
311
B001A401CC01D000800104017C01080130017C011541004E00530049005F0042004C005F005200650076006900730069006F006E006C00690073007400610044948019401D801A401CC01A401BC01B801B001A401CC01D000800104017C01500130017C011541004E00530049005F0054004C005F005200650076006900730
311
069006F006E006C00690073007400610044948019401D801A401CC01A401BC01B801B001A401CC01D000800110017C01080130017C011541004E00530049005F0042004C005F005200650076006900730069006F006E006C00690073007400640044948019401D801A401CC01A401BC01B801B001A401CC01D000800110017
311
C01500130017C011541004E00530049005F0054004C005F005200650076006900730069006F006E006C006900730074006400C
161
                50
310
6319741905420C
 94
        0
1001
ACAD
1000
AcRTDxfName
1000
ACAMGTITLESTD
1000
AcRTDxfName
1000
ACAMGTITLESTD
  0
ACAD_PROXY_OBJECT
  5
208A
330
1648
100
AcDbProxyObject
 90
      499
 91
      575
 95
    65563
 70
     0
162
                 0
161
                66
310
6310B40501406AAA8C
 94
        0
  0
ACAD_PROXY_OBJECT
  5
166A
330
0
100
AcDbProxyObject
 90
      499
 91
      565
 95
    65563
 70
     0
162
              4364
311
42950019401B401C001B0018401D00194008000C40005013D003C0069006600280065007100750061006C00280048006F006C0065003A007400610070007000650064002C0022003000220029002C00220025002500630022002C0048006F006C0065003A006E006F006D0069006E0061006C0020002200200022002000690
311
06600280065007100750061006C00280048006F006C0065003A0075006E006900740073002C0022003100220029002C002200780022002C0022002D0022002900200022002000220029003E003C0069006600280065007100750061006C00280048006F006C0065003A007400610070007000650064002C002200300022002
311
9002C0048006F006C0065003A006400690061002C0048006F006C0065003A0070006900740063006800640065007300630029003E0020007B005C00460041004D004700440054003B0078007D0020003C0069006600280065007100750061006C00280048006F006C0065003A007400650072006D0069006E0061007400690
311
06F006E002C0022003000220029002C0048006F006C0065003A00640065007000740068002C0022005400480052005500220029003E005C0050007B005C00460041004D004700440054003B0076007D002500250063003C0048006F006C0065003A00630074006400690061003E0020007B005C00460041004D00470044005
311
4003B0078007D0020003C0048006F006C0065003A0063007400640065007000740068003E00C
161
                28
310
6320101C
 94
        0
1001
ACAD
1000
AcRTDxfName
1000
AMDTNOTETEMPLATEDB
1000
AcRTDxfName
1000
AMDTNOTETEMPLATEDB
  0
ACAD_PROXY_OBJECT
  5
166B
330
0
100
AcDbProxyObject
 90
      499
 91
      565
 95
    65563
 70
     0
162
              4244
311
42950019401B401C001B0018401D00194008000C401FE3D003C0069006600280065007100750061006C00280048006F006C0065003A007400610070007000650064002C0022003000220029002C00220025002500630022002C0048006F006C0065003A006E006F006D0069006E0061006C002000220020002200200069006
311
600280065007100750061006C00280048006F006C0065003A0075006E006900740073002C0022003100220029002C002200780022002C0022002D0022002900200022002000220029003E003C0069006600280065007100750061006C00280048006F006C0065003A007400610070007000650064002C00220030002200290
311
02C0048006F006C0065003A006400690061002C0048006F006C0065003A0070006900740063006800640065007300630029003E0020007B005C00460041004D004700440054003B0078007D0020003C0069006600280065007100750061006C00280048006F006C0065003A007400650072006D0069006E006100740069006
311
F006E002C0022003000220029002C0048006F006C0065003A00640065007000740068002C0022005400480052005500220029003E005C0050007B005C00460041004D004700440054003B0077007D002500250063003C0048006F006C0065003A00630074006400690061003E002000580020003C0048006F006C0065003A0
311
06300740061006E0067006C0065003E00250025006400C
161
                28
310
6320101C
 94
        0
1001
ACAD
1000
AcRTDxfName
1000
AMDTNOTETEMPLATEDB
1000
AcRTDxfName
1000
AMDTNOTETEMPLATEDB
  0
ACAD_PROXY_OBJECT
  5
1669
330
0
100
AcDbProxyObject
 90
      499
 91
      565
 95
    65563
 70
     0
162
              3492
311
42950019401B401C001B0018401D00194008000C401CF3D003C0069006600280065007100750061006C00280048006F006C0065003A007400610070007000650064002C0022003000220029002C00220025002500630022002C0048006F006C0065003A006E006F006D0069006E0061006C002000220020002200200069006
311
600280065007100750061006C00280048006F006C0065003A0075006E006900740073002C0022003100220029002C002200780022002C0022002D0022002900200022002000220029003E003C0069006600280065007100750061006C00280048006F006C0065003A007400610070007000650064002C00220030002200290
311
02C0048006F006C0065003A006400690061002C0048006F006C0065003A0070006900740063006800640065007300630029003E005C0050007B005C00460041004D004700440054003B0078007D0020003C0069006600280065007100750061006C00280048006F006C0065003A007400650072006D0069006E00610074006
311
9006F006E002C0022003000220029002C0048006F006C0065003A00640065007000740068002C0022005400480052005500220029003E00C
161
                28
310
6320101C
 94
        0
1001
ACAD
1000
AcRTDxfName
1000
AMDTNOTETEMPLATEDB
1000
AcRTDxfName
1000
AMDTNOTETEMPLATEDB
  0
ACAD_PROXY_OBJECT
  5
1668
330
0
100
AcDbProxyObject
 90
      499
 91
      565
 95
    65563
 70
     0
162
               548
311
42950019401B401C001B0018401D00194008000C801173D003C0053005400440050003A0044004500530043003E0020003C0053005400440050003A005300540044003E00C
161
                28
310
6320101C
 94
        0
1001
ACAD
1000
AcRTDxfName
1000
AMDTNOTETEMPLATEDB
1000
AcRTDxfName
1000
AMDTNOTETEMPLATEDB
  0
ACAD_PROXY_OBJECT
  5
1667
330
0
100
AcDbProxyObject
 90
      499
 91
      565
 95
    65563
 70
     0
162
               372
311
42950019401B401C001B0018401D00194008000C4010C3D003C0053005400440050003A0044004500530043003E00C
161
                28
310
6320101C
 94
        0
1001
ACAD
1000
AcRTDxfName
1000
AMDTNOTETEMPLATEDB
1000
AcRTDxfName
1000
AMDTNOTETEMPLATEDB
  0
ENDSEC
  0
EOF
