  0
SECTION
  2
HEADER
  9
$ACADVER
  1
AC1024
  9
$ACADMAINTVER
 70
    37
  9
$DWGCODEPAGE
  3
ANSI_1252
  9
$TITLE
  1
ENCLOSURE
  9
$AUTHOR
  1
ENTEGEE
  9
$LASTSAVEDBY
  1
jtigges
  9
$CUSTOMPROPERTYTAG
  1
Manager
  9
$CUSTOMPROPERTY
  1

  9
$CUSTOMPROPERTYTAG
  1
Company
  9
$CUSTOMPROPERTY
  1
STALIN ENCLOSURES
  9
$CUSTOMPROPERTYTAG
  1
Category
  9
$CUSTOMPROPERTY
  1

  9
$CUSTOMPROPERTYTAG
  1
Part Number
  9
$CUSTOMPROPERTY
  1
BP3648CS
  9
$CUSTOMPROPERTYTAG
  1
Description
  9
$CUSTOMPROPERTY
  1

  9
$CUSTOMPROPERTYTAG
  1
Project
  9
$CUSTOMPROPERTY
  1

  9
$CUSTOMPROPERTYTAG
  1
Designer
  9
$CUSTOMPROPERTY
  1
rginster
  9
$CUSTOMPROPERTYTAG
  1
Engineer
  9
$CUSTOMPROPERTY
  1

  9
$CUSTOMPROPERTYTAG
  1
Authority
  9
$CUSTOMPROPERTY
  1

  9
$CUSTOMPROPERTYTAG
  1
Cost Center
  9
$CUSTOMPROPERTY
  1

  9
$CUSTOMPROPERTYTAG
  1
Vendor
  9
$CUSTOMPROPERTY
  1

  9
$CUSTOMPROPERTYTAG
  1
User Status
  9
$CUSTOMPROPERTY
  1

  9
$CUSTOMPROPERTYTAG
  1
Design Status
  9
$CUSTOMPROPERTY
  1
WorkInProgress
  9
$CUSTOMPROPERTYTAG
  1
Checked by
  9
$CUSTOMPROPERTY
  1

  9
$CUSTOMPROPERTYTAG
  1
Engr Approved by
  9
$CUSTOMPROPERTY
  1

  9
$CUSTOMPROPERTYTAG
  1
Mfg Approved by
  9
$CUSTOMPROPERTY
  1

  9
$INSBASE
 10
0.0
 20
0.0
 30
0.0
  9
$EXTMIN
 10
0.3901370358538543
 20
2.394165246740669
 30
-0.0015258207003583
  9
$EXTMAX
 10
135.6098635974455
 20
85.60583516304133
 30
0.0000000349246037
  9
$LIMMIN
 10
0.0
 20
0.0
  9
$LIMMAX
 10
136.0
 20
88.0
  9
$ORTHOMODE
 70
     0
  9
$REGENMODE
 70
     1
  9
$FILLMODE
 70
     1
  9
$QTEXTMODE
 70
     0
  9
$MIRRTEXT
 70
     0
  9
$LTSCALE
 40
4.0
  9
$ATTMODE
 70
     1
  9
$TEXTSIZE
 40
0.2
  9
$TRACEWID
 40
0.05
  9
$TEXTSTYLE
  7
Standard
  9
$CLAYER
  8
0
  9
$CELTYPE
  6
ByLayer
  9
$CECOLOR
 62
   256
  9
$CELTSCALE
 40
1.0
  9
$DISPSILH
 70
     0
  9
$DIMSCALE
 40
1.0
  9
$DIMASZ
 40
0.0708661417322835
  9
$DIMEXO
 40
0.0625
  9
$DIMDLI
 40
0.38
  9
$DIMRND
 40
0.0
  9
$DIMDLE
 40
0.0
  9
$DIMEXE
 40
0.18
  9
$DIMTP
 40
0.0
  9
$DIMTM
 40
0.0
  9
$DIMTXT
 40
0.3048000037670135
  9
$DIMCEN
 40
0.09
  9
$DIMTSZ
 40
0.0
  9
$DIMTOL
 70
     0
  9
$DIMLIM
 70
     0
  9
$DIMTIH
 70
     1
  9
$DIMTOH
 70
     1
  9
$DIMSE1
 70
     0
  9
$DIMSE2
 70
     0
  9
$DIMTAD
 70
     0
  9
$DIMZIN
 70
     0
  9
$DIMBLK
  1

  9
$DIMASO
 70
     1
  9
$DIMSHO
 70
     1
  9
$DIMPOST
  1

  9
$DIMAPOST
  1

  9
$DIMALT
 70
     0
  9
$DIMALTD
 70
     2
  9
$DIMALTF
 40
25.4
  9
$DIMLFAC
 40
1.0
  9
$DIMTOFL
 70
     0
  9
$DIMTVP
 40
0.0
  9
$DIMTIX
 70
     0
  9
$DIMSOXD
 70
     0
  9
$DIMSAH
 70
     0
  9
$DIMBLK1
  1

  9
$DIMBLK2
  1

  9
$DIMSTYLE
  2
Standard
  9
$DIMCLRD
 70
     0
  9
$DIMCLRE
 70
     0
  9
$DIMCLRT
 70
     0
  9
$DIMTFAC
 40
1.0
  9
$DIMGAP
 40
0.09
  9
$DIMJUST
 70
     0
  9
$DIMSD1
 70
     0
  9
$DIMSD2
 70
     0
  9
$DIMTOLJ
 70
     1
  9
$DIMTZIN
 70
     0
  9
$DIMALTZ
 70
     0
  9
$DIMALTTZ
 70
     0
  9
$DIMUPT
 70
     0
  9
$DIMDEC
 70
     4
  9
$DIMTDEC
 70
     4
  9
$DIMALTU
 70
     2
  9
$DIMALTTD
 70
     2
  9
$DIMTXSTY
  7
Standard
  9
$DIMAUNIT
 70
     0
  9
$DIMADEC
 70
     0
  9
$DIMALTRND
 40
0.0
  9
$DIMAZIN
 70
     0
  9
$DIMDSEP
 70
    46
  9
$DIMATFIT
 70
     3
  9
$DIMFRAC
 70
     0
  9
$DIMLDRBLK
  1

  9
$DIMLUNIT
 70
     2
  9
$DIMLWD
 70
    -2
  9
$DIMLWE
 70
    -2
  9
$DIMTMOVE
 70
     0
  9
$DIMFXL
 40
1.0
  9
$DIMFXLON
 70
     0
  9
$DIMJOGANG
 40
0.7853981633974483
  9
$DIMTFILL
 70
     0
  9
$DIMTFILLCLR
 70
     0
  9
$DIMARCSYM
 70
     0
  9
$DIMLTYPE
  6

  9
$DIMLTEX1
  6

  9
$DIMLTEX2
  6

  9
$DIMTXTDIRECTION
 70
     0
  9
$LUNITS
 70
     2
  9
$LUPREC
 70
     4
  9
$SKETCHINC
 40
0.1
  9
$FILLETRAD
 40
0.0
  9
$AUNITS
 70
     0
  9
$AUPREC
 70
     0
  9
$MENU
  1
.
  9
$ELEVATION
 40
0.0
  9
$PELEVATION
 40
0.0
  9
$THICKNESS
 40
0.0
  9
$LIMCHECK
 70
     0
  9
$CHAMFERA
 40
0.0
  9
$CHAMFERB
 40
0.0
  9
$CHAMFERC
 40
0.0
  9
$CHAMFERD
 40
0.0
  9
$SKPOLY
 70
     0
  9
$TDCREATE
 40
2454495.608154711
  9
$TDUCREATE
 40
2454495.858154711
  9
$TDUPDATE
 40
2456722.302232130
  9
$TDUUPDATE
 40
2456722.552232130
  9
$TDINDWG
 40
0.0001362153
  9
$TDUSRTIMER
 40
0.0001362153
  9
$USRTIMER
 70
     1
  9
$ANGBASE
 50
0.0
  9
$ANGDIR
 70
     0
  9
$PDMODE
 70
     0
  9
$PDSIZE
 40
0.0
  9
$PLINEWID
 40
0.0
  9
$SPLFRAME
 70
     0
  9
$SPLINETYPE
 70
     6
  9
$SPLINESEGS
 70
     8
  9
$HANDSEED
  5
A5A
  9
$SURFTAB1
 70
     6
  9
$SURFTAB2
 70
     6
  9
$SURFTYPE
 70
     6
  9
$SURFU
 70
     6
  9
$SURFV
 70
     6
  9
$UCSBASE
  2

  9
$UCSNAME
  2

  9
$UCSORG
 10
0.0
 20
0.0
 30
0.0
  9
$UCSXDIR
 10
1.0
 20
0.0
 30
0.0
  9
$UCSYDIR
 10
0.0
 20
1.0
 30
0.0
  9
$UCSORTHOREF
  2

  9
$UCSORTHOVIEW
 70
     0
  9
$UCSORGTOP
 10
0.0
 20
0.0
 30
0.0
  9
$UCSORGBOTTOM
 10
0.0
 20
0.0
 30
0.0
  9
$UCSORGLEFT
 10
0.0
 20
0.0
 30
0.0
  9
$UCSORGRIGHT
 10
0.0
 20
0.0
 30
0.0
  9
$UCSORGFRONT
 10
0.0
 20
0.0
 30
0.0
  9
$UCSORGBACK
 10
0.0
 20
0.0
 30
0.0
  9
$PUCSBASE
  2

  9
$PUCSNAME
  2

  9
$PUCSORG
 10
0.0
 20
0.0
 30
0.0
  9
$PUCSXDIR
 10
1.0
 20
0.0
 30
0.0
  9
$PUCSYDIR
 10
0.0
 20
1.0
 30
0.0
  9
$PUCSORTHOREF
  2

  9
$PUCSORTHOVIEW
 70
     0
  9
$PUCSORGTOP
 10
0.0
 20
0.0
 30
0.0
  9
$PUCSORGBOTTOM
 10
0.0
 20
0.0
 30
0.0
  9
$PUCSORGLEFT
 10
0.0
 20
0.0
 30
0.0
  9
$PUCSORGRIGHT
 10
0.0
 20
0.0
 30
0.0
  9
$PUCSORGFRONT
 10
0.0
 20
0.0
 30
0.0
  9
$PUCSORGBACK
 10
0.0
 20
0.0
 30
0.0
  9
$USERI1
 70
     0
  9
$USERI2
 70
     0
  9
$USERI3
 70
     0
  9
$USERI4
 70
     0
  9
$USERI5
 70
     0
  9
$USERR1
 40
0.0
  9
$USERR2
 40
0.0
  9
$USERR3
 40
0.0
  9
$USERR4
 40
0.0
  9
$USERR5
 40
0.0
  9
$WORLDVIEW
 70
     1
  9
$SHADEDGE
 70
     3
  9
$SHADEDIF
 70
    70
  9
$TILEMODE
 70
     1
  9
$MAXACTVP
 70
    64
  9
$PINSBASE
 10
0.0
 20
0.0
 30
0.0
  9
$PLIMCHECK
 70
     0
  9
$PEXTMIN
 10
0.0
 20
0.0
 30
0.0
  9
$PEXTMAX
 10
136.0
 20
88.0
 30
0.0
  9
$PLIMMIN
 10
0.0
 20
0.0
  9
$PLIMMAX
 10
136.0
 20
88.0
  9
$UNITMODE
 70
     0
  9
$VISRETAIN
 70
     1
  9
$PLINEGEN
 70
     0
  9
$PSLTSCALE
 70
     1
  9
$TREEDEPTH
 70
  3020
  9
$CMLSTYLE
  2
Standard
  9
$CMLJUST
 70
     0
  9
$CMLSCALE
 40
1.0
  9
$PROXYGRAPHICS
 70
     1
  9
$MEASUREMENT
 70
     0
  9
$CELWEIGHT
370
    -1
  9
$ENDCAPS
280
     0
  9
$JOINSTYLE
280
     0
  9
$LWDISPLAY
290
     0
  9
$INSUNITS
 70
     0
  9
$HYPERLINKBASE
  1

  9
$STYLESHEET
  1

  9
$XEDIT
290
     1
  9
$CEPSNTYPE
380
     0
  9
$PSTYLEMODE
290
     1
  9
$FINGERPRINTGUID
  2
{F7DA665F-8D80-4231-BD93-37E292DBCA4B}
  9
$VERSIONGUID
  2
{968BE769-B181-426F-9CEF-130A4DEA4345}
  9
$EXTNAMES
290
     1
  9
$PSVPSCALE
 40
0.0
  9
$OLESTARTUP
290
     0
  9
$SORTENTS
280
   127
  9
$INDEXCTL
280
     0
  9
$HIDETEXT
280
     1
  9
$XCLIPFRAME
280
     0
  9
$HALOGAP
280
     0
  9
$OBSCOLOR
 70
   257
  9
$OBSLTYPE
280
     0
  9
$INTERSECTIONDISPLAY
280
     0
  9
$INTERSECTIONCOLOR
 70
   257
  9
$DIMASSOC
280
     1
  9
$PROJECTNAME
  1

  9
$CAMERADISPLAY
290
     0
  9
$LENSLENGTH
 40
50.0
  9
$CAMERAHEIGHT
 40
0.0
  9
$STEPSPERSEC
 40
2.0
  9
$STEPSIZE
 40
6.0
  9
$3DDWFPREC
 40
2.0
  9
$PSOLWIDTH
 40
0.25
  9
$PSOLHEIGHT
 40
4.0
  9
$LOFTANG1
 40
1.570796326794896
  9
$LOFTANG2
 40
1.570796326794896
  9
$LOFTMAG1
 40
0.0
  9
$LOFTMAG2
 40
0.0
  9
$LOFTPARAM
 70
     7
  9
$LOFTNORMALS
280
     1
  9
$LATITUDE
 40
37.795
  9
$LONGITUDE
 40
-122.394
  9
$NORTHDIRECTION
 40
0.0
  9
$TIMEZONE
 70
 -8000
  9
$LIGHTGLYPHDISPLAY
280
     1
  9
$TILEMODELIGHTSYNCH
280
     1
  9
$CMATERIAL
347
11
  9
$SOLIDHIST
280
     1
  9
$SHOWHIST
280
     1
  9
$DWFFRAME
280
     2
  9
$DGNFRAME
280
     0
  9
$REALWORLDSCALE
290
     1
  9
$INTERFERECOLOR
 62
     1
  9
$INTERFEREOBJVS
345
1E
  9
$INTERFEREVPVS
346
A29
  9
$CSHADOW
280
     0
  9
$SHADOWPLANELOCATION
 40
0.0
  0
ENDSEC
  0
SECTION
  2
CLASSES
  0
CLASS
  1
ACDBDICTIONARYWDFLT
  2
AcDbDictionaryWithDefault
  3
ObjectDBX Classes
 90
        0
 91
        1
280
     0
281
     0
  0
CLASS
  1
MATERIAL
  2
AcDbMaterial
  3
ObjectDBX Classes
 90
     1153
 91
        3
280
     0
281
     0
  0
CLASS
  1
VISUALSTYLE
  2
AcDbVisualStyle
  3
ObjectDBX Classes
 90
     4095
 91
       26
280
     0
281
     0
  0
CLASS
  1
TABLESTYLE
  2
AcDbTableStyle
  3
ObjectDBX Classes
 90
     4095
 91
        1
280
     0
281
     0
  0
CLASS
  1
DICTIONARYVAR
  2
AcDbDictionaryVar
  3
ObjectDBX Classes
 90
        0
 91
        7
280
     0
281
     0
  0
CLASS
  1
SCALE
  2
AcDbScale
  3
ObjectDBX Classes
 90
     1153
 91
       17
280
     0
281
     0
  0
CLASS
  1
MLEADERSTYLE
  2
AcDbMLeaderStyle
  3
ACDB_MLEADERSTYLE_CLASS
 90
     4095
 91
        1
280
     0
281
     0
  0
CLASS
  1
CELLSTYLEMAP
  2
AcDbCellStyleMap
  3
ObjectDBX Classes
 90
     1152
 91
        1
280
     0
281
     0
  0
ENDSEC
  0
SECTION
  2
TABLES
  0
TABLE
  2
VPORT
  5
8
102
{ACAD_XDICTIONARY
360
A08
102
}
330
0
100
AcDbSymbolTable
 70
     1
  0
VPORT
  5
28
330
8
100
AcDbSymbolTableRecord
100
AcDbViewportTableRecord
  2
*Active
 70
     0
 10
0.0
 20
0.0
 11
1.0
 21
1.0
 12
68.00000031664968
 22
44.00000020489098
 13
0.0
 23
0.0
 14
1.0
 24
1.0
 15
0.0
 25
0.0
 16
0.0
 26
0.0
 36
1.0
 17
0.0
 27
0.0
 37
0.0
 40
83.77581683098743
 41
2.16628959276018
 42
50.0
 43
0.0
 44
0.0
 50
0.0
 51
0.0
 71
     0
 72
   100
 73
     1
 74
     1
 75
     0
 76
     0
 77
     0
 78
     0
281
     0
 65
     1
110
0.0
120
0.0
130
0.0
111
1.0
121
0.0
131
0.0
112
0.0
122
1.0
132
0.0
 79
     0
146
0.0
348
1A
 60
     3
 61
     5
292
     1
282
     1
141
0.0
142
0.0
 63
   250
421
  3355443
  0
ENDTAB
  0
TABLE
  2
LTYPE
  5
5
330
0
100
AcDbSymbolTable
 70
    59
  0
LTYPE
  5
29
330
5
100
AcDbSymbolTableRecord
100
AcDbLinetypeTableRecord
  2
ByBlock
 70
     0
  3

 72
    65
 73
     0
 40
0.0
  0
LTYPE
  5
2A
330
5
100
AcDbSymbolTableRecord
100
AcDbLinetypeTableRecord
  2
ByLayer
 70
     0
  3

 72
    65
 73
     0
 40
0.0
  0
LTYPE
  5
2B
330
5
100
AcDbSymbolTableRecord
100
AcDbLinetypeTableRecord
  2
Continuous
 70
     0
  3
Solid line
 72
    65
 73
     0
 40
0.0
  0
LTYPE
  5
40
330
5
100
AcDbSymbolTableRecord
100
AcDbLinetypeTableRecord
  2
BY_STANDARD
 70
     0
  3
By Standard ____________    ____    ____   _
 72
    65
 73
     6
 40
1.240299999999999
 49
0.6614
 74
     0
 49
-0.0827
 74
     0
 49
0.1654
 74
     0
 49
-0.0827
 74
     0
 49
0.1654
 74
     0
 49
-0.0827
 74
     0
  0
LTYPE
  5
41
330
5
100
AcDbSymbolTableRecord
100
AcDbLinetypeTableRecord
  2
CHAIN
 70
     0
  3
Chain ____ _ ____ _ ____ _ ____ _ ____ _ ____
 72
    65
 73
     4
 40
0.7087
 49
0.4724000000000001
 74
     0
 49
-0.0591
 74
     0
 49
0.1181
 74
     0
 49
-0.0591
 74
     0
  0
LTYPE
  5
42
330
5
100
AcDbSymbolTableRecord
100
AcDbLinetypeTableRecord
  2
DASH_DOT
 70
     0
  3
Dash dot __ . __ . __ . __ . __ . __ . __ . __
 72
    65
 73
     4
 40
0.37
 49
0.24
 74
     0
 49
-0.06
 74
     0
 49
0.01
 74
     0
 49
-0.06
 74
     0
  0
LTYPE
  5
43
330
5
100
AcDbSymbolTableRecord
100
AcDbLinetypeTableRecord
  2
DOUBLE_DASH_DOT
 70
     0
  3
Double-Dash Dot __ __ . __ __ . __ __ . __ _
 72
    65
 73
     6
 40
0.4398
 49
0.24
 74
     0
 49
-0.06
 74
     0
 49
0.0098
 74
     0
 49
-0.06
 74
     0
 49
0.01
 74
     0
 49
-0.06
 74
     0
  0
LTYPE
  5
44
330
5
100
AcDbSymbolTableRecord
100
AcDbLinetypeTableRecord
  2
DASH_TRIPLE_DOT
 70
     0
  3
Dash Triple-Dot _ . . . _ . . . _ . . . _
 72
    65
 73
     8
 40
0.51
 49
0.24
 74
     0
 49
-0.06
 74
     0
 49
0.01
 74
     0
 49
-0.06
 74
     0
 49
0.01
 74
     0
 49
-0.06
 74
     0
 49
0.01
 74
     0
 49
-0.06
 74
     0
  0
LTYPE
  5
45
330
5
100
AcDbSymbolTableRecord
100
AcDbLinetypeTableRecord
  2
DASHED
 70
     0
  3
Dashed __ __ __ __ __ __ __ __ __ __ __ __ __ _
 72
    65
 73
     2
 40
0.2067
 49
0.1654
 74
     0
 49
-0.0413
 74
     0
  0
LTYPE
  5
46
330
5
100
AcDbSymbolTableRecord
100
AcDbLinetypeTableRecord
  2
DASH_DOUBLE_DOT
 70
     0
  3
Dash Double-Dot __ . . __ . . __ . . __ . .
 72
    65
 73
     6
 40
0.4398
 49
0.24
 74
     0
 49
-0.06
 74
     0
 49
0.0098
 74
     0
 49
-0.06
 74
     0
 49
0.01
 74
     0
 49
-0.06
 74
     0
  0
LTYPE
  5
47
330
5
100
AcDbSymbolTableRecord
100
AcDbLinetypeTableRecord
  2
DASHED_SPACE
 70
     0
  3
Dashed Space __ __ __ __ __ __ __ __ __ __ __ _
 72
    65
 73
     2
 40
0.2067
 49
0.1654
 74
     0
 49
-0.0413
 74
     0
  0
LTYPE
  5
48
330
5
100
AcDbSymbolTableRecord
100
AcDbLinetypeTableRecord
  2
DOTTED
 70
     0
  3
Dotted . . . . . . . . . . . . . . . . . . . . 
 72
    65
 73
     2
 40
0.0482
 49
0.0069
 74
     0
 49
-0.0413
 74
     0
  0
LTYPE
  5
49
330
5
100
AcDbSymbolTableRecord
100
AcDbLinetypeTableRecord
  2
DOUBLE_DASH_CHAIN
 70
     0
  3
Double-Dash Chain ______  __  __  ______  __  _
 72
    65
 73
     6
 40
1.240299999999999
 49
0.6614
 74
     0
 49
-0.0827
 74
     0
 49
0.1654
 74
     0
 49
-0.0827
 74
     0
 49
0.1654
 74
     0
 49
-0.0827
 74
     0
  0
LTYPE
  5
4B
330
5
100
AcDbSymbolTableRecord
100
AcDbLinetypeTableRecord
  2
DOUBLE_DASH_DOUBLE_DOT
 70
     0
  3
Double-Dash Double-dot _ _ . . _ _ . . _
 72
    65
 73
     8
 40
0.7400000000000001
 49
0.24
 74
     0
 49
-0.06
 74
     0
 49
0.24
 74
     0
 49
-0.06
 74
     0
 49
0.01
 74
     0
 49
-0.06
 74
     0
 49
0.01
 74
     0
 49
-0.06
 74
     0
  0
LTYPE
  5
4C
330
5
100
AcDbSymbolTableRecord
100
AcDbLinetypeTableRecord
  2
DOUBLE_DASH_TRIPLE_DOT
 70
     0
  3
Double Dash Triple Dot __ __ . . . __ __ . .
 72
    65
 73
    10
 40
0.8100000000000001
 49
0.24
 74
     0
 49
-0.06
 74
     0
 49
0.24
 74
     0
 49
-0.06
 74
     0
 49
0.01
 74
     0
 49
-0.06
 74
     0
 49
0.01
 74
     0
 49
-0.06
 74
     0
 49
0.01
 74
     0
 49
-0.06
 74
     0
  0
LTYPE
  5
4D
330
5
100
AcDbSymbolTableRecord
100
AcDbLinetypeTableRecord
  2
LONG_DASH_DOTTED
 70
     0
  3
Long Dash Dotted ____ . ____ . ____ . ____ . _
 72
    65
 73
     4
 40
0.3543
 49
0.2362
 74
     0
 49
-0.0295
 74
     0
 49
0.0591
 74
     0
 49
-0.0295
 74
     0
  0
LTYPE
  5
4E
330
5
100
AcDbSymbolTableRecord
100
AcDbLinetypeTableRecord
  2
LONG_DASH_DOUBLE_DOT
 70
     0
  3
Long Dash Double Dot ________  .  .  ________  
 72
    65
 73
     6
 40
0.6799999999999999
 49
0.48
 74
     0
 49
-0.06
 74
     0
 49
0.01
 74
     0
 49
-0.06
 74
     0
 49
0.01
 74
     0
 49
-0.06
 74
     0
  0
LTYPE
  5
4F
330
5
100
AcDbSymbolTableRecord
100
AcDbLinetypeTableRecord
  2
LONG_DASH_TRIPLE_DOT
 70
     0
  3
Long Dash Triple Dot ____ ... ____ ... ____
 72
    65
 73
     8
 40
0.3689
 49
0.2362
 74
     0
 49
-0.0295
 74
     0
 49
0.0049
 74
     0
 49
-0.0295
 74
     0
 49
0.0049
 74
     0
 49
-0.0295
 74
     0
 49
0.0049
 74
     0
 49
-0.0295
 74
     0
  0
LTYPE
  5
50
330
5
100
AcDbSymbolTableRecord
100
AcDbLinetypeTableRecord
  2
BORDER
 70
     0
  3
Border __ __ . __ __ . __ __ . __ __ . __ __ .
 72
    65
 73
     6
 40
1.75
 49
0.5
 74
     0
 49
-0.25
 74
     0
 49
0.5
 74
     0
 49
-0.25
 74
     0
 49
0.0
 74
     0
 49
-0.25
 74
     0
  0
LTYPE
  5
51
330
5
100
AcDbSymbolTableRecord
100
AcDbLinetypeTableRecord
  2
BORDER2
 70
     0
  3
Border (.5x) __.__.__.__.__.__.__.__.__.__.__.
 72
    65
 73
     6
 40
0.875
 49
0.25
 74
     0
 49
-0.125
 74
     0
 49
0.25
 74
     0
 49
-0.125
 74
     0
 49
0.0
 74
     0
 49
-0.125
 74
     0
  0
LTYPE
  5
52
330
5
100
AcDbSymbolTableRecord
100
AcDbLinetypeTableRecord
  2
BORDERX2
 70
     0
  3
Border (2x) ____  ____  .  ____  ____  .  ___
 72
    65
 73
     6
 40
3.5
 49
1.0
 74
     0
 49
-0.5
 74
     0
 49
1.0
 74
     0
 49
-0.5
 74
     0
 49
0.0
 74
     0
 49
-0.5
 74
     0
  0
LTYPE
  5
53
330
5
100
AcDbSymbolTableRecord
100
AcDbLinetypeTableRecord
  2
CENTER
 70
     0
  3
Center ____ _ ____ _ ____ _ ____ _ ____ _ ____
 72
    65
 73
     4
 40
2.0
 49
1.25
 74
     0
 49
-0.25
 74
     0
 49
0.25
 74
     0
 49
-0.25
 74
     0
  0
LTYPE
  5
54
330
5
100
AcDbSymbolTableRecord
100
AcDbLinetypeTableRecord
  2
CENTER2
 70
     0
  3
Center (.5x) ___ _ ___ _ ___ _ ___ _ ___ _ ___
 72
    65
 73
     4
 40
1.125
 49
0.75
 74
     0
 49
-0.125
 74
     0
 49
0.125
 74
     0
 49
-0.125
 74
     0
  0
LTYPE
  5
55
330
5
100
AcDbSymbolTableRecord
100
AcDbLinetypeTableRecord
  2
CENTERX2
 70
     0
  3
Center (2x) ________  __  ________  __  _____
 72
    65
 73
     4
 40
4.0
 49
2.5
 74
     0
 49
-0.5
 74
     0
 49
0.5
 74
     0
 49
-0.5
 74
     0
  0
LTYPE
  5
56
330
5
100
AcDbSymbolTableRecord
100
AcDbLinetypeTableRecord
  2
DASHDOT2
 70
     0
  3
Dash dot (.5x) _._._._._._._._._._._._._._._.
 72
    65
 73
     4
 40
0.5
 49
0.25
 74
     0
 49
-0.125
 74
     0
 49
0.0
 74
     0
 49
-0.125
 74
     0
  0
LTYPE
  5
57
330
5
100
AcDbSymbolTableRecord
100
AcDbLinetypeTableRecord
  2
DASHDOTX2
 70
     0
  3
Dash dot (2x) ____  .  ____  .  ____  .  ___
 72
    65
 73
     4
 40
2.0
 49
1.0
 74
     0
 49
-0.5
 74
     0
 49
0.0
 74
     0
 49
-0.5
 74
     0
  0
LTYPE
  5
59
330
5
100
AcDbSymbolTableRecord
100
AcDbLinetypeTableRecord
  2
DASHED2
 70
     0
  3
Dashed (.5x) _ _ _ _ _ _ _ _ _ _ _ _ _ _ _ _ _
 72
    65
 73
     2
 40
0.375
 49
0.25
 74
     0
 49
-0.125
 74
     0
  0
LTYPE
  5
5A
330
5
100
AcDbSymbolTableRecord
100
AcDbLinetypeTableRecord
  2
DASHEDX2
 70
     0
  3
Dashed (2x) ____  ____  ____  ____  ____  ___
 72
    65
 73
     2
 40
1.5
 49
1.0
 74
     0
 49
-0.5
 74
     0
  0
LTYPE
  5
5B
330
5
100
AcDbSymbolTableRecord
100
AcDbLinetypeTableRecord
  2
DIVIDE
 70
     0
  3
Divide ____ . . ____ . . ____ . . ____ . . ____
 72
    65
 73
     6
 40
1.25
 49
0.5
 74
     0
 49
-0.25
 74
     0
 49
0.0
 74
     0
 49
-0.25
 74
     0
 49
0.0
 74
     0
 49
-0.25
 74
     0
  0
LTYPE
  5
5C
330
5
100
AcDbSymbolTableRecord
100
AcDbLinetypeTableRecord
  2
DIVIDE2
 70
     0
  3
Divide (.5x) __..__..__..__..__..__..__..__.._
 72
    65
 73
     6
 40
0.625
 49
0.25
 74
     0
 49
-0.125
 74
     0
 49
0.0
 74
     0
 49
-0.125
 74
     0
 49
0.0
 74
     0
 49
-0.125
 74
     0
  0
LTYPE
  5
5D
330
5
100
AcDbSymbolTableRecord
100
AcDbLinetypeTableRecord
  2
DIVIDEX2
 70
     0
  3
Divide (2x) ________  .  .  ________  .  .  _
 72
    65
 73
     6
 40
2.5
 49
1.0
 74
     0
 49
-0.5
 74
     0
 49
0.0
 74
     0
 49
-0.5
 74
     0
 49
0.0
 74
     0
 49
-0.5
 74
     0
  0
LTYPE
  5
5E
330
5
100
AcDbSymbolTableRecord
100
AcDbLinetypeTableRecord
  2
DOT
 70
     0
  3
Dot . . . . . . . . . . . . . . . . . . . . . .
 72
    65
 73
     2
 40
0.25
 49
0.0
 74
     0
 49
-0.25
 74
     0
  0
LTYPE
  5
5F
330
5
100
AcDbSymbolTableRecord
100
AcDbLinetypeTableRecord
  2
DOT2
 70
     0
  3
Dot (.5x) .....................................
 72
    65
 73
     2
 40
0.125
 49
0.0
 74
     0
 49
-0.125
 74
     0
  0
LTYPE
  5
60
330
5
100
AcDbSymbolTableRecord
100
AcDbLinetypeTableRecord
  2
DOTX2
 70
     0
  3
Dot (2x) .  .  .  .  .  .  .  .  .  .  .  .  . 
 72
    65
 73
     2
 40
0.5
 49
0.0
 74
     0
 49
-0.5
 74
     0
  0
LTYPE
  5
61
330
5
100
AcDbSymbolTableRecord
100
AcDbLinetypeTableRecord
  2
HIDDEN
 70
     0
  3
Hidden __ __ __ __ __ __ __ __ __ __ __ __ __ _
 72
    65
 73
     2
 40
0.375
 49
0.25
 74
     0
 49
-0.125
 74
     0
  0
LTYPE
  5
62
330
5
100
AcDbSymbolTableRecord
100
AcDbLinetypeTableRecord
  2
HIDDEN2
 70
     0
  3
Hidden (.5x) _ _ _ _ _ _ _ _ _ _ _ _ _ _ _ _ _
 72
    65
 73
     2
 40
0.1875
 49
0.125
 74
     0
 49
-0.0625
 74
     0
  0
LTYPE
  5
63
330
5
100
AcDbSymbolTableRecord
100
AcDbLinetypeTableRecord
  2
HIDDENX2
 70
     0
  3
Hidden (2x) ____ ____ ____ ____ ____ ____ ____
 72
    65
 73
     2
 40
0.75
 49
0.5
 74
     0
 49
-0.25
 74
     0
  0
LTYPE
  5
64
330
5
100
AcDbSymbolTableRecord
100
AcDbLinetypeTableRecord
  2
PHANTOM
 70
     0
  3
Phantom ______  __  __  ______  __  __  ______
 72
    65
 73
     6
 40
2.5
 49
1.25
 74
     0
 49
-0.25
 74
     0
 49
0.25
 74
     0
 49
-0.25
 74
     0
 49
0.25
 74
     0
 49
-0.25
 74
     0
  0
LTYPE
  5
65
330
5
100
AcDbSymbolTableRecord
100
AcDbLinetypeTableRecord
  2
PHANTOM2
 70
     0
  3
Phantom (.5x) ___ _ _ ___ _ _ ___ _ _ ___ _ _
 72
    65
 73
     6
 40
1.25
 49
0.625
 74
     0
 49
-0.125
 74
     0
 49
0.125
 74
     0
 49
-0.125
 74
     0
 49
0.125
 74
     0
 49
-0.125
 74
     0
  0
LTYPE
  5
66
330
5
100
AcDbSymbolTableRecord
100
AcDbLinetypeTableRecord
  2
PHANTOMX2
 70
     0
  3
Phantom (2x) ____________    ____    ____   _
 72
    65
 73
     6
 40
5.0
 49
2.5
 74
     0
 49
-0.5
 74
     0
 49
0.5
 74
     0
 49
-0.5
 74
     0
 49
0.5
 74
     0
 49
-0.5
 74
     0
  0
LTYPE
  5
67
330
5
100
AcDbSymbolTableRecord
100
AcDbLinetypeTableRecord
  2
ACAD_ISO02W100
 70
     0
  3
ISO dash __ __ __ __ __ __ __ __ __ __ __ __ __
 72
    65
 73
     2
 40
0.59
 49
0.47
 74
     0
 49
-0.12
 74
     0
  0
LTYPE
  5
68
330
5
100
AcDbSymbolTableRecord
100
AcDbLinetypeTableRecord
  2
ACAD_ISO03W100
 70
     0
  3
ISO dash space __    __    __    __    __    __
 72
    65
 73
     2
 40
1.179999999999999
 49
0.47
 74
     0
 49
-0.71
 74
     0
  0
LTYPE
  5
69
330
5
100
AcDbSymbolTableRecord
100
AcDbLinetypeTableRecord
  2
ACAD_ISO04W100
 70
     0
  3
ISO long-dash dot ____ . ____ . ____ . ____ . _
 72
    65
 73
     4
 40
1.179999999999999
 49
0.9399999999999998
 74
     0
 49
-0.12
 74
     0
 49
0.0
 74
     0
 49
-0.12
 74
     0
  0
LTYPE
  5
6A
330
5
100
AcDbSymbolTableRecord
100
AcDbLinetypeTableRecord
  2
ACAD_ISO05W100
 70
     0
  3
ISO long-dash double-dot ____ .. ____ .. ____ .
 72
    65
 73
     6
 40
1.299999999999999
 49
0.9399999999999998
 74
     0
 49
-0.12
 74
     0
 49
0.0
 74
     0
 49
-0.12
 74
     0
 49
0.0
 74
     0
 49
-0.12
 74
     0
  0
LTYPE
  5
6B
330
5
100
AcDbSymbolTableRecord
100
AcDbLinetypeTableRecord
  2
ACAD_ISO06W100
 70
     0
  3
ISO long-dash triple-dot ____ ... ____ ... ____
 72
    65
 73
     8
 40
1.419999999999999
 49
0.9399999999999998
 74
     0
 49
-0.12
 74
     0
 49
0.0
 74
     0
 49
-0.12
 74
     0
 49
0.0
 74
     0
 49
-0.12
 74
     0
 49
0.0
 74
     0
 49
-0.12
 74
     0
  0
LTYPE
  5
6C
330
5
100
AcDbSymbolTableRecord
100
AcDbLinetypeTableRecord
  2
ACAD_ISO07W100
 70
     0
  3
ISO dot . . . . . . . . . . . . . . . . . . . .
 72
    65
 73
     2
 40
0.12
 49
0.0
 74
     0
 49
-0.12
 74
     0
  0
LTYPE
  5
6D
330
5
100
AcDbSymbolTableRecord
100
AcDbLinetypeTableRecord
  2
ACAD_ISO08W100
 70
     0
  3
ISO long-dash short-dash ____ __ ____ __ ____ _
 72
    65
 73
     4
 40
0.95
 49
0.47
 74
     0
 49
-0.12
 74
     0
 49
0.24
 74
     0
 49
-0.12
 74
     0
  0
LTYPE
  5
6E
330
5
100
AcDbSymbolTableRecord
100
AcDbLinetypeTableRecord
  2
ACAD_ISO09W100
 70
     0
  3
ISO long-dash double-short-dash ____ __ __ ____
 72
    65
 73
     6
 40
1.31
 49
0.47
 74
     0
 49
-0.12
 74
     0
 49
0.24
 74
     0
 49
-0.12
 74
     0
 49
0.24
 74
     0
 49
-0.12
 74
     0
  0
LTYPE
  5
6F
330
5
100
AcDbSymbolTableRecord
100
AcDbLinetypeTableRecord
  2
ACAD_ISO10W100
 70
     0
  3
ISO dash dot __ . __ . __ . __ . __ . __ . __ .
 72
    65
 73
     4
 40
0.71
 49
0.47
 74
     0
 49
-0.12
 74
     0
 49
0.0
 74
     0
 49
-0.12
 74
     0
  0
LTYPE
  5
70
330
5
100
AcDbSymbolTableRecord
100
AcDbLinetypeTableRecord
  2
ACAD_ISO11W100
 70
     0
  3
ISO double-dash dot __ __ . __ __ . __ __ . __ 
 72
    65
 73
     6
 40
1.299999999999999
 49
0.47
 74
     0
 49
-0.12
 74
     0
 49
0.47
 74
     0
 49
-0.12
 74
     0
 49
0.0
 74
     0
 49
-0.12
 74
     0
  0
LTYPE
  5
71
330
5
100
AcDbSymbolTableRecord
100
AcDbLinetypeTableRecord
  2
ACAD_ISO12W100
 70
     0
  3
ISO dash double-dot __ . . __ . . __ . . __ . .
 72
    65
 73
     6
 40
0.8299999999999998
 49
0.47
 74
     0
 49
-0.12
 74
     0
 49
0.0
 74
     0
 49
-0.12
 74
     0
 49
0.0
 74
     0
 49
-0.12
 74
     0
  0
LTYPE
  5
72
330
5
100
AcDbSymbolTableRecord
100
AcDbLinetypeTableRecord
  2
ACAD_ISO13W100
 70
     0
  3
ISO double-dash double-dot __ __ . . __ __ . . 
 72
    65
 73
     8
 40
1.419999999999999
 49
0.47
 74
     0
 49
-0.12
 74
     0
 49
0.47
 74
     0
 49
-0.12
 74
     0
 49
0.0
 74
     0
 49
-0.12
 74
     0
 49
0.0
 74
     0
 49
-0.12
 74
     0
  0
LTYPE
  5
73
330
5
100
AcDbSymbolTableRecord
100
AcDbLinetypeTableRecord
  2
ACAD_ISO14W100
 70
     0
  3
ISO dash triple-dot __ . . . __ . . . __ . . . 
 72
    65
 73
     8
 40
0.95
 49
0.47
 74
     0
 49
-0.12
 74
     0
 49
0.0
 74
     0
 49
-0.12
 74
     0
 49
0.0
 74
     0
 49
-0.12
 74
     0
 49
0.0
 74
     0
 49
-0.12
 74
     0
  0
LTYPE
  5
74
330
5
100
AcDbSymbolTableRecord
100
AcDbLinetypeTableRecord
  2
ACAD_ISO15W100
 70
     0
  3
ISO double-dash triple-dot __ __ . . . __ __ . 
 72
    65
 73
    10
 40
1.539999999999999
 49
0.47
 74
     0
 49
-0.12
 74
     0
 49
0.47
 74
     0
 49
-0.12
 74
     0
 49
0.0
 74
     0
 49
-0.12
 74
     0
 49
0.0
 74
     0
 49
-0.12
 74
     0
 49
0.0
 74
     0
 49
-0.12
 74
     0
  0
LTYPE
  5
77
330
5
100
AcDbSymbolTableRecord
100
AcDbLinetypeTableRecord
  2
FENCELINE1
 70
     0
  3
Fenceline circle ----0-----0----0-----0----0---
 72
    65
 73
     4
 40
1.45
 49
0.25
 74
     0
 49
-0.1
 74
     4
 75
   133
340
76
 46
0.1
 50
0.0
 44
-0.1
 45
0.0
 49
-0.1
 74
     0
 49
1.0
 74
     0
  0
LTYPE
  5
78
330
5
100
AcDbSymbolTableRecord
100
AcDbLinetypeTableRecord
  2
FENCELINE2
 70
     0
  3
Fenceline square ----[]-----[]----[]-----[]----
 72
    65
 73
     4
 40
1.45
 49
0.25
 74
     0
 49
-0.1
 74
     4
 75
   132
340
76
 46
0.1
 50
0.0
 44
-0.1
 45
0.0
 49
-0.1
 74
     0
 49
1.0
 74
     0
  0
LTYPE
  5
79
330
5
100
AcDbSymbolTableRecord
100
AcDbLinetypeTableRecord
  2
TRACKS
 70
     0
  3
Tracks -|-|-|-|-|-|-|-|-|-|-|-|-|-|-|-|-|-|-|-|
 72
    65
 73
     2
 40
0.3
 49
0.15
 74
     4
 75
   130
340
76
 46
0.25
 50
0.0
 44
0.0
 45
0.0
 49
0.15
 74
     0
  0
LTYPE
  5
7A
330
5
100
AcDbSymbolTableRecord
100
AcDbLinetypeTableRecord
  2
BATTING
 70
     0
  3
Batting SSSSSSSSSSSSSSSSSSSSSSSSSSSSSSSSSSSSSSS
 72
    65
 73
     4
 40
0.4001000000000001
 49
0.0001
 74
     0
 49
-0.1
 74
     4
 75
   134
340
76
 46
0.1
 50
0.0
 44
-0.1
 45
0.0
 49
-0.2
 74
     4
 75
   134
340
76
 46
0.1
 50
180.0
 44
0.1
 45
0.0
 49
-0.1
 74
     0
  0
LTYPE
  5
7B
330
5
100
AcDbSymbolTableRecord
100
AcDbLinetypeTableRecord
  2
HOT_WATER_SUPPLY
 70
     0
  3
Hot water supply ---- HW ---- HW ---- HW ----
 72
    65
 73
     3
 40
0.9
 49
0.5
 74
     0
 49
-0.2
 74
     2
 75
     0
340
26
 46
0.1
 50
0.0
 44
-0.1
 45
-0.05
  9
HW
 49
-0.2
 74
     0
  0
LTYPE
  5
7C
330
5
100
AcDbSymbolTableRecord
100
AcDbLinetypeTableRecord
  2
GAS_LINE
 70
     0
  3
Gas line ----GAS----GAS----GAS----GAS----GAS---
 72
    65
 73
     3
 40
0.95
 49
0.5
 74
     0
 49
-0.2
 74
     2
 75
     0
340
26
 46
0.1
 50
0.0
 44
-0.1
 45
-0.05
  9
GAS
 49
-0.25
 74
     0
  0
LTYPE
  5
7D
330
5
100
AcDbSymbolTableRecord
100
AcDbLinetypeTableRecord
  2
ZIGZAG
 70
     0
  3
Zig zag /\/\/\/\/\/\/\/\/\/\/\/\/\/\/\/\/\/\/\/
 72
    65
 73
     4
 40
0.8001000000000001
 49
0.0001
 74
     0
 49
-0.2
 74
     4
 75
   131
340
76
 46
0.2
 50
0.0
 44
-0.2
 45
0.0
 49
-0.4
 74
     4
 75
   131
340
76
 46
0.2
 50
180.0
 44
0.2
 45
0.0
 49
-0.2
 74
     0
  0
ENDTAB
  0
TABLE
  2
LAYER
  5
2
330
0
100
AcDbSymbolTable
 70
    10
  0
LAYER
  5
25
330
2
100
AcDbSymbolTableRecord
100
AcDbLayerTableRecord
  2
0
 70
     0
 62
     7
  6
Continuous
370
    -3
390
F
347
13
  0
LAYER
  5
81
330
2
100
AcDbSymbolTableRecord
100
AcDbLayerTableRecord
  2
Border (ANSI)
 70
     0
 62
     7
  6
Continuous
370
    35
390
F
347
13
  0
LAYER
  5
86
330
2
100
AcDbSymbolTableRecord
100
AcDbLayerTableRecord
  2
Dimension (ANSI)
 70
     0
 62
     7
  6
Continuous
370
    13
390
F
347
13
  0
LAYER
  5
88
330
2
100
AcDbSymbolTableRecord
100
AcDbLayerTableRecord
  2
Hidden (ANSI)
 70
     0
 62
     7
  6
DASHED
370
    25
390
F
347
13
  0
LAYER
  5
8E
330
2
100
AcDbSymbolTableRecord
100
AcDbLayerTableRecord
  2
Symbol (ANSI)
 70
     0
 62
     7
  6
Continuous
370
    25
390
F
347
13
  0
LAYER
  5
8F
330
2
100
AcDbSymbolTableRecord
100
AcDbLayerTableRecord
  2
TITLE
 70
     0
 62
     7
  6
Continuous
370
    18
390
F
347
13
  0
LAYER
  5
90
330
2
100
AcDbSymbolTableRecord
100
AcDbLayerTableRecord
  2
Title (ANSI)
 70
     0
 62
     7
  6
Continuous
370
    25
390
F
347
13
  0
LAYER
  5
92
330
2
100
AcDbSymbolTableRecord
100
AcDbLayerTableRecord
  2
Visible (ANSI)
 70
     0
 62
     7
  6
Continuous
370
    25
390
F
347
13
  0
LAYER
  5
93
330
2
100
AcDbSymbolTableRecord
100
AcDbLayerTableRecord
  2
Visible Narrow (ANSI)
 70
     0
 62
     7
  6
Continuous
370
    25
390
F
347
13
  0
LAYER
  5
1E3
330
2
100
AcDbSymbolTableRecord
100
AcDbLayerTableRecord
  2
Defpoints
 70
     0
 62
     7
  6
Continuous
290
     0
370
    -3
390
F
347
13
  0
ENDTAB
  0
TABLE
  2
STYLE
  5
3
330
0
100
AcDbSymbolTable
 70
    54
  0
STYLE
  5
26
330
3
100
AcDbSymbolTableRecord
100
AcDbTextStyleTableRecord
  2
Standard
 70
     0
 40
0.0
 41
1.0
 50
0.0
 71
     0
 42
0.2
  3
ARIAL.TTF
  4

1001
ACAD
1000
Arial
1071
      256
  0
STYLE
  5
76
330
3
100
AcDbSymbolTableRecord
100
AcDbTextStyleTableRecord
  2

 70
     1
 40
0.0
 41
1.0
 50
0.0
 71
     0
 42
0.2
  3
ltypeshp.shx
  4

  0
STYLE
  5
97
330
3
100
AcDbSymbolTableRecord
100
AcDbTextStyleTableRecord
  2
ITALIC_100
 70
     0
 40
0.0
 41
1.0
 50
0.0
 71
     0
 42
0.2
  3
ARIAL.TTF
  4

1001
ACAD
1000
Arial
1071
      256
  0
STYLE
  5
98
330
3
100
AcDbSymbolTableRecord
100
AcDbTextStyleTableRecord
  2
ITALIC_101
 70
     0
 40
0.0
 41
1.0
 50
0.0
 71
     0
 42
0.2
  3
ARIAL.TTF
  4

1001
ACAD
1000
Arial
1071
      256
  0
STYLE
  5
99
330
3
100
AcDbSymbolTableRecord
100
AcDbTextStyleTableRecord
  2
ITALIC_103
 70
     0
 40
0.0
 41
1.0
 50
0.0
 71
     0
 42
0.2
  3
ARIAL.TTF
  4

1001
ACAD
1000
Arial
1071
      256
  0
STYLE
  5
9A
330
3
100
AcDbSymbolTableRecord
100
AcDbTextStyleTableRecord
  2
ITALIC_104
 70
     0
 40
0.0
 41
1.0
 50
0.0
 71
     0
 42
0.2
  3
ARIAL.TTF
  4

1001
ACAD
1000
Arial
1071
      256
  0
STYLE
  5
9B
330
3
100
AcDbSymbolTableRecord
100
AcDbTextStyleTableRecord
  2
ITALIC_107
 70
     0
 40
0.0
 41
1.0
 50
0.0
 71
     0
 42
0.2
  3
ARIAL.TTF
  4

1001
ACAD
1000
Arial
1071
      256
  0
STYLE
  5
9C
330
3
100
AcDbSymbolTableRecord
100
AcDbTextStyleTableRecord
  2
ITALIC_108
 70
     0
 40
0.0
 41
1.0
 50
0.0
 71
     0
 42
0.2
  3
ARIAL.TTF
  4

1001
ACAD
1000
Arial
1071
      256
  0
STYLE
  5
9D
330
3
100
AcDbSymbolTableRecord
100
AcDbTextStyleTableRecord
  2
ITALIC_169
 70
     0
 40
0.0
 41
1.0
 50
0.0
 71
     0
 42
0.2
  3
ARIAL.TTF
  4

1001
ACAD
1000
Arial
1071
      256
  0
STYLE
  5
9E
330
3
100
AcDbSymbolTableRecord
100
AcDbTextStyleTableRecord
  2
ITALIC_173
 70
     0
 40
0.0
 41
1.0
 50
0.0
 71
     0
 42
0.2
  3
ARIAL.TTF
  4

1001
ACAD
1000
Arial
1071
      256
  0
STYLE
  5
9F
330
3
100
AcDbSymbolTableRecord
100
AcDbTextStyleTableRecord
  2
ITALIC_177
 70
     0
 40
0.0
 41
1.0
 50
0.0
 71
     0
 42
0.2
  3
ARIAL.TTF
  4

1001
ACAD
1000
Arial
1071
      256
  0
STYLE
  5
A0
330
3
100
AcDbSymbolTableRecord
100
AcDbTextStyleTableRecord
  2
ITALIC_180
 70
     0
 40
0.0
 41
1.0
 50
0.0
 71
     0
 42
0.2
  3
ARIAL.TTF
  4

1001
ACAD
1000
Arial
1071
      256
  0
STYLE
  5
A1
330
3
100
AcDbSymbolTableRecord
100
AcDbTextStyleTableRecord
  2
ITALIC_181
 70
     0
 40
0.0
 41
1.0
 50
0.0
 71
     0
 42
0.2
  3
txt.shx
  4

  0
STYLE
  5
A2
330
3
100
AcDbSymbolTableRecord
100
AcDbTextStyleTableRecord
  2
ITALIC_183
 70
     0
 40
0.0
 41
1.0
 50
0.0
 71
     0
 42
0.2
  3
ARIAL.TTF
  4

1001
ACAD
1000
Arial
1071
      256
  0
STYLE
  5
A3
330
3
100
AcDbSymbolTableRecord
100
AcDbTextStyleTableRecord
  2
ITALIC_184
 70
     0
 40
0.0
 41
1.0
 50
0.0
 71
     0
 42
0.2
  3
ARIAL.TTF
  4

1001
ACAD
1000
Arial
1071
      256
  0
STYLE
  5
A4
330
3
100
AcDbSymbolTableRecord
100
AcDbTextStyleTableRecord
  2
ITALIC_186
 70
     0
 40
0.0
 41
1.0
 50
0.0
 71
     0
 42
0.2
  3
ARIAL.TTF
  4

1001
ACAD
1000
Arial
1071
      256
  0
STYLE
  5
A5
330
3
100
AcDbSymbolTableRecord
100
AcDbTextStyleTableRecord
  2
ITALIC_187
 70
     0
 40
0.0
 41
1.0
 50
0.0
 71
     0
 42
0.2
  3
ARIAL.TTF
  4

1001
ACAD
1000
Arial
1071
      256
  0
STYLE
  5
A6
330
3
100
AcDbSymbolTableRecord
100
AcDbTextStyleTableRecord
  2
ITALIC_190
 70
     0
 40
0.0
 41
1.0
 50
0.0
 71
     0
 42
0.2
  3
ARIAL.TTF
  4

1001
ACAD
1000
Arial
1071
      256
  0
STYLE
  5
A7
330
3
100
AcDbSymbolTableRecord
100
AcDbTextStyleTableRecord
  2
ITALIC_191
 70
     0
 40
0.0
 41
1.0
 50
0.0
 71
     0
 42
0.2
  3
ARIAL.TTF
  4

1001
ACAD
1000
Arial
1071
      256
  0
STYLE
  5
A8
330
3
100
AcDbSymbolTableRecord
100
AcDbTextStyleTableRecord
  2
ITALIC_53
 70
     0
 40
0.0
 41
1.0
 50
0.0
 71
     0
 42
0.2
  3
ARIAL.TTF
  4

1001
ACAD
1000
Arial
1071
      256
  0
STYLE
  5
A9
330
3
100
AcDbSymbolTableRecord
100
AcDbTextStyleTableRecord
  2
ITALIC_57
 70
     0
 40
0.0
 41
1.0
 50
0.0
 71
     0
 42
0.2
  3
ARIAL.TTF
  4

1001
ACAD
1000
Arial
1071
      256
  0
STYLE
  5
AA
330
3
100
AcDbSymbolTableRecord
100
AcDbTextStyleTableRecord
  2
ITALIC_61
 70
     0
 40
0.0
 41
1.0
 50
0.0
 71
     0
 42
0.2
  3
ARIAL.TTF
  4

1001
ACAD
1000
Arial
1071
      256
  0
STYLE
  5
AB
330
3
100
AcDbSymbolTableRecord
100
AcDbTextStyleTableRecord
  2
ITALIC_64
 70
     0
 40
0.0
 41
1.0
 50
0.0
 71
     0
 42
0.2
  3
ARIAL.TTF
  4

1001
ACAD
1000
Arial
1071
      256
  0
STYLE
  5
AC
330
3
100
AcDbSymbolTableRecord
100
AcDbTextStyleTableRecord
  2
ITALIC_65
 70
     0
 40
0.0
 41
1.0
 50
0.0
 71
     0
 42
0.2
  3
ARIAL.TTF
  4

1001
ACAD
1000
Arial
1071
      256
  0
STYLE
  5
AD
330
3
100
AcDbSymbolTableRecord
100
AcDbTextStyleTableRecord
  2
ITALIC_66
 70
     0
 40
0.0
 41
1.0
 50
0.0
 71
     0
 42
0.2
  3
ARIAL.TTF
  4

1001
ACAD
1000
Arial
1071
      256
  0
STYLE
  5
AE
330
3
100
AcDbSymbolTableRecord
100
AcDbTextStyleTableRecord
  2
ITALIC_67
 70
     0
 40
0.0
 41
1.0
 50
0.0
 71
     0
 42
0.2
  3
ARIAL.TTF
  4

1001
ACAD
1000
Arial
1071
      256
  0
STYLE
  5
AF
330
3
100
AcDbSymbolTableRecord
100
AcDbTextStyleTableRecord
  2
ITALIC_68
 70
     0
 40
0.0
 41
1.0
 50
0.0
 71
     0
 42
0.2
  3
ARIAL.TTF
  4

1001
ACAD
1000
Arial
1071
      256
  0
STYLE
  5
B0
330
3
100
AcDbSymbolTableRecord
100
AcDbTextStyleTableRecord
  2
ITALIC_70
 70
     0
 40
0.0
 41
1.0
 50
0.0
 71
     0
 42
0.2
  3
ARIAL.TTF
  4

1001
ACAD
1000
Arial
1071
      256
  0
STYLE
  5
B1
330
3
100
AcDbSymbolTableRecord
100
AcDbTextStyleTableRecord
  2
ITALIC_71
 70
     0
 40
0.0
 41
1.0
 50
0.0
 71
     0
 42
0.2
  3
ARIAL.TTF
  4

1001
ACAD
1000
Arial
1071
      256
  0
STYLE
  5
B2
330
3
100
AcDbSymbolTableRecord
100
AcDbTextStyleTableRecord
  2
ITALIC_75
 70
     0
 40
0.0
 41
1.0
 50
0.0
 71
     0
 42
0.2
  3
ARIAL.TTF
  4

1001
ACAD
1000
Arial
1071
      256
  0
STYLE
  5
B3
330
3
100
AcDbSymbolTableRecord
100
AcDbTextStyleTableRecord
  2
ITALIC_76
 70
     0
 40
0.0
 41
1.0
 50
0.0
 71
     0
 42
0.2
  3
ARIAL.TTF
  4

1001
ACAD
1000
Arial
1071
      256
  0
STYLE
  5
B4
330
3
100
AcDbSymbolTableRecord
100
AcDbTextStyleTableRecord
  2
ITALIC_86
 70
     0
 40
0.0
 41
1.0
 50
0.0
 71
     0
 42
0.2
  3
ARIAL.TTF
  4

1001
ACAD
1000
Arial
1071
      256
  0
STYLE
  5
B5
330
3
100
AcDbSymbolTableRecord
100
AcDbTextStyleTableRecord
  2
ITALIC_90
 70
     0
 40
0.0
 41
1.0
 50
0.0
 71
     0
 42
0.2
  3
ARIAL.TTF
  4

1001
ACAD
1000
Arial
1071
      256
  0
STYLE
  5
B6
330
3
100
AcDbSymbolTableRecord
100
AcDbTextStyleTableRecord
  2
ITALIC_94
 70
     0
 40
0.0
 41
1.0
 50
0.0
 71
     0
 42
0.2
  3
ARIAL.TTF
  4

1001
ACAD
1000
Arial
1071
      256
  0
STYLE
  5
B7
330
3
100
AcDbSymbolTableRecord
100
AcDbTextStyleTableRecord
  2
ITALIC_97
 70
     0
 40
0.0
 41
1.0
 50
0.0
 71
     0
 42
0.2
  3
ARIAL.TTF
  4

1001
ACAD
1000
Arial
1071
      256
  0
STYLE
  5
B8
330
3
100
AcDbSymbolTableRecord
100
AcDbTextStyleTableRecord
  2
ITALIC_98
 70
     0
 40
0.0
 41
1.0
 50
0.0
 71
     0
 42
0.2
  3
ARIAL.TTF
  4

1001
ACAD
1000
Arial
1071
      256
  0
STYLE
  5
B9
330
3
100
AcDbSymbolTableRecord
100
AcDbTextStyleTableRecord
  2
ITALIC_99
 70
     0
 40
0.0
 41
1.0
 50
0.0
 71
     0
 42
0.2
  3
ARIAL.TTF
  4

1001
ACAD
1000
Arial
1071
      256
  0
STYLE
  5
BA
330
3
100
AcDbSymbolTableRecord
100
AcDbTextStyleTableRecord
  2
Label Text (ANSI)
 70
     0
 40
0.0
 41
1.0
 50
0.0
 71
     0
 42
0.2
  3
ARIAL.TTF
  4

1001
ACAD
1000
Arial
1071
      256
  0
STYLE
  5
BB
330
3
100
AcDbSymbolTableRecord
100
AcDbTextStyleTableRecord
  2
Label Text (DIN)
 70
     0
 40
0.0
 41
1.0
 50
0.0
 71
     0
 42
0.2
  3
isocpeur.ttf
  4

1001
ACAD
1000
ISOCPEUR
1071
      256
  0
STYLE
  5
BC
330
3
100
AcDbSymbolTableRecord
100
AcDbTextStyleTableRecord
  2
Label Text (ISO)
 70
     0
 40
0.0
 41
1.0
 50
0.0
 71
     0
 42
0.2
  3
TAHOMA.TTF
  4

1001
ACAD
1000
Tahoma
1071
      256
  0
STYLE
  5
BD
330
3
100
AcDbSymbolTableRecord
100
AcDbTextStyleTableRecord
  2
Label Text (JIS)
 70
     0
 40
0.0
 41
1.0
 50
0.0
 71
     0
 42
0.2
  3
TAHOMA.TTF
  4

1001
ACAD
1000
Tahoma
1071
      256
  0
STYLE
  5
BE
330
3
100
AcDbSymbolTableRecord
100
AcDbTextStyleTableRecord
  2
Note Text (ANSI)
 70
     0
 40
0.0
 41
1.0
 50
0.0
 71
     0
 42
0.2
  3
ARIAL.TTF
  4

1001
ACAD
1000
Arial
1071
      256
  0
STYLE
  5
BF
330
3
100
AcDbSymbolTableRecord
100
AcDbTextStyleTableRecord
  2
Note Text (DIN)
 70
     0
 40
0.0
 41
1.0
 50
0.0
 71
     0
 42
0.2
  3
isocpeur.ttf
  4

1001
ACAD
1000
ISOCPEUR
1071
      256
  0
STYLE
  5
C0
330
3
100
AcDbSymbolTableRecord
100
AcDbTextStyleTableRecord
  2
Note Text (ISO)
 70
     0
 40
0.0
 41
1.0
 50
0.0
 71
     0
 42
0.2
  3
TAHOMA.TTF
  4

1001
ACAD
1000
Tahoma
1071
      256
  0
STYLE
  5
C1
330
3
100
AcDbSymbolTableRecord
100
AcDbTextStyleTableRecord
  2
Note Text (JIS)
 70
     0
 40
0.0
 41
1.0
 50
0.0
 71
     0
 42
0.2
  3
TAHOMA.TTF
  4

1001
ACAD
1000
Tahoma
1071
      256
  0
STYLE
  5
C2
330
3
100
AcDbSymbolTableRecord
100
AcDbTextStyleTableRecord
  2
STANDARD-1
 70
     0
 40
0.0
 41
1.0
 50
0.0
 71
     0
 42
0.2
  3
ARIAL.TTF
  4

1001
ACAD
1000
Arial
1071
      256
  0
STYLE
  5
C3
330
3
100
AcDbSymbolTableRecord
100
AcDbTextStyleTableRecord
  2
STANDARD-2
 70
     0
 40
0.0
 41
1.0
 50
0.0
 71
     0
 42
0.2
  3
ARIAL.TTF
  4

1001
ACAD
1000
Arial
1071
      256
  0
STYLE
  5
C4
330
3
100
AcDbSymbolTableRecord
100
AcDbTextStyleTableRecord
  2
STANDARD-3
 70
     0
 40
0.0
 41
1.0
 50
0.0
 71
     0
 42
0.2
  3
ARIAL.TTF
  4

1001
ACAD
1000
Arial
1071
      256
  0
STYLE
  5
C5
330
3
100
AcDbSymbolTableRecord
100
AcDbTextStyleTableRecord
  2
STANDARDSTANDARD
 70
     0
 40
0.0
 41
1.0
 50
0.0
 71
     0
 42
0.2
  3
ARIAL.TTF
  4

1001
ACAD
1000
Arial
1071
      256
  0
STYLE
  5
C6
330
3
100
AcDbSymbolTableRecord
100
AcDbTextStyleTableRecord
  2
STYLE1_165
 70
     0
 40
0.0
 41
1.0
 50
0.0
 71
     0
 42
0.2
  3
swiss.ttf
  4

1001
ACAD
1000
Swis721 BT
1071
      256
  0
STYLE
  5
C7
330
3
100
AcDbSymbolTableRecord
100
AcDbTextStyleTableRecord
  2
STYLE1_49
 70
     0
 40
0.0
 41
1.0
 50
0.0
 71
     0
 42
0.2
  3
swiss.ttf
  4

1001
ACAD
1000
Swis721 BT
1071
      256
  0
STYLE
  5
C8
330
3
100
AcDbSymbolTableRecord
100
AcDbTextStyleTableRecord
  2
STYLE1_82
 70
     0
 40
0.0
 41
1.0
 50
0.0
 71
     0
 42
0.2
  3
swiss.ttf
  4

1001
ACAD
1000
Swis721 BT
1071
      256
  0
STYLE
  5
127
330
3
100
AcDbSymbolTableRecord
100
AcDbTextStyleTableRecord
  2
Text Style5
 70
     0
 40
0.0
 41
1.0
 50
0.0
 71
     0
 42
0.2
  3
ARIAL.TTF
  4

1001
ACAD
1000
Arial
1071
      256
  0
STYLE
  5
167
330
3
100
AcDbSymbolTableRecord
100
AcDbTextStyleTableRecord
  2
ITALIC_181-Arial
 70
     0
 40
0.0
 41
1.0
 50
0.0
 71
     0
 42
0.2
  3
ARIAL.TTF
  4

1001
ACAD
1000
Arial
1071
      256
  0
ENDTAB
  0
TABLE
  2
VIEW
  5
6
330
0
100
AcDbSymbolTable
 70
     0
  0
ENDTAB
  0
TABLE
  2
UCS
  5
7
330
0
100
AcDbSymbolTable
 70
     0
  0
ENDTAB
  0
TABLE
  2
APPID
  5
9
330
0
100
AcDbSymbolTable
 70
     1
  0
APPID
  5
27
330
9
100
AcDbSymbolTableRecord
100
AcDbRegAppTableRecord
  2
ACAD
 70
     0
  0
ENDTAB
  0
TABLE
  2
DIMSTYLE
  5
A
330
0
100
AcDbSymbolTable
 70
    14
100
AcDbDimStyleTable
 71
     2
340
CF
340
3F
  0
DIMSTYLE
105
3F
330
A
100
AcDbSymbolTableRecord
100
AcDbDimStyleTableRecord
  2
Standard
 70
     0
 40
4.0
 41
0.1800000071525574
 42
0.0625
 45
0.00000001
140
0.1800000071525574
147
0.0900000035762787
176
   256
177
   256
178
   256
340
C5
371
    -1
372
    -1
  0
DIMSTYLE
105
C9
330
A
100
AcDbSymbolTableRecord
100
AcDbDimStyleTableRecord
  2
Default - Fraction (ANSI)
 70
     0
 40
4.0
 41
0.0984251946210861
 42
0.0625
 43
0.2362204724409449
 44
0.125
 45
0.00000001
 46
0.3937007874015748
 78
    12
 79
     3
140
0.1200000047683716
147
0.031496062992126
171
     1
176
   256
177
   256
178
   256
272
     2
274
     1
276
     2
277
     5
284
    12
286
    12
340
BE
371
    -1
372
    -1
  0
DIMSTYLE
105
CA
330
A
100
AcDbSymbolTableRecord
100
AcDbDimStyleTableRecord
  2
Default - Fraction (ANSI)$7
 70
     0
 40
4.0
 41
0.0984251946210861
 42
0.0625
 43
0.2362204724409449
 44
0.125
 45
0.00000001
 46
0.3937007874015748
 78
    12
 79
     3
140
0.1200000047683716
147
0.031496062992126
171
     1
176
   256
177
   256
178
   256
272
     2
274
     1
276
     2
277
     5
284
    12
286
    12
340
BE
371
    -1
372
    -1
  0
DIMSTYLE
105
CB
330
A
100
AcDbSymbolTableRecord
100
AcDbDimStyleTableRecord
  2
Default - mm (ANSI)
 70
     0
 40
4.0
 41
0.0984251946210861
 42
0.063
 43
0.2362204724409449
 44
0.125
 45
0.00000001
 46
0.3937007874015748
 73
     0
140
0.1200000047683716
143
1.0
144
25.4
147
0.031496062992126
171
     1
176
   256
177
   256
178
   256
179
     1
271
     2
272
     2
274
     1
340
BE
371
    -1
372
    -1
  0
DIMSTYLE
105
CC
330
A
100
AcDbSymbolTableRecord
100
AcDbDimStyleTableRecord
  2
Default - mm (ANSI)$7
 70
     0
 40
4.0
 41
0.0984251946210861
 42
0.063
 43
0.2362204724409449
 44
0.125
 45
0.00000001
 46
0.3937007874015748
 73
     0
140
0.1200000047683716
143
1.0
144
25.4
147
0.031496062992126
171
     1
176
   256
177
   256
178
   256
179
     1
271
     2
272
     2
274
     1
340
BE
371
    -1
372
    -1
  0
DIMSTYLE
105
CD
330
A
100
AcDbSymbolTableRecord
100
AcDbDimStyleTableRecord
  2
Default - mm [in] (ANSI)
 70
     0
  4
 in
 40
4.0
 41
0.0984251946210861
 42
0.063
 43
0.25
 44
0.125
 45
0.00000001
 46
0.3937007874015748
 73
     0
 78
     4
 79
     1
140
0.1200000047683716
143
0.03937
144
25.4
147
0.031496062992126
170
     1
171
     3
176
   256
177
   256
178
   256
179
     1
271
     2
272
     2
274
     3
284
     4
286
     4
340
BE
371
    -1
372
    -1
  0
DIMSTYLE
105
CE
330
A
100
AcDbSymbolTableRecord
100
AcDbDimStyleTableRecord
  2
Default - mm [in] (ANSI)$7
 70
     0
  4
 in
 40
4.0
 41
0.0984251946210861
 42
0.063
 43
0.25
 44
0.125
 45
0.00000001
 46
0.3937007874015748
 73
     0
 78
     4
 79
     1
140
0.1200000047683716
143
0.03937
144
25.4
147
0.031496062992126
170
     1
171
     3
176
   256
177
   256
178
   256
179
     1
271
     2
272
     2
274
     3
284
     4
286
     4
340
BE
371
    -1
372
    -1
  0
DIMSTYLE
105
CF
102
{ACAD_REACTORS
330
1E2
330
2B5
330
39A
330
431
330
503
330
5D5
330
6A7
330
779
330
84F
330
921
102
}
330
A
100
AcDbSymbolTableRecord
100
AcDbDimStyleTableRecord
  2
Default (ANSI)
 70
     0
  3
\X
 40
4.0
 41
0.0984251946210861
 42
0.0625
 43
0.2362204724409449
 44
0.125
 45
0.00000001
 46
0.3937007874015748
140
0.1200000047683716
147
0.031496062992126
170
     1
171
     1
176
   256
177
   256
178
   256
271
     2
272
     2
274
     1
340
BE
371
    -1
372
    -1
  0
DIMSTYLE
105
D0
330
A
100
AcDbSymbolTableRecord
100
AcDbDimStyleTableRecord
  2
Default (ANSI)$7
 70
     0
  3
\X
 40
4.0
 41
0.0984251946210861
 42
0.0625
 43
0.2362204724409449
 44
0.125
 45
0.00000001
 46
0.3937007874015748
140
0.1200000047683716
147
0.031496062992126
170
     1
171
     1
176
   256
177
   256
178
   256
271
     2
272
     2
274
     1
340
BE
371
    -1
372
    -1
  0
DIMSTYLE
105
DF
330
A
100
AcDbSymbolTableRecord
100
AcDbDimStyleTableRecord
  2
Miscellaneous Object (ANSI)
 70
     0
 40
4.0
 41
0.1968503892421722
 42
0.0625
 43
0.2362204724409449
 44
0.125
 45
0.00000001
 46
0.3937007874015748
140
0.1799999922513962
146
0.666666721856155
147
0.031496062992126
171
     1
176
   256
177
   256
178
   256
271
     2
272
     2
274
     1
340
BA
341
D1
371
    -1
372
    -1
  0
DIMSTYLE
105
E0
330
A
100
AcDbSymbolTableRecord
100
AcDbDimStyleTableRecord
  2
Miscellaneous Object (ANSI)$7
 70
     0
 40
4.0
 41
0.1959999948740005
 42
0.0625
 43
0.2362204724409449
 44
0.125
 45
0.00000001
 46
0.3937007874015748
140
0.1799999922513962
146
0.666666721856155
147
0.031496062992126
171
     1
176
   256
177
   256
178
   256
271
     2
272
     2
274
     1
340
BA
341
D1
371
    -1
372
    -1
  0
DIMSTYLE
105
E1
330
A
100
AcDbSymbolTableRecord
100
AcDbDimStyleTableRecord
  2
STANDARD$7
 70
     0
 40
4.0
 41
0.1800000071525574
 42
0.0625
 45
0.00000001
140
0.1800000071525574
147
0.0900000035762787
176
   256
177
   256
178
   256
340
C5
371
    -1
372
    -1
  0
DIMSTYLE
105
E2
330
A
100
AcDbSymbolTableRecord
100
AcDbDimStyleTableRecord
  2
Alternate (ANSI)
 70
     0
 40
4.0
 41
0.0979999974370003
340
26
342
E3
  0
DIMSTYLE
105
F4
330
A
100
AcDbSymbolTableRecord
100
AcDbDimStyleTableRecord
  2
Datum (ANSI)
 70
     0
 40
4.0
 41
0.0979999974370003
340
26
342
E3
  0
ENDTAB
  0
TABLE
  2
BLOCK_RECORD
  5
1
330
0
100
AcDbSymbolTable
 70
    16
  0
BLOCK_RECORD
  5
37
330
1
100
AcDbSymbolTableRecord
100
AcDbBlockTableRecord
  2
*Model_Space
340
3A
 70
     0
280
     1
281
     0
  0
BLOCK_RECORD
  5
33
330
1
100
AcDbSymbolTableRecord
100
AcDbBlockTableRecord
  2
*Paper_Space
340
36
 70
     0
280
     1
281
     0
  0
BLOCK_RECORD
  5
3B
330
1
100
AcDbSymbolTableRecord
100
AcDbBlockTableRecord
  2
*Paper_Space0
340
3E
 70
     0
280
     1
281
     0
  0
BLOCK_RECORD
  5
D1
330
1
100
AcDbSymbolTableRecord
100
AcDbBlockTableRecord
  2
Filled-1
340
0
 70
     0
280
     1
281
     0
  0
BLOCK_RECORD
  5
E3
330
1
100
AcDbSymbolTableRecord
100
AcDbBlockTableRecord
  2
_Closed
340
0
 70
     0
280
     1
281
     0
  0
BLOCK_RECORD
  5
EA
330
1
100
AcDbSymbolTableRecord
100
AcDbBlockTableRecord
  2
DatumFilled45
340
0
 70
     0
280
     1
281
     0
  0
BLOCK_RECORD
  5
F5
330
1
100
AcDbSymbolTableRecord
100
AcDbBlockTableRecord
  2
Borders Default Border
340
0
102
{BLKREFS
331
146
102
}
 70
     0
280
     1
281
     0
  0
BLOCK_RECORD
  5
147
330
1
100
AcDbSymbolTableRecord
100
AcDbBlockTableRecord
  2
Title Blocks Stahlin
340
0
102
{BLKREFS
331
18A
102
}
 70
     0
280
     1
281
     0
  0
BLOCK_RECORD
  5
1E4
330
1
100
AcDbSymbolTableRecord
100
AcDbBlockTableRecord
  2
*D6
340
0
 70
     0
280
     1
281
     0
  0
BLOCK_RECORD
  5
2B6
330
1
100
AcDbSymbolTableRecord
100
AcDbBlockTableRecord
  2
*D7
340
0
 70
     0
280
     1
281
     0
  0
BLOCK_RECORD
  5
39B
330
1
100
AcDbSymbolTableRecord
100
AcDbBlockTableRecord
  2
*D8
340
0
 70
     0
280
     1
281
     0
  0
BLOCK_RECORD
  5
432
330
1
100
AcDbSymbolTableRecord
100
AcDbBlockTableRecord
  2
*D9
340
0
 70
     0
280
     1
281
     0
  0
BLOCK_RECORD
  5
504
330
1
100
AcDbSymbolTableRecord
100
AcDbBlockTableRecord
  2
*D10
340
0
 70
     0
280
     1
281
     0
  0
BLOCK_RECORD
  5
5D6
330
1
100
AcDbSymbolTableRecord
100
AcDbBlockTableRecord
  2
*D11
340
0
 70
     0
280
     1
281
     0
  0
BLOCK_RECORD
  5
6A8
330
1
100
AcDbSymbolTableRecord
100
AcDbBlockTableRecord
  2
*D12
340
0
 70
     0
280
     1
281
     0
  0
BLOCK_RECORD
  5
77A
330
1
100
AcDbSymbolTableRecord
100
AcDbBlockTableRecord
  2
*D13
340
0
 70
     0
280
     1
281
     0
  0
BLOCK_RECORD
  5
850
330
1
100
AcDbSymbolTableRecord
100
AcDbBlockTableRecord
  2
*D14
340
0
 70
     0
280
     1
281
     0
  0
BLOCK_RECORD
  5
922
330
1
100
AcDbSymbolTableRecord
100
AcDbBlockTableRecord
  2
*D15
340
0
 70
     0
280
     1
281
     0
  0
ENDTAB
  0
ENDSEC
  0
SECTION
  2
BLOCKS
  0
BLOCK
  5
38
330
37
100
AcDbEntity
  8
0
100
AcDbBlockBegin
  2
*Model_Space
 70
     0
 10
0.0
 20
0.0
 30
0.0
  3
*Model_Space
  1

  0
ENDBLK
  5
39
330
37
100
AcDbEntity
  8
0
100
AcDbBlockEnd
  0
BLOCK
  5
34
330
33
100
AcDbEntity
 67
     1
  8
0
100
AcDbBlockBegin
  2
*Paper_Space
 70
     0
 10
0.0
 20
0.0
 30
0.0
  3
*Paper_Space
  1

  0
ENDBLK
  5
35
330
33
100
AcDbEntity
 67
     1
  8
0
100
AcDbBlockEnd
  0
BLOCK
  5
3C
330
3B
100
AcDbEntity
 67
     1
  8
0
100
AcDbBlockBegin
  2
*Paper_Space0
 70
     0
 10
0.0
 20
0.0
 30
0.0
  3
*Paper_Space0
  1

  0
ENDBLK
  5
3D
330
3B
100
AcDbEntity
 67
     1
  8
0
100
AcDbBlockEnd
  0
BLOCK
  5
D2
330
D1
100
AcDbEntity
  8
0
100
AcDbBlockBegin
  2
Filled-1
 70
     0
 10
0.0
 20
0.0
 30
0.0
  3
Filled-1
  1

  0
LINE
  5
D4
330
D1
100
AcDbEntity
  8
0
 62
     0
100
AcDbLine
 10
-0.9999999999999998
 20
0.0
 30
0.0
 11
0.0
 21
0.0
 31
0.0
  0
POLYLINE
  5
D5
330
D1
100
AcDbEntity
  8
0
 62
     0
100
AcDb2dPolyline
 66
     1
 10
0.0
 20
0.0
 30
0.0
 70
   128
  0
VERTEX
  5
D6
330
D5
100
AcDbEntity
  8
0
 62
     0
100
AcDbVertex
100
AcDb2dVertex
 10
-0.9999999999999998
 20
-0.0994897959183674
 30
0.0
  0
VERTEX
  5
D7
330
D5
100
AcDbEntity
  8
0
 62
     0
100
AcDbVertex
100
AcDb2dVertex
 10
0.0
 20
0.0
 30
0.0
  0
VERTEX
  5
D9
330
D5
100
AcDbEntity
  8
0
 62
     0
100
AcDbVertex
100
AcDb2dVertex
 10
-0.9999999999999998
 20
0.0994897959183674
 30
0.0
  0
VERTEX
  5
DA
330
D5
100
AcDbEntity
  8
0
 62
     0
100
AcDbVertex
100
AcDb2dVertex
 10
-0.9999999999999998
 20
-0.0994897959183674
 30
0.0
  0
SEQEND
  5
D8
330
D5
100
AcDbEntity
  8
0
 62
     0
  0
SOLID
  5
DB
330
D1
100
AcDbEntity
  8
0
 62
     0
100
AcDbTrace
 10
-0.9999999999999998
 20
-0.0994897959183674
 30
0.0
 11
0.0
 21
0.0
 31
0.0
 12
-0.9999999999999998
 22
0.0994897959183674
 32
0.0
 13
-0.9999999999999998
 23
-0.0994897959183674
 33
0.0
  0
LINE
  5
DC
330
D1
100
AcDbEntity
  8
0
 62
     0
100
AcDbLine
 10
-0.9999999999999998
 20
-0.0994897959183674
 30
0.0
 11
0.0
 21
0.0
 31
0.0
  0
LINE
  5
DD
330
D1
100
AcDbEntity
  8
0
 62
     0
100
AcDbLine
 10
0.0
 20
0.0
 30
0.0
 11
-0.9999999999999998
 21
0.0994897959183674
 31
0.0
  0
LINE
  5
DE
330
D1
100
AcDbEntity
  8
0
 62
     0
100
AcDbLine
 10
-0.9999999999999998
 20
0.0994897959183674
 30
0.0
 11
-0.9999999999999998
 21
-0.0994897959183674
 31
0.0
  0
ENDBLK
  5
D3
330
D1
100
AcDbEntity
  8
0
100
AcDbBlockEnd
  0
BLOCK
  5
E8
330
E3
100
AcDbEntity
  8
0
100
AcDbBlockBegin
  2
_Closed
 70
     0
 10
0.0
 20
0.0
 30
0.0
  3
_Closed
  1

  0
LINE
  5
E4
330
E3
100
AcDbEntity
  8
0
  6
ByBlock
 62
     0
370
    -2
100
AcDbLine
 10
-1.0
 20
0.1666666666666666
 30
0.0
 11
0.0
 21
0.0
 31
0.0
  0
LINE
  5
E5
330
E3
100
AcDbEntity
  8
0
  6
ByBlock
 62
     0
370
    -2
100
AcDbLine
 10
0.0
 20
0.0
 30
0.0
 11
-1.0
 21
-0.1666666666666666
 31
0.0
  0
LINE
  5
E6
330
E3
100
AcDbEntity
  8
0
  6
ByBlock
 62
     0
370
    -2
100
AcDbLine
 10
-1.0
 20
0.1666666666666666
 30
0.0
 11
-1.0
 21
-0.1666666666666666
 31
0.0
  0
LINE
  5
E7
330
E3
100
AcDbEntity
  8
0
  6
ByBlock
 62
     0
370
    -2
100
AcDbLine
 10
0.0
 20
0.0
 30
0.0
 11
-1.0
 21
0.0
 31
0.0
  0
ENDBLK
  5
E9
330
E3
100
AcDbEntity
  8
0
100
AcDbBlockEnd
  0
BLOCK
  5
EB
330
EA
100
AcDbEntity
  8
0
100
AcDbBlockBegin
  2
DatumFilled45
 70
     0
 10
0.0
 20
0.0
 30
0.0
  3
DatumFilled45
  1

  0
POLYLINE
  5
ED
330
EA
100
AcDbEntity
  8
0
 62
     0
100
AcDb2dPolyline
 66
     1
 10
0.0
 20
0.0
 30
0.0
 70
   128
  0
VERTEX
  5
EE
330
ED
100
AcDbEntity
  8
0
 62
     0
100
AcDbVertex
100
AcDb2dVertex
 10
0.0
 20
0.9999999999999998
 30
0.0
  0
VERTEX
  5
EF
330
ED
100
AcDbEntity
  8
0
 62
     0
100
AcDbVertex
100
AcDb2dVertex
 10
0.0
 20
-0.9999999999999998
 30
0.0
  0
VERTEX
  5
F1
330
ED
100
AcDbEntity
  8
0
 62
     0
100
AcDbVertex
100
AcDb2dVertex
 10
-0.9999999999999998
 20
0.0
 30
0.0
  0
VERTEX
  5
F2
330
ED
100
AcDbEntity
  8
0
 62
     0
100
AcDbVertex
100
AcDb2dVertex
 10
0.0
 20
0.9999999999999998
 30
0.0
  0
SEQEND
  5
F0
330
ED
100
AcDbEntity
  8
0
 62
     0
  0
SOLID
  5
F3
330
EA
100
AcDbEntity
  8
0
 62
     0
100
AcDbTrace
 10
0.0
 20
0.9999999999999998
 30
0.0
 11
0.0
 21
-0.9999999999999998
 31
0.0
 12
-0.9999999999999998
 22
0.0
 32
0.0
 13
0.0
 23
0.9999999999999998
 33
0.0
  0
ENDBLK
  5
EC
330
EA
100
AcDbEntity
  8
0
100
AcDbBlockEnd
  0
BLOCK
  5
F6
330
F5
100
AcDbEntity
  8
0
100
AcDbBlockBegin
  2
Borders Default Border
 70
     0
 10
0.0
 20
0.0
 30
0.0
  3
Borders Default Border
  1

  0
POLYLINE
  5
F8
330
F5
100
AcDbEntity
  8
Border (ANSI)
100
AcDb2dPolyline
 66
     1
 10
0.0
 20
0.0
 30
0.0
 70
   128
  0
VERTEX
  5
F9
330
F8
100
AcDbEntity
  8
Border (ANSI)
100
AcDbVertex
100
AcDb2dVertex
 10
0.4999999924907534
 20
0.9999999849815067
 30
0.0
  0
VERTEX
  5
FA
330
F8
100
AcDbEntity
  8
Border (ANSI)
100
AcDbVertex
100
AcDb2dVertex
 10
0.4999999924907534
 20
21.00000006007397
 30
0.0
  0
VERTEX
  5
FC
330
F8
100
AcDbEntity
  8
Border (ANSI)
100
AcDbVertex
100
AcDb2dVertex
 10
33.49999855822466
 20
21.00000006007397
 30
0.0
  0
VERTEX
  5
FD
330
F8
100
AcDbEntity
  8
Border (ANSI)
100
AcDbVertex
100
AcDb2dVertex
 10
33.49999855822466
 20
0.9999999849815067
 30
0.0
  0
VERTEX
  5
FE
330
F8
100
AcDbEntity
  8
Border (ANSI)
100
AcDbVertex
100
AcDb2dVertex
 10
0.4999999924907534
 20
0.9999999849815067
 30
0.0
  0
SEQEND
  5
FB
330
F8
100
AcDbEntity
  8
Border (ANSI)
  0
POLYLINE
  5
FF
330
F5
100
AcDbEntity
  8
Border (ANSI)
100
AcDb2dPolyline
 66
     1
 10
0.0
 20
0.0
 30
0.0
 70
   128
  0
VERTEX
  5
100
330
FF
100
AcDbEntity
  8
Border (ANSI)
100
AcDbVertex
100
AcDb2dVertex
 10
17.00000012014794
 20
0.6000000191485788
 30
0.0
  0
VERTEX
  5
101
330
FF
100
AcDbEntity
  8
Border (ANSI)
100
AcDbVertex
100
AcDb2dVertex
 10
17.00000012014794
 20
0.9999999849815067
 30
0.0
  0
VERTEX
  5
103
330
FF
100
AcDbEntity
  8
Border (ANSI)
100
AcDbVertex
100
AcDb2dVertex
 10
16.88453043539693
 20
0.8000000255314382
 30
0.0
  0
VERTEX
  5
104
330
FF
100
AcDbEntity
  8
Border (ANSI)
100
AcDbVertex
100
AcDb2dVertex
 10
17.11546980489895
 20
0.8000000255314382
 30
0.0
  0
VERTEX
  5
105
330
FF
100
AcDbEntity
  8
Border (ANSI)
100
AcDbVertex
100
AcDb2dVertex
 10
17.00000012014794
 20
0.9999999849815067
 30
0.0
  0
SEQEND
  5
102
330
FF
100
AcDbEntity
  8
Border (ANSI)
  0
POLYLINE
  5
106
330
F5
100
AcDbEntity
  8
Border (ANSI)
100
AcDb2dPolyline
 66
     1
 10
0.0
 20
0.0
 30
0.0
 70
   128
  0
VERTEX
  5
107
330
106
100
AcDbEntity
  8
Border (ANSI)
100
AcDbVertex
100
AcDb2dVertex
 10
17.00000012014794
 20
21.39999960351178
 30
0.0
  0
VERTEX
  5
108
330
106
100
AcDbEntity
  8
Border (ANSI)
100
AcDbVertex
100
AcDb2dVertex
 10
17.00000012014794
 20
21.00000006007397
 30
0.0
  0
VERTEX
  5
10A
330
106
100
AcDbEntity
  8
Border (ANSI)
100
AcDbVertex
100
AcDb2dVertex
 10
16.88453043539693
 20
21.19999983179288
 30
0.0
  0
VERTEX
  5
10B
330
106
100
AcDbEntity
  8
Border (ANSI)
100
AcDbVertex
100
AcDb2dVertex
 10
17.11546980489895
 20
21.19999983179288
 30
0.0
  0
VERTEX
  5
10C
330
106
100
AcDbEntity
  8
Border (ANSI)
100
AcDbVertex
100
AcDb2dVertex
 10
17.00000012014794
 20
21.00000006007397
 30
0.0
  0
SEQEND
  5
109
330
106
100
AcDbEntity
  8
Border (ANSI)
  0
POLYLINE
  5
10D
330
F5
100
AcDbEntity
  8
Border (ANSI)
100
AcDb2dPolyline
 66
     1
 10
0.0
 20
0.0
 30
0.0
 70
   128
  0
VERTEX
  5
10E
330
10D
100
AcDbEntity
  8
Border (ANSI)
100
AcDbVertex
100
AcDb2dVertex
 10
0.1000000031914298
 20
11.0000002102589
 30
0.0
  0
VERTEX
  5
10F
330
10D
100
AcDbEntity
  8
Border (ANSI)
100
AcDbVertex
100
AcDb2dVertex
 10
0.4999999924907534
 20
11.0000002102589
 30
0.0
  0
VERTEX
  5
111
330
10D
100
AcDbEntity
  8
Border (ANSI)
100
AcDbVertex
100
AcDb2dVertex
 10
0.3000000095742894
 20
11.11546989500991
 30
0.0
  0
VERTEX
  5
112
330
10D
100
AcDbEntity
  8
Border (ANSI)
100
AcDbVertex
100
AcDb2dVertex
 10
0.3000000095742894
 20
10.88452977458323
 30
0.0
  0
VERTEX
  5
113
330
10D
100
AcDbEntity
  8
Border (ANSI)
100
AcDbVertex
100
AcDb2dVertex
 10
0.4999999924907534
 20
11.0000002102589
 30
0.0
  0
SEQEND
  5
110
330
10D
100
AcDbEntity
  8
Border (ANSI)
  0
POLYLINE
  5
114
330
F5
100
AcDbEntity
  8
Border (ANSI)
100
AcDb2dPolyline
 66
     1
 10
0.0
 20
0.0
 30
0.0
 70
   128
  0
VERTEX
  5
115
330
114
100
AcDbEntity
  8
Border (ANSI)
100
AcDbVertex
100
AcDb2dVertex
 10
33.90000110536109
 20
11.0000002102589
 30
0.0
  0
VERTEX
  5
116
330
114
100
AcDbEntity
  8
Border (ANSI)
100
AcDbVertex
100
AcDb2dVertex
 10
33.49999855822466
 20
11.0000002102589
 30
0.0
  0
VERTEX
  5
118
330
114
100
AcDbEntity
  8
Border (ANSI)
100
AcDbVertex
100
AcDb2dVertex
 10
33.69999983179287
 20
11.11546989500991
 30
0.0
  0
VERTEX
  5
119
330
114
100
AcDbEntity
  8
Border (ANSI)
100
AcDbVertex
100
AcDb2dVertex
 10
33.69999983179287
 20
10.88452977458323
 30
0.0
  0
VERTEX
  5
11A
330
114
100
AcDbEntity
  8
Border (ANSI)
100
AcDbVertex
100
AcDb2dVertex
 10
33.49999855822466
 20
11.0000002102589
 30
0.0
  0
SEQEND
  5
117
330
114
100
AcDbEntity
  8
Border (ANSI)
  0
LINE
  5
11B
330
F5
100
AcDbEntity
  8
Border (ANSI)
100
AcDbLine
 10
4.250000030036986
 20
0.9999999849815067
 30
0.0
 11
4.250000030036986
 21
0.8399999986483354
 31
0.0
  0
LINE
  5
11C
330
F5
100
AcDbEntity
  8
Border (ANSI)
100
AcDbLine
 10
4.250000030036986
 20
21.00000006007397
 30
0.0
 11
4.250000030036986
 21
21.15999957707923
 31
0.0
  0
LINE
  5
11D
330
F5
100
AcDbEntity
  8
Border (ANSI)
100
AcDbLine
 10
8.500000060073972
 20
0.9999999849815067
 30
0.0
 11
8.500000060073972
 21
0.8399999986483354
 31
0.0
  0
LINE
  5
11E
330
F5
100
AcDbEntity
  8
Border (ANSI)
100
AcDbLine
 10
8.500000060073972
 20
21.00000006007397
 30
0.0
 11
8.500000060073972
 21
21.15999957707923
 31
0.0
  0
LINE
  5
11F
330
F5
100
AcDbEntity
  8
Border (ANSI)
100
AcDbLine
 10
12.7499993391863
 20
0.9999999849815067
 30
0.0
 11
12.7499993391863
 21
0.8399999986483354
 31
0.0
  0
LINE
  5
120
330
F5
100
AcDbEntity
  8
Border (ANSI)
100
AcDbLine
 10
12.7499993391863
 20
21.00000006007397
 30
0.0
 11
12.7499993391863
 21
21.15999957707923
 31
0.0
  0
LINE
  5
121
330
F5
100
AcDbEntity
  8
Border (ANSI)
100
AcDbLine
 10
21.24999939926027
 20
0.9999999849815067
 30
0.0
 11
21.24999939926027
 21
0.8399999986483354
 31
0.0
  0
LINE
  5
122
330
F5
100
AcDbEntity
  8
Border (ANSI)
100
AcDbLine
 10
21.24999939926027
 20
21.00000006007397
 30
0.0
 11
21.24999939926027
 21
21.15999957707923
 31
0.0
  0
LINE
  5
123
330
F5
100
AcDbEntity
  8
Border (ANSI)
100
AcDbLine
 10
25.4999986783726
 20
0.9999999849815067
 30
0.0
 11
25.4999986783726
 21
0.8399999986483354
 31
0.0
  0
LINE
  5
124
330
F5
100
AcDbEntity
  8
Border (ANSI)
100
AcDbLine
 10
25.4999986783726
 20
21.00000006007397
 30
0.0
 11
25.4999986783726
 21
21.15999957707923
 31
0.0
  0
LINE
  5
125
330
F5
100
AcDbEntity
  8
Border (ANSI)
100
AcDbLine
 10
29.75000096118356
 20
0.9999999849815067
 30
0.0
 11
29.75000096118356
 21
0.8399999986483354
 31
0.0
  0
LINE
  5
126
330
F5
100
AcDbEntity
  8
Border (ANSI)
100
AcDbLine
 10
29.75000096118356
 20
21.00000006007397
 30
0.0
 11
29.75000096118356
 21
21.15999957707923
 31
0.0
  0
MTEXT
  5
128
330
F5
100
AcDbEntity
  8
Border (ANSI)
100
AcDbMText
 10
31.8666544961413
 20
21.04
 30
0.0
 40
0.1200000014830762
 41
0.0
 46
0.0
 71
     7
 72
     1
  1
1
  7
Text Style5
 73
     1
 44
1.0
  0
MTEXT
  5
12B
330
F5
100
AcDbEntity
  8
Border (ANSI)
100
AcDbMText
 10
31.8666544961413
 20
0.8399999985169239
 30
0.0
 40
0.1200000014830762
 41
0.0
 46
0.0
 71
     7
 72
     1
  1
1
  7
Text Style5
 73
     1
 44
1.0
  0
MTEXT
  5
12C
330
F5
100
AcDbEntity
  8
Border (ANSI)
100
AcDbMText
 10
27.58858793610194
 20
21.04
 30
0.0
 40
0.1200000014830762
 41
0.0
 46
0.0
 71
     7
 72
     1
  1
2
  7
Text Style5
 73
     1
 44
1.0
  0
MTEXT
  5
12D
330
F5
100
AcDbEntity
  8
Border (ANSI)
100
AcDbMText
 10
27.58858793610194
 20
0.8399999985169239
 30
0.0
 40
0.1200000014830762
 41
0.0
 46
0.0
 71
     7
 72
     1
  1
2
  7
Text Style5
 73
     1
 44
1.0
  0
MTEXT
  5
12E
330
F5
100
AcDbEntity
  8
Border (ANSI)
100
AcDbMText
 10
23.3432016172043
 20
21.03798780484088
 30
0.0
 40
0.1200000014830762
 41
0.0
 46
0.0
 71
     7
 72
     1
  1
3
  7
Text Style5
 73
     1
 44
1.0
  0
MTEXT
  5
12F
330
F5
100
AcDbEntity
  8
Border (ANSI)
100
AcDbMText
 10
23.3432016172043
 20
0.8379878033578073
 30
0.0
 40
0.1200000014830762
 41
0.0
 46
0.0
 71
     7
 72
     1
  1
3
  7
Text Style5
 73
     1
 44
1.0
  0
MTEXT
  5
130
330
F5
100
AcDbEntity
  8
Border (ANSI)
100
AcDbMText
 10
19.08282083472398
 20
21.04
 30
0.0
 40
0.1200000014830762
 41
0.0
 46
0.0
 71
     7
 72
     1
  1
4
  7
Text Style5
 73
     1
 44
1.0
  0
MTEXT
  5
131
330
F5
100
AcDbEntity
  8
Border (ANSI)
100
AcDbMText
 10
19.08282083472398
 20
0.8399999985169236
 30
0.0
 40
0.1200000014830762
 41
0.0
 46
0.0
 71
     7
 72
     1
  1
4
  7
Text Style5
 73
     1
 44
1.0
  0
MTEXT
  5
132
330
F5
100
AcDbEntity
  8
Border (ANSI)
100
AcDbMText
 10
14.8430093804917
 20
21.03798780484088
 30
0.0
 40
0.1200000014830762
 41
0.0
 46
0.0
 71
     7
 72
     1
  1
5
  7
Text Style5
 73
     1
 44
1.0
  0
MTEXT
  5
133
330
F5
100
AcDbEntity
  8
Border (ANSI)
100
AcDbMText
 10
14.8430093804917
 20
0.8379878033578071
 30
0.0
 40
0.1200000014830762
 41
0.0
 46
0.0
 71
     7
 72
     1
  1
5
  7
Text Style5
 73
     1
 44
1.0
  0
MTEXT
  5
134
330
F5
100
AcDbEntity
  8
Border (ANSI)
100
AcDbMText
 10
10.59166372350351
 20
21.03798780484088
 30
0.0
 40
0.1200000014830762
 41
0.0
 46
0.0
 71
     7
 72
     1
  1
6
  7
Text Style5
 73
     1
 44
1.0
  0
MTEXT
  5
135
330
F5
100
AcDbEntity
  8
Border (ANSI)
100
AcDbMText
 10
10.59166372350351
 20
0.8379878033578073
 30
0.0
 40
0.1200000014830762
 41
0.0
 46
0.0
 71
     7
 72
     1
  1
6
  7
Text Style5
 73
     1
 44
1.0
  0
MTEXT
  5
136
330
F5
100
AcDbEntity
  8
Border (ANSI)
100
AcDbMText
 10
6.34512398433028
 20
21.04
 30
0.0
 40
0.1200000014830762
 41
0.0
 46
0.0
 71
     7
 72
     1
  1
7
  7
Text Style5
 73
     1
 44
2.041589736938476
  0
MTEXT
  5
137
330
F5
100
AcDbEntity
  8
Border (ANSI)
100
AcDbMText
 10
6.34512398433028
 20
0.8399999985169236
 30
0.0
 40
0.1200000014830762
 41
0.0
 46
0.0
 71
     7
 72
     1
  1
7
  7
Text Style5
 73
     1
 44
1.0
  0
MTEXT
  5
138
330
F5
100
AcDbEntity
  8
Border (ANSI)
100
AcDbMText
 10
2.0926249070665
 20
21.03798780484088
 30
0.0
 40
0.1200000014830762
 41
0.0
 46
0.0
 71
     7
 72
     1
  1
8
  7
Text Style5
 73
     1
 44
1.0
  0
MTEXT
  5
139
330
F5
100
AcDbEntity
  8
Border (ANSI)
100
AcDbMText
 10
2.0926249070665
 20
0.8379878033578073
 30
0.0
 40
0.1200000014830762
 41
0.0
 46
0.0
 71
     7
 72
     1
  1
8
  7
Text Style5
 73
     1
 44
1.0
  0
LINE
  5
13A
330
F5
100
AcDbEntity
  8
Border (ANSI)
100
AcDbLine
 10
0.4999999924907534
 20
5.500000105129451
 30
0.0
 11
0.3400000061575822
 21
5.500000105129451
 31
0.0
  0
LINE
  5
13B
330
F5
100
AcDbEntity
  8
Border (ANSI)
100
AcDbLine
 10
33.49999855822466
 20
5.500000105129451
 30
0.0
 11
33.65999957707923
 21
5.500000105129451
 31
0.0
  0
LINE
  5
13C
330
F5
100
AcDbEntity
  8
Border (ANSI)
100
AcDbLine
 10
0.4999999924907534
 20
16.49999993992603
 30
0.0
 11
0.3400000061575822
 21
16.49999993992603
 31
0.0
  0
LINE
  5
13D
330
F5
100
AcDbEntity
  8
Border (ANSI)
100
AcDbLine
 10
33.49999855822466
 20
16.49999993992603
 30
0.0
 11
33.65999957707923
 21
16.49999993992603
 31
0.0
  0
MTEXT
  5
13E
330
F5
100
AcDbEntity
  8
Border (ANSI)
100
AcDbMText
 10
0.343456985781512
 20
2.689999999258462
 30
0.0
 40
0.1200000014830762
 41
0.0
 46
0.0
 71
     7
 72
     1
  1
A
  7
Text Style5
 73
     1
 44
1.0
  0
MTEXT
  5
13F
330
F5
100
AcDbEntity
  8
Border (ANSI)
100
AcDbMText
 10
33.54345698726459
 20
2.689999999258462
 30
0.0
 40
0.1200000014830762
 41
0.0
 46
0.0
 71
     7
 72
     1
  1
A
  7
Text Style5
 73
     1
 44
1.0
  0
MTEXT
  5
140
330
F5
100
AcDbEntity
  8
Border (ANSI)
100
AcDbMText
 10
0.3698298411200366
 20
8.189999999258461
 30
0.0
 40
0.1200000014830762
 41
0.0
 46
0.0
 71
     7
 72
     1
  1
B
  7
Text Style5
 73
     1
 44
1.0
  0
MTEXT
  5
141
330
F5
100
AcDbEntity
  8
Border (ANSI)
100
AcDbMText
 10
33.56982984260311
 20
8.189999999258461
 30
0.0
 40
0.1200000014830762
 41
0.0
 46
0.0
 71
     7
 72
     1
  1
B
  7
Text Style5
 73
     1
 44
1.0
  0
MTEXT
  5
142
330
F5
100
AcDbEntity
  8
Border (ANSI)
100
AcDbMText
 10
0.3569447601029254
 20
13.68798780409935
 30
0.0
 40
0.1200000014830762
 41
0.0
 46
0.0
 71
     7
 72
     1
  1
C
  7
Text Style5
 73
     1
 44
1.0
  0
MTEXT
  5
143
330
F5
100
AcDbEntity
  8
Border (ANSI)
100
AcDbMText
 10
33.556944761586
 20
13.68798780409935
 30
0.0
 40
0.1200000014830762
 41
0.0
 46
0.0
 71
     7
 72
     1
  1
C
  7
Text Style5
 73
     1
 44
1.0
  0
MTEXT
  5
144
330
F5
100
AcDbEntity
  8
Border (ANSI)
100
AcDbMText
 10
0.3665565957328466
 20
19.18999999925846
 30
0.0
 40
0.1200000014830762
 41
0.0
 46
0.0
 71
     7
 72
     1
  1
D
  7
Text Style5
 73
     1
 44
1.0
  0
MTEXT
  5
145
330
F5
100
AcDbEntity
  8
Border (ANSI)
100
AcDbMText
 10
33.56655659721592
 20
19.18999999925846
 30
0.0
 40
0.1200000014830762
 41
0.0
 46
0.0
 71
     7
 72
     1
  1
D
  7
Text Style5
 73
     1
 44
1.0
  0
ENDBLK
  5
F7
330
F5
100
AcDbEntity
  8
0
100
AcDbBlockEnd
  0
BLOCK
  5
148
330
147
100
AcDbEntity
  8
0
100
AcDbBlockBegin
  2
Title Blocks Stahlin
 70
     2
 10
0.0
 20
0.0
 30
0.0
  3
Title Blocks Stahlin
  1

  0
LINE
  5
14A
330
147
100
AcDbEntity
  8
TITLE
100
AcDbLine
 10
4.577514908715926
 20
7.818633075947722
 30
0.0
 11
2.494094878669798
 21
7.818633075947722
 31
0.0
  0
LINE
  5
14B
330
147
100
AcDbEntity
  8
TITLE
100
AcDbLine
 10
2.494094878669798
 20
7.818633075947722
 30
0.0
 11
2.494094878669798
 21
7.018407104293005
 31
0.0
  0
LINE
  5
14C
330
147
100
AcDbEntity
  8
TITLE
 62
     7
100
AcDbLine
 10
15.73376490871206
 20
7.420195575947849
 30
0.0
 11
4.577514908715926
 21
7.420195575947849
 31
0.0
  0
LINE
  5
14D
330
147
100
AcDbEntity
  8
TITLE
 62
     7
100
AcDbLine
 10
10.62048365871388
 20
7.818633075947722
 30
0.0
 11
4.577514908715926
 21
7.818633075947722
 31
0.0
  0
LINE
  5
14E
330
147
100
AcDbEntity
  8
TITLE
 62
     7
100
AcDbLine
 10
10.62048365871388
 20
8.21707057594758
 30
0.0
 11
4.577514908715926
 21
8.21707057594758
 31
0.0
  0
LINE
  5
14F
330
147
100
AcDbEntity
  8
TITLE
 62
     7
100
AcDbLine
 10
15.73376490871206
 20
8.615508075947438
 30
0.0
 11
4.577514908715926
 21
8.615508075947438
 31
0.0
  0
LINE
  5
150
330
147
100
AcDbEntity
  8
TITLE
 62
     7
100
AcDbLine
 10
10.62048365871388
 20
8.881133075947339
 30
0.0
 11
4.577514908715926
 21
8.881133075947339
 31
0.0
  0
LINE
  5
151
330
147
100
AcDbEntity
  8
Border (ANSI)
 62
     7
100
AcDbLine
 10
15.73376490871206
 20
9.146758075947252
 30
0.0
 11
4.577514908715926
 21
9.146758075947252
 31
0.0
  0
LINE
  5
152
330
147
100
AcDbEntity
  8
TITLE
 62
     7
100
AcDbLine
 10
9.292483658713884
 20
8.615508075947438
 30
0.0
 11
9.292483658713884
 21
7.005349433107656
 31
0.0
  0
LINE
  5
153
330
147
100
AcDbEntity
  8
TITLE
 62
     7
100
AcDbLine
 10
8.827514908714448
 20
8.21707057594758
 30
0.0
 11
8.827514908714448
 21
7.021758075947992
 31
0.0
  0
LINE
  5
154
330
147
100
AcDbEntity
  8
TITLE
 62
     7
100
AcDbLine
 10
8.362671158714675
 20
8.21707057594758
 30
0.0
 11
8.362671158714675
 21
7.021758075947992
 31
0.0
  0
LINE
  5
155
330
147
100
AcDbEntity
  8
TITLE
 62
     7
100
AcDbLine
 10
7.765014908714902
 20
8.21707057594758
 30
0.0
 11
7.765014908714902
 21
7.021758075947992
 31
0.0
  0
LINE
  5
156
330
147
100
AcDbEntity
  8
TITLE
 62
     7
100
AcDbLine
 10
5.108764908715812
 20
8.21707057594758
 30
0.0
 11
5.108764908715812
 21
7.021758075947992
 31
0.0
  0
LINE
  5
157
330
147
100
AcDbEntity
  8
Border (ANSI)
 62
     7
100
AcDbLine
 10
4.577514908715926
 20
9.146758075947252
 30
0.0
 11
4.577514908715926
 21
7.021758075947992
 31
0.0
  0
LINE
  5
158
330
147
100
AcDbEntity
  8
TITLE
 62
     7
100
AcDbLine
 10
9.292358658714332
 20
7.619414325947793
 30
0.0
 11
4.577514908715926
 21
7.619414325947793
 31
0.0
  0
LINE
  5
159
330
147
100
AcDbEntity
  8
TITLE
 62
     7
100
AcDbLine
 10
9.292358658714332
 20
7.220976825947921
 30
0.0
 11
4.577514908715926
 21
7.220976825947921
 31
0.0
  0
LINE
  5
15A
330
147
100
AcDbEntity
  8
TITLE
 62
     7
100
AcDbLine
 10
9.292483658713884
 20
8.01785182594765
 30
0.0
 11
4.577639908715476
 21
8.01785182594765
 31
0.0
  0
LINE
  5
15B
330
147
100
AcDbEntity
  8
TITLE
 62
     7
100
AcDbLine
 10
15.73376490871206
 20
7.818633075947722
 30
0.0
 11
10.62048365871388
 21
7.818633075947722
 31
0.0
  0
LINE
  5
15C
330
147
100
AcDbEntity
  8
TITLE
 62
     7
100
AcDbLine
 10
10.62048365871388
 20
9.146758075947252
 30
0.0
 11
10.62048365871388
 21
7.005349433107656
 31
0.0
  0
LINE
  5
15D
330
147
100
AcDbEntity
  8
TITLE
 62
     7
100
AcDbLine
 10
9.956483658713883
 20
8.615508075947438
 30
0.0
 11
9.956483658713883
 21
7.403786933107514
 31
0.0
  0
LINE
  5
15E
330
147
100
AcDbEntity
  8
TITLE
 62
     7
100
AcDbLine
 10
13.21032740871297
 20
7.420195575947849
 30
0.0
 11
13.21032740871297
 21
7.021758075947992
 31
0.0
  0
LINE
  5
15F
330
147
100
AcDbEntity
  8
TITLE
 62
     7
100
AcDbLine
 10
14.55693670123892
 20
7.420195575947849
 30
0.0
 11
14.55693670123892
 21
7.818633075947722
 31
0.0
  0
LINE
  5
160
330
147
100
AcDbEntity
  8
TITLE
 62
     7
100
AcDbLine
 10
12.46036198128459
 20
9.152482374619665
 30
0.0
 11
12.46036198128459
 21
8.62123237461985
 31
0.0
  0
MTEXT
  5
161
330
147
100
AcDbEntity
  8
Title (ANSI)
100
AcDbMText
 10
2.581283051197922
 20
7.786837525255097
 30
0.0
 40
0.0699999998873613
 41
0.0
 46
0.0
 71
     1
 72
     1
  1
\fArial|b0|i0;\H0.0700;THIS DRAWING AND THE INFORMATION\PHEREON ARE OUR PROPERTY AND MAY\PBE USED BY OTHERS ONLY AS\PAUTHORIZED BY STAHLIN ENCLOSURES,\PDIVISION OF ROBROY INDUSTRIES\PALL RIGHTS RESERVED\PUNDER THE COPYRIGHT LAWS
  7
Note Text (ANSI)
 73
     2
 44
0.9442213773727416
  0
TEXT
  5
162
330
147
100
AcDbEntity
  8
TITLE
 62
     7
100
AcDbText
 10
5.452514908715927
 20
8.298320575947437
 30
0.0
 40
0.0996093815705908
  1
12 GA. HOT ROLLED STEEL
100
AcDbText
  0
TEXT
  5
163
330
147
100
AcDbEntity
  8
TITLE
 62
     7
100
AcDbText
 10
14.62468791907254
 20
8.723985246348023
 30
0.0
 40
0.0996093815705908
  1
0.015 (0.381)
100
AcDbText
  0
TEXT
  5
164
330
147
100
AcDbEntity
  8
TITLE
 62
     7
100
AcDbText
 10
10.02159515294609
 20
8.29707057594758
 30
0.0
 40
0.0996093815705908
  1
01/12/07
 72
     1
 11
10.29242939233243
 21
8.29707057594758
 31
0.0
100
AcDbText
  0
TEXT
  5
165
330
147
100
AcDbEntity
  8
TITLE
 62
     7
100
AcDbText
 10
9.539380827597126
 20
8.297070575947582
 30
0.0
 40
0.0996093815705908
  1
LB
 72
     1
 11
9.624483658713883
 21
8.297070575947582
 31
0.0
100
AcDbText
  0
TEXT
  5
166
330
147
100
AcDbEntity
  8
TITLE
 62
     7
100
AcDbText
 10
5.818685709783163
 20
8.08732036338263
 30
0.0
 40
0.0818125023616581
  1
REVISION RECORD
  7
ITALIC_180
 72
     1
 11
6.355294247612987
 21
8.08732036338263
 31
0.0
100
AcDbText
  0
TEXT
  5
168
330
147
100
AcDbEntity
  8
TITLE
 62
     7
100
AcDbText
 10
4.726392296242966
 20
8.490508075947438
 30
0.0
 40
0.0818125023616581
  1
MATERIAL
  7
ITALIC_181-Arial
100
AcDbText
  0
TEXT
  5
169
330
147
100
AcDbEntity
  8
TITLE
 62
     7
100
AcDbText
 10
4.739912550755748
 20
8.08732036338263
 30
0.0
 40
0.0818125023616581
  1
LET.
  7
ITALIC_180
 72
     1
 11
4.860594362731932
 21
8.08732036338263
 31
0.0
100
AcDbText
  0
TEXT
  5
16A
330
147
100
AcDbEntity
  8
TITLE
 62
     7
100
AcDbText
 10
4.727186152325538
 20
9.021758075947436
 30
0.0
 40
0.0818125023616581
  1
NOTES:
  7
ITALIC_181-Arial
100
AcDbText
  0
TEXT
  5
16B
330
147
100
AcDbEntity
  8
TITLE
 62
     7
100
AcDbText
 10
7.896038829012821
 20
8.087320363382637
 30
0.0
 40
0.0818125023616581
  1
DATE
  7
ITALIC_180
 72
     1
 11
8.048446703466906
 21
8.087320363382637
 31
0.0
100
AcDbText
  0
TEXT
  5
16C
330
147
100
AcDbEntity
  8
TITLE
 62
     7
100
AcDbText
 10
8.51270445423108
 20
8.08732036338263
 30
0.0
 40
0.0818125023616581
  1
BY
  7
ITALIC_180
 72
     1
 11
8.58893629476725
 21
8.08732036338263
 31
0.0
100
AcDbText
  0
TEXT
  5
16D
330
147
100
AcDbEntity
  8
TITLE
 62
     7
100
AcDbText
 10
8.909040255791561
 20
8.08732036338263
 30
0.0
 40
0.0818125023616581
  1
CHD.
  7
ITALIC_180
 72
     1
 11
9.048724221283531
 21
8.08732036338263
 31
0.0
100
AcDbText
  0
TEXT
  5
16E
330
147
100
AcDbEntity
  8
TITLE
 62
     7
100
AcDbText
 10
14.46980800545204
 20
8.763349351005194
 30
0.0
 40
0.0824765602904042
  1
+
  7
ITALIC_186
100
AcDbText
  0
TEXT
  5
16F
330
147
100
AcDbEntity
  8
TITLE
 62
     7
100
AcDbText
 10
14.46980800545204
 20
8.682711774292775
 30
0.0
 40
0.0824765602904042
  1
-
  7
ITALIC_186
100
AcDbText
  0
TEXT
  5
170
330
147
100
AcDbEntity
  8
TITLE
 62
     7
100
AcDbText
 10
14.08646096724307
 20
8.723985246348023
 30
0.0
 40
0.0824765602904042
  1
.XXX
  7
ITALIC_186
100
AcDbText
  0
TEXT
  5
171
330
147
100
AcDbEntity
  8
TITLE
 62
     7
100
AcDbText
 10
9.769085034613988
 20
7.261037545932001
 30
0.0
 40
0.0818125023616581
  1
SCALE
  7
ITALIC_180
 72
     1
 11
9.956483658713883
 21
7.261037545932001
 31
0.0
100
AcDbText
  0
TEXT
  5
172
330
147
100
AcDbEntity
  8
TITLE
 62
     7
100
AcDbText
 10
9.399080727582411
 20
7.688633075947723
 30
0.0
 40
0.0818125023616581
  1
APD. BY
  7
ITALIC_180
 72
     1
 11
9.624483658713883
 21
7.688633075947723
 31
0.0
100
AcDbText
  0
TEXT
  5
173
330
147
100
AcDbEntity
  8
TITLE
 62
     7
100
AcDbText
 10
10.1360757842598
 20
7.688633075947723
 30
0.0
 40
0.0818125023616581
  1
DATE
  7
ITALIC_180
 72
     1
 11
10.28848365871388
 21
7.688633075947723
 31
0.0
100
AcDbText
  0
TEXT
  5
174
330
147
100
AcDbEntity
  8
TITLE
 62
     7
100
AcDbText
 10
10.74048775129924
 20
7.688633075947722
 30
0.0
 40
0.0899937502511843
  1
CUSTOMER
  7
ITALIC_191
100
AcDbText
  0
TEXT
  5
175
330
147
100
AcDbEntity
  8
TITLE
 62
     7
100
AcDbText
 10
10.74048775129924
 20
7.290195575947849
 30
0.0
 40
0.0899937502511843
  1
PART NAME
  7
ITALIC_191
100
AcDbText
  0
TEXT
  5
176
330
147
100
AcDbEntity
  8
TITLE
 62
     7
100
AcDbText
 10
13.33032740871297
 20
7.290195575947853
 30
0.0
 40
0.0899937502511843
  1
PART NO.
  7
ITALIC_191
100
AcDbText
  0
TEXT
  5
177
330
147
100
AcDbEntity
  8
TITLE
 62
     7
100
AcDbText
 10
9.395843943723628
 20
8.08732036338263
 30
0.0
 40
0.0818125023616581
  1
CHK. BY
  7
ITALIC_180
 72
     1
 11
9.624483658713883
 21
8.08732036338263
 31
0.0
100
AcDbText
  0
TEXT
  5
178
330
147
100
AcDbEntity
  8
TITLE
 62
     7
100
AcDbText
 10
9.433959863991713
 20
8.485508075947439
 30
0.0
 40
0.0818125023616581
  1
DR. BY
  7
ITALIC_180
 72
     1
 11
9.624483658713883
 21
8.485508075947439
 31
0.0
100
AcDbText
  0
TEXT
  5
179
330
147
100
AcDbEntity
  8
TITLE
 62
     7
100
AcDbText
 10
10.1360757842598
 20
8.087320363382632
 30
0.0
 40
0.0818125023616581
  1
DATE
  7
ITALIC_180
 72
     1
 11
10.28848365871388
 21
8.087320363382632
 31
0.0
100
AcDbText
  0
TEXT
  5
17A
330
147
100
AcDbEntity
  8
TITLE
 62
     7
100
AcDbText
 10
10.1360757842598
 20
8.485508075947439
 30
0.0
 40
0.0818125023616581
  1
DATE
  7
ITALIC_180
 72
     1
 11
10.28848365871388
 21
8.485508075947439
 31
0.0
100
AcDbText
  0
TEXT
  5
17B
330
147
100
AcDbEntity
  8
TITLE
 62
     7
100
AcDbText
 10
12.75473842883989
 20
8.741238191309086
 30
0.0
 40
0.0824765602904042
  1
UNLESS SPECIFIED
  7
ITALIC_187
 72
     1
 11
13.30537917498063
 21
8.741238191309086
 31
0.0
100
AcDbText
  0
TEXT
  5
17C
330
147
100
AcDbEntity
  8
TITLE
 62
     7
100
AcDbText
 10
12.91482509480602
 20
8.935897686850758
 30
0.0
 40
0.0824765602904042
  1
TOLERANCES
  7
ITALIC_187
 72
     1
 11
13.30537917498063
 21
8.935897686850758
 31
0.0
100
AcDbText
  0
TEXT
  5
17D
330
147
100
AcDbEntity
  8
TITLE
 62
     7
100
AcDbText
 10
14.10092407113986
 20
8.93589768685076
 30
0.0
 40
0.0824765602904042
  1
.XX
  7
ITALIC_186
100
AcDbText
  0
TEXT
  5
17E
330
147
100
AcDbEntity
  8
TITLE
 62
     7
100
AcDbText
 10
14.46791747213411
 20
8.96267554330536
 30
0.0
 40
0.0824765602904042
  1
+
  7
ITALIC_186
100
AcDbText
  0
TEXT
  5
17F
330
147
100
AcDbEntity
  8
TITLE
 62
     7
100
AcDbText
 10
14.46791747213411
 20
8.90375890402475
 30
0.0
 40
0.0824765602904042
  1
-
  7
ITALIC_186
100
AcDbText
  0
TEXT
  5
180
330
147
100
AcDbEntity
  8
TITLE
 62
     7
100
AcDbText
 10
14.62951444226013
 20
8.93589768685076
 30
0.0
 40
0.0996093815705908
  1
0.03 (0.76)
100
AcDbText
  0
MTEXT
  5
181
330
147
100
AcDbEntity
  8
Title (ANSI)
100
AcDbMText
 10
11.54927456472802
 20
9.034141029898576
 30
0.0
 40
0.0818125023616581
 41
0.0
 46
0.0
 71
     2
 72
     1
  1
\fArial|b0|i0;\H0.0818;ALL DIMENSIONS ARE\PINCHES (MILLIMETERS)\PUNLESS SPECIFIED
  7
Note Text (ANSI)
 73
     2
 44
0.9442214369773864
  0
ATTDEF
  5
182
330
147
100
AcDbEntity
  8
TITLE
 62
     7
100
AcDbText
 10
5.452514908715927
 20
8.696758075947437
 30
0.0
 40
0.0996093815705908
  1

100
AcDbAttributeDefinition
280
     0
  3
NOTE_2
  2
NOTE_2
 70
     0
280
     0
  0
ATTDEF
  5
183
330
147
100
AcDbEntity
  8
TITLE
 62
     7
100
AcDbText
 10
5.452514908715927
 20
8.962383075947437
 30
0.0
 40
0.0996093815705908
  1

100
AcDbAttributeDefinition
280
     0
  3
NOTE_1
  2
NOTE_1
 70
     0
280
     0
  0
ATTDEF
  5
184
330
147
100
AcDbEntity
  8
TITLE
 62
     7
100
AcDbText
 10
11.37048365871388
 20
7.087958621407276
 30
0.0
 40
0.1249999981226883
  1

 11
11.37048365871388
 21
7.071758075947991
 31
0.0
100
AcDbAttributeDefinition
280
     0
  3
DESCRIPTION
  2
DESCRIPTION
 70
     0
 74
     1
280
     0
  0
ATTDEF
  5
185
330
147
100
AcDbEntity
  8
TITLE
 62
     7
100
AcDbText
 10
10.28848365871388
 20
7.911542886656055
 30
0.0
 40
0.0996093815705908
  1

 72
     1
 11
10.28848365871388
 21
7.898633075947724
 31
0.0
100
AcDbAttributeDefinition
280
     0
  3
CHECKED DATE
  2
CHECKED_DATE
 70
     0
 74
     1
280
     0
  0
ATTDEF
  5
186
330
147
100
AcDbEntity
  8
TITLE
 62
     7
100
AcDbText
 10
9.624483658713883
 20
7.898633075947724
 30
0.0
 40
0.0996093815705908
  1

 72
     1
 11
9.624483658713883
 21
7.898633075947724
 31
0.0
100
AcDbAttributeDefinition
280
     0
  3
CHECKED BY
  2
CHECKED_BY
 70
     0
280
     0
  0
ATTDEF
  5
187
330
147
100
AcDbEntity
  8
TITLE
 62
     7
100
AcDbText
 10
9.624483658713883
 20
7.500195575947851
 30
0.0
 40
0.0996093815705908
  1

 72
     1
 11
9.624483658713883
 21
7.500195575947851
 31
0.0
100
AcDbAttributeDefinition
280
     0
  3
ENG APPROVED BY
  2
ENG_APPROVED_BY
 70
     0
280
     0
  0
ATTDEF
  5
188
330
147
100
AcDbEntity
  8
TITLE
 62
     7
100
AcDbText
 10
11.37048365871388
 20
7.483105386656179
 30
0.0
 40
0.0996093815705908
  1

 11
11.37048365871388
 21
7.470195575947848
 31
0.0
100
AcDbAttributeDefinition
280
     0
  3
CUSTOMER
  2
CUSTOMER
 70
     0
 74
     1
280
     0
  0
ATTDEF
  5
189
330
147
100
AcDbEntity
  8
Title (ANSI)
100
AcDbText
 10
10.28850059809647
 20
7.513271019414488
 30
0.0
 40
0.1000000031914298
  1

  7
Note Text (ANSI)
 72
     1
 11
10.28850059809647
 21
7.500310582438791
 31
0.0
100
AcDbAttributeDefinition
280
     0
  3
ENG APPROVAL DATE
  2
ENG_APPROVAL_DATE
 70
     0
 74
     1
280
     0
  0
ENDBLK
  5
149
330
147
100
AcDbEntity
  8
0
100
AcDbBlockEnd
  0
BLOCK
  5
1EF
330
1E4
100
AcDbEntity
  8
0
100
AcDbBlockBegin
  2
*D6
 70
     1
 10
0.0
 20
0.0
 30
0.0
  3
*D6
  1

  0
LINE
  5
2AB
330
1E4
100
AcDbEntity
  8
Dimension (ANSI)
440
 16777216
100
AcDbLine
 10
57.84635672982282
 20
67.32945311539274
 30
0.0
 11
57.84635672982282
 21
69.8690622885396
 31
0.0
  0
LINE
  5
2AC
330
1E4
100
AcDbEntity
  8
Dimension (ANSI)
440
 16777216
100
AcDbLine
 10
57.74135672982282
 20
67.32945311539274
 30
0.0
 11
57.74135672982282
 21
69.8690622885396
 31
0.0
  0
LINE
  5
2AD
330
1E4
100
AcDbEntity
  8
Dimension (ANSI)
440
 16777216
100
AcDbLine
 10
57.34765595133848
 20
69.36906228853961
 30
0.0
 11
56.95395517285414
 21
69.36906228853961
 31
0.0
  0
LINE
  5
2AE
330
1E4
100
AcDbEntity
  8
Dimension (ANSI)
440
 16777216
100
AcDbLine
 10
58.24005750830718
 20
69.36906228853961
 30
0.0
 11
58.93842717999897
 21
69.36906228853961
 31
0.0
  0
SOLID
  5
2AF
330
1E4
100
AcDbEntity
  8
Dimension (ANSI)
440
 16777216
100
AcDbTrace
 10
57.34765595133848
 20
69.43467908495367
 30
0.0
 11
57.34765595133848
 21
69.30344549212555
 31
0.0
 12
57.74135672982282
 22
69.36906228853961
 32
0.0
 13
57.74135672982282
 23
69.36906228853961
 33
0.0
  0
SOLID
  5
2B0
330
1E4
100
AcDbEntity
  8
Dimension (ANSI)
440
 16777216
100
AcDbTrace
 10
58.24005750830718
 20
69.43467908495367
 30
0.0
 11
58.24005750830718
 21
69.30344549212555
 31
0.0
 12
57.84635672982282
 22
69.36906228853961
 32
0.0
 13
57.84635672982282
 23
69.36906228853961
 33
0.0
  0
MTEXT
  5
2B1
330
1E4
100
AcDbEntity
  8
Dimension (ANSI)
440
 16777216
100
AcDbMText
 10
59.06441143196747
 20
70.07765713252201
 30
0.0
 40
0.4800000190734864
 41
0.0
 46
0.0
 71
     1
 72
     1
  1
\A1;0.105\P [2.7]
  7
Note Text (ANSI)
 73
     1
 44
1.0
  0
POINT
  5
2B2
330
1E4
100
AcDbEntity
  8
Defpoints
 62
     0
440
 16777216
100
AcDbPoint
 10
57.84635672982282
 20
67.07945311539273
 30
0.0
  0
POINT
  5
2B3
330
1E4
100
AcDbEntity
  8
Defpoints
 62
     0
440
 16777216
100
AcDbPoint
 10
57.74135672982282
 20
67.07945311539273
 30
0.0
  0
POINT
  5
2B4
330
1E4
100
AcDbEntity
  8
Defpoints
 62
     0
440
 16777216
100
AcDbPoint
 10
57.74135672982282
 20
69.36906228853961
 30
0.0
  0
ENDBLK
  5
1F0
330
1E4
100
AcDbEntity
  8
0
100
AcDbBlockEnd
  0
BLOCK
  5
2C1
330
2B6
100
AcDbEntity
  8
0
100
AcDbBlockBegin
  2
*D7
 70
     1
 10
0.0
 20
0.0
 30
0.0
  3
*D7
  1

  0
LINE
  5
38F
330
2B6
100
AcDbEntity
  8
Dimension (ANSI)
440
 16777216
100
AcDbLine
 10
58.09635672982283
 20
67.07945311539273
 30
0.0
 11
61.79878440193602
 21
67.07945311539273
 31
0.0
  0
LINE
  5
390
330
2B6
100
AcDbEntity
  8
Dimension (ANSI)
440
 16777216
100
AcDbLine
 10
57.97135672982283
 20
66.57945311539271
 30
0.0
 11
61.79878440193602
 21
66.57945311539271
 31
0.0
  0
LINE
  5
391
330
2B6
100
AcDbEntity
  8
Dimension (ANSI)
440
 16777216
100
AcDbLine
 10
61.29878440193603
 20
66.18575233690837
 30
0.0
 11
61.29878440193603
 21
65.79205155842402
 31
0.0
  0
LINE
  5
392
330
2B6
100
AcDbEntity
  8
Dimension (ANSI)
440
 16777216
100
AcDbLine
 10
61.29878440193603
 20
67.47315389387708
 30
0.0
 11
61.29878440193603
 21
68.85976521281512
 31
0.0
  0
LINE
  5
393
330
2B6
100
AcDbEntity
  8
Dimension (ANSI)
440
 16777216
100
AcDbLine
 10
61.29878440193603
 20
68.85976521281512
 30
0.0
 11
61.69248518042037
 21
68.85976521281512
 31
0.0
  0
SOLID
  5
394
330
2B6
100
AcDbEntity
  8
Dimension (ANSI)
440
 16777216
100
AcDbTrace
 10
61.23316760552197
 20
66.18575233690837
 30
0.0
 11
61.36440119835008
 21
66.18575233690837
 31
0.0
 12
61.29878440193603
 22
66.57945311539271
 32
0.0
 13
61.29878440193603
 23
66.57945311539271
 33
0.0
  0
SOLID
  5
395
330
2B6
100
AcDbEntity
  8
Dimension (ANSI)
440
 16777216
100
AcDbTrace
 10
61.23316760552197
 20
67.47315389387708
 30
0.0
 11
61.36440119835008
 21
67.47315389387708
 31
0.0
 12
61.29878440193603
 22
67.07945311539273
 32
0.0
 13
61.29878440193603
 23
67.07945311539273
 33
0.0
  0
MTEXT
  5
396
330
2B6
100
AcDbEntity
  8
Dimension (ANSI)
440
 16777216
100
AcDbMText
 10
61.81846943238887
 20
69.56836005679753
 30
0.0
 40
0.4800000190734864
 41
0.0
 46
0.0
 71
     1
 72
     1
  1
\A1;0.50\P [12.7]
  7
Note Text (ANSI)
 73
     1
 44
1.0
  0
POINT
  5
397
330
2B6
100
AcDbEntity
  8
Defpoints
 62
     0
440
 16777216
100
AcDbPoint
 10
57.84635672982282
 20
67.07945311539273
 30
0.0
  0
POINT
  5
398
330
2B6
100
AcDbEntity
  8
Defpoints
 62
     0
440
 16777216
100
AcDbPoint
 10
57.72135672982283
 20
66.57945311539271
 30
0.0
  0
POINT
  5
399
330
2B6
100
AcDbEntity
  8
Defpoints
 62
     0
440
 16777216
100
AcDbPoint
 10
61.29878440193603
 20
66.57945311539271
 30
0.0
  0
ENDBLK
  5
2C2
330
2B6
100
AcDbEntity
  8
0
100
AcDbBlockEnd
  0
BLOCK
  5
3A1
330
39B
100
AcDbEntity
  8
0
100
AcDbBlockBegin
  2
*D8
 70
     1
 10
0.0
 20
0.0
 30
0.0
  3
*D8
  1

  0
LINE
  5
42B
330
39B
100
AcDbEntity
  8
Dimension (ANSI)
440
 16777216
100
AcDbLine
 10
59.17361424188862
 20
64.92313898334962
 30
0.0
 11
58.74979892346946
 21
64.92313898334962
 31
0.0
  0
LINE
  5
42C
330
39B
100
AcDbEntity
  8
Dimension (ANSI)
440
 16777216
100
AcDbLine
 10
58.74979892346946
 20
64.92313898334962
 30
0.0
 11
57.98070711906506
 21
66.25524506426254
 31
0.0
  0
MTEXT
  5
42D
330
39B
100
AcDbEntity
  8
Dimension (ANSI)
440
 16777216
100
AcDbMText
 10
59.29959849385713
 20
65.63173382733201
 30
0.0
 40
0.4800000190734864
 41
0.0
 46
0.0
 71
     1
 72
     1
  1
\A1;R0.13\P [R3.2]
  7
Note Text (ANSI)
 73
     1
 44
1.0
  0
SOLID
  5
42E
330
39B
100
AcDbEntity
  8
Dimension (ANSI)
440
 16777216
100
AcDbTrace
 10
58.03753293167459
 20
66.28805346246958
 30
0.0
 11
57.92388130645552
 21
66.2224366660555
 31
0.0
 12
57.78385672982285
 22
66.59619993991967
 32
0.0
 13
57.78385672982285
 23
66.59619993991967
 33
0.0
  0
POINT
  5
42F
330
39B
100
AcDbEntity
  8
Defpoints
 62
     0
440
 16777216
100
AcDbPoint
 10
57.78385672982285
 20
66.59619993991967
 30
0.0
  0
POINT
  5
430
330
39B
100
AcDbEntity
  8
Defpoints
 62
     0
440
 16777216
100
AcDbPoint
 10
57.72135672982283
 20
66.70445311539272
 30
0.0
  0
ENDBLK
  5
3A2
330
39B
100
AcDbEntity
  8
0
100
AcDbBlockEnd
  0
BLOCK
  5
43D
330
432
100
AcDbEntity
  8
0
100
AcDbBlockBegin
  2
*D9
 70
     1
 10
0.0
 20
0.0
 30
0.0
  3
*D9
  1

  0
LINE
  5
4F9
330
432
100
AcDbEntity
  8
Dimension (ANSI)
440
 16777216
100
AcDbLine
 10
56.84635672982282
 20
42.19431683397668
 30
0.0
 11
56.84635672982282
 21
47.43181796336736
 31
0.0
  0
LINE
  5
4FA
330
432
100
AcDbEntity
  8
Dimension (ANSI)
440
 16777216
100
AcDbLine
 10
36.84635672982283
 20
42.19431683397668
 30
0.0
 11
36.84635672982283
 21
47.43181796336736
 31
0.0
  0
LINE
  5
4FB
330
432
100
AcDbEntity
  8
Dimension (ANSI)
440
 16777216
100
AcDbLine
 10
56.45265595133848
 20
46.93181796336737
 30
0.0
 11
47.29367399217234
 21
46.93181796336737
 31
0.0
  0
LINE
  5
4FC
330
432
100
AcDbEntity
  8
Dimension (ANSI)
440
 16777216
100
AcDbLine
 10
37.24005750830718
 20
46.93181796336737
 30
0.0
 11
44.89382000043038
 21
46.93181796336737
 31
0.0
  0
SOLID
  5
4FD
330
432
100
AcDbEntity
  8
Dimension (ANSI)
440
 16777216
100
AcDbTrace
 10
56.45265595133848
 20
46.99743475978142
 30
0.0
 11
56.45265595133848
 21
46.86620116695331
 31
0.0
 12
56.84635672982282
 22
46.93181796336737
 32
0.0
 13
56.84635672982282
 23
46.93181796336737
 33
0.0
  0
SOLID
  5
4FE
330
432
100
AcDbEntity
  8
Dimension (ANSI)
440
 16777216
100
AcDbTrace
 10
37.24005750830718
 20
46.99743475978142
 30
0.0
 11
37.24005750830718
 21
46.86620116695331
 31
0.0
 12
36.84635672982283
 22
46.93181796336737
 32
0.0
 13
36.84635672982283
 23
46.93181796336737
 33
0.0
  0
MTEXT
  5
4FF
330
432
100
AcDbEntity
  8
Dimension (ANSI)
440
 16777216
100
AcDbMText
 10
45.01980425239888
 20
47.64041280734977
 30
0.0
 40
0.4800000190734864
 41
0.0
 46
0.0
 71
     1
 72
     1
  1
\A1;20.000\P [508.0]
  7
Note Text (ANSI)
 73
     1
 44
1.0
  0
POINT
  5
500
330
432
100
AcDbEntity
  8
Defpoints
 62
     0
440
 16777216
100
AcDbPoint
 10
56.84635672982282
 20
41.94431683397668
 30
0.0
  0
POINT
  5
501
330
432
100
AcDbEntity
  8
Defpoints
 62
     0
440
 16777216
100
AcDbPoint
 10
36.84635672982283
 20
41.94431683397668
 30
0.0
  0
POINT
  5
502
330
432
100
AcDbEntity
  8
Defpoints
 62
     0
440
 16777216
100
AcDbPoint
 10
36.84635672982283
 20
46.93181796336737
 30
0.0
  0
ENDBLK
  5
43E
330
432
100
AcDbEntity
  8
0
100
AcDbBlockEnd
  0
BLOCK
  5
50F
330
504
100
AcDbEntity
  8
0
100
AcDbBlockBegin
  2
*D10
 70
     1
 10
0.0
 20
0.0
 30
0.0
  3
*D10
  1

  0
LINE
  5
5CB
330
504
100
AcDbEntity
  8
Dimension (ANSI)
440
 16777216
100
AcDbLine
 10
57.84635672982282
 20
43.06931683397667
 30
0.0
 11
57.84635672982282
 21
50.13309520811546
 31
0.0
  0
LINE
  5
5CC
330
504
100
AcDbEntity
  8
Dimension (ANSI)
440
 16777216
100
AcDbLine
 10
35.84635672982283
 20
43.06931683397667
 30
0.0
 11
35.84635672982283
 21
50.13309520811546
 31
0.0
  0
LINE
  5
5CD
330
504
100
AcDbEntity
  8
Dimension (ANSI)
440
 16777216
100
AcDbLine
 10
57.45265595133848
 20
49.63309520811546
 30
0.0
 11
48.04628372569381
 21
49.63309520811546
 31
0.0
  0
LINE
  5
5CE
330
504
100
AcDbEntity
  8
Dimension (ANSI)
440
 16777216
100
AcDbLine
 10
36.24005750830717
 20
49.63309520811546
 30
0.0
 11
45.64642973395184
 21
49.63309520811546
 31
0.0
  0
SOLID
  5
5CF
330
504
100
AcDbEntity
  8
Dimension (ANSI)
440
 16777216
100
AcDbTrace
 10
57.45265595133848
 20
49.69871200452952
 30
0.0
 11
57.45265595133848
 21
49.56747841170141
 31
0.0
 12
57.84635672982282
 22
49.63309520811546
 32
0.0
 13
57.84635672982282
 23
49.63309520811546
 33
0.0
  0
SOLID
  5
5D0
330
504
100
AcDbEntity
  8
Dimension (ANSI)
440
 16777216
100
AcDbTrace
 10
36.24005750830717
 20
49.69871200452952
 30
0.0
 11
36.24005750830717
 21
49.56747841170141
 31
0.0
 12
35.84635672982283
 22
49.63309520811546
 32
0.0
 13
35.84635672982283
 23
49.63309520811546
 33
0.0
  0
MTEXT
  5
5D1
330
504
100
AcDbEntity
  8
Dimension (ANSI)
440
 16777216
100
AcDbMText
 10
45.77241398592035
 20
50.34169005209786
 30
0.0
 40
0.4800000190734864
 41
0.0
 46
0.0
 71
     1
 72
     1
  1
\A1;22.00\P [558.8]
  7
Note Text (ANSI)
 73
     1
 44
1.0
  0
POINT
  5
5D2
330
504
100
AcDbEntity
  8
Defpoints
 62
     0
440
 16777216
100
AcDbPoint
 10
57.84635672982282
 20
42.81931683397668
 30
0.0
  0
POINT
  5
5D3
330
504
100
AcDbEntity
  8
Defpoints
 62
     0
440
 16777216
100
AcDbPoint
 10
35.84635672982283
 20
42.81931683397668
 30
0.0
  0
POINT
  5
5D4
330
504
100
AcDbEntity
  8
Defpoints
 62
     0
440
 16777216
100
AcDbPoint
 10
35.84635672982283
 20
49.63309520811546
 30
0.0
  0
ENDBLK
  5
510
330
504
100
AcDbEntity
  8
0
100
AcDbBlockEnd
  0
BLOCK
  5
5E1
330
5D6
100
AcDbEntity
  8
0
100
AcDbBlockBegin
  2
*D11
 70
     1
 10
0.0
 20
0.0
 30
0.0
  3
*D11
  1

  0
LINE
  5
69D
330
5D6
100
AcDbEntity
  8
Dimension (ANSI)
440
 16777216
100
AcDbLine
 10
57.97135672982283
 20
42.94431683397667
 30
0.0
 11
67.6135669618141
 21
42.94431683397667
 31
0.0
  0
LINE
  5
69E
330
5D6
100
AcDbEntity
  8
Dimension (ANSI)
440
 16777216
100
AcDbLine
 10
57.97135672982283
 20
11.94431683397668
 30
0.0
 11
67.61356696181408
 21
11.94431683397668
 31
0.0
  0
LINE
  5
69F
330
5D6
100
AcDbEntity
  8
Dimension (ANSI)
440
 16777216
100
AcDbLine
 10
67.1135669618141
 20
42.55061605549233
 30
0.0
 11
67.11356696181408
 21
28.27889592992758
 31
0.0
  0
LINE
  5
6A0
330
5D6
100
AcDbEntity
  8
Dimension (ANSI)
440
 16777216
100
AcDbLine
 10
67.11356696181408
 20
12.33801761246102
 30
0.0
 11
67.11356696181408
 21
26.60973773802576
 31
0.0
  0
SOLID
  5
6A1
330
5D6
100
AcDbEntity
  8
Dimension (ANSI)
440
 16777216
100
AcDbTrace
 10
67.04795016540003
 20
42.55061605549233
 30
0.0
 11
67.17918375822816
 21
42.55061605549233
 31
0.0
 12
67.1135669618141
 22
42.94431683397667
 32
0.0
 13
67.1135669618141
 23
42.94431683397667
 33
0.0
  0
SOLID
  5
6A2
330
5D6
100
AcDbEntity
  8
Dimension (ANSI)
440
 16777216
100
AcDbTrace
 10
67.04795016540002
 20
12.33801761246102
 30
0.0
 11
67.17918375822815
 21
12.33801761246102
 31
0.0
 12
67.11356696181408
 22
11.94431683397668
 32
0.0
 13
67.11356696181408
 23
11.94431683397668
 33
0.0
  0
MTEXT
  5
6A3
330
5D6
100
AcDbEntity
  8
Dimension (ANSI)
440
 16777216
100
AcDbMText
 10
66.03962421791161
 20
28.15291167795909
 30
0.0
 40
0.4800000190734864
 41
0.0
 46
0.0
 71
     1
 72
     1
  1
\A1;31.00\P [787.4]
  7
Note Text (ANSI)
 73
     1
 44
1.0
  0
POINT
  5
6A4
330
5D6
100
AcDbEntity
  8
Defpoints
 62
     0
440
 16777216
100
AcDbPoint
 10
57.72135672982283
 20
42.94431683397667
 30
0.0
  0
POINT
  5
6A5
330
5D6
100
AcDbEntity
  8
Defpoints
 62
     0
440
 16777216
100
AcDbPoint
 10
57.72135672982283
 20
11.94431683397668
 30
0.0
  0
POINT
  5
6A6
330
5D6
100
AcDbEntity
  8
Defpoints
 62
     0
440
 16777216
100
AcDbPoint
 10
67.11356696181408
 20
11.94431683397668
 30
0.0
  0
ENDBLK
  5
5E2
330
5D6
100
AcDbEntity
  8
0
100
AcDbBlockEnd
  0
BLOCK
  5
6B3
330
6A8
100
AcDbEntity
  8
0
100
AcDbBlockBegin
  2
*D12
 70
     1
 10
0.0
 20
0.0
 30
0.0
  3
*D12
  1

  0
LINE
  5
76F
330
6A8
100
AcDbEntity
  8
Dimension (ANSI)
440
 16777216
100
AcDbLine
 10
57.09635672982282
 20
41.94431683397668
 30
0.0
 11
62.70068743848424
 21
41.94431683397668
 31
0.0
  0
LINE
  5
770
330
6A8
100
AcDbEntity
  8
Dimension (ANSI)
440
 16777216
100
AcDbLine
 10
57.09635672982282
 20
27.44431683397669
 30
0.0
 11
62.70068743848424
 21
27.44431683397669
 31
0.0
  0
LINE
  5
771
330
6A8
100
AcDbEntity
  8
Dimension (ANSI)
440
 16777216
100
AcDbLine
 10
62.20068743848425
 20
41.55061605549234
 30
0.0
 11
62.20068743848425
 21
35.52889592992759
 31
0.0
  0
LINE
  5
772
330
6A8
100
AcDbEntity
  8
Dimension (ANSI)
440
 16777216
100
AcDbLine
 10
62.20068743848425
 20
27.83801761246103
 30
0.0
 11
62.20068743848425
 21
33.85973773802578
 31
0.0
  0
SOLID
  5
773
330
6A8
100
AcDbEntity
  8
Dimension (ANSI)
440
 16777216
100
AcDbTrace
 10
62.13507064207019
 20
41.55061605549234
 30
0.0
 11
62.26630423489829
 21
41.55061605549234
 31
0.0
 12
62.20068743848425
 22
41.94431683397668
 32
0.0
 13
62.20068743848425
 23
41.94431683397668
 33
0.0
  0
SOLID
  5
774
330
6A8
100
AcDbEntity
  8
Dimension (ANSI)
440
 16777216
100
AcDbTrace
 10
62.13507064207019
 20
27.83801761246103
 30
0.0
 11
62.26630423489829
 21
27.83801761246103
 31
0.0
 12
62.20068743848425
 22
27.44431683397669
 32
0.0
 13
62.20068743848425
 23
27.44431683397669
 33
0.0
  0
MTEXT
  5
775
330
6A8
100
AcDbEntity
  8
Dimension (ANSI)
440
 16777216
100
AcDbMText
 10
61.12674469458176
 20
35.4029116779591
 30
0.0
 40
0.4800000190734864
 41
0.0
 46
0.0
 71
     1
 72
     1
  1
\A1;14.500\P [368.3]
  7
Note Text (ANSI)
 73
     1
 44
1.0
  0
POINT
  5
776
330
6A8
100
AcDbEntity
  8
Defpoints
 62
     0
440
 16777216
100
AcDbPoint
 10
56.84635672982282
 20
41.94431683397668
 30
0.0
  0
POINT
  5
777
330
6A8
100
AcDbEntity
  8
Defpoints
 62
     0
440
 16777216
100
AcDbPoint
 10
56.84635672982282
 20
27.44431683397669
 30
0.0
  0
POINT
  5
778
330
6A8
100
AcDbEntity
  8
Defpoints
 62
     0
440
 16777216
100
AcDbPoint
 10
62.20068743848425
 20
27.44431683397669
 30
0.0
  0
ENDBLK
  5
6B4
330
6A8
100
AcDbEntity
  8
0
100
AcDbBlockEnd
  0
BLOCK
  5
785
330
77A
100
AcDbEntity
  8
0
100
AcDbBlockBegin
  2
*D13
 70
     1
 10
0.0
 20
0.0
 30
0.0
  3
*D13
  1

  0
LINE
  5
841
330
77A
100
AcDbEntity
  8
Dimension (ANSI)
440
 16777216
100
AcDbLine
 10
57.09635672982282
 20
27.44431683397669
 30
0.0
 11
62.70068743848424
 21
27.44431683397669
 31
0.0
  0
LINE
  5
842
330
77A
100
AcDbEntity
  8
Dimension (ANSI)
440
 16777216
100
AcDbLine
 10
57.09635672982282
 20
12.94431683397668
 30
0.0
 11
62.70068743848423
 21
12.94431683397668
 31
0.0
  0
LINE
  5
843
330
77A
100
AcDbEntity
  8
Dimension (ANSI)
440
 16777216
100
AcDbLine
 10
62.20068743848425
 20
27.05061605549234
 30
0.0
 11
62.20068743848425
 21
21.02889592992758
 31
0.0
  0
LINE
  5
844
330
77A
100
AcDbEntity
  8
Dimension (ANSI)
440
 16777216
100
AcDbLine
 10
62.20068743848424
 20
13.33801761246103
 30
0.0
 11
62.20068743848425
 21
19.35973773802577
 31
0.0
  0
SOLID
  5
845
330
77A
100
AcDbEntity
  8
Dimension (ANSI)
440
 16777216
100
AcDbTrace
 10
62.13507064207019
 20
27.05061605549234
 30
0.0
 11
62.26630423489829
 21
27.05061605549234
 31
0.0
 12
62.20068743848425
 22
27.44431683397669
 32
0.0
 13
62.20068743848425
 23
27.44431683397669
 33
0.0
  0
SOLID
  5
846
330
77A
100
AcDbEntity
  8
Dimension (ANSI)
440
 16777216
100
AcDbTrace
 10
62.13507064207018
 20
13.33801761246103
 30
0.0
 11
62.26630423489829
 21
13.33801761246103
 31
0.0
 12
62.20068743848424
 22
12.94431683397668
 32
0.0
 13
62.20068743848424
 23
12.94431683397668
 33
0.0
  0
MTEXT
  5
847
330
77A
100
AcDbEntity
  8
Dimension (ANSI)
440
 16777216
100
AcDbMText
 10
61.12674469458176
 20
20.90291167795909
 30
0.0
 40
0.4800000190734864
 41
0.0
 46
0.0
 71
     1
 72
     1
  1
\A1;14.500\P [368.3]
  7
Note Text (ANSI)
 73
     1
 44
1.0
  0
POINT
  5
848
330
77A
100
AcDbEntity
  8
Defpoints
 62
     0
440
 16777216
100
AcDbPoint
 10
56.84635672982282
 20
27.44431683397669
 30
0.0
  0
POINT
  5
849
330
77A
100
AcDbEntity
  8
Defpoints
 62
     0
440
 16777216
100
AcDbPoint
 10
56.84635672982282
 20
12.94431683397668
 30
0.0
  0
POINT
  5
84A
330
77A
100
AcDbEntity
  8
Defpoints
 62
     0
440
 16777216
100
AcDbPoint
 10
62.20068743848424
 20
12.94431683397668
 30
0.0
  0
ENDBLK
  5
786
330
77A
100
AcDbEntity
  8
0
100
AcDbBlockEnd
  0
BLOCK
  5
85B
330
850
100
AcDbEntity
  8
0
100
AcDbBlockBegin
  2
*D14
 70
     1
 10
0.0
 20
0.0
 30
0.0
  3
*D14
  1

  0
LINE
  5
917
330
850
100
AcDbEntity
  8
Dimension (ANSI)
440
 16777216
100
AcDbLine
 10
56.84635672982282
 20
42.19431683397668
 30
0.0
 11
56.84635672982282
 21
45.30316282257319
 31
0.0
  0
LINE
  5
918
330
850
100
AcDbEntity
  8
Dimension (ANSI)
440
 16777216
100
AcDbLine
 10
57.84635672982282
 20
43.06931683397667
 30
0.0
 11
57.84635672982282
 21
45.30316282257319
 31
0.0
  0
LINE
  5
919
330
850
100
AcDbEntity
  8
Dimension (ANSI)
440
 16777216
100
AcDbLine
 10
58.24005750830718
 20
44.80316282257319
 30
0.0
 11
58.63375828679152
 21
44.80316282257319
 31
0.0
  0
LINE
  5
91A
330
850
100
AcDbEntity
  8
Dimension (ANSI)
440
 16777216
100
AcDbLine
 10
56.45265595133848
 20
44.80316282257319
 30
0.0
 11
55.8303586479311
 21
44.80316282257319
 31
0.0
  0
SOLID
  5
91B
330
850
100
AcDbEntity
  8
Dimension (ANSI)
440
 16777216
100
AcDbTrace
 10
58.24005750830718
 20
44.86877961898725
 30
0.0
 11
58.24005750830718
 21
44.73754602615914
 31
0.0
 12
57.84635672982282
 22
44.80316282257319
 32
0.0
 13
57.84635672982282
 23
44.80316282257319
 33
0.0
  0
SOLID
  5
91C
330
850
100
AcDbEntity
  8
Dimension (ANSI)
440
 16777216
100
AcDbTrace
 10
56.45265595133848
 20
44.86877961898725
 30
0.0
 11
56.45265595133848
 21
44.73754602615914
 31
0.0
 12
56.84635672982282
 22
44.80316282257319
 32
0.0
 13
56.84635672982282
 23
44.80316282257319
 33
0.0
  0
MTEXT
  5
91D
330
850
100
AcDbEntity
  8
Dimension (ANSI)
440
 16777216
100
AcDbMText
 10
53.92942207440914
 20
45.5117576665556
 30
0.0
 40
0.4800000190734864
 41
0.0
 46
0.0
 71
     1
 72
     1
  1
\A1;1.00\P [25.4]
  7
Note Text (ANSI)
 73
     1
 44
1.0
  0
POINT
  5
91E
330
850
100
AcDbEntity
  8
Defpoints
 62
     0
440
 16777216
100
AcDbPoint
 10
56.84635672982282
 20
41.94431683397668
 30
0.0
  0
POINT
  5
91F
330
850
100
AcDbEntity
  8
Defpoints
 62
     0
440
 16777216
100
AcDbPoint
 10
57.84635672982282
 20
42.81931683397668
 30
0.0
  0
POINT
  5
920
330
850
100
AcDbEntity
  8
Defpoints
 62
     0
440
 16777216
100
AcDbPoint
 10
57.84635672982282
 20
44.80316282257319
 30
0.0
  0
ENDBLK
  5
85C
330
850
100
AcDbEntity
  8
0
100
AcDbBlockEnd
  0
BLOCK
  5
92D
330
922
100
AcDbEntity
  8
0
100
AcDbBlockBegin
  2
*D15
 70
     1
 10
0.0
 20
0.0
 30
0.0
  3
*D15
  1

  0
LINE
  5
9FB
330
922
100
AcDbEntity
  8
Dimension (ANSI)
440
 16777216
100
AcDbLine
 10
57.09635672982282
 20
41.94431683397668
 30
0.0
 11
61.95041204860531
 21
41.94431683397668
 31
0.0
  0
LINE
  5
9FC
330
922
100
AcDbEntity
  8
Dimension (ANSI)
440
 16777216
100
AcDbLine
 10
57.97135672982283
 20
42.94431683397667
 30
0.0
 11
61.95041204860531
 21
42.94431683397667
 31
0.0
  0
LINE
  5
9FD
330
922
100
AcDbEntity
  8
Dimension (ANSI)
440
 16777216
100
AcDbLine
 10
61.45041204860532
 20
43.33801761246102
 30
0.0
 11
61.45041204860532
 21
43.73171839094537
 31
0.0
  0
LINE
  5
9FE
330
922
100
AcDbEntity
  8
Dimension (ANSI)
440
 16777216
100
AcDbLine
 10
61.45041204860532
 20
41.55061605549234
 30
0.0
 11
61.45041204860532
 21
40.16400473655428
 31
0.0
  0
LINE
  5
9FF
330
922
100
AcDbEntity
  8
Dimension (ANSI)
440
 16777216
100
AcDbLine
 10
61.45041204860532
 20
40.16400473655428
 30
0.0
 11
61.05671127012097
 21
40.16400473655428
 31
0.0
  0
SOLID
  5
A00
330
922
100
AcDbEntity
  8
Dimension (ANSI)
440
 16777216
100
AcDbTrace
 10
61.38479525219126
 20
43.33801761246102
 30
0.0
 11
61.51602884501937
 21
43.33801761246102
 31
0.0
 12
61.45041204860532
 22
42.94431683397667
 32
0.0
 13
61.45041204860532
 23
42.94431683397667
 33
0.0
  0
SOLID
  5
A01
330
922
100
AcDbEntity
  8
Dimension (ANSI)
440
 16777216
100
AcDbTrace
 10
61.38479525219126
 20
41.55061605549234
 30
0.0
 11
61.51602884501937
 21
41.55061605549234
 31
0.0
 12
61.45041204860532
 22
41.94431683397668
 32
0.0
 13
61.45041204860532
 23
41.94431683397668
 33
0.0
  0
MTEXT
  5
A02
330
922
100
AcDbEntity
  8
Dimension (ANSI)
440
 16777216
100
AcDbMText
 10
59.15577469659901
 20
40.87259958053669
 30
0.0
 40
0.4800000190734864
 41
0.0
 46
0.0
 71
     1
 72
     1
  1
\A1;1.00\P [25.4]
  7
Note Text (ANSI)
 73
     1
 44
1.0
  0
POINT
  5
A03
330
922
100
AcDbEntity
  8
Defpoints
 62
     0
440
 16777216
100
AcDbPoint
 10
56.84635672982282
 20
41.94431683397668
 30
0.0
  0
POINT
  5
A04
330
922
100
AcDbEntity
  8
Defpoints
 62
     0
440
 16777216
100
AcDbPoint
 10
57.72135672982283
 20
42.94431683397667
 30
0.0
  0
POINT
  5
A05
330
922
100
AcDbEntity
  8
Defpoints
 62
     0
440
 16777216
100
AcDbPoint
 10
61.45041204860532
 20
42.94431683397667
 30
0.0
  0
ENDBLK
  5
92E
330
922
100
AcDbEntity
  8
0
100
AcDbBlockEnd
  0
ENDSEC
  0
SECTION
  2
ENTITIES
  0
INSERT
  5
146
330
37
100
AcDbEntity
  8
0
100
AcDbBlockReference
  2
Borders Default Border
 10
0.0
 20
0.0
 30
0.0
 41
4.0
 42
4.0
 43
4.0
  0
INSERT
  5
18A
330
37
100
AcDbEntity
  8
0
100
AcDbBlockReference
 66
     1
  2
Title Blocks Stahlin
 10
71.06494036515176
 20
-24.02139773243063
 30
0.0
 41
4.0
 42
4.0
 43
4.0
  0
ATTRIB
  5
18C
330
18A
100
AcDbEntity
  8
TITLE
 62
     7
100
AcDbText
 10
92.87500000001548
 20
10.76563457135912
 30
0.0
 40
0.398437526282363
  1

100
AcDbAttribute
280
     0
  2
NOTE_2
 70
     0
280
     0
  0
ATTRIB
  5
18D
330
18A
100
AcDbEntity
  8
TITLE
 62
     7
100
AcDbText
 10
92.87500000001548
 20
11.82813457135912
 30
0.0
 40
0.398437526282363
  1

100
AcDbAttribute
280
     0
  2
NOTE_1
 70
     0
280
     0
  0
ATTRIB
  5
18E
330
18A
100
AcDbEntity
  8
TITLE
 62
     7
100
AcDbText
 10
116.5468750000073
 20
4.330436753198477
 30
0.0
 40
0.4999999924907534
  1

 11
116.5468750000073
 21
4.265634571361339
 31
0.0
100
AcDbAttribute
280
     0
  2
DESCRIPTION
 70
     0
 74
     1
280
     0
  0
ATTRIB
  5
18F
330
18A
100
AcDbEntity
  8
TITLE
 62
     7
100
AcDbText
 10
112.2188750000073
 20
7.624773814193591
 30
0.0
 40
0.398437526282363
  1

 72
     1
 11
112.2188750000073
 21
7.57313457136027
 31
0.0
100
AcDbAttribute
280
     0
  2
CHECKED_DATE
 70
     0
 74
     1
280
     0
  0
ATTRIB
  5
190
330
18A
100
AcDbEntity
  8
TITLE
 62
     7
100
AcDbText
 10
109.5628750000073
 20
7.57313457136027
 30
0.0
 40
0.398437526282363
  1

 72
     1
 11
109.5628750000073
 21
7.57313457136027
 31
0.0
100
AcDbAttribute
280
     0
  2
CHECKED_BY
 70
     0
280
     0
  0
ATTRIB
  5
191
330
18A
100
AcDbEntity
  8
TITLE
 62
     7
100
AcDbText
 10
109.5628750000073
 20
5.979384571360779
 30
0.0
 40
0.398437526282363
  1

 72
     1
 11
109.5628750000073
 21
5.979384571360779
 31
0.0
100
AcDbAttribute
280
     0
  2
ENG_APPROVED_BY
 70
     0
280
     0
  0
ATTRIB
  5
192
330
18A
100
AcDbEntity
  8
TITLE
 62
     7
100
AcDbText
 10
116.5468750000073
 20
5.91102381419409
 30
0.0
 40
0.398437526282363
  1

 11
116.5468750000073
 21
5.859384571360768
 31
0.0
100
AcDbAttribute
280
     0
  2
CUSTOMER
 70
     0
 74
     1
280
     0
  0
ATTRIB
  5
193
330
18A
100
AcDbEntity
  8
Title (ANSI)
100
AcDbText
 10
112.2189427575376
 20
6.031686345227323
 30
0.0
 40
0.4000000127657192
  1

  7
Note Text (ANSI)
 72
     1
 11
112.2189427575376
 21
5.979844597324536
 31
0.0
100
AcDbAttribute
280
     0
  2
ENG_APPROVAL_DATE
 70
     0
 74
     1
280
     0
  0
SEQEND
  5
18B
330
18A
100
AcDbEntity
  8
0
  0
CIRCLE
  5
194
330
37
100
AcDbEntity
  8
Visible (ANSI)
100
AcDbCircle
 10
36.84635672982283
 20
27.44431683397668
 30
0.0
 40
0.28125
  0
CIRCLE
  5
195
330
37
100
AcDbEntity
  8
Visible (ANSI)
100
AcDbCircle
 10
36.84635672982283
 20
12.94431683397668
 30
0.0
 40
0.28125
  0
CIRCLE
  5
196
330
37
100
AcDbEntity
  8
Visible (ANSI)
100
AcDbCircle
 10
56.84635672982282
 20
12.94431683397668
 30
0.0
 40
0.28125
  0
CIRCLE
  5
197
330
37
100
AcDbEntity
  8
Visible (ANSI)
100
AcDbCircle
 10
56.84635672982282
 20
27.44431683397669
 30
0.0
 40
0.28125
  0
CIRCLE
  5
198
330
37
100
AcDbEntity
  8
Visible (ANSI)
100
AcDbCircle
 10
56.84635672982282
 20
41.94431683397668
 30
0.0
 40
0.28125
  0
CIRCLE
  5
199
330
37
100
AcDbEntity
  8
Visible (ANSI)
100
AcDbCircle
 10
36.84635672982283
 20
41.94431683397668
 30
0.0
 40
0.28125
  0
LINE
  5
19A
330
37
100
AcDbEntity
  8
Visible (ANSI)
100
AcDbLine
 10
57.72135672982283
 20
42.94431683397667
 30
0.0
 11
35.97135672982283
 21
42.94431683397667
 31
0.0
  0
LINE
  5
19B
330
37
100
AcDbEntity
  8
Visible (ANSI)
100
AcDbLine
 10
57.84635672982282
 20
12.06931683397668
 30
0.0
 11
57.84635672982282
 21
42.81931683397668
 31
0.0
  0
LINE
  5
19C
330
37
100
AcDbEntity
  8
Visible (ANSI)
100
AcDbLine
 10
35.97135672982284
 20
11.94431683397668
 30
0.0
 11
57.72135672982283
 21
11.94431683397668
 31
0.0
  0
ARC
  5
19D
330
37
100
AcDbEntity
  8
Visible (ANSI)
100
AcDbCircle
 10
57.72135672982283
 20
12.06931683397668
 30
0.0
 40
0.1249999999999982
100
AcDbArc
 50
270.0
 51
0.0
  0
LINE
  5
19E
330
37
100
AcDbEntity
  8
Visible (ANSI)
100
AcDbLine
 10
35.84635672982283
 20
42.81931683397668
 30
0.0
 11
35.84635672982284
 21
12.06931683397668
 31
0.0
  0
ARC
  5
19F
330
37
100
AcDbEntity
  8
Visible (ANSI)
100
AcDbCircle
 10
35.97135672982284
 20
12.06931683397668
 30
0.0
 40
0.1250000000000005
100
AcDbArc
 50
180.0
 51
270.0
  0
ARC
  5
1A0
330
37
100
AcDbEntity
  8
Visible (ANSI)
100
AcDbCircle
 10
57.72135672982283
 20
42.81931683397668
 30
0.0
 40
0.125000000000001
100
AcDbArc
 50
0.0
 51
90.0
  0
ARC
  5
1A1
330
37
100
AcDbEntity
  8
Visible (ANSI)
100
AcDbCircle
 10
35.97135672982282
 20
42.81931683397668
 30
0.0
 40
0.1249999999999998
100
AcDbArc
 50
90.0
 51
180.0
  0
LINE
  5
1A2
330
37
100
AcDbEntity
  8
Hidden (ANSI)
 48
1.095292925834655
100
AcDbLine
 10
35.95135672982284
 20
12.04931683397668
 30
0.0
 11
35.95135672982283
 21
42.83931683397667
 31
0.0
  0
LINE
  5
1A3
330
37
100
AcDbEntity
  8
Hidden (ANSI)
 48
1.098109126091003
100
AcDbLine
 10
35.95135672982283
 20
42.83931683397667
 30
0.0
 11
57.74135672982282
 21
42.83931683397667
 31
0.0
  0
LINE
  5
1A4
330
37
100
AcDbEntity
  8
Hidden (ANSI)
 48
1.095292925834655
100
AcDbLine
 10
57.74135672982282
 20
42.83931683397667
 30
0.0
 11
57.74135672982283
 21
12.04931683397668
 31
0.0
  0
LINE
  5
1A5
330
37
100
AcDbEntity
  8
Hidden (ANSI)
 48
1.098109126091003
100
AcDbLine
 10
57.74135672982283
 20
12.04931683397668
 30
0.0
 11
35.95135672982284
 21
12.04931683397668
 31
0.0
  0
LINE
  5
1A6
330
37
100
AcDbEntity
  8
Visible (ANSI)
100
AcDbLine
 10
35.97135672982282
 20
66.57945311539272
 30
0.0
 11
57.72135672982283
 21
66.57945311539272
 31
0.0
  0
ARC
  5
1A7
330
37
100
AcDbEntity
  8
Visible (ANSI)
100
AcDbCircle
 10
57.72135672982283
 20
66.70445311539272
 30
0.0
 40
0.125000000000001
100
AcDbArc
 50
270.0
 51
0.0
  0
ARC
  5
1A8
330
37
100
AcDbEntity
  8
Visible (ANSI)
100
AcDbCircle
 10
35.97135672982282
 20
66.70445311539272
 30
0.0
 40
0.125
100
AcDbArc
 50
180.0
 51
270.0
  0
LINE
  5
1A9
330
37
100
AcDbEntity
  8
Visible (ANSI)
100
AcDbLine
 10
35.84635672982283
 20
67.07945311539273
 30
0.0
 11
35.84635672982283
 21
66.70445311539272
 31
0.0
  0
LINE
  5
1AA
330
37
100
AcDbEntity
  8
Visible (ANSI)
100
AcDbLine
 10
35.84635672982283
 20
67.07945311539273
 30
0.0
 11
35.97135672982282
 21
67.07945311539275
 31
0.0
  0
LINE
  5
1AB
330
37
100
AcDbEntity
  8
Visible (ANSI)
100
AcDbLine
 10
57.72135672982283
 20
67.07945311539275
 30
0.0
 11
57.84635672982282
 21
67.07945311539273
 31
0.0
  0
LINE
  5
1AC
330
37
100
AcDbEntity
  8
Visible (ANSI)
100
AcDbLine
 10
57.84635672982282
 20
66.70445311539272
 30
0.0
 11
57.84635672982282
 21
67.07945311539273
 31
0.0
  0
LINE
  5
1AD
330
37
100
AcDbEntity
  8
Visible (ANSI)
100
AcDbLine
 10
57.72135672982283
 20
67.07945311539276
 30
0.0
 11
35.97135672982283
 21
67.07945311539276
 31
0.0
  0
LINE
  5
1AE
330
37
100
AcDbEntity
  8
Hidden (ANSI)
 48
0.1879887878894806
100
AcDbLine
 10
35.95135672982283
 20
67.07945311539273
 30
0.0
 11
35.95135672982283
 21
66.68445311539272
 31
0.0
  0
LINE
  5
1AF
330
37
100
AcDbEntity
  8
Hidden (ANSI)
 48
1.098109126091003
100
AcDbLine
 10
35.95135672982283
 20
66.68445311539272
 30
0.0
 11
57.74135672982282
 21
66.68445311539272
 31
0.0
  0
LINE
  5
1B0
330
37
100
AcDbEntity
  8
Hidden (ANSI)
 48
0.1879887878894806
100
AcDbLine
 10
57.74135672982282
 20
67.07945311539273
 30
0.0
 11
57.74135672982282
 21
66.68445311539272
 31
0.0
  0
LINE
  5
1B1
330
37
100
AcDbEntity
  8
Hidden (ANSI)
 48
0.0498982854187489
100
AcDbLine
 10
57.12760672982283
 20
66.68445311539246
 30
0.0
 11
57.12760672982283
 21
66.57945311539247
 31
0.0
  0
LINE
  5
1B2
330
37
100
AcDbEntity
  8
Hidden (ANSI)
 48
0.0498982854187489
100
AcDbLine
 10
56.56510672982282
 20
66.68445311539246
 30
0.0
 11
56.56510672982282
 21
66.57945311539247
 31
0.0
  0
LINE
  5
1B3
330
37
100
AcDbEntity
  8
Hidden (ANSI)
 48
0.0498982854187489
100
AcDbLine
 10
37.12760672982283
 20
66.68445311539246
 30
0.0
 11
37.12760672982283
 21
66.57945311539247
 31
0.0
  0
LINE
  5
1B4
330
37
100
AcDbEntity
  8
Hidden (ANSI)
 48
0.0498982854187489
100
AcDbLine
 10
36.56510672982283
 20
66.68445311539246
 30
0.0
 11
36.56510672982283
 21
66.57945311539247
 31
0.0
  0
ELLIPSE
  5
1B5
330
37
100
AcDbEntity
  8
Visible (ANSI)
100
AcDbEllipse
 10
95.87143123242048
 20
52.41657108690962
 30
0.0
 11
-0.1403528095081141
 21
0.2437265914158307
 31
0.0
210
0.0
220
0.0
230
1.0
 40
0.5780931159158105
 41
0.2666253512720583
 42
2.874967302317731
  0
ELLIPSE
  5
1B6
330
37
100
AcDbEntity
  8
Visible (ANSI)
100
AcDbEllipse
 10
95.7971850203959
 20
52.37381553696142
 30
0.0
 11
-0.1403528095081138
 21
0.2437265914158303
 31
0.0
210
0.0
220
0.0
230
1.0
 40
0.5780931159158104
 41
0.0000000000000015
 42
6.283185307179586
  0
ELLIPSE
  5
1B7
330
37
100
AcDbEntity
  8
Visible (ANSI)
100
AcDbEllipse
 10
95.87143123242048
 20
40.56213777669278
 30
0.0
 11
-0.1403528095081141
 21
0.2437265914158307
 31
0.0
210
0.0
220
0.0
230
1.0
 40
0.5780931159158105
 41
0.2666253512720583
 42
2.874967302317731
  0
ELLIPSE
  5
1B8
330
37
100
AcDbEntity
  8
Visible (ANSI)
100
AcDbEllipse
 10
95.7971850203959
 20
40.51938222674459
 30
0.0
 11
-0.1403528095081138
 21
0.2437265914158303
 31
0.0
210
0.0
220
0.0
230
1.0
 40
0.5780931159158104
 41
0.0000000000000015
 42
6.283185307179586
  0
ELLIPSE
  5
1B9
330
37
100
AcDbEntity
  8
Visible (ANSI)
100
AcDbEllipse
 10
110.0135668561535
 20
32.41822350084733
 30
0.0
 11
-0.1403528095081122
 21
0.2437265914158274
 31
0.0
210
0.0
220
0.0
230
1.0
 40
0.5780931159158104
 41
0.2666253512719852
 42
2.874967302317668
  0
ELLIPSE
  5
1BA
330
37
100
AcDbEntity
  8
Visible (ANSI)
100
AcDbEllipse
 10
109.9393206441289
 20
32.37546795089912
 30
0.0
 11
-0.1403528095081138
 21
0.2437265914158303
 31
0.0
210
0.0
220
0.0
230
1.0
 40
0.5780931159158104
 41
0.0000000000000015
 42
6.283185307179586
  0
ELLIPSE
  5
1BB
330
37
100
AcDbEntity
  8
Visible (ANSI)
100
AcDbEllipse
 10
110.0135668561535
 20
44.27265681106415
 30
0.0
 11
-0.1403528095081135
 21
0.2437265914158297
 31
0.0
210
0.0
220
0.0
230
0.9999999999999998
 40
0.5780931159158104
 41
0.2666253512719638
 42
2.874967302317656
  0
ELLIPSE
  5
1BC
330
37
100
AcDbEntity
  8
Visible (ANSI)
100
AcDbEllipse
 10
109.9393206441289
 20
44.22990126111595
 30
0.0
 11
-0.1403528095081138
 21
0.2437265914158303
 31
0.0
210
0.0
220
0.0
230
1.0
 40
0.5780931159158104
 41
0.0000000000000015
 42
6.283185307179586
  0
ELLIPSE
  5
1BD
330
37
100
AcDbEntity
  8
Visible (ANSI)
100
AcDbEllipse
 10
110.0135668561535
 20
56.12709012128097
 30
0.0
 11
-0.1403528095081141
 21
0.2437265914158308
 31
0.0
210
0.0
220
0.0
230
1.0
 40
0.5780931159158104
 41
0.2666253512721109
 42
2.874967302317793
  0
ELLIPSE
  5
1BE
330
37
100
AcDbEntity
  8
Visible (ANSI)
100
AcDbEllipse
 10
109.9393206441289
 20
56.08433457133276
 30
0.0
 11
-0.1403528095081138
 21
0.2437265914158303
 31
0.0
210
0.0
220
0.0
230
1.0
 40
0.5780931159158104
 41
0.0000000000000015
 42
6.283185307179586
  0
ELLIPSE
  5
1BF
330
37
100
AcDbEntity
  8
Visible (ANSI)
100
AcDbEllipse
 10
95.87143123242048
 20
64.27100439712643
 30
0.0
 11
-0.1403528095081139
 21
0.2437265914158303
 31
0.0
210
0.0
220
0.0
230
1.0
 40
0.5780931159158103
 41
0.2666253512720583
 42
2.87496730231773
  0
ELLIPSE
  5
1C0
330
37
100
AcDbEntity
  8
Visible (ANSI)
100
AcDbEllipse
 10
95.7971850203959
 20
64.22824884717823
 30
0.0
 11
-0.1403528095081138
 21
0.2437265914158303
 31
0.0
210
0.0
220
0.0
230
1.0
 40
0.5780931159158104
 41
0.0000000000000015
 42
6.283185307179586
  0
ELLIPSE
  5
1C1
330
37
100
AcDbEntity
  8
Visible Narrow (ANSI)
100
AcDbEllipse
 10
95.26685493450589
 20
65.35079829520774
 30
0.0
 11
-0.0623790264480169
 21
-0.108322929518168
 31
0.0
210
0.0
220
0.0
230
1.0
 40
0.5780931159156407
 41
3.925057108563905
 42
5.495853435358782
  0
LINE
  5
1C2
330
37
100
AcDbEntity
  8
Visible Narrow (ANSI)
100
AcDbLine
 10
95.17846658685758
 20
65.2998988309837
 30
0.0
 11
110.5580390776672
 21
56.44339205600174
 31
0.0
  0
ELLIPSE
  5
1C3
330
37
100
AcDbEntity
  8
Visible Narrow (ANSI)
100
AcDbEllipse
 10
110.6464274253155
 20
56.49429152022579
 30
0.0
 11
0.0623790264480293
 21
0.1083229295181591
 31
0.0
210
0.0
220
0.0
230
1.0
 40
0.5780931159156393
 41
0.7834644549745882
 42
2.354260781769614
  0
LINE
  5
1C4
330
37
100
AcDbEntity
  8
Visible Narrow (ANSI)
100
AcDbLine
 10
110.6464274253155
 20
56.59648491083111
 30
0.0
 11
95.26685493450589
 21
65.45299168581306
 31
0.0
  0
ELLIPSE
  5
1C5
330
37
100
AcDbEntity
  8
Visible Narrow (ANSI)
100
AcDbEllipse
 10
110.6464274253155
 20
56.49429152022579
 30
0.0
 11
-0.125000000000001
 21
0.000000000000008
 31
0.0
210
0.0
220
0.0
230
1.0
 40
0.5758617009853157
 41
0.7853981633977938
 42
2.356194490192718
  0
LINE
  5
1C6
330
37
100
AcDbEntity
  8
Visible Narrow (ANSI)
100
AcDbLine
 10
110.5580390776672
 20
56.44339205600174
 30
0.0
 11
110.5580390776672
 21
31.30381796709365
 31
0.0
  0
ELLIPSE
  5
1C7
330
37
100
AcDbEntity
  8
Visible Narrow (ANSI)
100
AcDbEllipse
 10
110.6464274253156
 20
31.3547174313177
 30
0.0
 11
0.1250000000000015
 21
0.0000000000000074
 31
0.0
210
0.0
220
0.0
230
1.0
 40
0.5758617009853121
 41
3.926990816987112
 42
5.497787143782031
  0
LINE
  5
1C8
330
37
100
AcDbEntity
  8
Visible Narrow (ANSI)
100
AcDbLine
 10
110.7348157729639
 20
31.30381796709367
 30
0.0
 11
110.7348157729639
 21
56.44339205600177
 31
0.0
  0
ELLIPSE
  5
1C9
330
37
100
AcDbEntity
  8
Visible Narrow (ANSI)
100
AcDbEllipse
 10
110.6464274253156
 20
31.3547174313177
 30
0.0
 11
-0.0623790264480253
 21
-0.1083229295181658
 31
0.0
210
0.0
220
0.0
230
1.0
 40
0.578093115915639
 41
5.495853435359016
 42
6.28318530717954
  0
LINE
  5
1CA
330
37
100
AcDbEntity
  8
Visible Narrow (ANSI)
100
AcDbLine
 10
110.5580390776672
 20
31.30381796709365
 30
0.0
 11
95.1784665868576
 21
40.16032474207559
 31
0.0
  0
ELLIPSE
  5
1CB
330
37
100
AcDbEntity
  8
Visible Narrow (ANSI)
100
AcDbEllipse
 10
95.26685493450591
 20
40.21122420629966
 30
0.0
 11
-0.062379026448029
 21
-0.1083229295181735
 31
0.0
210
0.0
220
0.0
230
1.0
 40
0.5780931159156392
 41
5.49585343535911
 42
6.28318530717955
  0
ELLIPSE
  5
1CC
330
37
100
AcDbEntity
  8
Visible Narrow (ANSI)
100
AcDbEllipse
 10
110.6464274253156
 20
31.35471743131769
 30
0.0
 11
0.062379026448052
 21
-0.1083229295181416
 31
0.0
210
0.0
220
0.0
230
1.0
 40
0.5780931159158104
 41
0.0
 42
0.7873318718201077
  0
ELLIPSE
  5
1CD
330
37
100
AcDbEntity
  8
Visible Narrow (ANSI)
100
AcDbEllipse
 10
95.26685493450591
 20
40.21122420629965
 30
0.0
 11
-0.1250000000000001
 21
-0.0000000000000001
 31
0.0
210
0.0
220
0.0
230
1.0
 40
0.5758617009853121
 41
0.0
 42
0.7853981633975531
  0
LINE
  5
1CE
330
37
100
AcDbEntity
  8
Visible Narrow (ANSI)
100
AcDbLine
 10
95.1784665868576
 20
40.16032474207559
 30
0.0
 11
95.17846658685758
 21
65.2998988309837
 31
0.0
  0
ELLIPSE
  5
1CF
330
37
100
AcDbEntity
  8
Visible Narrow (ANSI)
100
AcDbEllipse
 10
95.26685493450589
 20
65.35079829520775
 30
0.0
 11
-0.1250000000000001
 21
0.0
 31
0.0
210
0.0
220
0.0
230
1.0
 40
0.5758617009853121
 41
0.0
 42
0.7853981633975558
  0
ELLIPSE
  5
1D0
330
37
100
AcDbEntity
  8
Visible Narrow (ANSI)
100
AcDbEllipse
 10
110.6464274253155
 20
56.49429152022579
 30
0.0
 11
-0.0623790264480576
 21
0.1083229295181439
 31
0.0
210
0.0
220
0.0
230
1.0
 40
0.5780931159158106
 41
3.928924525409762
 42
5.499720852204596
  0
ELLIPSE
  5
1D1
330
37
100
AcDbEntity
  8
Visible Narrow (ANSI)
100
AcDbEllipse
 10
95.26685493450589
 20
65.35079829520775
 30
0.0
 11
-0.0623790264480498
 21
0.1083229295181453
 31
0.0
210
0.0
220
0.0
230
1.0
 40
0.5780931159158104
 41
5.499720852205022
 42
6.2831853071796
  0
LINE
  5
1D2
330
37
100
AcDbEntity
  8
Visible (ANSI)
100
AcDbLine
 10
110.5840483988675
 20
31.24639450179953
 30
0.0
 11
95.20447590805787
 21
40.10290127678149
 31
0.0
  0
ARC
  5
1D3
330
37
100
AcDbEntity
  8
Visible (ANSI)
100
AcDbCircle
 10
110.6464274253156
 20
31.3547174313177
 30
0.0
 40
0.125
100
AcDbArc
 50
240.0640077375125
 51
299.9359922625016
  0
LINE
  5
1D4
330
37
100
AcDbEntity
  8
Visible (ANSI)
100
AcDbLine
 10
95.1418549345059
 20
40.21122420629965
 30
0.0
 11
95.14185493450588
 21
65.35079829520775
 31
0.0
  0
ARC
  5
1D5
330
37
100
AcDbEntity
  8
Visible (ANSI)
100
AcDbCircle
 10
95.26685493450591
 20
40.21122420629965
 30
0.0
 40
0.125
100
AcDbArc
 50
180.0
 51
240.0640077375156
  0
ARC
  5
1D6
330
37
100
AcDbEntity
  8
Visible (ANSI)
100
AcDbCircle
 10
95.26685493450589
 20
65.35079829520775
 30
0.0
 40
0.125
100
AcDbArc
 50
119.9359922625003
 51
180.0
  0
ELLIPSE
  5
1D7
330
37
100
AcDbEntity
  8
Visible (ANSI)
100
AcDbEllipse
 10
110.9115924682605
 20
31.50741582398985
 30
0.0
 11
0.0623790264480619
 21
-0.1083229295181564
 31
0.0
210
0.0
220
0.0
230
1.0
 40
0.5780931159158103
 41
0.0
 42
0.7873318718199878
  0
LINE
  5
1D8
330
37
100
AcDbEntity
  8
Visible Narrow (ANSI)
100
AcDbLine
 10
110.9999808159088
 20
31.45651635976581
 30
0.0
 11
110.7348157729639
 21
31.30381796709367
 31
0.0
  0
LINE
  5
1D9
330
37
100
AcDbEntity
  8
Visible Narrow (ANSI)
100
AcDbLine
 10
95.26685493450589
 20
65.45299168581306
 30
0.0
 11
95.5320199774508
 21
65.60569007848521
 31
0.0
  0
ELLIPSE
  5
1DA
330
37
100
AcDbEntity
  8
Visible (ANSI)
100
AcDbEllipse
 10
95.5320199774508
 20
65.5034966878799
 30
0.0
 11
-0.0623790264480503
 21
0.1083229295181462
 31
0.0
210
0.0
220
0.0
230
1.0
 40
0.5780931159158105
 41
5.499720852205022
 42
6.2831853071796
  0
ELLIPSE
  5
1DB
330
37
100
AcDbEntity
  8
Visible (ANSI)
100
AcDbEllipse
 10
110.9115924682605
 20
56.64698991289795
 30
0.0
 11
-0.0623790264480562
 21
0.1083229295181415
 31
0.0
210
0.0
220
0.0
230
1.0
 40
0.5780931159158105
 41
3.928924525409762
 42
5.499720852204596
  0
LINE
  5
1DC
330
37
100
AcDbEntity
  8
Visible Narrow (ANSI)
100
AcDbLine
 10
110.7348157729639
 20
56.44339205600177
 30
0.0
 11
110.9999808159088
 21
56.59609044867391
 31
0.0
  0
LINE
  5
1DD
330
37
100
AcDbEntity
  8
Visible Narrow (ANSI)
100
AcDbLine
 10
110.9115924682605
 20
56.74918330350326
 30
0.0
 11
110.6464274253155
 21
56.59648491083111
 31
0.0
  0
LINE
  5
1DE
330
37
100
AcDbEntity
  8
Visible (ANSI)
100
AcDbLine
 10
110.9739714947085
 20
31.3990928944717
 30
0.0
 11
110.7088064517636
 21
31.24639450179956
 31
0.0
  0
LINE
  5
1DF
330
37
100
AcDbEntity
  8
Visible (ANSI)
100
AcDbLine
 10
95.46964095100275
 20
65.61181961739804
 30
0.0
 11
95.20447590805783
 21
65.45912122472589
 31
0.0
  0
LINE
  5
1E0
330
37
100
AcDbEntity
  8
Visible (ANSI)
100
AcDbLine
 10
110.9115924682605
 20
56.74918330350326
 30
0.0
 11
95.5320199774508
 21
65.60569007848521
 31
0.0
  0
LINE
  5
1E1
330
37
100
AcDbEntity
  8
Visible (ANSI)
100
AcDbLine
 10
110.9999808159088
 20
31.45651635976581
 30
0.0
 11
110.9999808159088
 21
56.59609044867391
 31
0.0
  0
DIMENSION
  5
1E2
330
37
100
AcDbEntity
  8
Dimension (ANSI)
100
AcDbDimension
280
     0
  2
*D6
 10
57.74135672982282
 20
69.36906228853961
 30
0.0
 11
59.87608949969132
 21
69.36906228853961
 31
0.0
 70
   160
  1
<>
 42
0.105000000000004
 73
     0
 74
     0
 75
     0
  3
Default (ANSI)
100
AcDbAlignedDimension
 13
57.84635672982282
 23
67.07945311539273
 33
0.0
 14
57.74135672982282
 24
67.07945311539273
 34
0.0
 50
180.0
100
AcDbRotatedDimension
1001
ACAD
1000
DSTYLE
1002
{
1070
   271
1070
     3
1070
   272
1070
     2
1070
    48
1040
0.0
1070
    47
1040
0.0
1002
}
  0
DIMENSION
  5
2B5
330
37
100
AcDbEntity
  8
Dimension (ANSI)
100
AcDbDimension
280
     0
  2
*D7
 10
61.29878440193603
 20
66.57945311539271
 30
0.0
 11
62.7059455931656
 21
68.85976521281513
 31
0.0
 70
   160
  1
<>
 42
0.5000000000000285
 73
     0
 74
     0
 75
     0
  3
Default (ANSI)
100
AcDbAlignedDimension
 13
57.84635672982282
 23
67.07945311539273
 33
0.0
 14
57.72135672982283
 24
66.57945311539271
 34
0.0
 50
90.0
100
AcDbRotatedDimension
1001
ACAD
1000
DSTYLE
1002
{
1070
   271
1070
     2
1070
   272
1070
     2
1070
    48
1040
0.0
1070
    47
1040
0.0
1002
}
  0
DIMENSION
  5
39A
330
37
100
AcDbEntity
  8
Dimension (ANSI)
100
AcDbDimension
280
     0
  2
*D8
 10
57.72135672982283
 20
66.70445311539272
 30
0.0
 11
60.24273632123856
 21
64.92313898334962
 31
0.0
 70
   164
  1
<>
 42
0.1250000000000071
 73
     0
 74
     0
 75
     0
  3
Default (ANSI)
100
AcDbRadialDimension
 15
57.78385672982285
 25
66.59619993991967
 35
0.0
 40
0.0
1001
ACAD
1000
DSTYLE
1002
{
1070
   271
1070
     2
1070
   141
1040
0.0
1070
   272
1070
     2
1070
    48
1040
0.0
1070
    47
1040
0.0
1002
}
  0
DIMENSION
  5
431
330
37
100
AcDbEntity
  8
Dimension (ANSI)
100
AcDbDimension
280
     0
  2
*D9
 10
36.84635672982283
 20
46.93181796336737
 30
0.0
 11
46.09374699630136
 21
46.93181796336737
 31
0.0
 70
   160
  1
<>
 42
19.99999999999999
 73
     0
 74
     0
 75
     0
  3
Default (ANSI)
100
AcDbAlignedDimension
 13
56.84635672982282
 23
41.94431683397668
 33
0.0
 14
36.84635672982283
 24
41.94431683397668
 34
0.0
 50
180.0
100
AcDbRotatedDimension
1001
ACAD
1000
DSTYLE
1002
{
1070
   271
1070
     3
1070
   272
1070
     2
1070
    48
1040
0.0
1070
    47
1040
0.0
1002
}
  0
DIMENSION
  5
503
330
37
100
AcDbEntity
  8
Dimension (ANSI)
100
AcDbDimension
280
     0
  2
*D10
 10
35.84635672982283
 20
49.63309520811546
 30
0.0
 11
46.84635672982283
 21
49.63309520811546
 31
0.0
 70
   160
  1
<>
 42
22.0
 73
     0
 74
     0
 75
     0
  3
Default (ANSI)
100
AcDbAlignedDimension
 13
57.84635672982282
 23
42.81931683397668
 33
0.0
 14
35.84635672982283
 24
42.81931683397668
 34
0.0
 50
180.0
100
AcDbRotatedDimension
1001
ACAD
1000
DSTYLE
1002
{
1070
   271
1070
     2
1070
   272
1070
     2
1070
    48
1040
0.0
1070
    47
1040
0.0
1002
}
  0
DIMENSION
  5
5D5
330
37
100
AcDbEntity
  8
Dimension (ANSI)
100
AcDbDimension
280
     0
  2
*D11
 10
67.11356696181408
 20
11.94431683397668
 30
0.0
 11
67.11356696181408
 21
27.44431683397668
 31
0.0
 70
   160
  1
<>
 42
31.0
 73
     0
 74
     0
 75
     0
  3
Default (ANSI)
100
AcDbAlignedDimension
 13
57.72135672982283
 23
42.94431683397667
 33
0.0
 14
57.72135672982283
 24
11.94431683397668
 34
0.0
 50
90.0
100
AcDbRotatedDimension
1001
ACAD
1000
DSTYLE
1002
{
1070
   271
1070
     2
1070
   272
1070
     2
1070
    48
1040
0.0
1070
    47
1040
0.0
1002
}
  0
DIMENSION
  5
6A7
330
37
100
AcDbEntity
  8
Dimension (ANSI)
100
AcDbDimension
280
     0
  2
*D12
 10
62.20068743848425
 20
27.44431683397669
 30
0.0
 11
62.20068743848424
 21
34.69431683397669
 31
0.0
 70
   160
  1
<>
 42
14.5
 73
     0
 74
     0
 75
     0
  3
Default (ANSI)
100
AcDbAlignedDimension
 13
56.84635672982282
 23
41.94431683397668
 33
0.0
 14
56.84635672982282
 24
27.44431683397669
 34
0.0
 50
90.0
100
AcDbRotatedDimension
1001
ACAD
1000
DSTYLE
1002
{
1070
   271
1070
     3
1070
   272
1070
     2
1070
    48
1040
0.0
1070
    47
1040
0.0
1002
}
  0
DIMENSION
  5
779
330
37
100
AcDbEntity
  8
Dimension (ANSI)
100
AcDbDimension
280
     0
  2
*D13
 10
62.20068743848424
 20
12.94431683397668
 30
0.0
 11
62.20068743848424
 21
20.19431683397669
 31
0.0
 70
   160
  1
<>
 42
14.5
 73
     0
 74
     0
 75
     0
  3
Default (ANSI)
100
AcDbAlignedDimension
 13
56.84635672982282
 23
27.44431683397669
 33
0.0
 14
56.84635672982282
 24
12.94431683397668
 34
0.0
 50
90.0
100
AcDbRotatedDimension
1001
ACAD
1000
DSTYLE
1002
{
1070
   271
1070
     3
1070
   272
1070
     2
1070
    48
1040
0.0
1070
    47
1040
0.0
1002
}
  0
MTEXT
  5
84B
102
{ACAD_REACTORS
330
84D
102
}
330
37
100
AcDbEntity
  8
Symbol (ANSI)
100
AcDbMText
 10
29.94071969967547
 20
45.82578728673197
 30
0.0
 40
0.4800000059323048
 41
4.307145341644138
 46
0.0
 71
     3
 72
     1
  1
{\fAIGDT|b0|i0;\H0.4800;n\fArial|b0|i0;\H0.4800;0.563 THRU\P(6 PLCS)}
  7
Note Text (ANSI)
 73
     2
 44
1.049999952316284
  0
LEADER
  5
84D
330
37
100
AcDbEntity
  8
Symbol (ANSI)
100
AcDbLeader
  3
Default (ANSI)$7
 73
     0
 40
1.479999980144299
 41
4.191163275147764
 76
     3
 10
36.60278708500845
 20
42.08494183397665
 30
0.0
 10
30.53914489652586
 20
45.58578728376581
 30
0.0
 10
30.06670395164397
 20
45.58578728376581
 30
0.0
340
84B
210
0.0
220
0.0
230
-1.0
213
0.0
223
-0.2400000029661524
233
0.0
1001
ACAD
1000
DSTYLE
1002
{
1070
    77
1070
     0
1002
}
  0
MTEXT
  5
84E
330
37
100
AcDbEntity
  8
Symbol (ANSI)
100
AcDbMText
 10
75.21609466600597
 20
26.06355795478001
 30
0.0
 40
0.9999999849815067
 41
36.88033697173351
 46
0.0
 71
     1
 72
     1
  1
{\fArial|b0|i0;\H1.0000;NOTE:\P \P1. PARTS TO BE FREE FROM BURRS & SHARP EDGES.\P2. PANELS MUST BE FLAT.\P3. PANEL TO BE PAINTED WHITE ENAMEL.\P4. TWO PANELS TO BE PACKAGED IN ONE CARTON,\P    CARTON LABEL TO READ TWO PANELS.}
  7
Note Text (ANSI)
 73
     2
 44
0.9442214965820312
  0
DIMENSION
  5
84F
330
37
100
AcDbEntity
  8
Dimension (ANSI)
100
AcDbDimension
280
     0
  2
*D14
 10
57.84635672982282
 20
44.80316282257319
 30
0.0
 11
54.81689823518587
 21
44.80316282257319
 31
0.0
 70
   160
  1
<>
 42
1.000000000000007
 73
     0
 74
     0
 75
     0
  3
Default (ANSI)
100
AcDbAlignedDimension
 13
56.84635672982282
 23
41.94431683397668
 33
0.0
 14
57.84635672982282
 24
42.81931683397668
 34
0.0
 50
180.0
100
AcDbRotatedDimension
1001
ACAD
1000
DSTYLE
1002
{
1070
   271
1070
     2
1070
   272
1070
     2
1070
    48
1040
0.0
1070
    47
1040
0.0
1002
}
  0
DIMENSION
  5
921
330
37
100
AcDbEntity
  8
Dimension (ANSI)
100
AcDbDimension
280
     0
  2
*D15
 10
61.45041204860532
 20
42.94431683397667
 30
0.0
 11
60.04325085737573
 21
40.16400473655429
 31
0.0
 70
   160
  1
<>
 42
0.9999999999999928
 73
     0
 74
     0
 75
     0
  3
Default (ANSI)
100
AcDbAlignedDimension
 13
56.84635672982282
 23
41.94431683397668
 33
0.0
 14
57.72135672982283
 24
42.94431683397667
 34
0.0
 50
90.0
100
AcDbRotatedDimension
1001
ACAD
1000
DSTYLE
1002
{
1070
   271
1070
     2
1070
   272
1070
     2
1070
    48
1040
0.0
1070
    47
1040
0.0
1002
}
  0
MTEXT
  5
A06
330
37
100
AcDbEntity
  8
Symbol (ANSI)
100
AcDbMText
 10
116.8461559535165
 20
9.494803440523444
 30
0.0
 40
0.9600000118646095
 41
19.54460967690121
 46
0.0
 71
     1
 72
     1
  1
{\fArial|b0|i0;\H0.9600;HUBBELL WIEGMANN}
  7
Note Text (ANSI)
 73
     1
 44
1.0
  0
MTEXT
  5
A07
330
37
100
AcDbEntity
  8
Symbol (ANSI)
100
AcDbMText
 10
127.5976422542692
 20
5.008893810143622
 30
0.0
 40
0.4800000059323048
 41
6.698887509512577
 46
0.0
 71
     1
 72
     1
  1
{HW-WM3648CS}
  7
Note Text (ANSI)
 73
     1
 44
1.0
  0
ENDSEC
  0
SECTION
  2
OBJECTS
  0
DICTIONARY
  5
C
330
0
100
AcDbDictionary
281
     1
  3
ACAD_COLOR
350
30
  3
ACAD_GROUP
350
D
  3
ACAD_LAYOUT
350
2F
  3
ACAD_MATERIAL
350
10
  3
ACAD_MLEADERSTYLE
350
A45
  3
ACAD_MLINESTYLE
350
2C
  3
ACAD_PLOTSETTINGS
350
2E
  3
ACAD_PLOTSTYLENAME
350
E
  3
ACAD_SCALELIST
350
A33
  3
ACAD_TABLESTYLE
350
31
  3
ACAD_VISUALSTYLE
350
14
  3
ACDB_RECOMPOSE_DATA
350
A59
  3
AcDbVariableDictionary
350
A26
  0
DICTIONARY
  5
A08
330
8
100
AcDbDictionary
280
     1
281
     1
  0
DICTIONARY
  5
30
102
{ACAD_REACTORS
330
C
102
}
330
C
100
AcDbDictionary
281
     1
  0
DICTIONARY
  5
D
102
{ACAD_REACTORS
330
C
102
}
330
C
100
AcDbDictionary
281
     1
  0
DICTIONARY
  5
2F
102
{ACAD_REACTORS
330
C
102
}
330
C
100
AcDbDictionary
281
     1
  3
Layout1
350
36
  3
Layout2
350
3E
  3
Model
350
3A
  0
DICTIONARY
  5
10
102
{ACAD_REACTORS
330
C
102
}
330
C
100
AcDbDictionary
281
     1
  3
ByBlock
350
12
  3
ByLayer
350
11
  3
Global
350
13
  0
DICTIONARY
  5
A45
102
{ACAD_REACTORS
330
C
102
}
330
C
100
AcDbDictionary
281
     1
  3
Standard
350
A46
  0
DICTIONARY
  5
2C
102
{ACAD_REACTORS
330
C
102
}
330
C
100
AcDbDictionary
281
     1
  3
Standard
350
2D
  0
DICTIONARY
  5
2E
102
{ACAD_REACTORS
330
C
102
}
330
C
100
AcDbDictionary
281
     1
  0
ACDBDICTIONARYWDFLT
  5
E
102
{ACAD_REACTORS
330
C
102
}
330
C
100
AcDbDictionary
281
     1
  3
Normal
350
F
100
AcDbDictionaryWithDefault
340
F
  0
DICTIONARY
  5
A33
102
{ACAD_REACTORS
330
C
102
}
330
C
100
AcDbDictionary
281
     1
  3
A0
350
A34
  3
A1
350
A35
  3
A2
350
A36
  3
A3
350
A37
  3
A4
350
A38
  3
A5
350
A39
  3
A6
350
A3A
  3
A7
350
A3B
  3
A8
350
A3C
  3
A9
350
A3D
  3
B0
350
A3E
  3
B1
350
A3F
  3
B2
350
A40
  3
B3
350
A41
  3
B4
350
A42
  3
B5
350
A43
  3
B6
350
A44
  0
DICTIONARY
  5
31
102
{ACAD_REACTORS
330
C
102
}
330
C
100
AcDbDictionary
281
     1
  3
Standard
350
32
  0
DICTIONARY
  5
14
102
{ACAD_REACTORS
330
C
102
}
330
C
100
AcDbDictionary
281
     1
  3
2dWireframe
350
1A
  3
3D Hidden
350
1C
  3
3dWireframe
350
1B
  3
Basic
350
19
  3
Brighten
350
20
  3
ColorChange
350
24
  3
Conceptual
350
1D
  3
Dim
350
1F
  3
EdgeColorOff
350
A32
  3
Facepattern
350
23
  3
Flat
350
15
  3
FlatWithEdges
350
16
  3
Gouraud
350
17
  3
GouraudWithEdges
350
18
  3
Hidden
350
A2A
  3
JitterOff
350
A30
  3
Linepattern
350
22
  3
OverhangOff
350
A31
  3
Realistic
350
1E
  3
Shaded
350
A2F
  3
Shaded with edges
350
A2E
  3
Shades of Gray
350
A2B
  3
Sketchy
350
A2C
  3
Thicken
350
21
  3
Wireframe
350
A29
  3
X-Ray
350
A2D
  0
XRECORD
  5
A59
102
{ACAD_REACTORS
330
C
102
}
330
C
100
AcDbXrecord
280
     1
 90
        1
330
32
  0
DICTIONARY
  5
A26
102
{ACAD_REACTORS
330
C
102
}
330
C
100
AcDbDictionary
281
     1
  3
CANNOSCALE
350
A53
  3
CMLEADERSTYLE
350
A51
  3
CTABLESTYLE
350
A27
  3
LAYEREVAL
350
A55
  3
LAYERNOTIFY
350
A56
  3
LIGHTINGUNITS
350
A54
  3
MSLTSCALE
350
A52
  0
LAYOUT
  5
36
102
{ACAD_REACTORS
330
2F
102
}
330
2F
100
AcDbPlotSettings
  1

  2

  4

  6

 40
0.0
 41
0.0
 42
0.0
 43
0.0
 44
0.0
 45
0.0
 46
0.0
 47
0.0
 48
0.0
 49
0.0
140
0.0
141
0.0
142
1.0
143
1.0
 70
   688
 72
     0
 73
     0
 74
     5
  7

 75
    16
147
1.0
 76
     0
 77
     2
 78
   300
148
0.0
149
0.0
100
AcDbLayout
  1
Layout1
 70
     1
 71
     1
 10
0.0
 20
0.0
 11
136.0
 21
88.0
 12
0.0
 22
0.0
 32
0.0
 14
0.0
 24
0.0
 34
0.0
 15
136.0
 25
88.0
 35
0.0
146
0.0
 13
0.0
 23
0.0
 33
0.0
 16
1.0
 26
0.0
 36
0.0
 17
0.0
 27
1.0
 37
0.0
 76
     0
330
33
  0
LAYOUT
  5
3E
102
{ACAD_REACTORS
330
2F
102
}
330
2F
100
AcDbPlotSettings
  1

  2

  4

  6

 40
0.0
 41
0.0
 42
0.0
 43
0.0
 44
0.0
 45
0.0
 46
0.0
 47
0.0
 48
0.0
 49
0.0
140
0.0
141
0.0
142
1.0
143
1.0
 70
   688
 72
     0
 73
     0
 74
     5
  7

 75
    16
147
1.0
 76
     0
 77
     2
 78
   300
148
0.0
149
0.0
100
AcDbLayout
  1
Layout2
 70
     1
 71
     2
 10
0.0
 20
0.0
 11
12.0
 21
9.0
 12
0.0
 22
0.0
 32
0.0
 14
0.0
 24
0.0
 34
0.0
 15
0.0
 25
0.0
 35
0.0
146
0.0
 13
0.0
 23
0.0
 33
0.0
 16
1.0
 26
0.0
 36
0.0
 17
0.0
 27
1.0
 37
0.0
 76
     0
330
3B
  0
LAYOUT
  5
3A
102
{ACAD_REACTORS
330
2F
102
}
330
2F
100
AcDbPlotSettings
  1

  2

  4

  6

 40
0.0
 41
0.0
 42
0.0
 43
0.0
 44
0.0
 45
0.0
 46
0.0
 47
0.0
 48
0.0
 49
0.0
140
0.0
141
0.0
142
1.0
143
1.0
 70
  1712
 72
     0
 73
     0
 74
     0
  7

 75
     0
147
1.0
 76
     0
 77
     2
 78
   300
148
0.0
149
0.0
100
AcDbLayout
  1
Model
 70
     1
 71
     0
 10
0.0
 20
0.0
 11
12.0
 21
9.0
 12
0.0
 22
0.0
 32
0.0
 14
0.0
 24
0.0
 34
0.0
 15
0.0
 25
0.0
 35
0.0
146
0.0
 13
0.0
 23
0.0
 33
0.0
 16
1.0
 26
0.0
 36
0.0
 17
0.0
 27
1.0
 37
0.0
 76
     0
330
37
331
28
  0
MATERIAL
  5
12
102
{ACAD_REACTORS
330
10
102
}
330
10
100
AcDbMaterial
  1
ByBlock
 73
     1
 78
     1
172
     1
176
     1
270
     1
274
     1
 94
       63
  0
MATERIAL
  5
11
102
{ACAD_REACTORS
330
10
102
}
330
10
100
AcDbMaterial
  1
ByLayer
 73
     1
 78
     1
172
     1
176
     1
270
     1
274
     1
 94
       63
  0
MATERIAL
  5
13
102
{ACAD_REACTORS
330
10
102
}
330
10
100
AcDbMaterial
  1
Global
 73
     1
 78
     1
172
     1
176
     1
270
     1
274
     1
 94
       63
  0
MLEADERSTYLE
  5
A46
102
{ACAD_REACTORS
330
A45
102
}
330
A45
100
AcDbMLeaderStyle
179
     2
170
     2
171
     1
172
     0
 90
        2
 40
0.0
 41
0.0
173
     1
 91
-1056964608
340
29
 92
       -2
290
     1
 42
0.09
291
     1
 43
0.36
  3
Standard
 44
0.18
300

342
26
174
     1
178
     6
175
     1
176
     0
 93
-1056964608
 45
0.18
292
     0
297
     0
 46
0.18
 94
-1056964608
 47
1.0
 49
1.0
140
1.0
293
     1
141
0.0
294
     1
177
     0
142
1.0
295
     1
296
     0
143
0.125
271
     0
272
     9
273
     9
  0
MLINESTYLE
  5
2D
102
{ACAD_REACTORS
330
2C
102
}
330
2C
100
AcDbMlineStyle
  2
STANDARD
 70
     0
  3

 62
   256
 51
90.0
 52
90.0
 71
     2
 49
0.5
 62
   256
  6
BYLAYER
 49
-0.5
 62
   256
  6
BYLAYER
  0
ACDBPLACEHOLDER
  5
F
102
{ACAD_REACTORS
330
E
102
}
330
E
  0
SCALE
  5
A34
102
{ACAD_REACTORS
330
A33
102
}
330
A33
100
AcDbScale
 70
     0
300
1:1
140
1.0
141
1.0
290
     1
  0
SCALE
  5
A35
102
{ACAD_REACTORS
330
A33
102
}
330
A33
100
AcDbScale
 70
     0
300
1/128" = 1'-0"
140
0.0078125
141
12.0
290
     0
  0
SCALE
  5
A36
102
{ACAD_REACTORS
330
A33
102
}
330
A33
100
AcDbScale
 70
     0
300
1/64" = 1'-0"
140
0.015625
141
12.0
290
     0
  0
SCALE
  5
A37
102
{ACAD_REACTORS
330
A33
102
}
330
A33
100
AcDbScale
 70
     0
300
1/32" = 1'-0"
140
0.03125
141
12.0
290
     0
  0
SCALE
  5
A38
102
{ACAD_REACTORS
330
A33
102
}
330
A33
100
AcDbScale
 70
     0
300
1/16" = 1'-0"
140
0.0625
141
12.0
290
     0
  0
SCALE
  5
A39
102
{ACAD_REACTORS
330
A33
102
}
330
A33
100
AcDbScale
 70
     0
300
3/32" = 1'-0"
140
0.09375
141
12.0
290
     0
  0
SCALE
  5
A3A
102
{ACAD_REACTORS
330
A33
102
}
330
A33
100
AcDbScale
 70
     0
300
1/8" = 1'-0"
140
0.125
141
12.0
290
     0
  0
SCALE
  5
A3B
102
{ACAD_REACTORS
330
A33
102
}
330
A33
100
AcDbScale
 70
     0
300
3/16" = 1'-0"
140
0.1875
141
12.0
290
     0
  0
SCALE
  5
A3C
102
{ACAD_REACTORS
330
A33
102
}
330
A33
100
AcDbScale
 70
     0
300
1/4" = 1'-0"
140
0.25
141
12.0
290
     0
  0
SCALE
  5
A3D
102
{ACAD_REACTORS
330
A33
102
}
330
A33
100
AcDbScale
 70
     0
300
3/8" = 1'-0"
140
0.375
141
12.0
290
     0
  0
SCALE
  5
A3E
102
{ACAD_REACTORS
330
A33
102
}
330
A33
100
AcDbScale
 70
     0
300
1/2" = 1'-0"
140
0.5
141
12.0
290
     0
  0
SCALE
  5
A3F
102
{ACAD_REACTORS
330
A33
102
}
330
A33
100
AcDbScale
 70
     0
300
3/4" = 1'-0"
140
0.75
141
12.0
290
     0
  0
SCALE
  5
A40
102
{ACAD_REACTORS
330
A33
102
}
330
A33
100
AcDbScale
 70
     0
300
1" = 1'-0"
140
1.0
141
12.0
290
     0
  0
SCALE
  5
A41
102
{ACAD_REACTORS
330
A33
102
}
330
A33
100
AcDbScale
 70
     0
300
1-1/2" = 1'-0"
140
1.5
141
12.0
290
     0
  0
SCALE
  5
A42
102
{ACAD_REACTORS
330
A33
102
}
330
A33
100
AcDbScale
 70
     0
300
3" = 1'-0"
140
3.0
141
12.0
290
     0
  0
SCALE
  5
A43
102
{ACAD_REACTORS
330
A33
102
}
330
A33
100
AcDbScale
 70
     0
300
6" = 1'-0"
140
6.0
141
12.0
290
     0
  0
SCALE
  5
A44
102
{ACAD_REACTORS
330
A33
102
}
330
A33
100
AcDbScale
 70
     0
300
1'-0" = 1'-0"
140
12.0
141
12.0
290
     0
  0
TABLESTYLE
  5
32
102
{ACAD_XDICTIONARY
360
A57
102
}
102
{ACAD_REACTORS
330
31
102
}
330
31
100
AcDbTableStyle
280
     0
  3
Standard
 70
     0
 71
     0
 40
0.06
 41
0.06
280
     0
281
     0
  7
Standard
140
0.18
170
     2
 62
     0
 63
     7
283
     0
 90
      512
 91
        0
  1

274
    -2
284
     1
 64
     0
275
    -2
285
     1
 65
     0
276
    -2
286
     1
 66
     0
277
    -2
287
     1
 67
     0
278
    -2
288
     1
 68
     0
279
    -2
289
     1
 69
     0
  7
Standard
140
0.25
170
     5
 62
     0
 63
     7
283
     0
 90
      512
 91
        0
  1

274
    -2
284
     1
 64
     0
275
    -2
285
     1
 65
     0
276
    -2
286
     1
 66
     0
277
    -2
287
     1
 67
     0
278
    -2
288
     1
 68
     0
279
    -2
289
     1
 69
     0
  7
Standard
140
0.18
170
     5
 62
     0
 63
     7
283
     0
 90
      512
 91
        0
  1

274
    -2
284
     1
 64
     0
275
    -2
285
     1
 65
     0
276
    -2
286
     1
 66
     0
277
    -2
287
     1
 67
     0
278
    -2
288
     1
 68
     0
279
    -2
289
     1
 69
     0
  0
VISUALSTYLE
  5
1A
102
{ACAD_REACTORS
330
14
102
}
330
14
100
AcDbVisualStyle
  2
2dWireframe
 70
     4
177
     2
291
     0
 71
     0
176
     1
 72
     2
176
     1
 73
     0
176
     1
 90
        0
176
     1
 40
0.6
176
     1
 41
30.0
176
     1
 63
     7
421
 16777215
176
     1
 74
     1
176
     1
 91
        4
176
     1
 64
     7
176
     1
 65
   257
176
     1
 75
     1
176
     1
175
     1
176
     1
 42
1.0
176
     1
 92
        0
176
     1
 66
   257
176
     1
 43
1.0
176
     1
 76
     1
176
     1
 77
     6
176
     1
 78
     2
176
     1
 67
     7
176
     1
 79
     5
176
     1
170
     0
176
     1
171
     0
176
     1
290
     0
176
     1
 93
        1
176
     1
 44
0.0
176
     1
173
     0
176
     1
  0
VISUALSTYLE
  5
1C
102
{ACAD_REACTORS
330
14
102
}
330
14
100
AcDbVisualStyle
  2
3D Hidden
 70
     6
177
     2
291
     0
 71
     1
176
     1
 72
     2
176
     1
 73
     2
176
     1
 90
        0
176
     1
 40
0.6
176
     1
 41
30.0
176
     1
 63
     7
421
 16777215
176
     1
 74
     2
176
     1
 91
        2
176
     1
 64
     7
176
     1
 65
   257
176
     1
 75
     2
176
     1
175
     1
176
     1
 42
40.0
176
     1
 92
        0
176
     1
 66
   257
176
     1
 43
1.0
176
     1
 76
     1
176
     1
 77
     6
176
     1
 78
     2
176
     1
 67
     7
176
     1
 79
     3
176
     1
170
     0
176
     1
171
     0
176
     1
290
     0
176
     1
 93
        1
176
     1
 44
0.0
176
     1
173
     0
176
     1
  0
VISUALSTYLE
  5
1B
102
{ACAD_REACTORS
330
14
102
}
330
14
100
AcDbVisualStyle
  2
3dWireframe
 70
     5
177
     2
291
     0
 71
     0
176
     1
 72
     2
176
     1
 73
     0
176
     1
 90
        0
176
     1
 40
0.6
176
     1
 41
30.0
176
     1
 63
     7
421
 16777215
176
     1
 74
     1
176
     1
 91
        4
176
     1
 64
     7
176
     1
 65
   257
176
     1
 75
     1
176
     1
175
     1
176
     1
 42
1.0
176
     1
 92
        0
176
     1
 66
   257
176
     1
 43
1.0
176
     1
 76
     1
176
     1
 77
     6
176
     1
 78
     2
176
     1
 67
     7
176
     1
 79
     5
176
     1
170
     0
176
     1
171
     0
176
     1
290
     0
176
     1
 93
        1
176
     1
 44
0.0
176
     1
173
     0
176
     1
  0
VISUALSTYLE
  5
19
102
{ACAD_REACTORS
330
14
102
}
330
14
100
AcDbVisualStyle
  2
Basic
 70
     7
177
     2
291
     1
 71
     1
176
     1
 72
     0
176
     1
 73
     1
176
     1
 90
        0
176
     1
 40
0.6
176
     1
 41
30.0
176
     1
 63
     7
421
 16777215
176
     1
 74
     0
176
     1
 91
        4
176
     1
 64
     7
176
     1
 65
   257
176
     1
 75
     1
176
     1
175
     1
176
     1
 42
1.0
176
     1
 92
        8
176
     1
 66
     7
176
     1
 43
1.0
176
     1
 76
     1
176
     1
 77
     6
176
     1
 78
     2
176
     1
 67
     7
176
     1
 79
     5
176
     1
170
     0
176
     1
171
     0
176
     1
290
     0
176
     1
 93
        1
176
     1
 44
0.0
176
     1
173
     0
176
     1
  0
VISUALSTYLE
  5
20
102
{ACAD_REACTORS
330
14
102
}
330
14
100
AcDbVisualStyle
  2
Brighten
 70
    12
177
     2
291
     1
 71
     2
176
     1
 72
     2
176
     1
 73
     0
176
     1
 90
        0
176
     1
 40
0.6
176
     1
 41
30.0
176
     1
 63
     7
421
 16777215
176
     1
 74
     1
176
     1
 91
        4
176
     1
 64
     7
176
     1
 65
   257
176
     1
 75
     1
176
     1
175
     1
176
     1
 42
1.0
176
     1
 92
        8
176
     1
 66
     7
176
     1
 43
1.0
176
     1
 76
     1
176
     1
 77
     6
176
     1
 78
     2
176
     1
 67
     7
176
     1
 79
     5
176
     1
170
     0
176
     1
171
     0
176
     1
290
     0
176
     1
 93
        1
176
     1
 44
50.0
176
     1
173
     0
176
     1
  0
VISUALSTYLE
  5
24
102
{ACAD_REACTORS
330
14
102
}
330
14
100
AcDbVisualStyle
  2
ColorChange
 70
    16
177
     2
291
     1
 71
     2
176
     1
 72
     2
176
     1
 73
     3
176
     1
 90
        0
176
     1
 40
0.6
176
     1
 41
30.0
176
     1
 63
     8
421
  8421504
176
     1
 74
     1
176
     1
 91
        4
176
     1
 64
     7
176
     1
 65
   257
176
     1
 75
     1
176
     1
175
     1
176
     1
 42
1.0
176
     1
 92
        8
176
     1
 66
     8
424
  8421504
176
     1
 43
1.0
176
     1
 76
     1
176
     1
 77
     6
176
     1
 78
     2
176
     1
 67
     7
176
     1
 79
     5
176
     1
170
     0
176
     1
171
     0
176
     1
290
     0
176
     1
 93
        1
176
     1
 44
0.0
176
     1
173
     0
176
     1
  0
VISUALSTYLE
  5
1D
102
{ACAD_REACTORS
330
14
102
}
330
14
100
AcDbVisualStyle
  2
Conceptual
 70
     9
177
     2
291
     0
 71
     3
176
     1
 72
     2
176
     1
 73
     0
176
     1
 90
        0
176
     1
 40
0.6
176
     1
 41
30.0
176
     1
 63
     7
421
 16777215
176
     1
 74
     2
176
     1
 91
        2
176
     1
 64
     7
176
     1
 65
   257
176
     1
 75
     1
176
     1
175
     1
176
     1
 42
40.0
176
     1
 92
        8
176
     1
 66
     7
176
     1
 43
1.0
176
     1
 76
     1
176
     1
 77
     6
176
     1
 78
     2
176
     1
 67
     7
176
     1
 79
     3
176
     1
170
     0
176
     1
171
     0
176
     1
290
     0
176
     1
 93
        1
176
     1
 44
0.0
176
     1
173
     0
176
     1
  0
VISUALSTYLE
  5
1F
102
{ACAD_REACTORS
330
14
102
}
330
14
100
AcDbVisualStyle
  2
Dim
 70
    11
177
     2
291
     1
 71
     2
176
     1
 72
     2
176
     1
 73
     0
176
     1
 90
        0
176
     1
 40
0.6
176
     1
 41
30.0
176
     1
 63
     7
421
 16777215
176
     1
 74
     1
176
     1
 91
        4
176
     1
 64
     7
176
     1
 65
   257
176
     1
 75
     1
176
     1
175
     1
176
     1
 42
1.0
176
     1
 92
        8
176
     1
 66
     7
176
     1
 43
1.0
176
     1
 76
     1
176
     1
 77
     6
176
     1
 78
     2
176
     1
 67
     7
176
     1
 79
     5
176
     1
170
     0
176
     1
171
     0
176
     1
290
     0
176
     1
 93
        1
176
     1
 44
-50.0
176
     1
173
     0
176
     1
  0
VISUALSTYLE
  5
A32
102
{ACAD_REACTORS
330
14
102
}
330
14
100
AcDbVisualStyle
  2
EdgeColorOff
 70
    22
177
     2
291
     1
 71
     2
176
     0
 72
     2
176
     0
 73
     0
176
     0
 90
        0
176
     0
 40
0.6
176
     0
 41
30.0
176
     0
 63
     7
421
 16777215
176
     0
 74
     1
176
     0
 91
        4
176
     0
 64
     7
176
     0
 65
   257
176
     0
 75
     1
176
     0
175
     1
176
     0
 42
1.0
176
     0
 92
        8
176
     2
 66
     7
176
     0
 43
1.0
176
     0
 76
     1
176
     0
 77
     6
176
     0
 78
     2
176
     0
 67
     7
176
     0
 79
     5
176
     0
170
     0
176
     0
171
     0
176
     0
290
     0
176
     0
 93
        1
176
     0
 44
0.0
176
     0
173
     0
176
     0
  0
VISUALSTYLE
  5
23
102
{ACAD_REACTORS
330
14
102
}
330
14
100
AcDbVisualStyle
  2
Facepattern
 70
    15
177
     2
291
     1
 71
     2
176
     1
 72
     2
176
     1
 73
     0
176
     1
 90
        0
176
     1
 40
0.6
176
     1
 41
30.0
176
     1
 63
     7
421
 16777215
176
     1
 74
     1
176
     1
 91
        4
176
     1
 64
     7
176
     1
 65
   257
176
     1
 75
     1
176
     1
175
     1
176
     1
 42
1.0
176
     1
 92
        8
176
     1
 66
     7
176
     1
 43
1.0
176
     1
 76
     1
176
     1
 77
     6
176
     1
 78
     2
176
     1
 67
     7
176
     1
 79
     5
176
     1
170
     0
176
     1
171
     0
176
     1
290
     0
176
     1
 93
        1
176
     1
 44
0.0
176
     1
173
     0
176
     1
  0
VISUALSTYLE
  5
15
102
{ACAD_REACTORS
330
14
102
}
330
14
100
AcDbVisualStyle
  2
Flat
 70
     0
177
     2
291
     1
 71
     2
176
     1
 72
     1
176
     1
 73
     1
176
     1
 90
        2
176
     1
 40
0.6
176
     1
 41
30.0
176
     1
 63
     7
421
 16777215
176
     1
 74
     0
176
     1
 91
        4
176
     1
 64
     7
176
     1
 65
   257
176
     1
 75
     1
176
     1
175
     1
176
     1
 42
1.0
176
     1
 92
        8
176
     1
 66
     7
176
     1
 43
1.0
176
     1
 76
     1
176
     1
 77
     6
176
     1
 78
     2
176
     1
 67
     7
176
     1
 79
     5
176
     1
170
     0
176
     1
171
     0
176
     1
290
     0
176
     1
 93
       13
176
     1
 44
0.0
176
     1
173
     0
176
     1
  0
VISUALSTYLE
  5
16
102
{ACAD_REACTORS
330
14
102
}
330
14
100
AcDbVisualStyle
  2
FlatWithEdges
 70
     1
177
     2
291
     1
 71
     2
176
     1
 72
     1
176
     1
 73
     1
176
     1
 90
        2
176
     1
 40
0.6
176
     1
 41
30.0
176
     1
 63
     7
421
 16777215
176
     1
 74
     1
176
     1
 91
        4
176
     1
 64
     7
176
     1
 65
   257
176
     1
 75
     1
176
     1
175
     1
176
     1
 42
1.0
176
     1
 92
        0
176
     1
 66
   257
176
     1
 43
1.0
176
     1
 76
     1
176
     1
 77
     6
176
     1
 78
     2
176
     1
 67
     7
176
     1
 79
     5
176
     1
170
     0
176
     1
171
     0
176
     1
290
     0
176
     1
 93
       13
176
     1
 44
0.0
176
     1
173
     0
176
     1
  0
VISUALSTYLE
  5
17
102
{ACAD_REACTORS
330
14
102
}
330
14
100
AcDbVisualStyle
  2
Gouraud
 70
     2
177
     2
291
     1
 71
     2
176
     1
 72
     2
176
     1
 73
     1
176
     1
 90
        2
176
     1
 40
0.6
176
     1
 41
30.0
176
     1
 63
     7
421
 16777215
176
     1
 74
     0
176
     1
 91
        4
176
     1
 64
     7
176
     1
 65
   257
176
     1
 75
     1
176
     1
175
     1
176
     1
 42
1.0
176
     1
 92
        0
176
     1
 66
     7
176
     1
 43
1.0
176
     1
 76
     1
176
     1
 77
     6
176
     1
 78
     2
176
     1
 67
     7
176
     1
 79
     5
176
     1
170
     0
176
     1
171
     0
176
     1
290
     0
176
     1
 93
       13
176
     1
 44
0.0
176
     1
173
     0
176
     1
  0
VISUALSTYLE
  5
18
102
{ACAD_REACTORS
330
14
102
}
330
14
100
AcDbVisualStyle
  2
GouraudWithEdges
 70
     3
177
     2
291
     1
 71
     2
176
     1
 72
     2
176
     1
 73
     1
176
     1
 90
        2
176
     1
 40
0.6
176
     1
 41
30.0
176
     1
 63
     7
421
 16777215
176
     1
 74
     1
176
     1
 91
        4
176
     1
 64
     7
176
     1
 65
   257
176
     1
 75
     1
176
     1
175
     1
176
     1
 42
1.0
176
     1
 92
        0
176
     1
 66
   257
176
     1
 43
1.0
176
     1
 76
     1
176
     1
 77
     6
176
     1
 78
     2
176
     1
 67
     7
176
     1
 79
     5
176
     1
170
     0
176
     1
171
     0
176
     1
290
     0
176
     1
 93
       13
176
     1
 44
0.0
176
     1
173
     0
176
     1
  0
VISUALSTYLE
  5
A2A
102
{ACAD_REACTORS
330
14
102
}
330
14
100
AcDbVisualStyle
  2
Hidden
 70
     6
177
     2
291
     0
 71
     1
176
     1
 72
     2
176
     1
 73
     2
176
     1
 90
        0
176
     1
 40
0.6
176
     1
 41
30.0
176
     1
 63
     7
421
 16777215
176
     1
 74
     2
176
     1
 91
        2
176
     1
 64
     7
176
     1
 65
   257
176
     1
 75
     2
176
     1
175
     1
176
     1
 42
40.0
176
     1
 92
        0
176
     1
 66
   257
176
     1
 43
1.0
176
     1
 76
     1
176
     1
 77
     6
176
     1
 78
     2
176
     1
 67
     7
176
     1
 79
     3
176
     1
170
     0
176
     1
171
     0
176
     1
290
     0
176
     1
 93
        1
176
     1
 44
0.0
176
     1
173
     0
176
     1
  0
VISUALSTYLE
  5
A30
102
{ACAD_REACTORS
330
14
102
}
330
14
100
AcDbVisualStyle
  2
JitterOff
 70
    20
177
     2
291
     1
 71
     2
176
     0
 72
     2
176
     0
 73
     0
176
     0
 90
        0
176
     0
 40
0.6
176
     0
 41
30.0
176
     0
 63
     7
421
 16777215
176
     0
 74
     1
176
     0
 91
        4
176
     0
 64
     7
176
     0
 65
   257
176
     0
 75
     1
176
     0
175
     1
176
     0
 42
1.0
176
     0
 92
       10
176
     2
 66
     7
176
     0
 43
1.0
176
     0
 76
     1
176
     0
 77
     6
176
     0
 78
     2
176
     0
 67
     7
176
     0
 79
     5
176
     0
170
     0
176
     0
171
     0
176
     0
290
     0
176
     0
 93
        1
176
     0
 44
0.0
176
     0
173
     0
176
     0
  0
VISUALSTYLE
  5
22
102
{ACAD_REACTORS
330
14
102
}
330
14
100
AcDbVisualStyle
  2
Linepattern
 70
    14
177
     2
291
     1
 71
     2
176
     1
 72
     2
176
     1
 73
     0
176
     1
 90
        0
176
     1
 40
0.6
176
     1
 41
30.0
176
     1
 63
     7
421
 16777215
176
     1
 74
     1
176
     1
 91
        4
176
     1
 64
     7
176
     1
 65
   257
176
     1
 75
     7
176
     1
175
     7
176
     1
 42
1.0
176
     1
 92
        8
176
     1
 66
     7
176
     1
 43
1.0
176
     1
 76
     1
176
     1
 77
     6
176
     1
 78
     2
176
     1
 67
     7
176
     1
 79
     5
176
     1
170
     0
176
     1
171
     0
176
     1
290
     0
176
     1
 93
        1
176
     1
 44
0.0
176
     1
173
     0
176
     1
  0
VISUALSTYLE
  5
A31
102
{ACAD_REACTORS
330
14
102
}
330
14
100
AcDbVisualStyle
  2
OverhangOff
 70
    21
177
     2
291
     1
 71
     2
176
     0
 72
     2
176
     0
 73
     0
176
     0
 90
        0
176
     0
 40
0.6
176
     0
 41
30.0
176
     0
 63
     7
421
 16777215
176
     0
 74
     1
176
     0
 91
        4
176
     0
 64
     7
176
     0
 65
   257
176
     0
 75
     1
176
     0
175
     1
176
     0
 42
1.0
176
     0
 92
        9
176
     2
 66
     7
176
     0
 43
1.0
176
     0
 76
     1
176
     0
 77
     6
176
     0
 78
     2
176
     0
 67
     7
176
     0
 79
     5
176
     0
170
     0
176
     0
171
     0
176
     0
290
     0
176
     0
 93
        1
176
     0
 44
0.0
176
     0
173
     0
176
     0
  0
VISUALSTYLE
  5
1E
102
{ACAD_REACTORS
330
14
102
}
330
14
100
AcDbVisualStyle
  2
Realistic
 70
     8
177
     2
291
     0
 71
     2
176
     1
 72
     2
176
     1
 73
     0
176
     1
 90
        0
176
     1
 40
0.6
176
     1
 41
30.0
176
     1
 63
     7
421
 16777215
176
     1
 74
     1
176
     1
 91
        0
176
     1
 64
     7
176
     1
 65
   257
176
     1
 75
     1
176
     1
175
     1
176
     1
 42
1.0
176
     1
 92
        8
176
     1
 66
     8
424
  7895160
176
     1
 43
1.0
176
     1
 76
     1
176
     1
 77
     6
176
     1
 78
     2
176
     1
 67
     7
176
     1
 79
     5
176
     1
170
     0
176
     1
171
     0
176
     1
290
     0
176
     1
 93
       13
176
     1
 44
0.0
176
     1
173
     0
176
     1
  0
VISUALSTYLE
  5
A2F
102
{ACAD_REACTORS
330
14
102
}
330
14
100
AcDbVisualStyle
  2
Shaded
 70
    27
177
     2
291
     0
 71
     2
176
     1
 72
     2
176
     1
 73
     1
176
     1
 90
        2
176
     1
 40
0.6
176
     1
 41
30.0
176
     1
 63
     7
421
 16777215
176
     1
 74
     0
176
     1
 91
        4
176
     1
 64
     7
176
     1
 65
   257
176
     1
 75
     1
176
     1
175
     1
176
     1
 42
1.0
176
     1
 92
        8
176
     1
 66
   257
176
     1
 43
1.0
176
     1
 76
     1
176
     1
 77
     6
176
     1
 78
     2
176
     1
 67
     8
425
  7895160
176
     1
 79
     3
176
     1
170
     0
176
     1
171
     0
176
     1
290
     0
176
     1
 93
        5
176
     1
 44
0.0
176
     1
173
     0
176
     1
  0
VISUALSTYLE
  5
A2E
102
{ACAD_REACTORS
330
14
102
}
330
14
100
AcDbVisualStyle
  2
Shaded with edges
 70
    26
177
     2
291
     0
 71
     2
176
     1
 72
     2
176
     1
 73
     1
176
     1
 90
        2
176
     1
 40
0.6
176
     1
 41
30.0
176
     1
 63
     7
421
 16777215
176
     1
 74
     1
176
     1
 91
       10
176
     1
 64
     7
176
     1
 65
   257
176
     1
 75
     2
176
     1
175
     1
176
     1
 42
1.0
176
     1
 92
        8
176
     1
 66
   257
176
     1
 43
1.0
176
     1
 76
     1
176
     1
 77
     6
176
     1
 78
     2
176
     1
 67
     7
176
     1
 79
     3
176
     1
170
     0
176
     1
171
     0
176
     1
290
     0
176
     1
 93
        5
176
     1
 44
0.0
176
     1
173
     0
176
     1
  0
VISUALSTYLE
  5
A2B
102
{ACAD_REACTORS
330
14
102
}
330
14
100
AcDbVisualStyle
  2
Shades of Gray
 70
    23
177
     2
291
     0
 71
     2
176
     1
 72
     2
176
     1
 73
     3
176
     1
 90
        0
176
     1
 40
0.6
176
     1
 41
30.0
176
     1
 63
     7
421
 16777215
176
     1
 74
     2
176
     1
 91
        2
176
     1
 64
     7
176
     1
 65
     7
176
     1
 75
     1
176
     1
175
     1
176
     1
 42
40.0
176
     1
 92
        8
176
     1
 66
     7
176
     1
 43
1.0
176
     1
 76
     1
176
     1
 77
     6
176
     1
 78
     2
176
     1
 67
     7
176
     1
 79
     3
176
     1
170
     0
176
     1
171
     0
176
     1
290
     0
176
     1
 93
        1
176
     1
 44
0.0
176
     1
173
     0
176
     1
  0
VISUALSTYLE
  5
A2C
102
{ACAD_REACTORS
330
14
102
}
330
14
100
AcDbVisualStyle
  2
Sketchy
 70
    24
177
     2
291
     0
 71
     1
176
     1
 72
     2
176
     1
 73
     2
176
     1
 90
        0
176
     1
 40
0.6
176
     1
 41
30.0
176
     1
 63
     7
421
 16777215
176
     1
 74
     2
176
     1
 91
        2
176
     1
 64
     7
176
     1
 65
     7
176
     1
 75
     1
176
     1
175
     1
176
     1
 42
40.0
176
     1
 92
       11
176
     1
 66
     7
176
     1
 43
1.0
176
     1
 76
     1
176
     1
 77
     6
176
     1
 78
     2
176
     1
 67
     7
176
     1
 79
     6
176
     1
170
     0
176
     1
171
     0
176
     1
290
     0
176
     1
 93
        1
176
     1
 44
0.0
176
     1
173
     0
176
     1
  0
VISUALSTYLE
  5
21
102
{ACAD_REACTORS
330
14
102
}
330
14
100
AcDbVisualStyle
  2
Thicken
 70
    13
177
     2
291
     1
 71
     2
176
     1
 72
     2
176
     1
 73
     0
176
     1
 90
        0
176
     1
 40
0.6
176
     1
 41
30.0
176
     1
 63
     7
421
 16777215
176
     1
 74
     1
176
     1
 91
        4
176
     1
 64
     7
176
     1
 65
   257
176
     1
 75
     1
176
     1
175
     1
176
     1
 42
1.0
176
     1
 92
       12
176
     1
 66
     7
176
     1
 43
1.0
176
     1
 76
     1
176
     1
 77
     6
176
     1
 78
     2
176
     1
 67
     7
176
     1
 79
     5
176
     1
170
     0
176
     1
171
     0
176
     1
290
     0
176
     1
 93
        1
176
     1
 44
0.0
176
     1
173
     0
176
     1
  0
VISUALSTYLE
  5
A29
102
{ACAD_REACTORS
330
14
102
}
330
14
100
AcDbVisualStyle
  2
Wireframe
 70
     5
177
     2
291
     0
 71
     0
176
     1
 72
     2
176
     1
 73
     0
176
     1
 90
        0
176
     1
 40
0.6
176
     1
 41
30.0
176
     1
 63
     7
421
 16777215
176
     1
 74
     1
176
     1
 91
        4
176
     1
 64
     7
176
     1
 65
   257
176
     1
 75
     1
176
     1
175
     1
176
     1
 42
1.0
176
     1
 92
        0
176
     1
 66
   257
176
     1
 43
1.0
176
     1
 76
     1
176
     1
 77
     6
176
     1
 78
     2
176
     1
 67
     7
176
     1
 79
     3
176
     1
170
     0
176
     1
171
     0
176
     1
290
     0
176
     1
 93
        1
176
     1
 44
0.0
176
     1
173
     0
176
     1
  0
VISUALSTYLE
  5
A2D
102
{ACAD_REACTORS
330
14
102
}
330
14
100
AcDbVisualStyle
  2
X-Ray
 70
    25
177
     2
291
     0
 71
     2
176
     1
 72
     2
176
     1
 73
     1
176
     1
 90
        1
176
     1
 40
0.5
176
     1
 41
30.0
176
     1
 63
     7
421
 16777215
176
     1
 74
     1
176
     1
 91
        0
176
     1
 64
     7
176
     1
 65
   257
176
     1
 75
     1
176
     1
175
     1
176
     1
 42
1.0
176
     1
 92
        8
176
     1
 66
     7
176
     1
 43
1.0
176
     1
 76
     1
176
     1
 77
     6
176
     1
 78
     2
176
     1
 67
     7
176
     1
 79
     3
176
     1
170
     0
176
     1
171
     0
176
     1
290
     0
176
     1
 93
       13
176
     1
 44
0.0
176
     1
173
     0
176
     1
  0
DICTIONARYVAR
  5
A53
102
{ACAD_REACTORS
330
A26
102
}
330
A26
100
DictionaryVariables
280
     0
  1
1:1
  0
DICTIONARYVAR
  5
A51
102
{ACAD_REACTORS
330
A26
102
}
330
A26
100
DictionaryVariables
280
     0
  1
STANDARD
  0
DICTIONARYVAR
  5
A27
102
{ACAD_REACTORS
330
A26
102
}
330
A26
100
DictionaryVariables
280
     0
  1
STANDARD
  0
DICTIONARYVAR
  5
A55
102
{ACAD_REACTORS
330
A26
102
}
330
A26
100
DictionaryVariables
280
     0
  1
1
  0
DICTIONARYVAR
  5
A56
102
{ACAD_REACTORS
330
A26
102
}
330
A26
100
DictionaryVariables
280
     0
  1
15
  0
DICTIONARYVAR
  5
A54
102
{ACAD_REACTORS
330
A26
102
}
330
A26
100
DictionaryVariables
280
     0
  1
0
  0
DICTIONARYVAR
  5
A52
102
{ACAD_REACTORS
330
A26
102
}
330
A26
100
DictionaryVariables
280
     0
  1
0
  0
DICTIONARY
  5
A57
330
32
100
AcDbDictionary
280
     1
281
     1
  3
ACAD_ROUNDTRIP_2008_TABLESTYLE_CELLSTYLEMAP
360
A58
  0
CELLSTYLEMAP
  5
A58
102
{ACAD_REACTORS
330
A57
102
}
330
A57
100
AcDbCellStyleMap
 90
        3
300
CELLSTYLE
  1
TABLEFORMAT_BEGIN
 90
        5
170
     1
 91
        0
 92
    32768
 62
   257
 93
        1
300
CONTENTFORMAT
  1
CONTENTFORMAT_BEGIN
 90
        0
 91
        0
 92
      512
 93
        0
300

 40
0.0
140
1.0
 94
        5
 62
     0
340
26
144
0.25
309
CONTENTFORMAT_END
171
     0
 94
        6
 95
        1
302
GRIDFORMAT
  1
GRIDFORMAT_BEGIN
 90
        0
 91
        1
 62
     0
 92
       -2
340
0
 93
        0
 40
0.045
309
GRIDFORMAT_END
 95
        2
302
GRIDFORMAT
  1
GRIDFORMAT_BEGIN
 90
        0
 91
        1
 62
     0
 92
       -2
340
0
 93
        0
 40
0.045
309
GRIDFORMAT_END
 95
        4
302
GRIDFORMAT
  1
GRIDFORMAT_BEGIN
 90
        0
 91
        1
 62
     0
 92
       -2
340
0
 93
        0
 40
0.045
309
GRIDFORMAT_END
 95
        8
302
GRIDFORMAT
  1
GRIDFORMAT_BEGIN
 90
        0
 91
        1
 62
     0
 92
       -2
340
0
 93
        0
 40
0.045
309
GRIDFORMAT_END
 95
       16
302
GRIDFORMAT
  1
GRIDFORMAT_BEGIN
 90
        0
 91
        1
 62
     0
 92
       -2
340
0
 93
        0
 40
0.045
309
GRIDFORMAT_END
 95
       32
302
GRIDFORMAT
  1
GRIDFORMAT_BEGIN
 90
        0
 91
        1
 62
     0
 92
       -2
340
0
 93
        0
 40
0.045
309
GRIDFORMAT_END
309
TABLEFORMAT_END
  1
CELLSTYLE_BEGIN
 90
        1
 91
        1
300
_TITLE
309
CELLSTYLE_END
300
CELLSTYLE
  1
TABLEFORMAT_BEGIN
 90
        5
170
     1
 91
        0
 92
        0
 62
   257
 93
        1
300
CONTENTFORMAT
  1
CONTENTFORMAT_BEGIN
 90
        0
 91
        0
 92
      512
 93
        0
300

 40
0.0
140
1.0
 94
        5
 62
     0
340
26
144
0.18
309
CONTENTFORMAT_END
171
     0
 94
        6
 95
        1
302
GRIDFORMAT
  1
GRIDFORMAT_BEGIN
 90
        0
 91
        1
 62
     0
 92
       -2
340
0
 93
        0
 40
0.045
309
GRIDFORMAT_END
 95
        2
302
GRIDFORMAT
  1
GRIDFORMAT_BEGIN
 90
        0
 91
        1
 62
     0
 92
       -2
340
0
 93
        0
 40
0.045
309
GRIDFORMAT_END
 95
        4
302
GRIDFORMAT
  1
GRIDFORMAT_BEGIN
 90
        0
 91
        1
 62
     0
 92
       -2
340
0
 93
        0
 40
0.045
309
GRIDFORMAT_END
 95
        8
302
GRIDFORMAT
  1
GRIDFORMAT_BEGIN
 90
        0
 91
        1
 62
     0
 92
       -2
340
0
 93
        0
 40
0.045
309
GRIDFORMAT_END
 95
       16
302
GRIDFORMAT
  1
GRIDFORMAT_BEGIN
 90
        0
 91
        1
 62
     0
 92
       -2
340
0
 93
        0
 40
0.045
309
GRIDFORMAT_END
 95
       32
302
GRIDFORMAT
  1
GRIDFORMAT_BEGIN
 90
        0
 91
        1
 62
     0
 92
       -2
340
0
 93
        0
 40
0.045
309
GRIDFORMAT_END
309
TABLEFORMAT_END
  1
CELLSTYLE_BEGIN
 90
        2
 91
        1
300
_HEADER
309
CELLSTYLE_END
300
CELLSTYLE
  1
TABLEFORMAT_BEGIN
 90
        5
170
     1
 91
        0
 92
        0
 62
   257
 93
        1
300
CONTENTFORMAT
  1
CONTENTFORMAT_BEGIN
 90
        0
 91
        0
 92
      512
 93
        0
300

 40
0.0
140
1.0
 94
        2
 62
     0
340
26
144
0.18
309
CONTENTFORMAT_END
171
     0
 94
        6
 95
        1
302
GRIDFORMAT
  1
GRIDFORMAT_BEGIN
 90
        0
 91
        1
 62
     0
 92
       -2
340
0
 93
        0
 40
0.045
309
GRIDFORMAT_END
 95
        2
302
GRIDFORMAT
  1
GRIDFORMAT_BEGIN
 90
        0
 91
        1
 62
     0
 92
       -2
340
0
 93
        0
 40
0.045
309
GRIDFORMAT_END
 95
        4
302
GRIDFORMAT
  1
GRIDFORMAT_BEGIN
 90
        0
 91
        1
 62
     0
 92
       -2
340
0
 93
        0
 40
0.045
309
GRIDFORMAT_END
 95
        8
302
GRIDFORMAT
  1
GRIDFORMAT_BEGIN
 90
        0
 91
        1
 62
     0
 92
       -2
340
0
 93
        0
 40
0.045
309
GRIDFORMAT_END
 95
       16
302
GRIDFORMAT
  1
GRIDFORMAT_BEGIN
 90
        0
 91
        1
 62
     0
 92
       -2
340
0
 93
        0
 40
0.045
309
GRIDFORMAT_END
 95
       32
302
GRIDFORMAT
  1
GRIDFORMAT_BEGIN
 90
        0
 91
        1
 62
     0
 92
       -2
340
0
 93
        0
 40
0.045
309
GRIDFORMAT_END
309
TABLEFORMAT_END
  1
CELLSTYLE_BEGIN
 90
        3
 91
        2
300
_DATA
309
CELLSTYLE_END
  0
ENDSEC
  0
EOF
