  0
SECTION
  2
HEADER
  9
$ACADVER
  1
AC1024
  9
$ACADMAINTVER
 70
    37
  9
$DWGCODEPAGE
  3
ANSI_1252
  9
$TITLE
  1
ENCLOSURE
  9
$AUTHOR
  1
ENTEGEE
  9
$LASTSAVEDBY
  1
jtigges
  9
$CUSTOMPROPERTYTAG
  1
Manager
  9
$CUSTOMPROPERTY
  1

  9
$CUSTOMPROPERTYTAG
  1
Company
  9
$CUSTOMPROPERTY
  1
STALIN ENCLOSURES
  9
$CUSTOMPROPERTYTAG
  1
Category
  9
$CUSTOMPROPERTY
  1

  9
$CUSTOMPROPERTYTAG
  1
Part Number
  9
$CUSTOMPROPERTY
  1
BP6036CS
  9
$CUSTOMPROPERTYTAG
  1
Description
  9
$CUSTOMPROPERTY
  1

  9
$CUSTOMPROPERTYTAG
  1
Project
  9
$CUSTOMPROPERTY
  1

  9
$CUSTOMPROPERTYTAG
  1
Designer
  9
$CUSTOMPROPERTY
  1
rginster
  9
$CUSTOMPROPERTYTAG
  1
Engineer
  9
$CUSTOMPROPERTY
  1

  9
$CUSTOMPROPERTYTAG
  1
Authority
  9
$CUSTOMPROPERTY
  1

  9
$CUSTOMPROPERTYTAG
  1
Cost Center
  9
$CUSTOMPROPERTY
  1

  9
$CUSTOMPROPERTYTAG
  1
Vendor
  9
$CUSTOMPROPERTY
  1

  9
$CUSTOMPROPERTYTAG
  1
User Status
  9
$CUSTOMPROPERTY
  1

  9
$CUSTOMPROPERTYTAG
  1
Design Status
  9
$CUSTOMPROPERTY
  1
WorkInProgress
  9
$CUSTOMPROPERTYTAG
  1
Checked by
  9
$CUSTOMPROPERTY
  1

  9
$CUSTOMPROPERTYTAG
  1
Engr Approved by
  9
$CUSTOMPROPERTY
  1

  9
$CUSTOMPROPERTYTAG
  1
Mfg Approved by
  9
$CUSTOMPROPERTY
  1

  9
$INSBASE
 10
0.0
 20
0.0
 30
0.0
  9
$EXTMIN
 10
0.5418569942414706
 20
3.325229509362003
 30
-0.0015258207003583
  9
$EXTMAX
 10
188.3470327742298
 20
118.8969932820018
 30
0.0000000349246037
  9
$LIMMIN
 10
0.0
 20
0.0
  9
$LIMMAX
 10
188.8888888888889
 20
122.2222222222222
  9
$ORTHOMODE
 70
     0
  9
$REGENMODE
 70
     1
  9
$FILLMODE
 70
     1
  9
$QTEXTMODE
 70
     0
  9
$MIRRTEXT
 70
     0
  9
$LTSCALE
 40
5.555555555555555
  9
$ATTMODE
 70
     1
  9
$TEXTSIZE
 40
0.2
  9
$TRACEWID
 40
0.05
  9
$TEXTSTYLE
  7
Standard
  9
$CLAYER
  8
0
  9
$CELTYPE
  6
ByLayer
  9
$CECOLOR
 62
   256
  9
$CELTSCALE
 40
1.0
  9
$DISPSILH
 70
     0
  9
$DIMSCALE
 40
1.0
  9
$DIMASZ
 40
0.0708661417322835
  9
$DIMEXO
 40
0.0625
  9
$DIMDLI
 40
0.38
  9
$DIMRND
 40
0.0
  9
$DIMDLE
 40
0.0
  9
$DIMEXE
 40
0.18
  9
$DIMTP
 40
0.0
  9
$DIMTM
 40
0.0
  9
$DIMTXT
 40
0.3048000037670135
  9
$DIMCEN
 40
0.09
  9
$DIMTSZ
 40
0.0
  9
$DIMTOL
 70
     0
  9
$DIMLIM
 70
     0
  9
$DIMTIH
 70
     1
  9
$DIMTOH
 70
     1
  9
$DIMSE1
 70
     0
  9
$DIMSE2
 70
     0
  9
$DIMTAD
 70
     0
  9
$DIMZIN
 70
     0
  9
$DIMBLK
  1

  9
$DIMASO
 70
     1
  9
$DIMSHO
 70
     1
  9
$DIMPOST
  1

  9
$DIMAPOST
  1

  9
$DIMALT
 70
     0
  9
$DIMALTD
 70
     2
  9
$DIMALTF
 40
25.4
  9
$DIMLFAC
 40
1.0
  9
$DIMTOFL
 70
     0
  9
$DIMTVP
 40
0.0
  9
$DIMTIX
 70
     0
  9
$DIMSOXD
 70
     0
  9
$DIMSAH
 70
     0
  9
$DIMBLK1
  1

  9
$DIMBLK2
  1

  9
$DIMSTYLE
  2
Standard
  9
$DIMCLRD
 70
     0
  9
$DIMCLRE
 70
     0
  9
$DIMCLRT
 70
     0
  9
$DIMTFAC
 40
1.0
  9
$DIMGAP
 40
0.09
  9
$DIMJUST
 70
     0
  9
$DIMSD1
 70
     0
  9
$DIMSD2
 70
     0
  9
$DIMTOLJ
 70
     1
  9
$DIMTZIN
 70
     0
  9
$DIMALTZ
 70
     0
  9
$DIMALTTZ
 70
     0
  9
$DIMUPT
 70
     0
  9
$DIMDEC
 70
     4
  9
$DIMTDEC
 70
     4
  9
$DIMALTU
 70
     2
  9
$DIMALTTD
 70
     2
  9
$DIMTXSTY
  7
Standard
  9
$DIMAUNIT
 70
     0
  9
$DIMADEC
 70
     0
  9
$DIMALTRND
 40
0.0
  9
$DIMAZIN
 70
     0
  9
$DIMDSEP
 70
    46
  9
$DIMATFIT
 70
     3
  9
$DIMFRAC
 70
     0
  9
$DIMLDRBLK
  1

  9
$DIMLUNIT
 70
     2
  9
$DIMLWD
 70
    -2
  9
$DIMLWE
 70
    -2
  9
$DIMTMOVE
 70
     0
  9
$DIMFXL
 40
1.0
  9
$DIMFXLON
 70
     0
  9
$DIMJOGANG
 40
0.7853981633974483
  9
$DIMTFILL
 70
     0
  9
$DIMTFILLCLR
 70
     0
  9
$DIMARCSYM
 70
     0
  9
$DIMLTYPE
  6

  9
$DIMLTEX1
  6

  9
$DIMLTEX2
  6

  9
$DIMTXTDIRECTION
 70
     0
  9
$LUNITS
 70
     2
  9
$LUPREC
 70
     4
  9
$SKETCHINC
 40
0.1
  9
$FILLETRAD
 40
0.0
  9
$AUNITS
 70
     0
  9
$AUPREC
 70
     0
  9
$MENU
  1
.
  9
$ELEVATION
 40
0.0
  9
$PELEVATION
 40
0.0
  9
$THICKNESS
 40
0.0
  9
$LIMCHECK
 70
     0
  9
$CHAMFERA
 40
0.0
  9
$CHAMFERB
 40
0.0
  9
$CHAMFERC
 40
0.0
  9
$CHAMFERD
 40
0.0
  9
$SKPOLY
 70
     0
  9
$TDCREATE
 40
2454495.675362234
  9
$TDUCREATE
 40
2454495.925362234
  9
$TDUPDATE
 40
2456722.302744965
  9
$TDUUPDATE
 40
2456722.552744965
  9
$TDINDWG
 40
0.0001067708
  9
$TDUSRTIMER
 40
0.0001067708
  9
$USRTIMER
 70
     1
  9
$ANGBASE
 50
0.0
  9
$ANGDIR
 70
     0
  9
$PDMODE
 70
     0
  9
$PDSIZE
 40
0.0
  9
$PLINEWID
 40
0.0
  9
$SPLFRAME
 70
     0
  9
$SPLINETYPE
 70
     6
  9
$SPLINESEGS
 70
     8
  9
$HANDSEED
  5
B36
  9
$SURFTAB1
 70
     6
  9
$SURFTAB2
 70
     6
  9
$SURFTYPE
 70
     6
  9
$SURFU
 70
     6
  9
$SURFV
 70
     6
  9
$UCSBASE
  2

  9
$UCSNAME
  2

  9
$UCSORG
 10
0.0
 20
0.0
 30
0.0
  9
$UCSXDIR
 10
1.0
 20
0.0
 30
0.0
  9
$UCSYDIR
 10
0.0
 20
1.0
 30
0.0
  9
$UCSORTHOREF
  2

  9
$UCSORTHOVIEW
 70
     0
  9
$UCSORGTOP
 10
0.0
 20
0.0
 30
0.0
  9
$UCSORGBOTTOM
 10
0.0
 20
0.0
 30
0.0
  9
$UCSORGLEFT
 10
0.0
 20
0.0
 30
0.0
  9
$UCSORGRIGHT
 10
0.0
 20
0.0
 30
0.0
  9
$UCSORGFRONT
 10
0.0
 20
0.0
 30
0.0
  9
$UCSORGBACK
 10
0.0
 20
0.0
 30
0.0
  9
$PUCSBASE
  2

  9
$PUCSNAME
  2

  9
$PUCSORG
 10
0.0
 20
0.0
 30
0.0
  9
$PUCSXDIR
 10
1.0
 20
0.0
 30
0.0
  9
$PUCSYDIR
 10
0.0
 20
1.0
 30
0.0
  9
$PUCSORTHOREF
  2

  9
$PUCSORTHOVIEW
 70
     0
  9
$PUCSORGTOP
 10
0.0
 20
0.0
 30
0.0
  9
$PUCSORGBOTTOM
 10
0.0
 20
0.0
 30
0.0
  9
$PUCSORGLEFT
 10
0.0
 20
0.0
 30
0.0
  9
$PUCSORGRIGHT
 10
0.0
 20
0.0
 30
0.0
  9
$PUCSORGFRONT
 10
0.0
 20
0.0
 30
0.0
  9
$PUCSORGBACK
 10
0.0
 20
0.0
 30
0.0
  9
$USERI1
 70
     0
  9
$USERI2
 70
     0
  9
$USERI3
 70
     0
  9
$USERI4
 70
     0
  9
$USERI5
 70
     0
  9
$USERR1
 40
0.0
  9
$USERR2
 40
0.0
  9
$USERR3
 40
0.0
  9
$USERR4
 40
0.0
  9
$USERR5
 40
0.0
  9
$WORLDVIEW
 70
     1
  9
$SHADEDGE
 70
     3
  9
$SHADEDIF
 70
    70
  9
$TILEMODE
 70
     1
  9
$MAXACTVP
 70
    64
  9
$PINSBASE
 10
0.0
 20
0.0
 30
0.0
  9
$PLIMCHECK
 70
     0
  9
$PEXTMIN
 10
0.0
 20
0.0
 30
0.0
  9
$PEXTMAX
 10
188.8888888888889
 20
122.2222222222222
 30
0.0
  9
$PLIMMIN
 10
0.0
 20
0.0
  9
$PLIMMAX
 10
188.8888888888889
 20
122.2222222222222
  9
$UNITMODE
 70
     0
  9
$VISRETAIN
 70
     1
  9
$PLINEGEN
 70
     0
  9
$PSLTSCALE
 70
     1
  9
$TREEDEPTH
 70
  3020
  9
$CMLSTYLE
  2
Standard
  9
$CMLJUST
 70
     0
  9
$CMLSCALE
 40
1.0
  9
$PROXYGRAPHICS
 70
     1
  9
$MEASUREMENT
 70
     0
  9
$CELWEIGHT
370
    -1
  9
$ENDCAPS
280
     0
  9
$JOINSTYLE
280
     0
  9
$LWDISPLAY
290
     0
  9
$INSUNITS
 70
     0
  9
$HYPERLINKBASE
  1

  9
$STYLESHEET
  1

  9
$XEDIT
290
     1
  9
$CEPSNTYPE
380
     0
  9
$PSTYLEMODE
290
     1
  9
$FINGERPRINTGUID
  2
{0B7A82D7-2F77-4DA0-A8FB-E3BFF43A0627}
  9
$VERSIONGUID
  2
{79FF4184-D67A-4A75-A4AD-ED5F0E7F1F77}
  9
$EXTNAMES
290
     1
  9
$PSVPSCALE
 40
0.0
  9
$OLESTARTUP
290
     0
  9
$SORTENTS
280
   127
  9
$INDEXCTL
280
     0
  9
$HIDETEXT
280
     1
  9
$XCLIPFRAME
280
     0
  9
$HALOGAP
280
     0
  9
$OBSCOLOR
 70
   257
  9
$OBSLTYPE
280
     0
  9
$INTERSECTIONDISPLAY
280
     0
  9
$INTERSECTIONCOLOR
 70
   257
  9
$DIMASSOC
280
     1
  9
$PROJECTNAME
  1

  9
$CAMERADISPLAY
290
     0
  9
$LENSLENGTH
 40
50.0
  9
$CAMERAHEIGHT
 40
0.0
  9
$STEPSPERSEC
 40
2.0
  9
$STEPSIZE
 40
6.0
  9
$3DDWFPREC
 40
2.0
  9
$PSOLWIDTH
 40
0.25
  9
$PSOLHEIGHT
 40
4.0
  9
$LOFTANG1
 40
1.570796326794896
  9
$LOFTANG2
 40
1.570796326794896
  9
$LOFTMAG1
 40
0.0
  9
$LOFTMAG2
 40
0.0
  9
$LOFTPARAM
 70
     7
  9
$LOFTNORMALS
280
     1
  9
$LATITUDE
 40
37.795
  9
$LONGITUDE
 40
-122.394
  9
$NORTHDIRECTION
 40
0.0
  9
$TIMEZONE
 70
 -8000
  9
$LIGHTGLYPHDISPLAY
280
     1
  9
$TILEMODELIGHTSYNCH
280
     1
  9
$CMATERIAL
347
11
  9
$SOLIDHIST
280
     1
  9
$SHOWHIST
280
     1
  9
$DWFFRAME
280
     2
  9
$DGNFRAME
280
     0
  9
$REALWORLDSCALE
290
     1
  9
$INTERFERECOLOR
 62
     1
  9
$INTERFEREOBJVS
345
1E
  9
$INTERFEREVPVS
346
B05
  9
$CSHADOW
280
     0
  9
$SHADOWPLANELOCATION
 40
0.0
  0
ENDSEC
  0
SECTION
  2
CLASSES
  0
CLASS
  1
ACDBDICTIONARYWDFLT
  2
AcDbDictionaryWithDefault
  3
ObjectDBX Classes
 90
        0
 91
        1
280
     0
281
     0
  0
CLASS
  1
MATERIAL
  2
AcDbMaterial
  3
ObjectDBX Classes
 90
     1153
 91
        3
280
     0
281
     0
  0
CLASS
  1
VISUALSTYLE
  2
AcDbVisualStyle
  3
ObjectDBX Classes
 90
     4095
 91
       26
280
     0
281
     0
  0
CLASS
  1
TABLESTYLE
  2
AcDbTableStyle
  3
ObjectDBX Classes
 90
     4095
 91
        1
280
     0
281
     0
  0
CLASS
  1
DICTIONARYVAR
  2
AcDbDictionaryVar
  3
ObjectDBX Classes
 90
        0
 91
        7
280
     0
281
     0
  0
CLASS
  1
SCALE
  2
AcDbScale
  3
ObjectDBX Classes
 90
     1153
 91
       17
280
     0
281
     0
  0
CLASS
  1
MLEADERSTYLE
  2
AcDbMLeaderStyle
  3
ACDB_MLEADERSTYLE_CLASS
 90
     4095
 91
        1
280
     0
281
     0
  0
CLASS
  1
CELLSTYLEMAP
  2
AcDbCellStyleMap
  3
ObjectDBX Classes
 90
     1152
 91
        1
280
     0
281
     0
  0
ENDSEC
  0
SECTION
  2
TABLES
  0
TABLE
  2
VPORT
  5
8
102
{ACAD_XDICTIONARY
360
AE4
102
}
330
0
100
AcDbSymbolTable
 70
     1
  0
VPORT
  5
28
330
8
100
AcDbSymbolTableRecord
100
AcDbViewportTableRecord
  2
*Active
 70
     0
 10
0.0
 20
0.0
 11
1.0
 21
1.0
 12
94.44444488423563
 22
61.1111113956819
 13
0.0
 23
0.0
 14
1.0
 24
1.0
 15
0.0
 25
0.0
 16
0.0
 26
0.0
 36
1.0
 17
0.0
 27
0.0
 37
0.0
 40
116.3553011541492
 41
2.16628959276018
 42
50.0
 43
0.0
 44
0.0
 50
0.0
 51
0.0
 71
     0
 72
   100
 73
     1
 74
     1
 75
     0
 76
     0
 77
     0
 78
     0
281
     0
 65
     1
110
0.0
120
0.0
130
0.0
111
1.0
121
0.0
131
0.0
112
0.0
122
1.0
132
0.0
 79
     0
146
0.0
348
1A
 60
     3
 61
     5
292
     1
282
     1
141
0.0
142
0.0
 63
   250
421
  3355443
  0
ENDTAB
  0
TABLE
  2
LTYPE
  5
5
330
0
100
AcDbSymbolTable
 70
    59
  0
LTYPE
  5
29
330
5
100
AcDbSymbolTableRecord
100
AcDbLinetypeTableRecord
  2
ByBlock
 70
     0
  3

 72
    65
 73
     0
 40
0.0
  0
LTYPE
  5
2A
330
5
100
AcDbSymbolTableRecord
100
AcDbLinetypeTableRecord
  2
ByLayer
 70
     0
  3

 72
    65
 73
     0
 40
0.0
  0
LTYPE
  5
2B
330
5
100
AcDbSymbolTableRecord
100
AcDbLinetypeTableRecord
  2
Continuous
 70
     0
  3
Solid line
 72
    65
 73
     0
 40
0.0
  0
LTYPE
  5
40
330
5
100
AcDbSymbolTableRecord
100
AcDbLinetypeTableRecord
  2
BY_STANDARD
 70
     0
  3
By Standard ____________    ____    ____   _
 72
    65
 73
     6
 40
1.240299999999999
 49
0.6614
 74
     0
 49
-0.0827
 74
     0
 49
0.1654
 74
     0
 49
-0.0827
 74
     0
 49
0.1654
 74
     0
 49
-0.0827
 74
     0
  0
LTYPE
  5
41
330
5
100
AcDbSymbolTableRecord
100
AcDbLinetypeTableRecord
  2
CHAIN
 70
     0
  3
Chain ____ _ ____ _ ____ _ ____ _ ____ _ ____
 72
    65
 73
     4
 40
0.7087
 49
0.4724000000000001
 74
     0
 49
-0.0591
 74
     0
 49
0.1181
 74
     0
 49
-0.0591
 74
     0
  0
LTYPE
  5
42
330
5
100
AcDbSymbolTableRecord
100
AcDbLinetypeTableRecord
  2
DASH_DOT
 70
     0
  3
Dash dot __ . __ . __ . __ . __ . __ . __ . __
 72
    65
 73
     4
 40
0.37
 49
0.24
 74
     0
 49
-0.06
 74
     0
 49
0.01
 74
     0
 49
-0.06
 74
     0
  0
LTYPE
  5
43
330
5
100
AcDbSymbolTableRecord
100
AcDbLinetypeTableRecord
  2
DOUBLE_DASH_DOT
 70
     0
  3
Double-Dash Dot __ __ . __ __ . __ __ . __ _
 72
    65
 73
     6
 40
0.4398
 49
0.24
 74
     0
 49
-0.06
 74
     0
 49
0.0098
 74
     0
 49
-0.06
 74
     0
 49
0.01
 74
     0
 49
-0.06
 74
     0
  0
LTYPE
  5
44
330
5
100
AcDbSymbolTableRecord
100
AcDbLinetypeTableRecord
  2
DASH_TRIPLE_DOT
 70
     0
  3
Dash Triple-Dot _ . . . _ . . . _ . . . _
 72
    65
 73
     8
 40
0.51
 49
0.24
 74
     0
 49
-0.06
 74
     0
 49
0.01
 74
     0
 49
-0.06
 74
     0
 49
0.01
 74
     0
 49
-0.06
 74
     0
 49
0.01
 74
     0
 49
-0.06
 74
     0
  0
LTYPE
  5
45
330
5
100
AcDbSymbolTableRecord
100
AcDbLinetypeTableRecord
  2
DASHED
 70
     0
  3
Dashed __ __ __ __ __ __ __ __ __ __ __ __ __ _
 72
    65
 73
     2
 40
0.2067
 49
0.1654
 74
     0
 49
-0.0413
 74
     0
  0
LTYPE
  5
46
330
5
100
AcDbSymbolTableRecord
100
AcDbLinetypeTableRecord
  2
DASH_DOUBLE_DOT
 70
     0
  3
Dash Double-Dot __ . . __ . . __ . . __ . .
 72
    65
 73
     6
 40
0.4398
 49
0.24
 74
     0
 49
-0.06
 74
     0
 49
0.0098
 74
     0
 49
-0.06
 74
     0
 49
0.01
 74
     0
 49
-0.06
 74
     0
  0
LTYPE
  5
47
330
5
100
AcDbSymbolTableRecord
100
AcDbLinetypeTableRecord
  2
DASHED_SPACE
 70
     0
  3
Dashed Space __ __ __ __ __ __ __ __ __ __ __ _
 72
    65
 73
     2
 40
0.2067
 49
0.1654
 74
     0
 49
-0.0413
 74
     0
  0
LTYPE
  5
48
330
5
100
AcDbSymbolTableRecord
100
AcDbLinetypeTableRecord
  2
DOTTED
 70
     0
  3
Dotted . . . . . . . . . . . . . . . . . . . . 
 72
    65
 73
     2
 40
0.0482
 49
0.0069
 74
     0
 49
-0.0413
 74
     0
  0
LTYPE
  5
49
330
5
100
AcDbSymbolTableRecord
100
AcDbLinetypeTableRecord
  2
DOUBLE_DASH_CHAIN
 70
     0
  3
Double-Dash Chain ______  __  __  ______  __  _
 72
    65
 73
     6
 40
1.240299999999999
 49
0.6614
 74
     0
 49
-0.0827
 74
     0
 49
0.1654
 74
     0
 49
-0.0827
 74
     0
 49
0.1654
 74
     0
 49
-0.0827
 74
     0
  0
LTYPE
  5
4B
330
5
100
AcDbSymbolTableRecord
100
AcDbLinetypeTableRecord
  2
DOUBLE_DASH_DOUBLE_DOT
 70
     0
  3
Double-Dash Double-dot _ _ . . _ _ . . _
 72
    65
 73
     8
 40
0.7400000000000001
 49
0.24
 74
     0
 49
-0.06
 74
     0
 49
0.24
 74
     0
 49
-0.06
 74
     0
 49
0.01
 74
     0
 49
-0.06
 74
     0
 49
0.01
 74
     0
 49
-0.06
 74
     0
  0
LTYPE
  5
4C
330
5
100
AcDbSymbolTableRecord
100
AcDbLinetypeTableRecord
  2
DOUBLE_DASH_TRIPLE_DOT
 70
     0
  3
Double Dash Triple Dot __ __ . . . __ __ . .
 72
    65
 73
    10
 40
0.8100000000000001
 49
0.24
 74
     0
 49
-0.06
 74
     0
 49
0.24
 74
     0
 49
-0.06
 74
     0
 49
0.01
 74
     0
 49
-0.06
 74
     0
 49
0.01
 74
     0
 49
-0.06
 74
     0
 49
0.01
 74
     0
 49
-0.06
 74
     0
  0
LTYPE
  5
4D
330
5
100
AcDbSymbolTableRecord
100
AcDbLinetypeTableRecord
  2
LONG_DASH_DOTTED
 70
     0
  3
Long Dash Dotted ____ . ____ . ____ . ____ . _
 72
    65
 73
     4
 40
0.3543
 49
0.2362
 74
     0
 49
-0.0295
 74
     0
 49
0.0591
 74
     0
 49
-0.0295
 74
     0
  0
LTYPE
  5
4E
330
5
100
AcDbSymbolTableRecord
100
AcDbLinetypeTableRecord
  2
LONG_DASH_DOUBLE_DOT
 70
     0
  3
Long Dash Double Dot ________  .  .  ________  
 72
    65
 73
     6
 40
0.6799999999999999
 49
0.48
 74
     0
 49
-0.06
 74
     0
 49
0.01
 74
     0
 49
-0.06
 74
     0
 49
0.01
 74
     0
 49
-0.06
 74
     0
  0
LTYPE
  5
4F
330
5
100
AcDbSymbolTableRecord
100
AcDbLinetypeTableRecord
  2
LONG_DASH_TRIPLE_DOT
 70
     0
  3
Long Dash Triple Dot ____ ... ____ ... ____
 72
    65
 73
     8
 40
0.3689
 49
0.2362
 74
     0
 49
-0.0295
 74
     0
 49
0.0049
 74
     0
 49
-0.0295
 74
     0
 49
0.0049
 74
     0
 49
-0.0295
 74
     0
 49
0.0049
 74
     0
 49
-0.0295
 74
     0
  0
LTYPE
  5
50
330
5
100
AcDbSymbolTableRecord
100
AcDbLinetypeTableRecord
  2
BORDER
 70
     0
  3
Border __ __ . __ __ . __ __ . __ __ . __ __ .
 72
    65
 73
     6
 40
1.75
 49
0.5
 74
     0
 49
-0.25
 74
     0
 49
0.5
 74
     0
 49
-0.25
 74
     0
 49
0.0
 74
     0
 49
-0.25
 74
     0
  0
LTYPE
  5
51
330
5
100
AcDbSymbolTableRecord
100
AcDbLinetypeTableRecord
  2
BORDER2
 70
     0
  3
Border (.5x) __.__.__.__.__.__.__.__.__.__.__.
 72
    65
 73
     6
 40
0.875
 49
0.25
 74
     0
 49
-0.125
 74
     0
 49
0.25
 74
     0
 49
-0.125
 74
     0
 49
0.0
 74
     0
 49
-0.125
 74
     0
  0
LTYPE
  5
52
330
5
100
AcDbSymbolTableRecord
100
AcDbLinetypeTableRecord
  2
BORDERX2
 70
     0
  3
Border (2x) ____  ____  .  ____  ____  .  ___
 72
    65
 73
     6
 40
3.5
 49
1.0
 74
     0
 49
-0.5
 74
     0
 49
1.0
 74
     0
 49
-0.5
 74
     0
 49
0.0
 74
     0
 49
-0.5
 74
     0
  0
LTYPE
  5
53
330
5
100
AcDbSymbolTableRecord
100
AcDbLinetypeTableRecord
  2
CENTER
 70
     0
  3
Center ____ _ ____ _ ____ _ ____ _ ____ _ ____
 72
    65
 73
     4
 40
2.0
 49
1.25
 74
     0
 49
-0.25
 74
     0
 49
0.25
 74
     0
 49
-0.25
 74
     0
  0
LTYPE
  5
54
330
5
100
AcDbSymbolTableRecord
100
AcDbLinetypeTableRecord
  2
CENTER2
 70
     0
  3
Center (.5x) ___ _ ___ _ ___ _ ___ _ ___ _ ___
 72
    65
 73
     4
 40
1.125
 49
0.75
 74
     0
 49
-0.125
 74
     0
 49
0.125
 74
     0
 49
-0.125
 74
     0
  0
LTYPE
  5
55
330
5
100
AcDbSymbolTableRecord
100
AcDbLinetypeTableRecord
  2
CENTERX2
 70
     0
  3
Center (2x) ________  __  ________  __  _____
 72
    65
 73
     4
 40
4.0
 49
2.5
 74
     0
 49
-0.5
 74
     0
 49
0.5
 74
     0
 49
-0.5
 74
     0
  0
LTYPE
  5
56
330
5
100
AcDbSymbolTableRecord
100
AcDbLinetypeTableRecord
  2
DASHDOT2
 70
     0
  3
Dash dot (.5x) _._._._._._._._._._._._._._._.
 72
    65
 73
     4
 40
0.5
 49
0.25
 74
     0
 49
-0.125
 74
     0
 49
0.0
 74
     0
 49
-0.125
 74
     0
  0
LTYPE
  5
57
330
5
100
AcDbSymbolTableRecord
100
AcDbLinetypeTableRecord
  2
DASHDOTX2
 70
     0
  3
Dash dot (2x) ____  .  ____  .  ____  .  ___
 72
    65
 73
     4
 40
2.0
 49
1.0
 74
     0
 49
-0.5
 74
     0
 49
0.0
 74
     0
 49
-0.5
 74
     0
  0
LTYPE
  5
59
330
5
100
AcDbSymbolTableRecord
100
AcDbLinetypeTableRecord
  2
DASHED2
 70
     0
  3
Dashed (.5x) _ _ _ _ _ _ _ _ _ _ _ _ _ _ _ _ _
 72
    65
 73
     2
 40
0.375
 49
0.25
 74
     0
 49
-0.125
 74
     0
  0
LTYPE
  5
5A
330
5
100
AcDbSymbolTableRecord
100
AcDbLinetypeTableRecord
  2
DASHEDX2
 70
     0
  3
Dashed (2x) ____  ____  ____  ____  ____  ___
 72
    65
 73
     2
 40
1.5
 49
1.0
 74
     0
 49
-0.5
 74
     0
  0
LTYPE
  5
5B
330
5
100
AcDbSymbolTableRecord
100
AcDbLinetypeTableRecord
  2
DIVIDE
 70
     0
  3
Divide ____ . . ____ . . ____ . . ____ . . ____
 72
    65
 73
     6
 40
1.25
 49
0.5
 74
     0
 49
-0.25
 74
     0
 49
0.0
 74
     0
 49
-0.25
 74
     0
 49
0.0
 74
     0
 49
-0.25
 74
     0
  0
LTYPE
  5
5C
330
5
100
AcDbSymbolTableRecord
100
AcDbLinetypeTableRecord
  2
DIVIDE2
 70
     0
  3
Divide (.5x) __..__..__..__..__..__..__..__.._
 72
    65
 73
     6
 40
0.625
 49
0.25
 74
     0
 49
-0.125
 74
     0
 49
0.0
 74
     0
 49
-0.125
 74
     0
 49
0.0
 74
     0
 49
-0.125
 74
     0
  0
LTYPE
  5
5D
330
5
100
AcDbSymbolTableRecord
100
AcDbLinetypeTableRecord
  2
DIVIDEX2
 70
     0
  3
Divide (2x) ________  .  .  ________  .  .  _
 72
    65
 73
     6
 40
2.5
 49
1.0
 74
     0
 49
-0.5
 74
     0
 49
0.0
 74
     0
 49
-0.5
 74
     0
 49
0.0
 74
     0
 49
-0.5
 74
     0
  0
LTYPE
  5
5E
330
5
100
AcDbSymbolTableRecord
100
AcDbLinetypeTableRecord
  2
DOT
 70
     0
  3
Dot . . . . . . . . . . . . . . . . . . . . . .
 72
    65
 73
     2
 40
0.25
 49
0.0
 74
     0
 49
-0.25
 74
     0
  0
LTYPE
  5
5F
330
5
100
AcDbSymbolTableRecord
100
AcDbLinetypeTableRecord
  2
DOT2
 70
     0
  3
Dot (.5x) .....................................
 72
    65
 73
     2
 40
0.125
 49
0.0
 74
     0
 49
-0.125
 74
     0
  0
LTYPE
  5
60
330
5
100
AcDbSymbolTableRecord
100
AcDbLinetypeTableRecord
  2
DOTX2
 70
     0
  3
Dot (2x) .  .  .  .  .  .  .  .  .  .  .  .  . 
 72
    65
 73
     2
 40
0.5
 49
0.0
 74
     0
 49
-0.5
 74
     0
  0
LTYPE
  5
61
330
5
100
AcDbSymbolTableRecord
100
AcDbLinetypeTableRecord
  2
HIDDEN
 70
     0
  3
Hidden __ __ __ __ __ __ __ __ __ __ __ __ __ _
 72
    65
 73
     2
 40
0.375
 49
0.25
 74
     0
 49
-0.125
 74
     0
  0
LTYPE
  5
62
330
5
100
AcDbSymbolTableRecord
100
AcDbLinetypeTableRecord
  2
HIDDEN2
 70
     0
  3
Hidden (.5x) _ _ _ _ _ _ _ _ _ _ _ _ _ _ _ _ _
 72
    65
 73
     2
 40
0.1875
 49
0.125
 74
     0
 49
-0.0625
 74
     0
  0
LTYPE
  5
63
330
5
100
AcDbSymbolTableRecord
100
AcDbLinetypeTableRecord
  2
HIDDENX2
 70
     0
  3
Hidden (2x) ____ ____ ____ ____ ____ ____ ____
 72
    65
 73
     2
 40
0.75
 49
0.5
 74
     0
 49
-0.25
 74
     0
  0
LTYPE
  5
64
330
5
100
AcDbSymbolTableRecord
100
AcDbLinetypeTableRecord
  2
PHANTOM
 70
     0
  3
Phantom ______  __  __  ______  __  __  ______
 72
    65
 73
     6
 40
2.5
 49
1.25
 74
     0
 49
-0.25
 74
     0
 49
0.25
 74
     0
 49
-0.25
 74
     0
 49
0.25
 74
     0
 49
-0.25
 74
     0
  0
LTYPE
  5
65
330
5
100
AcDbSymbolTableRecord
100
AcDbLinetypeTableRecord
  2
PHANTOM2
 70
     0
  3
Phantom (.5x) ___ _ _ ___ _ _ ___ _ _ ___ _ _
 72
    65
 73
     6
 40
1.25
 49
0.625
 74
     0
 49
-0.125
 74
     0
 49
0.125
 74
     0
 49
-0.125
 74
     0
 49
0.125
 74
     0
 49
-0.125
 74
     0
  0
LTYPE
  5
66
330
5
100
AcDbSymbolTableRecord
100
AcDbLinetypeTableRecord
  2
PHANTOMX2
 70
     0
  3
Phantom (2x) ____________    ____    ____   _
 72
    65
 73
     6
 40
5.0
 49
2.5
 74
     0
 49
-0.5
 74
     0
 49
0.5
 74
     0
 49
-0.5
 74
     0
 49
0.5
 74
     0
 49
-0.5
 74
     0
  0
LTYPE
  5
67
330
5
100
AcDbSymbolTableRecord
100
AcDbLinetypeTableRecord
  2
ACAD_ISO02W100
 70
     0
  3
ISO dash __ __ __ __ __ __ __ __ __ __ __ __ __
 72
    65
 73
     2
 40
0.59
 49
0.47
 74
     0
 49
-0.12
 74
     0
  0
LTYPE
  5
68
330
5
100
AcDbSymbolTableRecord
100
AcDbLinetypeTableRecord
  2
ACAD_ISO03W100
 70
     0
  3
ISO dash space __    __    __    __    __    __
 72
    65
 73
     2
 40
1.179999999999999
 49
0.47
 74
     0
 49
-0.71
 74
     0
  0
LTYPE
  5
69
330
5
100
AcDbSymbolTableRecord
100
AcDbLinetypeTableRecord
  2
ACAD_ISO04W100
 70
     0
  3
ISO long-dash dot ____ . ____ . ____ . ____ . _
 72
    65
 73
     4
 40
1.179999999999999
 49
0.9399999999999998
 74
     0
 49
-0.12
 74
     0
 49
0.0
 74
     0
 49
-0.12
 74
     0
  0
LTYPE
  5
6A
330
5
100
AcDbSymbolTableRecord
100
AcDbLinetypeTableRecord
  2
ACAD_ISO05W100
 70
     0
  3
ISO long-dash double-dot ____ .. ____ .. ____ .
 72
    65
 73
     6
 40
1.299999999999999
 49
0.9399999999999998
 74
     0
 49
-0.12
 74
     0
 49
0.0
 74
     0
 49
-0.12
 74
     0
 49
0.0
 74
     0
 49
-0.12
 74
     0
  0
LTYPE
  5
6B
330
5
100
AcDbSymbolTableRecord
100
AcDbLinetypeTableRecord
  2
ACAD_ISO06W100
 70
     0
  3
ISO long-dash triple-dot ____ ... ____ ... ____
 72
    65
 73
     8
 40
1.419999999999999
 49
0.9399999999999998
 74
     0
 49
-0.12
 74
     0
 49
0.0
 74
     0
 49
-0.12
 74
     0
 49
0.0
 74
     0
 49
-0.12
 74
     0
 49
0.0
 74
     0
 49
-0.12
 74
     0
  0
LTYPE
  5
6C
330
5
100
AcDbSymbolTableRecord
100
AcDbLinetypeTableRecord
  2
ACAD_ISO07W100
 70
     0
  3
ISO dot . . . . . . . . . . . . . . . . . . . .
 72
    65
 73
     2
 40
0.12
 49
0.0
 74
     0
 49
-0.12
 74
     0
  0
LTYPE
  5
6D
330
5
100
AcDbSymbolTableRecord
100
AcDbLinetypeTableRecord
  2
ACAD_ISO08W100
 70
     0
  3
ISO long-dash short-dash ____ __ ____ __ ____ _
 72
    65
 73
     4
 40
0.95
 49
0.47
 74
     0
 49
-0.12
 74
     0
 49
0.24
 74
     0
 49
-0.12
 74
     0
  0
LTYPE
  5
6E
330
5
100
AcDbSymbolTableRecord
100
AcDbLinetypeTableRecord
  2
ACAD_ISO09W100
 70
     0
  3
ISO long-dash double-short-dash ____ __ __ ____
 72
    65
 73
     6
 40
1.31
 49
0.47
 74
     0
 49
-0.12
 74
     0
 49
0.24
 74
     0
 49
-0.12
 74
     0
 49
0.24
 74
     0
 49
-0.12
 74
     0
  0
LTYPE
  5
6F
330
5
100
AcDbSymbolTableRecord
100
AcDbLinetypeTableRecord
  2
ACAD_ISO10W100
 70
     0
  3
ISO dash dot __ . __ . __ . __ . __ . __ . __ .
 72
    65
 73
     4
 40
0.71
 49
0.47
 74
     0
 49
-0.12
 74
     0
 49
0.0
 74
     0
 49
-0.12
 74
     0
  0
LTYPE
  5
70
330
5
100
AcDbSymbolTableRecord
100
AcDbLinetypeTableRecord
  2
ACAD_ISO11W100
 70
     0
  3
ISO double-dash dot __ __ . __ __ . __ __ . __ 
 72
    65
 73
     6
 40
1.299999999999999
 49
0.47
 74
     0
 49
-0.12
 74
     0
 49
0.47
 74
     0
 49
-0.12
 74
     0
 49
0.0
 74
     0
 49
-0.12
 74
     0
  0
LTYPE
  5
71
330
5
100
AcDbSymbolTableRecord
100
AcDbLinetypeTableRecord
  2
ACAD_ISO12W100
 70
     0
  3
ISO dash double-dot __ . . __ . . __ . . __ . .
 72
    65
 73
     6
 40
0.8299999999999998
 49
0.47
 74
     0
 49
-0.12
 74
     0
 49
0.0
 74
     0
 49
-0.12
 74
     0
 49
0.0
 74
     0
 49
-0.12
 74
     0
  0
LTYPE
  5
72
330
5
100
AcDbSymbolTableRecord
100
AcDbLinetypeTableRecord
  2
ACAD_ISO13W100
 70
     0
  3
ISO double-dash double-dot __ __ . . __ __ . . 
 72
    65
 73
     8
 40
1.419999999999999
 49
0.47
 74
     0
 49
-0.12
 74
     0
 49
0.47
 74
     0
 49
-0.12
 74
     0
 49
0.0
 74
     0
 49
-0.12
 74
     0
 49
0.0
 74
     0
 49
-0.12
 74
     0
  0
LTYPE
  5
73
330
5
100
AcDbSymbolTableRecord
100
AcDbLinetypeTableRecord
  2
ACAD_ISO14W100
 70
     0
  3
ISO dash triple-dot __ . . . __ . . . __ . . . 
 72
    65
 73
     8
 40
0.95
 49
0.47
 74
     0
 49
-0.12
 74
     0
 49
0.0
 74
     0
 49
-0.12
 74
     0
 49
0.0
 74
     0
 49
-0.12
 74
     0
 49
0.0
 74
     0
 49
-0.12
 74
     0
  0
LTYPE
  5
74
330
5
100
AcDbSymbolTableRecord
100
AcDbLinetypeTableRecord
  2
ACAD_ISO15W100
 70
     0
  3
ISO double-dash triple-dot __ __ . . . __ __ . 
 72
    65
 73
    10
 40
1.539999999999999
 49
0.47
 74
     0
 49
-0.12
 74
     0
 49
0.47
 74
     0
 49
-0.12
 74
     0
 49
0.0
 74
     0
 49
-0.12
 74
     0
 49
0.0
 74
     0
 49
-0.12
 74
     0
 49
0.0
 74
     0
 49
-0.12
 74
     0
  0
LTYPE
  5
77
330
5
100
AcDbSymbolTableRecord
100
AcDbLinetypeTableRecord
  2
FENCELINE1
 70
     0
  3
Fenceline circle ----0-----0----0-----0----0---
 72
    65
 73
     4
 40
1.45
 49
0.25
 74
     0
 49
-0.1
 74
     4
 75
   133
340
76
 46
0.1
 50
0.0
 44
-0.1
 45
0.0
 49
-0.1
 74
     0
 49
1.0
 74
     0
  0
LTYPE
  5
78
330
5
100
AcDbSymbolTableRecord
100
AcDbLinetypeTableRecord
  2
FENCELINE2
 70
     0
  3
Fenceline square ----[]-----[]----[]-----[]----
 72
    65
 73
     4
 40
1.45
 49
0.25
 74
     0
 49
-0.1
 74
     4
 75
   132
340
76
 46
0.1
 50
0.0
 44
-0.1
 45
0.0
 49
-0.1
 74
     0
 49
1.0
 74
     0
  0
LTYPE
  5
79
330
5
100
AcDbSymbolTableRecord
100
AcDbLinetypeTableRecord
  2
TRACKS
 70
     0
  3
Tracks -|-|-|-|-|-|-|-|-|-|-|-|-|-|-|-|-|-|-|-|
 72
    65
 73
     2
 40
0.3
 49
0.15
 74
     4
 75
   130
340
76
 46
0.25
 50
0.0
 44
0.0
 45
0.0
 49
0.15
 74
     0
  0
LTYPE
  5
7A
330
5
100
AcDbSymbolTableRecord
100
AcDbLinetypeTableRecord
  2
BATTING
 70
     0
  3
Batting SSSSSSSSSSSSSSSSSSSSSSSSSSSSSSSSSSSSSSS
 72
    65
 73
     4
 40
0.4001000000000001
 49
0.0001
 74
     0
 49
-0.1
 74
     4
 75
   134
340
76
 46
0.1
 50
0.0
 44
-0.1
 45
0.0
 49
-0.2
 74
     4
 75
   134
340
76
 46
0.1
 50
180.0
 44
0.1
 45
0.0
 49
-0.1
 74
     0
  0
LTYPE
  5
7B
330
5
100
AcDbSymbolTableRecord
100
AcDbLinetypeTableRecord
  2
HOT_WATER_SUPPLY
 70
     0
  3
Hot water supply ---- HW ---- HW ---- HW ----
 72
    65
 73
     3
 40
0.9
 49
0.5
 74
     0
 49
-0.2
 74
     2
 75
     0
340
26
 46
0.1
 50
0.0
 44
-0.1
 45
-0.05
  9
HW
 49
-0.2
 74
     0
  0
LTYPE
  5
7C
330
5
100
AcDbSymbolTableRecord
100
AcDbLinetypeTableRecord
  2
GAS_LINE
 70
     0
  3
Gas line ----GAS----GAS----GAS----GAS----GAS---
 72
    65
 73
     3
 40
0.95
 49
0.5
 74
     0
 49
-0.2
 74
     2
 75
     0
340
26
 46
0.1
 50
0.0
 44
-0.1
 45
-0.05
  9
GAS
 49
-0.25
 74
     0
  0
LTYPE
  5
7D
330
5
100
AcDbSymbolTableRecord
100
AcDbLinetypeTableRecord
  2
ZIGZAG
 70
     0
  3
Zig zag /\/\/\/\/\/\/\/\/\/\/\/\/\/\/\/\/\/\/\/
 72
    65
 73
     4
 40
0.8001000000000001
 49
0.0001
 74
     0
 49
-0.2
 74
     4
 75
   131
340
76
 46
0.2
 50
0.0
 44
-0.2
 45
0.0
 49
-0.4
 74
     4
 75
   131
340
76
 46
0.2
 50
180.0
 44
0.2
 45
0.0
 49
-0.2
 74
     0
  0
ENDTAB
  0
TABLE
  2
LAYER
  5
2
330
0
100
AcDbSymbolTable
 70
    10
  0
LAYER
  5
25
330
2
100
AcDbSymbolTableRecord
100
AcDbLayerTableRecord
  2
0
 70
     0
 62
     7
  6
Continuous
370
    -3
390
F
347
13
  0
LAYER
  5
81
330
2
100
AcDbSymbolTableRecord
100
AcDbLayerTableRecord
  2
Border (ANSI)
 70
     0
 62
     7
  6
Continuous
370
    35
390
F
347
13
  0
LAYER
  5
86
330
2
100
AcDbSymbolTableRecord
100
AcDbLayerTableRecord
  2
Dimension (ANSI)
 70
     0
 62
     7
  6
Continuous
370
    13
390
F
347
13
  0
LAYER
  5
88
330
2
100
AcDbSymbolTableRecord
100
AcDbLayerTableRecord
  2
Hidden (ANSI)
 70
     0
 62
     7
  6
DASHED
370
    25
390
F
347
13
  0
LAYER
  5
8E
330
2
100
AcDbSymbolTableRecord
100
AcDbLayerTableRecord
  2
Symbol (ANSI)
 70
     0
 62
     7
  6
Continuous
370
    25
390
F
347
13
  0
LAYER
  5
8F
330
2
100
AcDbSymbolTableRecord
100
AcDbLayerTableRecord
  2
TITLE
 70
     0
 62
     7
  6
Continuous
370
    18
390
F
347
13
  0
LAYER
  5
90
330
2
100
AcDbSymbolTableRecord
100
AcDbLayerTableRecord
  2
Title (ANSI)
 70
     0
 62
     7
  6
Continuous
370
    25
390
F
347
13
  0
LAYER
  5
92
330
2
100
AcDbSymbolTableRecord
100
AcDbLayerTableRecord
  2
Visible (ANSI)
 70
     0
 62
     7
  6
Continuous
370
    25
390
F
347
13
  0
LAYER
  5
93
330
2
100
AcDbSymbolTableRecord
100
AcDbLayerTableRecord
  2
Visible Narrow (ANSI)
 70
     0
 62
     7
  6
Continuous
370
    25
390
F
347
13
  0
LAYER
  5
1EB
330
2
100
AcDbSymbolTableRecord
100
AcDbLayerTableRecord
  2
Defpoints
 70
     0
 62
     7
  6
Continuous
290
     0
370
    -3
390
F
347
13
  0
ENDTAB
  0
TABLE
  2
STYLE
  5
3
330
0
100
AcDbSymbolTable
 70
    54
  0
STYLE
  5
26
330
3
100
AcDbSymbolTableRecord
100
AcDbTextStyleTableRecord
  2
Standard
 70
     0
 40
0.0
 41
1.0
 50
0.0
 71
     0
 42
0.2
  3
ARIAL.TTF
  4

1001
ACAD
1000
Arial
1071
      256
  0
STYLE
  5
76
330
3
100
AcDbSymbolTableRecord
100
AcDbTextStyleTableRecord
  2

 70
     1
 40
0.0
 41
1.0
 50
0.0
 71
     0
 42
0.2
  3
ltypeshp.shx
  4

  0
STYLE
  5
97
330
3
100
AcDbSymbolTableRecord
100
AcDbTextStyleTableRecord
  2
ITALIC_100
 70
     0
 40
0.0
 41
1.0
 50
0.0
 71
     0
 42
0.2
  3
ARIAL.TTF
  4

1001
ACAD
1000
Arial
1071
      256
  0
STYLE
  5
98
330
3
100
AcDbSymbolTableRecord
100
AcDbTextStyleTableRecord
  2
ITALIC_101
 70
     0
 40
0.0
 41
1.0
 50
0.0
 71
     0
 42
0.2
  3
ARIAL.TTF
  4

1001
ACAD
1000
Arial
1071
      256
  0
STYLE
  5
99
330
3
100
AcDbSymbolTableRecord
100
AcDbTextStyleTableRecord
  2
ITALIC_103
 70
     0
 40
0.0
 41
1.0
 50
0.0
 71
     0
 42
0.2
  3
ARIAL.TTF
  4

1001
ACAD
1000
Arial
1071
      256
  0
STYLE
  5
9A
330
3
100
AcDbSymbolTableRecord
100
AcDbTextStyleTableRecord
  2
ITALIC_104
 70
     0
 40
0.0
 41
1.0
 50
0.0
 71
     0
 42
0.2
  3
ARIAL.TTF
  4

1001
ACAD
1000
Arial
1071
      256
  0
STYLE
  5
9B
330
3
100
AcDbSymbolTableRecord
100
AcDbTextStyleTableRecord
  2
ITALIC_107
 70
     0
 40
0.0
 41
1.0
 50
0.0
 71
     0
 42
0.2
  3
ARIAL.TTF
  4

1001
ACAD
1000
Arial
1071
      256
  0
STYLE
  5
9C
330
3
100
AcDbSymbolTableRecord
100
AcDbTextStyleTableRecord
  2
ITALIC_108
 70
     0
 40
0.0
 41
1.0
 50
0.0
 71
     0
 42
0.2
  3
ARIAL.TTF
  4

1001
ACAD
1000
Arial
1071
      256
  0
STYLE
  5
9D
330
3
100
AcDbSymbolTableRecord
100
AcDbTextStyleTableRecord
  2
ITALIC_169
 70
     0
 40
0.0
 41
1.0
 50
0.0
 71
     0
 42
0.2
  3
ARIAL.TTF
  4

1001
ACAD
1000
Arial
1071
      256
  0
STYLE
  5
9E
330
3
100
AcDbSymbolTableRecord
100
AcDbTextStyleTableRecord
  2
ITALIC_173
 70
     0
 40
0.0
 41
1.0
 50
0.0
 71
     0
 42
0.2
  3
ARIAL.TTF
  4

1001
ACAD
1000
Arial
1071
      256
  0
STYLE
  5
9F
330
3
100
AcDbSymbolTableRecord
100
AcDbTextStyleTableRecord
  2
ITALIC_177
 70
     0
 40
0.0
 41
1.0
 50
0.0
 71
     0
 42
0.2
  3
ARIAL.TTF
  4

1001
ACAD
1000
Arial
1071
      256
  0
STYLE
  5
A0
330
3
100
AcDbSymbolTableRecord
100
AcDbTextStyleTableRecord
  2
ITALIC_180
 70
     0
 40
0.0
 41
1.0
 50
0.0
 71
     0
 42
0.2
  3
ARIAL.TTF
  4

1001
ACAD
1000
Arial
1071
      256
  0
STYLE
  5
A1
330
3
100
AcDbSymbolTableRecord
100
AcDbTextStyleTableRecord
  2
ITALIC_181
 70
     0
 40
0.0
 41
1.0
 50
0.0
 71
     0
 42
0.2
  3
txt.shx
  4

  0
STYLE
  5
A2
330
3
100
AcDbSymbolTableRecord
100
AcDbTextStyleTableRecord
  2
ITALIC_183
 70
     0
 40
0.0
 41
1.0
 50
0.0
 71
     0
 42
0.2
  3
ARIAL.TTF
  4

1001
ACAD
1000
Arial
1071
      256
  0
STYLE
  5
A3
330
3
100
AcDbSymbolTableRecord
100
AcDbTextStyleTableRecord
  2
ITALIC_184
 70
     0
 40
0.0
 41
1.0
 50
0.0
 71
     0
 42
0.2
  3
ARIAL.TTF
  4

1001
ACAD
1000
Arial
1071
      256
  0
STYLE
  5
A4
330
3
100
AcDbSymbolTableRecord
100
AcDbTextStyleTableRecord
  2
ITALIC_186
 70
     0
 40
0.0
 41
1.0
 50
0.0
 71
     0
 42
0.2
  3
ARIAL.TTF
  4

1001
ACAD
1000
Arial
1071
      256
  0
STYLE
  5
A5
330
3
100
AcDbSymbolTableRecord
100
AcDbTextStyleTableRecord
  2
ITALIC_187
 70
     0
 40
0.0
 41
1.0
 50
0.0
 71
     0
 42
0.2
  3
ARIAL.TTF
  4

1001
ACAD
1000
Arial
1071
      256
  0
STYLE
  5
A6
330
3
100
AcDbSymbolTableRecord
100
AcDbTextStyleTableRecord
  2
ITALIC_190
 70
     0
 40
0.0
 41
1.0
 50
0.0
 71
     0
 42
0.2
  3
ARIAL.TTF
  4

1001
ACAD
1000
Arial
1071
      256
  0
STYLE
  5
A7
330
3
100
AcDbSymbolTableRecord
100
AcDbTextStyleTableRecord
  2
ITALIC_191
 70
     0
 40
0.0
 41
1.0
 50
0.0
 71
     0
 42
0.2
  3
ARIAL.TTF
  4

1001
ACAD
1000
Arial
1071
      256
  0
STYLE
  5
A8
330
3
100
AcDbSymbolTableRecord
100
AcDbTextStyleTableRecord
  2
ITALIC_53
 70
     0
 40
0.0
 41
1.0
 50
0.0
 71
     0
 42
0.2
  3
ARIAL.TTF
  4

1001
ACAD
1000
Arial
1071
      256
  0
STYLE
  5
A9
330
3
100
AcDbSymbolTableRecord
100
AcDbTextStyleTableRecord
  2
ITALIC_57
 70
     0
 40
0.0
 41
1.0
 50
0.0
 71
     0
 42
0.2
  3
ARIAL.TTF
  4

1001
ACAD
1000
Arial
1071
      256
  0
STYLE
  5
AA
330
3
100
AcDbSymbolTableRecord
100
AcDbTextStyleTableRecord
  2
ITALIC_61
 70
     0
 40
0.0
 41
1.0
 50
0.0
 71
     0
 42
0.2
  3
ARIAL.TTF
  4

1001
ACAD
1000
Arial
1071
      256
  0
STYLE
  5
AB
330
3
100
AcDbSymbolTableRecord
100
AcDbTextStyleTableRecord
  2
ITALIC_64
 70
     0
 40
0.0
 41
1.0
 50
0.0
 71
     0
 42
0.2
  3
ARIAL.TTF
  4

1001
ACAD
1000
Arial
1071
      256
  0
STYLE
  5
AC
330
3
100
AcDbSymbolTableRecord
100
AcDbTextStyleTableRecord
  2
ITALIC_65
 70
     0
 40
0.0
 41
1.0
 50
0.0
 71
     0
 42
0.2
  3
ARIAL.TTF
  4

1001
ACAD
1000
Arial
1071
      256
  0
STYLE
  5
AD
330
3
100
AcDbSymbolTableRecord
100
AcDbTextStyleTableRecord
  2
ITALIC_66
 70
     0
 40
0.0
 41
1.0
 50
0.0
 71
     0
 42
0.2
  3
ARIAL.TTF
  4

1001
ACAD
1000
Arial
1071
      256
  0
STYLE
  5
AE
330
3
100
AcDbSymbolTableRecord
100
AcDbTextStyleTableRecord
  2
ITALIC_67
 70
     0
 40
0.0
 41
1.0
 50
0.0
 71
     0
 42
0.2
  3
ARIAL.TTF
  4

1001
ACAD
1000
Arial
1071
      256
  0
STYLE
  5
AF
330
3
100
AcDbSymbolTableRecord
100
AcDbTextStyleTableRecord
  2
ITALIC_68
 70
     0
 40
0.0
 41
1.0
 50
0.0
 71
     0
 42
0.2
  3
ARIAL.TTF
  4

1001
ACAD
1000
Arial
1071
      256
  0
STYLE
  5
B0
330
3
100
AcDbSymbolTableRecord
100
AcDbTextStyleTableRecord
  2
ITALIC_70
 70
     0
 40
0.0
 41
1.0
 50
0.0
 71
     0
 42
0.2
  3
ARIAL.TTF
  4

1001
ACAD
1000
Arial
1071
      256
  0
STYLE
  5
B1
330
3
100
AcDbSymbolTableRecord
100
AcDbTextStyleTableRecord
  2
ITALIC_71
 70
     0
 40
0.0
 41
1.0
 50
0.0
 71
     0
 42
0.2
  3
ARIAL.TTF
  4

1001
ACAD
1000
Arial
1071
      256
  0
STYLE
  5
B2
330
3
100
AcDbSymbolTableRecord
100
AcDbTextStyleTableRecord
  2
ITALIC_75
 70
     0
 40
0.0
 41
1.0
 50
0.0
 71
     0
 42
0.2
  3
ARIAL.TTF
  4

1001
ACAD
1000
Arial
1071
      256
  0
STYLE
  5
B3
330
3
100
AcDbSymbolTableRecord
100
AcDbTextStyleTableRecord
  2
ITALIC_76
 70
     0
 40
0.0
 41
1.0
 50
0.0
 71
     0
 42
0.2
  3
ARIAL.TTF
  4

1001
ACAD
1000
Arial
1071
      256
  0
STYLE
  5
B4
330
3
100
AcDbSymbolTableRecord
100
AcDbTextStyleTableRecord
  2
ITALIC_86
 70
     0
 40
0.0
 41
1.0
 50
0.0
 71
     0
 42
0.2
  3
ARIAL.TTF
  4

1001
ACAD
1000
Arial
1071
      256
  0
STYLE
  5
B5
330
3
100
AcDbSymbolTableRecord
100
AcDbTextStyleTableRecord
  2
ITALIC_90
 70
     0
 40
0.0
 41
1.0
 50
0.0
 71
     0
 42
0.2
  3
ARIAL.TTF
  4

1001
ACAD
1000
Arial
1071
      256
  0
STYLE
  5
B6
330
3
100
AcDbSymbolTableRecord
100
AcDbTextStyleTableRecord
  2
ITALIC_94
 70
     0
 40
0.0
 41
1.0
 50
0.0
 71
     0
 42
0.2
  3
ARIAL.TTF
  4

1001
ACAD
1000
Arial
1071
      256
  0
STYLE
  5
B7
330
3
100
AcDbSymbolTableRecord
100
AcDbTextStyleTableRecord
  2
ITALIC_97
 70
     0
 40
0.0
 41
1.0
 50
0.0
 71
     0
 42
0.2
  3
ARIAL.TTF
  4

1001
ACAD
1000
Arial
1071
      256
  0
STYLE
  5
B8
330
3
100
AcDbSymbolTableRecord
100
AcDbTextStyleTableRecord
  2
ITALIC_98
 70
     0
 40
0.0
 41
1.0
 50
0.0
 71
     0
 42
0.2
  3
ARIAL.TTF
  4

1001
ACAD
1000
Arial
1071
      256
  0
STYLE
  5
B9
330
3
100
AcDbSymbolTableRecord
100
AcDbTextStyleTableRecord
  2
ITALIC_99
 70
     0
 40
0.0
 41
1.0
 50
0.0
 71
     0
 42
0.2
  3
ARIAL.TTF
  4

1001
ACAD
1000
Arial
1071
      256
  0
STYLE
  5
BA
330
3
100
AcDbSymbolTableRecord
100
AcDbTextStyleTableRecord
  2
Label Text (ANSI)
 70
     0
 40
0.0
 41
1.0
 50
0.0
 71
     0
 42
0.2
  3
ARIAL.TTF
  4

1001
ACAD
1000
Arial
1071
      256
  0
STYLE
  5
BB
330
3
100
AcDbSymbolTableRecord
100
AcDbTextStyleTableRecord
  2
Label Text (DIN)
 70
     0
 40
0.0
 41
1.0
 50
0.0
 71
     0
 42
0.2
  3
isocpeur.ttf
  4

1001
ACAD
1000
ISOCPEUR
1071
      256
  0
STYLE
  5
BC
330
3
100
AcDbSymbolTableRecord
100
AcDbTextStyleTableRecord
  2
Label Text (ISO)
 70
     0
 40
0.0
 41
1.0
 50
0.0
 71
     0
 42
0.2
  3
TAHOMA.TTF
  4

1001
ACAD
1000
Tahoma
1071
      256
  0
STYLE
  5
BD
330
3
100
AcDbSymbolTableRecord
100
AcDbTextStyleTableRecord
  2
Label Text (JIS)
 70
     0
 40
0.0
 41
1.0
 50
0.0
 71
     0
 42
0.2
  3
TAHOMA.TTF
  4

1001
ACAD
1000
Tahoma
1071
      256
  0
STYLE
  5
BE
330
3
100
AcDbSymbolTableRecord
100
AcDbTextStyleTableRecord
  2
Note Text (ANSI)
 70
     0
 40
0.0
 41
1.0
 50
0.0
 71
     0
 42
0.2
  3
ARIAL.TTF
  4

1001
ACAD
1000
Arial
1071
      256
  0
STYLE
  5
BF
330
3
100
AcDbSymbolTableRecord
100
AcDbTextStyleTableRecord
  2
Note Text (DIN)
 70
     0
 40
0.0
 41
1.0
 50
0.0
 71
     0
 42
0.2
  3
isocpeur.ttf
  4

1001
ACAD
1000
ISOCPEUR
1071
      256
  0
STYLE
  5
C0
330
3
100
AcDbSymbolTableRecord
100
AcDbTextStyleTableRecord
  2
Note Text (ISO)
 70
     0
 40
0.0
 41
1.0
 50
0.0
 71
     0
 42
0.2
  3
TAHOMA.TTF
  4

1001
ACAD
1000
Tahoma
1071
      256
  0
STYLE
  5
C1
330
3
100
AcDbSymbolTableRecord
100
AcDbTextStyleTableRecord
  2
Note Text (JIS)
 70
     0
 40
0.0
 41
1.0
 50
0.0
 71
     0
 42
0.2
  3
TAHOMA.TTF
  4

1001
ACAD
1000
Tahoma
1071
      256
  0
STYLE
  5
C2
330
3
100
AcDbSymbolTableRecord
100
AcDbTextStyleTableRecord
  2
STANDARD-1
 70
     0
 40
0.0
 41
1.0
 50
0.0
 71
     0
 42
0.2
  3
ARIAL.TTF
  4

1001
ACAD
1000
Arial
1071
      256
  0
STYLE
  5
C3
330
3
100
AcDbSymbolTableRecord
100
AcDbTextStyleTableRecord
  2
STANDARD-2
 70
     0
 40
0.0
 41
1.0
 50
0.0
 71
     0
 42
0.2
  3
ARIAL.TTF
  4

1001
ACAD
1000
Arial
1071
      256
  0
STYLE
  5
C4
330
3
100
AcDbSymbolTableRecord
100
AcDbTextStyleTableRecord
  2
STANDARD-3
 70
     0
 40
0.0
 41
1.0
 50
0.0
 71
     0
 42
0.2
  3
ARIAL.TTF
  4

1001
ACAD
1000
Arial
1071
      256
  0
STYLE
  5
C5
330
3
100
AcDbSymbolTableRecord
100
AcDbTextStyleTableRecord
  2
STANDARDSTANDARD
 70
     0
 40
0.0
 41
1.0
 50
0.0
 71
     0
 42
0.2
  3
ARIAL.TTF
  4

1001
ACAD
1000
Arial
1071
      256
  0
STYLE
  5
C6
330
3
100
AcDbSymbolTableRecord
100
AcDbTextStyleTableRecord
  2
STYLE1_165
 70
     0
 40
0.0
 41
1.0
 50
0.0
 71
     0
 42
0.2
  3
swiss.ttf
  4

1001
ACAD
1000
Swis721 BT
1071
      256
  0
STYLE
  5
C7
330
3
100
AcDbSymbolTableRecord
100
AcDbTextStyleTableRecord
  2
STYLE1_49
 70
     0
 40
0.0
 41
1.0
 50
0.0
 71
     0
 42
0.2
  3
swiss.ttf
  4

1001
ACAD
1000
Swis721 BT
1071
      256
  0
STYLE
  5
C8
330
3
100
AcDbSymbolTableRecord
100
AcDbTextStyleTableRecord
  2
STYLE1_82
 70
     0
 40
0.0
 41
1.0
 50
0.0
 71
     0
 42
0.2
  3
swiss.ttf
  4

1001
ACAD
1000
Swis721 BT
1071
      256
  0
STYLE
  5
127
330
3
100
AcDbSymbolTableRecord
100
AcDbTextStyleTableRecord
  2
Text Style5
 70
     0
 40
0.0
 41
1.0
 50
0.0
 71
     0
 42
0.2
  3
ARIAL.TTF
  4

1001
ACAD
1000
Arial
1071
      256
  0
STYLE
  5
167
330
3
100
AcDbSymbolTableRecord
100
AcDbTextStyleTableRecord
  2
ITALIC_181-Arial
 70
     0
 40
0.0
 41
1.0
 50
0.0
 71
     0
 42
0.2
  3
ARIAL.TTF
  4

1001
ACAD
1000
Arial
1071
      256
  0
ENDTAB
  0
TABLE
  2
VIEW
  5
6
330
0
100
AcDbSymbolTable
 70
     0
  0
ENDTAB
  0
TABLE
  2
UCS
  5
7
330
0
100
AcDbSymbolTable
 70
     0
  0
ENDTAB
  0
TABLE
  2
APPID
  5
9
330
0
100
AcDbSymbolTable
 70
     1
  0
APPID
  5
27
330
9
100
AcDbSymbolTableRecord
100
AcDbRegAppTableRecord
  2
ACAD
 70
     0
  0
ENDTAB
  0
TABLE
  2
DIMSTYLE
  5
A
330
0
100
AcDbSymbolTable
 70
    14
100
AcDbDimStyleTable
 71
     2
340
CF
340
3F
  0
DIMSTYLE
105
3F
330
A
100
AcDbSymbolTableRecord
100
AcDbDimStyleTableRecord
  2
Standard
 70
     0
 40
5.555555555555555
 41
0.1800000071525574
 42
0.0625
 45
0.00000001
140
0.1800000071525574
147
0.0900000035762787
176
   256
177
   256
178
   256
340
C5
371
    -1
372
    -1
  0
DIMSTYLE
105
C9
330
A
100
AcDbSymbolTableRecord
100
AcDbDimStyleTableRecord
  2
Default - Fraction (ANSI)
 70
     0
 40
5.555555555555555
 41
0.0984251946210861
 42
0.0625
 43
0.2362204724409449
 44
0.125
 45
0.00000001
 46
0.3937007874015748
 78
    12
 79
     3
140
0.1200000047683716
147
0.031496062992126
171
     1
176
   256
177
   256
178
   256
272
     2
274
     1
276
     2
277
     5
284
    12
286
    12
340
BE
371
    -1
372
    -1
  0
DIMSTYLE
105
CA
330
A
100
AcDbSymbolTableRecord
100
AcDbDimStyleTableRecord
  2
Default - Fraction (ANSI)$7
 70
     0
 40
5.555555555555555
 41
0.0984251946210861
 42
0.0625
 43
0.2362204724409449
 44
0.125
 45
0.00000001
 46
0.3937007874015748
 78
    12
 79
     3
140
0.1200000047683716
147
0.031496062992126
171
     1
176
   256
177
   256
178
   256
272
     2
274
     1
276
     2
277
     5
284
    12
286
    12
340
BE
371
    -1
372
    -1
  0
DIMSTYLE
105
CB
330
A
100
AcDbSymbolTableRecord
100
AcDbDimStyleTableRecord
  2
Default - mm (ANSI)
 70
     0
 40
5.555555555555555
 41
0.0984251946210861
 42
0.063
 43
0.2362204724409449
 44
0.125
 45
0.00000001
 46
0.3937007874015748
 73
     0
140
0.1200000047683716
143
1.0
144
25.4
147
0.031496062992126
171
     1
176
   256
177
   256
178
   256
179
     1
271
     2
272
     2
274
     1
340
BE
371
    -1
372
    -1
  0
DIMSTYLE
105
CC
330
A
100
AcDbSymbolTableRecord
100
AcDbDimStyleTableRecord
  2
Default - mm (ANSI)$7
 70
     0
 40
5.555555555555555
 41
0.0984251946210861
 42
0.063
 43
0.2362204724409449
 44
0.125
 45
0.00000001
 46
0.3937007874015748
 73
     0
140
0.1200000047683716
143
1.0
144
25.4
147
0.031496062992126
171
     1
176
   256
177
   256
178
   256
179
     1
271
     2
272
     2
274
     1
340
BE
371
    -1
372
    -1
  0
DIMSTYLE
105
CD
330
A
100
AcDbSymbolTableRecord
100
AcDbDimStyleTableRecord
  2
Default - mm [in] (ANSI)
 70
     0
  4
 in
 40
5.555555555555555
 41
0.0984251946210861
 42
0.063
 43
0.25
 44
0.125
 45
0.00000001
 46
0.3937007874015748
 73
     0
 78
     4
 79
     1
140
0.1200000047683716
143
0.03937
144
25.4
147
0.031496062992126
170
     1
171
     3
176
   256
177
   256
178
   256
179
     1
271
     2
272
     2
274
     3
284
     4
286
     4
340
BE
371
    -1
372
    -1
  0
DIMSTYLE
105
CE
330
A
100
AcDbSymbolTableRecord
100
AcDbDimStyleTableRecord
  2
Default - mm [in] (ANSI)$7
 70
     0
  4
 in
 40
5.555555555555555
 41
0.0984251946210861
 42
0.063
 43
0.25
 44
0.125
 45
0.00000001
 46
0.3937007874015748
 73
     0
 78
     4
 79
     1
140
0.1200000047683716
143
0.03937
144
25.4
147
0.031496062992126
170
     1
171
     3
176
   256
177
   256
178
   256
179
     1
271
     2
272
     2
274
     3
284
     4
286
     4
340
BE
371
    -1
372
    -1
  0
DIMSTYLE
105
CF
102
{ACAD_REACTORS
330
1EA
330
2BD
330
38F
330
461
330
533
330
605
330
6EA
330
784
330
856
330
928
330
9FA
102
}
330
A
100
AcDbSymbolTableRecord
100
AcDbDimStyleTableRecord
  2
Default (ANSI)
 70
     0
  3
\X
 40
5.555555555555555
 41
0.0984251946210861
 42
0.0625
 43
0.2362204724409449
 44
0.125
 45
0.00000001
 46
0.3937007874015748
140
0.1200000047683716
147
0.031496062992126
170
     1
171
     1
176
   256
177
   256
178
   256
271
     2
272
     2
274
     1
340
BE
371
    -1
372
    -1
  0
DIMSTYLE
105
D0
330
A
100
AcDbSymbolTableRecord
100
AcDbDimStyleTableRecord
  2
Default (ANSI)$7
 70
     0
  3
\X
 40
5.555555555555555
 41
0.0984251946210861
 42
0.0625
 43
0.2362204724409449
 44
0.125
 45
0.00000001
 46
0.3937007874015748
140
0.1200000047683716
147
0.031496062992126
170
     1
171
     1
176
   256
177
   256
178
   256
271
     2
272
     2
274
     1
340
BE
371
    -1
372
    -1
  0
DIMSTYLE
105
DF
330
A
100
AcDbSymbolTableRecord
100
AcDbDimStyleTableRecord
  2
Miscellaneous Object (ANSI)
 70
     0
 40
5.555555555555555
 41
0.1968503892421722
 42
0.0625
 43
0.2362204724409449
 44
0.125
 45
0.00000001
 46
0.3937007874015748
140
0.1799999922513962
146
0.666666721856155
147
0.031496062992126
171
     1
176
   256
177
   256
178
   256
271
     2
272
     2
274
     1
340
BA
341
D1
371
    -1
372
    -1
  0
DIMSTYLE
105
E0
330
A
100
AcDbSymbolTableRecord
100
AcDbDimStyleTableRecord
  2
Miscellaneous Object (ANSI)$7
 70
     0
 40
5.555555555555555
 41
0.1959999948740005
 42
0.0625
 43
0.2362204724409449
 44
0.125
 45
0.00000001
 46
0.3937007874015748
140
0.1799999922513962
146
0.666666721856155
147
0.031496062992126
171
     1
176
   256
177
   256
178
   256
271
     2
272
     2
274
     1
340
BA
341
D1
371
    -1
372
    -1
  0
DIMSTYLE
105
E1
330
A
100
AcDbSymbolTableRecord
100
AcDbDimStyleTableRecord
  2
STANDARD$7
 70
     0
 40
5.555555555555555
 41
0.1800000071525574
 42
0.0625
 45
0.00000001
140
0.1800000071525574
147
0.0900000035762787
176
   256
177
   256
178
   256
340
C5
371
    -1
372
    -1
  0
DIMSTYLE
105
E2
330
A
100
AcDbSymbolTableRecord
100
AcDbDimStyleTableRecord
  2
Alternate (ANSI)
 70
     0
 40
5.555555555555555
 41
0.0979999974370003
340
26
342
E3
  0
DIMSTYLE
105
F4
330
A
100
AcDbSymbolTableRecord
100
AcDbDimStyleTableRecord
  2
Datum (ANSI)
 70
     0
 40
5.555555555555555
 41
0.0979999974370003
340
26
342
E3
  0
ENDTAB
  0
TABLE
  2
BLOCK_RECORD
  5
1
330
0
100
AcDbSymbolTable
 70
    17
  0
BLOCK_RECORD
  5
37
330
1
100
AcDbSymbolTableRecord
100
AcDbBlockTableRecord
  2
*Model_Space
340
3A
 70
     0
280
     1
281
     0
  0
BLOCK_RECORD
  5
33
330
1
100
AcDbSymbolTableRecord
100
AcDbBlockTableRecord
  2
*Paper_Space
340
36
 70
     0
280
     1
281
     0
  0
BLOCK_RECORD
  5
3B
330
1
100
AcDbSymbolTableRecord
100
AcDbBlockTableRecord
  2
*Paper_Space0
340
3E
 70
     0
280
     1
281
     0
  0
BLOCK_RECORD
  5
D1
330
1
100
AcDbSymbolTableRecord
100
AcDbBlockTableRecord
  2
Filled-1
340
0
 70
     0
280
     1
281
     0
  0
BLOCK_RECORD
  5
E3
330
1
100
AcDbSymbolTableRecord
100
AcDbBlockTableRecord
  2
_Closed
340
0
 70
     0
280
     1
281
     0
  0
BLOCK_RECORD
  5
EA
330
1
100
AcDbSymbolTableRecord
100
AcDbBlockTableRecord
  2
DatumFilled45
340
0
 70
     0
280
     1
281
     0
  0
BLOCK_RECORD
  5
F5
330
1
100
AcDbSymbolTableRecord
100
AcDbBlockTableRecord
  2
Borders Default Border
340
0
102
{BLKREFS
331
146
102
}
 70
     0
280
     1
281
     0
  0
BLOCK_RECORD
  5
147
330
1
100
AcDbSymbolTableRecord
100
AcDbBlockTableRecord
  2
Title Blocks Stahlin
340
0
102
{BLKREFS
331
18A
102
}
 70
     0
280
     1
281
     0
  0
BLOCK_RECORD
  5
1EC
330
1
100
AcDbSymbolTableRecord
100
AcDbBlockTableRecord
  2
*D6
340
0
 70
     0
280
     1
281
     0
  0
BLOCK_RECORD
  5
2BE
330
1
100
AcDbSymbolTableRecord
100
AcDbBlockTableRecord
  2
*D7
340
0
 70
     0
280
     1
281
     0
  0
BLOCK_RECORD
  5
390
330
1
100
AcDbSymbolTableRecord
100
AcDbBlockTableRecord
  2
*D8
340
0
 70
     0
280
     1
281
     0
  0
BLOCK_RECORD
  5
462
330
1
100
AcDbSymbolTableRecord
100
AcDbBlockTableRecord
  2
*D9
340
0
 70
     0
280
     1
281
     0
  0
BLOCK_RECORD
  5
534
330
1
100
AcDbSymbolTableRecord
100
AcDbBlockTableRecord
  2
*D10
340
0
 70
     0
280
     1
281
     0
  0
BLOCK_RECORD
  5
606
330
1
100
AcDbSymbolTableRecord
100
AcDbBlockTableRecord
  2
*D11
340
0
 70
     0
280
     1
281
     0
  0
BLOCK_RECORD
  5
6EB
330
1
100
AcDbSymbolTableRecord
100
AcDbBlockTableRecord
  2
*D12
340
0
 70
     0
280
     1
281
     0
  0
BLOCK_RECORD
  5
785
330
1
100
AcDbSymbolTableRecord
100
AcDbBlockTableRecord
  2
*D13
340
0
 70
     0
280
     1
281
     0
  0
BLOCK_RECORD
  5
857
330
1
100
AcDbSymbolTableRecord
100
AcDbBlockTableRecord
  2
*D14
340
0
 70
     0
280
     1
281
     0
  0
BLOCK_RECORD
  5
929
330
1
100
AcDbSymbolTableRecord
100
AcDbBlockTableRecord
  2
*D15
340
0
 70
     0
280
     1
281
     0
  0
BLOCK_RECORD
  5
9FB
330
1
100
AcDbSymbolTableRecord
100
AcDbBlockTableRecord
  2
*D16
340
0
 70
     0
280
     1
281
     0
  0
ENDTAB
  0
ENDSEC
  0
SECTION
  2
BLOCKS
  0
BLOCK
  5
38
330
37
100
AcDbEntity
  8
0
100
AcDbBlockBegin
  2
*Model_Space
 70
     0
 10
0.0
 20
0.0
 30
0.0
  3
*Model_Space
  1

  0
ENDBLK
  5
39
330
37
100
AcDbEntity
  8
0
100
AcDbBlockEnd
  0
BLOCK
  5
34
330
33
100
AcDbEntity
 67
     1
  8
0
100
AcDbBlockBegin
  2
*Paper_Space
 70
     0
 10
0.0
 20
0.0
 30
0.0
  3
*Paper_Space
  1

  0
ENDBLK
  5
35
330
33
100
AcDbEntity
 67
     1
  8
0
100
AcDbBlockEnd
  0
BLOCK
  5
3C
330
3B
100
AcDbEntity
 67
     1
  8
0
100
AcDbBlockBegin
  2
*Paper_Space0
 70
     0
 10
0.0
 20
0.0
 30
0.0
  3
*Paper_Space0
  1

  0
ENDBLK
  5
3D
330
3B
100
AcDbEntity
 67
     1
  8
0
100
AcDbBlockEnd
  0
BLOCK
  5
D2
330
D1
100
AcDbEntity
  8
0
100
AcDbBlockBegin
  2
Filled-1
 70
     0
 10
0.0
 20
0.0
 30
0.0
  3
Filled-1
  1

  0
LINE
  5
D4
330
D1
100
AcDbEntity
  8
0
 62
     0
100
AcDbLine
 10
-0.9999999999999998
 20
0.0
 30
0.0
 11
0.0
 21
0.0
 31
0.0
  0
POLYLINE
  5
D5
330
D1
100
AcDbEntity
  8
0
 62
     0
100
AcDb2dPolyline
 66
     1
 10
0.0
 20
0.0
 30
0.0
 70
   128
  0
VERTEX
  5
D6
330
D5
100
AcDbEntity
  8
0
 62
     0
100
AcDbVertex
100
AcDb2dVertex
 10
-0.9999999999999998
 20
-0.0994897959183674
 30
0.0
  0
VERTEX
  5
D7
330
D5
100
AcDbEntity
  8
0
 62
     0
100
AcDbVertex
100
AcDb2dVertex
 10
0.0
 20
0.0
 30
0.0
  0
VERTEX
  5
D9
330
D5
100
AcDbEntity
  8
0
 62
     0
100
AcDbVertex
100
AcDb2dVertex
 10
-0.9999999999999998
 20
0.0994897959183674
 30
0.0
  0
VERTEX
  5
DA
330
D5
100
AcDbEntity
  8
0
 62
     0
100
AcDbVertex
100
AcDb2dVertex
 10
-0.9999999999999998
 20
-0.0994897959183674
 30
0.0
  0
SEQEND
  5
D8
330
D5
100
AcDbEntity
  8
0
 62
     0
  0
SOLID
  5
DB
330
D1
100
AcDbEntity
  8
0
 62
     0
100
AcDbTrace
 10
-0.9999999999999998
 20
-0.0994897959183674
 30
0.0
 11
0.0
 21
0.0
 31
0.0
 12
-0.9999999999999998
 22
0.0994897959183674
 32
0.0
 13
-0.9999999999999998
 23
-0.0994897959183674
 33
0.0
  0
LINE
  5
DC
330
D1
100
AcDbEntity
  8
0
 62
     0
100
AcDbLine
 10
-0.9999999999999998
 20
-0.0994897959183674
 30
0.0
 11
0.0
 21
0.0
 31
0.0
  0
LINE
  5
DD
330
D1
100
AcDbEntity
  8
0
 62
     0
100
AcDbLine
 10
0.0
 20
0.0
 30
0.0
 11
-0.9999999999999998
 21
0.0994897959183674
 31
0.0
  0
LINE
  5
DE
330
D1
100
AcDbEntity
  8
0
 62
     0
100
AcDbLine
 10
-0.9999999999999998
 20
0.0994897959183674
 30
0.0
 11
-0.9999999999999998
 21
-0.0994897959183674
 31
0.0
  0
ENDBLK
  5
D3
330
D1
100
AcDbEntity
  8
0
100
AcDbBlockEnd
  0
BLOCK
  5
E8
330
E3
100
AcDbEntity
  8
0
100
AcDbBlockBegin
  2
_Closed
 70
     0
 10
0.0
 20
0.0
 30
0.0
  3
_Closed
  1

  0
LINE
  5
E4
330
E3
100
AcDbEntity
  8
0
  6
ByBlock
 62
     0
370
    -2
100
AcDbLine
 10
-1.0
 20
0.1666666666666666
 30
0.0
 11
0.0
 21
0.0
 31
0.0
  0
LINE
  5
E5
330
E3
100
AcDbEntity
  8
0
  6
ByBlock
 62
     0
370
    -2
100
AcDbLine
 10
0.0
 20
0.0
 30
0.0
 11
-1.0
 21
-0.1666666666666666
 31
0.0
  0
LINE
  5
E6
330
E3
100
AcDbEntity
  8
0
  6
ByBlock
 62
     0
370
    -2
100
AcDbLine
 10
-1.0
 20
0.1666666666666666
 30
0.0
 11
-1.0
 21
-0.1666666666666666
 31
0.0
  0
LINE
  5
E7
330
E3
100
AcDbEntity
  8
0
  6
ByBlock
 62
     0
370
    -2
100
AcDbLine
 10
0.0
 20
0.0
 30
0.0
 11
-1.0
 21
0.0
 31
0.0
  0
ENDBLK
  5
E9
330
E3
100
AcDbEntity
  8
0
100
AcDbBlockEnd
  0
BLOCK
  5
EB
330
EA
100
AcDbEntity
  8
0
100
AcDbBlockBegin
  2
DatumFilled45
 70
     0
 10
0.0
 20
0.0
 30
0.0
  3
DatumFilled45
  1

  0
POLYLINE
  5
ED
330
EA
100
AcDbEntity
  8
0
 62
     0
100
AcDb2dPolyline
 66
     1
 10
0.0
 20
0.0
 30
0.0
 70
   128
  0
VERTEX
  5
EE
330
ED
100
AcDbEntity
  8
0
 62
     0
100
AcDbVertex
100
AcDb2dVertex
 10
0.0
 20
0.9999999999999998
 30
0.0
  0
VERTEX
  5
EF
330
ED
100
AcDbEntity
  8
0
 62
     0
100
AcDbVertex
100
AcDb2dVertex
 10
0.0
 20
-0.9999999999999998
 30
0.0
  0
VERTEX
  5
F1
330
ED
100
AcDbEntity
  8
0
 62
     0
100
AcDbVertex
100
AcDb2dVertex
 10
-0.9999999999999998
 20
0.0
 30
0.0
  0
VERTEX
  5
F2
330
ED
100
AcDbEntity
  8
0
 62
     0
100
AcDbVertex
100
AcDb2dVertex
 10
0.0
 20
0.9999999999999998
 30
0.0
  0
SEQEND
  5
F0
330
ED
100
AcDbEntity
  8
0
 62
     0
  0
SOLID
  5
F3
330
EA
100
AcDbEntity
  8
0
 62
     0
100
AcDbTrace
 10
0.0
 20
0.9999999999999998
 30
0.0
 11
0.0
 21
-0.9999999999999998
 31
0.0
 12
-0.9999999999999998
 22
0.0
 32
0.0
 13
0.0
 23
0.9999999999999998
 33
0.0
  0
ENDBLK
  5
EC
330
EA
100
AcDbEntity
  8
0
100
AcDbBlockEnd
  0
BLOCK
  5
F6
330
F5
100
AcDbEntity
  8
0
100
AcDbBlockBegin
  2
Borders Default Border
 70
     0
 10
0.0
 20
0.0
 30
0.0
  3
Borders Default Border
  1

  0
POLYLINE
  5
F8
330
F5
100
AcDbEntity
  8
Border (ANSI)
100
AcDb2dPolyline
 66
     1
 10
0.0
 20
0.0
 30
0.0
 70
   128
  0
VERTEX
  5
F9
330
F8
100
AcDbEntity
  8
Border (ANSI)
100
AcDbVertex
100
AcDb2dVertex
 10
0.4999999924907534
 20
0.9999999849815067
 30
0.0
  0
VERTEX
  5
FA
330
F8
100
AcDbEntity
  8
Border (ANSI)
100
AcDbVertex
100
AcDb2dVertex
 10
0.4999999924907534
 20
21.00000006007397
 30
0.0
  0
VERTEX
  5
FC
330
F8
100
AcDbEntity
  8
Border (ANSI)
100
AcDbVertex
100
AcDb2dVertex
 10
33.49999855822466
 20
21.00000006007397
 30
0.0
  0
VERTEX
  5
FD
330
F8
100
AcDbEntity
  8
Border (ANSI)
100
AcDbVertex
100
AcDb2dVertex
 10
33.49999855822466
 20
0.9999999849815067
 30
0.0
  0
VERTEX
  5
FE
330
F8
100
AcDbEntity
  8
Border (ANSI)
100
AcDbVertex
100
AcDb2dVertex
 10
0.4999999924907534
 20
0.9999999849815067
 30
0.0
  0
SEQEND
  5
FB
330
F8
100
AcDbEntity
  8
Border (ANSI)
  0
POLYLINE
  5
FF
330
F5
100
AcDbEntity
  8
Border (ANSI)
100
AcDb2dPolyline
 66
     1
 10
0.0
 20
0.0
 30
0.0
 70
   128
  0
VERTEX
  5
100
330
FF
100
AcDbEntity
  8
Border (ANSI)
100
AcDbVertex
100
AcDb2dVertex
 10
17.00000012014794
 20
0.6000000191485788
 30
0.0
  0
VERTEX
  5
101
330
FF
100
AcDbEntity
  8
Border (ANSI)
100
AcDbVertex
100
AcDb2dVertex
 10
17.00000012014794
 20
0.9999999849815067
 30
0.0
  0
VERTEX
  5
103
330
FF
100
AcDbEntity
  8
Border (ANSI)
100
AcDbVertex
100
AcDb2dVertex
 10
16.88453043539693
 20
0.8000000255314382
 30
0.0
  0
VERTEX
  5
104
330
FF
100
AcDbEntity
  8
Border (ANSI)
100
AcDbVertex
100
AcDb2dVertex
 10
17.11546980489895
 20
0.8000000255314382
 30
0.0
  0
VERTEX
  5
105
330
FF
100
AcDbEntity
  8
Border (ANSI)
100
AcDbVertex
100
AcDb2dVertex
 10
17.00000012014794
 20
0.9999999849815067
 30
0.0
  0
SEQEND
  5
102
330
FF
100
AcDbEntity
  8
Border (ANSI)
  0
POLYLINE
  5
106
330
F5
100
AcDbEntity
  8
Border (ANSI)
100
AcDb2dPolyline
 66
     1
 10
0.0
 20
0.0
 30
0.0
 70
   128
  0
VERTEX
  5
107
330
106
100
AcDbEntity
  8
Border (ANSI)
100
AcDbVertex
100
AcDb2dVertex
 10
17.00000012014794
 20
21.39999960351178
 30
0.0
  0
VERTEX
  5
108
330
106
100
AcDbEntity
  8
Border (ANSI)
100
AcDbVertex
100
AcDb2dVertex
 10
17.00000012014794
 20
21.00000006007397
 30
0.0
  0
VERTEX
  5
10A
330
106
100
AcDbEntity
  8
Border (ANSI)
100
AcDbVertex
100
AcDb2dVertex
 10
16.88453043539693
 20
21.19999983179288
 30
0.0
  0
VERTEX
  5
10B
330
106
100
AcDbEntity
  8
Border (ANSI)
100
AcDbVertex
100
AcDb2dVertex
 10
17.11546980489895
 20
21.19999983179288
 30
0.0
  0
VERTEX
  5
10C
330
106
100
AcDbEntity
  8
Border (ANSI)
100
AcDbVertex
100
AcDb2dVertex
 10
17.00000012014794
 20
21.00000006007397
 30
0.0
  0
SEQEND
  5
109
330
106
100
AcDbEntity
  8
Border (ANSI)
  0
POLYLINE
  5
10D
330
F5
100
AcDbEntity
  8
Border (ANSI)
100
AcDb2dPolyline
 66
     1
 10
0.0
 20
0.0
 30
0.0
 70
   128
  0
VERTEX
  5
10E
330
10D
100
AcDbEntity
  8
Border (ANSI)
100
AcDbVertex
100
AcDb2dVertex
 10
0.1000000031914298
 20
11.0000002102589
 30
0.0
  0
VERTEX
  5
10F
330
10D
100
AcDbEntity
  8
Border (ANSI)
100
AcDbVertex
100
AcDb2dVertex
 10
0.4999999924907534
 20
11.0000002102589
 30
0.0
  0
VERTEX
  5
111
330
10D
100
AcDbEntity
  8
Border (ANSI)
100
AcDbVertex
100
AcDb2dVertex
 10
0.3000000095742894
 20
11.11546989500991
 30
0.0
  0
VERTEX
  5
112
330
10D
100
AcDbEntity
  8
Border (ANSI)
100
AcDbVertex
100
AcDb2dVertex
 10
0.3000000095742894
 20
10.88452977458323
 30
0.0
  0
VERTEX
  5
113
330
10D
100
AcDbEntity
  8
Border (ANSI)
100
AcDbVertex
100
AcDb2dVertex
 10
0.4999999924907534
 20
11.0000002102589
 30
0.0
  0
SEQEND
  5
110
330
10D
100
AcDbEntity
  8
Border (ANSI)
  0
POLYLINE
  5
114
330
F5
100
AcDbEntity
  8
Border (ANSI)
100
AcDb2dPolyline
 66
     1
 10
0.0
 20
0.0
 30
0.0
 70
   128
  0
VERTEX
  5
115
330
114
100
AcDbEntity
  8
Border (ANSI)
100
AcDbVertex
100
AcDb2dVertex
 10
33.90000110536109
 20
11.0000002102589
 30
0.0
  0
VERTEX
  5
116
330
114
100
AcDbEntity
  8
Border (ANSI)
100
AcDbVertex
100
AcDb2dVertex
 10
33.49999855822466
 20
11.0000002102589
 30
0.0
  0
VERTEX
  5
118
330
114
100
AcDbEntity
  8
Border (ANSI)
100
AcDbVertex
100
AcDb2dVertex
 10
33.69999983179287
 20
11.11546989500991
 30
0.0
  0
VERTEX
  5
119
330
114
100
AcDbEntity
  8
Border (ANSI)
100
AcDbVertex
100
AcDb2dVertex
 10
33.69999983179287
 20
10.88452977458323
 30
0.0
  0
VERTEX
  5
11A
330
114
100
AcDbEntity
  8
Border (ANSI)
100
AcDbVertex
100
AcDb2dVertex
 10
33.49999855822466
 20
11.0000002102589
 30
0.0
  0
SEQEND
  5
117
330
114
100
AcDbEntity
  8
Border (ANSI)
  0
LINE
  5
11B
330
F5
100
AcDbEntity
  8
Border (ANSI)
100
AcDbLine
 10
4.250000030036986
 20
0.9999999849815067
 30
0.0
 11
4.250000030036986
 21
0.8399999986483354
 31
0.0
  0
LINE
  5
11C
330
F5
100
AcDbEntity
  8
Border (ANSI)
100
AcDbLine
 10
4.250000030036986
 20
21.00000006007397
 30
0.0
 11
4.250000030036986
 21
21.15999957707923
 31
0.0
  0
LINE
  5
11D
330
F5
100
AcDbEntity
  8
Border (ANSI)
100
AcDbLine
 10
8.500000060073972
 20
0.9999999849815067
 30
0.0
 11
8.500000060073972
 21
0.8399999986483354
 31
0.0
  0
LINE
  5
11E
330
F5
100
AcDbEntity
  8
Border (ANSI)
100
AcDbLine
 10
8.500000060073972
 20
21.00000006007397
 30
0.0
 11
8.500000060073972
 21
21.15999957707923
 31
0.0
  0
LINE
  5
11F
330
F5
100
AcDbEntity
  8
Border (ANSI)
100
AcDbLine
 10
12.7499993391863
 20
0.9999999849815067
 30
0.0
 11
12.7499993391863
 21
0.8399999986483354
 31
0.0
  0
LINE
  5
120
330
F5
100
AcDbEntity
  8
Border (ANSI)
100
AcDbLine
 10
12.7499993391863
 20
21.00000006007397
 30
0.0
 11
12.7499993391863
 21
21.15999957707923
 31
0.0
  0
LINE
  5
121
330
F5
100
AcDbEntity
  8
Border (ANSI)
100
AcDbLine
 10
21.24999939926027
 20
0.9999999849815067
 30
0.0
 11
21.24999939926027
 21
0.8399999986483354
 31
0.0
  0
LINE
  5
122
330
F5
100
AcDbEntity
  8
Border (ANSI)
100
AcDbLine
 10
21.24999939926027
 20
21.00000006007397
 30
0.0
 11
21.24999939926027
 21
21.15999957707923
 31
0.0
  0
LINE
  5
123
330
F5
100
AcDbEntity
  8
Border (ANSI)
100
AcDbLine
 10
25.4999986783726
 20
0.9999999849815067
 30
0.0
 11
25.4999986783726
 21
0.8399999986483354
 31
0.0
  0
LINE
  5
124
330
F5
100
AcDbEntity
  8
Border (ANSI)
100
AcDbLine
 10
25.4999986783726
 20
21.00000006007397
 30
0.0
 11
25.4999986783726
 21
21.15999957707923
 31
0.0
  0
LINE
  5
125
330
F5
100
AcDbEntity
  8
Border (ANSI)
100
AcDbLine
 10
29.75000096118356
 20
0.9999999849815067
 30
0.0
 11
29.75000096118356
 21
0.8399999986483354
 31
0.0
  0
LINE
  5
126
330
F5
100
AcDbEntity
  8
Border (ANSI)
100
AcDbLine
 10
29.75000096118356
 20
21.00000006007397
 30
0.0
 11
29.75000096118356
 21
21.15999957707923
 31
0.0
  0
MTEXT
  5
128
330
F5
100
AcDbEntity
  8
Border (ANSI)
100
AcDbMText
 10
31.8666544961413
 20
21.04
 30
0.0
 40
0.1200000014830762
 41
0.0
 46
0.0
 71
     7
 72
     1
  1
1
  7
Text Style5
 73
     1
 44
1.0
  0
MTEXT
  5
12B
330
F5
100
AcDbEntity
  8
Border (ANSI)
100
AcDbMText
 10
31.8666544961413
 20
0.8399999985169239
 30
0.0
 40
0.1200000014830762
 41
0.0
 46
0.0
 71
     7
 72
     1
  1
1
  7
Text Style5
 73
     1
 44
1.0
  0
MTEXT
  5
12C
330
F5
100
AcDbEntity
  8
Border (ANSI)
100
AcDbMText
 10
27.58858793610194
 20
21.04
 30
0.0
 40
0.1200000014830762
 41
0.0
 46
0.0
 71
     7
 72
     1
  1
2
  7
Text Style5
 73
     1
 44
1.0
  0
MTEXT
  5
12D
330
F5
100
AcDbEntity
  8
Border (ANSI)
100
AcDbMText
 10
27.58858793610194
 20
0.8399999985169239
 30
0.0
 40
0.1200000014830762
 41
0.0
 46
0.0
 71
     7
 72
     1
  1
2
  7
Text Style5
 73
     1
 44
1.0
  0
MTEXT
  5
12E
330
F5
100
AcDbEntity
  8
Border (ANSI)
100
AcDbMText
 10
23.3432016172043
 20
21.03798780484088
 30
0.0
 40
0.1200000014830762
 41
0.0
 46
0.0
 71
     7
 72
     1
  1
3
  7
Text Style5
 73
     1
 44
1.0
  0
MTEXT
  5
12F
330
F5
100
AcDbEntity
  8
Border (ANSI)
100
AcDbMText
 10
23.3432016172043
 20
0.8379878033578073
 30
0.0
 40
0.1200000014830762
 41
0.0
 46
0.0
 71
     7
 72
     1
  1
3
  7
Text Style5
 73
     1
 44
1.0
  0
MTEXT
  5
130
330
F5
100
AcDbEntity
  8
Border (ANSI)
100
AcDbMText
 10
19.08282083472398
 20
21.04
 30
0.0
 40
0.1200000014830762
 41
0.0
 46
0.0
 71
     7
 72
     1
  1
4
  7
Text Style5
 73
     1
 44
1.0
  0
MTEXT
  5
131
330
F5
100
AcDbEntity
  8
Border (ANSI)
100
AcDbMText
 10
19.08282083472398
 20
0.8399999985169236
 30
0.0
 40
0.1200000014830762
 41
0.0
 46
0.0
 71
     7
 72
     1
  1
4
  7
Text Style5
 73
     1
 44
1.0
  0
MTEXT
  5
132
330
F5
100
AcDbEntity
  8
Border (ANSI)
100
AcDbMText
 10
14.8430093804917
 20
21.03798780484088
 30
0.0
 40
0.1200000014830762
 41
0.0
 46
0.0
 71
     7
 72
     1
  1
5
  7
Text Style5
 73
     1
 44
1.0
  0
MTEXT
  5
133
330
F5
100
AcDbEntity
  8
Border (ANSI)
100
AcDbMText
 10
14.8430093804917
 20
0.8379878033578071
 30
0.0
 40
0.1200000014830762
 41
0.0
 46
0.0
 71
     7
 72
     1
  1
5
  7
Text Style5
 73
     1
 44
1.0
  0
MTEXT
  5
134
330
F5
100
AcDbEntity
  8
Border (ANSI)
100
AcDbMText
 10
10.59166372350351
 20
21.03798780484088
 30
0.0
 40
0.1200000014830762
 41
0.0
 46
0.0
 71
     7
 72
     1
  1
6
  7
Text Style5
 73
     1
 44
1.0
  0
MTEXT
  5
135
330
F5
100
AcDbEntity
  8
Border (ANSI)
100
AcDbMText
 10
10.59166372350351
 20
0.8379878033578073
 30
0.0
 40
0.1200000014830762
 41
0.0
 46
0.0
 71
     7
 72
     1
  1
6
  7
Text Style5
 73
     1
 44
1.0
  0
MTEXT
  5
136
330
F5
100
AcDbEntity
  8
Border (ANSI)
100
AcDbMText
 10
6.34512398433028
 20
21.04
 30
0.0
 40
0.1200000014830762
 41
0.0
 46
0.0
 71
     7
 72
     1
  1
7
  7
Text Style5
 73
     1
 44
2.041589736938476
  0
MTEXT
  5
137
330
F5
100
AcDbEntity
  8
Border (ANSI)
100
AcDbMText
 10
6.34512398433028
 20
0.8399999985169236
 30
0.0
 40
0.1200000014830762
 41
0.0
 46
0.0
 71
     7
 72
     1
  1
7
  7
Text Style5
 73
     1
 44
1.0
  0
MTEXT
  5
138
330
F5
100
AcDbEntity
  8
Border (ANSI)
100
AcDbMText
 10
2.0926249070665
 20
21.03798780484088
 30
0.0
 40
0.1200000014830762
 41
0.0
 46
0.0
 71
     7
 72
     1
  1
8
  7
Text Style5
 73
     1
 44
1.0
  0
MTEXT
  5
139
330
F5
100
AcDbEntity
  8
Border (ANSI)
100
AcDbMText
 10
2.0926249070665
 20
0.8379878033578073
 30
0.0
 40
0.1200000014830762
 41
0.0
 46
0.0
 71
     7
 72
     1
  1
8
  7
Text Style5
 73
     1
 44
1.0
  0
LINE
  5
13A
330
F5
100
AcDbEntity
  8
Border (ANSI)
100
AcDbLine
 10
0.4999999924907534
 20
5.500000105129451
 30
0.0
 11
0.3400000061575822
 21
5.500000105129451
 31
0.0
  0
LINE
  5
13B
330
F5
100
AcDbEntity
  8
Border (ANSI)
100
AcDbLine
 10
33.49999855822466
 20
5.500000105129451
 30
0.0
 11
33.65999957707923
 21
5.500000105129451
 31
0.0
  0
LINE
  5
13C
330
F5
100
AcDbEntity
  8
Border (ANSI)
100
AcDbLine
 10
0.4999999924907534
 20
16.49999993992603
 30
0.0
 11
0.3400000061575822
 21
16.49999993992603
 31
0.0
  0
LINE
  5
13D
330
F5
100
AcDbEntity
  8
Border (ANSI)
100
AcDbLine
 10
33.49999855822466
 20
16.49999993992603
 30
0.0
 11
33.65999957707923
 21
16.49999993992603
 31
0.0
  0
MTEXT
  5
13E
330
F5
100
AcDbEntity
  8
Border (ANSI)
100
AcDbMText
 10
0.343456985781512
 20
2.689999999258462
 30
0.0
 40
0.1200000014830762
 41
0.0
 46
0.0
 71
     7
 72
     1
  1
A
  7
Text Style5
 73
     1
 44
1.0
  0
MTEXT
  5
13F
330
F5
100
AcDbEntity
  8
Border (ANSI)
100
AcDbMText
 10
33.54345698726459
 20
2.689999999258462
 30
0.0
 40
0.1200000014830762
 41
0.0
 46
0.0
 71
     7
 72
     1
  1
A
  7
Text Style5
 73
     1
 44
1.0
  0
MTEXT
  5
140
330
F5
100
AcDbEntity
  8
Border (ANSI)
100
AcDbMText
 10
0.3698298411200366
 20
8.189999999258461
 30
0.0
 40
0.1200000014830762
 41
0.0
 46
0.0
 71
     7
 72
     1
  1
B
  7
Text Style5
 73
     1
 44
1.0
  0
MTEXT
  5
141
330
F5
100
AcDbEntity
  8
Border (ANSI)
100
AcDbMText
 10
33.56982984260311
 20
8.189999999258461
 30
0.0
 40
0.1200000014830762
 41
0.0
 46
0.0
 71
     7
 72
     1
  1
B
  7
Text Style5
 73
     1
 44
1.0
  0
MTEXT
  5
142
330
F5
100
AcDbEntity
  8
Border (ANSI)
100
AcDbMText
 10
0.3569447601029254
 20
13.68798780409935
 30
0.0
 40
0.1200000014830762
 41
0.0
 46
0.0
 71
     7
 72
     1
  1
C
  7
Text Style5
 73
     1
 44
1.0
  0
MTEXT
  5
143
330
F5
100
AcDbEntity
  8
Border (ANSI)
100
AcDbMText
 10
33.556944761586
 20
13.68798780409935
 30
0.0
 40
0.1200000014830762
 41
0.0
 46
0.0
 71
     7
 72
     1
  1
C
  7
Text Style5
 73
     1
 44
1.0
  0
MTEXT
  5
144
330
F5
100
AcDbEntity
  8
Border (ANSI)
100
AcDbMText
 10
0.3665565957328466
 20
19.18999999925846
 30
0.0
 40
0.1200000014830762
 41
0.0
 46
0.0
 71
     7
 72
     1
  1
D
  7
Text Style5
 73
     1
 44
1.0
  0
MTEXT
  5
145
330
F5
100
AcDbEntity
  8
Border (ANSI)
100
AcDbMText
 10
33.56655659721592
 20
19.18999999925846
 30
0.0
 40
0.1200000014830762
 41
0.0
 46
0.0
 71
     7
 72
     1
  1
D
  7
Text Style5
 73
     1
 44
1.0
  0
ENDBLK
  5
F7
330
F5
100
AcDbEntity
  8
0
100
AcDbBlockEnd
  0
BLOCK
  5
148
330
147
100
AcDbEntity
  8
0
100
AcDbBlockBegin
  2
Title Blocks Stahlin
 70
     2
 10
0.0
 20
0.0
 30
0.0
  3
Title Blocks Stahlin
  1

  0
LINE
  5
14A
330
147
100
AcDbEntity
  8
TITLE
100
AcDbLine
 10
4.577514908715926
 20
7.818633075947722
 30
0.0
 11
2.494094878669798
 21
7.818633075947722
 31
0.0
  0
LINE
  5
14B
330
147
100
AcDbEntity
  8
TITLE
100
AcDbLine
 10
2.494094878669798
 20
7.818633075947722
 30
0.0
 11
2.494094878669798
 21
7.018407104293005
 31
0.0
  0
LINE
  5
14C
330
147
100
AcDbEntity
  8
TITLE
 62
     7
100
AcDbLine
 10
15.73376490871206
 20
7.420195575947849
 30
0.0
 11
4.577514908715926
 21
7.420195575947849
 31
0.0
  0
LINE
  5
14D
330
147
100
AcDbEntity
  8
TITLE
 62
     7
100
AcDbLine
 10
10.62048365871388
 20
7.818633075947722
 30
0.0
 11
4.577514908715926
 21
7.818633075947722
 31
0.0
  0
LINE
  5
14E
330
147
100
AcDbEntity
  8
TITLE
 62
     7
100
AcDbLine
 10
10.62048365871388
 20
8.21707057594758
 30
0.0
 11
4.577514908715926
 21
8.21707057594758
 31
0.0
  0
LINE
  5
14F
330
147
100
AcDbEntity
  8
TITLE
 62
     7
100
AcDbLine
 10
15.73376490871206
 20
8.615508075947438
 30
0.0
 11
4.577514908715926
 21
8.615508075947438
 31
0.0
  0
LINE
  5
150
330
147
100
AcDbEntity
  8
TITLE
 62
     7
100
AcDbLine
 10
10.62048365871388
 20
8.881133075947339
 30
0.0
 11
4.577514908715926
 21
8.881133075947339
 31
0.0
  0
LINE
  5
151
330
147
100
AcDbEntity
  8
Border (ANSI)
 62
     7
100
AcDbLine
 10
15.73376490871206
 20
9.146758075947252
 30
0.0
 11
4.577514908715926
 21
9.146758075947252
 31
0.0
  0
LINE
  5
152
330
147
100
AcDbEntity
  8
TITLE
 62
     7
100
AcDbLine
 10
9.292483658713884
 20
8.615508075947438
 30
0.0
 11
9.292483658713884
 21
7.005349433107656
 31
0.0
  0
LINE
  5
153
330
147
100
AcDbEntity
  8
TITLE
 62
     7
100
AcDbLine
 10
8.827514908714448
 20
8.21707057594758
 30
0.0
 11
8.827514908714448
 21
7.021758075947992
 31
0.0
  0
LINE
  5
154
330
147
100
AcDbEntity
  8
TITLE
 62
     7
100
AcDbLine
 10
8.362671158714675
 20
8.21707057594758
 30
0.0
 11
8.362671158714675
 21
7.021758075947992
 31
0.0
  0
LINE
  5
155
330
147
100
AcDbEntity
  8
TITLE
 62
     7
100
AcDbLine
 10
7.765014908714902
 20
8.21707057594758
 30
0.0
 11
7.765014908714902
 21
7.021758075947992
 31
0.0
  0
LINE
  5
156
330
147
100
AcDbEntity
  8
TITLE
 62
     7
100
AcDbLine
 10
5.108764908715812
 20
8.21707057594758
 30
0.0
 11
5.108764908715812
 21
7.021758075947992
 31
0.0
  0
LINE
  5
157
330
147
100
AcDbEntity
  8
Border (ANSI)
 62
     7
100
AcDbLine
 10
4.577514908715926
 20
9.146758075947252
 30
0.0
 11
4.577514908715926
 21
7.021758075947992
 31
0.0
  0
LINE
  5
158
330
147
100
AcDbEntity
  8
TITLE
 62
     7
100
AcDbLine
 10
9.292358658714332
 20
7.619414325947793
 30
0.0
 11
4.577514908715926
 21
7.619414325947793
 31
0.0
  0
LINE
  5
159
330
147
100
AcDbEntity
  8
TITLE
 62
     7
100
AcDbLine
 10
9.292358658714332
 20
7.220976825947921
 30
0.0
 11
4.577514908715926
 21
7.220976825947921
 31
0.0
  0
LINE
  5
15A
330
147
100
AcDbEntity
  8
TITLE
 62
     7
100
AcDbLine
 10
9.292483658713884
 20
8.01785182594765
 30
0.0
 11
4.577639908715476
 21
8.01785182594765
 31
0.0
  0
LINE
  5
15B
330
147
100
AcDbEntity
  8
TITLE
 62
     7
100
AcDbLine
 10
15.73376490871206
 20
7.818633075947722
 30
0.0
 11
10.62048365871388
 21
7.818633075947722
 31
0.0
  0
LINE
  5
15C
330
147
100
AcDbEntity
  8
TITLE
 62
     7
100
AcDbLine
 10
10.62048365871388
 20
9.146758075947252
 30
0.0
 11
10.62048365871388
 21
7.005349433107656
 31
0.0
  0
LINE
  5
15D
330
147
100
AcDbEntity
  8
TITLE
 62
     7
100
AcDbLine
 10
9.956483658713883
 20
8.615508075947438
 30
0.0
 11
9.956483658713883
 21
7.403786933107514
 31
0.0
  0
LINE
  5
15E
330
147
100
AcDbEntity
  8
TITLE
 62
     7
100
AcDbLine
 10
13.21032740871297
 20
7.420195575947849
 30
0.0
 11
13.21032740871297
 21
7.021758075947992
 31
0.0
  0
LINE
  5
15F
330
147
100
AcDbEntity
  8
TITLE
 62
     7
100
AcDbLine
 10
14.55693670123892
 20
7.420195575947849
 30
0.0
 11
14.55693670123892
 21
7.818633075947722
 31
0.0
  0
LINE
  5
160
330
147
100
AcDbEntity
  8
TITLE
 62
     7
100
AcDbLine
 10
12.46036198128459
 20
9.152482374619665
 30
0.0
 11
12.46036198128459
 21
8.62123237461985
 31
0.0
  0
MTEXT
  5
161
330
147
100
AcDbEntity
  8
Title (ANSI)
100
AcDbMText
 10
2.581283051197922
 20
7.786837525255097
 30
0.0
 40
0.0699999998873613
 41
0.0
 46
0.0
 71
     1
 72
     1
  1
\fArial|b0|i0;\H0.0700;THIS DRAWING AND THE INFORMATION\PHEREON ARE OUR PROPERTY AND MAY\PBE USED BY OTHERS ONLY AS\PAUTHORIZED BY STAHLIN ENCLOSURES,\PDIVISION OF ROBROY INDUSTRIES\PALL RIGHTS RESERVED\PUNDER THE COPYRIGHT LAWS
  7
Note Text (ANSI)
 73
     2
 44
0.9442213773727416
  0
TEXT
  5
162
330
147
100
AcDbEntity
  8
TITLE
 62
     7
100
AcDbText
 10
5.452514908715927
 20
8.298320575947437
 30
0.0
 40
0.0996093815705908
  1
ALUMINUM 3003 H14 MILL FINISH
100
AcDbText
  0
TEXT
  5
163
330
147
100
AcDbEntity
  8
TITLE
 62
     7
100
AcDbText
 10
14.62468791907254
 20
8.723985246348023
 30
0.0
 40
0.0996093815705908
  1
0.015 (0.381)
100
AcDbText
  0
TEXT
  5
164
330
147
100
AcDbEntity
  8
TITLE
 62
     7
100
AcDbText
 10
10.02159515294609
 20
8.29707057594758
 30
0.0
 40
0.0996093815705908
  1
12/27/06
 72
     1
 11
10.29242939233243
 21
8.29707057594758
 31
0.0
100
AcDbText
  0
TEXT
  5
165
330
147
100
AcDbEntity
  8
TITLE
 62
     7
100
AcDbText
 10
9.539380827597126
 20
8.297070575947582
 30
0.0
 40
0.0996093815705908
  1
LB
 72
     1
 11
9.624483658713883
 21
8.297070575947582
 31
0.0
100
AcDbText
  0
TEXT
  5
166
330
147
100
AcDbEntity
  8
TITLE
 62
     7
100
AcDbText
 10
5.818685709783163
 20
8.08732036338263
 30
0.0
 40
0.0818125023616581
  1
REVISION RECORD
  7
ITALIC_180
 72
     1
 11
6.355294247612987
 21
8.08732036338263
 31
0.0
100
AcDbText
  0
TEXT
  5
168
330
147
100
AcDbEntity
  8
TITLE
 62
     7
100
AcDbText
 10
4.726392296242966
 20
8.490508075947438
 30
0.0
 40
0.0818125023616581
  1
MATERIAL
  7
ITALIC_181-Arial
100
AcDbText
  0
TEXT
  5
169
330
147
100
AcDbEntity
  8
TITLE
 62
     7
100
AcDbText
 10
4.739912550755748
 20
8.08732036338263
 30
0.0
 40
0.0818125023616581
  1
LET.
  7
ITALIC_180
 72
     1
 11
4.860594362731932
 21
8.08732036338263
 31
0.0
100
AcDbText
  0
TEXT
  5
16A
330
147
100
AcDbEntity
  8
TITLE
 62
     7
100
AcDbText
 10
4.727186152325538
 20
9.021758075947436
 30
0.0
 40
0.0818125023616581
  1
NOTES:
  7
ITALIC_181-Arial
100
AcDbText
  0
TEXT
  5
16B
330
147
100
AcDbEntity
  8
TITLE
 62
     7
100
AcDbText
 10
7.896038829012821
 20
8.087320363382637
 30
0.0
 40
0.0818125023616581
  1
DATE
  7
ITALIC_180
 72
     1
 11
8.048446703466906
 21
8.087320363382637
 31
0.0
100
AcDbText
  0
TEXT
  5
16C
330
147
100
AcDbEntity
  8
TITLE
 62
     7
100
AcDbText
 10
8.51270445423108
 20
8.08732036338263
 30
0.0
 40
0.0818125023616581
  1
BY
  7
ITALIC_180
 72
     1
 11
8.58893629476725
 21
8.08732036338263
 31
0.0
100
AcDbText
  0
TEXT
  5
16D
330
147
100
AcDbEntity
  8
TITLE
 62
     7
100
AcDbText
 10
8.909040255791561
 20
8.08732036338263
 30
0.0
 40
0.0818125023616581
  1
CHD.
  7
ITALIC_180
 72
     1
 11
9.048724221283531
 21
8.08732036338263
 31
0.0
100
AcDbText
  0
TEXT
  5
16E
330
147
100
AcDbEntity
  8
TITLE
 62
     7
100
AcDbText
 10
14.46980800545204
 20
8.763349351005194
 30
0.0
 40
0.0824765602904042
  1
+
  7
ITALIC_186
100
AcDbText
  0
TEXT
  5
16F
330
147
100
AcDbEntity
  8
TITLE
 62
     7
100
AcDbText
 10
14.46980800545204
 20
8.682711774292775
 30
0.0
 40
0.0824765602904042
  1
-
  7
ITALIC_186
100
AcDbText
  0
TEXT
  5
170
330
147
100
AcDbEntity
  8
TITLE
 62
     7
100
AcDbText
 10
14.08646096724307
 20
8.723985246348023
 30
0.0
 40
0.0824765602904042
  1
.XXX
  7
ITALIC_186
100
AcDbText
  0
TEXT
  5
171
330
147
100
AcDbEntity
  8
TITLE
 62
     7
100
AcDbText
 10
9.769085034613988
 20
7.261037545932001
 30
0.0
 40
0.0818125023616581
  1
SCALE
  7
ITALIC_180
 72
     1
 11
9.956483658713883
 21
7.261037545932001
 31
0.0
100
AcDbText
  0
TEXT
  5
172
330
147
100
AcDbEntity
  8
TITLE
 62
     7
100
AcDbText
 10
9.399080727582411
 20
7.688633075947723
 30
0.0
 40
0.0818125023616581
  1
APD. BY
  7
ITALIC_180
 72
     1
 11
9.624483658713883
 21
7.688633075947723
 31
0.0
100
AcDbText
  0
TEXT
  5
173
330
147
100
AcDbEntity
  8
TITLE
 62
     7
100
AcDbText
 10
10.1360757842598
 20
7.688633075947723
 30
0.0
 40
0.0818125023616581
  1
DATE
  7
ITALIC_180
 72
     1
 11
10.28848365871388
 21
7.688633075947723
 31
0.0
100
AcDbText
  0
TEXT
  5
174
330
147
100
AcDbEntity
  8
TITLE
 62
     7
100
AcDbText
 10
10.74048775129924
 20
7.688633075947722
 30
0.0
 40
0.0899937502511843
  1
CUSTOMER
  7
ITALIC_191
100
AcDbText
  0
TEXT
  5
175
330
147
100
AcDbEntity
  8
TITLE
 62
     7
100
AcDbText
 10
10.74048775129924
 20
7.290195575947849
 30
0.0
 40
0.0899937502511843
  1
PART NAME
  7
ITALIC_191
100
AcDbText
  0
TEXT
  5
176
330
147
100
AcDbEntity
  8
TITLE
 62
     7
100
AcDbText
 10
13.33032740871297
 20
7.290195575947853
 30
0.0
 40
0.0899937502511843
  1
PART NO.
  7
ITALIC_191
100
AcDbText
  0
TEXT
  5
177
330
147
100
AcDbEntity
  8
TITLE
 62
     7
100
AcDbText
 10
9.395843943723628
 20
8.08732036338263
 30
0.0
 40
0.0818125023616581
  1
CHK. BY
  7
ITALIC_180
 72
     1
 11
9.624483658713883
 21
8.08732036338263
 31
0.0
100
AcDbText
  0
TEXT
  5
178
330
147
100
AcDbEntity
  8
TITLE
 62
     7
100
AcDbText
 10
9.433959863991713
 20
8.485508075947439
 30
0.0
 40
0.0818125023616581
  1
DR. BY
  7
ITALIC_180
 72
     1
 11
9.624483658713883
 21
8.485508075947439
 31
0.0
100
AcDbText
  0
TEXT
  5
179
330
147
100
AcDbEntity
  8
TITLE
 62
     7
100
AcDbText
 10
10.1360757842598
 20
8.087320363382632
 30
0.0
 40
0.0818125023616581
  1
DATE
  7
ITALIC_180
 72
     1
 11
10.28848365871388
 21
8.087320363382632
 31
0.0
100
AcDbText
  0
TEXT
  5
17A
330
147
100
AcDbEntity
  8
TITLE
 62
     7
100
AcDbText
 10
10.1360757842598
 20
8.485508075947439
 30
0.0
 40
0.0818125023616581
  1
DATE
  7
ITALIC_180
 72
     1
 11
10.28848365871388
 21
8.485508075947439
 31
0.0
100
AcDbText
  0
TEXT
  5
17B
330
147
100
AcDbEntity
  8
TITLE
 62
     7
100
AcDbText
 10
12.75473842883989
 20
8.741238191309086
 30
0.0
 40
0.0824765602904042
  1
UNLESS SPECIFIED
  7
ITALIC_187
 72
     1
 11
13.30537917498063
 21
8.741238191309086
 31
0.0
100
AcDbText
  0
TEXT
  5
17C
330
147
100
AcDbEntity
  8
TITLE
 62
     7
100
AcDbText
 10
12.91482509480602
 20
8.935897686850758
 30
0.0
 40
0.0824765602904042
  1
TOLERANCES
  7
ITALIC_187
 72
     1
 11
13.30537917498063
 21
8.935897686850758
 31
0.0
100
AcDbText
  0
TEXT
  5
17D
330
147
100
AcDbEntity
  8
TITLE
 62
     7
100
AcDbText
 10
14.10092407113986
 20
8.93589768685076
 30
0.0
 40
0.0824765602904042
  1
.XX
  7
ITALIC_186
100
AcDbText
  0
TEXT
  5
17E
330
147
100
AcDbEntity
  8
TITLE
 62
     7
100
AcDbText
 10
14.46791747213411
 20
8.96267554330536
 30
0.0
 40
0.0824765602904042
  1
+
  7
ITALIC_186
100
AcDbText
  0
TEXT
  5
17F
330
147
100
AcDbEntity
  8
TITLE
 62
     7
100
AcDbText
 10
14.46791747213411
 20
8.90375890402475
 30
0.0
 40
0.0824765602904042
  1
-
  7
ITALIC_186
100
AcDbText
  0
TEXT
  5
180
330
147
100
AcDbEntity
  8
TITLE
 62
     7
100
AcDbText
 10
14.62951444226013
 20
8.93589768685076
 30
0.0
 40
0.0996093815705908
  1
0.03 (0.76)
100
AcDbText
  0
MTEXT
  5
181
330
147
100
AcDbEntity
  8
Title (ANSI)
100
AcDbMText
 10
11.54927456472802
 20
9.034141029898576
 30
0.0
 40
0.0818125023616581
 41
0.0
 46
0.0
 71
     2
 72
     1
  1
\fArial|b0|i0;\H0.0818;ALL DIMENSIONS ARE\PINCHES (MILLIMETERS)\PUNLESS SPECIFIED
  7
Note Text (ANSI)
 73
     2
 44
0.9442214369773864
  0
ATTDEF
  5
182
330
147
100
AcDbEntity
  8
TITLE
 62
     7
100
AcDbText
 10
5.452514908715927
 20
8.696758075947437
 30
0.0
 40
0.0996093815705908
  1

100
AcDbAttributeDefinition
280
     0
  3
NOTE_2
  2
NOTE_2
 70
     0
280
     0
  0
ATTDEF
  5
183
330
147
100
AcDbEntity
  8
TITLE
 62
     7
100
AcDbText
 10
5.452514908715927
 20
8.962383075947437
 30
0.0
 40
0.0996093815705908
  1

100
AcDbAttributeDefinition
280
     0
  3
NOTE_1
  2
NOTE_1
 70
     0
280
     0
  0
ATTDEF
  5
184
330
147
100
AcDbEntity
  8
TITLE
 62
     7
100
AcDbText
 10
11.37048365871388
 20
7.087958621407276
 30
0.0
 40
0.1249999981226883
  1

 11
11.37048365871388
 21
7.071758075947991
 31
0.0
100
AcDbAttributeDefinition
280
     0
  3
DESCRIPTION
  2
DESCRIPTION
 70
     0
 74
     1
280
     0
  0
ATTDEF
  5
185
330
147
100
AcDbEntity
  8
TITLE
 62
     7
100
AcDbText
 10
10.28848365871388
 20
7.911542886656055
 30
0.0
 40
0.0996093815705908
  1

 72
     1
 11
10.28848365871388
 21
7.898633075947724
 31
0.0
100
AcDbAttributeDefinition
280
     0
  3
CHECKED DATE
  2
CHECKED_DATE
 70
     0
 74
     1
280
     0
  0
ATTDEF
  5
186
330
147
100
AcDbEntity
  8
TITLE
 62
     7
100
AcDbText
 10
9.624483658713883
 20
7.898633075947724
 30
0.0
 40
0.0996093815705908
  1

 72
     1
 11
9.624483658713883
 21
7.898633075947724
 31
0.0
100
AcDbAttributeDefinition
280
     0
  3
CHECKED BY
  2
CHECKED_BY
 70
     0
280
     0
  0
ATTDEF
  5
187
330
147
100
AcDbEntity
  8
TITLE
 62
     7
100
AcDbText
 10
9.624483658713883
 20
7.500195575947851
 30
0.0
 40
0.0996093815705908
  1

 72
     1
 11
9.624483658713883
 21
7.500195575947851
 31
0.0
100
AcDbAttributeDefinition
280
     0
  3
ENG APPROVED BY
  2
ENG_APPROVED_BY
 70
     0
280
     0
  0
ATTDEF
  5
188
330
147
100
AcDbEntity
  8
TITLE
 62
     7
100
AcDbText
 10
11.37048365871388
 20
7.483105386656179
 30
0.0
 40
0.0996093815705908
  1

 11
11.37048365871388
 21
7.470195575947848
 31
0.0
100
AcDbAttributeDefinition
280
     0
  3
CUSTOMER
  2
CUSTOMER
 70
     0
 74
     1
280
     0
  0
ATTDEF
  5
189
330
147
100
AcDbEntity
  8
Title (ANSI)
100
AcDbText
 10
10.28850059809647
 20
7.513271019414488
 30
0.0
 40
0.1000000031914298
  1

  7
Note Text (ANSI)
 72
     1
 11
10.28850059809647
 21
7.500310582438791
 31
0.0
100
AcDbAttributeDefinition
280
     0
  3
ENG APPROVAL DATE
  2
ENG_APPROVAL_DATE
 70
     0
 74
     1
280
     0
  0
ENDBLK
  5
149
330
147
100
AcDbEntity
  8
0
100
AcDbBlockEnd
  0
BLOCK
  5
1F7
330
1EC
100
AcDbEntity
  8
0
100
AcDbBlockBegin
  2
*D6
 70
     1
 10
0.0
 20
0.0
 30
0.0
  3
*D6
  1

  0
LINE
  5
2B3
330
1EC
100
AcDbEntity
  8
Dimension (ANSI)
440
 16777216
100
AcDbLine
 10
41.19841835776233
 20
79.42999090693651
 30
0.0
 11
41.19841835776233
 21
91.3193780293302
 31
0.0
  0
LINE
  5
2B4
330
1EC
100
AcDbEntity
  8
Dimension (ANSI)
440
 16777216
100
AcDbLine
 10
74.19841835776235
 20
79.42999090693651
 30
0.0
 11
74.19841835776235
 21
91.3193780293302
 31
0.0
  0
LINE
  5
2B5
330
1EC
100
AcDbEntity
  8
Dimension (ANSI)
440
 16777216
100
AcDbLine
 10
41.74522499454614
 20
90.62493358488575
 30
0.0
 11
56.0318530857193
 21
90.62493358488575
 31
0.0
  0
LINE
  5
2B6
330
1EC
100
AcDbEntity
  8
Dimension (ANSI)
440
 16777216
100
AcDbLine
 10
73.65161172097853
 20
90.62493358488575
 30
0.0
 11
59.36498362980536
 21
90.62493358488575
 31
0.0
  0
SOLID
  5
2B7
330
1EC
100
AcDbEntity
  8
Dimension (ANSI)
440
 16777216
100
AcDbTrace
 10
41.74522499454614
 20
90.71606802434972
 30
0.0
 11
41.74522499454614
 21
90.53379914542178
 31
0.0
 12
41.19841835776233
 22
90.62493358488575
 32
0.0
 13
41.19841835776233
 23
90.62493358488575
 33
0.0
  0
SOLID
  5
2B8
330
1EC
100
AcDbEntity
  8
Dimension (ANSI)
440
 16777216
100
AcDbTrace
 10
73.65161172097853
 20
90.71606802434972
 30
0.0
 11
73.65161172097853
 21
90.53379914542178
 31
0.0
 12
74.19841835776235
 22
90.62493358488575
 32
0.0
 13
74.19841835776235
 23
90.62493358488575
 33
0.0
  0
MTEXT
  5
2B9
330
1EC
100
AcDbEntity
  8
Dimension (ANSI)
440
 16777216
100
AcDbMText
 10
56.20683121345333
 20
91.60909309041686
 30
0.0
 40
0.6666666931576199
 41
0.0
 46
0.0
 71
     1
 72
     1
  1
\A1;33.00\P [838.2]
  7
Note Text (ANSI)
 73
     1
 44
1.0
  0
POINT
  5
2BA
330
1EC
100
AcDbEntity
  8
Defpoints
 62
     0
440
 16777216
100
AcDbPoint
 10
41.19841835776233
 20
79.08276868471428
 30
0.0
  0
POINT
  5
2BB
330
1EC
100
AcDbEntity
  8
Defpoints
 62
     0
440
 16777216
100
AcDbPoint
 10
74.19841835776235
 20
79.08276868471428
 30
0.0
  0
POINT
  5
2BC
330
1EC
100
AcDbEntity
  8
Defpoints
 62
     0
440
 16777216
100
AcDbPoint
 10
74.19841835776235
 20
90.62493358488575
 30
0.0
  0
ENDBLK
  5
1F8
330
1EC
100
AcDbEntity
  8
0
100
AcDbBlockEnd
  0
BLOCK
  5
2C9
330
2BE
100
AcDbEntity
  8
0
100
AcDbBlockBegin
  2
*D7
 70
     1
 10
0.0
 20
0.0
 30
0.0
  3
*D7
  1

  0
LINE
  5
385
330
2BE
100
AcDbEntity
  8
Dimension (ANSI)
440
 16777216
100
AcDbLine
 10
42.07341835776232
 20
78.6799909069365
 30
0.0
 11
42.07341835776232
 21
87.04183583497375
 31
0.0
  0
LINE
  5
386
330
2BE
100
AcDbEntity
  8
Dimension (ANSI)
440
 16777216
100
AcDbLine
 10
73.32341835776232
 20
78.6799909069365
 30
0.0
 11
73.32341835776232
 21
87.04183583497375
 31
0.0
  0
LINE
  5
387
330
2BE
100
AcDbEntity
  8
Dimension (ANSI)
440
 16777216
100
AcDbLine
 10
42.62022499454614
 20
86.3473913905293
 30
0.0
 11
56.45145334469421
 21
86.3473913905293
 31
0.0
  0
LINE
  5
388
330
2BE
100
AcDbEntity
  8
Dimension (ANSI)
440
 16777216
100
AcDbLine
 10
72.7766117209785
 20
86.3473913905293
 30
0.0
 11
59.78458388878027
 21
86.3473913905293
 31
0.0
  0
SOLID
  5
389
330
2BE
100
AcDbEntity
  8
Dimension (ANSI)
440
 16777216
100
AcDbTrace
 10
42.62022499454614
 20
86.43852582999327
 30
0.0
 11
42.62022499454614
 21
86.25625695106533
 31
0.0
 12
42.07341835776232
 22
86.3473913905293
 32
0.0
 13
42.07341835776232
 23
86.3473913905293
 33
0.0
  0
SOLID
  5
38A
330
2BE
100
AcDbEntity
  8
Dimension (ANSI)
440
 16777216
100
AcDbTrace
 10
72.7766117209785
 20
86.43852582999327
 30
0.0
 11
72.7766117209785
 21
86.25625695106533
 31
0.0
 12
73.32341835776232
 22
86.3473913905293
 32
0.0
 13
73.32341835776232
 23
86.3473913905293
 33
0.0
  0
MTEXT
  5
38B
330
2BE
100
AcDbEntity
  8
Dimension (ANSI)
440
 16777216
100
AcDbMText
 10
56.62643147242824
 20
87.33155089606041
 30
0.0
 40
0.6666666931576199
 41
0.0
 46
0.0
 71
     1
 72
     1
  1
\A1;31.250\P [793.8]
  7
Note Text (ANSI)
 73
     1
 44
1.0
  0
POINT
  5
38C
330
2BE
100
AcDbEntity
  8
Defpoints
 62
     0
440
 16777216
100
AcDbPoint
 10
42.07341835776232
 20
78.33276868471428
 30
0.0
  0
POINT
  5
38D
330
2BE
100
AcDbEntity
  8
Defpoints
 62
     0
440
 16777216
100
AcDbPoint
 10
73.32341835776232
 20
78.33276868471428
 30
0.0
  0
POINT
  5
38E
330
2BE
100
AcDbEntity
  8
Defpoints
 62
     0
440
 16777216
100
AcDbPoint
 10
73.32341835776232
 20
86.3473913905293
 30
0.0
  0
ENDBLK
  5
2CA
330
2BE
100
AcDbEntity
  8
0
100
AcDbBlockEnd
  0
BLOCK
  5
39B
330
390
100
AcDbEntity
  8
0
100
AcDbBlockBegin
  2
*D8
 70
     1
 10
0.0
 20
0.0
 30
0.0
  3
*D8
  1

  0
LINE
  5
457
330
390
100
AcDbEntity
  8
Dimension (ANSI)
440
 16777216
100
AcDbLine
 10
74.42064057998457
 20
79.20776868471428
 30
0.0
 11
88.7661130209295
 21
79.20776868471428
 31
0.0
  0
LINE
  5
458
330
390
100
AcDbEntity
  8
Dimension (ANSI)
440
 16777216
100
AcDbLine
 10
74.42064057998461
 20
22.2077686847143
 30
0.0
 11
88.76611302092948
 21
22.2077686847143
 31
0.0
  0
LINE
  5
459
330
390
100
AcDbEntity
  8
Dimension (ANSI)
440
 16777216
100
AcDbLine
 10
88.07166857648505
 20
78.66096204793047
 30
0.0
 11
88.07166857648505
 21
51.86690631797943
 31
0.0
  0
LINE
  5
45A
330
390
100
AcDbEntity
  8
Dimension (ANSI)
440
 16777216
100
AcDbLine
 10
88.07166857648503
 20
22.75457532149811
 30
0.0
 11
88.07166857648505
 21
49.54863105144913
 31
0.0
  0
SOLID
  5
45B
330
390
100
AcDbEntity
  8
Dimension (ANSI)
440
 16777216
100
AcDbTrace
 10
87.98053413702108
 20
78.66096204793047
 30
0.0
 11
88.16280301594902
 21
78.66096204793047
 31
0.0
 12
88.07166857648505
 22
79.20776868471428
 32
0.0
 13
88.07166857648505
 23
79.20776868471428
 33
0.0
  0
SOLID
  5
45C
330
390
100
AcDbEntity
  8
Dimension (ANSI)
440
 16777216
100
AcDbTrace
 10
87.98053413702106
 20
22.75457532149811
 30
0.0
 11
88.162803015949
 21
22.75457532149811
 31
0.0
 12
88.07166857648503
 22
22.2077686847143
 32
0.0
 13
88.07166857648503
 23
22.2077686847143
 33
0.0
  0
MTEXT
  5
45D
330
390
100
AcDbEntity
  8
Dimension (ANSI)
440
 16777216
100
AcDbMText
 10
86.32110006672361
 20
51.69192819024541
 30
0.0
 40
0.6666666931576199
 41
0.0
 46
0.0
 71
     1
 72
     1
  1
\A1;57.00\P [1447.8]
  7
Note Text (ANSI)
 73
     1
 44
1.0
  0
POINT
  5
45E
330
390
100
AcDbEntity
  8
Defpoints
 62
     0
440
 16777216
100
AcDbPoint
 10
74.07341835776235
 20
79.20776868471428
 30
0.0
  0
POINT
  5
45F
330
390
100
AcDbEntity
  8
Defpoints
 62
     0
440
 16777216
100
AcDbPoint
 10
74.07341835776238
 20
22.2077686847143
 30
0.0
  0
POINT
  5
460
330
390
100
AcDbEntity
  8
Defpoints
 62
     0
440
 16777216
100
AcDbPoint
 10
88.07166857648503
 20
22.2077686847143
 30
0.0
  0
ENDBLK
  5
39C
330
390
100
AcDbEntity
  8
0
100
AcDbBlockEnd
  0
BLOCK
  5
46D
330
462
100
AcDbEntity
  8
0
100
AcDbBlockBegin
  2
*D9
 70
     1
 10
0.0
 20
0.0
 30
0.0
  3
*D9
  1

  0
LINE
  5
529
330
462
100
AcDbEntity
  8
Dimension (ANSI)
440
 16777216
100
AcDbLine
 10
73.67064057998454
 20
50.70776868471427
 30
0.0
 11
83.5096280823021
 21
50.70776868471426
 31
0.0
  0
LINE
  5
52A
330
462
100
AcDbEntity
  8
Dimension (ANSI)
440
 16777216
100
AcDbLine
 10
73.67064057998454
 20
23.08276868471428
 30
0.0
 11
83.50962808230208
 21
23.08276868471428
 31
0.0
  0
LINE
  5
52B
330
462
100
AcDbEntity
  8
Dimension (ANSI)
440
 16777216
100
AcDbLine
 10
82.81518363785766
 20
50.16096204793045
 30
0.0
 11
82.81518363785766
 21
42.6584063179794
 31
0.0
  0
LINE
  5
52C
330
462
100
AcDbEntity
  8
Dimension (ANSI)
440
 16777216
100
AcDbLine
 10
82.81518363785764
 20
23.62957532149809
 30
0.0
 11
82.81518363785766
 21
40.34013105144911
 31
0.0
  0
SOLID
  5
52D
330
462
100
AcDbEntity
  8
Dimension (ANSI)
440
 16777216
100
AcDbTrace
 10
82.72404919839368
 20
50.16096204793045
 30
0.0
 11
82.90631807732163
 21
50.16096204793045
 31
0.0
 12
82.81518363785766
 22
50.70776868471426
 32
0.0
 13
82.81518363785766
 23
50.70776868471426
 33
0.0
  0
SOLID
  5
52E
330
462
100
AcDbEntity
  8
Dimension (ANSI)
440
 16777216
100
AcDbTrace
 10
82.72404919839367
 20
23.62957532149809
 30
0.0
 11
82.90631807732161
 21
23.62957532149809
 31
0.0
 12
82.81518363785764
 22
23.08276868471428
 32
0.0
 13
82.81518363785764
 23
23.08276868471428
 33
0.0
  0
MTEXT
  5
52F
330
462
100
AcDbEntity
  8
Dimension (ANSI)
440
 16777216
100
AcDbMText
 10
81.32359649354865
 20
42.48342819024538
 30
0.0
 40
0.6666666931576199
 41
0.0
 46
0.0
 71
     1
 72
     1
  1
\A1;27.625\P [701.7]
  7
Note Text (ANSI)
 73
     1
 44
1.0
  0
POINT
  5
530
330
462
100
AcDbEntity
  8
Defpoints
 62
     0
440
 16777216
100
AcDbPoint
 10
73.32341835776232
 20
50.70776868471427
 30
0.0
  0
POINT
  5
531
330
462
100
AcDbEntity
  8
Defpoints
 62
     0
440
 16777216
100
AcDbPoint
 10
73.32341835776232
 20
23.08276868471428
 30
0.0
  0
POINT
  5
532
330
462
100
AcDbEntity
  8
Defpoints
 62
     0
440
 16777216
100
AcDbPoint
 10
82.81518363785764
 20
23.08276868471428
 30
0.0
  0
ENDBLK
  5
46E
330
462
100
AcDbEntity
  8
0
100
AcDbBlockEnd
  0
BLOCK
  5
53F
330
534
100
AcDbEntity
  8
0
100
AcDbBlockBegin
  2
*D10
 70
     1
 10
0.0
 20
0.0
 30
0.0
  3
*D10
  1

  0
LINE
  5
5FB
330
534
100
AcDbEntity
  8
Dimension (ANSI)
440
 16777216
100
AcDbLine
 10
74.07341835776236
 20
105.2096294226276
 30
0.0
 11
74.07341835776236
 21
108.6634514942987
 31
0.0
  0
LINE
  5
5FC
330
534
100
AcDbEntity
  8
Dimension (ANSI)
440
 16777216
100
AcDbLine
 10
74.19841835776235
 20
105.2096294226276
 30
0.0
 11
74.19841835776235
 21
108.6634514942987
 31
0.0
  0
LINE
  5
5FD
330
534
100
AcDbEntity
  8
Dimension (ANSI)
440
 16777216
100
AcDbLine
 10
74.74522499454616
 20
107.9690070498542
 30
0.0
 11
75.29203163132997
 21
107.9690070498542
 31
0.0
  0
LINE
  5
5FE
330
534
100
AcDbEntity
  8
Dimension (ANSI)
440
 16777216
100
AcDbLine
 10
73.52661172097855
 20
107.9690070498542
 30
0.0
 11
72.55665384362884
 21
107.9690070498542
 31
0.0
  0
SOLID
  5
5FF
330
534
100
AcDbEntity
  8
Dimension (ANSI)
440
 16777216
100
AcDbTrace
 10
74.74522499454616
 20
108.0601414893182
 30
0.0
 11
74.74522499454616
 21
107.8778726103903
 31
0.0
 12
74.19841835776235
 22
107.9690070498542
 32
0.0
 13
74.19841835776235
 23
107.9690070498542
 33
0.0
  0
SOLID
  5
600
330
534
100
AcDbEntity
  8
Dimension (ANSI)
440
 16777216
100
AcDbTrace
 10
73.52661172097855
 20
108.0601414893182
 30
0.0
 11
73.52661172097855
 21
107.8778726103903
 31
0.0
 12
74.07341835776236
 22
107.9690070498542
 32
0.0
 13
74.07341835776236
 23
107.9690070498542
 33
0.0
  0
MTEXT
  5
601
330
534
100
AcDbEntity
  8
Dimension (ANSI)
440
 16777216
100
AcDbMText
 10
70.12701441666187
 20
108.9531665553853
 30
0.0
 40
0.6666666931576199
 41
0.0
 46
0.0
 71
     1
 72
     1
  1
\A1;0.125\P [3.2]
  7
Note Text (ANSI)
 73
     1
 44
1.0
  0
POINT
  5
602
330
534
100
AcDbEntity
  8
Defpoints
 62
     0
440
 16777216
100
AcDbPoint
 10
74.07341835776236
 20
104.8624072004054
 30
0.0
  0
POINT
  5
603
330
534
100
AcDbEntity
  8
Defpoints
 62
     0
440
 16777216
100
AcDbPoint
 10
74.19841835776235
 20
104.8624072004054
 30
0.0
  0
POINT
  5
604
330
534
100
AcDbEntity
  8
Defpoints
 62
     0
440
 16777216
100
AcDbPoint
 10
74.19841835776235
 20
107.9690070498542
 30
0.0
  0
ENDBLK
  5
540
330
534
100
AcDbEntity
  8
0
100
AcDbBlockEnd
  0
BLOCK
  5
611
330
606
100
AcDbEntity
  8
0
100
AcDbBlockBegin
  2
*D11
 70
     1
 10
0.0
 20
0.0
 30
0.0
  3
*D11
  1

  0
LINE
  5
6DF
330
606
100
AcDbEntity
  8
Dimension (ANSI)
440
 16777216
100
AcDbLine
 10
74.54564057998458
 20
104.8624072004054
 30
0.0
 11
77.43543958451856
 21
104.8624072004054
 31
0.0
  0
LINE
  5
6E0
330
606
100
AcDbEntity
  8
Dimension (ANSI)
440
 16777216
100
AcDbLine
 10
74.42064057998457
 20
104.3624072004053
 30
0.0
 11
77.43543958451856
 21
104.3624072004053
 31
0.0
  0
LINE
  5
6E1
330
606
100
AcDbEntity
  8
Dimension (ANSI)
440
 16777216
100
AcDbLine
 10
76.74099514007412
 20
103.8156005636215
 30
0.0
 11
76.74099514007412
 21
103.2687939268377
 31
0.0
  0
LINE
  5
6E2
330
606
100
AcDbEntity
  8
Dimension (ANSI)
440
 16777216
100
AcDbLine
 10
76.74099514007412
 20
105.4092138371892
 30
0.0
 11
76.74099514007412
 21
107.3350628912698
 31
0.0
  0
LINE
  5
6E3
330
606
100
AcDbEntity
  8
Dimension (ANSI)
440
 16777216
100
AcDbLine
 10
76.74099514007412
 20
107.3350628912698
 30
0.0
 11
77.28780177685793
 21
107.3350628912698
 31
0.0
  0
SOLID
  5
6E4
330
606
100
AcDbEntity
  8
Dimension (ANSI)
440
 16777216
100
AcDbTrace
 10
76.64986070061015
 20
103.8156005636215
 30
0.0
 11
76.83212957953809
 21
103.8156005636215
 31
0.0
 12
76.74099514007412
 22
104.3624072004053
 32
0.0
 13
76.74099514007412
 23
104.3624072004053
 33
0.0
  0
SOLID
  5
6E5
330
606
100
AcDbEntity
  8
Dimension (ANSI)
440
 16777216
100
AcDbTrace
 10
76.64986070061015
 20
105.4092138371892
 30
0.0
 11
76.83212957953809
 21
105.4092138371892
 31
0.0
 12
76.74099514007412
 22
104.8624072004054
 32
0.0
 13
76.74099514007412
 23
104.8624072004054
 33
0.0
  0
MTEXT
  5
6E6
330
606
100
AcDbEntity
  8
Dimension (ANSI)
440
 16777216
100
AcDbMText
 10
77.46277990459194
 20
108.3192223968009
 30
0.0
 40
0.6666666931576199
 41
0.0
 46
0.0
 71
     1
 72
     1
  1
\A1;0.50\P [12.7]
  7
Note Text (ANSI)
 73
     1
 44
1.0
  0
POINT
  5
6E7
330
606
100
AcDbEntity
  8
Defpoints
 62
     0
440
 16777216
100
AcDbPoint
 10
74.19841835776235
 20
104.8624072004054
 30
0.0
  0
POINT
  5
6E8
330
606
100
AcDbEntity
  8
Defpoints
 62
     0
440
 16777216
100
AcDbPoint
 10
74.07341835776235
 20
104.3624072004053
 30
0.0
  0
POINT
  5
6E9
330
606
100
AcDbEntity
  8
Defpoints
 62
     0
440
 16777216
100
AcDbPoint
 10
76.74099514007412
 20
104.3624072004053
 30
0.0
  0
ENDBLK
  5
612
330
606
100
AcDbEntity
  8
0
100
AcDbBlockEnd
  0
BLOCK
  5
6F1
330
6EB
100
AcDbEntity
  8
0
100
AcDbBlockBegin
  2
*D12
 70
     1
 10
0.0
 20
0.0
 30
0.0
  3
*D12
  1

  0
LINE
  5
77B
330
6EB
100
AcDbEntity
  8
Dimension (ANSI)
440
 16777216
100
AcDbLine
 10
77.60767889313233
 20
100.6899021846207
 30
0.0
 11
77.01904650643744
 21
100.6899021846207
 31
0.0
  0
LINE
  5
77C
330
6EB
100
AcDbEntity
  8
Dimension (ANSI)
440
 16777216
100
AcDbLine
 10
77.01904650643744
 20
100.6899021846207
 30
0.0
 11
74.48517175340978
 21
103.9565745540849
 31
0.0
  0
MTEXT
  5
77D
330
6EB
100
AcDbEntity
  8
Dimension (ANSI)
440
 16777216
100
AcDbMText
 10
77.78265702086635
 20
101.6740616901518
 30
0.0
 40
0.6666666931576199
 41
0.0
 46
0.0
 71
     1
 72
     1
  1
\A1;R0.13\P [R3.2]
  7
Note Text (ANSI)
 73
     1
 44
1.0
  0
SOLID
  5
77E
330
6EB
100
AcDbEntity
  8
Dimension (ANSI)
440
 16777216
100
AcDbTrace
 10
74.55718225914577
 20
104.0124312736454
 30
0.0
 11
74.4131612476738
 21
103.9007178345244
 31
0.0
 12
74.15003143604683
 22
104.3886375885008
 32
0.0
 13
74.15003143604683
 23
104.3886375885008
 33
0.0
  0
POINT
  5
77F
330
6EB
100
AcDbEntity
  8
Defpoints
 62
     0
440
 16777216
100
AcDbPoint
 10
74.15003143604683
 20
104.3886375885008
 30
0.0
  0
POINT
  5
780
330
6EB
100
AcDbEntity
  8
Defpoints
 62
     0
440
 16777216
100
AcDbPoint
 10
74.07341835776239
 20
104.4874072004054
 30
0.0
  0
ENDBLK
  5
6F2
330
6EB
100
AcDbEntity
  8
0
100
AcDbBlockEnd
  0
BLOCK
  5
790
330
785
100
AcDbEntity
  8
0
100
AcDbBlockBegin
  2
*D13
 70
     1
 10
0.0
 20
0.0
 30
0.0
  3
*D13
  1

  0
LINE
  5
84C
330
785
100
AcDbEntity
  8
Dimension (ANSI)
440
 16777216
100
AcDbLine
 10
73.67064057998454
 20
50.70776868471427
 30
0.0
 11
83.5096280823021
 21
50.70776868471426
 31
0.0
  0
LINE
  5
84D
330
785
100
AcDbEntity
  8
Dimension (ANSI)
440
 16777216
100
AcDbLine
 10
73.67064057998454
 20
78.33276868471428
 30
0.0
 11
83.5096280823021
 21
78.33276868471428
 31
0.0
  0
LINE
  5
84E
330
785
100
AcDbEntity
  8
Dimension (ANSI)
440
 16777216
100
AcDbLine
 10
82.81518363785766
 20
51.25457532149808
 30
0.0
 11
82.81518363785766
 21
63.72113667463994
 31
0.0
  0
LINE
  5
84F
330
785
100
AcDbEntity
  8
Dimension (ANSI)
440
 16777216
100
AcDbLine
 10
82.81518363785766
 20
77.78596204793046
 30
0.0
 11
82.81518363785766
 21
66.03941194117024
 31
0.0
  0
SOLID
  5
850
330
785
100
AcDbEntity
  8
Dimension (ANSI)
440
 16777216
100
AcDbTrace
 10
82.72404919839368
 20
51.25457532149808
 30
0.0
 11
82.90631807732163
 21
51.25457532149808
 31
0.0
 12
82.81518363785766
 22
50.70776868471426
 32
0.0
 13
82.81518363785766
 23
50.70776868471426
 33
0.0
  0
SOLID
  5
851
330
785
100
AcDbEntity
  8
Dimension (ANSI)
440
 16777216
100
AcDbTrace
 10
82.72404919839368
 20
77.78596204793046
 30
0.0
 11
82.90631807732163
 21
77.78596204793046
 31
0.0
 12
82.81518363785766
 22
78.33276868471428
 32
0.0
 13
82.81518363785766
 23
78.33276868471428
 33
0.0
  0
MTEXT
  5
852
330
785
100
AcDbEntity
  8
Dimension (ANSI)
440
 16777216
100
AcDbMText
 10
81.32359649354865
 20
65.86443381343622
 30
0.0
 40
0.6666666931576199
 41
0.0
 46
0.0
 71
     1
 72
     1
  1
\A1;27.625\P [701.7]
  7
Note Text (ANSI)
 73
     1
 44
1.0
  0
POINT
  5
853
330
785
100
AcDbEntity
  8
Defpoints
 62
     0
440
 16777216
100
AcDbPoint
 10
73.32341835776232
 20
50.70776868471427
 30
0.0
  0
POINT
  5
854
330
785
100
AcDbEntity
  8
Defpoints
 62
     0
440
 16777216
100
AcDbPoint
 10
73.32341835776232
 20
78.33276868471428
 30
0.0
  0
POINT
  5
855
330
785
100
AcDbEntity
  8
Defpoints
 62
     0
440
 16777216
100
AcDbPoint
 10
82.81518363785766
 20
78.33276868471428
 30
0.0
  0
ENDBLK
  5
791
330
785
100
AcDbEntity
  8
0
100
AcDbBlockEnd
  0
BLOCK
  5
862
330
857
100
AcDbEntity
  8
0
100
AcDbBlockBegin
  2
*D14
 70
     1
 10
0.0
 20
0.0
 30
0.0
  3
*D14
  1

  0
LINE
  5
91E
330
857
100
AcDbEntity
  8
Dimension (ANSI)
440
 16777216
100
AcDbLine
 10
57.69841835776233
 20
78.6799909069365
 30
0.0
 11
57.69841835776233
 21
83.21456475312107
 31
0.0
  0
LINE
  5
91F
330
857
100
AcDbEntity
  8
Dimension (ANSI)
440
 16777216
100
AcDbLine
 10
42.07341835776232
 20
78.6799909069365
 30
0.0
 11
42.07341835776232
 21
83.21456475312107
 31
0.0
  0
LINE
  5
920
330
857
100
AcDbEntity
  8
Dimension (ANSI)
440
 16777216
100
AcDbLine
 10
57.15161172097852
 20
82.52012030867662
 30
0.0
 11
51.48998362980536
 21
82.52012030867662
 31
0.0
  0
LINE
  5
921
330
857
100
AcDbEntity
  8
Dimension (ANSI)
440
 16777216
100
AcDbLine
 10
42.62022499454614
 20
82.52012030867662
 30
0.0
 11
48.1568530857193
 21
82.52012030867662
 31
0.0
  0
SOLID
  5
922
330
857
100
AcDbEntity
  8
Dimension (ANSI)
440
 16777216
100
AcDbTrace
 10
57.15161172097852
 20
82.61125474814059
 30
0.0
 11
57.15161172097852
 21
82.42898586921265
 31
0.0
 12
57.69841835776233
 22
82.52012030867662
 32
0.0
 13
57.69841835776233
 23
82.52012030867662
 33
0.0
  0
SOLID
  5
923
330
857
100
AcDbEntity
  8
Dimension (ANSI)
440
 16777216
100
AcDbTrace
 10
42.62022499454614
 20
82.61125474814059
 30
0.0
 11
42.62022499454614
 21
82.42898586921265
 31
0.0
 12
42.07341835776232
 22
82.52012030867662
 32
0.0
 13
42.07341835776232
 23
82.52012030867662
 33
0.0
  0
MTEXT
  5
924
330
857
100
AcDbEntity
  8
Dimension (ANSI)
440
 16777216
100
AcDbMText
 10
48.33183121345332
 20
83.50427981420773
 30
0.0
 40
0.6666666931576199
 41
0.0
 46
0.0
 71
     1
 72
     1
  1
\A1;15.625\P [396.9]
  7
Note Text (ANSI)
 73
     1
 44
1.0
  0
POINT
  5
925
330
857
100
AcDbEntity
  8
Defpoints
 62
     0
440
 16777216
100
AcDbPoint
 10
57.69841835776233
 20
78.33276868471428
 30
0.0
  0
POINT
  5
926
330
857
100
AcDbEntity
  8
Defpoints
 62
     0
440
 16777216
100
AcDbPoint
 10
42.07341835776232
 20
78.33276868471428
 30
0.0
  0
POINT
  5
927
330
857
100
AcDbEntity
  8
Defpoints
 62
     0
440
 16777216
100
AcDbPoint
 10
42.07341835776232
 20
82.52012030867662
 30
0.0
  0
ENDBLK
  5
863
330
857
100
AcDbEntity
  8
0
100
AcDbBlockEnd
  0
BLOCK
  5
934
330
929
100
AcDbEntity
  8
0
100
AcDbBlockBegin
  2
*D15
 70
     1
 10
0.0
 20
0.0
 30
0.0
  3
*D15
  1

  0
LINE
  5
9F0
330
929
100
AcDbEntity
  8
Dimension (ANSI)
440
 16777216
100
AcDbLine
 10
73.32341835776232
 20
78.6799909069365
 30
0.0
 11
73.32341835776232
 21
83.87415194240245
 31
0.0
  0
LINE
  5
9F1
330
929
100
AcDbEntity
  8
Dimension (ANSI)
440
 16777216
100
AcDbLine
 10
74.19841835776235
 20
79.42999090693651
 30
0.0
 11
74.19841835776235
 21
83.87415194240245
 31
0.0
  0
LINE
  5
9F2
330
929
100
AcDbEntity
  8
Dimension (ANSI)
440
 16777216
100
AcDbLine
 10
74.74522499454616
 20
83.17970749795803
 30
0.0
 11
75.29203163132997
 21
83.17970749795803
 31
0.0
  0
LINE
  5
9F3
330
929
100
AcDbEntity
  8
Dimension (ANSI)
440
 16777216
100
AcDbLine
 10
72.7766117209785
 20
83.17970749795803
 30
0.0
 11
71.91230991069049
 21
83.17970749795803
 31
0.0
  0
SOLID
  5
9F4
330
929
100
AcDbEntity
  8
Dimension (ANSI)
440
 16777216
100
AcDbTrace
 10
74.74522499454616
 20
83.270841937422
 30
0.0
 11
74.74522499454616
 21
83.08857305849405
 31
0.0
 12
74.19841835776235
 22
83.17970749795803
 32
0.0
 13
74.19841835776235
 23
83.17970749795803
 33
0.0
  0
SOLID
  5
9F5
330
929
100
AcDbEntity
  8
Dimension (ANSI)
440
 16777216
100
AcDbTrace
 10
72.7766117209785
 20
83.270841937422
 30
0.0
 11
72.7766117209785
 21
83.08857305849405
 31
0.0
 12
73.32341835776232
 22
83.17970749795803
 32
0.0
 13
73.32341835776232
 23
83.17970749795803
 33
0.0
  0
MTEXT
  5
9F6
330
929
100
AcDbEntity
  8
Dimension (ANSI)
440
 16777216
100
AcDbMText
 10
69.27212022524333
 20
84.16386700348914
 30
0.0
 40
0.6666666931576199
 41
0.0
 46
0.0
 71
     1
 72
     1
  1
\A1;0.88\P [22.2]
  7
Note Text (ANSI)
 73
     1
 44
1.0
  0
POINT
  5
9F7
330
929
100
AcDbEntity
  8
Defpoints
 62
     0
440
 16777216
100
AcDbPoint
 10
73.32341835776232
 20
78.33276868471428
 30
0.0
  0
POINT
  5
9F8
330
929
100
AcDbEntity
  8
Defpoints
 62
     0
440
 16777216
100
AcDbPoint
 10
74.19841835776235
 20
79.08276868471428
 30
0.0
  0
POINT
  5
9F9
330
929
100
AcDbEntity
  8
Defpoints
 62
     0
440
 16777216
100
AcDbPoint
 10
74.19841835776235
 20
83.17970749795803
 30
0.0
  0
ENDBLK
  5
935
330
929
100
AcDbEntity
  8
0
100
AcDbBlockEnd
  0
BLOCK
  5
A06
330
9FB
100
AcDbEntity
  8
0
100
AcDbBlockBegin
  2
*D16
 70
     1
 10
0.0
 20
0.0
 30
0.0
  3
*D16
  1

  0
LINE
  5
AD4
330
9FB
100
AcDbEntity
  8
Dimension (ANSI)
440
 16777216
100
AcDbLine
 10
73.67064057998454
 20
78.33276868471428
 30
0.0
 11
80.79900765109618
 21
78.33276868471428
 31
0.0
  0
LINE
  5
AD5
330
9FB
100
AcDbEntity
  8
Dimension (ANSI)
440
 16777216
100
AcDbLine
 10
74.42064057998457
 20
79.20776868471428
 30
0.0
 11
80.79900765109618
 21
79.20776868471428
 31
0.0
  0
LINE
  5
AD6
330
9FB
100
AcDbEntity
  8
Dimension (ANSI)
440
 16777216
100
AcDbLine
 10
80.10456320665175
 20
79.7545753214981
 30
0.0
 11
80.10456320665175
 21
80.30138195828191
 31
0.0
  0
LINE
  5
AD7
330
9FB
100
AcDbEntity
  8
Dimension (ANSI)
440
 16777216
100
AcDbLine
 10
80.10456320665175
 20
77.78596204793046
 30
0.0
 11
80.10456320665175
 21
75.86011299384982
 31
0.0
  0
LINE
  5
AD8
330
9FB
100
AcDbEntity
  8
Dimension (ANSI)
440
 16777216
100
AcDbLine
 10
80.10456320665175
 20
75.86011299384982
 30
0.0
 11
79.55775656986793
 21
75.86011299384982
 31
0.0
  0
SOLID
  5
AD9
330
9FB
100
AcDbEntity
  8
Dimension (ANSI)
440
 16777216
100
AcDbTrace
 10
80.01342876718778
 20
79.7545753214981
 30
0.0
 11
80.19569764611572
 21
79.7545753214981
 31
0.0
 12
80.10456320665175
 22
79.20776868471428
 32
0.0
 13
80.10456320665175
 23
79.20776868471428
 33
0.0
  0
SOLID
  5
ADA
330
9FB
100
AcDbEntity
  8
Dimension (ANSI)
440
 16777216
100
AcDbTrace
 10
80.01342876718778
 20
77.78596204793046
 30
0.0
 11
80.19569764611572
 21
77.78596204793046
 31
0.0
 12
80.10456320665175
 22
78.33276868471428
 32
0.0
 13
80.10456320665175
 23
78.33276868471428
 33
0.0
  0
MTEXT
  5
ADB
330
9FB
100
AcDbEntity
  8
Dimension (ANSI)
440
 16777216
100
AcDbMText
 10
76.91756688442075
 20
76.84427249938095
 30
0.0
 40
0.6666666931576199
 41
0.0
 46
0.0
 71
     1
 72
     1
  1
\A1;0.88\P [22.2]
  7
Note Text (ANSI)
 73
     1
 44
1.0
  0
POINT
  5
ADC
330
9FB
100
AcDbEntity
  8
Defpoints
 62
     0
440
 16777216
100
AcDbPoint
 10
73.32341835776232
 20
78.33276868471428
 30
0.0
  0
POINT
  5
ADD
330
9FB
100
AcDbEntity
  8
Defpoints
 62
     0
440
 16777216
100
AcDbPoint
 10
74.07341835776235
 20
79.20776868471428
 30
0.0
  0
POINT
  5
ADE
330
9FB
100
AcDbEntity
  8
Defpoints
 62
     0
440
 16777216
100
AcDbPoint
 10
80.10456320665175
 20
79.20776868471428
 30
0.0
  0
ENDBLK
  5
A07
330
9FB
100
AcDbEntity
  8
0
100
AcDbBlockEnd
  0
ENDSEC
  0
SECTION
  2
ENTITIES
  0
INSERT
  5
146
330
37
100
AcDbEntity
  8
0
100
AcDbBlockReference
  2
Borders Default Border
 10
0.0
 20
0.0
 30
0.0
 41
5.555555555555555
 42
5.555555555555555
 43
5.555555555555555
  0
INSERT
  5
18A
330
37
100
AcDbEntity
  8
0
100
AcDbBlockReference
 66
     1
  2
Title Blocks Stahlin
 10
98.70130606271077
 20
-33.36305240615365
 30
0.0
 41
5.555555555555555
 42
5.555555555555555
 43
5.555555555555555
  0
ATTRIB
  5
18C
330
18A
100
AcDbEntity
  8
TITLE
 62
     7
100
AcDbText
 10
128.993055555577
 20
14.95227023799877
 30
0.0
 40
0.5533854531699486
  1

100
AcDbAttribute
280
     0
  2
NOTE_2
 70
     0
280
     0
  0
ATTRIB
  5
18D
330
18A
100
AcDbEntity
  8
TITLE
 62
     7
100
AcDbText
 10
128.993055555577
 20
16.42796468244322
 30
0.0
 40
0.5533854531699486
  1

100
AcDbAttribute
280
     0
  2
NOTE_1
 70
     0
280
     0
  0
ATTRIB
  5
18E
330
18A
100
AcDbEntity
  8
TITLE
 62
     7
100
AcDbText
 10
161.8706597222323
 20
6.014495490553439
 30
0.0
 40
0.6944444340149353
  1

 11
161.8706597222323
 21
5.924492460224082
 31
0.0
100
AcDbAttribute
280
     0
  2
DESCRIPTION
 70
     0
 74
     1
280
     0
  0
ATTRIB
  5
18F
330
18A
100
AcDbEntity
  8
TITLE
 62
     7
100
AcDbText
 10
155.8595486111212
 20
10.58996363082443
 30
0.0
 40
0.5533854531699486
  1

 72
     1
 11
155.8595486111212
 21
10.51824246022259
 31
0.0
100
AcDbAttribute
280
     0
  2
CHECKED_DATE
 70
     0
 74
     1
280
     0
  0
ATTRIB
  5
190
330
18A
100
AcDbEntity
  8
TITLE
 62
     7
100
AcDbText
 10
152.1706597222323
 20
10.51824246022259
 30
0.0
 40
0.5533854531699486
  1

 72
     1
 11
152.1706597222323
 21
10.51824246022259
 31
0.0
100
AcDbAttribute
280
     0
  2
CHECKED_BY
 70
     0
280
     0
  0
ATTRIB
  5
191
330
18A
100
AcDbEntity
  8
TITLE
 62
     7
100
AcDbText
 10
152.1706597222323
 20
8.304700793556637
 30
0.0
 40
0.5533854531699486
  1

 72
     1
 11
152.1706597222323
 21
8.304700793556637
 31
0.0
100
AcDbAttribute
280
     0
  2
ENG_APPROVED_BY
 70
     0
280
     0
  0
ATTRIB
  5
192
330
18A
100
AcDbEntity
  8
TITLE
 62
     7
100
AcDbText
 10
161.8706597222323
 20
8.20975529749179
 30
0.0
 40
0.5533854531699486
  1

 11
161.8706597222323
 21
8.138034126889955
 31
0.0
100
AcDbAttribute
280
     0
  2
CUSTOMER
 70
     0
 74
     1
280
     0
  0
ATTRIB
  5
193
330
18A
100
AcDbEntity
  8
Title (ANSI)
100
AcDbText
 10
155.8596427188022
 20
8.377342146149059
 30
0.0
 40
0.5555555732857211
  1

  7
Note Text (ANSI)
 72
     1
 11
155.8596427188022
 21
8.305339718506299
 31
0.0
100
AcDbAttribute
280
     0
  2
ENG_APPROVAL_DATE
 70
     0
 74
     1
280
     0
  0
SEQEND
  5
18B
330
18A
100
AcDbEntity
  8
0
  0
CIRCLE
  5
194
330
37
100
AcDbEntity
  8
Visible (ANSI)
100
AcDbCircle
 10
57.69841835776237
 20
23.08276868471427
 30
0.0
 40
0.28125
  0
CIRCLE
  5
195
330
37
100
AcDbEntity
  8
Visible (ANSI)
100
AcDbCircle
 10
57.69841835776233
 20
78.33276868471426
 30
0.0
 40
0.28125
  0
CIRCLE
  5
196
330
37
100
AcDbEntity
  8
Visible (ANSI)
100
AcDbCircle
 10
73.32341835776233
 20
78.33276868471426
 30
0.0
 40
0.28125
  0
CIRCLE
  5
197
330
37
100
AcDbEntity
  8
Visible (ANSI)
100
AcDbCircle
 10
73.3234183577623
 20
50.70776868471426
 30
0.0
 40
0.28125
  0
CIRCLE
  5
198
330
37
100
AcDbEntity
  8
Visible (ANSI)
100
AcDbCircle
 10
73.3234183577623
 20
23.08276868471427
 30
0.0
 40
0.28125
  0
CIRCLE
  5
199
330
37
100
AcDbEntity
  8
Visible (ANSI)
100
AcDbCircle
 10
42.07341835776232
 20
23.08276868471427
 30
0.0
 40
0.28125
  0
CIRCLE
  5
19A
330
37
100
AcDbEntity
  8
Visible (ANSI)
100
AcDbCircle
 10
42.07341835776232
 20
50.70776868471426
 30
0.0
 40
0.28125
  0
CIRCLE
  5
19B
330
37
100
AcDbEntity
  8
Visible (ANSI)
100
AcDbCircle
 10
42.07341835776232
 20
78.33276868471426
 30
0.0
 40
0.28125
  0
LINE
  5
19C
330
37
100
AcDbEntity
  8
Hidden (ANSI)
 48
1.096907496452331
100
AcDbLine
 10
74.07341835776233
 20
79.08276868471427
 30
0.0
 11
41.32341835776233
 21
79.08276868471427
 31
0.0
  0
LINE
  5
19D
330
37
100
AcDbEntity
  8
Hidden (ANSI)
 48
1.074335813522338
100
AcDbLine
 10
74.07341835776229
 20
22.33276868471429
 30
0.0
 11
74.07341835776233
 21
79.08276868471427
 31
0.0
  0
LINE
  5
19E
330
37
100
AcDbEntity
  8
Hidden (ANSI)
 48
1.096907496452331
100
AcDbLine
 10
41.32341835776236
 20
22.33276868471428
 30
0.0
 11
74.07341835776229
 21
22.33276868471429
 31
0.0
  0
LINE
  5
19F
330
37
100
AcDbEntity
  8
Hidden (ANSI)
 48
1.074335813522338
100
AcDbLine
 10
41.32341835776233
 20
79.08276868471427
 30
0.0
 11
41.32341835776236
 21
22.33276868471427
 31
0.0
  0
LINE
  5
1A0
330
37
100
AcDbEntity
  8
Visible (ANSI)
100
AcDbLine
 10
41.32341835776236
 20
22.20776868471427
 30
0.0
 11
74.07341835776236
 21
22.2077686847143
 31
0.0
  0
LINE
  5
1A1
330
37
100
AcDbEntity
  8
Visible (ANSI)
100
AcDbLine
 10
41.19841835776233
 20
79.08276868471427
 30
0.0
 11
41.19841835776236
 21
22.33276868471427
 31
0.0
  0
LINE
  5
1A2
330
37
100
AcDbEntity
  8
Visible (ANSI)
100
AcDbLine
 10
74.07341835776233
 20
79.20776868471427
 30
0.0
 11
41.32341835776233
 21
79.20776868471427
 31
0.0
  0
ARC
  5
1A3
330
37
100
AcDbEntity
  8
Visible (ANSI)
100
AcDbCircle
 10
41.32341835776233
 20
79.08276868471427
 30
0.0
 40
0.1249999999999982
100
AcDbArc
 50
90.0
 51
180.0
  0
LINE
  5
1A4
330
37
100
AcDbEntity
  8
Visible (ANSI)
100
AcDbLine
 10
74.19841835776229
 20
22.33276868471428
 30
0.0
 11
74.19841835776233
 21
79.08276868471427
 31
0.0
  0
ARC
  5
1A5
330
37
100
AcDbEntity
  8
Visible (ANSI)
100
AcDbCircle
 10
74.07341835776233
 20
79.08276868471427
 30
0.0
 40
0.1249999999999926
100
AcDbArc
 50
0.0
 51
90.00000000000714
  0
ARC
  5
1A6
330
37
100
AcDbEntity
  8
Visible (ANSI)
100
AcDbCircle
 10
41.32341835776236
 20
22.33276868471427
 30
0.0
 40
0.1249999999999926
100
AcDbArc
 50
180.0
 51
270.0000000000036
  0
ARC
  5
1A7
330
37
100
AcDbEntity
  8
Visible (ANSI)
100
AcDbCircle
 10
74.07341835776236
 20
22.33276868471429
 30
0.0
 40
0.1249999999999926
100
AcDbArc
 50
270.0
 51
0.0
  0
LINE
  5
1A8
330
37
100
AcDbEntity
  8
Hidden (ANSI)
 48
0.1284670233726501
100
AcDbLine
 10
74.07341835776233
 20
104.8624072004053
 30
0.0
 11
74.07341835776233
 21
104.4874072004053
 31
0.0
  0
LINE
  5
1A9
330
37
100
AcDbEntity
  8
Hidden (ANSI)
 48
1.096907496452331
100
AcDbLine
 10
74.07341835776233
 20
104.4874072004053
 30
0.0
 11
41.32341835776233
 21
104.4874072004053
 31
0.0
  0
LINE
  5
1AA
330
37
100
AcDbEntity
  8
Hidden (ANSI)
 48
0.1284670233726501
100
AcDbLine
 10
41.32341835776233
 20
104.8624072004053
 30
0.0
 11
41.32341835776233
 21
104.4874072004053
 31
0.0
  0
ARC
  5
1AB
330
37
100
AcDbEntity
  8
Visible (ANSI)
100
AcDbCircle
 10
41.32341835776232
 20
104.4874072004053
 30
0.0
 40
0.1250000000000001
100
AcDbArc
 50
180.0
 51
270.0
  0
LINE
  5
1AC
330
37
100
AcDbEntity
  8
Visible (ANSI)
100
AcDbLine
 10
41.32341835776233
 20
104.3624072004053
 30
0.0
 11
74.07341835776233
 21
104.3624072004053
 31
0.0
  0
ARC
  5
1AD
330
37
100
AcDbEntity
  8
Visible (ANSI)
100
AcDbCircle
 10
74.07341835776233
 20
104.4874072004053
 30
0.0
 40
0.1250000000000038
100
AcDbArc
 50
270.0
 51
0.0
  0
LINE
  5
1AE
330
37
100
AcDbEntity
  8
Visible (ANSI)
100
AcDbLine
 10
41.32341835776233
 20
104.8624072004054
 30
0.0
 11
41.19841835776234
 21
104.8624072004053
 31
0.0
  0
LINE
  5
1AF
330
37
100
AcDbEntity
  8
Visible (ANSI)
100
AcDbLine
 10
41.19841835776233
 20
104.8624072004053
 30
0.0
 11
41.19841835776233
 21
104.4874072004053
 31
0.0
  0
LINE
  5
1B0
330
37
100
AcDbEntity
  8
Visible (ANSI)
100
AcDbLine
 10
41.32341835776233
 20
104.8624072004054
 30
0.0
 11
74.07341835776233
 21
104.8624072004054
 31
0.0
  0
LINE
  5
1B1
330
37
100
AcDbEntity
  8
Visible (ANSI)
100
AcDbLine
 10
74.19841835776233
 20
104.8624072004053
 30
0.0
 11
74.19841835776233
 21
104.4874072004053
 31
0.0
  0
LINE
  5
1B2
330
37
100
AcDbEntity
  8
Visible (ANSI)
100
AcDbLine
 10
74.19841835776233
 20
104.8624072004053
 30
0.0
 11
74.07341835776233
 21
104.8624072004054
 31
0.0
  0
LINE
  5
1B3
330
37
100
AcDbEntity
  8
Hidden (ANSI)
 48
0.0427556745707989
100
AcDbLine
 10
57.97966835776232
 20
104.4874072004051
 30
0.0
 11
57.97966835776232
 21
104.3624072004051
 31
0.0
  0
LINE
  5
1B4
330
37
100
AcDbEntity
  8
Hidden (ANSI)
 48
0.0427556745707989
100
AcDbLine
 10
57.41716835776233
 20
104.4874072004051
 30
0.0
 11
57.41716835776233
 21
104.3624072004051
 31
0.0
  0
LINE
  5
1B5
330
37
100
AcDbEntity
  8
Hidden (ANSI)
 48
0.0427556745707989
100
AcDbLine
 10
73.60466835776232
 20
104.4874072004051
 30
0.0
 11
73.60466835776232
 21
104.3624072004051
 31
0.0
  0
LINE
  5
1B6
330
37
100
AcDbEntity
  8
Hidden (ANSI)
 48
0.0427556745707989
100
AcDbLine
 10
73.04216835776232
 20
104.4874072004051
 30
0.0
 11
73.04216835776232
 21
104.3624072004051
 31
0.0
  0
LINE
  5
1B7
330
37
100
AcDbEntity
  8
Hidden (ANSI)
 48
0.0427556745707989
100
AcDbLine
 10
42.35466835776232
 20
104.4874072004051
 30
0.0
 11
42.35466835776232
 21
104.3624072004051
 31
0.0
  0
LINE
  5
1B8
330
37
100
AcDbEntity
  8
Hidden (ANSI)
 48
0.0427556745707989
100
AcDbLine
 10
41.79216835776233
 20
104.4874072004051
 30
0.0
 11
41.79216835776233
 21
104.3624072004051
 31
0.0
  0
ELLIPSE
  5
1B9
330
37
100
AcDbEntity
  8
Visible (ANSI)
100
AcDbEllipse
 10
133.6691319792481
 20
47.81266677086708
 30
0.0
 11
-0.1403528095081146
 21
0.2437265914158314
 31
0.0
210
0.0
220
0.0
230
1.0
 40
0.5780931159158108
 41
0.3190490395036507
 42
2.822543614086099
  0
ELLIPSE
  5
1BA
330
37
100
AcDbEntity
  8
Visible (ANSI)
100
AcDbEllipse
 10
133.5807436315997
 20
47.76176730664301
 30
0.0
 11
-0.1403528095081139
 21
0.2437265914158302
 31
0.0
210
0.0
220
0.0
230
1.0
 40
0.5780931159158106
 41
0.0000000000000027
 42
6.283185307179586
  0
ELLIPSE
  5
1BB
330
37
100
AcDbEntity
  8
Visible (ANSI)
100
AcDbEllipse
 10
133.669131979248
 20
92.98214541841739
 30
0.0
 11
-0.1403528095081146
 21
0.2437265914158314
 31
0.0
210
0.0
220
0.0
230
1.0
 40
0.5780931159158108
 41
0.3190490395037211
 42
2.822543614086186
  0
ELLIPSE
  5
1BC
330
37
100
AcDbEntity
  8
Visible (ANSI)
100
AcDbEllipse
 10
133.5807436315997
 20
92.93124595419333
 30
0.0
 11
-0.1403528095081139
 21
0.2437265914158302
 31
0.0
210
0.0
220
0.0
230
1.0
 40
0.5780931159158106
 41
0.0000000000000265
 42
6.283185307179586
  0
ELLIPSE
  5
1BD
330
37
100
AcDbEntity
  8
Visible (ANSI)
100
AcDbEllipse
 10
144.7176754352895
 20
86.61971239041312
 30
0.0
 11
-0.140352809508115
 21
0.2437265914158321
 31
0.0
210
0.0
220
0.0
230
1.0
 40
0.5780931159158107
 41
0.3190490395036507
 42
2.822543614086099
  0
ELLIPSE
  5
1BE
330
37
100
AcDbEntity
  8
Visible (ANSI)
100
AcDbEllipse
 10
144.6292870876412
 20
86.56881292618907
 30
0.0
 11
-0.1403528095081139
 21
0.2437265914158302
 31
0.0
210
0.0
220
0.0
230
1.0
 40
0.5780931159158106
 41
0.0
 42
6.28318530717953
  0
ELLIPSE
  5
1BF
330
37
100
AcDbEntity
  8
Visible (ANSI)
100
AcDbEllipse
 10
144.7176754352895
 20
64.03497306663798
 30
0.0
 11
-0.1403528095081147
 21
0.2437265914158317
 31
0.0
210
0.0
220
0.0
230
1.0
 40
0.5780931159158106
 41
0.3190490395035912
 42
2.822543614086099
  0
ELLIPSE
  5
1C0
330
37
100
AcDbEntity
  8
Visible (ANSI)
100
AcDbEllipse
 10
144.6292870876412
 20
63.98407360241392
 30
0.0
 11
-0.1403528095081139
 21
0.2437265914158302
 31
0.0
210
0.0
220
0.0
230
1.0
 40
0.5780931159158106
 41
0.0
 42
6.283185307179506
  0
ELLIPSE
  5
1C1
330
37
100
AcDbEntity
  8
Visible (ANSI)
100
AcDbEllipse
 10
144.7176754352895
 20
41.45023374286281
 30
0.0
 11
-0.1403528095081162
 21
0.2437265914158343
 31
0.0
210
0.0
220
0.0
230
1.0
 40
0.5780931159158105
 41
0.3190490395035912
 42
2.822543614086099
  0
ELLIPSE
  5
1C2
330
37
100
AcDbEntity
  8
Visible (ANSI)
100
AcDbEllipse
 10
144.6292870876412
 20
41.39933427863876
 30
0.0
 11
-0.1403528095081139
 21
0.2437265914158302
 31
0.0
210
0.0
220
0.0
230
1.0
 40
0.5780931159158106
 41
0.0
 42
6.283185307179506
  0
ELLIPSE
  5
1C3
330
37
100
AcDbEntity
  8
Visible (ANSI)
100
AcDbEllipse
 10
122.6205885232066
 20
54.17509979887135
 30
0.0
 11
-0.140352809508115
 21
0.2437265914158321
 31
0.0
210
0.0
220
0.0
230
1.0
 40
0.5780931159158107
 41
0.3190490395036507
 42
2.822543614086084
  0
ELLIPSE
  5
1C4
330
37
100
AcDbEntity
  8
Visible (ANSI)
100
AcDbEllipse
 10
122.5322001755583
 20
54.12420033464731
 30
0.0
 11
-0.1403528095081139
 21
0.2437265914158302
 31
0.0
210
0.0
220
0.0
230
1.0
 40
0.5780931159158106
 41
0.0000000000000027
 42
6.283185307179586
  0
ELLIPSE
  5
1C5
330
37
100
AcDbEntity
  8
Visible (ANSI)
100
AcDbEllipse
 10
122.6205885232066
 20
76.75983912264651
 30
0.0
 11
-0.1403528095081136
 21
0.2437265914158298
 31
0.0
210
0.0
220
0.0
230
1.0
 40
0.5780931159158106
 41
0.3190490395036518
 42
2.8225436140861
  0
ELLIPSE
  5
1C6
330
37
100
AcDbEntity
  8
Visible (ANSI)
100
AcDbEllipse
 10
122.5322001755583
 20
76.70893965842246
 30
0.0
 11
-0.1403528095081139
 21
0.2437265914158302
 31
0.0
210
0.0
220
0.0
230
1.0
 40
0.5780931159158106
 41
0.0000000000000265
 42
6.283185307179586
  0
ELLIPSE
  5
1C7
330
37
100
AcDbEntity
  8
Visible (ANSI)
100
AcDbEllipse
 10
122.6205885232066
 20
99.34457844642167
 30
0.0
 11
-0.140352809508115
 21
0.2437265914158321
 31
0.0
210
0.0
220
0.0
230
1.0
 40
0.5780931159158107
 41
0.3190490395037211
 42
2.822543614086186
  0
ELLIPSE
  5
1C8
330
37
100
AcDbEntity
  8
Visible (ANSI)
100
AcDbEllipse
 10
122.5322001755583
 20
99.29367898219762
 30
0.0
 11
-0.1403528095081139
 21
0.2437265914158302
 31
0.0
210
0.0
220
0.0
230
1.0
 40
0.5780931159158106
 41
0.0000000000000265
 42
6.283185307179586
  0
ELLIPSE
  5
1C9
330
37
100
AcDbEntity
  8
Visible Narrow (ANSI)
100
AcDbEllipse
 10
145.2480055211795
 20
40.5316766138867
 30
0.0
 11
-0.0623790264479935
 21
-0.1083229295181612
 31
0.0
210
0.0
220
0.0
230
1.0
 40
0.578093115915639
 41
5.495853435357858
 42
6.283185307178316
  0
LINE
  5
1CA
330
37
100
AcDbEntity
  8
Visible Narrow (ANSI)
100
AcDbLine
 10
145.1596171735312
 20
40.48077714966266
 30
0.0
 11
122.0018700896683
 21
53.8164367763596
 31
0.0
  0
ELLIPSE
  5
1CB
330
37
100
AcDbEntity
  8
Visible Narrow (ANSI)
100
AcDbEllipse
 10
122.0902584373166
 20
53.86733624058362
 30
0.0
 11
-0.0623790264480323
 21
-0.1083229295181439
 31
0.0
210
0.0
220
0.0
230
1.0
 40
0.5780931159157001
 41
5.495853435359245
 42
6.283185307179818
  0
ELLIPSE
  5
1CC
330
37
100
AcDbEntity
  8
Visible Narrow (ANSI)
100
AcDbEllipse
 10
122.0902584373166
 20
53.86733624058364
 30
0.0
 11
-0.125
 21
-0.0000000000000012
 31
0.0
210
0.0
220
0.0
230
1.0
 40
0.5758617009853119
 41
0.0
 42
0.7853981633974954
  0
LINE
  5
1CD
330
37
100
AcDbEntity
  8
Visible Narrow (ANSI)
100
AcDbLine
 10
122.0018700896683
 20
53.8164367763596
 30
0.0
 11
122.0018700896683
 21
100.2122361111737
 31
0.0
  0
ELLIPSE
  5
1CE
330
37
100
AcDbEntity
  8
Visible Narrow (ANSI)
100
AcDbEllipse
 10
122.0902584373166
 20
100.2631355753977
 30
0.0
 11
-0.1249999999999962
 21
0.0
 31
0.0
210
0.0
220
0.0
230
1.0
 40
0.5758617009853118
 41
0.0
 42
0.785398163397522
  0
ELLIPSE
  5
1CF
330
37
100
AcDbEntity
  8
Visible Narrow (ANSI)
100
AcDbEllipse
 10
122.0902584373166
 20
100.2631355753977
 30
0.0
 11
-0.0623790264480154
 21
-0.108322929518165
 31
0.0
210
0.0
220
0.0
230
0.9999999999999998
 40
0.5780931159156392
 41
3.925057108564035
 42
5.495853435358859
  0
LINE
  5
1D0
330
37
100
AcDbEntity
  8
Visible Narrow (ANSI)
100
AcDbLine
 10
122.0018700896683
 20
100.2122361111737
 30
0.0
 11
145.1596171735312
 21
86.87657648447677
 31
0.0
  0
ELLIPSE
  5
1D1
330
37
100
AcDbEntity
  8
Visible Narrow (ANSI)
100
AcDbEllipse
 10
145.2480055211795
 20
86.92747594870082
 30
0.0
 11
0.0623790264480297
 21
0.1083229295181598
 31
0.0
210
0.0
220
0.0
230
0.9999999999999998
 40
0.578093115915639
 41
0.7834644549745882
 42
2.354260781769561
  0
LINE
  5
1D2
330
37
100
AcDbEntity
  8
Visible Narrow (ANSI)
100
AcDbLine
 10
145.2480055211795
 20
87.02966933930612
 30
0.0
 11
122.0902584373166
 21
100.3653289660031
 31
0.0
  0
ELLIPSE
  5
1D3
330
37
100
AcDbEntity
  8
Visible Narrow (ANSI)
100
AcDbEllipse
 10
122.0902584373166
 20
100.2631355753977
 30
0.0
 11
-0.0623790264480609
 21
0.1083229295181646
 31
0.0
210
0.0
220
0.0
230
1.0
 40
0.5780931159158107
 41
5.499720852205022
 42
6.283185307179418
  0
ELLIPSE
  5
1D4
330
37
100
AcDbEntity
  8
Visible Narrow (ANSI)
100
AcDbEllipse
 10
145.2480055211795
 20
86.92747594870082
 30
0.0
 11
-0.1250000000000037
 21
0.0000000000000075
 31
0.0
210
0.0
220
0.0
230
1.0
 40
0.5758617009853118
 41
0.785398163397848
 42
2.356194490192773
  0
LINE
  5
1D5
330
37
100
AcDbEntity
  8
Visible Narrow (ANSI)
100
AcDbLine
 10
145.1596171735312
 20
86.87657648447675
 30
0.0
 11
145.1596171735312
 21
40.48077714966266
 31
0.0
  0
ELLIPSE
  5
1D6
330
37
100
AcDbEntity
  8
Visible Narrow (ANSI)
100
AcDbEllipse
 10
145.2480055211795
 20
40.53167661388671
 30
0.0
 11
0.1250000000000001
 21
0.0000000000000075
 31
0.0
210
0.0
220
0.0
230
1.0
 40
0.5758617009853118
 41
3.926990816987217
 42
5.497787143781966
  0
LINE
  5
1D7
330
37
100
AcDbEntity
  8
Visible Narrow (ANSI)
100
AcDbLine
 10
145.3363938688278
 20
40.48077714966267
 30
0.0
 11
145.3363938688278
 21
86.87657648447677
 31
0.0
  0
ELLIPSE
  5
1D8
330
37
100
AcDbEntity
  8
Visible Narrow (ANSI)
100
AcDbEllipse
 10
145.2480055211795
 20
86.92747594870082
 30
0.0
 11
-0.0623790264480534
 21
0.1083229295181367
 31
0.0
210
0.0
220
0.0
230
1.0
 40
0.5780931159158107
 41
3.928924525409908
 42
5.49972085220485
  0
ELLIPSE
  5
1D9
330
37
100
AcDbEntity
  8
Visible Narrow (ANSI)
100
AcDbEllipse
 10
145.2480055211795
 20
40.5316766138867
 30
0.0
 11
0.0623790264480204
 21
-0.1083229295181462
 31
0.0
210
0.0
220
0.0
230
1.0
 40
0.5780931159158106
 41
0.000000000001786
 42
0.787331871821542
  0
LINE
  5
1DA
330
37
100
AcDbEntity
  8
Visible (ANSI)
100
AcDbLine
 10
145.1856264947315
 20
40.42335368436854
 30
0.0
 11
122.0278794108686
 21
53.75901331106548
 31
0.0
  0
LINE
  5
1DB
330
37
100
AcDbEntity
  8
Visible (ANSI)
100
AcDbLine
 10
121.9652584373166
 20
53.86733624058364
 30
0.0
 11
121.9652584373166
 21
100.2631355753977
 31
0.0
  0
ARC
  5
1DC
330
37
100
AcDbEntity
  8
Visible (ANSI)
100
AcDbCircle
 10
122.0902584373166
 20
100.2631355753977
 30
0.0
 40
0.125
100
AcDbArc
 50
119.9359922624978
 51
180.0
  0
ARC
  5
1DD
330
37
100
AcDbEntity
  8
Visible (ANSI)
100
AcDbCircle
 10
122.0902584373166
 20
53.86733624058364
 30
0.0
 40
0.125
100
AcDbArc
 50
180.0
 51
240.0640077375181
  0
ARC
  5
1DE
330
37
100
AcDbEntity
  8
Visible (ANSI)
100
AcDbCircle
 10
145.2480055211794
 20
40.53167661388671
 30
0.0
 40
0.125
100
AcDbArc
 50
240.0640077375578
 51
299.9359922625058
  0
LINE
  5
1DF
330
37
100
AcDbEntity
  8
Visible Narrow (ANSI)
100
AcDbLine
 10
122.3554234802615
 20
100.5180273586752
 30
0.0
 11
122.0902584373166
 21
100.3653289660031
 31
0.0
  0
ELLIPSE
  5
1E0
330
37
100
AcDbEntity
  8
Visible (ANSI)
100
AcDbEllipse
 10
122.3554234802615
 20
100.4158339680699
 30
0.0
 11
-0.0623790264480382
 21
0.1083229295181061
 31
0.0
210
0.0
220
0.0
230
1.0
 40
0.5780931159158106
 41
5.499720852204275
 42
6.283185307178973
  0
LINE
  5
1E1
330
37
100
AcDbEntity
  8
Visible Narrow (ANSI)
100
AcDbLine
 10
145.5131705641244
 20
87.18236773197828
 30
0.0
 11
145.2480055211795
 21
87.02966933930612
 31
0.0
  0
LINE
  5
1E2
330
37
100
AcDbEntity
  8
Visible (ANSI)
100
AcDbLine
 10
122.3554234802615
 20
100.5180273586752
 30
0.0
 11
145.5131705641244
 21
87.18236773197828
 31
0.0
  0
LINE
  5
1E3
330
37
100
AcDbEntity
  8
Visible Narrow (ANSI)
100
AcDbLine
 10
145.6015589117727
 20
87.02927487714893
 30
0.0
 11
145.3363938688278
 21
86.87657648447677
 31
0.0
  0
ELLIPSE
  5
1E4
330
37
100
AcDbEntity
  8
Visible (ANSI)
100
AcDbEllipse
 10
145.5131705641244
 20
87.08017434137294
 30
0.0
 11
0.0623790264480433
 21
-0.108322929518149
 31
0.0
210
0.0
220
0.0
230
1.0
 40
0.5780931159158105
 41
0.7873318718207632
 42
2.358128198615402
  0
LINE
  5
1E5
330
37
100
AcDbEntity
  8
Visible Narrow (ANSI)
100
AcDbLine
 10
145.6015589117727
 20
40.63347554233482
 30
0.0
 11
145.3363938688278
 21
40.48077714966267
 31
0.0
  0
LINE
  5
1E6
330
37
100
AcDbEntity
  8
Visible (ANSI)
100
AcDbLine
 10
145.6015589117727
 20
87.02927487714893
 30
0.0
 11
145.6015589117727
 21
40.63347554233482
 31
0.0
  0
ELLIPSE
  5
1E7
330
37
100
AcDbEntity
  8
Visible (ANSI)
100
AcDbEllipse
 10
145.5131705641244
 20
40.68437500655885
 30
0.0
 11
0.0623790264480428
 21
-0.1083229295181331
 31
0.0
210
0.0
220
0.0
230
1.0
 40
0.5780931159158105
 41
0.0
 42
0.7873318718202107
  0
LINE
  5
1E8
330
37
100
AcDbEntity
  8
Visible (ANSI)
100
AcDbLine
 10
122.2930444538135
 20
100.524156897588
 30
0.0
 11
122.0278794108685
 21
100.3714585049159
 31
0.0
  0
LINE
  5
1E9
330
37
100
AcDbEntity
  8
Visible (ANSI)
100
AcDbLine
 10
145.5755495905725
 20
40.57605207704071
 30
0.0
 11
145.3103845476275
 21
40.42335368436856
 31
0.0
  0
DIMENSION
  5
1EA
330
37
100
AcDbEntity
  8
Dimension (ANSI)
100
AcDbDimension
280
     0
  2
*D6
 10
74.19841835776235
 20
90.62493358488575
 30
0.0
 11
57.69841835776233
 21
90.62493358488575
 31
0.0
 70
   160
  1
<>
 42
33.00000000000002
 73
     0
 74
     0
 75
     0
  3
Default (ANSI)
100
AcDbAlignedDimension
 13
41.19841835776233
 23
79.08276868471428
 33
0.0
 14
74.19841835776235
 24
79.08276868471428
 34
0.0
 50
180.0
100
AcDbRotatedDimension
1001
ACAD
1000
DSTYLE
1002
{
1070
   271
1070
     2
1070
   272
1070
     2
1070
    48
1040
0.0
1070
    47
1040
0.0
1002
}
  0
DIMENSION
  5
2BD
330
37
100
AcDbEntity
  8
Dimension (ANSI)
100
AcDbDimension
280
     0
  2
*D7
 10
73.32341835776232
 20
86.3473913905293
 30
0.0
 11
58.11801861673724
 21
86.3473913905293
 31
0.0
 70
   160
  1
<>
 42
31.25
 73
     0
 74
     0
 75
     0
  3
Default (ANSI)
100
AcDbAlignedDimension
 13
42.07341835776232
 23
78.33276868471428
 33
0.0
 14
73.32341835776232
 24
78.33276868471428
 34
0.0
 50
180.0
100
AcDbRotatedDimension
1001
ACAD
1000
DSTYLE
1002
{
1070
   271
1070
     3
1070
   272
1070
     2
1070
    48
1040
0.0
1070
    47
1040
0.0
1002
}
  0
DIMENSION
  5
38F
330
37
100
AcDbEntity
  8
Dimension (ANSI)
100
AcDbDimension
280
     0
  2
*D8
 10
88.07166857648503
 20
22.2077686847143
 30
0.0
 11
88.07166857648503
 21
50.7077686847143
 31
0.0
 70
   160
  1
<>
 42
56.99999999999998
 73
     0
 74
     0
 75
     0
  3
Default (ANSI)
100
AcDbAlignedDimension
 13
74.07341835776235
 23
79.20776868471428
 33
0.0
 14
74.07341835776238
 24
22.2077686847143
 34
0.0
 50
90.0
100
AcDbRotatedDimension
1001
ACAD
1000
DSTYLE
1002
{
1070
   271
1070
     2
1070
   272
1070
     2
1070
    48
1040
0.0
1070
    47
1040
0.0
1002
}
  0
DIMENSION
  5
461
330
37
100
AcDbEntity
  8
Dimension (ANSI)
100
AcDbDimension
280
     0
  2
*D9
 10
82.81518363785764
 20
23.08276868471428
 30
0.0
 11
82.81518363785764
 21
41.49926868471427
 31
0.0
 70
   160
  1
<>
 42
27.62499999999999
 73
     0
 74
     0
 75
     0
  3
Default (ANSI)
100
AcDbAlignedDimension
 13
73.32341835776232
 23
50.70776868471427
 33
0.0
 14
73.32341835776232
 24
23.08276868471428
 34
0.0
 50
90.0
100
AcDbRotatedDimension
1001
ACAD
1000
DSTYLE
1002
{
1070
   271
1070
     3
1070
   272
1070
     2
1070
    48
1040
0.0
1070
    47
1040
0.0
1002
}
  0
DIMENSION
  5
533
330
37
100
AcDbEntity
  8
Dimension (ANSI)
100
AcDbDimension
280
     0
  2
*D10
 10
74.19841835776235
 20
107.9690070498542
 30
0.0
 11
71.25434506627833
 21
107.9690070498542
 31
0.0
 70
   160
  1
<>
 42
0.1249999999999858
 73
     0
 74
     0
 75
     0
  3
Default (ANSI)
100
AcDbAlignedDimension
 13
74.07341835776236
 23
104.8624072004054
 33
0.0
 14
74.19841835776235
 24
104.8624072004054
 34
0.0
 50
180.0
100
AcDbRotatedDimension
1001
ACAD
1000
DSTYLE
1002
{
1070
   271
1070
     3
1070
   272
1070
     2
1070
    48
1040
0.0
1070
    47
1040
0.0
1002
}
  0
DIMENSION
  5
605
330
37
100
AcDbEntity
  8
Dimension (ANSI)
100
AcDbDimension
280
     0
  2
*D11
 10
76.74099514007412
 20
104.3624072004053
 30
0.0
 11
78.6953856834485
 21
107.3350628912698
 31
0.0
 70
   160
  1
<>
 42
0.5000000000000142
 73
     0
 74
     0
 75
     0
  3
Default (ANSI)
100
AcDbAlignedDimension
 13
74.19841835776235
 23
104.8624072004054
 33
0.0
 14
74.07341835776235
 24
104.3624072004053
 34
0.0
 50
90.0
100
AcDbRotatedDimension
1001
ACAD
1000
DSTYLE
1002
{
1070
   271
1070
     2
1070
   272
1070
     2
1070
    48
1040
0.0
1070
    47
1040
0.0
1002
}
  0
DIMENSION
  5
6EA
330
37
100
AcDbEntity
  8
Dimension (ANSI)
100
AcDbDimension
280
     0
  2
*D12
 10
74.07341835776239
 20
104.4874072004054
 30
0.0
 11
79.09257067000723
 21
100.6899021846207
 31
0.0
 70
   164
  1
<>
 42
0.1249999999999929
 73
     0
 74
     0
 75
     0
  3
Default (ANSI)
100
AcDbRadialDimension
 15
74.15003143604683
 25
104.3886375885008
 35
0.0
 40
0.0
1001
ACAD
1000
DSTYLE
1002
{
1070
   271
1070
     2
1070
   141
1040
0.0
1070
   272
1070
     2
1070
    48
1040
0.0
1070
    47
1040
0.0
1002
}
  0
MTEXT
  5
781
102
{ACAD_REACTORS
330
783
102
}
330
37
100
AcDbEntity
  8
Symbol (ANSI)
100
AcDbMText
 10
32.92684506548316
 20
83.46701614616591
 30
0.0
 40
0.6666666749059788
 41
5.982146307839077
 46
0.0
 71
     3
 72
     1
  1
{\fAIGDT|b0|i0;\H0.6667;n\fArial|b0|i0;\H0.6667;0.563 THRU}
  7
Note Text (ANSI)
 73
     2
 44
0.5333999991416932
  0
LEADER
  5
783
330
37
100
AcDbEntity
  8
Symbol (ANSI)
100
AcDbLeader
  3
Default (ANSI)$7
 73
     0
 40
0.8888888998746383
 41
5.821351157377113
 76
     3
 10
41.82984871294793
 20
78.47339368471423
 30
0.0
 10
33.75799117221982
 20
83.13368280871292
 30
0.0
 10
33.10182319321719
 20
83.13368280871292
 30
0.0
340
781
210
0.0
220
0.0
230
-1.0
213
0.0
223
-0.3333333374529894
233
0.0
1001
ACAD
1000
DSTYLE
1002
{
1070
    77
1070
     0
1002
}
  0
DIMENSION
  5
784
330
37
100
AcDbEntity
  8
Dimension (ANSI)
100
AcDbDimension
280
     0
  2
*D13
 10
82.81518363785766
 20
78.33276868471428
 30
0.0
 11
82.81518363785764
 21
64.88027430790511
 31
0.0
 70
   160
  1
<>
 42
27.62500000000001
 73
     0
 74
     0
 75
     0
  3
Default (ANSI)
100
AcDbAlignedDimension
 13
73.32341835776232
 23
50.70776868471427
 33
0.0
 14
73.32341835776232
 24
78.33276868471428
 34
0.0
 50
90.0
100
AcDbRotatedDimension
1001
ACAD
1000
DSTYLE
1002
{
1070
   271
1070
     3
1070
   272
1070
     2
1070
    48
1040
0.0
1070
    47
1040
0.0
1002
}
  0
DIMENSION
  5
856
330
37
100
AcDbEntity
  8
Dimension (ANSI)
100
AcDbDimension
280
     0
  2
*D14
 10
42.07341835776232
 20
82.52012030867662
 30
0.0
 11
49.82341835776233
 21
82.52012030867662
 31
0.0
 70
   160
  1
<>
 42
15.62500000000001
 73
     0
 74
     0
 75
     0
  3
Default (ANSI)
100
AcDbAlignedDimension
 13
57.69841835776233
 23
78.33276868471428
 33
0.0
 14
42.07341835776232
 24
78.33276868471428
 34
0.0
 50
180.0
100
AcDbRotatedDimension
1001
ACAD
1000
DSTYLE
1002
{
1070
   271
1070
     3
1070
   272
1070
     2
1070
    48
1040
0.0
1070
    47
1040
0.0
1002
}
  0
DIMENSION
  5
928
330
37
100
AcDbEntity
  8
Dimension (ANSI)
100
AcDbDimension
280
     0
  2
*D15
 10
74.19841835776235
 20
83.17970749795803
 30
0.0
 11
70.50472600409989
 21
83.17970749795803
 31
0.0
 70
   160
  1
<>
 42
0.8750000000000284
 73
     0
 74
     0
 75
     0
  3
Default (ANSI)
100
AcDbAlignedDimension
 13
73.32341835776232
 23
78.33276868471428
 33
0.0
 14
74.19841835776235
 24
79.08276868471428
 34
0.0
 50
180.0
100
AcDbRotatedDimension
1001
ACAD
1000
DSTYLE
1002
{
1070
   271
1070
     2
1070
   272
1070
     2
1070
    48
1040
0.0
1070
    47
1040
0.0
1002
}
  0
DIMENSION
  5
9FA
330
37
100
AcDbEntity
  8
Dimension (ANSI)
100
AcDbDimension
280
     0
  2
*D16
 10
80.10456320665175
 20
79.20776868471428
 30
0.0
 11
78.15017266327732
 21
75.86011299384984
 31
0.0
 70
   160
  1
<>
 42
0.875
 73
     0
 74
     0
 75
     0
  3
Default (ANSI)
100
AcDbAlignedDimension
 13
73.32341835776232
 23
78.33276868471428
 33
0.0
 14
74.07341835776235
 24
79.20776868471428
 34
0.0
 50
90.0
100
AcDbRotatedDimension
1001
ACAD
1000
DSTYLE
1002
{
1070
   271
1070
     2
1070
   272
1070
     2
1070
    48
1040
0.0
1070
    47
1040
0.0
1002
}
  0
MTEXT
  5
ADF
102
{ACAD_REACTORS
330
AE0
102
}
330
37
100
AcDbEntity
  8
Symbol (ANSI)
100
AcDbMText
 10
44.42307997041903
 20
101.303149370125
 30
0.0
 40
0.6666666749059788
 41
7.660569377041445
 46
0.0
 71
     3
 72
     1
  1
{CLEAR PVC FILM\PTHIS SIDE ONLY.}
  7
Note Text (ANSI)
 73
     2
 44
0.9442214965820312
  0
LEADER
  5
AE0
330
37
100
AcDbEntity
  8
Symbol (ANSI)
100
AcDbLeader
  3
Default (ANSI)$7
 73
     0
 40
1.938023909043121
 41
7.542519420184559
 76
     3
 10
47.2428896712923
 20
104.3624072004053
 30
0.0
 10
44.96988661958789
 20
100.969816032672
 30
0.0
 10
44.59805809815306
 20
100.969816032672
 30
0.0
340
ADF
213
0.0
223
-0.3333333374529894
233
0.0
1001
ACAD
1000
DSTYLE
1002
{
1070
    77
1070
     0
1002
}
  0
MTEXT
  5
AE1
330
37
100
AcDbEntity
  8
Symbol (ANSI)
100
AcDbMText
 10
95.45432196723089
 20
32.50335846008912
 30
0.0
 40
1.38888886802987
 41
58.33968715717785
 46
0.0
 71
     1
 72
     1
  1
{\fArial|b0|i0;\H1.3889;NOTE:\P \P1. PARTS TO BE FREE FROM BURRS & SHARP EDGES.\P2. PANELS MUST BE FLAT.\P3. PANEL TO HAVE CLEAR PVC FILM ON ONE SIDE AS NOTED.\P}
  7
Note Text (ANSI)
 73
     2
 44
0.7553771734237671
  0
MTEXT
  5
AE2
330
37
100
AcDbEntity
  8
Symbol (ANSI)
100
AcDbMText
 10
171.9443439499038
 20
12.32716667596976
 30
0.0
 40
1.333333349811957
 41
27.99016018111889
 46
0.0
 71
     5
 72
     1
  1
{\fArial|b0|i0;\H1.3333;HUBBELL WIEGMANN}
  7
Note Text (ANSI)
 73
     1
 44
1.0
  0
MTEXT
  5
AE3
330
37
100
AcDbEntity
  8
Symbol (ANSI)
100
AcDbMText
 10
178.0562115668431
 20
6.96831516197163
 30
0.0
 40
0.6666666749059788
 41
9.40410143651348
 46
0.0
 71
     1
 72
     1
  1
{HW-WM6036A}
  7
Note Text (ANSI)
 73
     1
 44
1.0
  0
ENDSEC
  0
SECTION
  2
OBJECTS
  0
DICTIONARY
  5
C
330
0
100
AcDbDictionary
281
     1
  3
ACAD_COLOR
350
30
  3
ACAD_GROUP
350
D
  3
ACAD_LAYOUT
350
2F
  3
ACAD_MATERIAL
350
10
  3
ACAD_MLEADERSTYLE
350
B21
  3
ACAD_MLINESTYLE
350
2C
  3
ACAD_PLOTSETTINGS
350
2E
  3
ACAD_PLOTSTYLENAME
350
E
  3
ACAD_SCALELIST
350
B0F
  3
ACAD_TABLESTYLE
350
31
  3
ACAD_VISUALSTYLE
350
14
  3
ACDB_RECOMPOSE_DATA
350
B35
  3
AcDbVariableDictionary
350
B02
  0
DICTIONARY
  5
AE4
330
8
100
AcDbDictionary
280
     1
281
     1
  0
DICTIONARY
  5
30
102
{ACAD_REACTORS
330
C
102
}
330
C
100
AcDbDictionary
281
     1
  0
DICTIONARY
  5
D
102
{ACAD_REACTORS
330
C
102
}
330
C
100
AcDbDictionary
281
     1
  0
DICTIONARY
  5
2F
102
{ACAD_REACTORS
330
C
102
}
330
C
100
AcDbDictionary
281
     1
  3
Layout1
350
36
  3
Layout2
350
3E
  3
Model
350
3A
  0
DICTIONARY
  5
10
102
{ACAD_REACTORS
330
C
102
}
330
C
100
AcDbDictionary
281
     1
  3
ByBlock
350
12
  3
ByLayer
350
11
  3
Global
350
13
  0
DICTIONARY
  5
B21
102
{ACAD_REACTORS
330
C
102
}
330
C
100
AcDbDictionary
281
     1
  3
Standard
350
B22
  0
DICTIONARY
  5
2C
102
{ACAD_REACTORS
330
C
102
}
330
C
100
AcDbDictionary
281
     1
  3
Standard
350
2D
  0
DICTIONARY
  5
2E
102
{ACAD_REACTORS
330
C
102
}
330
C
100
AcDbDictionary
281
     1
  0
ACDBDICTIONARYWDFLT
  5
E
102
{ACAD_REACTORS
330
C
102
}
330
C
100
AcDbDictionary
281
     1
  3
Normal
350
F
100
AcDbDictionaryWithDefault
340
F
  0
DICTIONARY
  5
B0F
102
{ACAD_REACTORS
330
C
102
}
330
C
100
AcDbDictionary
281
     1
  3
A0
350
B10
  3
A1
350
B11
  3
A2
350
B12
  3
A3
350
B13
  3
A4
350
B14
  3
A5
350
B15
  3
A6
350
B16
  3
A7
350
B17
  3
A8
350
B18
  3
A9
350
B19
  3
B0
350
B1A
  3
B1
350
B1B
  3
B2
350
B1C
  3
B3
350
B1D
  3
B4
350
B1E
  3
B5
350
B1F
  3
B6
350
B20
  0
DICTIONARY
  5
31
102
{ACAD_REACTORS
330
C
102
}
330
C
100
AcDbDictionary
281
     1
  3
Standard
350
32
  0
DICTIONARY
  5
14
102
{ACAD_REACTORS
330
C
102
}
330
C
100
AcDbDictionary
281
     1
  3
2dWireframe
350
1A
  3
3D Hidden
350
1C
  3
3dWireframe
350
1B
  3
Basic
350
19
  3
Brighten
350
20
  3
ColorChange
350
24
  3
Conceptual
350
1D
  3
Dim
350
1F
  3
EdgeColorOff
350
B0E
  3
Facepattern
350
23
  3
Flat
350
15
  3
FlatWithEdges
350
16
  3
Gouraud
350
17
  3
GouraudWithEdges
350
18
  3
Hidden
350
B06
  3
JitterOff
350
B0C
  3
Linepattern
350
22
  3
OverhangOff
350
B0D
  3
Realistic
350
1E
  3
Shaded
350
B0B
  3
Shaded with edges
350
B0A
  3
Shades of Gray
350
B07
  3
Sketchy
350
B08
  3
Thicken
350
21
  3
Wireframe
350
B05
  3
X-Ray
350
B09
  0
XRECORD
  5
B35
102
{ACAD_REACTORS
330
C
102
}
330
C
100
AcDbXrecord
280
     1
 90
        1
330
32
  0
DICTIONARY
  5
B02
102
{ACAD_REACTORS
330
C
102
}
330
C
100
AcDbDictionary
281
     1
  3
CANNOSCALE
350
B2F
  3
CMLEADERSTYLE
350
B2D
  3
CTABLESTYLE
350
B03
  3
LAYEREVAL
350
B31
  3
LAYERNOTIFY
350
B32
  3
LIGHTINGUNITS
350
B30
  3
MSLTSCALE
350
B2E
  0
LAYOUT
  5
36
102
{ACAD_REACTORS
330
2F
102
}
330
2F
100
AcDbPlotSettings
  1

  2

  4

  6

 40
0.0
 41
0.0
 42
0.0
 43
0.0
 44
0.0
 45
0.0
 46
0.0
 47
0.0
 48
0.0
 49
0.0
140
0.0
141
0.0
142
1.0
143
1.0
 70
   688
 72
     0
 73
     0
 74
     5
  7

 75
    16
147
1.0
 76
     0
 77
     2
 78
   300
148
0.0
149
0.0
100
AcDbLayout
  1
Layout1
 70
     1
 71
     1
 10
0.0
 20
0.0
 11
188.8888888888889
 21
122.2222222222222
 12
0.0
 22
0.0
 32
0.0
 14
0.0
 24
0.0
 34
0.0
 15
188.8888888888889
 25
122.2222222222222
 35
0.0
146
0.0
 13
0.0
 23
0.0
 33
0.0
 16
1.0
 26
0.0
 36
0.0
 17
0.0
 27
1.0
 37
0.0
 76
     0
330
33
  0
LAYOUT
  5
3E
102
{ACAD_REACTORS
330
2F
102
}
330
2F
100
AcDbPlotSettings
  1

  2

  4

  6

 40
0.0
 41
0.0
 42
0.0
 43
0.0
 44
0.0
 45
0.0
 46
0.0
 47
0.0
 48
0.0
 49
0.0
140
0.0
141
0.0
142
1.0
143
1.0
 70
   688
 72
     0
 73
     0
 74
     5
  7

 75
    16
147
1.0
 76
     0
 77
     2
 78
   300
148
0.0
149
0.0
100
AcDbLayout
  1
Layout2
 70
     1
 71
     2
 10
0.0
 20
0.0
 11
12.0
 21
9.0
 12
0.0
 22
0.0
 32
0.0
 14
0.0
 24
0.0
 34
0.0
 15
0.0
 25
0.0
 35
0.0
146
0.0
 13
0.0
 23
0.0
 33
0.0
 16
1.0
 26
0.0
 36
0.0
 17
0.0
 27
1.0
 37
0.0
 76
     0
330
3B
  0
LAYOUT
  5
3A
102
{ACAD_REACTORS
330
2F
102
}
330
2F
100
AcDbPlotSettings
  1

  2

  4

  6

 40
0.0
 41
0.0
 42
0.0
 43
0.0
 44
0.0
 45
0.0
 46
0.0
 47
0.0
 48
0.0
 49
0.0
140
0.0
141
0.0
142
1.0
143
1.0
 70
  1712
 72
     0
 73
     0
 74
     0
  7

 75
     0
147
1.0
 76
     0
 77
     2
 78
   300
148
0.0
149
0.0
100
AcDbLayout
  1
Model
 70
     1
 71
     0
 10
0.0
 20
0.0
 11
12.0
 21
9.0
 12
0.0
 22
0.0
 32
0.0
 14
0.0
 24
0.0
 34
0.0
 15
0.0
 25
0.0
 35
0.0
146
0.0
 13
0.0
 23
0.0
 33
0.0
 16
1.0
 26
0.0
 36
0.0
 17
0.0
 27
1.0
 37
0.0
 76
     0
330
37
331
28
  0
MATERIAL
  5
12
102
{ACAD_REACTORS
330
10
102
}
330
10
100
AcDbMaterial
  1
ByBlock
 73
     1
 78
     1
172
     1
176
     1
270
     1
274
     1
 94
       63
  0
MATERIAL
  5
11
102
{ACAD_REACTORS
330
10
102
}
330
10
100
AcDbMaterial
  1
ByLayer
 73
     1
 78
     1
172
     1
176
     1
270
     1
274
     1
 94
       63
  0
MATERIAL
  5
13
102
{ACAD_REACTORS
330
10
102
}
330
10
100
AcDbMaterial
  1
Global
 73
     1
 78
     1
172
     1
176
     1
270
     1
274
     1
 94
       63
  0
MLEADERSTYLE
  5
B22
102
{ACAD_REACTORS
330
B21
102
}
330
B21
100
AcDbMLeaderStyle
179
     2
170
     2
171
     1
172
     0
 90
        2
 40
0.0
 41
0.0
173
     1
 91
-1056964608
340
29
 92
       -2
290
     1
 42
0.09
291
     1
 43
0.36
  3
Standard
 44
0.18
300

342
26
174
     1
178
     6
175
     1
176
     0
 93
-1056964608
 45
0.18
292
     0
297
     0
 46
0.18
 94
-1056964608
 47
1.0
 49
1.0
140
1.0
293
     1
141
0.0
294
     1
177
     0
142
1.0
295
     1
296
     0
143
0.125
271
     0
272
     9
273
     9
  0
MLINESTYLE
  5
2D
102
{ACAD_REACTORS
330
2C
102
}
330
2C
100
AcDbMlineStyle
  2
STANDARD
 70
     0
  3

 62
   256
 51
90.0
 52
90.0
 71
     2
 49
0.5
 62
   256
  6
BYLAYER
 49
-0.5
 62
   256
  6
BYLAYER
  0
ACDBPLACEHOLDER
  5
F
102
{ACAD_REACTORS
330
E
102
}
330
E
  0
SCALE
  5
B10
102
{ACAD_REACTORS
330
B0F
102
}
330
B0F
100
AcDbScale
 70
     0
300
1:1
140
1.0
141
1.0
290
     1
  0
SCALE
  5
B11
102
{ACAD_REACTORS
330
B0F
102
}
330
B0F
100
AcDbScale
 70
     0
300
1/128" = 1'-0"
140
0.0078125
141
12.0
290
     0
  0
SCALE
  5
B12
102
{ACAD_REACTORS
330
B0F
102
}
330
B0F
100
AcDbScale
 70
     0
300
1/64" = 1'-0"
140
0.015625
141
12.0
290
     0
  0
SCALE
  5
B13
102
{ACAD_REACTORS
330
B0F
102
}
330
B0F
100
AcDbScale
 70
     0
300
1/32" = 1'-0"
140
0.03125
141
12.0
290
     0
  0
SCALE
  5
B14
102
{ACAD_REACTORS
330
B0F
102
}
330
B0F
100
AcDbScale
 70
     0
300
1/16" = 1'-0"
140
0.0625
141
12.0
290
     0
  0
SCALE
  5
B15
102
{ACAD_REACTORS
330
B0F
102
}
330
B0F
100
AcDbScale
 70
     0
300
3/32" = 1'-0"
140
0.09375
141
12.0
290
     0
  0
SCALE
  5
B16
102
{ACAD_REACTORS
330
B0F
102
}
330
B0F
100
AcDbScale
 70
     0
300
1/8" = 1'-0"
140
0.125
141
12.0
290
     0
  0
SCALE
  5
B17
102
{ACAD_REACTORS
330
B0F
102
}
330
B0F
100
AcDbScale
 70
     0
300
3/16" = 1'-0"
140
0.1875
141
12.0
290
     0
  0
SCALE
  5
B18
102
{ACAD_REACTORS
330
B0F
102
}
330
B0F
100
AcDbScale
 70
     0
300
1/4" = 1'-0"
140
0.25
141
12.0
290
     0
  0
SCALE
  5
B19
102
{ACAD_REACTORS
330
B0F
102
}
330
B0F
100
AcDbScale
 70
     0
300
3/8" = 1'-0"
140
0.375
141
12.0
290
     0
  0
SCALE
  5
B1A
102
{ACAD_REACTORS
330
B0F
102
}
330
B0F
100
AcDbScale
 70
     0
300
1/2" = 1'-0"
140
0.5
141
12.0
290
     0
  0
SCALE
  5
B1B
102
{ACAD_REACTORS
330
B0F
102
}
330
B0F
100
AcDbScale
 70
     0
300
3/4" = 1'-0"
140
0.75
141
12.0
290
     0
  0
SCALE
  5
B1C
102
{ACAD_REACTORS
330
B0F
102
}
330
B0F
100
AcDbScale
 70
     0
300
1" = 1'-0"
140
1.0
141
12.0
290
     0
  0
SCALE
  5
B1D
102
{ACAD_REACTORS
330
B0F
102
}
330
B0F
100
AcDbScale
 70
     0
300
1-1/2" = 1'-0"
140
1.5
141
12.0
290
     0
  0
SCALE
  5
B1E
102
{ACAD_REACTORS
330
B0F
102
}
330
B0F
100
AcDbScale
 70
     0
300
3" = 1'-0"
140
3.0
141
12.0
290
     0
  0
SCALE
  5
B1F
102
{ACAD_REACTORS
330
B0F
102
}
330
B0F
100
AcDbScale
 70
     0
300
6" = 1'-0"
140
6.0
141
12.0
290
     0
  0
SCALE
  5
B20
102
{ACAD_REACTORS
330
B0F
102
}
330
B0F
100
AcDbScale
 70
     0
300
1'-0" = 1'-0"
140
12.0
141
12.0
290
     0
  0
TABLESTYLE
  5
32
102
{ACAD_XDICTIONARY
360
B33
102
}
102
{ACAD_REACTORS
330
31
102
}
330
31
100
AcDbTableStyle
280
     0
  3
Standard
 70
     0
 71
     0
 40
0.06
 41
0.06
280
     0
281
     0
  7
Standard
140
0.18
170
     2
 62
     0
 63
     7
283
     0
 90
      512
 91
        0
  1

274
    -2
284
     1
 64
     0
275
    -2
285
     1
 65
     0
276
    -2
286
     1
 66
     0
277
    -2
287
     1
 67
     0
278
    -2
288
     1
 68
     0
279
    -2
289
     1
 69
     0
  7
Standard
140
0.25
170
     5
 62
     0
 63
     7
283
     0
 90
      512
 91
        0
  1

274
    -2
284
     1
 64
     0
275
    -2
285
     1
 65
     0
276
    -2
286
     1
 66
     0
277
    -2
287
     1
 67
     0
278
    -2
288
     1
 68
     0
279
    -2
289
     1
 69
     0
  7
Standard
140
0.18
170
     5
 62
     0
 63
     7
283
     0
 90
      512
 91
        0
  1

274
    -2
284
     1
 64
     0
275
    -2
285
     1
 65
     0
276
    -2
286
     1
 66
     0
277
    -2
287
     1
 67
     0
278
    -2
288
     1
 68
     0
279
    -2
289
     1
 69
     0
  0
VISUALSTYLE
  5
1A
102
{ACAD_REACTORS
330
14
102
}
330
14
100
AcDbVisualStyle
  2
2dWireframe
 70
     4
177
     2
291
     0
 71
     0
176
     1
 72
     2
176
     1
 73
     0
176
     1
 90
        0
176
     1
 40
0.6
176
     1
 41
30.0
176
     1
 63
     7
421
 16777215
176
     1
 74
     1
176
     1
 91
        4
176
     1
 64
     7
176
     1
 65
   257
176
     1
 75
     1
176
     1
175
     1
176
     1
 42
1.0
176
     1
 92
        0
176
     1
 66
   257
176
     1
 43
1.0
176
     1
 76
     1
176
     1
 77
     6
176
     1
 78
     2
176
     1
 67
     7
176
     1
 79
     5
176
     1
170
     0
176
     1
171
     0
176
     1
290
     0
176
     1
 93
        1
176
     1
 44
0.0
176
     1
173
     0
176
     1
  0
VISUALSTYLE
  5
1C
102
{ACAD_REACTORS
330
14
102
}
330
14
100
AcDbVisualStyle
  2
3D Hidden
 70
     6
177
     2
291
     0
 71
     1
176
     1
 72
     2
176
     1
 73
     2
176
     1
 90
        0
176
     1
 40
0.6
176
     1
 41
30.0
176
     1
 63
     7
421
 16777215
176
     1
 74
     2
176
     1
 91
        2
176
     1
 64
     7
176
     1
 65
   257
176
     1
 75
     2
176
     1
175
     1
176
     1
 42
40.0
176
     1
 92
        0
176
     1
 66
   257
176
     1
 43
1.0
176
     1
 76
     1
176
     1
 77
     6
176
     1
 78
     2
176
     1
 67
     7
176
     1
 79
     3
176
     1
170
     0
176
     1
171
     0
176
     1
290
     0
176
     1
 93
        1
176
     1
 44
0.0
176
     1
173
     0
176
     1
  0
VISUALSTYLE
  5
1B
102
{ACAD_REACTORS
330
14
102
}
330
14
100
AcDbVisualStyle
  2
3dWireframe
 70
     5
177
     2
291
     0
 71
     0
176
     1
 72
     2
176
     1
 73
     0
176
     1
 90
        0
176
     1
 40
0.6
176
     1
 41
30.0
176
     1
 63
     7
421
 16777215
176
     1
 74
     1
176
     1
 91
        4
176
     1
 64
     7
176
     1
 65
   257
176
     1
 75
     1
176
     1
175
     1
176
     1
 42
1.0
176
     1
 92
        0
176
     1
 66
   257
176
     1
 43
1.0
176
     1
 76
     1
176
     1
 77
     6
176
     1
 78
     2
176
     1
 67
     7
176
     1
 79
     5
176
     1
170
     0
176
     1
171
     0
176
     1
290
     0
176
     1
 93
        1
176
     1
 44
0.0
176
     1
173
     0
176
     1
  0
VISUALSTYLE
  5
19
102
{ACAD_REACTORS
330
14
102
}
330
14
100
AcDbVisualStyle
  2
Basic
 70
     7
177
     2
291
     1
 71
     1
176
     1
 72
     0
176
     1
 73
     1
176
     1
 90
        0
176
     1
 40
0.6
176
     1
 41
30.0
176
     1
 63
     7
421
 16777215
176
     1
 74
     0
176
     1
 91
        4
176
     1
 64
     7
176
     1
 65
   257
176
     1
 75
     1
176
     1
175
     1
176
     1
 42
1.0
176
     1
 92
        8
176
     1
 66
     7
176
     1
 43
1.0
176
     1
 76
     1
176
     1
 77
     6
176
     1
 78
     2
176
     1
 67
     7
176
     1
 79
     5
176
     1
170
     0
176
     1
171
     0
176
     1
290
     0
176
     1
 93
        1
176
     1
 44
0.0
176
     1
173
     0
176
     1
  0
VISUALSTYLE
  5
20
102
{ACAD_REACTORS
330
14
102
}
330
14
100
AcDbVisualStyle
  2
Brighten
 70
    12
177
     2
291
     1
 71
     2
176
     1
 72
     2
176
     1
 73
     0
176
     1
 90
        0
176
     1
 40
0.6
176
     1
 41
30.0
176
     1
 63
     7
421
 16777215
176
     1
 74
     1
176
     1
 91
        4
176
     1
 64
     7
176
     1
 65
   257
176
     1
 75
     1
176
     1
175
     1
176
     1
 42
1.0
176
     1
 92
        8
176
     1
 66
     7
176
     1
 43
1.0
176
     1
 76
     1
176
     1
 77
     6
176
     1
 78
     2
176
     1
 67
     7
176
     1
 79
     5
176
     1
170
     0
176
     1
171
     0
176
     1
290
     0
176
     1
 93
        1
176
     1
 44
50.0
176
     1
173
     0
176
     1
  0
VISUALSTYLE
  5
24
102
{ACAD_REACTORS
330
14
102
}
330
14
100
AcDbVisualStyle
  2
ColorChange
 70
    16
177
     2
291
     1
 71
     2
176
     1
 72
     2
176
     1
 73
     3
176
     1
 90
        0
176
     1
 40
0.6
176
     1
 41
30.0
176
     1
 63
     8
421
  8421504
176
     1
 74
     1
176
     1
 91
        4
176
     1
 64
     7
176
     1
 65
   257
176
     1
 75
     1
176
     1
175
     1
176
     1
 42
1.0
176
     1
 92
        8
176
     1
 66
     8
424
  8421504
176
     1
 43
1.0
176
     1
 76
     1
176
     1
 77
     6
176
     1
 78
     2
176
     1
 67
     7
176
     1
 79
     5
176
     1
170
     0
176
     1
171
     0
176
     1
290
     0
176
     1
 93
        1
176
     1
 44
0.0
176
     1
173
     0
176
     1
  0
VISUALSTYLE
  5
1D
102
{ACAD_REACTORS
330
14
102
}
330
14
100
AcDbVisualStyle
  2
Conceptual
 70
     9
177
     2
291
     0
 71
     3
176
     1
 72
     2
176
     1
 73
     0
176
     1
 90
        0
176
     1
 40
0.6
176
     1
 41
30.0
176
     1
 63
     7
421
 16777215
176
     1
 74
     2
176
     1
 91
        2
176
     1
 64
     7
176
     1
 65
   257
176
     1
 75
     1
176
     1
175
     1
176
     1
 42
40.0
176
     1
 92
        8
176
     1
 66
     7
176
     1
 43
1.0
176
     1
 76
     1
176
     1
 77
     6
176
     1
 78
     2
176
     1
 67
     7
176
     1
 79
     3
176
     1
170
     0
176
     1
171
     0
176
     1
290
     0
176
     1
 93
        1
176
     1
 44
0.0
176
     1
173
     0
176
     1
  0
VISUALSTYLE
  5
1F
102
{ACAD_REACTORS
330
14
102
}
330
14
100
AcDbVisualStyle
  2
Dim
 70
    11
177
     2
291
     1
 71
     2
176
     1
 72
     2
176
     1
 73
     0
176
     1
 90
        0
176
     1
 40
0.6
176
     1
 41
30.0
176
     1
 63
     7
421
 16777215
176
     1
 74
     1
176
     1
 91
        4
176
     1
 64
     7
176
     1
 65
   257
176
     1
 75
     1
176
     1
175
     1
176
     1
 42
1.0
176
     1
 92
        8
176
     1
 66
     7
176
     1
 43
1.0
176
     1
 76
     1
176
     1
 77
     6
176
     1
 78
     2
176
     1
 67
     7
176
     1
 79
     5
176
     1
170
     0
176
     1
171
     0
176
     1
290
     0
176
     1
 93
        1
176
     1
 44
-50.0
176
     1
173
     0
176
     1
  0
VISUALSTYLE
  5
B0E
102
{ACAD_REACTORS
330
14
102
}
330
14
100
AcDbVisualStyle
  2
EdgeColorOff
 70
    22
177
     2
291
     1
 71
     2
176
     0
 72
     2
176
     0
 73
     0
176
     0
 90
        0
176
     0
 40
0.6
176
     0
 41
30.0
176
     0
 63
     7
421
 16777215
176
     0
 74
     1
176
     0
 91
        4
176
     0
 64
     7
176
     0
 65
   257
176
     0
 75
     1
176
     0
175
     1
176
     0
 42
1.0
176
     0
 92
        8
176
     2
 66
     7
176
     0
 43
1.0
176
     0
 76
     1
176
     0
 77
     6
176
     0
 78
     2
176
     0
 67
     7
176
     0
 79
     5
176
     0
170
     0
176
     0
171
     0
176
     0
290
     0
176
     0
 93
        1
176
     0
 44
0.0
176
     0
173
     0
176
     0
  0
VISUALSTYLE
  5
23
102
{ACAD_REACTORS
330
14
102
}
330
14
100
AcDbVisualStyle
  2
Facepattern
 70
    15
177
     2
291
     1
 71
     2
176
     1
 72
     2
176
     1
 73
     0
176
     1
 90
        0
176
     1
 40
0.6
176
     1
 41
30.0
176
     1
 63
     7
421
 16777215
176
     1
 74
     1
176
     1
 91
        4
176
     1
 64
     7
176
     1
 65
   257
176
     1
 75
     1
176
     1
175
     1
176
     1
 42
1.0
176
     1
 92
        8
176
     1
 66
     7
176
     1
 43
1.0
176
     1
 76
     1
176
     1
 77
     6
176
     1
 78
     2
176
     1
 67
     7
176
     1
 79
     5
176
     1
170
     0
176
     1
171
     0
176
     1
290
     0
176
     1
 93
        1
176
     1
 44
0.0
176
     1
173
     0
176
     1
  0
VISUALSTYLE
  5
15
102
{ACAD_REACTORS
330
14
102
}
330
14
100
AcDbVisualStyle
  2
Flat
 70
     0
177
     2
291
     1
 71
     2
176
     1
 72
     1
176
     1
 73
     1
176
     1
 90
        2
176
     1
 40
0.6
176
     1
 41
30.0
176
     1
 63
     7
421
 16777215
176
     1
 74
     0
176
     1
 91
        4
176
     1
 64
     7
176
     1
 65
   257
176
     1
 75
     1
176
     1
175
     1
176
     1
 42
1.0
176
     1
 92
        8
176
     1
 66
     7
176
     1
 43
1.0
176
     1
 76
     1
176
     1
 77
     6
176
     1
 78
     2
176
     1
 67
     7
176
     1
 79
     5
176
     1
170
     0
176
     1
171
     0
176
     1
290
     0
176
     1
 93
       13
176
     1
 44
0.0
176
     1
173
     0
176
     1
  0
VISUALSTYLE
  5
16
102
{ACAD_REACTORS
330
14
102
}
330
14
100
AcDbVisualStyle
  2
FlatWithEdges
 70
     1
177
     2
291
     1
 71
     2
176
     1
 72
     1
176
     1
 73
     1
176
     1
 90
        2
176
     1
 40
0.6
176
     1
 41
30.0
176
     1
 63
     7
421
 16777215
176
     1
 74
     1
176
     1
 91
        4
176
     1
 64
     7
176
     1
 65
   257
176
     1
 75
     1
176
     1
175
     1
176
     1
 42
1.0
176
     1
 92
        0
176
     1
 66
   257
176
     1
 43
1.0
176
     1
 76
     1
176
     1
 77
     6
176
     1
 78
     2
176
     1
 67
     7
176
     1
 79
     5
176
     1
170
     0
176
     1
171
     0
176
     1
290
     0
176
     1
 93
       13
176
     1
 44
0.0
176
     1
173
     0
176
     1
  0
VISUALSTYLE
  5
17
102
{ACAD_REACTORS
330
14
102
}
330
14
100
AcDbVisualStyle
  2
Gouraud
 70
     2
177
     2
291
     1
 71
     2
176
     1
 72
     2
176
     1
 73
     1
176
     1
 90
        2
176
     1
 40
0.6
176
     1
 41
30.0
176
     1
 63
     7
421
 16777215
176
     1
 74
     0
176
     1
 91
        4
176
     1
 64
     7
176
     1
 65
   257
176
     1
 75
     1
176
     1
175
     1
176
     1
 42
1.0
176
     1
 92
        0
176
     1
 66
     7
176
     1
 43
1.0
176
     1
 76
     1
176
     1
 77
     6
176
     1
 78
     2
176
     1
 67
     7
176
     1
 79
     5
176
     1
170
     0
176
     1
171
     0
176
     1
290
     0
176
     1
 93
       13
176
     1
 44
0.0
176
     1
173
     0
176
     1
  0
VISUALSTYLE
  5
18
102
{ACAD_REACTORS
330
14
102
}
330
14
100
AcDbVisualStyle
  2
GouraudWithEdges
 70
     3
177
     2
291
     1
 71
     2
176
     1
 72
     2
176
     1
 73
     1
176
     1
 90
        2
176
     1
 40
0.6
176
     1
 41
30.0
176
     1
 63
     7
421
 16777215
176
     1
 74
     1
176
     1
 91
        4
176
     1
 64
     7
176
     1
 65
   257
176
     1
 75
     1
176
     1
175
     1
176
     1
 42
1.0
176
     1
 92
        0
176
     1
 66
   257
176
     1
 43
1.0
176
     1
 76
     1
176
     1
 77
     6
176
     1
 78
     2
176
     1
 67
     7
176
     1
 79
     5
176
     1
170
     0
176
     1
171
     0
176
     1
290
     0
176
     1
 93
       13
176
     1
 44
0.0
176
     1
173
     0
176
     1
  0
VISUALSTYLE
  5
B06
102
{ACAD_REACTORS
330
14
102
}
330
14
100
AcDbVisualStyle
  2
Hidden
 70
     6
177
     2
291
     0
 71
     1
176
     1
 72
     2
176
     1
 73
     2
176
     1
 90
        0
176
     1
 40
0.6
176
     1
 41
30.0
176
     1
 63
     7
421
 16777215
176
     1
 74
     2
176
     1
 91
        2
176
     1
 64
     7
176
     1
 65
   257
176
     1
 75
     2
176
     1
175
     1
176
     1
 42
40.0
176
     1
 92
        0
176
     1
 66
   257
176
     1
 43
1.0
176
     1
 76
     1
176
     1
 77
     6
176
     1
 78
     2
176
     1
 67
     7
176
     1
 79
     3
176
     1
170
     0
176
     1
171
     0
176
     1
290
     0
176
     1
 93
        1
176
     1
 44
0.0
176
     1
173
     0
176
     1
  0
VISUALSTYLE
  5
B0C
102
{ACAD_REACTORS
330
14
102
}
330
14
100
AcDbVisualStyle
  2
JitterOff
 70
    20
177
     2
291
     1
 71
     2
176
     0
 72
     2
176
     0
 73
     0
176
     0
 90
        0
176
     0
 40
0.6
176
     0
 41
30.0
176
     0
 63
     7
421
 16777215
176
     0
 74
     1
176
     0
 91
        4
176
     0
 64
     7
176
     0
 65
   257
176
     0
 75
     1
176
     0
175
     1
176
     0
 42
1.0
176
     0
 92
       10
176
     2
 66
     7
176
     0
 43
1.0
176
     0
 76
     1
176
     0
 77
     6
176
     0
 78
     2
176
     0
 67
     7
176
     0
 79
     5
176
     0
170
     0
176
     0
171
     0
176
     0
290
     0
176
     0
 93
        1
176
     0
 44
0.0
176
     0
173
     0
176
     0
  0
VISUALSTYLE
  5
22
102
{ACAD_REACTORS
330
14
102
}
330
14
100
AcDbVisualStyle
  2
Linepattern
 70
    14
177
     2
291
     1
 71
     2
176
     1
 72
     2
176
     1
 73
     0
176
     1
 90
        0
176
     1
 40
0.6
176
     1
 41
30.0
176
     1
 63
     7
421
 16777215
176
     1
 74
     1
176
     1
 91
        4
176
     1
 64
     7
176
     1
 65
   257
176
     1
 75
     7
176
     1
175
     7
176
     1
 42
1.0
176
     1
 92
        8
176
     1
 66
     7
176
     1
 43
1.0
176
     1
 76
     1
176
     1
 77
     6
176
     1
 78
     2
176
     1
 67
     7
176
     1
 79
     5
176
     1
170
     0
176
     1
171
     0
176
     1
290
     0
176
     1
 93
        1
176
     1
 44
0.0
176
     1
173
     0
176
     1
  0
VISUALSTYLE
  5
B0D
102
{ACAD_REACTORS
330
14
102
}
330
14
100
AcDbVisualStyle
  2
OverhangOff
 70
    21
177
     2
291
     1
 71
     2
176
     0
 72
     2
176
     0
 73
     0
176
     0
 90
        0
176
     0
 40
0.6
176
     0
 41
30.0
176
     0
 63
     7
421
 16777215
176
     0
 74
     1
176
     0
 91
        4
176
     0
 64
     7
176
     0
 65
   257
176
     0
 75
     1
176
     0
175
     1
176
     0
 42
1.0
176
     0
 92
        9
176
     2
 66
     7
176
     0
 43
1.0
176
     0
 76
     1
176
     0
 77
     6
176
     0
 78
     2
176
     0
 67
     7
176
     0
 79
     5
176
     0
170
     0
176
     0
171
     0
176
     0
290
     0
176
     0
 93
        1
176
     0
 44
0.0
176
     0
173
     0
176
     0
  0
VISUALSTYLE
  5
1E
102
{ACAD_REACTORS
330
14
102
}
330
14
100
AcDbVisualStyle
  2
Realistic
 70
     8
177
     2
291
     0
 71
     2
176
     1
 72
     2
176
     1
 73
     0
176
     1
 90
        0
176
     1
 40
0.6
176
     1
 41
30.0
176
     1
 63
     7
421
 16777215
176
     1
 74
     1
176
     1
 91
        0
176
     1
 64
     7
176
     1
 65
   257
176
     1
 75
     1
176
     1
175
     1
176
     1
 42
1.0
176
     1
 92
        8
176
     1
 66
     8
424
  7895160
176
     1
 43
1.0
176
     1
 76
     1
176
     1
 77
     6
176
     1
 78
     2
176
     1
 67
     7
176
     1
 79
     5
176
     1
170
     0
176
     1
171
     0
176
     1
290
     0
176
     1
 93
       13
176
     1
 44
0.0
176
     1
173
     0
176
     1
  0
VISUALSTYLE
  5
B0B
102
{ACAD_REACTORS
330
14
102
}
330
14
100
AcDbVisualStyle
  2
Shaded
 70
    27
177
     2
291
     0
 71
     2
176
     1
 72
     2
176
     1
 73
     1
176
     1
 90
        2
176
     1
 40
0.6
176
     1
 41
30.0
176
     1
 63
     7
421
 16777215
176
     1
 74
     0
176
     1
 91
        4
176
     1
 64
     7
176
     1
 65
   257
176
     1
 75
     1
176
     1
175
     1
176
     1
 42
1.0
176
     1
 92
        8
176
     1
 66
   257
176
     1
 43
1.0
176
     1
 76
     1
176
     1
 77
     6
176
     1
 78
     2
176
     1
 67
     8
425
  7895160
176
     1
 79
     3
176
     1
170
     0
176
     1
171
     0
176
     1
290
     0
176
     1
 93
        5
176
     1
 44
0.0
176
     1
173
     0
176
     1
  0
VISUALSTYLE
  5
B0A
102
{ACAD_REACTORS
330
14
102
}
330
14
100
AcDbVisualStyle
  2
Shaded with edges
 70
    26
177
     2
291
     0
 71
     2
176
     1
 72
     2
176
     1
 73
     1
176
     1
 90
        2
176
     1
 40
0.6
176
     1
 41
30.0
176
     1
 63
     7
421
 16777215
176
     1
 74
     1
176
     1
 91
       10
176
     1
 64
     7
176
     1
 65
   257
176
     1
 75
     2
176
     1
175
     1
176
     1
 42
1.0
176
     1
 92
        8
176
     1
 66
   257
176
     1
 43
1.0
176
     1
 76
     1
176
     1
 77
     6
176
     1
 78
     2
176
     1
 67
     7
176
     1
 79
     3
176
     1
170
     0
176
     1
171
     0
176
     1
290
     0
176
     1
 93
        5
176
     1
 44
0.0
176
     1
173
     0
176
     1
  0
VISUALSTYLE
  5
B07
102
{ACAD_REACTORS
330
14
102
}
330
14
100
AcDbVisualStyle
  2
Shades of Gray
 70
    23
177
     2
291
     0
 71
     2
176
     1
 72
     2
176
     1
 73
     3
176
     1
 90
        0
176
     1
 40
0.6
176
     1
 41
30.0
176
     1
 63
     7
421
 16777215
176
     1
 74
     2
176
     1
 91
        2
176
     1
 64
     7
176
     1
 65
     7
176
     1
 75
     1
176
     1
175
     1
176
     1
 42
40.0
176
     1
 92
        8
176
     1
 66
     7
176
     1
 43
1.0
176
     1
 76
     1
176
     1
 77
     6
176
     1
 78
     2
176
     1
 67
     7
176
     1
 79
     3
176
     1
170
     0
176
     1
171
     0
176
     1
290
     0
176
     1
 93
        1
176
     1
 44
0.0
176
     1
173
     0
176
     1
  0
VISUALSTYLE
  5
B08
102
{ACAD_REACTORS
330
14
102
}
330
14
100
AcDbVisualStyle
  2
Sketchy
 70
    24
177
     2
291
     0
 71
     1
176
     1
 72
     2
176
     1
 73
     2
176
     1
 90
        0
176
     1
 40
0.6
176
     1
 41
30.0
176
     1
 63
     7
421
 16777215
176
     1
 74
     2
176
     1
 91
        2
176
     1
 64
     7
176
     1
 65
     7
176
     1
 75
     1
176
     1
175
     1
176
     1
 42
40.0
176
     1
 92
       11
176
     1
 66
     7
176
     1
 43
1.0
176
     1
 76
     1
176
     1
 77
     6
176
     1
 78
     2
176
     1
 67
     7
176
     1
 79
     6
176
     1
170
     0
176
     1
171
     0
176
     1
290
     0
176
     1
 93
        1
176
     1
 44
0.0
176
     1
173
     0
176
     1
  0
VISUALSTYLE
  5
21
102
{ACAD_REACTORS
330
14
102
}
330
14
100
AcDbVisualStyle
  2
Thicken
 70
    13
177
     2
291
     1
 71
     2
176
     1
 72
     2
176
     1
 73
     0
176
     1
 90
        0
176
     1
 40
0.6
176
     1
 41
30.0
176
     1
 63
     7
421
 16777215
176
     1
 74
     1
176
     1
 91
        4
176
     1
 64
     7
176
     1
 65
   257
176
     1
 75
     1
176
     1
175
     1
176
     1
 42
1.0
176
     1
 92
       12
176
     1
 66
     7
176
     1
 43
1.0
176
     1
 76
     1
176
     1
 77
     6
176
     1
 78
     2
176
     1
 67
     7
176
     1
 79
     5
176
     1
170
     0
176
     1
171
     0
176
     1
290
     0
176
     1
 93
        1
176
     1
 44
0.0
176
     1
173
     0
176
     1
  0
VISUALSTYLE
  5
B05
102
{ACAD_REACTORS
330
14
102
}
330
14
100
AcDbVisualStyle
  2
Wireframe
 70
     5
177
     2
291
     0
 71
     0
176
     1
 72
     2
176
     1
 73
     0
176
     1
 90
        0
176
     1
 40
0.6
176
     1
 41
30.0
176
     1
 63
     7
421
 16777215
176
     1
 74
     1
176
     1
 91
        4
176
     1
 64
     7
176
     1
 65
   257
176
     1
 75
     1
176
     1
175
     1
176
     1
 42
1.0
176
     1
 92
        0
176
     1
 66
   257
176
     1
 43
1.0
176
     1
 76
     1
176
     1
 77
     6
176
     1
 78
     2
176
     1
 67
     7
176
     1
 79
     3
176
     1
170
     0
176
     1
171
     0
176
     1
290
     0
176
     1
 93
        1
176
     1
 44
0.0
176
     1
173
     0
176
     1
  0
VISUALSTYLE
  5
B09
102
{ACAD_REACTORS
330
14
102
}
330
14
100
AcDbVisualStyle
  2
X-Ray
 70
    25
177
     2
291
     0
 71
     2
176
     1
 72
     2
176
     1
 73
     1
176
     1
 90
        1
176
     1
 40
0.5
176
     1
 41
30.0
176
     1
 63
     7
421
 16777215
176
     1
 74
     1
176
     1
 91
        0
176
     1
 64
     7
176
     1
 65
   257
176
     1
 75
     1
176
     1
175
     1
176
     1
 42
1.0
176
     1
 92
        8
176
     1
 66
     7
176
     1
 43
1.0
176
     1
 76
     1
176
     1
 77
     6
176
     1
 78
     2
176
     1
 67
     7
176
     1
 79
     3
176
     1
170
     0
176
     1
171
     0
176
     1
290
     0
176
     1
 93
       13
176
     1
 44
0.0
176
     1
173
     0
176
     1
  0
DICTIONARYVAR
  5
B2F
102
{ACAD_REACTORS
330
B02
102
}
330
B02
100
DictionaryVariables
280
     0
  1
1:1
  0
DICTIONARYVAR
  5
B2D
102
{ACAD_REACTORS
330
B02
102
}
330
B02
100
DictionaryVariables
280
     0
  1
STANDARD
  0
DICTIONARYVAR
  5
B03
102
{ACAD_REACTORS
330
B02
102
}
330
B02
100
DictionaryVariables
280
     0
  1
STANDARD
  0
DICTIONARYVAR
  5
B31
102
{ACAD_REACTORS
330
B02
102
}
330
B02
100
DictionaryVariables
280
     0
  1
1
  0
DICTIONARYVAR
  5
B32
102
{ACAD_REACTORS
330
B02
102
}
330
B02
100
DictionaryVariables
280
     0
  1
15
  0
DICTIONARYVAR
  5
B30
102
{ACAD_REACTORS
330
B02
102
}
330
B02
100
DictionaryVariables
280
     0
  1
0
  0
DICTIONARYVAR
  5
B2E
102
{ACAD_REACTORS
330
B02
102
}
330
B02
100
DictionaryVariables
280
     0
  1
0
  0
DICTIONARY
  5
B33
330
32
100
AcDbDictionary
280
     1
281
     1
  3
ACAD_ROUNDTRIP_2008_TABLESTYLE_CELLSTYLEMAP
360
B34
  0
CELLSTYLEMAP
  5
B34
102
{ACAD_REACTORS
330
B33
102
}
330
B33
100
AcDbCellStyleMap
 90
        3
300
CELLSTYLE
  1
TABLEFORMAT_BEGIN
 90
        5
170
     1
 91
        0
 92
    32768
 62
   257
 93
        1
300
CONTENTFORMAT
  1
CONTENTFORMAT_BEGIN
 90
        0
 91
        0
 92
      512
 93
        0
300

 40
0.0
140
1.0
 94
        5
 62
     0
340
26
144
0.25
309
CONTENTFORMAT_END
171
     0
 94
        6
 95
        1
302
GRIDFORMAT
  1
GRIDFORMAT_BEGIN
 90
        0
 91
        1
 62
     0
 92
       -2
340
0
 93
        0
 40
0.045
309
GRIDFORMAT_END
 95
        2
302
GRIDFORMAT
  1
GRIDFORMAT_BEGIN
 90
        0
 91
        1
 62
     0
 92
       -2
340
0
 93
        0
 40
0.045
309
GRIDFORMAT_END
 95
        4
302
GRIDFORMAT
  1
GRIDFORMAT_BEGIN
 90
        0
 91
        1
 62
     0
 92
       -2
340
0
 93
        0
 40
0.045
309
GRIDFORMAT_END
 95
        8
302
GRIDFORMAT
  1
GRIDFORMAT_BEGIN
 90
        0
 91
        1
 62
     0
 92
       -2
340
0
 93
        0
 40
0.045
309
GRIDFORMAT_END
 95
       16
302
GRIDFORMAT
  1
GRIDFORMAT_BEGIN
 90
        0
 91
        1
 62
     0
 92
       -2
340
0
 93
        0
 40
0.045
309
GRIDFORMAT_END
 95
       32
302
GRIDFORMAT
  1
GRIDFORMAT_BEGIN
 90
        0
 91
        1
 62
     0
 92
       -2
340
0
 93
        0
 40
0.045
309
GRIDFORMAT_END
309
TABLEFORMAT_END
  1
CELLSTYLE_BEGIN
 90
        1
 91
        1
300
_TITLE
309
CELLSTYLE_END
300
CELLSTYLE
  1
TABLEFORMAT_BEGIN
 90
        5
170
     1
 91
        0
 92
        0
 62
   257
 93
        1
300
CONTENTFORMAT
  1
CONTENTFORMAT_BEGIN
 90
        0
 91
        0
 92
      512
 93
        0
300

 40
0.0
140
1.0
 94
        5
 62
     0
340
26
144
0.18
309
CONTENTFORMAT_END
171
     0
 94
        6
 95
        1
302
GRIDFORMAT
  1
GRIDFORMAT_BEGIN
 90
        0
 91
        1
 62
     0
 92
       -2
340
0
 93
        0
 40
0.045
309
GRIDFORMAT_END
 95
        2
302
GRIDFORMAT
  1
GRIDFORMAT_BEGIN
 90
        0
 91
        1
 62
     0
 92
       -2
340
0
 93
        0
 40
0.045
309
GRIDFORMAT_END
 95
        4
302
GRIDFORMAT
  1
GRIDFORMAT_BEGIN
 90
        0
 91
        1
 62
     0
 92
       -2
340
0
 93
        0
 40
0.045
309
GRIDFORMAT_END
 95
        8
302
GRIDFORMAT
  1
GRIDFORMAT_BEGIN
 90
        0
 91
        1
 62
     0
 92
       -2
340
0
 93
        0
 40
0.045
309
GRIDFORMAT_END
 95
       16
302
GRIDFORMAT
  1
GRIDFORMAT_BEGIN
 90
        0
 91
        1
 62
     0
 92
       -2
340
0
 93
        0
 40
0.045
309
GRIDFORMAT_END
 95
       32
302
GRIDFORMAT
  1
GRIDFORMAT_BEGIN
 90
        0
 91
        1
 62
     0
 92
       -2
340
0
 93
        0
 40
0.045
309
GRIDFORMAT_END
309
TABLEFORMAT_END
  1
CELLSTYLE_BEGIN
 90
        2
 91
        1
300
_HEADER
309
CELLSTYLE_END
300
CELLSTYLE
  1
TABLEFORMAT_BEGIN
 90
        5
170
     1
 91
        0
 92
        0
 62
   257
 93
        1
300
CONTENTFORMAT
  1
CONTENTFORMAT_BEGIN
 90
        0
 91
        0
 92
      512
 93
        0
300

 40
0.0
140
1.0
 94
        2
 62
     0
340
26
144
0.18
309
CONTENTFORMAT_END
171
     0
 94
        6
 95
        1
302
GRIDFORMAT
  1
GRIDFORMAT_BEGIN
 90
        0
 91
        1
 62
     0
 92
       -2
340
0
 93
        0
 40
0.045
309
GRIDFORMAT_END
 95
        2
302
GRIDFORMAT
  1
GRIDFORMAT_BEGIN
 90
        0
 91
        1
 62
     0
 92
       -2
340
0
 93
        0
 40
0.045
309
GRIDFORMAT_END
 95
        4
302
GRIDFORMAT
  1
GRIDFORMAT_BEGIN
 90
        0
 91
        1
 62
     0
 92
       -2
340
0
 93
        0
 40
0.045
309
GRIDFORMAT_END
 95
        8
302
GRIDFORMAT
  1
GRIDFORMAT_BEGIN
 90
        0
 91
        1
 62
     0
 92
       -2
340
0
 93
        0
 40
0.045
309
GRIDFORMAT_END
 95
       16
302
GRIDFORMAT
  1
GRIDFORMAT_BEGIN
 90
        0
 91
        1
 62
     0
 92
       -2
340
0
 93
        0
 40
0.045
309
GRIDFORMAT_END
 95
       32
302
GRIDFORMAT
  1
GRIDFORMAT_BEGIN
 90
        0
 91
        1
 62
     0
 92
       -2
340
0
 93
        0
 40
0.045
309
GRIDFORMAT_END
309
TABLEFORMAT_END
  1
CELLSTYLE_BEGIN
 90
        3
 91
        2
300
_DATA
309
CELLSTYLE_END
  0
ENDSEC
  0
EOF
