  0
SECTION
  2
HEADER
  9
$ACADVER
  1
AC1024
  9
$ACADMAINTVER
 70
    37
  9
$DWGCODEPAGE
  3
ANSI_1252
  9
$TITLE
  1
ENCLOSURE
  9
$AUTHOR
  1
ENTEGEE
  9
$LASTSAVEDBY
  1
jtigges
  9
$CUSTOMPROPERTYTAG
  1
Manager
  9
$CUSTOMPROPERTY
  1

  9
$CUSTOMPROPERTYTAG
  1
Company
  9
$CUSTOMPROPERTY
  1
STALIN ENCLOSURES
  9
$CUSTOMPROPERTYTAG
  1
Category
  9
$CUSTOMPROPERTY
  1

  9
$CUSTOMPROPERTYTAG
  1
Part Number
  9
$CUSTOMPROPERTY
  1
BP6036CS
  9
$CUSTOMPROPERTYTAG
  1
Description
  9
$CUSTOMPROPERTY
  1

  9
$CUSTOMPROPERTYTAG
  1
Project
  9
$CUSTOMPROPERTY
  1

  9
$CUSTOMPROPERTYTAG
  1
Designer
  9
$CUSTOMPROPERTY
  1
rginster
  9
$CUSTOMPROPERTYTAG
  1
Engineer
  9
$CUSTOMPROPERTY
  1

  9
$CUSTOMPROPERTYTAG
  1
Authority
  9
$CUSTOMPROPERTY
  1

  9
$CUSTOMPROPERTYTAG
  1
Cost Center
  9
$CUSTOMPROPERTY
  1

  9
$CUSTOMPROPERTYTAG
  1
Vendor
  9
$CUSTOMPROPERTY
  1

  9
$CUSTOMPROPERTYTAG
  1
User Status
  9
$CUSTOMPROPERTY
  1

  9
$CUSTOMPROPERTYTAG
  1
Design Status
  9
$CUSTOMPROPERTY
  1
WorkInProgress
  9
$CUSTOMPROPERTYTAG
  1
Checked by
  9
$CUSTOMPROPERTY
  1

  9
$CUSTOMPROPERTYTAG
  1
Engr Approved by
  9
$CUSTOMPROPERTY
  1

  9
$CUSTOMPROPERTYTAG
  1
Mfg Approved by
  9
$CUSTOMPROPERTY
  1

  9
$INSBASE
 10
0.0
 20
0.0
 30
0.0
  9
$EXTMIN
 10
0.6095891185216829
 20
3.740883198032236
 30
-0.0015258207003583
  9
$EXTMAX
 10
211.8904118710086
 20
133.759117442252
 30
0.0000000349246037
  9
$LIMMIN
 10
0.0
 20
0.0
  9
$LIMMAX
 10
212.5
 20
137.5
  9
$ORTHOMODE
 70
     0
  9
$REGENMODE
 70
     1
  9
$FILLMODE
 70
     1
  9
$QTEXTMODE
 70
     0
  9
$MIRRTEXT
 70
     0
  9
$LTSCALE
 40
6.25
  9
$ATTMODE
 70
     1
  9
$TEXTSIZE
 40
0.2
  9
$TRACEWID
 40
0.05
  9
$TEXTSTYLE
  7
Standard
  9
$CLAYER
  8
0
  9
$CELTYPE
  6
ByLayer
  9
$CECOLOR
 62
   256
  9
$CELTSCALE
 40
1.0
  9
$DISPSILH
 70
     0
  9
$DIMSCALE
 40
1.0
  9
$DIMASZ
 40
0.0708661417322835
  9
$DIMEXO
 40
0.0625
  9
$DIMDLI
 40
0.38
  9
$DIMRND
 40
0.0
  9
$DIMDLE
 40
0.0
  9
$DIMEXE
 40
0.18
  9
$DIMTP
 40
0.0
  9
$DIMTM
 40
0.0
  9
$DIMTXT
 40
0.3048000037670135
  9
$DIMCEN
 40
0.09
  9
$DIMTSZ
 40
0.0
  9
$DIMTOL
 70
     0
  9
$DIMLIM
 70
     0
  9
$DIMTIH
 70
     1
  9
$DIMTOH
 70
     1
  9
$DIMSE1
 70
     0
  9
$DIMSE2
 70
     0
  9
$DIMTAD
 70
     0
  9
$DIMZIN
 70
     0
  9
$DIMBLK
  1

  9
$DIMASO
 70
     1
  9
$DIMSHO
 70
     1
  9
$DIMPOST
  1

  9
$DIMAPOST
  1

  9
$DIMALT
 70
     0
  9
$DIMALTD
 70
     2
  9
$DIMALTF
 40
25.4
  9
$DIMLFAC
 40
1.0
  9
$DIMTOFL
 70
     0
  9
$DIMTVP
 40
0.0
  9
$DIMTIX
 70
     0
  9
$DIMSOXD
 70
     0
  9
$DIMSAH
 70
     0
  9
$DIMBLK1
  1

  9
$DIMBLK2
  1

  9
$DIMSTYLE
  2
Standard
  9
$DIMCLRD
 70
     0
  9
$DIMCLRE
 70
     0
  9
$DIMCLRT
 70
     0
  9
$DIMTFAC
 40
1.0
  9
$DIMGAP
 40
0.09
  9
$DIMJUST
 70
     0
  9
$DIMSD1
 70
     0
  9
$DIMSD2
 70
     0
  9
$DIMTOLJ
 70
     1
  9
$DIMTZIN
 70
     0
  9
$DIMALTZ
 70
     0
  9
$DIMALTTZ
 70
     0
  9
$DIMUPT
 70
     0
  9
$DIMDEC
 70
     4
  9
$DIMTDEC
 70
     4
  9
$DIMALTU
 70
     2
  9
$DIMALTTD
 70
     2
  9
$DIMTXSTY
  7
Standard
  9
$DIMAUNIT
 70
     0
  9
$DIMADEC
 70
     0
  9
$DIMALTRND
 40
0.0
  9
$DIMAZIN
 70
     0
  9
$DIMDSEP
 70
    46
  9
$DIMATFIT
 70
     3
  9
$DIMFRAC
 70
     0
  9
$DIMLDRBLK
  1

  9
$DIMLUNIT
 70
     2
  9
$DIMLWD
 70
    -2
  9
$DIMLWE
 70
    -2
  9
$DIMTMOVE
 70
     0
  9
$DIMFXL
 40
1.0
  9
$DIMFXLON
 70
     0
  9
$DIMJOGANG
 40
0.7853981633974483
  9
$DIMTFILL
 70
     0
  9
$DIMTFILLCLR
 70
     0
  9
$DIMARCSYM
 70
     0
  9
$DIMLTYPE
  6

  9
$DIMLTEX1
  6

  9
$DIMLTEX2
  6

  9
$DIMTXTDIRECTION
 70
     0
  9
$LUNITS
 70
     2
  9
$LUPREC
 70
     4
  9
$SKETCHINC
 40
0.1
  9
$FILLETRAD
 40
0.0
  9
$AUNITS
 70
     0
  9
$AUPREC
 70
     0
  9
$MENU
  1
.
  9
$ELEVATION
 40
0.0
  9
$PELEVATION
 40
0.0
  9
$THICKNESS
 40
0.0
  9
$LIMCHECK
 70
     0
  9
$CHAMFERA
 40
0.0
  9
$CHAMFERB
 40
0.0
  9
$CHAMFERC
 40
0.0
  9
$CHAMFERD
 40
0.0
  9
$SKPOLY
 70
     0
  9
$TDCREATE
 40
2454495.613103773
  9
$TDUCREATE
 40
2454495.863103773
  9
$TDUPDATE
 40
2456722.302898079
  9
$TDUUPDATE
 40
2456722.552898079
  9
$TDINDWG
 40
0.0000981134
  9
$TDUSRTIMER
 40
0.0000981134
  9
$USRTIMER
 70
     1
  9
$ANGBASE
 50
0.0
  9
$ANGDIR
 70
     0
  9
$PDMODE
 70
     0
  9
$PDSIZE
 40
0.0
  9
$PLINEWID
 40
0.0
  9
$SPLFRAME
 70
     0
  9
$SPLINETYPE
 70
     6
  9
$SPLINESEGS
 70
     8
  9
$HANDSEED
  5
B40
  9
$SURFTAB1
 70
     6
  9
$SURFTAB2
 70
     6
  9
$SURFTYPE
 70
     6
  9
$SURFU
 70
     6
  9
$SURFV
 70
     6
  9
$UCSBASE
  2

  9
$UCSNAME
  2

  9
$UCSORG
 10
0.0
 20
0.0
 30
0.0
  9
$UCSXDIR
 10
1.0
 20
0.0
 30
0.0
  9
$UCSYDIR
 10
0.0
 20
1.0
 30
0.0
  9
$UCSORTHOREF
  2

  9
$UCSORTHOVIEW
 70
     0
  9
$UCSORGTOP
 10
0.0
 20
0.0
 30
0.0
  9
$UCSORGBOTTOM
 10
0.0
 20
0.0
 30
0.0
  9
$UCSORGLEFT
 10
0.0
 20
0.0
 30
0.0
  9
$UCSORGRIGHT
 10
0.0
 20
0.0
 30
0.0
  9
$UCSORGFRONT
 10
0.0
 20
0.0
 30
0.0
  9
$UCSORGBACK
 10
0.0
 20
0.0
 30
0.0
  9
$PUCSBASE
  2

  9
$PUCSNAME
  2

  9
$PUCSORG
 10
0.0
 20
0.0
 30
0.0
  9
$PUCSXDIR
 10
1.0
 20
0.0
 30
0.0
  9
$PUCSYDIR
 10
0.0
 20
1.0
 30
0.0
  9
$PUCSORTHOREF
  2

  9
$PUCSORTHOVIEW
 70
     0
  9
$PUCSORGTOP
 10
0.0
 20
0.0
 30
0.0
  9
$PUCSORGBOTTOM
 10
0.0
 20
0.0
 30
0.0
  9
$PUCSORGLEFT
 10
0.0
 20
0.0
 30
0.0
  9
$PUCSORGRIGHT
 10
0.0
 20
0.0
 30
0.0
  9
$PUCSORGFRONT
 10
0.0
 20
0.0
 30
0.0
  9
$PUCSORGBACK
 10
0.0
 20
0.0
 30
0.0
  9
$USERI1
 70
     0
  9
$USERI2
 70
     0
  9
$USERI3
 70
     0
  9
$USERI4
 70
     0
  9
$USERI5
 70
     0
  9
$USERR1
 40
0.0
  9
$USERR2
 40
0.0
  9
$USERR3
 40
0.0
  9
$USERR4
 40
0.0
  9
$USERR5
 40
0.0
  9
$WORLDVIEW
 70
     1
  9
$SHADEDGE
 70
     3
  9
$SHADEDIF
 70
    70
  9
$TILEMODE
 70
     1
  9
$MAXACTVP
 70
    64
  9
$PINSBASE
 10
0.0
 20
0.0
 30
0.0
  9
$PLIMCHECK
 70
     0
  9
$PEXTMIN
 10
0.0
 20
0.0
 30
0.0
  9
$PEXTMAX
 10
212.5
 20
137.5
 30
0.0
  9
$PLIMMIN
 10
0.0
 20
0.0
  9
$PLIMMAX
 10
212.5
 20
137.5
  9
$UNITMODE
 70
     0
  9
$VISRETAIN
 70
     1
  9
$PLINEGEN
 70
     0
  9
$PSLTSCALE
 70
     1
  9
$TREEDEPTH
 70
  3020
  9
$CMLSTYLE
  2
Standard
  9
$CMLJUST
 70
     0
  9
$CMLSCALE
 40
1.0
  9
$PROXYGRAPHICS
 70
     1
  9
$MEASUREMENT
 70
     0
  9
$CELWEIGHT
370
    -1
  9
$ENDCAPS
280
     0
  9
$JOINSTYLE
280
     0
  9
$LWDISPLAY
290
     0
  9
$INSUNITS
 70
     0
  9
$HYPERLINKBASE
  1

  9
$STYLESHEET
  1

  9
$XEDIT
290
     1
  9
$CEPSNTYPE
380
     0
  9
$PSTYLEMODE
290
     1
  9
$FINGERPRINTGUID
  2
{691B10DC-6E6F-4388-BD3E-BD3AD537BB3F}
  9
$VERSIONGUID
  2
{9715BFFD-5128-45CE-9248-36B2377FF6DC}
  9
$EXTNAMES
290
     1
  9
$PSVPSCALE
 40
0.0
  9
$OLESTARTUP
290
     0
  9
$SORTENTS
280
   127
  9
$INDEXCTL
280
     0
  9
$HIDETEXT
280
     1
  9
$XCLIPFRAME
280
     0
  9
$HALOGAP
280
     0
  9
$OBSCOLOR
 70
   257
  9
$OBSLTYPE
280
     0
  9
$INTERSECTIONDISPLAY
280
     0
  9
$INTERSECTIONCOLOR
 70
   257
  9
$DIMASSOC
280
     1
  9
$PROJECTNAME
  1

  9
$CAMERADISPLAY
290
     0
  9
$LENSLENGTH
 40
50.0
  9
$CAMERAHEIGHT
 40
0.0
  9
$STEPSPERSEC
 40
2.0
  9
$STEPSIZE
 40
6.0
  9
$3DDWFPREC
 40
2.0
  9
$PSOLWIDTH
 40
0.25
  9
$PSOLHEIGHT
 40
4.0
  9
$LOFTANG1
 40
1.570796326794896
  9
$LOFTANG2
 40
1.570796326794896
  9
$LOFTMAG1
 40
0.0
  9
$LOFTMAG2
 40
0.0
  9
$LOFTPARAM
 70
     7
  9
$LOFTNORMALS
280
     1
  9
$LATITUDE
 40
37.795
  9
$LONGITUDE
 40
-122.394
  9
$NORTHDIRECTION
 40
0.0
  9
$TIMEZONE
 70
 -8000
  9
$LIGHTGLYPHDISPLAY
280
     1
  9
$TILEMODELIGHTSYNCH
280
     1
  9
$CMATERIAL
347
11
  9
$SOLIDHIST
280
     1
  9
$SHOWHIST
280
     1
  9
$DWFFRAME
280
     2
  9
$DGNFRAME
280
     0
  9
$REALWORLDSCALE
290
     1
  9
$INTERFERECOLOR
 62
     1
  9
$INTERFEREOBJVS
345
1E
  9
$INTERFEREVPVS
346
B0F
  9
$CSHADOW
280
     0
  9
$SHADOWPLANELOCATION
 40
0.0
  0
ENDSEC
  0
SECTION
  2
CLASSES
  0
CLASS
  1
ACDBDICTIONARYWDFLT
  2
AcDbDictionaryWithDefault
  3
ObjectDBX Classes
 90
        0
 91
        1
280
     0
281
     0
  0
CLASS
  1
MATERIAL
  2
AcDbMaterial
  3
ObjectDBX Classes
 90
     1153
 91
        3
280
     0
281
     0
  0
CLASS
  1
VISUALSTYLE
  2
AcDbVisualStyle
  3
ObjectDBX Classes
 90
     4095
 91
       26
280
     0
281
     0
  0
CLASS
  1
TABLESTYLE
  2
AcDbTableStyle
  3
ObjectDBX Classes
 90
     4095
 91
        1
280
     0
281
     0
  0
CLASS
  1
DICTIONARYVAR
  2
AcDbDictionaryVar
  3
ObjectDBX Classes
 90
        0
 91
        7
280
     0
281
     0
  0
CLASS
  1
SCALE
  2
AcDbScale
  3
ObjectDBX Classes
 90
     1153
 91
       17
280
     0
281
     0
  0
CLASS
  1
MLEADERSTYLE
  2
AcDbMLeaderStyle
  3
ACDB_MLEADERSTYLE_CLASS
 90
     4095
 91
        1
280
     0
281
     0
  0
CLASS
  1
CELLSTYLEMAP
  2
AcDbCellStyleMap
  3
ObjectDBX Classes
 90
     1152
 91
        1
280
     0
281
     0
  0
ENDSEC
  0
SECTION
  2
TABLES
  0
TABLE
  2
VPORT
  5
8
102
{ACAD_XDICTIONARY
360
AEE
102
}
330
0
100
AcDbSymbolTable
 70
     1
  0
VPORT
  5
28
330
8
100
AcDbSymbolTableRecord
100
AcDbViewportTableRecord
  2
*Active
 70
     0
 10
0.0
 20
0.0
 11
1.0
 21
1.0
 12
106.2500004947651
 22
68.75000032014213
 13
0.0
 23
0.0
 14
1.0
 24
1.0
 15
0.0
 25
0.0
 16
0.0
 26
0.0
 36
1.0
 17
0.0
 27
0.0
 37
0.0
 40
130.8997137984179
 41
2.16628959276018
 42
50.0
 43
0.0
 44
0.0
 50
0.0
 51
0.0
 71
     0
 72
   100
 73
     1
 74
     1
 75
     0
 76
     0
 77
     0
 78
     0
281
     0
 65
     1
110
0.0
120
0.0
130
0.0
111
1.0
121
0.0
131
0.0
112
0.0
122
1.0
132
0.0
 79
     0
146
0.0
348
1A
 60
     3
 61
     5
292
     1
282
     1
141
0.0
142
0.0
 63
   250
421
  3355443
  0
ENDTAB
  0
TABLE
  2
LTYPE
  5
5
330
0
100
AcDbSymbolTable
 70
    59
  0
LTYPE
  5
29
330
5
100
AcDbSymbolTableRecord
100
AcDbLinetypeTableRecord
  2
ByBlock
 70
     0
  3

 72
    65
 73
     0
 40
0.0
  0
LTYPE
  5
2A
330
5
100
AcDbSymbolTableRecord
100
AcDbLinetypeTableRecord
  2
ByLayer
 70
     0
  3

 72
    65
 73
     0
 40
0.0
  0
LTYPE
  5
2B
330
5
100
AcDbSymbolTableRecord
100
AcDbLinetypeTableRecord
  2
Continuous
 70
     0
  3
Solid line
 72
    65
 73
     0
 40
0.0
  0
LTYPE
  5
40
330
5
100
AcDbSymbolTableRecord
100
AcDbLinetypeTableRecord
  2
BY_STANDARD
 70
     0
  3
By Standard ____________    ____    ____   _
 72
    65
 73
     6
 40
1.240299999999999
 49
0.6614
 74
     0
 49
-0.0827
 74
     0
 49
0.1654
 74
     0
 49
-0.0827
 74
     0
 49
0.1654
 74
     0
 49
-0.0827
 74
     0
  0
LTYPE
  5
41
330
5
100
AcDbSymbolTableRecord
100
AcDbLinetypeTableRecord
  2
CHAIN
 70
     0
  3
Chain ____ _ ____ _ ____ _ ____ _ ____ _ ____
 72
    65
 73
     4
 40
0.7087
 49
0.4724000000000001
 74
     0
 49
-0.0591
 74
     0
 49
0.1181
 74
     0
 49
-0.0591
 74
     0
  0
LTYPE
  5
42
330
5
100
AcDbSymbolTableRecord
100
AcDbLinetypeTableRecord
  2
DASH_DOT
 70
     0
  3
Dash dot __ . __ . __ . __ . __ . __ . __ . __
 72
    65
 73
     4
 40
0.37
 49
0.24
 74
     0
 49
-0.06
 74
     0
 49
0.01
 74
     0
 49
-0.06
 74
     0
  0
LTYPE
  5
43
330
5
100
AcDbSymbolTableRecord
100
AcDbLinetypeTableRecord
  2
DOUBLE_DASH_DOT
 70
     0
  3
Double-Dash Dot __ __ . __ __ . __ __ . __ _
 72
    65
 73
     6
 40
0.4398
 49
0.24
 74
     0
 49
-0.06
 74
     0
 49
0.0098
 74
     0
 49
-0.06
 74
     0
 49
0.01
 74
     0
 49
-0.06
 74
     0
  0
LTYPE
  5
44
330
5
100
AcDbSymbolTableRecord
100
AcDbLinetypeTableRecord
  2
DASH_TRIPLE_DOT
 70
     0
  3
Dash Triple-Dot _ . . . _ . . . _ . . . _
 72
    65
 73
     8
 40
0.51
 49
0.24
 74
     0
 49
-0.06
 74
     0
 49
0.01
 74
     0
 49
-0.06
 74
     0
 49
0.01
 74
     0
 49
-0.06
 74
     0
 49
0.01
 74
     0
 49
-0.06
 74
     0
  0
LTYPE
  5
45
330
5
100
AcDbSymbolTableRecord
100
AcDbLinetypeTableRecord
  2
DASHED
 70
     0
  3
Dashed __ __ __ __ __ __ __ __ __ __ __ __ __ _
 72
    65
 73
     2
 40
0.2067
 49
0.1654
 74
     0
 49
-0.0413
 74
     0
  0
LTYPE
  5
46
330
5
100
AcDbSymbolTableRecord
100
AcDbLinetypeTableRecord
  2
DASH_DOUBLE_DOT
 70
     0
  3
Dash Double-Dot __ . . __ . . __ . . __ . .
 72
    65
 73
     6
 40
0.4398
 49
0.24
 74
     0
 49
-0.06
 74
     0
 49
0.0098
 74
     0
 49
-0.06
 74
     0
 49
0.01
 74
     0
 49
-0.06
 74
     0
  0
LTYPE
  5
47
330
5
100
AcDbSymbolTableRecord
100
AcDbLinetypeTableRecord
  2
DASHED_SPACE
 70
     0
  3
Dashed Space __ __ __ __ __ __ __ __ __ __ __ _
 72
    65
 73
     2
 40
0.2067
 49
0.1654
 74
     0
 49
-0.0413
 74
     0
  0
LTYPE
  5
48
330
5
100
AcDbSymbolTableRecord
100
AcDbLinetypeTableRecord
  2
DOTTED
 70
     0
  3
Dotted . . . . . . . . . . . . . . . . . . . . 
 72
    65
 73
     2
 40
0.0482
 49
0.0069
 74
     0
 49
-0.0413
 74
     0
  0
LTYPE
  5
49
330
5
100
AcDbSymbolTableRecord
100
AcDbLinetypeTableRecord
  2
DOUBLE_DASH_CHAIN
 70
     0
  3
Double-Dash Chain ______  __  __  ______  __  _
 72
    65
 73
     6
 40
1.240299999999999
 49
0.6614
 74
     0
 49
-0.0827
 74
     0
 49
0.1654
 74
     0
 49
-0.0827
 74
     0
 49
0.1654
 74
     0
 49
-0.0827
 74
     0
  0
LTYPE
  5
4B
330
5
100
AcDbSymbolTableRecord
100
AcDbLinetypeTableRecord
  2
DOUBLE_DASH_DOUBLE_DOT
 70
     0
  3
Double-Dash Double-dot _ _ . . _ _ . . _
 72
    65
 73
     8
 40
0.7400000000000001
 49
0.24
 74
     0
 49
-0.06
 74
     0
 49
0.24
 74
     0
 49
-0.06
 74
     0
 49
0.01
 74
     0
 49
-0.06
 74
     0
 49
0.01
 74
     0
 49
-0.06
 74
     0
  0
LTYPE
  5
4C
330
5
100
AcDbSymbolTableRecord
100
AcDbLinetypeTableRecord
  2
DOUBLE_DASH_TRIPLE_DOT
 70
     0
  3
Double Dash Triple Dot __ __ . . . __ __ . .
 72
    65
 73
    10
 40
0.8100000000000001
 49
0.24
 74
     0
 49
-0.06
 74
     0
 49
0.24
 74
     0
 49
-0.06
 74
     0
 49
0.01
 74
     0
 49
-0.06
 74
     0
 49
0.01
 74
     0
 49
-0.06
 74
     0
 49
0.01
 74
     0
 49
-0.06
 74
     0
  0
LTYPE
  5
4D
330
5
100
AcDbSymbolTableRecord
100
AcDbLinetypeTableRecord
  2
LONG_DASH_DOTTED
 70
     0
  3
Long Dash Dotted ____ . ____ . ____ . ____ . _
 72
    65
 73
     4
 40
0.3543
 49
0.2362
 74
     0
 49
-0.0295
 74
     0
 49
0.0591
 74
     0
 49
-0.0295
 74
     0
  0
LTYPE
  5
4E
330
5
100
AcDbSymbolTableRecord
100
AcDbLinetypeTableRecord
  2
LONG_DASH_DOUBLE_DOT
 70
     0
  3
Long Dash Double Dot ________  .  .  ________  
 72
    65
 73
     6
 40
0.6799999999999999
 49
0.48
 74
     0
 49
-0.06
 74
     0
 49
0.01
 74
     0
 49
-0.06
 74
     0
 49
0.01
 74
     0
 49
-0.06
 74
     0
  0
LTYPE
  5
4F
330
5
100
AcDbSymbolTableRecord
100
AcDbLinetypeTableRecord
  2
LONG_DASH_TRIPLE_DOT
 70
     0
  3
Long Dash Triple Dot ____ ... ____ ... ____
 72
    65
 73
     8
 40
0.3689
 49
0.2362
 74
     0
 49
-0.0295
 74
     0
 49
0.0049
 74
     0
 49
-0.0295
 74
     0
 49
0.0049
 74
     0
 49
-0.0295
 74
     0
 49
0.0049
 74
     0
 49
-0.0295
 74
     0
  0
LTYPE
  5
50
330
5
100
AcDbSymbolTableRecord
100
AcDbLinetypeTableRecord
  2
BORDER
 70
     0
  3
Border __ __ . __ __ . __ __ . __ __ . __ __ .
 72
    65
 73
     6
 40
1.75
 49
0.5
 74
     0
 49
-0.25
 74
     0
 49
0.5
 74
     0
 49
-0.25
 74
     0
 49
0.0
 74
     0
 49
-0.25
 74
     0
  0
LTYPE
  5
51
330
5
100
AcDbSymbolTableRecord
100
AcDbLinetypeTableRecord
  2
BORDER2
 70
     0
  3
Border (.5x) __.__.__.__.__.__.__.__.__.__.__.
 72
    65
 73
     6
 40
0.875
 49
0.25
 74
     0
 49
-0.125
 74
     0
 49
0.25
 74
     0
 49
-0.125
 74
     0
 49
0.0
 74
     0
 49
-0.125
 74
     0
  0
LTYPE
  5
52
330
5
100
AcDbSymbolTableRecord
100
AcDbLinetypeTableRecord
  2
BORDERX2
 70
     0
  3
Border (2x) ____  ____  .  ____  ____  .  ___
 72
    65
 73
     6
 40
3.5
 49
1.0
 74
     0
 49
-0.5
 74
     0
 49
1.0
 74
     0
 49
-0.5
 74
     0
 49
0.0
 74
     0
 49
-0.5
 74
     0
  0
LTYPE
  5
53
330
5
100
AcDbSymbolTableRecord
100
AcDbLinetypeTableRecord
  2
CENTER
 70
     0
  3
Center ____ _ ____ _ ____ _ ____ _ ____ _ ____
 72
    65
 73
     4
 40
2.0
 49
1.25
 74
     0
 49
-0.25
 74
     0
 49
0.25
 74
     0
 49
-0.25
 74
     0
  0
LTYPE
  5
54
330
5
100
AcDbSymbolTableRecord
100
AcDbLinetypeTableRecord
  2
CENTER2
 70
     0
  3
Center (.5x) ___ _ ___ _ ___ _ ___ _ ___ _ ___
 72
    65
 73
     4
 40
1.125
 49
0.75
 74
     0
 49
-0.125
 74
     0
 49
0.125
 74
     0
 49
-0.125
 74
     0
  0
LTYPE
  5
55
330
5
100
AcDbSymbolTableRecord
100
AcDbLinetypeTableRecord
  2
CENTERX2
 70
     0
  3
Center (2x) ________  __  ________  __  _____
 72
    65
 73
     4
 40
4.0
 49
2.5
 74
     0
 49
-0.5
 74
     0
 49
0.5
 74
     0
 49
-0.5
 74
     0
  0
LTYPE
  5
56
330
5
100
AcDbSymbolTableRecord
100
AcDbLinetypeTableRecord
  2
DASHDOT2
 70
     0
  3
Dash dot (.5x) _._._._._._._._._._._._._._._.
 72
    65
 73
     4
 40
0.5
 49
0.25
 74
     0
 49
-0.125
 74
     0
 49
0.0
 74
     0
 49
-0.125
 74
     0
  0
LTYPE
  5
57
330
5
100
AcDbSymbolTableRecord
100
AcDbLinetypeTableRecord
  2
DASHDOTX2
 70
     0
  3
Dash dot (2x) ____  .  ____  .  ____  .  ___
 72
    65
 73
     4
 40
2.0
 49
1.0
 74
     0
 49
-0.5
 74
     0
 49
0.0
 74
     0
 49
-0.5
 74
     0
  0
LTYPE
  5
59
330
5
100
AcDbSymbolTableRecord
100
AcDbLinetypeTableRecord
  2
DASHED2
 70
     0
  3
Dashed (.5x) _ _ _ _ _ _ _ _ _ _ _ _ _ _ _ _ _
 72
    65
 73
     2
 40
0.375
 49
0.25
 74
     0
 49
-0.125
 74
     0
  0
LTYPE
  5
5A
330
5
100
AcDbSymbolTableRecord
100
AcDbLinetypeTableRecord
  2
DASHEDX2
 70
     0
  3
Dashed (2x) ____  ____  ____  ____  ____  ___
 72
    65
 73
     2
 40
1.5
 49
1.0
 74
     0
 49
-0.5
 74
     0
  0
LTYPE
  5
5B
330
5
100
AcDbSymbolTableRecord
100
AcDbLinetypeTableRecord
  2
DIVIDE
 70
     0
  3
Divide ____ . . ____ . . ____ . . ____ . . ____
 72
    65
 73
     6
 40
1.25
 49
0.5
 74
     0
 49
-0.25
 74
     0
 49
0.0
 74
     0
 49
-0.25
 74
     0
 49
0.0
 74
     0
 49
-0.25
 74
     0
  0
LTYPE
  5
5C
330
5
100
AcDbSymbolTableRecord
100
AcDbLinetypeTableRecord
  2
DIVIDE2
 70
     0
  3
Divide (.5x) __..__..__..__..__..__..__..__.._
 72
    65
 73
     6
 40
0.625
 49
0.25
 74
     0
 49
-0.125
 74
     0
 49
0.0
 74
     0
 49
-0.125
 74
     0
 49
0.0
 74
     0
 49
-0.125
 74
     0
  0
LTYPE
  5
5D
330
5
100
AcDbSymbolTableRecord
100
AcDbLinetypeTableRecord
  2
DIVIDEX2
 70
     0
  3
Divide (2x) ________  .  .  ________  .  .  _
 72
    65
 73
     6
 40
2.5
 49
1.0
 74
     0
 49
-0.5
 74
     0
 49
0.0
 74
     0
 49
-0.5
 74
     0
 49
0.0
 74
     0
 49
-0.5
 74
     0
  0
LTYPE
  5
5E
330
5
100
AcDbSymbolTableRecord
100
AcDbLinetypeTableRecord
  2
DOT
 70
     0
  3
Dot . . . . . . . . . . . . . . . . . . . . . .
 72
    65
 73
     2
 40
0.25
 49
0.0
 74
     0
 49
-0.25
 74
     0
  0
LTYPE
  5
5F
330
5
100
AcDbSymbolTableRecord
100
AcDbLinetypeTableRecord
  2
DOT2
 70
     0
  3
Dot (.5x) .....................................
 72
    65
 73
     2
 40
0.125
 49
0.0
 74
     0
 49
-0.125
 74
     0
  0
LTYPE
  5
60
330
5
100
AcDbSymbolTableRecord
100
AcDbLinetypeTableRecord
  2
DOTX2
 70
     0
  3
Dot (2x) .  .  .  .  .  .  .  .  .  .  .  .  . 
 72
    65
 73
     2
 40
0.5
 49
0.0
 74
     0
 49
-0.5
 74
     0
  0
LTYPE
  5
61
330
5
100
AcDbSymbolTableRecord
100
AcDbLinetypeTableRecord
  2
HIDDEN
 70
     0
  3
Hidden __ __ __ __ __ __ __ __ __ __ __ __ __ _
 72
    65
 73
     2
 40
0.375
 49
0.25
 74
     0
 49
-0.125
 74
     0
  0
LTYPE
  5
62
330
5
100
AcDbSymbolTableRecord
100
AcDbLinetypeTableRecord
  2
HIDDEN2
 70
     0
  3
Hidden (.5x) _ _ _ _ _ _ _ _ _ _ _ _ _ _ _ _ _
 72
    65
 73
     2
 40
0.1875
 49
0.125
 74
     0
 49
-0.0625
 74
     0
  0
LTYPE
  5
63
330
5
100
AcDbSymbolTableRecord
100
AcDbLinetypeTableRecord
  2
HIDDENX2
 70
     0
  3
Hidden (2x) ____ ____ ____ ____ ____ ____ ____
 72
    65
 73
     2
 40
0.75
 49
0.5
 74
     0
 49
-0.25
 74
     0
  0
LTYPE
  5
64
330
5
100
AcDbSymbolTableRecord
100
AcDbLinetypeTableRecord
  2
PHANTOM
 70
     0
  3
Phantom ______  __  __  ______  __  __  ______
 72
    65
 73
     6
 40
2.5
 49
1.25
 74
     0
 49
-0.25
 74
     0
 49
0.25
 74
     0
 49
-0.25
 74
     0
 49
0.25
 74
     0
 49
-0.25
 74
     0
  0
LTYPE
  5
65
330
5
100
AcDbSymbolTableRecord
100
AcDbLinetypeTableRecord
  2
PHANTOM2
 70
     0
  3
Phantom (.5x) ___ _ _ ___ _ _ ___ _ _ ___ _ _
 72
    65
 73
     6
 40
1.25
 49
0.625
 74
     0
 49
-0.125
 74
     0
 49
0.125
 74
     0
 49
-0.125
 74
     0
 49
0.125
 74
     0
 49
-0.125
 74
     0
  0
LTYPE
  5
66
330
5
100
AcDbSymbolTableRecord
100
AcDbLinetypeTableRecord
  2
PHANTOMX2
 70
     0
  3
Phantom (2x) ____________    ____    ____   _
 72
    65
 73
     6
 40
5.0
 49
2.5
 74
     0
 49
-0.5
 74
     0
 49
0.5
 74
     0
 49
-0.5
 74
     0
 49
0.5
 74
     0
 49
-0.5
 74
     0
  0
LTYPE
  5
67
330
5
100
AcDbSymbolTableRecord
100
AcDbLinetypeTableRecord
  2
ACAD_ISO02W100
 70
     0
  3
ISO dash __ __ __ __ __ __ __ __ __ __ __ __ __
 72
    65
 73
     2
 40
0.59
 49
0.47
 74
     0
 49
-0.12
 74
     0
  0
LTYPE
  5
68
330
5
100
AcDbSymbolTableRecord
100
AcDbLinetypeTableRecord
  2
ACAD_ISO03W100
 70
     0
  3
ISO dash space __    __    __    __    __    __
 72
    65
 73
     2
 40
1.179999999999999
 49
0.47
 74
     0
 49
-0.71
 74
     0
  0
LTYPE
  5
69
330
5
100
AcDbSymbolTableRecord
100
AcDbLinetypeTableRecord
  2
ACAD_ISO04W100
 70
     0
  3
ISO long-dash dot ____ . ____ . ____ . ____ . _
 72
    65
 73
     4
 40
1.179999999999999
 49
0.9399999999999998
 74
     0
 49
-0.12
 74
     0
 49
0.0
 74
     0
 49
-0.12
 74
     0
  0
LTYPE
  5
6A
330
5
100
AcDbSymbolTableRecord
100
AcDbLinetypeTableRecord
  2
ACAD_ISO05W100
 70
     0
  3
ISO long-dash double-dot ____ .. ____ .. ____ .
 72
    65
 73
     6
 40
1.299999999999999
 49
0.9399999999999998
 74
     0
 49
-0.12
 74
     0
 49
0.0
 74
     0
 49
-0.12
 74
     0
 49
0.0
 74
     0
 49
-0.12
 74
     0
  0
LTYPE
  5
6B
330
5
100
AcDbSymbolTableRecord
100
AcDbLinetypeTableRecord
  2
ACAD_ISO06W100
 70
     0
  3
ISO long-dash triple-dot ____ ... ____ ... ____
 72
    65
 73
     8
 40
1.419999999999999
 49
0.9399999999999998
 74
     0
 49
-0.12
 74
     0
 49
0.0
 74
     0
 49
-0.12
 74
     0
 49
0.0
 74
     0
 49
-0.12
 74
     0
 49
0.0
 74
     0
 49
-0.12
 74
     0
  0
LTYPE
  5
6C
330
5
100
AcDbSymbolTableRecord
100
AcDbLinetypeTableRecord
  2
ACAD_ISO07W100
 70
     0
  3
ISO dot . . . . . . . . . . . . . . . . . . . .
 72
    65
 73
     2
 40
0.12
 49
0.0
 74
     0
 49
-0.12
 74
     0
  0
LTYPE
  5
6D
330
5
100
AcDbSymbolTableRecord
100
AcDbLinetypeTableRecord
  2
ACAD_ISO08W100
 70
     0
  3
ISO long-dash short-dash ____ __ ____ __ ____ _
 72
    65
 73
     4
 40
0.95
 49
0.47
 74
     0
 49
-0.12
 74
     0
 49
0.24
 74
     0
 49
-0.12
 74
     0
  0
LTYPE
  5
6E
330
5
100
AcDbSymbolTableRecord
100
AcDbLinetypeTableRecord
  2
ACAD_ISO09W100
 70
     0
  3
ISO long-dash double-short-dash ____ __ __ ____
 72
    65
 73
     6
 40
1.31
 49
0.47
 74
     0
 49
-0.12
 74
     0
 49
0.24
 74
     0
 49
-0.12
 74
     0
 49
0.24
 74
     0
 49
-0.12
 74
     0
  0
LTYPE
  5
6F
330
5
100
AcDbSymbolTableRecord
100
AcDbLinetypeTableRecord
  2
ACAD_ISO10W100
 70
     0
  3
ISO dash dot __ . __ . __ . __ . __ . __ . __ .
 72
    65
 73
     4
 40
0.71
 49
0.47
 74
     0
 49
-0.12
 74
     0
 49
0.0
 74
     0
 49
-0.12
 74
     0
  0
LTYPE
  5
70
330
5
100
AcDbSymbolTableRecord
100
AcDbLinetypeTableRecord
  2
ACAD_ISO11W100
 70
     0
  3
ISO double-dash dot __ __ . __ __ . __ __ . __ 
 72
    65
 73
     6
 40
1.299999999999999
 49
0.47
 74
     0
 49
-0.12
 74
     0
 49
0.47
 74
     0
 49
-0.12
 74
     0
 49
0.0
 74
     0
 49
-0.12
 74
     0
  0
LTYPE
  5
71
330
5
100
AcDbSymbolTableRecord
100
AcDbLinetypeTableRecord
  2
ACAD_ISO12W100
 70
     0
  3
ISO dash double-dot __ . . __ . . __ . . __ . .
 72
    65
 73
     6
 40
0.8299999999999998
 49
0.47
 74
     0
 49
-0.12
 74
     0
 49
0.0
 74
     0
 49
-0.12
 74
     0
 49
0.0
 74
     0
 49
-0.12
 74
     0
  0
LTYPE
  5
72
330
5
100
AcDbSymbolTableRecord
100
AcDbLinetypeTableRecord
  2
ACAD_ISO13W100
 70
     0
  3
ISO double-dash double-dot __ __ . . __ __ . . 
 72
    65
 73
     8
 40
1.419999999999999
 49
0.47
 74
     0
 49
-0.12
 74
     0
 49
0.47
 74
     0
 49
-0.12
 74
     0
 49
0.0
 74
     0
 49
-0.12
 74
     0
 49
0.0
 74
     0
 49
-0.12
 74
     0
  0
LTYPE
  5
73
330
5
100
AcDbSymbolTableRecord
100
AcDbLinetypeTableRecord
  2
ACAD_ISO14W100
 70
     0
  3
ISO dash triple-dot __ . . . __ . . . __ . . . 
 72
    65
 73
     8
 40
0.95
 49
0.47
 74
     0
 49
-0.12
 74
     0
 49
0.0
 74
     0
 49
-0.12
 74
     0
 49
0.0
 74
     0
 49
-0.12
 74
     0
 49
0.0
 74
     0
 49
-0.12
 74
     0
  0
LTYPE
  5
74
330
5
100
AcDbSymbolTableRecord
100
AcDbLinetypeTableRecord
  2
ACAD_ISO15W100
 70
     0
  3
ISO double-dash triple-dot __ __ . . . __ __ . 
 72
    65
 73
    10
 40
1.539999999999999
 49
0.47
 74
     0
 49
-0.12
 74
     0
 49
0.47
 74
     0
 49
-0.12
 74
     0
 49
0.0
 74
     0
 49
-0.12
 74
     0
 49
0.0
 74
     0
 49
-0.12
 74
     0
 49
0.0
 74
     0
 49
-0.12
 74
     0
  0
LTYPE
  5
77
330
5
100
AcDbSymbolTableRecord
100
AcDbLinetypeTableRecord
  2
FENCELINE1
 70
     0
  3
Fenceline circle ----0-----0----0-----0----0---
 72
    65
 73
     4
 40
1.45
 49
0.25
 74
     0
 49
-0.1
 74
     4
 75
   133
340
76
 46
0.1
 50
0.0
 44
-0.1
 45
0.0
 49
-0.1
 74
     0
 49
1.0
 74
     0
  0
LTYPE
  5
78
330
5
100
AcDbSymbolTableRecord
100
AcDbLinetypeTableRecord
  2
FENCELINE2
 70
     0
  3
Fenceline square ----[]-----[]----[]-----[]----
 72
    65
 73
     4
 40
1.45
 49
0.25
 74
     0
 49
-0.1
 74
     4
 75
   132
340
76
 46
0.1
 50
0.0
 44
-0.1
 45
0.0
 49
-0.1
 74
     0
 49
1.0
 74
     0
  0
LTYPE
  5
79
330
5
100
AcDbSymbolTableRecord
100
AcDbLinetypeTableRecord
  2
TRACKS
 70
     0
  3
Tracks -|-|-|-|-|-|-|-|-|-|-|-|-|-|-|-|-|-|-|-|
 72
    65
 73
     2
 40
0.3
 49
0.15
 74
     4
 75
   130
340
76
 46
0.25
 50
0.0
 44
0.0
 45
0.0
 49
0.15
 74
     0
  0
LTYPE
  5
7A
330
5
100
AcDbSymbolTableRecord
100
AcDbLinetypeTableRecord
  2
BATTING
 70
     0
  3
Batting SSSSSSSSSSSSSSSSSSSSSSSSSSSSSSSSSSSSSSS
 72
    65
 73
     4
 40
0.4001000000000001
 49
0.0001
 74
     0
 49
-0.1
 74
     4
 75
   134
340
76
 46
0.1
 50
0.0
 44
-0.1
 45
0.0
 49
-0.2
 74
     4
 75
   134
340
76
 46
0.1
 50
180.0
 44
0.1
 45
0.0
 49
-0.1
 74
     0
  0
LTYPE
  5
7B
330
5
100
AcDbSymbolTableRecord
100
AcDbLinetypeTableRecord
  2
HOT_WATER_SUPPLY
 70
     0
  3
Hot water supply ---- HW ---- HW ---- HW ----
 72
    65
 73
     3
 40
0.9
 49
0.5
 74
     0
 49
-0.2
 74
     2
 75
     0
340
26
 46
0.1
 50
0.0
 44
-0.1
 45
-0.05
  9
HW
 49
-0.2
 74
     0
  0
LTYPE
  5
7C
330
5
100
AcDbSymbolTableRecord
100
AcDbLinetypeTableRecord
  2
GAS_LINE
 70
     0
  3
Gas line ----GAS----GAS----GAS----GAS----GAS---
 72
    65
 73
     3
 40
0.95
 49
0.5
 74
     0
 49
-0.2
 74
     2
 75
     0
340
26
 46
0.1
 50
0.0
 44
-0.1
 45
-0.05
  9
GAS
 49
-0.25
 74
     0
  0
LTYPE
  5
7D
330
5
100
AcDbSymbolTableRecord
100
AcDbLinetypeTableRecord
  2
ZIGZAG
 70
     0
  3
Zig zag /\/\/\/\/\/\/\/\/\/\/\/\/\/\/\/\/\/\/\/
 72
    65
 73
     4
 40
0.8001000000000001
 49
0.0001
 74
     0
 49
-0.2
 74
     4
 75
   131
340
76
 46
0.2
 50
0.0
 44
-0.2
 45
0.0
 49
-0.4
 74
     4
 75
   131
340
76
 46
0.2
 50
180.0
 44
0.2
 45
0.0
 49
-0.2
 74
     0
  0
ENDTAB
  0
TABLE
  2
LAYER
  5
2
330
0
100
AcDbSymbolTable
 70
    10
  0
LAYER
  5
25
330
2
100
AcDbSymbolTableRecord
100
AcDbLayerTableRecord
  2
0
 70
     0
 62
     7
  6
Continuous
370
    -3
390
F
347
13
  0
LAYER
  5
81
330
2
100
AcDbSymbolTableRecord
100
AcDbLayerTableRecord
  2
Border (ANSI)
 70
     0
 62
     7
  6
Continuous
370
    35
390
F
347
13
  0
LAYER
  5
86
330
2
100
AcDbSymbolTableRecord
100
AcDbLayerTableRecord
  2
Dimension (ANSI)
 70
     0
 62
     7
  6
Continuous
370
    13
390
F
347
13
  0
LAYER
  5
88
330
2
100
AcDbSymbolTableRecord
100
AcDbLayerTableRecord
  2
Hidden (ANSI)
 70
     0
 62
     7
  6
DASHED
370
    25
390
F
347
13
  0
LAYER
  5
8E
330
2
100
AcDbSymbolTableRecord
100
AcDbLayerTableRecord
  2
Symbol (ANSI)
 70
     0
 62
     7
  6
Continuous
370
    25
390
F
347
13
  0
LAYER
  5
8F
330
2
100
AcDbSymbolTableRecord
100
AcDbLayerTableRecord
  2
TITLE
 70
     0
 62
     7
  6
Continuous
370
    18
390
F
347
13
  0
LAYER
  5
90
330
2
100
AcDbSymbolTableRecord
100
AcDbLayerTableRecord
  2
Title (ANSI)
 70
     0
 62
     7
  6
Continuous
370
    25
390
F
347
13
  0
LAYER
  5
92
330
2
100
AcDbSymbolTableRecord
100
AcDbLayerTableRecord
  2
Visible (ANSI)
 70
     0
 62
     7
  6
Continuous
370
    25
390
F
347
13
  0
LAYER
  5
93
330
2
100
AcDbSymbolTableRecord
100
AcDbLayerTableRecord
  2
Visible Narrow (ANSI)
 70
     0
 62
     7
  6
Continuous
370
    25
390
F
347
13
  0
LAYER
  5
1F7
330
2
100
AcDbSymbolTableRecord
100
AcDbLayerTableRecord
  2
Defpoints
 70
     0
 62
     7
  6
Continuous
290
     0
370
    -3
390
F
347
13
  0
ENDTAB
  0
TABLE
  2
STYLE
  5
3
330
0
100
AcDbSymbolTable
 70
    54
  0
STYLE
  5
26
330
3
100
AcDbSymbolTableRecord
100
AcDbTextStyleTableRecord
  2
Standard
 70
     0
 40
0.0
 41
1.0
 50
0.0
 71
     0
 42
0.2
  3
ARIAL.TTF
  4

1001
ACAD
1000
Arial
1071
      256
  0
STYLE
  5
76
330
3
100
AcDbSymbolTableRecord
100
AcDbTextStyleTableRecord
  2

 70
     1
 40
0.0
 41
1.0
 50
0.0
 71
     0
 42
0.2
  3
ltypeshp.shx
  4

  0
STYLE
  5
97
330
3
100
AcDbSymbolTableRecord
100
AcDbTextStyleTableRecord
  2
ITALIC_100
 70
     0
 40
0.0
 41
1.0
 50
0.0
 71
     0
 42
0.2
  3
ARIAL.TTF
  4

1001
ACAD
1000
Arial
1071
      256
  0
STYLE
  5
98
330
3
100
AcDbSymbolTableRecord
100
AcDbTextStyleTableRecord
  2
ITALIC_101
 70
     0
 40
0.0
 41
1.0
 50
0.0
 71
     0
 42
0.2
  3
ARIAL.TTF
  4

1001
ACAD
1000
Arial
1071
      256
  0
STYLE
  5
99
330
3
100
AcDbSymbolTableRecord
100
AcDbTextStyleTableRecord
  2
ITALIC_103
 70
     0
 40
0.0
 41
1.0
 50
0.0
 71
     0
 42
0.2
  3
ARIAL.TTF
  4

1001
ACAD
1000
Arial
1071
      256
  0
STYLE
  5
9A
330
3
100
AcDbSymbolTableRecord
100
AcDbTextStyleTableRecord
  2
ITALIC_104
 70
     0
 40
0.0
 41
1.0
 50
0.0
 71
     0
 42
0.2
  3
ARIAL.TTF
  4

1001
ACAD
1000
Arial
1071
      256
  0
STYLE
  5
9B
330
3
100
AcDbSymbolTableRecord
100
AcDbTextStyleTableRecord
  2
ITALIC_107
 70
     0
 40
0.0
 41
1.0
 50
0.0
 71
     0
 42
0.2
  3
ARIAL.TTF
  4

1001
ACAD
1000
Arial
1071
      256
  0
STYLE
  5
9C
330
3
100
AcDbSymbolTableRecord
100
AcDbTextStyleTableRecord
  2
ITALIC_108
 70
     0
 40
0.0
 41
1.0
 50
0.0
 71
     0
 42
0.2
  3
ARIAL.TTF
  4

1001
ACAD
1000
Arial
1071
      256
  0
STYLE
  5
9D
330
3
100
AcDbSymbolTableRecord
100
AcDbTextStyleTableRecord
  2
ITALIC_169
 70
     0
 40
0.0
 41
1.0
 50
0.0
 71
     0
 42
0.2
  3
ARIAL.TTF
  4

1001
ACAD
1000
Arial
1071
      256
  0
STYLE
  5
9E
330
3
100
AcDbSymbolTableRecord
100
AcDbTextStyleTableRecord
  2
ITALIC_173
 70
     0
 40
0.0
 41
1.0
 50
0.0
 71
     0
 42
0.2
  3
ARIAL.TTF
  4

1001
ACAD
1000
Arial
1071
      256
  0
STYLE
  5
9F
330
3
100
AcDbSymbolTableRecord
100
AcDbTextStyleTableRecord
  2
ITALIC_177
 70
     0
 40
0.0
 41
1.0
 50
0.0
 71
     0
 42
0.2
  3
ARIAL.TTF
  4

1001
ACAD
1000
Arial
1071
      256
  0
STYLE
  5
A0
330
3
100
AcDbSymbolTableRecord
100
AcDbTextStyleTableRecord
  2
ITALIC_180
 70
     0
 40
0.0
 41
1.0
 50
0.0
 71
     0
 42
0.2
  3
ARIAL.TTF
  4

1001
ACAD
1000
Arial
1071
      256
  0
STYLE
  5
A1
330
3
100
AcDbSymbolTableRecord
100
AcDbTextStyleTableRecord
  2
ITALIC_181
 70
     0
 40
0.0
 41
1.0
 50
0.0
 71
     0
 42
0.2
  3
txt.shx
  4

  0
STYLE
  5
A2
330
3
100
AcDbSymbolTableRecord
100
AcDbTextStyleTableRecord
  2
ITALIC_183
 70
     0
 40
0.0
 41
1.0
 50
0.0
 71
     0
 42
0.2
  3
ARIAL.TTF
  4

1001
ACAD
1000
Arial
1071
      256
  0
STYLE
  5
A3
330
3
100
AcDbSymbolTableRecord
100
AcDbTextStyleTableRecord
  2
ITALIC_184
 70
     0
 40
0.0
 41
1.0
 50
0.0
 71
     0
 42
0.2
  3
ARIAL.TTF
  4

1001
ACAD
1000
Arial
1071
      256
  0
STYLE
  5
A4
330
3
100
AcDbSymbolTableRecord
100
AcDbTextStyleTableRecord
  2
ITALIC_186
 70
     0
 40
0.0
 41
1.0
 50
0.0
 71
     0
 42
0.2
  3
ARIAL.TTF
  4

1001
ACAD
1000
Arial
1071
      256
  0
STYLE
  5
A5
330
3
100
AcDbSymbolTableRecord
100
AcDbTextStyleTableRecord
  2
ITALIC_187
 70
     0
 40
0.0
 41
1.0
 50
0.0
 71
     0
 42
0.2
  3
ARIAL.TTF
  4

1001
ACAD
1000
Arial
1071
      256
  0
STYLE
  5
A6
330
3
100
AcDbSymbolTableRecord
100
AcDbTextStyleTableRecord
  2
ITALIC_190
 70
     0
 40
0.0
 41
1.0
 50
0.0
 71
     0
 42
0.2
  3
ARIAL.TTF
  4

1001
ACAD
1000
Arial
1071
      256
  0
STYLE
  5
A7
330
3
100
AcDbSymbolTableRecord
100
AcDbTextStyleTableRecord
  2
ITALIC_191
 70
     0
 40
0.0
 41
1.0
 50
0.0
 71
     0
 42
0.2
  3
ARIAL.TTF
  4

1001
ACAD
1000
Arial
1071
      256
  0
STYLE
  5
A8
330
3
100
AcDbSymbolTableRecord
100
AcDbTextStyleTableRecord
  2
ITALIC_53
 70
     0
 40
0.0
 41
1.0
 50
0.0
 71
     0
 42
0.2
  3
ARIAL.TTF
  4

1001
ACAD
1000
Arial
1071
      256
  0
STYLE
  5
A9
330
3
100
AcDbSymbolTableRecord
100
AcDbTextStyleTableRecord
  2
ITALIC_57
 70
     0
 40
0.0
 41
1.0
 50
0.0
 71
     0
 42
0.2
  3
ARIAL.TTF
  4

1001
ACAD
1000
Arial
1071
      256
  0
STYLE
  5
AA
330
3
100
AcDbSymbolTableRecord
100
AcDbTextStyleTableRecord
  2
ITALIC_61
 70
     0
 40
0.0
 41
1.0
 50
0.0
 71
     0
 42
0.2
  3
ARIAL.TTF
  4

1001
ACAD
1000
Arial
1071
      256
  0
STYLE
  5
AB
330
3
100
AcDbSymbolTableRecord
100
AcDbTextStyleTableRecord
  2
ITALIC_64
 70
     0
 40
0.0
 41
1.0
 50
0.0
 71
     0
 42
0.2
  3
ARIAL.TTF
  4

1001
ACAD
1000
Arial
1071
      256
  0
STYLE
  5
AC
330
3
100
AcDbSymbolTableRecord
100
AcDbTextStyleTableRecord
  2
ITALIC_65
 70
     0
 40
0.0
 41
1.0
 50
0.0
 71
     0
 42
0.2
  3
ARIAL.TTF
  4

1001
ACAD
1000
Arial
1071
      256
  0
STYLE
  5
AD
330
3
100
AcDbSymbolTableRecord
100
AcDbTextStyleTableRecord
  2
ITALIC_66
 70
     0
 40
0.0
 41
1.0
 50
0.0
 71
     0
 42
0.2
  3
ARIAL.TTF
  4

1001
ACAD
1000
Arial
1071
      256
  0
STYLE
  5
AE
330
3
100
AcDbSymbolTableRecord
100
AcDbTextStyleTableRecord
  2
ITALIC_67
 70
     0
 40
0.0
 41
1.0
 50
0.0
 71
     0
 42
0.2
  3
ARIAL.TTF
  4

1001
ACAD
1000
Arial
1071
      256
  0
STYLE
  5
AF
330
3
100
AcDbSymbolTableRecord
100
AcDbTextStyleTableRecord
  2
ITALIC_68
 70
     0
 40
0.0
 41
1.0
 50
0.0
 71
     0
 42
0.2
  3
ARIAL.TTF
  4

1001
ACAD
1000
Arial
1071
      256
  0
STYLE
  5
B0
330
3
100
AcDbSymbolTableRecord
100
AcDbTextStyleTableRecord
  2
ITALIC_70
 70
     0
 40
0.0
 41
1.0
 50
0.0
 71
     0
 42
0.2
  3
ARIAL.TTF
  4

1001
ACAD
1000
Arial
1071
      256
  0
STYLE
  5
B1
330
3
100
AcDbSymbolTableRecord
100
AcDbTextStyleTableRecord
  2
ITALIC_71
 70
     0
 40
0.0
 41
1.0
 50
0.0
 71
     0
 42
0.2
  3
ARIAL.TTF
  4

1001
ACAD
1000
Arial
1071
      256
  0
STYLE
  5
B2
330
3
100
AcDbSymbolTableRecord
100
AcDbTextStyleTableRecord
  2
ITALIC_75
 70
     0
 40
0.0
 41
1.0
 50
0.0
 71
     0
 42
0.2
  3
ARIAL.TTF
  4

1001
ACAD
1000
Arial
1071
      256
  0
STYLE
  5
B3
330
3
100
AcDbSymbolTableRecord
100
AcDbTextStyleTableRecord
  2
ITALIC_76
 70
     0
 40
0.0
 41
1.0
 50
0.0
 71
     0
 42
0.2
  3
ARIAL.TTF
  4

1001
ACAD
1000
Arial
1071
      256
  0
STYLE
  5
B4
330
3
100
AcDbSymbolTableRecord
100
AcDbTextStyleTableRecord
  2
ITALIC_86
 70
     0
 40
0.0
 41
1.0
 50
0.0
 71
     0
 42
0.2
  3
ARIAL.TTF
  4

1001
ACAD
1000
Arial
1071
      256
  0
STYLE
  5
B5
330
3
100
AcDbSymbolTableRecord
100
AcDbTextStyleTableRecord
  2
ITALIC_90
 70
     0
 40
0.0
 41
1.0
 50
0.0
 71
     0
 42
0.2
  3
ARIAL.TTF
  4

1001
ACAD
1000
Arial
1071
      256
  0
STYLE
  5
B6
330
3
100
AcDbSymbolTableRecord
100
AcDbTextStyleTableRecord
  2
ITALIC_94
 70
     0
 40
0.0
 41
1.0
 50
0.0
 71
     0
 42
0.2
  3
ARIAL.TTF
  4

1001
ACAD
1000
Arial
1071
      256
  0
STYLE
  5
B7
330
3
100
AcDbSymbolTableRecord
100
AcDbTextStyleTableRecord
  2
ITALIC_97
 70
     0
 40
0.0
 41
1.0
 50
0.0
 71
     0
 42
0.2
  3
ARIAL.TTF
  4

1001
ACAD
1000
Arial
1071
      256
  0
STYLE
  5
B8
330
3
100
AcDbSymbolTableRecord
100
AcDbTextStyleTableRecord
  2
ITALIC_98
 70
     0
 40
0.0
 41
1.0
 50
0.0
 71
     0
 42
0.2
  3
ARIAL.TTF
  4

1001
ACAD
1000
Arial
1071
      256
  0
STYLE
  5
B9
330
3
100
AcDbSymbolTableRecord
100
AcDbTextStyleTableRecord
  2
ITALIC_99
 70
     0
 40
0.0
 41
1.0
 50
0.0
 71
     0
 42
0.2
  3
ARIAL.TTF
  4

1001
ACAD
1000
Arial
1071
      256
  0
STYLE
  5
BA
330
3
100
AcDbSymbolTableRecord
100
AcDbTextStyleTableRecord
  2
Label Text (ANSI)
 70
     0
 40
0.0
 41
1.0
 50
0.0
 71
     0
 42
0.2
  3
ARIAL.TTF
  4

1001
ACAD
1000
Arial
1071
      256
  0
STYLE
  5
BB
330
3
100
AcDbSymbolTableRecord
100
AcDbTextStyleTableRecord
  2
Label Text (DIN)
 70
     0
 40
0.0
 41
1.0
 50
0.0
 71
     0
 42
0.2
  3
isocpeur.ttf
  4

1001
ACAD
1000
ISOCPEUR
1071
      256
  0
STYLE
  5
BC
330
3
100
AcDbSymbolTableRecord
100
AcDbTextStyleTableRecord
  2
Label Text (ISO)
 70
     0
 40
0.0
 41
1.0
 50
0.0
 71
     0
 42
0.2
  3
TAHOMA.TTF
  4

1001
ACAD
1000
Tahoma
1071
      256
  0
STYLE
  5
BD
330
3
100
AcDbSymbolTableRecord
100
AcDbTextStyleTableRecord
  2
Label Text (JIS)
 70
     0
 40
0.0
 41
1.0
 50
0.0
 71
     0
 42
0.2
  3
TAHOMA.TTF
  4

1001
ACAD
1000
Tahoma
1071
      256
  0
STYLE
  5
BE
330
3
100
AcDbSymbolTableRecord
100
AcDbTextStyleTableRecord
  2
Note Text (ANSI)
 70
     0
 40
0.0
 41
1.0
 50
0.0
 71
     0
 42
0.2
  3
ARIAL.TTF
  4

1001
ACAD
1000
Arial
1071
      256
  0
STYLE
  5
BF
330
3
100
AcDbSymbolTableRecord
100
AcDbTextStyleTableRecord
  2
Note Text (DIN)
 70
     0
 40
0.0
 41
1.0
 50
0.0
 71
     0
 42
0.2
  3
isocpeur.ttf
  4

1001
ACAD
1000
ISOCPEUR
1071
      256
  0
STYLE
  5
C0
330
3
100
AcDbSymbolTableRecord
100
AcDbTextStyleTableRecord
  2
Note Text (ISO)
 70
     0
 40
0.0
 41
1.0
 50
0.0
 71
     0
 42
0.2
  3
TAHOMA.TTF
  4

1001
ACAD
1000
Tahoma
1071
      256
  0
STYLE
  5
C1
330
3
100
AcDbSymbolTableRecord
100
AcDbTextStyleTableRecord
  2
Note Text (JIS)
 70
     0
 40
0.0
 41
1.0
 50
0.0
 71
     0
 42
0.2
  3
TAHOMA.TTF
  4

1001
ACAD
1000
Tahoma
1071
      256
  0
STYLE
  5
C2
330
3
100
AcDbSymbolTableRecord
100
AcDbTextStyleTableRecord
  2
STANDARD-1
 70
     0
 40
0.0
 41
1.0
 50
0.0
 71
     0
 42
0.2
  3
ARIAL.TTF
  4

1001
ACAD
1000
Arial
1071
      256
  0
STYLE
  5
C3
330
3
100
AcDbSymbolTableRecord
100
AcDbTextStyleTableRecord
  2
STANDARD-2
 70
     0
 40
0.0
 41
1.0
 50
0.0
 71
     0
 42
0.2
  3
ARIAL.TTF
  4

1001
ACAD
1000
Arial
1071
      256
  0
STYLE
  5
C4
330
3
100
AcDbSymbolTableRecord
100
AcDbTextStyleTableRecord
  2
STANDARD-3
 70
     0
 40
0.0
 41
1.0
 50
0.0
 71
     0
 42
0.2
  3
ARIAL.TTF
  4

1001
ACAD
1000
Arial
1071
      256
  0
STYLE
  5
C5
330
3
100
AcDbSymbolTableRecord
100
AcDbTextStyleTableRecord
  2
STANDARDSTANDARD
 70
     0
 40
0.0
 41
1.0
 50
0.0
 71
     0
 42
0.2
  3
ARIAL.TTF
  4

1001
ACAD
1000
Arial
1071
      256
  0
STYLE
  5
C6
330
3
100
AcDbSymbolTableRecord
100
AcDbTextStyleTableRecord
  2
STYLE1_165
 70
     0
 40
0.0
 41
1.0
 50
0.0
 71
     0
 42
0.2
  3
swiss.ttf
  4

1001
ACAD
1000
Swis721 BT
1071
      256
  0
STYLE
  5
C7
330
3
100
AcDbSymbolTableRecord
100
AcDbTextStyleTableRecord
  2
STYLE1_49
 70
     0
 40
0.0
 41
1.0
 50
0.0
 71
     0
 42
0.2
  3
swiss.ttf
  4

1001
ACAD
1000
Swis721 BT
1071
      256
  0
STYLE
  5
C8
330
3
100
AcDbSymbolTableRecord
100
AcDbTextStyleTableRecord
  2
STYLE1_82
 70
     0
 40
0.0
 41
1.0
 50
0.0
 71
     0
 42
0.2
  3
swiss.ttf
  4

1001
ACAD
1000
Swis721 BT
1071
      256
  0
STYLE
  5
127
330
3
100
AcDbSymbolTableRecord
100
AcDbTextStyleTableRecord
  2
Text Style5
 70
     0
 40
0.0
 41
1.0
 50
0.0
 71
     0
 42
0.2
  3
ARIAL.TTF
  4

1001
ACAD
1000
Arial
1071
      256
  0
STYLE
  5
167
330
3
100
AcDbSymbolTableRecord
100
AcDbTextStyleTableRecord
  2
ITALIC_181-Arial
 70
     0
 40
0.0
 41
1.0
 50
0.0
 71
     0
 42
0.2
  3
ARIAL.TTF
  4

1001
ACAD
1000
Arial
1071
      256
  0
ENDTAB
  0
TABLE
  2
VIEW
  5
6
330
0
100
AcDbSymbolTable
 70
     0
  0
ENDTAB
  0
TABLE
  2
UCS
  5
7
330
0
100
AcDbSymbolTable
 70
     0
  0
ENDTAB
  0
TABLE
  2
APPID
  5
9
330
0
100
AcDbSymbolTable
 70
     1
  0
APPID
  5
27
330
9
100
AcDbSymbolTableRecord
100
AcDbRegAppTableRecord
  2
ACAD
 70
     0
  0
ENDTAB
  0
TABLE
  2
DIMSTYLE
  5
A
330
0
100
AcDbSymbolTable
 70
    14
100
AcDbDimStyleTable
 71
     2
340
CF
340
3F
  0
DIMSTYLE
105
3F
330
A
100
AcDbSymbolTableRecord
100
AcDbDimStyleTableRecord
  2
Standard
 70
     0
 40
6.25
 41
0.1800000071525574
 42
0.0625
 45
0.00000001
140
0.1800000071525574
147
0.0900000035762787
176
   256
177
   256
178
   256
340
C5
371
    -1
372
    -1
  0
DIMSTYLE
105
C9
330
A
100
AcDbSymbolTableRecord
100
AcDbDimStyleTableRecord
  2
Default - Fraction (ANSI)
 70
     0
 40
6.25
 41
0.0984251946210861
 42
0.0625
 43
0.2362204724409449
 44
0.125
 45
0.00000001
 46
0.3937007874015748
 78
    12
 79
     3
140
0.1200000047683716
147
0.031496062992126
171
     1
176
   256
177
   256
178
   256
272
     2
274
     1
276
     2
277
     5
284
    12
286
    12
340
BE
371
    -1
372
    -1
  0
DIMSTYLE
105
CA
330
A
100
AcDbSymbolTableRecord
100
AcDbDimStyleTableRecord
  2
Default - Fraction (ANSI)$7
 70
     0
 40
6.25
 41
0.0984251946210861
 42
0.0625
 43
0.2362204724409449
 44
0.125
 45
0.00000001
 46
0.3937007874015748
 78
    12
 79
     3
140
0.1200000047683716
147
0.031496062992126
171
     1
176
   256
177
   256
178
   256
272
     2
274
     1
276
     2
277
     5
284
    12
286
    12
340
BE
371
    -1
372
    -1
  0
DIMSTYLE
105
CB
330
A
100
AcDbSymbolTableRecord
100
AcDbDimStyleTableRecord
  2
Default - mm (ANSI)
 70
     0
 40
6.25
 41
0.0984251946210861
 42
0.063
 43
0.2362204724409449
 44
0.125
 45
0.00000001
 46
0.3937007874015748
 73
     0
140
0.1200000047683716
143
1.0
144
25.4
147
0.031496062992126
171
     1
176
   256
177
   256
178
   256
179
     1
271
     2
272
     2
274
     1
340
BE
371
    -1
372
    -1
  0
DIMSTYLE
105
CC
330
A
100
AcDbSymbolTableRecord
100
AcDbDimStyleTableRecord
  2
Default - mm (ANSI)$7
 70
     0
 40
6.25
 41
0.0984251946210861
 42
0.063
 43
0.2362204724409449
 44
0.125
 45
0.00000001
 46
0.3937007874015748
 73
     0
140
0.1200000047683716
143
1.0
144
25.4
147
0.031496062992126
171
     1
176
   256
177
   256
178
   256
179
     1
271
     2
272
     2
274
     1
340
BE
371
    -1
372
    -1
  0
DIMSTYLE
105
CD
330
A
100
AcDbSymbolTableRecord
100
AcDbDimStyleTableRecord
  2
Default - mm [in] (ANSI)
 70
     0
  4
 in
 40
6.25
 41
0.0984251946210861
 42
0.063
 43
0.25
 44
0.125
 45
0.00000001
 46
0.3937007874015748
 73
     0
 78
     4
 79
     1
140
0.1200000047683716
143
0.03937
144
25.4
147
0.031496062992126
170
     1
171
     3
176
   256
177
   256
178
   256
179
     1
271
     2
272
     2
274
     3
284
     4
286
     4
340
BE
371
    -1
372
    -1
  0
DIMSTYLE
105
CE
330
A
100
AcDbSymbolTableRecord
100
AcDbDimStyleTableRecord
  2
Default - mm [in] (ANSI)$7
 70
     0
  4
 in
 40
6.25
 41
0.0984251946210861
 42
0.063
 43
0.25
 44
0.125
 45
0.00000001
 46
0.3937007874015748
 73
     0
 78
     4
 79
     1
140
0.1200000047683716
143
0.03937
144
25.4
147
0.031496062992126
170
     1
171
     3
176
   256
177
   256
178
   256
179
     1
271
     2
272
     2
274
     3
284
     4
286
     4
340
BE
371
    -1
372
    -1
  0
DIMSTYLE
105
CF
102
{ACAD_REACTORS
330
1F6
330
2C9
330
39B
330
46D
330
53F
330
611
330
6E3
330
7C8
330
89A
330
96C
330
A51
102
}
330
A
100
AcDbSymbolTableRecord
100
AcDbDimStyleTableRecord
  2
Default (ANSI)
 70
     0
  3
\X
 40
6.25
 41
0.0984251946210861
 42
0.0625
 43
0.2362204724409449
 44
0.125
 45
0.00000001
 46
0.3937007874015748
140
0.1200000047683716
147
0.031496062992126
170
     1
171
     1
176
   256
177
   256
178
   256
271
     2
272
     2
274
     1
340
BE
371
    -1
372
    -1
  0
DIMSTYLE
105
D0
330
A
100
AcDbSymbolTableRecord
100
AcDbDimStyleTableRecord
  2
Default (ANSI)$7
 70
     0
  3
\X
 40
6.25
 41
0.0984251946210861
 42
0.0625
 43
0.2362204724409449
 44
0.125
 45
0.00000001
 46
0.3937007874015748
140
0.1200000047683716
147
0.031496062992126
170
     1
171
     1
176
   256
177
   256
178
   256
271
     2
272
     2
274
     1
340
BE
371
    -1
372
    -1
  0
DIMSTYLE
105
DF
330
A
100
AcDbSymbolTableRecord
100
AcDbDimStyleTableRecord
  2
Miscellaneous Object (ANSI)
 70
     0
 40
6.25
 41
0.1968503892421722
 42
0.0625
 43
0.2362204724409449
 44
0.125
 45
0.00000001
 46
0.3937007874015748
140
0.1799999922513962
146
0.666666721856155
147
0.031496062992126
171
     1
176
   256
177
   256
178
   256
271
     2
272
     2
274
     1
340
BA
341
D1
371
    -1
372
    -1
  0
DIMSTYLE
105
E0
330
A
100
AcDbSymbolTableRecord
100
AcDbDimStyleTableRecord
  2
Miscellaneous Object (ANSI)$7
 70
     0
 40
6.25
 41
0.1959999948740005
 42
0.0625
 43
0.2362204724409449
 44
0.125
 45
0.00000001
 46
0.3937007874015748
140
0.1799999922513962
146
0.666666721856155
147
0.031496062992126
171
     1
176
   256
177
   256
178
   256
271
     2
272
     2
274
     1
340
BA
341
D1
371
    -1
372
    -1
  0
DIMSTYLE
105
E1
330
A
100
AcDbSymbolTableRecord
100
AcDbDimStyleTableRecord
  2
STANDARD$7
 70
     0
 40
6.25
 41
0.1800000071525574
 42
0.0625
 45
0.00000001
140
0.1800000071525574
147
0.0900000035762787
176
   256
177
   256
178
   256
340
C5
371
    -1
372
    -1
  0
DIMSTYLE
105
E2
330
A
100
AcDbSymbolTableRecord
100
AcDbDimStyleTableRecord
  2
Alternate (ANSI)
 70
     0
 40
6.25
 41
0.0979999974370003
340
26
342
E3
  0
DIMSTYLE
105
F4
330
A
100
AcDbSymbolTableRecord
100
AcDbDimStyleTableRecord
  2
Datum (ANSI)
 70
     0
 40
6.25
 41
0.0979999974370003
340
26
342
E3
  0
ENDTAB
  0
TABLE
  2
BLOCK_RECORD
  5
1
330
0
100
AcDbSymbolTable
 70
    17
  0
BLOCK_RECORD
  5
37
330
1
100
AcDbSymbolTableRecord
100
AcDbBlockTableRecord
  2
*Model_Space
340
3A
 70
     0
280
     1
281
     0
  0
BLOCK_RECORD
  5
33
330
1
100
AcDbSymbolTableRecord
100
AcDbBlockTableRecord
  2
*Paper_Space
340
36
 70
     0
280
     1
281
     0
  0
BLOCK_RECORD
  5
3B
330
1
100
AcDbSymbolTableRecord
100
AcDbBlockTableRecord
  2
*Paper_Space0
340
3E
 70
     0
280
     1
281
     0
  0
BLOCK_RECORD
  5
D1
330
1
100
AcDbSymbolTableRecord
100
AcDbBlockTableRecord
  2
Filled-1
340
0
 70
     0
280
     1
281
     0
  0
BLOCK_RECORD
  5
E3
330
1
100
AcDbSymbolTableRecord
100
AcDbBlockTableRecord
  2
_Closed
340
0
 70
     0
280
     1
281
     0
  0
BLOCK_RECORD
  5
EA
330
1
100
AcDbSymbolTableRecord
100
AcDbBlockTableRecord
  2
DatumFilled45
340
0
 70
     0
280
     1
281
     0
  0
BLOCK_RECORD
  5
F5
330
1
100
AcDbSymbolTableRecord
100
AcDbBlockTableRecord
  2
Borders Default Border
340
0
102
{BLKREFS
331
146
102
}
 70
     0
280
     1
281
     0
  0
BLOCK_RECORD
  5
147
330
1
100
AcDbSymbolTableRecord
100
AcDbBlockTableRecord
  2
Title Blocks Stahlin
340
0
102
{BLKREFS
331
18A
102
}
 70
     0
280
     1
281
     0
  0
BLOCK_RECORD
  5
1F8
330
1
100
AcDbSymbolTableRecord
100
AcDbBlockTableRecord
  2
*D6
340
0
 70
     0
280
     1
281
     0
  0
BLOCK_RECORD
  5
2CA
330
1
100
AcDbSymbolTableRecord
100
AcDbBlockTableRecord
  2
*D7
340
0
 70
     0
280
     1
281
     0
  0
BLOCK_RECORD
  5
39C
330
1
100
AcDbSymbolTableRecord
100
AcDbBlockTableRecord
  2
*D8
340
0
 70
     0
280
     1
281
     0
  0
BLOCK_RECORD
  5
46E
330
1
100
AcDbSymbolTableRecord
100
AcDbBlockTableRecord
  2
*D9
340
0
 70
     0
280
     1
281
     0
  0
BLOCK_RECORD
  5
540
330
1
100
AcDbSymbolTableRecord
100
AcDbBlockTableRecord
  2
*D10
340
0
 70
     0
280
     1
281
     0
  0
BLOCK_RECORD
  5
612
330
1
100
AcDbSymbolTableRecord
100
AcDbBlockTableRecord
  2
*D11
340
0
 70
     0
280
     1
281
     0
  0
BLOCK_RECORD
  5
6E4
330
1
100
AcDbSymbolTableRecord
100
AcDbBlockTableRecord
  2
*D12
340
0
 70
     0
280
     1
281
     0
  0
BLOCK_RECORD
  5
7C9
330
1
100
AcDbSymbolTableRecord
100
AcDbBlockTableRecord
  2
*D13
340
0
 70
     0
280
     1
281
     0
  0
BLOCK_RECORD
  5
89B
330
1
100
AcDbSymbolTableRecord
100
AcDbBlockTableRecord
  2
*D14
340
0
 70
     0
280
     1
281
     0
  0
BLOCK_RECORD
  5
96D
330
1
100
AcDbSymbolTableRecord
100
AcDbBlockTableRecord
  2
*D15
340
0
 70
     0
280
     1
281
     0
  0
BLOCK_RECORD
  5
A52
330
1
100
AcDbSymbolTableRecord
100
AcDbBlockTableRecord
  2
*D16
340
0
 70
     0
280
     1
281
     0
  0
ENDTAB
  0
ENDSEC
  0
SECTION
  2
BLOCKS
  0
BLOCK
  5
38
330
37
100
AcDbEntity
  8
0
100
AcDbBlockBegin
  2
*Model_Space
 70
     0
 10
0.0
 20
0.0
 30
0.0
  3
*Model_Space
  1

  0
ENDBLK
  5
39
330
37
100
AcDbEntity
  8
0
100
AcDbBlockEnd
  0
BLOCK
  5
34
330
33
100
AcDbEntity
 67
     1
  8
0
100
AcDbBlockBegin
  2
*Paper_Space
 70
     0
 10
0.0
 20
0.0
 30
0.0
  3
*Paper_Space
  1

  0
ENDBLK
  5
35
330
33
100
AcDbEntity
 67
     1
  8
0
100
AcDbBlockEnd
  0
BLOCK
  5
3C
330
3B
100
AcDbEntity
 67
     1
  8
0
100
AcDbBlockBegin
  2
*Paper_Space0
 70
     0
 10
0.0
 20
0.0
 30
0.0
  3
*Paper_Space0
  1

  0
ENDBLK
  5
3D
330
3B
100
AcDbEntity
 67
     1
  8
0
100
AcDbBlockEnd
  0
BLOCK
  5
D2
330
D1
100
AcDbEntity
  8
0
100
AcDbBlockBegin
  2
Filled-1
 70
     0
 10
0.0
 20
0.0
 30
0.0
  3
Filled-1
  1

  0
LINE
  5
D4
330
D1
100
AcDbEntity
  8
0
 62
     0
100
AcDbLine
 10
-0.9999999999999998
 20
0.0
 30
0.0
 11
0.0
 21
0.0
 31
0.0
  0
POLYLINE
  5
D5
330
D1
100
AcDbEntity
  8
0
 62
     0
100
AcDb2dPolyline
 66
     1
 10
0.0
 20
0.0
 30
0.0
 70
   128
  0
VERTEX
  5
D6
330
D5
100
AcDbEntity
  8
0
 62
     0
100
AcDbVertex
100
AcDb2dVertex
 10
-0.9999999999999998
 20
-0.0994897959183674
 30
0.0
  0
VERTEX
  5
D7
330
D5
100
AcDbEntity
  8
0
 62
     0
100
AcDbVertex
100
AcDb2dVertex
 10
0.0
 20
0.0
 30
0.0
  0
VERTEX
  5
D9
330
D5
100
AcDbEntity
  8
0
 62
     0
100
AcDbVertex
100
AcDb2dVertex
 10
-0.9999999999999998
 20
0.0994897959183674
 30
0.0
  0
VERTEX
  5
DA
330
D5
100
AcDbEntity
  8
0
 62
     0
100
AcDbVertex
100
AcDb2dVertex
 10
-0.9999999999999998
 20
-0.0994897959183674
 30
0.0
  0
SEQEND
  5
D8
330
D5
100
AcDbEntity
  8
0
 62
     0
  0
SOLID
  5
DB
330
D1
100
AcDbEntity
  8
0
 62
     0
100
AcDbTrace
 10
-0.9999999999999998
 20
-0.0994897959183674
 30
0.0
 11
0.0
 21
0.0
 31
0.0
 12
-0.9999999999999998
 22
0.0994897959183674
 32
0.0
 13
-0.9999999999999998
 23
-0.0994897959183674
 33
0.0
  0
LINE
  5
DC
330
D1
100
AcDbEntity
  8
0
 62
     0
100
AcDbLine
 10
-0.9999999999999998
 20
-0.0994897959183674
 30
0.0
 11
0.0
 21
0.0
 31
0.0
  0
LINE
  5
DD
330
D1
100
AcDbEntity
  8
0
 62
     0
100
AcDbLine
 10
0.0
 20
0.0
 30
0.0
 11
-0.9999999999999998
 21
0.0994897959183674
 31
0.0
  0
LINE
  5
DE
330
D1
100
AcDbEntity
  8
0
 62
     0
100
AcDbLine
 10
-0.9999999999999998
 20
0.0994897959183674
 30
0.0
 11
-0.9999999999999998
 21
-0.0994897959183674
 31
0.0
  0
ENDBLK
  5
D3
330
D1
100
AcDbEntity
  8
0
100
AcDbBlockEnd
  0
BLOCK
  5
E8
330
E3
100
AcDbEntity
  8
0
100
AcDbBlockBegin
  2
_Closed
 70
     0
 10
0.0
 20
0.0
 30
0.0
  3
_Closed
  1

  0
LINE
  5
E4
330
E3
100
AcDbEntity
  8
0
  6
ByBlock
 62
     0
370
    -2
100
AcDbLine
 10
-1.0
 20
0.1666666666666666
 30
0.0
 11
0.0
 21
0.0
 31
0.0
  0
LINE
  5
E5
330
E3
100
AcDbEntity
  8
0
  6
ByBlock
 62
     0
370
    -2
100
AcDbLine
 10
0.0
 20
0.0
 30
0.0
 11
-1.0
 21
-0.1666666666666666
 31
0.0
  0
LINE
  5
E6
330
E3
100
AcDbEntity
  8
0
  6
ByBlock
 62
     0
370
    -2
100
AcDbLine
 10
-1.0
 20
0.1666666666666666
 30
0.0
 11
-1.0
 21
-0.1666666666666666
 31
0.0
  0
LINE
  5
E7
330
E3
100
AcDbEntity
  8
0
  6
ByBlock
 62
     0
370
    -2
100
AcDbLine
 10
0.0
 20
0.0
 30
0.0
 11
-1.0
 21
0.0
 31
0.0
  0
ENDBLK
  5
E9
330
E3
100
AcDbEntity
  8
0
100
AcDbBlockEnd
  0
BLOCK
  5
EB
330
EA
100
AcDbEntity
  8
0
100
AcDbBlockBegin
  2
DatumFilled45
 70
     0
 10
0.0
 20
0.0
 30
0.0
  3
DatumFilled45
  1

  0
POLYLINE
  5
ED
330
EA
100
AcDbEntity
  8
0
 62
     0
100
AcDb2dPolyline
 66
     1
 10
0.0
 20
0.0
 30
0.0
 70
   128
  0
VERTEX
  5
EE
330
ED
100
AcDbEntity
  8
0
 62
     0
100
AcDbVertex
100
AcDb2dVertex
 10
0.0
 20
0.9999999999999998
 30
0.0
  0
VERTEX
  5
EF
330
ED
100
AcDbEntity
  8
0
 62
     0
100
AcDbVertex
100
AcDb2dVertex
 10
0.0
 20
-0.9999999999999998
 30
0.0
  0
VERTEX
  5
F1
330
ED
100
AcDbEntity
  8
0
 62
     0
100
AcDbVertex
100
AcDb2dVertex
 10
-0.9999999999999998
 20
0.0
 30
0.0
  0
VERTEX
  5
F2
330
ED
100
AcDbEntity
  8
0
 62
     0
100
AcDbVertex
100
AcDb2dVertex
 10
0.0
 20
0.9999999999999998
 30
0.0
  0
SEQEND
  5
F0
330
ED
100
AcDbEntity
  8
0
 62
     0
  0
SOLID
  5
F3
330
EA
100
AcDbEntity
  8
0
 62
     0
100
AcDbTrace
 10
0.0
 20
0.9999999999999998
 30
0.0
 11
0.0
 21
-0.9999999999999998
 31
0.0
 12
-0.9999999999999998
 22
0.0
 32
0.0
 13
0.0
 23
0.9999999999999998
 33
0.0
  0
ENDBLK
  5
EC
330
EA
100
AcDbEntity
  8
0
100
AcDbBlockEnd
  0
BLOCK
  5
F6
330
F5
100
AcDbEntity
  8
0
100
AcDbBlockBegin
  2
Borders Default Border
 70
     0
 10
0.0
 20
0.0
 30
0.0
  3
Borders Default Border
  1

  0
POLYLINE
  5
F8
330
F5
100
AcDbEntity
  8
Border (ANSI)
100
AcDb2dPolyline
 66
     1
 10
0.0
 20
0.0
 30
0.0
 70
   128
  0
VERTEX
  5
F9
330
F8
100
AcDbEntity
  8
Border (ANSI)
100
AcDbVertex
100
AcDb2dVertex
 10
0.4999999924907534
 20
0.9999999849815067
 30
0.0
  0
VERTEX
  5
FA
330
F8
100
AcDbEntity
  8
Border (ANSI)
100
AcDbVertex
100
AcDb2dVertex
 10
0.4999999924907534
 20
21.00000006007397
 30
0.0
  0
VERTEX
  5
FC
330
F8
100
AcDbEntity
  8
Border (ANSI)
100
AcDbVertex
100
AcDb2dVertex
 10
33.49999855822466
 20
21.00000006007397
 30
0.0
  0
VERTEX
  5
FD
330
F8
100
AcDbEntity
  8
Border (ANSI)
100
AcDbVertex
100
AcDb2dVertex
 10
33.49999855822466
 20
0.9999999849815067
 30
0.0
  0
VERTEX
  5
FE
330
F8
100
AcDbEntity
  8
Border (ANSI)
100
AcDbVertex
100
AcDb2dVertex
 10
0.4999999924907534
 20
0.9999999849815067
 30
0.0
  0
SEQEND
  5
FB
330
F8
100
AcDbEntity
  8
Border (ANSI)
  0
POLYLINE
  5
FF
330
F5
100
AcDbEntity
  8
Border (ANSI)
100
AcDb2dPolyline
 66
     1
 10
0.0
 20
0.0
 30
0.0
 70
   128
  0
VERTEX
  5
100
330
FF
100
AcDbEntity
  8
Border (ANSI)
100
AcDbVertex
100
AcDb2dVertex
 10
17.00000012014794
 20
0.6000000191485788
 30
0.0
  0
VERTEX
  5
101
330
FF
100
AcDbEntity
  8
Border (ANSI)
100
AcDbVertex
100
AcDb2dVertex
 10
17.00000012014794
 20
0.9999999849815067
 30
0.0
  0
VERTEX
  5
103
330
FF
100
AcDbEntity
  8
Border (ANSI)
100
AcDbVertex
100
AcDb2dVertex
 10
16.88453043539693
 20
0.8000000255314382
 30
0.0
  0
VERTEX
  5
104
330
FF
100
AcDbEntity
  8
Border (ANSI)
100
AcDbVertex
100
AcDb2dVertex
 10
17.11546980489895
 20
0.8000000255314382
 30
0.0
  0
VERTEX
  5
105
330
FF
100
AcDbEntity
  8
Border (ANSI)
100
AcDbVertex
100
AcDb2dVertex
 10
17.00000012014794
 20
0.9999999849815067
 30
0.0
  0
SEQEND
  5
102
330
FF
100
AcDbEntity
  8
Border (ANSI)
  0
POLYLINE
  5
106
330
F5
100
AcDbEntity
  8
Border (ANSI)
100
AcDb2dPolyline
 66
     1
 10
0.0
 20
0.0
 30
0.0
 70
   128
  0
VERTEX
  5
107
330
106
100
AcDbEntity
  8
Border (ANSI)
100
AcDbVertex
100
AcDb2dVertex
 10
17.00000012014794
 20
21.39999960351178
 30
0.0
  0
VERTEX
  5
108
330
106
100
AcDbEntity
  8
Border (ANSI)
100
AcDbVertex
100
AcDb2dVertex
 10
17.00000012014794
 20
21.00000006007397
 30
0.0
  0
VERTEX
  5
10A
330
106
100
AcDbEntity
  8
Border (ANSI)
100
AcDbVertex
100
AcDb2dVertex
 10
16.88453043539693
 20
21.19999983179288
 30
0.0
  0
VERTEX
  5
10B
330
106
100
AcDbEntity
  8
Border (ANSI)
100
AcDbVertex
100
AcDb2dVertex
 10
17.11546980489895
 20
21.19999983179288
 30
0.0
  0
VERTEX
  5
10C
330
106
100
AcDbEntity
  8
Border (ANSI)
100
AcDbVertex
100
AcDb2dVertex
 10
17.00000012014794
 20
21.00000006007397
 30
0.0
  0
SEQEND
  5
109
330
106
100
AcDbEntity
  8
Border (ANSI)
  0
POLYLINE
  5
10D
330
F5
100
AcDbEntity
  8
Border (ANSI)
100
AcDb2dPolyline
 66
     1
 10
0.0
 20
0.0
 30
0.0
 70
   128
  0
VERTEX
  5
10E
330
10D
100
AcDbEntity
  8
Border (ANSI)
100
AcDbVertex
100
AcDb2dVertex
 10
0.1000000031914298
 20
11.0000002102589
 30
0.0
  0
VERTEX
  5
10F
330
10D
100
AcDbEntity
  8
Border (ANSI)
100
AcDbVertex
100
AcDb2dVertex
 10
0.4999999924907534
 20
11.0000002102589
 30
0.0
  0
VERTEX
  5
111
330
10D
100
AcDbEntity
  8
Border (ANSI)
100
AcDbVertex
100
AcDb2dVertex
 10
0.3000000095742894
 20
11.11546989500991
 30
0.0
  0
VERTEX
  5
112
330
10D
100
AcDbEntity
  8
Border (ANSI)
100
AcDbVertex
100
AcDb2dVertex
 10
0.3000000095742894
 20
10.88452977458323
 30
0.0
  0
VERTEX
  5
113
330
10D
100
AcDbEntity
  8
Border (ANSI)
100
AcDbVertex
100
AcDb2dVertex
 10
0.4999999924907534
 20
11.0000002102589
 30
0.0
  0
SEQEND
  5
110
330
10D
100
AcDbEntity
  8
Border (ANSI)
  0
POLYLINE
  5
114
330
F5
100
AcDbEntity
  8
Border (ANSI)
100
AcDb2dPolyline
 66
     1
 10
0.0
 20
0.0
 30
0.0
 70
   128
  0
VERTEX
  5
115
330
114
100
AcDbEntity
  8
Border (ANSI)
100
AcDbVertex
100
AcDb2dVertex
 10
33.90000110536109
 20
11.0000002102589
 30
0.0
  0
VERTEX
  5
116
330
114
100
AcDbEntity
  8
Border (ANSI)
100
AcDbVertex
100
AcDb2dVertex
 10
33.49999855822466
 20
11.0000002102589
 30
0.0
  0
VERTEX
  5
118
330
114
100
AcDbEntity
  8
Border (ANSI)
100
AcDbVertex
100
AcDb2dVertex
 10
33.69999983179287
 20
11.11546989500991
 30
0.0
  0
VERTEX
  5
119
330
114
100
AcDbEntity
  8
Border (ANSI)
100
AcDbVertex
100
AcDb2dVertex
 10
33.69999983179287
 20
10.88452977458323
 30
0.0
  0
VERTEX
  5
11A
330
114
100
AcDbEntity
  8
Border (ANSI)
100
AcDbVertex
100
AcDb2dVertex
 10
33.49999855822466
 20
11.0000002102589
 30
0.0
  0
SEQEND
  5
117
330
114
100
AcDbEntity
  8
Border (ANSI)
  0
LINE
  5
11B
330
F5
100
AcDbEntity
  8
Border (ANSI)
100
AcDbLine
 10
4.250000030036986
 20
0.9999999849815067
 30
0.0
 11
4.250000030036986
 21
0.8399999986483354
 31
0.0
  0
LINE
  5
11C
330
F5
100
AcDbEntity
  8
Border (ANSI)
100
AcDbLine
 10
4.250000030036986
 20
21.00000006007397
 30
0.0
 11
4.250000030036986
 21
21.15999957707923
 31
0.0
  0
LINE
  5
11D
330
F5
100
AcDbEntity
  8
Border (ANSI)
100
AcDbLine
 10
8.500000060073972
 20
0.9999999849815067
 30
0.0
 11
8.500000060073972
 21
0.8399999986483354
 31
0.0
  0
LINE
  5
11E
330
F5
100
AcDbEntity
  8
Border (ANSI)
100
AcDbLine
 10
8.500000060073972
 20
21.00000006007397
 30
0.0
 11
8.500000060073972
 21
21.15999957707923
 31
0.0
  0
LINE
  5
11F
330
F5
100
AcDbEntity
  8
Border (ANSI)
100
AcDbLine
 10
12.7499993391863
 20
0.9999999849815067
 30
0.0
 11
12.7499993391863
 21
0.8399999986483354
 31
0.0
  0
LINE
  5
120
330
F5
100
AcDbEntity
  8
Border (ANSI)
100
AcDbLine
 10
12.7499993391863
 20
21.00000006007397
 30
0.0
 11
12.7499993391863
 21
21.15999957707923
 31
0.0
  0
LINE
  5
121
330
F5
100
AcDbEntity
  8
Border (ANSI)
100
AcDbLine
 10
21.24999939926027
 20
0.9999999849815067
 30
0.0
 11
21.24999939926027
 21
0.8399999986483354
 31
0.0
  0
LINE
  5
122
330
F5
100
AcDbEntity
  8
Border (ANSI)
100
AcDbLine
 10
21.24999939926027
 20
21.00000006007397
 30
0.0
 11
21.24999939926027
 21
21.15999957707923
 31
0.0
  0
LINE
  5
123
330
F5
100
AcDbEntity
  8
Border (ANSI)
100
AcDbLine
 10
25.4999986783726
 20
0.9999999849815067
 30
0.0
 11
25.4999986783726
 21
0.8399999986483354
 31
0.0
  0
LINE
  5
124
330
F5
100
AcDbEntity
  8
Border (ANSI)
100
AcDbLine
 10
25.4999986783726
 20
21.00000006007397
 30
0.0
 11
25.4999986783726
 21
21.15999957707923
 31
0.0
  0
LINE
  5
125
330
F5
100
AcDbEntity
  8
Border (ANSI)
100
AcDbLine
 10
29.75000096118356
 20
0.9999999849815067
 30
0.0
 11
29.75000096118356
 21
0.8399999986483354
 31
0.0
  0
LINE
  5
126
330
F5
100
AcDbEntity
  8
Border (ANSI)
100
AcDbLine
 10
29.75000096118356
 20
21.00000006007397
 30
0.0
 11
29.75000096118356
 21
21.15999957707923
 31
0.0
  0
MTEXT
  5
128
330
F5
100
AcDbEntity
  8
Border (ANSI)
100
AcDbMText
 10
31.8666544961413
 20
21.04
 30
0.0
 40
0.1200000014830762
 41
0.0
 46
0.0
 71
     7
 72
     1
  1
1
  7
Text Style5
 73
     1
 44
1.0
  0
MTEXT
  5
12B
330
F5
100
AcDbEntity
  8
Border (ANSI)
100
AcDbMText
 10
31.8666544961413
 20
0.8399999985169239
 30
0.0
 40
0.1200000014830762
 41
0.0
 46
0.0
 71
     7
 72
     1
  1
1
  7
Text Style5
 73
     1
 44
1.0
  0
MTEXT
  5
12C
330
F5
100
AcDbEntity
  8
Border (ANSI)
100
AcDbMText
 10
27.58858793610194
 20
21.04
 30
0.0
 40
0.1200000014830762
 41
0.0
 46
0.0
 71
     7
 72
     1
  1
2
  7
Text Style5
 73
     1
 44
1.0
  0
MTEXT
  5
12D
330
F5
100
AcDbEntity
  8
Border (ANSI)
100
AcDbMText
 10
27.58858793610194
 20
0.8399999985169239
 30
0.0
 40
0.1200000014830762
 41
0.0
 46
0.0
 71
     7
 72
     1
  1
2
  7
Text Style5
 73
     1
 44
1.0
  0
MTEXT
  5
12E
330
F5
100
AcDbEntity
  8
Border (ANSI)
100
AcDbMText
 10
23.3432016172043
 20
21.03798780484088
 30
0.0
 40
0.1200000014830762
 41
0.0
 46
0.0
 71
     7
 72
     1
  1
3
  7
Text Style5
 73
     1
 44
1.0
  0
MTEXT
  5
12F
330
F5
100
AcDbEntity
  8
Border (ANSI)
100
AcDbMText
 10
23.3432016172043
 20
0.8379878033578073
 30
0.0
 40
0.1200000014830762
 41
0.0
 46
0.0
 71
     7
 72
     1
  1
3
  7
Text Style5
 73
     1
 44
1.0
  0
MTEXT
  5
130
330
F5
100
AcDbEntity
  8
Border (ANSI)
100
AcDbMText
 10
19.08282083472398
 20
21.04
 30
0.0
 40
0.1200000014830762
 41
0.0
 46
0.0
 71
     7
 72
     1
  1
4
  7
Text Style5
 73
     1
 44
1.0
  0
MTEXT
  5
131
330
F5
100
AcDbEntity
  8
Border (ANSI)
100
AcDbMText
 10
19.08282083472398
 20
0.8399999985169236
 30
0.0
 40
0.1200000014830762
 41
0.0
 46
0.0
 71
     7
 72
     1
  1
4
  7
Text Style5
 73
     1
 44
1.0
  0
MTEXT
  5
132
330
F5
100
AcDbEntity
  8
Border (ANSI)
100
AcDbMText
 10
14.8430093804917
 20
21.03798780484088
 30
0.0
 40
0.1200000014830762
 41
0.0
 46
0.0
 71
     7
 72
     1
  1
5
  7
Text Style5
 73
     1
 44
1.0
  0
MTEXT
  5
133
330
F5
100
AcDbEntity
  8
Border (ANSI)
100
AcDbMText
 10
14.8430093804917
 20
0.8379878033578071
 30
0.0
 40
0.1200000014830762
 41
0.0
 46
0.0
 71
     7
 72
     1
  1
5
  7
Text Style5
 73
     1
 44
1.0
  0
MTEXT
  5
134
330
F5
100
AcDbEntity
  8
Border (ANSI)
100
AcDbMText
 10
10.59166372350351
 20
21.03798780484088
 30
0.0
 40
0.1200000014830762
 41
0.0
 46
0.0
 71
     7
 72
     1
  1
6
  7
Text Style5
 73
     1
 44
1.0
  0
MTEXT
  5
135
330
F5
100
AcDbEntity
  8
Border (ANSI)
100
AcDbMText
 10
10.59166372350351
 20
0.8379878033578073
 30
0.0
 40
0.1200000014830762
 41
0.0
 46
0.0
 71
     7
 72
     1
  1
6
  7
Text Style5
 73
     1
 44
1.0
  0
MTEXT
  5
136
330
F5
100
AcDbEntity
  8
Border (ANSI)
100
AcDbMText
 10
6.34512398433028
 20
21.04
 30
0.0
 40
0.1200000014830762
 41
0.0
 46
0.0
 71
     7
 72
     1
  1
7
  7
Text Style5
 73
     1
 44
2.041589736938476
  0
MTEXT
  5
137
330
F5
100
AcDbEntity
  8
Border (ANSI)
100
AcDbMText
 10
6.34512398433028
 20
0.8399999985169236
 30
0.0
 40
0.1200000014830762
 41
0.0
 46
0.0
 71
     7
 72
     1
  1
7
  7
Text Style5
 73
     1
 44
1.0
  0
MTEXT
  5
138
330
F5
100
AcDbEntity
  8
Border (ANSI)
100
AcDbMText
 10
2.0926249070665
 20
21.03798780484088
 30
0.0
 40
0.1200000014830762
 41
0.0
 46
0.0
 71
     7
 72
     1
  1
8
  7
Text Style5
 73
     1
 44
1.0
  0
MTEXT
  5
139
330
F5
100
AcDbEntity
  8
Border (ANSI)
100
AcDbMText
 10
2.0926249070665
 20
0.8379878033578073
 30
0.0
 40
0.1200000014830762
 41
0.0
 46
0.0
 71
     7
 72
     1
  1
8
  7
Text Style5
 73
     1
 44
1.0
  0
LINE
  5
13A
330
F5
100
AcDbEntity
  8
Border (ANSI)
100
AcDbLine
 10
0.4999999924907534
 20
5.500000105129451
 30
0.0
 11
0.3400000061575822
 21
5.500000105129451
 31
0.0
  0
LINE
  5
13B
330
F5
100
AcDbEntity
  8
Border (ANSI)
100
AcDbLine
 10
33.49999855822466
 20
5.500000105129451
 30
0.0
 11
33.65999957707923
 21
5.500000105129451
 31
0.0
  0
LINE
  5
13C
330
F5
100
AcDbEntity
  8
Border (ANSI)
100
AcDbLine
 10
0.4999999924907534
 20
16.49999993992603
 30
0.0
 11
0.3400000061575822
 21
16.49999993992603
 31
0.0
  0
LINE
  5
13D
330
F5
100
AcDbEntity
  8
Border (ANSI)
100
AcDbLine
 10
33.49999855822466
 20
16.49999993992603
 30
0.0
 11
33.65999957707923
 21
16.49999993992603
 31
0.0
  0
MTEXT
  5
13E
330
F5
100
AcDbEntity
  8
Border (ANSI)
100
AcDbMText
 10
0.343456985781512
 20
2.689999999258462
 30
0.0
 40
0.1200000014830762
 41
0.0
 46
0.0
 71
     7
 72
     1
  1
A
  7
Text Style5
 73
     1
 44
1.0
  0
MTEXT
  5
13F
330
F5
100
AcDbEntity
  8
Border (ANSI)
100
AcDbMText
 10
33.54345698726459
 20
2.689999999258462
 30
0.0
 40
0.1200000014830762
 41
0.0
 46
0.0
 71
     7
 72
     1
  1
A
  7
Text Style5
 73
     1
 44
1.0
  0
MTEXT
  5
140
330
F5
100
AcDbEntity
  8
Border (ANSI)
100
AcDbMText
 10
0.3698298411200366
 20
8.189999999258461
 30
0.0
 40
0.1200000014830762
 41
0.0
 46
0.0
 71
     7
 72
     1
  1
B
  7
Text Style5
 73
     1
 44
1.0
  0
MTEXT
  5
141
330
F5
100
AcDbEntity
  8
Border (ANSI)
100
AcDbMText
 10
33.56982984260311
 20
8.189999999258461
 30
0.0
 40
0.1200000014830762
 41
0.0
 46
0.0
 71
     7
 72
     1
  1
B
  7
Text Style5
 73
     1
 44
1.0
  0
MTEXT
  5
142
330
F5
100
AcDbEntity
  8
Border (ANSI)
100
AcDbMText
 10
0.3569447601029254
 20
13.68798780409935
 30
0.0
 40
0.1200000014830762
 41
0.0
 46
0.0
 71
     7
 72
     1
  1
C
  7
Text Style5
 73
     1
 44
1.0
  0
MTEXT
  5
143
330
F5
100
AcDbEntity
  8
Border (ANSI)
100
AcDbMText
 10
33.556944761586
 20
13.68798780409935
 30
0.0
 40
0.1200000014830762
 41
0.0
 46
0.0
 71
     7
 72
     1
  1
C
  7
Text Style5
 73
     1
 44
1.0
  0
MTEXT
  5
144
330
F5
100
AcDbEntity
  8
Border (ANSI)
100
AcDbMText
 10
0.3665565957328466
 20
19.18999999925846
 30
0.0
 40
0.1200000014830762
 41
0.0
 46
0.0
 71
     7
 72
     1
  1
D
  7
Text Style5
 73
     1
 44
1.0
  0
MTEXT
  5
145
330
F5
100
AcDbEntity
  8
Border (ANSI)
100
AcDbMText
 10
33.56655659721592
 20
19.18999999925846
 30
0.0
 40
0.1200000014830762
 41
0.0
 46
0.0
 71
     7
 72
     1
  1
D
  7
Text Style5
 73
     1
 44
1.0
  0
ENDBLK
  5
F7
330
F5
100
AcDbEntity
  8
0
100
AcDbBlockEnd
  0
BLOCK
  5
148
330
147
100
AcDbEntity
  8
0
100
AcDbBlockBegin
  2
Title Blocks Stahlin
 70
     2
 10
0.0
 20
0.0
 30
0.0
  3
Title Blocks Stahlin
  1

  0
LINE
  5
14A
330
147
100
AcDbEntity
  8
TITLE
100
AcDbLine
 10
4.577514908715926
 20
7.818633075947722
 30
0.0
 11
2.494094878669798
 21
7.818633075947722
 31
0.0
  0
LINE
  5
14B
330
147
100
AcDbEntity
  8
TITLE
100
AcDbLine
 10
2.494094878669798
 20
7.818633075947722
 30
0.0
 11
2.494094878669798
 21
7.018407104293005
 31
0.0
  0
LINE
  5
14C
330
147
100
AcDbEntity
  8
TITLE
 62
     7
100
AcDbLine
 10
15.73376490871206
 20
7.420195575947849
 30
0.0
 11
4.577514908715926
 21
7.420195575947849
 31
0.0
  0
LINE
  5
14D
330
147
100
AcDbEntity
  8
TITLE
 62
     7
100
AcDbLine
 10
10.62048365871388
 20
7.818633075947722
 30
0.0
 11
4.577514908715926
 21
7.818633075947722
 31
0.0
  0
LINE
  5
14E
330
147
100
AcDbEntity
  8
TITLE
 62
     7
100
AcDbLine
 10
10.62048365871388
 20
8.21707057594758
 30
0.0
 11
4.577514908715926
 21
8.21707057594758
 31
0.0
  0
LINE
  5
14F
330
147
100
AcDbEntity
  8
TITLE
 62
     7
100
AcDbLine
 10
15.73376490871206
 20
8.615508075947438
 30
0.0
 11
4.577514908715926
 21
8.615508075947438
 31
0.0
  0
LINE
  5
150
330
147
100
AcDbEntity
  8
TITLE
 62
     7
100
AcDbLine
 10
10.62048365871388
 20
8.881133075947339
 30
0.0
 11
4.577514908715926
 21
8.881133075947339
 31
0.0
  0
LINE
  5
151
330
147
100
AcDbEntity
  8
Border (ANSI)
 62
     7
100
AcDbLine
 10
15.73376490871206
 20
9.146758075947252
 30
0.0
 11
4.577514908715926
 21
9.146758075947252
 31
0.0
  0
LINE
  5
152
330
147
100
AcDbEntity
  8
TITLE
 62
     7
100
AcDbLine
 10
9.292483658713884
 20
8.615508075947438
 30
0.0
 11
9.292483658713884
 21
7.005349433107656
 31
0.0
  0
LINE
  5
153
330
147
100
AcDbEntity
  8
TITLE
 62
     7
100
AcDbLine
 10
8.827514908714448
 20
8.21707057594758
 30
0.0
 11
8.827514908714448
 21
7.021758075947992
 31
0.0
  0
LINE
  5
154
330
147
100
AcDbEntity
  8
TITLE
 62
     7
100
AcDbLine
 10
8.362671158714675
 20
8.21707057594758
 30
0.0
 11
8.362671158714675
 21
7.021758075947992
 31
0.0
  0
LINE
  5
155
330
147
100
AcDbEntity
  8
TITLE
 62
     7
100
AcDbLine
 10
7.765014908714902
 20
8.21707057594758
 30
0.0
 11
7.765014908714902
 21
7.021758075947992
 31
0.0
  0
LINE
  5
156
330
147
100
AcDbEntity
  8
TITLE
 62
     7
100
AcDbLine
 10
5.108764908715812
 20
8.21707057594758
 30
0.0
 11
5.108764908715812
 21
7.021758075947992
 31
0.0
  0
LINE
  5
157
330
147
100
AcDbEntity
  8
Border (ANSI)
 62
     7
100
AcDbLine
 10
4.577514908715926
 20
9.146758075947252
 30
0.0
 11
4.577514908715926
 21
7.021758075947992
 31
0.0
  0
LINE
  5
158
330
147
100
AcDbEntity
  8
TITLE
 62
     7
100
AcDbLine
 10
9.292358658714332
 20
7.619414325947793
 30
0.0
 11
4.577514908715926
 21
7.619414325947793
 31
0.0
  0
LINE
  5
159
330
147
100
AcDbEntity
  8
TITLE
 62
     7
100
AcDbLine
 10
9.292358658714332
 20
7.220976825947921
 30
0.0
 11
4.577514908715926
 21
7.220976825947921
 31
0.0
  0
LINE
  5
15A
330
147
100
AcDbEntity
  8
TITLE
 62
     7
100
AcDbLine
 10
9.292483658713884
 20
8.01785182594765
 30
0.0
 11
4.577639908715476
 21
8.01785182594765
 31
0.0
  0
LINE
  5
15B
330
147
100
AcDbEntity
  8
TITLE
 62
     7
100
AcDbLine
 10
15.73376490871206
 20
7.818633075947722
 30
0.0
 11
10.62048365871388
 21
7.818633075947722
 31
0.0
  0
LINE
  5
15C
330
147
100
AcDbEntity
  8
TITLE
 62
     7
100
AcDbLine
 10
10.62048365871388
 20
9.146758075947252
 30
0.0
 11
10.62048365871388
 21
7.005349433107656
 31
0.0
  0
LINE
  5
15D
330
147
100
AcDbEntity
  8
TITLE
 62
     7
100
AcDbLine
 10
9.956483658713883
 20
8.615508075947438
 30
0.0
 11
9.956483658713883
 21
7.403786933107514
 31
0.0
  0
LINE
  5
15E
330
147
100
AcDbEntity
  8
TITLE
 62
     7
100
AcDbLine
 10
13.21032740871297
 20
7.420195575947849
 30
0.0
 11
13.21032740871297
 21
7.021758075947992
 31
0.0
  0
LINE
  5
15F
330
147
100
AcDbEntity
  8
TITLE
 62
     7
100
AcDbLine
 10
14.55693670123892
 20
7.420195575947849
 30
0.0
 11
14.55693670123892
 21
7.818633075947722
 31
0.0
  0
LINE
  5
160
330
147
100
AcDbEntity
  8
TITLE
 62
     7
100
AcDbLine
 10
12.46036198128459
 20
9.152482374619665
 30
0.0
 11
12.46036198128459
 21
8.62123237461985
 31
0.0
  0
MTEXT
  5
161
330
147
100
AcDbEntity
  8
Title (ANSI)
100
AcDbMText
 10
2.581283051197922
 20
7.786837525255097
 30
0.0
 40
0.0699999998873613
 41
0.0
 46
0.0
 71
     1
 72
     1
  1
\fArial|b0|i0;\H0.0700;THIS DRAWING AND THE INFORMATION\PHEREON ARE OUR PROPERTY AND MAY\PBE USED BY OTHERS ONLY AS\PAUTHORIZED BY STAHLIN ENCLOSURES,\PDIVISION OF ROBROY INDUSTRIES\PALL RIGHTS RESERVED\PUNDER THE COPYRIGHT LAWS
  7
Note Text (ANSI)
 73
     2
 44
0.9442213773727416
  0
TEXT
  5
162
330
147
100
AcDbEntity
  8
TITLE
 62
     7
100
AcDbText
 10
5.452514908715927
 20
8.298320575947437
 30
0.0
 40
0.0996093815705908
  1
12 GA. HOT ROLLED STEEL
100
AcDbText
  0
TEXT
  5
163
330
147
100
AcDbEntity
  8
TITLE
 62
     7
100
AcDbText
 10
14.62468791907254
 20
8.723985246348023
 30
0.0
 40
0.0996093815705908
  1
0.015 (0.381)
100
AcDbText
  0
TEXT
  5
164
330
147
100
AcDbEntity
  8
TITLE
 62
     7
100
AcDbText
 10
10.06029061188501
 20
8.29707057594758
 30
0.0
 40
0.0996093815705908
  1
2/13/07
 72
     1
 11
10.29242939233243
 21
8.29707057594758
 31
0.0
100
AcDbText
  0
TEXT
  5
165
330
147
100
AcDbEntity
  8
TITLE
 62
     7
100
AcDbText
 10
9.539380827597126
 20
8.297070575947582
 30
0.0
 40
0.0996093815705908
  1
LB
 72
     1
 11
9.624483658713883
 21
8.297070575947582
 31
0.0
100
AcDbText
  0
TEXT
  5
166
330
147
100
AcDbEntity
  8
TITLE
 62
     7
100
AcDbText
 10
5.818685709783163
 20
8.08732036338263
 30
0.0
 40
0.0818125023616581
  1
REVISION RECORD
  7
ITALIC_180
 72
     1
 11
6.355294247612987
 21
8.08732036338263
 31
0.0
100
AcDbText
  0
TEXT
  5
168
330
147
100
AcDbEntity
  8
TITLE
 62
     7
100
AcDbText
 10
4.726392296242966
 20
8.490508075947438
 30
0.0
 40
0.0818125023616581
  1
MATERIAL
  7
ITALIC_181-Arial
100
AcDbText
  0
TEXT
  5
169
330
147
100
AcDbEntity
  8
TITLE
 62
     7
100
AcDbText
 10
4.739912550755748
 20
8.08732036338263
 30
0.0
 40
0.0818125023616581
  1
LET.
  7
ITALIC_180
 72
     1
 11
4.860594362731932
 21
8.08732036338263
 31
0.0
100
AcDbText
  0
TEXT
  5
16A
330
147
100
AcDbEntity
  8
TITLE
 62
     7
100
AcDbText
 10
4.727186152325538
 20
9.021758075947436
 30
0.0
 40
0.0818125023616581
  1
NOTES:
  7
ITALIC_181-Arial
100
AcDbText
  0
TEXT
  5
16B
330
147
100
AcDbEntity
  8
TITLE
 62
     7
100
AcDbText
 10
7.896038829012821
 20
8.087320363382637
 30
0.0
 40
0.0818125023616581
  1
DATE
  7
ITALIC_180
 72
     1
 11
8.048446703466906
 21
8.087320363382637
 31
0.0
100
AcDbText
  0
TEXT
  5
16C
330
147
100
AcDbEntity
  8
TITLE
 62
     7
100
AcDbText
 10
8.51270445423108
 20
8.08732036338263
 30
0.0
 40
0.0818125023616581
  1
BY
  7
ITALIC_180
 72
     1
 11
8.58893629476725
 21
8.08732036338263
 31
0.0
100
AcDbText
  0
TEXT
  5
16D
330
147
100
AcDbEntity
  8
TITLE
 62
     7
100
AcDbText
 10
8.909040255791561
 20
8.08732036338263
 30
0.0
 40
0.0818125023616581
  1
CHD.
  7
ITALIC_180
 72
     1
 11
9.048724221283531
 21
8.08732036338263
 31
0.0
100
AcDbText
  0
TEXT
  5
16E
330
147
100
AcDbEntity
  8
TITLE
 62
     7
100
AcDbText
 10
14.46980800545204
 20
8.763349351005194
 30
0.0
 40
0.0824765602904042
  1
+
  7
ITALIC_186
100
AcDbText
  0
TEXT
  5
16F
330
147
100
AcDbEntity
  8
TITLE
 62
     7
100
AcDbText
 10
14.46980800545204
 20
8.682711774292775
 30
0.0
 40
0.0824765602904042
  1
-
  7
ITALIC_186
100
AcDbText
  0
TEXT
  5
170
330
147
100
AcDbEntity
  8
TITLE
 62
     7
100
AcDbText
 10
14.08646096724307
 20
8.723985246348023
 30
0.0
 40
0.0824765602904042
  1
.XXX
  7
ITALIC_186
100
AcDbText
  0
TEXT
  5
171
330
147
100
AcDbEntity
  8
TITLE
 62
     7
100
AcDbText
 10
9.769085034613988
 20
7.261037545932001
 30
0.0
 40
0.0818125023616581
  1
SCALE
  7
ITALIC_180
 72
     1
 11
9.956483658713883
 21
7.261037545932001
 31
0.0
100
AcDbText
  0
TEXT
  5
172
330
147
100
AcDbEntity
  8
TITLE
 62
     7
100
AcDbText
 10
9.399080727582411
 20
7.688633075947723
 30
0.0
 40
0.0818125023616581
  1
APD. BY
  7
ITALIC_180
 72
     1
 11
9.624483658713883
 21
7.688633075947723
 31
0.0
100
AcDbText
  0
TEXT
  5
173
330
147
100
AcDbEntity
  8
TITLE
 62
     7
100
AcDbText
 10
10.1360757842598
 20
7.688633075947723
 30
0.0
 40
0.0818125023616581
  1
DATE
  7
ITALIC_180
 72
     1
 11
10.28848365871388
 21
7.688633075947723
 31
0.0
100
AcDbText
  0
TEXT
  5
174
330
147
100
AcDbEntity
  8
TITLE
 62
     7
100
AcDbText
 10
10.74048775129924
 20
7.688633075947722
 30
0.0
 40
0.0899937502511843
  1
CUSTOMER
  7
ITALIC_191
100
AcDbText
  0
TEXT
  5
175
330
147
100
AcDbEntity
  8
TITLE
 62
     7
100
AcDbText
 10
10.74048775129924
 20
7.290195575947849
 30
0.0
 40
0.0899937502511843
  1
PART NAME
  7
ITALIC_191
100
AcDbText
  0
TEXT
  5
176
330
147
100
AcDbEntity
  8
TITLE
 62
     7
100
AcDbText
 10
13.33032740871297
 20
7.290195575947853
 30
0.0
 40
0.0899937502511843
  1
PART NO.
  7
ITALIC_191
100
AcDbText
  0
TEXT
  5
177
330
147
100
AcDbEntity
  8
TITLE
 62
     7
100
AcDbText
 10
9.395843943723628
 20
8.08732036338263
 30
0.0
 40
0.0818125023616581
  1
CHK. BY
  7
ITALIC_180
 72
     1
 11
9.624483658713883
 21
8.08732036338263
 31
0.0
100
AcDbText
  0
TEXT
  5
178
330
147
100
AcDbEntity
  8
TITLE
 62
     7
100
AcDbText
 10
9.433959863991713
 20
8.485508075947439
 30
0.0
 40
0.0818125023616581
  1
DR. BY
  7
ITALIC_180
 72
     1
 11
9.624483658713883
 21
8.485508075947439
 31
0.0
100
AcDbText
  0
TEXT
  5
179
330
147
100
AcDbEntity
  8
TITLE
 62
     7
100
AcDbText
 10
10.1360757842598
 20
8.087320363382632
 30
0.0
 40
0.0818125023616581
  1
DATE
  7
ITALIC_180
 72
     1
 11
10.28848365871388
 21
8.087320363382632
 31
0.0
100
AcDbText
  0
TEXT
  5
17A
330
147
100
AcDbEntity
  8
TITLE
 62
     7
100
AcDbText
 10
10.1360757842598
 20
8.485508075947439
 30
0.0
 40
0.0818125023616581
  1
DATE
  7
ITALIC_180
 72
     1
 11
10.28848365871388
 21
8.485508075947439
 31
0.0
100
AcDbText
  0
TEXT
  5
17B
330
147
100
AcDbEntity
  8
TITLE
 62
     7
100
AcDbText
 10
12.75473842883989
 20
8.741238191309086
 30
0.0
 40
0.0824765602904042
  1
UNLESS SPECIFIED
  7
ITALIC_187
 72
     1
 11
13.30537917498063
 21
8.741238191309086
 31
0.0
100
AcDbText
  0
TEXT
  5
17C
330
147
100
AcDbEntity
  8
TITLE
 62
     7
100
AcDbText
 10
12.91482509480602
 20
8.935897686850758
 30
0.0
 40
0.0824765602904042
  1
TOLERANCES
  7
ITALIC_187
 72
     1
 11
13.30537917498063
 21
8.935897686850758
 31
0.0
100
AcDbText
  0
TEXT
  5
17D
330
147
100
AcDbEntity
  8
TITLE
 62
     7
100
AcDbText
 10
14.10092407113986
 20
8.93589768685076
 30
0.0
 40
0.0824765602904042
  1
.XX
  7
ITALIC_186
100
AcDbText
  0
TEXT
  5
17E
330
147
100
AcDbEntity
  8
TITLE
 62
     7
100
AcDbText
 10
14.46791747213411
 20
8.96267554330536
 30
0.0
 40
0.0824765602904042
  1
+
  7
ITALIC_186
100
AcDbText
  0
TEXT
  5
17F
330
147
100
AcDbEntity
  8
TITLE
 62
     7
100
AcDbText
 10
14.46791747213411
 20
8.90375890402475
 30
0.0
 40
0.0824765602904042
  1
-
  7
ITALIC_186
100
AcDbText
  0
TEXT
  5
180
330
147
100
AcDbEntity
  8
TITLE
 62
     7
100
AcDbText
 10
14.62951444226013
 20
8.93589768685076
 30
0.0
 40
0.0996093815705908
  1
0.03 (0.76)
100
AcDbText
  0
MTEXT
  5
181
330
147
100
AcDbEntity
  8
Title (ANSI)
100
AcDbMText
 10
11.54927456472802
 20
9.034141029898576
 30
0.0
 40
0.0818125023616581
 41
0.0
 46
0.0
 71
     2
 72
     1
  1
\fArial|b0|i0;\H0.0818;ALL DIMENSIONS ARE\PINCHES (MILLIMETERS)\PUNLESS SPECIFIED
  7
Note Text (ANSI)
 73
     2
 44
0.9442214369773864
  0
ATTDEF
  5
182
330
147
100
AcDbEntity
  8
TITLE
 62
     7
100
AcDbText
 10
5.452514908715927
 20
8.696758075947437
 30
0.0
 40
0.0996093815705908
  1

100
AcDbAttributeDefinition
280
     0
  3
NOTE_2
  2
NOTE_2
 70
     0
280
     0
  0
ATTDEF
  5
183
330
147
100
AcDbEntity
  8
TITLE
 62
     7
100
AcDbText
 10
5.452514908715927
 20
8.962383075947437
 30
0.0
 40
0.0996093815705908
  1

100
AcDbAttributeDefinition
280
     0
  3
NOTE_1
  2
NOTE_1
 70
     0
280
     0
  0
ATTDEF
  5
184
330
147
100
AcDbEntity
  8
TITLE
 62
     7
100
AcDbText
 10
11.37048365871388
 20
7.087958621407276
 30
0.0
 40
0.1249999981226883
  1

 11
11.37048365871388
 21
7.071758075947991
 31
0.0
100
AcDbAttributeDefinition
280
     0
  3
DESCRIPTION
  2
DESCRIPTION
 70
     0
 74
     1
280
     0
  0
ATTDEF
  5
185
330
147
100
AcDbEntity
  8
TITLE
 62
     7
100
AcDbText
 10
10.28848365871388
 20
7.911542886656055
 30
0.0
 40
0.0996093815705908
  1

 72
     1
 11
10.28848365871388
 21
7.898633075947724
 31
0.0
100
AcDbAttributeDefinition
280
     0
  3
CHECKED DATE
  2
CHECKED_DATE
 70
     0
 74
     1
280
     0
  0
ATTDEF
  5
186
330
147
100
AcDbEntity
  8
TITLE
 62
     7
100
AcDbText
 10
9.624483658713883
 20
7.898633075947724
 30
0.0
 40
0.0996093815705908
  1

 72
     1
 11
9.624483658713883
 21
7.898633075947724
 31
0.0
100
AcDbAttributeDefinition
280
     0
  3
CHECKED BY
  2
CHECKED_BY
 70
     0
280
     0
  0
ATTDEF
  5
187
330
147
100
AcDbEntity
  8
TITLE
 62
     7
100
AcDbText
 10
9.624483658713883
 20
7.500195575947851
 30
0.0
 40
0.0996093815705908
  1

 72
     1
 11
9.624483658713883
 21
7.500195575947851
 31
0.0
100
AcDbAttributeDefinition
280
     0
  3
ENG APPROVED BY
  2
ENG_APPROVED_BY
 70
     0
280
     0
  0
ATTDEF
  5
188
330
147
100
AcDbEntity
  8
TITLE
 62
     7
100
AcDbText
 10
11.37048365871388
 20
7.483105386656179
 30
0.0
 40
0.0996093815705908
  1

 11
11.37048365871388
 21
7.470195575947848
 31
0.0
100
AcDbAttributeDefinition
280
     0
  3
CUSTOMER
  2
CUSTOMER
 70
     0
 74
     1
280
     0
  0
ATTDEF
  5
189
330
147
100
AcDbEntity
  8
Title (ANSI)
100
AcDbText
 10
10.28850059809647
 20
7.513271019414488
 30
0.0
 40
0.1000000031914298
  1

  7
Note Text (ANSI)
 72
     1
 11
10.28850059809647
 21
7.500310582438791
 31
0.0
100
AcDbAttributeDefinition
280
     0
  3
ENG APPROVAL DATE
  2
ENG_APPROVAL_DATE
 70
     0
 74
     1
280
     0
  0
ENDBLK
  5
149
330
147
100
AcDbEntity
  8
0
100
AcDbBlockEnd
  0
BLOCK
  5
203
330
1F8
100
AcDbEntity
  8
0
100
AcDbBlockBegin
  2
*D6
 70
     1
 10
0.0
 20
0.0
 30
0.0
  3
*D6
  1

  0
LINE
  5
2BF
330
1F8
100
AcDbEntity
  8
Dimension (ANSI)
440
 16777216
100
AcDbLine
 10
86.03021672766978
 20
82.50859412996787
 30
0.0
 11
86.03021672766978
 21
94.21811676776314
 31
0.0
  0
LINE
  5
2C0
330
1F8
100
AcDbEntity
  8
Dimension (ANSI)
440
 16777216
100
AcDbLine
 10
53.03021672766978
 20
82.50859412996787
 30
0.0
 11
53.03021672766978
 21
94.21811676776314
 31
0.0
  0
LINE
  5
2C1
330
1F8
100
AcDbEntity
  8
Dimension (ANSI)
440
 16777216
100
AcDbLine
 10
85.41505926128799
 20
93.43686676776314
 30
0.0
 11
71.40510265871819
 21
93.43686676776314
 31
0.0
  0
LINE
  5
2C2
330
1F8
100
AcDbEntity
  8
Dimension (ANSI)
440
 16777216
100
AcDbLine
 10
53.64537419405157
 20
93.43686676776314
 30
0.0
 11
67.65533079662137
 21
93.43686676776314
 31
0.0
  0
SOLID
  5
2C3
330
1F8
100
AcDbEntity
  8
Dimension (ANSI)
440
 16777216
100
AcDbTrace
 10
85.41505926128799
 20
93.53939301216012
 30
0.0
 11
85.41505926128799
 21
93.33434052336619
 31
0.0
 12
86.03021672766978
 22
93.43686676776314
 32
0.0
 13
86.03021672766978
 23
93.43686676776314
 33
0.0
  0
SOLID
  5
2C4
330
1F8
100
AcDbEntity
  8
Dimension (ANSI)
440
 16777216
100
AcDbTrace
 10
53.64537419405157
 20
93.53939301216012
 30
0.0
 11
53.64537419405157
 21
93.33434052336619
 31
0.0
 12
53.03021672766978
 22
93.43686676776314
 32
0.0
 13
53.03021672766978
 23
93.43686676776314
 33
0.0
  0
MTEXT
  5
2C5
330
1F8
100
AcDbEntity
  8
Dimension (ANSI)
440
 16777216
100
AcDbMText
 10
67.85218119032215
 20
94.54404621148565
 30
0.0
 40
0.7500000298023224
 41
0.0
 46
0.0
 71
     1
 72
     1
  1
\A1;33.00\P [838.2]
  7
Note Text (ANSI)
 73
     1
 44
1.0
  0
POINT
  5
2C6
330
1F8
100
AcDbEntity
  8
Defpoints
 62
     0
440
 16777216
100
AcDbPoint
 10
86.03021672766978
 20
82.11796912996787
 30
0.0
  0
POINT
  5
2C7
330
1F8
100
AcDbEntity
  8
Defpoints
 62
     0
440
 16777216
100
AcDbPoint
 10
53.03021672766978
 20
82.11796912996787
 30
0.0
  0
POINT
  5
2C8
330
1F8
100
AcDbEntity
  8
Defpoints
 62
     0
440
 16777216
100
AcDbPoint
 10
53.03021672766978
 20
93.43686676776314
 30
0.0
  0
ENDBLK
  5
204
330
1F8
100
AcDbEntity
  8
0
100
AcDbBlockEnd
  0
BLOCK
  5
2D5
330
2CA
100
AcDbEntity
  8
0
100
AcDbBlockBegin
  2
*D7
 70
     1
 10
0.0
 20
0.0
 30
0.0
  3
*D7
  1

  0
LINE
  5
391
330
2CA
100
AcDbEntity
  8
Dimension (ANSI)
440
 16777216
100
AcDbLine
 10
53.90521672766976
 20
81.75859412996787
 30
0.0
 11
53.90521672766976
 21
88.26705151655543
 31
0.0
  0
LINE
  5
392
330
2CA
100
AcDbEntity
  8
Dimension (ANSI)
440
 16777216
100
AcDbLine
 10
69.53021672766976
 20
81.75859412996787
 30
0.0
 11
69.53021672766976
 21
88.26705151655543
 31
0.0
  0
LINE
  5
393
330
2CA
100
AcDbEntity
  8
Dimension (ANSI)
440
 16777216
100
AcDbLine
 10
54.52037419405155
 20
87.48580151655543
 30
0.0
 11
59.90533079662135
 21
87.48580151655543
 31
0.0
  0
LINE
  5
394
330
2CA
100
AcDbEntity
  8
Dimension (ANSI)
440
 16777216
100
AcDbLine
 10
68.91505926128798
 20
87.48580151655543
 30
0.0
 11
63.65510265871817
 21
87.48580151655543
 31
0.0
  0
SOLID
  5
395
330
2CA
100
AcDbEntity
  8
Dimension (ANSI)
440
 16777216
100
AcDbTrace
 10
54.52037419405155
 20
87.58832776095239
 30
0.0
 11
54.52037419405155
 21
87.38327527215846
 31
0.0
 12
53.90521672766976
 22
87.48580151655543
 32
0.0
 13
53.90521672766976
 23
87.48580151655543
 33
0.0
  0
SOLID
  5
396
330
2CA
100
AcDbEntity
  8
Dimension (ANSI)
440
 16777216
100
AcDbTrace
 10
68.91505926128798
 20
87.58832776095239
 30
0.0
 11
68.91505926128798
 21
87.38327527215846
 31
0.0
 12
69.53021672766976
 22
87.48580151655543
 32
0.0
 13
69.53021672766976
 23
87.48580151655543
 33
0.0
  0
MTEXT
  5
397
330
2CA
100
AcDbEntity
  8
Dimension (ANSI)
440
 16777216
100
AcDbMText
 10
60.10218119032213
 20
88.59298096027792
 30
0.0
 40
0.7500000298023224
 41
0.0
 46
0.0
 71
     1
 72
     1
  1
\A1;15.625\P [396.9]
  7
Note Text (ANSI)
 73
     1
 44
1.0
  0
POINT
  5
398
330
2CA
100
AcDbEntity
  8
Defpoints
 62
     0
440
 16777216
100
AcDbPoint
 10
53.90521672766976
 20
81.36796912996787
 30
0.0
  0
POINT
  5
399
330
2CA
100
AcDbEntity
  8
Defpoints
 62
     0
440
 16777216
100
AcDbPoint
 10
69.53021672766976
 20
81.36796912996787
 30
0.0
  0
POINT
  5
39A
330
2CA
100
AcDbEntity
  8
Defpoints
 62
     0
440
 16777216
100
AcDbPoint
 10
69.53021672766976
 20
87.48580151655543
 30
0.0
  0
ENDBLK
  5
2D6
330
2CA
100
AcDbEntity
  8
0
100
AcDbBlockEnd
  0
BLOCK
  5
3A7
330
39C
100
AcDbEntity
  8
0
100
AcDbBlockBegin
  2
*D8
 70
     1
 10
0.0
 20
0.0
 30
0.0
  3
*D8
  1

  0
LINE
  5
463
330
39C
100
AcDbEntity
  8
Dimension (ANSI)
440
 16777216
100
AcDbLine
 10
85.15521672766977
 20
81.75859412996787
 30
0.0
 11
85.15521672766977
 21
88.26705151655543
 31
0.0
  0
LINE
  5
464
330
39C
100
AcDbEntity
  8
Dimension (ANSI)
440
 16777216
100
AcDbLine
 10
69.53021672766976
 20
81.75859412996787
 30
0.0
 11
69.53021672766976
 21
88.26705151655543
 31
0.0
  0
LINE
  5
465
330
39C
100
AcDbEntity
  8
Dimension (ANSI)
440
 16777216
100
AcDbLine
 10
84.54005926128798
 20
87.48580151655543
 30
0.0
 11
79.15510265871818
 21
87.48580151655543
 31
0.0
  0
LINE
  5
466
330
39C
100
AcDbEntity
  8
Dimension (ANSI)
440
 16777216
100
AcDbLine
 10
70.14537419405155
 20
87.48580151655543
 30
0.0
 11
75.40533079662136
 21
87.48580151655543
 31
0.0
  0
SOLID
  5
467
330
39C
100
AcDbEntity
  8
Dimension (ANSI)
440
 16777216
100
AcDbTrace
 10
84.54005926128798
 20
87.58832776095239
 30
0.0
 11
84.54005926128798
 21
87.38327527215846
 31
0.0
 12
85.15521672766977
 22
87.48580151655543
 32
0.0
 13
85.15521672766977
 23
87.48580151655543
 33
0.0
  0
SOLID
  5
468
330
39C
100
AcDbEntity
  8
Dimension (ANSI)
440
 16777216
100
AcDbTrace
 10
70.14537419405155
 20
87.58832776095239
 30
0.0
 11
70.14537419405155
 21
87.38327527215846
 31
0.0
 12
69.53021672766976
 22
87.48580151655543
 32
0.0
 13
69.53021672766976
 23
87.48580151655543
 33
0.0
  0
MTEXT
  5
469
330
39C
100
AcDbEntity
  8
Dimension (ANSI)
440
 16777216
100
AcDbMText
 10
75.60218119032214
 20
88.59298096027792
 30
0.0
 40
0.7500000298023224
 41
0.0
 46
0.0
 71
     1
 72
     1
  1
\A1;15.625\P [396.9]
  7
Note Text (ANSI)
 73
     1
 44
1.0
  0
POINT
  5
46A
330
39C
100
AcDbEntity
  8
Defpoints
 62
     0
440
 16777216
100
AcDbPoint
 10
85.15521672766977
 20
81.36796912996787
 30
0.0
  0
POINT
  5
46B
330
39C
100
AcDbEntity
  8
Defpoints
 62
     0
440
 16777216
100
AcDbPoint
 10
69.53021672766976
 20
81.36796912996787
 30
0.0
  0
POINT
  5
46C
330
39C
100
AcDbEntity
  8
Defpoints
 62
     0
440
 16777216
100
AcDbPoint
 10
69.53021672766976
 20
87.48580151655543
 30
0.0
  0
ENDBLK
  5
3A8
330
39C
100
AcDbEntity
  8
0
100
AcDbBlockEnd
  0
BLOCK
  5
479
330
46E
100
AcDbEntity
  8
0
100
AcDbBlockBegin
  2
*D9
 70
     1
 10
0.0
 20
0.0
 30
0.0
  3
*D9
  1

  0
LINE
  5
535
330
46E
100
AcDbEntity
  8
Dimension (ANSI)
440
 16777216
100
AcDbLine
 10
86.29584172766977
 20
82.24296912996788
 30
0.0
 11
101.0725603328915
 21
82.24296912996786
 31
0.0
  0
LINE
  5
536
330
46E
100
AcDbEntity
  8
Dimension (ANSI)
440
 16777216
100
AcDbLine
 10
86.2958417276698
 20
25.2429691299679
 30
0.0
 11
101.0725603328915
 21
25.2429691299679
 31
0.0
  0
LINE
  5
537
330
46E
100
AcDbEntity
  8
Dimension (ANSI)
440
 16777216
100
AcDbLine
 10
100.2913103328915
 20
81.62781166358607
 30
0.0
 11
100.2913103328915
 21
55.04699896739117
 31
0.0
  0
LINE
  5
538
330
46E
100
AcDbEntity
  8
Dimension (ANSI)
440
 16777216
100
AcDbLine
 10
100.2913103328915
 20
25.85812659634969
 30
0.0
 11
100.2913103328915
 21
52.43893929254458
 31
0.0
  0
SOLID
  5
539
330
46E
100
AcDbEntity
  8
Dimension (ANSI)
440
 16777216
100
AcDbTrace
 10
100.1887840884945
 20
81.62781166358607
 30
0.0
 11
100.3938365772885
 21
81.62781166358607
 31
0.0
 12
100.2913103328915
 22
82.24296912996786
 32
0.0
 13
100.2913103328915
 23
82.24296912996786
 33
0.0
  0
SOLID
  5
53A
330
46E
100
AcDbEntity
  8
Dimension (ANSI)
440
 16777216
100
AcDbTrace
 10
100.1887840884945
 20
25.85812659634969
 30
0.0
 11
100.3938365772885
 21
25.85812659634969
 31
0.0
 12
100.2913103328915
 22
25.2429691299679
 32
0.0
 13
100.2913103328915
 23
25.2429691299679
 33
0.0
  0
MTEXT
  5
53B
330
46E
100
AcDbEntity
  8
Dimension (ANSI)
440
 16777216
100
AcDbMText
 10
98.32192075940991
 20
54.8501485736904
 30
0.0
 40
0.7500000298023224
 41
0.0
 46
0.0
 71
     1
 72
     1
  1
\A1;57.00\P [1447.8]
  7
Note Text (ANSI)
 73
     1
 44
1.0
  0
POINT
  5
53C
330
46E
100
AcDbEntity
  8
Defpoints
 62
     0
440
 16777216
100
AcDbPoint
 10
85.90521672766977
 20
82.24296912996788
 30
0.0
  0
POINT
  5
53D
330
46E
100
AcDbEntity
  8
Defpoints
 62
     0
440
 16777216
100
AcDbPoint
 10
85.9052167276698
 20
25.2429691299679
 30
0.0
  0
POINT
  5
53E
330
46E
100
AcDbEntity
  8
Defpoints
 62
     0
440
 16777216
100
AcDbPoint
 10
100.2913103328915
 20
25.2429691299679
 30
0.0
  0
ENDBLK
  5
47A
330
46E
100
AcDbEntity
  8
0
100
AcDbBlockEnd
  0
BLOCK
  5
54B
330
540
100
AcDbEntity
  8
0
100
AcDbBlockBegin
  2
*D10
 70
     1
 10
0.0
 20
0.0
 30
0.0
  3
*D10
  1

  0
LINE
  5
607
330
540
100
AcDbEntity
  8
Dimension (ANSI)
440
 16777216
100
AcDbLine
 10
85.54584172766977
 20
81.36796912996787
 30
0.0
 11
93.80017495343066
 21
81.36796912996787
 31
0.0
  0
LINE
  5
608
330
540
100
AcDbEntity
  8
Dimension (ANSI)
440
 16777216
100
AcDbLine
 10
85.67084172766978
 20
53.74296912996788
 30
0.0
 11
93.80017495343066
 21
53.74296912996788
 31
0.0
  0
LINE
  5
609
330
540
100
AcDbEntity
  8
Dimension (ANSI)
440
 16777216
100
AcDbLine
 10
93.01892495343066
 20
80.75281166358609
 30
0.0
 11
93.01892495343066
 21
68.85949896739115
 31
0.0
  0
LINE
  5
60A
330
540
100
AcDbEntity
  8
Dimension (ANSI)
440
 16777216
100
AcDbLine
 10
93.01892495343066
 20
54.35812659634967
 30
0.0
 11
93.01892495343066
 21
66.25143929254457
 31
0.0
  0
SOLID
  5
60B
330
540
100
AcDbEntity
  8
Dimension (ANSI)
440
 16777216
100
AcDbTrace
 10
92.9163987090337
 20
80.75281166358609
 30
0.0
 11
93.12145119782764
 21
80.75281166358609
 31
0.0
 12
93.01892495343066
 22
81.36796912996787
 32
0.0
 13
93.01892495343066
 23
81.36796912996787
 33
0.0
  0
SOLID
  5
60C
330
540
100
AcDbEntity
  8
Dimension (ANSI)
440
 16777216
100
AcDbTrace
 10
92.9163987090337
 20
54.35812659634967
 30
0.0
 11
93.12145119782764
 21
54.35812659634967
 31
0.0
 12
93.01892495343066
 22
53.74296912996788
 32
0.0
 13
93.01892495343066
 23
53.74296912996788
 33
0.0
  0
MTEXT
  5
60D
330
540
100
AcDbEntity
  8
Dimension (ANSI)
440
 16777216
100
AcDbMText
 10
91.34088941608302
 20
68.66264857369038
 30
0.0
 40
0.7500000298023224
 41
0.0
 46
0.0
 71
     1
 72
     1
  1
\A1;27.625\P [701.7]
  7
Note Text (ANSI)
 73
     1
 44
1.0
  0
POINT
  5
60E
330
540
100
AcDbEntity
  8
Defpoints
 62
     0
440
 16777216
100
AcDbPoint
 10
85.15521672766977
 20
81.36796912996787
 30
0.0
  0
POINT
  5
60F
330
540
100
AcDbEntity
  8
Defpoints
 62
     0
440
 16777216
100
AcDbPoint
 10
85.28021672766978
 20
53.74296912996788
 30
0.0
  0
POINT
  5
610
330
540
100
AcDbEntity
  8
Defpoints
 62
     0
440
 16777216
100
AcDbPoint
 10
93.01892495343066
 20
53.74296912996788
 30
0.0
  0
ENDBLK
  5
54C
330
540
100
AcDbEntity
  8
0
100
AcDbBlockEnd
  0
BLOCK
  5
61D
330
612
100
AcDbEntity
  8
0
100
AcDbBlockBegin
  2
*D11
 70
     1
 10
0.0
 20
0.0
 30
0.0
  3
*D11
  1

  0
LINE
  5
6D9
330
612
100
AcDbEntity
  8
Dimension (ANSI)
440
 16777216
100
AcDbLine
 10
85.67084172766978
 20
53.74296912996788
 30
0.0
 11
93.92517495343067
 21
53.74296912996788
 31
0.0
  0
LINE
  5
6DA
330
612
100
AcDbEntity
  8
Dimension (ANSI)
440
 16777216
100
AcDbLine
 10
85.67084172766978
 20
26.11796912996787
 30
0.0
 11
93.92517495343065
 21
26.11796912996787
 31
0.0
  0
LINE
  5
6DB
330
612
100
AcDbEntity
  8
Dimension (ANSI)
440
 16777216
100
AcDbLine
 10
93.14392495343067
 20
53.12781166358609
 30
0.0
 11
93.14392495343067
 21
41.23449896739116
 31
0.0
  0
LINE
  5
6DC
330
612
100
AcDbEntity
  8
Dimension (ANSI)
440
 16777216
100
AcDbLine
 10
93.14392495343065
 20
26.73312659634966
 30
0.0
 11
93.14392495343067
 21
38.62643929254458
 31
0.0
  0
SOLID
  5
6DD
330
612
100
AcDbEntity
  8
Dimension (ANSI)
440
 16777216
100
AcDbTrace
 10
93.0413987090337
 20
53.12781166358609
 30
0.0
 11
93.24645119782763
 21
53.12781166358609
 31
0.0
 12
93.14392495343067
 22
53.74296912996788
 32
0.0
 13
93.14392495343067
 23
53.74296912996788
 33
0.0
  0
SOLID
  5
6DE
330
612
100
AcDbEntity
  8
Dimension (ANSI)
440
 16777216
100
AcDbTrace
 10
93.04139870903368
 20
26.73312659634966
 30
0.0
 11
93.24645119782763
 21
26.73312659634966
 31
0.0
 12
93.14392495343065
 22
26.11796912996787
 32
0.0
 13
93.14392495343065
 23
26.11796912996787
 33
0.0
  0
MTEXT
  5
6DF
330
612
100
AcDbEntity
  8
Dimension (ANSI)
440
 16777216
100
AcDbMText
 10
91.46588941608303
 20
41.03764857369038
 30
0.0
 40
0.7500000298023224
 41
0.0
 46
0.0
 71
     1
 72
     1
  1
\A1;27.625\P [701.7]
  7
Note Text (ANSI)
 73
     1
 44
1.0
  0
POINT
  5
6E0
330
612
100
AcDbEntity
  8
Defpoints
 62
     0
440
 16777216
100
AcDbPoint
 10
85.28021672766978
 20
53.74296912996788
 30
0.0
  0
POINT
  5
6E1
330
612
100
AcDbEntity
  8
Defpoints
 62
     0
440
 16777216
100
AcDbPoint
 10
85.28021672766978
 20
26.11796912996787
 30
0.0
  0
POINT
  5
6E2
330
612
100
AcDbEntity
  8
Defpoints
 62
     0
440
 16777216
100
AcDbPoint
 10
93.14392495343065
 20
26.11796912996787
 30
0.0
  0
ENDBLK
  5
61E
330
612
100
AcDbEntity
  8
0
100
AcDbBlockEnd
  0
BLOCK
  5
6EF
330
6E4
100
AcDbEntity
  8
0
100
AcDbBlockBegin
  2
*D12
 70
     1
 10
0.0
 20
0.0
 30
0.0
  3
*D12
  1

  0
LINE
  5
7BD
330
6E4
100
AcDbEntity
  8
Dimension (ANSI)
440
 16777216
100
AcDbLine
 10
85.54584172766977
 20
81.36796912996787
 30
0.0
 11
92.3245711871413
 21
81.36796912996787
 31
0.0
  0
LINE
  5
7BE
330
6E4
100
AcDbEntity
  8
Dimension (ANSI)
440
 16777216
100
AcDbLine
 10
86.29584172766977
 20
82.24296912996788
 30
0.0
 11
92.3245711871413
 21
82.24296912996788
 31
0.0
  0
LINE
  5
7BF
330
6E4
100
AcDbEntity
  8
Dimension (ANSI)
440
 16777216
100
AcDbLine
 10
91.5433211871413
 20
82.85812659634967
 30
0.0
 11
91.5433211871413
 21
83.47328406273145
 31
0.0
  0
LINE
  5
7C0
330
6E4
100
AcDbEntity
  8
Dimension (ANSI)
440
 16777216
100
AcDbLine
 10
91.5433211871413
 20
80.75281166358609
 30
0.0
 11
91.5433211871413
 21
78.58623147774537
 31
0.0
  0
LINE
  5
7C1
330
6E4
100
AcDbEntity
  8
Dimension (ANSI)
440
 16777216
100
AcDbLine
 10
91.5433211871413
 20
78.58623147774537
 30
0.0
 11
90.92816372075951
 21
78.58623147774537
 31
0.0
  0
SOLID
  5
7C2
330
6E4
100
AcDbEntity
  8
Dimension (ANSI)
440
 16777216
100
AcDbTrace
 10
91.44079494274434
 20
82.85812659634967
 30
0.0
 11
91.64584743153827
 21
82.85812659634967
 31
0.0
 12
91.5433211871413
 22
82.24296912996788
 32
0.0
 13
91.5433211871413
 23
82.24296912996788
 33
0.0
  0
SOLID
  5
7C3
330
6E4
100
AcDbEntity
  8
Dimension (ANSI)
440
 16777216
100
AcDbTrace
 10
91.44079494274434
 20
80.75281166358609
 30
0.0
 11
91.64584743153827
 21
80.75281166358609
 31
0.0
 12
91.5433211871413
 22
81.36796912996787
 32
0.0
 13
91.5433211871413
 23
81.36796912996787
 33
0.0
  0
MTEXT
  5
7C4
330
6E4
100
AcDbEntity
  8
Dimension (ANSI)
440
 16777216
100
AcDbMText
 10
87.95795032463143
 20
79.69341092146788
 30
0.0
 40
0.7500000298023224
 41
0.0
 46
0.0
 71
     1
 72
     1
  1
\A1;0.88\P [22.2]
  7
Note Text (ANSI)
 73
     1
 44
1.0
  0
POINT
  5
7C5
330
6E4
100
AcDbEntity
  8
Defpoints
 62
     0
440
 16777216
100
AcDbPoint
 10
85.15521672766977
 20
81.36796912996787
 30
0.0
  0
POINT
  5
7C6
330
6E4
100
AcDbEntity
  8
Defpoints
 62
     0
440
 16777216
100
AcDbPoint
 10
85.90521672766977
 20
82.24296912996788
 30
0.0
  0
POINT
  5
7C7
330
6E4
100
AcDbEntity
  8
Defpoints
 62
     0
440
 16777216
100
AcDbPoint
 10
91.5433211871413
 20
82.24296912996788
 30
0.0
  0
ENDBLK
  5
6F0
330
6E4
100
AcDbEntity
  8
0
100
AcDbBlockEnd
  0
BLOCK
  5
7D4
330
7C9
100
AcDbEntity
  8
0
100
AcDbBlockBegin
  2
*D13
 70
     1
 10
0.0
 20
0.0
 30
0.0
  3
*D13
  1

  0
LINE
  5
890
330
7C9
100
AcDbEntity
  8
Dimension (ANSI)
440
 16777216
100
AcDbLine
 10
85.15521672766977
 20
81.75859412996787
 30
0.0
 11
85.15521672766977
 21
85.79886541591854
 31
0.0
  0
LINE
  5
891
330
7C9
100
AcDbEntity
  8
Dimension (ANSI)
440
 16777216
100
AcDbLine
 10
86.03021672766978
 20
82.50859412996787
 30
0.0
 11
86.03021672766978
 21
85.79886541591854
 31
0.0
  0
LINE
  5
892
330
7C9
100
AcDbEntity
  8
Dimension (ANSI)
440
 16777216
100
AcDbLine
 10
86.64537419405156
 20
85.01761541591854
 30
0.0
 11
87.26053166043335
 21
85.01761541591854
 31
0.0
  0
LINE
  5
893
330
7C9
100
AcDbEntity
  8
Dimension (ANSI)
440
 16777216
100
AcDbLine
 10
84.54005926128798
 20
85.01761541591854
 30
0.0
 11
83.56771972471397
 21
85.01761541591854
 31
0.0
  0
SOLID
  5
894
330
7C9
100
AcDbEntity
  8
Dimension (ANSI)
440
 16777216
100
AcDbTrace
 10
86.64537419405156
 20
85.12014166031551
 30
0.0
 11
86.64537419405156
 21
84.91508917152158
 31
0.0
 12
86.03021672766978
 22
85.01761541591854
 32
0.0
 13
86.03021672766978
 23
85.01761541591854
 33
0.0
  0
SOLID
  5
895
330
7C9
100
AcDbEntity
  8
Dimension (ANSI)
440
 16777216
100
AcDbTrace
 10
84.54005926128798
 20
85.12014166031551
 30
0.0
 11
84.54005926128798
 21
84.91508917152158
 31
0.0
 12
85.15521672766977
 22
85.01761541591854
 32
0.0
 13
85.15521672766977
 23
85.01761541591854
 33
0.0
  0
MTEXT
  5
896
330
7C9
100
AcDbEntity
  8
Dimension (ANSI)
440
 16777216
100
AcDbMText
 10
80.59750632858589
 20
86.12479485964104
 30
0.0
 40
0.7500000298023224
 41
0.0
 46
0.0
 71
     1
 72
     1
  1
\A1;0.88\P [22.2]
  7
Note Text (ANSI)
 73
     1
 44
1.0
  0
POINT
  5
897
330
7C9
100
AcDbEntity
  8
Defpoints
 62
     0
440
 16777216
100
AcDbPoint
 10
85.15521672766977
 20
81.36796912996787
 30
0.0
  0
POINT
  5
898
330
7C9
100
AcDbEntity
  8
Defpoints
 62
     0
440
 16777216
100
AcDbPoint
 10
86.03021672766978
 20
82.11796912996787
 30
0.0
  0
POINT
  5
899
330
7C9
100
AcDbEntity
  8
Defpoints
 62
     0
440
 16777216
100
AcDbPoint
 10
86.03021672766978
 20
85.01761541591854
 30
0.0
  0
ENDBLK
  5
7D5
330
7C9
100
AcDbEntity
  8
0
100
AcDbBlockEnd
  0
BLOCK
  5
8A6
330
89B
100
AcDbEntity
  8
0
100
AcDbBlockBegin
  2
*D14
 70
     1
 10
0.0
 20
0.0
 30
0.0
  3
*D14
  1

  0
LINE
  5
962
330
89B
100
AcDbEntity
  8
Dimension (ANSI)
440
 16777216
100
AcDbLine
 10
85.92521672766977
 20
109.0673779915721
 30
0.0
 11
85.92521672766977
 21
113.2074934291088
 31
0.0
  0
LINE
  5
963
330
89B
100
AcDbEntity
  8
Dimension (ANSI)
440
 16777216
100
AcDbLine
 10
86.03021672766978
 20
109.0673779915721
 30
0.0
 11
86.03021672766978
 21
113.2074934291088
 31
0.0
  0
LINE
  5
964
330
89B
100
AcDbEntity
  8
Dimension (ANSI)
440
 16777216
100
AcDbLine
 10
86.64537419405156
 20
112.4262434291088
 30
0.0
 11
87.26053166043335
 21
112.4262434291088
 31
0.0
  0
LINE
  5
965
330
89B
100
AcDbEntity
  8
Dimension (ANSI)
440
 16777216
100
AcDbLine
 10
85.31005926128798
 20
112.4262434291088
 30
0.0
 11
84.21885664926955
 21
112.4262434291088
 31
0.0
  0
SOLID
  5
966
330
89B
100
AcDbEntity
  8
Dimension (ANSI)
440
 16777216
100
AcDbTrace
 10
86.64537419405156
 20
112.5287696735058
 30
0.0
 11
86.64537419405156
 21
112.3237171847119
 31
0.0
 12
86.03021672766978
 22
112.4262434291088
 32
0.0
 13
86.03021672766978
 23
112.4262434291088
 33
0.0
  0
SOLID
  5
967
330
89B
100
AcDbEntity
  8
Dimension (ANSI)
440
 16777216
100
AcDbTrace
 10
85.31005926128798
 20
112.5287696735058
 30
0.0
 11
85.31005926128798
 21
112.3237171847119
 31
0.0
 12
85.92521672766977
 22
112.4262434291088
 32
0.0
 13
85.92521672766977
 23
112.4262434291088
 33
0.0
  0
MTEXT
  5
968
330
89B
100
AcDbEntity
  8
Dimension (ANSI)
440
 16777216
100
AcDbMText
 10
81.48551229393172
 20
113.5334228728313
 30
0.0
 40
0.7500000298023224
 41
0.0
 46
0.0
 71
     1
 72
     1
  1
\A1;0.105\P [2.7]
  7
Note Text (ANSI)
 73
     1
 44
1.0
  0
POINT
  5
969
330
89B
100
AcDbEntity
  8
Defpoints
 62
     0
440
 16777216
100
AcDbPoint
 10
85.92521672766977
 20
108.6767529915721
 30
0.0
  0
POINT
  5
96A
330
89B
100
AcDbEntity
  8
Defpoints
 62
     0
440
 16777216
100
AcDbPoint
 10
86.03021672766978
 20
108.6767529915721
 30
0.0
  0
POINT
  5
96B
330
89B
100
AcDbEntity
  8
Defpoints
 62
     0
440
 16777216
100
AcDbPoint
 10
86.03021672766978
 20
112.4262434291088
 30
0.0
  0
ENDBLK
  5
8A7
330
89B
100
AcDbEntity
  8
0
100
AcDbBlockEnd
  0
BLOCK
  5
978
330
96D
100
AcDbEntity
  8
0
100
AcDbBlockBegin
  2
*D15
 70
     1
 10
0.0
 20
0.0
 30
0.0
  3
*D15
  1

  0
LINE
  5
A46
330
96D
100
AcDbEntity
  8
Dimension (ANSI)
440
 16777216
100
AcDbLine
 10
86.42084172766978
 20
108.6767529915721
 30
0.0
 11
88.71296861787305
 21
108.6767529915721
 31
0.0
  0
LINE
  5
A47
330
96D
100
AcDbEntity
  8
Dimension (ANSI)
440
 16777216
100
AcDbLine
 10
86.29584172766977
 20
108.1767529915721
 30
0.0
 11
88.71296861787305
 21
108.1767529915721
 31
0.0
  0
LINE
  5
A48
330
96D
100
AcDbEntity
  8
Dimension (ANSI)
440
 16777216
100
AcDbLine
 10
87.93171861787305
 20
107.5615955251903
 30
0.0
 11
87.93171861787305
 21
106.9464380588085
 31
0.0
  0
LINE
  5
A49
330
96D
100
AcDbEntity
  8
Dimension (ANSI)
440
 16777216
100
AcDbLine
 10
87.93171861787305
 20
109.2919104579539
 30
0.0
 11
87.93171861787305
 21
111.4584906437946
 31
0.0
  0
LINE
  5
A4A
330
96D
100
AcDbEntity
  8
Dimension (ANSI)
440
 16777216
100
AcDbLine
 10
87.93171861787305
 20
111.4584906437946
 30
0.0
 11
88.54687608425484
 21
111.4584906437946
 31
0.0
  0
SOLID
  5
A4B
330
96D
100
AcDbEntity
  8
Dimension (ANSI)
440
 16777216
100
AcDbTrace
 10
87.82919237347607
 20
107.5615955251903
 30
0.0
 11
88.03424486227001
 21
107.5615955251903
 31
0.0
 12
87.93171861787305
 22
108.1767529915721
 32
0.0
 13
87.93171861787305
 23
108.1767529915721
 33
0.0
  0
SOLID
  5
A4C
330
96D
100
AcDbEntity
  8
Dimension (ANSI)
440
 16777216
100
AcDbTrace
 10
87.82919237347607
 20
109.2919104579539
 30
0.0
 11
88.03424486227001
 21
109.2919104579539
 31
0.0
 12
87.93171861787305
 22
108.6767529915721
 32
0.0
 13
87.93171861787305
 23
108.6767529915721
 33
0.0
  0
MTEXT
  5
A4D
330
96D
100
AcDbEntity
  8
Dimension (ANSI)
440
 16777216
100
AcDbMText
 10
88.74372647795558
 20
112.5656700875171
 30
0.0
 40
0.7500000298023224
 41
0.0
 46
0.0
 71
     1
 72
     1
  1
\A1;0.50\P [12.7]
  7
Note Text (ANSI)
 73
     1
 44
1.0
  0
POINT
  5
A4E
330
96D
100
AcDbEntity
  8
Defpoints
 62
     0
440
 16777216
100
AcDbPoint
 10
86.03021672766978
 20
108.6767529915721
 30
0.0
  0
POINT
  5
A4F
330
96D
100
AcDbEntity
  8
Defpoints
 62
     0
440
 16777216
100
AcDbPoint
 10
85.90521672766977
 20
108.1767529915721
 30
0.0
  0
POINT
  5
A50
330
96D
100
AcDbEntity
  8
Defpoints
 62
     0
440
 16777216
100
AcDbPoint
 10
87.93171861787305
 20
108.1767529915721
 30
0.0
  0
ENDBLK
  5
979
330
96D
100
AcDbEntity
  8
0
100
AcDbBlockEnd
  0
BLOCK
  5
A58
330
A52
100
AcDbEntity
  8
0
100
AcDbBlockBegin
  2
*D16
 70
     1
 10
0.0
 20
0.0
 30
0.0
  3
*D16
  1

  0
LINE
  5
AE2
330
A52
100
AcDbEntity
  8
Dimension (ANSI)
440
 16777216
100
AcDbLine
 10
88.83669868191574
 20
104.3712611561742
 30
0.0
 11
88.17448724688688
 21
104.3712611561742
 31
0.0
  0
LINE
  5
AE3
330
A52
100
AcDbEntity
  8
Dimension (ANSI)
440
 16777216
100
AcDbLine
 10
88.17448724688688
 20
104.3712611561742
 30
0.0
 11
86.27529546086092
 21
107.6607578228849
 31
0.0
  0
MTEXT
  5
AE4
330
A52
100
AcDbEntity
  8
Dimension (ANSI)
440
 16777216
100
AcDbMText
 10
89.03354907561654
 20
105.4784405998967
 30
0.0
 40
0.7500000298023224
 41
0.0
 46
0.0
 71
     1
 72
     1
  1
\A1;R0.13\P [R3.2]
  7
Note Text (ANSI)
 73
     1
 44
1.0
  0
SOLID
  5
AE5
330
A52
100
AcDbEntity
  8
Dimension (ANSI)
440
 16777216
100
AcDbTrace
 10
86.36408579306326
 20
107.7120209450834
 30
0.0
 11
86.18650512865857
 21
107.6094947006864
 31
0.0
 12
85.96771672766976
 22
108.193499816099
 32
0.0
 13
85.96771672766976
 23
108.193499816099
 33
0.0
  0
POINT
  5
AE6
330
A52
100
AcDbEntity
  8
Defpoints
 62
     0
440
 16777216
100
AcDbPoint
 10
85.96771672766976
 20
108.193499816099
 30
0.0
  0
POINT
  5
AE7
330
A52
100
AcDbEntity
  8
Defpoints
 62
     0
440
 16777216
100
AcDbPoint
 10
85.90521672766973
 20
108.301752991572
 30
0.0
  0
ENDBLK
  5
A59
330
A52
100
AcDbEntity
  8
0
100
AcDbBlockEnd
  0
ENDSEC
  0
SECTION
  2
ENTITIES
  0
INSERT
  5
146
330
37
100
AcDbEntity
  8
0
100
AcDbBlockReference
  2
Borders Default Border
 10
0.0
 20
0.0
 30
0.0
 41
6.25
 42
6.25
 43
6.25
  0
INSERT
  5
18A
330
37
100
AcDbEntity
  8
0
100
AcDbBlockReference
 66
     1
  2
Title Blocks Stahlin
 10
111.0389693205496
 20
-37.53343395692286
 30
0.0
 41
6.25
 42
6.25
 43
6.25
  0
ATTRIB
  5
18C
330
18A
100
AcDbEntity
  8
TITLE
 62
     7
100
AcDbText
 10
145.1171875000242
 20
16.82130401774863
 30
0.0
 40
0.6225586348161923
  1

100
AcDbAttribute
280
     0
  2
NOTE_2
 70
     0
280
     0
  0
ATTRIB
  5
18D
330
18A
100
AcDbEntity
  8
TITLE
 62
     7
100
AcDbText
 10
145.1171875000242
 20
18.48146026774863
 30
0.0
 40
0.6225586348161923
  1

100
AcDbAttribute
280
     0
  2
NOTE_1
 70
     0
280
     0
  0
ATTRIB
  5
18E
330
18A
100
AcDbEntity
  8
TITLE
 62
     7
100
AcDbText
 10
182.1044921875114
 20
6.766307426872621
 30
0.0
 40
0.7812499882668022
  1

 11
182.1044921875114
 21
6.665054017752094
 31
0.0
100
AcDbAttribute
280
     0
  2
DESCRIPTION
 70
     0
 74
     1
280
     0
  0
ATTRIB
  5
18F
330
18A
100
AcDbEntity
  8
TITLE
 62
     7
100
AcDbText
 10
175.3419921875114
 20
11.91370908467749
 30
0.0
 40
0.6225586348161923
  1

 72
     1
 11
175.3419921875114
 21
11.83302276775042
 31
0.0
100
AcDbAttribute
280
     0
  2
CHECKED_DATE
 70
     0
 74
     1
280
     0
  0
ATTRIB
  5
190
330
18A
100
AcDbEntity
  8
TITLE
 62
     7
100
AcDbText
 10
171.1919921875114
 20
11.83302276775042
 30
0.0
 40
0.6225586348161923
  1

 72
     1
 11
171.1919921875114
 21
11.83302276775042
 31
0.0
100
AcDbAttribute
280
     0
  2
CHECKED_BY
 70
     0
280
     0
  0
ATTRIB
  5
191
330
18A
100
AcDbEntity
  8
TITLE
 62
     7
100
AcDbText
 10
171.1919921875114
 20
9.342788392751218
 30
0.0
 40
0.6225586348161923
  1

 72
     1
 11
171.1919921875114
 21
9.342788392751218
 31
0.0
100
AcDbAttribute
280
     0
  2
ENG_APPROVED_BY
 70
     0
280
     0
  0
ATTRIB
  5
192
330
18A
100
AcDbEntity
  8
TITLE
 62
     7
100
AcDbText
 10
182.1044921875114
 20
9.235974709678265
 30
0.0
 40
0.6225586348161923
  1

 11
182.1044921875114
 21
9.1552883927512
 31
0.0
100
AcDbAttribute
280
     0
  2
CUSTOMER
 70
     0
 74
     1
280
     0
  0
ATTRIB
  5
193
330
18A
100
AcDbEntity
  8
Title (ANSI)
100
AcDbText
 10
175.3420980586525
 20
9.424509914417694
 30
0.0
 40
0.6250000199464362
  1

  7
Note Text (ANSI)
 72
     1
 11
175.3420980586525
 21
9.343507183319587
 31
0.0
100
AcDbAttribute
280
     0
  2
ENG_APPROVAL_DATE
 70
     0
 74
     1
280
     0
  0
SEQEND
  5
18B
330
18A
100
AcDbEntity
  8
0
  0
CIRCLE
  5
194
330
37
100
AcDbEntity
  8
Visible (ANSI)
100
AcDbCircle
 10
69.53021672766979
 20
26.11796912996787
 30
0.0
 40
0.28125
  0
CIRCLE
  5
195
330
37
100
AcDbEntity
  8
Visible (ANSI)
100
AcDbCircle
 10
69.53021672766976
 20
81.36796912996787
 30
0.0
 40
0.28125
  0
CIRCLE
  5
196
330
37
100
AcDbEntity
  8
Visible (ANSI)
100
AcDbCircle
 10
85.15521672766976
 20
81.36796912996787
 30
0.0
 40
0.28125
  0
CIRCLE
  5
197
330
37
100
AcDbEntity
  8
Visible (ANSI)
100
AcDbCircle
 10
85.28021672766977
 20
53.74296912996786
 30
0.0
 40
0.28125
  0
CIRCLE
  5
198
330
37
100
AcDbEntity
  8
Visible (ANSI)
100
AcDbCircle
 10
85.28021672766977
 20
26.11796912996787
 30
0.0
 40
0.28125
  0
CIRCLE
  5
199
330
37
100
AcDbEntity
  8
Visible (ANSI)
100
AcDbCircle
 10
53.78021672766976
 20
26.11796912996787
 30
0.0
 40
0.28125
  0
CIRCLE
  5
19A
330
37
100
AcDbEntity
  8
Visible (ANSI)
100
AcDbCircle
 10
53.78021672766976
 20
53.74296912996786
 30
0.0
 40
0.28125
  0
CIRCLE
  5
19B
330
37
100
AcDbEntity
  8
Visible (ANSI)
100
AcDbCircle
 10
53.90521672766976
 20
81.36796912996787
 30
0.0
 40
0.28125
  0
LINE
  5
19C
330
37
100
AcDbEntity
  8
Hidden (ANSI)
 48
1.102206468582153
100
AcDbLine
 10
53.1552167276698
 20
25.34796912996787
 30
0.0
 11
85.90521672766973
 21
25.3479691299679
 31
0.0
  0
LINE
  5
19D
330
37
100
AcDbEntity
  8
Hidden (ANSI)
 48
1.098209977149963
100
AcDbLine
 10
53.13521672766976
 20
82.11796912996787
 30
0.0
 11
53.13521672766979
 21
25.36796912996788
 31
0.0
  0
LINE
  5
19E
330
37
100
AcDbEntity
  8
Hidden (ANSI)
 48
1.102206468582153
100
AcDbLine
 10
85.90521672766975
 20
82.13796912996787
 30
0.0
 11
53.15521672766977
 21
82.13796912996787
 31
0.0
  0
ARC
  5
19F
330
37
100
AcDbEntity
  8
Hidden (ANSI)
 48
0.0094740493223071
100
AcDbCircle
 10
53.15521672766977
 20
82.11796912996787
 30
0.0
 40
0.0199999999999982
100
AcDbArc
 50
90.0
 51
180.0
  0
LINE
  5
1A0
330
37
100
AcDbEntity
  8
Hidden (ANSI)
 48
1.098209977149963
100
AcDbLine
 10
85.92521672766974
 20
25.36796912996788
 30
0.0
 11
85.92521672766977
 21
82.11796912996787
 31
0.0
  0
ARC
  5
1A1
330
37
100
AcDbEntity
  8
Hidden (ANSI)
 48
0.0094740493223071
100
AcDbCircle
 10
85.90521672766975
 20
82.11796912996787
 30
0.0
 40
0.020000000000001
100
AcDbArc
 50
0.0
 51
90.0
  0
ARC
  5
1A2
330
37
100
AcDbEntity
  8
Hidden (ANSI)
 48
0.0094740493223071
100
AcDbCircle
 10
53.15521672766979
 20
25.36796912996788
 30
0.0
 40
0.020000000000001
100
AcDbArc
 50
180.0
 51
270.0
  0
ARC
  5
1A3
330
37
100
AcDbEntity
  8
Hidden (ANSI)
 48
0.0094740493223071
100
AcDbCircle
 10
85.90521672766973
 20
25.36796912996788
 30
0.0
 40
0.0199999999999982
100
AcDbArc
 50
270.0
 51
0.0
  0
LINE
  5
1A4
330
37
100
AcDbEntity
  8
Visible (ANSI)
100
AcDbLine
 10
53.1552167276698
 20
25.24296912996788
 30
0.0
 11
85.9052167276698
 21
25.2429691299679
 31
0.0
  0
LINE
  5
1A5
330
37
100
AcDbEntity
  8
Visible (ANSI)
100
AcDbLine
 10
53.03021672766977
 20
82.11796912996787
 30
0.0
 11
53.03021672766979
 21
25.36796912996788
 31
0.0
  0
LINE
  5
1A6
330
37
100
AcDbEntity
  8
Visible (ANSI)
100
AcDbLine
 10
85.90521672766975
 20
82.24296912996786
 30
0.0
 11
53.15521672766977
 21
82.24296912996786
 31
0.0
  0
ARC
  5
1A7
330
37
100
AcDbEntity
  8
Visible (ANSI)
100
AcDbCircle
 10
53.15521672766977
 20
82.11796912996787
 30
0.0
 40
0.1249999999999982
100
AcDbArc
 50
90.0
 51
180.0
  0
LINE
  5
1A8
330
37
100
AcDbEntity
  8
Visible (ANSI)
100
AcDbLine
 10
86.03021672766974
 20
25.36796912996788
 30
0.0
 11
86.03021672766976
 21
82.11796912996787
 31
0.0
  0
ARC
  5
1A9
330
37
100
AcDbEntity
  8
Visible (ANSI)
100
AcDbCircle
 10
85.90521672766977
 20
82.11796912996787
 30
0.0
 40
0.1249999999999926
100
AcDbArc
 50
0.0
 51
90.00000000000799
  0
ARC
  5
1AA
330
37
100
AcDbEntity
  8
Visible (ANSI)
100
AcDbCircle
 10
53.15521672766979
 20
25.36796912996787
 30
0.0
 40
0.1249999999999926
100
AcDbArc
 50
180.0
 51
270.0000000000041
  0
ARC
  5
1AB
330
37
100
AcDbEntity
  8
Visible (ANSI)
100
AcDbCircle
 10
85.9052167276698
 20
25.36796912996789
 30
0.0
 40
0.1249999999999926
100
AcDbArc
 50
270.0
 51
0.0
  0
ARC
  5
1AC
330
37
100
AcDbEntity
  8
Hidden (ANSI)
 48
0.0094740493223071
100
AcDbCircle
 10
53.15521672766977
 20
108.3017529915721
 30
0.0
 40
0.0200000000000035
100
AcDbArc
 50
180.0
 51
269.999999999975
  0
LINE
  5
1AD
330
37
100
AcDbEntity
  8
Hidden (ANSI)
 48
1.102206468582153
100
AcDbLine
 10
53.15521672766976
 20
108.281752991572
 30
0.0
 11
85.90521672766975
 21
108.281752991572
 31
0.0
  0
ARC
  5
1AE
330
37
100
AcDbEntity
  8
Hidden (ANSI)
 48
0.0094740493223071
100
AcDbCircle
 10
85.90521672766975
 20
108.3017529915721
 30
0.0
 40
0.0200000000000065
100
AcDbArc
 50
270.0000000000501
 51
0.0
  0
LINE
  5
1AF
330
37
100
AcDbEntity
  8
Hidden (ANSI)
 48
0.1141817942261696
100
AcDbLine
 10
53.13521672766976
 20
108.676752991572
 30
0.0
 11
53.13521672766976
 21
108.301752991572
 31
0.0
  0
LINE
  5
1B0
330
37
100
AcDbEntity
  8
Hidden (ANSI)
 48
0.1141817942261696
100
AcDbLine
 10
85.92521672766977
 20
108.676752991572
 30
0.0
 11
85.92521672766977
 21
108.301752991572
 31
0.0
  0
ARC
  5
1B1
330
37
100
AcDbEntity
  8
Visible (ANSI)
100
AcDbCircle
 10
53.15521672766975
 20
108.301752991572
 30
0.0
 40
0.1250000000000001
100
AcDbArc
 50
180.0
 51
270.0
  0
LINE
  5
1B2
330
37
100
AcDbEntity
  8
Visible (ANSI)
100
AcDbLine
 10
53.15521672766976
 20
108.1767529915721
 30
0.0
 11
85.90521672766975
 21
108.1767529915721
 31
0.0
  0
ARC
  5
1B3
330
37
100
AcDbEntity
  8
Visible (ANSI)
100
AcDbCircle
 10
85.90521672766975
 20
108.301752991572
 30
0.0
 40
0.1250000000000038
100
AcDbArc
 50
270.0
 51
0.0
  0
LINE
  5
1B4
330
37
100
AcDbEntity
  8
Visible (ANSI)
100
AcDbLine
 10
53.15521672766977
 20
108.6767529915721
 30
0.0
 11
53.03021672766977
 21
108.676752991572
 31
0.0
  0
LINE
  5
1B5
330
37
100
AcDbEntity
  8
Visible (ANSI)
100
AcDbLine
 10
53.03021672766977
 20
108.676752991572
 30
0.0
 11
53.03021672766977
 21
108.301752991572
 31
0.0
  0
LINE
  5
1B6
330
37
100
AcDbEntity
  8
Visible (ANSI)
100
AcDbLine
 10
53.15521672766977
 20
108.6767529915721
 30
0.0
 11
85.90521672766975
 21
108.6767529915721
 31
0.0
  0
LINE
  5
1B7
330
37
100
AcDbEntity
  8
Visible (ANSI)
100
AcDbLine
 10
86.03021672766976
 20
108.676752991572
 30
0.0
 11
86.03021672766976
 21
108.301752991572
 31
0.0
  0
LINE
  5
1B8
330
37
100
AcDbEntity
  8
Visible (ANSI)
100
AcDbLine
 10
86.03021672766976
 20
108.676752991572
 30
0.0
 11
85.90521672766975
 21
108.6767529915721
 31
0.0
  0
LINE
  5
1B9
330
37
100
AcDbEntity
  8
Hidden (ANSI)
 48
0.0318989045917988
100
AcDbLine
 10
69.81146672766977
 20
108.2817529915718
 30
0.0
 11
69.81146672766977
 21
108.1767529915718
 31
0.0
  0
LINE
  5
1BA
330
37
100
AcDbEntity
  8
Hidden (ANSI)
 48
0.0318989045917988
100
AcDbLine
 10
69.24896672766976
 20
108.2817529915718
 30
0.0
 11
69.24896672766976
 21
108.1767529915718
 31
0.0
  0
LINE
  5
1BB
330
37
100
AcDbEntity
  8
Hidden (ANSI)
 48
0.0318989045917988
100
AcDbLine
 10
85.43646672766975
 20
108.2817529915718
 30
0.0
 11
85.43646672766975
 21
108.1767529915718
 31
0.0
  0
LINE
  5
1BC
330
37
100
AcDbEntity
  8
Hidden (ANSI)
 48
0.0318989045917988
100
AcDbLine
 10
84.87396672766974
 20
108.2817529915718
 30
0.0
 11
84.87396672766974
 21
108.1767529915718
 31
0.0
  0
LINE
  5
1BD
330
37
100
AcDbEntity
  8
Hidden (ANSI)
 48
0.0318989045917988
100
AcDbLine
 10
85.56146672766976
 20
108.2817529915637
 30
0.0
 11
85.56146672766976
 21
108.1767529915636
 31
0.0
  0
LINE
  5
1BE
330
37
100
AcDbEntity
  8
Hidden (ANSI)
 48
0.0318989045917988
100
AcDbLine
 10
84.99896672766977
 20
108.2817529915637
 30
0.0
 11
84.99896672766977
 21
108.1767529915636
 31
0.0
  0
LINE
  5
1BF
330
37
100
AcDbEntity
  8
Hidden (ANSI)
 48
0.0318989045917988
100
AcDbLine
 10
54.06146672766976
 20
108.2817529915637
 30
0.0
 11
54.06146672766976
 21
108.1767529915636
 31
0.0
  0
LINE
  5
1C0
330
37
100
AcDbEntity
  8
Hidden (ANSI)
 48
0.0318989045917988
100
AcDbLine
 10
53.49896672766977
 20
108.2817529915637
 30
0.0
 11
53.49896672766977
 21
108.1767529915636
 31
0.0
  0
LINE
  5
1C1
330
37
100
AcDbEntity
  8
Hidden (ANSI)
 48
0.0318989045917988
100
AcDbLine
 10
54.18646672766975
 20
108.2817529915718
 30
0.0
 11
54.18646672766975
 21
108.1767529915718
 31
0.0
  0
LINE
  5
1C2
330
37
100
AcDbEntity
  8
Hidden (ANSI)
 48
0.0318989045917988
100
AcDbLine
 10
53.62396672766976
 20
108.2817529915718
 30
0.0
 11
53.62396672766976
 21
108.1767529915718
 31
0.0
  0
ELLIPSE
  5
1C3
330
37
100
AcDbEntity
  8
Visible (ANSI)
100
AcDbEllipse
 10
149.0642788090181
 20
55.52108201053771
 30
0.0
 11
-0.1403528095081146
 21
0.2437265914158315
 31
0.0
210
0.0
220
0.0
230
1.0
 40
0.5780931159158107
 41
0.26662535127208
 42
2.874967302317769
  0
ELLIPSE
  5
1C4
330
37
100
AcDbEntity
  8
Visible (ANSI)
100
AcDbEllipse
 10
148.9900325969935
 20
55.47832646058949
 30
0.0
 11
-0.1403528095081139
 21
0.2437265914158303
 31
0.0
210
0.0
220
0.0
230
1.0
 40
0.5780931159158106
 41
0.0000000000000336
 42
6.283185307179586
  0
ELLIPSE
  5
1C5
330
37
100
AcDbEntity
  8
Visible (ANSI)
100
AcDbEllipse
 10
149.064278809018
 20
100.690560658088
 30
0.0
 11
-0.1403528095081146
 21
0.2437265914158315
 31
0.0
210
0.0
220
0.0
230
1.0
 40
0.5780931159158107
 41
0.26662535127208
 42
2.874967302317732
  0
ELLIPSE
  5
1C6
330
37
100
AcDbEntity
  8
Visible (ANSI)
100
AcDbEllipse
 10
148.9900325969935
 20
100.6478051081398
 30
0.0
 11
-0.1403528095081139
 21
0.2437265914158303
 31
0.0
210
0.0
220
0.0
230
1.0
 40
0.5780931159158106
 41
0.0000000000000336
 42
6.283185307179586
  0
ELLIPSE
  5
1C7
330
37
100
AcDbEntity
  8
Visible (ANSI)
100
AcDbEllipse
 10
160.1128222650595
 20
94.32812763008376
 30
0.0
 11
-0.1403528095081123
 21
0.2437265914158273
 31
0.0
210
0.0
220
0.0
230
0.9999999999999998
 40
0.5780931159158107
 41
0.2666253512719319
 42
2.874967302317671
  0
ELLIPSE
  5
1C8
330
37
100
AcDbEntity
  8
Visible (ANSI)
100
AcDbEllipse
 10
160.0385760530349
 20
94.28537208013555
 30
0.0
 11
-0.1403528095081139
 21
0.2437265914158303
 31
0.0
210
0.0
220
0.0
230
1.0
 40
0.5780931159158106
 41
0.0
 42
6.283185307179526
  0
ELLIPSE
  5
1C9
330
37
100
AcDbEntity
  8
Visible (ANSI)
100
AcDbEllipse
 10
160.2012106127078
 20
71.69248884208457
 30
0.0
 11
-0.1403528095081126
 21
0.243726591415828
 31
0.0
210
0.0
220
0.0
230
1.0
 40
0.5780931159158106
 41
0.2666253512719984
 42
2.874967302317671
  0
ELLIPSE
  5
1CA
330
37
100
AcDbEntity
  8
Visible (ANSI)
100
AcDbEllipse
 10
160.1269644006833
 20
71.64973329213636
 30
0.0
 11
-0.1403528095081139
 21
0.2437265914158303
 31
0.0
210
0.0
220
0.0
230
1.0
 40
0.5780931159158106
 41
0.0
 42
6.283185307179526
  0
ELLIPSE
  5
1CB
330
37
100
AcDbEntity
  8
Visible (ANSI)
100
AcDbEllipse
 10
160.2012106127079
 20
49.10774951830941
 30
0.0
 11
-0.1403528095081134
 21
0.2437265914158294
 31
0.0
210
0.0
220
0.0
230
0.9999999999999998
 40
0.5780931159158105
 41
0.2666253512719983
 42
2.874967302317671
  0
ELLIPSE
  5
1CC
330
37
100
AcDbEntity
  8
Visible (ANSI)
100
AcDbEllipse
 10
160.1269644006833
 20
49.06499396836121
 30
0.0
 11
-0.1403528095081139
 21
0.2437265914158303
 31
0.0
210
0.0
220
0.0
230
1.0
 40
0.5780931159158106
 41
0.0
 42
6.283185307179526
  0
ELLIPSE
  5
1CD
330
37
100
AcDbEntity
  8
Visible (ANSI)
100
AcDbEllipse
 10
137.9273470053283
 20
61.93441450276601
 30
0.0
 11
-0.1403528095081134
 21
0.2437265914158294
 31
0.0
210
0.0
220
0.0
230
0.9999999999999998
 40
0.5780931159158105
 41
0.26662535127208
 42
2.874967302317769
  0
ELLIPSE
  5
1CE
330
37
100
AcDbEntity
  8
Visible (ANSI)
100
AcDbEllipse
 10
137.8531007933037
 20
61.89165895281782
 30
0.0
 11
-0.1403528095081139
 21
0.2437265914158303
 31
0.0
210
0.0
220
0.0
230
1.0
 40
0.5780931159158106
 41
0.0000000000000336
 42
6.283185307179586
  0
ELLIPSE
  5
1CF
330
37
100
AcDbEntity
  8
Visible (ANSI)
100
AcDbEllipse
 10
137.9273470053283
 20
84.51915382654119
 30
0.0
 11
-0.1403528095081126
 21
0.243726591415828
 31
0.0
210
0.0
220
0.0
230
1.0
 40
0.5780931159158106
 41
0.266625351272146
 42
2.874967302317769
  0
ELLIPSE
  5
1D0
330
37
100
AcDbEntity
  8
Visible (ANSI)
100
AcDbEllipse
 10
137.8531007933037
 20
84.47639827659296
 30
0.0
 11
-0.1403528095081139
 21
0.2437265914158303
 31
0.0
210
0.0
220
0.0
230
1.0
 40
0.5780931159158106
 41
0.0000000000000336
 42
6.283185307179586
  0
ELLIPSE
  5
1D1
330
37
100
AcDbEntity
  8
Visible (ANSI)
100
AcDbEllipse
 10
138.0157353529766
 20
107.0529936860923
 30
0.0
 11
-0.1403528095081123
 21
0.2437265914158273
 31
0.0
210
0.0
220
0.0
230
0.9999999999999998
 40
0.5780931159158107
 41
0.2666253512721455
 42
2.874967302317769
  0
ELLIPSE
  5
1D2
330
37
100
AcDbEntity
  8
Visible (ANSI)
100
AcDbEllipse
 10
137.941489140952
 20
107.010238136144
 30
0.0
 11
-0.1403528095081139
 21
0.2437265914158303
 31
0.0
210
0.0
220
0.0
230
1.0
 40
0.5780931159158106
 41
0.0000000000000336
 42
6.283185307179586
  0
LINE
  5
1D3
330
37
100
AcDbEntity
  8
Visible (ANSI)
100
AcDbLine
 10
137.7505703100315
 20
84.72629129091556
 30
0.0
 11
137.7505703100315
 21
84.51561421906303
 31
0.0
  0
LINE
  5
1D4
330
37
100
AcDbEntity
  8
Visible (ANSI)
100
AcDbLine
 10
137.7505703100315
 20
62.14155196714042
 30
0.0
 11
137.7505703100315
 21
61.93087489528784
 31
0.0
  0
ELLIPSE
  5
1D5
330
37
100
AcDbEntity
  8
Visible Narrow (ANSI)
100
AcDbEllipse
 10
160.6572944865732
 20
48.24823576783319
 30
0.0
 11
-0.0623790264479934
 21
-0.1083229295181612
 31
0.0
210
0.0
220
0.0
230
1.0
 40
0.578093115915639
 41
5.495853435357933
 42
6.283185307178261
  0
LINE
  5
1D6
330
37
100
AcDbEntity
  8
Visible Narrow (ANSI)
100
AcDbLine
 10
160.5689061389249
 20
48.19733630360914
 30
0.0
 11
137.4111590550621
 21
61.53299593030606
 31
0.0
  0
ELLIPSE
  5
1D7
330
37
100
AcDbEntity
  8
Visible Narrow (ANSI)
100
AcDbEllipse
 10
137.4995474027104
 20
61.58389539453011
 30
0.0
 11
-0.0623790264480323
 21
-0.1083229295181439
 31
0.0
210
0.0
220
0.0
230
1.0
 40
0.5780931159157
 41
5.495853435359127
 42
6.283185307179646
  0
ELLIPSE
  5
1D8
330
37
100
AcDbEntity
  8
Visible Narrow (ANSI)
100
AcDbEllipse
 10
137.4995474027104
 20
61.58389539453012
 30
0.0
 11
-0.125
 21
-0.0000000000000012
 31
0.0
210
0.0
220
0.0
230
1.0
 40
0.5758617009853118
 41
0.0
 42
0.7853981633974616
  0
LINE
  5
1D9
330
37
100
AcDbEntity
  8
Visible Narrow (ANSI)
100
AcDbLine
 10
137.4111590550621
 20
61.53299593030606
 30
0.0
 11
137.4111590550621
 21
107.9287952651202
 31
0.0
  0
ELLIPSE
  5
1DA
330
37
100
AcDbEntity
  8
Visible Narrow (ANSI)
100
AcDbEllipse
 10
137.4995474027104
 20
107.9796947293442
 30
0.0
 11
-0.1249999999999962
 21
0.0
 31
0.0
210
0.0
220
0.0
230
1.0
 40
0.5758617009853118
 41
0.0
 42
0.7853981633975878
  0
ELLIPSE
  5
1DB
330
37
100
AcDbEntity
  8
Visible Narrow (ANSI)
100
AcDbEllipse
 10
137.4995474027104
 20
107.9796947293442
 30
0.0
 11
-0.0623790264480154
 21
-0.108322929518165
 31
0.0
210
0.0
220
0.0
230
1.0
 40
0.578093115915639
 41
3.925057108564035
 42
5.495853435358753
  0
LINE
  5
1DC
330
37
100
AcDbEntity
  8
Visible Narrow (ANSI)
100
AcDbLine
 10
137.4111590550621
 20
107.9287952651202
 30
0.0
 11
160.568906138925
 21
94.59313563842325
 31
0.0
  0
ELLIPSE
  5
1DD
330
37
100
AcDbEntity
  8
Visible Narrow (ANSI)
100
AcDbEllipse
 10
160.6572944865732
 20
94.6440351026473
 30
0.0
 11
0.0623790264480297
 21
0.1083229295181598
 31
0.0
210
0.0
220
0.0
230
1.0
 40
0.578093115915639
 41
0.7834644549745882
 42
2.354260781769646
  0
LINE
  5
1DE
330
37
100
AcDbEntity
  8
Visible Narrow (ANSI)
100
AcDbLine
 10
160.6572944865732
 20
94.74622849325262
 30
0.0
 11
137.4995474027104
 21
108.0818881199495
 31
0.0
  0
ELLIPSE
  5
1DF
330
37
100
AcDbEntity
  8
Visible Narrow (ANSI)
100
AcDbEllipse
 10
137.4995474027104
 20
107.9796947293442
 30
0.0
 11
-0.0623790264480609
 21
0.1083229295181646
 31
0.0
210
0.0
220
0.0
230
1.0
 40
0.5780931159158107
 41
5.499720852205022
 42
6.283185307179625
  0
ELLIPSE
  5
1E0
330
37
100
AcDbEntity
  8
Visible Narrow (ANSI)
100
AcDbEllipse
 10
160.6572944865732
 20
94.64403510264729
 30
0.0
 11
-0.1250000000000038
 21
0.0000000000000074
 31
0.0
210
0.0
220
0.0
230
1.0
 40
0.5758617009853117
 41
0.7853981633979324
 42
2.356194490192747
  0
LINE
  5
1E1
330
37
100
AcDbEntity
  8
Visible Narrow (ANSI)
100
AcDbLine
 10
160.568906138925
 20
94.59313563842325
 30
0.0
 11
160.5689061389249
 21
48.19733630360914
 31
0.0
  0
ELLIPSE
  5
1E2
330
37
100
AcDbEntity
  8
Visible Narrow (ANSI)
100
AcDbEllipse
 10
160.6572944865732
 20
48.2482357678332
 30
0.0
 11
0.1250000000000001
 21
0.0000000000000075
 31
0.0
210
0.0
220
0.0
230
1.0
 40
0.5758617009853118
 41
3.926990816987096
 42
5.497787143782194
  0
LINE
  5
1E3
330
37
100
AcDbEntity
  8
Visible Narrow (ANSI)
100
AcDbLine
 10
160.7456828342216
 20
48.19733630360916
 30
0.0
 11
160.7456828342216
 21
94.59313563842327
 31
0.0
  0
ELLIPSE
  5
1E4
330
37
100
AcDbEntity
  8
Visible Narrow (ANSI)
100
AcDbEllipse
 10
160.6572944865732
 20
94.6440351026473
 30
0.0
 11
-0.0623790264480534
 21
0.1083229295181367
 31
0.0
210
0.0
220
0.0
230
1.0
 40
0.5780931159158107
 41
3.928924525409864
 42
5.499720852204454
  0
ELLIPSE
  5
1E5
330
37
100
AcDbEntity
  8
Visible Narrow (ANSI)
100
AcDbEllipse
 10
160.6572944865733
 20
48.24823576783319
 30
0.0
 11
0.0623790264480204
 21
-0.1083229295181462
 31
0.0
210
0.0
220
0.0
230
1.0
 40
0.5780931159158108
 41
0.0000000000014131
 42
0.7873318718214955
  0
LINE
  5
1E6
330
37
100
AcDbEntity
  8
Visible (ANSI)
100
AcDbLine
 10
160.5949154601252
 20
48.13991283831502
 30
0.0
 11
137.4371683762624
 21
61.47557246501196
 31
0.0
  0
LINE
  5
1E7
330
37
100
AcDbEntity
  8
Visible (ANSI)
100
AcDbLine
 10
137.3745474027104
 20
61.58389539453012
 30
0.0
 11
137.3745474027104
 21
107.9796947293442
 31
0.0
  0
ARC
  5
1E8
330
37
100
AcDbEntity
  8
Visible (ANSI)
100
AcDbCircle
 10
137.4995474027104
 20
107.9796947293442
 30
0.0
 40
0.125
100
AcDbArc
 50
119.9359922624981
 51
180.0
  0
ARC
  5
1E9
330
37
100
AcDbEntity
  8
Visible (ANSI)
100
AcDbCircle
 10
137.4995474027104
 20
61.58389539453012
 30
0.0
 40
0.125
100
AcDbArc
 50
180.0
 51
240.0640077375197
  0
ARC
  5
1EA
330
37
100
AcDbEntity
  8
Visible (ANSI)
100
AcDbCircle
 10
160.6572944865732
 20
48.2482357678332
 30
0.0
 40
0.125
100
AcDbArc
 50
240.0640077375465
 51
299.9359922625071
  0
LINE
  5
1EB
330
37
100
AcDbEntity
  8
Visible Narrow (ANSI)
100
AcDbLine
 10
137.7647124456553
 20
108.2345865126217
 30
0.0
 11
137.4995474027104
 21
108.0818881199495
 31
0.0
  0
ELLIPSE
  5
1EC
330
37
100
AcDbEntity
  8
Visible (ANSI)
100
AcDbEllipse
 10
137.7647124456553
 20
108.1323931220164
 30
0.0
 11
-0.0623790264480382
 21
0.1083229295181061
 31
0.0
210
0.0
220
0.0
230
1.0
 40
0.5780931159158105
 41
5.499720852204406
 42
6.283185307178963
  0
LINE
  5
1ED
330
37
100
AcDbEntity
  8
Visible Narrow (ANSI)
100
AcDbLine
 10
160.9224595295181
 20
94.89892688592476
 30
0.0
 11
160.6572944865732
 21
94.74622849325262
 31
0.0
  0
LINE
  5
1EE
330
37
100
AcDbEntity
  8
Visible (ANSI)
100
AcDbLine
 10
137.7647124456553
 20
108.2345865126217
 30
0.0
 11
160.9224595295181
 21
94.89892688592476
 31
0.0
  0
LINE
  5
1EF
330
37
100
AcDbEntity
  8
Visible Narrow (ANSI)
100
AcDbLine
 10
161.0108478771665
 20
94.74583403109539
 30
0.0
 11
160.7456828342216
 21
94.59313563842327
 31
0.0
  0
ELLIPSE
  5
1F0
330
37
100
AcDbEntity
  8
Visible (ANSI)
100
AcDbEllipse
 10
160.9224595295181
 20
94.79673349531944
 30
0.0
 11
0.0623790264480433
 21
-0.108322929518149
 31
0.0
210
0.0
220
0.0
230
1.0
 40
0.5780931159158106
 41
0.7873318718205855
 42
2.358128198615798
  0
LINE
  5
1F1
330
37
100
AcDbEntity
  8
Visible Narrow (ANSI)
100
AcDbLine
 10
161.0108478771665
 20
48.3500346962813
 30
0.0
 11
160.7456828342216
 21
48.19733630360916
 31
0.0
  0
LINE
  5
1F2
330
37
100
AcDbEntity
  8
Visible (ANSI)
100
AcDbLine
 10
161.0108478771665
 20
94.74583403109539
 30
0.0
 11
161.0108478771665
 21
48.3500346962813
 31
0.0
  0
ELLIPSE
  5
1F3
330
37
100
AcDbEntity
  8
Visible (ANSI)
100
AcDbEllipse
 10
160.9224595295182
 20
48.40093416050533
 30
0.0
 11
0.0623790264480428
 21
-0.1083229295181331
 31
0.0
210
0.0
220
0.0
230
1.0
 40
0.5780931159158107
 41
0.0
 42
0.7873318718201308
  0
LINE
  5
1F4
330
37
100
AcDbEntity
  8
Visible (ANSI)
100
AcDbLine
 10
137.7023334192072
 20
108.2407160515345
 30
0.0
 11
137.4371683762623
 21
108.0880176588624
 31
0.0
  0
LINE
  5
1F5
330
37
100
AcDbEntity
  8
Visible (ANSI)
100
AcDbLine
 10
160.9848385559662
 20
48.2926112309872
 30
0.0
 11
160.7196735130213
 21
48.13991283831505
 31
0.0
  0
DIMENSION
  5
1F6
330
37
100
AcDbEntity
  8
Dimension (ANSI)
100
AcDbDimension
280
     0
  2
*D6
 10
53.03021672766978
 20
93.43686676776314
 30
0.0
 11
69.53021672766978
 21
93.43686676776314
 31
0.0
 70
   160
  1
<>
 42
33.0
 73
     0
 74
     0
 75
     0
  3
Default (ANSI)
100
AcDbAlignedDimension
 13
86.03021672766978
 23
82.11796912996787
 33
0.0
 14
53.03021672766978
 24
82.11796912996787
 34
0.0
 50
180.0
100
AcDbRotatedDimension
1001
ACAD
1000
DSTYLE
1002
{
1070
   271
1070
     2
1070
   272
1070
     2
1070
    48
1040
0.0
1070
    47
1040
0.0
1002
}
  0
DIMENSION
  5
2C9
330
37
100
AcDbEntity
  8
Dimension (ANSI)
100
AcDbDimension
280
     0
  2
*D7
 10
69.53021672766976
 20
87.48580151655543
 30
0.0
 11
61.78021672766976
 21
87.48580151655543
 31
0.0
 70
   160
  1
<>
 42
15.625
 73
     0
 74
     0
 75
     0
  3
Default (ANSI)
100
AcDbAlignedDimension
 13
53.90521672766976
 23
81.36796912996787
 33
0.0
 14
69.53021672766976
 24
81.36796912996787
 34
0.0
 50
180.0
100
AcDbRotatedDimension
1001
ACAD
1000
DSTYLE
1002
{
1070
   271
1070
     3
1070
   272
1070
     2
1070
    48
1040
0.0
1070
    47
1040
0.0
1002
}
  0
DIMENSION
  5
39B
330
37
100
AcDbEntity
  8
Dimension (ANSI)
100
AcDbDimension
280
     0
  2
*D8
 10
69.53021672766976
 20
87.48580151655543
 30
0.0
 11
77.28021672766977
 21
87.48580151655543
 31
0.0
 70
   160
  1
<>
 42
15.625
 73
     0
 74
     0
 75
     0
  3
Default (ANSI)
100
AcDbAlignedDimension
 13
85.15521672766977
 23
81.36796912996787
 33
0.0
 14
69.53021672766976
 24
81.36796912996787
 34
0.0
 50
180.0
100
AcDbRotatedDimension
1001
ACAD
1000
DSTYLE
1002
{
1070
   271
1070
     3
1070
   272
1070
     2
1070
    48
1040
0.0
1070
    47
1040
0.0
1002
}
  0
DIMENSION
  5
46D
330
37
100
AcDbEntity
  8
Dimension (ANSI)
100
AcDbDimension
280
     0
  2
*D9
 10
100.2913103328915
 20
25.2429691299679
 30
0.0
 11
100.2913103328915
 21
53.74296912996789
 31
0.0
 70
   160
  1
<>
 42
56.99999999999997
 73
     0
 74
     0
 75
     0
  3
Default (ANSI)
100
AcDbAlignedDimension
 13
85.90521672766977
 23
82.24296912996788
 33
0.0
 14
85.9052167276698
 24
25.2429691299679
 34
0.0
 50
90.0
100
AcDbRotatedDimension
1001
ACAD
1000
DSTYLE
1002
{
1070
   271
1070
     2
1070
   272
1070
     2
1070
    48
1040
0.0
1070
    47
1040
0.0
1002
}
  0
DIMENSION
  5
53F
330
37
100
AcDbEntity
  8
Dimension (ANSI)
100
AcDbDimension
280
     0
  2
*D10
 10
93.01892495343066
 20
53.74296912996788
 30
0.0
 11
93.01892495343066
 21
67.55546912996788
 31
0.0
 70
   160
  1
<>
 42
27.62499999999999
 73
     0
 74
     0
 75
     0
  3
Default (ANSI)
100
AcDbAlignedDimension
 13
85.15521672766977
 23
81.36796912996787
 33
0.0
 14
85.28021672766978
 24
53.74296912996788
 34
0.0
 50
90.0
100
AcDbRotatedDimension
1001
ACAD
1000
DSTYLE
1002
{
1070
   271
1070
     3
1070
   272
1070
     2
1070
    48
1040
0.0
1070
    47
1040
0.0
1002
}
  0
DIMENSION
  5
611
330
37
100
AcDbEntity
  8
Dimension (ANSI)
100
AcDbDimension
280
     0
  2
*D11
 10
93.14392495343065
 20
26.11796912996787
 30
0.0
 11
93.14392495343065
 21
39.93046912996788
 31
0.0
 70
   160
  1
<>
 42
27.62500000000001
 73
     0
 74
     0
 75
     0
  3
Default (ANSI)
100
AcDbAlignedDimension
 13
85.28021672766978
 23
53.74296912996788
 33
0.0
 14
85.28021672766978
 24
26.11796912996787
 34
0.0
 50
90.0
100
AcDbRotatedDimension
1001
ACAD
1000
DSTYLE
1002
{
1070
   271
1070
     3
1070
   272
1070
     2
1070
    48
1040
0.0
1070
    47
1040
0.0
1002
}
  0
DIMENSION
  5
6E3
330
37
100
AcDbEntity
  8
Dimension (ANSI)
100
AcDbDimension
280
     0
  2
*D12
 10
91.5433211871413
 20
82.24296912996788
 30
0.0
 11
89.34463182584506
 21
78.58623147774538
 31
0.0
 70
   160
  1
<>
 42
0.875
 73
     0
 74
     0
 75
     0
  3
Default (ANSI)
100
AcDbAlignedDimension
 13
85.15521672766977
 23
81.36796912996787
 33
0.0
 14
85.90521672766977
 24
82.24296912996788
 34
0.0
 50
90.0
100
AcDbRotatedDimension
1001
ACAD
1000
DSTYLE
1002
{
1070
   271
1070
     2
1070
   272
1070
     2
1070
    48
1040
0.0
1070
    47
1040
0.0
1002
}
  0
DIMENSION
  5
7C8
330
37
100
AcDbEntity
  8
Dimension (ANSI)
100
AcDbDimension
280
     0
  2
*D13
 10
86.03021672766978
 20
85.01761541591854
 30
0.0
 11
81.98418782979954
 21
85.01761541591854
 31
0.0
 70
   160
  1
<>
 42
0.8750000000000142
 73
     0
 74
     0
 75
     0
  3
Default (ANSI)
100
AcDbAlignedDimension
 13
85.15521672766977
 23
81.36796912996787
 33
0.0
 14
86.03021672766978
 24
82.11796912996787
 34
0.0
 50
180.0
100
AcDbRotatedDimension
1001
ACAD
1000
DSTYLE
1002
{
1070
   271
1070
     2
1070
   272
1070
     2
1070
    48
1040
0.0
1070
    47
1040
0.0
1002
}
  0
DIMENSION
  5
89A
330
37
100
AcDbEntity
  8
Dimension (ANSI)
100
AcDbDimension
280
     0
  2
*D14
 10
86.03021672766978
 20
112.4262434291088
 30
0.0
 11
82.75375927475023
 21
112.4262434291088
 31
0.0
 70
   160
  1
<>
 42
0.105000000000004
 73
     0
 74
     0
 75
     0
  3
Default (ANSI)
100
AcDbAlignedDimension
 13
85.92521672766977
 23
108.6767529915721
 33
0.0
 14
86.03021672766978
 24
108.6767529915721
 34
0.0
 50
180.0
100
AcDbRotatedDimension
1001
ACAD
1000
DSTYLE
1002
{
1070
   271
1070
     3
1070
   272
1070
     2
1070
    48
1040
0.0
1070
    47
1040
0.0
1002
}
  0
DIMENSION
  5
96C
330
37
100
AcDbEntity
  8
Dimension (ANSI)
100
AcDbDimension
280
     0
  2
*D15
 10
87.93171861787305
 20
108.1767529915721
 30
0.0
 11
90.13040797916923
 21
111.4584906437946
 31
0.0
 70
   160
  1
<>
 42
0.5
 73
     0
 74
     0
 75
     0
  3
Default (ANSI)
100
AcDbAlignedDimension
 13
86.03021672766978
 23
108.6767529915721
 33
0.0
 14
85.90521672766977
 24
108.1767529915721
 34
0.0
 50
90.0
100
AcDbRotatedDimension
1001
ACAD
1000
DSTYLE
1002
{
1070
   271
1070
     2
1070
   272
1070
     2
1070
    48
1040
0.0
1070
    47
1040
0.0
1002
}
  0
DIMENSION
  5
A51
330
37
100
AcDbEntity
  8
Dimension (ANSI)
100
AcDbDimension
280
     0
  2
*D16
 10
85.90521672766973
 20
108.301752991572
 30
0.0
 11
90.50720193090002
 21
104.3712611561742
 31
0.0
 70
   164
  1
<>
 42
0.1249999999999432
 73
     0
 74
     0
 75
     0
  3
Default (ANSI)
100
AcDbRadialDimension
 15
85.96771672766976
 25
108.193499816099
 35
0.0
 40
0.0
1001
ACAD
1000
DSTYLE
1002
{
1070
   271
1070
     2
1070
   141
1040
0.0
1070
   272
1070
     2
1070
    48
1040
0.0
1070
    47
1040
0.0
1002
}
  0
MTEXT
  5
AE8
102
{ACAD_REACTORS
330
AEA
102
}
330
37
100
AcDbEntity
  8
Symbol (ANSI)
100
AcDbMText
 10
48.60903091140142
 20
77.25879119235107
 30
0.0
 40
0.7500000092692262
 41
6.729914596318965
 46
0.0
 71
     3
 72
     1
  1
{\fAIGDT|b0|i0;\H0.7500;n\fArial|b0|i0;\H0.7500;0.563 THRU\P8 PLCS}
  7
Note Text (ANSI)
 73
     2
 44
1.049999952316284
  0
LEADER
  5
AEA
330
37
100
AcDbEntity
  8
Symbol (ANSI)
100
AcDbLeader
  3
Default (ANSI)$7
 73
     0
 40
2.312499968975468
 41
6.548692617418382
 76
     3
 10
53.70634294546101
 20
81.16909534775917
 30
0.0
 10
49.42103878541717
 20
76.88379118771646
 30
0.0
 10
48.80588130510221
 20
76.88379118771646
 30
0.0
340
AE8
213
0.0
223
-0.3750000046346131
233
0.0
1001
ACAD
1000
DSTYLE
1002
{
1070
    77
1070
     0
1002
}
  0
MTEXT
  5
AEB
330
37
100
AcDbEntity
  8
Symbol (ANSI)
100
AcDbMText
 10
118.5540139205812
 20
36.65935037565512
 30
0.0
 40
1.562499976533604
 41
57.6255265183336
 46
0.0
 71
     1
 72
     1
  1
{\fArial|b0|i0;\H1.5625;NOTE:\P \P1. PARTS TO BE FREE FROM BURRS & SHARP EDGES.\P2. PANELS MUST BE FLAT.\P3. PANEL TO BE PAINTED WHITE ENAMEL.}
  7
Note Text (ANSI)
 73
     2
 44
0.9442214965820312
  0
MTEXT
  5
AEC
330
37
100
AcDbEntity
  8
Symbol (ANSI)
100
AcDbMText
 10
204.0080318434482
 20
7.533095591130425
 30
0.0
 40
0.7500000092692262
 41
10.71072716248321
 46
0.0
 71
     5
 72
     1
  1
{HW-WM6036CS}
  7
Note Text (ANSI)
 73
     1
 44
1.0
  0
MTEXT
  5
AED
330
37
100
AcDbEntity
  8
Symbol (ANSI)
100
AcDbMText
 10
193.4130963259647
 20
13.81479289618738
 30
0.0
 40
1.500000018538452
 41
31.90059819745005
 46
0.0
 71
     5
 72
     1
  1
{\fArial|b0|i0;\H1.5000;HUBBELL WIEGMANN}
  7
Note Text (ANSI)
 73
     1
 44
1.0
  0
ENDSEC
  0
SECTION
  2
OBJECTS
  0
DICTIONARY
  5
C
330
0
100
AcDbDictionary
281
     1
  3
ACAD_COLOR
350
30
  3
ACAD_GROUP
350
D
  3
ACAD_LAYOUT
350
2F
  3
ACAD_MATERIAL
350
10
  3
ACAD_MLEADERSTYLE
350
B2B
  3
ACAD_MLINESTYLE
350
2C
  3
ACAD_PLOTSETTINGS
350
2E
  3
ACAD_PLOTSTYLENAME
350
E
  3
ACAD_SCALELIST
350
B19
  3
ACAD_TABLESTYLE
350
31
  3
ACAD_VISUALSTYLE
350
14
  3
ACDB_RECOMPOSE_DATA
350
B3F
  3
AcDbVariableDictionary
350
B0C
  0
DICTIONARY
  5
AEE
330
8
100
AcDbDictionary
280
     1
281
     1
  0
DICTIONARY
  5
30
102
{ACAD_REACTORS
330
C
102
}
330
C
100
AcDbDictionary
281
     1
  0
DICTIONARY
  5
D
102
{ACAD_REACTORS
330
C
102
}
330
C
100
AcDbDictionary
281
     1
  0
DICTIONARY
  5
2F
102
{ACAD_REACTORS
330
C
102
}
330
C
100
AcDbDictionary
281
     1
  3
Layout1
350
36
  3
Layout2
350
3E
  3
Model
350
3A
  0
DICTIONARY
  5
10
102
{ACAD_REACTORS
330
C
102
}
330
C
100
AcDbDictionary
281
     1
  3
ByBlock
350
12
  3
ByLayer
350
11
  3
Global
350
13
  0
DICTIONARY
  5
B2B
102
{ACAD_REACTORS
330
C
102
}
330
C
100
AcDbDictionary
281
     1
  3
Standard
350
B2C
  0
DICTIONARY
  5
2C
102
{ACAD_REACTORS
330
C
102
}
330
C
100
AcDbDictionary
281
     1
  3
Standard
350
2D
  0
DICTIONARY
  5
2E
102
{ACAD_REACTORS
330
C
102
}
330
C
100
AcDbDictionary
281
     1
  0
ACDBDICTIONARYWDFLT
  5
E
102
{ACAD_REACTORS
330
C
102
}
330
C
100
AcDbDictionary
281
     1
  3
Normal
350
F
100
AcDbDictionaryWithDefault
340
F
  0
DICTIONARY
  5
B19
102
{ACAD_REACTORS
330
C
102
}
330
C
100
AcDbDictionary
281
     1
  3
A0
350
B1A
  3
A1
350
B1B
  3
A2
350
B1C
  3
A3
350
B1D
  3
A4
350
B1E
  3
A5
350
B1F
  3
A6
350
B20
  3
A7
350
B21
  3
A8
350
B22
  3
A9
350
B23
  3
B0
350
B24
  3
B1
350
B25
  3
B2
350
B26
  3
B3
350
B27
  3
B4
350
B28
  3
B5
350
B29
  3
B6
350
B2A
  0
DICTIONARY
  5
31
102
{ACAD_REACTORS
330
C
102
}
330
C
100
AcDbDictionary
281
     1
  3
Standard
350
32
  0
DICTIONARY
  5
14
102
{ACAD_REACTORS
330
C
102
}
330
C
100
AcDbDictionary
281
     1
  3
2dWireframe
350
1A
  3
3D Hidden
350
1C
  3
3dWireframe
350
1B
  3
Basic
350
19
  3
Brighten
350
20
  3
ColorChange
350
24
  3
Conceptual
350
1D
  3
Dim
350
1F
  3
EdgeColorOff
350
B18
  3
Facepattern
350
23
  3
Flat
350
15
  3
FlatWithEdges
350
16
  3
Gouraud
350
17
  3
GouraudWithEdges
350
18
  3
Hidden
350
B10
  3
JitterOff
350
B16
  3
Linepattern
350
22
  3
OverhangOff
350
B17
  3
Realistic
350
1E
  3
Shaded
350
B15
  3
Shaded with edges
350
B14
  3
Shades of Gray
350
B11
  3
Sketchy
350
B12
  3
Thicken
350
21
  3
Wireframe
350
B0F
  3
X-Ray
350
B13
  0
XRECORD
  5
B3F
102
{ACAD_REACTORS
330
C
102
}
330
C
100
AcDbXrecord
280
     1
 90
        1
330
32
  0
DICTIONARY
  5
B0C
102
{ACAD_REACTORS
330
C
102
}
330
C
100
AcDbDictionary
281
     1
  3
CANNOSCALE
350
B39
  3
CMLEADERSTYLE
350
B37
  3
CTABLESTYLE
350
B0D
  3
LAYEREVAL
350
B3B
  3
LAYERNOTIFY
350
B3C
  3
LIGHTINGUNITS
350
B3A
  3
MSLTSCALE
350
B38
  0
LAYOUT
  5
36
102
{ACAD_REACTORS
330
2F
102
}
330
2F
100
AcDbPlotSettings
  1

  2

  4

  6

 40
0.0
 41
0.0
 42
0.0
 43
0.0
 44
0.0
 45
0.0
 46
0.0
 47
0.0
 48
0.0
 49
0.0
140
0.0
141
0.0
142
1.0
143
1.0
 70
   688
 72
     0
 73
     0
 74
     5
  7

 75
    16
147
1.0
 76
     0
 77
     2
 78
   300
148
0.0
149
0.0
100
AcDbLayout
  1
Layout1
 70
     1
 71
     1
 10
0.0
 20
0.0
 11
212.5
 21
137.5
 12
0.0
 22
0.0
 32
0.0
 14
0.0
 24
0.0
 34
0.0
 15
212.5
 25
137.5
 35
0.0
146
0.0
 13
0.0
 23
0.0
 33
0.0
 16
1.0
 26
0.0
 36
0.0
 17
0.0
 27
1.0
 37
0.0
 76
     0
330
33
  0
LAYOUT
  5
3E
102
{ACAD_REACTORS
330
2F
102
}
330
2F
100
AcDbPlotSettings
  1

  2

  4

  6

 40
0.0
 41
0.0
 42
0.0
 43
0.0
 44
0.0
 45
0.0
 46
0.0
 47
0.0
 48
0.0
 49
0.0
140
0.0
141
0.0
142
1.0
143
1.0
 70
   688
 72
     0
 73
     0
 74
     5
  7

 75
    16
147
1.0
 76
     0
 77
     2
 78
   300
148
0.0
149
0.0
100
AcDbLayout
  1
Layout2
 70
     1
 71
     2
 10
0.0
 20
0.0
 11
12.0
 21
9.0
 12
0.0
 22
0.0
 32
0.0
 14
0.0
 24
0.0
 34
0.0
 15
0.0
 25
0.0
 35
0.0
146
0.0
 13
0.0
 23
0.0
 33
0.0
 16
1.0
 26
0.0
 36
0.0
 17
0.0
 27
1.0
 37
0.0
 76
     0
330
3B
  0
LAYOUT
  5
3A
102
{ACAD_REACTORS
330
2F
102
}
330
2F
100
AcDbPlotSettings
  1

  2

  4

  6

 40
0.0
 41
0.0
 42
0.0
 43
0.0
 44
0.0
 45
0.0
 46
0.0
 47
0.0
 48
0.0
 49
0.0
140
0.0
141
0.0
142
1.0
143
1.0
 70
  1712
 72
     0
 73
     0
 74
     0
  7

 75
     0
147
1.0
 76
     0
 77
     2
 78
   300
148
0.0
149
0.0
100
AcDbLayout
  1
Model
 70
     1
 71
     0
 10
0.0
 20
0.0
 11
12.0
 21
9.0
 12
0.0
 22
0.0
 32
0.0
 14
0.0
 24
0.0
 34
0.0
 15
0.0
 25
0.0
 35
0.0
146
0.0
 13
0.0
 23
0.0
 33
0.0
 16
1.0
 26
0.0
 36
0.0
 17
0.0
 27
1.0
 37
0.0
 76
     0
330
37
331
28
  0
MATERIAL
  5
12
102
{ACAD_REACTORS
330
10
102
}
330
10
100
AcDbMaterial
  1
ByBlock
 73
     1
 78
     1
172
     1
176
     1
270
     1
274
     1
 94
       63
  0
MATERIAL
  5
11
102
{ACAD_REACTORS
330
10
102
}
330
10
100
AcDbMaterial
  1
ByLayer
 73
     1
 78
     1
172
     1
176
     1
270
     1
274
     1
 94
       63
  0
MATERIAL
  5
13
102
{ACAD_REACTORS
330
10
102
}
330
10
100
AcDbMaterial
  1
Global
 73
     1
 78
     1
172
     1
176
     1
270
     1
274
     1
 94
       63
  0
MLEADERSTYLE
  5
B2C
102
{ACAD_REACTORS
330
B2B
102
}
330
B2B
100
AcDbMLeaderStyle
179
     2
170
     2
171
     1
172
     0
 90
        2
 40
0.0
 41
0.0
173
     1
 91
-1056964608
340
29
 92
       -2
290
     1
 42
0.09
291
     1
 43
0.36
  3
Standard
 44
0.18
300

342
26
174
     1
178
     6
175
     1
176
     0
 93
-1056964608
 45
0.18
292
     0
297
     0
 46
0.18
 94
-1056964608
 47
1.0
 49
1.0
140
1.0
293
     1
141
0.0
294
     1
177
     0
142
1.0
295
     1
296
     0
143
0.125
271
     0
272
     9
273
     9
  0
MLINESTYLE
  5
2D
102
{ACAD_REACTORS
330
2C
102
}
330
2C
100
AcDbMlineStyle
  2
STANDARD
 70
     0
  3

 62
   256
 51
90.0
 52
90.0
 71
     2
 49
0.5
 62
   256
  6
BYLAYER
 49
-0.5
 62
   256
  6
BYLAYER
  0
ACDBPLACEHOLDER
  5
F
102
{ACAD_REACTORS
330
E
102
}
330
E
  0
SCALE
  5
B1A
102
{ACAD_REACTORS
330
B19
102
}
330
B19
100
AcDbScale
 70
     0
300
1:1
140
1.0
141
1.0
290
     1
  0
SCALE
  5
B1B
102
{ACAD_REACTORS
330
B19
102
}
330
B19
100
AcDbScale
 70
     0
300
1/128" = 1'-0"
140
0.0078125
141
12.0
290
     0
  0
SCALE
  5
B1C
102
{ACAD_REACTORS
330
B19
102
}
330
B19
100
AcDbScale
 70
     0
300
1/64" = 1'-0"
140
0.015625
141
12.0
290
     0
  0
SCALE
  5
B1D
102
{ACAD_REACTORS
330
B19
102
}
330
B19
100
AcDbScale
 70
     0
300
1/32" = 1'-0"
140
0.03125
141
12.0
290
     0
  0
SCALE
  5
B1E
102
{ACAD_REACTORS
330
B19
102
}
330
B19
100
AcDbScale
 70
     0
300
1/16" = 1'-0"
140
0.0625
141
12.0
290
     0
  0
SCALE
  5
B1F
102
{ACAD_REACTORS
330
B19
102
}
330
B19
100
AcDbScale
 70
     0
300
3/32" = 1'-0"
140
0.09375
141
12.0
290
     0
  0
SCALE
  5
B20
102
{ACAD_REACTORS
330
B19
102
}
330
B19
100
AcDbScale
 70
     0
300
1/8" = 1'-0"
140
0.125
141
12.0
290
     0
  0
SCALE
  5
B21
102
{ACAD_REACTORS
330
B19
102
}
330
B19
100
AcDbScale
 70
     0
300
3/16" = 1'-0"
140
0.1875
141
12.0
290
     0
  0
SCALE
  5
B22
102
{ACAD_REACTORS
330
B19
102
}
330
B19
100
AcDbScale
 70
     0
300
1/4" = 1'-0"
140
0.25
141
12.0
290
     0
  0
SCALE
  5
B23
102
{ACAD_REACTORS
330
B19
102
}
330
B19
100
AcDbScale
 70
     0
300
3/8" = 1'-0"
140
0.375
141
12.0
290
     0
  0
SCALE
  5
B24
102
{ACAD_REACTORS
330
B19
102
}
330
B19
100
AcDbScale
 70
     0
300
1/2" = 1'-0"
140
0.5
141
12.0
290
     0
  0
SCALE
  5
B25
102
{ACAD_REACTORS
330
B19
102
}
330
B19
100
AcDbScale
 70
     0
300
3/4" = 1'-0"
140
0.75
141
12.0
290
     0
  0
SCALE
  5
B26
102
{ACAD_REACTORS
330
B19
102
}
330
B19
100
AcDbScale
 70
     0
300
1" = 1'-0"
140
1.0
141
12.0
290
     0
  0
SCALE
  5
B27
102
{ACAD_REACTORS
330
B19
102
}
330
B19
100
AcDbScale
 70
     0
300
1-1/2" = 1'-0"
140
1.5
141
12.0
290
     0
  0
SCALE
  5
B28
102
{ACAD_REACTORS
330
B19
102
}
330
B19
100
AcDbScale
 70
     0
300
3" = 1'-0"
140
3.0
141
12.0
290
     0
  0
SCALE
  5
B29
102
{ACAD_REACTORS
330
B19
102
}
330
B19
100
AcDbScale
 70
     0
300
6" = 1'-0"
140
6.0
141
12.0
290
     0
  0
SCALE
  5
B2A
102
{ACAD_REACTORS
330
B19
102
}
330
B19
100
AcDbScale
 70
     0
300
1'-0" = 1'-0"
140
12.0
141
12.0
290
     0
  0
TABLESTYLE
  5
32
102
{ACAD_XDICTIONARY
360
B3D
102
}
102
{ACAD_REACTORS
330
31
102
}
330
31
100
AcDbTableStyle
280
     0
  3
Standard
 70
     0
 71
     0
 40
0.06
 41
0.06
280
     0
281
     0
  7
Standard
140
0.18
170
     2
 62
     0
 63
     7
283
     0
 90
      512
 91
        0
  1

274
    -2
284
     1
 64
     0
275
    -2
285
     1
 65
     0
276
    -2
286
     1
 66
     0
277
    -2
287
     1
 67
     0
278
    -2
288
     1
 68
     0
279
    -2
289
     1
 69
     0
  7
Standard
140
0.25
170
     5
 62
     0
 63
     7
283
     0
 90
      512
 91
        0
  1

274
    -2
284
     1
 64
     0
275
    -2
285
     1
 65
     0
276
    -2
286
     1
 66
     0
277
    -2
287
     1
 67
     0
278
    -2
288
     1
 68
     0
279
    -2
289
     1
 69
     0
  7
Standard
140
0.18
170
     5
 62
     0
 63
     7
283
     0
 90
      512
 91
        0
  1

274
    -2
284
     1
 64
     0
275
    -2
285
     1
 65
     0
276
    -2
286
     1
 66
     0
277
    -2
287
     1
 67
     0
278
    -2
288
     1
 68
     0
279
    -2
289
     1
 69
     0
  0
VISUALSTYLE
  5
1A
102
{ACAD_REACTORS
330
14
102
}
330
14
100
AcDbVisualStyle
  2
2dWireframe
 70
     4
177
     2
291
     0
 71
     0
176
     1
 72
     2
176
     1
 73
     0
176
     1
 90
        0
176
     1
 40
0.6
176
     1
 41
30.0
176
     1
 63
     7
421
 16777215
176
     1
 74
     1
176
     1
 91
        4
176
     1
 64
     7
176
     1
 65
   257
176
     1
 75
     1
176
     1
175
     1
176
     1
 42
1.0
176
     1
 92
        0
176
     1
 66
   257
176
     1
 43
1.0
176
     1
 76
     1
176
     1
 77
     6
176
     1
 78
     2
176
     1
 67
     7
176
     1
 79
     5
176
     1
170
     0
176
     1
171
     0
176
     1
290
     0
176
     1
 93
        1
176
     1
 44
0.0
176
     1
173
     0
176
     1
  0
VISUALSTYLE
  5
1C
102
{ACAD_REACTORS
330
14
102
}
330
14
100
AcDbVisualStyle
  2
3D Hidden
 70
     6
177
     2
291
     0
 71
     1
176
     1
 72
     2
176
     1
 73
     2
176
     1
 90
        0
176
     1
 40
0.6
176
     1
 41
30.0
176
     1
 63
     7
421
 16777215
176
     1
 74
     2
176
     1
 91
        2
176
     1
 64
     7
176
     1
 65
   257
176
     1
 75
     2
176
     1
175
     1
176
     1
 42
40.0
176
     1
 92
        0
176
     1
 66
   257
176
     1
 43
1.0
176
     1
 76
     1
176
     1
 77
     6
176
     1
 78
     2
176
     1
 67
     7
176
     1
 79
     3
176
     1
170
     0
176
     1
171
     0
176
     1
290
     0
176
     1
 93
        1
176
     1
 44
0.0
176
     1
173
     0
176
     1
  0
VISUALSTYLE
  5
1B
102
{ACAD_REACTORS
330
14
102
}
330
14
100
AcDbVisualStyle
  2
3dWireframe
 70
     5
177
     2
291
     0
 71
     0
176
     1
 72
     2
176
     1
 73
     0
176
     1
 90
        0
176
     1
 40
0.6
176
     1
 41
30.0
176
     1
 63
     7
421
 16777215
176
     1
 74
     1
176
     1
 91
        4
176
     1
 64
     7
176
     1
 65
   257
176
     1
 75
     1
176
     1
175
     1
176
     1
 42
1.0
176
     1
 92
        0
176
     1
 66
   257
176
     1
 43
1.0
176
     1
 76
     1
176
     1
 77
     6
176
     1
 78
     2
176
     1
 67
     7
176
     1
 79
     5
176
     1
170
     0
176
     1
171
     0
176
     1
290
     0
176
     1
 93
        1
176
     1
 44
0.0
176
     1
173
     0
176
     1
  0
VISUALSTYLE
  5
19
102
{ACAD_REACTORS
330
14
102
}
330
14
100
AcDbVisualStyle
  2
Basic
 70
     7
177
     2
291
     1
 71
     1
176
     1
 72
     0
176
     1
 73
     1
176
     1
 90
        0
176
     1
 40
0.6
176
     1
 41
30.0
176
     1
 63
     7
421
 16777215
176
     1
 74
     0
176
     1
 91
        4
176
     1
 64
     7
176
     1
 65
   257
176
     1
 75
     1
176
     1
175
     1
176
     1
 42
1.0
176
     1
 92
        8
176
     1
 66
     7
176
     1
 43
1.0
176
     1
 76
     1
176
     1
 77
     6
176
     1
 78
     2
176
     1
 67
     7
176
     1
 79
     5
176
     1
170
     0
176
     1
171
     0
176
     1
290
     0
176
     1
 93
        1
176
     1
 44
0.0
176
     1
173
     0
176
     1
  0
VISUALSTYLE
  5
20
102
{ACAD_REACTORS
330
14
102
}
330
14
100
AcDbVisualStyle
  2
Brighten
 70
    12
177
     2
291
     1
 71
     2
176
     1
 72
     2
176
     1
 73
     0
176
     1
 90
        0
176
     1
 40
0.6
176
     1
 41
30.0
176
     1
 63
     7
421
 16777215
176
     1
 74
     1
176
     1
 91
        4
176
     1
 64
     7
176
     1
 65
   257
176
     1
 75
     1
176
     1
175
     1
176
     1
 42
1.0
176
     1
 92
        8
176
     1
 66
     7
176
     1
 43
1.0
176
     1
 76
     1
176
     1
 77
     6
176
     1
 78
     2
176
     1
 67
     7
176
     1
 79
     5
176
     1
170
     0
176
     1
171
     0
176
     1
290
     0
176
     1
 93
        1
176
     1
 44
50.0
176
     1
173
     0
176
     1
  0
VISUALSTYLE
  5
24
102
{ACAD_REACTORS
330
14
102
}
330
14
100
AcDbVisualStyle
  2
ColorChange
 70
    16
177
     2
291
     1
 71
     2
176
     1
 72
     2
176
     1
 73
     3
176
     1
 90
        0
176
     1
 40
0.6
176
     1
 41
30.0
176
     1
 63
     8
421
  8421504
176
     1
 74
     1
176
     1
 91
        4
176
     1
 64
     7
176
     1
 65
   257
176
     1
 75
     1
176
     1
175
     1
176
     1
 42
1.0
176
     1
 92
        8
176
     1
 66
     8
424
  8421504
176
     1
 43
1.0
176
     1
 76
     1
176
     1
 77
     6
176
     1
 78
     2
176
     1
 67
     7
176
     1
 79
     5
176
     1
170
     0
176
     1
171
     0
176
     1
290
     0
176
     1
 93
        1
176
     1
 44
0.0
176
     1
173
     0
176
     1
  0
VISUALSTYLE
  5
1D
102
{ACAD_REACTORS
330
14
102
}
330
14
100
AcDbVisualStyle
  2
Conceptual
 70
     9
177
     2
291
     0
 71
     3
176
     1
 72
     2
176
     1
 73
     0
176
     1
 90
        0
176
     1
 40
0.6
176
     1
 41
30.0
176
     1
 63
     7
421
 16777215
176
     1
 74
     2
176
     1
 91
        2
176
     1
 64
     7
176
     1
 65
   257
176
     1
 75
     1
176
     1
175
     1
176
     1
 42
40.0
176
     1
 92
        8
176
     1
 66
     7
176
     1
 43
1.0
176
     1
 76
     1
176
     1
 77
     6
176
     1
 78
     2
176
     1
 67
     7
176
     1
 79
     3
176
     1
170
     0
176
     1
171
     0
176
     1
290
     0
176
     1
 93
        1
176
     1
 44
0.0
176
     1
173
     0
176
     1
  0
VISUALSTYLE
  5
1F
102
{ACAD_REACTORS
330
14
102
}
330
14
100
AcDbVisualStyle
  2
Dim
 70
    11
177
     2
291
     1
 71
     2
176
     1
 72
     2
176
     1
 73
     0
176
     1
 90
        0
176
     1
 40
0.6
176
     1
 41
30.0
176
     1
 63
     7
421
 16777215
176
     1
 74
     1
176
     1
 91
        4
176
     1
 64
     7
176
     1
 65
   257
176
     1
 75
     1
176
     1
175
     1
176
     1
 42
1.0
176
     1
 92
        8
176
     1
 66
     7
176
     1
 43
1.0
176
     1
 76
     1
176
     1
 77
     6
176
     1
 78
     2
176
     1
 67
     7
176
     1
 79
     5
176
     1
170
     0
176
     1
171
     0
176
     1
290
     0
176
     1
 93
        1
176
     1
 44
-50.0
176
     1
173
     0
176
     1
  0
VISUALSTYLE
  5
B18
102
{ACAD_REACTORS
330
14
102
}
330
14
100
AcDbVisualStyle
  2
EdgeColorOff
 70
    22
177
     2
291
     1
 71
     2
176
     0
 72
     2
176
     0
 73
     0
176
     0
 90
        0
176
     0
 40
0.6
176
     0
 41
30.0
176
     0
 63
     7
421
 16777215
176
     0
 74
     1
176
     0
 91
        4
176
     0
 64
     7
176
     0
 65
   257
176
     0
 75
     1
176
     0
175
     1
176
     0
 42
1.0
176
     0
 92
        8
176
     2
 66
     7
176
     0
 43
1.0
176
     0
 76
     1
176
     0
 77
     6
176
     0
 78
     2
176
     0
 67
     7
176
     0
 79
     5
176
     0
170
     0
176
     0
171
     0
176
     0
290
     0
176
     0
 93
        1
176
     0
 44
0.0
176
     0
173
     0
176
     0
  0
VISUALSTYLE
  5
23
102
{ACAD_REACTORS
330
14
102
}
330
14
100
AcDbVisualStyle
  2
Facepattern
 70
    15
177
     2
291
     1
 71
     2
176
     1
 72
     2
176
     1
 73
     0
176
     1
 90
        0
176
     1
 40
0.6
176
     1
 41
30.0
176
     1
 63
     7
421
 16777215
176
     1
 74
     1
176
     1
 91
        4
176
     1
 64
     7
176
     1
 65
   257
176
     1
 75
     1
176
     1
175
     1
176
     1
 42
1.0
176
     1
 92
        8
176
     1
 66
     7
176
     1
 43
1.0
176
     1
 76
     1
176
     1
 77
     6
176
     1
 78
     2
176
     1
 67
     7
176
     1
 79
     5
176
     1
170
     0
176
     1
171
     0
176
     1
290
     0
176
     1
 93
        1
176
     1
 44
0.0
176
     1
173
     0
176
     1
  0
VISUALSTYLE
  5
15
102
{ACAD_REACTORS
330
14
102
}
330
14
100
AcDbVisualStyle
  2
Flat
 70
     0
177
     2
291
     1
 71
     2
176
     1
 72
     1
176
     1
 73
     1
176
     1
 90
        2
176
     1
 40
0.6
176
     1
 41
30.0
176
     1
 63
     7
421
 16777215
176
     1
 74
     0
176
     1
 91
        4
176
     1
 64
     7
176
     1
 65
   257
176
     1
 75
     1
176
     1
175
     1
176
     1
 42
1.0
176
     1
 92
        8
176
     1
 66
     7
176
     1
 43
1.0
176
     1
 76
     1
176
     1
 77
     6
176
     1
 78
     2
176
     1
 67
     7
176
     1
 79
     5
176
     1
170
     0
176
     1
171
     0
176
     1
290
     0
176
     1
 93
       13
176
     1
 44
0.0
176
     1
173
     0
176
     1
  0
VISUALSTYLE
  5
16
102
{ACAD_REACTORS
330
14
102
}
330
14
100
AcDbVisualStyle
  2
FlatWithEdges
 70
     1
177
     2
291
     1
 71
     2
176
     1
 72
     1
176
     1
 73
     1
176
     1
 90
        2
176
     1
 40
0.6
176
     1
 41
30.0
176
     1
 63
     7
421
 16777215
176
     1
 74
     1
176
     1
 91
        4
176
     1
 64
     7
176
     1
 65
   257
176
     1
 75
     1
176
     1
175
     1
176
     1
 42
1.0
176
     1
 92
        0
176
     1
 66
   257
176
     1
 43
1.0
176
     1
 76
     1
176
     1
 77
     6
176
     1
 78
     2
176
     1
 67
     7
176
     1
 79
     5
176
     1
170
     0
176
     1
171
     0
176
     1
290
     0
176
     1
 93
       13
176
     1
 44
0.0
176
     1
173
     0
176
     1
  0
VISUALSTYLE
  5
17
102
{ACAD_REACTORS
330
14
102
}
330
14
100
AcDbVisualStyle
  2
Gouraud
 70
     2
177
     2
291
     1
 71
     2
176
     1
 72
     2
176
     1
 73
     1
176
     1
 90
        2
176
     1
 40
0.6
176
     1
 41
30.0
176
     1
 63
     7
421
 16777215
176
     1
 74
     0
176
     1
 91
        4
176
     1
 64
     7
176
     1
 65
   257
176
     1
 75
     1
176
     1
175
     1
176
     1
 42
1.0
176
     1
 92
        0
176
     1
 66
     7
176
     1
 43
1.0
176
     1
 76
     1
176
     1
 77
     6
176
     1
 78
     2
176
     1
 67
     7
176
     1
 79
     5
176
     1
170
     0
176
     1
171
     0
176
     1
290
     0
176
     1
 93
       13
176
     1
 44
0.0
176
     1
173
     0
176
     1
  0
VISUALSTYLE
  5
18
102
{ACAD_REACTORS
330
14
102
}
330
14
100
AcDbVisualStyle
  2
GouraudWithEdges
 70
     3
177
     2
291
     1
 71
     2
176
     1
 72
     2
176
     1
 73
     1
176
     1
 90
        2
176
     1
 40
0.6
176
     1
 41
30.0
176
     1
 63
     7
421
 16777215
176
     1
 74
     1
176
     1
 91
        4
176
     1
 64
     7
176
     1
 65
   257
176
     1
 75
     1
176
     1
175
     1
176
     1
 42
1.0
176
     1
 92
        0
176
     1
 66
   257
176
     1
 43
1.0
176
     1
 76
     1
176
     1
 77
     6
176
     1
 78
     2
176
     1
 67
     7
176
     1
 79
     5
176
     1
170
     0
176
     1
171
     0
176
     1
290
     0
176
     1
 93
       13
176
     1
 44
0.0
176
     1
173
     0
176
     1
  0
VISUALSTYLE
  5
B10
102
{ACAD_REACTORS
330
14
102
}
330
14
100
AcDbVisualStyle
  2
Hidden
 70
     6
177
     2
291
     0
 71
     1
176
     1
 72
     2
176
     1
 73
     2
176
     1
 90
        0
176
     1
 40
0.6
176
     1
 41
30.0
176
     1
 63
     7
421
 16777215
176
     1
 74
     2
176
     1
 91
        2
176
     1
 64
     7
176
     1
 65
   257
176
     1
 75
     2
176
     1
175
     1
176
     1
 42
40.0
176
     1
 92
        0
176
     1
 66
   257
176
     1
 43
1.0
176
     1
 76
     1
176
     1
 77
     6
176
     1
 78
     2
176
     1
 67
     7
176
     1
 79
     3
176
     1
170
     0
176
     1
171
     0
176
     1
290
     0
176
     1
 93
        1
176
     1
 44
0.0
176
     1
173
     0
176
     1
  0
VISUALSTYLE
  5
B16
102
{ACAD_REACTORS
330
14
102
}
330
14
100
AcDbVisualStyle
  2
JitterOff
 70
    20
177
     2
291
     1
 71
     2
176
     0
 72
     2
176
     0
 73
     0
176
     0
 90
        0
176
     0
 40
0.6
176
     0
 41
30.0
176
     0
 63
     7
421
 16777215
176
     0
 74
     1
176
     0
 91
        4
176
     0
 64
     7
176
     0
 65
   257
176
     0
 75
     1
176
     0
175
     1
176
     0
 42
1.0
176
     0
 92
       10
176
     2
 66
     7
176
     0
 43
1.0
176
     0
 76
     1
176
     0
 77
     6
176
     0
 78
     2
176
     0
 67
     7
176
     0
 79
     5
176
     0
170
     0
176
     0
171
     0
176
     0
290
     0
176
     0
 93
        1
176
     0
 44
0.0
176
     0
173
     0
176
     0
  0
VISUALSTYLE
  5
22
102
{ACAD_REACTORS
330
14
102
}
330
14
100
AcDbVisualStyle
  2
Linepattern
 70
    14
177
     2
291
     1
 71
     2
176
     1
 72
     2
176
     1
 73
     0
176
     1
 90
        0
176
     1
 40
0.6
176
     1
 41
30.0
176
     1
 63
     7
421
 16777215
176
     1
 74
     1
176
     1
 91
        4
176
     1
 64
     7
176
     1
 65
   257
176
     1
 75
     7
176
     1
175
     7
176
     1
 42
1.0
176
     1
 92
        8
176
     1
 66
     7
176
     1
 43
1.0
176
     1
 76
     1
176
     1
 77
     6
176
     1
 78
     2
176
     1
 67
     7
176
     1
 79
     5
176
     1
170
     0
176
     1
171
     0
176
     1
290
     0
176
     1
 93
        1
176
     1
 44
0.0
176
     1
173
     0
176
     1
  0
VISUALSTYLE
  5
B17
102
{ACAD_REACTORS
330
14
102
}
330
14
100
AcDbVisualStyle
  2
OverhangOff
 70
    21
177
     2
291
     1
 71
     2
176
     0
 72
     2
176
     0
 73
     0
176
     0
 90
        0
176
     0
 40
0.6
176
     0
 41
30.0
176
     0
 63
     7
421
 16777215
176
     0
 74
     1
176
     0
 91
        4
176
     0
 64
     7
176
     0
 65
   257
176
     0
 75
     1
176
     0
175
     1
176
     0
 42
1.0
176
     0
 92
        9
176
     2
 66
     7
176
     0
 43
1.0
176
     0
 76
     1
176
     0
 77
     6
176
     0
 78
     2
176
     0
 67
     7
176
     0
 79
     5
176
     0
170
     0
176
     0
171
     0
176
     0
290
     0
176
     0
 93
        1
176
     0
 44
0.0
176
     0
173
     0
176
     0
  0
VISUALSTYLE
  5
1E
102
{ACAD_REACTORS
330
14
102
}
330
14
100
AcDbVisualStyle
  2
Realistic
 70
     8
177
     2
291
     0
 71
     2
176
     1
 72
     2
176
     1
 73
     0
176
     1
 90
        0
176
     1
 40
0.6
176
     1
 41
30.0
176
     1
 63
     7
421
 16777215
176
     1
 74
     1
176
     1
 91
        0
176
     1
 64
     7
176
     1
 65
   257
176
     1
 75
     1
176
     1
175
     1
176
     1
 42
1.0
176
     1
 92
        8
176
     1
 66
     8
424
  7895160
176
     1
 43
1.0
176
     1
 76
     1
176
     1
 77
     6
176
     1
 78
     2
176
     1
 67
     7
176
     1
 79
     5
176
     1
170
     0
176
     1
171
     0
176
     1
290
     0
176
     1
 93
       13
176
     1
 44
0.0
176
     1
173
     0
176
     1
  0
VISUALSTYLE
  5
B15
102
{ACAD_REACTORS
330
14
102
}
330
14
100
AcDbVisualStyle
  2
Shaded
 70
    27
177
     2
291
     0
 71
     2
176
     1
 72
     2
176
     1
 73
     1
176
     1
 90
        2
176
     1
 40
0.6
176
     1
 41
30.0
176
     1
 63
     7
421
 16777215
176
     1
 74
     0
176
     1
 91
        4
176
     1
 64
     7
176
     1
 65
   257
176
     1
 75
     1
176
     1
175
     1
176
     1
 42
1.0
176
     1
 92
        8
176
     1
 66
   257
176
     1
 43
1.0
176
     1
 76
     1
176
     1
 77
     6
176
     1
 78
     2
176
     1
 67
     8
425
  7895160
176
     1
 79
     3
176
     1
170
     0
176
     1
171
     0
176
     1
290
     0
176
     1
 93
        5
176
     1
 44
0.0
176
     1
173
     0
176
     1
  0
VISUALSTYLE
  5
B14
102
{ACAD_REACTORS
330
14
102
}
330
14
100
AcDbVisualStyle
  2
Shaded with edges
 70
    26
177
     2
291
     0
 71
     2
176
     1
 72
     2
176
     1
 73
     1
176
     1
 90
        2
176
     1
 40
0.6
176
     1
 41
30.0
176
     1
 63
     7
421
 16777215
176
     1
 74
     1
176
     1
 91
       10
176
     1
 64
     7
176
     1
 65
   257
176
     1
 75
     2
176
     1
175
     1
176
     1
 42
1.0
176
     1
 92
        8
176
     1
 66
   257
176
     1
 43
1.0
176
     1
 76
     1
176
     1
 77
     6
176
     1
 78
     2
176
     1
 67
     7
176
     1
 79
     3
176
     1
170
     0
176
     1
171
     0
176
     1
290
     0
176
     1
 93
        5
176
     1
 44
0.0
176
     1
173
     0
176
     1
  0
VISUALSTYLE
  5
B11
102
{ACAD_REACTORS
330
14
102
}
330
14
100
AcDbVisualStyle
  2
Shades of Gray
 70
    23
177
     2
291
     0
 71
     2
176
     1
 72
     2
176
     1
 73
     3
176
     1
 90
        0
176
     1
 40
0.6
176
     1
 41
30.0
176
     1
 63
     7
421
 16777215
176
     1
 74
     2
176
     1
 91
        2
176
     1
 64
     7
176
     1
 65
     7
176
     1
 75
     1
176
     1
175
     1
176
     1
 42
40.0
176
     1
 92
        8
176
     1
 66
     7
176
     1
 43
1.0
176
     1
 76
     1
176
     1
 77
     6
176
     1
 78
     2
176
     1
 67
     7
176
     1
 79
     3
176
     1
170
     0
176
     1
171
     0
176
     1
290
     0
176
     1
 93
        1
176
     1
 44
0.0
176
     1
173
     0
176
     1
  0
VISUALSTYLE
  5
B12
102
{ACAD_REACTORS
330
14
102
}
330
14
100
AcDbVisualStyle
  2
Sketchy
 70
    24
177
     2
291
     0
 71
     1
176
     1
 72
     2
176
     1
 73
     2
176
     1
 90
        0
176
     1
 40
0.6
176
     1
 41
30.0
176
     1
 63
     7
421
 16777215
176
     1
 74
     2
176
     1
 91
        2
176
     1
 64
     7
176
     1
 65
     7
176
     1
 75
     1
176
     1
175
     1
176
     1
 42
40.0
176
     1
 92
       11
176
     1
 66
     7
176
     1
 43
1.0
176
     1
 76
     1
176
     1
 77
     6
176
     1
 78
     2
176
     1
 67
     7
176
     1
 79
     6
176
     1
170
     0
176
     1
171
     0
176
     1
290
     0
176
     1
 93
        1
176
     1
 44
0.0
176
     1
173
     0
176
     1
  0
VISUALSTYLE
  5
21
102
{ACAD_REACTORS
330
14
102
}
330
14
100
AcDbVisualStyle
  2
Thicken
 70
    13
177
     2
291
     1
 71
     2
176
     1
 72
     2
176
     1
 73
     0
176
     1
 90
        0
176
     1
 40
0.6
176
     1
 41
30.0
176
     1
 63
     7
421
 16777215
176
     1
 74
     1
176
     1
 91
        4
176
     1
 64
     7
176
     1
 65
   257
176
     1
 75
     1
176
     1
175
     1
176
     1
 42
1.0
176
     1
 92
       12
176
     1
 66
     7
176
     1
 43
1.0
176
     1
 76
     1
176
     1
 77
     6
176
     1
 78
     2
176
     1
 67
     7
176
     1
 79
     5
176
     1
170
     0
176
     1
171
     0
176
     1
290
     0
176
     1
 93
        1
176
     1
 44
0.0
176
     1
173
     0
176
     1
  0
VISUALSTYLE
  5
B0F
102
{ACAD_REACTORS
330
14
102
}
330
14
100
AcDbVisualStyle
  2
Wireframe
 70
     5
177
     2
291
     0
 71
     0
176
     1
 72
     2
176
     1
 73
     0
176
     1
 90
        0
176
     1
 40
0.6
176
     1
 41
30.0
176
     1
 63
     7
421
 16777215
176
     1
 74
     1
176
     1
 91
        4
176
     1
 64
     7
176
     1
 65
   257
176
     1
 75
     1
176
     1
175
     1
176
     1
 42
1.0
176
     1
 92
        0
176
     1
 66
   257
176
     1
 43
1.0
176
     1
 76
     1
176
     1
 77
     6
176
     1
 78
     2
176
     1
 67
     7
176
     1
 79
     3
176
     1
170
     0
176
     1
171
     0
176
     1
290
     0
176
     1
 93
        1
176
     1
 44
0.0
176
     1
173
     0
176
     1
  0
VISUALSTYLE
  5
B13
102
{ACAD_REACTORS
330
14
102
}
330
14
100
AcDbVisualStyle
  2
X-Ray
 70
    25
177
     2
291
     0
 71
     2
176
     1
 72
     2
176
     1
 73
     1
176
     1
 90
        1
176
     1
 40
0.5
176
     1
 41
30.0
176
     1
 63
     7
421
 16777215
176
     1
 74
     1
176
     1
 91
        0
176
     1
 64
     7
176
     1
 65
   257
176
     1
 75
     1
176
     1
175
     1
176
     1
 42
1.0
176
     1
 92
        8
176
     1
 66
     7
176
     1
 43
1.0
176
     1
 76
     1
176
     1
 77
     6
176
     1
 78
     2
176
     1
 67
     7
176
     1
 79
     3
176
     1
170
     0
176
     1
171
     0
176
     1
290
     0
176
     1
 93
       13
176
     1
 44
0.0
176
     1
173
     0
176
     1
  0
DICTIONARYVAR
  5
B39
102
{ACAD_REACTORS
330
B0C
102
}
330
B0C
100
DictionaryVariables
280
     0
  1
1:1
  0
DICTIONARYVAR
  5
B37
102
{ACAD_REACTORS
330
B0C
102
}
330
B0C
100
DictionaryVariables
280
     0
  1
STANDARD
  0
DICTIONARYVAR
  5
B0D
102
{ACAD_REACTORS
330
B0C
102
}
330
B0C
100
DictionaryVariables
280
     0
  1
STANDARD
  0
DICTIONARYVAR
  5
B3B
102
{ACAD_REACTORS
330
B0C
102
}
330
B0C
100
DictionaryVariables
280
     0
  1
1
  0
DICTIONARYVAR
  5
B3C
102
{ACAD_REACTORS
330
B0C
102
}
330
B0C
100
DictionaryVariables
280
     0
  1
15
  0
DICTIONARYVAR
  5
B3A
102
{ACAD_REACTORS
330
B0C
102
}
330
B0C
100
DictionaryVariables
280
     0
  1
0
  0
DICTIONARYVAR
  5
B38
102
{ACAD_REACTORS
330
B0C
102
}
330
B0C
100
DictionaryVariables
280
     0
  1
0
  0
DICTIONARY
  5
B3D
330
32
100
AcDbDictionary
280
     1
281
     1
  3
ACAD_ROUNDTRIP_2008_TABLESTYLE_CELLSTYLEMAP
360
B3E
  0
CELLSTYLEMAP
  5
B3E
102
{ACAD_REACTORS
330
B3D
102
}
330
B3D
100
AcDbCellStyleMap
 90
        3
300
CELLSTYLE
  1
TABLEFORMAT_BEGIN
 90
        5
170
     1
 91
        0
 92
    32768
 62
   257
 93
        1
300
CONTENTFORMAT
  1
CONTENTFORMAT_BEGIN
 90
        0
 91
        0
 92
      512
 93
        0
300

 40
0.0
140
1.0
 94
        5
 62
     0
340
26
144
0.25
309
CONTENTFORMAT_END
171
     0
 94
        6
 95
        1
302
GRIDFORMAT
  1
GRIDFORMAT_BEGIN
 90
        0
 91
        1
 62
     0
 92
       -2
340
0
 93
        0
 40
0.045
309
GRIDFORMAT_END
 95
        2
302
GRIDFORMAT
  1
GRIDFORMAT_BEGIN
 90
        0
 91
        1
 62
     0
 92
       -2
340
0
 93
        0
 40
0.045
309
GRIDFORMAT_END
 95
        4
302
GRIDFORMAT
  1
GRIDFORMAT_BEGIN
 90
        0
 91
        1
 62
     0
 92
       -2
340
0
 93
        0
 40
0.045
309
GRIDFORMAT_END
 95
        8
302
GRIDFORMAT
  1
GRIDFORMAT_BEGIN
 90
        0
 91
        1
 62
     0
 92
       -2
340
0
 93
        0
 40
0.045
309
GRIDFORMAT_END
 95
       16
302
GRIDFORMAT
  1
GRIDFORMAT_BEGIN
 90
        0
 91
        1
 62
     0
 92
       -2
340
0
 93
        0
 40
0.045
309
GRIDFORMAT_END
 95
       32
302
GRIDFORMAT
  1
GRIDFORMAT_BEGIN
 90
        0
 91
        1
 62
     0
 92
       -2
340
0
 93
        0
 40
0.045
309
GRIDFORMAT_END
309
TABLEFORMAT_END
  1
CELLSTYLE_BEGIN
 90
        1
 91
        1
300
_TITLE
309
CELLSTYLE_END
300
CELLSTYLE
  1
TABLEFORMAT_BEGIN
 90
        5
170
     1
 91
        0
 92
        0
 62
   257
 93
        1
300
CONTENTFORMAT
  1
CONTENTFORMAT_BEGIN
 90
        0
 91
        0
 92
      512
 93
        0
300

 40
0.0
140
1.0
 94
        5
 62
     0
340
26
144
0.18
309
CONTENTFORMAT_END
171
     0
 94
        6
 95
        1
302
GRIDFORMAT
  1
GRIDFORMAT_BEGIN
 90
        0
 91
        1
 62
     0
 92
       -2
340
0
 93
        0
 40
0.045
309
GRIDFORMAT_END
 95
        2
302
GRIDFORMAT
  1
GRIDFORMAT_BEGIN
 90
        0
 91
        1
 62
     0
 92
       -2
340
0
 93
        0
 40
0.045
309
GRIDFORMAT_END
 95
        4
302
GRIDFORMAT
  1
GRIDFORMAT_BEGIN
 90
        0
 91
        1
 62
     0
 92
       -2
340
0
 93
        0
 40
0.045
309
GRIDFORMAT_END
 95
        8
302
GRIDFORMAT
  1
GRIDFORMAT_BEGIN
 90
        0
 91
        1
 62
     0
 92
       -2
340
0
 93
        0
 40
0.045
309
GRIDFORMAT_END
 95
       16
302
GRIDFORMAT
  1
GRIDFORMAT_BEGIN
 90
        0
 91
        1
 62
     0
 92
       -2
340
0
 93
        0
 40
0.045
309
GRIDFORMAT_END
 95
       32
302
GRIDFORMAT
  1
GRIDFORMAT_BEGIN
 90
        0
 91
        1
 62
     0
 92
       -2
340
0
 93
        0
 40
0.045
309
GRIDFORMAT_END
309
TABLEFORMAT_END
  1
CELLSTYLE_BEGIN
 90
        2
 91
        1
300
_HEADER
309
CELLSTYLE_END
300
CELLSTYLE
  1
TABLEFORMAT_BEGIN
 90
        5
170
     1
 91
        0
 92
        0
 62
   257
 93
        1
300
CONTENTFORMAT
  1
CONTENTFORMAT_BEGIN
 90
        0
 91
        0
 92
      512
 93
        0
300

 40
0.0
140
1.0
 94
        2
 62
     0
340
26
144
0.18
309
CONTENTFORMAT_END
171
     0
 94
        6
 95
        1
302
GRIDFORMAT
  1
GRIDFORMAT_BEGIN
 90
        0
 91
        1
 62
     0
 92
       -2
340
0
 93
        0
 40
0.045
309
GRIDFORMAT_END
 95
        2
302
GRIDFORMAT
  1
GRIDFORMAT_BEGIN
 90
        0
 91
        1
 62
     0
 92
       -2
340
0
 93
        0
 40
0.045
309
GRIDFORMAT_END
 95
        4
302
GRIDFORMAT
  1
GRIDFORMAT_BEGIN
 90
        0
 91
        1
 62
     0
 92
       -2
340
0
 93
        0
 40
0.045
309
GRIDFORMAT_END
 95
        8
302
GRIDFORMAT
  1
GRIDFORMAT_BEGIN
 90
        0
 91
        1
 62
     0
 92
       -2
340
0
 93
        0
 40
0.045
309
GRIDFORMAT_END
 95
       16
302
GRIDFORMAT
  1
GRIDFORMAT_BEGIN
 90
        0
 91
        1
 62
     0
 92
       -2
340
0
 93
        0
 40
0.045
309
GRIDFORMAT_END
 95
       32
302
GRIDFORMAT
  1
GRIDFORMAT_BEGIN
 90
        0
 91
        1
 62
     0
 92
       -2
340
0
 93
        0
 40
0.045
309
GRIDFORMAT_END
309
TABLEFORMAT_END
  1
CELLSTYLE_BEGIN
 90
        3
 91
        2
300
_DATA
309
CELLSTYLE_END
  0
ENDSEC
  0
EOF
