  0
SECTION
  2
HEADER
  9
$ACADVER
  1
AC1018
  9
$ACADMAINTVER
 70
   104
  9
$DWGCODEPAGE
  3
ANSI_1252
  9
$AUTHOR
  1
PS
  9
$REVISIONNUMBER
  1
-
  9
$CUSTOMPROPERTYTAG
  1
Manager
  9
$CUSTOMPROPERTY
  1

  9
$CUSTOMPROPERTYTAG
  1
Company
  9
$CUSTOMPROPERTY
  1

  9
$CUSTOMPROPERTYTAG
  1
Category
  9
$CUSTOMPROPERTY
  1

  9
$CUSTOMPROPERTYTAG
  1
Part Number
  9
$CUSTOMPROPERTY
  1
N1P0608-S
  9
$CUSTOMPROPERTYTAG
  1
Description
  9
$CUSTOMPROPERTY
  1

  9
$CUSTOMPROPERTYTAG
  1
Project
  9
$CUSTOMPROPERTY
  1

  9
$CUSTOMPROPERTYTAG
  1
Designer
  9
$CUSTOMPROPERTY
  1
PS
  9
$CUSTOMPROPERTYTAG
  1
Engineer
  9
$CUSTOMPROPERTY
  1

  9
$CUSTOMPROPERTYTAG
  1
Authority
  9
$CUSTOMPROPERTY
  1

  9
$CUSTOMPROPERTYTAG
  1
Cost Center
  9
$CUSTOMPROPERTY
  1

  9
$CUSTOMPROPERTYTAG
  1
Vendor
  9
$CUSTOMPROPERTY
  1

  9
$CUSTOMPROPERTYTAG
  1
User Status
  9
$CUSTOMPROPERTY
  1

  9
$CUSTOMPROPERTYTAG
  1
Design Status
  9
$CUSTOMPROPERTY
  1
WorkInProgress
  9
$CUSTOMPROPERTYTAG
  1
Checked by
  9
$CUSTOMPROPERTY
  1
NJ
  9
$CUSTOMPROPERTYTAG
  1
Date Checked
  9
$CUSTOMPROPERTY
  1
06/12/2013
  9
$CUSTOMPROPERTYTAG
  1
Engr Approved by
  9
$CUSTOMPROPERTY
  1

  9
$CUSTOMPROPERTYTAG
  1
Date Eng Approved
  9
$CUSTOMPROPERTY
  1
06/12/2013
  9
$CUSTOMPROPERTYTAG
  1
Mfg Approved by
  9
$CUSTOMPROPERTY
  1

  9
$CUSTOMPROPERTYTAG
  1
DWG. NO
  9
$CUSTOMPROPERTY
  1

  9
$CUSTOMPROPERTYTAG
  1
NUMBER OF SHEETS
  9
$CUSTOMPROPERTY
  1
1
  9
$CUSTOMPROPERTYTAG
  1
DRAWING #
  9
$CUSTOMPROPERTY
  1
1
  9
$INSBASE
 10
0.0
 20
0.0
 30
0.0
  9
$EXTMIN
 10
0.0
 20
0.0
 30
0.0
  9
$EXTMAX
 10
20.0
 20
12.94117647058823
 30
0.0
  9
$LIMMIN
 10
0.0
 20
0.0
  9
$LIMMAX
 10
20.0
 20
12.94117647058823
  9
$ORTHOMODE
 70
     0
  9
$REGENMODE
 70
     1
  9
$FILLMODE
 70
     1
  9
$QTEXTMODE
 70
     0
  9
$MIRRTEXT
 70
     0
  9
$LTSCALE
 40
1.176470588235294
  9
$ATTMODE
 70
     1
  9
$TEXTSIZE
 40
0.2
  9
$TRACEWID
 40
0.05
  9
$TEXTSTYLE
  7
Standard
  9
$CLAYER
  8
0
  9
$CELTYPE
  6
ByLayer
  9
$CECOLOR
 62
   256
  9
$CELTSCALE
 40
1.0
  9
$DISPSILH
 70
     0
  9
$DIMSCALE
 40
1.0
  9
$DIMASZ
 40
0.0708661417322835
  9
$DIMEXO
 40
0.0625
  9
$DIMDLI
 40
0.38
  9
$DIMRND
 40
0.0
  9
$DIMDLE
 40
0.0
  9
$DIMEXE
 40
0.18
  9
$DIMTP
 40
0.0
  9
$DIMTM
 40
0.0
  9
$DIMTXT
 40
0.0708661417322835
  9
$DIMCEN
 40
0.09
  9
$DIMTSZ
 40
0.0
  9
$DIMTOL
 70
     0
  9
$DIMLIM
 70
     0
  9
$DIMTIH
 70
     1
  9
$DIMTOH
 70
     1
  9
$DIMSE1
 70
     0
  9
$DIMSE2
 70
     0
  9
$DIMTAD
 70
     0
  9
$DIMZIN
 70
     0
  9
$DIMBLK
  1

  9
$DIMASO
 70
     1
  9
$DIMSHO
 70
     1
  9
$DIMPOST
  1

  9
$DIMAPOST
  1

  9
$DIMALT
 70
     0
  9
$DIMALTD
 70
     2
  9
$DIMALTF
 40
25.4
  9
$DIMLFAC
 40
1.0
  9
$DIMTOFL
 70
     0
  9
$DIMTVP
 40
0.0
  9
$DIMTIX
 70
     0
  9
$DIMSOXD
 70
     0
  9
$DIMSAH
 70
     0
  9
$DIMBLK1
  1

  9
$DIMBLK2
  1

  9
$DIMSTYLE
  2
STANDARD
  9
$DIMCLRD
 70
     0
  9
$DIMCLRE
 70
     0
  9
$DIMCLRT
 70
     0
  9
$DIMTFAC
 40
1.0
  9
$DIMGAP
 40
0.09
  9
$DIMJUST
 70
     0
  9
$DIMSD1
 70
     0
  9
$DIMSD2
 70
     0
  9
$DIMTOLJ
 70
     1
  9
$DIMTZIN
 70
     0
  9
$DIMALTZ
 70
     0
  9
$DIMALTTZ
 70
     0
  9
$DIMUPT
 70
     0
  9
$DIMDEC
 70
     4
  9
$DIMTDEC
 70
     4
  9
$DIMALTU
 70
     2
  9
$DIMALTTD
 70
     2
  9
$DIMTXSTY
  7
Standard
  9
$DIMAUNIT
 70
     0
  9
$DIMADEC
 70
     0
  9
$DIMALTRND
 40
0.0
  9
$DIMAZIN
 70
     0
  9
$DIMDSEP
 70
    46
  9
$DIMATFIT
 70
     3
  9
$DIMFRAC
 70
     0
  9
$DIMLDRBLK
  1

  9
$DIMLUNIT
 70
     2
  9
$DIMLWD
 70
    -2
  9
$DIMLWE
 70
    -2
  9
$DIMTMOVE
 70
     0
  9
$LUNITS
 70
     2
  9
$LUPREC
 70
     4
  9
$SKETCHINC
 40
0.1
  9
$FILLETRAD
 40
0.0
  9
$AUNITS
 70
     0
  9
$AUPREC
 70
     0
  9
$MENU
  1
.
  9
$ELEVATION
 40
0.0
  9
$PELEVATION
 40
0.0
  9
$THICKNESS
 40
0.0
  9
$LIMCHECK
 70
     0
  9
$CHAMFERA
 40
0.0
  9
$CHAMFERB
 40
0.0
  9
$CHAMFERC
 40
0.0
  9
$CHAMFERD
 40
0.0
  9
$SKPOLY
 70
     0
  9
$TDCREATE
 40
2456482.844649039
  9
$TDUCREATE
 40
2456482.615482373
  9
$TDUPDATE
 40
2456482.844649051
  9
$TDUUPDATE
 40
2456482.615482384
  9
$TDINDWG
 40
0.0000400810
  9
$TDUSRTIMER
 40
0.0000400810
  9
$USRTIMER
 70
     1
  9
$ANGBASE
 50
0.0
  9
$ANGDIR
 70
     0
  9
$PDMODE
 70
     0
  9
$PDSIZE
 40
0.0
  9
$PLINEWID
 40
0.0
  9
$SPLFRAME
 70
     0
  9
$SPLINETYPE
 70
     6
  9
$SPLINESEGS
 70
     8
  9
$HANDSEED
  5
84C
  9
$SURFTAB1
 70
     6
  9
$SURFTAB2
 70
     6
  9
$SURFTYPE
 70
     6
  9
$SURFU
 70
     6
  9
$SURFV
 70
     6
  9
$UCSBASE
  2

  9
$UCSNAME
  2

  9
$UCSORG
 10
0.0
 20
0.0
 30
0.0
  9
$UCSXDIR
 10
1.0
 20
0.0
 30
0.0
  9
$UCSYDIR
 10
0.0
 20
1.0
 30
0.0
  9
$UCSORTHOREF
  2

  9
$UCSORTHOVIEW
 70
     0
  9
$UCSORGTOP
 10
0.0
 20
0.0
 30
0.0
  9
$UCSORGBOTTOM
 10
0.0
 20
0.0
 30
0.0
  9
$UCSORGLEFT
 10
0.0
 20
0.0
 30
0.0
  9
$UCSORGRIGHT
 10
0.0
 20
0.0
 30
0.0
  9
$UCSORGFRONT
 10
0.0
 20
0.0
 30
0.0
  9
$UCSORGBACK
 10
0.0
 20
0.0
 30
0.0
  9
$PUCSBASE
  2

  9
$PUCSNAME
  2

  9
$PUCSORG
 10
0.0
 20
0.0
 30
0.0
  9
$PUCSXDIR
 10
1.0
 20
0.0
 30
0.0
  9
$PUCSYDIR
 10
0.0
 20
1.0
 30
0.0
  9
$PUCSORTHOREF
  2

  9
$PUCSORTHOVIEW
 70
     0
  9
$PUCSORGTOP
 10
0.0
 20
0.0
 30
0.0
  9
$PUCSORGBOTTOM
 10
0.0
 20
0.0
 30
0.0
  9
$PUCSORGLEFT
 10
0.0
 20
0.0
 30
0.0
  9
$PUCSORGRIGHT
 10
0.0
 20
0.0
 30
0.0
  9
$PUCSORGFRONT
 10
0.0
 20
0.0
 30
0.0
  9
$PUCSORGBACK
 10
0.0
 20
0.0
 30
0.0
  9
$USERI1
 70
     0
  9
$USERI2
 70
     0
  9
$USERI3
 70
     0
  9
$USERI4
 70
     0
  9
$USERI5
 70
     0
  9
$USERR1
 40
0.0
  9
$USERR2
 40
0.0
  9
$USERR3
 40
0.0
  9
$USERR4
 40
0.0
  9
$USERR5
 40
0.0
  9
$WORLDVIEW
 70
     1
  9
$SHADEDGE
 70
     3
  9
$SHADEDIF
 70
    70
  9
$TILEMODE
 70
     1
  9
$MAXACTVP
 70
    64
  9
$PINSBASE
 10
0.0
 20
0.0
 30
0.0
  9
$PLIMCHECK
 70
     0
  9
$PEXTMIN
 10
0.0
 20
0.0
 30
0.0
  9
$PEXTMAX
 10
20.0
 20
12.94117647058823
 30
0.0
  9
$PLIMMIN
 10
0.0
 20
0.0
  9
$PLIMMAX
 10
20.0
 20
12.94117647058823
  9
$UNITMODE
 70
     0
  9
$VISRETAIN
 70
     1
  9
$PLINEGEN
 70
     0
  9
$PSLTSCALE
 70
     1
  9
$TREEDEPTH
 70
  3020
  9
$CMLSTYLE
  2
Standard
  9
$CMLJUST
 70
     0
  9
$CMLSCALE
 40
1.0
  9
$PROXYGRAPHICS
 70
     1
  9
$MEASUREMENT
 70
     0
  9
$CELWEIGHT
370
    -1
  9
$ENDCAPS
280
     0
  9
$JOINSTYLE
280
     0
  9
$LWDISPLAY
290
     0
  9
$INSUNITS
 70
     1
  9
$HYPERLINKBASE
  1

  9
$STYLESHEET
  1

  9
$XEDIT
290
     1
  9
$CEPSNTYPE
380
     0
  9
$PSTYLEMODE
290
     1
  9
$FINGERPRINTGUID
  2
{4A9EC3E6-BA75-4BBD-8EBE-E7F9245D8595}
  9
$VERSIONGUID
  2
{7F172052-DEDB-4B1C-A322-AF594F0DA65C}
  9
$EXTNAMES
290
     1
  9
$PSVPSCALE
 40
0.0
  9
$OLESTARTUP
290
     0
  9
$SORTENTS
280
   127
  9
$INDEXCTL
280
     0
  9
$HIDETEXT
280
     1
  9
$XCLIPFRAME
290
     0
  9
$HALOGAP
280
     0
  9
$OBSCOLOR
 70
   257
  9
$OBSLTYPE
280
     0
  9
$INTERSECTIONDISPLAY
280
     0
  9
$INTERSECTIONCOLOR
 70
   257
  9
$DIMASSOC
280
     1
  9
$PROJECTNAME
  1

  0
ENDSEC
  0
SECTION
  2
CLASSES
  0
CLASS
  1
ACDBDICTIONARYWDFLT
  2
AcDbDictionaryWithDefault
  3
ObjectDBX Classes
 90
        0
 91
        1
280
     0
281
     0
  0
CLASS
  1
MATERIAL
  2
AcDbMaterial
  3
ObjectDBX Classes
 90
     1153
 91
        3
280
     0
281
     0
  0
CLASS
  1
VISUALSTYLE
  2
AcDbVisualStyle
  3
ObjectDBX Classes
 90
     4095
 91
       24
280
     0
281
     0
  0
CLASS
  1
SCALE
  2
AcDbScale
  3
ObjectDBX Classes
 90
     1153
 91
       17
280
     0
281
     0
  0
CLASS
  1
TABLESTYLE
  2
AcDbTableStyle
  3
ObjectDBX Classes
 90
     4095
 91
        1
280
     0
281
     0
  0
CLASS
  1
MLEADERSTYLE
  2
AcDbMLeaderStyle
  3
ACDB_MLEADERSTYLE_CLASS
 90
     4095
 91
        1
280
     0
281
     0
  0
CLASS
  1
DICTIONARYVAR
  2
AcDbDictionaryVar
  3
ObjectDBX Classes
 90
        0
 91
        8
280
     0
281
     0
  0
CLASS
  1
CELLSTYLEMAP
  2
AcDbCellStyleMap
  3
ObjectDBX Classes
 90
     1152
 91
        1
280
     0
281
     0
  0
ENDSEC
  0
SECTION
  2
TABLES
  0
TABLE
  2
VPORT
  5
8
330
0
100
AcDbSymbolTable
 70
     1
  0
VPORT
  5
57
330
8
100
AcDbSymbolTableRecord
100
AcDbViewportTableRecord
  2
*Active
 70
     0
 10
0.0
 20
0.0
 11
1.0
 21
1.0
 12
10.0
 22
6.470588235294117
 13
0.0
 23
0.0
 14
1.0
 24
1.0
 15
0.0
 25
0.0
 16
0.0
 26
0.0
 36
1.0
 17
0.0
 27
0.0
 37
0.0
 40
12.94117647058823
 41
1.545454545454545
 42
50.0
 43
0.0
 44
0.0
 50
0.0
 51
0.0
 71
     0
 72
   100
 73
     1
 74
     1
 75
     0
 76
     0
 77
     0
 78
     0
281
     0
 65
     1
110
0.0
120
0.0
130
0.0
111
1.0
121
0.0
131
0.0
112
0.0
122
1.0
132
0.0
 79
     0
146
0.0
  0
ENDTAB
  0
TABLE
  2
LTYPE
  5
5
330
0
100
AcDbSymbolTable
 70
    59
  0
LTYPE
  5
5B
330
5
100
AcDbSymbolTableRecord
100
AcDbLinetypeTableRecord
  2
ByBlock
 70
     0
  3

 72
    65
 73
     0
 40
0.0
  0
LTYPE
  5
5C
330
5
100
AcDbSymbolTableRecord
100
AcDbLinetypeTableRecord
  2
ByLayer
 70
     0
  3

 72
    65
 73
     0
 40
0.0
  0
LTYPE
  5
5D
330
5
100
AcDbSymbolTableRecord
100
AcDbLinetypeTableRecord
  2
Continuous
 70
     0
  3
Solid line
 72
    65
 73
     0
 40
0.0
  0
LTYPE
  5
7C
330
5
100
AcDbSymbolTableRecord
100
AcDbLinetypeTableRecord
  2
BY_STANDARD
 70
     0
  3
By Standard ____________    ____    ____   _
 72
    65
 73
     6
 40
1.240299999999999
 49
0.6614
 74
     0
 49
-0.0827
 74
     0
 49
0.1654
 74
     0
 49
-0.0827
 74
     0
 49
0.1654
 74
     0
 49
-0.0827
 74
     0
  0
LTYPE
  5
7D
330
5
100
AcDbSymbolTableRecord
100
AcDbLinetypeTableRecord
  2
CHAIN
 70
     0
  3
Chain ____ _ ____ _ ____ _ ____ _ ____ _ ____
 72
    65
 73
     4
 40
0.7087
 49
0.4724000000000001
 74
     0
 49
-0.0591
 74
     0
 49
0.1181
 74
     0
 49
-0.0591
 74
     0
  0
LTYPE
  5
7E
330
5
100
AcDbSymbolTableRecord
100
AcDbLinetypeTableRecord
  2
DASH_DOT
 70
     0
  3
Dash dot __ . __ . __ . __ . __ . __ . __ . __
 72
    65
 73
     4
 40
0.37
 49
0.24
 74
     0
 49
-0.06
 74
     0
 49
0.01
 74
     0
 49
-0.06
 74
     0
  0
LTYPE
  5
7F
330
5
100
AcDbSymbolTableRecord
100
AcDbLinetypeTableRecord
  2
DOUBLE_DASH_DOT
 70
     0
  3
Double-Dash Dot __ __ . __ __ . __ __ . __ _
 72
    65
 73
     6
 40
0.4398
 49
0.24
 74
     0
 49
-0.06
 74
     0
 49
0.0098
 74
     0
 49
-0.06
 74
     0
 49
0.01
 74
     0
 49
-0.06
 74
     0
  0
LTYPE
  5
80
330
5
100
AcDbSymbolTableRecord
100
AcDbLinetypeTableRecord
  2
DASH_TRIPLE_DOT
 70
     0
  3
Dash Triple-Dot _ . . . _ . . . _ . . . _
 72
    65
 73
     8
 40
0.51
 49
0.24
 74
     0
 49
-0.06
 74
     0
 49
0.01
 74
     0
 49
-0.06
 74
     0
 49
0.01
 74
     0
 49
-0.06
 74
     0
 49
0.01
 74
     0
 49
-0.06
 74
     0
  0
LTYPE
  5
81
330
5
100
AcDbSymbolTableRecord
100
AcDbLinetypeTableRecord
  2
DASHED
 70
     0
  3
Dashed __ __ __ __ __ __ __ __ __ __ __ __ __ _
 72
    65
 73
     2
 40
0.2067
 49
0.1654
 74
     0
 49
-0.0413
 74
     0
  0
LTYPE
  5
82
330
5
100
AcDbSymbolTableRecord
100
AcDbLinetypeTableRecord
  2
DASH_DOUBLE_DOT
 70
     0
  3
Dash Double-Dot __ . . __ . . __ . . __ . .
 72
    65
 73
     6
 40
0.4398
 49
0.24
 74
     0
 49
-0.06
 74
     0
 49
0.0098
 74
     0
 49
-0.06
 74
     0
 49
0.01
 74
     0
 49
-0.06
 74
     0
  0
LTYPE
  5
83
330
5
100
AcDbSymbolTableRecord
100
AcDbLinetypeTableRecord
  2
DASHED_SPACE
 70
     0
  3
Dashed Space __ __ __ __ __ __ __ __ __ __ __ _
 72
    65
 73
     2
 40
0.2067
 49
0.1654
 74
     0
 49
-0.0413
 74
     0
  0
LTYPE
  5
84
330
5
100
AcDbSymbolTableRecord
100
AcDbLinetypeTableRecord
  2
DOTTED
 70
     0
  3
Dotted . . . . . . . . . . . . . . . . . . . . 
 72
    65
 73
     2
 40
0.0482
 49
0.0069
 74
     0
 49
-0.0413
 74
     0
  0
LTYPE
  5
85
330
5
100
AcDbSymbolTableRecord
100
AcDbLinetypeTableRecord
  2
DOUBLE_DASH_CHAIN
 70
     0
  3
Double-Dash Chain ______  __  __  ______  __  _
 72
    65
 73
     6
 40
1.240299999999999
 49
0.6614
 74
     0
 49
-0.0827
 74
     0
 49
0.1654
 74
     0
 49
-0.0827
 74
     0
 49
0.1654
 74
     0
 49
-0.0827
 74
     0
  0
LTYPE
  5
87
330
5
100
AcDbSymbolTableRecord
100
AcDbLinetypeTableRecord
  2
DOUBLE_DASH_DOUBLE_DOT
 70
     0
  3
Double-Dash Double-dot _ _ . . _ _ . . _
 72
    65
 73
     8
 40
0.7400000000000001
 49
0.24
 74
     0
 49
-0.06
 74
     0
 49
0.24
 74
     0
 49
-0.06
 74
     0
 49
0.01
 74
     0
 49
-0.06
 74
     0
 49
0.01
 74
     0
 49
-0.06
 74
     0
  0
LTYPE
  5
88
330
5
100
AcDbSymbolTableRecord
100
AcDbLinetypeTableRecord
  2
DOUBLE_DASH_TRIPLE_DOT
 70
     0
  3
Double Dash Triple Dot __ __ . . . __ __ . .
 72
    65
 73
    10
 40
0.8100000000000001
 49
0.24
 74
     0
 49
-0.06
 74
     0
 49
0.24
 74
     0
 49
-0.06
 74
     0
 49
0.01
 74
     0
 49
-0.06
 74
     0
 49
0.01
 74
     0
 49
-0.06
 74
     0
 49
0.01
 74
     0
 49
-0.06
 74
     0
  0
LTYPE
  5
89
330
5
100
AcDbSymbolTableRecord
100
AcDbLinetypeTableRecord
  2
LONG_DASH_DOTTED
 70
     0
  3
Long Dash Dotted ____ . ____ . ____ . ____ . _
 72
    65
 73
     4
 40
0.3543
 49
0.2362
 74
     0
 49
-0.0295
 74
     0
 49
0.0591
 74
     0
 49
-0.0295
 74
     0
  0
LTYPE
  5
8A
330
5
100
AcDbSymbolTableRecord
100
AcDbLinetypeTableRecord
  2
LONG_DASH_DOUBLE_DOT
 70
     0
  3
Long Dash Double Dot ________  .  .  ________  
 72
    65
 73
     6
 40
0.6799999999999999
 49
0.48
 74
     0
 49
-0.06
 74
     0
 49
0.01
 74
     0
 49
-0.06
 74
     0
 49
0.01
 74
     0
 49
-0.06
 74
     0
  0
LTYPE
  5
8B
330
5
100
AcDbSymbolTableRecord
100
AcDbLinetypeTableRecord
  2
LONG_DASH_TRIPLE_DOT
 70
     0
  3
Long Dash Triple Dot ____ ... ____ ... ____
 72
    65
 73
     8
 40
0.3689
 49
0.2362
 74
     0
 49
-0.0295
 74
     0
 49
0.0049
 74
     0
 49
-0.0295
 74
     0
 49
0.0049
 74
     0
 49
-0.0295
 74
     0
 49
0.0049
 74
     0
 49
-0.0295
 74
     0
  0
LTYPE
  5
8C
330
5
100
AcDbSymbolTableRecord
100
AcDbLinetypeTableRecord
  2
BORDER
 70
     0
  3
Border __ __ . __ __ . __ __ . __ __ . __ __ .
 72
    65
 73
     6
 40
1.75
 49
0.5
 74
     0
 49
-0.25
 74
     0
 49
0.5
 74
     0
 49
-0.25
 74
     0
 49
0.0
 74
     0
 49
-0.25
 74
     0
  0
LTYPE
  5
8D
330
5
100
AcDbSymbolTableRecord
100
AcDbLinetypeTableRecord
  2
BORDER2
 70
     0
  3
Border (.5x) __.__.__.__.__.__.__.__.__.__.__.
 72
    65
 73
     6
 40
0.875
 49
0.25
 74
     0
 49
-0.125
 74
     0
 49
0.25
 74
     0
 49
-0.125
 74
     0
 49
0.0
 74
     0
 49
-0.125
 74
     0
  0
LTYPE
  5
8E
330
5
100
AcDbSymbolTableRecord
100
AcDbLinetypeTableRecord
  2
BORDERX2
 70
     0
  3
Border (2x) ____  ____  .  ____  ____  .  ___
 72
    65
 73
     6
 40
3.5
 49
1.0
 74
     0
 49
-0.5
 74
     0
 49
1.0
 74
     0
 49
-0.5
 74
     0
 49
0.0
 74
     0
 49
-0.5
 74
     0
  0
LTYPE
  5
8F
330
5
100
AcDbSymbolTableRecord
100
AcDbLinetypeTableRecord
  2
CENTER
 70
     0
  3
Center ____ _ ____ _ ____ _ ____ _ ____ _ ____
 72
    65
 73
     4
 40
2.0
 49
1.25
 74
     0
 49
-0.25
 74
     0
 49
0.25
 74
     0
 49
-0.25
 74
     0
  0
LTYPE
  5
90
330
5
100
AcDbSymbolTableRecord
100
AcDbLinetypeTableRecord
  2
CENTER2
 70
     0
  3
Center (.5x) ___ _ ___ _ ___ _ ___ _ ___ _ ___
 72
    65
 73
     4
 40
1.125
 49
0.75
 74
     0
 49
-0.125
 74
     0
 49
0.125
 74
     0
 49
-0.125
 74
     0
  0
LTYPE
  5
91
330
5
100
AcDbSymbolTableRecord
100
AcDbLinetypeTableRecord
  2
CENTERX2
 70
     0
  3
Center (2x) ________  __  ________  __  _____
 72
    65
 73
     4
 40
4.0
 49
2.5
 74
     0
 49
-0.5
 74
     0
 49
0.5
 74
     0
 49
-0.5
 74
     0
  0
LTYPE
  5
92
330
5
100
AcDbSymbolTableRecord
100
AcDbLinetypeTableRecord
  2
DASHDOT2
 70
     0
  3
Dash dot (.5x) _._._._._._._._._._._._._._._.
 72
    65
 73
     4
 40
0.5
 49
0.25
 74
     0
 49
-0.125
 74
     0
 49
0.0
 74
     0
 49
-0.125
 74
     0
  0
LTYPE
  5
93
330
5
100
AcDbSymbolTableRecord
100
AcDbLinetypeTableRecord
  2
DASHDOTX2
 70
     0
  3
Dash dot (2x) ____  .  ____  .  ____  .  ___
 72
    65
 73
     4
 40
2.0
 49
1.0
 74
     0
 49
-0.5
 74
     0
 49
0.0
 74
     0
 49
-0.5
 74
     0
  0
LTYPE
  5
95
330
5
100
AcDbSymbolTableRecord
100
AcDbLinetypeTableRecord
  2
DASHED2
 70
     0
  3
Dashed (.5x) _ _ _ _ _ _ _ _ _ _ _ _ _ _ _ _ _
 72
    65
 73
     2
 40
0.375
 49
0.25
 74
     0
 49
-0.125
 74
     0
  0
LTYPE
  5
96
330
5
100
AcDbSymbolTableRecord
100
AcDbLinetypeTableRecord
  2
DASHEDX2
 70
     0
  3
Dashed (2x) ____  ____  ____  ____  ____  ___
 72
    65
 73
     2
 40
1.5
 49
1.0
 74
     0
 49
-0.5
 74
     0
  0
LTYPE
  5
97
330
5
100
AcDbSymbolTableRecord
100
AcDbLinetypeTableRecord
  2
DIVIDE
 70
     0
  3
Divide ____ . . ____ . . ____ . . ____ . . ____
 72
    65
 73
     6
 40
1.25
 49
0.5
 74
     0
 49
-0.25
 74
     0
 49
0.0
 74
     0
 49
-0.25
 74
     0
 49
0.0
 74
     0
 49
-0.25
 74
     0
  0
LTYPE
  5
98
330
5
100
AcDbSymbolTableRecord
100
AcDbLinetypeTableRecord
  2
DIVIDE2
 70
     0
  3
Divide (.5x) __..__..__..__..__..__..__..__.._
 72
    65
 73
     6
 40
0.625
 49
0.25
 74
     0
 49
-0.125
 74
     0
 49
0.0
 74
     0
 49
-0.125
 74
     0
 49
0.0
 74
     0
 49
-0.125
 74
     0
  0
LTYPE
  5
99
330
5
100
AcDbSymbolTableRecord
100
AcDbLinetypeTableRecord
  2
DIVIDEX2
 70
     0
  3
Divide (2x) ________  .  .  ________  .  .  _
 72
    65
 73
     6
 40
2.5
 49
1.0
 74
     0
 49
-0.5
 74
     0
 49
0.0
 74
     0
 49
-0.5
 74
     0
 49
0.0
 74
     0
 49
-0.5
 74
     0
  0
LTYPE
  5
9A
330
5
100
AcDbSymbolTableRecord
100
AcDbLinetypeTableRecord
  2
DOT
 70
     0
  3
Dot . . . . . . . . . . . . . . . . . . . . . .
 72
    65
 73
     2
 40
0.25
 49
0.0
 74
     0
 49
-0.25
 74
     0
  0
LTYPE
  5
9B
330
5
100
AcDbSymbolTableRecord
100
AcDbLinetypeTableRecord
  2
DOT2
 70
     0
  3
Dot (.5x) .....................................
 72
    65
 73
     2
 40
0.125
 49
0.0
 74
     0
 49
-0.125
 74
     0
  0
LTYPE
  5
9C
330
5
100
AcDbSymbolTableRecord
100
AcDbLinetypeTableRecord
  2
DOTX2
 70
     0
  3
Dot (2x) .  .  .  .  .  .  .  .  .  .  .  .  . 
 72
    65
 73
     2
 40
0.5
 49
0.0
 74
     0
 49
-0.5
 74
     0
  0
LTYPE
  5
9D
330
5
100
AcDbSymbolTableRecord
100
AcDbLinetypeTableRecord
  2
HIDDEN
 70
     0
  3
Hidden __ __ __ __ __ __ __ __ __ __ __ __ __ _
 72
    65
 73
     2
 40
0.375
 49
0.25
 74
     0
 49
-0.125
 74
     0
  0
LTYPE
  5
9E
330
5
100
AcDbSymbolTableRecord
100
AcDbLinetypeTableRecord
  2
HIDDEN2
 70
     0
  3
Hidden (.5x) _ _ _ _ _ _ _ _ _ _ _ _ _ _ _ _ _
 72
    65
 73
     2
 40
0.1875
 49
0.125
 74
     0
 49
-0.0625
 74
     0
  0
LTYPE
  5
9F
330
5
100
AcDbSymbolTableRecord
100
AcDbLinetypeTableRecord
  2
HIDDENX2
 70
     0
  3
Hidden (2x) ____ ____ ____ ____ ____ ____ ____
 72
    65
 73
     2
 40
0.75
 49
0.5
 74
     0
 49
-0.25
 74
     0
  0
LTYPE
  5
A0
330
5
100
AcDbSymbolTableRecord
100
AcDbLinetypeTableRecord
  2
PHANTOM
 70
     0
  3
Phantom ______  __  __  ______  __  __  ______
 72
    65
 73
     6
 40
2.5
 49
1.25
 74
     0
 49
-0.25
 74
     0
 49
0.25
 74
     0
 49
-0.25
 74
     0
 49
0.25
 74
     0
 49
-0.25
 74
     0
  0
LTYPE
  5
A1
330
5
100
AcDbSymbolTableRecord
100
AcDbLinetypeTableRecord
  2
PHANTOM2
 70
     0
  3
Phantom (.5x) ___ _ _ ___ _ _ ___ _ _ ___ _ _
 72
    65
 73
     6
 40
1.25
 49
0.625
 74
     0
 49
-0.125
 74
     0
 49
0.125
 74
     0
 49
-0.125
 74
     0
 49
0.125
 74
     0
 49
-0.125
 74
     0
  0
LTYPE
  5
A2
330
5
100
AcDbSymbolTableRecord
100
AcDbLinetypeTableRecord
  2
PHANTOMX2
 70
     0
  3
Phantom (2x) ____________    ____    ____   _
 72
    65
 73
     6
 40
5.0
 49
2.5
 74
     0
 49
-0.5
 74
     0
 49
0.5
 74
     0
 49
-0.5
 74
     0
 49
0.5
 74
     0
 49
-0.5
 74
     0
  0
LTYPE
  5
A3
330
5
100
AcDbSymbolTableRecord
100
AcDbLinetypeTableRecord
  2
ACAD_ISO02W100
 70
     0
  3
ISO dash __ __ __ __ __ __ __ __ __ __ __ __ __
 72
    65
 73
     2
 40
0.59
 49
0.47
 74
     0
 49
-0.12
 74
     0
  0
LTYPE
  5
A4
330
5
100
AcDbSymbolTableRecord
100
AcDbLinetypeTableRecord
  2
ACAD_ISO03W100
 70
     0
  3
ISO dash space __    __    __    __    __    __
 72
    65
 73
     2
 40
1.179999999999999
 49
0.47
 74
     0
 49
-0.71
 74
     0
  0
LTYPE
  5
A5
330
5
100
AcDbSymbolTableRecord
100
AcDbLinetypeTableRecord
  2
ACAD_ISO04W100
 70
     0
  3
ISO long-dash dot ____ . ____ . ____ . ____ . _
 72
    65
 73
     4
 40
1.179999999999999
 49
0.9399999999999998
 74
     0
 49
-0.12
 74
     0
 49
0.0
 74
     0
 49
-0.12
 74
     0
  0
LTYPE
  5
A6
330
5
100
AcDbSymbolTableRecord
100
AcDbLinetypeTableRecord
  2
ACAD_ISO05W100
 70
     0
  3
ISO long-dash double-dot ____ .. ____ .. ____ .
 72
    65
 73
     6
 40
1.299999999999999
 49
0.9399999999999998
 74
     0
 49
-0.12
 74
     0
 49
0.0
 74
     0
 49
-0.12
 74
     0
 49
0.0
 74
     0
 49
-0.12
 74
     0
  0
LTYPE
  5
A7
330
5
100
AcDbSymbolTableRecord
100
AcDbLinetypeTableRecord
  2
ACAD_ISO06W100
 70
     0
  3
ISO long-dash triple-dot ____ ... ____ ... ____
 72
    65
 73
     8
 40
1.419999999999999
 49
0.9399999999999998
 74
     0
 49
-0.12
 74
     0
 49
0.0
 74
     0
 49
-0.12
 74
     0
 49
0.0
 74
     0
 49
-0.12
 74
     0
 49
0.0
 74
     0
 49
-0.12
 74
     0
  0
LTYPE
  5
A8
330
5
100
AcDbSymbolTableRecord
100
AcDbLinetypeTableRecord
  2
ACAD_ISO07W100
 70
     0
  3
ISO dot . . . . . . . . . . . . . . . . . . . .
 72
    65
 73
     2
 40
0.12
 49
0.0
 74
     0
 49
-0.12
 74
     0
  0
LTYPE
  5
A9
330
5
100
AcDbSymbolTableRecord
100
AcDbLinetypeTableRecord
  2
ACAD_ISO08W100
 70
     0
  3
ISO long-dash short-dash ____ __ ____ __ ____ _
 72
    65
 73
     4
 40
0.95
 49
0.47
 74
     0
 49
-0.12
 74
     0
 49
0.24
 74
     0
 49
-0.12
 74
     0
  0
LTYPE
  5
AA
330
5
100
AcDbSymbolTableRecord
100
AcDbLinetypeTableRecord
  2
ACAD_ISO09W100
 70
     0
  3
ISO long-dash double-short-dash ____ __ __ ____
 72
    65
 73
     6
 40
1.31
 49
0.47
 74
     0
 49
-0.12
 74
     0
 49
0.24
 74
     0
 49
-0.12
 74
     0
 49
0.24
 74
     0
 49
-0.12
 74
     0
  0
LTYPE
  5
AB
330
5
100
AcDbSymbolTableRecord
100
AcDbLinetypeTableRecord
  2
ACAD_ISO10W100
 70
     0
  3
ISO dash dot __ . __ . __ . __ . __ . __ . __ .
 72
    65
 73
     4
 40
0.71
 49
0.47
 74
     0
 49
-0.12
 74
     0
 49
0.0
 74
     0
 49
-0.12
 74
     0
  0
LTYPE
  5
AC
330
5
100
AcDbSymbolTableRecord
100
AcDbLinetypeTableRecord
  2
ACAD_ISO11W100
 70
     0
  3
ISO double-dash dot __ __ . __ __ . __ __ . __ 
 72
    65
 73
     6
 40
1.299999999999999
 49
0.47
 74
     0
 49
-0.12
 74
     0
 49
0.47
 74
     0
 49
-0.12
 74
     0
 49
0.0
 74
     0
 49
-0.12
 74
     0
  0
LTYPE
  5
AD
330
5
100
AcDbSymbolTableRecord
100
AcDbLinetypeTableRecord
  2
ACAD_ISO12W100
 70
     0
  3
ISO dash double-dot __ . . __ . . __ . . __ . .
 72
    65
 73
     6
 40
0.8299999999999998
 49
0.47
 74
     0
 49
-0.12
 74
     0
 49
0.0
 74
     0
 49
-0.12
 74
     0
 49
0.0
 74
     0
 49
-0.12
 74
     0
  0
LTYPE
  5
AE
330
5
100
AcDbSymbolTableRecord
100
AcDbLinetypeTableRecord
  2
ACAD_ISO13W100
 70
     0
  3
ISO double-dash double-dot __ __ . . __ __ . . 
 72
    65
 73
     8
 40
1.419999999999999
 49
0.47
 74
     0
 49
-0.12
 74
     0
 49
0.47
 74
     0
 49
-0.12
 74
     0
 49
0.0
 74
     0
 49
-0.12
 74
     0
 49
0.0
 74
     0
 49
-0.12
 74
     0
  0
LTYPE
  5
AF
330
5
100
AcDbSymbolTableRecord
100
AcDbLinetypeTableRecord
  2
ACAD_ISO14W100
 70
     0
  3
ISO dash triple-dot __ . . . __ . . . __ . . . 
 72
    65
 73
     8
 40
0.95
 49
0.47
 74
     0
 49
-0.12
 74
     0
 49
0.0
 74
     0
 49
-0.12
 74
     0
 49
0.0
 74
     0
 49
-0.12
 74
     0
 49
0.0
 74
     0
 49
-0.12
 74
     0
  0
LTYPE
  5
B0
330
5
100
AcDbSymbolTableRecord
100
AcDbLinetypeTableRecord
  2
ACAD_ISO15W100
 70
     0
  3
ISO double-dash triple-dot __ __ . . . __ __ . 
 72
    65
 73
    10
 40
1.539999999999999
 49
0.47
 74
     0
 49
-0.12
 74
     0
 49
0.47
 74
     0
 49
-0.12
 74
     0
 49
0.0
 74
     0
 49
-0.12
 74
     0
 49
0.0
 74
     0
 49
-0.12
 74
     0
 49
0.0
 74
     0
 49
-0.12
 74
     0
  0
LTYPE
  5
B3
330
5
100
AcDbSymbolTableRecord
100
AcDbLinetypeTableRecord
  2
FENCELINE1
 70
     0
  3
Fenceline circle ----0-----0----0-----0----0---
 72
    65
 73
     4
 40
1.45
 49
0.25
 74
     0
 49
-0.1
 74
     4
 75
   133
340
B2
 46
0.1
 50
0.0
 44
-0.1
 45
0.0
 49
-0.1
 74
     0
 49
1.0
 74
     0
  0
LTYPE
  5
B4
330
5
100
AcDbSymbolTableRecord
100
AcDbLinetypeTableRecord
  2
FENCELINE2
 70
     0
  3
Fenceline square ----[]-----[]----[]-----[]----
 72
    65
 73
     4
 40
1.45
 49
0.25
 74
     0
 49
-0.1
 74
     4
 75
   132
340
B2
 46
0.1
 50
0.0
 44
-0.1
 45
0.0
 49
-0.1
 74
     0
 49
1.0
 74
     0
  0
LTYPE
  5
B5
330
5
100
AcDbSymbolTableRecord
100
AcDbLinetypeTableRecord
  2
TRACKS
 70
     0
  3
Tracks -|-|-|-|-|-|-|-|-|-|-|-|-|-|-|-|-|-|-|-|
 72
    65
 73
     2
 40
0.3
 49
0.15
 74
     4
 75
   130
340
B2
 46
0.25
 50
0.0
 44
0.0
 45
0.0
 49
0.15
 74
     0
  0
LTYPE
  5
B6
330
5
100
AcDbSymbolTableRecord
100
AcDbLinetypeTableRecord
  2
BATTING
 70
     0
  3
Batting SSSSSSSSSSSSSSSSSSSSSSSSSSSSSSSSSSSSSSS
 72
    65
 73
     4
 40
0.4001000000000001
 49
0.0001
 74
     0
 49
-0.1
 74
     4
 75
   134
340
B2
 46
0.1
 50
0.0
 44
-0.1
 45
0.0
 49
-0.2
 74
     4
 75
   134
340
B2
 46
0.1
 50
180.0
 44
0.1
 45
0.0
 49
-0.1
 74
     0
  0
LTYPE
  5
B7
330
5
100
AcDbSymbolTableRecord
100
AcDbLinetypeTableRecord
  2
HOT_WATER_SUPPLY
 70
     0
  3
Hot water supply ---- HW ---- HW ---- HW ----
 72
    65
 73
     3
 40
0.9
 49
0.5
 74
     0
 49
-0.2
 74
     2
 75
     0
340
55
 46
0.1
 50
0.0
 44
-0.1
 45
-0.05
  9
HW
 49
-0.2
 74
     0
  0
LTYPE
  5
B8
330
5
100
AcDbSymbolTableRecord
100
AcDbLinetypeTableRecord
  2
GAS_LINE
 70
     0
  3
Gas line ----GAS----GAS----GAS----GAS----GAS---
 72
    65
 73
     3
 40
0.95
 49
0.5
 74
     0
 49
-0.2
 74
     2
 75
     0
340
55
 46
0.1
 50
0.0
 44
-0.1
 45
-0.05
  9
GAS
 49
-0.25
 74
     0
  0
LTYPE
  5
B9
330
5
100
AcDbSymbolTableRecord
100
AcDbLinetypeTableRecord
  2
ZIGZAG
 70
     0
  3
Zig zag /\/\/\/\/\/\/\/\/\/\/\/\/\/\/\/\/\/\/\/
 72
    65
 73
     4
 40
0.8001000000000001
 49
0.0001
 74
     0
 49
-0.2
 74
     4
 75
   131
340
B2
 46
0.2
 50
0.0
 44
-0.2
 45
0.0
 49
-0.4
 74
     4
 75
   131
340
B2
 46
0.2
 50
180.0
 44
0.2
 45
0.0
 49
-0.2
 74
     0
  0
ENDTAB
  0
TABLE
  2
LAYER
  5
2
330
0
100
AcDbSymbolTable
 70
    27
  0
LAYER
  5
54
330
2
100
AcDbSymbolTableRecord
100
AcDbLayerTableRecord
  2
0
 70
     0
 62
     7
  6
Continuous
370
    18
390
F
  0
LAYER
  5
C0
330
2
100
AcDbSymbolTableRecord
100
AcDbLayerTableRecord
  2
Center Mark (ANSI)
 70
     0
 62
     7
  6
Continuous
370
    15
390
F
  0
LAYER
  5
C1
330
2
100
AcDbSymbolTableRecord
100
AcDbLayerTableRecord
  2
Centerline (ANSI)
 70
     0
 62
     7
  6
Continuous
370
    15
390
F
  0
LAYER
  5
C3
330
2
100
AcDbSymbolTableRecord
100
AcDbLayerTableRecord
  2
Dimension (ANSI)
 70
     0
 62
     7
  6
Continuous
370
    13
390
F
  0
LAYER
  5
C5
330
2
100
AcDbSymbolTableRecord
100
AcDbLayerTableRecord
  2
Hidden (ANSI)
 70
     0
 62
     7
  6
DASHED
370
    15
390
F
  0
LAYER
  5
CC
330
2
100
AcDbSymbolTableRecord
100
AcDbLayerTableRecord
  2
Symbol (ANSI)
 70
     0
 62
     7
  6
Continuous
370
    18
390
F
  0
LAYER
  5
CF
330
2
100
AcDbSymbolTableRecord
100
AcDbLayerTableRecord
  2
Visible (ANSI)
 70
     0
 62
     7
  6
Continuous
370
    13
390
F
  0
LAYER
  5
D0
330
2
100
AcDbSymbolTableRecord
100
AcDbLayerTableRecord
  2
Visible Narrow (ANSI)
 70
     0
 62
     7
  6
Continuous
370
    18
390
F
  0
LAYER
  5
16F
330
2
100
AcDbSymbolTableRecord
100
AcDbLayerTableRecord
  2
Defpoints
 70
     0
 62
     7
  6
Continuous
290
     0
370
    -3
390
F
  0
ENDTAB
  0
TABLE
  2
STYLE
  5
3
330
0
100
AcDbSymbolTable
 70
    18
  0
STYLE
  5
55
330
3
100
AcDbSymbolTableRecord
100
AcDbTextStyleTableRecord
  2
Standard
 70
     0
 40
0.0
 41
1.0
 50
0.0
 71
     0
 42
0.2
  3
txt
  4

  0
STYLE
  5
5A
330
3
100
AcDbSymbolTableRecord
100
AcDbTextStyleTableRecord
  2
Annotative
 70
     0
 40
0.0
 41
1.0
 50
0.0
 71
     0
 42
0.2
  3
txt
  4

1001
AcadAnnotative
1000
AnnotativeData
1002
{
1070
     1
1070
     1
1002
}
  0
STYLE
  5
B2
330
3
100
AcDbSymbolTableRecord
100
AcDbTextStyleTableRecord
  2

 70
     1
 40
0.0
 41
1.0
 50
0.0
 71
     0
 42
0.2
  3
ltypeshp.shx
  4

  0
STYLE
  5
D4
330
3
100
AcDbSymbolTableRecord
100
AcDbTextStyleTableRecord
  2
ITALICC_120
 70
     0
 40
0.0
 41
1.0
 50
0.0
 71
     0
 42
0.2
  3
italicc.shx
  4

  0
STYLE
  5
D5
330
3
100
AcDbSymbolTableRecord
100
AcDbTextStyleTableRecord
  2
Label Text (ANSI)
 70
     0
 40
0.0
 41
1.0
 50
0.0
 71
     0
 42
0.2
  3
tahoma.ttf
  4

1001
ACAD
1000
Tahoma
1071
      256
  0
STYLE
  5
D6
330
3
100
AcDbSymbolTableRecord
100
AcDbTextStyleTableRecord
  2
Note Text (ANSI)
 70
     0
 40
0.0
 41
1.0
 50
0.0
 71
     0
 42
0.2
  3
tahoma.ttf
  4

1001
ACAD
1000
Tahoma
1071
      256
  0
STYLE
  5
D7
330
3
100
AcDbSymbolTableRecord
100
AcDbTextStyleTableRecord
  2
ROMANS
 70
     0
 40
0.0
 41
1.0
 50
0.0
 71
     0
 42
0.2
  3
romans.shx
  4

  0
STYLE
  5
D8
330
3
100
AcDbSymbolTableRecord
100
AcDbTextStyleTableRecord
  2
SANSSERIF_114
 70
     0
 40
0.0
 41
1.0
 50
0.0
 71
     0
 42
0.2
  3
tahoma.ttf
  4

1001
ACAD
1000
Tahoma
1071
      256
  0
STYLE
  5
D9
330
3
100
AcDbSymbolTableRecord
100
AcDbTextStyleTableRecord
  2
SANSSERIF_117
 70
     0
 40
0.0
 41
1.0
 50
0.0
 71
     0
 42
0.2
  3
tahoma.ttf
  4

1001
ACAD
1000
Tahoma
1071
      256
  0
STYLE
  5
DA
330
3
100
AcDbSymbolTableRecord
100
AcDbTextStyleTableRecord
  2
STANDARDAM_ANSI
 70
     0
 40
0.0
 41
1.0
 50
0.0
 71
     0
 42
0.2
  3
txt.shx
  4

  0
STYLE
  5
DB
330
3
100
AcDbSymbolTableRecord
100
AcDbTextStyleTableRecord
  2
StandardAM_ANSI$0
 70
     0
 40
0.0
 41
1.0
 50
0.0
 71
     0
 42
0.2
  3
txt.shx
  4

  0
STYLE
  5
DC
330
3
100
AcDbSymbolTableRecord
100
AcDbTextStyleTableRecord
  2
STANDARDAM_ANSI$3
 70
     0
 40
0.0
 41
1.0
 50
0.0
 71
     0
 42
0.2
  3
txt.shx
  4

  0
STYLE
  5
DD
330
3
100
AcDbSymbolTableRecord
100
AcDbTextStyleTableRecord
  2
STANDARDAM_ANSI$4
 70
     0
 40
0.0
 41
1.0
 50
0.0
 71
     0
 42
0.2
  3
txt.shx
  4

  0
STYLE
  5
DE
330
3
100
AcDbSymbolTableRecord
100
AcDbTextStyleTableRecord
  2
STANDARDAM_ANSI$7
 70
     0
 40
0.0
 41
1.0
 50
0.0
 71
     0
 42
0.2
  3
txt.shx
  4

  0
STYLE
  5
DF
330
3
100
AcDbSymbolTableRecord
100
AcDbTextStyleTableRecord
  2
STANDARDAM_ANSI$SF
 70
     0
 40
0.0
 41
1.0
 50
0.0
 71
     0
 42
0.2
  3
txt.shx
  4

  0
STYLE
  5
E0
330
3
100
AcDbSymbolTableRecord
100
AcDbTextStyleTableRecord
  2
STANDARDAM_ANSI$SH
 70
     0
 40
0.0
 41
1.0
 50
0.0
 71
     0
 42
0.2
  3
txt.shx
  4

  0
STYLE
  5
E1
330
3
100
AcDbSymbolTableRecord
100
AcDbTextStyleTableRecord
  2
STANDARDSTANDARD
 70
     0
 40
0.0
 41
1.0
 50
0.0
 71
     0
 42
0.2
  3
txt.shx
  4

  0
STYLE
  5
130
330
3
100
AcDbSymbolTableRecord
100
AcDbTextStyleTableRecord
  2
Text Style166
 70
     0
 40
0.0
 41
1.0
 50
0.0
 71
     0
 42
0.2
  3
tahoma.ttf
  4

1001
ACAD
1000
Tahoma
1071
      256
  0
ENDTAB
  0
TABLE
  2
VIEW
  5
6
330
0
100
AcDbSymbolTable
 70
     0
  0
ENDTAB
  0
TABLE
  2
UCS
  5
7
330
0
100
AcDbSymbolTable
 70
     0
  0
ENDTAB
  0
TABLE
  2
APPID
  5
9
330
0
100
AcDbSymbolTable
 70
     4
  0
APPID
  5
56
330
9
100
AcDbSymbolTableRecord
100
AcDbRegAppTableRecord
  2
ACAD
 70
     0
  0
APPID
  5
5E
330
9
100
AcDbSymbolTableRecord
100
AcDbRegAppTableRecord
  2
AcadAnnotative
 70
     0
  0
APPID
  5
4EB
330
9
100
AcDbSymbolTableRecord
100
AcDbRegAppTableRecord
  2
ACAD_DSTYLE_DIMRADIAL_EXTENSION
 70
     0
  0
APPID
  5
849
330
9
100
AcDbSymbolTableRecord
100
AcDbRegAppTableRecord
  2
ACAD_MLEADERVER
 70
     0
  0
ENDTAB
  0
TABLE
  2
DIMSTYLE
  5
A
330
0
100
AcDbSymbolTable
 70
    27
100
AcDbDimStyleTable
 71
     2
340
F6
340
58
  0
DIMSTYLE
105
58
330
A
100
AcDbSymbolTableRecord
100
AcDbDimStyleTableRecord
  2
STANDARD
 70
     0
 41
0.1800000071525573
 42
0.0625
140
0.1800000071525574
144
1.0
147
0.0900000035762787
176
   256
177
   256
178
   256
274
     3
340
55
371
    -1
372
    -1
  0
DIMSTYLE
105
59
330
A
100
AcDbSymbolTableRecord
100
AcDbDimStyleTableRecord
  2
Annotative
 70
     0
340
55
1001
AcadAnnotative
1000
AnnotativeData
1002
{
1070
     1
1070
     1
1002
}
  0
DIMSTYLE
105
E2
330
A
100
AcDbSymbolTableRecord
100
AcDbDimStyleTableRecord
  2
AM_ANSI
 70
     0
  4
 mm
 40
1.176470588235294
 41
0.119999997317791
 42
0.05
 43
0.5
 44
0.1
 45
0.00000001
 78
     4
 79
     2
140
0.1200000047683716
146
0.7099999189376831
147
0.0599999986588955
176
   256
177
   256
178
     2
284
     4
340
DA
371
    -1
372
    -1
  0
DIMSTYLE
105
E3
330
A
100
AcDbSymbolTableRecord
100
AcDbDimStyleTableRecord
  2
AM_ANSI$7
 70
     0
  4
 mm
 40
1.176470588235294
 41
0.119999997317791
 42
0.05
 43
0.5
 44
0.1
 45
0.00000001
 78
     4
 79
     2
140
0.1200000047683716
146
0.7099999189376831
147
0.0599999986588955
176
   256
177
   256
178
     2
284
     4
340
DA
371
    -1
372
    -1
  0
DIMSTYLE
105
E4
330
A
100
AcDbSymbolTableRecord
100
AcDbDimStyleTableRecord
  2
AM_ANSI$0
 70
     0
  4
 mm
 40
1.176470588235294
 41
0.119999997317791
 42
0.05
 43
0.5
 44
0.1
 45
0.00000001
 78
     4
 79
     2
140
0.1200000047683716
146
0.7099999189376831
147
0.0599999986588955
176
   256
177
   256
178
     2
284
     4
340
DB
371
    -1
372
    -1
  0
DIMSTYLE
105
E5
330
A
100
AcDbSymbolTableRecord
100
AcDbDimStyleTableRecord
  2
AM_ANSI$0$7
 70
     0
  4
 mm
 40
1.176470588235294
 41
0.119999997317791
 42
0.05
 43
0.5
 44
0.1
 45
0.00000001
 78
     4
 79
     2
140
0.1200000047683716
146
0.7099999189376831
147
0.0599999986588955
176
   256
177
   256
178
     2
284
     4
340
DB
371
    -1
372
    -1
  0
DIMSTYLE
105
E6
330
A
100
AcDbSymbolTableRecord
100
AcDbDimStyleTableRecord
  2
AM_ANSI$3
 70
     0
  4
 mm
 40
1.176470588235294
 41
0.119999997317791
 42
0.05
 43
0.5
 44
0.1
 45
0.00000001
 78
     4
 79
     2
140
0.1200000047683716
146
0.7099999189376831
147
0.0599999986588955
176
   256
177
   256
178
     2
284
     4
340
DC
371
    -1
372
    -1
  0
DIMSTYLE
105
E7
330
A
100
AcDbSymbolTableRecord
100
AcDbDimStyleTableRecord
  2
AM_ANSI$3$7
 70
     0
  4
 mm
 40
1.176470588235294
 41
0.119999997317791
 42
0.05
 43
0.5
 44
0.1
 45
0.00000001
 78
     4
 79
     2
140
0.1200000047683716
146
0.7099999189376831
147
0.0599999986588955
176
   256
177
   256
178
     2
284
     4
340
DC
371
    -1
372
    -1
  0
DIMSTYLE
105
E8
330
A
100
AcDbSymbolTableRecord
100
AcDbDimStyleTableRecord
  2
AM_ANSI$4
 70
     0
  4
 mm
 40
1.176470588235294
 41
0.119999997317791
 42
0.05
 43
0.5
 44
0.1
 45
0.00000001
 78
     4
 79
     2
140
0.1200000047683716
146
0.7099999189376831
147
0.0599999986588955
176
   256
177
   256
178
     2
284
     4
340
DD
371
    -1
372
    -1
  0
DIMSTYLE
105
E9
330
A
100
AcDbSymbolTableRecord
100
AcDbDimStyleTableRecord
  2
AM_ANSI$4$7
 70
     0
  4
 mm
 40
1.176470588235294
 41
0.119999997317791
 42
0.05
 43
0.5
 44
0.1
 45
0.00000001
 78
     4
 79
     2
140
0.1200000047683716
146
0.7099999189376831
147
0.0599999986588955
176
   256
177
   256
178
     2
284
     4
340
DD
371
    -1
372
    -1
  0
DIMSTYLE
105
EA
330
A
100
AcDbSymbolTableRecord
100
AcDbDimStyleTableRecord
  2
AM_ANSI$SF
 70
     0
  4
 mm
 40
1.176470588235294
 41
0.119999997317791
 42
0.05
 43
0.5
 44
0.1
 45
0.00000001
 75
     1
 76
     1
 78
     4
 79
     2
140
0.1200000047683716
146
0.7099999189376831
147
0.0599999986588955
176
   256
177
   256
178
     2
284
     4
340
DF
371
    -1
372
    -1
  0
DIMSTYLE
105
EB
330
A
100
AcDbSymbolTableRecord
100
AcDbDimStyleTableRecord
  2
AM_ANSI$SF$7
 70
     0
  4
 mm
 40
1.176470588235294
 41
0.119999997317791
 42
0.05
 43
0.5
 44
0.1
 45
0.00000001
 75
     1
 76
     1
 78
     4
 79
     2
140
0.1200000047683716
146
0.7099999189376831
147
0.0599999986588955
176
   256
177
   256
178
     2
284
     4
340
DF
371
    -1
372
    -1
  0
DIMSTYLE
105
EC
330
A
100
AcDbSymbolTableRecord
100
AcDbDimStyleTableRecord
  2
AM_ANSI$SH
 70
     0
  4
 mm
 40
1.176470588235294
 41
0.119999997317791
 42
0.05
 43
0.5
 44
0.1
 45
0.00000001
 75
     1
 76
     1
 78
     4
 79
     2
140
0.1200000047683716
146
0.7099999189376831
147
0.0599999986588955
176
   256
177
   256
178
     2
284
     4
340
E0
371
    -1
372
    -1
  0
DIMSTYLE
105
ED
330
A
100
AcDbSymbolTableRecord
100
AcDbDimStyleTableRecord
  2
AM_ANSI$SH$7
 70
     0
  4
 mm
 40
1.176470588235294
 41
0.119999997317791
 42
0.05
 43
0.5
 44
0.1
 45
0.00000001
 75
     1
 76
     1
 78
     4
 79
     2
140
0.1200000047683716
146
0.7099999189376831
147
0.0599999986588955
176
   256
177
   256
178
     2
284
     4
340
E0
371
    -1
372
    -1
  0
DIMSTYLE
105
EE
330
A
100
AcDbSymbolTableRecord
100
AcDbDimStyleTableRecord
  2
Architectural (ANSI)
 70
     0
 40
1.176470588235294
 41
0.0984251946210861
 43
0.2362204724409449
 44
0.125
 45
0.00000001
 46
0.3937007874015748
 78
     3
 79
     3
140
0.1200000047683716
147
0.031496062992126
171
     1
176
   256
177
   256
178
   256
272
     2
274
     1
276
     2
277
     4
284
    12
285
     4
286
    12
340
D6
371
    -1
372
    -1
  0
DIMSTYLE
105
EF
330
A
100
AcDbSymbolTableRecord
100
AcDbDimStyleTableRecord
  2
Architectural (ANSI)$7
 70
     0
 40
1.176470588235294
 41
0.0984251946210861
 43
0.2362204724409449
 44
0.125
 45
0.00000001
 46
0.3937007874015748
 78
     3
 79
     3
140
0.1200000047683716
147
0.031496062992126
171
     1
176
   256
177
   256
178
   256
272
     2
274
     1
276
     2
277
     4
284
    12
285
     4
286
    12
340
D6
371
    -1
372
    -1
  0
DIMSTYLE
105
F0
330
A
100
AcDbSymbolTableRecord
100
AcDbDimStyleTableRecord
  2
Default - Fraction (ANSI)
 70
     0
 40
1.176470588235294
 41
0.0984251946210861
 43
0.2362204724409449
 44
0.125
 45
0.00000001
 46
0.3937007874015748
 79
     3
140
0.1200000047683716
147
0.031496062992126
171
     1
176
   256
177
   256
178
   256
272
     2
274
     1
276
     2
277
     5
284
    12
285
     4
286
    12
340
D6
371
    -1
372
    -1
  0
DIMSTYLE
105
F1
330
A
100
AcDbSymbolTableRecord
100
AcDbDimStyleTableRecord
  2
Default - Fraction (ANSI)$7
 70
     0
 40
1.176470588235294
 41
0.0984251946210861
 43
0.2362204724409449
 44
0.125
 45
0.00000001
 46
0.3937007874015748
 79
     3
140
0.1200000047683716
147
0.031496062992126
171
     1
176
   256
177
   256
178
   256
272
     2
274
     1
276
     2
277
     5
284
    12
285
     4
286
    12
340
D6
371
    -1
372
    -1
  0
DIMSTYLE
105
F2
330
A
100
AcDbSymbolTableRecord
100
AcDbDimStyleTableRecord
  2
Default - mm (ANSI)
 70
     0
 40
1.176470588235294
 41
0.0984251946210861
 42
0.063
 43
0.2362204724409449
 44
0.125
 45
0.00000001
 46
0.3937007874015748
 73
     0
 78
     4
 79
     1
140
0.1200000047683716
143
1.0
144
25.4
147
0.031496062992126
171
     1
176
   256
177
   256
178
   256
179
     1
271
     2
272
     2
274
     1
284
     4
285
     4
340
D6
371
    -1
372
    -1
  0
DIMSTYLE
105
F3
330
A
100
AcDbSymbolTableRecord
100
AcDbDimStyleTableRecord
  2
Default - mm (ANSI)$7
 70
     0
 40
1.176470588235294
 41
0.0984251946210861
 42
0.063
 43
0.2362204724409449
 44
0.125
 45
0.00000001
 46
0.3937007874015748
 73
     0
 78
     4
 79
     1
140
0.1200000047683716
143
1.0
144
25.4
147
0.031496062992126
171
     1
176
   256
177
   256
178
   256
179
     1
271
     2
272
     2
274
     1
284
     4
285
     4
340
D6
371
    -1
372
    -1
  0
DIMSTYLE
105
F4
330
A
100
AcDbSymbolTableRecord
100
AcDbDimStyleTableRecord
  2
Default - mm [in] (ANSI)
 70
     0
  4
 in
 40
1.176470588235294
 41
0.0984251946210861
 42
0.063
 43
0.25
 44
0.125
 45
0.00000001
 46
0.3937007874015748
 73
     0
 78
     4
 79
     1
140
0.1200000047683716
143
0.03937
144
25.4
147
0.031496062992126
170
     1
171
     3
176
   256
177
   256
178
   256
179
     1
271
     2
272
     2
274
     3
284
     4
285
     4
286
     4
340
D6
371
    -1
372
    -1
  0
DIMSTYLE
105
F5
330
A
100
AcDbSymbolTableRecord
100
AcDbDimStyleTableRecord
  2
Default - mm [in] (ANSI)$7
 70
     0
  4
 in
 40
1.176470588235294
 41
0.0984251946210861
 42
0.063
 43
0.25
 44
0.125
 45
0.00000001
 46
0.3937007874015748
 73
     0
 78
     4
 79
     1
140
0.1200000047683716
143
0.03937
144
25.4
147
0.031496062992126
170
     1
171
     3
176
   256
177
   256
178
   256
179
     1
271
     2
272
     2
274
     3
284
     4
285
     4
286
     4
340
D6
371
    -1
372
    -1
  0
DIMSTYLE
105
F6
102
{ACAD_REACTORS
330
16D
330
277
330
361
330
451
330
50C
330
5F6
330
6F4
102
}
330
A
100
AcDbSymbolTableRecord
100
AcDbDimStyleTableRecord
  2
Default (ANSI)
 70
     0
 40
1.176470588235294
 41
0.0984251946210861
 43
0.2362204724409449
 44
0.125
 45
0.00000001
 46
0.3937007874015748
 79
     1
140
0.1200000047683716
147
0.031496062992126
171
     1
176
   256
177
   256
178
   256
271
     2
272
     2
274
     1
284
     4
285
     4
340
D6
371
    -1
372
    -1
  0
DIMSTYLE
105
F7
330
A
100
AcDbSymbolTableRecord
100
AcDbDimStyleTableRecord
  2
Default (ANSI)$7
 70
     0
 40
1.176470588235294
 41
0.0984251946210861
 43
0.2362204724409449
 44
0.125
 45
0.00000001
 46
0.3937007874015748
 79
     1
140
0.1200000047683716
147
0.031496062992126
171
     1
176
   256
177
   256
178
   256
271
     2
272
     2
274
     1
284
     4
285
     4
340
D6
371
    -1
372
    -1
  0
DIMSTYLE
105
F8
330
A
100
AcDbSymbolTableRecord
100
AcDbDimStyleTableRecord
  2
Alternate (ANSI)
 70
     0
 40
1.176470588235294
 41
0.0979999974370003
340
55
342
F9
  0
DIMSTYLE
105
10B
330
A
100
AcDbSymbolTableRecord
100
AcDbDimStyleTableRecord
  2
Datum (ANSI)
 70
     0
 40
1.176470588235294
 41
0.0979999974370003
340
55
342
F9
  0
DIMSTYLE
105
11A
330
A
100
AcDbSymbolTableRecord
100
AcDbDimStyleTableRecord
  2
Large (ANSI)
 70
     0
 40
1.176470588235294
 41
0.1959999948740005
340
55
342
F9
  0
ENDTAB
  0
TABLE
  2
BLOCK_RECORD
  5
1
330
0
100
AcDbSymbolTable
 70
    11
  0
BLOCK_RECORD
  5
6C
330
1
100
AcDbSymbolTableRecord
100
AcDbBlockTableRecord
  2
*Model_Space
340
6F
  0
BLOCK_RECORD
  5
68
330
1
100
AcDbSymbolTableRecord
100
AcDbBlockTableRecord
  2
*Paper_Space
340
6B
  0
BLOCK_RECORD
  5
70
330
1
100
AcDbSymbolTableRecord
100
AcDbBlockTableRecord
  2
*Paper_Space0
340
73
  0
BLOCK_RECORD
  5
F9
330
1
100
AcDbSymbolTableRecord
100
AcDbBlockTableRecord
  2
_Closed
340
0
  0
BLOCK_RECORD
  5
100
330
1
100
AcDbSymbolTableRecord
100
AcDbBlockTableRecord
  2
DatumFilled45
340
0
  0
BLOCK_RECORD
  5
10C
330
1
100
AcDbSymbolTableRecord
100
AcDbBlockTableRecord
  2
Filled-1
340
0
  0
BLOCK_RECORD
  5
170
330
1
100
AcDbSymbolTableRecord
100
AcDbBlockTableRecord
  2
*D4
340
0
  0
BLOCK_RECORD
  5
278
330
1
100
AcDbSymbolTableRecord
100
AcDbBlockTableRecord
  2
*D5
340
0
  0
BLOCK_RECORD
  5
362
330
1
100
AcDbSymbolTableRecord
100
AcDbBlockTableRecord
  2
*D6
340
0
  0
BLOCK_RECORD
  5
452
330
1
100
AcDbSymbolTableRecord
100
AcDbBlockTableRecord
  2
*D7
340
0
  0
BLOCK_RECORD
  5
50D
330
1
100
AcDbSymbolTableRecord
100
AcDbBlockTableRecord
  2
*D8
340
0
  0
BLOCK_RECORD
  5
5F7
330
1
100
AcDbSymbolTableRecord
100
AcDbBlockTableRecord
  2
*D9
340
0
  0
BLOCK_RECORD
  5
6F5
330
1
100
AcDbSymbolTableRecord
100
AcDbBlockTableRecord
  2
*D10
340
0
  0
ENDTAB
  0
ENDSEC
  0
SECTION
  2
BLOCKS
  0
BLOCK
  5
6D
330
6C
100
AcDbEntity
  8
0
100
AcDbBlockBegin
  2
*Model_Space
 70
     0
 10
0.0
 20
0.0
 30
0.0
  3
*Model_Space
  1

  0
ENDBLK
  5
6E
330
6C
100
AcDbEntity
  8
0
100
AcDbBlockEnd
  0
BLOCK
  5
69
330
68
100
AcDbEntity
 67
     1
  8
0
100
AcDbBlockBegin
  2
*Paper_Space
 70
     0
 10
0.0
 20
0.0
 30
0.0
  3
*Paper_Space
  1

  0
ENDBLK
  5
6A
330
68
100
AcDbEntity
 67
     1
  8
0
100
AcDbBlockEnd
  0
BLOCK
  5
71
330
70
100
AcDbEntity
 67
     1
  8
0
100
AcDbBlockBegin
  2
*Paper_Space0
 70
     0
 10
0.0
 20
0.0
 30
0.0
  3
*Paper_Space0
  1

  0
ENDBLK
  5
72
330
70
100
AcDbEntity
 67
     1
  8
0
100
AcDbBlockEnd
  0
BLOCK
  5
FE
330
F9
100
AcDbEntity
  8
0
100
AcDbBlockBegin
  2
_Closed
 70
     0
 10
0.0
 20
0.0
 30
0.0
  3
_Closed
  1

  0
LINE
  5
FA
330
F9
100
AcDbEntity
  8
0
  6
ByBlock
 62
     0
370
    -2
100
AcDbLine
 10
-1.0
 20
0.1666666666666666
 30
0.0
 11
0.0
 21
0.0
 31
0.0
  0
LINE
  5
FB
330
F9
100
AcDbEntity
  8
0
  6
ByBlock
 62
     0
370
    -2
100
AcDbLine
 10
0.0
 20
0.0
 30
0.0
 11
-1.0
 21
-0.1666666666666666
 31
0.0
  0
LINE
  5
FC
330
F9
100
AcDbEntity
  8
0
  6
ByBlock
 62
     0
370
    -2
100
AcDbLine
 10
-1.0
 20
0.1666666666666666
 30
0.0
 11
-1.0
 21
-0.1666666666666666
 31
0.0
  0
LINE
  5
FD
330
F9
100
AcDbEntity
  8
0
  6
ByBlock
 62
     0
370
    -2
100
AcDbLine
 10
0.0
 20
0.0
 30
0.0
 11
-1.0
 21
0.0
 31
0.0
  0
ENDBLK
  5
FF
330
F9
100
AcDbEntity
  8
0
100
AcDbBlockEnd
  0
BLOCK
  5
101
330
100
100
AcDbEntity
  8
0
100
AcDbBlockBegin
  2
DatumFilled45
 70
     0
 10
0.0
 20
0.0
 30
0.0
  3
DatumFilled45
  1

  0
POLYLINE
  5
103
330
100
100
AcDbEntity
  8
0
 62
     0
100
AcDb2dPolyline
 66
     1
 10
0.0
 20
0.0
 30
0.0
 70
   128
  0
VERTEX
  5
104
330
103
100
AcDbEntity
  8
0
 62
     0
100
AcDbVertex
100
AcDb2dVertex
 10
0.0
 20
0.9999999999999998
 30
0.0
  0
VERTEX
  5
105
330
103
100
AcDbEntity
  8
0
 62
     0
100
AcDbVertex
100
AcDb2dVertex
 10
0.0
 20
-0.9999999999999998
 30
0.0
  0
VERTEX
  5
107
330
103
100
AcDbEntity
  8
0
 62
     0
100
AcDbVertex
100
AcDb2dVertex
 10
-0.9999999999999998
 20
0.0
 30
0.0
  0
VERTEX
  5
108
330
103
100
AcDbEntity
  8
0
 62
     0
100
AcDbVertex
100
AcDb2dVertex
 10
0.0
 20
0.9999999999999998
 30
0.0
  0
SEQEND
  5
106
330
103
100
AcDbEntity
  8
0
 62
     0
  0
SOLID
  5
10A
330
100
100
AcDbEntity
  8
0
 62
     0
100
AcDbTrace
 10
0.0
 20
0.9999999999999998
 30
0.0
 11
0.0
 21
-0.9999999999999998
 31
0.0
 12
-0.9999999999999998
 22
0.0
 32
0.0
 13
0.0
 23
0.9999999999999998
 33
0.0
  0
ENDBLK
  5
102
330
100
100
AcDbEntity
  8
0
100
AcDbBlockEnd
  0
BLOCK
  5
10D
330
10C
100
AcDbEntity
  8
0
100
AcDbBlockBegin
  2
Filled-1
 70
     0
 10
0.0
 20
0.0
 30
0.0
  3
Filled-1
  1

  0
LINE
  5
10F
330
10C
100
AcDbEntity
  8
0
 62
     0
100
AcDbLine
 10
-0.9999999999999998
 20
0.0
 30
0.0
 11
0.0
 21
0.0
 31
0.0
  0
POLYLINE
  5
110
330
10C
100
AcDbEntity
  8
0
 62
     0
100
AcDb2dPolyline
 66
     1
 10
0.0
 20
0.0
 30
0.0
 70
   128
  0
VERTEX
  5
111
330
110
100
AcDbEntity
  8
0
 62
     0
100
AcDbVertex
100
AcDb2dVertex
 10
-0.9999999999999998
 20
-0.0994897959183674
 30
0.0
  0
VERTEX
  5
112
330
110
100
AcDbEntity
  8
0
 62
     0
100
AcDbVertex
100
AcDb2dVertex
 10
0.0
 20
0.0
 30
0.0
  0
VERTEX
  5
114
330
110
100
AcDbEntity
  8
0
 62
     0
100
AcDbVertex
100
AcDb2dVertex
 10
-0.9999999999999998
 20
0.0994897959183674
 30
0.0
  0
VERTEX
  5
115
330
110
100
AcDbEntity
  8
0
 62
     0
100
AcDbVertex
100
AcDb2dVertex
 10
-0.9999999999999998
 20
-0.0994897959183674
 30
0.0
  0
SEQEND
  5
113
330
110
100
AcDbEntity
  8
0
 62
     0
  0
SOLID
  5
116
330
10C
100
AcDbEntity
  8
0
 62
     0
100
AcDbTrace
 10
-0.9999999999999998
 20
-0.0994897959183674
 30
0.0
 11
0.0
 21
0.0
 31
0.0
 12
-0.9999999999999998
 22
0.0994897959183674
 32
0.0
 13
-0.9999999999999998
 23
-0.0994897959183674
 33
0.0
  0
LINE
  5
117
330
10C
100
AcDbEntity
  8
0
 62
     0
100
AcDbLine
 10
-0.9999999999999998
 20
-0.0994897959183674
 30
0.0
 11
0.0
 21
0.0
 31
0.0
  0
LINE
  5
118
330
10C
100
AcDbEntity
  8
0
 62
     0
100
AcDbLine
 10
0.0
 20
0.0
 30
0.0
 11
-0.9999999999999998
 21
0.0994897959183674
 31
0.0
  0
LINE
  5
119
330
10C
100
AcDbEntity
  8
0
 62
     0
100
AcDbLine
 10
-0.9999999999999998
 20
0.0994897959183674
 30
0.0
 11
-0.9999999999999998
 21
-0.0994897959183674
 31
0.0
  0
ENDBLK
  5
10E
330
10C
100
AcDbEntity
  8
0
100
AcDbBlockEnd
  0
BLOCK
  5
171
330
170
100
AcDbEntity
  8
0
100
AcDbBlockBegin
  2
*D4
 70
     1
 10
0.0
 20
0.0
 30
0.0
  3
*D4
  1

  0
LINE
  5
26D
330
170
100
AcDbEntity
  8
Dimension (ANSI)
440
 16777216
100
AcDbLine
 10
12.84694670652055
 20
9.852909543467978
 30
0.0
 11
12.84694670652055
 21
10.32013974263426
 31
0.0
  0
LINE
  5
26E
330
170
100
AcDbEntity
  8
Dimension (ANSI)
440
 16777216
100
AcDbLine
 10
12.92094670652055
 20
9.852909543467978
 30
0.0
 11
12.92094670652055
 21
10.32013974263426
 31
0.0
  0
LINE
  5
26F
330
170
100
AcDbEntity
  8
Dimension (ANSI)
440
 16777216
100
AcDbLine
 10
13.0367410531336
 20
10.17308091910485
 30
0.0
 11
13.15253539974664
 21
10.17308091910485
 31
0.0
  0
LINE
  5
270
330
170
100
AcDbEntity
  8
Dimension (ANSI)
440
 16777216
100
AcDbLine
 10
12.73115235990751
 20
10.17308091910485
 30
0.0
 11
12.5810279653381
 21
10.17308091910485
 31
0.0
  0
SOLID
  5
271
330
170
100
AcDbEntity
  8
Dimension (ANSI)
440
 16777216
100
AcDbTrace
 10
13.0367410531336
 20
10.19237997687369
 30
0.0
 11
13.0367410531336
 21
10.15378186133601
 31
0.0
 12
12.92094670652055
 22
10.17308091910485
 32
0.0
 13
12.92094670652055
 23
10.17308091910485
 33
0.0
  0
SOLID
  5
272
330
170
100
AcDbEntity
  8
Dimension (ANSI)
440
 16777216
100
AcDbTrace
 10
12.73115235990751
 20
10.19237997687369
 30
0.0
 11
12.73115235990751
 21
10.15378186133601
 31
0.0
 12
12.84694670652055
 22
10.17308091910485
 32
0.0
 13
12.84694670652055
 23
10.17308091910485
 33
0.0
  0
MTEXT
  5
273
330
170
100
AcDbEntity
  8
Dimension (ANSI)
440
 16777216
100
AcDbMText
 10
12.00657400063391
 20
10.17308091910485
 30
0.0
 40
0.1411764761980842
 41
0.0
 71
     5
 72
     1
  1
\A1;{14 GA. C.R.S\P}(0.074)
  7
Note Text (ANSI)
 73
     1
 44
1.0
  0
POINT
  5
274
330
170
100
AcDbEntity
  8
Defpoints
 62
     0
440
 16777216
100
AcDbPoint
 10
12.84694670652055
 20
9.779380131703272
 30
0.0
  0
POINT
  5
275
330
170
100
AcDbEntity
  8
Defpoints
 62
     0
440
 16777216
100
AcDbPoint
 10
12.92094670652055
 20
9.779380131703272
 30
0.0
  0
POINT
  5
276
330
170
100
AcDbEntity
  8
Defpoints
 62
     0
440
 16777216
100
AcDbPoint
 10
12.92094670652055
 20
10.17308091910485
 30
0.0
  0
ENDBLK
  5
172
330
170
100
AcDbEntity
  8
0
100
AcDbBlockEnd
  0
BLOCK
  5
279
330
278
100
AcDbEntity
  8
0
100
AcDbBlockBegin
  2
*D5
 70
     1
 10
0.0
 20
0.0
 30
0.0
  3
*D5
  1

  0
LINE
  5
357
330
278
100
AcDbEntity
  8
Dimension (ANSI)
440
 16777216
100
AcDbLine
 10
4.950149889630382
 20
3.529380131703272
 30
0.0
 11
3.962094743723856
 21
3.529380131703272
 31
0.0
  0
LINE
  5
358
330
278
100
AcDbEntity
  8
Dimension (ANSI)
440
 16777216
100
AcDbLine
 10
4.95014988963038
 20
9.779380131703272
 30
0.0
 11
3.962094743723858
 21
9.779380131703273
 31
0.0
  0
LINE
  5
359
330
278
100
AcDbEntity
  8
Dimension (ANSI)
440
 16777216
100
AcDbLine
 10
4.109153567253268
 20
3.645174478316314
 30
0.0
 11
4.109153567253269
 21
6.543798501006094
 31
0.0
  0
LINE
  5
35A
330
278
100
AcDbEntity
  8
Dimension (ANSI)
440
 16777216
100
AcDbLine
 10
4.109153567253269
 20
9.663585785090228
 30
0.0
 11
4.109153567253269
 21
6.764961762400448
 31
0.0
  0
SOLID
  5
35B
330
278
100
AcDbEntity
  8
Dimension (ANSI)
440
 16777216
100
AcDbTrace
 10
4.089854509484427
 20
3.645174478316314
 30
0.0
 11
4.128452625022108
 21
3.645174478316314
 31
0.0
 12
4.109153567253268
 22
3.529380131703272
 32
0.0
 13
4.109153567253268
 23
3.529380131703272
 33
0.0
  0
SOLID
  5
35C
330
278
100
AcDbEntity
  8
Dimension (ANSI)
440
 16777216
100
AcDbTrace
 10
4.089854509484428
 20
9.663585785090228
 30
0.0
 11
4.128452625022109
 21
9.663585785090228
 31
0.0
 12
4.109153567253269
 22
9.779380131703272
 32
0.0
 13
4.109153567253269
 23
9.779380131703272
 33
0.0
  0
MTEXT
  5
35D
330
278
100
AcDbEntity
  8
Dimension (ANSI)
440
 16777216
100
AcDbMText
 10
3.929862288028482
 20
6.727907570645006
 30
0.0
 40
0.1411764761980842
 41
0.0
 71
     1
 72
     1
  1
\A1;6.25
  7
Note Text (ANSI)
 73
     1
 44
1.0
  0
POINT
  5
35E
330
278
100
AcDbEntity
  8
Defpoints
 62
     0
440
 16777216
100
AcDbPoint
 10
5.023679301395088
 20
3.529380131703272
 30
0.0
  0
POINT
  5
35F
330
278
100
AcDbEntity
  8
Defpoints
 62
     0
440
 16777216
100
AcDbPoint
 10
5.023679301395086
 20
9.779380131703272
 30
0.0
  0
POINT
  5
360
330
278
100
AcDbEntity
  8
Defpoints
 62
     0
440
 16777216
100
AcDbPoint
 10
4.109153567253269
 20
9.779380131703272
 30
0.0
  0
ENDBLK
  5
27A
330
278
100
AcDbEntity
  8
0
100
AcDbBlockEnd
  0
BLOCK
  5
363
330
362
100
AcDbEntity
  8
0
100
AcDbBlockBegin
  2
*D6
 70
     1
 10
0.0
 20
0.0
 30
0.0
  3
*D6
  1

  0
LINE
  5
441
330
362
100
AcDbEntity
  8
Dimension (ANSI)
440
 16777216
100
AcDbLine
 10
5.023679301395086
 20
9.852909543467978
 30
0.0
 11
5.023679301395086
 21
10.66752279034153
 31
0.0
  0
LINE
  5
442
330
362
100
AcDbEntity
  8
Dimension (ANSI)
440
 16777216
100
AcDbLine
 10
9.273679301395086
 20
9.852909543467978
 30
0.0
 11
9.273679301395086
 21
10.66752279034153
 31
0.0
  0
LINE
  5
443
330
362
100
AcDbEntity
  8
Dimension (ANSI)
440
 16777216
100
AcDbLine
 10
5.139473648008128
 20
10.52046396681212
 30
0.0
 11
6.930200539149624
 21
10.52046396681212
 31
0.0
  0
LINE
  5
444
330
362
100
AcDbEntity
  8
Dimension (ANSI)
440
 16777216
100
AcDbLine
 10
9.157884954782042
 20
10.52046396681212
 30
0.0
 11
7.367158063640547
 21
10.52046396681212
 31
0.0
  0
SOLID
  5
445
330
362
100
AcDbEntity
  8
Dimension (ANSI)
440
 16777216
100
AcDbTrace
 10
5.139473648008128
 20
10.53976302458096
 30
0.0
 11
5.139473648008128
 21
10.50116490904328
 31
0.0
 12
5.023679301395086
 22
10.52046396681212
 32
0.0
 13
5.023679301395086
 23
10.52046396681212
 33
0.0
  0
SOLID
  5
446
330
362
100
AcDbEntity
  8
Dimension (ANSI)
440
 16777216
100
AcDbTrace
 10
9.157884954782042
 20
10.53976302458096
 30
0.0
 11
9.157884954782042
 21
10.50116490904328
 31
0.0
 12
9.273679301395086
 22
10.52046396681212
 32
0.0
 13
9.273679301395086
 23
10.52046396681212
 33
0.0
  0
MTEXT
  5
447
330
362
100
AcDbEntity
  8
Dimension (ANSI)
440
 16777216
100
AcDbMText
 10
6.967254730905067
 20
10.59399140575385
 30
0.0
 40
0.1411764761980842
 41
0.0
 71
     1
 72
     1
  1
\A1;4.25
  7
Note Text (ANSI)
 73
     1
 44
1.0
  0
POINT
  5
448
330
362
100
AcDbEntity
  8
Defpoints
 62
     0
440
 16777216
100
AcDbPoint
 10
5.023679301395086
 20
9.779380131703272
 30
0.0
  0
POINT
  5
449
330
362
100
AcDbEntity
  8
Defpoints
 62
     0
440
 16777216
100
AcDbPoint
 10
9.273679301395086
 20
9.779380131703272
 30
0.0
  0
POINT
  5
44A
330
362
100
AcDbEntity
  8
Defpoints
 62
     0
440
 16777216
100
AcDbPoint
 10
9.273679301395086
 20
10.52046396681212
 30
0.0
  0
ENDBLK
  5
364
330
362
100
AcDbEntity
  8
0
100
AcDbBlockEnd
  0
BLOCK
  5
453
330
452
100
AcDbEntity
  8
0
100
AcDbBlockBegin
  2
*D7
 70
     1
 10
0.0
 20
0.0
 30
0.0
  3
*D7
  1

  0
LINE
  5
504
330
452
100
AcDbEntity
  8
Dimension (ANSI)
440
 16777216
100
AcDbLine
 10
6.866781604951324
 20
3.175690217384746
 30
0.0
 11
6.721592902893068
 21
3.175690217384746
 31
0.0
  0
LINE
  5
505
330
452
100
AcDbEntity
  8
Dimension (ANSI)
440
 16777216
100
AcDbLine
 10
6.721592902893068
 20
3.175690217384746
 30
0.0
 11
6.457076474701649
 21
3.633846110448723
 31
0.0
  0
MTEXT
  5
506
102
{ACAD_XDICTIONARY
360
84A
102
}
330
452
100
AcDbEntity
  8
Dimension (ANSI)
440
 16777216
100
AcDbMText
 10
7.552972625481219
 20
3.175690217384746
 30
0.0
 40
0.1411764761980842
 41
0.0
 71
     5
 72
     1
  1
\A1;\U+22050.250{\PGROUND HOLE}
  7
Note Text (ANSI)
 73
     1
 44
1.0
  0
SOLID
  5
507
330
452
100
AcDbEntity
  8
Dimension (ANSI)
440
 16777216
100
AcDbTrace
 10
6.473789948998566
 20
3.643495639333147
 30
0.0
 11
6.440363000404731
 21
3.624196581564299
 31
0.0
 12
6.399179301395108
 22
3.734126956230227
 32
0.0
 13
6.399179301395108
 23
3.734126956230227
 33
0.0
  0
LINE
  5
508
330
452
100
AcDbEntity
  8
Dimension (ANSI)
440
 16777216
100
AcDbLine
 10
6.23079694845391
 20
3.84238013170327
 30
0.0
 11
6.442561654336262
 21
3.84238013170327
 31
0.0
  0
LINE
  5
509
330
452
100
AcDbEntity
  8
Dimension (ANSI)
440
 16777216
100
AcDbLine
 10
6.336679301395087
 20
3.736497778762094
 30
0.0
 11
6.336679301395086
 21
3.948262484644447
 31
0.0
  0
POINT
  5
50A
330
452
100
AcDbEntity
  8
Defpoints
 62
     0
440
 16777216
100
AcDbPoint
 10
6.399179301395108
 20
3.734126956230227
 30
0.0
  0
POINT
  5
50B
330
452
100
AcDbEntity
  8
Defpoints
 62
     0
440
 16777216
100
AcDbPoint
 10
6.274179301395065
 20
3.950633307176313
 30
0.0
  0
ENDBLK
  5
454
330
452
100
AcDbEntity
  8
0
100
AcDbBlockEnd
  0
BLOCK
  5
50E
330
50D
100
AcDbEntity
  8
0
100
AcDbBlockBegin
  2
*D8
 70
     1
 10
0.0
 20
0.0
 30
0.0
  3
*D8
  1

  0
LINE
  5
5EC
330
50D
100
AcDbEntity
  8
Dimension (ANSI)
440
 16777216
100
AcDbLine
 10
6.336679301395087
 20
3.496791896409153
 30
0.0
 11
6.336679301395087
 21
2.978362100993923
 31
0.0
  0
LINE
  5
5ED
330
50D
100
AcDbEntity
  8
Dimension (ANSI)
440
 16777216
100
AcDbLine
 10
5.336679301395087
 20
3.570321308173859
 30
0.0
 11
5.336679301395087
 21
2.978362100993923
 31
0.0
  0
LINE
  5
5EE
330
50D
100
AcDbEntity
  8
Dimension (ANSI)
440
 16777216
100
AcDbLine
 10
6.220884954782045
 20
3.125420924523335
 30
0.0
 11
6.100478651408633
 21
3.125420924523335
 31
0.0
  0
LINE
  5
5EF
330
50D
100
AcDbEntity
  8
Dimension (ANSI)
440
 16777216
100
AcDbLine
 10
5.45247364800813
 20
3.125420924523335
 30
0.0
 11
5.572879951381541
 21
3.125420924523335
 31
0.0
  0
SOLID
  5
5F0
330
50D
100
AcDbEntity
  8
Dimension (ANSI)
440
 16777216
100
AcDbTrace
 10
6.220884954782045
 20
3.144719982292175
 30
0.0
 11
6.220884954782045
 21
3.106121866754494
 31
0.0
 12
6.336679301395087
 22
3.125420924523335
 32
0.0
 13
6.336679301395087
 23
3.125420924523335
 33
0.0
  0
SOLID
  5
5F1
330
50D
100
AcDbEntity
  8
Dimension (ANSI)
440
 16777216
100
AcDbTrace
 10
5.45247364800813
 20
3.144719982292175
 30
0.0
 11
5.45247364800813
 21
3.106121866754494
 31
0.0
 12
5.336679301395087
 22
3.125420924523335
 32
0.0
 13
5.336679301395087
 23
3.125420924523335
 33
0.0
  0
MTEXT
  5
5F2
330
50D
100
AcDbEntity
  8
Dimension (ANSI)
440
 16777216
100
AcDbMText
 10
5.609934143136984
 20
3.198900956992509
 30
0.0
 40
0.1411764761980842
 41
0.0
 71
     1
 72
     1
  1
\A1;1.000
  7
Note Text (ANSI)
 73
     1
 44
1.0
  0
POINT
  5
5F3
330
50D
100
AcDbEntity
  8
Defpoints
 62
     0
440
 16777216
100
AcDbPoint
 10
6.336679301395087
 20
3.57032130817386
 30
0.0
  0
POINT
  5
5F4
330
50D
100
AcDbEntity
  8
Defpoints
 62
     0
440
 16777216
100
AcDbPoint
 10
5.336679301395087
 20
3.643850719938565
 30
0.0
  0
POINT
  5
5F5
330
50D
100
AcDbEntity
  8
Defpoints
 62
     0
440
 16777216
100
AcDbPoint
 10
5.336679301395087
 20
3.125420924523335
 30
0.0
  0
ENDBLK
  5
50F
330
50D
100
AcDbEntity
  8
0
100
AcDbBlockEnd
  0
BLOCK
  5
5F8
330
5F7
100
AcDbEntity
  8
0
100
AcDbBlockBegin
  2
*D9
 70
     1
 10
0.0
 20
0.0
 30
0.0
  3
*D9
  1

  0
LINE
  5
6EA
330
5F7
100
AcDbEntity
  8
Dimension (ANSI)
440
 16777216
100
AcDbLine
 10
8.960679301395087
 20
3.570321308173859
 30
0.0
 11
8.960679301395087
 21
2.800999737814148
 31
0.0
  0
LINE
  5
6EB
330
5F7
100
AcDbEntity
  8
Dimension (ANSI)
440
 16777216
100
AcDbLine
 10
9.273679301395088
 20
3.455850719938566
 30
0.0
 11
9.273679301395088
 21
2.800999737814148
 31
0.0
  0
LINE
  5
6EC
330
5F7
100
AcDbEntity
  8
Dimension (ANSI)
440
 16777216
100
AcDbLine
 10
8.844884954782044
 20
2.94805856134356
 30
0.0
 11
8.729090608169002
 21
2.94805856134356
 31
0.0
  0
LINE
  5
6ED
330
5F7
100
AcDbEntity
  8
Dimension (ANSI)
440
 16777216
100
AcDbLine
 10
9.389473648008131
 20
2.94805856134356
 30
0.0
 11
9.568018053698223
 21
2.94805856134356
 31
0.0
  0
SOLID
  5
6EE
330
5F7
100
AcDbEntity
  8
Dimension (ANSI)
440
 16777216
100
AcDbTrace
 10
8.844884954782044
 20
2.9673576191124
 30
0.0
 11
8.844884954782044
 21
2.928759503574719
 31
0.0
 12
8.960679301395087
 22
2.94805856134356
 32
0.0
 13
8.960679301395087
 23
2.94805856134356
 33
0.0
  0
SOLID
  5
6EF
330
5F7
100
AcDbEntity
  8
Dimension (ANSI)
440
 16777216
100
AcDbTrace
 10
9.389473648008131
 20
2.9673576191124
 30
0.0
 11
9.389473648008131
 21
2.928759503574719
 31
0.0
 12
9.273679301395088
 22
2.94805856134356
 32
0.0
 13
9.273679301395088
 23
2.94805856134356
 33
0.0
  0
MTEXT
  5
6F0
330
5F7
100
AcDbEntity
  8
Dimension (ANSI)
440
 16777216
100
AcDbMText
 10
9.837032115693451
 20
2.94805856134356
 30
0.0
 40
0.1411764761980842
 41
0.0
 71
     5
 72
     1
  1
\A1;0.313{\PTYP.}
  7
Note Text (ANSI)
 73
     1
 44
1.0
  0
POINT
  5
6F1
330
5F7
100
AcDbEntity
  8
Defpoints
 62
     0
440
 16777216
100
AcDbPoint
 10
8.960679301395087
 20
3.643850719938565
 30
0.0
  0
POINT
  5
6F2
330
5F7
100
AcDbEntity
  8
Defpoints
 62
     0
440
 16777216
100
AcDbPoint
 10
9.273679301395088
 20
3.529380131703272
 30
0.0
  0
POINT
  5
6F3
330
5F7
100
AcDbEntity
  8
Defpoints
 62
     0
440
 16777216
100
AcDbPoint
 10
9.273679301395088
 20
2.94805856134356
 30
0.0
  0
ENDBLK
  5
5F9
330
5F7
100
AcDbEntity
  8
0
100
AcDbBlockEnd
  0
BLOCK
  5
6F6
330
6F5
100
AcDbEntity
  8
0
100
AcDbBlockBegin
  2
*D10
 70
     1
 10
0.0
 20
0.0
 30
0.0
  3
*D10
  1

  0
LINE
  5
7F9
330
6F5
100
AcDbEntity
  8
Dimension (ANSI)
440
 16777216
100
AcDbLine
 10
9.337267536689205
 20
3.842380131703271
 30
0.0
 11
9.566861642830598
 21
3.842380131703271
 31
0.0
  0
LINE
  5
7FA
330
6F5
100
AcDbEntity
  8
Dimension (ANSI)
440
 16777216
100
AcDbLine
 10
9.347208713159794
 20
3.529380131703272
 30
0.0
 11
9.566861642830598
 21
3.529380131703272
 31
0.0
  0
LINE
  5
7FB
330
6F5
100
AcDbEntity
  8
Dimension (ANSI)
440
 16777216
100
AcDbLine
 10
9.419802819301187
 20
3.413585785090229
 30
0.0
 11
9.419802819301187
 21
3.297791438477187
 31
0.0
  0
LINE
  5
7FC
330
6F5
100
AcDbEntity
  8
Dimension (ANSI)
440
 16777216
100
AcDbLine
 10
9.419802819301187
 20
3.958174478316314
 30
0.0
 11
9.419802819301189
 21
4.338504759139435
 31
0.0
  0
LINE
  5
7FD
330
6F5
100
AcDbEntity
  8
Dimension (ANSI)
440
 16777216
100
AcDbLine
 10
9.419802819301189
 20
4.338504759139435
 30
0.0
 11
9.535597165914232
 21
4.338504759139435
 31
0.0
  0
SOLID
  5
7FE
330
6F5
100
AcDbEntity
  8
Dimension (ANSI)
440
 16777216
100
AcDbTrace
 10
9.400503761532347
 20
3.413585785090229
 30
0.0
 11
9.439101877070028
 21
3.413585785090229
 31
0.0
 12
9.419802819301187
 22
3.529380131703272
 32
0.0
 13
9.419802819301187
 23
3.529380131703272
 33
0.0
  0
SOLID
  5
7FF
330
6F5
100
AcDbEntity
  8
Dimension (ANSI)
440
 16777216
100
AcDbTrace
 10
9.400503761532347
 20
3.958174478316314
 30
0.0
 11
9.439101877070028
 21
3.958174478316314
 31
0.0
 12
9.419802819301187
 22
3.842380131703271
 32
0.0
 13
9.419802819301187
 23
3.842380131703271
 33
0.0
  0
MTEXT
  5
800
330
6F5
100
AcDbEntity
  8
Dimension (ANSI)
440
 16777216
100
AcDbMText
 10
9.804611227909459
 20
4.338504759139436
 30
0.0
 40
0.1411764761980842
 41
0.0
 71
     5
 72
     1
  1
\A1;0.313{\PTYP.}
  7
Note Text (ANSI)
 73
     1
 44
1.0
  0
POINT
  5
801
330
6F5
100
AcDbEntity
  8
Defpoints
 62
     0
440
 16777216
100
AcDbPoint
 10
9.263738124924499
 20
3.842380131703271
 30
0.0
  0
POINT
  5
802
330
6F5
100
AcDbEntity
  8
Defpoints
 62
     0
440
 16777216
100
AcDbPoint
 10
9.273679301395088
 20
3.529380131703272
 30
0.0
  0
POINT
  5
803
330
6F5
100
AcDbEntity
  8
Defpoints
 62
     0
440
 16777216
100
AcDbPoint
 10
9.419802819301187
 20
3.529380131703272
 30
0.0
  0
ENDBLK
  5
6F7
330
6F5
100
AcDbEntity
  8
0
100
AcDbBlockEnd
  0
ENDSEC
  0
SECTION
  2
ENTITIES
  0
CIRCLE
  5
11B
330
6C
100
AcDbEntity
  8
Visible (ANSI)
100
AcDbCircle
 10
6.336679301395087
 20
3.842380131703271
 30
0.0
 40
0.125
  0
LINE
  5
11C
330
6C
100
AcDbEntity
  8
Visible (ANSI)
100
AcDbLine
 10
8.991679301395087
 20
3.717380131703271
 30
0.0
 11
8.929679301395086
 21
3.717380131703271
 31
0.0
  0
ARC
  5
11D
330
6C
100
AcDbEntity
  8
Visible (ANSI)
100
AcDbCircle
 10
8.991679301395087
 20
3.842380131703271
 30
0.0
 40
0.125
100
AcDbArc
 50
270.0
 51
90.0
  0
LINE
  5
11E
330
6C
100
AcDbEntity
  8
Visible (ANSI)
100
AcDbLine
 10
8.929679301395086
 20
3.967380131703271
 30
0.0
 11
8.991679301395087
 21
3.967380131703271
 31
0.0
  0
ARC
  5
11F
330
6C
100
AcDbEntity
  8
Visible (ANSI)
100
AcDbCircle
 10
8.929679301395086
 20
3.842380131703271
 30
0.0
 40
0.125
100
AcDbArc
 50
90.0
 51
270.0
  0
LINE
  5
120
330
6C
100
AcDbEntity
  8
Visible (ANSI)
100
AcDbLine
 10
5.367679301395088
 20
3.717380131703271
 30
0.0
 11
5.305679301395088
 21
3.717380131703271
 31
0.0
  0
ARC
  5
121
330
6C
100
AcDbEntity
  8
Visible (ANSI)
100
AcDbCircle
 10
5.367679301395088
 20
3.842380131703271
 30
0.0
 40
0.125
100
AcDbArc
 50
270.0
 51
90.0
  0
LINE
  5
122
330
6C
100
AcDbEntity
  8
Visible (ANSI)
100
AcDbLine
 10
5.305679301395088
 20
3.967380131703271
 30
0.0
 11
5.367679301395088
 21
3.967380131703271
 31
0.0
  0
ARC
  5
123
330
6C
100
AcDbEntity
  8
Visible (ANSI)
100
AcDbCircle
 10
5.305679301395088
 20
3.842380131703271
 30
0.0
 40
0.125
100
AcDbArc
 50
90.0
 51
270.0
  0
LINE
  5
124
330
6C
100
AcDbEntity
  8
Visible (ANSI)
100
AcDbLine
 10
8.991679301395086
 20
9.341380131703269
 30
0.0
 11
8.929679301395086
 21
9.341380131703269
 31
0.0
  0
ARC
  5
125
330
6C
100
AcDbEntity
  8
Visible (ANSI)
100
AcDbCircle
 10
8.991679301395086
 20
9.466380131703271
 30
0.0
 40
0.1250000000000003
100
AcDbArc
 50
270.0
 51
90.0
  0
LINE
  5
126
330
6C
100
AcDbEntity
  8
Visible (ANSI)
100
AcDbLine
 10
8.929679301395086
 20
9.591380131703271
 30
0.0
 11
8.991679301395086
 21
9.591380131703271
 31
0.0
  0
ARC
  5
127
330
6C
100
AcDbEntity
  8
Visible (ANSI)
100
AcDbCircle
 10
8.929679301395086
 20
9.466380131703271
 30
0.0
 40
0.1250000000000003
100
AcDbArc
 50
90.0
 51
270.0
  0
LINE
  5
128
330
6C
100
AcDbEntity
  8
Visible (ANSI)
100
AcDbLine
 10
5.367679301395086
 20
9.341380131703269
 30
0.0
 11
5.305679301395085
 21
9.341380131703269
 31
0.0
  0
ARC
  5
129
330
6C
100
AcDbEntity
  8
Visible (ANSI)
100
AcDbCircle
 10
5.367679301395085
 20
9.466380131703271
 30
0.0
 40
0.1250000000000003
100
AcDbArc
 50
269.9999999999996
 51
89.99999999999969
  0
LINE
  5
12A
330
6C
100
AcDbEntity
  8
Visible (ANSI)
100
AcDbLine
 10
5.305679301395085
 20
9.591380131703271
 30
0.0
 11
5.367679301395086
 21
9.591380131703271
 31
0.0
  0
ARC
  5
12B
330
6C
100
AcDbEntity
  8
Visible (ANSI)
100
AcDbCircle
 10
5.305679301395086
 20
9.466380131703271
 30
0.0
 40
0.1250000000000003
100
AcDbArc
 50
89.99999999999962
 51
269.9999999999996
  0
LINE
  5
12C
330
6C
100
AcDbEntity
  8
Visible (ANSI)
100
AcDbLine
 10
5.023679301395088
 20
3.529380131703272
 30
0.0
 11
5.023679301395086
 21
9.779380131703272
 31
0.0
  0
LINE
  5
12D
330
6C
100
AcDbEntity
  8
Visible (ANSI)
100
AcDbLine
 10
5.023679301395086
 20
9.779380131703272
 30
0.0
 11
9.273679301395088
 21
9.779380131703272
 31
0.0
  0
LINE
  5
12E
330
6C
100
AcDbEntity
  8
Visible (ANSI)
100
AcDbLine
 10
9.273679301395088
 20
9.779380131703272
 30
0.0
 11
9.273679301395088
 21
3.529380131703272
 31
0.0
  0
LINE
  5
12F
330
6C
100
AcDbEntity
  8
Visible (ANSI)
100
AcDbLine
 10
9.273679301395088
 20
3.529380131703272
 30
0.0
 11
5.023679301395088
 21
3.529380131703272
 31
0.0
  0
MTEXT
  5
131
330
6C
100
AcDbEntity
  8
Symbol (ANSI)
100
AcDbMText
 10
6.7093948129662
 20
2.358513777197137
 30
0.0
 40
0.1411764723330308
 41
0.0
 71
     7
 72
     1
  1
FRONT VIEW
  7
Text Style166
 73
     1
 44
1.0
  0
LINE
  5
133
330
6C
100
AcDbEntity
  8
Symbol (ANSI)
370
    30
100
AcDbLine
 10
6.695277129591628
 20
2.329723615579619
 30
0.0
 11
7.830294781692424
 21
2.329723615579619
 31
0.0
  0
LINE
  5
134
330
6C
100
AcDbEntity
  8
Hidden (ANSI)
 48
0.1197054162621498
100
AcDbLine
 10
12.84694670652047
 20
3.717380131703271
 30
0.0
 11
12.92094670652047
 21
3.717380131703271
 31
0.0
  0
LINE
  5
135
330
6C
100
AcDbEntity
  8
Hidden (ANSI)
 48
0.1197054162621498
100
AcDbLine
 10
12.84694670652047
 20
3.967380131703271
 30
0.0
 11
12.92094670652047
 21
3.967380131703271
 31
0.0
  0
LINE
  5
136
330
6C
100
AcDbEntity
  8
Hidden (ANSI)
 48
0.1197054162621498
100
AcDbLine
 10
12.84694670652047
 20
9.341380131703269
 30
0.0
 11
12.92094670652047
 21
9.341380131703269
 31
0.0
  0
LINE
  5
137
330
6C
100
AcDbEntity
  8
Hidden (ANSI)
 48
0.1197054162621498
100
AcDbLine
 10
12.84694670652047
 20
9.591380131703271
 30
0.0
 11
12.92094670652047
 21
9.591380131703271
 31
0.0
  0
LINE
  5
138
330
6C
100
AcDbEntity
  8
Visible (ANSI)
100
AcDbLine
 10
12.92094670652055
 20
9.779380131703272
 30
0.0
 11
12.84694670652055
 21
9.779380131703272
 31
0.0
  0
LINE
  5
139
330
6C
100
AcDbEntity
  8
Visible (ANSI)
100
AcDbLine
 10
12.84694670652055
 20
9.779380131703272
 30
0.0
 11
12.84694670652055
 21
3.529380131703272
 31
0.0
  0
LINE
  5
13A
330
6C
100
AcDbEntity
  8
Visible (ANSI)
100
AcDbLine
 10
12.92094670652055
 20
3.529380131703272
 30
0.0
 11
12.84694670652055
 21
3.529380131703272
 31
0.0
  0
LINE
  5
13B
330
6C
100
AcDbEntity
  8
Visible (ANSI)
100
AcDbLine
 10
12.92094670652055
 20
3.529380131703272
 30
0.0
 11
12.92094670652055
 21
9.779380131703272
 31
0.0
  0
MTEXT
  5
13C
330
6C
100
AcDbEntity
  8
Symbol (ANSI)
100
AcDbMText
 10
12.38839308167148
 20
2.605398949484689
 30
0.0
 40
0.1411764723330308
 41
0.0
 71
     7
 72
     1
  1
SIDE VIEW
  7
Text Style166
 73
     1
 44
1.0
  0
LINE
  5
13D
330
6C
100
AcDbEntity
  8
Symbol (ANSI)
370
    30
100
AcDbLine
 10
12.3811648277837
 20
2.576151165761504
 30
0.0
 11
13.33519285179016
 21
2.576151165761504
 31
0.0
  0
ELLIPSE
  5
13E
330
6C
100
AcDbEntity
  8
Visible (ANSI)
100
AcDbEllipse
 10
16.83933201870109
 20
6.598327617520509
 30
0.0
 11
0.0550403174541681
 21
-0.095579055457185
 31
0.0
210
0.0
220
0.0
230
0.9999999999999998
 40
0.5780931159158092
 41
3.572615253427352
 42
5.852162707341216
  0
ELLIPSE
  5
13F
330
6C
100
AcDbEntity
  8
Visible (ANSI)
100
AcDbEllipse
 10
16.79316210534127
 20
6.57174013267877
 30
0.0
 11
-0.0550403174541624
 21
0.0955790554571883
 31
0.0
210
0.0
220
0.0
230
1.0
 40
0.578093115915809
 41
0.0
 42
6.283185307179586
  0
LINE
  5
140
330
6C
100
AcDbEntity
  8
Visible (ANSI)
100
AcDbLine
 10
18.45715073953961
 20
5.576517138283427
 30
0.0
 11
18.49583363992217
 21
5.554241137470085
 31
0.0
  0
LINE
  5
141
330
6C
100
AcDbEntity
  8
Visible Narrow (ANSI)
100
AcDbLine
 10
18.41098082617978
 20
5.549929653441688
 30
0.0
 11
18.45715073953961
 21
5.576517138283427
 31
0.0
  0
LINE
  5
142
330
6C
100
AcDbEntity
  8
Visible (ANSI)
100
AcDbLine
 10
18.44966372656235
 20
5.527653652628346
 30
0.0
 11
18.41098082617978
 21
5.549929653441688
 31
0.0
  0
LINE
  5
143
330
6C
100
AcDbEntity
  8
Visible Narrow (ANSI)
100
AcDbLine
 10
18.44966372656235
 20
5.527653652628346
 30
0.0
 11
18.49583363992217
 21
5.554241137470085
 31
0.0
  0
ELLIPSE
  5
144
330
6C
100
AcDbEntity
  8
Visible (ANSI)
100
AcDbEllipse
 10
18.49583363992217
 20
5.644411776239489
 30
0.0
 11
0.0550403174541657
 21
-0.095579055457194
 31
0.0
210
0.0
220
0.0
230
1.0
 40
0.578093115915809
 41
5.49972085220502
 42
5.852162707341546
  0
ELLIPSE
  5
145
330
6C
100
AcDbEntity
  8
Visible (ANSI)
100
AcDbEllipse
 10
18.44966372656235
 20
5.617824291397743
 30
0.0
 11
0.0550403174541567
 21
-0.0955790554571916
 31
0.0
210
0.0
220
0.0
230
1.0
 40
0.5780931159158092
 41
5.499720852205276
 42
8.64131350579507
  0
LINE
  5
146
330
6C
100
AcDbEntity
  8
Visible (ANSI)
100
AcDbLine
 10
18.41098082617978
 20
5.730270930980483
 30
0.0
 11
18.44966372656235
 21
5.70799493016714
 31
0.0
  0
ELLIPSE
  5
147
330
6C
100
AcDbEntity
  8
Visible (ANSI)
100
AcDbEllipse
 10
18.45715073953961
 20
5.666687777052825
 30
0.0
 11
0.0550403174541681
 21
-0.0955790554571851
 31
0.0
210
0.0
220
0.0
230
0.9999999999999998
 40
0.578093115915809
 41
3.572615253427354
 42
5.499720852204679
  0
ELLIPSE
  5
148
330
6C
100
AcDbEntity
  8
Visible (ANSI)
100
AcDbEllipse
 10
18.41098082617978
 20
5.640100292211085
 30
0.0
 11
-0.0550403174541567
 21
0.0955790554571916
 31
0.0
210
0.0
220
0.0
230
1.0
 40
0.5780931159158092
 41
5.499720852205276
 42
8.64131350579507
  0
LINE
  5
149
330
6C
100
AcDbEntity
  8
Visible (ANSI)
100
AcDbLine
 10
16.19607282040394
 20
6.878585314856851
 30
0.0
 11
16.2347557207865
 21
6.85630931404351
 31
0.0
  0
LINE
  5
14A
330
6C
100
AcDbEntity
  8
Visible Narrow (ANSI)
100
AcDbLine
 10
16.14990290704411
 20
6.851997830015114
 30
0.0
 11
16.19607282040394
 21
6.878585314856851
 31
0.0
  0
LINE
  5
14B
330
6C
100
AcDbEntity
  8
Visible (ANSI)
100
AcDbLine
 10
16.18858580742668
 20
6.829721829201771
 30
0.0
 11
16.14990290704411
 21
6.851997830015114
 31
0.0
  0
LINE
  5
14C
330
6C
100
AcDbEntity
  8
Visible Narrow (ANSI)
100
AcDbLine
 10
16.18858580742668
 20
6.829721829201771
 30
0.0
 11
16.2347557207865
 21
6.85630931404351
 31
0.0
  0
ELLIPSE
  5
14D
330
6C
100
AcDbEntity
  8
Visible (ANSI)
100
AcDbEllipse
 10
16.2347557207865
 20
6.946479952812907
 30
0.0
 11
0.0550403174541623
 21
-0.0955790554571883
 31
0.0
210
0.0
220
0.0
230
0.9999999999999998
 40
0.578093115915809
 41
5.49972085220502
 42
5.852162707341612
  0
ELLIPSE
  5
14E
330
6C
100
AcDbEntity
  8
Visible (ANSI)
100
AcDbEllipse
 10
16.18858580742668
 20
6.919892467971169
 30
0.0
 11
0.0550403174541566
 21
-0.0955790554571916
 31
0.0
210
0.0
220
0.0
230
1.0
 40
0.5780931159158092
 41
5.499720852205277
 42
8.641313505795071
  0
LINE
  5
14F
330
6C
100
AcDbEntity
  8
Visible (ANSI)
100
AcDbLine
 10
16.14990290704411
 20
7.032339107553908
 30
0.0
 11
16.18858580742668
 21
7.010063106740565
 31
0.0
  0
ELLIPSE
  5
150
330
6C
100
AcDbEntity
  8
Visible (ANSI)
100
AcDbEllipse
 10
16.19607282040394
 20
6.968755953626249
 30
0.0
 11
0.0550403174541681
 21
-0.0955790554571851
 31
0.0
210
0.0
220
0.0
230
1.0
 40
0.5780931159158092
 41
3.572615253427354
 42
5.499720852204679
  0
ELLIPSE
  5
151
330
6C
100
AcDbEntity
  8
Visible (ANSI)
100
AcDbEllipse
 10
16.14990290704411
 20
6.942168468784511
 30
0.0
 11
-0.0550403174541567
 21
0.0955790554571916
 31
0.0
210
0.0
220
0.0
230
1.0
 40
0.5780931159158092
 41
5.499720852205276
 42
8.64131350579507
  0
LINE
  5
152
330
6C
100
AcDbEntity
  8
Visible (ANSI)
100
AcDbLine
 10
18.45715073953962
 20
9.633474517796159
 30
0.0
 11
18.49583363992218
 21
9.611198516982815
 31
0.0
  0
LINE
  5
153
330
6C
100
AcDbEntity
  8
Visible Narrow (ANSI)
100
AcDbLine
 10
18.41098082617979
 20
9.60688703295442
 30
0.0
 11
18.45715073953962
 21
9.633474517796159
 31
0.0
  0
LINE
  5
154
330
6C
100
AcDbEntity
  8
Visible (ANSI)
100
AcDbLine
 10
18.44966372656236
 20
9.584611032141078
 30
0.0
 11
18.41098082617979
 21
9.60688703295442
 31
0.0
  0
LINE
  5
155
330
6C
100
AcDbEntity
  8
Visible Narrow (ANSI)
100
AcDbLine
 10
18.44966372656236
 20
9.584611032141078
 30
0.0
 11
18.49583363992218
 21
9.611198516982815
 31
0.0
  0
ELLIPSE
  5
156
330
6C
100
AcDbEntity
  8
Visible (ANSI)
100
AcDbEllipse
 10
18.49583363992218
 20
9.701369155752237
 30
0.0
 11
0.0550403174541758
 21
-0.0955790554572116
 31
0.0
210
0.0
220
0.0
230
0.9999999999999998
 40
0.578093115915809
 41
5.499720852205062
 42
5.852162707341565
  0
ELLIPSE
  5
157
330
6C
100
AcDbEntity
  8
Visible (ANSI)
100
AcDbEllipse
 10
18.44966372656236
 20
9.674781670910476
 30
0.0
 11
0.0550403174541568
 21
-0.0955790554571919
 31
0.0
210
0.0
220
0.0
230
1.0
 40
0.5780931159158092
 41
5.499720852205276
 42
8.64131350579507
  0
LINE
  5
158
330
6C
100
AcDbEntity
  8
Visible (ANSI)
100
AcDbLine
 10
18.41098082617979
 20
9.787228310493215
 30
0.0
 11
18.44966372656236
 21
9.764952309679872
 31
0.0
  0
ELLIPSE
  5
159
330
6C
100
AcDbEntity
  8
Visible (ANSI)
100
AcDbEllipse
 10
18.45715073953962
 20
9.723645156565556
 30
0.0
 11
0.0550403174541682
 21
-0.0955790554571853
 31
0.0
210
0.0
220
0.0
230
0.9999999999999998
 40
0.5780931159158092
 41
3.572615253427354
 42
5.49972085220468
  0
ELLIPSE
  5
15A
330
6C
100
AcDbEntity
  8
Visible (ANSI)
100
AcDbEllipse
 10
18.41098082617979
 20
9.697057671723817
 30
0.0
 11
-0.0550403174541568
 21
0.0955790554571919
 31
0.0
210
0.0
220
0.0
230
1.0
 40
0.5780931159158092
 41
5.499720852205276
 42
8.64131350579507
  0
LINE
  5
15B
330
6C
100
AcDbEntity
  8
Visible (ANSI)
100
AcDbLine
 10
16.19607282040394
 20
10.93554269436958
 30
0.0
 11
16.23475572078651
 21
10.91326669355624
 31
0.0
  0
LINE
  5
15C
330
6C
100
AcDbEntity
  8
Visible Narrow (ANSI)
100
AcDbLine
 10
16.14990290704412
 20
10.90895520952784
 30
0.0
 11
16.19607282040394
 21
10.93554269436958
 31
0.0
  0
LINE
  5
15D
330
6C
100
AcDbEntity
  8
Visible (ANSI)
100
AcDbLine
 10
16.18858580742668
 20
10.8866792087145
 30
0.0
 11
16.14990290704412
 21
10.90895520952784
 31
0.0
  0
LINE
  5
15E
330
6C
100
AcDbEntity
  8
Visible Narrow (ANSI)
100
AcDbLine
 10
16.18858580742668
 20
10.8866792087145
 30
0.0
 11
16.23475572078651
 21
10.91326669355624
 31
0.0
  0
ELLIPSE
  5
15F
330
6C
100
AcDbEntity
  8
Visible (ANSI)
100
AcDbEllipse
 10
16.23475572078651
 20
11.00343733232565
 30
0.0
 11
0.0550403174541711
 21
-0.0955790554572035
 31
0.0
210
0.0
220
0.0
230
1.0
 40
0.5780931159158089
 41
5.499720852205062
 42
5.852162707341603
  0
ELLIPSE
  5
160
330
6C
100
AcDbEntity
  8
Visible (ANSI)
100
AcDbEllipse
 10
16.18858580742668
 20
10.9768498474839
 30
0.0
 11
0.0550403174541568
 21
-0.0955790554571919
 31
0.0
210
0.0
220
0.0
230
1.0
 40
0.5780931159158092
 41
5.499720852205276
 42
8.64131350579507
  0
LINE
  5
161
330
6C
100
AcDbEntity
  8
Visible (ANSI)
100
AcDbLine
 10
16.14990290704412
 20
11.08929648706664
 30
0.0
 11
16.18858580742669
 21
11.06702048625329
 31
0.0
  0
ELLIPSE
  5
162
330
6C
100
AcDbEntity
  8
Visible (ANSI)
100
AcDbEllipse
 10
16.19607282040394
 20
11.02571333313898
 30
0.0
 11
0.0550403174541682
 21
-0.0955790554571854
 31
0.0
210
0.0
220
0.0
230
1.0
 40
0.578093115915809
 41
3.572615253427354
 42
5.499720852204679
  0
ELLIPSE
  5
163
330
6C
100
AcDbEntity
  8
Visible (ANSI)
100
AcDbEllipse
 10
16.14990290704412
 20
10.99912584829724
 30
0.0
 11
-0.0550403174541568
 21
0.0955790554571919
 31
0.0
210
0.0
220
0.0
230
1.0
 40
0.5780931159158092
 41
5.499720852205277
 42
8.641313505795071
  0
LINE
  5
164
330
6C
100
AcDbEntity
  8
Visible (ANSI)
100
AcDbLine
 10
15.97395810207826
 20
6.817701063973077
 30
0.0
 11
15.97395810207827
 21
11.32623300244295
 31
0.0
  0
LINE
  5
165
330
6C
100
AcDbEntity
  8
Visible (ANSI)
100
AcDbLine
 10
16.02012801543809
 20
11.35282048728469
 30
0.0
 11
15.97395810207827
 21
11.32623300244295
 31
0.0
  0
LINE
  5
166
330
6C
100
AcDbEntity
  8
Visible (ANSI)
100
AcDbLine
 10
15.97395810207827
 20
11.32623300244295
 30
0.0
 11
18.62560853152822
 21
9.799249075721908
 31
0.0
  0
LINE
  5
167
330
6C
100
AcDbEntity
  8
Visible (ANSI)
100
AcDbLine
 10
18.67177844488804
 20
9.825836560563647
 30
0.0
 11
18.62560853152822
 21
9.799249075721908
 31
0.0
  0
LINE
  5
168
330
6C
100
AcDbEntity
  8
Visible (ANSI)
100
AcDbLine
 10
18.67177844488804
 20
9.825836560563647
 30
0.0
 11
16.02012801543809
 21
11.35282048728469
 31
0.0
  0
LINE
  5
169
330
6C
100
AcDbEntity
  8
Visible (ANSI)
100
AcDbLine
 10
18.62560853152822
 20
9.799249075721908
 30
0.0
 11
18.6256085315282
 21
5.290717137252036
 31
0.0
  0
LINE
  5
16A
330
6C
100
AcDbEntity
  8
Visible (ANSI)
100
AcDbLine
 10
18.67177844488803
 20
5.317304622093774
 30
0.0
 11
18.6256085315282
 21
5.290717137252036
 31
0.0
  0
LINE
  5
16B
330
6C
100
AcDbEntity
  8
Visible (ANSI)
100
AcDbLine
 10
18.67177844488803
 20
5.317304622093774
 30
0.0
 11
18.67177844488804
 21
9.825836560563647
 31
0.0
  0
LINE
  5
16C
330
6C
100
AcDbEntity
  8
Visible (ANSI)
100
AcDbLine
 10
18.6256085315282
 20
5.290717137252036
 30
0.0
 11
15.97395810207826
 21
6.817701063973077
 31
0.0
  0
DIMENSION
  5
16D
330
6C
100
AcDbEntity
  8
Dimension (ANSI)
100
AcDbDimension
  2
*D4
 10
12.92094670652055
 20
10.17308091910485
 30
0.0
 11
12.00657400063391
 21
10.17308091910485
 31
0.0
 70
   160
  1
{14 GA. C.R.S\P}(<>)
 71
     5
 42
0.0739999999999999
  3
Default (ANSI)
100
AcDbAlignedDimension
 13
12.84694670652055
 23
9.779380131703272
 33
0.0
 14
12.92094670652055
 24
9.779380131703272
 34
0.0
 50
180.0
100
AcDbRotatedDimension
1001
ACAD
1000
DSTYLE
1002
{
1070
   289
1070
     1
1070
    73
1070
     0
1070
    74
1070
     0
1070
   271
1070
     3
1070
   147
1040
0.031496062992126
1070
    72
1070
     0
1070
    71
1070
     0
1070
   272
1070
     2
1070
    48
1040
0.0
1070
    47
1040
0.0
1002
}
  0
DIMENSION
  5
277
330
6C
100
AcDbEntity
  8
Dimension (ANSI)
100
AcDbDimension
  2
*D5
 10
4.109153567253269
 20
9.779380131703272
 30
0.0
 11
4.109153567253267
 21
6.654380131703272
 31
0.0
 70
   160
  1
<>
 42
6.25
  3
Default (ANSI)
100
AcDbAlignedDimension
 13
5.023679301395088
 23
3.529380131703272
 33
0.0
 14
5.023679301395086
 24
9.779380131703272
 34
0.0
 50
90.0
100
AcDbRotatedDimension
1001
ACAD
1000
DSTYLE
1002
{
1070
   289
1070
     1
1070
   271
1070
     2
1070
   272
1070
     2
1070
    48
1040
0.0
1070
    47
1040
0.0
1002
}
  0
DIMENSION
  5
361
330
6C
100
AcDbEntity
  8
Dimension (ANSI)
100
AcDbDimension
  2
*D6
 10
9.273679301395086
 20
10.52046396681212
 30
0.0
 11
7.148679301395086
 21
10.52046396681212
 31
0.0
 70
   160
  1
<>
 42
4.25
  3
Default (ANSI)
100
AcDbAlignedDimension
 13
5.023679301395086
 23
9.779380131703272
 33
0.0
 14
9.273679301395086
 24
9.779380131703272
 34
0.0
 50
180.0
100
AcDbRotatedDimension
1001
ACAD
1000
DSTYLE
1002
{
1070
   289
1070
     1
1070
    73
1070
     0
1070
    74
1070
     0
1070
   271
1070
     2
1070
   272
1070
     2
1070
    48
1040
0.0
1070
    47
1040
0.0
1002
}
  0
LINE
  5
44B
330
6C
100
AcDbEntity
  8
Centerline (ANSI)
  6
CHAIN
 48
0.8134612441062927
100
AcDbLine
 10
5.336679301395085
 20
9.664909543467977
 30
0.0
 11
5.336679301395087
 21
3.643850719938565
 31
0.0
  0
LINE
  5
44C
330
6C
100
AcDbEntity
  8
Centerline (ANSI)
  6
CHAIN
 48
0.8134612441062927
100
AcDbLine
 10
5.033620477865675
 20
3.842380131703271
 30
0.0
 11
9.263738124924499
 21
3.842380131703271
 31
0.0
  0
LINE
  5
44D
330
6C
100
AcDbEntity
  8
Centerline (ANSI)
  6
CHAIN
 48
0.8134612441062927
100
AcDbLine
 10
8.960679301395085
 20
9.664909543467977
 30
0.0
 11
8.960679301395087
 21
3.643850719938565
 31
0.0
  0
LINE
  5
44E
330
6C
100
AcDbEntity
  8
Centerline (ANSI)
  6
CHAIN
 48
0.8134612441062927
100
AcDbLine
 10
9.263738124924497
 20
9.466380131703271
 30
0.0
 11
5.033620477865674
 21
9.466380131703271
 31
0.0
  0
LINE
  5
44F
330
6C
100
AcDbEntity
  8
Center Mark (ANSI)
  6
CHAIN
 48
0.2568304538726807
100
AcDbLine
 10
6.608738124924498
 20
3.842380131703271
 30
0.0
 11
6.064620477865676
 21
3.842380131703271
 31
0.0
  0
LINE
  5
450
330
6C
100
AcDbEntity
  8
Center Mark (ANSI)
  6
CHAIN
 48
0.2568304538726807
100
AcDbLine
 10
6.336679301395087
 20
4.114438955232682
 30
0.0
 11
6.336679301395087
 21
3.570321308173859
 31
0.0
  0
DIMENSION
  5
451
330
6C
100
AcDbEntity
  8
Dimension (ANSI)
100
AcDbDimension
  2
*D7
 10
6.274179301395065
 20
3.950633307176313
 30
0.0
 11
7.552972625481219
 21
3.175690217384746
 31
0.0
 70
   163
  1
<>{\PGROUND HOLE}
 71
     5
 42
0.25
  3
Default (ANSI)
100
AcDbDiametricDimension
 15
6.399179301395108
 25
3.734126956230227
 35
0.0
 40
0.0
1001
ACAD
1000
DSTYLE
1002
{
1070
   144
1040
0.9999999999999946
1070
   271
1070
     3
1070
   272
1070
     2
1070
    48
1040
0.0
1070
    47
1040
0.0
1002
}
1001
ACAD_DSTYLE_DIMRADIAL_EXTENSION
1070
   387
1070
     1
1070
   388
1040
0.0
1070
   390
1040
0.0
  0
DIMENSION
  5
50C
330
6C
100
AcDbEntity
  8
Dimension (ANSI)
100
AcDbDimension
  2
*D8
 10
5.336679301395087
 20
3.125420924523335
 30
0.0
 11
5.836679301395087
 21
3.125420924523335
 31
0.0
 70
   160
  1
<>
  3
Default (ANSI)
100
AcDbAlignedDimension
 13
6.336679301395087
 23
3.57032130817386
 33
0.0
 14
5.336679301395087
 24
3.643850719938565
 34
0.0
 50
180.0
100
AcDbRotatedDimension
1001
ACAD
1000
DSTYLE
1002
{
1070
   289
1070
     1
1070
    73
1070
     0
1070
    74
1070
     0
1070
   271
1070
     3
1070
   272
1070
     3
1070
    48
1040
0.0
1070
    47
1040
0.0
1002
}
  0
DIMENSION
  5
5F6
330
6C
100
AcDbEntity
  8
Dimension (ANSI)
100
AcDbDimension
  2
*D9
 10
9.273679301395088
 20
2.94805856134356
 30
0.0
 11
9.837032115693451
 21
2.94805856134356
 31
0.0
 70
   160
  1
<>{\PTYP.}
 71
     5
 42
0.3130000000000006
  3
Default (ANSI)
100
AcDbAlignedDimension
 13
8.960679301395087
 23
3.643850719938565
 33
0.0
 14
9.273679301395088
 24
3.529380131703272
 34
0.0
 50
180.0
100
AcDbRotatedDimension
1001
ACAD
1000
DSTYLE
1002
{
1070
   289
1070
     1
1070
    73
1070
     0
1070
    74
1070
     0
1070
   271
1070
     3
1070
   272
1070
     3
1070
    48
1040
0.0
1070
    47
1040
0.0
1002
}
  0
DIMENSION
  5
6F4
330
6C
100
AcDbEntity
  8
Dimension (ANSI)
100
AcDbDimension
  2
*D10
 10
9.419802819301187
 20
3.529380131703272
 30
0.0
 11
9.804611227909459
 21
4.338504759139436
 31
0.0
 70
   160
  1
<>{\PTYP.}
 71
     5
 42
0.3129999999999997
  3
Default (ANSI)
100
AcDbAlignedDimension
 13
9.263738124924499
 23
3.842380131703271
 33
0.0
 14
9.273679301395088
 24
3.529380131703272
 34
0.0
 50
90.0
100
AcDbRotatedDimension
1001
ACAD
1000
DSTYLE
1002
{
1070
   289
1070
     1
1070
   271
1070
     3
1070
   272
1070
     3
1070
    48
1040
0.0
1070
    47
1040
0.0
1002
}
  0
MTEXT
  5
804
102
{ACAD_REACTORS
330
805
102
}
330
6C
100
AcDbEntity
  8
Symbol (ANSI)
100
AcDbMText
 10
9.710078841472288
 20
9.007011767440511
 30
0.0
 40
0.1411764723330308
 41
0.9872056423044138
 71
     4
 72
     1
  1
{.250 X .312\POBROUND\P(4 PL.)}
  7
Note Text (ANSI)
 73
     2
 44
0.9878841638565063
  0
LEADER
  5
805
330
6C
100
AcDbEntity
  8
Symbol (ANSI)
100
AcDbLeader
  3
Default (ANSI)$7
 73
     0
 74
     0
 75
     1
 40
0.653121967533799
 41
0.9611187983838053
 76
     3
 10
9.100412131807956
 20
9.404718380265238
 30
0.0
 10
9.557230303103802
 20
9.007011767440511
 30
0.0
 10
9.673024649716845
 20
9.007011767440511
 30
0.0
340
804
1001
ACAD
1000
DSTYLE
1002
{
1070
    77
1070
     0
1002
}
  0
MTEXT
  5
806
102
{ACAD_XDICTIONARY
360
812
102
}
330
6C
100
AcDbEntity
  8
Symbol (ANSI)
100
AcDbMText
 10
11.10318185160986
 20
1.104461401450778
 30
0.0
 40
0.1176470625781527
 41
8.686337773586766
 71
     4
 72
     1
  3
{\fRomanS|b0|i0|c0|p2;\H2x;PART#: N1P0608\P(DATA SUBJECT TO CHANGE WITHOUT NOTICE)\H1.6157x; \H0.61894x;\P \H1.352x; \H0.73963x;\P\H0.60008x;THIS DRAWING IS PROPERTY OF HUBBELL INC. WIEGMANN\H1.5632x; \H0.63969x;\PALL INFORMATION IS PROPRIETARY AND N
  1
OT TO BE DUPLICATED\H1.234x; \H0.81036x;\P\H1.2571x; }
  7
Note Text (ANSI)
 73
     1
 44
0.8026435375213623
  0
ENDSEC
  0
SECTION
  2
OBJECTS
  0
DICTIONARY
  5
C
330
0
100
AcDbDictionary
281
     1
  3
ACAD_CIP_PREVIOUS_PRODUCT_INFO
350
808
  3
ACAD_COLOR
350
63
  3
ACAD_GROUP
350
D
  3
ACAD_LAYOUT
350
62
  3
ACAD_MATERIAL
350
10
  3
ACAD_MLEADERSTYLE
350
66
  3
ACAD_MLINESTYLE
350
5F
  3
ACAD_PLOTSETTINGS
350
61
  3
ACAD_PLOTSTYLENAME
350
E
  3
ACAD_SCALELIST
350
42
  3
ACAD_TABLESTYLE
350
64
  3
ACAD_VISUALSTYLE
350
29
  3
ACDB_RECOMPOSE_DATA
350
814
  3
AcDbVariableDictionary
350
76
  0
DICTIONARY
  5
84A
330
506
100
AcDbDictionary
280
     1
281
     1
  3
ACAD_MTEXT_2008_RT
360
84B
  0
DICTIONARY
  5
812
330
806
100
AcDbDictionary
280
     1
281
     1
  3
ACAD_MTEXT_2008_RT
360
813
  0
XRECORD
  5
808
102
{ACAD_REACTORS
330
C
102
}
330
C
100
AcDbXrecord
280
     1
300
INVPROSA
300
2012
300
INVPROSA_F_S
  0
DICTIONARY
  5
63
102
{ACAD_REACTORS
330
C
102
}
330
C
100
AcDbDictionary
281
     1
  0
DICTIONARY
  5
D
102
{ACAD_REACTORS
330
C
102
}
330
C
100
AcDbDictionary
281
     1
  0
DICTIONARY
  5
62
102
{ACAD_REACTORS
330
C
102
}
330
C
100
AcDbDictionary
281
     1
  3
Layout1
350
6B
  3
Layout2
350
73
  3
Model
350
6F
  0
DICTIONARY
  5
10
102
{ACAD_REACTORS
330
C
102
}
330
C
100
AcDbDictionary
281
     1
  3
ByBlock
350
19
  3
ByLayer
350
11
  3
Global
350
21
  0
DICTIONARY
  5
66
102
{ACAD_REACTORS
330
C
102
}
330
C
100
AcDbDictionary
281
     1
  3
Standard
350
67
  0
DICTIONARY
  5
5F
102
{ACAD_REACTORS
330
C
102
}
330
C
100
AcDbDictionary
281
     1
  3
Standard
350
60
  0
DICTIONARY
  5
61
102
{ACAD_REACTORS
330
C
102
}
330
C
100
AcDbDictionary
281
     1
  0
ACDBDICTIONARYWDFLT
  5
E
102
{ACAD_REACTORS
330
C
102
}
330
C
100
AcDbDictionary
281
     1
  3
Normal
350
F
100
AcDbDictionaryWithDefault
340
F
  0
DICTIONARY
  5
42
102
{ACAD_REACTORS
330
C
102
}
330
C
100
AcDbDictionary
281
     1
  3
A0
350
43
  3
A1
350
44
  3
A2
350
45
  3
A3
350
46
  3
A4
350
47
  3
A5
350
48
  3
A6
350
49
  3
A7
350
4A
  3
A8
350
4B
  3
A9
350
4C
  3
B0
350
4D
  3
B1
350
4E
  3
B2
350
4F
  3
B3
350
50
  3
B4
350
51
  3
B5
350
52
  3
B6
350
53
  0
DICTIONARY
  5
64
102
{ACAD_REACTORS
330
C
102
}
330
C
100
AcDbDictionary
281
     1
  3
Standard
350
65
  0
DICTIONARY
  5
29
102
{ACAD_REACTORS
330
C
102
}
330
C
100
AcDbDictionary
281
     1
  3
2dWireframe
350
2F
  3
Basic
350
2E
  3
Brighten
350
35
  3
ColorChange
350
39
  3
Conceptual
350
32
  3
Dim
350
34
  3
EdgeColorOff
350
41
  3
Facepattern
350
38
  3
Flat
350
2A
  3
FlatWithEdges
350
2B
  3
Gouraud
350
2C
  3
GouraudWithEdges
350
2D
  3
Hidden
350
31
  3
JitterOff
350
3F
  3
Linepattern
350
37
  3
OverhangOff
350
40
  3
Realistic
350
33
  3
Shaded
350
3E
  3
Shaded with edges
350
3D
  3
Shades of Gray
350
3A
  3
Sketchy
350
3B
  3
Thicken
350
36
  3
Wireframe
350
30
  3
X-Ray
350
3C
  0
XRECORD
  5
814
102
{ACAD_REACTORS
330
C
102
}
330
C
100
AcDbXrecord
280
     1
 90
        1
330
65
330
806
  0
DICTIONARY
  5
76
102
{ACAD_REACTORS
330
C
102
}
330
C
100
AcDbDictionary
281
     1
  3
CANNOSCALE
350
79
  3
CMLEADERSTYLE
350
78
  3
CTABLESTYLE
350
77
  3
LAYEREVAL
350
80B
  3
LAYERNOTIFY
350
80C
  3
LIGHTINGUNITS
350
80A
  3
MSLTSCALE
350
809
  3
XCLIPFRAME
350
80D
  0
XRECORD
  5
84B
102
{ACAD_REACTORS
330
84A
102
}
330
84A
100
AcDbXrecord
280
     1
 40
36037.0
  1
\A1;\U+22050.250{\PGROUND HOLE}
  0
XRECORD
  5
813
102
{ACAD_REACTORS
330
812
102
}
330
812
100
AcDbXrecord
280
     1
 40
3119565.0
  1
\pxsm0.94;{\fRomanS|b0|i0;\H0.2353;PART#: N1P0608\P(DATA SUBJECT TO CHANGE WITHOUT NOTICE)\P \P\fRomanS|b0|i0;\H0.1412;THIS DRAWING IS PROPERTY OF HUBBELL INC. WIEGMANN\PALL INFORMATION IS PROPRIETARY AND NOT TO BE DUPLICATED\P}
  0
LAYOUT
  5
6B
102
{ACAD_REACTORS
330
62
102
}
330
62
100
AcDbPlotSettings
  1

  2

  4

  6

 40
0.0
 41
0.0
 42
0.0
 43
0.0
 44
0.0
 45
0.0
 46
0.0
 47
0.0
 48
0.0
 49
0.0
140
0.0
141
0.0
142
1.0
143
1.0
 70
   688
 72
     0
 73
     0
 74
     5
  7

 75
    16
147
1.0
 76
     0
 77
     2
 78
   300
148
0.0
149
0.0
100
AcDbLayout
  1
Layout1
 70
     1
 71
     1
 10
0.0
 20
0.0
 11
12.0
 21
9.0
 12
0.0
 22
0.0
 32
0.0
 14
0.0
 24
0.0
 34
0.0
 15
0.0
 25
0.0
 35
0.0
146
0.0
 13
0.0
 23
0.0
 33
0.0
 16
1.0
 26
0.0
 36
0.0
 17
0.0
 27
1.0
 37
0.0
 76
     0
330
68
  0
LAYOUT
  5
73
102
{ACAD_REACTORS
330
62
102
}
330
62
100
AcDbPlotSettings
  1

  2

  4

  6

 40
0.0
 41
0.0
 42
0.0
 43
0.0
 44
0.0
 45
0.0
 46
0.0
 47
0.0
 48
0.0
 49
0.0
140
0.0
141
0.0
142
1.0
143
1.0
 70
   688
 72
     0
 73
     0
 74
     5
  7

 75
    16
147
1.0
 76
     0
 77
     2
 78
   300
148
0.0
149
0.0
100
AcDbLayout
  1
Layout2
 70
     1
 71
     2
 10
0.0
 20
0.0
 11
12.0
 21
9.0
 12
0.0
 22
0.0
 32
0.0
 14
0.0
 24
0.0
 34
0.0
 15
0.0
 25
0.0
 35
0.0
146
0.0
 13
0.0
 23
0.0
 33
0.0
 16
1.0
 26
0.0
 36
0.0
 17
0.0
 27
1.0
 37
0.0
 76
     0
330
70
  0
LAYOUT
  5
6F
102
{ACAD_REACTORS
330
62
102
}
330
62
100
AcDbPlotSettings
  1

  2

  4

  6

 40
0.0
 41
0.0
 42
0.0
 43
0.0
 44
0.0
 45
0.0
 46
0.0
 47
0.0
 48
0.0
 49
0.0
140
0.0
141
0.0
142
1.0
143
1.0
 70
  1712
 72
     0
 73
     0
 74
     0
  7

 75
     0
147
1.0
 76
     0
 77
     2
 78
   300
148
0.0
149
0.0
100
AcDbLayout
  1
Model
 70
     1
 71
     0
 10
0.0
 20
0.0
 11
12.0
 21
9.0
 12
0.0
 22
0.0
 32
0.0
 14
0.0
 24
0.0
 34
0.0
 15
0.0
 25
0.0
 35
0.0
146
0.0
 13
0.0
 23
0.0
 33
0.0
 16
1.0
 26
0.0
 36
0.0
 17
0.0
 27
1.0
 37
0.0
 76
     0
330
6C
  0
MATERIAL
  5
19
102
{ACAD_XDICTIONARY
360
1A
102
}
102
{ACAD_REACTORS
330
10
102
}
330
10
100
AcDbMaterial
  1
ByBlock
 72
     0
 43
0.0208333333333333
 43
0.0
 43
0.0
 43
0.0
 43
0.0
 43
0.0208333333333333
 43
0.0
 43
0.0
 43
0.0
 43
0.0
 43
1.0
 43
0.0
 43
0.0
 43
0.0
 43
0.0
 43
1.0
 77
     0
 47
0.0208333333333333
 47
0.0
 47
0.0
 47
0.0
 47
0.0
 47
0.0208333333333333
 47
0.0
 47
0.0
 47
0.0
 47
0.0
 47
1.0
 47
0.0
 47
0.0
 47
0.0
 47
0.0
 47
1.0
171
     0
 49
0.0208333333333333
 49
0.0
 49
0.0
 49
0.0
 49
0.0
 49
0.0208333333333333
 49
0.0
 49
0.0
 49
0.0
 49
0.0
 49
1.0
 49
0.0
 49
0.0
 49
0.0
 49
0.0
 49
1.0
175
     0
142
0.0208333333333333
142
0.0
142
0.0
142
0.0
142
0.0
142
0.0208333333333333
142
0.0
142
0.0
142
0.0
142
0.0
142
1.0
142
0.0
142
0.0
142
0.0
142
0.0
142
1.0
179
     0
144
0.0208333333333333
144
0.0
144
0.0
144
0.0
144
0.0
144
0.0208333333333333
144
0.0
144
0.0
144
0.0
144
0.0
144
1.0
144
0.0
144
0.0
144
0.0
144
0.0
144
1.0
147
0.0208333333333333
147
0.0
147
0.0
147
0.0
147
0.0
147
0.0208333333333333
147
0.0
147
0.0
147
0.0
147
0.0
147
1.0
147
0.0
147
0.0
147
0.0
147
0.0
147
1.0
  0
MATERIAL
  5
11
102
{ACAD_XDICTIONARY
360
12
102
}
102
{ACAD_REACTORS
330
10
102
}
330
10
100
AcDbMaterial
  1
ByLayer
 72
     0
 43
0.0208333333333333
 43
0.0
 43
0.0
 43
0.0
 43
0.0
 43
0.0208333333333333
 43
0.0
 43
0.0
 43
0.0
 43
0.0
 43
1.0
 43
0.0
 43
0.0
 43
0.0
 43
0.0
 43
1.0
 77
     0
 47
0.0208333333333333
 47
0.0
 47
0.0
 47
0.0
 47
0.0
 47
0.0208333333333333
 47
0.0
 47
0.0
 47
0.0
 47
0.0
 47
1.0
 47
0.0
 47
0.0
 47
0.0
 47
0.0
 47
1.0
171
     0
 49
0.0208333333333333
 49
0.0
 49
0.0
 49
0.0
 49
0.0
 49
0.0208333333333333
 49
0.0
 49
0.0
 49
0.0
 49
0.0
 49
1.0
 49
0.0
 49
0.0
 49
0.0
 49
0.0
 49
1.0
175
     0
142
0.0208333333333333
142
0.0
142
0.0
142
0.0
142
0.0
142
0.0208333333333333
142
0.0
142
0.0
142
0.0
142
0.0
142
1.0
142
0.0
142
0.0
142
0.0
142
0.0
142
1.0
179
     0
144
0.0208333333333333
144
0.0
144
0.0
144
0.0
144
0.0
144
0.0208333333333333
144
0.0
144
0.0
144
0.0
144
0.0
144
1.0
144
0.0
144
0.0
144
0.0
144
0.0
144
1.0
147
0.0208333333333333
147
0.0
147
0.0
147
0.0
147
0.0
147
0.0208333333333333
147
0.0
147
0.0
147
0.0
147
0.0
147
1.0
147
0.0
147
0.0
147
0.0
147
0.0
147
1.0
  0
MATERIAL
  5
21
102
{ACAD_XDICTIONARY
360
22
102
}
102
{ACAD_REACTORS
330
10
102
}
330
10
100
AcDbMaterial
  1
Global
 72
     0
 43
0.0208333333333333
 43
0.0
 43
0.0
 43
0.0
 43
0.0
 43
0.0208333333333333
 43
0.0
 43
0.0
 43
0.0
 43
0.0
 43
1.0
 43
0.0
 43
0.0
 43
0.0
 43
0.0
 43
1.0
 77
     0
 47
0.0208333333333333
 47
0.0
 47
0.0
 47
0.0
 47
0.0
 47
0.0208333333333333
 47
0.0
 47
0.0
 47
0.0
 47
0.0
 47
1.0
 47
0.0
 47
0.0
 47
0.0
 47
0.0
 47
1.0
171
     0
 49
0.0208333333333333
 49
0.0
 49
0.0
 49
0.0
 49
0.0
 49
0.0208333333333333
 49
0.0
 49
0.0
 49
0.0
 49
0.0
 49
1.0
 49
0.0
 49
0.0
 49
0.0
 49
0.0
 49
1.0
175
     0
142
0.0208333333333333
142
0.0
142
0.0
142
0.0
142
0.0
142
0.0208333333333333
142
0.0
142
0.0
142
0.0
142
0.0
142
1.0
142
0.0
142
0.0
142
0.0
142
0.0
142
1.0
179
     0
144
0.0208333333333333
144
0.0
144
0.0
144
0.0
144
0.0
144
0.0208333333333333
144
0.0
144
0.0
144
0.0
144
0.0
144
1.0
144
0.0
144
0.0
144
0.0
144
0.0
144
1.0
147
0.0208333333333333
147
0.0
147
0.0
147
0.0
147
0.0
147
0.0208333333333333
147
0.0
147
0.0
147
0.0
147
0.0
147
1.0
147
0.0
147
0.0
147
0.0
147
0.0
147
1.0
  0
MLEADERSTYLE
  5
67
102
{ACAD_XDICTIONARY
360
810
102
}
102
{ACAD_REACTORS
330
66
102
}
330
66
100
AcDbMLeaderStyle
170
     2
171
     1
172
     0
 90
        2
 40
0.0
 41
0.0
173
     1
 91
-1056964608
340
5B
 92
       -2
290
     1
 42
0.09
291
     1
 43
0.36
  3
Standard
 44
0.18
300

342
55
174
     1
178
     6
175
     1
176
     0
 93
-1056964608
 45
0.18
292
     0
297
     0
 46
0.18
 94
-1056964608
 47
1.0
 49
1.0
140
1.0
293
     1
141
0.0
294
     1
177
     0
142
1.0
295
     0
296
     0
143
0.125
1001
ACAD_MLEADERVER
1070
     2
  0
MLINESTYLE
  5
60
102
{ACAD_REACTORS
330
5F
102
}
330
5F
100
AcDbMlineStyle
  2
STANDARD
 70
     0
  3

 62
   256
 51
90.0
 52
90.0
 71
     2
 49
0.5
 62
   256
  6
BYLAYER
 49
-0.5
 62
   256
  6
BYLAYER
  0
ACDBPLACEHOLDER
  5
F
102
{ACAD_REACTORS
330
E
102
}
330
E
  0
SCALE
  5
43
102
{ACAD_REACTORS
330
42
102
}
330
42
100
AcDbScale
 70
     0
300
1:1
140
1.0
141
1.0
290
     1
  0
SCALE
  5
44
102
{ACAD_REACTORS
330
42
102
}
330
42
100
AcDbScale
 70
     0
300
1/128" = 1'-0"
140
0.0078125
141
12.0
290
     0
  0
SCALE
  5
45
102
{ACAD_REACTORS
330
42
102
}
330
42
100
AcDbScale
 70
     0
300
1/64" = 1'-0"
140
0.015625
141
12.0
290
     0
  0
SCALE
  5
46
102
{ACAD_REACTORS
330
42
102
}
330
42
100
AcDbScale
 70
     0
300
1/32" = 1'-0"
140
0.03125
141
12.0
290
     0
  0
SCALE
  5
47
102
{ACAD_REACTORS
330
42
102
}
330
42
100
AcDbScale
 70
     0
300
1/16" = 1'-0"
140
0.0625
141
12.0
290
     0
  0
SCALE
  5
48
102
{ACAD_REACTORS
330
42
102
}
330
42
100
AcDbScale
 70
     0
300
3/32" = 1'-0"
140
0.09375
141
12.0
290
     0
  0
SCALE
  5
49
102
{ACAD_REACTORS
330
42
102
}
330
42
100
AcDbScale
 70
     0
300
1/8" = 1'-0"
140
0.125
141
12.0
290
     0
  0
SCALE
  5
4A
102
{ACAD_REACTORS
330
42
102
}
330
42
100
AcDbScale
 70
     0
300
3/16" = 1'-0"
140
0.1875
141
12.0
290
     0
  0
SCALE
  5
4B
102
{ACAD_REACTORS
330
42
102
}
330
42
100
AcDbScale
 70
     0
300
1/4" = 1'-0"
140
0.25
141
12.0
290
     0
  0
SCALE
  5
4C
102
{ACAD_REACTORS
330
42
102
}
330
42
100
AcDbScale
 70
     0
300
3/8" = 1'-0"
140
0.375
141
12.0
290
     0
  0
SCALE
  5
4D
102
{ACAD_REACTORS
330
42
102
}
330
42
100
AcDbScale
 70
     0
300
1/2" = 1'-0"
140
0.5
141
12.0
290
     0
  0
SCALE
  5
4E
102
{ACAD_REACTORS
330
42
102
}
330
42
100
AcDbScale
 70
     0
300
3/4" = 1'-0"
140
0.75
141
12.0
290
     0
  0
SCALE
  5
4F
102
{ACAD_REACTORS
330
42
102
}
330
42
100
AcDbScale
 70
     0
300
1" = 1'-0"
140
1.0
141
12.0
290
     0
  0
SCALE
  5
50
102
{ACAD_REACTORS
330
42
102
}
330
42
100
AcDbScale
 70
     0
300
1-1/2" = 1'-0"
140
1.5
141
12.0
290
     0
  0
SCALE
  5
51
102
{ACAD_REACTORS
330
42
102
}
330
42
100
AcDbScale
 70
     0
300
3" = 1'-0"
140
3.0
141
12.0
290
     0
  0
SCALE
  5
52
102
{ACAD_REACTORS
330
42
102
}
330
42
100
AcDbScale
 70
     0
300
6" = 1'-0"
140
6.0
141
12.0
290
     0
  0
SCALE
  5
53
102
{ACAD_REACTORS
330
42
102
}
330
42
100
AcDbScale
 70
     0
300
1'-0" = 1'-0"
140
12.0
141
12.0
290
     0
  0
TABLESTYLE
  5
65
102
{ACAD_XDICTIONARY
360
80E
102
}
102
{ACAD_REACTORS
330
64
102
}
330
64
100
AcDbTableStyle
  3
Standard
 70
     0
 71
     0
 40
0.06
 41
0.06
280
     0
281
     0
  7
Standard
140
0.18
170
     2
 62
     0
 63
     7
283
     0
274
    -2
284
     1
 64
     0
275
    -2
285
     1
 65
     0
276
    -2
286
     1
 66
     0
277
    -2
287
     1
 67
     0
278
    -2
288
     1
 68
     0
279
    -2
289
     1
 69
     0
  7
Standard
140
0.25
170
     5
 62
     0
 63
     7
283
     0
274
    -2
284
     1
 64
     0
275
    -2
285
     1
 65
     0
276
    -2
286
     1
 66
     0
277
    -2
287
     1
 67
     0
278
    -2
288
     1
 68
     0
279
    -2
289
     1
 69
     0
  7
Standard
140
0.18
170
     5
 62
     0
 63
     7
283
     0
274
    -2
284
     1
 64
     0
275
    -2
285
     1
 65
     0
276
    -2
286
     1
 66
     0
277
    -2
287
     1
 67
     0
278
    -2
288
     1
 68
     0
279
    -2
289
     1
 69
     0
  0
VISUALSTYLE
  5
2F
102
{ACAD_XDICTIONARY
360
822
102
}
102
{ACAD_REACTORS
330
29
102
}
330
29
100
AcDbVisualStyle
  2
2dWireframe
 70
     4
 71
     0
 72
     2
 73
     0
 90
        0
 40
-0.6
 41
-30.0
 62
     5
 63
     7
421
 16777215
 74
     1
 91
        4
 64
     7
 65
   257
 75
     1
175
     1
 42
1.0
 92
        0
 66
   257
 43
1.0
 76
     1
 77
     6
 78
     2
 67
     7
 79
     5
170
     0
171
     0
290
     0
174
     0
 93
        1
 44
0.0
173
     0
291
     0
 45
0.0
1001
ACAD
1000
AcDbSavedByObjectVersion
1070
     0
  0
VISUALSTYLE
  5
2E
102
{ACAD_XDICTIONARY
360
820
102
}
102
{ACAD_REACTORS
330
29
102
}
330
29
100
AcDbVisualStyle
  2
Basic
 70
     7
 71
     1
 72
     0
 73
     1
 90
        0
 40
-0.6
 41
-30.0
 62
     5
 63
     7
421
 16777215
 74
     0
 91
        4
 64
     7
 65
   257
 75
     1
175
     1
 42
1.0
 92
        8
 66
     7
 43
1.0
 76
     1
 77
     6
 78
     2
 67
     7
 79
     5
170
     0
171
     0
290
     0
174
     0
 93
        1
 44
0.0
173
     0
291
     1
 45
0.0
1001
ACAD
1000
AcDbSavedByObjectVersion
1070
     0
  0
VISUALSTYLE
  5
35
102
{ACAD_XDICTIONARY
360
82E
102
}
102
{ACAD_REACTORS
330
29
102
}
330
29
100
AcDbVisualStyle
  2
Brighten
 70
    12
 71
     2
 72
     2
 73
     0
 90
        0
 40
-0.6
 41
-30.0
 62
     5
 63
     7
421
 16777215
 74
     1
 91
        4
 64
     7
 65
   257
 75
     1
175
     1
 42
1.0
 92
        8
 66
     7
 43
1.0
 76
     1
 77
     6
 78
     2
 67
     7
 79
     5
170
     0
171
     0
290
     0
174
     0
 93
        1
 44
50.0
173
     0
291
     1
 45
0.0
1001
ACAD
1000
AcDbSavedByObjectVersion
1070
     0
  0
VISUALSTYLE
  5
39
102
{ACAD_XDICTIONARY
360
836
102
}
102
{ACAD_REACTORS
330
29
102
}
330
29
100
AcDbVisualStyle
  2
ColorChange
 70
    16
 71
     2
 72
     2
 73
     3
 90
        0
 40
-0.6
 41
-30.0
 62
     5
 63
     8
421
  8421504
 74
     1
 91
        4
 64
     7
 65
   257
 75
     1
175
     1
 42
1.0
 92
        8
 66
     8
424
  8421504
 43
1.0
 76
     1
 77
     6
 78
     2
 67
     7
 79
     5
170
     0
171
     0
290
     0
174
     0
 93
        1
 44
0.0
173
     0
291
     1
 45
0.0
1001
ACAD
1000
AcDbSavedByObjectVersion
1070
     0
  0
VISUALSTYLE
  5
32
102
{ACAD_XDICTIONARY
360
828
102
}
102
{ACAD_REACTORS
330
29
102
}
330
29
100
AcDbVisualStyle
  2
Conceptual
 70
     9
 71
     3
 72
     2
 73
     0
 90
        0
 40
-0.6
 41
-30.0
 62
     5
 63
     7
421
 16777215
 74
     2
 91
        2
 64
     7
 65
   257
 75
     1
175
     1
 42
179.0
 92
        8
 66
     7
 43
1.0
 76
     1
 77
     6
 78
     2
 67
     7
 79
     3
170
     0
171
     0
290
     0
174
     0
 93
        1
 44
0.0
173
     0
291
     0
 45
0.0
1001
ACAD
1000
AcDbSavedByObjectVersion
1070
     0
  0
VISUALSTYLE
  5
34
102
{ACAD_XDICTIONARY
360
82C
102
}
102
{ACAD_REACTORS
330
29
102
}
330
29
100
AcDbVisualStyle
  2
Dim
 70
    11
 71
     2
 72
     2
 73
     0
 90
        0
 40
-0.6
 41
-30.0
 62
     5
 63
     7
421
 16777215
 74
     1
 91
        4
 64
     7
 65
   257
 75
     1
175
     1
 42
1.0
 92
        8
 66
     7
 43
1.0
 76
     1
 77
     6
 78
     2
 67
     7
 79
     5
170
     0
171
     0
290
     0
174
     0
 93
        1
 44
-50.0
173
     0
291
     1
 45
0.0
1001
ACAD
1000
AcDbSavedByObjectVersion
1070
     0
  0
VISUALSTYLE
  5
41
102
{ACAD_XDICTIONARY
360
846
102
}
102
{ACAD_REACTORS
330
29
102
}
330
29
100
AcDbVisualStyle
  2
EdgeColorOff
 70
    22
 71
     2
 72
     2
 73
     0
 90
        0
 40
-0.6
 41
-30.0
 62
     5
 63
     7
421
 16777215
 74
     1
 91
        4
 64
     7
 65
   257
 75
     1
175
     1
 42
1.0
 92
        8
 66
     7
 43
1.0
 76
     1
 77
     6
 78
     2
 67
     7
 79
     5
170
     0
171
     0
290
     0
174
     0
 93
        1
 44
0.0
173
     0
291
     1
 45
0.0
1001
ACAD
1000
AcDbSavedByObjectVersion
1070
     0
  0
VISUALSTYLE
  5
38
102
{ACAD_XDICTIONARY
360
834
102
}
102
{ACAD_REACTORS
330
29
102
}
330
29
100
AcDbVisualStyle
  2
Facepattern
 70
    15
 71
     2
 72
     2
 73
     0
 90
        0
 40
-0.6
 41
-30.0
 62
     5
 63
     7
421
 16777215
 74
     1
 91
        4
 64
     7
 65
   257
 75
     1
175
     1
 42
1.0
 92
        8
 66
     7
 43
1.0
 76
     1
 77
     6
 78
     2
 67
     7
 79
     5
170
     0
171
     0
290
     0
174
     0
 93
        1
 44
0.0
173
     0
291
     1
 45
0.0
1001
ACAD
1000
AcDbSavedByObjectVersion
1070
     0
  0
VISUALSTYLE
  5
2A
102
{ACAD_XDICTIONARY
360
818
102
}
102
{ACAD_REACTORS
330
29
102
}
330
29
100
AcDbVisualStyle
  2
Flat
 70
     0
 71
     2
 72
     1
 73
     1
 90
        2
 40
-0.6
 41
30.0
 62
     5
 63
     7
421
 16777215
 74
     0
 91
        0
 64
     7
 65
   257
 75
     1
175
     1
 42
1.0
 92
        8
 66
     7
 43
1.0
 76
     1
 77
     6
 78
     2
 67
     7
 79
     5
170
     0
171
     0
290
     0
174
     0
 93
       13
 44
0.0
173
     0
291
     1
 45
0.0
1001
ACAD
1000
AcDbSavedByObjectVersion
1070
     0
  0
VISUALSTYLE
  5
2B
102
{ACAD_XDICTIONARY
360
81A
102
}
102
{ACAD_REACTORS
330
29
102
}
330
29
100
AcDbVisualStyle
  2
FlatWithEdges
 70
     1
 71
     2
 72
     1
 73
     1
 90
        2
 40
-0.6
 41
30.0
 62
     5
 63
     7
421
 16777215
 74
     1
 91
        0
 64
     7
 65
   257
 75
     1
175
     1
 42
1.0
 92
        0
 66
   257
 43
1.0
 76
     1
 77
     6
 78
     2
 67
     7
 79
     5
170
     0
171
     0
290
     0
174
     0
 93
       13
 44
0.0
173
     0
291
     1
 45
0.0
1001
ACAD
1000
AcDbSavedByObjectVersion
1070
     0
  0
VISUALSTYLE
  5
2C
102
{ACAD_XDICTIONARY
360
81C
102
}
102
{ACAD_REACTORS
330
29
102
}
330
29
100
AcDbVisualStyle
  2
Gouraud
 70
     2
 71
     2
 72
     2
 73
     1
 90
        2
 40
-0.6
 41
30.0
 62
     5
 63
     7
421
 16777215
 74
     0
 91
        0
 64
     7
 65
   257
 75
     1
175
     1
 42
1.0
 92
        0
 66
     7
 43
1.0
 76
     1
 77
     6
 78
     2
 67
     7
 79
     5
170
     0
171
     0
290
     0
174
     0
 93
       13
 44
0.0
173
     0
291
     1
 45
0.0
1001
ACAD
1000
AcDbSavedByObjectVersion
1070
     0
  0
VISUALSTYLE
  5
2D
102
{ACAD_XDICTIONARY
360
81E
102
}
102
{ACAD_REACTORS
330
29
102
}
330
29
100
AcDbVisualStyle
  2
GouraudWithEdges
 70
     3
 71
     2
 72
     2
 73
     1
 90
        2
 40
-0.6
 41
30.0
 62
     5
 63
     7
421
 16777215
 74
     1
 91
        0
 64
     7
 65
   257
 75
     1
175
     1
 42
1.0
 92
        0
 66
   257
 43
1.0
 76
     1
 77
     6
 78
     2
 67
     7
 79
     5
170
     0
171
     0
290
     0
174
     0
 93
       13
 44
0.0
173
     0
291
     1
 45
0.0
1001
ACAD
1000
AcDbSavedByObjectVersion
1070
     0
  0
VISUALSTYLE
  5
31
102
{ACAD_XDICTIONARY
360
826
102
}
102
{ACAD_REACTORS
330
29
102
}
330
29
100
AcDbVisualStyle
  2
Hidden
 70
     6
 71
     1
 72
     2
 73
     2
 90
        0
 40
-0.6
 41
-30.0
 62
     5
 63
     7
421
 16777215
 74
     2
 91
        2
 64
     7
 65
   257
 75
     2
175
     1
 42
40.0
 92
        0
 66
   257
 43
1.0
 76
     1
 77
     6
 78
     2
 67
     7
 79
     3
170
     0
171
     0
290
     0
174
     0
 93
        1
 44
0.0
173
     0
291
     0
 45
0.0
1001
ACAD
1000
AcDbSavedByObjectVersion
1070
     0
  0
VISUALSTYLE
  5
3F
102
{ACAD_XDICTIONARY
360
842
102
}
102
{ACAD_REACTORS
330
29
102
}
330
29
100
AcDbVisualStyle
  2
JitterOff
 70
    20
 71
     2
 72
     2
 73
     0
 90
        0
 40
-0.6
 41
-30.0
 62
     5
 63
     7
421
 16777215
 74
     1
 91
        4
 64
     7
 65
   257
 75
     1
175
     1
 42
1.0
 92
       10
 66
     7
 43
1.0
 76
     1
 77
     6
 78
     2
 67
     7
 79
     5
170
     0
171
     0
290
     0
174
     0
 93
        1
 44
0.0
173
     0
291
     1
 45
0.0
1001
ACAD
1000
AcDbSavedByObjectVersion
1070
     0
  0
VISUALSTYLE
  5
37
102
{ACAD_XDICTIONARY
360
832
102
}
102
{ACAD_REACTORS
330
29
102
}
330
29
100
AcDbVisualStyle
  2
Linepattern
 70
    14
 71
     2
 72
     2
 73
     0
 90
        0
 40
-0.6
 41
-30.0
 62
     5
 63
     7
421
 16777215
 74
     1
 91
        4
 64
     7
 65
   257
 75
     7
175
     7
 42
1.0
 92
        8
 66
     7
 43
1.0
 76
     1
 77
     6
 78
     2
 67
     7
 79
     5
170
     0
171
     0
290
     0
174
     0
 93
        1
 44
0.0
173
     0
291
     1
 45
0.0
1001
ACAD
1000
AcDbSavedByObjectVersion
1070
     0
  0
VISUALSTYLE
  5
40
102
{ACAD_XDICTIONARY
360
844
102
}
102
{ACAD_REACTORS
330
29
102
}
330
29
100
AcDbVisualStyle
  2
OverhangOff
 70
    21
 71
     2
 72
     2
 73
     0
 90
        0
 40
-0.6
 41
-30.0
 62
     5
 63
     7
421
 16777215
 74
     1
 91
        4
 64
     7
 65
   257
 75
     1
175
     1
 42
1.0
 92
        9
 66
     7
 43
1.0
 76
     1
 77
     6
 78
     2
 67
     7
 79
     5
170
     0
171
     0
290
     0
174
     0
 93
        1
 44
0.0
173
     0
291
     1
 45
0.0
1001
ACAD
1000
AcDbSavedByObjectVersion
1070
     0
  0
VISUALSTYLE
  5
33
102
{ACAD_XDICTIONARY
360
82A
102
}
102
{ACAD_REACTORS
330
29
102
}
330
29
100
AcDbVisualStyle
  2
Realistic
 70
     8
 71
     2
 72
     3
 73
     0
 90
        2
 40
-0.6
 41
30.0
 62
     5
 63
     7
421
 16777215
 74
     0
 91
        0
 64
     7
 65
   257
 75
     1
175
     1
 42
1.0
 92
        8
 66
   257
 43
1.0
 76
     1
 77
     6
 78
     2
 67
     7
 79
     3
170
     0
171
     0
290
     0
174
     0
 93
       13
 44
0.0
173
     0
291
     0
 45
0.0
1001
ACAD
1000
AcDbSavedByObjectVersion
1070
     0
  0
VISUALSTYLE
  5
3E
102
{ACAD_XDICTIONARY
360
840
102
}
102
{ACAD_REACTORS
330
29
102
}
330
29
100
AcDbVisualStyle
  2
Shaded
 70
    27
 71
     2
 72
     2
 73
     1
 90
        2
 40
-0.6
 41
30.0
 62
     5
 63
     7
421
 16777215
 74
     0
 91
        4
 64
     7
 65
   257
 75
     1
175
     1
 42
1.0
 92
        8
 66
   257
 43
1.0
 76
     1
 77
     6
 78
     2
 67
     8
425
  7895160
 79
     3
170
     0
171
     0
290
     0
174
     0
 93
        5
 44
0.0
173
     0
291
     0
 45
0.0
1001
ACAD
1000
AcDbSavedByObjectVersion
1070
     0
  0
VISUALSTYLE
  5
3D
102
{ACAD_XDICTIONARY
360
83E
102
}
102
{ACAD_REACTORS
330
29
102
}
330
29
100
AcDbVisualStyle
  2
Shaded with edges
 70
    26
 71
     2
 72
     2
 73
     1
 90
        2
 40
-0.6
 41
30.0
 62
     5
 63
     7
421
 16777215
 74
     1
 91
       10
 64
     7
 65
   257
 75
     2
175
     1
 42
1.0
 92
        8
 66
   257
 43
1.0
 76
     1
 77
     6
 78
     2
 67
     7
 79
     3
170
     0
171
     0
290
     0
174
     0
 93
        5
 44
0.0
173
     0
291
     0
 45
0.0
1001
ACAD
1000
AcDbSavedByObjectVersion
1070
     0
  0
VISUALSTYLE
  5
3A
102
{ACAD_XDICTIONARY
360
838
102
}
102
{ACAD_REACTORS
330
29
102
}
330
29
100
AcDbVisualStyle
  2
Shades of Gray
 70
    23
 71
     2
 72
     2
 73
     3
 90
        0
 40
-0.6
 41
-30.0
 62
     5
 63
     7
421
 16777215
 74
     2
 91
        2
 64
     7
 65
     7
 75
     1
175
     1
 42
40.0
 92
        8
 66
     7
 43
1.0
 76
     1
 77
     6
 78
     2
 67
     7
 79
     3
170
     0
171
     0
290
     0
174
     0
 93
        1
 44
0.0
173
     0
291
     0
 45
0.0
1001
ACAD
1000
AcDbSavedByObjectVersion
1070
     0
  0
VISUALSTYLE
  5
3B
102
{ACAD_XDICTIONARY
360
83A
102
}
102
{ACAD_REACTORS
330
29
102
}
330
29
100
AcDbVisualStyle
  2
Sketchy
 70
    24
 71
     1
 72
     2
 73
     2
 90
        0
 40
-0.6
 41
-30.0
 62
     5
 63
     7
421
 16777215
 74
     2
 91
        2
 64
     7
 65
     7
 75
     1
175
     1
 42
40.0
 92
       11
 66
     7
 43
1.0
 76
     1
 77
     6
 78
     2
 67
     7
 79
     6
170
     0
171
     0
290
     0
174
     0
 93
        1
 44
0.0
173
     0
291
     0
 45
0.0
1001
ACAD
1000
AcDbSavedByObjectVersion
1070
     0
  0
VISUALSTYLE
  5
36
102
{ACAD_XDICTIONARY
360
830
102
}
102
{ACAD_REACTORS
330
29
102
}
330
29
100
AcDbVisualStyle
  2
Thicken
 70
    13
 71
     2
 72
     2
 73
     0
 90
        0
 40
-0.6
 41
-30.0
 62
     5
 63
     7
421
 16777215
 74
     1
 91
        4
 64
     7
 65
   257
 75
     1
175
     1
 42
1.0
 92
       12
 66
     7
 43
1.0
 76
     1
 77
     6
 78
     2
 67
     7
 79
     5
170
     0
171
     0
290
     0
174
     0
 93
        1
 44
0.0
173
     0
291
     1
 45
0.0
1001
ACAD
1000
AcDbSavedByObjectVersion
1070
     0
  0
VISUALSTYLE
  5
30
102
{ACAD_XDICTIONARY
360
824
102
}
102
{ACAD_REACTORS
330
29
102
}
330
29
100
AcDbVisualStyle
  2
Wireframe
 70
     5
 71
     0
 72
     2
 73
     0
 90
        0
 40
-0.6
 41
-30.0
 62
     5
 63
     7
421
 16777215
 74
     1
 91
        4
 64
     7
 65
   257
 75
     1
175
     1
 42
1.0
 92
        0
 66
   257
 43
1.0
 76
     1
 77
     6
 78
     2
 67
     7
 79
     3
170
     0
171
     0
290
     0
174
     0
 93
        1
 44
0.0
173
     0
291
     0
 45
0.0
1001
ACAD
1000
AcDbSavedByObjectVersion
1070
     0
  0
VISUALSTYLE
  5
3C
102
{ACAD_XDICTIONARY
360
83C
102
}
102
{ACAD_REACTORS
330
29
102
}
330
29
100
AcDbVisualStyle
  2
X-Ray
 70
    25
 71
     2
 72
     2
 73
     1
 90
        1
 40
0.5
 41
-30.0
 62
     5
 63
     7
421
 16777215
 74
     1
 91
        0
 64
     7
 65
   257
 75
     1
175
     1
 42
1.0
 92
        8
 66
     7
 43
1.0
 76
     1
 77
     6
 78
     2
 67
     7
 79
     3
170
     0
171
     0
290
     0
174
     0
 93
       13
 44
0.0
173
     0
291
     0
 45
0.0
1001
ACAD
1000
AcDbSavedByObjectVersion
1070
     0
  0
DICTIONARYVAR
  5
79
102
{ACAD_REACTORS
330
76
102
}
330
76
100
DictionaryVariables
280
     0
  1
1:1
  0
DICTIONARYVAR
  5
78
102
{ACAD_REACTORS
330
76
102
}
330
76
100
DictionaryVariables
280
     0
  1
STANDARD
  0
DICTIONARYVAR
  5
77
102
{ACAD_REACTORS
330
76
102
}
330
76
100
DictionaryVariables
280
     0
  1
STANDARD
  0
DICTIONARYVAR
  5
80B
102
{ACAD_REACTORS
330
76
102
}
330
76
100
DictionaryVariables
280
     0
  1
0
  0
DICTIONARYVAR
  5
80C
102
{ACAD_REACTORS
330
76
102
}
330
76
100
DictionaryVariables
280
     0
  1
0
  0
DICTIONARYVAR
  5
80A
102
{ACAD_REACTORS
330
76
102
}
330
76
100
DictionaryVariables
280
     0
  1
2
  0
DICTIONARYVAR
  5
809
102
{ACAD_REACTORS
330
76
102
}
330
76
100
DictionaryVariables
280
     0
  1
1
  0
DICTIONARYVAR
  5
80D
102
{ACAD_REACTORS
330
76
102
}
330
76
100
DictionaryVariables
280
     0
  1
2
  0
DICTIONARY
  5
1A
330
19
100
AcDbDictionary
280
     1
281
     1
  3
ACAD_XREC_ROUNDTRIP
360
816
  3
BUMPTILE
360
1C
  3
DIFFUSETILE
360
1B
  3
OPACITYTILE
360
1F
  3
REFLECTIONTILE
360
1E
  3
REFRACTIONTILE
360
20
  3
SPECULARTILE
360
1D
  0
DICTIONARY
  5
12
330
11
100
AcDbDictionary
280
     1
281
     1
  3
ACAD_XREC_ROUNDTRIP
360
815
  3
BUMPTILE
360
14
  3
DIFFUSETILE
360
13
  3
FBXASSET
360
109
  3
OPACITYTILE
360
17
  3
REFLECTIONTILE
360
16
  3
REFRACTIONTILE
360
18
  3
SPECULARTILE
360
15
  0
DICTIONARY
  5
22
330
21
100
AcDbDictionary
280
     1
281
     1
  3
ACAD_XREC_ROUNDTRIP
360
817
  3
BUMPTILE
360
24
  3
DIFFUSETILE
360
23
  3
FBXASSET
360
BA
  3
OPACITYTILE
360
27
  3
REFLECTIONTILE
360
26
  3
REFRACTIONTILE
360
28
  3
SPECULARTILE
360
25
  0
DICTIONARY
  5
810
330
67
100
AcDbDictionary
280
     1
281
     1
  3
ACAD_XREC_ROUNDTRIP
360
811
  0
DICTIONARY
  5
80E
330
65
100
AcDbDictionary
280
     1
281
     1
  3
ACAD_ROUNDTRIP_2008_TABLESTYLE_CELLSTYLEMAP
360
80F
  3
ACAD_XREC_ROUNDTRIP
360
848
  0
DICTIONARY
  5
822
330
2F
100
AcDbDictionary
280
     1
281
     1
  3
ACAD_XREC_ROUNDTRIP
360
823
  0
DICTIONARY
  5
820
330
2E
100
AcDbDictionary
280
     1
281
     1
  3
ACAD_XREC_ROUNDTRIP
360
821
  0
DICTIONARY
  5
82E
330
35
100
AcDbDictionary
280
     1
281
     1
  3
ACAD_XREC_ROUNDTRIP
360
82F
  0
DICTIONARY
  5
836
330
39
100
AcDbDictionary
280
     1
281
     1
  3
ACAD_XREC_ROUNDTRIP
360
837
  0
DICTIONARY
  5
828
330
32
100
AcDbDictionary
280
     1
281
     1
  3
ACAD_XREC_ROUNDTRIP
360
829
  0
DICTIONARY
  5
82C
330
34
100
AcDbDictionary
280
     1
281
     1
  3
ACAD_XREC_ROUNDTRIP
360
82D
  0
DICTIONARY
  5
846
330
41
100
AcDbDictionary
280
     1
281
     1
  3
ACAD_XREC_ROUNDTRIP
360
847
  0
DICTIONARY
  5
834
330
38
100
AcDbDictionary
280
     1
281
     1
  3
ACAD_XREC_ROUNDTRIP
360
835
  0
DICTIONARY
  5
818
330
2A
100
AcDbDictionary
280
     1
281
     1
  3
ACAD_XREC_ROUNDTRIP
360
819
  0
DICTIONARY
  5
81A
330
2B
100
AcDbDictionary
280
     1
281
     1
  3
ACAD_XREC_ROUNDTRIP
360
81B
  0
DICTIONARY
  5
81C
330
2C
100
AcDbDictionary
280
     1
281
     1
  3
ACAD_XREC_ROUNDTRIP
360
81D
  0
DICTIONARY
  5
81E
330
2D
100
AcDbDictionary
280
     1
281
     1
  3
ACAD_XREC_ROUNDTRIP
360
81F
  0
DICTIONARY
  5
826
330
31
100
AcDbDictionary
280
     1
281
     1
  3
ACAD_XREC_ROUNDTRIP
360
827
  0
DICTIONARY
  5
842
330
3F
100
AcDbDictionary
280
     1
281
     1
  3
ACAD_XREC_ROUNDTRIP
360
843
  0
DICTIONARY
  5
832
330
37
100
AcDbDictionary
280
     1
281
     1
  3
ACAD_XREC_ROUNDTRIP
360
833
  0
DICTIONARY
  5
844
330
40
100
AcDbDictionary
280
     1
281
     1
  3
ACAD_XREC_ROUNDTRIP
360
845
  0
DICTIONARY
  5
82A
330
33
100
AcDbDictionary
280
     1
281
     1
  3
ACAD_XREC_ROUNDTRIP
360
82B
  0
DICTIONARY
  5
840
330
3E
100
AcDbDictionary
280
     1
281
     1
  3
ACAD_XREC_ROUNDTRIP
360
841
  0
DICTIONARY
  5
83E
330
3D
100
AcDbDictionary
280
     1
281
     1
  3
ACAD_XREC_ROUNDTRIP
360
83F
  0
DICTIONARY
  5
838
330
3A
100
AcDbDictionary
280
     1
281
     1
  3
ACAD_XREC_ROUNDTRIP
360
839
  0
DICTIONARY
  5
83A
330
3B
100
AcDbDictionary
280
     1
281
     1
  3
ACAD_XREC_ROUNDTRIP
360
83B
  0
DICTIONARY
  5
830
330
36
100
AcDbDictionary
280
     1
281
     1
  3
ACAD_XREC_ROUNDTRIP
360
831
  0
DICTIONARY
  5
824
330
30
100
AcDbDictionary
280
     1
281
     1
  3
ACAD_XREC_ROUNDTRIP
360
825
  0
DICTIONARY
  5
83C
330
3C
100
AcDbDictionary
280
     1
281
     1
  3
ACAD_XREC_ROUNDTRIP
360
83D
  0
XRECORD
  5
816
102
{ACAD_REACTORS
330
1A
102
}
330
1A
100
AcDbXrecord
280
     1
102
MATERIAL
148
0.0
149
0.0
149
0.0
 93
        0
 94
      127
282
     0
 72
     0
 77
     0
171
     0
175
     0
179
     0
273
     0
  0
XRECORD
  5
1C
102
{ACAD_REACTORS
330
1A
102
}
330
1A
100
AcDbXrecord
280
     1
270
     1
271
     1
  0
XRECORD
  5
1B
102
{ACAD_REACTORS
330
1A
102
}
330
1A
100
AcDbXrecord
280
     1
270
     1
271
     1
  0
XRECORD
  5
1F
102
{ACAD_REACTORS
330
1A
102
}
330
1A
100
AcDbXrecord
280
     1
270
     1
271
     1
  0
XRECORD
  5
1E
102
{ACAD_REACTORS
330
1A
102
}
330
1A
100
AcDbXrecord
280
     1
270
     1
271
     1
  0
XRECORD
  5
20
102
{ACAD_REACTORS
330
1A
102
}
330
1A
100
AcDbXrecord
280
     1
270
     1
271
     1
  0
XRECORD
  5
1D
102
{ACAD_REACTORS
330
1A
102
}
330
1A
100
AcDbXrecord
280
     1
270
     1
271
     1
  0
XRECORD
  5
815
102
{ACAD_REACTORS
330
12
102
}
330
12
100
AcDbXrecord
280
     1
102
MATERIAL
148
0.0
149
0.0
149
0.0
 93
        0
 94
      127
282
     0
 72
     0
 77
     0
171
     0
175
     0
179
     0
273
     0
  0
XRECORD
  5
14
102
{ACAD_REACTORS
330
12
102
}
330
12
100
AcDbXrecord
280
     1
270
     1
271
     1
  0
XRECORD
  5
13
102
{ACAD_REACTORS
330
12
102
}
330
12
100
AcDbXrecord
280
     1
270
     1
271
     1
  0
XRECORD
  5
109
102
{ACAD_REACTORS
330
12
102
}
330
12
100
AcDbXrecord
280
     1
 70
     1
 90
1959938040
 71
     1
  1
1253E570-44BA-4331-A965-FE69FF44C29A
311
504B03040A00000800000AA2E8423DEE336E79000000790000001B0000006175746F6465736B2D64657369676E2D7061636B6167652E786D6C3C3F786D6C2076657273696F6E3D22312E302220656E636F64696E673D227574662D3822203F3E3C666F726D6174733E3C666F726D61743E687474703A2F2F736368656D612E
311
6175746F6465736B2E636F6D2F64657369676E2D7061636B6167652F323030393C2F666F726D61743E3C2F666F726D6174733E504B03041400060808000AA2E842D486FD9CA0000000F4000000130000005B436F6E74656E745F54797065735D2E786D6C7D8EC10E82300C865F65E91D8A1E8C310C0EEA1BF002731658846E
311
D98AC1B77784ABF1D8FE5FBFBF75BBCE937A534CCEB38643598122B6FEE978D0B0485F9C41B54DDD7D022595594E1A469170414C76A4D9A4D207E29CF43ECE46F218070CC6BECC4078ACAA135ACF422C856C0E68EA1BF5669944DDD7BCDE7B1F8E415D77AECB980613C2E4AC91FC167A2B244592486606FC29C8FD7F045B9A
311
EF7053A7E60B504B03041400060808000AA2E8428AE36D64EB0000007C01000008000000636F72652E786D6C8D90416E83301045AF62CDB63218430A45C65108DCA017B06C875A0936C276D4E3D724446A775DCDE8CF7F33A3CF8EDFF30DDDF5EA8DB31D141901A4AD74CAD8A983182EB80174E46C752EFCB201B262D61D6C
311
327036AD2E2EBB249D0DDA86A45AA7F42E0AEF7500246FA9E9C0CB2F3D8B4CC4901CFE9A2D425EC5A4B3E2D5253846A3D0F38851699FB918BD023FD43521031DF0308C1FB81AFB1AF7B46F703DD2F3509DCEB4EA47966F3067C1CCAFFB72D52268059C92A2C4A4C6A4F9A4A42DDE5B4ADEC8A12D09CB37FB1F282EEA9F5034
311
3694747FF78979E0457AE431E02CDFB248E51154AA5B6EFC07504B03041400060808000AA2E84255019EA25F0000007C00000007000000636E782E786D6C4DCB3B0E80201045D1AD90E915ED2CF8AC45050C11660C8261F98AB1B07AC9C97D42D718D865D3E909258CFD00CCE24AC6E326A164D74DC0B4128928FF32603847
311
2BA13128B1252AC747C6BAB984FC68F0B87FE8960A5C09FE86CFB69FBA01504B03041400060808000AA2E842ED6CA94D67010000020300000C0000006662782F636F72652E786D6C8D525B6E833010BC8AE5DF0A6C1C52D2C8382A811BF4020E3814056C646C94E377794469AA28AA908C35B3B33B3BC00FD7AE45A3B24363
311
748AA39062A47469AA46D729F6EE1CEC303A086E8D71BFCA30D2B253299E602C786D8DEF57A834DA29ED00D5A6522B288741398CCA162E291ECA6FD5C9507A0715C325EC657991B50AA31068A8137C70160CA065C87462713E5D395970C1BD6FAA956D2A98D69C1B65B1D82609A539CB833C2F3E82B8C8922063D92E480A76
311
CCE3CF238BB38293492CB86BBA9BBBD22AE9548505A3D126A04940775F8CEEA3F73DA36F74BBDF504EA6F20791EFAB7F8A7CA3DD86AD7617D98045044666E2CFB6109143831CC10F119C4C21C26B4EF8316808044276F2D4DEF6B80034AAD2191B0353197FA746D97A0553299A1F4E16163ACF0D60B3A77DD88B3EAF7BC007
311
94BA066BD2C1F5E4DD349D2F53D7287A6583D15D9136B693EDDDDC62F17EDE073D9597A635F63F6AB2AE4AD630C9F4F78A1F504B03041400060808000AA2E8421AEB65827E0000009D0000000B0000006662782F636E782E786D6C4DCCD10A83201886E15B91FFDC35674B076AA0D57DC4B290990EA76397BF1A1DECE88387
311
8F57B49FD5A3B74D2F178304723A03B2E11E2717160925CF98036A954831E6BF1BA030AE56C2CEA0C49262791E34D9792C3E6FEA5D781CD831DA35C650DCF3A1C1B5A60CEB0BD1B8BE31CAF870353DA1502951FD4ADBEE61F505504B03041400060808000AA2E842B0554E2D2C01000015020000310000006662782F443733
311
44364343332D453846362D344233372D423231422D3439373337384635434531332F636F72652E786D6C8D515B6EC32010BC0AE22B55850DC6B1DD081329AF13F4020E901425068B4795E3176A476AFFF2C3A2D999D9D12EDB3EC63BF856CE6B6B7A480A0C8132C24A6DAE3D8CE1823A08B69C396BC31F1A046618550F330C
311
39BB3A1BA70512D6046542428D956A0107EF558040DCD3A7875E7CA97128861812C3DF8A6910B7E1AA0A52A476E271E6834B01C03C24BF901F5A7A68F67B8A8EDDA941F58EB66857911DAA3F5ADA76A7F5FE48282B672167316AB9C8B54C71F4452BF7AA49167316F4F88C2F9C1A829290579850845B84BBCF0A6F48B3A9F0
311
3B5E6F286665A6FF13C549BE288ADA045A2D716799879CB0726E70266D3CDF9F61D463B22E803C6FE59578831C171877B8217595363073D3069269532FA63E589736BCBA9D139DAC67E7A6E6ACCC474AE5F782A9E683F21F504B03041400060808000AA2E842DB9389EF4F01000033030000300000006662782F4437334436
311
4343332D453846362D344233372D423231422D3439373337384635434531332F636E782E786D6CD593CD6E022114855F85B06D6686516B8D6130E9A24FD045B70857A53230E1A7A96FDF8BA275E3A2CB6EC8E4DCC339375F18BEF91E2DF982108D7703ED5B460938E5B571FB81E6B46B56946C040FDEA73B1B254E8E30D022
311
53C1F7C1E7A94A1A7632DB84AA35EE58C500D1E7A020A25C6E12EB95B41800AEC928C2B805AD41939B11BF7610701514B727920E40DE5E3F88DF7E824A91772545F0AE74085ECEDA7467A2445919E340A33AC0285B9993D7108FAD9649B67D7BED7AB0D36F122917AE95391852CA075A4E2AEA462D72E41D0E058F2920BD6A
311
4AA709A890D3648D9209217767E3C52378362E2D17D56B107C4077BF9C2F1618769E099ECC08D5A102C8049A8A19EBE70D7B69D8EA7DC6D6FD723D634FEC793D67BC2B76C1B7DEDB7A096320F88928EF12B84445CFBB327E84AFFA88360159FB70FA034804505B2F746E19FF994F777EDF882BE05F207E00504B0304140006
311
0808000AA2E84239FB1074A405000081100000340000006662782F44373344364343332D453846362D344233372D423231422D3439373337384635434531332F6F626A656374732E786D6CAD575D8F9B3814FD2B887DD97D480849663A59315499645245EDB455A356FB1029326018EF980FD9669AD95FBFC76008A4C934BB
311
EA0B60635FDF7BEEB91FF6DEEE536E3D5321599EDDDAEE70645B340BF38865C9AD5DAA7870635B6F7D4FE4B9EA2CB3AD8CA4F4D6D6D3B6EF25222F0B3315D198945C1DCDAEEEFEB26448336A5B212752DEDA327CA429199252E511954FC38828324CE2FDD01DD60BFB6213418AC723A105113453D014F319A458B5526E7F38
311
B21DDF73F47FDFD34FB36A727E9553D9D33F9F6552912CFCE1B023311377BABC1F5FCD0657D3E96430BD1EBB83BBD5DD72E0BE998C16D78BC56C7E3FC3C1520948329A081ADBFE3B602358E839F52FDF2B59A62663B3C438C811F499694FD9FED8723DA75ED35A678C3CA57E9867190D2BAC8046659F111DD18266117CCEA8
311
84661D8446FDA1AB71ECFC9EE8B139B23B7D1902DD1D1D418DEECDBBAB691EFC0D13E4250C12926A06D6581A436BAE8E0E080779CECD3F26AD94282A18E116678120E2C5F6B1542FF1BD9E18CD64A1A3415B60FBF042FDBB4F1784D1CF797E4ACBB8E45CD3D8F6AB28D82156A8929566EC1F2A0EDA7791814EF09566C38D31
311
48BD14D4F66735456E8ED8540369C59C247039CCD43B27E32343173A4ED74BDB7FBF0AF61B1DBBA70F2F445E50A1347D40ADC671CD5BA36474722FF29CDE601FA97200E50B90FF88503FA802BF09B69FEEA7E614254826E35CA4F08D35B206233C46965B3DF577E7CB73DACD7DEF9DC313CED650FD023CFB36747DD981D3F7
311
9E41F85C4C8C699B9070A48D079601204D128BE798421E8E83BDEDAF91E59095B18B70DF85C950F7199F9E63C42051542775DE19B03C4A8B172468C05631126AD4E4370A1EFCF4433AAB0E36CBCEC17BF54BE83A5F6EDE6F4A1193903E98985ED298654CA1C41D78D355A88779CFA227FAF23D17110CFD11EF4D17EFD41C25
311
81B6C65C039F34395D0F0E27F70E08B12FC975BAF17E72028CD085B523FF81C990724E329A97CDB9AFD60F948D1A621DEC9AC96D8139141690A6FE73148328D2A1608506B1AD566DD21C9EB1EEEBFA231869FB772F1FC84B377B0587DC1BE63C17BBE06557A7A593507FEB73DB60E06829A07B15244DFC1BD077118BE35222
311
099EC0F5DB7AD1F59D4E0B48118DD43A5AA6B01FC14584216D2317D55A1054D23CDB31D44DC4DDC903BAF201A9614025F09CC692F278C7382FD35DCC38AAD12E25C51938FEBFFE4199163B92E665A6CEC8EEA98EEAD0D7BDC75EF99DA8F0D1F637D57B7087DC1BD1E80C19742D398155DFB5E3ABC9FDD59BD1603ABD9B0FA6
311
93893B98CFAEAF06ABFBEBD96A359D2EC6B379E3A75A13DF6B4A4D37A2E1259436AF14CCB8EFEB1AF1639280ED3F1025B7EFEAF06CDE5FD743F4C29E833DA897EDC679F48CBE8F463F1770587952D03A2D384D69A6888EA107FDC1BF10F4193D65EAF9754A127A81944FEF3647C660E6827D9F75BCD3EF477BCDEC4207E449
311
21EAB14C838C307EB431A9911C165962F06B7CD2BEEB42D30CF5C838069DA9CC398B9007232BA1794A15B2E1054548A454827ADD9E3E32778F0B763FD71DA22201A78D268F044D3297080B50AB0C557FDEFA0D4D9DEEAB6E6D94DBE1131E2653D81638736BA349572CA47218A040EB56A8120E2E753B7934FE244B387AED7A
311
533B6E77696C7A25B95D7249FF64ECAA53B8310069A440DF808608DEA994F1BD4A37F33FFC4F8637EA5844E13328556BCB61A235A63A06215A1B656E0B68629ECCD17B04EAEB66B9C36A4D0F918B6E59AF92A0963A504424D54D41EB67549A2F3F3BE850ACF527ABE065025F5E2E692028C85CEA00078BC00A23B3200A545D
311
FCB9FD2C72DC64536BC54001EBF7FDCDF51FDB459EA679564F6DE7E63E6C6D1E71BB8DB6480E545F4BE4763C72C7DBEA3A606E28BB80483A24917CC2043C2B580B74CFFDE0657D6774B1C8B8DF78C2D1AE3862E87A6999C2363DACEFE6560D0E1A8F8C5A88217DA5D411D35D50BC7A2370AAA55055A097F7FF05504B030414
311
00060800000AA2E842000000000000000000000000350000006662782F44373344364343332D453846362D344233372D423231422D3439373337384635434531332F76657274696365732E62696E504B03041400060808000AA2E842F270F1330600000004000000360000006662782F44373344364343332D453846362D34
311
4233372D423231422D3439373337384635434531332F747269616E676C65732E62696E636660600000504B03041400060800000AA2E842000000000000000000000000370000006662782F44373344364343332D453846362D344233372D423231422D3439373337384635434531332F617474726962757465732E62696E50
311
4B03041400060808000AA2E842D5987DFC8F00000041010000360000006662782F44373344364343332D453846362D344233372D423231422D3439373337384635434531332F6469726563746F72792E786D6C858F410EC2201045AF4266AF15DDB800BA74E7C21B903225242D6328188F2FA5C4183471359997F9FF81E89F
311
F3C41E1816475E02DF1F80A11FC8386F25A438EECEC07A250251FC3803E6F58C12560C4AD840E95E91C151A72936F496F35732D860FE635F62C8F2DA16B505C545B74125BAA2FA9E05D7CC053D063734D5C7665FD55B6B8D15D5E9BFEAFD8490FFA45E504B03041400060808000AA2E842558DA7DCFE000000A00100003B00
311
00006662782F44373344364343332D453846362D344233372D423231422D3439373337384635434531332F7265736F75726365732F636F72652E786D6C8D50596AC33010BD8A99DF225B56923A09B242BDDCA01710F2C41589A5A0A5F4F8956217DABFFECC0C6F611E8F5FBE967BF189CE6B6B5AA84B0A051A65276DE61662
311
B892231417C19DB5E1970C0A23176C21C320F8EC6C7C6C90B226A009093576C20D94DE638042DDD3D182571FB8C852C69014FE563EA4BAC919CBBA4C74D209EE834B018AF5499E201C7A1B9D42CFAB95153C463D6D1A3DA59FFAAAD18138340DA503EBC9308C27B21FBB8674AC3B926664FDB07FEBD9BE1B7995CD8207BDFC
311
64540E65C00904A3F58ED086D0E33BA3E7FAF5CCE80B3D9C77945759FEC7141FD33F4D519BB0635BDCD5E641D429C89310BCCA7DA5F52C33EDDCADF806504B010214000A00000800000AA2E8423DEE336E79000000790000001B00000000000000000000000000000000006175746F6465736B2D64657369676E2D7061636B
311
6167652E786D6C504B010214001400060808000AA2E842D486FD9CA0000000F40000001300000000000000000000000000B20000005B436F6E74656E745F54797065735D2E786D6C504B010214001400060808000AA2E8428AE36D64EB0000007C010000080000000000000000000000000083010000636F72652E786D6C50
311
4B010214001400060808000AA2E84255019EA25F0000007C000000070000000000000000000000000094020000636E782E786D6C504B010214001400060808000AA2E842ED6CA94D67010000020300000C00000000000000000000000000180300006662782F636F72652E786D6C504B010214001400060808000AA2E8421A
311
EB65827E0000009D0000000B00000000000000000000000000A90400006662782F636E782E786D6C504B010214001400060808000AA2E842B0554E2D2C010000150200003100000000000000000000000000500500006662782F44373344364343332D453846362D344233372D423231422D3439373337384635434531332F
311
636F72652E786D6C504B010214001400060808000AA2E842DB9389EF4F010000330300003000000000000000000000000000CB0600006662782F44373344364343332D453846362D344233372D423231422D3439373337384635434531332F636E782E786D6C504B010214001400060808000AA2E84239FB1074A405000081
311
1000003400000000000000000000000000680800006662782F44373344364343332D453846362D344233372D423231422D3439373337384635434531332F6F626A656374732E786D6C504B010214001400060800000AA2E84200000000000000000000000035000000000000000000000000005E0E00006662782F44373344
311
364343332D453846362D344233372D423231422D3439373337384635434531332F76657274696365732E62696E504B010214001400060808000AA2E842F270F13306000000040000003600000000000000000000000000B10E00006662782F44373344364343332D453846362D344233372D423231422D3439373337384635
311
434531332F747269616E676C65732E62696E504B010214001400060800000AA2E84200000000000000000000000037000000000000000000000000000B0F00006662782F44373344364343332D453846362D344233372D423231422D3439373337384635434531332F617474726962757465732E62696E504B010214001400
311
060808000AA2E842D5987DFC8F000000410100003600000000000000000000000000600F00006662782F44373344364343332D453846362D344233372D423231422D3439373337384635434531332F6469726563746F72792E786D6C504B010214001400060808000AA2E842558DA7DCFE000000A00100003B000000000000
311
00000000000000431000006662782F44373344364343332D453846362D344233372D423231422D3439373337384635434531332F7265736F75726365732F636F72652E786D6C504B0506000000000E000E00800400009A1100000000
310
504B03040A00000800000AA2E8423DEE336E79000000790000001B0000006175746F6465736B2D64657369676E2D7061636B6167652E786D6C3C3F786D6C2076657273696F6E3D22312E302220656E636F64696E673D227574662D3822203F3E3C666F726D6174733E3C666F726D61743E687474703A2F2F736368656D612E
310
6175746F6465736B2E636F6D2F64657369676E2D7061636B6167652F323030393C2F666F726D61743E3C2F666F726D6174733E504B03041400060808000AA2E842D486FD9CA0000000F4000000130000005B436F6E74656E745F54797065735D2E786D6C7D8EC10E82300C865F65E91D8A1E8C310C0EEA1BF002731658846E
310
D98AC1B77784ABF1D8FE5FBFBF75BBCE937A534CCEB38643598122B6FEE978D0B0485F9C41B54DDD7D022595594E1A469170414C76A4D9A4D207E29CF43ECE46F218070CC6BECC4078ACAA135ACF422C856C0E68EA1BF5669944DDD7BCDE7B1F8E415D77AECB980613C2E4AC91FC167A2B244592486606FC29C8FD7F045B9A
310
EF7053A7E60B504B03041400060808000AA2E842BDC8E0DAE90000007C01000008000000636F72652E786D6C8D505B6EC32010BC0AE2B7C2066CC7D4C24472DD1BF40208888B1283C5A3EAF18B13476AFFFAB3BB9A9DD91D0D3F7FAF37F06542B4DE8D90541802E394D7D62D23CCE982180467C183F7E9170D02275733C21D
310
86822FC1E7ED809477C9B85450E7B5394019A34910A85B194618D5A7596525732A8C78AD36A9AE723115794E459CB3D5E0F1C4EA72CF5EAC09501036BFF5136D119B9B16B5B89409773D9A3B4AD8FB699EDA57C6EB5D2C78B2EBF3BF0A4626A3A1A0983408F708B30F8A07721A287EC1DDD0605EEFF43FA2BCE97F8AB275A9
310
A187DD872C16AFC5C87D2178BD6751DA3DA8D2F7DCC40F504B03041400060808000AA2E84255019EA25F0000007C00000007000000636E782E786D6C4DCB3B0E80201045D1AD90E915ED2CF8AC45050C11660C8261F98AB1B07AC9C97D42D718D865D3E909258CFD00CCE24AC6E326A164D74DC0B4128928FF326038472BA1
310
3128B1252AC747C6BAB984FC68F0B87FE8960A5C09FE86CFB69FBA01504B03041400060808000AA2E8422DF28BE066010000020300000C0000006662782F636F72652E786D6C8D525B6E833010BC8AE5DF0A6C1E4968641C29A537E8051CE3502B602363A31CBFCB234A5345518564AC999DDDD90176B8762D1A951BB43525
310
4E628A9132D2D6DA34250EFE1C15181D3873D6FA5F651819D1A9124F30E6AC7136F42B24ADF1CA78408DADD50A8A61501E23D9C2A5C483FC569D8845F050315CE25EC88B68549CC440431D67837760002D43A613F3F3E9CAC882731682AE5756D7304D9FB572982745F5B13BA6795454591EE5148E23DDECA26A9326C5E7B6
310
3AE6EF0523939833AFBB9B3BE994F0AAC63CA54916D15D448BAF94EE93ED3EA56F74B3CF282353F98328F4F53F45411B9FA5ABDD453680573032137FB685883C1AC4087E0867640A115E73C28F41432010B217A7F6B6C705A051496F5D0E4C6DC39D1A451B144CA5687E185958E83C3780CD9EF6495FF479DD033EA0300D58
310
131EAEA7E0A7E96C99BA46D12B178DFE8A8C759D68EFE6168BF7F33EE8A95CDAD6BAFFA8C9BA2A59C324D3DFCB7F00504B03041400060808000AA2E842A1D20BEA7F0000009D0000000B0000006662782F636E782E786D6C4DCC4B0EC2201485E1AD903BC752A59601D0D087FB682C6D88F462108CCBB7351D383AC997935F
310
369FD593B78D2F1750417962402CDEC3E4705190D34C059046CB1842FABB01C171B50A76062D9718F2F3A0C9CE63F66953EFF07120BBB06E109CD1F3B5EE2967A5A186B71D15FD7013953155DD0A28B42C7EA56DF7B0FE02504B03041400060808000AA2E842E06A23962B01000015020000310000006662782F3033304345
310
3834302D323637442D343031412D413442432D3844454638354141353742382F636F72652E786D6C8D515B6EC32010BC0AE22B55651BBF5184899C474FD00B1020294A0C168F2AC72FD48ED4FEE58745B333B3034B768FE90EBEA575CAE801963982406A6E84D2D701067FC930043B4AAC31FE0F0D02CD2639C004434AAED6
310
847985B8D15E6A1F516D845C41E69CF410F07BBC0CD0F12F39B19C051F19EE96CF8CDFD855E6651EDB914789F3360600CB9074428A6A7438E1066555D71FB30695633636FB43868FA70FDC8E63DBEF31291621252128B1CA958871D44549FBAA491253E2D5F48CCFAD645E0A482B54D619EA33843F2BB42DBB6D85DE51BBAD
310
112912FD9F28CCE2455150DAD7D51A779139484B522C0D4A8409E7FB338C7CCCC67A90E66D9CE46FF1553942B86EBBAAE948B170E30F44D3AE594D9D3736FEF0E6768EF47A75EE1A4A8AB4A4587E37186B5A28FD01504B03041400060808000AA2E842BD3446F85501000033030000300000006662782F3033304345383430
310
2D323637442D343031412D413442432D3844454638354141353742382F636E782E786D6CBD93CD6EC32010845F0571ADFC9FBA518489D4439FA0875E316C1A1A0C16E0AA79FB2E094973C9A152D50BB2668799D527CCB65F93219FE0837676A04D595302563AA5EDFB4097B82BD6946C39F3CEC51B1B25564C30D02453CEDE
310
BD5BE62C29D889C544548DB6872C7A086EF11202CAE926314E0A8301608B05459846500A14B91AF16B071E5741713C92B807F2F2FC46DCF801320656A514CEAAD4C1593A73D38D8912694408030D720F9328C5129D8270289588A26CCA4BD79D9D7E9248BA70A95CBC26A97CA0E9A43C6F54224756E190B3103DD2CBA6789C
310
817231CF464B11117275329E3D9C2DDAC67E95BD1AC17B74776DBF5E63D869C659D4136487F4202228CADBBAE98AFAA9A8D7AF6DBD69FA4D5B3FD48F9BAE6655B273363A67F2258C01EF66229D8D6023E50DABD2F81EBEEC234A7B64EDFCF1172011406E3DD3B966FC259FA6EF56AB7FE4539DDE37E2F2F817F06F504B0304
310
1400060808000AA2E8422C87DD45640700009A1B0000340000006662782F30333043453834302D323637442D343031412D413442432D3844454638354141353742382F6F626A656374732E786D6CED595B73A33614FE2B0C7D691F8C8D2FD94D87D0499CCD8E679BED4EDDDDE98367181964A24608461249DC5FDFA30B1888
310
4970377DEB830D08E9E89CEF5C75087E79CAA8F380B92039BB707D6FE23A98C57942587AE19672377AEF3ABF8401CF73D998E63A0C65F8C255C36E18A43C2F0B3B94E01D2AA9EC8CDE5CFDE9881833EC3A3145425CB822BEC319F25029F3048B7B2F411279E9EEC9F33D33B14D36E5A8B8EB102D10C74C02A730CE808A6398
310
F2DB8F13771C0663F53E0CD4BF9D351B346BDE3F6BACA56E7349989088C5CF58EA90990D6269E6CFAF3F4C17E7A3C57C3E1BCDCFA6FEE8EAE6EA7AE4BF9B4D9667CBE5F9E58773606F9BE7D4CA94E002B304F4B777433F18AB37B5E81681635CC7396338D64002545AAC2E4182056CD5806FD27EF495448DD75AC2C6F35CBD
310
B72C3486676D2A7DB38601D1A20B82D8ED2A89AB6B53BE7CFB17082E861825175802B74272D0AE85878357B8E124189BD130D81E7441849321893941D4A164CB1107A5C05435250CCC024B46390707528E92406BCEBC6EDB1678E6EBAE738CCB5D49A9F20C37D48E1581FB61293467E46FCC0FDC3791019E40DA9230F9DE72
310
29F70576C3F360AC07C3405D6653FBD200E9EC284A8546C4BCED08BA54AEBFBA76C34F37DBA7B50A07C7372F785E602E95D1293D6ABEC090ED55A164B7F507694E2D00610CA876E50194DF01F9CF103D0EAC80DE38799A3FCDED5CC91113BB9C67A01B67E28C26F037717CFDAFEE1B77C1B85EDCD65E1F9EE0A60AAAF7DF8F
310
675B068D95E5BF0167183C80C1E77C665FAD6344C19E6F09038094913834872108EDBBED931BAE207042A0875588863E880CEC3EC06D30B6640E5AA9DCCB7A1D0344ED1EB3214A02D8B445021B3D7AFA08D98393F8A0A6A6887DF02EDEC45C2FAFD79FD625DFA118DF5A9FBEC63BC28884AC799CA116E62D89EEF1FE31E709
310
08FA1CEF7513EFCC6E25006D85B9023EAD40500F879D5B1BC4B02ECD55B8095ED9018450B9BA41FF968818538A18CECB6ADF3ABA2943AD3DDED60C6E383510CFA61D13E6F881A8AA029CE630A3C528E4FD98934281E8861F8D6475D0F47AA4FBBAFA0C1659CFEF99B562107A19A27FE8A0750487966557485B206A81B78770
310
1EE734E7D1761F9948E7422D016CB4BDE55B8B28C47AA32445053C48FB5D155252236D9490DDAE1410578FB0F86DB56C9AC3C49BF90BA7F9DF71C639445BF05DC4ADDF75F6884886521CED50D2B75D73B79AB6D0247B4873BCA320177920721F21194D129C9E02CD49C4CFDF947A4A732108C302F2D551F09B684C3C082446
310
9B15CB4AAB1DA08988322C113D050145A6075C9D76748D1B43E9F03A8FB5F5BEA4B126D1FFC82238825A32671181521472C8AB8CFBDE0262481B5D8372075FB0B68AB61683965042C4FBE81193F44E9E82BA21DF837B0C4792524679816230EB01649FF98A526A87F72D8AEF55FE88E292BE9581084C7711A1B4CC22F81106
310
278F21AE5D07A61751681037B14FE20C8A32244B3E6493B3C5E4D93EA666E886C0C6463B42216C47192A7A506F05445D8F3835F8967A8F52B765564428CB4B36C850BC59D79B2CF9AE5A15D981FCAA5211CAC68AB025180684C93AAB56311B4C5D075670231DA8F691405941CD29EC95C4E3D7DEA429F76EC0AD9FBEED0619
310
147E3DDA6B46D4790583E5B15518884724E33B375CEBEBE80AEAEF042787545FD59ACD0A10105391BCE4C4AAE8EB0ACA1B5BA3B9E12D9262F3D164DDEAFA75E541F72318C31AA85DEA852B0574869944AA32B95537F4770421B845C38CAF544E3D85CA6592E8AA11D11BD2A7CE5619D1DA34235E7187599EC18F6D088B6999
310
E00D4AC47D742B69B4268A752BA597910AE31705FCEDE3BA030F8C0C10E98B2AF0F06367AD1D5DAA72E928117957665B860804C19668A9D18D57B0D46AA4D2727D55670AA8BBC0C0AC8AE7FF9F2C9AED88FF4F16A9358CEF3A595CED7F45FB665FA491CE6365D7271D03EAFCA4A8BCC53140B71D6AAA751631C9DCCA6F9D29
310
82A05845F9C1D55815340CC13E8EFF75D6EECB8266BB0EFFA7656DFF59C5715256694D565DAA2395EBAA99C3FCE962F661F16E329ACFAF2E47F3D9CC1F5D9E9F2D46371FCECE6F6EE6F3E5F4FCB246533B6A18D4C14CE72E783641AD1A564F1603E8CA8A9C92044EF389936288F912CEF403DAE73CC3029267B3D99DD8A6FC
310
80D50FA6CF29D196E28A933B040D622A20AD0346652CDBE3CE0FD09A9470D0BE70A169E4DDC39FB54AD781CC73E142AB4092180B6F0B6D26D5D0D3C421E5EADC6F89013E88A52A259A45F573BD4A61D30AFFF5942169C0CAD5EA6140E15640F7ABD5A1D0BC599EE29304AFD8719084DB6D29A15A33B21C066A61F43607F51B
310
D92861F776EB2770DD97C5F23D3DA785C8A04F062F1A81A13A9288A7BADFAD18B32C5D5E7F19439FCD59FDE614B44C4197C3298D3806632E5541055604566169164882A92E7FDE7CE1397CE2C91C5D15393F3EBD3FFB69B3CCB32C6766687309A7B2043E1439EB3BF8EC936CA078C0AAB92E36D3893FDDE8A6B6EDB3475B24
310
B0A7AA2218A88A092548C7E4C02E9F35A86CFB72AC54D199BEBA766C10856680B1A3673D5EF391CB011F529F5394C7683FAFA47DB1AF3DD653C1263874A4C37F00504B03041400060800000AA2E842000000000000000000000000350000006662782F30333043453834302D323637442D343031412D413442432D38444546
310
38354141353742382F76657274696365732E62696E504B03041400060808000AA2E842F270F1330600000004000000360000006662782F30333043453834302D323637442D343031412D413442432D3844454638354141353742382F747269616E676C65732E62696E636660600000504B03041400060800000AA2E8420000
310
00000000000000000000370000006662782F30333043453834302D323637442D343031412D413442432D3844454638354141353742382F617474726962757465732E62696E504B03041400060808000AA2E842D5987DFC8F00000041010000360000006662782F30333043453834302D323637442D343031412D413442432D
310
3844454638354141353742382F6469726563746F72792E786D6C858F410EC2201045AF4266AF15DDB800BA74E7C21B903225242D6328188F2FA5C4183471359997F9FF81E89FF3C41E1816475E02DF1F80A11FC8386F25A438EECEC07A250251FC3803E6F58C12560C4AD840E95E91C151A72936F496F35732D860FE635F62
310
C8F2DA16B505C545B74125BAA2FA9E05D7CC053D063734D5C7665FD55B6B8D15D5E9BFEAFD8490FFA45E504B03041400060808000AA2E84262A62A62FC000000A00100003B0000006662782F30333043453834302D323637442D343031412D413442432D3844454638354141353742382F7265736F75726365732F636F7265
310
2E786D6C8D504B6E833010BD0AF2B632D806128A8C23517A835EC0B227C44AB0913F558F5F13A8D4EEBA9919BD8FE6E9F1CBD7F2283EC107E3EC806849500156396DEC3CA014AFB843C54570EF5CFC254385950B0C688391E0B377693D20E56C041B336A9D860394214044857AE4634041DD6091A54C312BC2BD5CA5BACB19
310
4A5A663AEB040FD1E700C5FE649B4878082E790581573B2B784A461F1AA3F34F7335E091A0DDF4761E598DBBA96E7043F218497BC653CB68F77E9AC6E6B5E3D566163C9AE527A3F22023682418A13526674CBA0F467A7AEA1979216D5F135E6DF23FA6B4EA7F9A92B1B16647DCDD1672D61CE449085E6D7DE5F52C33EFAD5B
310
F10D504B010214000A00000800000AA2E8423DEE336E79000000790000001B00000000000000000000000000000000006175746F6465736B2D64657369676E2D7061636B6167652E786D6C504B010214001400060808000AA2E842D486FD9CA0000000F40000001300000000000000000000000000B20000005B436F6E7465
310
6E745F54797065735D2E786D6C504B010214001400060808000AA2E842BDC8E0DAE90000007C010000080000000000000000000000000083010000636F72652E786D6C504B010214001400060808000AA2E84255019EA25F0000007C000000070000000000000000000000000092020000636E782E786D6C504B0102140014
310
00060808000AA2E8422DF28BE066010000020300000C00000000000000000000000000160300006662782F636F72652E786D6C504B010214001400060808000AA2E842A1D20BEA7F0000009D0000000B00000000000000000000000000A60400006662782F636E782E786D6C504B010214001400060808000AA2E842E06A23
310
962B0100001502000031000000000000000000000000004E0500006662782F30333043453834302D323637442D343031412D413442432D3844454638354141353742382F636F72652E786D6C504B010214001400060808000AA2E842BD3446F855010000330300003000000000000000000000000000C80600006662782F30
310
333043453834302D323637442D343031412D413442432D3844454638354141353742382F636E782E786D6C504B010214001400060808000AA2E8422C87DD45640700009A1B000034000000000000000000000000006B0800006662782F30333043453834302D323637442D343031412D413442432D38444546383541413537
310
42382F6F626A656374732E786D6C504B010214001400060800000AA2E8420000000000000000000000003500000000000000000000000000211000006662782F30333043453834302D323637442D343031412D413442432D3844454638354141353742382F76657274696365732E62696E504B010214001400060808000AA2
310
E842F270F13306000000040000003600000000000000000000000000741000006662782F30333043453834302D323637442D343031412D413442432D3844454638354141353742382F747269616E676C65732E62696E504B010214001400060800000AA2E84200000000000000000000000037000000000000000000000000
310
00CE1000006662782F30333043453834302D323637442D343031412D413442432D3844454638354141353742382F617474726962757465732E62696E504B010214001400060808000AA2E842D5987DFC8F000000410100003600000000000000000000000000231100006662782F30333043453834302D323637442D343031
310
412D413442432D3844454638354141353742382F6469726563746F72792E786D6C504B010214001400060808000AA2E84262A62A62FC000000A00100003B00000000000000000000000000061200006662782F30333043453834302D323637442D343031412D413442432D3844454638354141353742382F7265736F757263
310
65732F636F72652E786D6C504B0506000000000E000E00800400005B1300000000
  0
XRECORD
  5
17
102
{ACAD_REACTORS
330
12
102
}
330
12
100
AcDbXrecord
280
     1
270
     1
271
     1
  0
XRECORD
  5
16
102
{ACAD_REACTORS
330
12
102
}
330
12
100
AcDbXrecord
280
     1
270
     1
271
     1
  0
XRECORD
  5
18
102
{ACAD_REACTORS
330
12
102
}
330
12
100
AcDbXrecord
280
     1
270
     1
271
     1
  0
XRECORD
  5
15
102
{ACAD_REACTORS
330
12
102
}
330
12
100
AcDbXrecord
280
     1
270
     1
271
     1
  0
XRECORD
  5
817
102
{ACAD_REACTORS
330
22
102
}
330
22
100
AcDbXrecord
280
     1
102
MATERIAL
148
0.0
149
0.0
149
0.0
 93
        0
 94
      127
282
     0
 72
     0
 77
     0
171
     0
175
     0
179
     0
273
     0
  0
XRECORD
  5
24
102
{ACAD_REACTORS
330
22
102
}
330
22
100
AcDbXrecord
280
     1
270
     1
271
     1
  0
XRECORD
  5
23
102
{ACAD_REACTORS
330
22
102
}
330
22
100
AcDbXrecord
280
     1
270
     1
271
     1
  0
XRECORD
  5
BA
102
{ACAD_REACTORS
330
22
102
}
330
22
100
AcDbXrecord
280
     1
 70
     1
 90
1959938040
 71
     1
  1
39009603-AE10-45D2-9069-BB5F7786B2F2
311
504B03040A000008000009A2E8423DEE336E79000000790000001B0000006175746F6465736B2D64657369676E2D7061636B6167652E786D6C3C3F786D6C2076657273696F6E3D22312E302220656E636F64696E673D227574662D3822203F3E3C666F726D6174733E3C666F726D61743E687474703A2F2F736368656D612E
311
6175746F6465736B2E636F6D2F64657369676E2D7061636B6167652F323030393C2F666F726D61743E3C2F666F726D6174733E504B030414000608080009A2E842D486FD9CA0000000F4000000130000005B436F6E74656E745F54797065735D2E786D6C7D8EC10E82300C865F65E91D8A1E8C310C0EEA1BF002731658846E
311
D98AC1B77784ABF1D8FE5FBFBF75BBCE937A534CCEB38643598122B6FEE978D0B0485F9C41B54DDD7D022595594E1A469170414C76A4D9A4D207E29CF43ECE46F218070CC6BECC4078ACAA135ACF422C856C0E68EA1BF5669944DDD7BCDE7B1F8E415D77AECB980613C2E4AC91FC167A2B244592486606FC29C8FD7F045B9A
311
EF7053A7E60B504B030414000608080009A2E84212A1BFE6EB0000007C01000008000000636F72652E786D6C8D90416EC3201045AF82665BE180491DDBC2444ED29CA01740401C94182C03558F5F9C3852BBEB6A467FFE9B197DBEFF1EEFE8CBCCC17AD7012D0820E394D7D60D1DA478C135A0BDE0B3F7F1970D9093A3E960
311
9141F061F6695A25E55D342E66D5796D56518660222075CF4D07415DCD280B996276845B314975938329E8ABCB704A56A3E711ABF33E7BB16606511DFABE3A1D19EED9C7016F8F15C57D7322B839F7E7665B12B223846F1658F068C7D77D351B198D065112CA30D961527F96A4A5554BEB37F2DEB20C2DF63F509AF43FA164
311
5D64E5FAEE130B20687EE431107CB36491CB23A85C97DCC40F504B030414000608080009A2E84255019EA25F0000007C00000007000000636E782E786D6C4DCB3B0E80201045D1AD90E915ED2CF8AC45050C11660C8261F98AB1B07AC9C97D42D718D865D3E909258CFD00CCE24AC6E326A164D74DC0B4128928FF32603847
311
2BA13128B1252AC747C6BAB984FC68F0B87FE8960A5C09FE86CFB69FBA01504B030414000608080009A2E842181AAE5767010000020300000C0000006662782F636F72652E786D6C8D52ED8E8230107C95A67F2F40010F3F526A50CF27B817A8A5724468493F888F7FCB87F1BC1863484A33B3B33B3B40B7D7B641BD34B6D6
311
2AC7714830924AE8B256558EBD3B072B8CB68C1AADDD9F328C146F658E0718335A19EDBB19125A39A91CA04A977206B9B5D261241AB8E4D88A1FD9F2907B0715F612765C5C7825C338041AEA18B5CE8001340D194ECCCEA72B8D269C51EFEB7266EB12A6D5E75A1ACCB25D5164877D1A14E9D72E58ECB33828D60712AC8FC5
311
71BD4808591242A341CCA8ABDB9B3B612477B2C42C21711A90654056DF09D9C4D9265E7D90CF4D0AA2A1FC41E4BBF24D91AF954B93D9EE24B398C5606424FE6D0B113964790F7E2246A32144788D093F060D8140C88E9F9ADB1E17807A299C360B604AEDEF54CF1B2F612A41E343A38985CE6303D8EC699FE4459FD73DE003
311
72558135EEE07AF26E984EA7A973149D3441EFAE4869D3F2E66E6EB2783FEF839ECA856EB479471DCDAB467398D1F0F7B25F504B030414000608080009A2E84258AEF9B47E0000009D0000000B0000006662782F636E782E786D6C4DCCDF0A83201C86E15B91DFB9EB8F3315D430D685C4B290990EA76397BF1A1DECE88387
311
8F57F69FCDA3B74D2F178382E65203B2E11E67175605252F9803EAB54C31E6BF1BA0306D56C1C1A0E59A62799E34DB652A3EEFEA5D789CD8B403EBB860989B8EE02B6523160DA7B8358218320EACA637A8B4AC7EA57D8FB0FE02504B030414000608080009A2E842515BC64E2C01000015020000310000006662782F313242
311
37363839372D384136332D343537452D393138352D3241393341334542373035442F636F72652E786D6C8D515B6EC32010BC8AC557AACA3698F81561A244CD0D7A0162488A1283C5A3CAF1BBD48ED4FEE58745B333B3A35DB67F4CF7EC5B39AFAD19102930CA9419ADD4E63AA0182E7987B23D67CEDAF0878632232635A004
311
23CEAECEC67985466B8232015063A55A41E1BD0A281BEFF019901FBFD4240A110330FCAD98C5781357559002DAC0E3CC070701B265487A1127D5B16DBABECDBB4343F36DDD9EF29E74755E1D7A7AA0A7638BEB0F562E42CE62D472956B0971F4452BF7AA49127316F4F48C3F3A258292885798D01CB739EE3E2BBC23CD8E74
311
EFB8DE51CCCA44FF278AB37C5114B509B45AE32E320F5959B9343893369EEFCF30EA315B17B2346FE3D5F886382E30EE70DF36B466E5C2850D8069B35D4D7DB00E36BCB99D814E80959C9B2D67653A1294DF0B424D07E53F504B030414000608080009A2E842D4EAD04C4E01000033030000300000006662782F3132423736
311
3839372D384136332D343537452D393138352D3241393341334542373035442F636E782E786D6CD593CD6E022114855F85B06DE64FAD351306932EFA045D74CBC055A90C4CF869EADBF7A268DDB8E8B21B3239F770CECD17866DBF2743BEC007EDEC40BBBAA504AC744ADBFD4053DC551B4AB69C79E7E29D8D122B26186896
311
29677BEFD25C24053B914C44D5687B2CA287E092971050CE37897152180C005B2514611A412950E466C4AF1D785C05C5F144E201C8DBEB0771E327C818589353386B720767F92C4D77264AA411210C34C8034CA216293A05E1582B1145DDD5D7AE073BFD26917CE15A99BC26B97CA0F9A4BC6C542347D6E090B3103DD22BA6
311
789A817231CF464B11117273365E3C9C256DE37A55BC1AC17B7477EBE56A8561E71967514F501CD28388A0285FB4DDB26A5FAA76F3BE68FB6EDD779BA7F6B95FB6ACC976CE46E74CB98431E0DD4CA4B3116CA4BC634D1E3FC2577C44698FAC9D3FFD01240228AD173AB78CFFCCA739BF6FC4E5F12FE03F504B030414000608
311
080009A2E842F6187DABA505000080100000340000006662782F31324237363839372D384136332D343537452D393138352D3241393341334542373035442F6F626A656374732E786D6CAD57DB6EDB3810FD1541FBB2FB605BB29D345E282A62BB298C226D51A3C53E1830288952B4A14481A25267BF7E0F45EAE6DAA977D1
311
17CBA286C39933672EF4DE1E32663D5351A63CBFB5DDB1635B340F7994E6C9AD5DC97874635B6F7D4F702E7B62B695938CDEDA6AD9F6BD44F0AA304B118D49C5E4D1EAFDF22FAB0C694E6D2B64A42C6FED327CA41919934AF288964FE38848324EE2C3D81D6BC1A1DA4490E2F148694104CD252CC57A0E2D9636CA1DBE3AF6
311
C4F726EABBEFA95F23353B2F35A9FD199E9FE6A52479F8C361476A66EE7CFD6E7AB5185DCDE7B3D1FC7AEA8E96F7CBF5C87D337356D7ABD5E2EEDD020797524093B144D0D8F6DF031B9186DE447FF2BD2ACDE56C6A444C8026823EA72A52B63FB55C6FA2655AEF8C93A7CC0F799ED3B0C60A68D4FE19D5112D681E21E6292D
311
61590F2167F8EA2A1C7B9F67EADD1CD95FBE0C81FE8E9EA2C6F6E6D9B794077FC385F2120689922A066A2C8DA39AAB4E8770C03933DFD2D2CA88A42225CC6269208878B17D882A11DF1BA8514C162A1B9407B68F28E8CF43BA208D7ECEF35356C615638AC6B65F67C11EB94265595B96FE4345677D1F19D884582936DC1887
311
E44B416D7FA1297273C4260DA415339220E47053ED9C4D8F1C5DA93CDDAC6DFFC37D70D8AADC3D7D782178418554F401B59AC0354F8592B1C9BD28726A837D644A07CA1720FF11A9DE9982B889F4303FCCCD295290BC8CB9C8101BCBB1460E7E1CCBAD7FD5FFDE3F6FD26E1E46EF1C9E08B682EA17E039F4A11FCB1E9CBEF7
311
0CC2733133AE6D43C250361ED21C002992588C630975380E0EB6BF41954355C62EC27C172EC3DC67FCF526460D0A457D52EF9903CBA3B2784181066C3523618626BF31B08BD30FE5AC3ED8889D83F7EA97D0F56EBDFDB0AD444C42FA60727A4DE3344F255A5CC79BBE4103CC071E3DD197EF5C4470F447BCB77DBC33735409
311
B415E60AF8A4A9E9EAA53B797040887D0957E5C6FBC909704235D69EFE87B40C296324A7BC6ACE7DB57FA06D688855B22B26B70DA66B2C208DFE72948368D2A1480B0562DBADDAA2393EE3DDD7CD473012F28C0784754241577A43CEB8D8072F7B5D954E22FD6D486D03C1446901DBEB1C69D2DF60BE8FD238AE4AD4C013B0
311
7EDBACFAA153550115A2D1AA93650EF7915B4418CE367AD1AC054123E5F93E45DB44DA9D3CA0AF1F881A02D40ACF595C5216EF53C6AA6C1FA70CCD689F91E20C1CFFDFFEA0CA8A3DC97895CB33BA07A6A3390C6D1F90B7FC4E64F868FBDBFA395AA2F44634EAC23C1056ADE4045683D0CE168EB3B87666A3BB77AE339A5FAD
311
A7A38573BD182D9757F76FDEDC5C2FA7F7D3264E5AB9EF359DA69FD088123A9B5789D484EFEB06E9636A80ED3F1059EEDEEBEC6C9E5F37638CC2DE047BD02EDB8D77D133C63E1AFD5C41277952D1262B18CD682E894AA107F5877D21183306C6E8F54D46127A81964FEFB747CE60E5827D9F55BAD3EF477BCDEA4A25E44925
311
F2B1CA829CA4EC6863A2911C177962F06B62D23E759F695ED59B090C06D392B33442198CAC84F28C4A14C30B7A90C86809EAF547FAC85C3D2ED8FDAC07444902461B4B1E09666456222D40AD2A94C375EB37CC746AACBAB5D16DC74FF83195C2B6C0995B1B33BA4C435A8E03F4673509D5CAC1A5FE208FB99FE409C3A8AD37
311
B5EFED2E85CDA023B722978C4FC62F5DC18D03282305C606CC43884E6D8CEFD5B699EFE17F72BC31C722127F834AB6BE740BAD33F5314851ED94B92C60867932471F90A8AFBBE58E6B990122175DB25E2581D63A924424F54541D9674CBA5B7F9E6040B1369FAC8255096279B9A691A02073A5121C2C022B8CCE82485075F5
311
E7EEB3E0B8C866D67D0A0A58BF1F6EAEFFD8AD7896F15C2FEDEECC75D8DA3EE2721BED501CA8BA9594BBA9E34E77F56DC05C50F60129E99844E51316105991B6400FC20F5EEA2B23FA90FED0CA4D54288E18BA595BA6B1CDA1D4D0A55F5B1538983B726A2187D48D52654C5FA078F54230A9456182C028EFFF0B504B030414
311
000608000009A2E842000000000000000000000000350000006662782F31324237363839372D384136332D343537452D393138352D3241393341334542373035442F76657274696365732E62696E504B030414000608080009A2E842F270F1330600000004000000360000006662782F31324237363839372D384136332D34
311
3537452D393138352D3241393341334542373035442F747269616E676C65732E62696E636660600000504B030414000608000009A2E842000000000000000000000000370000006662782F31324237363839372D384136332D343537452D393138352D3241393341334542373035442F617474726962757465732E62696E50
311
4B030414000608080009A2E842D5987DFC8F00000041010000360000006662782F31324237363839372D384136332D343537452D393138352D3241393341334542373035442F6469726563746F72792E786D6C858F410EC2201045AF4266AF15DDB800BA74E7C21B903225242D6328188F2FA5C4183471359997F9FF81E89F
311
F3C41E1816475E02DF1F80A11FC8386F25A438EECEC07A250251FC3803E6F58C12560C4AD840E95E91C151A72936F496F35732D860FE635F62C8F2DA16B505C545B74125BAA2FA9E05D7CC053D063734D5C7665FD55B6B8D15D5E9BFEAFD8490FFA45E504B030414000608080009A2E842010A917EFE000000A00100003B00
311
00006662782F31324237363839372D384136332D343537452D393138352D3241393341334542373035442F7265736F75726365732F636F72652E786D6C8D504B6E833010BD0A9A6D65B0212501194724694ED00B586642AD041BF953F5F835814AEDAE9B99D1FB689E1E3F7E4D8FEC139DD7D674C0720A191A65076DC60E62
311
B891036447C19DB5E1970C322327EC608141F0D1D9386F90B226A009093576C00D94DE63804C3DD2D181571F38C95CC69014FE9ECF52DDE58839CB139D7482FBE052806C7DB24C100EBD8D4EA1E7C5CA0A1EA31E368D1ED24F7DD3E840D4A7BEAF2FE792F4D5DB89ECCE35237D73A1A4B9F6D7665752BAA794178B59F0A0A7
311
9F8CCAA10C38802829AB08DD137A782F69CBEA961D5EE86B5B25D322FF638AF3F04F53D42654E51677B579102C05791282174B5F693DCB4C7BE9567C03504B010214000A000008000009A2E8423DEE336E79000000790000001B00000000000000000000000000000000006175746F6465736B2D64657369676E2D7061636B
311
6167652E786D6C504B0102140014000608080009A2E842D486FD9CA0000000F40000001300000000000000000000000000B20000005B436F6E74656E745F54797065735D2E786D6C504B0102140014000608080009A2E84212A1BFE6EB0000007C010000080000000000000000000000000083010000636F72652E786D6C50
311
4B0102140014000608080009A2E84255019EA25F0000007C000000070000000000000000000000000094020000636E782E786D6C504B0102140014000608080009A2E842181AAE5767010000020300000C00000000000000000000000000180300006662782F636F72652E786D6C504B0102140014000608080009A2E84258
311
AEF9B47E0000009D0000000B00000000000000000000000000A90400006662782F636E782E786D6C504B0102140014000608080009A2E842515BC64E2C010000150200003100000000000000000000000000500500006662782F31324237363839372D384136332D343537452D393138352D3241393341334542373035442F
311
636F72652E786D6C504B0102140014000608080009A2E842D4EAD04C4E010000330300003000000000000000000000000000CB0600006662782F31324237363839372D384136332D343537452D393138352D3241393341334542373035442F636E782E786D6C504B0102140014000608080009A2E842F6187DABA505000080
311
1000003400000000000000000000000000670800006662782F31324237363839372D384136332D343537452D393138352D3241393341334542373035442F6F626A656374732E786D6C504B0102140014000608000009A2E84200000000000000000000000035000000000000000000000000005E0E00006662782F31324237
311
363839372D384136332D343537452D393138352D3241393341334542373035442F76657274696365732E62696E504B0102140014000608080009A2E842F270F13306000000040000003600000000000000000000000000B10E00006662782F31324237363839372D384136332D343537452D393138352D3241393341334542
311
373035442F747269616E676C65732E62696E504B0102140014000608000009A2E84200000000000000000000000037000000000000000000000000000B0F00006662782F31324237363839372D384136332D343537452D393138352D3241393341334542373035442F617474726962757465732E62696E504B010214001400
311
0608080009A2E842D5987DFC8F000000410100003600000000000000000000000000600F00006662782F31324237363839372D384136332D343537452D393138352D3241393341334542373035442F6469726563746F72792E786D6C504B0102140014000608080009A2E842010A917EFE000000A00100003B000000000000
311
00000000000000431000006662782F31324237363839372D384136332D343537452D393138352D3241393341334542373035442F7265736F75726365732F636F72652E786D6C504B0506000000000E000E00800400009A1100000000
310
504B03040A000008000009A2E8423DEE336E79000000790000001B0000006175746F6465736B2D64657369676E2D7061636B6167652E786D6C3C3F786D6C2076657273696F6E3D22312E302220656E636F64696E673D227574662D3822203F3E3C666F726D6174733E3C666F726D61743E687474703A2F2F736368656D612E
310
6175746F6465736B2E636F6D2F64657369676E2D7061636B6167652F323030393C2F666F726D61743E3C2F666F726D6174733E504B030414000608080009A2E842D486FD9CA0000000F4000000130000005B436F6E74656E745F54797065735D2E786D6C7D8EC10E82300C865F65E91D8A1E8C310C0EEA1BF002731658846E
310
D98AC1B77784ABF1D8FE5FBFBF75BBCE937A534CCEB38643598122B6FEE978D0B0485F9C41B54DDD7D022595594E1A469170414C76A4D9A4D207E29CF43ECE46F218070CC6BECC4078ACAA135ACF422C856C0E68EA1BF5669944DDD7BCDE7B1F8E415D77AECB980613C2E4AC91FC167A2B244592486606FC29C8FD7F045B9A
310
EF7053A7E60B504B030414000608080009A2E8425A23E745E90000007C01000008000000636F72652E786D6C8D90416EC3201045AF82665B6183ED34C4C244559C9CA01740401C94182C03558F5FEC3852BBEB6A86CF7F33A3CF8FDFE3037D993958EF3AA00501649CF2DABAA18314AF98013A0A3E7B1F7FD90039399A0E16
310
19041F669FA64D52DE45E362569DD7661365082602528FDC7410D4CD8CB290296647B817935477399882BEBA0CA764357A2EB13ACFB3576B66107D756194F5177C687A869B0339E18F7AB73EC9F9DCB0FDE952F37281058F767CED57B391D1681015A135267B4CD867455AFADE52F646766D4D78B9D8FF4069D2FF849275B1
310
AEB6739F580041F321EB87E0E592452E6B50B92EB9891F504B030414000608080009A2E84255019EA25F0000007C00000007000000636E782E786D6C4DCB3B0E80201045D1AD90E915ED2CF8AC45050C11660C8261F98AB1B07AC9C97D42D718D865D3E909258CFD00CCE24AC6E326A164D74DC0B4128928FF326038472BA1
310
3128B1252AC747C6BAB984FC68F0B87FE8960A5C09FE86CFB69FBA01504B030414000608080009A2E8429AB1A1CA66010000020300000C0000006662782F636F72652E786D6C8D525B6E833010BC8AE5DF0A6C1E6948641C55799CA017708C4351C046C646397E9747445345518404666767677680ED6E4D8D7A65BBCAE81C
310
4721C54869698A4A9739F6EE126418ED38B3C6B83F6D1869D1A81C0F65CC59698D6FE79234DA29EDA0AA4DA1E6A2E83AE53092351C72DCC91FD5885078071DDD356C85BC8A5285510830F471D6390B06D02432DC31BF9C6F8C4C75CEBCAF8A19AD0A50AB2E95B2981FE25316658753B0490F59906EE83EF84A56E32B3D1ED3
310
6CBD3F258C0C64CE5CD5DCDD49AB845305E6318D9280AE039A7DC7741B7D6EA3EC83AEB6096564687F20F9B67893E42BED9278B63BD13ACC23303202FFB685881CEA440F7E08676408111E63C28F41432010B213E7FABEC7154ABD92CED81490C2F805EA45ED15A852345E8C4C284C1E07C0664FE7C42FE6BC9E011F50E812
310
AC0907C7B377833A9B54E7285A6583DEDD9036B611F5626EB2B8DC17A1A774696A63DF6193795532874986BF97FF02504B030414000608080009A2E8423037D0537E0000009D0000000B0000006662782F636E782E786D6C4DCCD10E82201886E15B61FF392994881BE082BC1097E858088DA075F969F3A0A36F7BF6ED15FD
310
67F5E86DD3CBC520819C6A4036DCE3E4C222A1E4197340BD1229C6FC770314C6D54AD8199458522CCF83263B8FC5E74DBD0B8F033BCDCC70EE38A6A4A5F8624C8D39250DD6CD75607A602DBF11A894A87EA56DF7B0FA02504B030414000608080009A2E8424BB477A32B01000015020000310000006662782F394236434533
310
39382D323137322D344343302D383231352D4235414536424536373844312F636F72652E786D6C8D515B6EC32010BC0AE22B556507ECC42111266AD2DCA017A0405294182C1E558EDFA576A4F62F3F2C9A9D991D58BEBF0F37F46D42B4DEF598D60423E394D7D65D7A9CD3B96218ED050FDEA73F348C9C1C4C8F0B8C05BF04
310
9FC71952DE25E312A0CE6B3383324693305237B8F438AA2F33C85AE6048C78AD47A9AEF2626A5A431B7882C71420009A8694138BEDA13B9EDA2DAB1ABA69AAD5F1482AD6D0757558BF9DBAC3A9DBB077CA979350F09CAD9EE556431C7BB6263C6B52C482273B3CE2AB6064321A8B86D0B6229B8AB08F86EC68B7A3EC95AC77
310
2DE1CB42FF27CAA37E5294AD4B6D33C79D64110B78CDD4105CFBFC797B8431F7D18784CABC4534EA050B5213C218446B413371E107C0B45BCDA631F9003FBCB87E02BDB08A73B7127C599604E5778350CB42C50F504B030414000608080009A2E842B24D1F5B5601000033030000300000006662782F39423643453339382D
310
323137322D344343302D383231352D4235414536424536373844312F636E782E786D6CBD93CD6EC32010845F0571ADFC17A7AE156122F5D027E8A1570C9B86068305B86ADEBE4B42D25C72A854F582ACD96166F509B3EDD764C827F8A09D1D6853D69480954E69FB3ED025EE8A9E922D67DEB97863A3C48A09069A64CAD9BB
310
77CB9C25053BB19888AAD1F690450FC12D5E424039DD24C6496130006CB1A008D3084A812257237EEDC0E32A288E4712F7405E9EDF881B3F40C6C0AA94C259953A384B676EBA3151228D0861A041EE6112A558A253100EA51251944D79E9BAB3D34F1249172E958BD724950F349D94E78D4AE4C82A1C7216A2477AD9148F33
310
502EE6D968292242AE4EC6B387B345DBD8ADB35723788FEE76D5F53D869D669C453D4176480F2282A27C55376D513F1575FFBAAA374DB769FA87FA71D3D6AC4A76CE46E74CBE8431E0DD4CA4B3116CA4BC61551ADFC3977D44698FAC9D3FFE022402C8AD673AD78CBFE4D374ED7AFD8F7CAAD3FB465C1EFF02FE0D504B0304
310
14000608080009A2E8420BC4E08F61070000991B0000340000006662782F39423643453339382D323137322D344343302D383231352D4235414536424536373844312F6F626A656374732E786D6CED595B73A33614FE2B0C7D691F8CC176B27187D0C965B3E3D9C9EE4EDDEDF4C1338C0C3251230423895CFAEB7B74010331
310
096ED3B73ED880908ECEF9CE5587F097A79C3A0F980B52B07337F07CD7C12C2952C2B273B792BBC999EBFC1285BC28646B9AEB3094E373570DBB5198F1A22AED508A77A8A2B2377A73F9872312CCB0EB24140971EE8AE40EE7C843952C522CEEBD1449E465BB272FF0CCC42ED98CA3F2AE47B4441C33099CC238032A8E612A
310
E83EFAEE340AA7EA7D14AA7F3B6B3E6AD66278D6544BDDE5923021114B5EB0D423331FC5D23C585C7F9C9D2C27278BC57CB2389D0593CB9BCBEB49F061EE5F9D5E5D2D2F3E2E81BD6D51502B538A4BCC52D0DFB31B05E154BD6944B7081CE23A2918C3890612A0D262F509122C60AB167C7EF7315012B55E6B095BCF0BF5DE
310
B2D01A9E77A90CCD1A0744872E0862B7AB25AEAF6DF98AED9F20B81863945C6009DC0AC941BB161E0E5EE1467E3835A351B8DDEB82082747127382A843C996230E4A81A96A4A149A05968C720E0EA41C2581D69C79DDB52DF0CCB75DE71097BB8A52E5196EA41D2B06F7C35268CEC85F98EFB96F23033C81B41561F2CC7229
310
9F4BEC46CB70AA07A3505DE633FBD200E9EC28CA8446C4BCED097AA55C7F75ED469F6FB64F6B150E0E6F5EF2A2C45C2AA3537AD47C8121DBAB42C96E1B8CD29C5A00C21850EDCA3D28BF02F25F207AEC5901BD71F2B4785AD8B99223267605CF41378EEF4C7CF8F39D40FFABFBD65D386D1677B5378427B8A982EAECDFE3D9
310
95416365F96FC119850F60F0059FDB57EB0451B0E75BC2002065240E2D600842FB6EFBE4462B089C10E86115A251002203BB0F701B4E2D99BD566AF7B25EC70051BBC77C8C9200366D91C0C6809E3E41F6E024D9ABA92DE210BC27EF62AE17D7EBCFEB8AEF50826FAD4F5FE31D614442D63CCC5007F38E44F7F8F9B1E02908
310
FA12EF751BEFDC6E25006D85B9023EAB41500FFB9D3B1B24B02E2B54B809DFD8018450B9BA45FF968804538A182EAA7ADF26BA29436D3CDED60C6E343310CF673D13E6F881A8AA029C663FA3C328E4FD84935281E8469F8C644DD0F406A4FBBEFA0216D9CC1F98B562107A19A2BFE9A07500878E65D7485B201A81B7FB709E
310
14B4E0F1F6393691CE855A02D8E87ACBEF1DA210EB8D921415F020ED777548C98CB4714A76BB4A405C3DC0E2EFABABB639F8DE3C3871DAFF3D675C40B405DF45DCFA5D6F8F98E428C3F10EA543DBB5776B680B4D728034C73B0A729107229F6324633FC5D931D01C457CF9AED4335A0841181690AF0E82DF46C3F72090186D
310
D62C2BADF6802622CEB144F418041499017075DAD1356E02A5C3DB3C36D6FB9AC6DA44FF238BE0086AC982C5044A51C8216F321E78271043BAE81A947BF882B5D5B4B518B4821222798E1F31C9EEE431A81BF203B8277024A9645C942801B31E41F685AF28A5F678DFA2E45EE58F38A9E87B1988C07417134AAB3C861F6170
310
F218E3DA4D607A1585167113FB24CEA12843B2E26336393DF15FEC636A867E086C6DB42314C2769CA37200F54E40D4F588D3806FA90F28755BE5658CF2A262A30CC59BF7BDC992EFAB55911DC9AF2A15A16CAC095B825148986CB26A1DB3C1D475600537D281EA3916282FA93985BD917882C69B34E5C10DB8F5D3F7DD2087
310
C26F407BED88BAA861B03C760A03F1886472E7466B7D9D5C42FD9DE2749FEAEB5AB35D0102622A92579C58157D5F4179636B3437BA45526C3E99AC5B5FBFAF3CE87E84535803B54BB370A580CE3193485526B7EA86FE8A2004776898F195CAA9C750B948535D35227A4386D4D929233A9BE6C42BEF302B72F8B10D6109AD52
310
BC41A9B88F6F258DD744B16EA5F4725263FCAA805F3FAD7BF0C0C80891BEA9020F3FF6D6DAD12B552E1D2422EFAA7CCB108120D8112D33BAF14A96598DD45A6EAEEA4C017517189855F1E2FF9345BB1DF1FFC922B386F1EF4E16B4D822BA8F36AD6C9E28B33EEA14D0A42745E53D4E01BAEBD0506D9288C9E5567CEB4B31C4
310
C43AC88F2EC6EA9861080E71FC8F93F6501234DBF5F83F2E69072F0A8EA3924A67B26A521D285C57ED14365FFAFEF2D49F4F2E3E06FE6471723D9B2CFDD3E5E4F2F2E4E6C387B3D3CBD94D93890DF1286C62994E5DF06C625A3DAC9E2C06D094150525291CE65327C310F2251CE94774CF798E05E4CE76AF3BB53DF911AB1F
310
4C9B53A22DC535277708FAC35440560731AA4476C79D1FA03329E19C7DEE42CFC8BB873F6B95AE0389E7DC854E81240916DE16BA4CAA9FA78943C6D5A9DF1283388658A632A259D43C37AB14369DE8DF4C199305AC5C9D1606D46D2534BF3A0D0ACD9BE529394AF09A1D0749B8DD56128A3523CB7EA011466FB357BF918D12
310
766FB77E02D77D5DACC0D3733A888CFA62F0AA1118AA138978A6DBDD8A31CBD2C5F5B729B4D99CD557A7A45506BA1C4F69C2311873A5EA29B022B00A4BB344124CF5EAE7CD375EC0179EDCD14591F3E3D3D9E94F9BAB22CF0B6686361770284BE13B91B3BE83AF3EE9066A07AC7AEB6233F383D946F7B46D9B3DDE22813D55
310
14C1405D4B28417A260776F9A23F65BB9753A58ADEF4D5B5638328F4028C1DBD68F19A6F5C0EF890FA9AA23C46FB792DEDAB6DEDA99E0A36C1A1211DFD0D504B030414000608000009A2E842000000000000000000000000350000006662782F39423643453339382D323137322D344343302D383231352D42354145364245
310
36373844312F76657274696365732E62696E504B030414000608080009A2E842F270F1330600000004000000360000006662782F39423643453339382D323137322D344343302D383231352D4235414536424536373844312F747269616E676C65732E62696E636660600000504B030414000608000009A2E8420000000000
310
00000000000000370000006662782F39423643453339382D323137322D344343302D383231352D4235414536424536373844312F617474726962757465732E62696E504B030414000608080009A2E842D5987DFC8F00000041010000360000006662782F39423643453339382D323137322D344343302D383231352D423541
310
4536424536373844312F6469726563746F72792E786D6C858F410EC2201045AF4266AF15DDB800BA74E7C21B903225242D6328188F2FA5C4183471359997F9FF81E89FF3C41E1816475E02DF1F80A11FC8386F25A438EECEC07A250251FC3803E6F58C12560C4AD840E95E91C151A72936F496F35732D860FE635F62C8F2DA
310
16B505C545B74125BAA2FA9E05D7CC053D063734D5C7665FD55B6B8D15D5E9BFEAFD8490FFA45E504B030414000608080009A2E84232C9BA74FD000000A00100003B0000006662782F39423643453339382D323137322D344343302D383231352D4235414536424536373844312F7265736F75726365732F636F72652E786D
310
6C8D504B6EC32010BD8A35DB0A1BECA4211626AAE2E404BD00C213172586884FD5E31712576A77DD30CCFB689E9E387C2DB7EA137D30CE0EC06A0A155AED2663E70152BC100ED5410AEF5CFC2583CAAA0507283048317B97EE2BA49D8D686346AD9B7005550818A1D2B7FC1920E80F5C54AD52CC8A70ADEF4A5FD58C35AB33
310
9D755284E87380EA79A4BC203D0697BCC6209A272B454A665A3566CA37CDC5A00739B667CEF87822FBCDC8C9664F8FE4ADDB9ECB4A4FA70DDF1DCF9D688A598A68969F8CDAA38A38816C29EB08DD11CADF5BDAB3D79EF117BAED3B2A9A22FF634AF7E99FA6646CECDA35EED31640B21CE44148D194BEF278949967E9567E03
310
504B010214000A000008000009A2E8423DEE336E79000000790000001B00000000000000000000000000000000006175746F6465736B2D64657369676E2D7061636B6167652E786D6C504B0102140014000608080009A2E842D486FD9CA0000000F40000001300000000000000000000000000B20000005B436F6E74656E74
310
5F54797065735D2E786D6C504B0102140014000608080009A2E8425A23E745E90000007C010000080000000000000000000000000083010000636F72652E786D6C504B0102140014000608080009A2E84255019EA25F0000007C000000070000000000000000000000000092020000636E782E786D6C504B01021400140006
310
08080009A2E8429AB1A1CA66010000020300000C00000000000000000000000000160300006662782F636F72652E786D6C504B0102140014000608080009A2E8423037D0537E0000009D0000000B00000000000000000000000000A60400006662782F636E782E786D6C504B0102140014000608080009A2E8424BB477A32B
310
0100001502000031000000000000000000000000004D0500006662782F39423643453339382D323137322D344343302D383231352D4235414536424536373844312F636F72652E786D6C504B0102140014000608080009A2E842B24D1F5B56010000330300003000000000000000000000000000C70600006662782F394236
310
43453339382D323137322D344343302D383231352D4235414536424536373844312F636E782E786D6C504B0102140014000608080009A2E8420BC4E08F61070000991B000034000000000000000000000000006B0800006662782F39423643453339382D323137322D344343302D383231352D423541453642453637384431
310
2F6F626A656374732E786D6C504B0102140014000608000009A2E84200000000000000000000000035000000000000000000000000001E1000006662782F39423643453339382D323137322D344343302D383231352D4235414536424536373844312F76657274696365732E62696E504B0102140014000608080009A2E842
310
F270F13306000000040000003600000000000000000000000000711000006662782F39423643453339382D323137322D344343302D383231352D4235414536424536373844312F747269616E676C65732E62696E504B0102140014000608000009A2E8420000000000000000000000003700000000000000000000000000CB
310
1000006662782F39423643453339382D323137322D344343302D383231352D4235414536424536373844312F617474726962757465732E62696E504B0102140014000608080009A2E842D5987DFC8F000000410100003600000000000000000000000000201100006662782F39423643453339382D323137322D344343302D
310
383231352D4235414536424536373844312F6469726563746F72792E786D6C504B0102140014000608080009A2E84232C9BA74FD000000A00100003B00000000000000000000000000031200006662782F39423643453339382D323137322D344343302D383231352D4235414536424536373844312F7265736F7572636573
310
2F636F72652E786D6C504B0506000000000E000E0080040000591300000000
  0
XRECORD
  5
27
102
{ACAD_REACTORS
330
22
102
}
330
22
100
AcDbXrecord
280
     1
270
     1
271
     1
  0
XRECORD
  5
26
102
{ACAD_REACTORS
330
22
102
}
330
22
100
AcDbXrecord
280
     1
270
     1
271
     1
  0
XRECORD
  5
28
102
{ACAD_REACTORS
330
22
102
}
330
22
100
AcDbXrecord
280
     1
270
     1
271
     1
  0
XRECORD
  5
25
102
{ACAD_REACTORS
330
22
102
}
330
22
100
AcDbXrecord
280
     1
270
     1
271
     1
  0
XRECORD
  5
811
102
{ACAD_REACTORS
330
810
102
}
330
810
100
AcDbXrecord
280
     1
102
ACAD_ROUNDTRIP_2012_MLEADER_STYLE
298
     1
  0
CELLSTYLEMAP
  5
80F
102
{ACAD_REACTORS
330
80E
102
}
330
80E
100
AcDbCellStyleMap
 90
        3
300
CELLSTYLE
  1
TABLEFORMAT_BEGIN
 90
        5
170
     1
 91
        0
 92
    32768
 62
   257
 93
        1
300
CONTENTFORMAT
  1
CONTENTFORMAT_BEGIN
 90
        0
 91
        0
 92
      512
 93
        0
300

 40
0.0
140
1.0
 94
        5
 62
     0
340
55
144
0.25
309
CONTENTFORMAT_END
171
     0
 94
        0
309
TABLEFORMAT_END
  1
CELLSTYLE_BEGIN
 90
        1
 91
        1
300
_TITLE
309
CELLSTYLE_END
300
CELLSTYLE
  1
TABLEFORMAT_BEGIN
 90
        5
170
     1
 91
        0
 92
        0
 62
   257
 93
        1
300
CONTENTFORMAT
  1
CONTENTFORMAT_BEGIN
 90
        0
 91
        0
 92
      512
 93
        0
300

 40
0.0
140
1.0
 94
        5
 62
     0
340
55
144
0.18
309
CONTENTFORMAT_END
171
     0
 94
        0
309
TABLEFORMAT_END
  1
CELLSTYLE_BEGIN
 90
        2
 91
        1
300
_HEADER
309
CELLSTYLE_END
300
CELLSTYLE
  1
TABLEFORMAT_BEGIN
 90
        5
170
     1
 91
        0
 92
        0
 62
   257
 93
        1
300
CONTENTFORMAT
  1
CONTENTFORMAT_BEGIN
 90
        0
 91
        0
 92
      512
 93
        0
300

 40
0.0
140
1.0
 94
        2
 62
     0
340
55
144
0.18
309
CONTENTFORMAT_END
171
     0
 94
        0
309
TABLEFORMAT_END
  1
CELLSTYLE_BEGIN
 90
        3
 91
        2
300
_DATA
309
CELLSTYLE_END
  0
XRECORD
  5
848
102
{ACAD_REACTORS
330
80E
102
}
330
80E
100
AcDbXrecord
280
     1
102
ACAD_ROUNDTRIP_PRE2007_TABLESTYLE
 90
      512
 91
        0
  1

 92
      512
 93
        0
  2

 94
      512
 95
        0
  3

  0
XRECORD
  5
823
102
{ACAD_REACTORS
330
822
102
}
330
822
100
AcDbXrecord
280
     1
102
RTVSPropertyOp0
 70
     1
102
RTVSPropertyOp1
 70
     1
102
RTVSPropertyOp2
 70
     1
102
RTVSPropertyOp3
 70
     1
102
RTVSPropertyOp4
 70
     1
102
RTVSPropertyOp5
 70
     1
102
RTVSPropertyOp6
 70
     1
102
RTVSPropertyOp7
 70
     1
102
RTVSPropertyOp8
 70
     1
102
RTVSPropertyOp9
 70
     1
102
RTVSPropertyOp10
 70
     1
102
RTVSPropertyOp11
 70
     1
102
RTVSPropertyOp12
 70
     1
102
RTVSPropertyOp13
 70
     1
102
RTVSPropertyOp14
 70
     1
102
RTVSPropertyOp15
 70
     1
102
RTVSPropertyOp16
 70
     1
102
RTVSPropertyOp17
 70
     1
102
RTVSPropertyOp18
 70
     1
102
RTVSPropertyOp19
 70
     1
102
RTVSPropertyOp20
 70
     1
102
RTVSPropertyOp21
 70
     1
102
RTVSPropertyOp22
 70
     1
102
RTVSPropertyOp23
 70
     1
102
RTVSPropertyOp24
 70
     1
102
RTVSPropertyOp25
 70
     1
102
RTVSPropertyOp26
 70
     1
102
RTVSPropertyOp27
 70
     1
102
RTVSPropertyOp28
 70
     1
102
RTVSPropertyOp29
 70
     1
102
RTVSPropertyOp30
 70
     1
102
RTVSPropertyOp31
 70
     1
102
RTVSPropertyOp32
 70
     1
  0
XRECORD
  5
821
102
{ACAD_REACTORS
330
820
102
}
330
820
100
AcDbXrecord
280
     1
102
RTVSPropertyOp0
 70
     1
102
RTVSPropertyOp1
 70
     1
102
RTVSPropertyOp2
 70
     1
102
RTVSPropertyOp3
 70
     1
102
RTVSPropertyOp4
 70
     1
102
RTVSPropertyOp5
 70
     1
102
RTVSPropertyOp6
 70
     1
102
RTVSPropertyOp7
 70
     1
102
RTVSPropertyOp8
 70
     1
102
RTVSPropertyOp9
 70
     1
102
RTVSPropertyOp10
 70
     1
102
RTVSPropertyOp11
 70
     1
102
RTVSPropertyOp12
 70
     1
102
RTVSPropertyOp13
 70
     1
102
RTVSPropertyOp14
 70
     1
102
RTVSPropertyOp15
 70
     1
102
RTVSPropertyOp16
 70
     1
102
RTVSPropertyOp17
 70
     1
102
RTVSPropertyOp18
 70
     1
102
RTVSPropertyOp19
 70
     1
102
RTVSPropertyOp20
 70
     1
102
RTVSPropertyOp21
 70
     1
102
RTVSPropertyOp22
 70
     1
102
RTVSPropertyOp23
 70
     1
102
RTVSPropertyOp24
 70
     1
102
RTVSPropertyOp25
 70
     1
102
RTVSPropertyOp26
 70
     1
102
RTVSPropertyOp27
 70
     1
102
RTVSPropertyOp28
 70
     1
102
RTVSPropertyOp29
 70
     1
102
RTVSPropertyOp30
 70
     1
102
RTVSPropertyOp31
 70
     1
102
RTVSPropertyOp32
 70
     1
  0
XRECORD
  5
82F
102
{ACAD_REACTORS
330
82E
102
}
330
82E
100
AcDbXrecord
280
     1
102
RTVSPropertyOp0
 70
     1
102
RTVSPropertyOp1
 70
     1
102
RTVSPropertyOp2
 70
     1
102
RTVSPropertyOp3
 70
     1
102
RTVSPropertyOp4
 70
     1
102
RTVSPropertyOp5
 70
     1
102
RTVSPropertyOp6
 70
     1
102
RTVSPropertyOp7
 70
     1
102
RTVSPropertyOp8
 70
     1
102
RTVSPropertyOp9
 70
     1
102
RTVSPropertyOp10
 70
     1
102
RTVSPropertyOp11
 70
     1
102
RTVSPropertyOp12
 70
     1
102
RTVSPropertyOp13
 70
     1
102
RTVSPropertyOp14
 70
     1
102
RTVSPropertyOp15
 70
     1
102
RTVSPropertyOp16
 70
     1
102
RTVSPropertyOp17
 70
     1
102
RTVSPropertyOp18
 70
     1
102
RTVSPropertyOp19
 70
     1
102
RTVSPropertyOp20
 70
     1
102
RTVSPropertyOp21
 70
     1
102
RTVSPropertyOp22
 70
     1
102
RTVSPropertyOp23
 70
     1
102
RTVSPropertyOp24
 70
     1
102
RTVSPropertyOp25
 70
     1
102
RTVSPropertyOp26
 70
     1
102
RTVSPropertyOp27
 70
     1
102
RTVSPropertyOp28
 70
     1
102
RTVSPropertyOp29
 70
     1
102
RTVSPropertyOp30
 70
     1
102
RTVSPropertyOp31
 70
     1
102
RTVSPropertyOp32
 70
     1
  0
XRECORD
  5
837
102
{ACAD_REACTORS
330
836
102
}
330
836
100
AcDbXrecord
280
     1
102
RTVSPropertyOp0
 70
     1
102
RTVSPropertyOp1
 70
     1
102
RTVSPropertyOp2
 70
     1
102
RTVSPropertyOp3
 70
     1
102
RTVSPropertyOp4
 70
     1
102
RTVSPropertyOp5
 70
     1
102
RTVSPropertyOp6
 70
     1
102
RTVSPropertyOp7
 70
     1
102
RTVSPropertyOp8
 70
     1
102
RTVSPropertyOp9
 70
     1
102
RTVSPropertyOp10
 70
     1
102
RTVSPropertyOp11
 70
     1
102
RTVSPropertyOp12
 70
     1
102
RTVSPropertyOp13
 70
     1
102
RTVSPropertyOp14
 70
     1
102
RTVSPropertyOp15
 70
     1
102
RTVSPropertyOp16
 70
     1
102
RTVSPropertyOp17
 70
     1
102
RTVSPropertyOp18
 70
     1
102
RTVSPropertyOp19
 70
     1
102
RTVSPropertyOp20
 70
     1
102
RTVSPropertyOp21
 70
     1
102
RTVSPropertyOp22
 70
     1
102
RTVSPropertyOp23
 70
     1
102
RTVSPropertyOp24
 70
     1
102
RTVSPropertyOp25
 70
     1
102
RTVSPropertyOp26
 70
     1
102
RTVSPropertyOp27
 70
     1
102
RTVSPropertyOp28
 70
     1
102
RTVSPropertyOp29
 70
     1
102
RTVSPropertyOp30
 70
     1
102
RTVSPropertyOp31
 70
     1
102
RTVSPropertyOp32
 70
     1
  0
XRECORD
  5
829
102
{ACAD_REACTORS
330
828
102
}
330
828
100
AcDbXrecord
280
     1
102
RTVSPropertyOp0
 70
     1
102
RTVSPropertyOp1
 70
     1
102
RTVSPropertyOp2
 70
     1
102
RTVSPropertyOp3
 70
     1
102
RTVSPropertyOp4
 70
     1
102
RTVSPropertyOp5
 70
     1
102
RTVSPropertyOp6
 70
     1
102
RTVSPropertyOp7
 70
     1
102
RTVSPropertyOp8
 70
     1
102
RTVSPropertyOp9
 70
     1
102
RTVSPropertyOp10
 70
     1
102
RTVSPropertyOp11
 70
     1
102
RTVSPropertyOp12
 70
     1
102
RTVSPropertyOp13
 70
     1
102
RTVSPropertyOp14
 70
     1
102
RTVSPropertyOp15
 70
     1
102
RTVSPropertyOp16
 70
     1
102
RTVSPropertyOp17
 70
     1
102
RTVSPropertyOp18
 70
     1
102
RTVSPropertyOp19
 70
     1
102
RTVSPropertyOp20
 70
     1
102
RTVSPropertyOp21
 70
     1
102
RTVSPropertyOp22
 70
     1
102
RTVSPropertyOp23
 70
     1
102
RTVSPropertyOp24
 70
     1
102
RTVSPropertyOp25
 70
     1
102
RTVSPropertyOp26
 70
     1
102
RTVSPropertyOp27
 70
     1
102
RTVSPropertyOp28
 70
     1
102
RTVSPropertyOp29
 70
     1
102
RTVSPropertyOp30
 70
     1
102
RTVSPropertyOp31
 70
     1
102
RTVSPropertyOp32
 70
     1
  0
XRECORD
  5
82D
102
{ACAD_REACTORS
330
82C
102
}
330
82C
100
AcDbXrecord
280
     1
102
RTVSPropertyOp0
 70
     1
102
RTVSPropertyOp1
 70
     1
102
RTVSPropertyOp2
 70
     1
102
RTVSPropertyOp3
 70
     1
102
RTVSPropertyOp4
 70
     1
102
RTVSPropertyOp5
 70
     1
102
RTVSPropertyOp6
 70
     1
102
RTVSPropertyOp7
 70
     1
102
RTVSPropertyOp8
 70
     1
102
RTVSPropertyOp9
 70
     1
102
RTVSPropertyOp10
 70
     1
102
RTVSPropertyOp11
 70
     1
102
RTVSPropertyOp12
 70
     1
102
RTVSPropertyOp13
 70
     1
102
RTVSPropertyOp14
 70
     1
102
RTVSPropertyOp15
 70
     1
102
RTVSPropertyOp16
 70
     1
102
RTVSPropertyOp17
 70
     1
102
RTVSPropertyOp18
 70
     1
102
RTVSPropertyOp19
 70
     1
102
RTVSPropertyOp20
 70
     1
102
RTVSPropertyOp21
 70
     1
102
RTVSPropertyOp22
 70
     1
102
RTVSPropertyOp23
 70
     1
102
RTVSPropertyOp24
 70
     1
102
RTVSPropertyOp25
 70
     1
102
RTVSPropertyOp26
 70
     1
102
RTVSPropertyOp27
 70
     1
102
RTVSPropertyOp28
 70
     1
102
RTVSPropertyOp29
 70
     1
102
RTVSPropertyOp30
 70
     1
102
RTVSPropertyOp31
 70
     1
102
RTVSPropertyOp32
 70
     1
  0
XRECORD
  5
847
102
{ACAD_REACTORS
330
846
102
}
330
846
100
AcDbXrecord
280
     1
102
RTVSPropertyOp0
 70
     0
102
RTVSPropertyOp1
 70
     0
102
RTVSPropertyOp2
 70
     0
102
RTVSPropertyOp3
 70
     0
102
RTVSPropertyOp4
 70
     0
102
RTVSPropertyOp5
 70
     0
102
RTVSPropertyOp6
 70
     0
102
RTVSPropertyOp7
 70
     0
102
RTVSPropertyOp8
 70
     0
102
RTVSPropertyOp9
 70
     0
102
RTVSPropertyOp10
 70
     0
102
RTVSPropertyOp11
 70
     0
102
RTVSPropertyOp12
 70
     0
102
RTVSPropertyOp13
 70
     0
102
RTVSPropertyOp14
 70
     2
102
RTVSPropertyOp15
 70
     0
102
RTVSPropertyOp16
 70
     0
102
RTVSPropertyOp17
 70
     0
102
RTVSPropertyOp18
 70
     0
102
RTVSPropertyOp19
 70
     0
102
RTVSPropertyOp20
 70
     0
102
RTVSPropertyOp21
 70
     0
102
RTVSPropertyOp22
 70
     0
102
RTVSPropertyOp23
 70
     0
102
RTVSPropertyOp24
 70
     0
102
RTVSPropertyOp25
 70
     0
102
RTVSPropertyOp26
 70
     0
102
RTVSPropertyOp27
 70
     0
102
RTVSPropertyOp28
 70
     1
102
RTVSPropertyOp29
 70
     1
102
RTVSPropertyOp30
 70
     1
102
RTVSPropertyOp31
 70
     1
102
RTVSPropertyOp32
 70
     1
  0
XRECORD
  5
835
102
{ACAD_REACTORS
330
834
102
}
330
834
100
AcDbXrecord
280
     1
102
RTVSPropertyOp0
 70
     1
102
RTVSPropertyOp1
 70
     1
102
RTVSPropertyOp2
 70
     1
102
RTVSPropertyOp3
 70
     1
102
RTVSPropertyOp4
 70
     1
102
RTVSPropertyOp5
 70
     1
102
RTVSPropertyOp6
 70
     1
102
RTVSPropertyOp7
 70
     1
102
RTVSPropertyOp8
 70
     1
102
RTVSPropertyOp9
 70
     1
102
RTVSPropertyOp10
 70
     1
102
RTVSPropertyOp11
 70
     1
102
RTVSPropertyOp12
 70
     1
102
RTVSPropertyOp13
 70
     1
102
RTVSPropertyOp14
 70
     1
102
RTVSPropertyOp15
 70
     1
102
RTVSPropertyOp16
 70
     1
102
RTVSPropertyOp17
 70
     1
102
RTVSPropertyOp18
 70
     1
102
RTVSPropertyOp19
 70
     1
102
RTVSPropertyOp20
 70
     1
102
RTVSPropertyOp21
 70
     1
102
RTVSPropertyOp22
 70
     1
102
RTVSPropertyOp23
 70
     1
102
RTVSPropertyOp24
 70
     1
102
RTVSPropertyOp25
 70
     1
102
RTVSPropertyOp26
 70
     1
102
RTVSPropertyOp27
 70
     1
102
RTVSPropertyOp28
 70
     1
102
RTVSPropertyOp29
 70
     1
102
RTVSPropertyOp30
 70
     1
102
RTVSPropertyOp31
 70
     1
102
RTVSPropertyOp32
 70
     1
  0
XRECORD
  5
819
102
{ACAD_REACTORS
330
818
102
}
330
818
100
AcDbXrecord
280
     1
102
RTVSPropertyOp0
 70
     1
102
RTVSPropertyOp1
 70
     1
102
RTVSPropertyOp2
 70
     1
102
RTVSPropertyOp3
 70
     1
102
RTVSPropertyOp4
 70
     1
102
RTVSPropertyOp5
 70
     1
102
RTVSPropertyOp6
 70
     1
102
RTVSPropertyOp7
 70
     1
102
RTVSPropertyOp8
 70
     1
102
RTVSPropertyOp9
 70
     1
102
RTVSPropertyOp10
 70
     1
102
RTVSPropertyOp11
 70
     1
102
RTVSPropertyOp12
 70
     1
102
RTVSPropertyOp13
 70
     1
102
RTVSPropertyOp14
 70
     1
102
RTVSPropertyOp15
 70
     1
102
RTVSPropertyOp16
 70
     1
102
RTVSPropertyOp17
 70
     1
102
RTVSPropertyOp18
 70
     1
102
RTVSPropertyOp19
 70
     1
102
RTVSPropertyOp20
 70
     1
102
RTVSPropertyOp21
 70
     1
102
RTVSPropertyOp22
 70
     1
102
RTVSPropertyOp23
 70
     1
102
RTVSPropertyOp24
 70
     1
102
RTVSPropertyOp25
 70
     1
102
RTVSPropertyOp26
 70
     1
102
RTVSPropertyOp27
 70
     1
102
RTVSPropertyOp28
 70
     1
102
RTVSPropertyOp29
 70
     1
102
RTVSPropertyOp30
 70
     1
102
RTVSPropertyOp31
 70
     1
102
RTVSPropertyOp32
 70
     1
  0
XRECORD
  5
81B
102
{ACAD_REACTORS
330
81A
102
}
330
81A
100
AcDbXrecord
280
     1
102
RTVSPropertyOp0
 70
     1
102
RTVSPropertyOp1
 70
     1
102
RTVSPropertyOp2
 70
     1
102
RTVSPropertyOp3
 70
     1
102
RTVSPropertyOp4
 70
     1
102
RTVSPropertyOp5
 70
     1
102
RTVSPropertyOp6
 70
     1
102
RTVSPropertyOp7
 70
     1
102
RTVSPropertyOp8
 70
     1
102
RTVSPropertyOp9
 70
     1
102
RTVSPropertyOp10
 70
     1
102
RTVSPropertyOp11
 70
     1
102
RTVSPropertyOp12
 70
     1
102
RTVSPropertyOp13
 70
     1
102
RTVSPropertyOp14
 70
     1
102
RTVSPropertyOp15
 70
     1
102
RTVSPropertyOp16
 70
     1
102
RTVSPropertyOp17
 70
     1
102
RTVSPropertyOp18
 70
     1
102
RTVSPropertyOp19
 70
     1
102
RTVSPropertyOp20
 70
     1
102
RTVSPropertyOp21
 70
     1
102
RTVSPropertyOp22
 70
     1
102
RTVSPropertyOp23
 70
     1
102
RTVSPropertyOp24
 70
     1
102
RTVSPropertyOp25
 70
     1
102
RTVSPropertyOp26
 70
     1
102
RTVSPropertyOp27
 70
     1
102
RTVSPropertyOp28
 70
     1
102
RTVSPropertyOp29
 70
     1
102
RTVSPropertyOp30
 70
     1
102
RTVSPropertyOp31
 70
     1
102
RTVSPropertyOp32
 70
     1
  0
XRECORD
  5
81D
102
{ACAD_REACTORS
330
81C
102
}
330
81C
100
AcDbXrecord
280
     1
102
RTVSPropertyOp0
 70
     1
102
RTVSPropertyOp1
 70
     1
102
RTVSPropertyOp2
 70
     1
102
RTVSPropertyOp3
 70
     1
102
RTVSPropertyOp4
 70
     1
102
RTVSPropertyOp5
 70
     1
102
RTVSPropertyOp6
 70
     1
102
RTVSPropertyOp7
 70
     1
102
RTVSPropertyOp8
 70
     1
102
RTVSPropertyOp9
 70
     1
102
RTVSPropertyOp10
 70
     1
102
RTVSPropertyOp11
 70
     1
102
RTVSPropertyOp12
 70
     1
102
RTVSPropertyOp13
 70
     1
102
RTVSPropertyOp14
 70
     1
102
RTVSPropertyOp15
 70
     1
102
RTVSPropertyOp16
 70
     1
102
RTVSPropertyOp17
 70
     1
102
RTVSPropertyOp18
 70
     1
102
RTVSPropertyOp19
 70
     1
102
RTVSPropertyOp20
 70
     1
102
RTVSPropertyOp21
 70
     1
102
RTVSPropertyOp22
 70
     1
102
RTVSPropertyOp23
 70
     1
102
RTVSPropertyOp24
 70
     1
102
RTVSPropertyOp25
 70
     1
102
RTVSPropertyOp26
 70
     1
102
RTVSPropertyOp27
 70
     1
102
RTVSPropertyOp28
 70
     1
102
RTVSPropertyOp29
 70
     1
102
RTVSPropertyOp30
 70
     1
102
RTVSPropertyOp31
 70
     1
102
RTVSPropertyOp32
 70
     1
  0
XRECORD
  5
81F
102
{ACAD_REACTORS
330
81E
102
}
330
81E
100
AcDbXrecord
280
     1
102
RTVSPropertyOp0
 70
     1
102
RTVSPropertyOp1
 70
     1
102
RTVSPropertyOp2
 70
     1
102
RTVSPropertyOp3
 70
     1
102
RTVSPropertyOp4
 70
     1
102
RTVSPropertyOp5
 70
     1
102
RTVSPropertyOp6
 70
     1
102
RTVSPropertyOp7
 70
     1
102
RTVSPropertyOp8
 70
     1
102
RTVSPropertyOp9
 70
     1
102
RTVSPropertyOp10
 70
     1
102
RTVSPropertyOp11
 70
     1
102
RTVSPropertyOp12
 70
     1
102
RTVSPropertyOp13
 70
     1
102
RTVSPropertyOp14
 70
     1
102
RTVSPropertyOp15
 70
     1
102
RTVSPropertyOp16
 70
     1
102
RTVSPropertyOp17
 70
     1
102
RTVSPropertyOp18
 70
     1
102
RTVSPropertyOp19
 70
     1
102
RTVSPropertyOp20
 70
     1
102
RTVSPropertyOp21
 70
     1
102
RTVSPropertyOp22
 70
     1
102
RTVSPropertyOp23
 70
     1
102
RTVSPropertyOp24
 70
     1
102
RTVSPropertyOp25
 70
     1
102
RTVSPropertyOp26
 70
     1
102
RTVSPropertyOp27
 70
     1
102
RTVSPropertyOp28
 70
     1
102
RTVSPropertyOp29
 70
     1
102
RTVSPropertyOp30
 70
     1
102
RTVSPropertyOp31
 70
     1
102
RTVSPropertyOp32
 70
     1
  0
XRECORD
  5
827
102
{ACAD_REACTORS
330
826
102
}
330
826
100
AcDbXrecord
280
     1
102
RTVSPropertyOp0
 70
     1
102
RTVSPropertyOp1
 70
     1
102
RTVSPropertyOp2
 70
     1
102
RTVSPropertyOp3
 70
     1
102
RTVSPropertyOp4
 70
     1
102
RTVSPropertyOp5
 70
     1
102
RTVSPropertyOp6
 70
     1
102
RTVSPropertyOp7
 70
     1
102
RTVSPropertyOp8
 70
     1
102
RTVSPropertyOp9
 70
     1
102
RTVSPropertyOp10
 70
     1
102
RTVSPropertyOp11
 70
     1
102
RTVSPropertyOp12
 70
     1
102
RTVSPropertyOp13
 70
     1
102
RTVSPropertyOp14
 70
     1
102
RTVSPropertyOp15
 70
     1
102
RTVSPropertyOp16
 70
     1
102
RTVSPropertyOp17
 70
     1
102
RTVSPropertyOp18
 70
     1
102
RTVSPropertyOp19
 70
     1
102
RTVSPropertyOp20
 70
     1
102
RTVSPropertyOp21
 70
     1
102
RTVSPropertyOp22
 70
     1
102
RTVSPropertyOp23
 70
     1
102
RTVSPropertyOp24
 70
     1
102
RTVSPropertyOp25
 70
     1
102
RTVSPropertyOp26
 70
     1
102
RTVSPropertyOp27
 70
     1
102
RTVSPropertyOp28
 70
     1
102
RTVSPropertyOp29
 70
     1
102
RTVSPropertyOp30
 70
     1
102
RTVSPropertyOp31
 70
     1
102
RTVSPropertyOp32
 70
     1
  0
XRECORD
  5
843
102
{ACAD_REACTORS
330
842
102
}
330
842
100
AcDbXrecord
280
     1
102
RTVSPropertyOp0
 70
     0
102
RTVSPropertyOp1
 70
     0
102
RTVSPropertyOp2
 70
     0
102
RTVSPropertyOp3
 70
     0
102
RTVSPropertyOp4
 70
     0
102
RTVSPropertyOp5
 70
     0
102
RTVSPropertyOp6
 70
     0
102
RTVSPropertyOp7
 70
     0
102
RTVSPropertyOp8
 70
     0
102
RTVSPropertyOp9
 70
     0
102
RTVSPropertyOp10
 70
     0
102
RTVSPropertyOp11
 70
     0
102
RTVSPropertyOp12
 70
     0
102
RTVSPropertyOp13
 70
     0
102
RTVSPropertyOp14
 70
     2
102
RTVSPropertyOp15
 70
     0
102
RTVSPropertyOp16
 70
     0
102
RTVSPropertyOp17
 70
     0
102
RTVSPropertyOp18
 70
     0
102
RTVSPropertyOp19
 70
     0
102
RTVSPropertyOp20
 70
     0
102
RTVSPropertyOp21
 70
     0
102
RTVSPropertyOp22
 70
     0
102
RTVSPropertyOp23
 70
     0
102
RTVSPropertyOp24
 70
     0
102
RTVSPropertyOp25
 70
     0
102
RTVSPropertyOp26
 70
     0
102
RTVSPropertyOp27
 70
     0
102
RTVSPropertyOp28
 70
     1
102
RTVSPropertyOp29
 70
     1
102
RTVSPropertyOp30
 70
     1
102
RTVSPropertyOp31
 70
     1
102
RTVSPropertyOp32
 70
     1
  0
XRECORD
  5
833
102
{ACAD_REACTORS
330
832
102
}
330
832
100
AcDbXrecord
280
     1
102
RTVSPropertyOp0
 70
     1
102
RTVSPropertyOp1
 70
     1
102
RTVSPropertyOp2
 70
     1
102
RTVSPropertyOp3
 70
     1
102
RTVSPropertyOp4
 70
     1
102
RTVSPropertyOp5
 70
     1
102
RTVSPropertyOp6
 70
     1
102
RTVSPropertyOp7
 70
     1
102
RTVSPropertyOp8
 70
     1
102
RTVSPropertyOp9
 70
     1
102
RTVSPropertyOp10
 70
     1
102
RTVSPropertyOp11
 70
     1
102
RTVSPropertyOp12
 70
     1
102
RTVSPropertyOp13
 70
     1
102
RTVSPropertyOp14
 70
     1
102
RTVSPropertyOp15
 70
     1
102
RTVSPropertyOp16
 70
     1
102
RTVSPropertyOp17
 70
     1
102
RTVSPropertyOp18
 70
     1
102
RTVSPropertyOp19
 70
     1
102
RTVSPropertyOp20
 70
     1
102
RTVSPropertyOp21
 70
     1
102
RTVSPropertyOp22
 70
     1
102
RTVSPropertyOp23
 70
     1
102
RTVSPropertyOp24
 70
     1
102
RTVSPropertyOp25
 70
     1
102
RTVSPropertyOp26
 70
     1
102
RTVSPropertyOp27
 70
     1
102
RTVSPropertyOp28
 70
     1
102
RTVSPropertyOp29
 70
     1
102
RTVSPropertyOp30
 70
     1
102
RTVSPropertyOp31
 70
     1
102
RTVSPropertyOp32
 70
     1
  0
XRECORD
  5
845
102
{ACAD_REACTORS
330
844
102
}
330
844
100
AcDbXrecord
280
     1
102
RTVSPropertyOp0
 70
     0
102
RTVSPropertyOp1
 70
     0
102
RTVSPropertyOp2
 70
     0
102
RTVSPropertyOp3
 70
     0
102
RTVSPropertyOp4
 70
     0
102
RTVSPropertyOp5
 70
     0
102
RTVSPropertyOp6
 70
     0
102
RTVSPropertyOp7
 70
     0
102
RTVSPropertyOp8
 70
     0
102
RTVSPropertyOp9
 70
     0
102
RTVSPropertyOp10
 70
     0
102
RTVSPropertyOp11
 70
     0
102
RTVSPropertyOp12
 70
     0
102
RTVSPropertyOp13
 70
     0
102
RTVSPropertyOp14
 70
     2
102
RTVSPropertyOp15
 70
     0
102
RTVSPropertyOp16
 70
     0
102
RTVSPropertyOp17
 70
     0
102
RTVSPropertyOp18
 70
     0
102
RTVSPropertyOp19
 70
     0
102
RTVSPropertyOp20
 70
     0
102
RTVSPropertyOp21
 70
     0
102
RTVSPropertyOp22
 70
     0
102
RTVSPropertyOp23
 70
     0
102
RTVSPropertyOp24
 70
     0
102
RTVSPropertyOp25
 70
     0
102
RTVSPropertyOp26
 70
     0
102
RTVSPropertyOp27
 70
     0
102
RTVSPropertyOp28
 70
     1
102
RTVSPropertyOp29
 70
     1
102
RTVSPropertyOp30
 70
     1
102
RTVSPropertyOp31
 70
     1
102
RTVSPropertyOp32
 70
     1
  0
XRECORD
  5
82B
102
{ACAD_REACTORS
330
82A
102
}
330
82A
100
AcDbXrecord
280
     1
102
RTVSPropertyOp0
 70
     1
102
RTVSPropertyOp1
 70
     1
102
RTVSPropertyOp2
 70
     1
102
RTVSPropertyOp3
 70
     1
102
RTVSPropertyOp4
 70
     1
102
RTVSPropertyOp5
 70
     1
102
RTVSPropertyOp6
 70
     1
102
RTVSPropertyOp7
 70
     1
102
RTVSPropertyOp8
 70
     1
102
RTVSPropertyOp9
 70
     1
102
RTVSPropertyOp10
 70
     1
102
RTVSPropertyOp11
 70
     1
102
RTVSPropertyOp12
 70
     1
102
RTVSPropertyOp13
 70
     1
102
RTVSPropertyOp14
 70
     1
102
RTVSPropertyOp15
 70
     1
102
RTVSPropertyOp16
 70
     1
102
RTVSPropertyOp17
 70
     1
102
RTVSPropertyOp18
 70
     1
102
RTVSPropertyOp19
 70
     1
102
RTVSPropertyOp20
 70
     1
102
RTVSPropertyOp21
 70
     1
102
RTVSPropertyOp22
 70
     1
102
RTVSPropertyOp23
 70
     1
102
RTVSPropertyOp24
 70
     1
102
RTVSPropertyOp25
 70
     1
102
RTVSPropertyOp26
 70
     1
102
RTVSPropertyOp27
 70
     1
102
RTVSPropertyOp28
 70
     1
102
RTVSPropertyOp29
 70
     1
102
RTVSPropertyOp30
 70
     1
102
RTVSPropertyOp31
 70
     1
102
RTVSPropertyOp32
 70
     1
  0
XRECORD
  5
841
102
{ACAD_REACTORS
330
840
102
}
330
840
100
AcDbXrecord
280
     1
102
RTVSPropertyOp0
 70
     1
102
RTVSPropertyOp1
 70
     1
102
RTVSPropertyOp2
 70
     1
102
RTVSPropertyOp3
 70
     1
102
RTVSPropertyOp4
 70
     1
102
RTVSPropertyOp5
 70
     1
102
RTVSPropertyOp6
 70
     1
102
RTVSPropertyOp7
 70
     1
102
RTVSPropertyOp8
 70
     1
102
RTVSPropertyOp9
 70
     1
102
RTVSPropertyOp10
 70
     1
102
RTVSPropertyOp11
 70
     1
102
RTVSPropertyOp12
 70
     1
102
RTVSPropertyOp13
 70
     1
102
RTVSPropertyOp14
 70
     1
102
RTVSPropertyOp15
 70
     1
102
RTVSPropertyOp16
 70
     1
102
RTVSPropertyOp17
 70
     1
102
RTVSPropertyOp18
 70
     1
102
RTVSPropertyOp19
 70
     1
102
RTVSPropertyOp20
 70
     1
102
RTVSPropertyOp21
 70
     1
102
RTVSPropertyOp22
 70
     1
102
RTVSPropertyOp23
 70
     1
102
RTVSPropertyOp24
 70
     1
102
RTVSPropertyOp25
 70
     1
102
RTVSPropertyOp26
 70
     1
102
RTVSPropertyOp27
 70
     1
102
RTVSPropertyOp28
 70
     1
102
RTVSPropertyOp29
 70
     1
102
RTVSPropertyOp30
 70
     1
102
RTVSPropertyOp31
 70
     1
102
RTVSPropertyOp32
 70
     1
  0
XRECORD
  5
83F
102
{ACAD_REACTORS
330
83E
102
}
330
83E
100
AcDbXrecord
280
     1
102
RTVSPropertyOp0
 70
     1
102
RTVSPropertyOp1
 70
     1
102
RTVSPropertyOp2
 70
     1
102
RTVSPropertyOp3
 70
     1
102
RTVSPropertyOp4
 70
     1
102
RTVSPropertyOp5
 70
     1
102
RTVSPropertyOp6
 70
     1
102
RTVSPropertyOp7
 70
     1
102
RTVSPropertyOp8
 70
     1
102
RTVSPropertyOp9
 70
     1
102
RTVSPropertyOp10
 70
     1
102
RTVSPropertyOp11
 70
     1
102
RTVSPropertyOp12
 70
     1
102
RTVSPropertyOp13
 70
     1
102
RTVSPropertyOp14
 70
     1
102
RTVSPropertyOp15
 70
     1
102
RTVSPropertyOp16
 70
     1
102
RTVSPropertyOp17
 70
     1
102
RTVSPropertyOp18
 70
     1
102
RTVSPropertyOp19
 70
     1
102
RTVSPropertyOp20
 70
     1
102
RTVSPropertyOp21
 70
     1
102
RTVSPropertyOp22
 70
     1
102
RTVSPropertyOp23
 70
     1
102
RTVSPropertyOp24
 70
     1
102
RTVSPropertyOp25
 70
     1
102
RTVSPropertyOp26
 70
     1
102
RTVSPropertyOp27
 70
     1
102
RTVSPropertyOp28
 70
     1
102
RTVSPropertyOp29
 70
     1
102
RTVSPropertyOp30
 70
     1
102
RTVSPropertyOp31
 70
     1
102
RTVSPropertyOp32
 70
     1
  0
XRECORD
  5
839
102
{ACAD_REACTORS
330
838
102
}
330
838
100
AcDbXrecord
280
     1
102
RTVSPropertyOp0
 70
     1
102
RTVSPropertyOp1
 70
     1
102
RTVSPropertyOp2
 70
     1
102
RTVSPropertyOp3
 70
     1
102
RTVSPropertyOp4
 70
     1
102
RTVSPropertyOp5
 70
     1
102
RTVSPropertyOp6
 70
     1
102
RTVSPropertyOp7
 70
     1
102
RTVSPropertyOp8
 70
     1
102
RTVSPropertyOp9
 70
     1
102
RTVSPropertyOp10
 70
     1
102
RTVSPropertyOp11
 70
     1
102
RTVSPropertyOp12
 70
     1
102
RTVSPropertyOp13
 70
     1
102
RTVSPropertyOp14
 70
     1
102
RTVSPropertyOp15
 70
     1
102
RTVSPropertyOp16
 70
     1
102
RTVSPropertyOp17
 70
     1
102
RTVSPropertyOp18
 70
     1
102
RTVSPropertyOp19
 70
     1
102
RTVSPropertyOp20
 70
     1
102
RTVSPropertyOp21
 70
     1
102
RTVSPropertyOp22
 70
     1
102
RTVSPropertyOp23
 70
     1
102
RTVSPropertyOp24
 70
     1
102
RTVSPropertyOp25
 70
     1
102
RTVSPropertyOp26
 70
     1
102
RTVSPropertyOp27
 70
     1
102
RTVSPropertyOp28
 70
     1
102
RTVSPropertyOp29
 70
     1
102
RTVSPropertyOp30
 70
     1
102
RTVSPropertyOp31
 70
     1
102
RTVSPropertyOp32
 70
     1
  0
XRECORD
  5
83B
102
{ACAD_REACTORS
330
83A
102
}
330
83A
100
AcDbXrecord
280
     1
102
RTVSPropertyOp0
 70
     1
102
RTVSPropertyOp1
 70
     1
102
RTVSPropertyOp2
 70
     1
102
RTVSPropertyOp3
 70
     1
102
RTVSPropertyOp4
 70
     1
102
RTVSPropertyOp5
 70
     1
102
RTVSPropertyOp6
 70
     1
102
RTVSPropertyOp7
 70
     1
102
RTVSPropertyOp8
 70
     1
102
RTVSPropertyOp9
 70
     1
102
RTVSPropertyOp10
 70
     1
102
RTVSPropertyOp11
 70
     1
102
RTVSPropertyOp12
 70
     1
102
RTVSPropertyOp13
 70
     1
102
RTVSPropertyOp14
 70
     1
102
RTVSPropertyOp15
 70
     1
102
RTVSPropertyOp16
 70
     1
102
RTVSPropertyOp17
 70
     1
102
RTVSPropertyOp18
 70
     1
102
RTVSPropertyOp19
 70
     1
102
RTVSPropertyOp20
 70
     1
102
RTVSPropertyOp21
 70
     1
102
RTVSPropertyOp22
 70
     1
102
RTVSPropertyOp23
 70
     1
102
RTVSPropertyOp24
 70
     1
102
RTVSPropertyOp25
 70
     1
102
RTVSPropertyOp26
 70
     1
102
RTVSPropertyOp27
 70
     1
102
RTVSPropertyOp28
 70
     1
102
RTVSPropertyOp29
 70
     1
102
RTVSPropertyOp30
 70
     1
102
RTVSPropertyOp31
 70
     1
102
RTVSPropertyOp32
 70
     1
  0
XRECORD
  5
831
102
{ACAD_REACTORS
330
830
102
}
330
830
100
AcDbXrecord
280
     1
102
RTVSPropertyOp0
 70
     1
102
RTVSPropertyOp1
 70
     1
102
RTVSPropertyOp2
 70
     1
102
RTVSPropertyOp3
 70
     1
102
RTVSPropertyOp4
 70
     1
102
RTVSPropertyOp5
 70
     1
102
RTVSPropertyOp6
 70
     1
102
RTVSPropertyOp7
 70
     1
102
RTVSPropertyOp8
 70
     1
102
RTVSPropertyOp9
 70
     1
102
RTVSPropertyOp10
 70
     1
102
RTVSPropertyOp11
 70
     1
102
RTVSPropertyOp12
 70
     1
102
RTVSPropertyOp13
 70
     1
102
RTVSPropertyOp14
 70
     1
102
RTVSPropertyOp15
 70
     1
102
RTVSPropertyOp16
 70
     1
102
RTVSPropertyOp17
 70
     1
102
RTVSPropertyOp18
 70
     1
102
RTVSPropertyOp19
 70
     1
102
RTVSPropertyOp20
 70
     1
102
RTVSPropertyOp21
 70
     1
102
RTVSPropertyOp22
 70
     1
102
RTVSPropertyOp23
 70
     1
102
RTVSPropertyOp24
 70
     1
102
RTVSPropertyOp25
 70
     1
102
RTVSPropertyOp26
 70
     1
102
RTVSPropertyOp27
 70
     1
102
RTVSPropertyOp28
 70
     1
102
RTVSPropertyOp29
 70
     1
102
RTVSPropertyOp30
 70
     1
102
RTVSPropertyOp31
 70
     1
102
RTVSPropertyOp32
 70
     1
  0
XRECORD
  5
825
102
{ACAD_REACTORS
330
824
102
}
330
824
100
AcDbXrecord
280
     1
102
RTVSPropertyOp0
 70
     1
102
RTVSPropertyOp1
 70
     1
102
RTVSPropertyOp2
 70
     1
102
RTVSPropertyOp3
 70
     1
102
RTVSPropertyOp4
 70
     1
102
RTVSPropertyOp5
 70
     1
102
RTVSPropertyOp6
 70
     1
102
RTVSPropertyOp7
 70
     1
102
RTVSPropertyOp8
 70
     1
102
RTVSPropertyOp9
 70
     1
102
RTVSPropertyOp10
 70
     1
102
RTVSPropertyOp11
 70
     1
102
RTVSPropertyOp12
 70
     1
102
RTVSPropertyOp13
 70
     1
102
RTVSPropertyOp14
 70
     1
102
RTVSPropertyOp15
 70
     1
102
RTVSPropertyOp16
 70
     1
102
RTVSPropertyOp17
 70
     1
102
RTVSPropertyOp18
 70
     1
102
RTVSPropertyOp19
 70
     1
102
RTVSPropertyOp20
 70
     1
102
RTVSPropertyOp21
 70
     1
102
RTVSPropertyOp22
 70
     1
102
RTVSPropertyOp23
 70
     1
102
RTVSPropertyOp24
 70
     1
102
RTVSPropertyOp25
 70
     1
102
RTVSPropertyOp26
 70
     1
102
RTVSPropertyOp27
 70
     1
102
RTVSPropertyOp28
 70
     1
102
RTVSPropertyOp29
 70
     1
102
RTVSPropertyOp30
 70
     1
102
RTVSPropertyOp31
 70
     1
102
RTVSPropertyOp32
 70
     1
  0
XRECORD
  5
83D
102
{ACAD_REACTORS
330
83C
102
}
330
83C
100
AcDbXrecord
280
     1
102
RTVSPropertyOp0
 70
     1
102
RTVSPropertyOp1
 70
     1
102
RTVSPropertyOp2
 70
     1
102
RTVSPropertyOp3
 70
     1
102
RTVSPropertyOp4
 70
     1
102
RTVSPropertyOp5
 70
     1
102
RTVSPropertyOp6
 70
     1
102
RTVSPropertyOp7
 70
     1
102
RTVSPropertyOp8
 70
     1
102
RTVSPropertyOp9
 70
     1
102
RTVSPropertyOp10
 70
     1
102
RTVSPropertyOp11
 70
     1
102
RTVSPropertyOp12
 70
     1
102
RTVSPropertyOp13
 70
     1
102
RTVSPropertyOp14
 70
     1
102
RTVSPropertyOp15
 70
     1
102
RTVSPropertyOp16
 70
     1
102
RTVSPropertyOp17
 70
     1
102
RTVSPropertyOp18
 70
     1
102
RTVSPropertyOp19
 70
     1
102
RTVSPropertyOp20
 70
     1
102
RTVSPropertyOp21
 70
     1
102
RTVSPropertyOp22
 70
     1
102
RTVSPropertyOp23
 70
     1
102
RTVSPropertyOp24
 70
     1
102
RTVSPropertyOp25
 70
     1
102
RTVSPropertyOp26
 70
     1
102
RTVSPropertyOp27
 70
     1
102
RTVSPropertyOp28
 70
     1
102
RTVSPropertyOp29
 70
     1
102
RTVSPropertyOp30
 70
     1
102
RTVSPropertyOp31
 70
     1
102
RTVSPropertyOp32
 70
     1
  0
ENDSEC
  0
EOF
