  0
SECTION
  2
HEADER
  9
$ACADVER
  1
AC1018
  9
$ACADMAINTVER
 70
   104
  9
$DWGCODEPAGE
  3
ANSI_1252
  9
$AUTHOR
  1
PS
  9
$REVISIONNUMBER
  1
-
  9
$CUSTOMPROPERTYTAG
  1
Manager
  9
$CUSTOMPROPERTY
  1

  9
$CUSTOMPROPERTYTAG
  1
Company
  9
$CUSTOMPROPERTY
  1

  9
$CUSTOMPROPERTYTAG
  1
Category
  9
$CUSTOMPROPERTY
  1

  9
$CUSTOMPROPERTYTAG
  1
Part Number
  9
$CUSTOMPROPERTY
  1
N1P0608PP-S
  9
$CUSTOMPROPERTYTAG
  1
Description
  9
$CUSTOMPROPERTY
  1

  9
$CUSTOMPROPERTYTAG
  1
Project
  9
$CUSTOMPROPERTY
  1

  9
$CUSTOMPROPERTYTAG
  1
Designer
  9
$CUSTOMPROPERTY
  1
PS
  9
$CUSTOMPROPERTYTAG
  1
Engineer
  9
$CUSTOMPROPERTY
  1

  9
$CUSTOMPROPERTYTAG
  1
Authority
  9
$CUSTOMPROPERTY
  1

  9
$CUSTOMPROPERTYTAG
  1
Cost Center
  9
$CUSTOMPROPERTY
  1

  9
$CUSTOMPROPERTYTAG
  1
Vendor
  9
$CUSTOMPROPERTY
  1

  9
$CUSTOMPROPERTYTAG
  1
User Status
  9
$CUSTOMPROPERTY
  1

  9
$CUSTOMPROPERTYTAG
  1
Design Status
  9
$CUSTOMPROPERTY
  1
WorkInProgress
  9
$CUSTOMPROPERTYTAG
  1
Checked by
  9
$CUSTOMPROPERTY
  1
NJ
  9
$CUSTOMPROPERTYTAG
  1
Date Checked
  9
$CUSTOMPROPERTY
  1
06/21/2013
  9
$CUSTOMPROPERTYTAG
  1
Engr Approved by
  9
$CUSTOMPROPERTY
  1

  9
$CUSTOMPROPERTYTAG
  1
Date Eng Approved
  9
$CUSTOMPROPERTY
  1
06/21/2013
  9
$CUSTOMPROPERTYTAG
  1
Mfg Approved by
  9
$CUSTOMPROPERTY
  1

  9
$CUSTOMPROPERTYTAG
  1
DWG. NO
  9
$CUSTOMPROPERTY
  1

  9
$CUSTOMPROPERTYTAG
  1
NUMBER OF SHEETS
  9
$CUSTOMPROPERTY
  1
1
  9
$CUSTOMPROPERTYTAG
  1
DRAWING #
  9
$CUSTOMPROPERTY
  1
1
  9
$INSBASE
 10
0.0
 20
0.0
 30
0.0
  9
$EXTMIN
 10
0.0
 20
0.0
 30
0.0
  9
$EXTMAX
 10
21.25
 20
13.75
 30
0.0
  9
$LIMMIN
 10
0.0
 20
0.0
  9
$LIMMAX
 10
21.25
 20
13.75
  9
$ORTHOMODE
 70
     0
  9
$REGENMODE
 70
     1
  9
$FILLMODE
 70
     1
  9
$QTEXTMODE
 70
     0
  9
$MIRRTEXT
 70
     0
  9
$LTSCALE
 40
1.25
  9
$ATTMODE
 70
     1
  9
$TEXTSIZE
 40
0.2
  9
$TRACEWID
 40
0.05
  9
$TEXTSTYLE
  7
Standard
  9
$CLAYER
  8
0
  9
$CELTYPE
  6
ByLayer
  9
$CECOLOR
 62
   256
  9
$CELTSCALE
 40
1.0
  9
$DISPSILH
 70
     0
  9
$DIMSCALE
 40
1.0
  9
$DIMASZ
 40
0.0708661417322835
  9
$DIMEXO
 40
0.0625
  9
$DIMDLI
 40
0.38
  9
$DIMRND
 40
0.0
  9
$DIMDLE
 40
0.0
  9
$DIMEXE
 40
0.18
  9
$DIMTP
 40
0.0
  9
$DIMTM
 40
0.0
  9
$DIMTXT
 40
0.0708661417322835
  9
$DIMCEN
 40
0.09
  9
$DIMTSZ
 40
0.0
  9
$DIMTOL
 70
     0
  9
$DIMLIM
 70
     0
  9
$DIMTIH
 70
     1
  9
$DIMTOH
 70
     1
  9
$DIMSE1
 70
     0
  9
$DIMSE2
 70
     0
  9
$DIMTAD
 70
     0
  9
$DIMZIN
 70
     0
  9
$DIMBLK
  1

  9
$DIMASO
 70
     1
  9
$DIMSHO
 70
     1
  9
$DIMPOST
  1

  9
$DIMAPOST
  1

  9
$DIMALT
 70
     0
  9
$DIMALTD
 70
     2
  9
$DIMALTF
 40
25.4
  9
$DIMLFAC
 40
1.0
  9
$DIMTOFL
 70
     0
  9
$DIMTVP
 40
0.0
  9
$DIMTIX
 70
     0
  9
$DIMSOXD
 70
     0
  9
$DIMSAH
 70
     0
  9
$DIMBLK1
  1

  9
$DIMBLK2
  1

  9
$DIMSTYLE
  2
STANDARD
  9
$DIMCLRD
 70
     0
  9
$DIMCLRE
 70
     0
  9
$DIMCLRT
 70
     0
  9
$DIMTFAC
 40
1.0
  9
$DIMGAP
 40
0.09
  9
$DIMJUST
 70
     0
  9
$DIMSD1
 70
     0
  9
$DIMSD2
 70
     0
  9
$DIMTOLJ
 70
     1
  9
$DIMTZIN
 70
     0
  9
$DIMALTZ
 70
     0
  9
$DIMALTTZ
 70
     0
  9
$DIMUPT
 70
     0
  9
$DIMDEC
 70
     4
  9
$DIMTDEC
 70
     4
  9
$DIMALTU
 70
     2
  9
$DIMALTTD
 70
     2
  9
$DIMTXSTY
  7
Standard
  9
$DIMAUNIT
 70
     0
  9
$DIMADEC
 70
     0
  9
$DIMALTRND
 40
0.0
  9
$DIMAZIN
 70
     0
  9
$DIMDSEP
 70
    46
  9
$DIMATFIT
 70
     3
  9
$DIMFRAC
 70
     0
  9
$DIMLDRBLK
  1

  9
$DIMLUNIT
 70
     2
  9
$DIMLWD
 70
    -2
  9
$DIMLWE
 70
    -2
  9
$DIMTMOVE
 70
     0
  9
$LUNITS
 70
     2
  9
$LUPREC
 70
     4
  9
$SKETCHINC
 40
0.1
  9
$FILLETRAD
 40
0.0
  9
$AUNITS
 70
     0
  9
$AUPREC
 70
     0
  9
$MENU
  1
.
  9
$ELEVATION
 40
0.0
  9
$PELEVATION
 40
0.0
  9
$THICKNESS
 40
0.0
  9
$LIMCHECK
 70
     0
  9
$CHAMFERA
 40
0.0
  9
$CHAMFERB
 40
0.0
  9
$CHAMFERC
 40
0.0
  9
$CHAMFERD
 40
0.0
  9
$SKPOLY
 70
     0
  9
$TDCREATE
 40
2456476.363592407
  9
$TDUCREATE
 40
2456476.134425741
  9
$TDUPDATE
 40
2456476.363592407
  9
$TDUUPDATE
 40
2456476.134425741
  9
$TDINDWG
 40
0.0000427778
  9
$TDUSRTIMER
 40
0.0000427778
  9
$USRTIMER
 70
     1
  9
$ANGBASE
 50
0.0
  9
$ANGDIR
 70
     0
  9
$PDMODE
 70
     0
  9
$PDSIZE
 40
0.0
  9
$PLINEWID
 40
0.0
  9
$SPLFRAME
 70
     0
  9
$SPLINETYPE
 70
     6
  9
$SPLINESEGS
 70
     8
  9
$HANDSEED
  5
E9D
  9
$SURFTAB1
 70
     6
  9
$SURFTAB2
 70
     6
  9
$SURFTYPE
 70
     6
  9
$SURFU
 70
     6
  9
$SURFV
 70
     6
  9
$UCSBASE
  2

  9
$UCSNAME
  2

  9
$UCSORG
 10
0.0
 20
0.0
 30
0.0
  9
$UCSXDIR
 10
1.0
 20
0.0
 30
0.0
  9
$UCSYDIR
 10
0.0
 20
1.0
 30
0.0
  9
$UCSORTHOREF
  2

  9
$UCSORTHOVIEW
 70
     0
  9
$UCSORGTOP
 10
0.0
 20
0.0
 30
0.0
  9
$UCSORGBOTTOM
 10
0.0
 20
0.0
 30
0.0
  9
$UCSORGLEFT
 10
0.0
 20
0.0
 30
0.0
  9
$UCSORGRIGHT
 10
0.0
 20
0.0
 30
0.0
  9
$UCSORGFRONT
 10
0.0
 20
0.0
 30
0.0
  9
$UCSORGBACK
 10
0.0
 20
0.0
 30
0.0
  9
$PUCSBASE
  2

  9
$PUCSNAME
  2

  9
$PUCSORG
 10
0.0
 20
0.0
 30
0.0
  9
$PUCSXDIR
 10
1.0
 20
0.0
 30
0.0
  9
$PUCSYDIR
 10
0.0
 20
1.0
 30
0.0
  9
$PUCSORTHOREF
  2

  9
$PUCSORTHOVIEW
 70
     0
  9
$PUCSORGTOP
 10
0.0
 20
0.0
 30
0.0
  9
$PUCSORGBOTTOM
 10
0.0
 20
0.0
 30
0.0
  9
$PUCSORGLEFT
 10
0.0
 20
0.0
 30
0.0
  9
$PUCSORGRIGHT
 10
0.0
 20
0.0
 30
0.0
  9
$PUCSORGFRONT
 10
0.0
 20
0.0
 30
0.0
  9
$PUCSORGBACK
 10
0.0
 20
0.0
 30
0.0
  9
$USERI1
 70
     0
  9
$USERI2
 70
     0
  9
$USERI3
 70
     0
  9
$USERI4
 70
     0
  9
$USERI5
 70
     0
  9
$USERR1
 40
0.0
  9
$USERR2
 40
0.0
  9
$USERR3
 40
0.0
  9
$USERR4
 40
0.0
  9
$USERR5
 40
0.0
  9
$WORLDVIEW
 70
     1
  9
$SHADEDGE
 70
     3
  9
$SHADEDIF
 70
    70
  9
$TILEMODE
 70
     1
  9
$MAXACTVP
 70
    64
  9
$PINSBASE
 10
0.0
 20
0.0
 30
0.0
  9
$PLIMCHECK
 70
     0
  9
$PEXTMIN
 10
0.0
 20
0.0
 30
0.0
  9
$PEXTMAX
 10
21.25
 20
13.75
 30
0.0
  9
$PLIMMIN
 10
0.0
 20
0.0
  9
$PLIMMAX
 10
21.25
 20
13.75
  9
$UNITMODE
 70
     0
  9
$VISRETAIN
 70
     1
  9
$PLINEGEN
 70
     0
  9
$PSLTSCALE
 70
     1
  9
$TREEDEPTH
 70
  3020
  9
$CMLSTYLE
  2
Standard
  9
$CMLJUST
 70
     0
  9
$CMLSCALE
 40
1.0
  9
$PROXYGRAPHICS
 70
     1
  9
$MEASUREMENT
 70
     0
  9
$CELWEIGHT
370
    -1
  9
$ENDCAPS
280
     0
  9
$JOINSTYLE
280
     0
  9
$LWDISPLAY
290
     0
  9
$INSUNITS
 70
     1
  9
$HYPERLINKBASE
  1

  9
$STYLESHEET
  1

  9
$XEDIT
290
     1
  9
$CEPSNTYPE
380
     0
  9
$PSTYLEMODE
290
     1
  9
$FINGERPRINTGUID
  2
{B6EA3734-CA03-47C9-A31C-47B1F2150C93}
  9
$VERSIONGUID
  2
{E188CC78-D11E-4889-B808-B3160FC11EF4}
  9
$EXTNAMES
290
     1
  9
$PSVPSCALE
 40
0.0
  9
$OLESTARTUP
290
     0
  9
$SORTENTS
280
   127
  9
$INDEXCTL
280
     0
  9
$HIDETEXT
280
     1
  9
$XCLIPFRAME
290
     0
  9
$HALOGAP
280
     0
  9
$OBSCOLOR
 70
   257
  9
$OBSLTYPE
280
     0
  9
$INTERSECTIONDISPLAY
280
     0
  9
$INTERSECTIONCOLOR
 70
   257
  9
$DIMASSOC
280
     1
  9
$PROJECTNAME
  1

  0
ENDSEC
  0
SECTION
  2
CLASSES
  0
CLASS
  1
ACDBDICTIONARYWDFLT
  2
AcDbDictionaryWithDefault
  3
ObjectDBX Classes
 90
        0
 91
        1
280
     0
281
     0
  0
CLASS
  1
MATERIAL
  2
AcDbMaterial
  3
ObjectDBX Classes
 90
     1153
 91
        3
280
     0
281
     0
  0
CLASS
  1
VISUALSTYLE
  2
AcDbVisualStyle
  3
ObjectDBX Classes
 90
     4095
 91
       24
280
     0
281
     0
  0
CLASS
  1
SCALE
  2
AcDbScale
  3
ObjectDBX Classes
 90
     1153
 91
       17
280
     0
281
     0
  0
CLASS
  1
TABLESTYLE
  2
AcDbTableStyle
  3
ObjectDBX Classes
 90
     4095
 91
        1
280
     0
281
     0
  0
CLASS
  1
MLEADERSTYLE
  2
AcDbMLeaderStyle
  3
ACDB_MLEADERSTYLE_CLASS
 90
     4095
 91
        1
280
     0
281
     0
  0
CLASS
  1
DICTIONARYVAR
  2
AcDbDictionaryVar
  3
ObjectDBX Classes
 90
        0
 91
        8
280
     0
281
     0
  0
CLASS
  1
CELLSTYLEMAP
  2
AcDbCellStyleMap
  3
ObjectDBX Classes
 90
     1152
 91
        1
280
     0
281
     0
  0
ENDSEC
  0
SECTION
  2
TABLES
  0
TABLE
  2
VPORT
  5
8
330
0
100
AcDbSymbolTable
 70
     1
  0
VPORT
  5
57
330
8
100
AcDbSymbolTableRecord
100
AcDbViewportTableRecord
  2
*Active
 70
     0
 10
0.0
 20
0.0
 11
1.0
 21
1.0
 12
10.625
 22
6.875
 13
0.0
 23
0.0
 14
1.0
 24
1.0
 15
0.0
 25
0.0
 16
0.0
 26
0.0
 36
1.0
 17
0.0
 27
0.0
 37
0.0
 40
13.75
 41
1.545454545454545
 42
50.0
 43
0.0
 44
0.0
 50
0.0
 51
0.0
 71
     0
 72
   100
 73
     1
 74
     1
 75
     0
 76
     0
 77
     0
 78
     0
281
     0
 65
     1
110
0.0
120
0.0
130
0.0
111
1.0
121
0.0
131
0.0
112
0.0
122
1.0
132
0.0
 79
     0
146
0.0
  0
ENDTAB
  0
TABLE
  2
LTYPE
  5
5
330
0
100
AcDbSymbolTable
 70
    59
  0
LTYPE
  5
5B
330
5
100
AcDbSymbolTableRecord
100
AcDbLinetypeTableRecord
  2
ByBlock
 70
     0
  3

 72
    65
 73
     0
 40
0.0
  0
LTYPE
  5
5C
330
5
100
AcDbSymbolTableRecord
100
AcDbLinetypeTableRecord
  2
ByLayer
 70
     0
  3

 72
    65
 73
     0
 40
0.0
  0
LTYPE
  5
5D
330
5
100
AcDbSymbolTableRecord
100
AcDbLinetypeTableRecord
  2
Continuous
 70
     0
  3
Solid line
 72
    65
 73
     0
 40
0.0
  0
LTYPE
  5
7C
330
5
100
AcDbSymbolTableRecord
100
AcDbLinetypeTableRecord
  2
BY_STANDARD
 70
     0
  3
By Standard ____________    ____    ____   _
 72
    65
 73
     6
 40
1.240299999999999
 49
0.6614
 74
     0
 49
-0.0827
 74
     0
 49
0.1654
 74
     0
 49
-0.0827
 74
     0
 49
0.1654
 74
     0
 49
-0.0827
 74
     0
  0
LTYPE
  5
7D
330
5
100
AcDbSymbolTableRecord
100
AcDbLinetypeTableRecord
  2
CHAIN
 70
     0
  3
Chain ____ _ ____ _ ____ _ ____ _ ____ _ ____
 72
    65
 73
     4
 40
0.7087
 49
0.4724000000000001
 74
     0
 49
-0.0591
 74
     0
 49
0.1181
 74
     0
 49
-0.0591
 74
     0
  0
LTYPE
  5
7E
330
5
100
AcDbSymbolTableRecord
100
AcDbLinetypeTableRecord
  2
DASH_DOT
 70
     0
  3
Dash dot __ . __ . __ . __ . __ . __ . __ . __
 72
    65
 73
     4
 40
0.37
 49
0.24
 74
     0
 49
-0.06
 74
     0
 49
0.01
 74
     0
 49
-0.06
 74
     0
  0
LTYPE
  5
7F
330
5
100
AcDbSymbolTableRecord
100
AcDbLinetypeTableRecord
  2
DOUBLE_DASH_DOT
 70
     0
  3
Double-Dash Dot __ __ . __ __ . __ __ . __ _
 72
    65
 73
     6
 40
0.4398
 49
0.24
 74
     0
 49
-0.06
 74
     0
 49
0.0098
 74
     0
 49
-0.06
 74
     0
 49
0.01
 74
     0
 49
-0.06
 74
     0
  0
LTYPE
  5
80
330
5
100
AcDbSymbolTableRecord
100
AcDbLinetypeTableRecord
  2
DASH_TRIPLE_DOT
 70
     0
  3
Dash Triple-Dot _ . . . _ . . . _ . . . _
 72
    65
 73
     8
 40
0.51
 49
0.24
 74
     0
 49
-0.06
 74
     0
 49
0.01
 74
     0
 49
-0.06
 74
     0
 49
0.01
 74
     0
 49
-0.06
 74
     0
 49
0.01
 74
     0
 49
-0.06
 74
     0
  0
LTYPE
  5
81
330
5
100
AcDbSymbolTableRecord
100
AcDbLinetypeTableRecord
  2
DASHED
 70
     0
  3
Dashed __ __ __ __ __ __ __ __ __ __ __ __ __ _
 72
    65
 73
     2
 40
0.2067
 49
0.1654
 74
     0
 49
-0.0413
 74
     0
  0
LTYPE
  5
82
330
5
100
AcDbSymbolTableRecord
100
AcDbLinetypeTableRecord
  2
DASH_DOUBLE_DOT
 70
     0
  3
Dash Double-Dot __ . . __ . . __ . . __ . .
 72
    65
 73
     6
 40
0.4398
 49
0.24
 74
     0
 49
-0.06
 74
     0
 49
0.0098
 74
     0
 49
-0.06
 74
     0
 49
0.01
 74
     0
 49
-0.06
 74
     0
  0
LTYPE
  5
83
330
5
100
AcDbSymbolTableRecord
100
AcDbLinetypeTableRecord
  2
DASHED_SPACE
 70
     0
  3
Dashed Space __ __ __ __ __ __ __ __ __ __ __ _
 72
    65
 73
     2
 40
0.2067
 49
0.1654
 74
     0
 49
-0.0413
 74
     0
  0
LTYPE
  5
84
330
5
100
AcDbSymbolTableRecord
100
AcDbLinetypeTableRecord
  2
DOTTED
 70
     0
  3
Dotted . . . . . . . . . . . . . . . . . . . . 
 72
    65
 73
     2
 40
0.0482
 49
0.0069
 74
     0
 49
-0.0413
 74
     0
  0
LTYPE
  5
85
330
5
100
AcDbSymbolTableRecord
100
AcDbLinetypeTableRecord
  2
DOUBLE_DASH_CHAIN
 70
     0
  3
Double-Dash Chain ______  __  __  ______  __  _
 72
    65
 73
     6
 40
1.240299999999999
 49
0.6614
 74
     0
 49
-0.0827
 74
     0
 49
0.1654
 74
     0
 49
-0.0827
 74
     0
 49
0.1654
 74
     0
 49
-0.0827
 74
     0
  0
LTYPE
  5
87
330
5
100
AcDbSymbolTableRecord
100
AcDbLinetypeTableRecord
  2
DOUBLE_DASH_DOUBLE_DOT
 70
     0
  3
Double-Dash Double-dot _ _ . . _ _ . . _
 72
    65
 73
     8
 40
0.7400000000000001
 49
0.24
 74
     0
 49
-0.06
 74
     0
 49
0.24
 74
     0
 49
-0.06
 74
     0
 49
0.01
 74
     0
 49
-0.06
 74
     0
 49
0.01
 74
     0
 49
-0.06
 74
     0
  0
LTYPE
  5
88
330
5
100
AcDbSymbolTableRecord
100
AcDbLinetypeTableRecord
  2
DOUBLE_DASH_TRIPLE_DOT
 70
     0
  3
Double Dash Triple Dot __ __ . . . __ __ . .
 72
    65
 73
    10
 40
0.8100000000000001
 49
0.24
 74
     0
 49
-0.06
 74
     0
 49
0.24
 74
     0
 49
-0.06
 74
     0
 49
0.01
 74
     0
 49
-0.06
 74
     0
 49
0.01
 74
     0
 49
-0.06
 74
     0
 49
0.01
 74
     0
 49
-0.06
 74
     0
  0
LTYPE
  5
89
330
5
100
AcDbSymbolTableRecord
100
AcDbLinetypeTableRecord
  2
LONG_DASH_DOTTED
 70
     0
  3
Long Dash Dotted ____ . ____ . ____ . ____ . _
 72
    65
 73
     4
 40
0.3543
 49
0.2362
 74
     0
 49
-0.0295
 74
     0
 49
0.0591
 74
     0
 49
-0.0295
 74
     0
  0
LTYPE
  5
8A
330
5
100
AcDbSymbolTableRecord
100
AcDbLinetypeTableRecord
  2
LONG_DASH_DOUBLE_DOT
 70
     0
  3
Long Dash Double Dot ________  .  .  ________  
 72
    65
 73
     6
 40
0.6799999999999999
 49
0.48
 74
     0
 49
-0.06
 74
     0
 49
0.01
 74
     0
 49
-0.06
 74
     0
 49
0.01
 74
     0
 49
-0.06
 74
     0
  0
LTYPE
  5
8B
330
5
100
AcDbSymbolTableRecord
100
AcDbLinetypeTableRecord
  2
LONG_DASH_TRIPLE_DOT
 70
     0
  3
Long Dash Triple Dot ____ ... ____ ... ____
 72
    65
 73
     8
 40
0.3689
 49
0.2362
 74
     0
 49
-0.0295
 74
     0
 49
0.0049
 74
     0
 49
-0.0295
 74
     0
 49
0.0049
 74
     0
 49
-0.0295
 74
     0
 49
0.0049
 74
     0
 49
-0.0295
 74
     0
  0
LTYPE
  5
8C
330
5
100
AcDbSymbolTableRecord
100
AcDbLinetypeTableRecord
  2
BORDER
 70
     0
  3
Border __ __ . __ __ . __ __ . __ __ . __ __ .
 72
    65
 73
     6
 40
1.75
 49
0.5
 74
     0
 49
-0.25
 74
     0
 49
0.5
 74
     0
 49
-0.25
 74
     0
 49
0.0
 74
     0
 49
-0.25
 74
     0
  0
LTYPE
  5
8D
330
5
100
AcDbSymbolTableRecord
100
AcDbLinetypeTableRecord
  2
BORDER2
 70
     0
  3
Border (.5x) __.__.__.__.__.__.__.__.__.__.__.
 72
    65
 73
     6
 40
0.875
 49
0.25
 74
     0
 49
-0.125
 74
     0
 49
0.25
 74
     0
 49
-0.125
 74
     0
 49
0.0
 74
     0
 49
-0.125
 74
     0
  0
LTYPE
  5
8E
330
5
100
AcDbSymbolTableRecord
100
AcDbLinetypeTableRecord
  2
BORDERX2
 70
     0
  3
Border (2x) ____  ____  .  ____  ____  .  ___
 72
    65
 73
     6
 40
3.5
 49
1.0
 74
     0
 49
-0.5
 74
     0
 49
1.0
 74
     0
 49
-0.5
 74
     0
 49
0.0
 74
     0
 49
-0.5
 74
     0
  0
LTYPE
  5
8F
330
5
100
AcDbSymbolTableRecord
100
AcDbLinetypeTableRecord
  2
CENTER
 70
     0
  3
Center ____ _ ____ _ ____ _ ____ _ ____ _ ____
 72
    65
 73
     4
 40
2.0
 49
1.25
 74
     0
 49
-0.25
 74
     0
 49
0.25
 74
     0
 49
-0.25
 74
     0
  0
LTYPE
  5
90
330
5
100
AcDbSymbolTableRecord
100
AcDbLinetypeTableRecord
  2
CENTER2
 70
     0
  3
Center (.5x) ___ _ ___ _ ___ _ ___ _ ___ _ ___
 72
    65
 73
     4
 40
1.125
 49
0.75
 74
     0
 49
-0.125
 74
     0
 49
0.125
 74
     0
 49
-0.125
 74
     0
  0
LTYPE
  5
91
330
5
100
AcDbSymbolTableRecord
100
AcDbLinetypeTableRecord
  2
CENTERX2
 70
     0
  3
Center (2x) ________  __  ________  __  _____
 72
    65
 73
     4
 40
4.0
 49
2.5
 74
     0
 49
-0.5
 74
     0
 49
0.5
 74
     0
 49
-0.5
 74
     0
  0
LTYPE
  5
92
330
5
100
AcDbSymbolTableRecord
100
AcDbLinetypeTableRecord
  2
DASHDOT2
 70
     0
  3
Dash dot (.5x) _._._._._._._._._._._._._._._.
 72
    65
 73
     4
 40
0.5
 49
0.25
 74
     0
 49
-0.125
 74
     0
 49
0.0
 74
     0
 49
-0.125
 74
     0
  0
LTYPE
  5
93
330
5
100
AcDbSymbolTableRecord
100
AcDbLinetypeTableRecord
  2
DASHDOTX2
 70
     0
  3
Dash dot (2x) ____  .  ____  .  ____  .  ___
 72
    65
 73
     4
 40
2.0
 49
1.0
 74
     0
 49
-0.5
 74
     0
 49
0.0
 74
     0
 49
-0.5
 74
     0
  0
LTYPE
  5
95
330
5
100
AcDbSymbolTableRecord
100
AcDbLinetypeTableRecord
  2
DASHED2
 70
     0
  3
Dashed (.5x) _ _ _ _ _ _ _ _ _ _ _ _ _ _ _ _ _
 72
    65
 73
     2
 40
0.375
 49
0.25
 74
     0
 49
-0.125
 74
     0
  0
LTYPE
  5
96
330
5
100
AcDbSymbolTableRecord
100
AcDbLinetypeTableRecord
  2
DASHEDX2
 70
     0
  3
Dashed (2x) ____  ____  ____  ____  ____  ___
 72
    65
 73
     2
 40
1.5
 49
1.0
 74
     0
 49
-0.5
 74
     0
  0
LTYPE
  5
97
330
5
100
AcDbSymbolTableRecord
100
AcDbLinetypeTableRecord
  2
DIVIDE
 70
     0
  3
Divide ____ . . ____ . . ____ . . ____ . . ____
 72
    65
 73
     6
 40
1.25
 49
0.5
 74
     0
 49
-0.25
 74
     0
 49
0.0
 74
     0
 49
-0.25
 74
     0
 49
0.0
 74
     0
 49
-0.25
 74
     0
  0
LTYPE
  5
98
330
5
100
AcDbSymbolTableRecord
100
AcDbLinetypeTableRecord
  2
DIVIDE2
 70
     0
  3
Divide (.5x) __..__..__..__..__..__..__..__.._
 72
    65
 73
     6
 40
0.625
 49
0.25
 74
     0
 49
-0.125
 74
     0
 49
0.0
 74
     0
 49
-0.125
 74
     0
 49
0.0
 74
     0
 49
-0.125
 74
     0
  0
LTYPE
  5
99
330
5
100
AcDbSymbolTableRecord
100
AcDbLinetypeTableRecord
  2
DIVIDEX2
 70
     0
  3
Divide (2x) ________  .  .  ________  .  .  _
 72
    65
 73
     6
 40
2.5
 49
1.0
 74
     0
 49
-0.5
 74
     0
 49
0.0
 74
     0
 49
-0.5
 74
     0
 49
0.0
 74
     0
 49
-0.5
 74
     0
  0
LTYPE
  5
9A
330
5
100
AcDbSymbolTableRecord
100
AcDbLinetypeTableRecord
  2
DOT
 70
     0
  3
Dot . . . . . . . . . . . . . . . . . . . . . .
 72
    65
 73
     2
 40
0.25
 49
0.0
 74
     0
 49
-0.25
 74
     0
  0
LTYPE
  5
9B
330
5
100
AcDbSymbolTableRecord
100
AcDbLinetypeTableRecord
  2
DOT2
 70
     0
  3
Dot (.5x) .....................................
 72
    65
 73
     2
 40
0.125
 49
0.0
 74
     0
 49
-0.125
 74
     0
  0
LTYPE
  5
9C
330
5
100
AcDbSymbolTableRecord
100
AcDbLinetypeTableRecord
  2
DOTX2
 70
     0
  3
Dot (2x) .  .  .  .  .  .  .  .  .  .  .  .  . 
 72
    65
 73
     2
 40
0.5
 49
0.0
 74
     0
 49
-0.5
 74
     0
  0
LTYPE
  5
9D
330
5
100
AcDbSymbolTableRecord
100
AcDbLinetypeTableRecord
  2
HIDDEN
 70
     0
  3
Hidden __ __ __ __ __ __ __ __ __ __ __ __ __ _
 72
    65
 73
     2
 40
0.375
 49
0.25
 74
     0
 49
-0.125
 74
     0
  0
LTYPE
  5
9E
330
5
100
AcDbSymbolTableRecord
100
AcDbLinetypeTableRecord
  2
HIDDEN2
 70
     0
  3
Hidden (.5x) _ _ _ _ _ _ _ _ _ _ _ _ _ _ _ _ _
 72
    65
 73
     2
 40
0.1875
 49
0.125
 74
     0
 49
-0.0625
 74
     0
  0
LTYPE
  5
9F
330
5
100
AcDbSymbolTableRecord
100
AcDbLinetypeTableRecord
  2
HIDDENX2
 70
     0
  3
Hidden (2x) ____ ____ ____ ____ ____ ____ ____
 72
    65
 73
     2
 40
0.75
 49
0.5
 74
     0
 49
-0.25
 74
     0
  0
LTYPE
  5
A0
330
5
100
AcDbSymbolTableRecord
100
AcDbLinetypeTableRecord
  2
PHANTOM
 70
     0
  3
Phantom ______  __  __  ______  __  __  ______
 72
    65
 73
     6
 40
2.5
 49
1.25
 74
     0
 49
-0.25
 74
     0
 49
0.25
 74
     0
 49
-0.25
 74
     0
 49
0.25
 74
     0
 49
-0.25
 74
     0
  0
LTYPE
  5
A1
330
5
100
AcDbSymbolTableRecord
100
AcDbLinetypeTableRecord
  2
PHANTOM2
 70
     0
  3
Phantom (.5x) ___ _ _ ___ _ _ ___ _ _ ___ _ _
 72
    65
 73
     6
 40
1.25
 49
0.625
 74
     0
 49
-0.125
 74
     0
 49
0.125
 74
     0
 49
-0.125
 74
     0
 49
0.125
 74
     0
 49
-0.125
 74
     0
  0
LTYPE
  5
A2
330
5
100
AcDbSymbolTableRecord
100
AcDbLinetypeTableRecord
  2
PHANTOMX2
 70
     0
  3
Phantom (2x) ____________    ____    ____   _
 72
    65
 73
     6
 40
5.0
 49
2.5
 74
     0
 49
-0.5
 74
     0
 49
0.5
 74
     0
 49
-0.5
 74
     0
 49
0.5
 74
     0
 49
-0.5
 74
     0
  0
LTYPE
  5
A3
330
5
100
AcDbSymbolTableRecord
100
AcDbLinetypeTableRecord
  2
ACAD_ISO02W100
 70
     0
  3
ISO dash __ __ __ __ __ __ __ __ __ __ __ __ __
 72
    65
 73
     2
 40
0.59
 49
0.47
 74
     0
 49
-0.12
 74
     0
  0
LTYPE
  5
A4
330
5
100
AcDbSymbolTableRecord
100
AcDbLinetypeTableRecord
  2
ACAD_ISO03W100
 70
     0
  3
ISO dash space __    __    __    __    __    __
 72
    65
 73
     2
 40
1.179999999999999
 49
0.47
 74
     0
 49
-0.71
 74
     0
  0
LTYPE
  5
A5
330
5
100
AcDbSymbolTableRecord
100
AcDbLinetypeTableRecord
  2
ACAD_ISO04W100
 70
     0
  3
ISO long-dash dot ____ . ____ . ____ . ____ . _
 72
    65
 73
     4
 40
1.179999999999999
 49
0.9399999999999998
 74
     0
 49
-0.12
 74
     0
 49
0.0
 74
     0
 49
-0.12
 74
     0
  0
LTYPE
  5
A6
330
5
100
AcDbSymbolTableRecord
100
AcDbLinetypeTableRecord
  2
ACAD_ISO05W100
 70
     0
  3
ISO long-dash double-dot ____ .. ____ .. ____ .
 72
    65
 73
     6
 40
1.299999999999999
 49
0.9399999999999998
 74
     0
 49
-0.12
 74
     0
 49
0.0
 74
     0
 49
-0.12
 74
     0
 49
0.0
 74
     0
 49
-0.12
 74
     0
  0
LTYPE
  5
A7
330
5
100
AcDbSymbolTableRecord
100
AcDbLinetypeTableRecord
  2
ACAD_ISO06W100
 70
     0
  3
ISO long-dash triple-dot ____ ... ____ ... ____
 72
    65
 73
     8
 40
1.419999999999999
 49
0.9399999999999998
 74
     0
 49
-0.12
 74
     0
 49
0.0
 74
     0
 49
-0.12
 74
     0
 49
0.0
 74
     0
 49
-0.12
 74
     0
 49
0.0
 74
     0
 49
-0.12
 74
     0
  0
LTYPE
  5
A8
330
5
100
AcDbSymbolTableRecord
100
AcDbLinetypeTableRecord
  2
ACAD_ISO07W100
 70
     0
  3
ISO dot . . . . . . . . . . . . . . . . . . . .
 72
    65
 73
     2
 40
0.12
 49
0.0
 74
     0
 49
-0.12
 74
     0
  0
LTYPE
  5
A9
330
5
100
AcDbSymbolTableRecord
100
AcDbLinetypeTableRecord
  2
ACAD_ISO08W100
 70
     0
  3
ISO long-dash short-dash ____ __ ____ __ ____ _
 72
    65
 73
     4
 40
0.95
 49
0.47
 74
     0
 49
-0.12
 74
     0
 49
0.24
 74
     0
 49
-0.12
 74
     0
  0
LTYPE
  5
AA
330
5
100
AcDbSymbolTableRecord
100
AcDbLinetypeTableRecord
  2
ACAD_ISO09W100
 70
     0
  3
ISO long-dash double-short-dash ____ __ __ ____
 72
    65
 73
     6
 40
1.31
 49
0.47
 74
     0
 49
-0.12
 74
     0
 49
0.24
 74
     0
 49
-0.12
 74
     0
 49
0.24
 74
     0
 49
-0.12
 74
     0
  0
LTYPE
  5
AB
330
5
100
AcDbSymbolTableRecord
100
AcDbLinetypeTableRecord
  2
ACAD_ISO10W100
 70
     0
  3
ISO dash dot __ . __ . __ . __ . __ . __ . __ .
 72
    65
 73
     4
 40
0.71
 49
0.47
 74
     0
 49
-0.12
 74
     0
 49
0.0
 74
     0
 49
-0.12
 74
     0
  0
LTYPE
  5
AC
330
5
100
AcDbSymbolTableRecord
100
AcDbLinetypeTableRecord
  2
ACAD_ISO11W100
 70
     0
  3
ISO double-dash dot __ __ . __ __ . __ __ . __ 
 72
    65
 73
     6
 40
1.299999999999999
 49
0.47
 74
     0
 49
-0.12
 74
     0
 49
0.47
 74
     0
 49
-0.12
 74
     0
 49
0.0
 74
     0
 49
-0.12
 74
     0
  0
LTYPE
  5
AD
330
5
100
AcDbSymbolTableRecord
100
AcDbLinetypeTableRecord
  2
ACAD_ISO12W100
 70
     0
  3
ISO dash double-dot __ . . __ . . __ . . __ . .
 72
    65
 73
     6
 40
0.8299999999999998
 49
0.47
 74
     0
 49
-0.12
 74
     0
 49
0.0
 74
     0
 49
-0.12
 74
     0
 49
0.0
 74
     0
 49
-0.12
 74
     0
  0
LTYPE
  5
AE
330
5
100
AcDbSymbolTableRecord
100
AcDbLinetypeTableRecord
  2
ACAD_ISO13W100
 70
     0
  3
ISO double-dash double-dot __ __ . . __ __ . . 
 72
    65
 73
     8
 40
1.419999999999999
 49
0.47
 74
     0
 49
-0.12
 74
     0
 49
0.47
 74
     0
 49
-0.12
 74
     0
 49
0.0
 74
     0
 49
-0.12
 74
     0
 49
0.0
 74
     0
 49
-0.12
 74
     0
  0
LTYPE
  5
AF
330
5
100
AcDbSymbolTableRecord
100
AcDbLinetypeTableRecord
  2
ACAD_ISO14W100
 70
     0
  3
ISO dash triple-dot __ . . . __ . . . __ . . . 
 72
    65
 73
     8
 40
0.95
 49
0.47
 74
     0
 49
-0.12
 74
     0
 49
0.0
 74
     0
 49
-0.12
 74
     0
 49
0.0
 74
     0
 49
-0.12
 74
     0
 49
0.0
 74
     0
 49
-0.12
 74
     0
  0
LTYPE
  5
B0
330
5
100
AcDbSymbolTableRecord
100
AcDbLinetypeTableRecord
  2
ACAD_ISO15W100
 70
     0
  3
ISO double-dash triple-dot __ __ . . . __ __ . 
 72
    65
 73
    10
 40
1.539999999999999
 49
0.47
 74
     0
 49
-0.12
 74
     0
 49
0.47
 74
     0
 49
-0.12
 74
     0
 49
0.0
 74
     0
 49
-0.12
 74
     0
 49
0.0
 74
     0
 49
-0.12
 74
     0
 49
0.0
 74
     0
 49
-0.12
 74
     0
  0
LTYPE
  5
B3
330
5
100
AcDbSymbolTableRecord
100
AcDbLinetypeTableRecord
  2
FENCELINE1
 70
     0
  3
Fenceline circle ----0-----0----0-----0----0---
 72
    65
 73
     4
 40
1.45
 49
0.25
 74
     0
 49
-0.1
 74
     4
 75
   133
340
B2
 46
0.1
 50
0.0
 44
-0.1
 45
0.0
 49
-0.1
 74
     0
 49
1.0
 74
     0
  0
LTYPE
  5
B4
330
5
100
AcDbSymbolTableRecord
100
AcDbLinetypeTableRecord
  2
FENCELINE2
 70
     0
  3
Fenceline square ----[]-----[]----[]-----[]----
 72
    65
 73
     4
 40
1.45
 49
0.25
 74
     0
 49
-0.1
 74
     4
 75
   132
340
B2
 46
0.1
 50
0.0
 44
-0.1
 45
0.0
 49
-0.1
 74
     0
 49
1.0
 74
     0
  0
LTYPE
  5
B5
330
5
100
AcDbSymbolTableRecord
100
AcDbLinetypeTableRecord
  2
TRACKS
 70
     0
  3
Tracks -|-|-|-|-|-|-|-|-|-|-|-|-|-|-|-|-|-|-|-|
 72
    65
 73
     2
 40
0.3
 49
0.15
 74
     4
 75
   130
340
B2
 46
0.25
 50
0.0
 44
0.0
 45
0.0
 49
0.15
 74
     0
  0
LTYPE
  5
B6
330
5
100
AcDbSymbolTableRecord
100
AcDbLinetypeTableRecord
  2
BATTING
 70
     0
  3
Batting SSSSSSSSSSSSSSSSSSSSSSSSSSSSSSSSSSSSSSS
 72
    65
 73
     4
 40
0.4001000000000001
 49
0.0001
 74
     0
 49
-0.1
 74
     4
 75
   134
340
B2
 46
0.1
 50
0.0
 44
-0.1
 45
0.0
 49
-0.2
 74
     4
 75
   134
340
B2
 46
0.1
 50
180.0
 44
0.1
 45
0.0
 49
-0.1
 74
     0
  0
LTYPE
  5
B7
330
5
100
AcDbSymbolTableRecord
100
AcDbLinetypeTableRecord
  2
HOT_WATER_SUPPLY
 70
     0
  3
Hot water supply ---- HW ---- HW ---- HW ----
 72
    65
 73
     3
 40
0.9
 49
0.5
 74
     0
 49
-0.2
 74
     2
 75
     0
340
55
 46
0.1
 50
0.0
 44
-0.1
 45
-0.05
  9
HW
 49
-0.2
 74
     0
  0
LTYPE
  5
B8
330
5
100
AcDbSymbolTableRecord
100
AcDbLinetypeTableRecord
  2
GAS_LINE
 70
     0
  3
Gas line ----GAS----GAS----GAS----GAS----GAS---
 72
    65
 73
     3
 40
0.95
 49
0.5
 74
     0
 49
-0.2
 74
     2
 75
     0
340
55
 46
0.1
 50
0.0
 44
-0.1
 45
-0.05
  9
GAS
 49
-0.25
 74
     0
  0
LTYPE
  5
B9
330
5
100
AcDbSymbolTableRecord
100
AcDbLinetypeTableRecord
  2
ZIGZAG
 70
     0
  3
Zig zag /\/\/\/\/\/\/\/\/\/\/\/\/\/\/\/\/\/\/\/
 72
    65
 73
     4
 40
0.8001000000000001
 49
0.0001
 74
     0
 49
-0.2
 74
     4
 75
   131
340
B2
 46
0.2
 50
0.0
 44
-0.2
 45
0.0
 49
-0.4
 74
     4
 75
   131
340
B2
 46
0.2
 50
180.0
 44
0.2
 45
0.0
 49
-0.2
 74
     0
  0
ENDTAB
  0
TABLE
  2
LAYER
  5
2
330
0
100
AcDbSymbolTable
 70
    27
  0
LAYER
  5
54
330
2
100
AcDbSymbolTableRecord
100
AcDbLayerTableRecord
  2
0
 70
     0
 62
     7
  6
Continuous
370
    18
390
F
  0
LAYER
  5
C0
330
2
100
AcDbSymbolTableRecord
100
AcDbLayerTableRecord
  2
Center Mark (ANSI)
 70
     0
 62
     7
  6
Continuous
370
    15
390
F
  0
LAYER
  5
C1
330
2
100
AcDbSymbolTableRecord
100
AcDbLayerTableRecord
  2
Centerline (ANSI)
 70
     0
 62
     7
  6
Continuous
370
    15
390
F
  0
LAYER
  5
C3
330
2
100
AcDbSymbolTableRecord
100
AcDbLayerTableRecord
  2
Dimension (ANSI)
 70
     0
 62
     7
  6
Continuous
370
    13
390
F
  0
LAYER
  5
C5
330
2
100
AcDbSymbolTableRecord
100
AcDbLayerTableRecord
  2
Hidden (ANSI)
 70
     0
 62
     7
  6
DASHED
370
    15
390
F
  0
LAYER
  5
CB
330
2
100
AcDbSymbolTableRecord
100
AcDbLayerTableRecord
  2
Sketch Geometry (ANSI)
 70
     0
 62
     7
  6
Continuous
370
    20
390
F
  0
LAYER
  5
CC
330
2
100
AcDbSymbolTableRecord
100
AcDbLayerTableRecord
  2
Symbol (ANSI)
 70
     0
 62
     7
  6
Continuous
370
    18
390
F
  0
LAYER
  5
CF
330
2
100
AcDbSymbolTableRecord
100
AcDbLayerTableRecord
  2
Visible (ANSI)
 70
     0
 62
     7
  6
Continuous
370
    13
390
F
  0
LAYER
  5
D0
330
2
100
AcDbSymbolTableRecord
100
AcDbLayerTableRecord
  2
Visible Narrow (ANSI)
 70
     0
 62
     7
  6
Continuous
370
    18
390
F
  0
LAYER
  5
16F
330
2
100
AcDbSymbolTableRecord
100
AcDbLayerTableRecord
  2
Defpoints
 70
     0
 62
     7
  6
Continuous
290
     0
370
    -3
390
F
  0
ENDTAB
  0
TABLE
  2
STYLE
  5
3
330
0
100
AcDbSymbolTable
 70
    18
  0
STYLE
  5
55
330
3
100
AcDbSymbolTableRecord
100
AcDbTextStyleTableRecord
  2
Standard
 70
     0
 40
0.0
 41
1.0
 50
0.0
 71
     0
 42
0.2
  3
txt
  4

  0
STYLE
  5
5A
330
3
100
AcDbSymbolTableRecord
100
AcDbTextStyleTableRecord
  2
Annotative
 70
     0
 40
0.0
 41
1.0
 50
0.0
 71
     0
 42
0.2
  3
txt
  4

1001
AcadAnnotative
1000
AnnotativeData
1002
{
1070
     1
1070
     1
1002
}
  0
STYLE
  5
B2
330
3
100
AcDbSymbolTableRecord
100
AcDbTextStyleTableRecord
  2

 70
     1
 40
0.0
 41
1.0
 50
0.0
 71
     0
 42
0.2
  3
ltypeshp.shx
  4

  0
STYLE
  5
D4
330
3
100
AcDbSymbolTableRecord
100
AcDbTextStyleTableRecord
  2
ITALICC_120
 70
     0
 40
0.0
 41
1.0
 50
0.0
 71
     0
 42
0.2
  3
italicc.shx
  4

  0
STYLE
  5
D5
330
3
100
AcDbSymbolTableRecord
100
AcDbTextStyleTableRecord
  2
Label Text (ANSI)
 70
     0
 40
0.0
 41
1.0
 50
0.0
 71
     0
 42
0.2
  3
tahoma.ttf
  4

1001
ACAD
1000
Tahoma
1071
      256
  0
STYLE
  5
D6
330
3
100
AcDbSymbolTableRecord
100
AcDbTextStyleTableRecord
  2
Note Text (ANSI)
 70
     0
 40
0.0
 41
1.0
 50
0.0
 71
     0
 42
0.2
  3
tahoma.ttf
  4

1001
ACAD
1000
Tahoma
1071
      256
  0
STYLE
  5
D7
330
3
100
AcDbSymbolTableRecord
100
AcDbTextStyleTableRecord
  2
ROMANS
 70
     0
 40
0.0
 41
1.0
 50
0.0
 71
     0
 42
0.2
  3
romans.shx
  4

  0
STYLE
  5
D8
330
3
100
AcDbSymbolTableRecord
100
AcDbTextStyleTableRecord
  2
SANSSERIF_114
 70
     0
 40
0.0
 41
1.0
 50
0.0
 71
     0
 42
0.2
  3
tahoma.ttf
  4

1001
ACAD
1000
Tahoma
1071
      256
  0
STYLE
  5
D9
330
3
100
AcDbSymbolTableRecord
100
AcDbTextStyleTableRecord
  2
SANSSERIF_117
 70
     0
 40
0.0
 41
1.0
 50
0.0
 71
     0
 42
0.2
  3
tahoma.ttf
  4

1001
ACAD
1000
Tahoma
1071
      256
  0
STYLE
  5
DA
330
3
100
AcDbSymbolTableRecord
100
AcDbTextStyleTableRecord
  2
STANDARDAM_ANSI
 70
     0
 40
0.0
 41
1.0
 50
0.0
 71
     0
 42
0.2
  3
txt.shx
  4

  0
STYLE
  5
DB
330
3
100
AcDbSymbolTableRecord
100
AcDbTextStyleTableRecord
  2
StandardAM_ANSI$0
 70
     0
 40
0.0
 41
1.0
 50
0.0
 71
     0
 42
0.2
  3
txt.shx
  4

  0
STYLE
  5
DC
330
3
100
AcDbSymbolTableRecord
100
AcDbTextStyleTableRecord
  2
STANDARDAM_ANSI$3
 70
     0
 40
0.0
 41
1.0
 50
0.0
 71
     0
 42
0.2
  3
txt.shx
  4

  0
STYLE
  5
DD
330
3
100
AcDbSymbolTableRecord
100
AcDbTextStyleTableRecord
  2
STANDARDAM_ANSI$4
 70
     0
 40
0.0
 41
1.0
 50
0.0
 71
     0
 42
0.2
  3
txt.shx
  4

  0
STYLE
  5
DE
330
3
100
AcDbSymbolTableRecord
100
AcDbTextStyleTableRecord
  2
STANDARDAM_ANSI$7
 70
     0
 40
0.0
 41
1.0
 50
0.0
 71
     0
 42
0.2
  3
txt.shx
  4

  0
STYLE
  5
DF
330
3
100
AcDbSymbolTableRecord
100
AcDbTextStyleTableRecord
  2
STANDARDAM_ANSI$SF
 70
     0
 40
0.0
 41
1.0
 50
0.0
 71
     0
 42
0.2
  3
txt.shx
  4

  0
STYLE
  5
E0
330
3
100
AcDbSymbolTableRecord
100
AcDbTextStyleTableRecord
  2
STANDARDAM_ANSI$SH
 70
     0
 40
0.0
 41
1.0
 50
0.0
 71
     0
 42
0.2
  3
txt.shx
  4

  0
STYLE
  5
E1
330
3
100
AcDbSymbolTableRecord
100
AcDbTextStyleTableRecord
  2
STANDARDSTANDARD
 70
     0
 40
0.0
 41
1.0
 50
0.0
 71
     0
 42
0.2
  3
txt.shx
  4

  0
STYLE
  5
130
330
3
100
AcDbSymbolTableRecord
100
AcDbTextStyleTableRecord
  2
Text Style166
 70
     0
 40
0.0
 41
1.0
 50
0.0
 71
     0
 42
0.2
  3
tahoma.ttf
  4

1001
ACAD
1000
Tahoma
1071
      256
  0
ENDTAB
  0
TABLE
  2
VIEW
  5
6
330
0
100
AcDbSymbolTable
 70
     0
  0
ENDTAB
  0
TABLE
  2
UCS
  5
7
330
0
100
AcDbSymbolTable
 70
     0
  0
ENDTAB
  0
TABLE
  2
APPID
  5
9
330
0
100
AcDbSymbolTable
 70
     4
  0
APPID
  5
56
330
9
100
AcDbSymbolTableRecord
100
AcDbRegAppTableRecord
  2
ACAD
 70
     0
  0
APPID
  5
5E
330
9
100
AcDbSymbolTableRecord
100
AcDbRegAppTableRecord
  2
AcadAnnotative
 70
     0
  0
APPID
  5
5C2
330
9
100
AcDbSymbolTableRecord
100
AcDbRegAppTableRecord
  2
ACAD_DSTYLE_DIMRADIAL_EXTENSION
 70
     0
  0
APPID
  5
E98
330
9
100
AcDbSymbolTableRecord
100
AcDbRegAppTableRecord
  2
ACAD_MLEADERVER
 70
     0
  0
ENDTAB
  0
TABLE
  2
DIMSTYLE
  5
A
330
0
100
AcDbSymbolTable
 70
    27
100
AcDbDimStyleTable
 71
     2
340
F6
340
58
  0
DIMSTYLE
105
58
330
A
100
AcDbSymbolTableRecord
100
AcDbDimStyleTableRecord
  2
STANDARD
 70
     0
 41
0.1800000071525573
 42
0.0625
140
0.1800000071525574
144
1.0
147
0.0900000035762787
176
   256
177
   256
178
   256
274
     3
340
55
371
    -1
372
    -1
  0
DIMSTYLE
105
59
330
A
100
AcDbSymbolTableRecord
100
AcDbDimStyleTableRecord
  2
Annotative
 70
     0
340
55
1001
AcadAnnotative
1000
AnnotativeData
1002
{
1070
     1
1070
     1
1002
}
  0
DIMSTYLE
105
E2
330
A
100
AcDbSymbolTableRecord
100
AcDbDimStyleTableRecord
  2
AM_ANSI
 70
     0
  4
 mm
 40
1.25
 41
0.119999997317791
 42
0.05
 43
0.5
 44
0.1
 45
0.00000001
 78
     4
 79
     2
140
0.1200000047683716
146
0.7099999189376831
147
0.0599999986588955
176
   256
177
   256
178
     2
284
     4
340
DA
371
    -1
372
    -1
  0
DIMSTYLE
105
E3
330
A
100
AcDbSymbolTableRecord
100
AcDbDimStyleTableRecord
  2
AM_ANSI$7
 70
     0
  4
 mm
 40
1.25
 41
0.119999997317791
 42
0.05
 43
0.5
 44
0.1
 45
0.00000001
 78
     4
 79
     2
140
0.1200000047683716
146
0.7099999189376831
147
0.0599999986588955
176
   256
177
   256
178
     2
284
     4
340
DA
371
    -1
372
    -1
  0
DIMSTYLE
105
E4
330
A
100
AcDbSymbolTableRecord
100
AcDbDimStyleTableRecord
  2
AM_ANSI$0
 70
     0
  4
 mm
 40
1.25
 41
0.119999997317791
 42
0.05
 43
0.5
 44
0.1
 45
0.00000001
 78
     4
 79
     2
140
0.1200000047683716
146
0.7099999189376831
147
0.0599999986588955
176
   256
177
   256
178
     2
284
     4
340
DB
371
    -1
372
    -1
  0
DIMSTYLE
105
E5
330
A
100
AcDbSymbolTableRecord
100
AcDbDimStyleTableRecord
  2
AM_ANSI$0$7
 70
     0
  4
 mm
 40
1.25
 41
0.119999997317791
 42
0.05
 43
0.5
 44
0.1
 45
0.00000001
 78
     4
 79
     2
140
0.1200000047683716
146
0.7099999189376831
147
0.0599999986588955
176
   256
177
   256
178
     2
284
     4
340
DB
371
    -1
372
    -1
  0
DIMSTYLE
105
E6
330
A
100
AcDbSymbolTableRecord
100
AcDbDimStyleTableRecord
  2
AM_ANSI$3
 70
     0
  4
 mm
 40
1.25
 41
0.119999997317791
 42
0.05
 43
0.5
 44
0.1
 45
0.00000001
 78
     4
 79
     2
140
0.1200000047683716
146
0.7099999189376831
147
0.0599999986588955
176
   256
177
   256
178
     2
284
     4
340
DC
371
    -1
372
    -1
  0
DIMSTYLE
105
E7
330
A
100
AcDbSymbolTableRecord
100
AcDbDimStyleTableRecord
  2
AM_ANSI$3$7
 70
     0
  4
 mm
 40
1.25
 41
0.119999997317791
 42
0.05
 43
0.5
 44
0.1
 45
0.00000001
 78
     4
 79
     2
140
0.1200000047683716
146
0.7099999189376831
147
0.0599999986588955
176
   256
177
   256
178
     2
284
     4
340
DC
371
    -1
372
    -1
  0
DIMSTYLE
105
E8
330
A
100
AcDbSymbolTableRecord
100
AcDbDimStyleTableRecord
  2
AM_ANSI$4
 70
     0
  4
 mm
 40
1.25
 41
0.119999997317791
 42
0.05
 43
0.5
 44
0.1
 45
0.00000001
 78
     4
 79
     2
140
0.1200000047683716
146
0.7099999189376831
147
0.0599999986588955
176
   256
177
   256
178
     2
284
     4
340
DD
371
    -1
372
    -1
  0
DIMSTYLE
105
E9
330
A
100
AcDbSymbolTableRecord
100
AcDbDimStyleTableRecord
  2
AM_ANSI$4$7
 70
     0
  4
 mm
 40
1.25
 41
0.119999997317791
 42
0.05
 43
0.5
 44
0.1
 45
0.00000001
 78
     4
 79
     2
140
0.1200000047683716
146
0.7099999189376831
147
0.0599999986588955
176
   256
177
   256
178
     2
284
     4
340
DD
371
    -1
372
    -1
  0
DIMSTYLE
105
EA
330
A
100
AcDbSymbolTableRecord
100
AcDbDimStyleTableRecord
  2
AM_ANSI$SF
 70
     0
  4
 mm
 40
1.25
 41
0.119999997317791
 42
0.05
 43
0.5
 44
0.1
 45
0.00000001
 75
     1
 76
     1
 78
     4
 79
     2
140
0.1200000047683716
146
0.7099999189376831
147
0.0599999986588955
176
   256
177
   256
178
     2
284
     4
340
DF
371
    -1
372
    -1
  0
DIMSTYLE
105
EB
330
A
100
AcDbSymbolTableRecord
100
AcDbDimStyleTableRecord
  2
AM_ANSI$SF$7
 70
     0
  4
 mm
 40
1.25
 41
0.119999997317791
 42
0.05
 43
0.5
 44
0.1
 45
0.00000001
 75
     1
 76
     1
 78
     4
 79
     2
140
0.1200000047683716
146
0.7099999189376831
147
0.0599999986588955
176
   256
177
   256
178
     2
284
     4
340
DF
371
    -1
372
    -1
  0
DIMSTYLE
105
EC
330
A
100
AcDbSymbolTableRecord
100
AcDbDimStyleTableRecord
  2
AM_ANSI$SH
 70
     0
  4
 mm
 40
1.25
 41
0.119999997317791
 42
0.05
 43
0.5
 44
0.1
 45
0.00000001
 75
     1
 76
     1
 78
     4
 79
     2
140
0.1200000047683716
146
0.7099999189376831
147
0.0599999986588955
176
   256
177
   256
178
     2
284
     4
340
E0
371
    -1
372
    -1
  0
DIMSTYLE
105
ED
330
A
100
AcDbSymbolTableRecord
100
AcDbDimStyleTableRecord
  2
AM_ANSI$SH$7
 70
     0
  4
 mm
 40
1.25
 41
0.119999997317791
 42
0.05
 43
0.5
 44
0.1
 45
0.00000001
 75
     1
 76
     1
 78
     4
 79
     2
140
0.1200000047683716
146
0.7099999189376831
147
0.0599999986588955
176
   256
177
   256
178
     2
284
     4
340
E0
371
    -1
372
    -1
  0
DIMSTYLE
105
EE
330
A
100
AcDbSymbolTableRecord
100
AcDbDimStyleTableRecord
  2
Architectural (ANSI)
 70
     0
 40
1.25
 41
0.0984251946210861
 43
0.2362204724409449
 44
0.125
 45
0.00000001
 46
0.3937007874015748
 78
     3
 79
     3
140
0.1200000047683716
147
0.031496062992126
171
     1
176
   256
177
   256
178
   256
272
     2
274
     1
276
     2
277
     4
284
    12
285
     4
286
    12
340
D6
371
    -1
372
    -1
  0
DIMSTYLE
105
EF
330
A
100
AcDbSymbolTableRecord
100
AcDbDimStyleTableRecord
  2
Architectural (ANSI)$7
 70
     0
 40
1.25
 41
0.0984251946210861
 43
0.2362204724409449
 44
0.125
 45
0.00000001
 46
0.3937007874015748
 78
     3
 79
     3
140
0.1200000047683716
147
0.031496062992126
171
     1
176
   256
177
   256
178
   256
272
     2
274
     1
276
     2
277
     4
284
    12
285
     4
286
    12
340
D6
371
    -1
372
    -1
  0
DIMSTYLE
105
F0
330
A
100
AcDbSymbolTableRecord
100
AcDbDimStyleTableRecord
  2
Default - Fraction (ANSI)
 70
     0
 40
1.25
 41
0.0984251946210861
 43
0.2362204724409449
 44
0.125
 45
0.00000001
 46
0.3937007874015748
 79
     3
140
0.1200000047683716
147
0.031496062992126
171
     1
176
   256
177
   256
178
   256
272
     2
274
     1
276
     2
277
     5
284
    12
285
     4
286
    12
340
D6
371
    -1
372
    -1
  0
DIMSTYLE
105
F1
330
A
100
AcDbSymbolTableRecord
100
AcDbDimStyleTableRecord
  2
Default - Fraction (ANSI)$7
 70
     0
 40
1.25
 41
0.0984251946210861
 43
0.2362204724409449
 44
0.125
 45
0.00000001
 46
0.3937007874015748
 79
     3
140
0.1200000047683716
147
0.031496062992126
171
     1
176
   256
177
   256
178
   256
272
     2
274
     1
276
     2
277
     5
284
    12
285
     4
286
    12
340
D6
371
    -1
372
    -1
  0
DIMSTYLE
105
F2
330
A
100
AcDbSymbolTableRecord
100
AcDbDimStyleTableRecord
  2
Default - mm (ANSI)
 70
     0
 40
1.25
 41
0.0984251946210861
 42
0.063
 43
0.2362204724409449
 44
0.125
 45
0.00000001
 46
0.3937007874015748
 73
     0
 78
     4
 79
     1
140
0.1200000047683716
143
1.0
144
25.4
147
0.031496062992126
171
     1
176
   256
177
   256
178
   256
179
     1
271
     2
272
     2
274
     1
284
     4
285
     4
340
D6
371
    -1
372
    -1
  0
DIMSTYLE
105
F3
330
A
100
AcDbSymbolTableRecord
100
AcDbDimStyleTableRecord
  2
Default - mm (ANSI)$7
 70
     0
 40
1.25
 41
0.0984251946210861
 42
0.063
 43
0.2362204724409449
 44
0.125
 45
0.00000001
 46
0.3937007874015748
 73
     0
 78
     4
 79
     1
140
0.1200000047683716
143
1.0
144
25.4
147
0.031496062992126
171
     1
176
   256
177
   256
178
   256
179
     1
271
     2
272
     2
274
     1
284
     4
285
     4
340
D6
371
    -1
372
    -1
  0
DIMSTYLE
105
F4
330
A
100
AcDbSymbolTableRecord
100
AcDbDimStyleTableRecord
  2
Default - mm [in] (ANSI)
 70
     0
  4
 in
 40
1.25
 41
0.0984251946210861
 42
0.063
 43
0.25
 44
0.125
 45
0.00000001
 46
0.3937007874015748
 73
     0
 78
     4
 79
     1
140
0.1200000047683716
143
0.03937
144
25.4
147
0.031496062992126
170
     1
171
     3
176
   256
177
   256
178
   256
179
     1
271
     2
272
     2
274
     3
284
     4
285
     4
286
     4
340
D6
371
    -1
372
    -1
  0
DIMSTYLE
105
F5
330
A
100
AcDbSymbolTableRecord
100
AcDbDimStyleTableRecord
  2
Default - mm [in] (ANSI)$7
 70
     0
  4
 in
 40
1.25
 41
0.0984251946210861
 42
0.063
 43
0.25
 44
0.125
 45
0.00000001
 46
0.3937007874015748
 73
     0
 78
     4
 79
     1
140
0.1200000047683716
143
0.03937
144
25.4
147
0.031496062992126
170
     1
171
     3
176
   256
177
   256
178
   256
179
     1
271
     2
272
     2
274
     3
284
     4
285
     4
286
     4
340
D6
371
    -1
372
    -1
  0
DIMSTYLE
105
F6
102
{ACAD_REACTORS
330
16D
330
259
330
343
330
42D
330
528
330
5E3
330
6EB
330
7D5
330
8BF
330
9CF
330
ACC
330
BB5
330
C9F
330
D9C
102
}
330
A
100
AcDbSymbolTableRecord
100
AcDbDimStyleTableRecord
  2
Default (ANSI)
 70
     0
 40
1.25
 41
0.0984251946210861
 43
0.2362204724409449
 44
0.125
 45
0.00000001
 46
0.3937007874015748
 79
     1
140
0.1200000047683716
147
0.031496062992126
171
     1
176
   256
177
   256
178
   256
271
     2
272
     2
274
     1
284
     4
285
     4
340
D6
371
    -1
372
    -1
  0
DIMSTYLE
105
F7
330
A
100
AcDbSymbolTableRecord
100
AcDbDimStyleTableRecord
  2
Default (ANSI)$7
 70
     0
 40
1.25
 41
0.0984251946210861
 43
0.2362204724409449
 44
0.125
 45
0.00000001
 46
0.3937007874015748
 79
     1
140
0.1200000047683716
147
0.031496062992126
171
     1
176
   256
177
   256
178
   256
271
     2
272
     2
274
     1
284
     4
285
     4
340
D6
371
    -1
372
    -1
  0
DIMSTYLE
105
F8
330
A
100
AcDbSymbolTableRecord
100
AcDbDimStyleTableRecord
  2
Alternate (ANSI)
 70
     0
 40
1.25
 41
0.0979999974370003
340
55
342
F9
  0
DIMSTYLE
105
10B
330
A
100
AcDbSymbolTableRecord
100
AcDbDimStyleTableRecord
  2
Datum (ANSI)
 70
     0
 40
1.25
 41
0.0979999974370003
340
55
342
F9
  0
DIMSTYLE
105
11A
330
A
100
AcDbSymbolTableRecord
100
AcDbDimStyleTableRecord
  2
Large (ANSI)
 70
     0
 40
1.25
 41
0.1959999948740005
340
55
342
F9
  0
ENDTAB
  0
TABLE
  2
BLOCK_RECORD
  5
1
330
0
100
AcDbSymbolTable
 70
    18
  0
BLOCK_RECORD
  5
6C
330
1
100
AcDbSymbolTableRecord
100
AcDbBlockTableRecord
  2
*Model_Space
340
6F
  0
BLOCK_RECORD
  5
68
330
1
100
AcDbSymbolTableRecord
100
AcDbBlockTableRecord
  2
*Paper_Space
340
6B
  0
BLOCK_RECORD
  5
70
330
1
100
AcDbSymbolTableRecord
100
AcDbBlockTableRecord
  2
*Paper_Space0
340
73
  0
BLOCK_RECORD
  5
F9
330
1
100
AcDbSymbolTableRecord
100
AcDbBlockTableRecord
  2
_Closed
340
0
  0
BLOCK_RECORD
  5
100
330
1
100
AcDbSymbolTableRecord
100
AcDbBlockTableRecord
  2
DatumFilled45
340
0
  0
BLOCK_RECORD
  5
10C
330
1
100
AcDbSymbolTableRecord
100
AcDbBlockTableRecord
  2
Filled-1
340
0
  0
BLOCK_RECORD
  5
170
330
1
100
AcDbSymbolTableRecord
100
AcDbBlockTableRecord
  2
*D4
340
0
  0
BLOCK_RECORD
  5
25A
330
1
100
AcDbSymbolTableRecord
100
AcDbBlockTableRecord
  2
*D5
340
0
  0
BLOCK_RECORD
  5
344
330
1
100
AcDbSymbolTableRecord
100
AcDbBlockTableRecord
  2
*D6
340
0
  0
BLOCK_RECORD
  5
42E
330
1
100
AcDbSymbolTableRecord
100
AcDbBlockTableRecord
  2
*D7
340
0
  0
BLOCK_RECORD
  5
529
330
1
100
AcDbSymbolTableRecord
100
AcDbBlockTableRecord
  2
*D8
340
0
  0
BLOCK_RECORD
  5
5E4
330
1
100
AcDbSymbolTableRecord
100
AcDbBlockTableRecord
  2
*D9
340
0
  0
BLOCK_RECORD
  5
6EC
330
1
100
AcDbSymbolTableRecord
100
AcDbBlockTableRecord
  2
*D10
340
0
  0
BLOCK_RECORD
  5
7D6
330
1
100
AcDbSymbolTableRecord
100
AcDbBlockTableRecord
  2
*D11
340
0
  0
BLOCK_RECORD
  5
8C0
330
1
100
AcDbSymbolTableRecord
100
AcDbBlockTableRecord
  2
*D12
340
0
  0
BLOCK_RECORD
  5
9D0
330
1
100
AcDbSymbolTableRecord
100
AcDbBlockTableRecord
  2
*D13
340
0
  0
BLOCK_RECORD
  5
ACD
330
1
100
AcDbSymbolTableRecord
100
AcDbBlockTableRecord
  2
*D14
340
0
  0
BLOCK_RECORD
  5
BB6
330
1
100
AcDbSymbolTableRecord
100
AcDbBlockTableRecord
  2
*D15
340
0
  0
BLOCK_RECORD
  5
CA0
330
1
100
AcDbSymbolTableRecord
100
AcDbBlockTableRecord
  2
*D16
340
0
  0
BLOCK_RECORD
  5
D9D
330
1
100
AcDbSymbolTableRecord
100
AcDbBlockTableRecord
  2
*D17
340
0
  0
ENDTAB
  0
ENDSEC
  0
SECTION
  2
BLOCKS
  0
BLOCK
  5
6D
330
6C
100
AcDbEntity
  8
0
100
AcDbBlockBegin
  2
*Model_Space
 70
     0
 10
0.0
 20
0.0
 30
0.0
  3
*Model_Space
  1

  0
ENDBLK
  5
6E
330
6C
100
AcDbEntity
  8
0
100
AcDbBlockEnd
  0
BLOCK
  5
69
330
68
100
AcDbEntity
 67
     1
  8
0
100
AcDbBlockBegin
  2
*Paper_Space
 70
     0
 10
0.0
 20
0.0
 30
0.0
  3
*Paper_Space
  1

  0
ENDBLK
  5
6A
330
68
100
AcDbEntity
 67
     1
  8
0
100
AcDbBlockEnd
  0
BLOCK
  5
71
330
70
100
AcDbEntity
 67
     1
  8
0
100
AcDbBlockBegin
  2
*Paper_Space0
 70
     0
 10
0.0
 20
0.0
 30
0.0
  3
*Paper_Space0
  1

  0
ENDBLK
  5
72
330
70
100
AcDbEntity
 67
     1
  8
0
100
AcDbBlockEnd
  0
BLOCK
  5
FE
330
F9
100
AcDbEntity
  8
0
100
AcDbBlockBegin
  2
_Closed
 70
     0
 10
0.0
 20
0.0
 30
0.0
  3
_Closed
  1

  0
LINE
  5
FA
330
F9
100
AcDbEntity
  8
0
  6
ByBlock
 62
     0
370
    -2
100
AcDbLine
 10
-1.0
 20
0.1666666666666666
 30
0.0
 11
0.0
 21
0.0
 31
0.0
  0
LINE
  5
FB
330
F9
100
AcDbEntity
  8
0
  6
ByBlock
 62
     0
370
    -2
100
AcDbLine
 10
0.0
 20
0.0
 30
0.0
 11
-1.0
 21
-0.1666666666666666
 31
0.0
  0
LINE
  5
FC
330
F9
100
AcDbEntity
  8
0
  6
ByBlock
 62
     0
370
    -2
100
AcDbLine
 10
-1.0
 20
0.1666666666666666
 30
0.0
 11
-1.0
 21
-0.1666666666666666
 31
0.0
  0
LINE
  5
FD
330
F9
100
AcDbEntity
  8
0
  6
ByBlock
 62
     0
370
    -2
100
AcDbLine
 10
0.0
 20
0.0
 30
0.0
 11
-1.0
 21
0.0
 31
0.0
  0
ENDBLK
  5
FF
330
F9
100
AcDbEntity
  8
0
100
AcDbBlockEnd
  0
BLOCK
  5
101
330
100
100
AcDbEntity
  8
0
100
AcDbBlockBegin
  2
DatumFilled45
 70
     0
 10
0.0
 20
0.0
 30
0.0
  3
DatumFilled45
  1

  0
POLYLINE
  5
103
330
100
100
AcDbEntity
  8
0
 62
     0
100
AcDb2dPolyline
 66
     1
 10
0.0
 20
0.0
 30
0.0
 70
   128
  0
VERTEX
  5
104
330
103
100
AcDbEntity
  8
0
 62
     0
100
AcDbVertex
100
AcDb2dVertex
 10
0.0
 20
0.9999999999999998
 30
0.0
  0
VERTEX
  5
105
330
103
100
AcDbEntity
  8
0
 62
     0
100
AcDbVertex
100
AcDb2dVertex
 10
0.0
 20
-0.9999999999999998
 30
0.0
  0
VERTEX
  5
107
330
103
100
AcDbEntity
  8
0
 62
     0
100
AcDbVertex
100
AcDb2dVertex
 10
-0.9999999999999998
 20
0.0
 30
0.0
  0
VERTEX
  5
108
330
103
100
AcDbEntity
  8
0
 62
     0
100
AcDbVertex
100
AcDb2dVertex
 10
0.0
 20
0.9999999999999998
 30
0.0
  0
SEQEND
  5
106
330
103
100
AcDbEntity
  8
0
 62
     0
  0
SOLID
  5
10A
330
100
100
AcDbEntity
  8
0
 62
     0
100
AcDbTrace
 10
0.0
 20
0.9999999999999998
 30
0.0
 11
0.0
 21
-0.9999999999999998
 31
0.0
 12
-0.9999999999999998
 22
0.0
 32
0.0
 13
0.0
 23
0.9999999999999998
 33
0.0
  0
ENDBLK
  5
102
330
100
100
AcDbEntity
  8
0
100
AcDbBlockEnd
  0
BLOCK
  5
10D
330
10C
100
AcDbEntity
  8
0
100
AcDbBlockBegin
  2
Filled-1
 70
     0
 10
0.0
 20
0.0
 30
0.0
  3
Filled-1
  1

  0
LINE
  5
10F
330
10C
100
AcDbEntity
  8
0
 62
     0
100
AcDbLine
 10
-0.9999999999999998
 20
0.0
 30
0.0
 11
0.0
 21
0.0
 31
0.0
  0
POLYLINE
  5
110
330
10C
100
AcDbEntity
  8
0
 62
     0
100
AcDb2dPolyline
 66
     1
 10
0.0
 20
0.0
 30
0.0
 70
   128
  0
VERTEX
  5
111
330
110
100
AcDbEntity
  8
0
 62
     0
100
AcDbVertex
100
AcDb2dVertex
 10
-0.9999999999999998
 20
-0.0994897959183674
 30
0.0
  0
VERTEX
  5
112
330
110
100
AcDbEntity
  8
0
 62
     0
100
AcDbVertex
100
AcDb2dVertex
 10
0.0
 20
0.0
 30
0.0
  0
VERTEX
  5
114
330
110
100
AcDbEntity
  8
0
 62
     0
100
AcDbVertex
100
AcDb2dVertex
 10
-0.9999999999999998
 20
0.0994897959183674
 30
0.0
  0
VERTEX
  5
115
330
110
100
AcDbEntity
  8
0
 62
     0
100
AcDbVertex
100
AcDb2dVertex
 10
-0.9999999999999998
 20
-0.0994897959183674
 30
0.0
  0
SEQEND
  5
113
330
110
100
AcDbEntity
  8
0
 62
     0
  0
SOLID
  5
116
330
10C
100
AcDbEntity
  8
0
 62
     0
100
AcDbTrace
 10
-0.9999999999999998
 20
-0.0994897959183674
 30
0.0
 11
0.0
 21
0.0
 31
0.0
 12
-0.9999999999999998
 22
0.0994897959183674
 32
0.0
 13
-0.9999999999999998
 23
-0.0994897959183674
 33
0.0
  0
LINE
  5
117
330
10C
100
AcDbEntity
  8
0
 62
     0
100
AcDbLine
 10
-0.9999999999999998
 20
-0.0994897959183674
 30
0.0
 11
0.0
 21
0.0
 31
0.0
  0
LINE
  5
118
330
10C
100
AcDbEntity
  8
0
 62
     0
100
AcDbLine
 10
0.0
 20
0.0
 30
0.0
 11
-0.9999999999999998
 21
0.0994897959183674
 31
0.0
  0
LINE
  5
119
330
10C
100
AcDbEntity
  8
0
 62
     0
100
AcDbLine
 10
-0.9999999999999998
 20
0.0994897959183674
 30
0.0
 11
-0.9999999999999998
 21
-0.0994897959183674
 31
0.0
  0
ENDBLK
  5
10E
330
10C
100
AcDbEntity
  8
0
100
AcDbBlockEnd
  0
BLOCK
  5
171
330
170
100
AcDbEntity
  8
0
100
AcDbBlockBegin
  2
*D4
 70
     1
 10
0.0
 20
0.0
 30
0.0
  3
*D4
  1

  0
LINE
  5
24F
330
170
100
AcDbEntity
  8
Dimension (ANSI)
440
 16777216
100
AcDbLine
 10
4.702858144648156
 20
3.960600859056618
 30
0.0
 11
3.245509559986955
 21
3.960600859056618
 31
0.0
  0
LINE
  5
250
330
170
100
AcDbEntity
  8
Dimension (ANSI)
440
 16777216
100
AcDbLine
 10
4.702858144648154
 20
10.21060085905661
 30
0.0
 11
3.245509559986957
 21
10.21060085905662
 31
0.0
  0
LINE
  5
251
330
170
100
AcDbEntity
  8
Dimension (ANSI)
440
 16777216
100
AcDbLine
 10
3.401759559986955
 20
4.083632352332975
 30
0.0
 11
3.401759559986956
 21
6.968107876440865
 31
0.0
  0
LINE
  5
252
330
170
100
AcDbEntity
  8
Dimension (ANSI)
440
 16777216
100
AcDbLine
 10
3.401759559986957
 20
10.08756936578026
 30
0.0
 11
3.401759559986956
 21
7.203093841672367
 31
0.0
  0
SOLID
  5
253
330
170
100
AcDbEntity
  8
Dimension (ANSI)
440
 16777216
100
AcDbTrace
 10
3.381254311107562
 20
4.083632352332975
 30
0.0
 11
3.422264808866348
 21
4.083632352332975
 31
0.0
 12
3.401759559986955
 22
3.960600859056618
 32
0.0
 13
3.401759559986955
 23
3.960600859056618
 33
0.0
  0
SOLID
  5
254
330
170
100
AcDbEntity
  8
Dimension (ANSI)
440
 16777216
100
AcDbTrace
 10
3.381254311107563
 20
10.08756936578026
 30
0.0
 11
3.42226480886635
 21
10.08756936578026
 31
0.0
 12
3.401759559986957
 22
10.21060085905662
 32
0.0
 13
3.401759559986957
 23
10.21060085905662
 33
0.0
  0
MTEXT
  5
255
330
170
100
AcDbEntity
  8
Dimension (ANSI)
440
 16777216
100
AcDbMText
 10
3.211262575810621
 20
7.16372376293221
 30
0.0
 40
0.1500000059604645
 41
0.0
 71
     1
 72
     1
  1
\A1;6.25
  7
Note Text (ANSI)
 73
     1
 44
1.0
  0
POINT
  5
256
330
170
100
AcDbEntity
  8
Defpoints
 62
     0
440
 16777216
100
AcDbPoint
 10
4.780983144648156
 20
3.960600859056618
 30
0.0
  0
POINT
  5
257
330
170
100
AcDbEntity
  8
Defpoints
 62
     0
440
 16777216
100
AcDbPoint
 10
4.780983144648154
 20
10.21060085905661
 30
0.0
  0
POINT
  5
258
330
170
100
AcDbEntity
  8
Defpoints
 62
     0
440
 16777216
100
AcDbPoint
 10
3.401759559986957
 20
10.21060085905662
 30
0.0
  0
ENDBLK
  5
172
330
170
100
AcDbEntity
  8
0
100
AcDbBlockEnd
  0
BLOCK
  5
25B
330
25A
100
AcDbEntity
  8
0
100
AcDbBlockBegin
  2
*D5
 70
     1
 10
0.0
 20
0.0
 30
0.0
  3
*D5
  1

  0
LINE
  5
339
330
25A
100
AcDbEntity
  8
Dimension (ANSI)
440
 16777216
100
AcDbLine
 10
4.780983144648154
 20
10.28872585905661
 30
0.0
 11
4.780983144648154
 21
11.77807405363029
 31
0.0
  0
LINE
  5
33A
330
25A
100
AcDbEntity
  8
Dimension (ANSI)
440
 16777216
100
AcDbLine
 10
9.030983144648155
 20
10.28872585905661
 30
0.0
 11
9.030983144648155
 21
11.77807405363029
 31
0.0
  0
LINE
  5
33B
330
25A
100
AcDbEntity
  8
Dimension (ANSI)
440
 16777216
100
AcDbLine
 10
4.904014637924512
 20
11.62182405363029
 30
0.0
 11
6.710891324945519
 21
11.62182405363029
 31
0.0
  0
LINE
  5
33C
330
25A
100
AcDbEntity
  8
Dimension (ANSI)
440
 16777216
100
AcDbLine
 10
8.907951651371798
 20
11.62182405363029
 30
0.0
 11
7.175158694717124
 21
11.62182405363029
 31
0.0
  0
SOLID
  5
33D
330
25A
100
AcDbEntity
  8
Dimension (ANSI)
440
 16777216
100
AcDbTrace
 10
4.904014637924512
 20
11.64232930250968
 30
0.0
 11
4.904014637924512
 21
11.60131880475089
 31
0.0
 12
4.780983144648154
 22
11.62182405363029
 32
0.0
 13
4.780983144648154
 23
11.62182405363029
 33
0.0
  0
SOLID
  5
33E
330
25A
100
AcDbEntity
  8
Dimension (ANSI)
440
 16777216
100
AcDbTrace
 10
8.907951651371798
 20
11.64232930250968
 30
0.0
 11
8.907951651371798
 21
11.60131880475089
 31
0.0
 12
9.030983144648155
 22
11.62182405363029
 32
0.0
 13
9.030983144648155
 23
11.62182405363029
 33
0.0
  0
MTEXT
  5
33F
330
25A
100
AcDbEntity
  8
Dimension (ANSI)
440
 16777216
100
AcDbMText
 10
6.750261403685676
 20
11.69994695750588
 30
0.0
 40
0.1500000059604645
 41
0.0
 71
     1
 72
     1
  1
\A1;4.25
  7
Note Text (ANSI)
 73
     1
 44
1.0
  0
POINT
  5
340
330
25A
100
AcDbEntity
  8
Defpoints
 62
     0
440
 16777216
100
AcDbPoint
 10
4.780983144648154
 20
10.21060085905661
 30
0.0
  0
POINT
  5
341
330
25A
100
AcDbEntity
  8
Defpoints
 62
     0
440
 16777216
100
AcDbPoint
 10
9.030983144648155
 20
10.21060085905661
 30
0.0
  0
POINT
  5
342
330
25A
100
AcDbEntity
  8
Defpoints
 62
     0
440
 16777216
100
AcDbPoint
 10
9.030983144648155
 20
11.62182405363029
 30
0.0
  0
ENDBLK
  5
25C
330
25A
100
AcDbEntity
  8
0
100
AcDbBlockEnd
  0
BLOCK
  5
345
330
344
100
AcDbEntity
  8
0
100
AcDbBlockBegin
  2
*D6
 70
     1
 10
0.0
 20
0.0
 30
0.0
  3
*D6
  1

  0
LINE
  5
423
330
344
100
AcDbEntity
  8
Dimension (ANSI)
440
 16777216
100
AcDbLine
 10
9.030983144648155
 20
10.28872585905661
 30
0.0
 11
9.030983144648155
 21
11.37161679999169
 31
0.0
  0
LINE
  5
424
330
344
100
AcDbEntity
  8
Dimension (ANSI)
440
 16777216
100
AcDbLine
 10
8.717983144648155
 20
10.25697585905661
 30
0.0
 11
8.717983144648155
 21
11.37161679999169
 31
0.0
  0
LINE
  5
425
330
344
100
AcDbEntity
  8
Dimension (ANSI)
440
 16777216
100
AcDbLine
 10
8.594951651371797
 20
11.21536679999169
 30
0.0
 11
8.471920158095439
 21
11.21536679999169
 31
0.0
  0
LINE
  5
426
330
344
100
AcDbEntity
  8
Dimension (ANSI)
440
 16777216
100
AcDbLine
 10
9.154014637924513
 20
11.21536679999169
 30
0.0
 11
9.27704613120087
 21
11.21536679999169
 31
0.0
  0
SOLID
  5
427
330
344
100
AcDbEntity
  8
Dimension (ANSI)
440
 16777216
100
AcDbTrace
 10
8.594951651371797
 20
11.23587204887108
 30
0.0
 11
8.594951651371797
 21
11.1948615511123
 31
0.0
 12
8.717983144648155
 22
11.21536679999169
 32
0.0
 13
8.717983144648155
 23
11.21536679999169
 33
0.0
  0
SOLID
  5
428
330
344
100
AcDbEntity
  8
Dimension (ANSI)
440
 16777216
100
AcDbTrace
 10
9.154014637924513
 20
11.23587204887108
 30
0.0
 11
9.154014637924513
 21
11.1948615511123
 31
0.0
 12
9.030983144648155
 22
11.21536679999169
 32
0.0
 13
9.030983144648155
 23
11.21536679999169
 33
0.0
  0
MTEXT
  5
429
330
344
100
AcDbEntity
  8
Dimension (ANSI)
440
 16777216
100
AcDbMText
 10
9.562873572070801
 20
11.21536679999169
 30
0.0
 40
0.1500000059604645
 41
0.0
 71
     5
 72
     1
  1
\A1;0.313
  7
Note Text (ANSI)
 73
     1
 44
1.0
  0
POINT
  5
42A
330
344
100
AcDbEntity
  8
Defpoints
 62
     0
440
 16777216
100
AcDbPoint
 10
9.030983144648155
 20
10.21060085905661
 30
0.0
  0
POINT
  5
42B
330
344
100
AcDbEntity
  8
Defpoints
 62
     0
440
 16777216
100
AcDbPoint
 10
8.717983144648155
 20
10.17885085905661
 30
0.0
  0
POINT
  5
42C
330
344
100
AcDbEntity
  8
Defpoints
 62
     0
440
 16777216
100
AcDbPoint
 10
8.717983144648155
 20
11.21536679999169
 30
0.0
  0
ENDBLK
  5
346
330
344
100
AcDbEntity
  8
0
100
AcDbBlockEnd
  0
BLOCK
  5
42F
330
42E
100
AcDbEntity
  8
0
100
AcDbBlockBegin
  2
*D7
 70
     1
 10
0.0
 20
0.0
 30
0.0
  3
*D7
  1

  0
LINE
  5
51C
330
42E
100
AcDbEntity
  8
Dimension (ANSI)
440
 16777216
100
AcDbLine
 10
9.109108144648155
 20
10.21060085905661
 30
0.0
 11
9.823043750996394
 21
10.21060085905661
 31
0.0
  0
LINE
  5
51D
330
42E
100
AcDbEntity
  8
Dimension (ANSI)
440
 16777216
100
AcDbLine
 10
8.952108144648155
 20
9.897600859056618
 30
0.0
 11
9.823043750996394
 21
9.897600859056618
 31
0.0
  0
LINE
  5
51E
330
42E
100
AcDbEntity
  8
Dimension (ANSI)
440
 16777216
100
AcDbLine
 10
9.666793750996394
 20
10.33363235233297
 30
0.0
 11
9.666793750996394
 21
10.45666384560933
 31
0.0
  0
LINE
  5
51F
330
42E
100
AcDbEntity
  8
Dimension (ANSI)
440
 16777216
100
AcDbLine
 10
9.666793750996394
 20
9.77456936578026
 30
0.0
 11
9.666793750996394
 21
9.651537872503903
 31
0.0
  0
LINE
  5
520
330
42E
100
AcDbEntity
  8
Dimension (ANSI)
440
 16777216
100
AcDbLine
 10
9.789825244272751
 20
10.66697209280122
 30
0.0
 11
9.666793750996394
 21
10.66697209280122
 31
0.0
  0
LINE
  5
521
330
42E
100
AcDbEntity
  8
Dimension (ANSI)
440
 16777216
100
AcDbLine
 10
9.666793750996394
 20
10.66697209280122
 30
0.0
 11
9.666793750996394
 21
10.45666384560933
 31
0.0
  0
MTEXT
  5
522
330
42E
100
AcDbEntity
  8
Dimension (ANSI)
440
 16777216
100
AcDbMText
 10
9.829195323012907
 20
10.74509499667682
 30
0.0
 40
0.1500000059604645
 41
0.0
 71
     1
 72
     1
  1
\A1;0.313
  7
Note Text (ANSI)
 73
     1
 44
1.0
  0
SOLID
  5
523
330
42E
100
AcDbEntity
  8
Dimension (ANSI)
440
 16777216
100
AcDbTrace
 10
9.646288502117
 20
10.33363235233297
 30
0.0
 11
9.687298999875787
 21
10.33363235233297
 31
0.0
 12
9.666793750996394
 22
10.21060085905661
 32
0.0
 13
9.666793750996394
 23
10.21060085905661
 33
0.0
  0
SOLID
  5
524
330
42E
100
AcDbEntity
  8
Dimension (ANSI)
440
 16777216
100
AcDbTrace
 10
9.646288502117
 20
9.77456936578026
 30
0.0
 11
9.687298999875787
 21
9.77456936578026
 31
0.0
 12
9.666793750996394
 22
9.897600859056618
 32
0.0
 13
9.666793750996394
 23
9.897600859056618
 33
0.0
  0
POINT
  5
525
330
42E
100
AcDbEntity
  8
Defpoints
 62
     0
440
 16777216
100
AcDbPoint
 10
9.030983144648155
 20
10.21060085905661
 30
0.0
  0
POINT
  5
526
330
42E
100
AcDbEntity
  8
Defpoints
 62
     0
440
 16777216
100
AcDbPoint
 10
8.873983144648155
 20
9.897600859056618
 30
0.0
  0
POINT
  5
527
330
42E
100
AcDbEntity
  8
Defpoints
 62
     0
440
 16777216
100
AcDbPoint
 10
9.666793750996394
 20
9.897600859056618
 30
0.0
  0
ENDBLK
  5
430
330
42E
100
AcDbEntity
  8
0
100
AcDbBlockEnd
  0
BLOCK
  5
52A
330
529
100
AcDbEntity
  8
0
100
AcDbBlockBegin
  2
*D8
 70
     1
 10
0.0
 20
0.0
 30
0.0
  3
*D8
  1

  0
LINE
  5
5DB
330
529
100
AcDbEntity
  8
Dimension (ANSI)
440
 16777216
100
AcDbLine
 10
6.813702475848185
 20
3.708144523793643
 30
0.0
 11
6.659439479911291
 21
3.708144523793643
 31
0.0
  0
LINE
  5
5DC
330
529
100
AcDbEntity
  8
Dimension (ANSI)
440
 16777216
100
AcDbLine
 10
6.659439479911291
 20
3.708144523793643
 30
0.0
 11
6.269367895491719
 21
4.098216108213105
 31
0.0
  0
MTEXT
  5
5DD
102
{ACAD_XDICTIONARY
360
E99
102
}
330
529
100
AcDbEntity
  8
Dimension (ANSI)
440
 16777216
100
AcDbMText
 10
6.853072554588343
 20
3.811087288182395
 30
0.0
 40
0.1500000059604645
 41
0.0
 71
     1
 72
     1
  1
\A1;\U+22050.250{\PGROUND HOLE}
  7
Note Text (ANSI)
 73
     1
 44
1.0
  0
SOLID
  5
5DE
330
529
100
AcDbEntity
  8
Dimension (ANSI)
440
 16777216
100
AcDbTrace
 10
6.283867296024253
 20
4.112715508745643
 30
0.0
 11
6.254868494959185
 21
4.083716707680566
 31
0.0
 12
6.182371492296487
 22
4.185212511408312
 32
0.0
 13
6.182371492296487
 23
4.185212511408312
 33
0.0
  0
LINE
  5
5DF
330
529
100
AcDbEntity
  8
Dimension (ANSI)
440
 16777216
100
AcDbLine
 10
5.981483144648158
 20
4.273600859056616
 30
0.0
 11
6.206483144648156
 21
4.273600859056617
 31
0.0
  0
LINE
  5
5E0
330
529
100
AcDbEntity
  8
Dimension (ANSI)
440
 16777216
100
AcDbLine
 10
6.093983144648157
 20
4.161100859056617
 30
0.0
 11
6.093983144648156
 21
4.386100859056616
 31
0.0
  0
POINT
  5
5E1
330
529
100
AcDbEntity
  8
Defpoints
 62
     0
440
 16777216
100
AcDbPoint
 10
6.182371492296487
 20
4.185212511408312
 30
0.0
  0
POINT
  5
5E2
330
529
100
AcDbEntity
  8
Defpoints
 62
     0
440
 16777216
100
AcDbPoint
 10
6.005594796999826
 20
4.361989206704922
 30
0.0
  0
ENDBLK
  5
52B
330
529
100
AcDbEntity
  8
0
100
AcDbBlockEnd
  0
BLOCK
  5
5E5
330
5E4
100
AcDbEntity
  8
0
100
AcDbBlockBegin
  2
*D9
 70
     1
 10
0.0
 20
0.0
 30
0.0
  3
*D9
  1

  0
LINE
  5
6E1
330
5E4
100
AcDbEntity
  8
Dimension (ANSI)
440
 16777216
100
AcDbLine
 10
13.75419691777171
 20
10.28872585905661
 30
0.0
 11
13.75419691777171
 21
10.55868093368742
 31
0.0
  0
LINE
  5
6E2
330
5E4
100
AcDbEntity
  8
Dimension (ANSI)
440
 16777216
100
AcDbLine
 10
13.82819691777172
 20
10.28872585905661
 30
0.0
 11
13.82819691777172
 21
10.55868093368742
 31
0.0
  0
LINE
  5
6E3
330
5E4
100
AcDbEntity
  8
Dimension (ANSI)
440
 16777216
100
AcDbLine
 10
13.95122841104807
 20
10.40243093368742
 30
0.0
 11
14.07425990432443
 21
10.40243093368742
 31
0.0
  0
LINE
  5
6E4
330
5E4
100
AcDbEntity
  8
Dimension (ANSI)
440
 16777216
100
AcDbLine
 10
13.63116542449536
 20
10.40243093368742
 30
0.0
 11
13.508133931219
 21
10.40243093368742
 31
0.0
  0
SOLID
  5
6E5
330
5E4
100
AcDbEntity
  8
Dimension (ANSI)
440
 16777216
100
AcDbTrace
 10
13.95122841104807
 20
10.42293618256681
 30
0.0
 11
13.95122841104807
 21
10.38192568480802
 31
0.0
 12
13.82819691777172
 22
10.40243093368742
 32
0.0
 13
13.82819691777172
 23
10.40243093368742
 33
0.0
  0
SOLID
  5
6E6
330
5E4
100
AcDbEntity
  8
Dimension (ANSI)
440
 16777216
100
AcDbTrace
 10
13.63116542449536
 20
10.42293618256681
 30
0.0
 11
13.63116542449536
 21
10.38192568480802
 31
0.0
 12
13.75419691777171
 22
10.40243093368742
 32
0.0
 13
13.75419691777171
 23
10.40243093368742
 33
0.0
  0
MTEXT
  5
6E7
330
5E4
100
AcDbEntity
  8
Dimension (ANSI)
440
 16777216
100
AcDbMText
 10
12.8977765937208
 20
10.40243093368742
 30
0.0
 40
0.1500000059604645
 41
0.0
 71
     5
 72
     1
  1
\A1;{14 GA. C.R.S\P}(0.074)
  7
Note Text (ANSI)
 73
     1
 44
1.0
  0
POINT
  5
6E8
330
5E4
100
AcDbEntity
  8
Defpoints
 62
     0
440
 16777216
100
AcDbPoint
 10
13.75419691777171
 20
10.21060085905661
 30
0.0
  0
POINT
  5
6E9
330
5E4
100
AcDbEntity
  8
Defpoints
 62
     0
440
 16777216
100
AcDbPoint
 10
13.82819691777172
 20
10.21060085905661
 30
0.0
  0
POINT
  5
6EA
330
5E4
100
AcDbEntity
  8
Defpoints
 62
     0
440
 16777216
100
AcDbPoint
 10
13.82819691777172
 20
10.40243093368742
 30
0.0
  0
ENDBLK
  5
5E6
330
5E4
100
AcDbEntity
  8
0
100
AcDbBlockEnd
  0
BLOCK
  5
6ED
330
6EC
100
AcDbEntity
  8
0
100
AcDbBlockBegin
  2
*D10
 70
     1
 10
0.0
 20
0.0
 30
0.0
  3
*D10
  1

  0
LINE
  5
7CB
330
6EC
100
AcDbEntity
  8
Dimension (ANSI)
440
 16777216
100
AcDbLine
 10
5.016108144648157
 20
4.273600859056617
 30
0.0
 11
9.823043750996395
 21
4.273600859056616
 31
0.0
  0
LINE
  5
7CC
330
6EC
100
AcDbEntity
  8
Dimension (ANSI)
440
 16777216
100
AcDbLine
 10
5.016108144648155
 20
9.897600859056618
 30
0.0
 11
9.823043750996395
 21
9.897600859056618
 31
0.0
  0
LINE
  5
7CD
330
6EC
100
AcDbEntity
  8
Dimension (ANSI)
440
 16777216
100
AcDbLine
 10
9.666793750996395
 20
4.396632352332973
 30
0.0
 11
9.666793750996395
 21
6.968107876440866
 31
0.0
  0
LINE
  5
7CE
330
6EC
100
AcDbEntity
  8
Dimension (ANSI)
440
 16777216
100
AcDbLine
 10
9.666793750996395
 20
9.77456936578026
 30
0.0
 11
9.666793750996395
 21
7.203093841672368
 31
0.0
  0
SOLID
  5
7CF
330
6EC
100
AcDbEntity
  8
Dimension (ANSI)
440
 16777216
100
AcDbTrace
 10
9.646288502117002
 20
4.396632352332973
 30
0.0
 11
9.687298999875789
 21
4.396632352332973
 31
0.0
 12
9.666793750996395
 22
4.273600859056616
 32
0.0
 13
9.666793750996395
 23
4.273600859056616
 33
0.0
  0
SOLID
  5
7D0
330
6EC
100
AcDbEntity
  8
Dimension (ANSI)
440
 16777216
100
AcDbTrace
 10
9.646288502117002
 20
9.77456936578026
 30
0.0
 11
9.687298999875789
 21
9.77456936578026
 31
0.0
 12
9.666793750996395
 22
9.897600859056618
 32
0.0
 13
9.666793750996395
 23
9.897600859056618
 33
0.0
  0
MTEXT
  5
7D1
330
6EC
100
AcDbEntity
  8
Dimension (ANSI)
440
 16777216
100
AcDbMText
 10
9.419127523816321
 20
7.163723762932211
 30
0.0
 40
0.1500000059604645
 41
0.0
 71
     1
 72
     1
  1
\A1;5.624
  7
Note Text (ANSI)
 73
     1
 44
1.0
  0
POINT
  5
7D2
330
6EC
100
AcDbEntity
  8
Defpoints
 62
     0
440
 16777216
100
AcDbPoint
 10
4.937983144648157
 20
4.273600859056617
 30
0.0
  0
POINT
  5
7D3
330
6EC
100
AcDbEntity
  8
Defpoints
 62
     0
440
 16777216
100
AcDbPoint
 10
4.937983144648155
 20
9.897600859056618
 30
0.0
  0
POINT
  5
7D4
330
6EC
100
AcDbEntity
  8
Defpoints
 62
     0
440
 16777216
100
AcDbPoint
 10
9.666793750996395
 20
9.897600859056618
 30
0.0
  0
ENDBLK
  5
6EE
330
6EC
100
AcDbEntity
  8
0
100
AcDbBlockEnd
  0
BLOCK
  5
7D7
330
7D6
100
AcDbEntity
  8
0
100
AcDbBlockBegin
  2
*D11
 70
     1
 10
0.0
 20
0.0
 30
0.0
  3
*D11
  1

  0
LINE
  5
8B5
330
7D6
100
AcDbEntity
  8
Dimension (ANSI)
440
 16777216
100
AcDbLine
 10
5.093983144648154
 20
10.25697585905661
 30
0.0
 11
5.093983144648154
 21
11.37161679999169
 31
0.0
  0
LINE
  5
8B6
330
7D6
100
AcDbEntity
  8
Dimension (ANSI)
440
 16777216
100
AcDbLine
 10
8.717983144648155
 20
10.25697585905661
 30
0.0
 11
8.717983144648155
 21
11.37161679999169
 31
0.0
  0
LINE
  5
8B7
330
7D6
100
AcDbEntity
  8
Dimension (ANSI)
440
 16777216
100
AcDbLine
 10
5.217014637924512
 20
11.21536679999169
 30
0.0
 11
6.654628730729506
 21
11.21536679999169
 31
0.0
  0
LINE
  5
8B8
330
7D6
100
AcDbEntity
  8
Dimension (ANSI)
440
 16777216
100
AcDbLine
 10
8.594951651371797
 20
11.21536679999169
 30
0.0
 11
7.231421288933139
 21
11.21536679999169
 31
0.0
  0
SOLID
  5
8B9
330
7D6
100
AcDbEntity
  8
Dimension (ANSI)
440
 16777216
100
AcDbTrace
 10
5.217014637924512
 20
11.23587204887108
 30
0.0
 11
5.217014637924512
 21
11.1948615511123
 31
0.0
 12
5.093983144648154
 22
11.21536679999169
 32
0.0
 13
5.093983144648154
 23
11.21536679999169
 33
0.0
  0
SOLID
  5
8BA
330
7D6
100
AcDbEntity
  8
Dimension (ANSI)
440
 16777216
100
AcDbTrace
 10
8.594951651371797
 20
11.23587204887108
 30
0.0
 11
8.594951651371797
 21
11.1948615511123
 31
0.0
 12
8.717983144648155
 22
11.21536679999169
 32
0.0
 13
8.717983144648155
 23
11.21536679999169
 33
0.0
  0
MTEXT
  5
8BB
330
7D6
100
AcDbEntity
  8
Dimension (ANSI)
440
 16777216
100
AcDbMText
 10
6.693998809469663
 20
11.29348970386728
 30
0.0
 40
0.1500000059604645
 41
0.0
 71
     1
 72
     1
  1
\A1;3.624
  7
Note Text (ANSI)
 73
     1
 44
1.0
  0
POINT
  5
8BC
330
7D6
100
AcDbEntity
  8
Defpoints
 62
     0
440
 16777216
100
AcDbPoint
 10
5.093983144648154
 20
10.17885085905661
 30
0.0
  0
POINT
  5
8BD
330
7D6
100
AcDbEntity
  8
Defpoints
 62
     0
440
 16777216
100
AcDbPoint
 10
8.717983144648155
 20
10.17885085905661
 30
0.0
  0
POINT
  5
8BE
330
7D6
100
AcDbEntity
  8
Defpoints
 62
     0
440
 16777216
100
AcDbPoint
 10
8.717983144648155
 20
11.21536679999169
 30
0.0
  0
ENDBLK
  5
7D8
330
7D6
100
AcDbEntity
  8
0
100
AcDbBlockEnd
  0
BLOCK
  5
8C1
330
8C0
100
AcDbEntity
  8
0
100
AcDbBlockBegin
  2
*D12
 70
     1
 10
0.0
 20
0.0
 30
0.0
  3
*D12
  1

  0
LINE
  5
99F
330
8C0
100
AcDbEntity
  8
Dimension (ANSI)
440
 16777216
100
AcDbLine
 10
5.093983144648156
 20
4.070475859056617
 30
0.0
 11
5.093983144648156
 21
3.16405329513304
 31
0.0
  0
LINE
  5
9A0
330
8C0
100
AcDbEntity
  8
Dimension (ANSI)
440
 16777216
100
AcDbLine
 10
6.093983144648156
 20
4.070475859056617
 30
0.0
 11
6.093983144648156
 21
3.16405329513304
 31
0.0
  0
LINE
  5
9A1
330
8C0
100
AcDbEntity
  8
Dimension (ANSI)
440
 16777216
100
AcDbLine
 10
5.217014637924513
 20
3.32030329513304
 30
0.0
 11
5.313696335258764
 21
3.32030329513304
 31
0.0
  0
LINE
  5
9A2
330
8C0
100
AcDbEntity
  8
Dimension (ANSI)
440
 16777216
100
AcDbLine
 10
5.970951651371798
 20
3.32030329513304
 30
0.0
 11
5.874269954037548
 21
3.32030329513304
 31
0.0
  0
SOLID
  5
9A3
330
8C0
100
AcDbEntity
  8
Dimension (ANSI)
440
 16777216
100
AcDbTrace
 10
5.217014637924513
 20
3.340808544012433
 30
0.0
 11
5.217014637924513
 21
3.299798046253647
 31
0.0
 12
5.093983144648156
 22
3.32030329513304
 32
0.0
 13
5.093983144648156
 23
3.32030329513304
 33
0.0
  0
SOLID
  5
9A4
330
8C0
100
AcDbEntity
  8
Dimension (ANSI)
440
 16777216
100
AcDbTrace
 10
5.970951651371798
 20
3.340808544012433
 30
0.0
 11
5.970951651371798
 21
3.299798046253647
 31
0.0
 12
6.093983144648156
 22
3.32030329513304
 32
0.0
 13
6.093983144648156
 23
3.32030329513304
 33
0.0
  0
MTEXT
  5
9A5
330
8C0
100
AcDbEntity
  8
Dimension (ANSI)
440
 16777216
100
AcDbMText
 10
5.353066413998921
 20
3.398375829631537
 30
0.0
 40
0.1500000059604645
 41
0.0
 71
     1
 72
     1
  1
\A1;1.000
  7
Note Text (ANSI)
 73
     1
 44
1.0
  0
POINT
  5
9A6
330
8C0
100
AcDbEntity
  8
Defpoints
 62
     0
440
 16777216
100
AcDbPoint
 10
5.093983144648156
 20
4.148600859056617
 30
0.0
  0
POINT
  5
9A7
330
8C0
100
AcDbEntity
  8
Defpoints
 62
     0
440
 16777216
100
AcDbPoint
 10
6.093983144648156
 20
4.148600859056617
 30
0.0
  0
POINT
  5
9A8
330
8C0
100
AcDbEntity
  8
Defpoints
 62
     0
440
 16777216
100
AcDbPoint
 10
6.093983144648156
 20
3.32030329513304
 30
0.0
  0
ENDBLK
  5
8C2
330
8C0
100
AcDbEntity
  8
0
100
AcDbBlockEnd
  0
BLOCK
  5
9D1
330
9D0
100
AcDbEntity
  8
0
100
AcDbBlockBegin
  2
*D13
 70
     1
 10
0.0
 20
0.0
 30
0.0
  3
*D13
  1

  0
LINE
  5
AC1
330
9D0
100
AcDbEntity
  8
Dimension (ANSI)
440
 16777216
100
AcDbLine
 10
4.731608144648155
 20
8.960600859056617
 30
0.0
 11
4.648873602580779
 21
8.960600859056617
 31
0.0
  0
LINE
  5
AC2
330
9D0
100
AcDbEntity
  8
Dimension (ANSI)
440
 16777216
100
AcDbLine
 10
4.731608144648155
 20
9.210600859056617
 30
0.0
 11
4.648873602580779
 21
9.210600859056617
 31
0.0
  0
LINE
  5
AC3
330
9D0
100
AcDbEntity
  8
Dimension (ANSI)
440
 16777216
100
AcDbLine
 10
4.805123602580779
 20
9.333632352332974
 30
0.0
 11
4.805123602580779
 21
9.456663845609332
 31
0.0
  0
LINE
  5
AC4
330
9D0
100
AcDbEntity
  8
Dimension (ANSI)
440
 16777216
100
AcDbLine
 10
4.805123602580779
 20
8.837569365780259
 30
0.0
 11
4.805123602580779
 21
8.441134727516983
 31
0.0
  0
LINE
  5
AC5
330
9D0
100
AcDbEntity
  8
Dimension (ANSI)
440
 16777216
100
AcDbLine
 10
4.805123602580779
 20
8.441134727516983
 30
0.0
 11
4.682092109304422
 21
8.441134727516983
 31
0.0
  0
SOLID
  5
AC6
330
9D0
100
AcDbEntity
  8
Dimension (ANSI)
440
 16777216
100
AcDbTrace
 10
4.784618353701387
 20
9.333632352332974
 30
0.0
 11
4.825628851460172
 21
9.333632352332974
 31
0.0
 12
4.805123602580779
 22
9.210600859056617
 32
0.0
 13
4.805123602580779
 23
9.210600859056617
 33
0.0
  0
SOLID
  5
AC7
330
9D0
100
AcDbEntity
  8
Dimension (ANSI)
440
 16777216
100
AcDbTrace
 10
4.784618353701387
 20
8.837569365780259
 30
0.0
 11
4.825628851460172
 21
8.837569365780259
 31
0.0
 12
4.805123602580779
 22
8.960600859056617
 32
0.0
 13
4.805123602580779
 23
8.960600859056617
 33
0.0
  0
MTEXT
  5
AC8
330
9D0
100
AcDbEntity
  8
Dimension (ANSI)
440
 16777216
100
AcDbMText
 10
4.146482927416394
 20
8.519257631392578
 30
0.0
 40
0.1500000059604645
 41
0.0
 71
     1
 72
     1
  1
\A1;0.250
  7
Note Text (ANSI)
 73
     1
 44
1.0
  0
POINT
  5
AC9
330
9D0
100
AcDbEntity
  8
Defpoints
 62
     0
440
 16777216
100
AcDbPoint
 10
4.809733144648155
 20
8.960600859056617
 30
0.0
  0
POINT
  5
ACA
330
9D0
100
AcDbEntity
  8
Defpoints
 62
     0
440
 16777216
100
AcDbPoint
 10
4.809733144648155
 20
9.210600859056617
 30
0.0
  0
POINT
  5
ACB
330
9D0
100
AcDbEntity
  8
Defpoints
 62
     0
440
 16777216
100
AcDbPoint
 10
4.805123602580779
 20
9.210600859056617
 30
0.0
  0
ENDBLK
  5
9D2
330
9D0
100
AcDbEntity
  8
0
100
AcDbBlockEnd
  0
BLOCK
  5
ACE
330
ACD
100
AcDbEntity
  8
0
100
AcDbBlockBegin
  2
*D14
 70
     1
 10
0.0
 20
0.0
 30
0.0
  3
*D14
  1

  0
LINE
  5
BA8
330
ACD
100
AcDbEntity
  8
Dimension (ANSI)
440
 16777216
100
AcDbLine
 10
5.030983144648154
 20
8.661225859056617
 30
0.0
 11
5.030983144648154
 21
7.497777029994623
 31
0.0
  0
LINE
  5
BA9
330
ACD
100
AcDbEntity
  8
Dimension (ANSI)
440
 16777216
100
AcDbLine
 10
5.154014637924512
 20
7.654027029994623
 30
0.0
 11
5.27704613120087
 21
7.654027029994623
 31
0.0
  0
LINE
  5
BAA
330
ACD
100
AcDbEntity
  8
Dimension (ANSI)
440
 16777216
100
AcDbLine
 10
4.657951651371798
 20
7.654027029994623
 30
0.0
 11
4.494992732642475
 21
7.654027029994623
 31
0.0
  0
SOLID
  5
BAB
330
ACD
100
AcDbEntity
  8
Dimension (ANSI)
440
 16777216
100
AcDbTrace
 10
5.154014637924512
 20
7.674532278874016
 30
0.0
 11
5.154014637924512
 21
7.633521781115231
 31
0.0
 12
5.030983144648154
 22
7.654027029994623
 32
0.0
 13
5.030983144648154
 23
7.654027029994623
 33
0.0
  0
SOLID
  5
BAC
330
ACD
100
AcDbEntity
  8
Dimension (ANSI)
440
 16777216
100
AcDbTrace
 10
4.657951651371798
 20
7.674532278874016
 30
0.0
 11
4.657951651371798
 21
7.633521781115231
 31
0.0
 12
4.780983144648155
 22
7.654027029994623
 32
0.0
 13
4.780983144648155
 23
7.654027029994623
 33
0.0
  0
MTEXT
  5
BAD
330
ACD
100
AcDbEntity
  8
Dimension (ANSI)
440
 16777216
100
AcDbMText
 10
3.959383550754448
 20
7.732149933870217
 30
0.0
 40
0.1500000059604645
 41
0.0
 71
     1
 72
     1
  1
\A1;0.250
  7
Note Text (ANSI)
 73
     1
 44
1.0
  0
POINT
  5
BAE
330
ACD
100
AcDbEntity
  8
Defpoints
 62
     0
440
 16777216
100
AcDbPoint
 10
5.030983144648154
 20
8.739350859056617
 30
0.0
  0
POINT
  5
BAF
330
ACD
100
AcDbEntity
  8
Defpoints
 62
     0
440
 16777216
100
AcDbPoint
 10
4.780983144648155
 20
7.232933643933359
 30
0.0
  0
POINT
  5
BB0
330
ACD
100
AcDbEntity
  8
Defpoints
 62
     0
440
 16777216
100
AcDbPoint
 10
4.780983144648155
 20
7.654027029994623
 30
0.0
  0
ENDBLK
  5
ACF
330
ACD
100
AcDbEntity
  8
0
100
AcDbBlockEnd
  0
BLOCK
  5
BB7
330
BB6
100
AcDbEntity
  8
0
100
AcDbBlockBegin
  2
*D15
 70
     1
 10
0.0
 20
0.0
 30
0.0
  3
*D15
  1

  0
LINE
  5
C95
330
BB6
100
AcDbEntity
  8
Dimension (ANSI)
440
 16777216
100
AcDbLine
 10
5.530983144648155
 20
10.25997585905662
 30
0.0
 11
5.530983144648155
 21
10.85308058666181
 31
0.0
  0
LINE
  5
C96
330
BB6
100
AcDbEntity
  8
Dimension (ANSI)
440
 16777216
100
AcDbLine
 10
5.780983144648154
 20
10.25997585905662
 30
0.0
 11
5.780983144648154
 21
10.85308058666181
 31
0.0
  0
LINE
  5
C97
330
BB6
100
AcDbEntity
  8
Dimension (ANSI)
440
 16777216
100
AcDbLine
 10
5.407951651371798
 20
10.69683058666181
 30
0.0
 11
5.28492015809544
 21
10.69683058666181
 31
0.0
  0
LINE
  5
C98
330
BB6
100
AcDbEntity
  8
Dimension (ANSI)
440
 16777216
100
AcDbLine
 10
5.904014637924512
 20
10.69683058666181
 30
0.0
 11
6.02704613120087
 21
10.69683058666181
 31
0.0
  0
SOLID
  5
C99
330
BB6
100
AcDbEntity
  8
Dimension (ANSI)
440
 16777216
100
AcDbTrace
 10
5.407951651371798
 20
10.7173358355412
 30
0.0
 11
5.407951651371798
 21
10.67632533778241
 31
0.0
 12
5.530983144648155
 22
10.69683058666181
 32
0.0
 13
5.530983144648155
 23
10.69683058666181
 33
0.0
  0
SOLID
  5
C9A
330
BB6
100
AcDbEntity
  8
Dimension (ANSI)
440
 16777216
100
AcDbTrace
 10
5.904014637924512
 20
10.7173358355412
 30
0.0
 11
5.904014637924512
 21
10.67632533778241
 31
0.0
 12
5.780983144648154
 22
10.69683058666181
 32
0.0
 13
5.780983144648154
 23
10.69683058666181
 33
0.0
  0
MTEXT
  5
C9B
330
BB6
100
AcDbEntity
  8
Dimension (ANSI)
440
 16777216
100
AcDbMText
 10
6.066416209941027
 20
10.7749534905374
 30
0.0
 40
0.1500000059604645
 41
0.0
 71
     1
 72
     1
  1
\A1;0.250
  7
Note Text (ANSI)
 73
     1
 44
1.0
  0
POINT
  5
C9C
330
BB6
100
AcDbEntity
  8
Defpoints
 62
     0
440
 16777216
100
AcDbPoint
 10
5.530983144648155
 20
10.18185085905662
 30
0.0
  0
POINT
  5
C9D
330
BB6
100
AcDbEntity
  8
Defpoints
 62
     0
440
 16777216
100
AcDbPoint
 10
5.780983144648154
 20
10.18185085905662
 30
0.0
  0
POINT
  5
C9E
330
BB6
100
AcDbEntity
  8
Defpoints
 62
     0
440
 16777216
100
AcDbPoint
 10
5.780983144648154
 20
10.69683058666181
 30
0.0
  0
ENDBLK
  5
BB8
330
BB6
100
AcDbEntity
  8
0
100
AcDbBlockEnd
  0
BLOCK
  5
CA1
330
CA0
100
AcDbEntity
  8
0
100
AcDbBlockBegin
  2
*D16
 70
     1
 10
0.0
 20
0.0
 30
0.0
  3
*D16
  1

  0
LINE
  5
D8E
330
CA0
100
AcDbEntity
  8
Dimension (ANSI)
440
 16777216
100
AcDbLine
 10
6.080358144648154
 20
9.960600859056619
 30
0.0
 11
6.696141977631453
 21
9.960600859056619
 31
0.0
  0
LINE
  5
D8F
330
CA0
100
AcDbEntity
  8
Dimension (ANSI)
440
 16777216
100
AcDbLine
 10
6.539891977631453
 20
9.837569365780261
 30
0.0
 11
6.539891977631453
 21
9.714537872503903
 31
0.0
  0
LINE
  5
D90
330
CA0
100
AcDbEntity
  8
Dimension (ANSI)
440
 16777216
100
AcDbLine
 10
6.539891977631453
 20
10.33363235233297
 30
0.0
 11
6.539891977631453
 21
10.69256692497656
 31
0.0
  0
LINE
  5
D91
330
CA0
100
AcDbEntity
  8
Dimension (ANSI)
440
 16777216
100
AcDbLine
 10
6.539891977631453
 20
10.69256692497656
 30
0.0
 11
6.662923470907811
 21
10.69256692497656
 31
0.0
  0
SOLID
  5
D92
330
CA0
100
AcDbEntity
  8
Dimension (ANSI)
440
 16777216
100
AcDbTrace
 10
6.51938672875206
 20
9.837569365780261
 30
0.0
 11
6.560397226510845
 21
9.837569365780261
 31
0.0
 12
6.539891977631453
 22
9.960600859056619
 32
0.0
 13
6.539891977631453
 23
9.960600859056619
 33
0.0
  0
SOLID
  5
D93
330
CA0
100
AcDbEntity
  8
Dimension (ANSI)
440
 16777216
100
AcDbTrace
 10
6.519386728752061
 20
10.33363235233297
 30
0.0
 11
6.560397226510846
 21
10.33363235233297
 31
0.0
 12
6.539891977631453
 22
10.21060085905661
 32
0.0
 13
6.539891977631453
 23
10.21060085905661
 33
0.0
  0
MTEXT
  5
D94
330
CA0
100
AcDbEntity
  8
Dimension (ANSI)
440
 16777216
100
AcDbMText
 10
6.702293549647967
 20
10.77068982885216
 30
0.0
 40
0.1500000059604645
 41
0.0
 71
     1
 72
     1
  1
\A1;0.250
  7
Note Text (ANSI)
 73
     1
 44
1.0
  0
POINT
  5
D95
330
CA0
100
AcDbEntity
  8
Defpoints
 62
     0
440
 16777216
100
AcDbPoint
 10
6.002233144648154
 20
9.960600859056619
 30
0.0
  0
POINT
  5
D96
330
CA0
100
AcDbEntity
  8
Defpoints
 62
     0
440
 16777216
100
AcDbPoint
 10
6.80746983490161
 20
10.21060085905661
 30
0.0
  0
POINT
  5
D97
330
CA0
100
AcDbEntity
  8
Defpoints
 62
     0
440
 16777216
100
AcDbPoint
 10
6.539891977631453
 20
10.21060085905661
 30
0.0
  0
ENDBLK
  5
CA2
330
CA0
100
AcDbEntity
  8
0
100
AcDbBlockEnd
  0
BLOCK
  5
D9E
330
D9D
100
AcDbEntity
  8
0
100
AcDbBlockBegin
  2
*D17
 70
     1
 10
0.0
 20
0.0
 30
0.0
  3
*D17
  1

  0
LINE
  5
E4D
330
D9D
100
AcDbEntity
  8
Dimension (ANSI)
440
 16777216
100
AcDbLine
 10
6.62246445231356
 20
8.902099441789145
 30
0.0
 11
6.463967238742154
 21
8.902099441789143
 31
0.0
  0
LINE
  5
E4E
330
D9D
100
AcDbEntity
  8
Dimension (ANSI)
440
 16777216
100
AcDbLine
 10
6.463967238742154
 20
8.902099441789143
 30
0.0
 11
6.184119853872404
 21
9.101490865235225
 31
0.0
  0
MTEXT
  5
E4F
102
{ACAD_XDICTIONARY
360
E9B
102
}
330
D9D
100
AcDbEntity
  8
Dimension (ANSI)
440
 16777216
100
AcDbMText
 10
6.991385767638304
 20
8.902099441789143
 30
0.0
 40
0.1500000059604645
 41
0.0
 71
     5
 72
     1
  1
\A1;\U+22050.130{\PTYP.}
  7
Note Text (ANSI)
 73
     1
 44
1.0
  0
SOLID
  5
E50
330
D9D
100
AcDbEntity
  8
Dimension (ANSI)
440
 16777216
100
AcDbTrace
 10
6.196018539244479
 20
9.118190760984068
 30
0.0
 11
6.17222116850033
 21
9.084790969486382
 31
0.0
 12
6.083920479379345
 22
9.172882977467672
 32
0.0
 13
6.083920479379345
 23
9.172882977467672
 33
0.0
  0
LINE
  5
E51
330
D9D
100
AcDbEntity
  8
Dimension (ANSI)
440
 16777216
100
AcDbLine
 10
5.918483144648156
 20
9.210600859056619
 30
0.0
 11
6.143483144648155
 21
9.210600859056619
 31
0.0
  0
LINE
  5
E52
330
D9D
100
AcDbEntity
  8
Dimension (ANSI)
440
 16777216
100
AcDbLine
 10
6.030983144648155
 20
9.098100859056618
 30
0.0
 11
6.030983144648156
 21
9.323100859056619
 31
0.0
  0
POINT
  5
E53
330
D9D
100
AcDbEntity
  8
Defpoints
 62
     0
440
 16777216
100
AcDbPoint
 10
6.083920479379345
 20
9.172882977467672
 30
0.0
  0
POINT
  5
E54
330
D9D
100
AcDbEntity
  8
Defpoints
 62
     0
440
 16777216
100
AcDbPoint
 10
5.978045809916964
 20
9.248318740645567
 30
0.0
  0
ENDBLK
  5
D9F
330
D9D
100
AcDbEntity
  8
0
100
AcDbBlockEnd
  0
ENDSEC
  0
SECTION
  2
ENTITIES
  0
CIRCLE
  5
11B
330
6C
100
AcDbEntity
  8
Visible (ANSI)
100
AcDbCircle
 10
6.093983144648156
 20
4.273600859056617
 30
0.0
 40
0.125
  0
LINE
  5
11C
330
6C
100
AcDbEntity
  8
Visible (ANSI)
100
AcDbLine
 10
8.748983144648155
 20
4.148600859056618
 30
0.0
 11
8.686983144648156
 21
4.148600859056618
 31
0.0
  0
ARC
  5
11D
330
6C
100
AcDbEntity
  8
Visible (ANSI)
100
AcDbCircle
 10
8.748983144648155
 20
4.273600859056617
 30
0.0
 40
0.125
100
AcDbArc
 50
270.0
 51
90.0
  0
LINE
  5
11E
330
6C
100
AcDbEntity
  8
Visible (ANSI)
100
AcDbLine
 10
8.686983144648156
 20
4.398600859056617
 30
0.0
 11
8.748983144648155
 21
4.398600859056617
 31
0.0
  0
ARC
  5
11F
330
6C
100
AcDbEntity
  8
Visible (ANSI)
100
AcDbCircle
 10
8.686983144648156
 20
4.273600859056617
 30
0.0
 40
0.125
100
AcDbArc
 50
90.0
 51
270.0
  0
LINE
  5
120
330
6C
100
AcDbEntity
  8
Visible (ANSI)
100
AcDbLine
 10
5.124983144648156
 20
4.148600859056618
 30
0.0
 11
5.062983144648156
 21
4.148600859056618
 31
0.0
  0
ARC
  5
121
330
6C
100
AcDbEntity
  8
Visible (ANSI)
100
AcDbCircle
 10
5.124983144648155
 20
4.273600859056617
 30
0.0
 40
0.125
100
AcDbArc
 50
270.0
 51
90.0
  0
LINE
  5
122
330
6C
100
AcDbEntity
  8
Visible (ANSI)
100
AcDbLine
 10
5.062983144648156
 20
4.398600859056617
 30
0.0
 11
5.124983144648155
 21
4.398600859056617
 31
0.0
  0
ARC
  5
123
330
6C
100
AcDbEntity
  8
Visible (ANSI)
100
AcDbCircle
 10
5.062983144648156
 20
4.273600859056617
 30
0.0
 40
0.125
100
AcDbArc
 50
90.0
 51
270.0
  0
LINE
  5
124
330
6C
100
AcDbEntity
  8
Visible (ANSI)
100
AcDbLine
 10
8.748983144648155
 20
9.77260085905662
 30
0.0
 11
8.686983144648154
 21
9.77260085905662
 31
0.0
  0
ARC
  5
125
330
6C
100
AcDbEntity
  8
Visible (ANSI)
100
AcDbCircle
 10
8.748983144648153
 20
9.897600859056618
 30
0.0
 40
0.1250000000000003
100
AcDbArc
 50
270.0
 51
90.0
  0
LINE
  5
126
330
6C
100
AcDbEntity
  8
Visible (ANSI)
100
AcDbLine
 10
8.686983144648154
 20
10.02260085905661
 30
0.0
 11
8.748983144648155
 21
10.02260085905661
 31
0.0
  0
ARC
  5
127
330
6C
100
AcDbEntity
  8
Visible (ANSI)
100
AcDbCircle
 10
8.686983144648154
 20
9.897600859056618
 30
0.0
 40
0.1250000000000003
100
AcDbArc
 50
90.0
 51
270.0
  0
LINE
  5
128
330
6C
100
AcDbEntity
  8
Visible (ANSI)
100
AcDbLine
 10
5.124983144648155
 20
9.77260085905662
 30
0.0
 11
5.062983144648154
 21
9.77260085905662
 31
0.0
  0
ARC
  5
129
330
6C
100
AcDbEntity
  8
Visible (ANSI)
100
AcDbCircle
 10
5.124983144648154
 20
9.897600859056618
 30
0.0
 40
0.1250000000000003
100
AcDbArc
 50
269.9999999999996
 51
89.9999999999996
  0
LINE
  5
12A
330
6C
100
AcDbEntity
  8
Visible (ANSI)
100
AcDbLine
 10
5.062983144648154
 20
10.02260085905661
 30
0.0
 11
5.124983144648154
 21
10.02260085905661
 31
0.0
  0
ARC
  5
12B
330
6C
100
AcDbEntity
  8
Visible (ANSI)
100
AcDbCircle
 10
5.062983144648154
 20
9.897600859056618
 30
0.0
 40
0.1250000000000003
100
AcDbArc
 50
89.9999999999996
 51
269.9999999999996
  0
LINE
  5
12C
330
6C
100
AcDbEntity
  8
Visible (ANSI)
100
AcDbLine
 10
4.780983144648156
 20
3.960600859056618
 30
0.0
 11
4.780983144648154
 21
10.21060085905661
 31
0.0
  0
LINE
  5
12D
330
6C
100
AcDbEntity
  8
Visible (ANSI)
100
AcDbLine
 10
4.780983144648154
 20
10.21060085905661
 30
0.0
 11
9.030983144648155
 21
10.21060085905661
 31
0.0
  0
LINE
  5
12E
330
6C
100
AcDbEntity
  8
Visible (ANSI)
100
AcDbLine
 10
9.030983144648155
 20
10.21060085905661
 30
0.0
 11
9.030983144648157
 21
3.960600859056618
 31
0.0
  0
LINE
  5
12F
330
6C
100
AcDbEntity
  8
Visible (ANSI)
100
AcDbLine
 10
9.030983144648157
 20
3.960600859056618
 30
0.0
 11
4.780983144648156
 21
3.960600859056618
 31
0.0
  0
MTEXT
  5
131
330
6C
100
AcDbEntity
  8
Symbol (ANSI)
100
AcDbMText
 10
6.394614891612611
 20
2.626367788757746
 30
0.0
 40
0.1500000018538452
 41
0.0
 71
     7
 72
     1
  1
FRONT VIEW
  7
Text Style166
 73
     1
 44
1.0
  0
LINE
  5
133
330
6C
100
AcDbEntity
  8
Symbol (ANSI)
370
    30
100
AcDbLine
 10
6.379614853027127
 20
2.595778242039134
 30
0.0
 11
7.585571108384224
 21
2.595778242039134
 31
0.0
  0
LINE
  5
134
330
6C
100
AcDbEntity
  8
Hidden (ANSI)
 48
0.1126580387353897
100
AcDbLine
 10
13.75419691777163
 20
4.148600859056618
 30
0.0
 11
13.82819691777163
 21
4.148600859056618
 31
0.0
  0
LINE
  5
135
330
6C
100
AcDbEntity
  8
Hidden (ANSI)
 48
0.1126580387353897
100
AcDbLine
 10
13.75419691777163
 20
4.398600859056617
 30
0.0
 11
13.82819691777163
 21
4.398600859056617
 31
0.0
  0
LINE
  5
136
330
6C
100
AcDbEntity
  8
Hidden (ANSI)
 48
0.1126580387353897
100
AcDbLine
 10
13.75419691777163
 20
9.77260085905662
 30
0.0
 11
13.82819691777163
 21
9.77260085905662
 31
0.0
  0
LINE
  5
137
330
6C
100
AcDbEntity
  8
Hidden (ANSI)
 48
0.1126580387353897
100
AcDbLine
 10
13.75419691777163
 20
10.02260085905661
 30
0.0
 11
13.82819691777163
 21
10.02260085905661
 31
0.0
  0
LINE
  5
138
330
6C
100
AcDbEntity
  8
Visible (ANSI)
100
AcDbLine
 10
13.82819691777171
 20
10.21060085905661
 30
0.0
 11
13.75419691777171
 21
10.21060085905661
 31
0.0
  0
LINE
  5
139
330
6C
100
AcDbEntity
  8
Visible (ANSI)
100
AcDbLine
 10
13.75419691777171
 20
10.21060085905661
 30
0.0
 11
13.75419691777171
 21
3.960600859056618
 31
0.0
  0
LINE
  5
13A
330
6C
100
AcDbEntity
  8
Visible (ANSI)
100
AcDbLine
 10
13.82819691777171
 20
3.960600859056618
 30
0.0
 11
13.75419691777171
 21
3.960600859056618
 31
0.0
  0
LINE
  5
13B
330
6C
100
AcDbEntity
  8
Visible (ANSI)
100
AcDbLine
 10
13.82819691777171
 20
3.960600859056618
 30
0.0
 11
13.82819691777171
 21
10.21060085905661
 31
0.0
  0
MTEXT
  5
13C
330
6C
100
AcDbEntity
  8
Symbol (ANSI)
100
AcDbMText
 10
13.21543971371649
 20
2.765237958058478
 30
0.0
 40
0.1500000018538452
 41
0.0
 71
     7
 72
     1
  1
SIDE VIEW
  7
Text Style166
 73
     1
 44
1.0
  0
LINE
  5
13D
330
6C
100
AcDbEntity
  8
Symbol (ANSI)
370
    30
100
AcDbLine
 10
13.20775969396072
 20
2.734162187852594
 30
0.0
 11
14.22141446946759
 21
2.734162187852594
 31
0.0
  0
ELLIPSE
  5
13E
330
6C
100
AcDbEntity
  8
Visible (ANSI)
100
AcDbEllipse
 10
17.64399658404456
 20
5.918540355633697
 30
0.0
 11
0.0623790264480572
 21
-0.108322929518143
 31
0.0
210
0.0
220
0.0
230
0.9999999999999998
 40
0.578093115915809
 41
3.572615253427381
 42
5.852162707341189
  0
ELLIPSE
  5
13F
330
6C
100
AcDbEntity
  8
Visible (ANSI)
100
AcDbEllipse
 10
17.59167068223677
 20
5.88840787281306
 30
0.0
 11
-0.0623790264480507
 21
0.1083229295181468
 31
0.0
210
0.0
220
0.0
230
1.0
 40
0.578093115915809
 41
0.0
 42
6.283185307179586
  0
LINE
  5
140
330
6C
100
AcDbEntity
  8
Visible (ANSI)
100
AcDbLine
 10
19.47752446766155
 20
4.760488479165005
 30
0.0
 11
19.52136508809512
 21
4.735242344909884
 31
0.0
  0
LINE
  5
141
330
6C
100
AcDbEntity
  8
Visible Narrow (ANSI)
100
AcDbLine
 10
19.42519856585375
 20
4.730355996344368
 30
0.0
 11
19.47752446766155
 21
4.760488479165005
 31
0.0
  0
LINE
  5
142
330
6C
100
AcDbEntity
  8
Visible (ANSI)
100
AcDbLine
 10
19.46903918628732
 20
4.705109862089247
 30
0.0
 11
19.42519856585375
 21
4.730355996344368
 31
0.0
  0
LINE
  5
143
330
6C
100
AcDbEntity
  8
Visible Narrow (ANSI)
100
AcDbLine
 10
19.46903918628732
 20
4.705109862089247
 30
0.0
 11
19.52136508809512
 21
4.735242344909884
 31
0.0
  0
ELLIPSE
  5
144
330
6C
100
AcDbEntity
  8
Visible (ANSI)
100
AcDbEllipse
 10
19.52136508809512
 20
4.837435735515208
 30
0.0
 11
0.0623790264480551
 21
-0.1083229295181544
 31
0.0
210
0.0
220
0.0
230
1.0
 40
0.578093115915809
 41
5.49972085220502
 42
5.852162707341594
  0
ELLIPSE
  5
145
330
6C
100
AcDbEntity
  8
Visible (ANSI)
100
AcDbEllipse
 10
19.46903918628732
 20
4.807303252694564
 30
0.0
 11
0.0623790264480442
 21
-0.1083229295181505
 31
0.0
210
0.0
220
0.0
230
1.0
 40
0.578093115915809
 41
5.499720852205271
 42
8.641313505795064
  0
LINE
  5
146
330
6C
100
AcDbEntity
  8
Visible (ANSI)
100
AcDbLine
 10
19.42519856585375
 20
4.934742777555001
 30
0.0
 11
19.46903918628732
 21
4.909496643299879
 31
0.0
  0
ELLIPSE
  5
147
330
6C
100
AcDbEntity
  8
Visible (ANSI)
100
AcDbEllipse
 10
19.47752446766155
 20
4.862681869770321
 30
0.0
 11
0.0623790264480572
 21
-0.108322929518143
 31
0.0
210
0.0
220
0.0
230
1.0
 40
0.578093115915809
 41
3.572615253427379
 42
5.499720852204688
  0
ELLIPSE
  5
148
330
6C
100
AcDbEntity
  8
Visible (ANSI)
100
AcDbEllipse
 10
19.42519856585375
 20
4.832549386949684
 30
0.0
 11
-0.0623790264480442
 21
0.1083229295181505
 31
0.0
210
0.0
220
0.0
230
1.0
 40
0.578093115915809
 41
5.499720852205271
 42
8.641313505795064
  0
LINE
  5
149
330
6C
100
AcDbEntity
  8
Visible (ANSI)
100
AcDbLine
 10
16.91496949264112
 20
6.23616574594822
 30
0.0
 11
16.95881011307469
 21
6.210919611693099
 31
0.0
  0
LINE
  5
14A
330
6C
100
AcDbEntity
  8
Visible Narrow (ANSI)
100
AcDbLine
 10
16.86264359083332
 20
6.206033263127583
 30
0.0
 11
16.91496949264112
 21
6.23616574594822
 31
0.0
  0
LINE
  5
14B
330
6C
100
AcDbEntity
  8
Visible (ANSI)
100
AcDbLine
 10
16.9064842112669
 20
6.180787128872462
 30
0.0
 11
16.86264359083332
 21
6.206033263127583
 31
0.0
  0
LINE
  5
14C
330
6C
100
AcDbEntity
  8
Visible Narrow (ANSI)
100
AcDbLine
 10
16.9064842112669
 20
6.180787128872462
 30
0.0
 11
16.95881011307469
 21
6.210919611693099
 31
0.0
  0
ELLIPSE
  5
14D
330
6C
100
AcDbEntity
  8
Visible (ANSI)
100
AcDbEllipse
 10
16.95881011307469
 20
6.313113002298415
 30
0.0
 11
0.0623790264480506
 21
-0.1083229295181467
 31
0.0
210
0.0
220
0.0
230
1.0
 40
0.578093115915809
 41
5.49972085220502
 42
5.852162707341574
  0
ELLIPSE
  5
14E
330
6C
100
AcDbEntity
  8
Visible (ANSI)
100
AcDbEllipse
 10
16.9064842112669
 20
6.282980519477778
 30
0.0
 11
0.0623790264480442
 21
-0.1083229295181505
 31
0.0
210
0.0
220
0.0
230
1.0
 40
0.578093115915809
 41
5.499720852205272
 42
8.641313505795064
  0
LINE
  5
14F
330
6C
100
AcDbEntity
  8
Visible (ANSI)
100
AcDbLine
 10
16.86264359083332
 20
6.410420044338216
 30
0.0
 11
16.9064842112669
 21
6.385173910083095
 31
0.0
  0
ELLIPSE
  5
150
330
6C
100
AcDbEntity
  8
Visible (ANSI)
100
AcDbEllipse
 10
16.91496949264112
 20
6.338359136553536
 30
0.0
 11
0.0623790264480572
 21
-0.1083229295181431
 31
0.0
210
0.0
220
0.0
230
0.9999999999999998
 40
0.578093115915809
 41
3.572615253427381
 42
5.499720852204688
  0
ELLIPSE
  5
151
330
6C
100
AcDbEntity
  8
Visible (ANSI)
100
AcDbEllipse
 10
16.86264359083332
 20
6.308226653732899
 30
0.0
 11
-0.0623790264480442
 21
0.1083229295181505
 31
0.0
210
0.0
220
0.0
230
1.0
 40
0.578093115915809
 41
5.499720852205271
 42
8.641313505795064
  0
LINE
  5
152
330
6C
100
AcDbEntity
  8
Visible (ANSI)
100
AcDbLine
 10
19.47752446766156
 20
9.358373509279434
 30
0.0
 11
19.52136508809513
 21
9.333127375024313
 31
0.0
  0
LINE
  5
153
330
6C
100
AcDbEntity
  8
Visible Narrow (ANSI)
100
AcDbLine
 10
19.42519856585376
 20
9.328241026458798
 30
0.0
 11
19.47752446766156
 21
9.358373509279434
 31
0.0
  0
LINE
  5
154
330
6C
100
AcDbEntity
  8
Visible (ANSI)
100
AcDbLine
 10
19.46903918628733
 20
9.302994892203674
 30
0.0
 11
19.42519856585376
 21
9.328241026458798
 31
0.0
  0
LINE
  5
155
330
6C
100
AcDbEntity
  8
Visible Narrow (ANSI)
100
AcDbLine
 10
19.46903918628733
 20
9.302994892203674
 30
0.0
 11
19.52136508809513
 21
9.333127375024313
 31
0.0
  0
ELLIPSE
  5
156
330
6C
100
AcDbEntity
  8
Visible (ANSI)
100
AcDbEllipse
 10
19.52136508809513
 20
9.435320765629656
 30
0.0
 11
0.0623790264480659
 21
-0.1083229295181731
 31
0.0
210
0.0
220
0.0
230
1.0
 40
0.578093115915809
 41
5.499720852205059
 42
5.852162707341573
  0
ELLIPSE
  5
157
330
6C
100
AcDbEntity
  8
Visible (ANSI)
100
AcDbEllipse
 10
19.46903918628733
 20
9.405188282808992
 30
0.0
 11
0.0623790264480444
 21
-0.1083229295181507
 31
0.0
210
0.0
220
0.0
230
1.0
 40
0.578093115915809
 41
5.499720852205271
 42
8.641313505795064
  0
LINE
  5
158
330
6C
100
AcDbEntity
  8
Visible (ANSI)
100
AcDbLine
 10
19.42519856585376
 20
9.532627807669429
 30
0.0
 11
19.46903918628733
 21
9.507381673414307
 31
0.0
  0
ELLIPSE
  5
159
330
6C
100
AcDbEntity
  8
Visible (ANSI)
100
AcDbEllipse
 10
19.47752446766156
 20
9.460566899884749
 30
0.0
 11
0.0623790264480573
 21
-0.1083229295181433
 31
0.0
210
0.0
220
0.0
230
0.9999999999999998
 40
0.578093115915809
 41
3.572615253427372
 42
5.499720852204689
  0
ELLIPSE
  5
15A
330
6C
100
AcDbEntity
  8
Visible (ANSI)
100
AcDbEllipse
 10
19.42519856585376
 20
9.430434417064113
 30
0.0
 11
-0.0623790264480444
 21
0.1083229295181507
 31
0.0
210
0.0
220
0.0
230
1.0
 40
0.578093115915809
 41
5.499720852205271
 42
8.641313505795064
  0
LINE
  5
15B
330
6C
100
AcDbEntity
  8
Visible (ANSI)
100
AcDbLine
 10
16.91496949264113
 20
10.83405077606265
 30
0.0
 11
16.9588101130747
 21
10.80880464180753
 31
0.0
  0
LINE
  5
15C
330
6C
100
AcDbEntity
  8
Visible Narrow (ANSI)
100
AcDbLine
 10
16.86264359083333
 20
10.80391829324201
 30
0.0
 11
16.91496949264113
 21
10.83405077606265
 31
0.0
  0
LINE
  5
15D
330
6C
100
AcDbEntity
  8
Visible (ANSI)
100
AcDbLine
 10
16.90648421126691
 20
10.77867215898689
 30
0.0
 11
16.86264359083333
 21
10.80391829324201
 31
0.0
  0
LINE
  5
15E
330
6C
100
AcDbEntity
  8
Visible Narrow (ANSI)
100
AcDbLine
 10
16.90648421126691
 20
10.77867215898689
 30
0.0
 11
16.9588101130747
 21
10.80880464180753
 31
0.0
  0
ELLIPSE
  5
15F
330
6C
100
AcDbEntity
  8
Visible (ANSI)
100
AcDbEllipse
 10
16.9588101130747
 20
10.91099803241286
 30
0.0
 11
0.0623790264480606
 21
-0.108322929518164
 31
0.0
210
0.0
220
0.0
230
1.0
 40
0.578093115915809
 41
5.49972085220506
 42
5.852162707341602
  0
ELLIPSE
  5
160
330
6C
100
AcDbEntity
  8
Visible (ANSI)
100
AcDbEllipse
 10
16.90648421126691
 20
10.8808655495922
 30
0.0
 11
0.0623790264480444
 21
-0.1083229295181507
 31
0.0
210
0.0
220
0.0
230
1.0
 40
0.578093115915809
 41
5.499720852205271
 42
8.641313505795064
  0
LINE
  5
161
330
6C
100
AcDbEntity
  8
Visible (ANSI)
100
AcDbLine
 10
16.86264359083333
 20
11.00830507445264
 30
0.0
 11
16.90648421126691
 21
10.98305894019752
 31
0.0
  0
ELLIPSE
  5
162
330
6C
100
AcDbEntity
  8
Visible (ANSI)
100
AcDbEllipse
 10
16.91496949264113
 20
10.93624416666796
 30
0.0
 11
0.0623790264480574
 21
-0.1083229295181434
 31
0.0
210
0.0
220
0.0
230
0.9999999999999998
 40
0.578093115915809
 41
3.572615253427372
 42
5.499720852204689
  0
ELLIPSE
  5
163
330
6C
100
AcDbEntity
  8
Visible (ANSI)
100
AcDbEllipse
 10
16.86264359083333
 20
10.90611168384733
 30
0.0
 11
-0.0623790264480444
 21
0.1083229295181507
 31
0.0
210
0.0
220
0.0
230
1.0
 40
0.5780931159158092
 41
5.499720852205271
 42
8.641313505795064
  0
LINE
  5
164
330
6C
100
AcDbEntity
  8
Visible (ANSI)
100
AcDbLine
 10
16.66323947853869
 20
6.167163594946607
 30
0.0
 11
16.6632394785387
 21
11.27683312521246
 31
0.0
  0
LINE
  5
165
330
6C
100
AcDbEntity
  8
Visible (ANSI)
100
AcDbLine
 10
16.71556538034649
 20
11.3069656080331
 30
0.0
 11
16.6632394785387
 21
11.27683312521246
 31
0.0
  0
LINE
  5
166
330
6C
100
AcDbEntity
  8
Visible (ANSI)
100
AcDbLine
 10
16.6632394785387
 20
11.27683312521246
 30
0.0
 11
19.66844329858197
 21
9.546251341595283
 31
0.0
  0
LINE
  5
167
330
6C
100
AcDbEntity
  8
Visible (ANSI)
100
AcDbLine
 10
19.72076920038977
 20
9.576383824415922
 30
0.0
 11
19.66844329858197
 21
9.546251341595283
 31
0.0
  0
LINE
  5
168
330
6C
100
AcDbEntity
  8
Visible (ANSI)
100
AcDbLine
 10
19.72076920038977
 20
9.576383824415922
 30
0.0
 11
16.71556538034649
 21
11.3069656080331
 31
0.0
  0
LINE
  5
169
330
6C
100
AcDbEntity
  8
Visible (ANSI)
100
AcDbLine
 10
19.66844329858197
 20
9.546251341595283
 30
0.0
 11
19.66844329858196
 21
4.436581811329427
 31
0.0
  0
LINE
  5
16A
330
6C
100
AcDbEntity
  8
Visible (ANSI)
100
AcDbLine
 10
19.72076920038976
 20
4.466714294150064
 30
0.0
 11
19.66844329858196
 21
4.436581811329427
 31
0.0
  0
LINE
  5
16B
330
6C
100
AcDbEntity
  8
Visible (ANSI)
100
AcDbLine
 10
19.72076920038976
 20
4.466714294150064
 30
0.0
 11
19.72076920038977
 21
9.576383824415922
 31
0.0
  0
LINE
  5
16C
330
6C
100
AcDbEntity
  8
Visible (ANSI)
100
AcDbLine
 10
19.66844329858196
 20
4.436581811329427
 30
0.0
 11
16.66323947853869
 21
6.167163594946607
 31
0.0
  0
DIMENSION
  5
16D
330
6C
100
AcDbEntity
  8
Dimension (ANSI)
100
AcDbDimension
  2
*D4
 10
3.401759559986957
 20
10.21060085905662
 30
0.0
 11
3.401759559986955
 21
7.085600859056617
 31
0.0
 70
   160
  1
<>
 42
6.25
  3
Default (ANSI)
100
AcDbAlignedDimension
 13
4.780983144648156
 23
3.960600859056618
 33
0.0
 14
4.780983144648154
 24
10.21060085905661
 34
0.0
 50
90.0
100
AcDbRotatedDimension
1001
ACAD
1000
DSTYLE
1002
{
1070
   289
1070
     1
1070
   271
1070
     2
1070
   272
1070
     2
1070
    48
1040
0.0
1070
    47
1040
0.0
1002
}
  0
DIMENSION
  5
259
330
6C
100
AcDbEntity
  8
Dimension (ANSI)
100
AcDbDimension
  2
*D5
 10
9.030983144648155
 20
11.62182405363029
 30
0.0
 11
6.943025009831321
 21
11.62182405363029
 31
0.0
 70
   160
  1
<>
 42
4.25
  3
Default (ANSI)
100
AcDbAlignedDimension
 13
4.780983144648154
 23
10.21060085905661
 33
0.0
 14
9.030983144648155
 24
10.21060085905661
 34
0.0
 50
180.0
100
AcDbRotatedDimension
1001
ACAD
1000
DSTYLE
1002
{
1070
   289
1070
     1
1070
    73
1070
     0
1070
    74
1070
     0
1070
   271
1070
     2
1070
   272
1070
     2
1070
    48
1040
0.0
1070
    47
1040
0.0
1002
}
  0
DIMENSION
  5
343
330
6C
100
AcDbEntity
  8
Dimension (ANSI)
100
AcDbDimension
  2
*D6
 10
8.717983144648155
 20
11.21536679999169
 30
0.0
 11
9.562873572070801
 21
11.21536679999169
 31
0.0
 70
   160
  1
<>
 71
     5
 42
0.3130000000000006
  3
Default (ANSI)
100
AcDbAlignedDimension
 13
9.030983144648155
 23
10.21060085905661
 33
0.0
 14
8.717983144648155
 24
10.17885085905661
 34
0.0
 50
180.0
100
AcDbRotatedDimension
1001
ACAD
1000
DSTYLE
1002
{
1070
   289
1070
     1
1070
    73
1070
     0
1070
    74
1070
     0
1070
   271
1070
     3
1070
   272
1070
     3
1070
    48
1040
0.0
1070
    47
1040
0.0
1002
}
  0
DIMENSION
  5
42D
330
6C
100
AcDbEntity
  8
Dimension (ANSI)
100
AcDbDimension
  2
*D7
 10
9.666793750996394
 20
9.897600859056618
 30
0.0
 11
9.677490371915997
 21
10.66697209280122
 31
0.0
 70
   160
  1
<>
 42
0.3129999999999988
  3
Default (ANSI)
100
AcDbAlignedDimension
 13
9.030983144648155
 23
10.21060085905661
 33
0.0
 14
8.873983144648155
 24
9.897600859056618
 34
0.0
 50
90.0
100
AcDbRotatedDimension
1001
ACAD
1000
DSTYLE
1002
{
1070
   289
1070
     1
1070
   279
1070
     1
1070
   271
1070
     3
1070
   272
1070
     3
1070
    48
1040
0.0
1070
    47
1040
0.0
1002
}
  0
DIMENSION
  5
528
330
6C
100
AcDbEntity
  8
Dimension (ANSI)
100
AcDbDimension
  2
*D8
 10
6.005594796999826
 20
4.361989206704922
 30
0.0
 11
7.542780435161199
 21
3.708144523793643
 31
0.0
 70
   163
  1
<>{\PGROUND HOLE}
 42
0.25
  3
Default (ANSI)
100
AcDbDiametricDimension
 15
6.182371492296487
 25
4.185212511408312
 35
0.0
 40
0.0
1001
ACAD_DSTYLE_DIMRADIAL_EXTENSION
1070
   387
1070
     1
1070
   388
1040
0.0
1070
   390
1040
0.0
1001
ACAD
1000
DSTYLE
1002
{
1070
   145
1040
-0.25
1070
   144
1040
1.000000000000003
1070
   271
1070
     3
1070
   272
1070
     2
1070
    48
1040
0.0
1070
    47
1040
0.0
1002
}
  0
DIMENSION
  5
5E3
330
6C
100
AcDbEntity
  8
Dimension (ANSI)
100
AcDbDimension
  2
*D9
 10
13.82819691777172
 20
10.40243093368742
 30
0.0
 11
12.8977765937208
 21
10.40243093368742
 31
0.0
 70
   160
  1
{14 GA. C.R.S\P}(<>)
 71
     5
 42
0.0739999999999999
  3
Default (ANSI)
100
AcDbAlignedDimension
 13
13.75419691777171
 23
10.21060085905661
 33
0.0
 14
13.82819691777172
 24
10.21060085905661
 34
0.0
 50
180.0
100
AcDbRotatedDimension
1001
ACAD
1000
DSTYLE
1002
{
1070
   289
1070
     1
1070
    73
1070
     0
1070
    74
1070
     0
1070
   271
1070
     3
1070
   147
1040
0.031496062992126
1070
    72
1070
     0
1070
    71
1070
     0
1070
   272
1070
     2
1070
    48
1040
0.0
1070
    47
1040
0.0
1002
}
  0
DIMENSION
  5
6EB
330
6C
100
AcDbEntity
  8
Dimension (ANSI)
100
AcDbDimension
  2
*D10
 10
9.666793750996395
 20
9.897600859056618
 30
0.0
 11
9.666793750996394
 21
7.085600859056618
 31
0.0
 70
   160
  1
<>
 42
5.624000000000002
  3
Default (ANSI)
100
AcDbAlignedDimension
 13
4.937983144648157
 23
4.273600859056617
 33
0.0
 14
4.937983144648155
 24
9.897600859056618
 34
0.0
 50
90.0
100
AcDbRotatedDimension
1001
ACAD
1000
DSTYLE
1002
{
1070
   289
1070
     1
1070
   271
1070
     3
1070
   272
1070
     3
1070
    48
1040
0.0
1070
    47
1040
0.0
1002
}
  0
DIMENSION
  5
7D5
330
6C
100
AcDbEntity
  8
Dimension (ANSI)
100
AcDbDimension
  2
*D11
 10
8.717983144648155
 20
11.21536679999169
 30
0.0
 11
6.943025009831322
 21
11.21536679999169
 31
0.0
 70
   160
  1
<>
 42
3.624
  3
Default (ANSI)
100
AcDbAlignedDimension
 13
5.093983144648154
 23
10.17885085905661
 33
0.0
 14
8.717983144648155
 24
10.17885085905661
 34
0.0
 50
180.0
100
AcDbRotatedDimension
1001
ACAD
1000
DSTYLE
1002
{
1070
   289
1070
     1
1070
    73
1070
     0
1070
    74
1070
     0
1070
   271
1070
     3
1070
   272
1070
     3
1070
    48
1040
0.0
1070
    47
1040
0.0
1002
}
  0
DIMENSION
  5
8BF
330
6C
100
AcDbEntity
  8
Dimension (ANSI)
100
AcDbDimension
  2
*D12
 10
6.093983144648156
 20
3.32030329513304
 30
0.0
 11
5.593983144648156
 21
3.32030329513304
 31
0.0
 70
   160
  1
<>
  3
Default (ANSI)
100
AcDbAlignedDimension
 13
5.093983144648156
 23
4.148600859056617
 33
0.0
 14
6.093983144648156
 24
4.148600859056617
 34
0.0
 50
180.0
100
AcDbRotatedDimension
1001
ACAD
1000
DSTYLE
1002
{
1070
   289
1070
     1
1070
    73
1070
     0
1070
    74
1070
     0
1070
   271
1070
     3
1070
   272
1070
     3
1070
    48
1040
0.0
1070
    47
1040
0.0
1002
}
  0
CIRCLE
  5
9A9
330
6C
100
AcDbEntity
  8
Sketch Geometry (ANSI)
100
AcDbCircle
 10
5.530983144648155
 20
9.960600859056619
 30
0.0
 40
0.065
  0
CIRCLE
  5
9AA
330
6C
100
AcDbEntity
  8
Sketch Geometry (ANSI)
100
AcDbCircle
 10
5.780983144648154
 20
9.960600859056619
 30
0.0
 40
0.065
  0
CIRCLE
  5
9AB
330
6C
100
AcDbEntity
  8
Sketch Geometry (ANSI)
100
AcDbCircle
 10
6.030983144648154
 20
9.960600859056619
 30
0.0
 40
0.065
  0
CIRCLE
  5
9AC
330
6C
100
AcDbEntity
  8
Sketch Geometry (ANSI)
100
AcDbCircle
 10
5.030983144648154
 20
9.710600859056619
 30
0.0
 40
0.065
  0
CIRCLE
  5
9AD
330
6C
100
AcDbEntity
  8
Sketch Geometry (ANSI)
100
AcDbCircle
 10
5.280983144648154
 20
9.710600859056619
 30
0.0
 40
0.065
  0
CIRCLE
  5
9AE
330
6C
100
AcDbEntity
  8
Sketch Geometry (ANSI)
100
AcDbCircle
 10
5.530983144648155
 20
9.710600859056619
 30
0.0
 40
0.065
  0
CIRCLE
  5
9AF
330
6C
100
AcDbEntity
  8
Sketch Geometry (ANSI)
100
AcDbCircle
 10
5.780983144648154
 20
9.710600859056619
 30
0.0
 40
0.065
  0
CIRCLE
  5
9B0
330
6C
100
AcDbEntity
  8
Sketch Geometry (ANSI)
100
AcDbCircle
 10
6.030983144648154
 20
9.710600859056619
 30
0.0
 40
0.065
  0
CIRCLE
  5
9B1
330
6C
100
AcDbEntity
  8
Sketch Geometry (ANSI)
100
AcDbCircle
 10
5.030983144648154
 20
9.460600859056617
 30
0.0
 40
0.065
  0
CIRCLE
  5
9B2
330
6C
100
AcDbEntity
  8
Sketch Geometry (ANSI)
100
AcDbCircle
 10
5.280983144648154
 20
9.460600859056619
 30
0.0
 40
0.065
  0
CIRCLE
  5
9B3
330
6C
100
AcDbEntity
  8
Sketch Geometry (ANSI)
100
AcDbCircle
 10
5.530983144648155
 20
9.460600859056619
 30
0.0
 40
0.065
  0
CIRCLE
  5
9B4
330
6C
100
AcDbEntity
  8
Sketch Geometry (ANSI)
100
AcDbCircle
 10
5.780983144648154
 20
9.460600859056619
 30
0.0
 40
0.065
  0
CIRCLE
  5
9B5
330
6C
100
AcDbEntity
  8
Sketch Geometry (ANSI)
100
AcDbCircle
 10
6.030983144648154
 20
9.460600859056619
 30
0.0
 40
0.065
  0
CIRCLE
  5
9B6
330
6C
100
AcDbEntity
  8
Sketch Geometry (ANSI)
100
AcDbCircle
 10
5.030983144648154
 20
9.210600859056617
 30
0.0
 40
0.065
  0
CIRCLE
  5
9B7
330
6C
100
AcDbEntity
  8
Sketch Geometry (ANSI)
100
AcDbCircle
 10
5.280983144648154
 20
9.210600859056619
 30
0.0
 40
0.065
  0
CIRCLE
  5
9B8
330
6C
100
AcDbEntity
  8
Sketch Geometry (ANSI)
100
AcDbCircle
 10
5.530983144648155
 20
9.210600859056619
 30
0.0
 40
0.065
  0
CIRCLE
  5
9B9
330
6C
100
AcDbEntity
  8
Sketch Geometry (ANSI)
100
AcDbCircle
 10
5.780983144648154
 20
9.210600859056619
 30
0.0
 40
0.065
  0
CIRCLE
  5
9BA
330
6C
100
AcDbEntity
  8
Sketch Geometry (ANSI)
100
AcDbCircle
 10
6.030983144648154
 20
9.210600859056619
 30
0.0
 40
0.065
  0
CIRCLE
  5
9BB
330
6C
100
AcDbEntity
  8
Sketch Geometry (ANSI)
100
AcDbCircle
 10
5.030983144648154
 20
8.960600859056617
 30
0.0
 40
0.065
  0
CIRCLE
  5
9BC
330
6C
100
AcDbEntity
  8
Sketch Geometry (ANSI)
100
AcDbCircle
 10
5.280983144648154
 20
8.960600859056617
 30
0.0
 40
0.065
  0
CIRCLE
  5
9BD
330
6C
100
AcDbEntity
  8
Sketch Geometry (ANSI)
100
AcDbCircle
 10
5.530983144648155
 20
8.960600859056617
 30
0.0
 40
0.065
  0
CIRCLE
  5
9BE
330
6C
100
AcDbEntity
  8
Sketch Geometry (ANSI)
100
AcDbCircle
 10
5.780983144648154
 20
8.960600859056617
 30
0.0
 40
0.065
  0
CIRCLE
  5
9BF
330
6C
100
AcDbEntity
  8
Sketch Geometry (ANSI)
100
AcDbCircle
 10
6.030983144648154
 20
8.960600859056617
 30
0.0
 40
0.065
  0
CIRCLE
  5
9C0
330
6C
100
AcDbEntity
  8
Sketch Geometry (ANSI)
100
AcDbCircle
 10
5.159935421649286
 20
9.864943063876117
 30
0.0
 40
0.55
  0
MTEXT
  5
9C1
102
{ACAD_REACTORS
330
9C2
102
}
330
6C
100
AcDbEntity
  8
Symbol (ANSI)
100
AcDbMText
 10
4.277265752632327
 20
10.82886463586323
 30
0.0
 40
0.1500000018538452
 41
1.238897912145599
 71
     6
 72
     1
  1
{PREFORATED\PDETAIL}
  7
Note Text (ANSI)
 73
     2
 44
0.9878841638565063
  0
LEADER
  5
9C2
330
6C
100
AcDbEntity
  8
Symbol (ANSI)
100
AcDbLeader
  3
Default (ANSI)$7
 73
     0
 75
     1
 40
0.4469710464882275
 41
1.217327072324087
 76
     3
 10
4.75640133087796
 20
10.23865450012788
 30
0.0
 10
4.439667324648842
 20
10.82886463586323
 30
0.0
 10
4.316635831372485
 20
10.82886463586323
 30
0.0
340
9C1
210
0.0
220
0.0
230
0.9999999999999998
1001
ACAD
1000
DSTYLE
1002
{
1070
    77
1070
     0
1002
}
  0
LINE
  5
9C3
330
6C
100
AcDbEntity
  8
Centerline (ANSI)
  6
CHAIN
 48
0.9524481296539306
100
AcDbLine
 10
5.093983144648154
 20
10.17885085905661
 30
0.0
 11
5.093983144648156
 21
3.992350859056617
 31
0.0
  0
LINE
  5
9C4
330
6C
100
AcDbEntity
  8
Centerline (ANSI)
  6
CHAIN
 48
0.9524481296539306
100
AcDbLine
 10
4.781733144648156
 20
4.273600859056617
 30
0.0
 11
9.030233144648155
 21
4.273600859056617
 31
0.0
  0
LINE
  5
9C5
330
6C
100
AcDbEntity
  8
Centerline (ANSI)
  6
CHAIN
 48
0.9524481296539306
100
AcDbLine
 10
8.717983144648155
 20
3.992350859056617
 30
0.0
 11
8.717983144648155
 21
10.17885085905661
 31
0.0
  0
LINE
  5
9C6
330
6C
100
AcDbEntity
  8
Centerline (ANSI)
  6
CHAIN
 48
0.9524481296539306
100
AcDbLine
 10
9.030233144648153
 20
9.897600859056618
 30
0.0
 11
4.781733144648154
 21
9.897600859056618
 31
0.0
  0
LINE
  5
9C7
330
6C
100
AcDbEntity
  8
Center Mark (ANSI)
  6
CHAIN
 48
0.2498863935470581
100
AcDbLine
 10
6.375233144648156
 20
4.273600859056617
 30
0.0
 11
5.812733144648156
 21
4.273600859056617
 31
0.0
  0
LINE
  5
9C8
330
6C
100
AcDbEntity
  8
Center Mark (ANSI)
  6
CHAIN
 48
0.2498863935470581
100
AcDbLine
 10
6.093983144648156
 20
4.554850859056617
 30
0.0
 11
6.093983144648156
 21
3.992350859056617
 31
0.0
  0
MTEXT
  5
9C9
102
{ACAD_REACTORS
330
9CA
102
}
330
6C
100
AcDbEntity
  8
Symbol (ANSI)
100
AcDbMText
 10
9.439935792005075
 20
3.582761621357237
 30
0.0
 40
0.1500000018538452
 41
1.048905994948439
 71
     4
 72
     1
  1
{.250 X .312\POBROUND\PHOLE}
  7
Note Text (ANSI)
 73
     2
 44
0.9878841638565063
  0
LEADER
  5
9CA
330
6C
100
AcDbEntity
  8
Symbol (ANSI)
100
AcDbLeader
  3
Default (ANSI)$7
 73
     0
 74
     0
 75
     1
 40
0.6939420905046614
 41
1.021188723282792
 76
     3
 10
8.773614264881871
 20
4.151051652955426
 30
0.0
 10
9.277534219988559
 20
3.582761621357237
 30
0.0
 10
9.400565713264917
 20
3.582761621357237
 30
0.0
340
9C9
210
0.0
220
0.0
230
0.9999999999999998
1001
ACAD
1000
DSTYLE
1002
{
1070
    77
1070
     0
1002
}
  0
LINE
  5
9CB
330
6C
100
AcDbEntity
  8
Center Mark (ANSI)
  6
CHAIN
 48
0.196555957198143
100
AcDbLine
 10
5.252233144648154
 20
9.210600859056617
 30
0.0
 11
4.809733144648155
 21
9.210600859056617
 31
0.0
  0
LINE
  5
9CC
330
6C
100
AcDbEntity
  8
Center Mark (ANSI)
  6
CHAIN
 48
0.196555957198143
100
AcDbLine
 10
5.030983144648154
 20
9.431850859056618
 30
0.0
 11
5.030983144648154
 21
8.989350859056617
 31
0.0
  0
LINE
  5
9CD
330
6C
100
AcDbEntity
  8
Center Mark (ANSI)
  6
CHAIN
 48
0.196555957198143
100
AcDbLine
 10
5.252233144648154
 20
8.960600859056617
 30
0.0
 11
4.809733144648155
 21
8.960600859056617
 31
0.0
  0
LINE
  5
9CE
330
6C
100
AcDbEntity
  8
Center Mark (ANSI)
  6
CHAIN
 48
0.196555957198143
100
AcDbLine
 10
5.030983144648154
 20
9.181850859056618
 30
0.0
 11
5.030983144648154
 21
8.739350859056617
 31
0.0
  0
DIMENSION
  5
9CF
330
6C
100
AcDbEntity
  8
Dimension (ANSI)
100
AcDbDimension
  2
*D13
 10
4.805123602580779
 20
9.210600859056617
 30
0.0
 11
4.394602478990329
 21
8.441134727516985
 31
0.0
 70
   160
  1
<>
 42
0.25
  3
Default (ANSI)
100
AcDbAlignedDimension
 13
4.809733144648155
 23
8.960600859056617
 33
0.0
 14
4.809733144648155
 24
9.210600859056617
 34
0.0
 50
90.0
100
AcDbRotatedDimension
1001
ACAD
1000
DSTYLE
1002
{
1070
   289
1070
     1
1070
   271
1070
     3
1070
   272
1070
     3
1070
    48
1040
0.0
1070
    47
1040
0.0
1002
}
  0
DIMENSION
  5
ACC
330
6C
100
AcDbEntity
  8
Dimension (ANSI)
100
AcDbDimension
  2
*D14
 10
4.780983144648155
 20
7.654027029994623
 30
0.0
 11
4.207503102328383
 21
7.654027029994623
 31
0.0
 70
   160
  1
<>
 42
0.2499999999999991
  3
Default (ANSI)
100
AcDbAlignedDimension
 13
5.030983144648154
 23
8.739350859056617
 33
0.0
 14
4.780983144648155
 24
7.232933643933359
 34
0.0
 50
180.0
100
AcDbRotatedDimension
1001
ACAD
1000
DSTYLE
1002
{
1070
   289
1070
     1
1070
    73
1070
     0
1070
    74
1070
     0
1070
   271
1070
     3
1070
    76
1070
     1
1070
   272
1070
     3
1070
    48
1040
0.0
1070
    47
1040
0.0
1002
}
  0
LINE
  5
BB1
330
6C
100
AcDbEntity
  8
Center Mark (ANSI)
  6
CHAIN
 48
0.196555957198143
100
AcDbLine
 10
5.752233144648155
 20
9.960600859056619
 30
0.0
 11
5.309733144648156
 21
9.960600859056619
 31
0.0
  0
LINE
  5
BB2
330
6C
100
AcDbEntity
  8
Center Mark (ANSI)
  6
CHAIN
 48
0.196555957198143
100
AcDbLine
 10
5.530983144648155
 20
10.18185085905662
 30
0.0
 11
5.530983144648155
 21
9.739350859056619
 31
0.0
  0
LINE
  5
BB3
330
6C
100
AcDbEntity
  8
Center Mark (ANSI)
  6
CHAIN
 48
0.196555957198143
100
AcDbLine
 10
6.002233144648154
 20
9.960600859056619
 30
0.0
 11
5.559733144648155
 21
9.960600859056619
 31
0.0
  0
LINE
  5
BB4
330
6C
100
AcDbEntity
  8
Center Mark (ANSI)
  6
CHAIN
 48
0.196555957198143
100
AcDbLine
 10
5.780983144648154
 20
10.18185085905662
 30
0.0
 11
5.780983144648154
 21
9.739350859056619
 31
0.0
  0
DIMENSION
  5
BB5
330
6C
100
AcDbEntity
  8
Dimension (ANSI)
100
AcDbDimension
  2
*D15
 10
5.780983144648154
 20
10.69683058666181
 30
0.0
 11
6.314535761514962
 21
10.69683058666181
 31
0.0
 70
   160
  1
<>
 42
0.2499999999999991
  3
Default (ANSI)
100
AcDbAlignedDimension
 13
5.530983144648155
 23
10.18185085905662
 33
0.0
 14
5.780983144648154
 24
10.18185085905662
 34
0.0
 50
180.0
100
AcDbRotatedDimension
1001
ACAD
1000
DSTYLE
1002
{
1070
   289
1070
     1
1070
    73
1070
     0
1070
    74
1070
     0
1070
   271
1070
     3
1070
   272
1070
     3
1070
    48
1040
0.0
1070
    47
1040
0.0
1002
}
  0
DIMENSION
  5
C9F
330
6C
100
AcDbEntity
  8
Dimension (ANSI)
100
AcDbDimension
  2
*D16
 10
6.539891977631453
 20
10.21060085905661
 30
0.0
 11
6.950413101221902
 21
10.69256692497657
 31
0.0
 70
   160
  1
<>
 42
0.2499999999999982
  3
Default (ANSI)
100
AcDbAlignedDimension
 13
6.002233144648154
 23
9.960600859056619
 33
0.0
 14
6.80746983490161
 24
10.21060085905661
 34
0.0
 50
90.0
100
AcDbRotatedDimension
1001
ACAD
1000
DSTYLE
1002
{
1070
   289
1070
     1
1070
   271
1070
     3
1070
    76
1070
     1
1070
   272
1070
     3
1070
    48
1040
0.0
1070
    47
1040
0.0
1002
}
  0
LINE
  5
D98
330
6C
100
AcDbEntity
  8
Center Mark (ANSI)
  6
CHAIN
 48
0.196555957198143
100
AcDbLine
 10
6.252233144648154
 20
9.960600859056619
 30
0.0
 11
5.809733144648155
 21
9.960600859056619
 31
0.0
  0
LINE
  5
D99
330
6C
100
AcDbEntity
  8
Center Mark (ANSI)
  6
CHAIN
 48
0.196555957198143
100
AcDbLine
 10
6.030983144648154
 20
10.18185085905662
 30
0.0
 11
6.030983144648154
 21
9.739350859056619
 31
0.0
  0
LINE
  5
D9A
330
6C
100
AcDbEntity
  8
Center Mark (ANSI)
  6
CHAIN
 48
0.196555957198143
100
AcDbLine
 10
5.252233144648154
 20
9.460600859056617
 30
0.0
 11
4.809733144648155
 21
9.460600859056617
 31
0.0
  0
LINE
  5
D9B
330
6C
100
AcDbEntity
  8
Center Mark (ANSI)
  6
CHAIN
 48
0.196555957198143
100
AcDbLine
 10
5.030983144648154
 20
9.681850859056616
 30
0.0
 11
5.030983144648154
 21
9.239350859056616
 31
0.0
  0
DIMENSION
  5
D9C
330
6C
100
AcDbEntity
  8
Dimension (ANSI)
100
AcDbDimension
  2
*D17
 10
5.978045809916964
 20
9.248318740645567
 30
0.0
 11
6.991385767638304
 21
8.902099441789143
 31
0.0
 70
   163
  1
<>{\PTYP.}
 71
     5
 42
0.13
  3
Default (ANSI)
100
AcDbDiametricDimension
 15
6.083920479379345
 25
9.172882977467672
 35
0.0
 40
0.0
1001
ACAD
1000
DSTYLE
1002
{
1070
   144
1040
1.0
1070
   271
1070
     3
1070
   272
1070
     2
1070
    48
1040
0.0
1070
    47
1040
0.0
1002
}
1001
ACAD_DSTYLE_DIMRADIAL_EXTENSION
1070
   387
1070
     1
1070
   388
1040
0.0
1070
   390
1040
0.0
  0
MTEXT
  5
E55
102
{ACAD_XDICTIONARY
360
E61
102
}
330
6C
100
AcDbEntity
  8
Symbol (ANSI)
100
AcDbMText
 10
11.77414761595527
 20
1.173490239041452
 30
0.0
 40
0.1250000039892872
 41
9.229233884435942
 71
     4
 72
     1
  3
{\fRomanS|b0|i0|c0|p2;\H2x;PART#: N1P0608PP\P(DATA SUBJECT TO CHANGE WITHOUT NOTICE)\H1.6157x; \H0.61894x;\P \H1.352x; \H0.73963x;\P\H0.6x;THIS DRAWING IS PROPERTY OF HUBBELL INC. WIEGMANN\H1.5633x; \H0.63966x;\PALL INFORMATION IS PROPRIETARY AND NOT
  1
 TO BE DUPLICATED\H1.234x; \H0.81039x;\P\H1.2571x; }
  7
Note Text (ANSI)
 73
     1
 44
0.8026435375213623
  0
ENDSEC
  0
SECTION
  2
OBJECTS
  0
DICTIONARY
  5
C
330
0
100
AcDbDictionary
281
     1
  3
ACAD_CIP_PREVIOUS_PRODUCT_INFO
350
E57
  3
ACAD_COLOR
350
63
  3
ACAD_GROUP
350
D
  3
ACAD_LAYOUT
350
62
  3
ACAD_MATERIAL
350
10
  3
ACAD_MLEADERSTYLE
350
66
  3
ACAD_MLINESTYLE
350
5F
  3
ACAD_PLOTSETTINGS
350
61
  3
ACAD_PLOTSTYLENAME
350
E
  3
ACAD_SCALELIST
350
42
  3
ACAD_TABLESTYLE
350
64
  3
ACAD_VISUALSTYLE
350
29
  3
ACDB_RECOMPOSE_DATA
350
E63
  3
AcDbVariableDictionary
350
76
  0
DICTIONARY
  5
E99
330
5DD
100
AcDbDictionary
280
     1
281
     1
  3
ACAD_MTEXT_2008_RT
360
E9A
  0
DICTIONARY
  5
E9B
330
E4F
100
AcDbDictionary
280
     1
281
     1
  3
ACAD_MTEXT_2008_RT
360
E9C
  0
DICTIONARY
  5
E61
330
E55
100
AcDbDictionary
280
     1
281
     1
  3
ACAD_MTEXT_2008_RT
360
E62
  0
XRECORD
  5
E57
102
{ACAD_REACTORS
330
C
102
}
330
C
100
AcDbXrecord
280
     1
300
INVPROSA
300
2012
300
INVPROSA_F_S
  0
DICTIONARY
  5
63
102
{ACAD_REACTORS
330
C
102
}
330
C
100
AcDbDictionary
281
     1
  0
DICTIONARY
  5
D
102
{ACAD_REACTORS
330
C
102
}
330
C
100
AcDbDictionary
281
     1
  0
DICTIONARY
  5
62
102
{ACAD_REACTORS
330
C
102
}
330
C
100
AcDbDictionary
281
     1
  3
Layout1
350
6B
  3
Layout2
350
73
  3
Model
350
6F
  0
DICTIONARY
  5
10
102
{ACAD_REACTORS
330
C
102
}
330
C
100
AcDbDictionary
281
     1
  3
ByBlock
350
19
  3
ByLayer
350
11
  3
Global
350
21
  0
DICTIONARY
  5
66
102
{ACAD_REACTORS
330
C
102
}
330
C
100
AcDbDictionary
281
     1
  3
Standard
350
67
  0
DICTIONARY
  5
5F
102
{ACAD_REACTORS
330
C
102
}
330
C
100
AcDbDictionary
281
     1
  3
Standard
350
60
  0
DICTIONARY
  5
61
102
{ACAD_REACTORS
330
C
102
}
330
C
100
AcDbDictionary
281
     1
  0
ACDBDICTIONARYWDFLT
  5
E
102
{ACAD_REACTORS
330
C
102
}
330
C
100
AcDbDictionary
281
     1
  3
Normal
350
F
100
AcDbDictionaryWithDefault
340
F
  0
DICTIONARY
  5
42
102
{ACAD_REACTORS
330
C
102
}
330
C
100
AcDbDictionary
281
     1
  3
A0
350
43
  3
A1
350
44
  3
A2
350
45
  3
A3
350
46
  3
A4
350
47
  3
A5
350
48
  3
A6
350
49
  3
A7
350
4A
  3
A8
350
4B
  3
A9
350
4C
  3
B0
350
4D
  3
B1
350
4E
  3
B2
350
4F
  3
B3
350
50
  3
B4
350
51
  3
B5
350
52
  3
B6
350
53
  0
DICTIONARY
  5
64
102
{ACAD_REACTORS
330
C
102
}
330
C
100
AcDbDictionary
281
     1
  3
Standard
350
65
  0
DICTIONARY
  5
29
102
{ACAD_REACTORS
330
C
102
}
330
C
100
AcDbDictionary
281
     1
  3
2dWireframe
350
2F
  3
Basic
350
2E
  3
Brighten
350
35
  3
ColorChange
350
39
  3
Conceptual
350
32
  3
Dim
350
34
  3
EdgeColorOff
350
41
  3
Facepattern
350
38
  3
Flat
350
2A
  3
FlatWithEdges
350
2B
  3
Gouraud
350
2C
  3
GouraudWithEdges
350
2D
  3
Hidden
350
31
  3
JitterOff
350
3F
  3
Linepattern
350
37
  3
OverhangOff
350
40
  3
Realistic
350
33
  3
Shaded
350
3E
  3
Shaded with edges
350
3D
  3
Shades of Gray
350
3A
  3
Sketchy
350
3B
  3
Thicken
350
36
  3
Wireframe
350
30
  3
X-Ray
350
3C
  0
XRECORD
  5
E63
102
{ACAD_REACTORS
330
C
102
}
330
C
100
AcDbXrecord
280
     1
 90
        1
330
65
330
E55
  0
DICTIONARY
  5
76
102
{ACAD_REACTORS
330
C
102
}
330
C
100
AcDbDictionary
281
     1
  3
CANNOSCALE
350
79
  3
CMLEADERSTYLE
350
78
  3
CTABLESTYLE
350
77
  3
LAYEREVAL
350
E5A
  3
LAYERNOTIFY
350
E5B
  3
LIGHTINGUNITS
350
E59
  3
MSLTSCALE
350
E58
  3
XCLIPFRAME
350
E5C
  0
XRECORD
  5
E9A
102
{ACAD_REACTORS
330
E99
102
}
330
E99
100
AcDbXrecord
280
     1
 40
36037.0
  1
\A1;\U+22050.250{\PGROUND HOLE}
  0
XRECORD
  5
E9C
102
{ACAD_REACTORS
330
E9B
102
}
330
E9B
100
AcDbXrecord
280
     1
 40
21816.0
  1
\A1;\U+22050.130{\PTYP.}
  0
XRECORD
  5
E62
102
{ACAD_REACTORS
330
E61
102
}
330
E61
100
AcDbXrecord
280
     1
 40
3089273.0
  1
\pxsm0.94;{\fRomanS|b0|i0;\H0.2500;PART#: N1P0608PP\P(DATA SUBJECT TO CHANGE WITHOUT NOTICE)\P \P\fRomanS|b0|i0;\H0.1500;THIS DRAWING IS PROPERTY OF HUBBELL INC. WIEGMANN\PALL INFORMATION IS PROPRIETARY AND NOT TO BE DUPLICATED\P}
  0
LAYOUT
  5
6B
102
{ACAD_REACTORS
330
62
102
}
330
62
100
AcDbPlotSettings
  1

  2

  4

  6

 40
0.0
 41
0.0
 42
0.0
 43
0.0
 44
0.0
 45
0.0
 46
0.0
 47
0.0
 48
0.0
 49
0.0
140
0.0
141
0.0
142
1.0
143
1.0
 70
   688
 72
     0
 73
     0
 74
     5
  7

 75
    16
147
1.0
 76
     0
 77
     2
 78
   300
148
0.0
149
0.0
100
AcDbLayout
  1
Layout1
 70
     1
 71
     1
 10
0.0
 20
0.0
 11
12.0
 21
9.0
 12
0.0
 22
0.0
 32
0.0
 14
0.0
 24
0.0
 34
0.0
 15
0.0
 25
0.0
 35
0.0
146
0.0
 13
0.0
 23
0.0
 33
0.0
 16
1.0
 26
0.0
 36
0.0
 17
0.0
 27
1.0
 37
0.0
 76
     0
330
68
  0
LAYOUT
  5
73
102
{ACAD_REACTORS
330
62
102
}
330
62
100
AcDbPlotSettings
  1

  2

  4

  6

 40
0.0
 41
0.0
 42
0.0
 43
0.0
 44
0.0
 45
0.0
 46
0.0
 47
0.0
 48
0.0
 49
0.0
140
0.0
141
0.0
142
1.0
143
1.0
 70
   688
 72
     0
 73
     0
 74
     5
  7

 75
    16
147
1.0
 76
     0
 77
     2
 78
   300
148
0.0
149
0.0
100
AcDbLayout
  1
Layout2
 70
     1
 71
     2
 10
0.0
 20
0.0
 11
12.0
 21
9.0
 12
0.0
 22
0.0
 32
0.0
 14
0.0
 24
0.0
 34
0.0
 15
0.0
 25
0.0
 35
0.0
146
0.0
 13
0.0
 23
0.0
 33
0.0
 16
1.0
 26
0.0
 36
0.0
 17
0.0
 27
1.0
 37
0.0
 76
     0
330
70
  0
LAYOUT
  5
6F
102
{ACAD_REACTORS
330
62
102
}
330
62
100
AcDbPlotSettings
  1

  2

  4

  6

 40
0.0
 41
0.0
 42
0.0
 43
0.0
 44
0.0
 45
0.0
 46
0.0
 47
0.0
 48
0.0
 49
0.0
140
0.0
141
0.0
142
1.0
143
1.0
 70
  1712
 72
     0
 73
     0
 74
     0
  7

 75
     0
147
1.0
 76
     0
 77
     2
 78
   300
148
0.0
149
0.0
100
AcDbLayout
  1
Model
 70
     1
 71
     0
 10
0.0
 20
0.0
 11
12.0
 21
9.0
 12
0.0
 22
0.0
 32
0.0
 14
0.0
 24
0.0
 34
0.0
 15
0.0
 25
0.0
 35
0.0
146
0.0
 13
0.0
 23
0.0
 33
0.0
 16
1.0
 26
0.0
 36
0.0
 17
0.0
 27
1.0
 37
0.0
 76
     0
330
6C
  0
MATERIAL
  5
19
102
{ACAD_XDICTIONARY
360
1A
102
}
102
{ACAD_REACTORS
330
10
102
}
330
10
100
AcDbMaterial
  1
ByBlock
 72
     0
 43
0.0208333333333333
 43
0.0
 43
0.0
 43
0.0
 43
0.0
 43
0.0208333333333333
 43
0.0
 43
0.0
 43
0.0
 43
0.0
 43
1.0
 43
0.0
 43
0.0
 43
0.0
 43
0.0
 43
1.0
 77
     0
 47
0.0208333333333333
 47
0.0
 47
0.0
 47
0.0
 47
0.0
 47
0.0208333333333333
 47
0.0
 47
0.0
 47
0.0
 47
0.0
 47
1.0
 47
0.0
 47
0.0
 47
0.0
 47
0.0
 47
1.0
171
     0
 49
0.0208333333333333
 49
0.0
 49
0.0
 49
0.0
 49
0.0
 49
0.0208333333333333
 49
0.0
 49
0.0
 49
0.0
 49
0.0
 49
1.0
 49
0.0
 49
0.0
 49
0.0
 49
0.0
 49
1.0
175
     0
142
0.0208333333333333
142
0.0
142
0.0
142
0.0
142
0.0
142
0.0208333333333333
142
0.0
142
0.0
142
0.0
142
0.0
142
1.0
142
0.0
142
0.0
142
0.0
142
0.0
142
1.0
179
     0
144
0.0208333333333333
144
0.0
144
0.0
144
0.0
144
0.0
144
0.0208333333333333
144
0.0
144
0.0
144
0.0
144
0.0
144
1.0
144
0.0
144
0.0
144
0.0
144
0.0
144
1.0
147
0.0208333333333333
147
0.0
147
0.0
147
0.0
147
0.0
147
0.0208333333333333
147
0.0
147
0.0
147
0.0
147
0.0
147
1.0
147
0.0
147
0.0
147
0.0
147
0.0
147
1.0
  0
MATERIAL
  5
11
102
{ACAD_XDICTIONARY
360
12
102
}
102
{ACAD_REACTORS
330
10
102
}
330
10
100
AcDbMaterial
  1
ByLayer
 72
     0
 43
0.0208333333333333
 43
0.0
 43
0.0
 43
0.0
 43
0.0
 43
0.0208333333333333
 43
0.0
 43
0.0
 43
0.0
 43
0.0
 43
1.0
 43
0.0
 43
0.0
 43
0.0
 43
0.0
 43
1.0
 77
     0
 47
0.0208333333333333
 47
0.0
 47
0.0
 47
0.0
 47
0.0
 47
0.0208333333333333
 47
0.0
 47
0.0
 47
0.0
 47
0.0
 47
1.0
 47
0.0
 47
0.0
 47
0.0
 47
0.0
 47
1.0
171
     0
 49
0.0208333333333333
 49
0.0
 49
0.0
 49
0.0
 49
0.0
 49
0.0208333333333333
 49
0.0
 49
0.0
 49
0.0
 49
0.0
 49
1.0
 49
0.0
 49
0.0
 49
0.0
 49
0.0
 49
1.0
175
     0
142
0.0208333333333333
142
0.0
142
0.0
142
0.0
142
0.0
142
0.0208333333333333
142
0.0
142
0.0
142
0.0
142
0.0
142
1.0
142
0.0
142
0.0
142
0.0
142
0.0
142
1.0
179
     0
144
0.0208333333333333
144
0.0
144
0.0
144
0.0
144
0.0
144
0.0208333333333333
144
0.0
144
0.0
144
0.0
144
0.0
144
1.0
144
0.0
144
0.0
144
0.0
144
0.0
144
1.0
147
0.0208333333333333
147
0.0
147
0.0
147
0.0
147
0.0
147
0.0208333333333333
147
0.0
147
0.0
147
0.0
147
0.0
147
1.0
147
0.0
147
0.0
147
0.0
147
0.0
147
1.0
  0
MATERIAL
  5
21
102
{ACAD_XDICTIONARY
360
22
102
}
102
{ACAD_REACTORS
330
10
102
}
330
10
100
AcDbMaterial
  1
Global
 72
     0
 43
0.0208333333333333
 43
0.0
 43
0.0
 43
0.0
 43
0.0
 43
0.0208333333333333
 43
0.0
 43
0.0
 43
0.0
 43
0.0
 43
1.0
 43
0.0
 43
0.0
 43
0.0
 43
0.0
 43
1.0
 77
     0
 47
0.0208333333333333
 47
0.0
 47
0.0
 47
0.0
 47
0.0
 47
0.0208333333333333
 47
0.0
 47
0.0
 47
0.0
 47
0.0
 47
1.0
 47
0.0
 47
0.0
 47
0.0
 47
0.0
 47
1.0
171
     0
 49
0.0208333333333333
 49
0.0
 49
0.0
 49
0.0
 49
0.0
 49
0.0208333333333333
 49
0.0
 49
0.0
 49
0.0
 49
0.0
 49
1.0
 49
0.0
 49
0.0
 49
0.0
 49
0.0
 49
1.0
175
     0
142
0.0208333333333333
142
0.0
142
0.0
142
0.0
142
0.0
142
0.0208333333333333
142
0.0
142
0.0
142
0.0
142
0.0
142
1.0
142
0.0
142
0.0
142
0.0
142
0.0
142
1.0
179
     0
144
0.0208333333333333
144
0.0
144
0.0
144
0.0
144
0.0
144
0.0208333333333333
144
0.0
144
0.0
144
0.0
144
0.0
144
1.0
144
0.0
144
0.0
144
0.0
144
0.0
144
1.0
147
0.0208333333333333
147
0.0
147
0.0
147
0.0
147
0.0
147
0.0208333333333333
147
0.0
147
0.0
147
0.0
147
0.0
147
1.0
147
0.0
147
0.0
147
0.0
147
0.0
147
1.0
  0
MLEADERSTYLE
  5
67
102
{ACAD_XDICTIONARY
360
E5F
102
}
102
{ACAD_REACTORS
330
66
102
}
330
66
100
AcDbMLeaderStyle
170
     2
171
     1
172
     0
 90
        2
 40
0.0
 41
0.0
173
     1
 91
-1056964608
340
5B
 92
       -2
290
     1
 42
0.09
291
     1
 43
0.36
  3
Standard
 44
0.18
300

342
55
174
     1
178
     6
175
     1
176
     0
 93
-1056964608
 45
0.18
292
     0
297
     0
 46
0.18
 94
-1056964608
 47
1.0
 49
1.0
140
1.0
293
     1
141
0.0
294
     1
177
     0
142
1.0
295
     0
296
     0
143
0.125
1001
ACAD_MLEADERVER
1070
     2
  0
MLINESTYLE
  5
60
102
{ACAD_REACTORS
330
5F
102
}
330
5F
100
AcDbMlineStyle
  2
STANDARD
 70
     0
  3

 62
   256
 51
90.0
 52
90.0
 71
     2
 49
0.5
 62
   256
  6
BYLAYER
 49
-0.5
 62
   256
  6
BYLAYER
  0
ACDBPLACEHOLDER
  5
F
102
{ACAD_REACTORS
330
E
102
}
330
E
  0
SCALE
  5
43
102
{ACAD_REACTORS
330
42
102
}
330
42
100
AcDbScale
 70
     0
300
1:1
140
1.0
141
1.0
290
     1
  0
SCALE
  5
44
102
{ACAD_REACTORS
330
42
102
}
330
42
100
AcDbScale
 70
     0
300
1/128" = 1'-0"
140
0.0078125
141
12.0
290
     0
  0
SCALE
  5
45
102
{ACAD_REACTORS
330
42
102
}
330
42
100
AcDbScale
 70
     0
300
1/64" = 1'-0"
140
0.015625
141
12.0
290
     0
  0
SCALE
  5
46
102
{ACAD_REACTORS
330
42
102
}
330
42
100
AcDbScale
 70
     0
300
1/32" = 1'-0"
140
0.03125
141
12.0
290
     0
  0
SCALE
  5
47
102
{ACAD_REACTORS
330
42
102
}
330
42
100
AcDbScale
 70
     0
300
1/16" = 1'-0"
140
0.0625
141
12.0
290
     0
  0
SCALE
  5
48
102
{ACAD_REACTORS
330
42
102
}
330
42
100
AcDbScale
 70
     0
300
3/32" = 1'-0"
140
0.09375
141
12.0
290
     0
  0
SCALE
  5
49
102
{ACAD_REACTORS
330
42
102
}
330
42
100
AcDbScale
 70
     0
300
1/8" = 1'-0"
140
0.125
141
12.0
290
     0
  0
SCALE
  5
4A
102
{ACAD_REACTORS
330
42
102
}
330
42
100
AcDbScale
 70
     0
300
3/16" = 1'-0"
140
0.1875
141
12.0
290
     0
  0
SCALE
  5
4B
102
{ACAD_REACTORS
330
42
102
}
330
42
100
AcDbScale
 70
     0
300
1/4" = 1'-0"
140
0.25
141
12.0
290
     0
  0
SCALE
  5
4C
102
{ACAD_REACTORS
330
42
102
}
330
42
100
AcDbScale
 70
     0
300
3/8" = 1'-0"
140
0.375
141
12.0
290
     0
  0
SCALE
  5
4D
102
{ACAD_REACTORS
330
42
102
}
330
42
100
AcDbScale
 70
     0
300
1/2" = 1'-0"
140
0.5
141
12.0
290
     0
  0
SCALE
  5
4E
102
{ACAD_REACTORS
330
42
102
}
330
42
100
AcDbScale
 70
     0
300
3/4" = 1'-0"
140
0.75
141
12.0
290
     0
  0
SCALE
  5
4F
102
{ACAD_REACTORS
330
42
102
}
330
42
100
AcDbScale
 70
     0
300
1" = 1'-0"
140
1.0
141
12.0
290
     0
  0
SCALE
  5
50
102
{ACAD_REACTORS
330
42
102
}
330
42
100
AcDbScale
 70
     0
300
1-1/2" = 1'-0"
140
1.5
141
12.0
290
     0
  0
SCALE
  5
51
102
{ACAD_REACTORS
330
42
102
}
330
42
100
AcDbScale
 70
     0
300
3" = 1'-0"
140
3.0
141
12.0
290
     0
  0
SCALE
  5
52
102
{ACAD_REACTORS
330
42
102
}
330
42
100
AcDbScale
 70
     0
300
6" = 1'-0"
140
6.0
141
12.0
290
     0
  0
SCALE
  5
53
102
{ACAD_REACTORS
330
42
102
}
330
42
100
AcDbScale
 70
     0
300
1'-0" = 1'-0"
140
12.0
141
12.0
290
     0
  0
TABLESTYLE
  5
65
102
{ACAD_XDICTIONARY
360
E5D
102
}
102
{ACAD_REACTORS
330
64
102
}
330
64
100
AcDbTableStyle
  3
Standard
 70
     0
 71
     0
 40
0.06
 41
0.06
280
     0
281
     0
  7
Standard
140
0.18
170
     2
 62
     0
 63
     7
283
     0
274
    -2
284
     1
 64
     0
275
    -2
285
     1
 65
     0
276
    -2
286
     1
 66
     0
277
    -2
287
     1
 67
     0
278
    -2
288
     1
 68
     0
279
    -2
289
     1
 69
     0
  7
Standard
140
0.25
170
     5
 62
     0
 63
     7
283
     0
274
    -2
284
     1
 64
     0
275
    -2
285
     1
 65
     0
276
    -2
286
     1
 66
     0
277
    -2
287
     1
 67
     0
278
    -2
288
     1
 68
     0
279
    -2
289
     1
 69
     0
  7
Standard
140
0.18
170
     5
 62
     0
 63
     7
283
     0
274
    -2
284
     1
 64
     0
275
    -2
285
     1
 65
     0
276
    -2
286
     1
 66
     0
277
    -2
287
     1
 67
     0
278
    -2
288
     1
 68
     0
279
    -2
289
     1
 69
     0
  0
VISUALSTYLE
  5
2F
102
{ACAD_XDICTIONARY
360
E71
102
}
102
{ACAD_REACTORS
330
29
102
}
330
29
100
AcDbVisualStyle
  2
2dWireframe
 70
     4
 71
     0
 72
     2
 73
     0
 90
        0
 40
-0.6
 41
-30.0
 62
     5
 63
     7
421
 16777215
 74
     1
 91
        4
 64
     7
 65
   257
 75
     1
175
     1
 42
1.0
 92
        0
 66
   257
 43
1.0
 76
     1
 77
     6
 78
     2
 67
     7
 79
     5
170
     0
171
     0
290
     0
174
     0
 93
        1
 44
0.0
173
     0
291
     0
 45
0.0
1001
ACAD
1000
AcDbSavedByObjectVersion
1070
     0
  0
VISUALSTYLE
  5
2E
102
{ACAD_XDICTIONARY
360
E6F
102
}
102
{ACAD_REACTORS
330
29
102
}
330
29
100
AcDbVisualStyle
  2
Basic
 70
     7
 71
     1
 72
     0
 73
     1
 90
        0
 40
-0.6
 41
-30.0
 62
     5
 63
     7
421
 16777215
 74
     0
 91
        4
 64
     7
 65
   257
 75
     1
175
     1
 42
1.0
 92
        8
 66
     7
 43
1.0
 76
     1
 77
     6
 78
     2
 67
     7
 79
     5
170
     0
171
     0
290
     0
174
     0
 93
        1
 44
0.0
173
     0
291
     1
 45
0.0
1001
ACAD
1000
AcDbSavedByObjectVersion
1070
     0
  0
VISUALSTYLE
  5
35
102
{ACAD_XDICTIONARY
360
E7D
102
}
102
{ACAD_REACTORS
330
29
102
}
330
29
100
AcDbVisualStyle
  2
Brighten
 70
    12
 71
     2
 72
     2
 73
     0
 90
        0
 40
-0.6
 41
-30.0
 62
     5
 63
     7
421
 16777215
 74
     1
 91
        4
 64
     7
 65
   257
 75
     1
175
     1
 42
1.0
 92
        8
 66
     7
 43
1.0
 76
     1
 77
     6
 78
     2
 67
     7
 79
     5
170
     0
171
     0
290
     0
174
     0
 93
        1
 44
50.0
173
     0
291
     1
 45
0.0
1001
ACAD
1000
AcDbSavedByObjectVersion
1070
     0
  0
VISUALSTYLE
  5
39
102
{ACAD_XDICTIONARY
360
E85
102
}
102
{ACAD_REACTORS
330
29
102
}
330
29
100
AcDbVisualStyle
  2
ColorChange
 70
    16
 71
     2
 72
     2
 73
     3
 90
        0
 40
-0.6
 41
-30.0
 62
     5
 63
     8
421
  8421504
 74
     1
 91
        4
 64
     7
 65
   257
 75
     1
175
     1
 42
1.0
 92
        8
 66
     8
424
  8421504
 43
1.0
 76
     1
 77
     6
 78
     2
 67
     7
 79
     5
170
     0
171
     0
290
     0
174
     0
 93
        1
 44
0.0
173
     0
291
     1
 45
0.0
1001
ACAD
1000
AcDbSavedByObjectVersion
1070
     0
  0
VISUALSTYLE
  5
32
102
{ACAD_XDICTIONARY
360
E77
102
}
102
{ACAD_REACTORS
330
29
102
}
330
29
100
AcDbVisualStyle
  2
Conceptual
 70
     9
 71
     3
 72
     2
 73
     0
 90
        0
 40
-0.6
 41
-30.0
 62
     5
 63
     7
421
 16777215
 74
     2
 91
        2
 64
     7
 65
   257
 75
     1
175
     1
 42
179.0
 92
        8
 66
     7
 43
1.0
 76
     1
 77
     6
 78
     2
 67
     7
 79
     3
170
     0
171
     0
290
     0
174
     0
 93
        1
 44
0.0
173
     0
291
     0
 45
0.0
1001
ACAD
1000
AcDbSavedByObjectVersion
1070
     0
  0
VISUALSTYLE
  5
34
102
{ACAD_XDICTIONARY
360
E7B
102
}
102
{ACAD_REACTORS
330
29
102
}
330
29
100
AcDbVisualStyle
  2
Dim
 70
    11
 71
     2
 72
     2
 73
     0
 90
        0
 40
-0.6
 41
-30.0
 62
     5
 63
     7
421
 16777215
 74
     1
 91
        4
 64
     7
 65
   257
 75
     1
175
     1
 42
1.0
 92
        8
 66
     7
 43
1.0
 76
     1
 77
     6
 78
     2
 67
     7
 79
     5
170
     0
171
     0
290
     0
174
     0
 93
        1
 44
-50.0
173
     0
291
     1
 45
0.0
1001
ACAD
1000
AcDbSavedByObjectVersion
1070
     0
  0
VISUALSTYLE
  5
41
102
{ACAD_XDICTIONARY
360
E95
102
}
102
{ACAD_REACTORS
330
29
102
}
330
29
100
AcDbVisualStyle
  2
EdgeColorOff
 70
    22
 71
     2
 72
     2
 73
     0
 90
        0
 40
-0.6
 41
-30.0
 62
     5
 63
     7
421
 16777215
 74
     1
 91
        4
 64
     7
 65
   257
 75
     1
175
     1
 42
1.0
 92
        8
 66
     7
 43
1.0
 76
     1
 77
     6
 78
     2
 67
     7
 79
     5
170
     0
171
     0
290
     0
174
     0
 93
        1
 44
0.0
173
     0
291
     1
 45
0.0
1001
ACAD
1000
AcDbSavedByObjectVersion
1070
     0
  0
VISUALSTYLE
  5
38
102
{ACAD_XDICTIONARY
360
E83
102
}
102
{ACAD_REACTORS
330
29
102
}
330
29
100
AcDbVisualStyle
  2
Facepattern
 70
    15
 71
     2
 72
     2
 73
     0
 90
        0
 40
-0.6
 41
-30.0
 62
     5
 63
     7
421
 16777215
 74
     1
 91
        4
 64
     7
 65
   257
 75
     1
175
     1
 42
1.0
 92
        8
 66
     7
 43
1.0
 76
     1
 77
     6
 78
     2
 67
     7
 79
     5
170
     0
171
     0
290
     0
174
     0
 93
        1
 44
0.0
173
     0
291
     1
 45
0.0
1001
ACAD
1000
AcDbSavedByObjectVersion
1070
     0
  0
VISUALSTYLE
  5
2A
102
{ACAD_XDICTIONARY
360
E67
102
}
102
{ACAD_REACTORS
330
29
102
}
330
29
100
AcDbVisualStyle
  2
Flat
 70
     0
 71
     2
 72
     1
 73
     1
 90
        2
 40
-0.6
 41
30.0
 62
     5
 63
     7
421
 16777215
 74
     0
 91
        0
 64
     7
 65
   257
 75
     1
175
     1
 42
1.0
 92
        8
 66
     7
 43
1.0
 76
     1
 77
     6
 78
     2
 67
     7
 79
     5
170
     0
171
     0
290
     0
174
     0
 93
       13
 44
0.0
173
     0
291
     1
 45
0.0
1001
ACAD
1000
AcDbSavedByObjectVersion
1070
     0
  0
VISUALSTYLE
  5
2B
102
{ACAD_XDICTIONARY
360
E69
102
}
102
{ACAD_REACTORS
330
29
102
}
330
29
100
AcDbVisualStyle
  2
FlatWithEdges
 70
     1
 71
     2
 72
     1
 73
     1
 90
        2
 40
-0.6
 41
30.0
 62
     5
 63
     7
421
 16777215
 74
     1
 91
        0
 64
     7
 65
   257
 75
     1
175
     1
 42
1.0
 92
        0
 66
   257
 43
1.0
 76
     1
 77
     6
 78
     2
 67
     7
 79
     5
170
     0
171
     0
290
     0
174
     0
 93
       13
 44
0.0
173
     0
291
     1
 45
0.0
1001
ACAD
1000
AcDbSavedByObjectVersion
1070
     0
  0
VISUALSTYLE
  5
2C
102
{ACAD_XDICTIONARY
360
E6B
102
}
102
{ACAD_REACTORS
330
29
102
}
330
29
100
AcDbVisualStyle
  2
Gouraud
 70
     2
 71
     2
 72
     2
 73
     1
 90
        2
 40
-0.6
 41
30.0
 62
     5
 63
     7
421
 16777215
 74
     0
 91
        0
 64
     7
 65
   257
 75
     1
175
     1
 42
1.0
 92
        0
 66
     7
 43
1.0
 76
     1
 77
     6
 78
     2
 67
     7
 79
     5
170
     0
171
     0
290
     0
174
     0
 93
       13
 44
0.0
173
     0
291
     1
 45
0.0
1001
ACAD
1000
AcDbSavedByObjectVersion
1070
     0
  0
VISUALSTYLE
  5
2D
102
{ACAD_XDICTIONARY
360
E6D
102
}
102
{ACAD_REACTORS
330
29
102
}
330
29
100
AcDbVisualStyle
  2
GouraudWithEdges
 70
     3
 71
     2
 72
     2
 73
     1
 90
        2
 40
-0.6
 41
30.0
 62
     5
 63
     7
421
 16777215
 74
     1
 91
        0
 64
     7
 65
   257
 75
     1
175
     1
 42
1.0
 92
        0
 66
   257
 43
1.0
 76
     1
 77
     6
 78
     2
 67
     7
 79
     5
170
     0
171
     0
290
     0
174
     0
 93
       13
 44
0.0
173
     0
291
     1
 45
0.0
1001
ACAD
1000
AcDbSavedByObjectVersion
1070
     0
  0
VISUALSTYLE
  5
31
102
{ACAD_XDICTIONARY
360
E75
102
}
102
{ACAD_REACTORS
330
29
102
}
330
29
100
AcDbVisualStyle
  2
Hidden
 70
     6
 71
     1
 72
     2
 73
     2
 90
        0
 40
-0.6
 41
-30.0
 62
     5
 63
     7
421
 16777215
 74
     2
 91
        2
 64
     7
 65
   257
 75
     2
175
     1
 42
40.0
 92
        0
 66
   257
 43
1.0
 76
     1
 77
     6
 78
     2
 67
     7
 79
     3
170
     0
171
     0
290
     0
174
     0
 93
        1
 44
0.0
173
     0
291
     0
 45
0.0
1001
ACAD
1000
AcDbSavedByObjectVersion
1070
     0
  0
VISUALSTYLE
  5
3F
102
{ACAD_XDICTIONARY
360
E91
102
}
102
{ACAD_REACTORS
330
29
102
}
330
29
100
AcDbVisualStyle
  2
JitterOff
 70
    20
 71
     2
 72
     2
 73
     0
 90
        0
 40
-0.6
 41
-30.0
 62
     5
 63
     7
421
 16777215
 74
     1
 91
        4
 64
     7
 65
   257
 75
     1
175
     1
 42
1.0
 92
       10
 66
     7
 43
1.0
 76
     1
 77
     6
 78
     2
 67
     7
 79
     5
170
     0
171
     0
290
     0
174
     0
 93
        1
 44
0.0
173
     0
291
     1
 45
0.0
1001
ACAD
1000
AcDbSavedByObjectVersion
1070
     0
  0
VISUALSTYLE
  5
37
102
{ACAD_XDICTIONARY
360
E81
102
}
102
{ACAD_REACTORS
330
29
102
}
330
29
100
AcDbVisualStyle
  2
Linepattern
 70
    14
 71
     2
 72
     2
 73
     0
 90
        0
 40
-0.6
 41
-30.0
 62
     5
 63
     7
421
 16777215
 74
     1
 91
        4
 64
     7
 65
   257
 75
     7
175
     7
 42
1.0
 92
        8
 66
     7
 43
1.0
 76
     1
 77
     6
 78
     2
 67
     7
 79
     5
170
     0
171
     0
290
     0
174
     0
 93
        1
 44
0.0
173
     0
291
     1
 45
0.0
1001
ACAD
1000
AcDbSavedByObjectVersion
1070
     0
  0
VISUALSTYLE
  5
40
102
{ACAD_XDICTIONARY
360
E93
102
}
102
{ACAD_REACTORS
330
29
102
}
330
29
100
AcDbVisualStyle
  2
OverhangOff
 70
    21
 71
     2
 72
     2
 73
     0
 90
        0
 40
-0.6
 41
-30.0
 62
     5
 63
     7
421
 16777215
 74
     1
 91
        4
 64
     7
 65
   257
 75
     1
175
     1
 42
1.0
 92
        9
 66
     7
 43
1.0
 76
     1
 77
     6
 78
     2
 67
     7
 79
     5
170
     0
171
     0
290
     0
174
     0
 93
        1
 44
0.0
173
     0
291
     1
 45
0.0
1001
ACAD
1000
AcDbSavedByObjectVersion
1070
     0
  0
VISUALSTYLE
  5
33
102
{ACAD_XDICTIONARY
360
E79
102
}
102
{ACAD_REACTORS
330
29
102
}
330
29
100
AcDbVisualStyle
  2
Realistic
 70
     8
 71
     2
 72
     3
 73
     0
 90
        2
 40
-0.6
 41
30.0
 62
     5
 63
     7
421
 16777215
 74
     0
 91
        0
 64
     7
 65
   257
 75
     1
175
     1
 42
1.0
 92
        8
 66
   257
 43
1.0
 76
     1
 77
     6
 78
     2
 67
     7
 79
     3
170
     0
171
     0
290
     0
174
     0
 93
       13
 44
0.0
173
     0
291
     0
 45
0.0
1001
ACAD
1000
AcDbSavedByObjectVersion
1070
     0
  0
VISUALSTYLE
  5
3E
102
{ACAD_XDICTIONARY
360
E8F
102
}
102
{ACAD_REACTORS
330
29
102
}
330
29
100
AcDbVisualStyle
  2
Shaded
 70
    27
 71
     2
 72
     2
 73
     1
 90
        2
 40
-0.6
 41
30.0
 62
     5
 63
     7
421
 16777215
 74
     0
 91
        4
 64
     7
 65
   257
 75
     1
175
     1
 42
1.0
 92
        8
 66
   257
 43
1.0
 76
     1
 77
     6
 78
     2
 67
     8
425
  7895160
 79
     3
170
     0
171
     0
290
     0
174
     0
 93
        5
 44
0.0
173
     0
291
     0
 45
0.0
1001
ACAD
1000
AcDbSavedByObjectVersion
1070
     0
  0
VISUALSTYLE
  5
3D
102
{ACAD_XDICTIONARY
360
E8D
102
}
102
{ACAD_REACTORS
330
29
102
}
330
29
100
AcDbVisualStyle
  2
Shaded with edges
 70
    26
 71
     2
 72
     2
 73
     1
 90
        2
 40
-0.6
 41
30.0
 62
     5
 63
     7
421
 16777215
 74
     1
 91
       10
 64
     7
 65
   257
 75
     2
175
     1
 42
1.0
 92
        8
 66
   257
 43
1.0
 76
     1
 77
     6
 78
     2
 67
     7
 79
     3
170
     0
171
     0
290
     0
174
     0
 93
        5
 44
0.0
173
     0
291
     0
 45
0.0
1001
ACAD
1000
AcDbSavedByObjectVersion
1070
     0
  0
VISUALSTYLE
  5
3A
102
{ACAD_XDICTIONARY
360
E87
102
}
102
{ACAD_REACTORS
330
29
102
}
330
29
100
AcDbVisualStyle
  2
Shades of Gray
 70
    23
 71
     2
 72
     2
 73
     3
 90
        0
 40
-0.6
 41
-30.0
 62
     5
 63
     7
421
 16777215
 74
     2
 91
        2
 64
     7
 65
     7
 75
     1
175
     1
 42
40.0
 92
        8
 66
     7
 43
1.0
 76
     1
 77
     6
 78
     2
 67
     7
 79
     3
170
     0
171
     0
290
     0
174
     0
 93
        1
 44
0.0
173
     0
291
     0
 45
0.0
1001
ACAD
1000
AcDbSavedByObjectVersion
1070
     0
  0
VISUALSTYLE
  5
3B
102
{ACAD_XDICTIONARY
360
E89
102
}
102
{ACAD_REACTORS
330
29
102
}
330
29
100
AcDbVisualStyle
  2
Sketchy
 70
    24
 71
     1
 72
     2
 73
     2
 90
        0
 40
-0.6
 41
-30.0
 62
     5
 63
     7
421
 16777215
 74
     2
 91
        2
 64
     7
 65
     7
 75
     1
175
     1
 42
40.0
 92
       11
 66
     7
 43
1.0
 76
     1
 77
     6
 78
     2
 67
     7
 79
     6
170
     0
171
     0
290
     0
174
     0
 93
        1
 44
0.0
173
     0
291
     0
 45
0.0
1001
ACAD
1000
AcDbSavedByObjectVersion
1070
     0
  0
VISUALSTYLE
  5
36
102
{ACAD_XDICTIONARY
360
E7F
102
}
102
{ACAD_REACTORS
330
29
102
}
330
29
100
AcDbVisualStyle
  2
Thicken
 70
    13
 71
     2
 72
     2
 73
     0
 90
        0
 40
-0.6
 41
-30.0
 62
     5
 63
     7
421
 16777215
 74
     1
 91
        4
 64
     7
 65
   257
 75
     1
175
     1
 42
1.0
 92
       12
 66
     7
 43
1.0
 76
     1
 77
     6
 78
     2
 67
     7
 79
     5
170
     0
171
     0
290
     0
174
     0
 93
        1
 44
0.0
173
     0
291
     1
 45
0.0
1001
ACAD
1000
AcDbSavedByObjectVersion
1070
     0
  0
VISUALSTYLE
  5
30
102
{ACAD_XDICTIONARY
360
E73
102
}
102
{ACAD_REACTORS
330
29
102
}
330
29
100
AcDbVisualStyle
  2
Wireframe
 70
     5
 71
     0
 72
     2
 73
     0
 90
        0
 40
-0.6
 41
-30.0
 62
     5
 63
     7
421
 16777215
 74
     1
 91
        4
 64
     7
 65
   257
 75
     1
175
     1
 42
1.0
 92
        0
 66
   257
 43
1.0
 76
     1
 77
     6
 78
     2
 67
     7
 79
     3
170
     0
171
     0
290
     0
174
     0
 93
        1
 44
0.0
173
     0
291
     0
 45
0.0
1001
ACAD
1000
AcDbSavedByObjectVersion
1070
     0
  0
VISUALSTYLE
  5
3C
102
{ACAD_XDICTIONARY
360
E8B
102
}
102
{ACAD_REACTORS
330
29
102
}
330
29
100
AcDbVisualStyle
  2
X-Ray
 70
    25
 71
     2
 72
     2
 73
     1
 90
        1
 40
0.5
 41
-30.0
 62
     5
 63
     7
421
 16777215
 74
     1
 91
        0
 64
     7
 65
   257
 75
     1
175
     1
 42
1.0
 92
        8
 66
     7
 43
1.0
 76
     1
 77
     6
 78
     2
 67
     7
 79
     3
170
     0
171
     0
290
     0
174
     0
 93
       13
 44
0.0
173
     0
291
     0
 45
0.0
1001
ACAD
1000
AcDbSavedByObjectVersion
1070
     0
  0
DICTIONARYVAR
  5
79
102
{ACAD_REACTORS
330
76
102
}
330
76
100
DictionaryVariables
280
     0
  1
1:1
  0
DICTIONARYVAR
  5
78
102
{ACAD_REACTORS
330
76
102
}
330
76
100
DictionaryVariables
280
     0
  1
STANDARD
  0
DICTIONARYVAR
  5
77
102
{ACAD_REACTORS
330
76
102
}
330
76
100
DictionaryVariables
280
     0
  1
STANDARD
  0
DICTIONARYVAR
  5
E5A
102
{ACAD_REACTORS
330
76
102
}
330
76
100
DictionaryVariables
280
     0
  1
0
  0
DICTIONARYVAR
  5
E5B
102
{ACAD_REACTORS
330
76
102
}
330
76
100
DictionaryVariables
280
     0
  1
0
  0
DICTIONARYVAR
  5
E59
102
{ACAD_REACTORS
330
76
102
}
330
76
100
DictionaryVariables
280
     0
  1
2
  0
DICTIONARYVAR
  5
E58
102
{ACAD_REACTORS
330
76
102
}
330
76
100
DictionaryVariables
280
     0
  1
1
  0
DICTIONARYVAR
  5
E5C
102
{ACAD_REACTORS
330
76
102
}
330
76
100
DictionaryVariables
280
     0
  1
2
  0
DICTIONARY
  5
1A
330
19
100
AcDbDictionary
280
     1
281
     1
  3
ACAD_XREC_ROUNDTRIP
360
E65
  3
BUMPTILE
360
1C
  3
DIFFUSETILE
360
1B
  3
OPACITYTILE
360
1F
  3
REFLECTIONTILE
360
1E
  3
REFRACTIONTILE
360
20
  3
SPECULARTILE
360
1D
  0
DICTIONARY
  5
12
330
11
100
AcDbDictionary
280
     1
281
     1
  3
ACAD_XREC_ROUNDTRIP
360
E64
  3
BUMPTILE
360
14
  3
DIFFUSETILE
360
13
  3
FBXASSET
360
109
  3
OPACITYTILE
360
17
  3
REFLECTIONTILE
360
16
  3
REFRACTIONTILE
360
18
  3
SPECULARTILE
360
15
  0
DICTIONARY
  5
22
330
21
100
AcDbDictionary
280
     1
281
     1
  3
ACAD_XREC_ROUNDTRIP
360
E66
  3
BUMPTILE
360
24
  3
DIFFUSETILE
360
23
  3
FBXASSET
360
BA
  3
OPACITYTILE
360
27
  3
REFLECTIONTILE
360
26
  3
REFRACTIONTILE
360
28
  3
SPECULARTILE
360
25
  0
DICTIONARY
  5
E5F
330
67
100
AcDbDictionary
280
     1
281
     1
  3
ACAD_XREC_ROUNDTRIP
360
E60
  0
DICTIONARY
  5
E5D
330
65
100
AcDbDictionary
280
     1
281
     1
  3
ACAD_ROUNDTRIP_2008_TABLESTYLE_CELLSTYLEMAP
360
E5E
  3
ACAD_XREC_ROUNDTRIP
360
E97
  0
DICTIONARY
  5
E71
330
2F
100
AcDbDictionary
280
     1
281
     1
  3
ACAD_XREC_ROUNDTRIP
360
E72
  0
DICTIONARY
  5
E6F
330
2E
100
AcDbDictionary
280
     1
281
     1
  3
ACAD_XREC_ROUNDTRIP
360
E70
  0
DICTIONARY
  5
E7D
330
35
100
AcDbDictionary
280
     1
281
     1
  3
ACAD_XREC_ROUNDTRIP
360
E7E
  0
DICTIONARY
  5
E85
330
39
100
AcDbDictionary
280
     1
281
     1
  3
ACAD_XREC_ROUNDTRIP
360
E86
  0
DICTIONARY
  5
E77
330
32
100
AcDbDictionary
280
     1
281
     1
  3
ACAD_XREC_ROUNDTRIP
360
E78
  0
DICTIONARY
  5
E7B
330
34
100
AcDbDictionary
280
     1
281
     1
  3
ACAD_XREC_ROUNDTRIP
360
E7C
  0
DICTIONARY
  5
E95
330
41
100
AcDbDictionary
280
     1
281
     1
  3
ACAD_XREC_ROUNDTRIP
360
E96
  0
DICTIONARY
  5
E83
330
38
100
AcDbDictionary
280
     1
281
     1
  3
ACAD_XREC_ROUNDTRIP
360
E84
  0
DICTIONARY
  5
E67
330
2A
100
AcDbDictionary
280
     1
281
     1
  3
ACAD_XREC_ROUNDTRIP
360
E68
  0
DICTIONARY
  5
E69
330
2B
100
AcDbDictionary
280
     1
281
     1
  3
ACAD_XREC_ROUNDTRIP
360
E6A
  0
DICTIONARY
  5
E6B
330
2C
100
AcDbDictionary
280
     1
281
     1
  3
ACAD_XREC_ROUNDTRIP
360
E6C
  0
DICTIONARY
  5
E6D
330
2D
100
AcDbDictionary
280
     1
281
     1
  3
ACAD_XREC_ROUNDTRIP
360
E6E
  0
DICTIONARY
  5
E75
330
31
100
AcDbDictionary
280
     1
281
     1
  3
ACAD_XREC_ROUNDTRIP
360
E76
  0
DICTIONARY
  5
E91
330
3F
100
AcDbDictionary
280
     1
281
     1
  3
ACAD_XREC_ROUNDTRIP
360
E92
  0
DICTIONARY
  5
E81
330
37
100
AcDbDictionary
280
     1
281
     1
  3
ACAD_XREC_ROUNDTRIP
360
E82
  0
DICTIONARY
  5
E93
330
40
100
AcDbDictionary
280
     1
281
     1
  3
ACAD_XREC_ROUNDTRIP
360
E94
  0
DICTIONARY
  5
E79
330
33
100
AcDbDictionary
280
     1
281
     1
  3
ACAD_XREC_ROUNDTRIP
360
E7A
  0
DICTIONARY
  5
E8F
330
3E
100
AcDbDictionary
280
     1
281
     1
  3
ACAD_XREC_ROUNDTRIP
360
E90
  0
DICTIONARY
  5
E8D
330
3D
100
AcDbDictionary
280
     1
281
     1
  3
ACAD_XREC_ROUNDTRIP
360
E8E
  0
DICTIONARY
  5
E87
330
3A
100
AcDbDictionary
280
     1
281
     1
  3
ACAD_XREC_ROUNDTRIP
360
E88
  0
DICTIONARY
  5
E89
330
3B
100
AcDbDictionary
280
     1
281
     1
  3
ACAD_XREC_ROUNDTRIP
360
E8A
  0
DICTIONARY
  5
E7F
330
36
100
AcDbDictionary
280
     1
281
     1
  3
ACAD_XREC_ROUNDTRIP
360
E80
  0
DICTIONARY
  5
E73
330
30
100
AcDbDictionary
280
     1
281
     1
  3
ACAD_XREC_ROUNDTRIP
360
E74
  0
DICTIONARY
  5
E8B
330
3C
100
AcDbDictionary
280
     1
281
     1
  3
ACAD_XREC_ROUNDTRIP
360
E8C
  0
XRECORD
  5
E65
102
{ACAD_REACTORS
330
1A
102
}
330
1A
100
AcDbXrecord
280
     1
102
MATERIAL
148
0.0
149
0.0
149
0.0
 93
        0
 94
      127
282
     0
 72
     0
 77
     0
171
     0
175
     0
179
     0
273
     0
  0
XRECORD
  5
1C
102
{ACAD_REACTORS
330
1A
102
}
330
1A
100
AcDbXrecord
280
     1
270
     1
271
     1
  0
XRECORD
  5
1B
102
{ACAD_REACTORS
330
1A
102
}
330
1A
100
AcDbXrecord
280
     1
270
     1
271
     1
  0
XRECORD
  5
1F
102
{ACAD_REACTORS
330
1A
102
}
330
1A
100
AcDbXrecord
280
     1
270
     1
271
     1
  0
XRECORD
  5
1E
102
{ACAD_REACTORS
330
1A
102
}
330
1A
100
AcDbXrecord
280
     1
270
     1
271
     1
  0
XRECORD
  5
20
102
{ACAD_REACTORS
330
1A
102
}
330
1A
100
AcDbXrecord
280
     1
270
     1
271
     1
  0
XRECORD
  5
1D
102
{ACAD_REACTORS
330
1A
102
}
330
1A
100
AcDbXrecord
280
     1
270
     1
271
     1
  0
XRECORD
  5
E64
102
{ACAD_REACTORS
330
12
102
}
330
12
100
AcDbXrecord
280
     1
102
MATERIAL
148
0.0
149
0.0
149
0.0
 93
        0
 94
      127
282
     0
 72
     0
 77
     0
171
     0
175
     0
179
     0
273
     0
  0
XRECORD
  5
14
102
{ACAD_REACTORS
330
12
102
}
330
12
100
AcDbXrecord
280
     1
270
     1
271
     1
  0
XRECORD
  5
13
102
{ACAD_REACTORS
330
12
102
}
330
12
100
AcDbXrecord
280
     1
270
     1
271
     1
  0
XRECORD
  5
109
102
{ACAD_REACTORS
330
12
102
}
330
12
100
AcDbXrecord
280
     1
 70
     1
 90
1959938040
 71
     1
  1
67006189-7288-42EF-813D-4A8DD8FF847E
311
504B03040A00000800007245E2423DEE336E79000000790000001B0000006175746F6465736B2D64657369676E2D7061636B6167652E786D6C3C3F786D6C2076657273696F6E3D22312E302220656E636F64696E673D227574662D3822203F3E3C666F726D6174733E3C666F726D61743E687474703A2F2F736368656D612E
311
6175746F6465736B2E636F6D2F64657369676E2D7061636B6167652F323030393C2F666F726D61743E3C2F666F726D6174733E504B03041400060808007245E242D486FD9CA0000000F4000000130000005B436F6E74656E745F54797065735D2E786D6C7D8EC10E82300C865F65E91D8A1E8C310C0EEA1BF002731658846E
311
D98AC1B77784ABF1D8FE5FBFBF75BBCE937A534CCEB38643598122B6FEE978D0B0485F9C41B54DDD7D022595594E1A469170414C76A4D9A4D207E29CF43ECE46F218070CC6BECC4078ACAA135ACF422C856C0E68EA1BF5669944DDD7BCDE7B1F8E415D77AECB980613C2E4AC91FC167A2B244592486606FC29C8FD7F045B9A
311
EF7053A7E60B504B03041400060808007245E24232479E51EC0000007C01000008000000636F72652E786D6C8D90416E83301045AF62CDB632180C8120E38896E604BD80653BD44AB011B6AB1EBF262152BBEB6A467FFE9B197D76FA9E6FE84BAFDE38DB43911140DA4AA78C9D7A88E1825B4027CE56E7C22F1B202B66DDC3
311
260367D3EAE2B24BD2D9A06D48AA754AEFA2F05E0740F2969A1EBCFCD4B3C8440CC9E1AFD922E4554C3A2B9E5D8263340A3D8E1895F6998BD12BF07A2809A16F2D3E8CE70157A419F16B5D517CA886F6FC3E92FA380E2CDF60CE82999FF7E5AA45D00A78490A8A498349F941DAAEA21D6D5E48DD51C2F2CDFE078A8BFA2714
311
8D0DB4DCDF7D601E78911EB90F38CBB72C52B90795EA961BFF01504B03041400060808007245E24255019EA25F0000007C00000007000000636E782E786D6C4DCB3B0E80201045D1AD90E915ED2CF8AC45050C11660C8261F98AB1B07AC9C97D42D718D865D3E909258CFD00CCE24AC6E326A164D74DC0B4128928FF326038
311
472BA13128B1252AC747C6BAB984FC68F0B87FE8960A5C09FE86CFB69FBA01504B03041400060808007245E2426FB4724D68010000020300000C0000006662782F636F72652E786D6C8D525B6E833010BC8AE5DF0A6C5E098D8C235A9A13F4020E3814056C646C94E377794469AA288A908C35B3B33B3BC0F697AE45A33443
311
A35586039F622455A9AB46D51976F6E4A518ED39335ADB3F651829D1C90C4F30E6AC36DAF52B546A65A5B2802A5DC91514C3202D46650B970C0FE58FEC842F9C858AE1ECF7A23C8B5AFA810F34D47136580306D032643A313F1D2F8C2C3867CE35D5CA36154C6B4E8D349827794869F4997A9BE2907B31DD16DE471247DE26
311
CED3C3574193F72267641273669BEEEAAE34525859611ED220F2E8D6A3E1374D7771B48BB66F34D9459491A9FC4EE4FAEA45916B948DC2D5EE221B300FC0C84CFCDB1622B2681023F8219C91294478CD09DF070D8140C8561CDBEB1E678046595A6D62602AED6ED4285A27612A45F3C3C8C242E7B9016CF6B04FF8A4CFF31E
311
F00185AAC19AB0703D3A3B4D67CBD4358A5E1A6FB417A4B4E9447B33B758BC9DB7410FE5A56EB579454DD655C91A2699FE5EFE0B504B03041400060808007245E2429DE02C787E0000009D0000000B0000006662782F636E782E786D6C4DCCD10A83201886E15B91FFDC354BD3033332F23E6259C84CA3E9D8E5AF46073BFA
311
E0E1E395ED67F5E86DF7978BA10172BB03B2E11127179606729AB100D42AB9C798FE6E80C2B8DA064E0625973DE6EDA2C9CE63F6E950EFC2F3C2BAA21D234389FB6EE0989A92612D84C65C1352715353D61B28942C7EA563CFB0FA02504B03041400060808007245E2426F82CB0B2D01000015020000310000006662782F36
311
333441353145322D434145372D344632352D423838422D3742313133374636343543462F636F72652E786D6C8D51DB8EC22014FC15C2939B4D5B28BD6928468D7EC1FE400554A28586CBC6CF5FD8D664F7CD170E99333367720EDD3EC707F896D629A37B88730481D4DC08A5AF3D0CFE9275106C19B5C6F83F3408F430CA1E
311
2618327AB5264C0BC48DF652FB886A23E4020ECE490F017FC44F0F1DBFC971C887E023C3DDF369E0F7E12A739CC776E431EABC8D01C03C24BD9035A4DAD5F8586687DDB1CDAA535967FBAEDB67ED1E63D29E9AAA3E9C68310B190D418945AE448CA32E4ADA774D929851AFC6577C6EE5E0A580AC449864A8CD50F985BA4D45
311
36A4FD44F586205A24FA3F5198C49BA2A0B427E512779639C8302DE606A3C284F3E315463E27633D48F3564EF20FC8508E50BB5E37B85CD362E6C60D44D3A65A4C9D37366E78753F473AAE67E7A662B448478AE5F782B1A683B21F504B03041400060808007245E2427EBC31C54F01000033030000300000006662782F3633
311
3441353145322D434145372D344632352D423838422D3742313133374636343543462F636E782E786D6CD593CD6E022114855F85B06DE6CF99AA310C265DF409BAE816E15AA90C4CF869EADBF7A268DDB8E8B21B3239F770CECD17866DBF2743BEC007EDEC48BBBAA504AC744ADB8F91A6B8AFD6946C39F3CEC53B1B25564C
311
30D22C53CE3EBC4B739114EC45321155A3EDB1881E824B5E424039DF24C6496130006C95508469074A812237237EEDC1E32A28EE4E241E80BCBEBC13B7FB0419036B720A674DEEE02C9FA5E9CE44893422849106798049D42245A7201C6B25A2A8BBFADAF560A7DF24922F5C2B93D724978F349F94978D6AE4C81A1C7216A2
311
477AC5144F33502EE6D9682922426ECEC68B87B3A46D5C0EC5AB11BC4777B7EC8701C3CE33CEA29EA038A407114151BE68BBBE6A5755BB786BD79BA1DFF4ABA7F679D3B7ACC976CE76CE99720963C0BB99486723D84879C79A3C7E84AFF888D21E593B7FFA034804505A2F746E19FF994F737EDF88CBE35FC07F00504B0304
311
1400060808007245E2422DB80E36A505000081100000340000006662782F36333441353145322D434145372D344632352D423838422D3742313133374636343543462F6F626A656374732E786D6CAD57D96EDB3814FD1541F332F3E045B69B3803454562C785D1A62D6AA4980703062D510A27D402924A9DF9FA3914295972
311
ECD433E88B162E97F79E7BEE42FFFD2EE5CE331592E5D9B5EBF587AE43B3308F58965CBBA58A7B53D7791FF822CF556B99EB6424A5D7AE1E76033F117959D8A188C6A4E4EA607471FB9723439A51D7093991F2DA95E1234D499F942A8FA87CEA4744917E12EFFA5EDF2CEC8A4D04291E0F841644D04C41538C6790E218A5BC
311
EEEFD01D04FE40CF07BE7EDA55E3D3AB06953DDDF3592615C9C257871D88197B93F9DDE8DD55EFDD6432EE4D2E465EEF76713BEF7997E3E1EC6236BBBAB9BBC2C1520948B29A081ABBC107602358E80FCC54E0972C53E3915D621D3410F499694FB9C1C8F1FC8159D358678D3CA67E9867190D2BAC8046659F151DD1826611
311
7CCEA884662D8486DD5F4FE3D89A1EEB7F7B647BF83C04DA3B5A826ADDEB775BD37CFB374C90E7304848AA1968B0B4861AAE0EF7086FF39CDB39269D94282A18E10E675B41C48B1B60A95E12F81D319AC9424783B6C00DE00533DDA50BC2E8E73C3FA6655C72AE69EC0655146C102B54C94A33F60F157BEDDBC84027F84AB3
311
616A0D522F0575832B4391E9019B0C904ECC490297C34CBD733C3A3074A6E3743977838F8BED6EA563F7F8E185C80B2A94A60FA8553BAE7E6B94AC4EDE599ED31BDC0355F6A07C03F29F11EA7B55E037C17693DDC49EA204C9649C8B14BE71864E6F88C7D0F1AAA7FE6E7DF9836673D77BA7F084B33554BF00CFAE0D6D5FB6
311
E00CFC67103E17636BDA2A241C69E39E65004893C4E139869087E3EDCE0D96C872C8CAD84578E0C164A8FB8C4F7F60C520515427B5DE19B03C488B672468C05631126A18F25B05F77E7A95CEAA83EDB253F0BEFB2574BD99AF3EAE4A119390DEDB989ED398654CA1C4ED79D356A88379C7A227FAF22317110C7D8DF7AA8D77
311
6A8F92405B63AE814FEA9CAE7FF627770E08B12FC975BAF17F72028CD085B525FF9EC990724E329A97F5B96FD60F940D03B10E76CDE4A6C0EC0B0B4863660E6210453A14ACD02036D5AA499AFD13D63D2C3F83916E70FBF289BCB4B3D7769F7BC39CE762B37DD998B47414EAEF5D6E5B0C065A0AE85E05491DFF16F44DC4E2
311
B89448824770FDBE9CB57DA7D30252442DD544CB04F623B888B0A4ADE5A25A0B824A9A671B86BA89B83B7A405B3E20B50CA8049ED258521E6F18E765BA89194735DAA4A43801C7FFD77F5BA6C586A47999A913B23BAAA33A7475EFB057FE202A7C748355F5EEDD22F746343A41065D4B8E60D571EDC5E57078E14DAF7A97A3
311
E9B43719DD2D7A536F3CEF4D6EA6F3F974B1984E2EEF6A3F194D02BF2E35ED88869750DAFC5230EBBE8725E2C7260137B8274AAE3F98F0ACDF0FCB3E7A617F803DA897CDC69BE8197D1F8D7E2E60BFF2A8A0655A709AD24C111D43F7FA837F23E8333ACA98F1654A127A86942F1F5607C660E48C7D5F75BCD31F077BEDE84C
311
07E45121EAB14CB71961FC60636290EC175962F1AB7DD2BC4DA1A97FF59F750C3A53997316210F464E42F3942A64C3338A9048A904F5DA3D7D64EF1E67EC7E361DA2225B4E6B4D1E099A642E1116A05619AAEEB8F31B9A3ADD575DBB28B7FD273C6CA6701D70E6DA4593AE5848657F8B02AD5BA14A38B8D4EEE4D1F8932CE1
311
E8B5CDA6E6BFD9A5B1E994E466C939FD93B5CBA4706B00D24881BE010D11BC532913F8956E763EFC4F86D7EA3844E1735BAAC696FD40634C750C42D418656F0B68629EECD13B04EADB6679FD6A4D0791B36E596F92C048ED292292EAA6A0F5B32ADDCCBF0ED0A138CB2F4EC1CB04BE3C5F524F5090B9D4010E168115566641
311
14A83AFB73FD55E4B8C9A6CE828102CEEFBBE9C51FEB599EA6796686D637F63EECAC1E71BB8DD6480E545F4BE47A34F446EBEA3A606F289B2D91B44F22F984017856B006E88EFBC14B7367441D3213CDBA8176C501439773C716B609845ABAB473AB06078D47461DC490BE52EA88692F28DEBC110CAAA55041A0970FFE0550
311
4B03041400060800007245E242000000000000000000000000350000006662782F36333441353145322D434145372D344632352D423838422D3742313133374636343543462F76657274696365732E62696E504B03041400060808007245E242F270F1330600000004000000360000006662782F36333441353145322D4341
311
45372D344632352D423838422D3742313133374636343543462F747269616E676C65732E62696E636660600000504B03041400060800007245E242000000000000000000000000370000006662782F36333441353145322D434145372D344632352D423838422D3742313133374636343543462F617474726962757465732E
311
62696E504B03041400060808007245E242D5987DFC8F00000041010000360000006662782F36333441353145322D434145372D344632352D423838422D3742313133374636343543462F6469726563746F72792E786D6C858F410EC2201045AF4266AF15DDB800BA74E7C21B903225242D6328188F2FA5C4183471359997F9
311
FF81E89FF3C41E1816475E02DF1F80A11FC8386F25A438EECEC07A250251FC3803E6F58C12560C4AD840E95E91C151A72936F496F35732D860FE635F62C8F2DA16B505C545B74125BAA2FA9E05D7CC053D063734D5C7665FD55B6B8D15D5E9BFEAFD8490FFA45E504B03041400060808007245E242C2260A21FE000000A001
311
00003B0000006662782F36333441353145322D434145372D344632352D423838422D3742313133374636343543462F7265736F75726365732F636F72652E786D6C8D504B6E833010BD0A9A6D653018028D8C235A9A13F4029699502BC18EFCA97AFC9A40A576D7CDCCE87D344F8F9FBE965BF689CE6B6B7A28730A191A6527
311
6DE61E62B8900EB293E0CEDAF04B0699910BF6B0C220F8EC6CBCEF90B226A009093576C21D94DE63804CDDD2D183571FB8C85CC69014FE9ADFA5BACA19F3324F74D209EE834B01B2EDC93A4138F4363A859E171B2B788C7ADA357A4A3FF545A303D10C15A5ECB52587F13C909AB62379696A460EF5D09DDF46DA3C8F032F56
311
B3E0412F3F19954319700251D19211DA125ABDD3EE58B3236B9F6873649417ABFC8F29DEA77F9AA23681557BDCCDE6419429C88310BC58FB4AEB5166DA6BB7E21B504B010214000A00000800007245E2423DEE336E79000000790000001B00000000000000000000000000000000006175746F6465736B2D64657369676E2D
311
7061636B6167652E786D6C504B010214001400060808007245E242D486FD9CA0000000F40000001300000000000000000000000000B20000005B436F6E74656E745F54797065735D2E786D6C504B010214001400060808007245E24232479E51EC0000007C010000080000000000000000000000000083010000636F72652E
311
786D6C504B010214001400060808007245E24255019EA25F0000007C000000070000000000000000000000000095020000636E782E786D6C504B010214001400060808007245E2426FB4724D68010000020300000C00000000000000000000000000190300006662782F636F72652E786D6C504B0102140014000608080072
311
45E2429DE02C787E0000009D0000000B00000000000000000000000000AB0400006662782F636E782E786D6C504B010214001400060808007245E2426F82CB0B2D010000150200003100000000000000000000000000520500006662782F36333441353145322D434145372D344632352D423838422D374231313337463634
311
3543462F636F72652E786D6C504B010214001400060808007245E2427EBC31C54F010000330300003000000000000000000000000000CE0600006662782F36333441353145322D434145372D344632352D423838422D3742313133374636343543462F636E782E786D6C504B010214001400060808007245E2422DB80E36A5
311
0500008110000034000000000000000000000000006B0800006662782F36333441353145322D434145372D344632352D423838422D3742313133374636343543462F6F626A656374732E786D6C504B010214001400060800007245E2420000000000000000000000003500000000000000000000000000620E00006662782F
311
36333441353145322D434145372D344632352D423838422D3742313133374636343543462F76657274696365732E62696E504B010214001400060808007245E242F270F13306000000040000003600000000000000000000000000B50E00006662782F36333441353145322D434145372D344632352D423838422D37423131
311
33374636343543462F747269616E676C65732E62696E504B010214001400060800007245E24200000000000000000000000037000000000000000000000000000F0F00006662782F36333441353145322D434145372D344632352D423838422D3742313133374636343543462F617474726962757465732E62696E504B0102
311
14001400060808007245E242D5987DFC8F000000410100003600000000000000000000000000640F00006662782F36333441353145322D434145372D344632352D423838422D3742313133374636343543462F6469726563746F72792E786D6C504B010214001400060808007245E242C2260A21FE000000A00100003B0000
311
0000000000000000000000471000006662782F36333441353145322D434145372D344632352D423838422D3742313133374636343543462F7265736F75726365732F636F72652E786D6C504B0506000000000E000E00800400009E1100000000
310
504B03040A00000800007245E2423DEE336E79000000790000001B0000006175746F6465736B2D64657369676E2D7061636B6167652E786D6C3C3F786D6C2076657273696F6E3D22312E302220656E636F64696E673D227574662D3822203F3E3C666F726D6174733E3C666F726D61743E687474703A2F2F736368656D612E
310
6175746F6465736B2E636F6D2F64657369676E2D7061636B6167652F323030393C2F666F726D61743E3C2F666F726D6174733E504B03041400060808007245E242D486FD9CA0000000F4000000130000005B436F6E74656E745F54797065735D2E786D6C7D8EC10E82300C865F65E91D8A1E8C310C0EEA1BF002731658846E
310
D98AC1B77784ABF1D8FE5FBFBF75BBCE937A534CCEB38643598122B6FEE978D0B0485F9C41B54DDD7D022595594E1A469170414C76A4D9A4D207E29CF43ECE46F218070CC6BECC4078ACAA135ACF422C856C0E68EA1BF5669944DDD7BCDE7B1F8E415D77AECB980613C2E4AC91FC167A2B244592486606FC29C8FD7F045B9A
310
EF7053A7E60B504B03041400060808007245E2424BAA9A24EB0000007C01000008000000636F72652E786D6C8D90416EC3201045AF82665B6163E3C4C4C244AD939EA01740405C94182C03558F5F9C3852BBEB6A467FFE9B197D7EFC9E6EE8CB2CC17AD743551040C629AFAD1B7B48F18219A0A3E08BF7F1970D909393E961
310
9541F071F169DE24E55D342E66D5796D36518660222075CB4D0F417D9A491632C5EC08D76296EA2A475354CF2EC329598D1E47ACCEFBECC59A05444DEBFD819E197E1FD80E37033BE143733EE1B6A1AF2D7B63D5B01F78B9C282473B3DEFABC5C86874E64945316931A93F08EB1ADAD1F685EC3A4A78B9DAFF4069D6FF8492
310
7591D6DBBB0F2C80A8F223F781E0E59A452EF7A0725D73133F504B03041400060808007245E24255019EA25F0000007C00000007000000636E782E786D6C4DCB3B0E80201045D1AD90E915ED2CF8AC45050C11660C8261F98AB1B07AC9C97D42D718D865D3E909258CFD00CCE24AC6E326A164D74DC0B4128928FF32603847
310
2BA13128B1252AC747C6BAB984FC68F0B87FE8960A5C09FE86CFB69FBA01504B03041400060808007245E242ACEBB75568010000020300000C0000006662782F636F72652E786D6C8D525B6E833010BC8AE5DF0ACC2B8144C6514BD213F4020E38D40AD8C8D828C7EFF28868AA28AA908C35B3B33B3B400FB7B6418330BDD4
310
2AC7A11F602454A92BA9EA1C3B7BF1328C0E8C1AADEDAF328C146F458E4718335A1BEDBA052AB5B242594095AEC402F2BE1716A3B2814B8EFBF25BB4DCE7CE42457FF53B5E5E792DFCD0071AEA18EDAD0103681E329E985DCE374A669C51E764B5B0B28269F22285C12C8AA3ED2E3E65DE67916DBCA4C88EDE2E391DBD3489
310
DFD3EC230B8B6D41C92866D4CAF6EEAE34825B51813E08632F48BD20FA0AB27D12EFE3F42DD8ECE38092B1FC41E4BAEA9F2227958DA3C5EE2CEB310BC1C844FCD91622B2A8E703F8218C923144784D093F060D8140C8969F9BFB1E578006515A6D12602AED566AE08D13303540D343C9CC42E7A9016CF6B44FF4A2CFEB1EF0
310
01B9AAC11AB7703D3B3B4EA7F3D4258A4E186FB037A4B46979B39A9B2DAEE73AE8A9BCD48D36FF51936555B28449C6BF97FD00504B03041400060808007245E24208E891EB7E0000009D0000000B0000006662782F636E782E786D6C4DCCD10E82201886E15B61FF390981641BE094F23E5CA273223482D6E5A7CD838EBEED
310
D9B757D69FD5A1B78DAF397805F4440059FF08C3EC2705398DB802546B1943487F3740BE5FAD829D41CB2986FC3C68B0639F5DDAD4CD7E3990881B31825D31BDF30E73D6B5B82D458359C54D79A6D4F04B038596C5AFB4ED1ED65F504B03041400060808007245E242C8E250AF2D01000015020000310000006662782F3036
310
4430433633392D314534462D343346422D423536412D3338344335323131433437412F636F72652E786D6C8D515B6EC32010BC8AC557AACA361862BB11264AD2E604BD00C1244589C1E251E5F85DD78ED4FEE58745B333B303CBB7F7E1967D6B1F8CB31D22054699B6CAF5C65E3A94E2396F51B615DC3B17FFD05066E5A03B
310
34C148F08B77695C20E56CD436026A5DAF175086A023CAD40D2E1D0AEA4B0FB2902902235C8B51AAABBCE88214D0069EE0217A0890CD43A613095CBFE3434DDF72F2C18E39A3C77DBE5FD7BB9CB6ECB0AE0839B066C7CB5928784AA65FE4A68738E66CB47FD664120B1ECDF088AFBC9651F7485498D01C3739AE3E71BB6174
310
439B57BCDE50CCCB89FE4F94C6FE49513236D26A893BCB021284977343F0DEA5D3ED1146DF47E76336CD5B05AD5EE05505C62D2515A5352F672EFC0098D66C310DD179F8E1D5F50474BA38D74CF0725A1294DF0D429D162A7E00504B03041400060808007245E242181BFED25601000033030000300000006662782F303644
310
30433633392D314534462D343346422D423536412D3338344335323131433437412F636E782E786D6CBD93CD6EC23010845FC5F2B5CA1F490121C7483DF4097AE8D5B1177049ECC83F5579FBAEC1502E1C2A55BD58D1EC7866F5C961DBAF69249FE0BCB6A6A74D595302465AA5CDBEA731EC8A35255BCE9CB5E1CE46891113
310
F434C994B3BDB371CE92829D88634075D4E6984507DE4627C1A39C6E92D14A3162009822A208D3004A812237237EEDC0E12A280E27120E405E5FDE891D3E4006CFAA94C259953A384B676EBA33512247E17D4FBD3CC0244A118355E08FA51241944D79ED7AB0D34F124917AE95D16992CA7B9A4ECAF346257264150E39F3C1
310
21BD6C0AA7192817F33C6A290242AECEC68B87B3A84D5876D9AB11BC4377BB58AED718769E7116F404D9211D88008AF245DDB445BD2AEAC55BBDDE74EDA65D3DD5CF9BB66655B27336583BE64B1803CECE445A13C004CA1B56A5F1237CD9479476C8DABAD32F402280DC7AA173CBF84B3ECDB2EDBA7FE4539DDF37E272F817
310
F06F504B03041400060808007245E2428C96E2A3640700009A1B0000340000006662782F30364430433633392D314534462D343346422D423536412D3338344335323131433437412F6F626A656374732E786D6CED59DD73A33610FF5718FAD23E181BDBC9391D4227892F379E36BD9B73EFA60F9E616490891A211849E4E2
310
FEF55D7D80819804F7D2B73ED8809056BBBFFDD412FCF29451E71173417276E9FADEC475308BF384B0F4D22DE56EB4709D5FC280E7B96C4C731D86327CE9AA61370C529E97851D4AF00E955476466FAFFF74448C19769D9822212E5D11DFE30C79A8947982C583972089BC74F7E4F99E99D8269B7254DC7788168863268153
310
186740C5314CF9EDC7893B0E83B17A1F06EADFCE9A0D9A35EF9F35D652B7B9244C48C4E2672C75C8CC06B134F3E7CBF7D3B38BD1D97C3E1BCDCFA7FEE8FAF67A39F2DFCD2637E737371757EF2F80BD6D9E532B53820BCC12D0DFDE0DFD60ACDED4A25B048E711DE78CE15803095069B1BA040916B05503BE49FBD15712355E
310
6B091BCF73F5DEB2D0189EB5A9F4CD1A06448B2E0862B7AB24AEAE4DF9F2ED5F20B81862945C6009DC0AC941BB161E0E5EE18693606C46C3607BD005114E8624E6045187922D471C940253D59430300B2C19E51C1C48394A02AD39F3BA6D5BE099AFBBCE312E7725A5CA33DC503B5604EE87A5D09C91BF313F70DF44067802
310
694BC2E4C27229F70576C38B60AC07C3405D6653FBD200E9EC284A8546C4BCED087AA35C7FB574C35F6FB74F6B150E8E6F5EF0BCC05C2AA3537AD47C8121DBAB42C96EEB0FD29C5A00C21850EDCA03289F01F9DF217A1C5801BD71F2347F9ADBB99223267639CF4037CEC4194DE06FE2F8FA5FDD37EE8271BDB8ADBD3E3CC1
310
4D15548BEFC7B32D83C6CAF2DF80330C1EC1E0733EB3AFD631A260CF77840140CA481C9AC31084F6DDF6C90D57103821D0C32A44431F4406761FE136185B3207AD54EE65BD8E01A2768FD91025016CDA22818D1E3D7D80ECC1497C505353C43E78CFDEC45CAF96EB5FD725DFA118DF599F5EE21D614442D63CCE500BF39644
310
0F78FF2DE70908FA1CEF7513EFCC6E25006D85B9023EAD40500F879D5B1BC4B02ECD55B8095ED9018450B9BA41FF8E8818538A18CECB6ADF3ABA2943AD3DDED60C6E383510CFA61D13E6F891A8AA029CE630A3C528E4FD98934281E8861F8C6475D0F47AA4FBB2FA1D2CB29EDF336BC520F43244FFD041EB080E2DCBAE90B6
310
40D4026F0FE13CCE69CEA3ED3E3291CE855A02D8687BCBD7165188F546498A0A7890F6BB2AA4A446DA2821BB5D2920AE1E61F1EBEAA6690E136FE69F39CDFF8E33CE21DA82EF226EFDAEB347443294E2688792BEED9ABBD5B48526D9439AE31D05B9C82391FB08C96892E0F414684E227EF1A6D4539A0B41181690AF8E82DF
310
4463E2412031DAAC58565AED004D44946189E8290828323DE0EAB4A36BDC184A87D779ACADF7258D3589FE4716C111D492398B0894A290435E65DCF7CE2086B4D1352877F0056BAB686B3168092544BC8FBE6192DECB535037E47B708FE14852CA282F500C663D80EC335F514AEDF0BE45F183CA1F515CD2B7321081E92E22
310
949659043FC2E0E431C4B5EBC0F4220A0DE226F6499C41518664C9876C727E3679B68FA919BA21B0B1D18E5008DB51868A1ED45B0151D7234E0DBEA5DEA3D46D991511CAF2920D32146FD6F5264BBEAB56457620BFAA5484B2B1226C09860161B2CEAA55CC0653D78115DC4807AA7D24505650730A7B25F1F8B53769CABD1B
310
70EBA76FBB4106855F8FF69A11755EC160796C1506E21B92F1BD1BAEF575740DF577829343AAAF6ACD66050888A9485E726255F46505E58DADD1DCF00E49B1F960B26E75FDB2F2A0FB118C610DD42EF5C295023AC34C225599DCA91BFA1941086ED130E32B95534FA1729524BA6A44F496F4A9B35546B436CD8857DC639667
310
F0631BC2625A26788312F110DD491AAD8962DD4AE965A4C2F845013F7E5877E0819101227D52051EFED6596B476F54B9749488BC2FB32D430482604BB4D4E8C62B586A355269B9BEAA3305D45D606056C5F3FF4F16CD76C4FF278BD41AC6779D2CAEF7BFA17DB32FD248E7B1B2EB938E01757E5254DEE218A0DB0E35D53A8B
310
98646EE5B7CE144150ACA2FCE06AAC0A1A86601FC7FF3A6BF76541B35D87FFD3B2B6FFACE23829ABB426AB2ED591CA75D5CC61E7EF2693737F71317A375D2C46F3E9FBDBD1C29F2D47F3ABC572B9B8BD5DCCDFBDAFD1D48E1A067530D3B90B9E4D50AB86D593C500BAB222A72481D37CE2A41862BE8433FD80F639CFB080E4
310
D96C7627B6293F60F5A3E9734AB4A5B8E2E41E4183980A48EB805119CBF6B8F303B426251CB42F5D681A790FF067ADD27520F35CBAD02A9024C6C2DB429B4935F4347148B93AF75B62800F62A94A896651FD5CAF52D8B4C27F3D65481AB072B57A1850B815D0FD6A7528346F96A7F824C12B761C24E1765B4AA8D68C2C8781
310
5A18BDCD41FD46364AD883DDFA095CF765B17C4FCF692132E893C18B4660A88E24E2A9EE772BC62C4B57CB4F63E8B339AB8F4E41CB1474399CD2886330E6521554604560159666812498EACDCF9B4F3C874F3C99A3AB22E7C7A7C5F94F9B9B3CCB7266863657702A4BE04391B3BE87CF3EC9068A07AC9AEB62339DF8D38D6E
310
6ADB3E7BB445027BAA2A8281AA985082744C0EECF25983CAB62FC74A159DE9ABA56383E81910D5B6FBACC76B3E7239E043EA738AF218EDE795B42FF6B5C77A2AD804878E74F80F504B03041400060800007245E242000000000000000000000000350000006662782F30364430433633392D314534462D343346422D423536
310
412D3338344335323131433437412F76657274696365732E62696E504B03041400060808007245E242F270F1330600000004000000360000006662782F30364430433633392D314534462D343346422D423536412D3338344335323131433437412F747269616E676C65732E62696E636660600000504B0304140006080000
310
7245E242000000000000000000000000370000006662782F30364430433633392D314534462D343346422D423536412D3338344335323131433437412F617474726962757465732E62696E504B03041400060808007245E242D5987DFC8F00000041010000360000006662782F30364430433633392D314534462D34334642
310
2D423536412D3338344335323131433437412F6469726563746F72792E786D6C858F410EC2201045AF4266AF15DDB800BA74E7C21B903225242D6328188F2FA5C4183471359997F9FF81E89FF3C41E1816475E02DF1F80A11FC8386F25A438EECEC07A250251FC3803E6F58C12560C4AD840E95E91C151A72936F496F35732
310
D860FE635F62C8F2DA16B505C545B74125BAA2FA9E05D7CC053D063734D5C7665FD55B6B8D15D5E9BFEAFD8490FFA45E504B03041400060808007245E242BBCB0E54FE000000A00100003B0000006662782F30364430433633392D314534462D343346422D423536412D3338344335323131433437412F7265736F75726365
310
732F636F72652E786D6C8D504B6EC32010BD0A625B6163E3C48E85895A273D412F80F0C4418921E253F5F885D895DA5D3733A3F7D13C3D7EFC5AEEE8139CD7D60CB82A284660949DB499071CC38574181D0577D6865F328C8C5C60C019C682CFCEC6C706296B029890506327D840E93D048CD43D1D03F6EA0A8B2C640C49E1
310
6FC543AA9B9CA1A88A44279DE03EB81400AD4FF2C4C281B7D129F0BC5C59C163D4D3A6D153FAA92F1A1C1635ABF707766EC9FBD8ED483376277268CE27D236ECB5EDDEBA6ADC8FBCCC66C1835E7E322A0732C094FCB46284B684D61FB4EB1BD6B3F685EE7A467999E57F4CF131FDD314B509ACDEE2AE368F4595823C09C1CB
310
DC575ACF32D3CEDD8A6F504B010214000A00000800007245E2423DEE336E79000000790000001B00000000000000000000000000000000006175746F6465736B2D64657369676E2D7061636B6167652E786D6C504B010214001400060808007245E242D486FD9CA0000000F40000001300000000000000000000000000B200
310
00005B436F6E74656E745F54797065735D2E786D6C504B010214001400060808007245E2424BAA9A24EB0000007C010000080000000000000000000000000083010000636F72652E786D6C504B010214001400060808007245E24255019EA25F0000007C000000070000000000000000000000000094020000636E782E786D
310
6C504B010214001400060808007245E242ACEBB75568010000020300000C00000000000000000000000000180300006662782F636F72652E786D6C504B010214001400060808007245E24208E891EB7E0000009D0000000B00000000000000000000000000AA0400006662782F636E782E786D6C504B010214001400060808
310
007245E242C8E250AF2D010000150200003100000000000000000000000000510500006662782F30364430433633392D314534462D343346422D423536412D3338344335323131433437412F636F72652E786D6C504B010214001400060808007245E242181BFED256010000330300003000000000000000000000000000CD
310
0600006662782F30364430433633392D314534462D343346422D423536412D3338344335323131433437412F636E782E786D6C504B010214001400060808007245E2428C96E2A3640700009A1B00003400000000000000000000000000710800006662782F30364430433633392D314534462D343346422D423536412D3338
310
344335323131433437412F6F626A656374732E786D6C504B010214001400060800007245E2420000000000000000000000003500000000000000000000000000271000006662782F30364430433633392D314534462D343346422D423536412D3338344335323131433437412F76657274696365732E62696E504B01021400
310
1400060808007245E242F270F133060000000400000036000000000000000000000000007A1000006662782F30364430433633392D314534462D343346422D423536412D3338344335323131433437412F747269616E676C65732E62696E504B010214001400060800007245E2420000000000000000000000003700000000
310
000000000000000000D41000006662782F30364430433633392D314534462D343346422D423536412D3338344335323131433437412F617474726962757465732E62696E504B010214001400060808007245E242D5987DFC8F000000410100003600000000000000000000000000291100006662782F30364430433633392D
310
314534462D343346422D423536412D3338344335323131433437412F6469726563746F72792E786D6C504B010214001400060808007245E242BBCB0E54FE000000A00100003B000000000000000000000000000C1200006662782F30364430433633392D314534462D343346422D423536412D333834433532313143343741
310
2F7265736F75726365732F636F72652E786D6C504B0506000000000E000E0080040000631300000000
  0
XRECORD
  5
17
102
{ACAD_REACTORS
330
12
102
}
330
12
100
AcDbXrecord
280
     1
270
     1
271
     1
  0
XRECORD
  5
16
102
{ACAD_REACTORS
330
12
102
}
330
12
100
AcDbXrecord
280
     1
270
     1
271
     1
  0
XRECORD
  5
18
102
{ACAD_REACTORS
330
12
102
}
330
12
100
AcDbXrecord
280
     1
270
     1
271
     1
  0
XRECORD
  5
15
102
{ACAD_REACTORS
330
12
102
}
330
12
100
AcDbXrecord
280
     1
270
     1
271
     1
  0
XRECORD
  5
E66
102
{ACAD_REACTORS
330
22
102
}
330
22
100
AcDbXrecord
280
     1
102
MATERIAL
148
0.0
149
0.0
149
0.0
 93
        0
 94
      127
282
     0
 72
     0
 77
     0
171
     0
175
     0
179
     0
273
     0
  0
XRECORD
  5
24
102
{ACAD_REACTORS
330
22
102
}
330
22
100
AcDbXrecord
280
     1
270
     1
271
     1
  0
XRECORD
  5
23
102
{ACAD_REACTORS
330
22
102
}
330
22
100
AcDbXrecord
280
     1
270
     1
271
     1
  0
XRECORD
  5
BA
102
{ACAD_REACTORS
330
22
102
}
330
22
100
AcDbXrecord
280
     1
 70
     1
 90
1959938040
 71
     1
  1
F70D3979-B9DF-4060-AAFB-493ADD6AA863
311
504B03040A00000800007145E2423DEE336E79000000790000001B0000006175746F6465736B2D64657369676E2D7061636B6167652E786D6C3C3F786D6C2076657273696F6E3D22312E302220656E636F64696E673D227574662D3822203F3E3C666F726D6174733E3C666F726D61743E687474703A2F2F736368656D612E
311
6175746F6465736B2E636F6D2F64657369676E2D7061636B6167652F323030393C2F666F726D61743E3C2F666F726D6174733E504B03041400060808007145E242D486FD9CA0000000F4000000130000005B436F6E74656E745F54797065735D2E786D6C7D8EC10E82300C865F65E91D8A1E8C310C0EEA1BF002731658846E
311
D98AC1B77784ABF1D8FE5FBFBF75BBCE937A534CCEB38643598122B6FEE978D0B0485F9C41B54DDD7D022595594E1A469170414C76A4D9A4D207E29CF43ECE46F218070CC6BECC4078ACAA135ACF422C856C0E68EA1BF5669944DDD7BCDE7B1F8E415D77AECB980613C2E4AC91FC167A2B244592486606FC29C8FD7F045B9A
311
EF7053A7E60B504B03041400060808007145E24232E1B0E9EC0000007C01000008000000636F72652E786D6C8D905B6EC3201045B782E6B7C2C6AFC6B130911FCD0ABA0104C44189C1325075F9C58923B57FFD9AD19D7B6646979EBEE73BFA52ABD3D6B49025049032C24A6DA61682BFE01AD089D1D55AFFCB06C8F059B5B0
311
C9C0E8B4DAB0EC92B0C62BE3A36AAC54BBC89D531E90B8C7A60527AE6AE6090F3E3ADC2D59B8B8F14925D9AB8B70085AA2E7112DE33E7DD16A05F6D177F5712C2B7C7C3F135CD6FD80FBB2EB713E0E876EE849559E479A6E30A35ECFAFFB6255DC2B092C275981C90193FC93D44D593445F546AAA62034DDEC7FA0B0C87F42
311
411B5FE4FBBB4FCC01CBE2238F01A3E996452C8FA062DD72633F504B03041400060808007145E24255019EA25F0000007C00000007000000636E782E786D6C4DCB3B0E80201045D1AD90E915ED2CF8AC45050C11660C8261F98AB1B07AC9C97D42D718D865D3E909258CFD00CCE24AC6E326A164D74DC0B4128928FF326038
311
472BA13128B1252AC747C6BAB984FC68F0B87FE8960A5C09FE86CFB69FBA01504B03041400060808007145E2424775628468010000020300000C0000006662782F636F72652E786D6C8D52ED8E8230107C95A67F2FD0F275A22935A2E713DC0B54A81C115A525AE2E3DFF2613C2FC61892D2CCECECCE0EB0EDB56DD0204D5F
311
6B95E1C0A7184955E8B25655869D3D7B29465BCE8CD6F64F19464AB432C3238C39AB8C76DD02155A59A92CA04A97720145DF4B8B51D1C025C37DF1235BE10B67A1A2BFF89D282EA2927EE0030D759CF5D68001340F194FCCCFA72B2333CE997375B9B07509D3EA732D0DE65FF92E5D1FE2C45B7F1EA917A7F9DECBE35DEE85
311
87FD6AB7CF69121F0F8C8C62CE6CDDDEDC15460A2B4BCC431A441E5D7934FCA6E9268E3651F241934D441919CB1F44AE2BDF14B95AD9285CECCEB21EF3008C4CC4BF6D21228B7A31801FC219194384D794F063D01008846CC5A9B9ED7101689085D52606A6D4EE4E0DA27112A652343D8CCC2C749E1AC0664FFB842FFABCEE
311
011F50A80AAC090BD793B3E374364F5DA2E8A4F1067B454A9B56347773B3C5FB791FF4545EE8469B77D46459952C6192F1EFE5BF504B03041400060808007145E2425AAB1D607E0000009D0000000B0000006662782F636E782E786D6C4DCCD10A83201886E15B91FFDC5523AD408D74EE3E625948A6C3E9D8E5AF46073BFA
311
E0E1E365FD6773E86DE2CB06CFA1BA94808C7F84C9FA85434E336E01F582C510D2DF0D901F37C3E160106C89213F4F9ACC3C66977675D6AF27D6E47E6DB4ECF070AB065C4BADB124AAC54D570E8452AAA4D2500856FC4AFB1E61F105504B03041400060808007145E24253328C162D01000015020000310000006662782F34
311
354632374542392D414431412D344245452D423543382D3739304135363636434243452F636F72652E786D6C8D515B6EC32010BC0AE22B55858DDF718489E2D43D412FE000495062B07854397EA176A4F62F3F2C9A9D991DED92FD63BA836F61ACD4AA83598221108A692ED5A583DE9DD116823D25466BF78706811A27D1C1
311
08434A2E46FB798598564E281750A5B958C1D15AE12060F7F0E9A06557318DC9E85D60D85B328FEC365E449225A11D789458674200B00C892FA465F5993743DFA2C3477640653F0CA8AF8E5BD4B4F850D5757DEC8F0349172125DE4BBECA250F71E4590AF3AA491453E2E4F48CCF8C189DE090E6382B106E10CEBFF0765716
311
BBA27AC7D5AEC0248DF47F223FF317455E2A57E46BDC456621CD48BA3428E1DA9FEECF30E2316BE3409CB7B182BD418A138C9BB66E71999374E1860D04D3BA5C4DADD3266C78733B057A562DCE7549491A8F14CAEF05438D07A53F504B03041400060808007145E2427C9639264F01000033030000300000006662782F3435
311
4632374542392D414431412D344245452D423543382D3739304135363636434243452F636E782E786D6CD593CD6E022114855F85B06DE6CF19AD310C265DF409BAE816E15AA90C4CF869EADBF7A268DDB8E8B21B3239F770CECD17866DBF2743BEC007EDEC48BBBAA504AC744ADB8F91A6B8AFD6946C39F3CEC53B1B25564C
311
30D22C53CE3EBC4B739114EC45321155A3EDB1881E824B5E424039DF24C6496130006C95508469074A812237237EEDC1E32A28EE4E241E80BCBEBC13B7FB0419036B720A674DEEE02C9FA5E9CE44893422849106798049D42245A7201C6B25A2A8BBFADAF560A7DF24922F5C2B93D724978F349F94978D6AE4C81A1C7216A2
311
477AC5144F33502EE6D9682922426ECEC68B87B3A46D5C0DC5AB11BC4777B7EA8701C3CE33CEA29EA038A407114151BE68BBBE6A9FAB76F1D6AE3743BFE9974FED72D3B7ACC976CE76CE99720963C0BB99486723D84879C79A3C7E84AFF888D21E593B7FFA034804505A2F746E19FF994F737EDF88CBE35FC07F00504B0304
311
1400060808007145E242D801C5E7A405000080100000340000006662782F34354632374542392D414431412D344245452D423543382D3739304135363636434243452F6F626A656374732E786D6CAD57DB6EDB3810FD1541FBB2FBE0BB9BC60B458563D78551A42D6AA4D807030625510A3794285054E2ECD7EFA148C99263
311
A7DE455F2C8B1A0E67CE9CB9D0FBB04FB9F34465C14476E38EFA43D7A15928229625376EA9E2DEB5EB7CF03D29846A89B94E46527AE3EA65D7F71229CADC2E453426255747ABABDBBF9C22A419759D9093A2B8718BF081A6A44F4A25225A3CF623A2483F89F7FD51DF0876D52692E40F474A732269A66029D63368718C51A3
311
EEEBD01DF8DE407FF73DFD6BA526E7A506953FDDF35956289285AF0E3B5233194D971FC7EF66BD77D3E9A437BD1A8F7AB7ABDB656FF47E325C5C2D16B3F9C7190E2E9484266B89A4B1EB7F02369285DEC07CF2BD92656A32B622364003499F988E94EB8F9D913730328D77D6C953E68722CB68586105342AFFACEA88E6348B
311
1073460B58D64268D87D1D691C5B9F27FADD1ED95EBE0C81F68E96A2DAF6FAD9B654047FC385E21206C9826A061A2CADA386ABC303C28110DC7E63859312452523DCE12C9044BEB83E44B588EF75D468264B9D0DDA03D74714CCE72E5D90463FE7F9292BE392734D63D7AFB260875CA1AAA82C63FF5079B0BE8D0C6C42AC34
311
1BAEAD43EA25A7AE3F3314B93E629301D28939491072B8A9774EC6478E2E749EAE97AEFF7915EC373A774F1F9E4B9153A9347D40AD3A70F553A3646D1A5D1439BDC13D32E500CA7720FF05A97E300571936C3FDD4FED294A92AC88854C111B67E8F486F8193AA3EA57FF6FFDF306CDE66EF4CEE189606BA87E019E5D1FDAB1
311
6CC1E97B4F20BC9013EBDA26241C65E38E65004893C4E1024BA8C371B077FD35AA1CAA327611EE8FE032CC7DC25F6F60D5A0505427B59E19B03C2A8B171468C05631126618F25B030F717A55CEAA83ADD83978DFFD12BACE979BCF9B52C624A47736A79734661953687107DEB40DEA60DEF1E891BE3C0B19C1D1D7786FDA78
311
A7F6A802686BCC35F0495DD3F5CBE1E4CE0121F62542971BEF2727C009DD585BFAEF581152CE494645599FFB66FF40DB3010EB64D74C6E1ACCA1B18034E6CB510EA2498792E51AC4A65B3545B37FC6BBFBF5173012F25C04841F848243E90D05177217BCEC4C553A89F48F2EB52D0403AD056CAF72A44E7F8BF92E62715C16
311
A8812760FDB15EB443A7AB022A44ADD524CB14EE23B788B49CADF5A2594B82462AB21D43DB44DA9D3CA0AD1F885A02540ACF595C501EEF18E765BA8B194733DAA5243F03C7FFB73F28D37C47525166EA8CEE8EE9680E5DDB3BE42D9E890A1F5C7F533D7BB728BD118D0E61EE08EB567202AB4E6857EF87CBC9ECFDAC773B5B
311
AE7AD3E1D5B0379FAF6E7BD3D964BE5C5ECDE7D757933A4E46B9EFD59DA69DD088123A9B574A66C377BF46FAD81AE0FA774415DB4F263BEBE7FDBA8F51D81B600FDA65B3711E3D61ECA3D1CF151C244F2A5AA739A729CD14D12974A7FFF0EF046346C718B3BE4E49422FD0F2F5D3E6C819AC5CB0EF9B4E77FA7CB4D7AE2E74
311
429E54A21ECA34C808E3471B1383643FCF128B5F1D93E669FA4CFDAADF6C6030981682B308653072122A52AA500C2FE84132A505A8D71EE9237BF5B860F7931910150938AD2D792098917981B400B5CA5075D79DDF30D3E9B1EAC645B7ED3FE2C7560AD701676E5CCCE88A85B4E807E8CF7A12AA94834BED411E733FC9128E
311
51DB6C6ADE9B5D1A9B4E476E442E199FAC5FA6825B075046728C0D9887109DCA18DFAB6CB3DFC3FFE4786D8E4314FE06A56A7C392C34CE54C720458D53F6B28019E6D11EBD47A2BEEDD6A85FC97410B9E892F526098CD69E2232A92E0ADA3E6BD27CF96D8001C5597F75725E2688E5E59A7A9282CCA54E70B008ACB03A73A2
311
40D5C59FDB6F52E0229B3A2B060A38BFEFAFAFFED82E449A8ACC2C6DE7F63AEC6C1E70B98DB6280E54DF4A8AED78381A6FABDB80BDA0EC0252D03E898A472C20B292354077C20F5E9A2B23FA90F9D0C80D74288E18BA5E3AB6B14DA1D4D2A55D5B3538983B32EA2087F48D52674C5B207FF34230A8446182C428EFFF0B504B
311
03041400060800007145E242000000000000000000000000350000006662782F34354632374542392D414431412D344245452D423543382D3739304135363636434243452F76657274696365732E62696E504B03041400060808007145E242F270F1330600000004000000360000006662782F34354632374542392D414431
311
412D344245452D423543382D3739304135363636434243452F747269616E676C65732E62696E636660600000504B03041400060800007145E242000000000000000000000000370000006662782F34354632374542392D414431412D344245452D423543382D3739304135363636434243452F617474726962757465732E62
311
696E504B03041400060808007145E242D5987DFC8F00000041010000360000006662782F34354632374542392D414431412D344245452D423543382D3739304135363636434243452F6469726563746F72792E786D6C858F410EC2201045AF4266AF15DDB800BA74E7C21B903225242D6328188F2FA5C4183471359997F9FF
311
81E89FF3C41E1816475E02DF1F80A11FC8386F25A438EECEC07A250251FC3803E6F58C12560C4AD840E95E91C151A72936F496F35732D860FE635F62C8F2DA16B505C545B74125BAA2FA9E05D7CC053D063734D5C7665FD55B6B8D15D5E9BFEAFD8490FFA45E504B03041400060808007145E242214A9E71FF000000A00100
311
003B0000006662782F34354632374542392D414431412D344245452D423543382D3739304135363636434243452F7265736F75726365732F636F72652E786D6C8D50596E833010BD0A9ADFCA609634041947903427E8052C33A156828DBC543D7EED844AED5F7F66466FD13C3D76FC5AEED9275AA78CEEA1CC2964A8A59994
311
9E7B08FE4A5AC88E9C5963FC2F19645A2CD8438281B3D99AB06E9034DAA3F611D566C20D14CEA1874CDEE3D183931FB8885C041F15EE96AF42DEC48C7999473AEA3873DEC600D9F3499AC02D3A13AC44C78A27CB59086ADA346A8A3FD555A105FE360EEDE1DC34E4F07AA1A469C713199B6124D5F9B41F4E23DD3597332B92
311
9933AF969F8CD2A2F03801AF685913BA27B47AA76DD7D45DBD7BA1BBAEA6AC48F23FA6B04EFF3405A57D5D6D719F3607BC8C411E046745EA2BAE479971A76EF937504B010214000A00000800007145E2423DEE336E79000000790000001B00000000000000000000000000000000006175746F6465736B2D64657369676E2D
311
7061636B6167652E786D6C504B010214001400060808007145E242D486FD9CA0000000F40000001300000000000000000000000000B20000005B436F6E74656E745F54797065735D2E786D6C504B010214001400060808007145E24232E1B0E9EC0000007C010000080000000000000000000000000083010000636F72652E
311
786D6C504B010214001400060808007145E24255019EA25F0000007C000000070000000000000000000000000095020000636E782E786D6C504B010214001400060808007145E2424775628468010000020300000C00000000000000000000000000190300006662782F636F72652E786D6C504B0102140014000608080071
311
45E2425AAB1D607E0000009D0000000B00000000000000000000000000AB0400006662782F636E782E786D6C504B010214001400060808007145E24253328C162D010000150200003100000000000000000000000000520500006662782F34354632374542392D414431412D344245452D423543382D373930413536363643
311
4243452F636F72652E786D6C504B010214001400060808007145E2427C9639264F010000330300003000000000000000000000000000CE0600006662782F34354632374542392D414431412D344245452D423543382D3739304135363636434243452F636E782E786D6C504B010214001400060808007145E242D801C5E7A4
311
0500008010000034000000000000000000000000006B0800006662782F34354632374542392D414431412D344245452D423543382D3739304135363636434243452F6F626A656374732E786D6C504B010214001400060800007145E2420000000000000000000000003500000000000000000000000000610E00006662782F
311
34354632374542392D414431412D344245452D423543382D3739304135363636434243452F76657274696365732E62696E504B010214001400060808007145E242F270F13306000000040000003600000000000000000000000000B40E00006662782F34354632374542392D414431412D344245452D423543382D37393041
311
35363636434243452F747269616E676C65732E62696E504B010214001400060800007145E24200000000000000000000000037000000000000000000000000000E0F00006662782F34354632374542392D414431412D344245452D423543382D3739304135363636434243452F617474726962757465732E62696E504B0102
311
14001400060808007145E242D5987DFC8F000000410100003600000000000000000000000000630F00006662782F34354632374542392D414431412D344245452D423543382D3739304135363636434243452F6469726563746F72792E786D6C504B010214001400060808007145E242214A9E71FF000000A00100003B0000
311
0000000000000000000000461000006662782F34354632374542392D414431412D344245452D423543382D3739304135363636434243452F7265736F75726365732F636F72652E786D6C504B0506000000000E000E00800400009E1100000000
310
504B03040A00000800007145E2423DEE336E79000000790000001B0000006175746F6465736B2D64657369676E2D7061636B6167652E786D6C3C3F786D6C2076657273696F6E3D22312E302220656E636F64696E673D227574662D3822203F3E3C666F726D6174733E3C666F726D61743E687474703A2F2F736368656D612E
310
6175746F6465736B2E636F6D2F64657369676E2D7061636B6167652F323030393C2F666F726D61743E3C2F666F726D6174733E504B03041400060808007145E242D486FD9CA0000000F4000000130000005B436F6E74656E745F54797065735D2E786D6C7D8EC10E82300C865F65E91D8A1E8C310C0EEA1BF002731658846E
310
D98AC1B77784ABF1D8FE5FBFBF75BBCE937A534CCEB38643598122B6FEE978D0B0485F9C41B54DDD7D022595594E1A469170414C76A4D9A4D207E29CF43ECE46F218070CC6BECC4078ACAA135ACF422C856C0E68EA1BF5669944DDD7BCDE7B1F8E415D77AECB980613C2E4AC91FC167A2B244592486606FC29C8FD7F045B9A
310
EF7053A7E60B504B03041400060808007145E242A95B7FDCEC0000007C01000008000000636F72652E786D6C8D90D16E842010457F85F0DAA0286B15836C34AB5FD01F20C05AB22B1881A69F5FDC7593F6AD4F33B973CFCCE4B2F3F772075F7AF3C6D90E161986405BE994B1730763B8A2068233679B73E1970D022B16DDC1
310
5D869CCD9B8BEB21496783B621A9D6297D88C27B1D2090F7D474D0CB4FBD884CC4901CFE96AD42DEC4ACB3E2D5253846A3C0F38851699FB91ABD413E0E977298FA09615AF4E8444A8A68D35768982E3D1D475AD7EF94E53BCC5930CBEBBEDCB4085A415EE282205C235C7EE0A63D9196546FB86A0966F96EFF03C555FD138A
310
C606521EEF3E310F79911E790C38CBF72C52790495EA9E1BFF01504B03041400060808007145E24255019EA25F0000007C00000007000000636E782E786D6C4DCB3B0E80201045D1AD90E915ED2CF8AC45050C11660C8261F98AB1B07AC9C97D42D718D865D3E909258CFD00CCE24AC6E326A164D74DC0B4128928FF326038
310
472BA13128B1252AC747C6BAB984FC68F0B87FE8960A5C09FE86CFB69FBA01504B03041400060808007145E2427CDB431868010000020300000C0000006662782F636F72652E786D6C8D52ED8E8230107C95A67F2FA505F414536A30EA13DC0B54A81C115A525AE2E3DFF261382FC65C484A33B3B33B3BC0F7F7A646BDB25D
310
65748AC38061A4746E8A4A9729F6EE4AB618ED05B7C6B85F651869D9A8140F3016BCB4C6B733941BED9476806A53A819945DA71C46790D971477F9B76A6420BD838AEE16B432BFC95205610034D409DE390B06D0346438B1B85EEE9C4EB8E0DE57C5CC56054CABAE95B2589C0EC7E870CECE8425614656719490649BADC9E1
310
7CCC92D329D96C3E134E07B1E0AE6A1EEE72ABA4530516110B63C23684455F6CBB5BC5BB78FDC1D6BB98713A943F897C5BFC53E42BEDE268B63BC93A2C423032127FB685881CEA640F7EA8E07408115E63C2CF41432010B29397FAB1C70DA05EE5CED8153085F10BD5CBDA2B98CAD0F8703AB1D0796C009BBDEC13BDE9F3BE
310
077C40A94BB0261D5C2FDE0DD3F934758EA25596F4EE8EB4B18DAC177393C5E55C06BD94E7A636F63F6A3AAF4AE730E9F0F78A1F504B03041400060808007145E24270EDCA9C7E0000009D0000000B0000006662782F636E782E786D6C4DCCD10E82201886E15B61FF390942641BE0B4F43E5CA263223482D6E5A7CD838EBE
310
EDD9B757D69FD5A1B7892F1BBC027A22808C7F84D1FA59414E13AE00D55AC610D2DF0D901F56A36067D0728E213F0F1ACD3464973675D62F07B2FBA5E48CF69874ED157342056EFAAAC382B74DC96E4288338142CBE257DA760FEB2F504B03041400060808007145E242A4EABFA02D01000015020000310000006662782F33
310
443732343331462D304542392D343031362D414638452D3634424132334336363635302F636F72652E786D6C8D515B6EC32010BC8AC557ABCA36363671224C94B4C9097A0107488A1283C5A3CAF1BBD48ED4FEE58745B333B3A35DB6BD8FB7EC5B39AFADE9515560942923ACD4E6D2A318CE7987B22D67CEDAF0878632338C
310
AA4709469C5D9C8DD302096B8232015063A55AC0C17B1550266EF0E991175F6A1C8A210660F86B310DE23A5C545115D0061E673E380890CD43D28B38F958D50DA98E393EECD779832B9AEF8EDD21A7CD7E5793774A698B59390B398B51CB45AE25C4D167ADDCB32649CC59D0E323BE706A084A225EE38AE47895E3FA13779B
310
866C48FB86DB0D81C989FE4F1427F9A4286A1348BDC49D651EF18A9573833369E3E9F608A3EE9375214BF35EBC12AF88E302E36E45D64DDBB172E6C206C094368BA90FD6C1865FAE27A093C599369C95E948507E2F08351D94FF00504B03041400060808007145E2421A31F6315601000033030000300000006662782F3344
310
3732343331462D304542392D343031362D414638452D3634424132334336363635302F636E782E786D6CBD93CD6EC23010845FC5F2B5CA1F091421C7483DF4097AE8D5B1177049ECC83F5579FBAEC1502E1C2A55BD58D1EC7866F5C961DBAF69249FE0BCB6A6A74D595302465AA5CDBEA731EC8A35255BCE9CB5E1CE468911
310
13F434C994B3BDB371CE92829D88634075D4E6984507DE4627C1A39C6E92D14A3162009822A208D3004A812237237EEDC0E12A280E27120E405E5FDE891D3E4006CFAA94C259953A384B676EBA33512247E17D4FBD3CC0244A118355E08FA51241944D79ED7AB0D34F124917AE95D16992CA7B9A4ECAF346257264150E39F3
310
C121BD6C0AA7192817F33C6A290242AECEC68B87B3A84D5875D9AB11BC4377BB58ADD718769E7116F404D9211D88008AF245DDB445FD5CD48BB77ABDE9DA4DBB7CAA979BB66655B27336583BE64B1803CECE445A13C004CA1B56A5F1237CD9479476C8DABAD32F402280DC7AA173CBF84B3ECDAAEDBA7FE4539DDF37E272F8
310
17F06F504B03041400060808007145E242AD4E7F0B62070000991B0000340000006662782F33443732343331462D304542392D343031362D414638452D3634424132334336363635302F6F626A656374732E786D6CED595B739B3814FE2B0CFBB2FB606C62278D77081D27DE743C9DB49D7ADBD907CF3032C8441B211849E4
310
B2BF7E8F2E602026C1DBEC5B1F6C404847E77CE7AA43F0FE31A3CE3DE682E4ECC2F5BD89EB6016E70961E9855BCADDE8DC75DE8701CF73D998E63A0C65F8C255C36E18A43C2F0B3B94E01D2AA9EC8C5E5FFEE5881833EC3A3145425CB822BEC519F25029F3048B3B2F411279E9EED1F33D33B14D36E5A8B8ED102D10C74C02
310
A730CE808A6398F2DB8F13771C0663F53E0CD4BF9D351D346BD63F6BACA56E7349989088C5CF58EA90990E6269EACF967F9C9CCE47A7B3D974343B3BF14797D797CB91FF6E3AB93ABBBA9A2FFE98037BDB3CA756A604179825A0BF2737F483B17A538B6E1138C4759C3386630D2440A5C5EA122458C0560DF826ED475F49D4
310
78AD256C3CCFD47BCB426378DAA6D2376B18102DBA2088DDAE92B8BA36E5CBB77F83E0628851728125702B2407ED5A783878851B4E82B1190D83ED5E17443819929813441D4AB61C71500A4C5553C2C02CB06494737020E52809B4E6CCEBB66D8167BEEE3A87B8DC95942ACF7043ED5811B81F96427346FEC17CCF7D1319E0
310
09A42D0993E7964BF95460379C07633D1806EA323DB12F0D90CE8EA2546844CCDB8EA057CAF5574B37FC78BD7D5CAB707078F382E705E652199DD2A3E60B0CD95E154A765B7F90E6D40210C6806A57EE41F90AC87F82E8B16705F4C6C9E3EC7166E74A8E98D8E53C03DD3813673481BF89E3EB7F75DFB80BC6F5E2B6F6FAF0
310
043755509DFF389E6D19345696FF069C61700F069FF3A97DB58E11057BBE210C005246E2D01C8620B4EFB68F6EB882C009811E56211AFA2032B07B0FB7C1D892D96BA5722FEB750C10B57B4C87280960D316096CF4E8E903640F4EE2BD9A9A22F6C17BFA26E6BA58AE3FAE4BBE4331BEB13EBDC43BC28884AC7998A116E62D
310
89EEF0D343CE1310F439DEEB26DE99DD4A00DA0A73057C5A81A01EF63BB73688615D9AAB7013BCB20308A1727583FE0D1131A614319C97D5BE757453865A7BBCAD19DCF0C4403C3DE99830C7F7445515E034FB192D4621EFC79C140A4437FC6024AB83A6D723DDB7D527B0C87A7ECFAC1583D0CB10FD5307AD0338B42CBB42
310
DA02510BBCDD87F338A7398FB64F9189742ED412C046DB5BBEB78842AC374A5254C083B4DF55212535D24609D9ED4A0171F5008BDF57574D73987853FFD469FE779C7106D1167C1771EB779D3D2292A114473B94F46DD7DCADA62D34C91ED21CEF28C845EE897C8A908C26094E8F81E628E2F337A59ED25C08C2B0807C7510
310
FC261A130F0289D166C5B2D26A076822A20C4B448F414091E90157A71D5DE3C6503ABCCE636DBD2F69AC49F47FB2088EA096CC5944A014851CF22AE3BE770A31A48DAE41B9832F585B455B8B414B2821E2A7E80193F4561E83BA21DF837B0C4792524679816230EB01649FF98A526A87F72D8AEF54FE88E292BE9581084C77
310
11A1B4CC22F81106278F21AE5D07A61751681037B14FE20C8A32244B3E6493B3D3C9B37D4CCDD00D818D8D768442D88E3254F4A0DE0A88BA1E716AF02DF51EA56ECBAC885096976C90A178D3AE3759F25DB52AB203F955A522948D15614B300C08937556AD623698BA0EACE0463A503D4502650535A7B057128F5F7B93A6DC
310
BB01B77EFAB61B6450F8F568AF195167150C96C75661201E908C6FDD70ADAFA34BA8BF139CEC537D556B362B40404C45F29213ABA26F2B286F6C8DE68637488ACD079375ABEBB79507DD8F600C6BA076A917AE14D0196612A9CAE446DDD0AF0842708B86195FA99C7A0C954592E8AA11D16BD2A7CE5619D1DA34235E718B59
310
9EC18F6D088B6999E00D4AC45D742369B4268A752BA597910AE31705FCFC61DD8107460688F4451578F8A1B3D68E5EA972E92011795B665B860804C19668A9D18D57B0D46AA4D2727D55670AA8BBC0C0AC8A673F4F16CD76C4CF93456A0DE3C74E1634DF22BA8F368D6C1E2BB33EEA1450A72745E52D4E01BAEB5053AD9388
310
C9E5567CEB4B11C4C42AC80F2EC6AA986108F671FC9F93765F1234DB75F83F2E69FBCF0A8EA3924A6BB26A521D285C57CD1476FD6EB29CCEDFCD4797F3E5F56836399B8C168BEBCBD16C3E5D2C97678BC5F9D9BE8AD07E1A06752CD3A90B9E4D4CAB86D593C5009AB222A72481C37CE2A41842BE8423FD80EE39CFB080DCD9
310
EC7527B6273F60F5BD69734AB4A5B8E2E416417F980AC8EA805119CBF6B8F30B7426259CB32F5CE8197977F067ADD27520F15CB8D0299024C6C2DB429749F5F33471C8B83AF55B62800F62A9CA886651FD5CAF52D8B4A27F3D654816B072B55A1850B715D0FC6A3528346F96A7F828C12B761C24E1765B4A28D68C2CFB815A
310
18BDCD5EFD46364AD89DDDFA115CF765B17C4FCF692132E88BC18B4660A88E24E2A96E772BC62C4B8BE59731B4D99CD567A7A0650ABA1C4E69C4311873A9EA29B022B00A4BB340124CF5EAF7CD179EC3179ECCD14591F3EBE3F9D96F9BAB3CCB726686360B389425F09DC859DFC2579F6403B50356BD75B13999F8271BDDD3
310
B66DF6688B04F654510403552DA104E9981CD8E5B3FE94ED5E8E952A3AD3574BC70651E805183B7AD6E235DFB81CF021F53545798CF6F34ADA17DBDA633D156C8243433AFC17504B03041400060800007145E242000000000000000000000000350000006662782F33443732343331462D304542392D343031362D41463845
310
2D3634424132334336363635302F76657274696365732E62696E504B03041400060808007145E242F270F1330600000004000000360000006662782F33443732343331462D304542392D343031362D414638452D3634424132334336363635302F747269616E676C65732E62696E636660600000504B030414000608000071
310
45E242000000000000000000000000370000006662782F33443732343331462D304542392D343031362D414638452D3634424132334336363635302F617474726962757465732E62696E504B03041400060808007145E242D5987DFC8F00000041010000360000006662782F33443732343331462D304542392D343031362D
310
414638452D3634424132334336363635302F6469726563746F72792E786D6C858F410EC2201045AF4266AF15DDB800BA74E7C21B903225242D6328188F2FA5C4183471359997F9FF81E89FF3C41E1816475E02DF1F80A11FC8386F25A438EECEC07A250251FC3803E6F58C12560C4AD840E95E91C151A72936F496F35732D8
310
60FE635F62C8F2DA16B505C545B74125BAA2FA9E05D7CC053D063734D5C7665FD55B6B8D15D5E9BFEAFD8490FFA45E504B03041400060808007145E242C1B122EDFE000000A00100003B0000006662782F33443732343331462D304542392D343031362D414638452D3634424132334336363635302F7265736F7572636573
310
2F636F72652E786D6C8D504B6E833010BD0A9A6D6530109A808C2350C8097A01CB4C889560237FAA1EBF2650A9DD7533337A1FCDD363E7AFF9997CA275CAE816F29442825A9A51E9A985E06FE404C999336B8CFF2583448B195B5861E06CB2262C3B248DF6A87D44B51971078573E82191CF78B4E0E41D67918AE0A3C23DD2
310
45C8879830CDD348471D67CEDB1820D99EAC13B845678295E858B6B19C85A0C65DA3C6F853DD145AE0437F29FA6B37105AE71D3994454DEA535791FE7AE9EA61A88FC7F79A65AB9933AFE69F8CD2A2F038022F685E127A24B4F8A0A7E6503665F546ABA6A42C5BE57F4C6119FF690A4AFBB2D8E36E36073C8F415E0467D9DA
310
575CAF32E35EBBE5DF504B010214000A00000800007145E2423DEE336E79000000790000001B00000000000000000000000000000000006175746F6465736B2D64657369676E2D7061636B6167652E786D6C504B010214001400060808007145E242D486FD9CA0000000F40000001300000000000000000000000000B20000
310
005B436F6E74656E745F54797065735D2E786D6C504B010214001400060808007145E242A95B7FDCEC0000007C010000080000000000000000000000000083010000636F72652E786D6C504B010214001400060808007145E24255019EA25F0000007C000000070000000000000000000000000095020000636E782E786D6C
310
504B010214001400060808007145E2427CDB431868010000020300000C00000000000000000000000000190300006662782F636F72652E786D6C504B010214001400060808007145E24270EDCA9C7E0000009D0000000B00000000000000000000000000AB0400006662782F636E782E786D6C504B01021400140006080800
310
7145E242A4EABFA02D010000150200003100000000000000000000000000520500006662782F33443732343331462D304542392D343031362D414638452D3634424132334336363635302F636F72652E786D6C504B010214001400060808007145E2421A31F63156010000330300003000000000000000000000000000CE06
310
00006662782F33443732343331462D304542392D343031362D414638452D3634424132334336363635302F636E782E786D6C504B010214001400060808007145E242AD4E7F0B62070000991B00003400000000000000000000000000720800006662782F33443732343331462D304542392D343031362D414638452D363442
310
4132334336363635302F6F626A656374732E786D6C504B010214001400060800007145E2420000000000000000000000003500000000000000000000000000261000006662782F33443732343331462D304542392D343031362D414638452D3634424132334336363635302F76657274696365732E62696E504B0102140014
310
00060808007145E242F270F13306000000040000003600000000000000000000000000791000006662782F33443732343331462D304542392D343031362D414638452D3634424132334336363635302F747269616E676C65732E62696E504B010214001400060800007145E242000000000000000000000000370000000000
310
0000000000000000D31000006662782F33443732343331462D304542392D343031362D414638452D3634424132334336363635302F617474726962757465732E62696E504B010214001400060808007145E242D5987DFC8F000000410100003600000000000000000000000000281100006662782F33443732343331462D30
310
4542392D343031362D414638452D3634424132334336363635302F6469726563746F72792E786D6C504B010214001400060808007145E242C1B122EDFE000000A00100003B000000000000000000000000000B1200006662782F33443732343331462D304542392D343031362D414638452D3634424132334336363635302F
310
7265736F75726365732F636F72652E786D6C504B0506000000000E000E0080040000621300000000
  0
XRECORD
  5
27
102
{ACAD_REACTORS
330
22
102
}
330
22
100
AcDbXrecord
280
     1
270
     1
271
     1
  0
XRECORD
  5
26
102
{ACAD_REACTORS
330
22
102
}
330
22
100
AcDbXrecord
280
     1
270
     1
271
     1
  0
XRECORD
  5
28
102
{ACAD_REACTORS
330
22
102
}
330
22
100
AcDbXrecord
280
     1
270
     1
271
     1
  0
XRECORD
  5
25
102
{ACAD_REACTORS
330
22
102
}
330
22
100
AcDbXrecord
280
     1
270
     1
271
     1
  0
XRECORD
  5
E60
102
{ACAD_REACTORS
330
E5F
102
}
330
E5F
100
AcDbXrecord
280
     1
102
ACAD_ROUNDTRIP_2012_MLEADER_STYLE
298
     1
  0
CELLSTYLEMAP
  5
E5E
102
{ACAD_REACTORS
330
E5D
102
}
330
E5D
100
AcDbCellStyleMap
 90
        3
300
CELLSTYLE
  1
TABLEFORMAT_BEGIN
 90
        5
170
     1
 91
        0
 92
    32768
 62
   257
 93
        1
300
CONTENTFORMAT
  1
CONTENTFORMAT_BEGIN
 90
        0
 91
        0
 92
      512
 93
        0
300

 40
0.0
140
1.0
 94
        5
 62
     0
340
55
144
0.25
309
CONTENTFORMAT_END
171
     0
 94
        0
309
TABLEFORMAT_END
  1
CELLSTYLE_BEGIN
 90
        1
 91
        1
300
_TITLE
309
CELLSTYLE_END
300
CELLSTYLE
  1
TABLEFORMAT_BEGIN
 90
        5
170
     1
 91
        0
 92
        0
 62
   257
 93
        1
300
CONTENTFORMAT
  1
CONTENTFORMAT_BEGIN
 90
        0
 91
        0
 92
      512
 93
        0
300

 40
0.0
140
1.0
 94
        5
 62
     0
340
55
144
0.18
309
CONTENTFORMAT_END
171
     0
 94
        0
309
TABLEFORMAT_END
  1
CELLSTYLE_BEGIN
 90
        2
 91
        1
300
_HEADER
309
CELLSTYLE_END
300
CELLSTYLE
  1
TABLEFORMAT_BEGIN
 90
        5
170
     1
 91
        0
 92
        0
 62
   257
 93
        1
300
CONTENTFORMAT
  1
CONTENTFORMAT_BEGIN
 90
        0
 91
        0
 92
      512
 93
        0
300

 40
0.0
140
1.0
 94
        2
 62
     0
340
55
144
0.18
309
CONTENTFORMAT_END
171
     0
 94
        0
309
TABLEFORMAT_END
  1
CELLSTYLE_BEGIN
 90
        3
 91
        2
300
_DATA
309
CELLSTYLE_END
  0
XRECORD
  5
E97
102
{ACAD_REACTORS
330
E5D
102
}
330
E5D
100
AcDbXrecord
280
     1
102
ACAD_ROUNDTRIP_PRE2007_TABLESTYLE
 90
      512
 91
        0
  1

 92
      512
 93
        0
  2

 94
      512
 95
        0
  3

  0
XRECORD
  5
E72
102
{ACAD_REACTORS
330
E71
102
}
330
E71
100
AcDbXrecord
280
     1
102
RTVSPropertyOp0
 70
     1
102
RTVSPropertyOp1
 70
     1
102
RTVSPropertyOp2
 70
     1
102
RTVSPropertyOp3
 70
     1
102
RTVSPropertyOp4
 70
     1
102
RTVSPropertyOp5
 70
     1
102
RTVSPropertyOp6
 70
     1
102
RTVSPropertyOp7
 70
     1
102
RTVSPropertyOp8
 70
     1
102
RTVSPropertyOp9
 70
     1
102
RTVSPropertyOp10
 70
     1
102
RTVSPropertyOp11
 70
     1
102
RTVSPropertyOp12
 70
     1
102
RTVSPropertyOp13
 70
     1
102
RTVSPropertyOp14
 70
     1
102
RTVSPropertyOp15
 70
     1
102
RTVSPropertyOp16
 70
     1
102
RTVSPropertyOp17
 70
     1
102
RTVSPropertyOp18
 70
     1
102
RTVSPropertyOp19
 70
     1
102
RTVSPropertyOp20
 70
     1
102
RTVSPropertyOp21
 70
     1
102
RTVSPropertyOp22
 70
     1
102
RTVSPropertyOp23
 70
     1
102
RTVSPropertyOp24
 70
     1
102
RTVSPropertyOp25
 70
     1
102
RTVSPropertyOp26
 70
     1
102
RTVSPropertyOp27
 70
     1
102
RTVSPropertyOp28
 70
     1
102
RTVSPropertyOp29
 70
     1
102
RTVSPropertyOp30
 70
     1
102
RTVSPropertyOp31
 70
     1
102
RTVSPropertyOp32
 70
     1
  0
XRECORD
  5
E70
102
{ACAD_REACTORS
330
E6F
102
}
330
E6F
100
AcDbXrecord
280
     1
102
RTVSPropertyOp0
 70
     1
102
RTVSPropertyOp1
 70
     1
102
RTVSPropertyOp2
 70
     1
102
RTVSPropertyOp3
 70
     1
102
RTVSPropertyOp4
 70
     1
102
RTVSPropertyOp5
 70
     1
102
RTVSPropertyOp6
 70
     1
102
RTVSPropertyOp7
 70
     1
102
RTVSPropertyOp8
 70
     1
102
RTVSPropertyOp9
 70
     1
102
RTVSPropertyOp10
 70
     1
102
RTVSPropertyOp11
 70
     1
102
RTVSPropertyOp12
 70
     1
102
RTVSPropertyOp13
 70
     1
102
RTVSPropertyOp14
 70
     1
102
RTVSPropertyOp15
 70
     1
102
RTVSPropertyOp16
 70
     1
102
RTVSPropertyOp17
 70
     1
102
RTVSPropertyOp18
 70
     1
102
RTVSPropertyOp19
 70
     1
102
RTVSPropertyOp20
 70
     1
102
RTVSPropertyOp21
 70
     1
102
RTVSPropertyOp22
 70
     1
102
RTVSPropertyOp23
 70
     1
102
RTVSPropertyOp24
 70
     1
102
RTVSPropertyOp25
 70
     1
102
RTVSPropertyOp26
 70
     1
102
RTVSPropertyOp27
 70
     1
102
RTVSPropertyOp28
 70
     1
102
RTVSPropertyOp29
 70
     1
102
RTVSPropertyOp30
 70
     1
102
RTVSPropertyOp31
 70
     1
102
RTVSPropertyOp32
 70
     1
  0
XRECORD
  5
E7E
102
{ACAD_REACTORS
330
E7D
102
}
330
E7D
100
AcDbXrecord
280
     1
102
RTVSPropertyOp0
 70
     1
102
RTVSPropertyOp1
 70
     1
102
RTVSPropertyOp2
 70
     1
102
RTVSPropertyOp3
 70
     1
102
RTVSPropertyOp4
 70
     1
102
RTVSPropertyOp5
 70
     1
102
RTVSPropertyOp6
 70
     1
102
RTVSPropertyOp7
 70
     1
102
RTVSPropertyOp8
 70
     1
102
RTVSPropertyOp9
 70
     1
102
RTVSPropertyOp10
 70
     1
102
RTVSPropertyOp11
 70
     1
102
RTVSPropertyOp12
 70
     1
102
RTVSPropertyOp13
 70
     1
102
RTVSPropertyOp14
 70
     1
102
RTVSPropertyOp15
 70
     1
102
RTVSPropertyOp16
 70
     1
102
RTVSPropertyOp17
 70
     1
102
RTVSPropertyOp18
 70
     1
102
RTVSPropertyOp19
 70
     1
102
RTVSPropertyOp20
 70
     1
102
RTVSPropertyOp21
 70
     1
102
RTVSPropertyOp22
 70
     1
102
RTVSPropertyOp23
 70
     1
102
RTVSPropertyOp24
 70
     1
102
RTVSPropertyOp25
 70
     1
102
RTVSPropertyOp26
 70
     1
102
RTVSPropertyOp27
 70
     1
102
RTVSPropertyOp28
 70
     1
102
RTVSPropertyOp29
 70
     1
102
RTVSPropertyOp30
 70
     1
102
RTVSPropertyOp31
 70
     1
102
RTVSPropertyOp32
 70
     1
  0
XRECORD
  5
E86
102
{ACAD_REACTORS
330
E85
102
}
330
E85
100
AcDbXrecord
280
     1
102
RTVSPropertyOp0
 70
     1
102
RTVSPropertyOp1
 70
     1
102
RTVSPropertyOp2
 70
     1
102
RTVSPropertyOp3
 70
     1
102
RTVSPropertyOp4
 70
     1
102
RTVSPropertyOp5
 70
     1
102
RTVSPropertyOp6
 70
     1
102
RTVSPropertyOp7
 70
     1
102
RTVSPropertyOp8
 70
     1
102
RTVSPropertyOp9
 70
     1
102
RTVSPropertyOp10
 70
     1
102
RTVSPropertyOp11
 70
     1
102
RTVSPropertyOp12
 70
     1
102
RTVSPropertyOp13
 70
     1
102
RTVSPropertyOp14
 70
     1
102
RTVSPropertyOp15
 70
     1
102
RTVSPropertyOp16
 70
     1
102
RTVSPropertyOp17
 70
     1
102
RTVSPropertyOp18
 70
     1
102
RTVSPropertyOp19
 70
     1
102
RTVSPropertyOp20
 70
     1
102
RTVSPropertyOp21
 70
     1
102
RTVSPropertyOp22
 70
     1
102
RTVSPropertyOp23
 70
     1
102
RTVSPropertyOp24
 70
     1
102
RTVSPropertyOp25
 70
     1
102
RTVSPropertyOp26
 70
     1
102
RTVSPropertyOp27
 70
     1
102
RTVSPropertyOp28
 70
     1
102
RTVSPropertyOp29
 70
     1
102
RTVSPropertyOp30
 70
     1
102
RTVSPropertyOp31
 70
     1
102
RTVSPropertyOp32
 70
     1
  0
XRECORD
  5
E78
102
{ACAD_REACTORS
330
E77
102
}
330
E77
100
AcDbXrecord
280
     1
102
RTVSPropertyOp0
 70
     1
102
RTVSPropertyOp1
 70
     1
102
RTVSPropertyOp2
 70
     1
102
RTVSPropertyOp3
 70
     1
102
RTVSPropertyOp4
 70
     1
102
RTVSPropertyOp5
 70
     1
102
RTVSPropertyOp6
 70
     1
102
RTVSPropertyOp7
 70
     1
102
RTVSPropertyOp8
 70
     1
102
RTVSPropertyOp9
 70
     1
102
RTVSPropertyOp10
 70
     1
102
RTVSPropertyOp11
 70
     1
102
RTVSPropertyOp12
 70
     1
102
RTVSPropertyOp13
 70
     1
102
RTVSPropertyOp14
 70
     1
102
RTVSPropertyOp15
 70
     1
102
RTVSPropertyOp16
 70
     1
102
RTVSPropertyOp17
 70
     1
102
RTVSPropertyOp18
 70
     1
102
RTVSPropertyOp19
 70
     1
102
RTVSPropertyOp20
 70
     1
102
RTVSPropertyOp21
 70
     1
102
RTVSPropertyOp22
 70
     1
102
RTVSPropertyOp23
 70
     1
102
RTVSPropertyOp24
 70
     1
102
RTVSPropertyOp25
 70
     1
102
RTVSPropertyOp26
 70
     1
102
RTVSPropertyOp27
 70
     1
102
RTVSPropertyOp28
 70
     1
102
RTVSPropertyOp29
 70
     1
102
RTVSPropertyOp30
 70
     1
102
RTVSPropertyOp31
 70
     1
102
RTVSPropertyOp32
 70
     1
  0
XRECORD
  5
E7C
102
{ACAD_REACTORS
330
E7B
102
}
330
E7B
100
AcDbXrecord
280
     1
102
RTVSPropertyOp0
 70
     1
102
RTVSPropertyOp1
 70
     1
102
RTVSPropertyOp2
 70
     1
102
RTVSPropertyOp3
 70
     1
102
RTVSPropertyOp4
 70
     1
102
RTVSPropertyOp5
 70
     1
102
RTVSPropertyOp6
 70
     1
102
RTVSPropertyOp7
 70
     1
102
RTVSPropertyOp8
 70
     1
102
RTVSPropertyOp9
 70
     1
102
RTVSPropertyOp10
 70
     1
102
RTVSPropertyOp11
 70
     1
102
RTVSPropertyOp12
 70
     1
102
RTVSPropertyOp13
 70
     1
102
RTVSPropertyOp14
 70
     1
102
RTVSPropertyOp15
 70
     1
102
RTVSPropertyOp16
 70
     1
102
RTVSPropertyOp17
 70
     1
102
RTVSPropertyOp18
 70
     1
102
RTVSPropertyOp19
 70
     1
102
RTVSPropertyOp20
 70
     1
102
RTVSPropertyOp21
 70
     1
102
RTVSPropertyOp22
 70
     1
102
RTVSPropertyOp23
 70
     1
102
RTVSPropertyOp24
 70
     1
102
RTVSPropertyOp25
 70
     1
102
RTVSPropertyOp26
 70
     1
102
RTVSPropertyOp27
 70
     1
102
RTVSPropertyOp28
 70
     1
102
RTVSPropertyOp29
 70
     1
102
RTVSPropertyOp30
 70
     1
102
RTVSPropertyOp31
 70
     1
102
RTVSPropertyOp32
 70
     1
  0
XRECORD
  5
E96
102
{ACAD_REACTORS
330
E95
102
}
330
E95
100
AcDbXrecord
280
     1
102
RTVSPropertyOp0
 70
     0
102
RTVSPropertyOp1
 70
     0
102
RTVSPropertyOp2
 70
     0
102
RTVSPropertyOp3
 70
     0
102
RTVSPropertyOp4
 70
     0
102
RTVSPropertyOp5
 70
     0
102
RTVSPropertyOp6
 70
     0
102
RTVSPropertyOp7
 70
     0
102
RTVSPropertyOp8
 70
     0
102
RTVSPropertyOp9
 70
     0
102
RTVSPropertyOp10
 70
     0
102
RTVSPropertyOp11
 70
     0
102
RTVSPropertyOp12
 70
     0
102
RTVSPropertyOp13
 70
     0
102
RTVSPropertyOp14
 70
     2
102
RTVSPropertyOp15
 70
     0
102
RTVSPropertyOp16
 70
     0
102
RTVSPropertyOp17
 70
     0
102
RTVSPropertyOp18
 70
     0
102
RTVSPropertyOp19
 70
     0
102
RTVSPropertyOp20
 70
     0
102
RTVSPropertyOp21
 70
     0
102
RTVSPropertyOp22
 70
     0
102
RTVSPropertyOp23
 70
     0
102
RTVSPropertyOp24
 70
     0
102
RTVSPropertyOp25
 70
     0
102
RTVSPropertyOp26
 70
     0
102
RTVSPropertyOp27
 70
     0
102
RTVSPropertyOp28
 70
     1
102
RTVSPropertyOp29
 70
     1
102
RTVSPropertyOp30
 70
     1
102
RTVSPropertyOp31
 70
     1
102
RTVSPropertyOp32
 70
     1
  0
XRECORD
  5
E84
102
{ACAD_REACTORS
330
E83
102
}
330
E83
100
AcDbXrecord
280
     1
102
RTVSPropertyOp0
 70
     1
102
RTVSPropertyOp1
 70
     1
102
RTVSPropertyOp2
 70
     1
102
RTVSPropertyOp3
 70
     1
102
RTVSPropertyOp4
 70
     1
102
RTVSPropertyOp5
 70
     1
102
RTVSPropertyOp6
 70
     1
102
RTVSPropertyOp7
 70
     1
102
RTVSPropertyOp8
 70
     1
102
RTVSPropertyOp9
 70
     1
102
RTVSPropertyOp10
 70
     1
102
RTVSPropertyOp11
 70
     1
102
RTVSPropertyOp12
 70
     1
102
RTVSPropertyOp13
 70
     1
102
RTVSPropertyOp14
 70
     1
102
RTVSPropertyOp15
 70
     1
102
RTVSPropertyOp16
 70
     1
102
RTVSPropertyOp17
 70
     1
102
RTVSPropertyOp18
 70
     1
102
RTVSPropertyOp19
 70
     1
102
RTVSPropertyOp20
 70
     1
102
RTVSPropertyOp21
 70
     1
102
RTVSPropertyOp22
 70
     1
102
RTVSPropertyOp23
 70
     1
102
RTVSPropertyOp24
 70
     1
102
RTVSPropertyOp25
 70
     1
102
RTVSPropertyOp26
 70
     1
102
RTVSPropertyOp27
 70
     1
102
RTVSPropertyOp28
 70
     1
102
RTVSPropertyOp29
 70
     1
102
RTVSPropertyOp30
 70
     1
102
RTVSPropertyOp31
 70
     1
102
RTVSPropertyOp32
 70
     1
  0
XRECORD
  5
E68
102
{ACAD_REACTORS
330
E67
102
}
330
E67
100
AcDbXrecord
280
     1
102
RTVSPropertyOp0
 70
     1
102
RTVSPropertyOp1
 70
     1
102
RTVSPropertyOp2
 70
     1
102
RTVSPropertyOp3
 70
     1
102
RTVSPropertyOp4
 70
     1
102
RTVSPropertyOp5
 70
     1
102
RTVSPropertyOp6
 70
     1
102
RTVSPropertyOp7
 70
     1
102
RTVSPropertyOp8
 70
     1
102
RTVSPropertyOp9
 70
     1
102
RTVSPropertyOp10
 70
     1
102
RTVSPropertyOp11
 70
     1
102
RTVSPropertyOp12
 70
     1
102
RTVSPropertyOp13
 70
     1
102
RTVSPropertyOp14
 70
     1
102
RTVSPropertyOp15
 70
     1
102
RTVSPropertyOp16
 70
     1
102
RTVSPropertyOp17
 70
     1
102
RTVSPropertyOp18
 70
     1
102
RTVSPropertyOp19
 70
     1
102
RTVSPropertyOp20
 70
     1
102
RTVSPropertyOp21
 70
     1
102
RTVSPropertyOp22
 70
     1
102
RTVSPropertyOp23
 70
     1
102
RTVSPropertyOp24
 70
     1
102
RTVSPropertyOp25
 70
     1
102
RTVSPropertyOp26
 70
     1
102
RTVSPropertyOp27
 70
     1
102
RTVSPropertyOp28
 70
     1
102
RTVSPropertyOp29
 70
     1
102
RTVSPropertyOp30
 70
     1
102
RTVSPropertyOp31
 70
     1
102
RTVSPropertyOp32
 70
     1
  0
XRECORD
  5
E6A
102
{ACAD_REACTORS
330
E69
102
}
330
E69
100
AcDbXrecord
280
     1
102
RTVSPropertyOp0
 70
     1
102
RTVSPropertyOp1
 70
     1
102
RTVSPropertyOp2
 70
     1
102
RTVSPropertyOp3
 70
     1
102
RTVSPropertyOp4
 70
     1
102
RTVSPropertyOp5
 70
     1
102
RTVSPropertyOp6
 70
     1
102
RTVSPropertyOp7
 70
     1
102
RTVSPropertyOp8
 70
     1
102
RTVSPropertyOp9
 70
     1
102
RTVSPropertyOp10
 70
     1
102
RTVSPropertyOp11
 70
     1
102
RTVSPropertyOp12
 70
     1
102
RTVSPropertyOp13
 70
     1
102
RTVSPropertyOp14
 70
     1
102
RTVSPropertyOp15
 70
     1
102
RTVSPropertyOp16
 70
     1
102
RTVSPropertyOp17
 70
     1
102
RTVSPropertyOp18
 70
     1
102
RTVSPropertyOp19
 70
     1
102
RTVSPropertyOp20
 70
     1
102
RTVSPropertyOp21
 70
     1
102
RTVSPropertyOp22
 70
     1
102
RTVSPropertyOp23
 70
     1
102
RTVSPropertyOp24
 70
     1
102
RTVSPropertyOp25
 70
     1
102
RTVSPropertyOp26
 70
     1
102
RTVSPropertyOp27
 70
     1
102
RTVSPropertyOp28
 70
     1
102
RTVSPropertyOp29
 70
     1
102
RTVSPropertyOp30
 70
     1
102
RTVSPropertyOp31
 70
     1
102
RTVSPropertyOp32
 70
     1
  0
XRECORD
  5
E6C
102
{ACAD_REACTORS
330
E6B
102
}
330
E6B
100
AcDbXrecord
280
     1
102
RTVSPropertyOp0
 70
     1
102
RTVSPropertyOp1
 70
     1
102
RTVSPropertyOp2
 70
     1
102
RTVSPropertyOp3
 70
     1
102
RTVSPropertyOp4
 70
     1
102
RTVSPropertyOp5
 70
     1
102
RTVSPropertyOp6
 70
     1
102
RTVSPropertyOp7
 70
     1
102
RTVSPropertyOp8
 70
     1
102
RTVSPropertyOp9
 70
     1
102
RTVSPropertyOp10
 70
     1
102
RTVSPropertyOp11
 70
     1
102
RTVSPropertyOp12
 70
     1
102
RTVSPropertyOp13
 70
     1
102
RTVSPropertyOp14
 70
     1
102
RTVSPropertyOp15
 70
     1
102
RTVSPropertyOp16
 70
     1
102
RTVSPropertyOp17
 70
     1
102
RTVSPropertyOp18
 70
     1
102
RTVSPropertyOp19
 70
     1
102
RTVSPropertyOp20
 70
     1
102
RTVSPropertyOp21
 70
     1
102
RTVSPropertyOp22
 70
     1
102
RTVSPropertyOp23
 70
     1
102
RTVSPropertyOp24
 70
     1
102
RTVSPropertyOp25
 70
     1
102
RTVSPropertyOp26
 70
     1
102
RTVSPropertyOp27
 70
     1
102
RTVSPropertyOp28
 70
     1
102
RTVSPropertyOp29
 70
     1
102
RTVSPropertyOp30
 70
     1
102
RTVSPropertyOp31
 70
     1
102
RTVSPropertyOp32
 70
     1
  0
XRECORD
  5
E6E
102
{ACAD_REACTORS
330
E6D
102
}
330
E6D
100
AcDbXrecord
280
     1
102
RTVSPropertyOp0
 70
     1
102
RTVSPropertyOp1
 70
     1
102
RTVSPropertyOp2
 70
     1
102
RTVSPropertyOp3
 70
     1
102
RTVSPropertyOp4
 70
     1
102
RTVSPropertyOp5
 70
     1
102
RTVSPropertyOp6
 70
     1
102
RTVSPropertyOp7
 70
     1
102
RTVSPropertyOp8
 70
     1
102
RTVSPropertyOp9
 70
     1
102
RTVSPropertyOp10
 70
     1
102
RTVSPropertyOp11
 70
     1
102
RTVSPropertyOp12
 70
     1
102
RTVSPropertyOp13
 70
     1
102
RTVSPropertyOp14
 70
     1
102
RTVSPropertyOp15
 70
     1
102
RTVSPropertyOp16
 70
     1
102
RTVSPropertyOp17
 70
     1
102
RTVSPropertyOp18
 70
     1
102
RTVSPropertyOp19
 70
     1
102
RTVSPropertyOp20
 70
     1
102
RTVSPropertyOp21
 70
     1
102
RTVSPropertyOp22
 70
     1
102
RTVSPropertyOp23
 70
     1
102
RTVSPropertyOp24
 70
     1
102
RTVSPropertyOp25
 70
     1
102
RTVSPropertyOp26
 70
     1
102
RTVSPropertyOp27
 70
     1
102
RTVSPropertyOp28
 70
     1
102
RTVSPropertyOp29
 70
     1
102
RTVSPropertyOp30
 70
     1
102
RTVSPropertyOp31
 70
     1
102
RTVSPropertyOp32
 70
     1
  0
XRECORD
  5
E76
102
{ACAD_REACTORS
330
E75
102
}
330
E75
100
AcDbXrecord
280
     1
102
RTVSPropertyOp0
 70
     1
102
RTVSPropertyOp1
 70
     1
102
RTVSPropertyOp2
 70
     1
102
RTVSPropertyOp3
 70
     1
102
RTVSPropertyOp4
 70
     1
102
RTVSPropertyOp5
 70
     1
102
RTVSPropertyOp6
 70
     1
102
RTVSPropertyOp7
 70
     1
102
RTVSPropertyOp8
 70
     1
102
RTVSPropertyOp9
 70
     1
102
RTVSPropertyOp10
 70
     1
102
RTVSPropertyOp11
 70
     1
102
RTVSPropertyOp12
 70
     1
102
RTVSPropertyOp13
 70
     1
102
RTVSPropertyOp14
 70
     1
102
RTVSPropertyOp15
 70
     1
102
RTVSPropertyOp16
 70
     1
102
RTVSPropertyOp17
 70
     1
102
RTVSPropertyOp18
 70
     1
102
RTVSPropertyOp19
 70
     1
102
RTVSPropertyOp20
 70
     1
102
RTVSPropertyOp21
 70
     1
102
RTVSPropertyOp22
 70
     1
102
RTVSPropertyOp23
 70
     1
102
RTVSPropertyOp24
 70
     1
102
RTVSPropertyOp25
 70
     1
102
RTVSPropertyOp26
 70
     1
102
RTVSPropertyOp27
 70
     1
102
RTVSPropertyOp28
 70
     1
102
RTVSPropertyOp29
 70
     1
102
RTVSPropertyOp30
 70
     1
102
RTVSPropertyOp31
 70
     1
102
RTVSPropertyOp32
 70
     1
  0
XRECORD
  5
E92
102
{ACAD_REACTORS
330
E91
102
}
330
E91
100
AcDbXrecord
280
     1
102
RTVSPropertyOp0
 70
     0
102
RTVSPropertyOp1
 70
     0
102
RTVSPropertyOp2
 70
     0
102
RTVSPropertyOp3
 70
     0
102
RTVSPropertyOp4
 70
     0
102
RTVSPropertyOp5
 70
     0
102
RTVSPropertyOp6
 70
     0
102
RTVSPropertyOp7
 70
     0
102
RTVSPropertyOp8
 70
     0
102
RTVSPropertyOp9
 70
     0
102
RTVSPropertyOp10
 70
     0
102
RTVSPropertyOp11
 70
     0
102
RTVSPropertyOp12
 70
     0
102
RTVSPropertyOp13
 70
     0
102
RTVSPropertyOp14
 70
     2
102
RTVSPropertyOp15
 70
     0
102
RTVSPropertyOp16
 70
     0
102
RTVSPropertyOp17
 70
     0
102
RTVSPropertyOp18
 70
     0
102
RTVSPropertyOp19
 70
     0
102
RTVSPropertyOp20
 70
     0
102
RTVSPropertyOp21
 70
     0
102
RTVSPropertyOp22
 70
     0
102
RTVSPropertyOp23
 70
     0
102
RTVSPropertyOp24
 70
     0
102
RTVSPropertyOp25
 70
     0
102
RTVSPropertyOp26
 70
     0
102
RTVSPropertyOp27
 70
     0
102
RTVSPropertyOp28
 70
     1
102
RTVSPropertyOp29
 70
     1
102
RTVSPropertyOp30
 70
     1
102
RTVSPropertyOp31
 70
     1
102
RTVSPropertyOp32
 70
     1
  0
XRECORD
  5
E82
102
{ACAD_REACTORS
330
E81
102
}
330
E81
100
AcDbXrecord
280
     1
102
RTVSPropertyOp0
 70
     1
102
RTVSPropertyOp1
 70
     1
102
RTVSPropertyOp2
 70
     1
102
RTVSPropertyOp3
 70
     1
102
RTVSPropertyOp4
 70
     1
102
RTVSPropertyOp5
 70
     1
102
RTVSPropertyOp6
 70
     1
102
RTVSPropertyOp7
 70
     1
102
RTVSPropertyOp8
 70
     1
102
RTVSPropertyOp9
 70
     1
102
RTVSPropertyOp10
 70
     1
102
RTVSPropertyOp11
 70
     1
102
RTVSPropertyOp12
 70
     1
102
RTVSPropertyOp13
 70
     1
102
RTVSPropertyOp14
 70
     1
102
RTVSPropertyOp15
 70
     1
102
RTVSPropertyOp16
 70
     1
102
RTVSPropertyOp17
 70
     1
102
RTVSPropertyOp18
 70
     1
102
RTVSPropertyOp19
 70
     1
102
RTVSPropertyOp20
 70
     1
102
RTVSPropertyOp21
 70
     1
102
RTVSPropertyOp22
 70
     1
102
RTVSPropertyOp23
 70
     1
102
RTVSPropertyOp24
 70
     1
102
RTVSPropertyOp25
 70
     1
102
RTVSPropertyOp26
 70
     1
102
RTVSPropertyOp27
 70
     1
102
RTVSPropertyOp28
 70
     1
102
RTVSPropertyOp29
 70
     1
102
RTVSPropertyOp30
 70
     1
102
RTVSPropertyOp31
 70
     1
102
RTVSPropertyOp32
 70
     1
  0
XRECORD
  5
E94
102
{ACAD_REACTORS
330
E93
102
}
330
E93
100
AcDbXrecord
280
     1
102
RTVSPropertyOp0
 70
     0
102
RTVSPropertyOp1
 70
     0
102
RTVSPropertyOp2
 70
     0
102
RTVSPropertyOp3
 70
     0
102
RTVSPropertyOp4
 70
     0
102
RTVSPropertyOp5
 70
     0
102
RTVSPropertyOp6
 70
     0
102
RTVSPropertyOp7
 70
     0
102
RTVSPropertyOp8
 70
     0
102
RTVSPropertyOp9
 70
     0
102
RTVSPropertyOp10
 70
     0
102
RTVSPropertyOp11
 70
     0
102
RTVSPropertyOp12
 70
     0
102
RTVSPropertyOp13
 70
     0
102
RTVSPropertyOp14
 70
     2
102
RTVSPropertyOp15
 70
     0
102
RTVSPropertyOp16
 70
     0
102
RTVSPropertyOp17
 70
     0
102
RTVSPropertyOp18
 70
     0
102
RTVSPropertyOp19
 70
     0
102
RTVSPropertyOp20
 70
     0
102
RTVSPropertyOp21
 70
     0
102
RTVSPropertyOp22
 70
     0
102
RTVSPropertyOp23
 70
     0
102
RTVSPropertyOp24
 70
     0
102
RTVSPropertyOp25
 70
     0
102
RTVSPropertyOp26
 70
     0
102
RTVSPropertyOp27
 70
     0
102
RTVSPropertyOp28
 70
     1
102
RTVSPropertyOp29
 70
     1
102
RTVSPropertyOp30
 70
     1
102
RTVSPropertyOp31
 70
     1
102
RTVSPropertyOp32
 70
     1
  0
XRECORD
  5
E7A
102
{ACAD_REACTORS
330
E79
102
}
330
E79
100
AcDbXrecord
280
     1
102
RTVSPropertyOp0
 70
     1
102
RTVSPropertyOp1
 70
     1
102
RTVSPropertyOp2
 70
     1
102
RTVSPropertyOp3
 70
     1
102
RTVSPropertyOp4
 70
     1
102
RTVSPropertyOp5
 70
     1
102
RTVSPropertyOp6
 70
     1
102
RTVSPropertyOp7
 70
     1
102
RTVSPropertyOp8
 70
     1
102
RTVSPropertyOp9
 70
     1
102
RTVSPropertyOp10
 70
     1
102
RTVSPropertyOp11
 70
     1
102
RTVSPropertyOp12
 70
     1
102
RTVSPropertyOp13
 70
     1
102
RTVSPropertyOp14
 70
     1
102
RTVSPropertyOp15
 70
     1
102
RTVSPropertyOp16
 70
     1
102
RTVSPropertyOp17
 70
     1
102
RTVSPropertyOp18
 70
     1
102
RTVSPropertyOp19
 70
     1
102
RTVSPropertyOp20
 70
     1
102
RTVSPropertyOp21
 70
     1
102
RTVSPropertyOp22
 70
     1
102
RTVSPropertyOp23
 70
     1
102
RTVSPropertyOp24
 70
     1
102
RTVSPropertyOp25
 70
     1
102
RTVSPropertyOp26
 70
     1
102
RTVSPropertyOp27
 70
     1
102
RTVSPropertyOp28
 70
     1
102
RTVSPropertyOp29
 70
     1
102
RTVSPropertyOp30
 70
     1
102
RTVSPropertyOp31
 70
     1
102
RTVSPropertyOp32
 70
     1
  0
XRECORD
  5
E90
102
{ACAD_REACTORS
330
E8F
102
}
330
E8F
100
AcDbXrecord
280
     1
102
RTVSPropertyOp0
 70
     1
102
RTVSPropertyOp1
 70
     1
102
RTVSPropertyOp2
 70
     1
102
RTVSPropertyOp3
 70
     1
102
RTVSPropertyOp4
 70
     1
102
RTVSPropertyOp5
 70
     1
102
RTVSPropertyOp6
 70
     1
102
RTVSPropertyOp7
 70
     1
102
RTVSPropertyOp8
 70
     1
102
RTVSPropertyOp9
 70
     1
102
RTVSPropertyOp10
 70
     1
102
RTVSPropertyOp11
 70
     1
102
RTVSPropertyOp12
 70
     1
102
RTVSPropertyOp13
 70
     1
102
RTVSPropertyOp14
 70
     1
102
RTVSPropertyOp15
 70
     1
102
RTVSPropertyOp16
 70
     1
102
RTVSPropertyOp17
 70
     1
102
RTVSPropertyOp18
 70
     1
102
RTVSPropertyOp19
 70
     1
102
RTVSPropertyOp20
 70
     1
102
RTVSPropertyOp21
 70
     1
102
RTVSPropertyOp22
 70
     1
102
RTVSPropertyOp23
 70
     1
102
RTVSPropertyOp24
 70
     1
102
RTVSPropertyOp25
 70
     1
102
RTVSPropertyOp26
 70
     1
102
RTVSPropertyOp27
 70
     1
102
RTVSPropertyOp28
 70
     1
102
RTVSPropertyOp29
 70
     1
102
RTVSPropertyOp30
 70
     1
102
RTVSPropertyOp31
 70
     1
102
RTVSPropertyOp32
 70
     1
  0
XRECORD
  5
E8E
102
{ACAD_REACTORS
330
E8D
102
}
330
E8D
100
AcDbXrecord
280
     1
102
RTVSPropertyOp0
 70
     1
102
RTVSPropertyOp1
 70
     1
102
RTVSPropertyOp2
 70
     1
102
RTVSPropertyOp3
 70
     1
102
RTVSPropertyOp4
 70
     1
102
RTVSPropertyOp5
 70
     1
102
RTVSPropertyOp6
 70
     1
102
RTVSPropertyOp7
 70
     1
102
RTVSPropertyOp8
 70
     1
102
RTVSPropertyOp9
 70
     1
102
RTVSPropertyOp10
 70
     1
102
RTVSPropertyOp11
 70
     1
102
RTVSPropertyOp12
 70
     1
102
RTVSPropertyOp13
 70
     1
102
RTVSPropertyOp14
 70
     1
102
RTVSPropertyOp15
 70
     1
102
RTVSPropertyOp16
 70
     1
102
RTVSPropertyOp17
 70
     1
102
RTVSPropertyOp18
 70
     1
102
RTVSPropertyOp19
 70
     1
102
RTVSPropertyOp20
 70
     1
102
RTVSPropertyOp21
 70
     1
102
RTVSPropertyOp22
 70
     1
102
RTVSPropertyOp23
 70
     1
102
RTVSPropertyOp24
 70
     1
102
RTVSPropertyOp25
 70
     1
102
RTVSPropertyOp26
 70
     1
102
RTVSPropertyOp27
 70
     1
102
RTVSPropertyOp28
 70
     1
102
RTVSPropertyOp29
 70
     1
102
RTVSPropertyOp30
 70
     1
102
RTVSPropertyOp31
 70
     1
102
RTVSPropertyOp32
 70
     1
  0
XRECORD
  5
E88
102
{ACAD_REACTORS
330
E87
102
}
330
E87
100
AcDbXrecord
280
     1
102
RTVSPropertyOp0
 70
     1
102
RTVSPropertyOp1
 70
     1
102
RTVSPropertyOp2
 70
     1
102
RTVSPropertyOp3
 70
     1
102
RTVSPropertyOp4
 70
     1
102
RTVSPropertyOp5
 70
     1
102
RTVSPropertyOp6
 70
     1
102
RTVSPropertyOp7
 70
     1
102
RTVSPropertyOp8
 70
     1
102
RTVSPropertyOp9
 70
     1
102
RTVSPropertyOp10
 70
     1
102
RTVSPropertyOp11
 70
     1
102
RTVSPropertyOp12
 70
     1
102
RTVSPropertyOp13
 70
     1
102
RTVSPropertyOp14
 70
     1
102
RTVSPropertyOp15
 70
     1
102
RTVSPropertyOp16
 70
     1
102
RTVSPropertyOp17
 70
     1
102
RTVSPropertyOp18
 70
     1
102
RTVSPropertyOp19
 70
     1
102
RTVSPropertyOp20
 70
     1
102
RTVSPropertyOp21
 70
     1
102
RTVSPropertyOp22
 70
     1
102
RTVSPropertyOp23
 70
     1
102
RTVSPropertyOp24
 70
     1
102
RTVSPropertyOp25
 70
     1
102
RTVSPropertyOp26
 70
     1
102
RTVSPropertyOp27
 70
     1
102
RTVSPropertyOp28
 70
     1
102
RTVSPropertyOp29
 70
     1
102
RTVSPropertyOp30
 70
     1
102
RTVSPropertyOp31
 70
     1
102
RTVSPropertyOp32
 70
     1
  0
XRECORD
  5
E8A
102
{ACAD_REACTORS
330
E89
102
}
330
E89
100
AcDbXrecord
280
     1
102
RTVSPropertyOp0
 70
     1
102
RTVSPropertyOp1
 70
     1
102
RTVSPropertyOp2
 70
     1
102
RTVSPropertyOp3
 70
     1
102
RTVSPropertyOp4
 70
     1
102
RTVSPropertyOp5
 70
     1
102
RTVSPropertyOp6
 70
     1
102
RTVSPropertyOp7
 70
     1
102
RTVSPropertyOp8
 70
     1
102
RTVSPropertyOp9
 70
     1
102
RTVSPropertyOp10
 70
     1
102
RTVSPropertyOp11
 70
     1
102
RTVSPropertyOp12
 70
     1
102
RTVSPropertyOp13
 70
     1
102
RTVSPropertyOp14
 70
     1
102
RTVSPropertyOp15
 70
     1
102
RTVSPropertyOp16
 70
     1
102
RTVSPropertyOp17
 70
     1
102
RTVSPropertyOp18
 70
     1
102
RTVSPropertyOp19
 70
     1
102
RTVSPropertyOp20
 70
     1
102
RTVSPropertyOp21
 70
     1
102
RTVSPropertyOp22
 70
     1
102
RTVSPropertyOp23
 70
     1
102
RTVSPropertyOp24
 70
     1
102
RTVSPropertyOp25
 70
     1
102
RTVSPropertyOp26
 70
     1
102
RTVSPropertyOp27
 70
     1
102
RTVSPropertyOp28
 70
     1
102
RTVSPropertyOp29
 70
     1
102
RTVSPropertyOp30
 70
     1
102
RTVSPropertyOp31
 70
     1
102
RTVSPropertyOp32
 70
     1
  0
XRECORD
  5
E80
102
{ACAD_REACTORS
330
E7F
102
}
330
E7F
100
AcDbXrecord
280
     1
102
RTVSPropertyOp0
 70
     1
102
RTVSPropertyOp1
 70
     1
102
RTVSPropertyOp2
 70
     1
102
RTVSPropertyOp3
 70
     1
102
RTVSPropertyOp4
 70
     1
102
RTVSPropertyOp5
 70
     1
102
RTVSPropertyOp6
 70
     1
102
RTVSPropertyOp7
 70
     1
102
RTVSPropertyOp8
 70
     1
102
RTVSPropertyOp9
 70
     1
102
RTVSPropertyOp10
 70
     1
102
RTVSPropertyOp11
 70
     1
102
RTVSPropertyOp12
 70
     1
102
RTVSPropertyOp13
 70
     1
102
RTVSPropertyOp14
 70
     1
102
RTVSPropertyOp15
 70
     1
102
RTVSPropertyOp16
 70
     1
102
RTVSPropertyOp17
 70
     1
102
RTVSPropertyOp18
 70
     1
102
RTVSPropertyOp19
 70
     1
102
RTVSPropertyOp20
 70
     1
102
RTVSPropertyOp21
 70
     1
102
RTVSPropertyOp22
 70
     1
102
RTVSPropertyOp23
 70
     1
102
RTVSPropertyOp24
 70
     1
102
RTVSPropertyOp25
 70
     1
102
RTVSPropertyOp26
 70
     1
102
RTVSPropertyOp27
 70
     1
102
RTVSPropertyOp28
 70
     1
102
RTVSPropertyOp29
 70
     1
102
RTVSPropertyOp30
 70
     1
102
RTVSPropertyOp31
 70
     1
102
RTVSPropertyOp32
 70
     1
  0
XRECORD
  5
E74
102
{ACAD_REACTORS
330
E73
102
}
330
E73
100
AcDbXrecord
280
     1
102
RTVSPropertyOp0
 70
     1
102
RTVSPropertyOp1
 70
     1
102
RTVSPropertyOp2
 70
     1
102
RTVSPropertyOp3
 70
     1
102
RTVSPropertyOp4
 70
     1
102
RTVSPropertyOp5
 70
     1
102
RTVSPropertyOp6
 70
     1
102
RTVSPropertyOp7
 70
     1
102
RTVSPropertyOp8
 70
     1
102
RTVSPropertyOp9
 70
     1
102
RTVSPropertyOp10
 70
     1
102
RTVSPropertyOp11
 70
     1
102
RTVSPropertyOp12
 70
     1
102
RTVSPropertyOp13
 70
     1
102
RTVSPropertyOp14
 70
     1
102
RTVSPropertyOp15
 70
     1
102
RTVSPropertyOp16
 70
     1
102
RTVSPropertyOp17
 70
     1
102
RTVSPropertyOp18
 70
     1
102
RTVSPropertyOp19
 70
     1
102
RTVSPropertyOp20
 70
     1
102
RTVSPropertyOp21
 70
     1
102
RTVSPropertyOp22
 70
     1
102
RTVSPropertyOp23
 70
     1
102
RTVSPropertyOp24
 70
     1
102
RTVSPropertyOp25
 70
     1
102
RTVSPropertyOp26
 70
     1
102
RTVSPropertyOp27
 70
     1
102
RTVSPropertyOp28
 70
     1
102
RTVSPropertyOp29
 70
     1
102
RTVSPropertyOp30
 70
     1
102
RTVSPropertyOp31
 70
     1
102
RTVSPropertyOp32
 70
     1
  0
XRECORD
  5
E8C
102
{ACAD_REACTORS
330
E8B
102
}
330
E8B
100
AcDbXrecord
280
     1
102
RTVSPropertyOp0
 70
     1
102
RTVSPropertyOp1
 70
     1
102
RTVSPropertyOp2
 70
     1
102
RTVSPropertyOp3
 70
     1
102
RTVSPropertyOp4
 70
     1
102
RTVSPropertyOp5
 70
     1
102
RTVSPropertyOp6
 70
     1
102
RTVSPropertyOp7
 70
     1
102
RTVSPropertyOp8
 70
     1
102
RTVSPropertyOp9
 70
     1
102
RTVSPropertyOp10
 70
     1
102
RTVSPropertyOp11
 70
     1
102
RTVSPropertyOp12
 70
     1
102
RTVSPropertyOp13
 70
     1
102
RTVSPropertyOp14
 70
     1
102
RTVSPropertyOp15
 70
     1
102
RTVSPropertyOp16
 70
     1
102
RTVSPropertyOp17
 70
     1
102
RTVSPropertyOp18
 70
     1
102
RTVSPropertyOp19
 70
     1
102
RTVSPropertyOp20
 70
     1
102
RTVSPropertyOp21
 70
     1
102
RTVSPropertyOp22
 70
     1
102
RTVSPropertyOp23
 70
     1
102
RTVSPropertyOp24
 70
     1
102
RTVSPropertyOp25
 70
     1
102
RTVSPropertyOp26
 70
     1
102
RTVSPropertyOp27
 70
     1
102
RTVSPropertyOp28
 70
     1
102
RTVSPropertyOp29
 70
     1
102
RTVSPropertyOp30
 70
     1
102
RTVSPropertyOp31
 70
     1
102
RTVSPropertyOp32
 70
     1
  0
ENDSEC
  0
EOF
